  0
SECTION
  2
HEADER
  9
$ACADVER
  1
AC1015
  9
$ACADMAINTVER
 70
    20
  9
$DWGCODEPAGE
  3
ANSI_932
  9
$INSBASE
 10
0.0
 20
0.0
 30
0.0
  9
$EXTMIN
 10
-0.0609650634078207
 20
-0.0566965932403036
 30
-0.0015258207003583
  9
$EXTMAX
 10
762.0605703459882
 20
546.1176491537444
 30
0.0000000349246037
  9
$LIMMIN
 10
1700.85588156276
 20
1647.985052086429
  9
$LIMMAX
 10
1997.85588156276
 20
1857.985052086429
  9
$ORTHOMODE
 70
     0
  9
$REGENMODE
 70
     1
  9
$FILLMODE
 70
     1
  9
$QTEXTMODE
 70
     0
  9
$MIRRTEXT
 70
     0
  9
$LTSCALE
 40
1.0
  9
$ATTMODE
 70
     1
  9
$TEXTSIZE
 40
3.2
  9
$TRACEWID
 40
1.0
  9
$TEXTSTYLE
  7
STANDARD
  9
$CLAYER
  8
AM_0
  9
$CELTYPE
  6
ByLayer
  9
$CECOLOR
 62
   256
  9
$CELTSCALE
 40
1.0
  9
$DISPSILH
 70
     0
  9
$DIMSCALE
 40
1.0
  9
$DIMASZ
 40
1.0
  9
$DIMEXO
 40
1.0
  9
$DIMDLI
 40
10.0
  9
$DIMRND
 40
0.0
  9
$DIMDLE
 40
0.0
  9
$DIMEXE
 40
1.0
  9
$DIMTP
 40
0.1
  9
$DIMTM
 40
0.1
  9
$DIMTXT
 40
3.5
  9
$DIMCEN
 40
0.0
  9
$DIMTSZ
 40
0.0
  9
$DIMTOL
 70
     0
  9
$DIMLIM
 70
     0
  9
$DIMTIH
 70
     0
  9
$DIMTOH
 70
     0
  9
$DIMSE1
 70
     0
  9
$DIMSE2
 70
     0
  9
$DIMTAD
 70
     1
  9
$DIMZIN
 70
     8
  9
$DIMBLK
  1

  9
$DIMASO
 70
     1
  9
$DIMSHO
 70
     1
  9
$DIMPOST
  1

  9
$DIMAPOST
  1
"
  9
$DIMALT
 70
     0
  9
$DIMALTD
 70
     2
  9
$DIMALTF
 40
0.0393701
  9
$DIMLFAC
 40
1.0
  9
$DIMTOFL
 70
     1
  9
$DIMTVP
 40
0.0
  9
$DIMTIX
 70
     0
  9
$DIMSOXD
 70
     0
  9
$DIMSAH
 70
     0
  9
$DIMBLK1
  1

  9
$DIMBLK2
  1

  9
$DIMSTYLE
  2
SYS
  9
$DIMCLRD
 70
   256
  9
$DIMCLRE
 70
   256
  9
$DIMCLRT
 70
     7
  9
$DIMTFAC
 40
0.71
  9
$DIMGAP
 40
1.5
  9
$DIMJUST
 70
     0
  9
$DIMSD1
 70
     0
  9
$DIMSD2
 70
     0
  9
$DIMTOLJ
 70
     0
  9
$DIMTZIN
 70
     8
  9
$DIMALTZ
 70
     0
  9
$DIMALTTZ
 70
     0
  9
$DIMUPT
 70
     0
  9
$DIMDEC
 70
     2
  9
$DIMTDEC
 70
     2
  9
$DIMALTU
 70
     2
  9
$DIMALTTD
 70
     2
  9
$DIMTXSTY
  7
STANDARD
  9
$DIMAUNIT
 70
     0
  9
$DIMADEC
 70
     0
  9
$DIMALTRND
 40
0.0
  9
$DIMAZIN
 70
     2
  9
$DIMDSEP
 70
    46
  9
$DIMATFIT
 70
     3
  9
$DIMFRAC
 70
     0
  9
$DIMLDRBLK
  1

  9
$DIMLUNIT
 70
     2
  9
$DIMLWD
 70
    -1
  9
$DIMLWE
 70
    -1
  9
$DIMTMOVE
 70
     0
  9
$LUNITS
 70
     2
  9
$LUPREC
 70
     2
  9
$SKETCHINC
 40
1.0
  9
$FILLETRAD
 40
0.0
  9
$AUNITS
 70
     0
  9
$AUPREC
 70
     0
  9
$MENU
  1
.
  9
$ELEVATION
 40
0.0
  9
$PELEVATION
 40
0.0
  9
$THICKNESS
 40
0.0
  9
$LIMCHECK
 70
     0
  9
$CHAMFERA
 40
0.0
  9
$CHAMFERB
 40
0.0
  9
$CHAMFERC
 40
20.0
  9
$CHAMFERD
 40
0.0
  9
$SKPOLY
 70
     0
  9
$TDCREATE
 40
2456723.609705394
  9
$TDUCREATE
 40
2456723.234705393
  9
$TDUPDATE
 40
2456723.638434780
  9
$TDUUPDATE
 40
2456723.263434780
  9
$TDINDWG
 40
0.0287324653
  9
$TDUSRTIMER
 40
0.0287324653
  9
$USRTIMER
 70
     1
  9
$ANGBASE
 50
0.0
  9
$ANGDIR
 70
     0
  9
$PDMODE
 70
     0
  9
$PDSIZE
 40
-3.0
  9
$PLINEWID
 40
0.0
  9
$SPLFRAME
 70
     0
  9
$SPLINETYPE
 70
     6
  9
$SPLINESEGS
 70
     8
  9
$HANDSEED
  5
BA59
  9
$SURFTAB1
 70
     6
  9
$SURFTAB2
 70
     6
  9
$SURFTYPE
 70
     6
  9
$SURFU
 70
     6
  9
$SURFV
 70
     6
  9
$UCSBASE
  2

  9
$UCSNAME
  2

  9
$UCSORG
 10
0.0
 20
0.0
 30
0.0
  9
$UCSXDIR
 10
1.0
 20
0.0
 30
0.0
  9
$UCSYDIR
 10
0.0
 20
1.0
 30
0.0
  9
$UCSORTHOREF
  2

  9
$UCSORTHOVIEW
 70
     0
  9
$UCSORGTOP
 10
0.0
 20
0.0
 30
0.0
  9
$UCSORGBOTTOM
 10
0.0
 20
0.0
 30
0.0
  9
$UCSORGLEFT
 10
0.0
 20
0.0
 30
0.0
  9
$UCSORGRIGHT
 10
0.0
 20
0.0
 30
0.0
  9
$UCSORGFRONT
 10
0.0
 20
0.0
 30
0.0
  9
$UCSORGBACK
 10
0.0
 20
0.0
 30
0.0
  9
$PUCSBASE
  2

  9
$PUCSNAME
  2

  9
$PUCSORG
 10
0.0
 20
0.0
 30
0.0
  9
$PUCSXDIR
 10
1.0
 20
0.0
 30
0.0
  9
$PUCSYDIR
 10
0.0
 20
1.0
 30
0.0
  9
$PUCSORTHOREF
  2

  9
$PUCSORTHOVIEW
 70
     0
  9
$PUCSORGTOP
 10
0.0
 20
0.0
 30
0.0
  9
$PUCSORGBOTTOM
 10
0.0
 20
0.0
 30
0.0
  9
$PUCSORGLEFT
 10
0.0
 20
0.0
 30
0.0
  9
$PUCSORGRIGHT
 10
0.0
 20
0.0
 30
0.0
  9
$PUCSORGFRONT
 10
0.0
 20
0.0
 30
0.0
  9
$PUCSORGBACK
 10
0.0
 20
0.0
 30
0.0
  9
$USERI1
 70
     0
  9
$USERI2
 70
     0
  9
$USERI3
 70
     0
  9
$USERI4
 70
     0
  9
$USERI5
 70
     0
  9
$USERR1
 40
0.0
  9
$USERR2
 40
0.0
  9
$USERR3
 40
0.0
  9
$USERR4
 40
0.0
  9
$USERR5
 40
0.0
  9
$WORLDVIEW
 70
     1
  9
$SHADEDGE
 70
     3
  9
$SHADEDIF
 70
    70
  9
$TILEMODE
 70
     1
  9
$MAXACTVP
 70
    64
  9
$PINSBASE
 10
0.0
 20
0.0
 30
0.0
  9
$PLIMCHECK
 70
     0
  9
$PEXTMIN
 10
1.000000000000000E+20
 20
1.000000000000000E+20
 30
1.000000000000000E+20
  9
$PEXTMAX
 10
-1.000000000000000E+20
 20
-1.000000000000000E+20
 30
-1.000000000000000E+20
  9
$PLIMMIN
 10
-3.17498779296875
 20
-3.174999952316284
  9
$PLIMMAX
 10
293.4970092773438
 20
206.692492723465
  9
$UNITMODE
 70
     0
  9
$VISRETAIN
 70
     1
  9
$PLINEGEN
 70
     0
  9
$PSLTSCALE
 70
     1
  9
$TREEDEPTH
 70
  3020
  9
$CMLSTYLE
  2
Standard
  9
$CMLJUST
 70
     0
  9
$CMLSCALE
 40
20.0
  9
$PROXYGRAPHICS
 70
     1
  9
$MEASUREMENT
 70
     1
  9
$CELWEIGHT
370
    -1
  9
$ENDCAPS
280
     0
  9
$JOINSTYLE
280
     0
  9
$LWDISPLAY
290
     1
  9
$INSUNITS
 70
     4
  9
$HYPERLINKBASE
  1

  9
$STYLESHEET
  1
monochrome.ctb
  9
$XEDIT
290
     1
  9
$CEPSNTYPE
380
     0
  9
$PSTYLEMODE
290
     1
  9
$FINGERPRINTGUID
  2
{D483417A-0E6B-4BCC-ACC9-856A952200D7}
  9
$VERSIONGUID
  2
{B0BB9697-4CCC-435A-A65E-6F2CA6C21CB9}
  9
$EXTNAMES
290
     1
  9
$PSVPSCALE
 40
0.0
  9
$OLESTARTUP
290
     0
  0
ENDSEC
  0
SECTION
  2
CLASSES
  0
CLASS
  1
ACDBDICTIONARYWDFLT
  2
AcDbDictionaryWithDefault
  3
ObjectDBX Classes
 90
        0
280
     0
281
     0
  0
CLASS
  1
ACDBPLACEHOLDER
  2
AcDbPlaceHolder
  3
ObjectDBX Classes
 90
        0
280
     0
281
     0
  0
CLASS
  1
LAYOUT
  2
AcDbLayout
  3
ObjectDBX Classes
 90
        0
280
     0
281
     0
  0
CLASS
  1
AMGSETTINGSOBJ
  2
AmgSettingsObj
  3
"AcadM|Product Description: AutoCAD Mechanical|Company: Autodesk"
 90
        0
280
     0
281
     0
  0
CLASS
  1
ACME_DOCUMENT
  2
AcMeDbDoc
  3
AcMeServices
 90
        0
280
     0
281
     0
  0
CLASS
  1
ACMESCOPE
  2
AcMeScope
  3
AcMeServices
 90
        0
280
     0
281
     0
  0
CLASS
  1
ACMECOMMANDHISTORY
  2
AcMeCommandHistory
  3
AcMeServices
 90
        0
280
     0
281
     0
  0
CLASS
  1
DICTIONARYVAR
  2
AcDbDictionaryVar
  3
ObjectDBX Classes
 90
        0
280
     0
281
     0
  0
CLASS
  1
ACIMSYSVARMAN
  2
AcImSysVarManager
  3
AcMeServices
 90
        0
280
     0
281
     0
  0
CLASS
  1
ACIMREALSYSVAR
  2
AcImRealSysVar
  3
AcMeServices
 90
        0
280
     0
281
     0
  0
CLASS
  1
ACIMINTSYSVAR
  2
AcImIntSysVar
  3
AcMeServices
 90
        0
280
     0
281
     0
  0
CLASS
  1
ACMEDRAWINGMAN
  2
AcMeDrawingMan
  3
AcMeServices
 90
        0
280
     0
281
     0
  0
CLASS
  1
ACMEVIEW
  2
AcMeView
  3
AcMeServices
 90
        0
280
     0
281
     0
  0
CLASS
  1
ACDBENTITYCACHE
  2
AcMeEntityCache
  3
AcMeServices
 90
        0
280
     0
281
     0
  0
CLASS
  1
GSMANAGER
  2
AcMeGSManager
  3
AcMeServices
 90
        0
280
     0
281
     0
  0
CLASS
  1
AMDTINTERNALREACTOR
  2
AmdtInternalReactor
  3
AcMeServices
 90
        0
280
     0
281
     0
  0
CLASS
  1
ACMESTATEMGR
  2
AcMeStateMgr
  3
AcMeServices
 90
        0
280
     0
281
     0
  0
CLASS
  1
ACGREFMASTER
  2
AcGrefMaster
  3
AcAttribServices
 90
        0
280
     0
281
     0
  0
CLASS
  1
ACME_DATABASE
  2
AcMeDbDatabase
  3
AcMeServices
 90
        0
280
     0
281
     0
  0
CLASS
  1
ACRFINSADJUSTERMGR
  2
AcRfInsAdjusterMgr
  3
AcMeServices
 90
        0
280
     0
281
     0
  0
CLASS
  1
ACGREFACADMASTER
  2
AcGrefacadMaster
  3
AcGrefServices
 90
        0
280
     0
281
     0
  0
CLASS
  1
AMIMASTER
  2
AmiMaster
  3
AmiServices
 90
        0
280
     0
281
     0
  0
CLASS
  1
ACMDATADICTIONARY
  2
AcmDataDictionary
  3
"AcmSymBB|Product Description: AutoCAD Mechanical|Company: Autodesk"
 90
        0
280
     0
281
     0
  0
CLASS
  1
ACMDATAENTRYBLOCK
  2
AcmDataEntryBlock
  3
"AcmSymBB|Product Description: AutoCAD Mechanical|Company: Autodesk"
 90
        0
280
     0
281
     0
  0
CLASS
  1
ACIMSTRSYSVAR
  2
AcImStrSysVar
  3
AcMeServices
 90
        0
280
     0
281
     0
  0
CLASS
  1
ACMSTANDARDISO
  2
AcmStandardISO
  3
"Amdt_StdImp|Product Description: AutoCAD Mechanical|Company: Autodesk"
 90
        0
280
     0
281
     0
  0
CLASS
  1
AMGOBJPROPCFG
  2
AmgObjPropCfg
  3
"AmgLay|Product Description: AutoCAD Mechanical|Company: Autodesk"
 90
        1
280
     0
281
     0
  0
CLASS
  1
AMDTEDGESTANDARDISO
  2
AmdtEdgeStdISO
  3
"Amdt_StdImp|Product Description: AutoCAD Mechanical|Company: Autodesk"
 90
        0
280
     0
281
     0
  0
CLASS
  1
ACMSURFSTANDARDISO
  2
AcmSurfTextStdISO
  3
"Amdt_StdImp|Product Description: AutoCAD Mechanical|Company: Autodesk"
 90
        0
280
     0
281
     0
  0
CLASS
  1
ACMFCFSTANDARDISO
  2
AcmFCFStdISO
  3
"Amdt_StdImp|Product Description: AutoCAD Mechanical|Company: Autodesk"
 90
        0
280
     0
281
     0
  0
CLASS
  1
ACMWELDSTANDARDISO
  2
AcmWeldingStdISO
  3
"Amdt_StdImp|Product Description: AutoCAD Mechanical|Company: Autodesk"
 90
        0
280
     0
281
     0
  0
CLASS
  1
ACMIDSTANDARDISO
  2
AcmIdStdISO
  3
"Amdt_StdImp|Product Description: AutoCAD Mechanical|Company: Autodesk"
 90
        0
280
     0
281
     0
  0
CLASS
  1
ACMDATUMSTANDARDISO
  2
AcmDatumStdISO
  3
"Amdt_StdImp|Product Description: AutoCAD Mechanical|Company: Autodesk"
 90
        0
280
     0
281
     0
  0
CLASS
  1
ACMBOMSTANDARDISO
  2
AcmBOMStdISO
  3
"Amdt_StdImp|Product Description: AutoCAD Mechanical|Company: Autodesk"
 90
        0
280
     0
281
     0
  0
CLASS
  1
ACMDETAILSTANDARDISO
  2
AmdtDetailSymStdISO
  3
"Amdt_StdImp|Product Description: AutoCAD Mechanical|Company: Autodesk"
 90
        0
280
     0
281
     0
  0
CLASS
  1
ACMSECTIONSTANDARDISO
  2
AmdtSectionSymStdISO
  3
"Amdt_StdImp|Product Description: AutoCAD Mechanical|Company: Autodesk"
 90
        0
280
     0
281
     0
  0
CLASS
  1
ACMCENTERLINESTANDARDISO
  2
AmdtCenterLineStdISO
  3
"Amdt_StdImp|Product Description: AutoCAD Mechanical|Company: Autodesk"
 90
        0
280
     0
281
     0
  0
CLASS
  1
ACAMGLAYSTD
  2
AcAmgLayStd
  3
"AmgLay|Product Description: AutoCAD Mechanical|Company: Autodesk"
 90
        0
280
     0
281
     0
  0
CLASS
  1
ACAMGDIMSTD
  2
AcAmgDimStd
  3
"AmgDim|Product Description: AutoCAD Mechanical|Company: Autodesk"
 90
        0
280
     0
281
     0
  0
CLASS
  1
ACAMGTITLESTD
  2
AcAmgTitleStd
  3
"AmgTitle|Product Description: AutoCAD Mechanical|Company: Autodesk"
 90
        0
280
     0
281
     0
  0
CLASS
  1
ACAMGFILTERDAT
  2
AcAmgFilterDat
  3
"AcadM|Product Description: AutoCAD Mechanical|Company: Autodesk"
 90
        0
280
     0
281
     0
  0
CLASS
  1
LAYER_INDEX
  2
AcDbLayerIndex
  3
ObjectDBX Classes
 90
    32768
280
     0
281
     0
  0
CLASS
  1
IDBUFFER
  2
AcDbIdBuffer
  3
ObjectDBX Classes
 90
    32768
280
     0
281
     0
  0
CLASS
  1
PLOTSETTINGS
  2
AcDbPlotSettings
  3
ObjectDBX Classes
 90
    32768
280
     0
281
     0
  0
CLASS
  1
AMDTFORMULAUPDATEDISPATCHER
  2
AmdtFormulaUpdateDispatcher
  3
AcMeServices
 90
        0
280
     0
281
     0
  0
CLASS
  1
ACMSTANDARDANSI
  2
AcmStandardANSI
  3
"Amdt_StdImp|Product Description: AutoCAD Mechanical|Company: Autodesk"
 90
        0
280
     0
281
     0
  0
CLASS
  1
ACMSURFSTANDARDANSI
  2
AcmSurfTextStdANSI
  3
"Amdt_StdImp|Product Description: AutoCAD Mechanical|Company: Autodesk"
 90
        0
280
     0
281
     0
  0
CLASS
  1
ACMFCFSTANDARDANSI
  2
AcmFCFStdANSI
  3
"Amdt_StdImp|Product Description: AutoCAD Mechanical|Company: Autodesk"
 90
        0
280
     0
281
     0
  0
CLASS
  1
ACMWELDSTANDARDANSI
  2
AcmWeldingStdANSI
  3
"Amdt_StdImp|Product Description: AutoCAD Mechanical|Company: Autodesk"
 90
        0
280
     0
281
     0
  0
CLASS
  1
ACMIDSTANDARDANSI
  2
AcmIdStdANSI
  3
"Amdt_StdImp|Product Description: AutoCAD Mechanical|Company: Autodesk"
 90
        0
280
     0
281
     0
  0
CLASS
  1
ACMDATUMSTANDARDANSI
  2
AcmDatumStdANSI
  3
"Amdt_StdImp|Product Description: AutoCAD Mechanical|Company: Autodesk"
 90
        0
280
     0
281
     0
  0
CLASS
  1
ACMBOMSTANDARDANSI
  2
AcmBOMStdANSI
  3
"Amdt_StdImp|Product Description: AutoCAD Mechanical|Company: Autodesk"
 90
        0
280
     0
281
     0
  0
CLASS
  1
ACMDETAILSTANDARDANSI
  2
AmdtDetailSymStdANSI
  3
"Amdt_StdImp|Product Description: AutoCAD Mechanical|Company: Autodesk"
 90
        0
280
     0
281
     0
  0
CLASS
  1
ACMSECTIONSTANDARDANSI
  2
AmdtSectionSymStdANSI
  3
"Amdt_StdImp|Product Description: AutoCAD Mechanical|Company: Autodesk"
 90
        0
280
     0
281
     0
  0
CLASS
  1
ACMCENTERLINESTANDARDANSI
  2
AmdtCenterLineStdANSI
  3
"Amdt_StdImp|Product Description: AutoCAD Mechanical|Company: Autodesk"
 90
        0
280
     0
281
     0
  0
CLASS
  1
ACMBOM
  2
AcmBom
  3
"AcmSymBB|Product Description: AutoCAD Mechanical|Company: Autodesk"
 90
        0
280
     0
281
     0
  0
CLASS
  1
ACMDATAENTRYPART
  2
AcmDataEntryPart
  3
"AcmSymBB|Product Description: AutoCAD Mechanical|Company: Autodesk"
 90
    32768
280
     0
281
     0
  0
CLASS
  1
ACMPARTREF
  2
AcmPartRef
  3
"AcmSymBB|Product Description: AutoCAD Mechanical|Company: Autodesk"
 90
    35839
280
     0
281
     1
  0
CLASS
  1
ACDBCIRCARCRES
  2
AcDbCircArcRes
  3
AcGrefServices
 90
    32768
280
     0
281
     0
  0
CLASS
  1
ACMBOMROW
  2
AcmBomRow
  3
"AcmSymBB|Product Description: AutoCAD Mechanical|Company: Autodesk"
 90
    32768
280
     0
281
     0
  0
CLASS
  1
ACMBALLOON
  2
AcmBalloon
  3
"AcmSymBB|Product Description: AutoCAD Mechanical|Company: Autodesk"
 90
    35839
280
     0
281
     1
  0
CLASS
  1
AMDTNOTE
  2
AmdtNote
  3
"AcmSymBB|Product Description: AutoCAD Mechanical|Company: Autodesk"
 90
    35839
280
     0
281
     1
  0
CLASS
  1
STDPART2D
  2
AmgStdPart
  3
"g3vace|Class: AmgStdPart|Product Description: AutoCAD Mechanical|Company: Autodesk"
 90
    35839
280
     0
281
     1
  0
CLASS
  1
ACDBSTDPARTRES_LINE
  2
AcDbStdPartRes_Line
  3
"g3vace|Class: AcDbStdPartRes_Line|Product Description: AutoCAD Mechanical|Company: Autodesk"
 90
    32768
280
     0
281
     0
  0
CLASS
  1
ACMDATAENTRY
  2
AcmDataEntry
  3
"AcmSymBB|Product Description: AutoCAD Mechanical|Company: Autodesk"
 90
        0
280
     0
281
     0
  0
CLASS
  1
ACDBOPPOLYLINERES
  2
AcDbOpPolylineRes
  3
AcGrefServices
 90
    32768
280
     0
281
     0
  0
CLASS
  1
ACMPARTLIST
  2
AcmPartList
  3
"AcmSymBB|Product Description: AutoCAD Mechanical|Company: Autodesk"
 90
    35839
280
     0
281
     1
  0
CLASS
  1
ACDBLINERES
  2
AcDbLineRes
  3
AcGrefServices
 90
    32768
280
     0
281
     0
  0
CLASS
  1
ACRFINSADJ
  2
AcRfInsAdjuster
  3
AcMeServices
 90
    32768
280
     0
281
     0
  0
CLASS
  1
AM_DRAWING_MGR
  2
AcDmDwgMgr
  3
AcMechDwgViewMgmt
 90
        0
280
     0
281
     0
  0
CLASS
  1
AM_DWG_DOCUMENT
  2
AcDmDwgDocument
  3
AcMechDwgViewMgmt
 90
        0
280
     0
281
     0
  0
CLASS
  1
AM_DWG_SHEET
  2
AcDmSheet
  3
AcMechDwgViewMgmt
 90
        0
280
     0
281
     0
  0
CLASS
  1
AM_VIEWDIMPARMAP
  2
AcDmViewDimParMap
  3
AcMechDwgViewMgmt
 90
        0
280
     0
281
     0
  0
CLASS
  1
AM_DWGMGR_NAME
  2
AcDmDwgMgrName
  3
AcMechDwgViewMgmt
 90
        0
280
     0
281
     0
  0
CLASS
  1
AMDTMENUSTATEMGR
  2
AmdtMenuStateMgr
  3
McadcomServices
 90
        0
280
     0
281
     0
  0
CLASS
  1
AMDTMCOMMENUSTATE
  2
AmdtMcomMenuState
  3
McadcomServices
 90
        0
280
     0
281
     0
  0
CLASS
  1
ASAPP
  2
AcAsAppObject
  3
AutoSurfServices
 90
        0
280
     0
281
     0
  0
CLASS
  1
IM_STATIC_MAN
  2
AcImStaticVarManager
  3
AcMeServices
 90
        0
280
     0
281
     0
  0
CLASS
  1
ACIMDBLSTATICVAR
  2
AcImDblStaticVar
  3
AcMeServices
 90
        0
280
     0
281
     0
  0
CLASS
  1
ACIMSTRSTATICVAR
  2
AcImStrStaticVar
  3
AcMeServices
 90
        0
280
     0
281
     0
  0
CLASS
  1
ACIMINTSTATICVAR
  2
AcImIntStaticVar
  3
AcMeServices
 90
        0
280
     0
281
     0
  0
CLASS
  1
ACASGREFMASTER
  2
AcAsGrefMaster
  3
AutoSurfResolverServices
 90
        0
280
     0
281
     0
  0
CLASS
  1
ACADGREFMODULE
  2
AcAdGrefModule
  3
AdGrefServices
 90
        0
280
     0
281
     0
  0
CLASS
  1
AMDTMAPISURFMOUDULE
  2
AmdtMApiSurfModule
  3
MApiSurfServices
 90
        0
280
     0
281
     0
  0
CLASS
  1
MAPIAMMOUDLE
  2
MApiAmModule
  3
MApiAmServices
 90
        0
280
     0
281
     0
  0
CLASS
  1
AMDTADMENUSTATE
  2
AmdtAdMenuState
  3
DesignerServices
 90
        0
280
     0
281
     0
  0
CLASS
  1
ADAPPL
  2
AcAdAppl
  3
DesignerServices
 90
        0
280
     0
281
     0
  0
CLASS
  1
DEPMGR
  2
AcAdDepMgr
  3
DesignerServices
 90
        0
280
     0
281
     0
  0
CLASS
  1
PARAMMGR
  2
AcAdParamMgr
  3
DesignerServices
 90
        0
280
     0
281
     0
  0
CLASS
  1
PARAMSCOPE
  2
AcAdParamScope
  3
DesignerServices
 90
        0
280
     0
281
     0
  0
CLASS
  1
NAMEDAPPL
  2
AcAdNamedAppl
  3
DesignerServices
 90
        0
280
     0
281
     0
  0
CLASS
  1
ADHNTMPLT
  2
AdHoleNoteTemplateMgr
  3
DesignerServices
 90
    32768
280
     0
281
     0
  0
CLASS
  1
AM_HNTEMPLATE_MGR_NAME
  2
AdHoleNoteTemplateMgrName
  3
DesignerServices
 90
    32768
280
     0
281
     0
  0
CLASS
  1
AMDTDMMENUSTATE
  2
AmdtDmMenuState
  3
AcMechDwgViewMgmt
 90
        0
280
     0
281
     0
  0
CLASS
  1
MAPIADMODULE
  2
MApiAdModule
  3
MApiAdServices
 90
        0
280
     0
281
     0
  0
CLASS
  1
AMDTAMMENUSTATE
  2
AmdtAmMenuState
  3
DesignerAssemblies
 90
        0
280
     0
281
     0
  0
CLASS
  1
ACAMPROJECT
  2
AcAmProject
  3
DesignerAssemblies
 90
        0
280
     0
281
     0
  0
CLASS
  1
ACAMGRCOMPDEF
  2
AcAmGrCompDef
  3
DesignerAssemblies
 90
        0
280
     0
281
     0
  0
CLASS
  1
ACCMCONTEXT
  2
AcCmContext
  3
DesignerAssemblies
 90
        0
280
     0
281
     0
  0
CLASS
  1
ACAMCOMPDEF
  2
AcAmCompDef
  3
DesignerAssemblies
 90
        0
280
     0
281
     0
  0
CLASS
  1
ACAMCOMPDEFMGR
  2
AcAmCompDefMgr
  3
DesignerAssemblies
 90
        0
280
     0
281
     0
  0
CLASS
  1
AMCONTEXTMGR
  2
AcAmContextMgr
  3
DesignerAssemblies
 90
        0
280
     0
281
     0
  0
CLASS
  1
ACAMCONTEXTMODELER
  2
AcAmContextModeler
  3
DesignerAssemblies
 90
        0
280
     0
281
     0
  0
CLASS
  1
CATALOGSTATE
  2
AcAmCatalogState
  3
DesignerAssemblies
 90
        0
280
     0
281
     0
  0
CLASS
  1
ACAMGRCOMPDEFSET
  2
AcAmGrCompDefSet
  3
DesignerAssemblies
 90
        0
280
     0
281
     0
  0
CLASS
  1
AMDTBROWSERDBTAB
  2
AmdtBrowserDbTab
  3
McadcomServices
 90
        0
280
     0
281
     0
  0
CLASS
  1
CBROWSERAPPOBJECT
  2
CBrowserAppObject
  3
McadcomServices
 90
        0
280
     0
281
     0
  0
CLASS
  1
DM_PLACEHOLDER
  2
AcDmSelsetPlaceholder
  3
AcMechDwgViewMgmt
 90
        0
280
     0
281
     0
  0
CLASS
  1
ACMPICKOBJ
  2
AcmPickEnt
  3
"AcmSymBB|Product Description: AutoCAD Mechanical|Company: Autodesk"
 90
    32768
280
     0
281
     1
  0
CLASS
  1
ACMNOTESTANDARDISO
  2
AmdtNoteStdISO
  3
"Amdt_StdImp|Product Description: AutoCAD Mechanical|Company: Autodesk"
 90
        0
280
     0
281
     0
  0
CLASS
  1
ACMNOTESTANDARDANSI
  2
AmdtNoteStdANSI
  3
"Amdt_StdImp|Product Description: AutoCAD Mechanical|Company: Autodesk"
 90
        0
280
     0
281
     0
  0
CLASS
  1
ACMTHREADLINESTANDARDISO
  2
AmdtThreadLineStdISO
  3
"Amdt_StdImp|Product Description: AutoCAD Mechanical|Company: Autodesk"
 90
        0
280
     0
281
     0
  0
CLASS
  1
ACMTHREADLINESTANDARDANSI
  2
AmdtThreadLineStdANSI
  3
"Amdt_StdImp|Product Description: AutoCAD Mechanical|Company: Autodesk"
 90
        0
280
     0
281
     0
  0
CLASS
  1
TABLESTYLE
  2
AcDbTableStyle
  3
ObjectDBX Classes
 90
     4095
280
     0
281
     0
  0
CLASS
  1
SORTENTSTABLE
  2
AcDbSortentsTable
  3
ObjectDBX Classes
 90
        0
280
     0
281
     0
  0
CLASS
  1
MATERIAL
  2
AcDbMaterial
  3
ObjectDBX Classes
 90
     1024
280
     0
281
     0
  0
CLASS
  1
VISUALSTYLE
  2
AcDbVisualStyle
  3
ObjectDBX Classes
 90
     4095
280
     0
281
     0
  0
CLASS
  1
ACRFATTGENMGR
  2
AcRfAttGeneralMgr
  3
AcAttribServices
 90
        0
280
     0
281
     0
  0
CLASS
  1
ACRFOBJATTMGR
  2
AcRfObjAttGroupMgr
  3
AcAttribServices
 90
        0
280
     0
281
     0
  0
CLASS
  1
ACRFMCADAPIATTHOLDER
  2
AcRfMCADAPIAttHolder
  3
AcAttribServices
 90
        0
280
     0
281
     0
  0
CLASS
  1
AMDTSYSATTR
  2
AmdtSystemAttribute
  3
AcAttribServices
 90
        0
280
     0
281
     0
  0
CLASS
  1
ACMTAPERSTANDARDISO
  2
AcmTaperStdISO
  3
"Amdt_StdImp|Product Description: AutoCAD Mechanical|Company: Autodesk"
 90
        0
280
     0
281
     0
  0
CLASS
  1
CAMSSTRUCTBTNSTATE
  2
StructBtnState
  3
L"DesignerAssemblies"
 90
        0
280
     0
281
     0
  0
CLASS
  1
DIMASSOC
  2
AcDbDimAssoc
  3
"AcDbDimAssoc|Product Desc:     AcDim ARX App For Dimension|Company:          Autodesk, Inc.|WEB Address:      www.autodesk.com"
 90
    32768
280
     0
281
     0
  0
CLASS
  1
AMDTNOTETEMPLATEDB
  2
AmdtNoteTemplateDB
  3
AMDT_STDIMP_MODULE_NAME
 90
        0
280
     0
281
     0
  0
CLASS
  1
ACMTAPERSTANDARDANSI
  2
AcmTaperStdANSI
  3
"Amdt_StdImp|Product Description: AutoCAD Mechanical|Company: Autodesk"
 90
        0
280
     0
281
     0
  0
CLASS
  1
ACAMGHOLECHARTSTDANSI
  2
AcAmgHoleChartStdANSI
  3
ACMSYMBB_MODULE_NAME
 90
        0
280
     0
281
     0
  0
ENDSEC
  0
SECTION
  2
TABLES
  0
TABLE
  2
VPORT
  5
8
330
0
100
AcDbSymbolTable
 70
     1
  0
VPORT
  5
B0EC
330
8
100
AcDbSymbolTableRecord
100
AcDbViewportTableRecord
  2
*Active
 70
     0
 10
0.0
 20
0.0
 11
1.0
 21
1.0
 12
380.9998026412903
 22
273.0304762802521
 13
0.0
 23
0.0
 14
2.5
 24
2.5
 15
10.0
 25
10.0
 16
0.0
 26
0.0
 36
1.0
 17
0.0
 27
0.0
 37
0.0
 40
550.1952611757969
 41
1.648648648648648
 42
50.0
 43
-1370.695619172058
 44
-1370.695619172058
 50
0.0
 51
0.0
 71
    16
 72
   100
 73
     1
 74
     3
 75
     0
 76
     0
 77
     0
 78
     0
281
     0
 65
     0
110
0.0
120
0.0
130
0.0
111
1.0
121
0.0
131
0.0
112
0.0
122
1.0
132
0.0
 79
     0
146
0.0
  0
ENDTAB
  0
TABLE
  2
LTYPE
  5
5
330
0
100
AcDbSymbolTable
 70
    32
  0
LTYPE
  5
14
330
5
100
AcDbSymbolTableRecord
100
AcDbLinetypeTableRecord
  2
ByBlock
 70
     0
  3

 72
    65
 73
     0
 40
0.0
  0
LTYPE
  5
15
330
5
100
AcDbSymbolTableRecord
100
AcDbLinetypeTableRecord
  2
ByLayer
 70
     0
  3

 72
    65
 73
     0
 40
0.0
  0
LTYPE
  5
16
330
5
100
AcDbSymbolTableRecord
100
AcDbLinetypeTableRecord
  2
Continuous
 70
     0
  3
Solid line
 72
    65
 73
     0
 40
0.0
  0
LTYPE
  5
4F
330
5
100
AcDbSymbolTableRecord
100
AcDbLinetypeTableRecord
  2
AM_ISO02W050
 70
     0
  3
__ __ __ __ __ __ __ __ __ __ __ __ __ __ __
 72
    65
 73
     2
 40
7.5
 49
6.0
 74
     0
 49
-1.5
 74
     0
  0
LTYPE
  5
52
330
5
100
AcDbSymbolTableRecord
100
AcDbLinetypeTableRecord
  2
Amconstr
 70
     0
  3
_______________________
 72
    65
 73
     2
 40
9999.0
 49
9999.0
 74
     0
 49
0.0
 74
     0
  0
LTYPE
  5
64
330
5
100
AcDbSymbolTableRecord
100
AcDbLinetypeTableRecord
  2
ACISOWELD
 70
     0
  3
_ _ _ _ _
 72
    65
 73
     2
 40
2.0
 49
2.0
 74
     0
 49
-1.0
 74
     0
  0
LTYPE
  5
65
330
5
100
AcDbSymbolTableRecord
100
AcDbLinetypeTableRecord
  2
ACISOTGB
 70
     0
  3
__ . . __ . .
 72
    65
 73
     6
 40
9.0
 49
4.0
 74
     0
 49
-1.0
 74
     0
 49
1.0
 74
     0
 49
-1.0
 74
     0
 49
1.0
 74
     0
 49
-1.0
 74
     0
  0
LTYPE
  5
66
330
5
100
AcDbSymbolTableRecord
100
AcDbLinetypeTableRecord
  2
ACISOTGL
 70
     0
  3
_ _ _ _ _
 72
    65
 73
     2
 40
3.0
 49
2.0
 74
     0
 49
-1.0
 74
     0
  0
LTYPE
  5
69
330
5
100
AcDbSymbolTableRecord
100
AcDbLinetypeTableRecord
  2
CENTER
 70
     0
  3
__ . __
 72
    65
 73
     4
 40
7.0
 49
4.0
 74
     0
 49
-1.0
 74
     0
 49
1.0
 74
     0
 49
-1.0
 74
     0
  0
LTYPE
  5
A6E
330
5
100
AcDbSymbolTableRecord
100
AcDbLinetypeTableRecord
  2
PHANTOM2
 70
     0
  3
Phantom (.5x) ___ _ _ ___ _ _ ___ _ _ ___ _ _
 72
    65
 73
     6
 40
31.75
 49
15.875
 74
     0
 49
-3.174999999999999
 74
     0
 49
3.174999999999999
 74
     0
 49
-3.174999999999999
 74
     0
 49
3.174999999999999
 74
     0
 49
-3.174999999999999
 74
     0
  0
LTYPE
  5
4DED
330
5
100
AcDbSymbolTableRecord
100
AcDbLinetypeTableRecord
  2
中線
 70
     0
  3
___________________
 72
    65
 73
     2
 40
2.0
 49
1.0
 74
     0
 49
1.0
 74
     0
  0
LTYPE
  5
4DF6
330
5
100
AcDbSymbolTableRecord
100
AcDbLinetypeTableRecord
  2
細線
 70
     0
  3
___________________
 72
    65
 73
     2
 40
2.0
 49
1.0
 74
     0
 49
1.0
 74
     0
  0
LTYPE
  5
4DF7
330
5
100
AcDbSymbolTableRecord
100
AcDbLinetypeTableRecord
  2
太線
 70
     0
  3
___________________
 72
    65
 73
     2
 40
2.0
 49
1.0
 74
     0
 49
1.0
 74
     0
  0
LTYPE
  5
4EA7
330
5
100
AcDbSymbolTableRecord
100
AcDbLinetypeTableRecord
  2
文字
 70
     0
  3
_________________
 72
    65
 73
     2
 40
2.0
 49
1.0
 74
     0
 49
1.0
 74
     0
  0
LTYPE
  5
4EA9
330
5
100
AcDbSymbolTableRecord
100
AcDbLinetypeTableRecord
  2
寸法線
 70
     0
  3
________________
 72
    65
 73
     2
 40
2.0
 49
1.0
 74
     0
 49
1.0
 74
     0
  0
LTYPE
  5
4F12
330
5
100
AcDbSymbolTableRecord
100
AcDbLinetypeTableRecord
  2
ハッチング
 70
     0
  3
_________________
 72
    65
 73
     2
 40
2.0
 49
1.0
 74
     0
 49
1.0
 74
     0
  0
LTYPE
  5
5180
330
5
100
AcDbSymbolTableRecord
100
AcDbLinetypeTableRecord
  2
陰線1
 70
     0
  3
__ __ __ __
 72
    65
 73
     2
 40
4.0
 49
2.2
 74
     0
 49
-1.8
 74
     0
  0
LTYPE
  5
5182
330
5
100
AcDbSymbolTableRecord
100
AcDbLinetypeTableRecord
  2
切断線
 70
     0
  3
/\/-/\/-/\/-/\/-/\/-/\/
 72
    65
 73
     2
 40
11.0001
 49
0.0001
 74
     4
 75
   135
340
56
 46
0.04
 50
0.0
 44
0.0
 45
0.0
 49
-11.0
 74
     0
  0
LTYPE
  5
5183
330
5
100
AcDbSymbolTableRecord
100
AcDbLinetypeTableRecord
  2
想像線1
 70
     0
  3
__ __ __ _____ __ __ ____
 72
    65
 73
     6
 40
14.5
 49
6.0
 74
     0
 49
-1.5
 74
     0
 49
2.0
 74
     0
 49
-1.5
 74
     0
 49
2.0
 74
     0
 49
-1.5
 74
     0
  0
LTYPE
  5
5185
330
5
100
AcDbSymbolTableRecord
100
AcDbLinetypeTableRecord
  2
中心線1
 70
     0
  3
___ _ ___ _ ___
 72
    65
 73
     4
 40
18.0
 49
12.0
 74
     0
 49
-2.0
 74
     0
 49
2.0
 74
     0
 49
-2.0
 74
     0
  0
LTYPE
  5
5188
330
5
100
AcDbSymbolTableRecord
100
AcDbLinetypeTableRecord
  2
補助線
 70
     0
  3
______________
 72
    65
 73
     2
 40
2.0
 49
1.0
 74
     0
 49
1.0
 74
     0
  0
LTYPE
  5
6427
330
5
100
AcDbSymbolTableRecord
100
AcDbLinetypeTableRecord
  2
HIDDEN
 70
     0
  3
Hidden __ __ __ __ __ __ __ __ __ __ __ __ __ _
 72
    65
 73
     2
 40
0.375
 49
0.25
 74
     0
 49
-0.125
 74
     0
  0
LTYPE
  5
AC81
330
5
100
AcDbSymbolTableRecord
100
AcDbLinetypeTableRecord
  2
破断線
 70
     0
  3
/\/-/\/-/\/-/\/-/\/-/\/
 72
    65
 73
     2
 40
0.4401
 49
0.0001
 74
     4
 75
   136
340
AC80
 46
0.0016
 50
0.0
 44
0.0
 45
0.0
 49
-0.4400000000000001
 74
     0
  0
LTYPE
  5
AC9E
330
5
100
AcDbSymbolTableRecord
100
AcDbLinetypeTableRecord
  2
Amzigzag
 70
     0
  3
/\/-/\/-/\/-/\/-/\/-/\/
 72
    65
 73
     2
 40
11.0001
 49
0.0001
 74
     4
 75
   135
340
56
 46
0.04
 50
0.0
 44
0.0
 45
0.0
 49
-11.0
 74
     0
  0
LTYPE
  5
AF0F
330
5
100
AcDbSymbolTableRecord
100
AcDbLinetypeTableRecord
  2
genzigzag
 70
     0
  3
/\/-/\/-/\/-/\/-/\/-/\/
 72
    65
 73
     2
 40
12.0001
 49
0.0001
 74
     4
 75
   135
340
AC80
 46
2.0
 50
0.0
 44
0.0
 45
0.0
 49
-12.0
 74
     0
  0
LTYPE
  5
AF95
330
5
100
AcDbSymbolTableRecord
100
AcDbLinetypeTableRecord
  2
AM_ISO08W050
 70
     0
  3
____ . ____ . ____ . ____ . ____ . ____ . ____
 72
    65
 73
     4
 40
18.0
 49
12.0
 74
     0
 49
-1.5
 74
     0
 49
3.0
 74
     0
 49
-1.5
 74
     0
  0
LTYPE
  5
AF96
330
5
100
AcDbSymbolTableRecord
100
AcDbLinetypeTableRecord
  2
AM_ISO09W050
 70
     0
  3
_____ . . _____ . . _____ . . ____ .. ____
 72
    65
 73
     6
 40
22.5
 49
12.0
 74
     0
 49
-1.5
 74
     0
 49
3.0
 74
     0
 49
-1.5
 74
     0
 49
3.0
 74
     0
 49
-1.5
 74
     0
  0
LTYPE
  5
AF97
330
5
100
AcDbSymbolTableRecord
100
AcDbLinetypeTableRecord
  2
AM_ISO08W050x2
 70
     0
  3
__ . __ . __ . __ . __ . __
 72
    65
 73
     4
 40
9.0
 49
6.0
 74
     0
 49
-0.75
 74
     0
 49
1.5
 74
     0
 49
-0.75
 74
     0
  0
LTYPE
  5
AF98
330
5
100
AcDbSymbolTableRecord
100
AcDbLinetypeTableRecord
  2
AM_ISO02W050x2
 70
     0
  3
 _ _ _ _ _ _ _ _ _ _ _ _
 72
    65
 73
     2
 40
3.75
 49
3.0
 74
     0
 49
-0.75
 74
     0
  0
LTYPE
  5
B564
330
5
100
AcDbSymbolTableRecord
100
AcDbLinetypeTableRecord
  2
CENTER2
 70
     0
  3
Center (.5x) ___ _ ___ _ ___ _ ___ _ ___ _ ___
 72
    65
 73
     4
 40
1.125
 49
0.75
 74
     0
 49
-0.125
 74
     0
 49
0.125
 74
     0
 49
-0.125
 74
     0
  0
LTYPE
  5
B565
330
5
100
AcDbSymbolTableRecord
100
AcDbLinetypeTableRecord
  2
HIDDEN2
 70
     0
  3
Hidden (.5x) _ _ _ _ _ _ _ _ _ _ _ _ _ _ _ _ _
 72
    65
 73
     2
 40
0.1875
 49
0.125
 74
     0
 49
-0.0625
 74
     0
  0
LTYPE
  5
B566
330
5
100
AcDbSymbolTableRecord
100
AcDbLinetypeTableRecord
  2
Amzigzag2
 70
     0
  3
/\/-/\/-/\/-/\/-/\/-/\/
 72
    65
 73
     2
 40
0.4401
 49
0.0001
 74
     4
 75
   136
340
AC80
 46
0.0016
 50
0.0
 44
0.0
 45
0.0
 49
-0.4400000000000001
 74
     0
  0
LTYPE
  5
B567
330
5
100
AcDbSymbolTableRecord
100
AcDbLinetypeTableRecord
  2
ACANSTGB
 70
     0
  3
__ . . __ . .
 72
    65
 73
     6
 40
0.35433070866
 49
0.15748031496
 74
     0
 49
-0.03937007874
 74
     0
 49
0.03937007874
 74
     0
 49
-0.03937007874
 74
     0
 49
0.03937007874
 74
     0
 49
-0.03937007874
 74
     0
  0
LTYPE
  5
B568
330
5
100
AcDbSymbolTableRecord
100
AcDbLinetypeTableRecord
  2
ACANSTGL
 70
     0
  3
_ _ _ _ _
 72
    65
 73
     2
 40
0.11811023622
 49
0.07874015748
 74
     0
 49
-0.03937007874
 74
     0
  0
ENDTAB
  0
TABLE
  2
LAYER
  5
2
102
{ACAD_XDICTIONARY
360
3F95
102
}
330
0
100
AcDbSymbolTable
 70
    18
  0
LAYER
  5
10
330
2
100
AcDbSymbolTableRecord
100
AcDbLayerTableRecord
  2
0
 70
     0
 62
     7
  6
Continuous
370
    -3
390
F
  0
LAYER
  5
6D1
330
2
100
AcDbSymbolTableRecord
100
AcDbLayerTableRecord
  2
Defpoints
 70
     0
 62
     7
  6
Continuous
290
     0
370
    -3
390
F
  0
LAYER
  5
5F85
330
2
100
AcDbSymbolTableRecord
100
AcDbLayerTableRecord
  2
AM_0
 70
     0
 62
     7
  6
中線
370
    30
390
F
1001
AcAecLayerStandard
1000

1000

  0
LAYER
  5
AC9F
330
2
100
AcDbSymbolTableRecord
100
AcDbLayerTableRecord
  2
size
 70
     0
 62
     5
  6
Continuous
290
     0
370
    25
390
F
  0
LAYER
  5
ACA0
330
2
100
AcDbSymbolTableRecord
100
AcDbLayerTableRecord
  2
waku
 70
     0
 62
     7
  6
Continuous
370
    35
390
F
  0
LAYER
  5
ACA1
330
2
100
AcDbSymbolTableRecord
100
AcDbLayerTableRecord
  2
AM_6
 70
     0
 62
     2
  6
文字
370
    13
390
F
1001
AcAecLayerStandard
1000

1000

  0
LAYER
  5
ACC8
330
2
100
AcDbSymbolTableRecord
100
AcDbLayerTableRecord
  2
hyomoji
 70
     0
 62
     2
  6
Continuous
370
    13
390
F
  0
LAYER
  5
ACC9
330
2
100
AcDbSymbolTableRecord
100
AcDbLayerTableRecord
  2
hyosen1
 70
     0
 62
     1
  6
Continuous
370
    30
390
F
  0
LAYER
  5
ACCA
330
2
100
AcDbSymbolTableRecord
100
AcDbLayerTableRecord
  2
hyosen2
 70
     0
 62
     1
  6
Continuous
370
    13
390
F
  0
LAYER
  5
AD60
330
2
100
AcDbSymbolTableRecord
100
AcDbLayerTableRecord
  2
AM_1
 70
     0
 62
    30
  6
太線
370
    40
390
F
1001
AcAecLayerStandard
1000

1000

  0
LAYER
  5
AD64
330
2
100
AcDbSymbolTableRecord
100
AcDbLayerTableRecord
  2
AM_2
 70
     0
 62
     1
  6
細線
370
    13
390
F
1001
AcAecLayerStandard
1000

1000

  0
LAYER
  5
AD67
330
2
100
AcDbSymbolTableRecord
100
AcDbLayerTableRecord
  2
AM_3
 70
     0
 62
     6
  6
陰線1
370
    13
390
F
1001
AcAecLayerStandard
1000

1000

  0
LAYER
  5
AD68
330
2
100
AcDbSymbolTableRecord
100
AcDbLayerTableRecord
  2
AM_5
 70
     0
 62
     3
  6
寸法線
370
    13
390
F
1001
AcAecLayerStandard
1000

1000

  0
LAYER
  5
AD69
330
2
100
AcDbSymbolTableRecord
100
AcDbLayerTableRecord
  2
AM_7
 70
     0
 62
     4
  6
中心線1
370
    13
390
F
1001
AcAecLayerStandard
1000

1000

  0
LAYER
  5
AD6A
330
2
100
AcDbSymbolTableRecord
100
AcDbLayerTableRecord
  2
AM_8
 70
     0
 62
     1
  6
ハッチング
370
    13
390
F
1001
AcAecLayerStandard
1000

1000

  0
LAYER
  5
AD6E
330
2
100
AcDbSymbolTableRecord
100
AcDbLayerTableRecord
  2
AM_10
 70
     0
 62
     7
  6
切断線
370
    30
390
F
1001
AcAecLayerStandard
1000

1000

  0
LAYER
  5
AD6F
330
2
100
AcDbSymbolTableRecord
100
AcDbLayerTableRecord
  2
AM_11
 70
     0
 62
     2
  6
想像線1
370
    13
390
F
1001
AcAecLayerStandard
1000

1000

  0
LAYER
  5
B1B6
330
2
100
AcDbSymbolTableRecord
100
AcDbLayerTableRecord
  2
AM_CL
 70
     0
 62
     1
  6
Amconstr
370
    13
390
F
1001
AcAecLayerStandard
1000

1000

  0
ENDTAB
  0
TABLE
  2
STYLE
  5
3
330
0
100
AcDbSymbolTable
 70
    11
  0
STYLE
  5
11
330
3
100
AcDbSymbolTableRecord
100
AcDbTextStyleTableRecord
  2
STANDARD
 70
     0
 40
0.0
 41
0.7
 50
0.0
 71
     0
 42
3.2
  3
romans.shx
  4
extfont.shx
  0
STYLE
  5
56
330
3
100
AcDbSymbolTableRecord
100
AcDbTextStyleTableRecord
  2

 70
     1
 40
0.0
 41
1.0
 50
0.0
 71
     0
 42
2.5
  3
ltypeshp.shx
  4

  0
STYLE
  5
58
330
3
100
AcDbSymbolTableRecord
100
AcDbTextStyleTableRecord
  2
ACISOTS
 70
     0
 40
1.0
 41
1.0
 50
0.0
 71
     0
 42
2.5
  3
isocp.shx
  4
extfont.shx
  0
STYLE
  5
63
330
3
100
AcDbSymbolTableRecord
100
AcDbTextStyleTableRecord
  2
ACISOGDT
 70
     0
 40
0.0
 41
1.0
 50
0.0
 71
     0
 42
2.5
  3
amgdt.shx
  4

  0
STYLE
  5
A74
330
3
100
AcDbSymbolTableRecord
100
AcDbTextStyleTableRecord
  2
DIM
 70
     0
 40
0.0
 41
1.0
 50
0.0
 71
     0
 42
2.5
  3
monotxt.shx
  4
extfont.shx
  0
STYLE
  5
AC80
330
3
100
AcDbSymbolTableRecord
100
AcDbTextStyleTableRecord
  2

 70
     1
 40
0.0
 41
1.0
 50
0.0
 71
     0
 42
3.2
  3
genltshp.shx
  4

  0
STYLE
  5
B569
330
3
100
AcDbSymbolTableRecord
100
AcDbTextStyleTableRecord
  2
ACANSTS
 70
     0
 40
1.0
 41
1.0
 50
0.0
 71
     0
 42
0.2
  3
romans.shx
  4
extfont.shx
  0
STYLE
  5
B56A
330
3
100
AcDbSymbolTableRecord
100
AcDbTextStyleTableRecord
  2
ACANSGDT
 70
     0
 40
0.0
 41
1.0
 50
0.0
 71
     0
 42
0.2
  3
amgdt.shx
  4

  0
ENDTAB
  0
TABLE
  2
VIEW
  5
6
330
0
100
AcDbSymbolTable
 70
     6
  0
VIEW
  5
AE1
330
6
100
AcDbSymbolTableRecord
100
AcDbViewTableRecord
  2
AM_VIEW1
 70
     0
 40
129.7276464542651
 10
1775.10588156276
 20
1793.121228859297
 41
148.5
 11
0.0
 21
0.0
 31
1.0
 12
0.0
 22
0.0
 32
0.0
 42
50.0
 43
-1370.695619172058
 44
-1370.695619172058
 50
0.0
 71
    16
281
     0
 72
     0
  0
VIEW
  5
AE2
330
6
100
AcDbSymbolTableRecord
100
AcDbViewTableRecord
  2
AM_VIEW2
 70
     0
 40
129.7276464542651
 10
1923.60588156276
 20
1793.121228859297
 41
148.5
 11
0.0
 21
0.0
 31
1.0
 12
0.0
 22
0.0
 32
0.0
 42
50.0
 43
-1370.695619172058
 44
-1370.695619172058
 50
0.0
 71
    16
281
     0
 72
     0
  0
VIEW
  5
AE3
330
6
100
AcDbSymbolTableRecord
100
AcDbViewTableRecord
  2
AM_VIEW3
 70
     0
 40
129.7276464542651
 10
1775.10588156276
 20
1712.848875313562
 41
148.5
 11
0.0
 21
0.0
 31
1.0
 12
0.0
 22
0.0
 32
0.0
 42
50.0
 43
-1370.695619172058
 44
-1370.695619172058
 50
0.0
 71
    16
281
     0
 72
     0
  0
VIEW
  5
AE4
330
6
100
AcDbSymbolTableRecord
100
AcDbViewTableRecord
  2
AM_VIEW4
 70
     0
 40
129.7276464542651
 10
1923.60588156276
 20
1712.848875313562
 41
148.5
 11
0.0
 21
0.0
 31
1.0
 12
0.0
 22
0.0
 32
0.0
 42
50.0
 43
-1370.695619172058
 44
-1370.695619172058
 50
0.0
 71
    16
281
     0
 72
     0
  0
VIEW
  5
AE5
330
6
100
AcDbSymbolTableRecord
100
AcDbViewTableRecord
  2
AM_VIEW5
 70
     0
 40
129.7276464542651
 10
1849.35588156276
 20
1752.985052086429
 41
148.5
 11
0.0
 21
0.0
 31
1.0
 12
0.0
 22
0.0
 32
0.0
 42
50.0
 43
-1370.695619172058
 44
-1370.695619172058
 50
0.0
 71
    16
281
     0
 72
     0
  0
VIEW
  5
AE6
330
6
100
AcDbSymbolTableRecord
100
AcDbViewTableRecord
  2
AM_VIEW6
 70
     0
 40
259.4526983556011
 10
1849.35588156276
 20
1752.985052086429
 41
296.99703
 11
0.0
 21
0.0
 31
1.0
 12
0.0
 22
0.0
 32
0.0
 42
50.0
 43
-1370.695619172058
 44
-1370.695619172058
 50
0.0
 71
    16
281
     0
 72
     0
  0
ENDTAB
  0
TABLE
  2
UCS
  5
7
330
0
100
AcDbSymbolTable
 70
     0
  0
ENDTAB
  0
TABLE
  2
APPID
  5
9
330
0
100
AcDbSymbolTable
 70
    55
  0
APPID
  5
12
330
9
100
AcDbSymbolTableRecord
100
AcDbRegAppTableRecord
  2
ACAD
 70
     0
  0
APPID
  5
30
330
9
100
AcDbSymbolTableRecord
100
AcDbRegAppTableRecord
  2
MCAD_NO_VIS
 70
     0
  0
APPID
  5
31
330
9
100
AcDbSymbolTableRecord
100
AcDbRegAppTableRecord
  2
ACAD_TEMP_GRAPHIC
 70
     0
  0
APPID
  5
44
330
9
100
AcDbSymbolTableRecord
100
AcDbRegAppTableRecord
  2
ACATTRIBSERVICES
 70
     0
  0
APPID
  5
7A1
330
9
100
AcDbSymbolTableRecord
100
AcDbRegAppTableRecord
  2
GENIUS_GENDIMSH_14
 70
     0
  0
APPID
  5
A49
330
9
100
AcDbSymbolTableRecord
100
AcDbRegAppTableRecord
  2
GENIUS_GENREC_14
 70
     0
  0
APPID
  5
A4A
330
9
100
AcDbSymbolTableRecord
100
AcDbRegAppTableRecord
  2
GENIUS_GENOBJ-N-REC_13
 70
     0
  0
APPID
  5
A4B
330
9
100
AcDbSymbolTableRecord
100
AcDbRegAppTableRecord
  2
GENIUS_GENODEF_13
 70
     0
  0
APPID
  5
A4C
330
9
100
AcDbSymbolTableRecord
100
AcDbRegAppTableRecord
  2
DCO15
 70
     0
  0
APPID
  5
ADC
330
9
100
AcDbSymbolTableRecord
100
AcDbRegAppTableRecord
  2
GENIUS_GENOLIS_13
 70
     0
  0
APPID
  5
ADD
330
9
100
AcDbSymbolTableRecord
100
AcDbRegAppTableRecord
  2
GENIUS_GENOENT_13
 70
     0
  0
APPID
  5
ADE
330
9
100
AcDbSymbolTableRecord
100
AcDbRegAppTableRecord
  2
GENIUS_GENOBJ-N-TIT_13
 70
     0
  0
APPID
  5
ADF
330
9
100
AcDbSymbolTableRecord
100
AcDbRegAppTableRecord
  2
GENIUS_GENTITLE_13
 70
     0
  0
APPID
  5
AE0
330
9
100
AcDbSymbolTableRecord
100
AcDbRegAppTableRecord
  2
GENIUS_GENOREF_13
 70
     0
  0
APPID
  5
AE7
330
9
100
AcDbSymbolTableRecord
100
AcDbRegAppTableRecord
  2
GENIUS_GENSCREG_15
 70
     0
  0
APPID
  5
AE8
330
9
100
AcDbSymbolTableRecord
100
AcDbRegAppTableRecord
  2
GENIUS_GENOBJ-N-SDF_13
 70
     0
  0
APPID
  5
FAF
330
9
100
AcDbSymbolTableRecord
100
AcDbRegAppTableRecord
  2
GENIUS_GENBLLY_14
 70
     0
  0
APPID
  5
FB0
330
9
100
AcDbSymbolTableRecord
100
AcDbRegAppTableRecord
  2
GENIUS_GENTRA_14
 70
     0
  0
APPID
  5
1285
330
9
100
AcDbSymbolTableRecord
100
AcDbRegAppTableRecord
  2
GENIUS_GENDTOL_13
 70
     0
  0
APPID
  5
142D
330
9
100
AcDbSymbolTableRecord
100
AcDbRegAppTableRecord
  2
GENIUS_GENOBJ-N-CEN_13
 70
     0
  0
APPID
  5
1AB5
330
9
100
AcDbSymbolTableRecord
100
AcDbRegAppTableRecord
  2
GENIUS_GENOBJ-N-CRS_13
 70
     0
  0
APPID
  5
1B36
330
9
100
AcDbSymbolTableRecord
100
AcDbRegAppTableRecord
  2
GENIUS_GENOBJ-N-HTC_13
 70
     0
  0
APPID
  5
1B37
330
9
100
AcDbSymbolTableRecord
100
AcDbRegAppTableRecord
  2
GENIUS_GENHATCH_13
 70
     0
  0
APPID
  5
216D
330
9
100
AcDbSymbolTableRecord
100
AcDbRegAppTableRecord
  2
GENIUS_GENOBJ-N-FIL_13
 70
     0
  0
APPID
  5
2356
330
9
100
AcDbSymbolTableRecord
100
AcDbRegAppTableRecord
  2
GEVID990412420
 70
     0
  0
APPID
  5
2357
330
9
100
AcDbSymbolTableRecord
100
AcDbRegAppTableRecord
  2
GEVDC
 70
     0
  0
APPID
  5
2358
330
9
100
AcDbSymbolTableRecord
100
AcDbRegAppTableRecord
  2
GEVCON
 70
     0
  0
APPID
  5
235B
330
9
100
AcDbSymbolTableRecord
100
AcDbRegAppTableRecord
  2
GEVRADREF
 70
     0
  0
APPID
  5
2360
330
9
100
AcDbSymbolTableRecord
100
AcDbRegAppTableRecord
  2
GENIUS_GENBH_13
 70
     0
  0
APPID
  5
2362
330
9
100
AcDbSymbolTableRecord
100
AcDbRegAppTableRecord
  2
GENIUS_GENOBJ-NBEHI-BHF_13
 70
     0
  0
APPID
  5
2364
330
9
100
AcDbSymbolTableRecord
100
AcDbRegAppTableRecord
  2
GENIUS_GENOBJ-NBEHI-BHB_13
 70
     0
  0
APPID
  5
2379
330
9
100
AcDbSymbolTableRecord
100
AcDbRegAppTableRecord
  2
GENIUS_GENOBJ-F-SCPASSM_13
 70
     0
  0
APPID
  5
3D74
330
9
100
AcDbSymbolTableRecord
100
AcDbRegAppTableRecord
  2
GENIUS_GENDIM_13
 70
     0
  0
APPID
  5
3D76
330
9
100
AcDbSymbolTableRecord
100
AcDbRegAppTableRecord
  2
GENIUS_GE3DTOL_13
 70
     0
  0
APPID
  5
3D9C
330
9
100
AcDbSymbolTableRecord
100
AcDbRegAppTableRecord
  2
AD_DRAW
 70
     0
  0
APPID
  5
3DE8
330
9
100
AcDbSymbolTableRecord
100
AcDbRegAppTableRecord
  2
ASURF_PCURVE_APPNAME
 70
     0
  0
APPID
  5
3DED
330
9
100
AcDbSymbolTableRecord
100
AcDbRegAppTableRecord
  2
AMG_3D2D_5.0
 70
     0
  0
APPID
  5
3E1B
330
9
100
AcDbSymbolTableRecord
100
AcDbRegAppTableRecord
  2
DESIGNERASSEMBLIES
 70
     0
  0
APPID
  5
3E20
330
9
100
AcDbSymbolTableRecord
100
AcDbRegAppTableRecord
  2
ACADM_DIM_EDIT
 70
     0
  0
APPID
  5
3E21
330
9
100
AcDbSymbolTableRecord
100
AcDbRegAppTableRecord
  2
AMDT_DM_ADJ
 70
     0
  0
APPID
  5
4143
330
9
100
AcDbSymbolTableRecord
100
AcDbRegAppTableRecord
  2
GENIUS_GENFIL_13
 70
     0
  0
APPID
  5
4144
330
9
100
AcDbSymbolTableRecord
100
AcDbRegAppTableRecord
  2
GENIUS_GENOBJ-N-CHA_13
 70
     0
  0
APPID
  5
4E17
330
9
100
AcDbSymbolTableRecord
100
AcDbRegAppTableRecord
  2
GEVID1008153417
 70
     0
  0
APPID
  5
4E58
330
9
100
AcDbSymbolTableRecord
100
AcDbRegAppTableRecord
  2
GEVID1008153418
 70
     0
  0
APPID
  5
4E5E
330
9
100
AcDbSymbolTableRecord
100
AcDbRegAppTableRecord
  2
GEVID1008153419
 70
     0
  0
APPID
  5
4E64
330
9
100
AcDbSymbolTableRecord
100
AcDbRegAppTableRecord
  2
GEVID1008153420
 70
     0
  0
APPID
  5
4E75
330
9
100
AcDbSymbolTableRecord
100
AcDbRegAppTableRecord
  2
GEVID1008153421
 70
     0
  0
APPID
  5
4EB7
330
9
100
AcDbSymbolTableRecord
100
AcDbRegAppTableRecord
  2
GENIUS_AMGTXT_16
 70
     0
  0
APPID
  5
7645
330
9
100
AcDbSymbolTableRecord
100
AcDbRegAppTableRecord
  2
GENIUS_GENOBJ-N-DIM_13
 70
     0
  0
APPID
  5
AAD0
330
9
100
AcDbSymbolTableRecord
100
AcDbRegAppTableRecord
  2
ACAD_DSTYLE_DIMARC_LENGTH_SYMBOL
 70
     0
  0
APPID
  5
AAD1
330
9
100
AcDbSymbolTableRecord
100
AcDbRegAppTableRecord
  2
ACAD_DSTYLE_DIMJOGGED_JOGANGLE_SYMBOL
 70
     0
  0
APPID
  5
AAFD
330
9
100
AcDbSymbolTableRecord
100
AcDbRegAppTableRecord
  2
ACAD_PSEXT
 70
     0
  0
APPID
  5
AD61
330
9
100
AcDbSymbolTableRecord
100
AcDbRegAppTableRecord
  2
AcAecLayerStandard
 70
     0
  0
APPID
  5
AEE3
330
9
100
AcDbSymbolTableRecord
100
AcDbRegAppTableRecord
  2
ACAD_EXEMPT_FROM_CAD_STANDARDS
 70
     0
  0
APPID
  5
B1BE
330
9
100
AcDbSymbolTableRecord
100
AcDbRegAppTableRecord
  2
GENIUS_GENCEN_19
 70
     0
  0
ENDTAB
  0
TABLE
  2
DIMSTYLE
  5
A
330
0
100
AcDbSymbolTable
 70
    28
100
AcDbDimStyleTable
 71
     1
340
2515
  0
DIMSTYLE
105
A76
330
A
100
AcDbSymbolTableRecord
100
AcDbDimStyleTableRecord
  2
STANDARD
 70
     0
 41
3.0
 42
1.0
 43
7.0
 44
2.0
 73
     0
 74
     0
 77
     1
140
2.799999999999999
141
0.0
143
0.0394
147
0.7
171
     4
172
     1
173
     1
176
     3
177
     3
178
     2
271
     3
272
     3
273
     8
274
     4
289
     0
340
A74
341
A66
343
A66
344
A66
  0
DIMSTYLE
105
2515
330
A
100
AcDbSymbolTableRecord
100
AcDbDimStyleTableRecord
  2
SYS
 70
     0
  4
"
 41
1.0
 42
1.0
 43
10.0
 44
1.0
 47
0.1
 48
0.1
 73
     0
 74
     0
 77
     1
 78
     8
 79
     2
140
3.5
141
0.0
143
0.0393701
146
0.71
147
1.5
172
     1
176
   256
177
   256
178
     7
271
     2
272
     2
283
     0
284
     8
340
11
371
    -1
372
    -1
1001
ACAD_DSTYLE_DIMJOGGED_JOGANGLE_SYMBOL
1070
   384
1040
0.7853981633974483
1001
ACAD_DSTYLE_DIMARC_LENGTH_SYMBOL
1070
   379
1070
     1
  0
DIMSTYLE
105
2516
330
A
100
AcDbSymbolTableRecord
100
AcDbDimStyleTableRecord
  2
SYS$3
 70
     0
  4
"
 41
2.0
 42
1.0
 43
10.0
 44
1.0
 47
0.1
 48
0.1
 73
     0
 77
     1
 78
     8
 79
     2
140
3.5
141
0.0
143
0.0393701
146
0.71
147
1.5
176
   256
177
   256
178
     2
271
     2
272
     2
283
     0
284
     8
288
     1
340
11
342
A66
371
    -1
372
    -1
1001
ACAD_DSTYLE_DIMJOGGED_JOGANGLE_SYMBOL
1070
   384
1040
0.7853981633974483
1001
ACAD_DSTYLE_DIMARC_LENGTH_SYMBOL
1070
   379
1070
     1
  0
DIMSTYLE
105
2517
330
A
100
AcDbSymbolTableRecord
100
AcDbDimStyleTableRecord
  2
SYS$4
 70
     0
  4
"
 41
2.0
 42
1.0
 43
10.0
 44
1.0
 47
0.1
 48
0.1
 73
     0
 77
     1
 78
     8
 79
     2
140
3.5
141
0.0
143
0.0393701
146
0.71
147
1.5
173
     1
176
   256
177
   256
178
     2
271
     2
272
     2
283
     0
284
     8
288
     1
340
11
344
A66
371
    -1
372
    -1
1001
ACAD_DSTYLE_DIMJOGGED_JOGANGLE_SYMBOL
1070
   384
1040
0.7853981633974483
1001
ACAD_DSTYLE_DIMARC_LENGTH_SYMBOL
1070
   379
1070
     1
  0
DIMSTYLE
105
2518
330
A
100
AcDbSymbolTableRecord
100
AcDbDimStyleTableRecord
  2
SYS$6
 70
     0
  4
"
 41
2.0
 42
1.0
 43
10.0
 44
1.0
 47
0.1
 48
0.1
 73
     0
 74
     0
 78
     8
 79
     2
140
3.5
141
0.0
143
0.0393701
146
0.71
147
1.5
172
     1
176
   256
177
   256
178
     2
271
     2
272
     2
283
     0
284
     8
340
11
341
A66
371
    -1
372
    -1
1001
ACAD_DSTYLE_DIMJOGGED_JOGANGLE_SYMBOL
1070
   384
1040
0.7853981633974483
1001
ACAD_DSTYLE_DIMARC_LENGTH_SYMBOL
1070
   379
1070
     1
  0
DIMSTYLE
105
2519
330
A
100
AcDbSymbolTableRecord
100
AcDbDimStyleTableRecord
  2
SYS$7
 70
     0
  4
"
 41
2.0
 42
1.0
 43
10.0
 44
1.0
 47
0.1
 48
0.1
 73
     0
 74
     0
 77
     1
 78
     8
 79
     2
140
5.0
141
0.0
143
0.0393701
146
0.71
147
1.5
172
     1
176
   256
177
   256
178
     2
271
     2
272
     2
283
     0
284
     8
340
11
341
A66
342
A66
371
    -1
372
    -1
1001
ACAD_DSTYLE_DIMJOGGED_JOGANGLE_SYMBOL
1070
   384
1040
0.7853981633974483
1001
ACAD_DSTYLE_DIMARC_LENGTH_SYMBOL
1070
   379
1070
     1
  0
DIMSTYLE
105
251A
330
A
100
AcDbSymbolTableRecord
100
AcDbDimStyleTableRecord
  2
SYS$SF
 70
     0
  4
"
 41
2.5
 42
1.0
 43
10.0
 44
1.0
 47
0.1
 48
0.1
 73
     0
 74
     0
 75
     1
 76
     1
 77
     1
 78
     8
 79
     2
140
3.5
141
0.0
143
0.0393701
146
0.71
147
1.5
172
     1
176
   256
177
   256
178
     2
271
     2
272
     3
283
     0
284
     8
340
11
341
6C4
342
6C4
371
    -1
372
    -1
1001
ACAD_DSTYLE_DIMJOGGED_JOGANGLE_SYMBOL
1070
   384
1040
0.7853981633974483
1001
ACAD_DSTYLE_DIMARC_LENGTH_SYMBOL
1070
   379
1070
     1
  0
DIMSTYLE
105
251B
330
A
100
AcDbSymbolTableRecord
100
AcDbDimStyleTableRecord
  2
SYS$SH
 70
     0
  4
"
 41
2.5
 42
1.0
 43
10.0
 44
1.0
 47
0.1
 48
0.1
 73
     0
 74
     0
 75
     1
 76
     1
 77
     1
 78
     8
 79
     2
140
3.5
141
0.0
143
0.0393701
144
2.0
146
0.71
147
1.5
172
     1
173
     1
176
   256
177
   256
178
     2
271
     2
272
     3
283
     0
284
     8
340
11
341
6C4
343
72
344
6C4
371
    -1
372
    -1
1001
ACAD_DSTYLE_DIMJOGGED_JOGANGLE_SYMBOL
1070
   384
1040
0.7853981633974483
1001
ACAD_DSTYLE_DIMARC_LENGTH_SYMBOL
1070
   379
1070
     1
  0
DIMSTYLE
105
2A59
330
A
100
AcDbSymbolTableRecord
100
AcDbDimStyleTableRecord
  2
SYS$2
 70
     0
  4
"
 41
1.0
 42
1.0
 43
10.0
 44
1.0
 47
0.1
 48
0.1
 73
     0
 74
     0
 77
     1
 78
     8
 79
     2
140
3.5
141
0.0
143
0.0393701
146
0.71
147
1.5
172
     1
176
   256
177
   256
178
     2
271
     2
272
     2
283
     0
284
     8
340
11
342
6C4
371
    -1
372
    -1
1001
ACAD_DSTYLE_DIMJOGGED_JOGANGLE_SYMBOL
1070
   384
1040
0.7853981633974483
1001
ACAD_DSTYLE_DIMARC_LENGTH_SYMBOL
1070
   379
1070
     1
  0
DIMSTYLE
105
2AAB
102
{ACAD_REACTORS
330
B66A
330
B692
330
B6B1
330
B9D9
102
}
330
A
100
AcDbSymbolTableRecord
100
AcDbDimStyleTableRecord
  2
SYS$0
 70
     0
  4
"
 41
1.0
 42
1.0
 43
10.0
 44
1.0
 47
0.1
 48
0.1
 73
     0
 74
     0
 77
     1
 78
     8
 79
     2
140
3.200000000000001
141
0.0
143
0.0393701
146
0.71
147
1.5
172
     1
176
   256
177
   256
178
     2
271
     2
272
     2
283
     0
284
     8
340
11
341
A66
342
6C4
371
    -1
372
    -1
1001
ACAD_DSTYLE_DIMJOGGED_JOGANGLE_SYMBOL
1070
   384
1040
0.7853981633974483
1001
ACAD_DSTYLE_DIMARC_LENGTH_SYMBOL
1070
   379
1070
     1
  0
DIMSTYLE
105
AF99
330
A
100
AcDbSymbolTableRecord
100
AcDbDimStyleTableRecord
  2
AM_ISO
 70
     0
  4
"
 41
2.5
 42
1.0
 43
10.0
 44
1.0
 47
0.1
 48
0.1
 73
     0
 74
     0
 77
     1
 78
     8
 79
     2
140
3.5
141
0.0
143
0.0393701
146
0.71
147
1.5
172
     1
176
   256
177
   256
178
     2
271
     2
272
     3
274
     4
283
     0
284
     8
340
11
371
    -1
372
    -1
  0
DIMSTYLE
105
AF9A
330
A
100
AcDbSymbolTableRecord
100
AcDbDimStyleTableRecord
  2
AM_ISO$3
 70
     0
  4
"
 41
2.5
 42
1.0
 43
10.0
 44
1.0
 47
0.1
 48
0.1
 73
     0
 77
     1
 78
     8
 79
     2
140
3.5
141
0.0
143
0.0393701
146
0.71
147
1.5
176
   256
177
   256
178
     2
271
     2
272
     3
274
     4
283
     0
284
     8
288
     1
289
     0
340
11
371
    -1
372
    -1
  0
DIMSTYLE
105
AF9B
330
A
100
AcDbSymbolTableRecord
100
AcDbDimStyleTableRecord
  2
AM_ISO$4
 70
     0
  4
"
 41
2.5
 42
1.0
 43
10.0
 44
1.0
 47
0.1
 48
0.1
 73
     0
 77
     1
 78
     8
 79
     2
140
3.5
141
0.0
143
0.0393701
146
0.71
147
1.5
176
   256
177
   256
178
     2
271
     2
272
     3
274
     4
283
     0
284
     8
288
     1
289
     0
340
11
371
    -1
372
    -1
  0
DIMSTYLE
105
AF9C
330
A
100
AcDbSymbolTableRecord
100
AcDbDimStyleTableRecord
  2
AM_ISO$6
 70
     0
  4
"
 41
2.5
 42
1.0
 43
10.0
 44
1.0
 47
0.1
 48
0.1
 73
     0
 74
     0
 78
     8
 79
     2
140
3.5
141
0.0
143
0.0393701
146
0.71
147
1.5
172
     1
176
   256
177
   256
178
     2
271
     2
272
     3
274
     4
283
     0
284
     8
340
11
371
    -1
372
    -1
  0
DIMSTYLE
105
AF9D
330
A
100
AcDbSymbolTableRecord
100
AcDbDimStyleTableRecord
  2
AM_ISO$7
 70
     0
  4
"
 41
2.5
 42
1.0
 43
10.0
 44
1.0
 47
0.1
 48
0.1
 73
     0
 74
     0
 77
     1
 78
     8
 79
     2
140
5.0
141
0.0
143
0.0393701
146
0.71
147
1.5
172
     1
176
   256
177
   256
178
     2
271
     2
272
     3
274
     4
283
     0
284
     8
340
11
371
    -1
372
    -1
  0
DIMSTYLE
105
AF9E
330
A
100
AcDbSymbolTableRecord
100
AcDbDimStyleTableRecord
  2
AM_ISO$SF
 70
     0
  4
"
 41
2.5
 42
1.0
 43
10.0
 44
1.0
 47
0.1
 48
0.1
 73
     0
 74
     0
 75
     1
 76
     1
 77
     1
 78
     8
 79
     2
140
3.5
141
0.0
143
0.0393701
146
0.71
147
1.5
172
     1
176
   256
177
   256
178
     2
271
     2
272
     3
274
     4
283
     0
284
     8
340
11
371
    -1
372
    -1
  0
DIMSTYLE
105
AF9F
330
A
100
AcDbSymbolTableRecord
100
AcDbDimStyleTableRecord
  2
AM_ISO$SH
 70
     0
  4
"
 41
2.5
 42
1.0
 43
10.0
 44
1.0
 47
0.1
 48
0.1
 73
     0
 74
     0
 75
     1
 76
     1
 77
     1
 78
     8
 79
     2
140
3.5
141
0.0
143
0.0393701
144
2.0
146
0.71
147
1.5
172
     1
173
     1
176
   256
177
   256
178
     2
271
     2
272
     3
274
     4
283
     0
284
     8
340
11
343
72
371
    -1
372
    -1
  0
DIMSTYLE
105
B56B
102
{ACAD_REACTORS
330
B5C2
330
B5C3
330
B5C4
102
}
330
A
100
AcDbSymbolTableRecord
100
AcDbDimStyleTableRecord
  2
DIMSTYLE
 70
     0
 41
1.0
 42
2.54
 44
2.54
 73
     0
 74
     0
140
3.2
147
1.6
173
     1
279
     2
340
11
  0
DIMSTYLE
105
B56C
330
A
100
AcDbSymbolTableRecord
100
AcDbDimStyleTableRecord
  2
AM_ANSI
 70
     0
  4
mm
 41
0.1
 42
0.05
 43
0.5
 44
0.1
 47
0.1
 48
0.1
 78
     7
 79
     2
140
0.12
141
0.0
146
0.71
147
0.06
176
   256
177
   256
178
     2
274
     4
284
     7
340
11
371
    -1
372
    -1
1001
ACAD_DSTYLE_DIMARC_LENGTH_SYMBOL
1070
   379
1070
     1
  0
DIMSTYLE
105
B56D
330
A
100
AcDbSymbolTableRecord
100
AcDbDimStyleTableRecord
  2
AM_ANSI$3
 70
     0
  4
mm
 41
0.1
 42
0.05
 43
0.5
 44
0.1
 47
0.1
 48
0.1
 78
     7
 79
     2
140
0.12
141
0.0
146
0.71
147
0.06
176
   256
177
   256
178
     2
274
     4
284
     7
288
     1
289
     0
340
11
371
    -1
372
    -1
1001
ACAD_DSTYLE_DIMARC_LENGTH_SYMBOL
1070
   379
1070
     1
  0
DIMSTYLE
105
B56E
330
A
100
AcDbSymbolTableRecord
100
AcDbDimStyleTableRecord
  2
AM_ANSI$4
 70
     0
  4
mm
 41
0.1
 42
0.05
 43
0.5
 44
0.1
 47
0.1
 48
0.1
 78
     7
 79
     2
140
0.12
141
0.0
146
0.71
147
0.06
176
   256
177
   256
178
     2
274
     4
284
     7
288
     1
289
     0
340
11
371
    -1
372
    -1
1001
ACAD_DSTYLE_DIMARC_LENGTH_SYMBOL
1070
   379
1070
     1
  0
DIMSTYLE
105
B56F
330
A
100
AcDbSymbolTableRecord
100
AcDbDimStyleTableRecord
  2
AM_ANSI$7
 70
     0
  4
mm
 41
0.1
 42
0.05
 43
0.5
 44
0.1
 47
0.1
 48
0.1
 78
     7
 79
     2
140
0.24
141
0.0
146
0.71
147
0.06
176
   256
177
   256
178
     2
274
     4
284
     7
340
11
371
    -1
372
    -1
1001
ACAD_DSTYLE_DIMARC_LENGTH_SYMBOL
1070
   379
1070
     1
  0
DIMSTYLE
105
B570
330
A
100
AcDbSymbolTableRecord
100
AcDbDimStyleTableRecord
  2
AM_ANSI$SF
 70
     0
  4
mm
 41
0.1
 42
0.05
 43
0.5
 44
0.1
 47
0.1
 48
0.1
 75
     1
 76
     1
 78
     7
 79
     2
140
0.12
141
0.0
146
0.71
147
0.06
176
   256
177
   256
178
     2
274
     4
284
     7
340
11
371
    -1
372
    -1
1001
ACAD_DSTYLE_DIMARC_LENGTH_SYMBOL
1070
   379
1070
     1
  0
DIMSTYLE
105
B571
330
A
100
AcDbSymbolTableRecord
100
AcDbDimStyleTableRecord
  2
AM_ANSI$SH
 70
     0
  4
mm
 41
0.1
 42
0.05
 43
0.5
 44
0.1
 47
0.1
 48
0.1
 75
     1
 76
     1
 78
     7
 79
     2
140
0.12
141
0.0
146
0.71
147
0.06
173
     1
176
   256
177
   256
178
     2
274
     4
284
     7
340
11
343
72
371
    -1
372
    -1
1001
ACAD_DSTYLE_DIMARC_LENGTH_SYMBOL
1070
   379
1070
     1
  0
DIMSTYLE
105
B9D0
330
A
100
AcDbSymbolTableRecord
100
AcDbDimStyleTableRecord
  2
DIMSTYLE$0
 70
     0
 41
1.0
 42
2.54
 44
2.54
 73
     0
 74
     0
140
3.2
147
1.6
173
     1
279
     2
340
11
  0
ENDTAB
  0
TABLE
  2
BLOCK_RECORD
  5
1
330
0
100
AcDbSymbolTable
 70
    40
  0
BLOCK_RECORD
  5
1F
102
{ACAD_XDICTIONARY
360
8A
102
}
330
1
100
AcDbSymbolTableRecord
100
AcDbBlockTableRecord
  2
*Model_Space
340
22
  0
BLOCK_RECORD
  5
1B
330
1
100
AcDbSymbolTableRecord
100
AcDbBlockTableRecord
  2
*Paper_Space
340
1E
  0
BLOCK_RECORD
  5
23
330
1
100
AcDbSymbolTableRecord
100
AcDbBlockTableRecord
  2
*Paper_Space0
340
26
  0
BLOCK_RECORD
  5
72
330
1
100
AcDbSymbolTableRecord
100
AcDbBlockTableRecord
  2
GENAXEH
340
0
  0
BLOCK_RECORD
  5
6C4
330
1
100
AcDbSymbolTableRecord
100
AcDbBlockTableRecord
  2
_Dot
340
0
102
{BLKREFS
331
B546
331
B547
331
B550
331
B551
331
B55C
331
B55D
331
B791
331
B792
331
B7F0
331
B7F1
331
B81B
331
B81C
331
B831
331
B832
331
B847
331
B848
331
B850
331
B851
331
B863
331
B864
331
B880
331
B881
331
B92F
331
B930
331
B981
331
B982
331
B98A
331
B98B
331
B993
331
B994
331
B99C
331
B99D
331
B9AC
331
B9AD
331
B9B5
331
B9B6
331
B9BE
331
B9BF
331
B9C9
331
B9CA
331
BA0D
331
BA0E
331
BA16
331
BA17
331
BA20
331
BA21
331
BA29
331
BA2A
102
}
  0
BLOCK_RECORD
  5
A66
330
1
100
AcDbSymbolTableRecord
100
AcDbBlockTableRecord
  2
_OPEN30
340
0
102
{BLKREFS
331
B7BD
331
B811
331
B9A5
102
}
  0
BLOCK_RECORD
  5
B542
330
1
100
AcDbSymbolTableRecord
100
AcDbBlockTableRecord
  2
*D5
340
0
  0
BLOCK_RECORD
  5
B54D
330
1
100
AcDbSymbolTableRecord
100
AcDbBlockTableRecord
  2
*D6
340
0
  0
BLOCK_RECORD
  5
B559
330
1
100
AcDbSymbolTableRecord
100
AcDbBlockTableRecord
  2
*D7
340
0
  0
BLOCK_RECORD
  5
B631
330
1
100
AcDbSymbolTableRecord
100
AcDbBlockTableRecord
  2
*D9
340
0
  0
BLOCK_RECORD
  5
B63B
330
1
100
AcDbSymbolTableRecord
100
AcDbBlockTableRecord
  2
*D10
340
0
  0
BLOCK_RECORD
  5
B647
330
1
100
AcDbSymbolTableRecord
100
AcDbBlockTableRecord
  2
*D11
340
0
  0
BLOCK_RECORD
  5
B66B
330
1
100
AcDbSymbolTableRecord
100
AcDbBlockTableRecord
  2
*D12
340
0
  0
BLOCK_RECORD
  5
B693
330
1
100
AcDbSymbolTableRecord
100
AcDbBlockTableRecord
  2
*D13
340
0
  0
BLOCK_RECORD
  5
B6B2
330
1
100
AcDbSymbolTableRecord
100
AcDbBlockTableRecord
  2
*D14
340
0
  0
BLOCK_RECORD
  5
B74D
330
1
100
AcDbSymbolTableRecord
100
AcDbBlockTableRecord
  2
*D15
340
0
  0
BLOCK_RECORD
  5
B782
330
1
100
AcDbSymbolTableRecord
100
AcDbBlockTableRecord
  2
*D16
340
0
  0
BLOCK_RECORD
  5
B798
330
1
100
AcDbSymbolTableRecord
100
AcDbBlockTableRecord
  2
*D17
340
0
  0
BLOCK_RECORD
  5
B7AE
330
1
100
AcDbSymbolTableRecord
100
AcDbBlockTableRecord
  2
*D18
340
0
  0
BLOCK_RECORD
  5
B7C1
330
1
100
AcDbSymbolTableRecord
100
AcDbBlockTableRecord
  2
*D19
340
0
  0
BLOCK_RECORD
  5
B7E1
330
1
100
AcDbSymbolTableRecord
100
AcDbBlockTableRecord
  2
*D20
340
0
  0
BLOCK_RECORD
  5
B7FB
330
1
100
AcDbSymbolTableRecord
100
AcDbBlockTableRecord
  2
*D21
340
0
  0
BLOCK_RECORD
  5
B822
330
1
100
AcDbSymbolTableRecord
100
AcDbBlockTableRecord
  2
*D22
340
0
  0
BLOCK_RECORD
  5
B838
330
1
100
AcDbSymbolTableRecord
100
AcDbBlockTableRecord
  2
*D23
340
0
  0
BLOCK_RECORD
  5
B86D
330
1
100
AcDbSymbolTableRecord
100
AcDbBlockTableRecord
  2
*D25
340
0
  0
BLOCK_RECORD
  5
B8AB
330
1
100
AcDbSymbolTableRecord
100
AcDbBlockTableRecord
  2
*D27
340
0
  0
BLOCK_RECORD
  5
B8B7
330
1
100
AcDbSymbolTableRecord
100
AcDbBlockTableRecord
  2
*D28
340
0
  0
BLOCK_RECORD
  5
B8C3
330
1
100
AcDbSymbolTableRecord
100
AcDbBlockTableRecord
  2
*D29
340
0
  0
BLOCK_RECORD
  5
B8CF
330
1
100
AcDbSymbolTableRecord
100
AcDbBlockTableRecord
  2
*D30
340
0
  0
BLOCK_RECORD
  5
B8DB
330
1
100
AcDbSymbolTableRecord
100
AcDbBlockTableRecord
  2
*D31
340
0
  0
BLOCK_RECORD
  5
B8E7
330
1
100
AcDbSymbolTableRecord
100
AcDbBlockTableRecord
  2
*D32
340
0
  0
BLOCK_RECORD
  5
B8F0
330
1
100
AcDbSymbolTableRecord
100
AcDbBlockTableRecord
  2
*D33
340
0
  0
BLOCK_RECORD
  5
B8FD
330
1
100
AcDbSymbolTableRecord
100
AcDbBlockTableRecord
  2
*D34
340
0
  0
BLOCK_RECORD
  5
B909
330
1
100
AcDbSymbolTableRecord
100
AcDbBlockTableRecord
  2
*D35
340
0
  0
BLOCK_RECORD
  5
B915
330
1
100
AcDbSymbolTableRecord
100
AcDbBlockTableRecord
  2
*D36
340
0
  0
BLOCK_RECORD
  5
B9DA
330
1
100
AcDbSymbolTableRecord
100
AcDbBlockTableRecord
  2
*D38
340
0
  0
ENDTAB
  0
ENDSEC
  0
SECTION
  2
BLOCKS
  0
BLOCK
  5
20
330
1F
100
AcDbEntity
  8
0
100
AcDbBlockBegin
  2
*Model_Space
 70
     0
 10
0.0
 20
0.0
 30
0.0
  3
*Model_Space
  1

  0
ENDBLK
  5
21
330
1F
100
AcDbEntity
  8
0
100
AcDbBlockEnd
  0
BLOCK
  5
1C
330
1B
100
AcDbEntity
 67
     1
  8
0
100
AcDbBlockBegin
  2
*Paper_Space
 70
     0
 10
0.0
 20
0.0
 30
0.0
  3
*Paper_Space
  1

  0
ENDBLK
  5
1D
330
1B
100
AcDbEntity
 67
     1
  8
0
100
AcDbBlockEnd
  0
BLOCK
  5
24
330
23
100
AcDbEntity
 67
     1
  8
0
100
AcDbBlockBegin
  2
*Paper_Space0
 70
     0
 10
0.0
 20
0.0
 30
0.0
  3
*Paper_Space0
  1

  0
ENDBLK
  5
25
330
23
100
AcDbEntity
 67
     1
  8
0
100
AcDbBlockEnd
  0
BLOCK
  5
74
330
72
100
AcDbEntity
  8
0
100
AcDbBlockBegin
  2
GENAXEH
 70
     0
 10
0.0
 20
0.0
 30
0.0
  3
GENAXEH
  1

  0
LINE
  5
73
330
72
100
AcDbEntity
  8
0
100
AcDbLine
 10
-1.0
 20
0.0
 30
0.0
 11
1.0
 21
0.0
 31
0.0
  0
ENDBLK
  5
75
330
72
100
AcDbEntity
  8
0
100
AcDbBlockEnd
  0
BLOCK
  5
6C7
330
6C4
100
AcDbEntity
  8
0
100
AcDbBlockBegin
  2
_Dot
 70
     0
 10
0.0
 20
0.0
 30
0.0
  3
_Dot
  1

  0
LWPOLYLINE
  5
6C5
330
6C4
100
AcDbEntity
  8
0
  6
ByBlock
 62
     0
100
AcDbPolyline
 90
        2
 70
     1
 43
0.5
 10
-0.25
 20
0.0
 42
1.0
 10
0.25
 20
0.0
 42
1.0
  0
LINE
  5
6C6
330
6C4
100
AcDbEntity
  8
0
  6
ByBlock
 62
     0
370
    -2
100
AcDbLine
 10
-0.5
 20
0.0
 30
0.0
 11
-1.0
 21
0.0
 31
0.0
  0
ENDBLK
  5
6C8
330
6C4
100
AcDbEntity
  8
0
100
AcDbBlockEnd
  0
BLOCK
  5
A6A
330
A66
100
AcDbEntity
  8
0
100
AcDbBlockBegin
  2
_OPEN30
 70
     0
 10
0.0
 20
0.0
 30
0.0
  3
_OPEN30
  1

  0
LINE
  5
A67
330
A66
100
AcDbEntity
  8
0
  6
ByBlock
 62
     0
100
AcDbLine
 10
-1.0
 20
0.26794919
 30
0.0
 11
0.0
 21
0.0
 31
0.0
  0
LINE
  5
A68
330
A66
100
AcDbEntity
  8
0
  6
ByBlock
 62
     0
100
AcDbLine
 10
0.0
 20
0.0
 30
0.0
 11
-1.0
 21
-0.26794919
 31
0.0
  0
LINE
  5
A69
330
A66
100
AcDbEntity
  8
0
  6
ByBlock
 62
     0
100
AcDbLine
 10
0.0
 20
0.0
 30
0.0
 11
-1.0
 21
0.0
 31
0.0
  0
ENDBLK
  5
A6B
330
A66
100
AcDbEntity
  8
0
100
AcDbBlockEnd
  0
BLOCK
  5
B543
330
B542
100
AcDbEntity
  8
0
100
AcDbBlockBegin
  2
*D5
 70
     1
 10
0.0
 20
0.0
 30
0.0
  3
*D5
  1

  0
LINE
  5
B544
330
B542
100
AcDbEntity
  8
0
  6
Continuous
 62
     7
100
AcDbLine
 10
-4.0539145
 20
54.65004
 30
0.0
 11
3.370191099999999
 21
54.65004
 31
0.0
  0
LINE
  5
B545
330
B542
100
AcDbEntity
  8
0
  6
Continuous
 62
     7
100
AcDbLine
 10
-12.053916
 20
54.65004
 30
0.0
 11
-4.0539145
 21
54.65004
 31
0.0
  0
INSERT
  5
B546
330
B542
100
AcDbEntity
  8
0
  6
Continuous
 62
     7
100
AcDbBlockReference
  2
_Dot
 10
-12.053916
 20
54.65004
 30
0.0
 50
180.0
  0
INSERT
  5
B547
330
B542
100
AcDbEntity
  8
0
  6
Continuous
 62
     7
100
AcDbBlockReference
  2
_Dot
 10
-4.0539145
 20
54.65004
 30
0.0
  0
TEXT
  5
B548
330
B542
100
AcDbEntity
  8
0
  6
Continuous
 62
     7
100
AcDbText
 10
-3.144308999999998
 20
55.45004
 30
0.0
 40
3.2
  1
%%C16
 41
1.075709999999999
100
AcDbText
  0
POINT
  5
B549
330
B542
100
AcDbEntity
  8
Defpoints
  6
Continuous
 62
     7
100
AcDbPoint
 10
-12.053916
 20
72.09371899999998
 30
0.0
  0
POINT
  5
B54A
330
B542
100
AcDbEntity
  8
Defpoints
  6
Continuous
 62
     7
100
AcDbPoint
 10
-4.0539145
 20
72.09371899999998
 30
0.0
  0
POINT
  5
B54B
330
B542
100
AcDbEntity
  8
Defpoints
  6
Continuous
 62
     7
100
AcDbPoint
 10
-4.0539145
 20
54.65004
 30
0.0
  0
ENDBLK
  5
B54C
330
B542
100
AcDbEntity
  8
0
100
AcDbBlockEnd
  0
BLOCK
  5
B54E
330
B54D
100
AcDbEntity
  8
0
100
AcDbBlockBegin
  2
*D6
 70
     1
 10
0.0
 20
0.0
 30
0.0
  3
*D6
  1

  0
LINE
  5
B54F
330
B54D
100
AcDbEntity
  8
0
  6
Continuous
 62
     7
100
AcDbLine
 10
-33.05391699999999
 20
145.09372
 30
0.0
 11
-33.05391699999999
 21
127.0937199999999
 31
0.0
  0
INSERT
  5
B550
330
B54D
100
AcDbEntity
  8
0
  6
Continuous
 62
     7
100
AcDbBlockReference
  2
_Dot
 10
-33.05391699999999
 20
145.09372
 30
0.0
 50
90.0
  0
INSERT
  5
B551
330
B54D
100
AcDbEntity
  8
0
  6
Continuous
 62
     7
100
AcDbBlockReference
  2
_Dot
 10
-33.05391699999999
 20
127.0937199999999
 30
0.0
 50
270.0
  0
LINE
  5
B552
330
B54D
100
AcDbEntity
  8
0
  6
Continuous
 62
     7
100
AcDbLine
 10
-18.093915
 20
145.09372
 30
0.0
 11
-34.253914
 21
145.09372
 31
0.0
  0
LINE
  5
B553
330
B54D
100
AcDbEntity
  8
0
  6
Continuous
 62
     7
100
AcDbLine
 10
-14.593916
 20
127.0937199999999
 30
0.0
 11
-34.253914
 21
127.0937199999999
 31
0.0
  0
TEXT
  5
B554
330
B54D
100
AcDbEntity
  8
0
  6
Continuous
 62
     7
100
AcDbText
 10
-33.85391699999999
 20
133.3507199999999
 30
0.0
 40
3.2
  1
36
 50
90.00000300000001
 41
1.028624999999999
100
AcDbText
  0
POINT
  5
B555
330
B54D
100
AcDbEntity
  8
Defpoints
  6
Continuous
 62
     7
100
AcDbPoint
 10
-15.55391499999998
 20
145.09372
 30
0.0
  0
POINT
  5
B556
330
B54D
100
AcDbEntity
  8
Defpoints
  6
Continuous
 62
     7
100
AcDbPoint
 10
-12.053916
 20
127.0937199999999
 30
0.0
  0
POINT
  5
B557
330
B54D
100
AcDbEntity
  8
Defpoints
  6
Continuous
 62
     7
100
AcDbPoint
 10
-33.05391699999999
 20
127.0937199999999
 30
0.0
  0
ENDBLK
  5
B558
330
B54D
100
AcDbEntity
  8
0
100
AcDbBlockEnd
  0
BLOCK
  5
B55A
330
B559
100
AcDbEntity
  8
0
100
AcDbBlockBegin
  2
*D7
 70
     1
 10
0.0
 20
0.0
 30
0.0
  3
*D7
  1

  0
LINE
  5
B55B
330
B559
100
AcDbEntity
  8
0
  6
Continuous
 62
     7
100
AcDbLine
 10
-33.05391699999999
 20
-72.90628100000001
 30
0.0
 11
-33.05391699999999
 21
127.0937199999999
 31
0.0
  0
INSERT
  5
B55C
330
B559
100
AcDbEntity
  8
0
  6
Continuous
 62
     7
100
AcDbBlockReference
  2
_Dot
 10
-33.05391699999999
 20
-72.90628100000001
 30
0.0
 50
270.0
  0
INSERT
  5
B55D
330
B559
100
AcDbEntity
  8
0
  6
Continuous
 62
     7
100
AcDbBlockReference
  2
_Dot
 10
-33.05391699999999
 20
127.0937199999999
 30
0.0
 50
90.0
  0
LINE
  5
B55E
330
B559
100
AcDbEntity
  8
0
  6
Continuous
 62
     7
100
AcDbLine
 10
-14.593916
 20
-72.90628100000001
 30
0.0
 11
-34.253914
 21
-72.90628100000001
 31
0.0
  0
TEXT
  5
B55F
330
B559
100
AcDbEntity
  8
0
  6
Continuous
 62
     7
100
AcDbText
 10
-33.85391699999999
 20
25.95072099999999
 30
0.0
 40
3.2
  1
L
 50
90.00000300000001
100
AcDbText
  0
POINT
  5
B560
330
B559
100
AcDbEntity
  8
Defpoints
  6
Continuous
 62
     7
100
AcDbPoint
 10
-12.053916
 20
-72.90628100000001
 30
0.0
  0
POINT
  5
B561
330
B559
100
AcDbEntity
  8
Defpoints
  6
Continuous
 62
     7
100
AcDbPoint
 10
-12.053916
 20
127.0937199999999
 30
0.0
  0
POINT
  5
B562
330
B559
100
AcDbEntity
  8
Defpoints
  6
Continuous
 62
     7
100
AcDbPoint
 10
-33.05391699999999
 20
127.0937199999999
 30
0.0
  0
ENDBLK
  5
B563
330
B559
100
AcDbEntity
  8
0
100
AcDbBlockEnd
  0
BLOCK
  5
B639
330
B631
100
AcDbEntity
  8
0
100
AcDbBlockBegin
  2
*D9
 70
     1
 10
0.0
 20
0.0
 30
0.0
  3
*D9
  1

  0
LINE
  5
B652
330
B631
100
AcDbEntity
  8
0
  6
Continuous
 62
     0
370
    -2
100
AcDbLine
 10
199.9460840079903
 20
154.6500402848403
 30
0.0
 11
205.9460855079902
 21
154.6500402848403
 31
0.0
  0
MTEXT
  5
B653
330
B631
100
AcDbEntity
  8
0
  6
Continuous
 62
     0
100
AcDbMText
 10
202.9460847579902
 20
144.9100402848403
 30
0.0
 40
3.2
 41
0.0
 71
     5
 72
     1
  1
\A1;8.0000
 73
     1
 44
1.0
1001
ACAD
1000
MTEXTBEGIN
1070
    73
1070
     1
1070
    44
1040
1.0
1070
    74
1070
     0
1000
MTEXTEND
  0
SOLID
  5
B654
330
B631
100
AcDbEntity
  8
0
  6
Continuous
 62
     0
100
AcDbTrace
 10
199.9460840079903
 20
154.8167069515069
 30
0.0
 11
199.9460840079903
 21
154.4833736181736
 31
0.0
 12
198.9460840079902
 22
154.6500402848403
 32
0.0
 13
198.9460840079902
 23
154.6500402848403
 33
0.0
  0
SOLID
  5
B655
330
B631
100
AcDbEntity
  8
0
  6
Continuous
 62
     0
100
AcDbTrace
 10
205.9460855079902
 20
154.8167069515069
 30
0.0
 11
205.9460855079902
 21
154.4833736181736
 31
0.0
 12
206.9460855079903
 22
154.6500402848403
 32
0.0
 13
206.9460855079903
 23
154.6500402848403
 33
0.0
  0
POINT
  5
B656
330
B631
100
AcDbEntity
  8
Defpoints
  6
Continuous
 62
     0
100
AcDbPoint
 10
198.9460840079902
 20
172.0937192848403
 30
0.0
  0
POINT
  5
B657
330
B631
100
AcDbEntity
  8
Defpoints
  6
Continuous
 62
     0
100
AcDbPoint
 10
206.9460855079903
 20
172.0937192848403
 30
0.0
  0
POINT
  5
B658
330
B631
100
AcDbEntity
  8
Defpoints
  6
Continuous
 62
     0
100
AcDbPoint
 10
206.9460855079903
 20
154.6500402848403
 30
0.0
  0
ENDBLK
  5
B63A
330
B631
100
AcDbEntity
  8
0
100
AcDbBlockEnd
  0
BLOCK
  5
B645
330
B63B
100
AcDbEntity
  8
0
100
AcDbBlockBegin
  2
*D10
 70
     1
 10
0.0
 20
0.0
 30
0.0
  3
*D10
  1

  0
LINE
  5
B659
330
B63B
100
AcDbEntity
  8
0
  6
Continuous
 62
     0
370
    -2
100
AcDbLine
 10
192.9060850079902
 20
245.0937202848403
 30
0.0
 11
175.4060830079902
 21
245.0937202848403
 31
0.0
  0
LINE
  5
B65A
330
B63B
100
AcDbEntity
  8
0
  6
Continuous
 62
     0
370
    -2
100
AcDbLine
 10
196.4060840079902
 20
227.0937202848402
 30
0.0
 11
175.4060830079902
 21
227.0937202848402
 31
0.0
  0
LINE
  5
B65B
330
B63B
100
AcDbEntity
  8
0
  6
Continuous
 62
     0
370
    -2
100
AcDbLine
 10
177.9460830079902
 20
244.0937202848403
 30
0.0
 11
177.9460830079902
 21
228.0937202848403
 31
0.0
  0
SOLID
  5
B65C
330
B63B
100
AcDbEntity
  8
0
  6
Continuous
 62
     0
100
AcDbTrace
 10
177.7794163413236
 20
244.0937202848403
 30
0.0
 11
178.1127496746569
 21
244.0937202848403
 31
0.0
 12
177.9460830079902
 22
245.0937202848403
 32
0.0
 13
177.9460830079902
 23
245.0937202848403
 33
0.0
  0
SOLID
  5
B65D
330
B63B
100
AcDbEntity
  8
0
  6
Continuous
 62
     0
100
AcDbTrace
 10
177.7794163413236
 20
228.0937202848403
 30
0.0
 11
178.1127496746569
 21
228.0937202848403
 31
0.0
 12
177.9460830079902
 22
227.0937202848402
 32
0.0
 13
177.9460830079902
 23
227.0937202848402
 33
0.0
  0
MTEXT
  5
B65E
330
B63B
100
AcDbEntity
  8
0
  6
Continuous
 62
     0
100
AcDbMText
 10
174.7460830079902
 20
236.0937202848404
 30
0.0
 40
3.2
 41
0.0
 71
     5
 72
     1
  1
\A1;18.0000
 11
0.0000000000000001
 21
1.0
 31
0.0
 73
     1
 44
1.0
1001
ACAD
1000
MTEXTBEGIN
1070
    73
1070
     1
1070
    44
1040
1.0
1070
    74
1070
     0
1000
MTEXTEND
  0
POINT
  5
B65F
330
B63B
100
AcDbEntity
  8
Defpoints
  6
Continuous
 62
     0
100
AcDbPoint
 10
195.4460850079902
 20
245.0937202848403
 30
0.0
  0
POINT
  5
B660
330
B63B
100
AcDbEntity
  8
Defpoints
  6
Continuous
 62
     0
100
AcDbPoint
 10
198.9460840079902
 20
227.0937202848402
 30
0.0
  0
POINT
  5
B661
330
B63B
100
AcDbEntity
  8
Defpoints
  6
Continuous
 62
     0
100
AcDbPoint
 10
177.9460830079902
 20
227.0937202848402
 30
0.0
  0
ENDBLK
  5
B646
330
B63B
100
AcDbEntity
  8
0
100
AcDbBlockEnd
  0
BLOCK
  5
B650
330
B647
100
AcDbEntity
  8
0
100
AcDbBlockBegin
  2
*D11
 70
     1
 10
0.0
 20
0.0
 30
0.0
  3
*D11
  1

  0
LINE
  5
B662
330
B647
100
AcDbEntity
  8
0
  6
Continuous
 62
     0
370
    -2
100
AcDbLine
 10
196.4060840079902
 20
27.09371928484032
 30
0.0
 11
175.4060830079902
 21
27.09371928484032
 31
0.0
  0
LINE
  5
B663
330
B647
100
AcDbEntity
  8
0
  6
Continuous
 62
     0
370
    -2
100
AcDbLine
 10
177.9460830079902
 20
28.09371928484032
 30
0.0
 11
177.9460830079902
 21
226.0937202848403
 31
0.0
  0
SOLID
  5
B664
330
B647
100
AcDbEntity
  8
0
  6
Continuous
 62
     0
100
AcDbTrace
 10
177.7794163413235
 20
28.09371928484032
 30
0.0
 11
178.1127496746568
 21
28.09371928484032
 31
0.0
 12
177.9460830079902
 22
27.09371928484032
 32
0.0
 13
177.9460830079902
 23
27.09371928484032
 33
0.0
  0
SOLID
  5
B665
330
B647
100
AcDbEntity
  8
0
  6
Continuous
 62
     0
100
AcDbTrace
 10
177.7794163413236
 20
226.0937202848403
 30
0.0
 11
178.1127496746569
 21
226.0937202848403
 31
0.0
 12
177.9460830079902
 22
227.0937202848402
 32
0.0
 13
177.9460830079902
 23
227.0937202848402
 33
0.0
  0
MTEXT
  5
B666
330
B647
100
AcDbEntity
  8
0
  6
Continuous
 62
     0
100
AcDbMText
 10
174.7460830079902
 20
127.0937197848403
 30
0.0
 40
3.2
 41
0.0
 71
     5
 72
     1
  1
\A1;200.0000
 11
0.0000000000000001
 21
1.0
 31
0.0
 73
     1
 44
1.0
1001
ACAD
1000
MTEXTBEGIN
1070
    73
1070
     1
1070
    44
1040
1.0
1070
    74
1070
     0
1000
MTEXTEND
  0
POINT
  5
B667
330
B647
100
AcDbEntity
  8
Defpoints
  6
Continuous
 62
     0
100
AcDbPoint
 10
198.9460840079902
 20
27.09371928484032
 30
0.0
  0
POINT
  5
B668
330
B647
100
AcDbEntity
  8
Defpoints
  6
Continuous
 62
     0
100
AcDbPoint
 10
198.9460840079902
 20
227.0937202848402
 30
0.0
  0
POINT
  5
B669
330
B647
100
AcDbEntity
  8
Defpoints
  6
Continuous
 62
     0
100
AcDbPoint
 10
177.9460830079902
 20
227.0937202848402
 30
0.0
  0
ENDBLK
  5
B651
330
B647
100
AcDbEntity
  8
0
100
AcDbBlockEnd
  0
BLOCK
  5
B675
330
B66B
100
AcDbEntity
  8
0
100
AcDbBlockBegin
  2
*D12
 70
     1
 10
0.0
 20
0.0
 30
0.0
  3
*D12
  1

  0
LINE
  5
BA0A
330
B66B
100
AcDbEntity
  8
AM_5
100
AcDbLine
 10
388.8921700079903
 20
496.5506253993987
 30
0.0
 11
353.8921660079903
 21
496.5506253993988
 31
0.0
  0
LINE
  5
BA0B
330
B66B
100
AcDbEntity
  8
AM_5
100
AcDbLine
 10
395.8921680079903
 20
460.5506253993986
 30
0.0
 11
353.8921660079903
 21
460.5506253993986
 31
0.0
  0
LINE
  5
BA0C
330
B66B
100
AcDbEntity
  8
AM_5
100
AcDbLine
 10
355.8921660079903
 20
494.5506253993987
 30
0.0
 11
355.8921660079903
 21
462.5506253993987
 31
0.0
  0
INSERT
  5
BA0D
330
B66B
100
AcDbEntity
  8
AM_5
100
AcDbBlockReference
  2
_Dot
 10
355.8921660079903
 20
496.5506253993988
 30
0.0
 41
2.0
 42
2.0
 43
2.0
 50
90.0
  0
INSERT
  5
BA0E
330
B66B
100
AcDbEntity
  8
AM_5
100
AcDbBlockReference
  2
_Dot
 10
355.8921660079903
 20
460.5506253993986
 30
0.0
 41
2.0
 42
2.0
 43
2.0
 50
270.0
  0
MTEXT
  5
BA0F
330
B66B
100
AcDbEntity
  8
AM_5
 62
     2
100
AcDbMText
 10
349.6921660079902
 20
478.5506253993987
 30
0.0
 40
6.400000000000002
 41
0.0
 71
     5
 72
     1
  1
36
 11
0.0000000000000001
 21
1.0
 31
0.0
 73
     1
 44
1.0
1001
ACAD
1000
MTEXTBEGIN
1070
    73
1070
     1
1070
    44
1040
1.0
1070
    74
1070
     0
1000
MTEXTEND
  0
POINT
  5
BA10
330
B66B
100
AcDbEntity
  8
Defpoints
 62
     0
100
AcDbPoint
 10
390.8921700079903
 20
496.5506253993987
 30
0.0
  0
POINT
  5
BA11
330
B66B
100
AcDbEntity
  8
Defpoints
 62
     0
100
AcDbPoint
 10
397.8921680079903
 20
460.5506253993986
 30
0.0
  0
POINT
  5
BA12
330
B66B
100
AcDbEntity
  8
Defpoints
 62
     0
100
AcDbPoint
 10
355.8921660079903
 20
460.5506253993986
 30
0.0
  0
ENDBLK
  5
B676
330
B66B
100
AcDbEntity
  8
0
100
AcDbBlockEnd
  0
BLOCK
  5
B69D
330
B693
100
AcDbEntity
  8
0
100
AcDbBlockBegin
  2
*D13
 70
     1
 10
0.0
 20
0.0
 30
0.0
  3
*D13
  1

  0
LINE
  5
BA13
330
B693
100
AcDbEntity
  8
AM_5
100
AcDbLine
 10
395.8921680079903
 20
460.5506253993986
 30
0.0
 11
353.8921660079904
 21
460.5506253993986
 31
0.0
  0
LINE
  5
BA14
330
B693
100
AcDbEntity
  8
AM_5
100
AcDbLine
 10
395.8921680079902
 20
60.55062339939883
 30
0.0
 11
353.8921660079903
 21
60.55062339939883
 31
0.0
  0
LINE
  5
BA15
330
B693
100
AcDbEntity
  8
AM_5
100
AcDbLine
 10
355.8921660079904
 20
458.5506253993987
 30
0.0
 11
355.8921660079903
 21
62.55062339939883
 31
0.0
  0
INSERT
  5
BA16
330
B693
100
AcDbEntity
  8
AM_5
100
AcDbBlockReference
  2
_Dot
 10
355.8921660079904
 20
460.5506253993986
 30
0.0
 41
2.0
 42
2.0
 43
2.0
 50
90.0
  0
INSERT
  5
BA17
330
B693
100
AcDbEntity
  8
AM_5
100
AcDbBlockReference
  2
_Dot
 10
355.8921660079903
 20
60.55062339939883
 30
0.0
 41
2.0
 42
2.0
 43
2.0
 50
270.0
  0
MTEXT
  5
BA18
330
B693
100
AcDbEntity
  8
AM_5
 62
     2
100
AcDbMText
 10
349.6921660079903
 20
260.5506243993988
 30
0.0
 40
6.400000000000002
 41
0.0
 71
     5
 72
     1
  1
L
 11
0.0000000000000001
 21
1.0
 31
0.0
 73
     1
 44
1.0
1001
ACAD
1000
MTEXTBEGIN
1070
    73
1070
     1
1070
    44
1040
1.0
1070
    74
1070
     0
1000
MTEXTEND
  0
POINT
  5
BA19
330
B693
100
AcDbEntity
  8
Defpoints
 62
     0
100
AcDbPoint
 10
397.8921680079903
 20
460.5506253993986
 30
0.0
  0
POINT
  5
BA1A
330
B693
100
AcDbEntity
  8
Defpoints
 62
     0
100
AcDbPoint
 10
397.8921680079902
 20
60.55062339939883
 30
0.0
  0
POINT
  5
BA1B
330
B693
100
AcDbEntity
  8
Defpoints
 62
     0
100
AcDbPoint
 10
355.8921660079903
 20
60.55062339939883
 30
0.0
  0
ENDBLK
  5
B69E
330
B693
100
AcDbEntity
  8
0
100
AcDbBlockEnd
  0
BLOCK
  5
B6BC
330
B6B2
100
AcDbEntity
  8
0
100
AcDbBlockBegin
  2
*D14
 70
     1
 10
0.0
 20
0.0
 30
0.0
  3
*D14
  1

  0
LINE
  5
BA1C
330
B6B2
100
AcDbEntity
  8
AM_5
100
AcDbLine
 10
397.8921680079903
 20
313.3458917580877
 30
0.0
 11
397.8921680079903
 21
324.9802158756936
 31
0.0
  0
LINE
  5
BA1D
330
B6B2
100
AcDbEntity
  8
AM_5
100
AcDbLine
 10
413.8921710079903
 20
313.3458917580877
 30
0.0
 11
413.8921710079903
 21
324.9802158756936
 31
0.0
  0
LINE
  5
BA1E
330
B6B2
100
AcDbEntity
  8
AM_5
100
AcDbLine
 10
411.8921710079902
 20
322.9802158756936
 30
0.0
 11
399.8921680079903
 21
322.9802158756936
 31
0.0
  0
LINE
  5
BA1F
330
B6B2
100
AcDbEntity
  8
AM_5
100
AcDbLine
 10
397.8921680079903
 20
322.9802158756936
 30
0.0
 11
378.5855013413236
 21
322.9802158756936
 31
0.0
  0
INSERT
  5
BA20
330
B6B2
100
AcDbEntity
  8
AM_5
100
AcDbBlockReference
  2
_Dot
 10
413.8921710079903
 20
322.9802158756936
 30
0.0
 41
2.0
 42
2.0
 43
2.0
  0
INSERT
  5
BA21
330
B6B2
100
AcDbEntity
  8
AM_5
100
AcDbBlockReference
  2
_Dot
 10
397.8921680079903
 20
322.9802158756936
 30
0.0
 41
2.0
 42
2.0
 43
2.0
 50
180.0
  0
MTEXT
  5
BA22
330
B6B2
100
AcDbEntity
  8
AM_5
 62
     2
100
AcDbMText
 10
387.2388346746569
 20
329.1802158756936
 30
0.0
 40
6.400000000000002
 41
0.0
 71
     5
 72
     1
  1
%%c16
 73
     1
 44
1.0
1001
ACAD
1000
MTEXTBEGIN
1070
    73
1070
     1
1070
    44
1040
1.0
1070
    74
1070
     0
1000
MTEXTEND
  0
POINT
  5
BA23
330
B6B2
100
AcDbEntity
  8
Defpoints
 62
     0
100
AcDbPoint
 10
397.8921680079903
 20
311.3458917580877
 30
0.0
  0
POINT
  5
BA24
330
B6B2
100
AcDbEntity
  8
Defpoints
 62
     0
100
AcDbPoint
 10
413.8921710079903
 20
311.3458917580877
 30
0.0
  0
POINT
  5
BA25
330
B6B2
100
AcDbEntity
  8
Defpoints
 62
     0
100
AcDbPoint
 10
413.8921710079903
 20
322.9802158756936
 30
0.0
  0
ENDBLK
  5
B6BD
330
B6B2
100
AcDbEntity
  8
0
100
AcDbBlockEnd
  0
BLOCK
  5
B757
330
B74D
100
AcDbEntity
  8
0
100
AcDbBlockBegin
  2
*D15
 70
     1
 10
0.0
 20
0.0
 30
0.0
  3
*D15
  1

  0
LINE
  5
B818
330
B74D
100
AcDbEntity
  8
AM_5
100
AcDbLine
 10
391.8921700079903
 20
490.1874402848401
 30
0.0
 11
438.8921700079903
 21
490.1874402848401
 31
0.0
  0
LINE
  5
B819
330
B74D
100
AcDbEntity
  8
AM_5
100
AcDbLine
 10
425.8921700079902
 20
480.1874402848401
 30
0.0
 11
438.8921700079903
 21
480.1874402848401
 31
0.0
  0
LINE
  5
B81A
330
B74D
100
AcDbEntity
  8
AM_5
100
AcDbLine
 10
437.8921700079902
 20
489.1874402848401
 30
0.0
 11
437.8921700079902
 21
481.1874402848401
 31
0.0
  0
INSERT
  5
B81B
330
B74D
100
AcDbEntity
  8
AM_5
100
AcDbBlockReference
  2
_Dot
 10
437.8921700079902
 20
490.1874402848401
 30
0.0
 50
90.0
  0
INSERT
  5
B81C
330
B74D
100
AcDbEntity
  8
AM_5
100
AcDbBlockReference
  2
_Dot
 10
437.8921700079902
 20
480.1874402848401
 30
0.0
 50
270.0
  0
MTEXT
  5
B81D
330
B74D
100
AcDbEntity
  8
AM_5
 62
     2
100
AcDbMText
 10
434.7921700079901
 20
485.1874402848402
 30
0.0
 40
3.200000000000001
 41
0.0
 71
     5
 72
     1
  1
10
 11
0.0000000000000001
 21
1.0
 31
0.0
 73
     1
 44
1.0
1001
ACAD
1000
MTEXTBEGIN
1070
    73
1070
     1
1070
    44
1040
1.0
1070
    74
1070
     0
1000
MTEXTEND
  0
POINT
  5
B81E
330
B74D
100
AcDbEntity
  8
Defpoints
 62
     0
100
AcDbPoint
 10
390.8921700079903
 20
490.1874402848401
 30
0.0
  0
POINT
  5
B81F
330
B74D
100
AcDbEntity
  8
Defpoints
 62
     0
100
AcDbPoint
 10
424.8921700079902
 20
480.1874402848401
 30
0.0
  0
POINT
  5
B820
330
B74D
100
AcDbEntity
  8
Defpoints
 62
     0
100
AcDbPoint
 10
437.8921700079902
 20
480.1874402848401
 30
0.0
  0
ENDBLK
  5
B758
330
B74D
100
AcDbEntity
  8
0
100
AcDbBlockEnd
  0
BLOCK
  5
B78C
330
B782
100
AcDbEntity
  8
0
100
AcDbBlockBegin
  2
*D16
 70
     1
 10
0.0
 20
0.0
 30
0.0
  3
*D16
  1

  0
LINE
  5
B78E
330
B782
100
AcDbEntity
  8
AM_5
100
AcDbLine
 10
389.8921700079903
 20
490.1874402848401
 30
0.0
 11
366.8921689979902
 21
490.1874402848402
 31
0.0
  0
LINE
  5
B78F
330
B782
100
AcDbEntity
  8
AM_5
100
AcDbLine
 10
389.8921700079903
 20
484.1874402848401
 30
0.0
 11
366.8921689979902
 21
484.1874402848402
 31
0.0
  0
LINE
  5
B790
330
B782
100
AcDbEntity
  8
AM_5
100
AcDbLine
 10
367.8921689979902
 20
489.1874402848402
 30
0.0
 11
367.8921689979902
 21
485.1874402848402
 31
0.0
  0
INSERT
  5
B791
330
B782
100
AcDbEntity
  8
AM_5
100
AcDbBlockReference
  2
_Dot
 10
367.8921689979902
 20
490.1874402848402
 30
0.0
 50
90.0
  0
INSERT
  5
B792
330
B782
100
AcDbEntity
  8
AM_5
100
AcDbBlockReference
  2
_Dot
 10
367.8921689979902
 20
484.1874402848402
 30
0.0
 50
270.0
  0
MTEXT
  5
B793
330
B782
100
AcDbEntity
  8
AM_5
 62
     2
100
AcDbMText
 10
364.7921689979901
 20
487.1874402848402
 30
0.0
 40
3.200000000000001
 41
0.0
 71
     5
 72
     1
  1
6
 11
0.0000000000000001
 21
1.0
 31
0.0
 73
     1
 44
1.0
1001
ACAD
1000
MTEXTBEGIN
1070
    73
1070
     1
1070
    44
1040
1.0
1070
    74
1070
     0
1000
MTEXTEND
  0
POINT
  5
B794
330
B782
100
AcDbEntity
  8
Defpoints
 62
     0
100
AcDbPoint
 10
390.8921700079903
 20
490.1874402848401
 30
0.0
  0
POINT
  5
B795
330
B782
100
AcDbEntity
  8
Defpoints
 62
     0
100
AcDbPoint
 10
390.8921700079903
 20
484.1874402848401
 30
0.0
  0
POINT
  5
B796
330
B782
100
AcDbEntity
  8
Defpoints
 62
     0
100
AcDbPoint
 10
367.8921689979902
 20
484.1874402848402
 30
0.0
  0
ENDBLK
  5
B78D
330
B782
100
AcDbEntity
  8
0
100
AcDbBlockEnd
  0
BLOCK
  5
B7A2
330
B798
100
AcDbEntity
  8
0
100
AcDbBlockBegin
  2
*D17
 70
     1
 10
0.0
 20
0.0
 30
0.0
  3
*D17
  1

  0
LINE
  5
B84D
330
B798
100
AcDbEntity
  8
AM_5
100
AcDbLine
 10
389.8921700079903
 20
490.1874402848401
 30
0.0
 11
360.9976661105199
 21
490.1874402848402
 31
0.0
  0
LINE
  5
B84E
330
B798
100
AcDbEntity
  8
AM_5
100
AcDbLine
 10
379.9422956369241
 20
473.1874402848401
 30
0.0
 11
360.9976661105199
 21
473.1874402848401
 31
0.0
  0
LINE
  5
B84F
330
B798
100
AcDbEntity
  8
AM_5
100
AcDbLine
 10
361.99766611052
 20
489.1874402848402
 30
0.0
 11
361.99766611052
 21
474.1874402848401
 31
0.0
  0
INSERT
  5
B850
330
B798
100
AcDbEntity
  8
AM_5
100
AcDbBlockReference
  2
_Dot
 10
361.99766611052
 20
490.1874402848402
 30
0.0
 50
90.0
  0
INSERT
  5
B851
330
B798
100
AcDbEntity
  8
AM_5
100
AcDbBlockReference
  2
_Dot
 10
361.99766611052
 20
473.1874402848401
 30
0.0
 50
270.0
  0
MTEXT
  5
B852
330
B798
100
AcDbEntity
  8
AM_5
 62
     2
100
AcDbMText
 10
358.8976661105199
 20
481.6874402848402
 30
0.0
 40
3.200000000000001
 41
0.0
 71
     5
 72
     1
  1
17
 11
0.0000000000000001
 21
1.0
 31
0.0
 73
     1
 44
1.0
1001
ACAD
1000
MTEXTBEGIN
1070
    73
1070
     1
1070
    44
1040
1.0
1070
    74
1070
     0
1000
MTEXTEND
  0
POINT
  5
B853
330
B798
100
AcDbEntity
  8
Defpoints
 62
     0
100
AcDbPoint
 10
390.8921700079903
 20
490.1874402848401
 30
0.0
  0
POINT
  5
B854
330
B798
100
AcDbEntity
  8
Defpoints
 62
     0
100
AcDbPoint
 10
380.9422956369241
 20
473.1874402848401
 30
0.0
  0
POINT
  5
B855
330
B798
100
AcDbEntity
  8
Defpoints
 62
     0
100
AcDbPoint
 10
361.99766611052
 20
473.1874402848401
 30
0.0
  0
ENDBLK
  5
B7A3
330
B798
100
AcDbEntity
  8
0
100
AcDbBlockEnd
  0
BLOCK
  5
B7B4
330
B7AE
100
AcDbEntity
  8
0
100
AcDbBlockBegin
  2
*D18
 70
     1
 10
0.0
 20
0.0
 30
0.0
  3
*D18
  1

  0
LINE
  5
B7BB
330
B7AE
100
AcDbEntity
  8
AM_5
100
AcDbLine
 10
392.8961798911346
 20
473.7642270526992
 30
0.0
 11
388.3661071300774
 21
481.5024149472026
 31
0.0
  0
MTEXT
  5
B7BC
330
B7AE
100
AcDbEntity
  8
AM_5
 62
     2
100
AcDbMText
 10
393.9410896167242
 20
478.4122669381218
 30
0.0
 40
3.5
 41
0.0
 71
     5
 72
     1
  1
R7
 11
0.5052125755825945
 21
-0.8629949324724922
 31
0.0
 73
     1
 44
1.0
1001
ACAD
1000
MTEXTBEGIN
1070
    73
1070
     1
1070
    44
1040
1.0
1070
    74
1070
     0
1000
MTEXTEND
  0
INSERT
  5
B7BD
330
B7AE
100
AcDbEntity
  8
AM_5
100
AcDbBlockReference
  2
_OPEN30
 10
387.3556819789121
 20
483.2284048121476
 30
0.0
 41
2.0
 42
2.0
 43
2.0
 50
120.3454646197109
  0
POINT
  5
B7BE
330
B7AE
100
AcDbEntity
  8
Defpoints
 62
     0
100
AcDbPoint
 10
387.3556819789121
 20
483.2284048121476
 30
0.0
  0
POINT
  5
B7BF
330
B7AE
100
AcDbEntity
  8
Defpoints
 62
     0
100
AcDbPoint
 10
390.8921700079902
 20
477.1874402848401
 30
0.0
  0
ENDBLK
  5
B7B5
330
B7AE
100
AcDbEntity
  8
0
100
AcDbBlockEnd
  0
BLOCK
  5
B7CB
330
B7C1
100
AcDbEntity
  8
0
100
AcDbBlockBegin
  2
*D19
 70
     1
 10
0.0
 20
0.0
 30
0.0
  3
*D19
  1

  0
LINE
  5
B85F
330
B7C1
100
AcDbEntity
  8
AM_5
100
AcDbLine
 10
401.3921700079903
 20
463.1874402848401
 30
0.0
 11
401.3921700079903
 21
470.7513449442047
 31
0.0
  0
LINE
  5
B860
330
B7C1
100
AcDbEntity
  8
AM_5
100
AcDbLine
 10
410.3921700079903
 20
463.1874402848401
 30
0.0
 11
410.3921700079903
 21
470.7513449442047
 31
0.0
  0
LINE
  5
B861
330
B7C1
100
AcDbEntity
  8
AM_5
100
AcDbLine
 10
402.3921700079903
 20
469.7513449442047
 30
0.0
 11
409.3921700079902
 21
469.7513449442047
 31
0.0
  0
LINE
  5
B862
330
B7C1
100
AcDbEntity
  8
AM_5
100
AcDbLine
 10
410.3921700079903
 20
469.7513449442047
 30
0.0
 11
416.5166406683118
 21
469.7513449442047
 31
0.0
  0
INSERT
  5
B863
330
B7C1
100
AcDbEntity
  8
AM_5
100
AcDbBlockReference
  2
_Dot
 10
401.3921700079903
 20
469.7513449442047
 30
0.0
 50
180.0
  0
INSERT
  5
B864
330
B7C1
100
AcDbEntity
  8
AM_5
100
AcDbBlockReference
  2
_Dot
 10
410.3921700079903
 20
469.7513449442047
 30
0.0
  0
MTEXT
  5
B865
330
B7C1
100
AcDbEntity
  8
AM_5
 62
     2
100
AcDbMText
 10
414.3233073349785
 20
472.8513449442048
 30
0.0
 40
3.200000000000001
 41
0.0
 71
     5
 72
     1
  1
9
 73
     1
 44
1.0
1001
ACAD
1000
MTEXTBEGIN
1070
    73
1070
     1
1070
    44
1040
1.0
1070
    74
1070
     0
1000
MTEXTEND
  0
POINT
  5
B866
330
B7C1
100
AcDbEntity
  8
Defpoints
 62
     0
100
AcDbPoint
 10
401.3921700079903
 20
462.1874402848401
 30
0.0
  0
POINT
  5
B867
330
B7C1
100
AcDbEntity
  8
Defpoints
 62
     0
100
AcDbPoint
 10
410.3921700079903
 20
462.1874402848401
 30
0.0
  0
POINT
  5
B868
330
B7C1
100
AcDbEntity
  8
Defpoints
 62
     0
100
AcDbPoint
 10
410.3921700079903
 20
469.7513449442047
 30
0.0
  0
ENDBLK
  5
B7CC
330
B7C1
100
AcDbEntity
  8
0
100
AcDbBlockEnd
  0
BLOCK
  5
B7EB
330
B7E1
100
AcDbEntity
  8
0
100
AcDbBlockBegin
  2
*D20
 70
     1
 10
0.0
 20
0.0
 30
0.0
  3
*D20
  1

  0
LINE
  5
B7ED
330
B7E1
100
AcDbEntity
  8
AM_5
100
AcDbLine
 10
405.8921700079903
 20
497.1874402848401
 30
0.0
 11
405.8921700079903
 21
507.1874402848401
 31
0.0
  0
LINE
  5
B7EE
330
B7E1
100
AcDbEntity
  8
AM_5
100
AcDbLine
 10
427.9915120847755
 20
484.1874402848401
 30
0.0
 11
427.9915120847755
 21
507.1874402848401
 31
0.0
  0
LINE
  5
B7EF
330
B7E1
100
AcDbEntity
  8
AM_5
100
AcDbLine
 10
406.8921700079902
 20
506.1874402848401
 30
0.0
 11
426.9915120847755
 21
506.1874402848401
 31
0.0
  0
INSERT
  5
B7F0
330
B7E1
100
AcDbEntity
  8
AM_5
100
AcDbBlockReference
  2
_Dot
 10
405.8921700079903
 20
506.1874402848401
 30
0.0
 50
180.0
  0
INSERT
  5
B7F1
330
B7E1
100
AcDbEntity
  8
AM_5
100
AcDbBlockReference
  2
_Dot
 10
427.9915120847755
 20
506.1874402848401
 30
0.0
  0
MTEXT
  5
B7F2
330
B7E1
100
AcDbEntity
  8
AM_5
 62
     2
100
AcDbMText
 10
416.9418410463829
 20
509.2874402848401
 30
0.0
 40
3.200000000000001
 41
0.0
 71
     5
 72
     1
  1
22.1
 73
     1
 44
1.0
1001
ACAD
1000
MTEXTBEGIN
1070
    73
1070
     1
1070
    44
1040
1.0
1070
    74
1070
     0
1000
MTEXTEND
  0
POINT
  5
B7F3
330
B7E1
100
AcDbEntity
  8
Defpoints
 62
     0
100
AcDbPoint
 10
405.8921700079903
 20
496.1874402848401
 30
0.0
  0
POINT
  5
B7F4
330
B7E1
100
AcDbEntity
  8
Defpoints
 62
     0
100
AcDbPoint
 10
427.9915120847755
 20
483.1874402848401
 30
0.0
  0
POINT
  5
B7F5
330
B7E1
100
AcDbEntity
  8
Defpoints
 62
     0
100
AcDbPoint
 10
427.9915120847755
 20
506.1874402848401
 30
0.0
  0
ENDBLK
  5
B7EC
330
B7E1
100
AcDbEntity
  8
0
100
AcDbBlockEnd
  0
BLOCK
  5
B802
330
B7FB
100
AcDbEntity
  8
0
100
AcDbBlockBegin
  2
*D21
 70
     1
 10
0.0
 20
0.0
 30
0.0
  3
*D21
  1

  0
LINE
  5
B80F
330
B7FB
100
AcDbEntity
  8
AM_5
100
AcDbLine
 10
394.5848314732247
 20
509.1391572355688
 30
0.0
 11
390.0806304866326
 21
498.7756552467437
 31
0.0
  0
MTEXT
  5
B810
330
B7FB
100
AcDbEntity
  8
AM_5
 62
     2
100
AcDbMText
 10
389.7506796102747
 20
506.1699863469305
 30
0.0
 40
3.5
 41
0.0
 71
     5
 72
     1
  1
R10
 11
0.3986018572205399
 21
0.9171240698075349
 31
0.0
 73
     1
 44
1.0
1001
ACAD
1000
MTEXTBEGIN
1070
    73
1070
     1
1070
    44
1040
1.0
1070
    74
1070
     0
1000
MTEXTEND
  0
INSERT
  5
B811
330
B7FB
100
AcDbEntity
  8
AM_5
100
AcDbBlockReference
  2
_OPEN30
 10
389.2834267721914
 20
496.9414071071287
 30
0.0
 41
2.0
 42
2.0
 43
2.0
 50
246.5091971238364
  0
POINT
  5
B812
330
B7FB
100
AcDbEntity
  8
Defpoints
 62
     0
100
AcDbPoint
 10
389.2834267721914
 20
496.9414071071287
 30
0.0
  0
POINT
  5
B813
330
B7FB
100
AcDbEntity
  8
Defpoints
 62
     0
100
AcDbPoint
 10
393.2694453443969
 20
506.1126478052042
 30
0.0
  0
ENDBLK
  5
B803
330
B7FB
100
AcDbEntity
  8
0
100
AcDbBlockEnd
  0
BLOCK
  5
B82C
330
B822
100
AcDbEntity
  8
0
100
AcDbBlockBegin
  2
*D22
 70
     1
 10
0.0
 20
0.0
 30
0.0
  3
*D22
  1

  0
LINE
  5
B82E
330
B822
100
AcDbEntity
  8
AM_5
100
AcDbLine
 10
405.8921700079903
 20
497.1874402848401
 30
0.0
 11
405.8921700079903
 21
500.5730630171786
 31
0.0
  0
LINE
  5
B82F
330
B822
100
AcDbEntity
  8
AM_5
100
AcDbLine
 10
427.8921700079902
 20
484.1874402848401
 30
0.0
 11
427.8921700079902
 21
500.5730630171786
 31
0.0
  0
LINE
  5
B830
330
B822
100
AcDbEntity
  8
AM_5
100
AcDbLine
 10
406.8921700079902
 20
499.5730630171786
 30
0.0
 11
426.8921700079903
 21
499.5730630171786
 31
0.0
  0
INSERT
  5
B831
330
B822
100
AcDbEntity
  8
AM_5
100
AcDbBlockReference
  2
_Dot
 10
405.8921700079903
 20
499.5730630171786
 30
0.0
 50
180.0
  0
INSERT
  5
B832
330
B822
100
AcDbEntity
  8
AM_5
100
AcDbBlockReference
  2
_Dot
 10
427.8921700079902
 20
499.5730630171786
 30
0.0
  0
MTEXT
  5
B833
330
B822
100
AcDbEntity
  8
AM_5
 62
     2
100
AcDbMText
 10
416.8921700079902
 20
502.6730630171786
 30
0.0
 40
3.200000000000001
 41
0.0
 71
     5
 72
     1
  1
22
 73
     1
 44
1.0
1001
ACAD
1000
MTEXTBEGIN
1070
    73
1070
     1
1070
    44
1040
1.0
1070
    74
1070
     0
1000
MTEXTEND
  0
POINT
  5
B834
330
B822
100
AcDbEntity
  8
Defpoints
 62
     0
100
AcDbPoint
 10
405.8921700079903
 20
496.1874402848401
 30
0.0
  0
POINT
  5
B835
330
B822
100
AcDbEntity
  8
Defpoints
 62
     0
100
AcDbPoint
 10
427.8921700079902
 20
483.1874402848401
 30
0.0
  0
POINT
  5
B836
330
B822
100
AcDbEntity
  8
Defpoints
 62
     0
100
AcDbPoint
 10
427.8921700079902
 20
499.5730630171786
 30
0.0
  0
ENDBLK
  5
B82D
330
B822
100
AcDbEntity
  8
0
100
AcDbBlockEnd
  0
BLOCK
  5
B842
330
B838
100
AcDbEntity
  8
0
100
AcDbBlockBegin
  2
*D23
 70
     1
 10
0.0
 20
0.0
 30
0.0
  3
*D23
  1

  0
LINE
  5
B844
330
B838
100
AcDbEntity
  8
AM_5
100
AcDbLine
 10
405.8921700079903
 20
497.1874402848401
 30
0.0
 11
405.8921700079903
 21
500.5730630171784
 31
0.0
  0
LINE
  5
B845
330
B838
100
AcDbEntity
  8
AM_5
100
AcDbLine
 10
377.8921700079903
 20
478.1874402848401
 30
0.0
 11
377.8921700079903
 21
500.5730630171784
 31
0.0
  0
LINE
  5
B846
330
B838
100
AcDbEntity
  8
AM_5
100
AcDbLine
 10
404.8921700079902
 20
499.5730630171784
 30
0.0
 11
378.8921700079903
 21
499.5730630171784
 31
0.0
  0
INSERT
  5
B847
330
B838
100
AcDbEntity
  8
AM_5
100
AcDbBlockReference
  2
_Dot
 10
405.8921700079903
 20
499.5730630171784
 30
0.0
  0
INSERT
  5
B848
330
B838
100
AcDbEntity
  8
AM_5
100
AcDbBlockReference
  2
_Dot
 10
377.8921700079903
 20
499.5730630171784
 30
0.0
 50
180.0
  0
MTEXT
  5
B849
330
B838
100
AcDbEntity
  8
AM_5
 62
     2
100
AcDbMText
 10
391.8921700079903
 20
502.6730630171784
 30
0.0
 40
3.200000000000001
 41
0.0
 71
     5
 72
     1
  1
28
 73
     1
 44
1.0
1001
ACAD
1000
MTEXTBEGIN
1070
    73
1070
     1
1070
    44
1040
1.0
1070
    74
1070
     0
1000
MTEXTEND
  0
POINT
  5
B84A
330
B838
100
AcDbEntity
  8
Defpoints
 62
     0
100
AcDbPoint
 10
405.8921700079903
 20
496.1874402848401
 30
0.0
  0
POINT
  5
B84B
330
B838
100
AcDbEntity
  8
Defpoints
 62
     0
100
AcDbPoint
 10
377.8921700079903
 20
477.1874402848401
 30
0.0
  0
POINT
  5
B84C
330
B838
100
AcDbEntity
  8
Defpoints
 62
     0
100
AcDbPoint
 10
377.8921700079903
 20
499.5730630171784
 30
0.0
  0
ENDBLK
  5
B843
330
B838
100
AcDbEntity
  8
0
100
AcDbBlockEnd
  0
BLOCK
  5
B879
330
B86D
100
AcDbEntity
  8
0
100
AcDbBlockBegin
  2
*D25
 70
     1
 10
0.0
 20
0.0
 30
0.0
  3
*D25
  1

  0
LINE
  5
B87B
330
B86D
100
AcDbEntity
  8
AM_5
100
AcDbLine
 10
396.8921680079903
 20
454.1874402848401
 30
0.0
 11
386.8921679373059
 21
454.1874402848401
 31
0.0
  0
LINE
  5
B87C
330
B86D
100
AcDbEntity
  8
AM_5
100
AcDbLine
 10
396.8921679373058
 20
456.187439719364
 30
0.0
 11
386.8921679373059
 21
456.187439719364
 31
0.0
  0
LINE
  5
B87D
330
B86D
100
AcDbEntity
  8
AM_5
100
AcDbLine
 10
387.8921679373058
 20
453.1874402848401
 30
0.0
 11
387.8921679373058
 21
452.1874402848401
 31
0.0
  0
LINE
  5
B87E
330
B86D
100
AcDbEntity
  8
AM_5
100
AcDbLine
 10
387.8921679373058
 20
457.1874397193639
 30
0.0
 11
387.8921679373058
 21
462.6807730526973
 31
0.0
  0
LINE
  5
B87F
330
B86D
100
AcDbEntity
  8
AM_5
100
AcDbLine
 10
387.8921679373058
 20
454.1874402848401
 30
0.0
 11
387.8921679373058
 21
456.187439719364
 31
0.0
  0
INSERT
  5
B880
330
B86D
100
AcDbEntity
  8
AM_5
100
AcDbBlockReference
  2
_Dot
 10
387.8921679373058
 20
454.1874402848401
 30
0.0
 50
90.0
  0
INSERT
  5
B881
330
B86D
100
AcDbEntity
  8
AM_5
100
AcDbBlockReference
  2
_Dot
 10
387.8921679373058
 20
456.187439719364
 30
0.0
 50
270.0
  0
MTEXT
  5
B882
330
B86D
100
AcDbEntity
  8
AM_5
 62
     2
100
AcDbMText
 10
384.7921679373057
 20
460.4341063860307
 30
0.0
 40
3.200000000000001
 41
0.0
 71
     5
 72
     1
  1
2
 11
0.0000000000000001
 21
1.0
 31
0.0
 73
     1
 44
1.0
1001
ACAD
1000
MTEXTBEGIN
1070
    73
1070
     1
1070
    44
1040
1.0
1070
    74
1070
     0
1000
MTEXTEND
  0
POINT
  5
B883
330
B86D
100
AcDbEntity
  8
Defpoints
 62
     0
100
AcDbPoint
 10
397.8921680079903
 20
454.1874402848401
 30
0.0
  0
POINT
  5
B884
330
B86D
100
AcDbEntity
  8
Defpoints
 62
     0
100
AcDbPoint
 10
397.8921679373058
 20
456.187439719364
 30
0.0
  0
POINT
  5
B885
330
B86D
100
AcDbEntity
  8
Defpoints
 62
     0
100
AcDbPoint
 10
387.8921679373058
 20
456.187439719364
 30
0.0
  0
ENDBLK
  5
B87A
330
B86D
100
AcDbEntity
  8
0
100
AcDbBlockEnd
  0
BLOCK
  5
B8B5
330
B8AB
100
AcDbEntity
  8
0
100
AcDbBlockBegin
  2
*D27
 70
     1
 10
0.0
 20
0.0
 30
0.0
  3
*D27
  1

  0
LINE
  5
B97E
330
B8AB
100
AcDbEntity
  8
AM_5
100
AcDbLine
 10
388.8921700079902
 20
637.690979615755
 30
0.0
 11
353.8921660079902
 21
637.690979615755
 31
0.0
  0
LINE
  5
B97F
330
B8AB
100
AcDbEntity
  8
AM_5
100
AcDbLine
 10
395.8921680079902
 20
601.690979615755
 30
0.0
 11
353.8921660079902
 21
601.690979615755
 31
0.0
  0
LINE
  5
B980
330
B8AB
100
AcDbEntity
  8
AM_5
100
AcDbLine
 10
355.8921660079902
 20
635.690979615755
 30
0.0
 11
355.8921660079902
 21
603.6909796157551
 31
0.0
  0
INSERT
  5
B981
330
B8AB
100
AcDbEntity
  8
AM_5
100
AcDbBlockReference
  2
_Dot
 10
355.8921660079902
 20
637.690979615755
 30
0.0
 41
2.0
 42
2.0
 43
2.0
 50
90.0
  0
INSERT
  5
B982
330
B8AB
100
AcDbEntity
  8
AM_5
100
AcDbBlockReference
  2
_Dot
 10
355.8921660079902
 20
601.690979615755
 30
0.0
 41
2.0
 42
2.0
 43
2.0
 50
270.0
  0
MTEXT
  5
B983
330
B8AB
100
AcDbEntity
  8
AM_5
 62
     2
100
AcDbMText
 10
349.6921660079902
 20
619.6909796157552
 30
0.0
 40
6.400000000000002
 41
0.0
 71
     5
 72
     1
  1
36
 11
0.0000000000000001
 21
1.0
 31
0.0
 73
     1
 44
1.0
1001
ACAD
1000
MTEXTBEGIN
1070
    73
1070
     1
1070
    44
1040
1.0
1070
    74
1070
     0
1000
MTEXTEND
  0
POINT
  5
B984
330
B8AB
100
AcDbEntity
  8
Defpoints
 62
     0
100
AcDbPoint
 10
390.8921700079902
 20
637.690979615755
 30
0.0
  0
POINT
  5
B985
330
B8AB
100
AcDbEntity
  8
Defpoints
 62
     0
100
AcDbPoint
 10
397.8921680079902
 20
601.690979615755
 30
0.0
  0
POINT
  5
B986
330
B8AB
100
AcDbEntity
  8
Defpoints
 62
     0
100
AcDbPoint
 10
355.8921660079902
 20
601.690979615755
 30
0.0
  0
ENDBLK
  5
B8B6
330
B8AB
100
AcDbEntity
  8
0
100
AcDbBlockEnd
  0
BLOCK
  5
B8C1
330
B8B7
100
AcDbEntity
  8
0
100
AcDbBlockBegin
  2
*D28
 70
     1
 10
0.0
 20
0.0
 30
0.0
  3
*D28
  1

  0
LINE
  5
B92C
330
B8B7
100
AcDbEntity
  8
AM_5
100
AcDbLine
 10
395.8921680079903
 20
1024.797154577951
 30
0.0
 11
353.8921660079905
 21
1024.797154577951
 31
0.0
  0
LINE
  5
B92D
330
B8B7
100
AcDbEntity
  8
AM_5
100
AcDbLine
 10
395.8921680079903
 20
624.7971525779514
 30
0.0
 11
353.8921660079903
 21
624.7971525779514
 31
0.0
  0
LINE
  5
B92E
330
B8B7
100
AcDbEntity
  8
AM_5
100
AcDbLine
 10
355.8921660079905
 20
1022.797154577951
 30
0.0
 11
355.8921660079903
 21
626.7971525779515
 31
0.0
  0
INSERT
  5
B92F
330
B8B7
100
AcDbEntity
  8
AM_5
100
AcDbBlockReference
  2
_Dot
 10
355.8921660079905
 20
1024.797154577951
 30
0.0
 41
2.0
 42
2.0
 43
2.0
 50
90.0
  0
INSERT
  5
B930
330
B8B7
100
AcDbEntity
  8
AM_5
100
AcDbBlockReference
  2
_Dot
 10
355.8921660079903
 20
624.7971525779514
 30
0.0
 41
2.0
 42
2.0
 43
2.0
 50
270.0
  0
MTEXT
  5
B931
330
B8B7
100
AcDbEntity
  8
AM_5
 62
     2
100
AcDbMText
 10
349.6921660079903
 20
824.7971535779516
 30
0.0
 40
6.400000000000002
 41
0.0
 71
     5
 72
     1
  1
L
 11
0.0000000000000001
 21
1.0
 31
0.0
 73
     1
 44
1.0
1001
ACAD
1000
MTEXTBEGIN
1070
    73
1070
     1
1070
    44
1040
1.0
1070
    74
1070
     0
1000
MTEXTEND
  0
POINT
  5
B932
330
B8B7
100
AcDbEntity
  8
Defpoints
 62
     0
100
AcDbPoint
 10
397.8921680079904
 20
1024.797154577951
 30
0.0
  0
POINT
  5
B933
330
B8B7
100
AcDbEntity
  8
Defpoints
 62
     0
100
AcDbPoint
 10
397.8921680079903
 20
624.7971525779514
 30
0.0
  0
POINT
  5
B934
330
B8B7
100
AcDbEntity
  8
Defpoints
 62
     0
100
AcDbPoint
 10
355.8921660079903
 20
624.7971525779514
 30
0.0
  0
ENDBLK
  5
B8C2
330
B8B7
100
AcDbEntity
  8
0
100
AcDbBlockEnd
  0
BLOCK
  5
B8CD
330
B8C3
100
AcDbEntity
  8
0
100
AcDbBlockBegin
  2
*D29
 70
     1
 10
0.0
 20
0.0
 30
0.0
  3
*D29
  1

  0
LINE
  5
B987
330
B8C3
100
AcDbEntity
  8
AM_5
100
AcDbLine
 10
391.8921700079902
 20
637.690979615755
 30
0.0
 11
438.8921700079902
 21
637.690979615755
 31
0.0
  0
LINE
  5
B988
330
B8C3
100
AcDbEntity
  8
AM_5
100
AcDbLine
 10
425.8921700079902
 20
627.690979615755
 30
0.0
 11
438.8921700079902
 21
627.690979615755
 31
0.0
  0
LINE
  5
B989
330
B8C3
100
AcDbEntity
  8
AM_5
100
AcDbLine
 10
437.8921700079902
 20
636.690979615755
 30
0.0
 11
437.8921700079902
 21
628.6909796157551
 31
0.0
  0
INSERT
  5
B98A
330
B8C3
100
AcDbEntity
  8
AM_5
100
AcDbBlockReference
  2
_Dot
 10
437.8921700079902
 20
637.690979615755
 30
0.0
 50
90.0
  0
INSERT
  5
B98B
330
B8C3
100
AcDbEntity
  8
AM_5
100
AcDbBlockReference
  2
_Dot
 10
437.8921700079902
 20
627.690979615755
 30
0.0
 50
270.0
  0
MTEXT
  5
B98C
330
B8C3
100
AcDbEntity
  8
AM_5
 62
     2
100
AcDbMText
 10
434.7921700079901
 20
632.6909796157552
 30
0.0
 40
3.200000000000001
 41
0.0
 71
     5
 72
     1
  1
10
 11
0.0000000000000001
 21
1.0
 31
0.0
 73
     1
 44
1.0
1001
ACAD
1000
MTEXTBEGIN
1070
    73
1070
     1
1070
    44
1040
1.0
1070
    74
1070
     0
1000
MTEXTEND
  0
POINT
  5
B98D
330
B8C3
100
AcDbEntity
  8
Defpoints
 62
     0
100
AcDbPoint
 10
390.8921700079902
 20
637.690979615755
 30
0.0
  0
POINT
  5
B98E
330
B8C3
100
AcDbEntity
  8
Defpoints
 62
     0
100
AcDbPoint
 10
424.8921700079902
 20
627.690979615755
 30
0.0
  0
POINT
  5
B98F
330
B8C3
100
AcDbEntity
  8
Defpoints
 62
     0
100
AcDbPoint
 10
437.8921700079902
 20
627.690979615755
 30
0.0
  0
ENDBLK
  5
B8CE
330
B8C3
100
AcDbEntity
  8
0
100
AcDbBlockEnd
  0
BLOCK
  5
B8D9
330
B8CF
100
AcDbEntity
  8
0
100
AcDbBlockBegin
  2
*D30
 70
     1
 10
0.0
 20
0.0
 30
0.0
  3
*D30
  1

  0
LINE
  5
B990
330
B8CF
100
AcDbEntity
  8
AM_5
100
AcDbLine
 10
389.8921700079902
 20
637.690979615755
 30
0.0
 11
366.8921689979902
 21
637.690979615755
 31
0.0
  0
LINE
  5
B991
330
B8CF
100
AcDbEntity
  8
AM_5
100
AcDbLine
 10
389.8921700079902
 20
631.690979615755
 30
0.0
 11
366.8921689979902
 21
631.690979615755
 31
0.0
  0
LINE
  5
B992
330
B8CF
100
AcDbEntity
  8
AM_5
100
AcDbLine
 10
367.8921689979901
 20
636.690979615755
 30
0.0
 11
367.8921689979901
 21
632.6909796157551
 31
0.0
  0
INSERT
  5
B993
330
B8CF
100
AcDbEntity
  8
AM_5
100
AcDbBlockReference
  2
_Dot
 10
367.8921689979901
 20
637.690979615755
 30
0.0
 50
90.0
  0
INSERT
  5
B994
330
B8CF
100
AcDbEntity
  8
AM_5
100
AcDbBlockReference
  2
_Dot
 10
367.8921689979901
 20
631.690979615755
 30
0.0
 50
270.0
  0
MTEXT
  5
B995
330
B8CF
100
AcDbEntity
  8
AM_5
 62
     2
100
AcDbMText
 10
364.7921689979901
 20
634.6909796157551
 30
0.0
 40
3.200000000000001
 41
0.0
 71
     5
 72
     1
  1
6
 11
0.0000000000000001
 21
1.0
 31
0.0
 73
     1
 44
1.0
1001
ACAD
1000
MTEXTBEGIN
1070
    73
1070
     1
1070
    44
1040
1.0
1070
    74
1070
     0
1000
MTEXTEND
  0
POINT
  5
B996
330
B8CF
100
AcDbEntity
  8
Defpoints
 62
     0
100
AcDbPoint
 10
390.8921700079902
 20
637.690979615755
 30
0.0
  0
POINT
  5
B997
330
B8CF
100
AcDbEntity
  8
Defpoints
 62
     0
100
AcDbPoint
 10
390.8921700079902
 20
631.690979615755
 30
0.0
  0
POINT
  5
B998
330
B8CF
100
AcDbEntity
  8
Defpoints
 62
     0
100
AcDbPoint
 10
367.8921689979901
 20
631.690979615755
 30
0.0
  0
ENDBLK
  5
B8DA
330
B8CF
100
AcDbEntity
  8
0
100
AcDbBlockEnd
  0
BLOCK
  5
B8E5
330
B8DB
100
AcDbEntity
  8
0
100
AcDbBlockBegin
  2
*D31
 70
     1
 10
0.0
 20
0.0
 30
0.0
  3
*D31
  1

  0
LINE
  5
B999
330
B8DB
100
AcDbEntity
  8
AM_5
100
AcDbLine
 10
389.8921700079902
 20
637.690979615755
 30
0.0
 11
360.9976661105199
 21
637.690979615755
 31
0.0
  0
LINE
  5
B99A
330
B8DB
100
AcDbEntity
  8
AM_5
100
AcDbLine
 10
379.942295636924
 20
620.6909796157551
 30
0.0
 11
360.9976661105199
 21
620.6909796157551
 31
0.0
  0
LINE
  5
B99B
330
B8DB
100
AcDbEntity
  8
AM_5
100
AcDbLine
 10
361.9976661105199
 20
636.690979615755
 30
0.0
 11
361.9976661105199
 21
621.690979615755
 31
0.0
  0
INSERT
  5
B99C
330
B8DB
100
AcDbEntity
  8
AM_5
100
AcDbBlockReference
  2
_Dot
 10
361.9976661105199
 20
637.690979615755
 30
0.0
 50
90.0
  0
INSERT
  5
B99D
330
B8DB
100
AcDbEntity
  8
AM_5
100
AcDbBlockReference
  2
_Dot
 10
361.9976661105199
 20
620.6909796157551
 30
0.0
 50
270.0
  0
MTEXT
  5
B99E
330
B8DB
100
AcDbEntity
  8
AM_5
 62
     2
100
AcDbMText
 10
358.8976661105198
 20
629.1909796157551
 30
0.0
 40
3.200000000000001
 41
0.0
 71
     5
 72
     1
  1
17
 11
0.0000000000000001
 21
1.0
 31
0.0
 73
     1
 44
1.0
1001
ACAD
1000
MTEXTBEGIN
1070
    73
1070
     1
1070
    44
1040
1.0
1070
    74
1070
     0
1000
MTEXTEND
  0
POINT
  5
B99F
330
B8DB
100
AcDbEntity
  8
Defpoints
 62
     0
100
AcDbPoint
 10
390.8921700079902
 20
637.690979615755
 30
0.0
  0
POINT
  5
B9A0
330
B8DB
100
AcDbEntity
  8
Defpoints
 62
     0
100
AcDbPoint
 10
380.942295636924
 20
620.6909796157551
 30
0.0
  0
POINT
  5
B9A1
330
B8DB
100
AcDbEntity
  8
Defpoints
 62
     0
100
AcDbPoint
 10
361.9976661105199
 20
620.6909796157551
 30
0.0
  0
ENDBLK
  5
B8E6
330
B8DB
100
AcDbEntity
  8
0
100
AcDbBlockEnd
  0
BLOCK
  5
B8EE
330
B8E7
100
AcDbEntity
  8
0
100
AcDbBlockBegin
  2
*D32
 70
     1
 10
0.0
 20
0.0
 30
0.0
  3
*D32
  1

  0
LINE
  5
B9A2
330
B8E7
100
AcDbEntity
  8
AM_5
100
AcDbLine
 10
396.6030227528553
 20
624.2738653983933
 30
0.0
 11
391.1363560861886
 21
624.2738653983933
 31
0.0
  0
LINE
  5
B9A3
330
B8E7
100
AcDbEntity
  8
AM_5
100
AcDbLine
 10
391.1363560861886
 20
624.2738653983933
 30
0.0
 11
388.3661071300774
 21
629.0059542781174
 31
0.0
  0
MTEXT
  5
B9A4
330
B8E7
100
AcDbEntity
  8
AM_5
 62
     2
100
AcDbMText
 10
394.619689419522
 20
627.5238653983933
 30
0.0
 40
3.5
 41
0.0
 71
     5
 72
     1
  1
R7
 73
     1
 44
1.0
1001
ACAD
1000
MTEXTBEGIN
1070
    73
1070
     1
1070
    44
1040
1.0
1070
    74
1070
     0
1000
MTEXTEND
  0
INSERT
  5
B9A5
330
B8E7
100
AcDbEntity
  8
AM_5
100
AcDbBlockReference
  2
_OPEN30
 10
387.3556819789122
 20
630.7319441430625
 30
0.0
 41
2.0
 42
2.0
 43
2.0
 50
120.3454646197113
  0
POINT
  5
B9A6
330
B8E7
100
AcDbEntity
  8
Defpoints
 62
     0
100
AcDbPoint
 10
387.3556819789122
 20
630.7319441430625
 30
0.0
  0
POINT
  5
B9A7
330
B8E7
100
AcDbEntity
  8
Defpoints
 62
     0
100
AcDbPoint
 10
390.8921700079903
 20
624.6909796157551
 30
0.0
  0
ENDBLK
  5
B8EF
330
B8E7
100
AcDbEntity
  8
0
100
AcDbBlockEnd
  0
BLOCK
  5
B8FB
330
B8F0
100
AcDbEntity
  8
0
100
AcDbBlockBegin
  2
*D33
 70
     1
 10
0.0
 20
0.0
 30
0.0
  3
*D33
  1

  0
LINE
  5
B9A8
330
B8F0
100
AcDbEntity
  8
AM_5
100
AcDbLine
 10
401.3921700079902
 20
610.690979615755
 30
0.0
 11
401.3921700079902
 21
618.2548842751197
 31
0.0
  0
LINE
  5
B9A9
330
B8F0
100
AcDbEntity
  8
AM_5
100
AcDbLine
 10
410.3921700079902
 20
610.690979615755
 30
0.0
 11
410.3921700079902
 21
618.2548842751197
 31
0.0
  0
LINE
  5
B9AA
330
B8F0
100
AcDbEntity
  8
AM_5
100
AcDbLine
 10
402.3921700079902
 20
617.2548842751197
 30
0.0
 11
409.3921700079902
 21
617.2548842751197
 31
0.0
  0
LINE
  5
B9AB
330
B8F0
100
AcDbEntity
  8
AM_5
100
AcDbLine
 10
410.3921700079902
 20
617.2548842751197
 30
0.0
 11
416.5166406683117
 21
617.2548842751197
 31
0.0
  0
INSERT
  5
B9AC
330
B8F0
100
AcDbEntity
  8
AM_5
100
AcDbBlockReference
  2
_Dot
 10
401.3921700079902
 20
617.2548842751197
 30
0.0
 50
180.0
  0
INSERT
  5
B9AD
330
B8F0
100
AcDbEntity
  8
AM_5
100
AcDbBlockReference
  2
_Dot
 10
410.3921700079902
 20
617.2548842751197
 30
0.0
  0
MTEXT
  5
B9AE
330
B8F0
100
AcDbEntity
  8
AM_5
 62
     2
100
AcDbMText
 10
414.3233073349784
 20
620.3548842751197
 30
0.0
 40
3.200000000000001
 41
0.0
 71
     5
 72
     1
  1
9
 73
     1
 44
1.0
1001
ACAD
1000
MTEXTBEGIN
1070
    73
1070
     1
1070
    44
1040
1.0
1070
    74
1070
     0
1000
MTEXTEND
  0
POINT
  5
B9AF
330
B8F0
100
AcDbEntity
  8
Defpoints
 62
     0
100
AcDbPoint
 10
401.3921700079902
 20
609.690979615755
 30
0.0
  0
POINT
  5
B9B0
330
B8F0
100
AcDbEntity
  8
Defpoints
 62
     0
100
AcDbPoint
 10
410.3921700079902
 20
609.690979615755
 30
0.0
  0
POINT
  5
B9B1
330
B8F0
100
AcDbEntity
  8
Defpoints
 62
     0
100
AcDbPoint
 10
410.3921700079902
 20
617.2548842751197
 30
0.0
  0
ENDBLK
  5
B8FC
330
B8F0
100
AcDbEntity
  8
0
100
AcDbBlockEnd
  0
BLOCK
  5
B907
330
B8FD
100
AcDbEntity
  8
0
100
AcDbBlockBegin
  2
*D34
 70
     1
 10
0.0
 20
0.0
 30
0.0
  3
*D34
  1

  0
LINE
  5
B9B2
330
B8FD
100
AcDbEntity
  8
AM_5
100
AcDbLine
 10
405.8921700079902
 20
644.690979615755
 30
0.0
 11
405.8921700079902
 21
648.0766023480933
 31
0.0
  0
LINE
  5
B9B3
330
B8FD
100
AcDbEntity
  8
AM_5
100
AcDbLine
 10
427.8921700079902
 20
631.690979615755
 30
0.0
 11
427.8921700079902
 21
648.0766023480933
 31
0.0
  0
LINE
  5
B9B4
330
B8FD
100
AcDbEntity
  8
AM_5
100
AcDbLine
 10
406.8921700079902
 20
647.0766023480933
 30
0.0
 11
426.8921700079902
 21
647.0766023480933
 31
0.0
  0
INSERT
  5
B9B5
330
B8FD
100
AcDbEntity
  8
AM_5
100
AcDbBlockReference
  2
_Dot
 10
405.8921700079902
 20
647.0766023480933
 30
0.0
 50
180.0
  0
INSERT
  5
B9B6
330
B8FD
100
AcDbEntity
  8
AM_5
100
AcDbBlockReference
  2
_Dot
 10
427.8921700079902
 20
647.0766023480933
 30
0.0
  0
MTEXT
  5
B9B7
330
B8FD
100
AcDbEntity
  8
AM_5
 62
     2
100
AcDbMText
 10
416.8921700079902
 20
650.1766023480934
 30
0.0
 40
3.200000000000001
 41
0.0
 71
     5
 72
     1
  1
22
 73
     1
 44
1.0
1001
ACAD
1000
MTEXTBEGIN
1070
    73
1070
     1
1070
    44
1040
1.0
1070
    74
1070
     0
1000
MTEXTEND
  0
POINT
  5
B9B8
330
B8FD
100
AcDbEntity
  8
Defpoints
 62
     0
100
AcDbPoint
 10
405.8921700079902
 20
643.690979615755
 30
0.0
  0
POINT
  5
B9B9
330
B8FD
100
AcDbEntity
  8
Defpoints
 62
     0
100
AcDbPoint
 10
427.8921700079902
 20
630.690979615755
 30
0.0
  0
POINT
  5
B9BA
330
B8FD
100
AcDbEntity
  8
Defpoints
 62
     0
100
AcDbPoint
 10
427.8921700079902
 20
647.0766023480933
 30
0.0
  0
ENDBLK
  5
B908
330
B8FD
100
AcDbEntity
  8
0
100
AcDbBlockEnd
  0
BLOCK
  5
B913
330
B909
100
AcDbEntity
  8
0
100
AcDbBlockBegin
  2
*D35
 70
     1
 10
0.0
 20
0.0
 30
0.0
  3
*D35
  1

  0
LINE
  5
B9BB
330
B909
100
AcDbEntity
  8
AM_5
100
AcDbLine
 10
405.8921700079902
 20
644.690979615755
 30
0.0
 11
405.8921700079902
 21
648.0766023480931
 31
0.0
  0
LINE
  5
B9BC
330
B909
100
AcDbEntity
  8
AM_5
100
AcDbLine
 10
377.8921700079902
 20
625.690979615755
 30
0.0
 11
377.8921700079902
 21
648.0766023480931
 31
0.0
  0
LINE
  5
B9BD
330
B909
100
AcDbEntity
  8
AM_5
100
AcDbLine
 10
404.8921700079902
 20
647.0766023480932
 30
0.0
 11
378.8921700079902
 21
647.0766023480932
 31
0.0
  0
INSERT
  5
B9BE
330
B909
100
AcDbEntity
  8
AM_5
100
AcDbBlockReference
  2
_Dot
 10
405.8921700079902
 20
647.0766023480932
 30
0.0
  0
INSERT
  5
B9BF
330
B909
100
AcDbEntity
  8
AM_5
100
AcDbBlockReference
  2
_Dot
 10
377.8921700079902
 20
647.0766023480932
 30
0.0
 50
180.0
  0
MTEXT
  5
B9C0
330
B909
100
AcDbEntity
  8
AM_5
 62
     2
100
AcDbMText
 10
391.8921700079902
 20
650.1766023480931
 30
0.0
 40
3.200000000000001
 41
0.0
 71
     5
 72
     1
  1
28
 73
     1
 44
1.0
1001
ACAD
1000
MTEXTBEGIN
1070
    73
1070
     1
1070
    44
1040
1.0
1070
    74
1070
     0
1000
MTEXTEND
  0
POINT
  5
B9C1
330
B909
100
AcDbEntity
  8
Defpoints
 62
     0
100
AcDbPoint
 10
405.8921700079902
 20
643.690979615755
 30
0.0
  0
POINT
  5
B9C2
330
B909
100
AcDbEntity
  8
Defpoints
 62
     0
100
AcDbPoint
 10
377.8921700079902
 20
624.6909796157551
 30
0.0
  0
POINT
  5
B9C3
330
B909
100
AcDbEntity
  8
Defpoints
 62
     0
100
AcDbPoint
 10
377.8921700079902
 20
647.0766023480932
 30
0.0
  0
ENDBLK
  5
B914
330
B909
100
AcDbEntity
  8
0
100
AcDbBlockEnd
  0
BLOCK
  5
B921
330
B915
100
AcDbEntity
  8
0
100
AcDbBlockBegin
  2
*D36
 70
     1
 10
0.0
 20
0.0
 30
0.0
  3
*D36
  1

  0
LINE
  5
B9C4
330
B915
100
AcDbEntity
  8
AM_5
100
AcDbLine
 10
396.8921680079902
 20
601.690979615755
 30
0.0
 11
386.8921679373057
 21
601.690979615755
 31
0.0
  0
LINE
  5
B9C5
330
B915
100
AcDbEntity
  8
AM_5
100
AcDbLine
 10
396.8921679373058
 20
603.6909790502788
 30
0.0
 11
386.8921679373057
 21
603.6909790502788
 31
0.0
  0
LINE
  5
B9C6
330
B915
100
AcDbEntity
  8
AM_5
100
AcDbLine
 10
387.8921679373058
 20
600.690979615755
 30
0.0
 11
387.8921679373058
 21
599.6909796157551
 31
0.0
  0
LINE
  5
B9C7
330
B915
100
AcDbEntity
  8
AM_5
100
AcDbLine
 10
387.8921679373058
 20
604.6909790502787
 30
0.0
 11
387.8921679373058
 21
610.1843123836121
 31
0.0
  0
LINE
  5
B9C8
330
B915
100
AcDbEntity
  8
AM_5
100
AcDbLine
 10
387.8921679373058
 20
601.690979615755
 30
0.0
 11
387.8921679373058
 21
603.6909790502788
 31
0.0
  0
INSERT
  5
B9C9
330
B915
100
AcDbEntity
  8
AM_5
100
AcDbBlockReference
  2
_Dot
 10
387.8921679373058
 20
601.690979615755
 30
0.0
 50
90.0
  0
INSERT
  5
B9CA
330
B915
100
AcDbEntity
  8
AM_5
100
AcDbBlockReference
  2
_Dot
 10
387.8921679373058
 20
603.6909790502788
 30
0.0
 50
270.0
  0
MTEXT
  5
B9CB
330
B915
100
AcDbEntity
  8
AM_5
 62
     2
100
AcDbMText
 10
384.7921679373057
 20
607.9376457169455
 30
0.0
 40
3.200000000000001
 41
0.0
 71
     5
 72
     1
  1
2
 11
0.0000000000000001
 21
1.0
 31
0.0
 73
     1
 44
1.0
1001
ACAD
1000
MTEXTBEGIN
1070
    73
1070
     1
1070
    44
1040
1.0
1070
    74
1070
     0
1000
MTEXTEND
  0
POINT
  5
B9CC
330
B915
100
AcDbEntity
  8
Defpoints
 62
     0
100
AcDbPoint
 10
397.8921680079902
 20
601.690979615755
 30
0.0
  0
POINT
  5
B9CD
330
B915
100
AcDbEntity
  8
Defpoints
 62
     0
100
AcDbPoint
 10
397.8921679373058
 20
603.6909790502788
 30
0.0
  0
POINT
  5
B9CE
330
B915
100
AcDbEntity
  8
Defpoints
 62
     0
100
AcDbPoint
 10
387.8921679373058
 20
603.6909790502788
 30
0.0
  0
ENDBLK
  5
B922
330
B915
100
AcDbEntity
  8
0
100
AcDbBlockEnd
  0
BLOCK
  5
B9E4
330
B9DA
100
AcDbEntity
  8
0
100
AcDbBlockBegin
  2
*D38
 70
     1
 10
0.0
 20
0.0
 30
0.0
  3
*D38
  1

  0
LINE
  5
BA26
330
B9DA
100
AcDbEntity
  8
AM_5
100
AcDbLine
 10
415.3921710079902
 20
60.05062339939883
 30
0.0
 11
415.3921710079902
 21
38.12430059881657
 31
0.0
  0
LINE
  5
BA27
330
B9DA
100
AcDbEntity
  8
AM_5
100
AcDbLine
 10
396.3921680079903
 20
60.05062339939883
 30
0.0
 11
396.3921680079903
 21
38.12430059881657
 31
0.0
  0
LINE
  5
BA28
330
B9DA
100
AcDbEntity
  8
AM_5
100
AcDbLine
 10
413.3921710079902
 20
40.12430059881657
 30
0.0
 11
398.3921680079903
 21
40.12430059881657
 31
0.0
  0
INSERT
  5
BA29
330
B9DA
100
AcDbEntity
  8
AM_5
100
AcDbBlockReference
  2
_Dot
 10
415.3921710079902
 20
40.12430059881657
 30
0.0
 41
2.0
 42
2.0
 43
2.0
  0
INSERT
  5
BA2A
330
B9DA
100
AcDbEntity
  8
AM_5
100
AcDbBlockReference
  2
_Dot
 10
396.3921680079903
 20
40.12430059881657
 30
0.0
 41
2.0
 42
2.0
 43
2.0
 50
180.0
  0
MTEXT
  5
BA2B
330
B9DA
100
AcDbEntity
  8
AM_5
 62
     2
100
AcDbMText
 10
405.8921695079902
 20
46.32430059881657
 30
0.0
 40
6.400000000000002
 41
0.0
 71
     5
 72
     1
  1
%%c19
 73
     1
 44
1.0
1001
ACAD
1000
MTEXTBEGIN
1070
    73
1070
     1
1070
    44
1040
1.0
1070
    74
1070
     0
1000
MTEXTEND
  0
POINT
  5
BA2C
330
B9DA
100
AcDbEntity
  8
Defpoints
 62
     0
100
AcDbPoint
 10
415.3921710079902
 20
62.05062339939883
 30
0.0
  0
POINT
  5
BA2D
330
B9DA
100
AcDbEntity
  8
Defpoints
 62
     0
100
AcDbPoint
 10
396.3921680079903
 20
62.05062339939883
 30
0.0
  0
POINT
  5
BA2E
330
B9DA
100
AcDbEntity
  8
Defpoints
 62
     0
100
AcDbPoint
 10
396.3921680079903
 20
40.12430059881657
 30
0.0
  0
ENDBLK
  5
B9E5
330
B9DA
100
AcDbEntity
  8
0
100
AcDbBlockEnd
  0
ENDSEC
  0
SECTION
  2
ENTITIES
  0
LINE
  5
B5DF
330
1F
100
AcDbEntity
  8
AM_1
100
AcDbLine
 10
762.0000000079902
 20
546.0000002848403
 30
0.0
 11
762.0000000079902
 21
0.0000002848403255
 31
0.0
  0
LINE
  5
B5E0
330
1F
100
AcDbEntity
  8
AM_1
100
AcDbLine
 10
0.000000007990252
 20
0.0000002848403255
 30
0.0
 11
762.0000000079902
 21
0.0000002848403255
 31
0.0
  0
LINE
  5
B5E1
330
1F
100
AcDbEntity
  8
AM_1
100
AcDbLine
 10
0.000000007990252
 20
546.0000002848403
 30
0.0
 11
762.0000000079902
 21
546.0000002848403
 31
0.0
  0
LINE
  5
B5E2
330
1F
100
AcDbEntity
  8
AM_1
100
AcDbLine
 10
0.000000007990252
 20
546.0000002848403
 30
0.0
 11
0.000000007990252
 21
0.0000002848403255
 31
0.0
  0
LINE
  5
B5E3
330
1F
100
AcDbEntity
  8
AM_2
100
AcDbLine
 10
40.00000000799025
 20
546.0000002848403
 30
0.0
 11
40.00000000799025
 21
322.0000002848403
 31
0.0
  0
LINE
  5
B5E4
330
1F
100
AcDbEntity
  8
AM_2
100
AcDbLine
 10
0.000000007990252
 20
530.0000002848403
 30
0.0
 11
220.0000000079902
 21
530.0000002848403
 31
0.0
  0
LINE
  5
B5E5
330
1F
100
AcDbEntity
  8
AM_2
100
AcDbLine
 10
0.000000007990252
 20
514.0000002848402
 30
0.0
 11
220.0000000079902
 21
514.0000002848402
 31
0.0
  0
LINE
  5
B5E6
330
1F
100
AcDbEntity
  8
AM_2
100
AcDbLine
 10
0.000000007990252
 20
482.0000002848403
 30
0.0
 11
220.0000000079902
 21
482.0000002848403
 31
0.0
  0
LINE
  5
B5E7
330
1F
100
AcDbEntity
  8
AM_2
100
AcDbLine
 10
0.000000007990252
 20
450.0000002848403
 30
0.0
 11
220.0000000079902
 21
450.0000002848403
 31
0.0
  0
LINE
  5
B5E8
330
1F
100
AcDbEntity
  8
AM_2
100
AcDbLine
 10
40.00000000799025
 20
402.0000002848403
 30
0.0
 11
220.0000000079902
 21
402.0000002848403
 31
0.0
  0
LINE
  5
B5E9
330
1F
100
AcDbEntity
  8
AM_2
100
AcDbLine
 10
40.00000000799025
 20
386.0000002848403
 30
0.0
 11
220.0000000079902
 21
386.0000002848403
 31
0.0
  0
LINE
  5
B5EA
330
1F
100
AcDbEntity
  8
AM_2
100
AcDbLine
 10
0.000000007990252
 20
370.0000002848403
 30
0.0
 11
220.0000000079902
 21
370.0000002848403
 31
0.0
  0
LINE
  5
B5EB
330
1F
100
AcDbEntity
  8
AM_2
100
AcDbLine
 10
40.00000000799025
 20
354.0000002848403
 30
0.0
 11
220.0000000079902
 21
354.0000002848403
 31
0.0
  0
LINE
  5
B5EC
330
1F
100
AcDbEntity
  8
AM_2
100
AcDbLine
 10
40.00000000799025
 20
338.0000002848403
 30
0.0
 11
220.0000000079902
 21
338.0000002848403
 31
0.0
  0
LINE
  5
B5ED
330
1F
100
AcDbEntity
  8
AM_0
100
AcDbLine
 10
0.000000007990252
 20
322.0000002848403
 30
0.0
 11
220.0000000079902
 21
322.0000002848403
 31
0.0
  0
LINE
  5
B5EE
330
1F
100
AcDbEntity
  8
AM_0
100
AcDbLine
 10
0.000000007990252
 20
546.0000002848403
 30
0.0
 11
0.000000007990252
 21
322.0000002848403
 31
0.0
  0
LINE
  5
B5EF
330
1F
100
AcDbEntity
  8
AM_0
100
AcDbLine
 10
0.000000007990252
 20
546.0000002848403
 30
0.0
 11
220.0000000079902
 21
546.0000002848403
 31
0.0
  0
LINE
  5
B5F0
330
1F
100
AcDbEntity
  8
AM_0
100
AcDbLine
 10
220.0000000079902
 20
546.0000002848403
 30
0.0
 11
220.0000000079902
 21
322.0000002848403
 31
0.0
  0
LINE
  5
B5F1
330
1F
100
AcDbEntity
  8
AM_2
100
AcDbLine
 10
0.000000007990252
 20
434.0000002848403
 30
0.0
 11
220.0000000079902
 21
434.0000002848403
 31
0.0
  0
LINE
  5
B5F2
330
1F
100
AcDbEntity
  8
AM_2
100
AcDbLine
 10
0.000000007990252
 20
418.0000002848403
 30
0.0
 11
220.0000000079902
 21
418.0000002848403
 31
0.0
  0
LINE
  5
B5F3
330
1F
100
AcDbEntity
  8
AM_2
100
AcDbLine
 10
40.00000000799025
 20
402.0000002848403
 30
0.0
 11
220.0000000079902
 21
402.0000002848403
 31
0.0
  0
LINE
  5
B5F4
330
1F
100
AcDbEntity
  8
AM_2
100
AcDbLine
 10
40.00000000799025
 20
498.0000002848403
 30
0.0
 11
220.0000000079902
 21
498.0000002848403
 31
0.0
  0
LINE
  5
B5F5
330
1F
100
AcDbEntity
  8
AM_2
100
AcDbLine
 10
40.00000000799025
 20
466.0000002848403
 30
0.0
 11
220.0000000079902
 21
466.0000002848403
 31
0.0
  0
POLYLINE
  5
B5F6
330
1F
100
AcDbEntity
  8
AM_10
370
    13
100
AcDb2dPolyline
 66
     1
 10
0.0
 20
0.0
 30
0.0
  0
VERTEX
  5
B5F7
330
B5F6
100
AcDbEntity
  8
AM_10
370
    13
100
AcDbVertex
100
AcDb2dVertex
 10
392.8921680079903
 20
263.0506273993988
 30
0.0
  0
VERTEX
  5
B5F8
330
B5F6
100
AcDbEntity
  8
AM_10
370
    13
100
AcDbVertex
100
AcDb2dVertex
 10
403.4921696079902
 20
263.0506273993988
 30
0.0
  0
VERTEX
  5
B5F9
330
B5F6
100
AcDbEntity
  8
AM_10
370
    13
100
AcDbVertex
100
AcDb2dVertex
 10
404.6921696079902
 20
258.0506273993988
 30
0.0
  0
VERTEX
  5
B5FA
330
B5F6
100
AcDbEntity
  8
AM_10
370
    13
100
AcDbVertex
100
AcDb2dVertex
 10
407.0921696079902
 20
268.0506273993988
 30
0.0
  0
VERTEX
  5
B5FB
330
B5F6
100
AcDbEntity
  8
AM_10
370
    13
100
AcDbVertex
100
AcDb2dVertex
 10
408.2921696079902
 20
263.0506273993988
 30
0.0
  0
VERTEX
  5
B5FC
330
B5F6
100
AcDbEntity
  8
AM_10
370
    13
100
AcDbVertex
100
AcDb2dVertex
 10
418.8921712079902
 20
263.0506273993988
 30
0.0
  0
SEQEND
  5
B5FD
330
B5F6
100
AcDbEntity
  8
AM_10
370
    13
  0
LINE
  5
B5FE
330
1F
100
AcDbEntity
  8
AM_0
100
AcDbLine
 10
397.8921680079903
 20
460.5506253993986
 30
0.0
 11
397.8921680079903
 21
263.0506273993988
 31
0.0
  0
POLYLINE
  5
B5FF
330
1F
100
AcDbEntity
  8
AM_10
370
    13
100
AcDb2dPolyline
 66
     1
 10
0.0
 20
0.0
 30
0.0
  0
VERTEX
  5
B600
330
B5FF
100
AcDbEntity
  8
AM_10
370
    13
100
AcDbVertex
100
AcDb2dVertex
 10
392.8921680079903
 20
258.0506273993988
 30
0.0
  0
VERTEX
  5
B601
330
B5FF
100
AcDbEntity
  8
AM_10
370
    13
100
AcDbVertex
100
AcDb2dVertex
 10
403.4921696079902
 20
258.0506273993988
 30
0.0
  0
VERTEX
  5
B602
330
B5FF
100
AcDbEntity
  8
AM_10
370
    13
100
AcDbVertex
100
AcDb2dVertex
 10
404.6921696079902
 20
253.0506273993988
 30
0.0
  0
VERTEX
  5
B603
330
B5FF
100
AcDbEntity
  8
AM_10
370
    13
100
AcDbVertex
100
AcDb2dVertex
 10
407.0921696079902
 20
263.0506273993988
 30
0.0
  0
VERTEX
  5
B604
330
B5FF
100
AcDbEntity
  8
AM_10
370
    13
100
AcDbVertex
100
AcDb2dVertex
 10
408.2921696079902
 20
258.0506273993988
 30
0.0
  0
VERTEX
  5
B605
330
B5FF
100
AcDbEntity
  8
AM_10
370
    13
100
AcDbVertex
100
AcDb2dVertex
 10
418.8921712079902
 20
258.0506273993988
 30
0.0
  0
SEQEND
  5
B606
330
B5FF
100
AcDbEntity
  8
AM_10
370
    13
  0
LINE
  5
B607
330
1F
100
AcDbEntity
  8
AM_0
100
AcDbLine
 10
397.8921680079903
 20
258.0506273993988
 30
0.0
 11
397.8921680079902
 21
80.55062339939883
 31
0.0
  0
LINE
  5
B608
330
1F
100
AcDbEntity
  8
AM_0
100
AcDbLine
 10
413.8921710079903
 20
258.0506273993988
 30
0.0
 11
413.8921710079903
 21
80.55062339939883
 31
0.0
  0
LINE
  5
B609
330
1F
100
AcDbEntity
  8
AM_0
100
AcDbLine
 10
397.8921680079903
 20
460.5506253993986
 30
0.0
 11
413.8921710079903
 21
460.5506253993986
 31
0.0
  0
LINE
  5
B60C
330
1F
100
AcDbEntity
  8
AM_7
100
AcDbLine
 10
405.8921700079903
 20
502.5506253993986
 30
0.0
 11
405.8921700079903
 21
54.55062339939883
 31
0.0
  0
LINE
  5
B60D
330
1F
100
AcDbEntity
  8
AM_0
100
AcDbLine
 10
413.8921710079903
 20
460.5506253993986
 30
0.0
 11
413.8921710079903
 21
263.0506273993988
 31
0.0
  0
TEXT
  5
B618
330
1F
100
AcDbEntity
  8
AM_6
100
AcDbText
 10
45.71400000799065
 20
358.8000002848403
 30
0.0
 40
6.4
  1
受注生産品
 41
0.90047268
100
AcDbText
  0
TEXT
  5
B619
330
1F
100
AcDbEntity
  8
AM_6
100
AcDbText
 10
11.31400000799027
 20
534.8000002848403
 30
0.0
 40
6.4
  1
品　名
 41
0.85537027
100
AcDbText
  0
TEXT
  5
B61A
330
1F
100
AcDbEntity
  8
AM_6
100
AcDbText
 10
11.31400000799027
 20
518.8000002848403
 30
0.0
 40
6.4
  1
品　番
 41
0.85537027
100
AcDbText
  0
TEXT
  5
B61B
330
1F
100
AcDbEntity
  8
AM_6
100
AcDbText
 10
45.71400000799065
 20
342.8000002848404
 30
0.0
 40
6.4
  1
＊
 41
0.90047268
100
AcDbText
  0
TEXT
  5
B61C
330
1F
100
AcDbEntity
  8
AM_6
100
AcDbText
 10
45.71400000799065
 20
326.8000002848403
 30
0.0
 40
6.4
  1
＊
 41
0.90047268
100
AcDbText
  0
TEXT
  5
B61D
330
1F
100
AcDbEntity
  8
AM_6
100
AcDbText
 10
11.31400000799027
 20
502.8000002848403
 30
0.0
 40
6.4
  1
材　質
 41
0.85537027
100
AcDbText
  0
TEXT
  5
B61E
330
1F
100
AcDbEntity
  8
AM_6
100
AcDbText
 10
11.31400000799027
 20
470.8000002848403
 30
0.0
 40
6.4
  1
仕上げ
 41
0.85537027
100
AcDbText
  0
TEXT
  5
B61F
330
1F
100
AcDbEntity
  8
AM_6
100
AcDbText
 10
45.71400000799065
 20
374.8000002848403
 30
0.0
 40
6.4
  1
＊
 41
0.90047268
100
AcDbText
  0
TEXT
  5
B620
330
1F
100
AcDbEntity
  8
AM_6
100
AcDbText
 10
45.71400000799065
 20
390.8000002848404
 30
0.0
 40
6.4
  1
＊
 41
0.90047268
100
AcDbText
  0
TEXT
  5
B621
330
1F
100
AcDbEntity
  8
AM_6
100
AcDbText
 10
4.914000007990239
 20
406.8000002848403
 30
0.0
 40
6.4
  1
セットビス
 41
0.84892707
100
AcDbText
  0
TEXT
  5
B622
330
1F
100
AcDbEntity
  8
AM_6
100
AcDbText
 10
45.71400000799065
 20
406.8000002848403
 30
0.0
 40
6.4
  1
＊
 41
0.90047268
100
AcDbText
  0
TEXT
  5
B623
330
1F
100
AcDbEntity
  8
AM_6
100
AcDbText
 10
14.51400000799026
 20
358.8000002848403
 30
0.0
 40
6.4
  1
備考
 41
0.8643907499999999
100
AcDbText
  0
TEXT
  5
B624
330
1F
100
AcDbEntity
  8
AM_6
100
AcDbText
 10
11.31400000799027
 20
438.8000002848403
 30
0.0
 40
6.4
  1
定　尺
 41
0.85537027
100
AcDbText
  0
TEXT
  5
B625
330
1F
100
AcDbEntity
  8
AM_6
100
AcDbText
 10
8.114000007990398
 20
422.8000002848403
 30
0.0
 40
6.4
  1
左右勝手
 41
0.8512700499999999
100
AcDbText
  0
TEXT
  5
B626
330
1F
100
AcDbEntity
  8
AM_6
100
AcDbText
 10
45.24290000799038
 20
437.9399602848403
 30
0.0
 40
6.4
  1
Ｌ：１８００／１２００
 41
0.8440946700000001
100
AcDbText
  0
TEXT
  5
B627
330
1F
100
AcDbEntity
  8
AM_6
100
AcDbText
 10
45.71400000799065
 20
534.8000002848403
 30
0.0
 40
6.4
  1
ＶＵ－３２－１
 41
0.84634979
100
AcDbText
  0
TEXT
  5
B628
330
1F
100
AcDbEntity
  8
AM_6
100
AcDbText
 10
45.71400000799065
 20
518.8000002848403
 30
0.0
 40
6.4
  1
フック棒
 41
0.8512700499999999
100
AcDbText
  0
TEXT
  5
B629
330
1F
100
AcDbEntity
  8
AM_6
100
AcDbText
 10
45.71400000799065
 20
502.8000002848403
 30
0.0
 40
6.4
  1
本体　：スチール
 41
0.8455654
100
AcDbText
  0
TEXT
  5
B62A
330
1F
100
AcDbEntity
  8
AM_6
100
AcDbText
 10
45.24290000799038
 20
422.7323402848401
 30
0.0
 40
6.4
  1
無し
 41
0.8643907499999999
100
AcDbText
  0
TEXT
  5
B62B
330
1F
100
AcDbEntity
  8
AM_6
100
AcDbText
 10
45.71400000799065
 20
486.8000002848403
 30
0.0
 40
6.4
  1
フック：真鍮鋳物
 41
0.8455654
100
AcDbText
  0
TEXT
  5
B62C
330
1F
100
AcDbEntity
  8
AM_6
100
AcDbText
 10
45.71400000799065
 20
470.8000002848403
 30
0.0
 40
6.4
  1
本体　：ビニール被膜
 41
0.8444834799999998
100
AcDbText
  0
TEXT
  5
B62D
330
1F
100
AcDbEntity
  8
AM_6
100
AcDbText
 10
45.71400000799065
 20
454.8000002848403
 30
0.0
 40
6.4
  1
フック：ニッケルメッキ
 41
0.8440946700000001
100
AcDbText
  0
DIMENSION
  5
B66A
330
1F
100
AcDbEntity
  8
AM_5
100
AcDbDimension
  2
*D12
 10
355.8921660079903
 20
460.5506253993986
 30
0.0
 11
349.6921660079902
 21
478.5506253993987
 31
0.0
 70
    32
 71
     5
 42
36.00000000000006
  3
SYS$0
100
AcDbAlignedDimension
 13
390.8921700079903
 23
496.5506253993987
 33
0.0
 14
397.8921680079903
 24
460.5506253993986
 34
0.0
 50
90.0
100
AcDbRotatedDimension
1001
ACAD
1000
DSTYLE
1002
{
1070
    40
1040
2.0
1002
}
  0
DIMENSION
  5
B692
330
1F
100
AcDbEntity
  8
AM_5
100
AcDbDimension
  2
*D13
 10
355.8921660079903
 20
60.55062339939883
 30
0.0
 11
349.6921660079903
 21
260.5506243993988
 31
0.0
 70
    32
  1
L
 71
     5
 42
400.0000019999998
  3
SYS$0
100
AcDbAlignedDimension
 13
397.8921680079903
 23
460.5506253993986
 33
0.0
 14
397.8921680079902
 24
60.55062339939883
 34
0.0
 50
90.0
100
AcDbRotatedDimension
1001
ACAD
1000
DSTYLE
1002
{
1070
    40
1040
2.0
1002
}
  0
DIMENSION
  5
B6B1
330
1F
100
AcDbEntity
  8
AM_5
100
AcDbDimension
  2
*D14
 10
413.8921710079903
 20
322.9802158756936
 30
0.0
 11
387.2388346746569
 21
322.9802158756936
 31
0.0
 70
   160
  1
%%c<>
 71
     5
 42
16.00000299999999
  3
SYS$0
100
AcDbAlignedDimension
 13
397.8921680079903
 23
311.3458917580877
 33
0.0
 14
413.8921710079903
 24
311.3458917580877
 34
0.0
100
AcDbRotatedDimension
1001
ACAD
1000
DSTYLE
1002
{
1070
    40
1040
2.0
1002
}
  0
ARC
  5
B749
330
1F
100
AcDbEntity
  8
AM_0
100
AcDbCircle
 10
390.8921700079903
 20
483.5506253993986
 30
0.0
 40
7.0
100
AcDbArc
 50
72.54239687627806
 51
185.7391704772671
  0
ARC
  5
B762
330
1F
100
AcDbEntity
  8
AM_0
100
AcDbCircle
 10
380.9422956369241
 20
482.5506253993986
 30
0.0
 40
3.0
100
AcDbArc
 50
183.1291172626464
 51
5.739170477265895
  0
ARC
  5
B770
330
1F
100
AcDbEntity
  8
AM_0
100
AcDbCircle
 10
417.2850261814606
 20
468.5506253993986
 30
0.0
 40
6.89285617347042
100
AcDbArc
 50
180.0
 51
240.5128885767816
  0
ARC
  5
B771
330
1F
100
AcDbEntity
  8
AM_0
100
AcDbCircle
 10
394.4993138345198
 20
468.5506253993986
 30
0.0
 40
6.89285617347042
100
AcDbArc
 50
299.4871018739214
 51
0.0
  0
ARC
  5
B772
330
1F
100
AcDbEntity
  8
AM_0
100
AcDbCircle
 10
389.3921700079903
 20
478.7809293923139
 30
0.0
 40
12.0
100
AcDbArc
 50
0.0
 51
72.54239687627803
  0
ARC
  5
B773
330
1F
100
AcDbEntity
  8
AM_0
100
AcDbCircle
 10
390.8921700079903
 20
483.5506253993986
 30
0.0
 40
13.0
100
AcDbArc
 50
53.4852478052884
 51
185.7391704772665
  0
LINE
  5
B776
330
1F
100
AcDbEntity
  8
AM_0
100
AcDbLine
 10
410.3921700079903
 20
483.0506253993986
 30
0.0
 11
410.3921700079903
 21
468.5506253993986
 31
0.0
  0
LINE
  5
B777
330
1F
100
AcDbEntity
  8
AM_0
100
AcDbLine
 10
401.3921700079903
 20
478.7809294923139
 30
0.0
 11
401.3921700079903
 21
468.5506253993986
 31
0.0
  0
ARC
  5
B7F9
330
1F
100
AcDbEntity
  8
AM_0
100
AcDbCircle
 10
424.8921700079902
 20
489.5506253993986
 30
0.0
 40
3.0
100
AcDbArc
 50
221.4096221092706
 51
41.40962210927057
  0
ARC
  5
B814
330
1F
100
AcDbEntity
  8
AM_0
100
AcDbCircle
 10
417.3921700079902
 20
482.9362471217371
 30
0.0
 40
7.0
100
AcDbArc
 50
41.40962210927111
 51
180.0
  0
ARC
  5
B816
330
1F
100
AcDbEntity
  8
AM_0
100
AcDbCircle
 10
404.5778540181276
 20
502.03581009349
 30
0.0
 40
10.0
100
AcDbArc
 50
233.4852478052884
 51
303.8585274815263
  0
ARC
  5
B817
330
1F
100
AcDbEntity
  8
AM_0
100
AcDbCircle
 10
417.3921700079902
 20
482.9362471217371
 30
0.0
 40
13.0
100
AcDbArc
 50
41.40962210927085
 51
123.8585274815264
  0
LINE
  5
B869
330
1F
100
AcDbEntity
  8
AM_0
100
AcDbLine
 10
397.8921680079903
 20
460.5506253993986
 30
0.0
 11
397.8921680079903
 21
462.5506248339225
 31
0.0
  0
LINE
  5
B86A
330
1F
100
AcDbEntity
  8
AM_0
100
AcDbLine
 10
397.8921680079903
 20
462.5506248339225
 30
0.0
 11
413.8921710079902
 21
462.5506253993982
 31
0.0
  0
LINE
  5
B86B
330
1F
100
AcDbEntity
  8
AM_0
100
AcDbLine
 10
413.8921710079902
 20
462.5506253993982
 30
0.0
 11
413.8921710079902
 21
460.5506253993986
 31
0.0
  0
LWPOLYLINE
  5
B9D7
330
1F
100
AcDbEntity
  8
AM_0
  6
Continuous
100
AcDbPolyline
 90
        6
 70
     0
 43
0.0
 10
397.8921680079903
 20
80.55062339939883
 10
396.3921680079903
 20
62.05062339939883
 42
0.4624404748406688
 10
397.8921680079903
 20
60.55062339939883
 10
413.8921710079903
 20
60.55062339939883
 42
0.4142135623730948
 10
415.3921710079902
 20
62.05062339939883
 10
413.8921710079903
 20
80.55062339939883
  0
LINE
  5
B9D8
330
1F
100
AcDbEntity
  8
AM_0
  6
Continuous
100
AcDbLine
 10
397.8921680079903
 20
80.55062339939883
 30
0.0
 11
413.8921710079903
 21
80.55062339939883
 31
0.0
  0
DIMENSION
  5
B9D9
330
1F
100
AcDbEntity
  8
AM_5
100
AcDbDimension
  2
*D38
 10
396.3921680079903
 20
40.12430059881657
 30
0.0
 11
405.8921695079902
 21
46.32430059881657
 31
0.0
 70
    32
  1
%%c<>
 71
     5
 42
19.00000299999999
  3
SYS$0
100
AcDbAlignedDimension
 13
415.3921710079902
 23
62.05062339939883
 33
0.0
 14
396.3921680079903
 24
62.05062339939883
 34
0.0
 50
0.0000000000001018
100
AcDbRotatedDimension
1001
ACAD
1000
DSTYLE
1002
{
1070
    40
1040
2.0
1002
}
  0
ENDSEC
  0
SECTION
  2
OBJECTS
  0
DICTIONARY
  5
C
330
0
100
AcDbDictionary
281
     1
  3
ACAD_2007HEADERVARS_RT
350
BA49
  3
ACAD_BGPLOT_KEY
350
AB06
  3
ACAD_COLOR
350
A91D
  3
ACAD_GROUP
350
D
  3
ACAD_LAYOUT
350
1A
  3
ACAD_MATERIAL
350
A91C
  3
ACAD_MLINESTYLE
350
17
  3
ACAD_PLOTSETTINGS
350
19
  3
ACAD_PLOTSTYLENAME
350
E
  3
ACAD_TABLESTYLE
350
AAB9
  3
ACAD_VISUALSTYLE
350
B0F1
  3
AcAsAppObject
350
3DA1
  3
ACASGREF_MASTER
350
3DE9
  3
AcDbVariableDictionary
350
34
  3
AcmDictionary
350
47
  3
AD_GREF_MODULE
350
3DEA
  3
AD_MAPI_MODULE
350
3E06
  3
AMG
350
2B
  3
AMGSNAPSETTINGS
350
7D
  3
ASE_INDEX_DICTIONARY
350
B331
  3
DWGPROPS
350
BA48
  3
MAPISURF_MODULE
350
3DEB
  0
DICTIONARY
  5
3F95
330
2
100
AcDbDictionary
280
     1
281
     1
  3
ACAD_LAYERFILTERS
360
B523
  3
ACAD_LAYERSTATES
360
3F96
  3
ACLYDICTIONARY
360
B522
  3
AMLAYER_GROUPCOLORS
360
AAB4
  0
DICTIONARY
  5
8A
330
1F
100
AcDbDictionary
280
     1
281
     1
  3
ACAD_SORTENTS
360
B1BA
  0
DICTIONARY
  5
BA49
102
{ACAD_REACTORS
330
C
102
}
330
C
100
AcDbDictionary
281
     1
  3
DIMARCSYM
350
BA4A
  0
DICTIONARY
  5
AB06
102
{ACAD_REACTORS
330
C
102
}
330
C
100
AcDbDictionary
280
     1
281
     1
  0
DICTIONARY
  5
A91D
102
{ACAD_REACTORS
330
C
102
}
330
C
100
AcDbDictionary
281
     1
  0
DICTIONARY
  5
D
102
{ACAD_REACTORS
330
C
102
}
330
C
100
AcDbDictionary
281
     1
  0
DICTIONARY
  5
1A
102
{ACAD_REACTORS
330
C
102
}
330
C
100
AcDbDictionary
281
     1
  3
Model
350
22
  3
ﾚｲｱｳﾄ1
350
1E
  3
ﾚｲｱｳﾄ2
350
26
  0
DICTIONARY
  5
A91C
102
{ACAD_REACTORS
330
C
102
}
330
C
100
AcDbDictionary
281
     1
  3
ByBlock
350
B0EF
  3
ByLayer
350
B0EE
  3
Global
350
B0F0
  0
DICTIONARY
  5
17
102
{ACAD_REACTORS
330
C
102
}
330
C
100
AcDbDictionary
281
     1
  3
Standard
350
18
  0
DICTIONARY
  5
19
102
{ACAD_REACTORS
330
C
102
}
330
C
100
AcDbDictionary
281
     1
  0
ACDBDICTIONARYWDFLT
  5
E
102
{ACAD_REACTORS
330
C
102
}
330
C
100
AcDbDictionary
281
     1
  3
Normal
350
F
100
AcDbDictionaryWithDefault
340
F
  0
DICTIONARY
  5
AAB9
102
{ACAD_REACTORS
330
C
102
}
330
C
100
AcDbDictionary
281
     1
  3
Standard
350
AABA
  0
DICTIONARY
  5
B0F1
102
{ACAD_REACTORS
330
C
102
}
330
C
100
AcDbDictionary
281
     1
  3
2dWireframe
350
B0F7
  3
3D Hidden
350
B0F9
  3
3dWireframe
350
B0F8
  3
Basic
350
B0F6
  3
Brighten
350
B0FD
  3
ColorChange
350
B101
  3
Conceptual
350
B0FA
  3
Dim
350
B0FC
  3
Facepattern
350
B100
  3
Flat
350
B0F2
  3
FlatWithEdges
350
B0F3
  3
Gouraud
350
B0F4
  3
GouraudWithEdges
350
B0F5
  3
Linepattern
350
B0FF
  3
Realistic
350
B0FB
  3
Thicken
350
B0FE
  0
ACAD_PROXY_OBJECT
  5
3DA1
102
{ACAD_REACTORS
330
C
102
}
330
C
100
AcDbProxyObject
 90
      499
 91
      576
 95
       23
 70
     0
 93
       10
310
407F
 94
        0
1001
ACAD
1000
AcRTDxfName
1000
ASAPP
  0
ACAD_PROXY_OBJECT
  5
3DE9
102
{ACAD_REACTORS
330
C
102
}
330
C
100
AcDbProxyObject
 90
      499
 91
      581
 95
       23
 70
     0
 93
       34
310
010000407F
 94
        0
1001
ACAD
1000
AcRTDxfName
1000
ACASGREFMASTER
  0
DICTIONARY
  5
34
102
{ACAD_REACTORS
330
C
102
}
330
C
100
AcDbDictionary
281
     1
  3
CTABLESTYLE
350
AAF3
  3
DIMASSOC
350
A10C
  3
FIELDEVAL
350
AB07
  3
INDEXCTL
350
35
  3
SORTENTS
350
194C
  0
DICTIONARY
  5
47
102
{ACAD_REACTORS
330
C
102
}
330
C
100
AcDbDictionary
281
     1
  3
AcmBOM
350
7E8
  3
AcmStdDictionary
350
4C
  3
AMDTSECTSYM_ARROWCOLOR
350
A929
  0
ACAD_PROXY_OBJECT
  5
3DEA
102
{ACAD_REACTORS
330
C
102
}
330
C
100
AcDbProxyObject
 90
      499
 91
      582
 95
       23
 70
     0
 93
      114
310
00000043800000000000000000003F
 94
        0
1001
ACAD
1000
AcRTDxfName
1000
ACADGREFMODULE
  0
ACAD_PROXY_OBJECT
  5
3E06
102
{ACAD_REACTORS
330
C
102
}
330
C
100
AcDbProxyObject
 90
      499
 91
      594
 95
       23
 70
     0
 93
       34
310
05000044FF
 94
        0
1001
ACAD
1000
AcRTDxfName
1000
MAPIADMODULE
  0
DICTIONARY
  5
2B
102
{ACAD_REACTORS
330
C
102
}
330
C
100
AcDbDictionary
281
     1
  0
DICTIONARY
  5
7D
102
{ACAD_REACTORS
330
C
102
}
330
C
100
AcDbDictionary
281
     1
  0
DICTIONARY
  5
B331
102
{ACAD_REACTORS
330
C
102
}
330
C
100
AcDbDictionary
281
     1
  3
ASEBlockHierarchyIndexRecord
350
B332
1001
DCO15
1040
1594111214.218
  0
XRECORD
  5
BA48
102
{ACAD_REACTORS
330
C
102
}
330
C
100
AcDbXrecord
280
     1
  1
DWGPROPS COOKIE
  2

  3

  4

  6

  7

  8
Administrator
  9

300
AmdtFileType=84
301
=
302
=
303
=
304
=
305
=
306
=
307
=
308
=
309
=
 40
0.0287311921296296
 41
2456723.609705394
 42
2456723.63843478
  1

 90
        1
  0
ACAD_PROXY_OBJECT
  5
3DEB
102
{ACAD_REACTORS
330
C
102
}
330
C
100
AcDbProxyObject
 90
      499
 91
      583
 95
       23
 70
     0
 93
        8
310
047E
 94
        0
1001
ACAD
1000
AcRTDxfName
1000
AMDTMAPISURFMOUDULE
  0
DICTIONARY
  5
B523
102
{ACAD_REACTORS
330
3F95
102
}
330
3F95
100
AcDbDictionary
281
     1
  0
DICTIONARY
  5
3F96
102
{ACAD_REACTORS
330
3F95
102
}
330
3F95
100
AcDbDictionary
281
     1
  3
20011210
350
3FB7
  0
DICTIONARY
  5
B522
102
{ACAD_REACTORS
330
3F95
102
}
330
3F95
100
AcDbDictionary
281
     1
1001
ACAD
1000
<All
  0
DICTIONARY
  5
AAB4
102
{ACAD_REACTORS
330
3F95
102
}
330
3F95
100
AcDbDictionary
280
     1
281
     1
  0
SORTENTSTABLE
  5
B1BA
102
{ACAD_REACTORS
330
8A
102
}
330
8A
100
AcDbSortentsTable
330
1F
331
B6B1
  5
B6B1
331
B620
  5
B620
331
B5F5
  5
B5F5
331
B5E4
  5
B5E4
331
B776
  5
B776
331
B61E
  5
B61E
331
B5F3
  5
B5F3
331
B5E2
  5
B5E2
331
B61C
  5
B61C
331
B62D
  5
B62D
331
B5F1
  5
B5F1
331
B5E0
  5
B5E0
331
B772
  5
B772
331
B61A
  5
B61A
331
B62B
  5
B62B
331
B5EF
  5
B5EF
331
B7F9
  5
B7F9
331
B770
  5
B774
331
B618
  5
B618
331
B5FE
  5
B5FE
331
B629
  5
B629
331
B5ED
  5
B5ED
331
B627
  5
B627
331
B60D
  5
B60D
331
B5EB
  5
B5EB
331
B817
  5
B816
331
B625
  5
B625
331
B5E9
  5
B5E9
331
B692
  5
B692
331
B623
  5
B623
331
B609
  5
B609
331
B5E7
  5
B5E7
331
B621
  5
B621
331
B607
  5
B607
331
B5F6
  5
B5F6
331
B5E5
  5
B5E5
331
B777
  5
B777
331
B61F
  5
B61F
331
B5F4
  5
B5F4
331
B5E3
  5
B5E3
331
B61D
  5
B61D
331
B5F2
  5
B5F2
331
B5E1
  5
B5E1
331
B762
  5
B765
331
B773
  5
B74C
331
B61B
  5
B61B
331
B62C
  5
B62C
331
B5F0
  5
B5F0
331
B5DF
  5
B5DF
331
B771
  5
B775
331
B619
  5
B619
331
B5FF
  5
B5FF
331
B62A
  5
B62A
331
B5EE
  5
B5EE
331
B628
  5
B628
331
B5EC
  5
B5EC
331
B66A
  5
B66A
331
B626
  5
B626
331
B60C
  5
B60C
331
B5EA
  5
B5EA
331
B816
  5
B817
331
B749
  5
B762
331
B624
  5
B624
331
B5E8
  5
B5E8
331
B814
  5
B814
331
B622
  5
B622
331
B608
  5
B608
331
B5E6
  5
B5E6
  0
XRECORD
  5
BA4A
102
{ACAD_REACTORS
330
BA49
102
}
330
BA49
100
AcDbXrecord
280
     1
 70
     1
  0
LAYOUT
  5
22
102
{ACAD_XDICTIONARY
360
BA4D
102
}
102
{ACAD_REACTORS
330
1A
102
}
330
1A
100
AcDbPlotSettings
  1

  2
Adobe PDF
  4
A3
  6
AM_VIEW1
 40
3.174999952316284
 41
3.174999952316284
 42
3.17498779296875
 43
3.17498779296875
 44
297.0318298339844
 45
420.1583251953125
 46
8.84092104434967
 47
16.40416872501373
 48
0.000000007990252
 49
0.0000002848403255
140
762.0000000079902
141
546.0000002848403
142
1.0
143
2.0
 70
  3748
 72
     1
 73
     1
 74
     4
  7
monochrome.ctb
 75
     0
147
0.5323843261697791
148
-0.000000007990252
149
-0.0000002848403255
100
AcDbLayout
  1
Model
 70
     1
 71
     0
 10
0.0
 20
0.0
 11
12.0
 21
9.0
 12
0.0
 22
0.0
 32
0.0
 14
0.0
 24
0.0
 34
0.0
 15
0.0
 25
0.0
 35
0.0
146
0.0
 13
0.0
 23
0.0
 33
0.0
 16
1.0
 26
0.0
 36
0.0
 17
0.0
 27
1.0
 37
0.0
 76
     0
330
1F
331
B0EC
1001
ACAD_PSEXT
1000
Adobe PDF
1000
Adobe PDF Converter
1000
My Documents\*.pdf
1000

1070
     0
  0
LAYOUT
  5
1E
102
{ACAD_XDICTIONARY
360
BA4B
102
}
102
{ACAD_REACTORS
330
1A
102
}
330
1A
100
AcDbPlotSettings
  1

  2
\\ML370\XEROX
  4
A4
  6

 40
3.174999952316284
 41
3.174999952316284
 42
3.175003051757812
 43
3.17498779296875
 44
209.8674926757813
 45
296.6719970703125
 46
0.0
 47
0.0
 48
0.0
 49
0.0
140
0.0
141
0.0
142
1.0
143
1.0
 70
   688
 72
     1
 73
     1
 74
     5
  7
monochrome.ctb
 75
    16
147
1.0
148
0.0
149
0.0
100
AcDbLayout
  1
ﾚｲｱｳﾄ1
 70
     1
 71
     1
 10
-3.17498779296875
 20
-3.174999952316284
 11
293.4970092773438
 21
206.692492723465
 12
0.0
 22
0.0
 32
0.0
 14
1.000000000000000E+20
 24
1.000000000000000E+20
 34
1.000000000000000E+20
 15
-1.000000000000000E+20
 25
-1.000000000000000E+20
 35
-1.000000000000000E+20
146
0.0
 13
0.0
 23
0.0
 33
0.0
 16
1.0
 26
0.0
 36
0.0
 17
0.0
 27
1.0
 37
0.0
 76
     0
330
1B
  0
LAYOUT
  5
26
102
{ACAD_XDICTIONARY
360
BA4F
102
}
102
{ACAD_REACTORS
330
1A
102
}
330
1A
100
AcDbPlotSettings
  1

  2
\\ML370\XEROX
  4

  6

 40
0.0
 41
0.0
 42
0.0
 43
0.0
 44
0.0
 45
0.0
 46
0.0
 47
0.0
 48
0.0
 49
0.0
140
0.0
141
0.0
142
1.0
143
1.0
 70
   688
 72
     0
 73
     0
 74
     5
  7
monochrome.ctb
 75
    16
147
1.0
148
0.0
149
0.0
100
AcDbLayout
  1
ﾚｲｱｳﾄ2
 70
     1
 71
     2
 10
0.0
 20
0.0
 11
12.0
 21
9.0
 12
0.0
 22
0.0
 32
0.0
 14
0.0
 24
0.0
 34
0.0
 15
0.0
 25
0.0
 35
0.0
146
0.0
 13
0.0
 23
0.0
 33
0.0
 16
1.0
 26
0.0
 36
0.0
 17
0.0
 27
1.0
 37
0.0
 76
     0
330
23
  0
MATERIAL
  5
B0EF
102
{ACAD_XDICTIONARY
360
BA55
102
}
102
{ACAD_REACTORS
330
A91C
102
}
330
A91C
100
AcDbMaterial
  1
ByBlock
  0
MATERIAL
  5
B0EE
102
{ACAD_XDICTIONARY
360
BA53
102
}
102
{ACAD_REACTORS
330
A91C
102
}
330
A91C
100
AcDbMaterial
  1
ByLayer
  0
MATERIAL
  5
B0F0
102
{ACAD_XDICTIONARY
360
BA57
102
}
102
{ACAD_REACTORS
330
A91C
102
}
330
A91C
100
AcDbMaterial
  1
Global
  0
MLINESTYLE
  5
18
102
{ACAD_REACTORS
330
17
102
}
330
17
100
AcDbMlineStyle
  2
STANDARD
 70
     0
  3

 62
   256
 51
90.0
 52
90.0
 71
     2
 49
0.5
 62
   256
  6
BYLAYER
 49
-0.5
 62
   256
  6
BYLAYER
  0
ACDBPLACEHOLDER
  5
F
102
{ACAD_REACTORS
330
E
102
}
330
E
  0
TABLESTYLE
  5
AABA
102
{ACAD_XDICTIONARY
360
BA51
102
}
102
{ACAD_REACTORS
330
AAB9
102
}
330
AAB9
100
AcDbTableStyle
  3
Standard
 70
     0
 71
     0
 40
1.5
 41
1.5
280
     0
281
     0
  7
STANDARD
140
4.5
170
     2
 62
     0
 63
     7
283
     0
274
    -2
284
     1
 64
     0
275
    -2
285
     1
 65
     0
276
    -2
286
     1
 66
     0
277
    -2
287
     1
 67
     0
278
    -2
288
     1
 68
     0
279
    -2
289
     1
 69
     0
  7
STANDARD
140
6.0
170
     5
 62
     0
 63
     7
283
     0
274
    -2
284
     1
 64
     0
275
    -2
285
     1
 65
     0
276
    -2
286
     1
 66
     0
277
    -2
287
     1
 67
     0
278
    -2
288
     1
 68
     0
279
    -2
289
     1
 69
     0
  7
STANDARD
140
4.5
170
     5
 62
     0
 63
     7
283
     0
274
    -2
284
     1
 64
     0
275
    -2
285
     1
 65
     0
276
    -2
286
     1
 66
     0
277
    -2
287
     1
 67
     0
278
    -2
288
     1
 68
     0
279
    -2
289
     1
 69
     0
  0
VISUALSTYLE
  5
B0F7
102
{ACAD_REACTORS
330
B0F1
102
}
330
B0F1
100
AcDbVisualStyle
  2
2dWireframe
 70
     4
 71
     0
 72
     2
 73
     0
 90
        0
 40
-0.6
 41
-30.0
 62
     5
 63
     7
 74
     1
 91
        4
 64
     7
 65
   257
 75
     1
175
     1
 42
1.0
 92
        0
 66
   257
 43
1.0
 76
     1
 77
     6
 78
     2
 67
     7
 79
     5
170
     0
171
     0
290
     0
174
     0
 93
        1
 44
0.0
173
     0
291
     0
 45
0.0
1001
ACAD
1000
AcDbSavedByObjectVersion
1070
     0
  0
VISUALSTYLE
  5
B0F9
102
{ACAD_REACTORS
330
B0F1
102
}
330
B0F1
100
AcDbVisualStyle
  2
3D Hidden
 70
     6
 71
     1
 72
     2
 73
     2
 90
        0
 40
-0.6
 41
-30.0
 62
     5
 63
     7
 74
     2
 91
        2
 64
     7
 65
   257
 75
     2
175
     1
 42
40.0
 92
        0
 66
   257
 43
1.0
 76
     1
 77
     6
 78
     2
 67
     7
 79
     3
170
     0
171
     0
290
     0
174
     0
 93
        1
 44
0.0
173
     0
291
     0
 45
0.0
1001
ACAD
1000
AcDbSavedByObjectVersion
1070
     0
  0
VISUALSTYLE
  5
B0F8
102
{ACAD_REACTORS
330
B0F1
102
}
330
B0F1
100
AcDbVisualStyle
  2
3dWireframe
 70
     5
 71
     0
 72
     2
 73
     0
 90
        0
 40
-0.6
 41
-30.0
 62
     5
 63
     7
 74
     1
 91
        4
 64
     7
 65
   257
 75
     1
175
     1
 42
1.0
 92
        0
 66
   257
 43
1.0
 76
     1
 77
     6
 78
     2
 67
     7
 79
     5
170
     0
171
     0
290
     0
174
     0
 93
        1
 44
0.0
173
     0
291
     0
 45
0.0
1001
ACAD
1000
AcDbSavedByObjectVersion
1070
     0
  0
VISUALSTYLE
  5
B0F6
102
{ACAD_REACTORS
330
B0F1
102
}
330
B0F1
100
AcDbVisualStyle
  2
Basic
 70
     7
 71
     1
 72
     0
 73
     1
 90
        0
 40
-0.6
 41
-30.0
 62
     5
 63
     7
 74
     0
 91
        4
 64
     7
 65
   257
 75
     1
175
     1
 42
1.0
 92
        8
 66
     7
 43
1.0
 76
     1
 77
     6
 78
     2
 67
     7
 79
     5
170
     0
171
     0
290
     0
174
     0
 93
        1
 44
0.0
173
     0
291
     1
 45
0.0
1001
ACAD
1000
AcDbSavedByObjectVersion
1070
     0
  0
VISUALSTYLE
  5
B0FD
102
{ACAD_REACTORS
330
B0F1
102
}
330
B0F1
100
AcDbVisualStyle
  2
Brighten
 70
    12
 71
     2
 72
     2
 73
     0
 90
        0
 40
-0.6
 41
-30.0
 62
     5
 63
     7
 74
     1
 91
        4
 64
     7
 65
   257
 75
     1
175
     1
 42
1.0
 92
        8
 66
     7
 43
1.0
 76
     1
 77
     6
 78
     2
 67
     7
 79
     5
170
     0
171
     0
290
     0
174
     0
 93
        1
 44
50.0
173
     0
291
     1
 45
0.0
1001
ACAD
1000
AcDbSavedByObjectVersion
1070
     0
  0
VISUALSTYLE
  5
B101
102
{ACAD_REACTORS
330
B0F1
102
}
330
B0F1
100
AcDbVisualStyle
  2
ColorChange
 70
    16
 71
     2
 72
     2
 73
     3
 90
        0
 40
-0.6
 41
-30.0
 62
     5
 63
     8
 74
     1
 91
        4
 64
     7
 65
   257
 75
     1
175
     1
 42
1.0
 92
        8
 66
     8
 43
1.0
 76
     1
 77
     6
 78
     2
 67
     7
 79
     5
170
     0
171
     0
290
     0
174
     0
 93
        1
 44
0.0
173
     0
291
     1
 45
0.0
1001
ACAD
1000
AcDbSavedByObjectVersion
1070
     0
  0
VISUALSTYLE
  5
B0FA
102
{ACAD_REACTORS
330
B0F1
102
}
330
B0F1
100
AcDbVisualStyle
  2
Conceptual
 70
     9
 71
     3
 72
     2
 73
     0
 90
        0
 40
-0.6
 41
-30.0
 62
     5
 63
     7
 74
     2
 91
        2
 64
     7
 65
   257
 75
     1
175
     1
 42
40.0
 92
        8
 66
     7
 43
1.0
 76
     1
 77
     6
 78
     2
 67
     7
 79
     3
170
     0
171
     0
290
     0
174
     0
 93
        1
 44
0.0
173
     0
291
     0
 45
0.0
1001
ACAD
1000
AcDbSavedByObjectVersion
1070
     0
  0
VISUALSTYLE
  5
B0FC
102
{ACAD_REACTORS
330
B0F1
102
}
330
B0F1
100
AcDbVisualStyle
  2
Dim
 70
    11
 71
     2
 72
     2
 73
     0
 90
        0
 40
-0.6
 41
-30.0
 62
     5
 63
     7
 74
     1
 91
        4
 64
     7
 65
   257
 75
     1
175
     1
 42
1.0
 92
        8
 66
     7
 43
1.0
 76
     1
 77
     6
 78
     2
 67
     7
 79
     5
170
     0
171
     0
290
     0
174
     0
 93
        1
 44
-50.0
173
     0
291
     1
 45
0.0
1001
ACAD
1000
AcDbSavedByObjectVersion
1070
     0
  0
VISUALSTYLE
  5
B100
102
{ACAD_REACTORS
330
B0F1
102
}
330
B0F1
100
AcDbVisualStyle
  2
Facepattern
 70
    15
 71
     2
 72
     2
 73
     0
 90
        0
 40
-0.6
 41
-30.0
 62
     5
 63
     7
 74
     1
 91
        4
 64
     7
 65
   257
 75
     1
175
     1
 42
1.0
 92
        8
 66
     7
 43
1.0
 76
     1
 77
     6
 78
     2
 67
     7
 79
     5
170
     0
171
     0
290
     0
174
     0
 93
        1
 44
0.0
173
     0
291
     1
 45
0.0
1001
ACAD
1000
AcDbSavedByObjectVersion
1070
     0
  0
VISUALSTYLE
  5
B0F2
102
{ACAD_REACTORS
330
B0F1
102
}
330
B0F1
100
AcDbVisualStyle
  2
Flat
 70
     0
 71
     2
 72
     1
 73
     1
 90
        2
 40
-0.6
 41
30.0
 62
     5
 63
     7
 74
     0
 91
        4
 64
     7
 65
   257
 75
     1
175
     1
 42
1.0
 92
        8
 66
     7
 43
1.0
 76
     1
 77
     6
 78
     2
 67
     7
 79
     5
170
     0
171
     0
290
     0
174
     0
 93
       13
 44
0.0
173
     0
291
     1
 45
0.0
1001
ACAD
1000
AcDbSavedByObjectVersion
1070
     0
  0
VISUALSTYLE
  5
B0F3
102
{ACAD_REACTORS
330
B0F1
102
}
330
B0F1
100
AcDbVisualStyle
  2
FlatWithEdges
 70
     1
 71
     2
 72
     1
 73
     1
 90
        2
 40
-0.6
 41
30.0
 62
     5
 63
     7
 74
     1
 91
        4
 64
     7
 65
   257
 75
     1
175
     1
 42
1.0
 92
        0
 66
   257
 43
1.0
 76
     1
 77
     6
 78
     2
 67
     7
 79
     5
170
     0
171
     0
290
     0
174
     0
 93
       13
 44
0.0
173
     0
291
     1
 45
0.0
1001
ACAD
1000
AcDbSavedByObjectVersion
1070
     0
  0
VISUALSTYLE
  5
B0F4
102
{ACAD_REACTORS
330
B0F1
102
}
330
B0F1
100
AcDbVisualStyle
  2
Gouraud
 70
     2
 71
     2
 72
     2
 73
     1
 90
        2
 40
-0.6
 41
30.0
 62
     5
 63
     7
 74
     0
 91
        4
 64
     7
 65
   257
 75
     1
175
     1
 42
1.0
 92
        0
 66
     7
 43
1.0
 76
     1
 77
     6
 78
     2
 67
     7
 79
     5
170
     0
171
     0
290
     0
174
     0
 93
       13
 44
0.0
173
     0
291
     1
 45
0.0
1001
ACAD
1000
AcDbSavedByObjectVersion
1070
     0
  0
VISUALSTYLE
  5
B0F5
102
{ACAD_REACTORS
330
B0F1
102
}
330
B0F1
100
AcDbVisualStyle
  2
GouraudWithEdges
 70
     3
 71
     2
 72
     2
 73
     1
 90
        2
 40
-0.6
 41
30.0
 62
     5
 63
     7
 74
     1
 91
        4
 64
     7
 65
   257
 75
     1
175
     1
 42
1.0
 92
        0
 66
   257
 43
1.0
 76
     1
 77
     6
 78
     2
 67
     7
 79
     5
170
     0
171
     0
290
     0
174
     0
 93
       13
 44
0.0
173
     0
291
     1
 45
0.0
1001
ACAD
1000
AcDbSavedByObjectVersion
1070
     0
  0
VISUALSTYLE
  5
B0FF
102
{ACAD_REACTORS
330
B0F1
102
}
330
B0F1
100
AcDbVisualStyle
  2
Linepattern
 70
    14
 71
     2
 72
     2
 73
     0
 90
        0
 40
-0.6
 41
-30.0
 62
     5
 63
     7
 74
     1
 91
        4
 64
     7
 65
   257
 75
     7
175
     7
 42
1.0
 92
        8
 66
     7
 43
1.0
 76
     1
 77
     6
 78
     2
 67
     7
 79
     5
170
     0
171
     0
290
     0
174
     0
 93
        1
 44
0.0
173
     0
291
     1
 45
0.0
1001
ACAD
1000
AcDbSavedByObjectVersion
1070
     0
  0
VISUALSTYLE
  5
B0FB
102
{ACAD_REACTORS
330
B0F1
102
}
330
B0F1
100
AcDbVisualStyle
  2
Realistic
 70
     8
 71
     2
 72
     2
 73
     0
 90
        0
 40
-0.6
 41
-30.0
 62
     5
 63
     7
 74
     1
 91
        0
 64
     7
 65
   257
 75
     1
175
     1
 42
1.0
 92
        8
 66
     8
 43
1.0
 76
     1
 77
     6
 78
     2
 67
     7
 79
     5
170
     0
171
     0
290
     0
174
     0
 93
       13
 44
0.0
173
     0
291
     0
 45
0.0
1001
ACAD
1000
AcDbSavedByObjectVersion
1070
     0
  0
VISUALSTYLE
  5
B0FE
102
{ACAD_REACTORS
330
B0F1
102
}
330
B0F1
100
AcDbVisualStyle
  2
Thicken
 70
    13
 71
     2
 72
     2
 73
     0
 90
        0
 40
-0.6
 41
-30.0
 62
     5
 63
     7
 74
     1
 91
        4
 64
     7
 65
   257
 75
     1
175
     1
 42
1.0
 92
       12
 66
     7
 43
1.0
 76
     1
 77
     6
 78
     2
 67
     7
 79
     5
170
     0
171
     0
290
     0
174
     0
 93
        1
 44
0.0
173
     0
291
     1
 45
0.0
1001
ACAD
1000
AcDbSavedByObjectVersion
1070
     0
  0
DICTIONARYVAR
  5
AAF3
102
{ACAD_REACTORS
330
34
102
}
330
34
100
DictionaryVariables
280
     0
  1
STANDARD
  0
DICTIONARYVAR
  5
A10C
102
{ACAD_REACTORS
330
34
102
}
330
34
100
DictionaryVariables
280
     0
  1
1
  0
DICTIONARYVAR
  5
AB07
102
{ACAD_REACTORS
330
34
102
}
330
34
100
DictionaryVariables
280
     0
  1
4
  0
DICTIONARYVAR
  5
35
102
{ACAD_REACTORS
330
34
102
}
330
34
100
DictionaryVariables
280
     0
  1
0
  0
DICTIONARYVAR
  5
194C
102
{ACAD_REACTORS
330
34
102
}
330
34
100
DictionaryVariables
280
     0
  1
96
  0
DICTIONARY
  5
7E8
102
{ACAD_REACTORS
330
47
102
}
330
47
100
AcDbDictionary
281
     1
  0
DICTIONARY
  5
4C
102
{ACAD_REACTORS
330
47
102
}
330
47
100
AcDbDictionary
281
     1
  0
XRECORD
  5
A929
102
{ACAD_REACTORS
330
47
102
}
330
47
100
AcDbXrecord
280
     1
 90
-1023410169
  0
XRECORD
  5
B332
102
{ACAD_REACTORS
330
B331
102
}
330
B331
100
AcDbXrecord
280
     1
  0
XRECORD
  5
3FB7
102
{ACAD_REACTORS
330
3F96
102
}
330
3F96
100
AcDbXrecord
280
     1
 91
        3
330
0
 90
        8
 62
     7
370
    40
331
16
  1
Color_7
330
0
 90
        0
 62
    14
370
    -3
331
16
  1
Color_14
330
0
 90
        8
 62
     7
370
    20
331
16
  1
Color_7
330
6D1
 90
        0
 62
     7
370
    -3
331
16
  1
Color_7
330
0
 90
        8
 62
     7
370
    50
331
16
  1
Color_7
330
0
 90
        8
 62
     2
370
    35
331
16
  1
Color_2
330
0
 90
        8
 62
     7
370
    -3
331
16
  1
Color_7
330
10
 90
        8
 62
     7
370
    -3
331
16
  1
Color_7
  0
DICTIONARY
  5
BA4D
330
22
100
AcDbDictionary
280
     1
281
     1
  3
ACAD_XREC_ROUNDTRIP
360
BA4E
  0
DICTIONARY
  5
BA4B
330
1E
100
AcDbDictionary
280
     1
281
     1
  3
ACAD_XREC_ROUNDTRIP
360
BA4C
  0
DICTIONARY
  5
BA4F
330
26
100
AcDbDictionary
280
     1
281
     1
  3
ACAD_XREC_ROUNDTRIP
360
BA50
  0
DICTIONARY
  5
BA55
330
B0EF
100
AcDbDictionary
280
     1
281
     1
  3
ACAD_XREC_ROUNDTRIP
360
BA56
  0
DICTIONARY
  5
BA53
330
B0EE
100
AcDbDictionary
280
     1
281
     1
  3
ACAD_XREC_ROUNDTRIP
360
BA54
  0
DICTIONARY
  5
BA57
330
B0F0
100
AcDbDictionary
280
     1
281
     1
  3
ACAD_XREC_ROUNDTRIP
360
BA58
  0
DICTIONARY
  5
BA51
330
AABA
100
AcDbDictionary
280
     1
281
     1
  3
ACAD_XREC_ROUNDTRIP
360
BA52
  0
XRECORD
  5
BA4E
102
{ACAD_REACTORS
330
BA4D
102
}
330
BA4D
100
AcDbXrecord
280
     1
102
SHADEPLOT
 70
     0
102
SHADEPLOTRESLEVEL
 70
     2
102
SHADEPLOTCUSTOMDPI
 70
   200
  0
XRECORD
  5
BA4C
102
{ACAD_REACTORS
330
BA4B
102
}
330
BA4B
100
AcDbXrecord
280
     1
102
SHADEPLOT
 70
     0
102
SHADEPLOTRESLEVEL
 70
     2
102
SHADEPLOTCUSTOMDPI
 70
   300
  0
XRECORD
  5
BA50
102
{ACAD_REACTORS
330
BA4F
102
}
330
BA4F
100
AcDbXrecord
280
     1
102
SHADEPLOT
 70
     0
102
SHADEPLOTRESLEVEL
 70
     2
102
SHADEPLOTCUSTOMDPI
 70
   300
  0
XRECORD
  5
BA56
102
{ACAD_REACTORS
330
BA55
102
}
330
BA55
100
AcDbXrecord
280
     1
102
MATERIAL
148
0.0
149
0.0
149
0.0
 93
        0
 94
       63
282
     0
 72
     1
 77
     1
171
     1
175
     1
179
     1
273
     0
  0
XRECORD
  5
BA54
102
{ACAD_REACTORS
330
BA53
102
}
330
BA53
100
AcDbXrecord
280
     1
102
MATERIAL
148
0.0
149
0.0
149
0.0
 93
        0
 94
       63
282
     0
 72
     1
 77
     1
171
     1
175
     1
179
     1
273
     0
  0
XRECORD
  5
BA58
102
{ACAD_REACTORS
330
BA57
102
}
330
BA57
100
AcDbXrecord
280
     1
102
MATERIAL
148
0.0
149
0.0
149
0.0
 93
        0
 94
       63
282
     0
 72
     1
 77
     1
171
     1
175
     1
179
     1
273
     0
  0
XRECORD
  5
BA52
102
{ACAD_REACTORS
330
BA51
102
}
330
BA51
100
AcDbXrecord
280
     1
102
ACAD_ROUNDTRIP_PRE2007_TABLESTYLE
 90
        4
 91
        0
  1

 92
        4
 93
        0
  2

 94
        4
 95
        0
  3

  0
ENDSEC
  0
EOF
