  0
SECTION
  2
HEADER
  9
$ACADVER
  1
AC1015
  9
$ACADMAINTVER
 70
    20
  9
$DWGCODEPAGE
  3
ANSI_932
  9
$INSBASE
 10
0.0
 20
0.0
 30
0.0
  9
$EXTMIN
 10
-211.0058095178224
 20
-100.0041627253688
 30
-0.0000000000112498
  9
$EXTMAX
 10
170.0058148406556
 20
173.0041665393675
 30
0.0000000000002956
  9
$LIMMIN
 10
-211.0
 20
-100.0
  9
$LIMMAX
 10
170.0
 20
173.0
  9
$ORTHOMODE
 70
     0
  9
$REGENMODE
 70
     1
  9
$FILLMODE
 70
     1
  9
$QTEXTMODE
 70
     0
  9
$MIRRTEXT
 70
     0
  9
$LTSCALE
 40
1.0
  9
$ATTMODE
 70
     1
  9
$TEXTSIZE
 40
0.2
  9
$TRACEWID
 40
0.05
  9
$TEXTSTYLE
  7
STANDARD
  9
$CLAYER
  8
0
  9
$CELTYPE
  6
CONTINUOUS
  9
$CECOLOR
 62
   256
  9
$CELTSCALE
 40
1.0
  9
$DISPSILH
 70
     0
  9
$DIMSCALE
 40
1.0
  9
$DIMASZ
 40
1.0
  9
$DIMEXO
 40
2.54
  9
$DIMDLI
 40
0.38
  9
$DIMRND
 40
0.0
  9
$DIMDLE
 40
0.0
  9
$DIMEXE
 40
2.54
  9
$DIMTP
 40
0.0
  9
$DIMTM
 40
0.0
  9
$DIMTXT
 40
3.2
  9
$DIMCEN
 40
0.09
  9
$DIMTSZ
 40
0.0
  9
$DIMTOL
 70
     0
  9
$DIMLIM
 70
     0
  9
$DIMTIH
 70
     0
  9
$DIMTOH
 70
     0
  9
$DIMSE1
 70
     0
  9
$DIMSE2
 70
     0
  9
$DIMTAD
 70
     1
  9
$DIMZIN
 70
     0
  9
$DIMBLK
  1

  9
$DIMASO
 70
     1
  9
$DIMSHO
 70
     0
  9
$DIMPOST
  1

  9
$DIMAPOST
  1

  9
$DIMALT
 70
     0
  9
$DIMALTD
 70
     2
  9
$DIMALTF
 40
25.4
  9
$DIMLFAC
 40
1.0
  9
$DIMTOFL
 70
     0
  9
$DIMTVP
 40
1.0
  9
$DIMTIX
 70
     0
  9
$DIMSOXD
 70
     0
  9
$DIMSAH
 70
     1
  9
$DIMBLK1
  1

  9
$DIMBLK2
  1

  9
$DIMSTYLE
  2
DIMSTYLE
  9
$DIMCLRD
 70
     0
  9
$DIMCLRE
 70
     0
  9
$DIMCLRT
 70
     0
  9
$DIMTFAC
 40
1.0
  9
$DIMGAP
 40
1.6
  9
$DIMJUST
 70
     0
  9
$DIMSD1
 70
     0
  9
$DIMSD2
 70
     0
  9
$DIMTOLJ
 70
     1
  9
$DIMTZIN
 70
     0
  9
$DIMALTZ
 70
     0
  9
$DIMALTTZ
 70
     0
  9
$DIMUPT
 70
     0
  9
$DIMDEC
 70
     4
  9
$DIMTDEC
 70
     4
  9
$DIMALTU
 70
     2
  9
$DIMALTTD
 70
     2
  9
$DIMTXSTY
  7
STANDARD
  9
$DIMAUNIT
 70
     0
  9
$DIMADEC
 70
     0
  9
$DIMALTRND
 40
0.0
  9
$DIMAZIN
 70
     0
  9
$DIMDSEP
 70
    46
  9
$DIMATFIT
 70
     3
  9
$DIMFRAC
 70
     0
  9
$DIMLDRBLK
  1

  9
$DIMLUNIT
 70
     2
  9
$DIMLWD
 70
    -2
  9
$DIMLWE
 70
    -2
  9
$DIMTMOVE
 70
     0
  9
$LUNITS
 70
     2
  9
$LUPREC
 70
     4
  9
$SKETCHINC
 40
0.1
  9
$FILLETRAD
 40
0.0
  9
$AUNITS
 70
     0
  9
$AUPREC
 70
     0
  9
$MENU
  1
.
  9
$ELEVATION
 40
0.0
  9
$PELEVATION
 40
0.0
  9
$THICKNESS
 40
0.0
  9
$LIMCHECK
 70
     0
  9
$CHAMFERA
 40
0.0
  9
$CHAMFERB
 40
0.0
  9
$CHAMFERC
 40
0.0
  9
$CHAMFERD
 40
0.0
  9
$SKPOLY
 70
     0
  9
$TDCREATE
 40
2454475.493035833
  9
$TDUCREATE
 40
2454475.118035833
  9
$TDUPDATE
 40
2454597.601050521
  9
$TDUUPDATE
 40
2454597.226050521
  9
$TDINDWG
 40
0.0020354167
  9
$TDUSRTIMER
 40
0.0020354167
  9
$USRTIMER
 70
     1
  9
$ANGBASE
 50
0.0
  9
$ANGDIR
 70
     0
  9
$PDMODE
 70
     0
  9
$PDSIZE
 40
0.0
  9
$PLINEWID
 40
0.0
  9
$SPLFRAME
 70
     0
  9
$SPLINETYPE
 70
     6
  9
$SPLINESEGS
 70
     8
  9
$HANDSEED
  5
3CF
  9
$SURFTAB1
 70
     6
  9
$SURFTAB2
 70
     6
  9
$SURFTYPE
 70
     6
  9
$SURFU
 70
     6
  9
$SURFV
 70
     6
  9
$UCSBASE
  2

  9
$UCSNAME
  2

  9
$UCSORG
 10
0.0
 20
0.0
 30
0.0
  9
$UCSXDIR
 10
1.0
 20
0.0
 30
0.0
  9
$UCSYDIR
 10
0.0
 20
1.0
 30
0.0
  9
$UCSORTHOREF
  2

  9
$UCSORTHOVIEW
 70
     0
  9
$UCSORGTOP
 10
0.0
 20
0.0
 30
0.0
  9
$UCSORGBOTTOM
 10
0.0
 20
0.0
 30
0.0
  9
$UCSORGLEFT
 10
0.0
 20
0.0
 30
0.0
  9
$UCSORGRIGHT
 10
0.0
 20
0.0
 30
0.0
  9
$UCSORGFRONT
 10
0.0
 20
0.0
 30
0.0
  9
$UCSORGBACK
 10
0.0
 20
0.0
 30
0.0
  9
$PUCSBASE
  2

  9
$PUCSNAME
  2

  9
$PUCSORG
 10
0.0
 20
0.0
 30
0.0
  9
$PUCSXDIR
 10
1.0
 20
0.0
 30
0.0
  9
$PUCSYDIR
 10
0.0
 20
1.0
 30
0.0
  9
$PUCSORTHOREF
  2

  9
$PUCSORTHOVIEW
 70
     0
  9
$PUCSORGTOP
 10
0.0
 20
0.0
 30
0.0
  9
$PUCSORGBOTTOM
 10
0.0
 20
0.0
 30
0.0
  9
$PUCSORGLEFT
 10
0.0
 20
0.0
 30
0.0
  9
$PUCSORGRIGHT
 10
0.0
 20
0.0
 30
0.0
  9
$PUCSORGFRONT
 10
0.0
 20
0.0
 30
0.0
  9
$PUCSORGBACK
 10
0.0
 20
0.0
 30
0.0
  9
$USERI1
 70
     0
  9
$USERI2
 70
     0
  9
$USERI3
 70
     0
  9
$USERI4
 70
     0
  9
$USERI5
 70
     0
  9
$USERR1
 40
0.0
  9
$USERR2
 40
0.0
  9
$USERR3
 40
0.0
  9
$USERR4
 40
0.0
  9
$USERR5
 40
0.0
  9
$WORLDVIEW
 70
     1
  9
$SHADEDGE
 70
     3
  9
$SHADEDIF
 70
    70
  9
$TILEMODE
 70
     1
  9
$MAXACTVP
 70
    64
  9
$PINSBASE
 10
0.0
 20
0.0
 30
0.0
  9
$PLIMCHECK
 70
     0
  9
$PEXTMIN
 10
1.000000000000000E+20
 20
1.000000000000000E+20
 30
1.000000000000000E+20
  9
$PEXTMAX
 10
-1.000000000000000E+20
 20
-1.000000000000000E+20
 30
-1.000000000000000E+20
  9
$PLIMMIN
 10
-211.0
 20
-100.0
  9
$PLIMMAX
 10
170.0
 20
173.0
  9
$UNITMODE
 70
     0
  9
$VISRETAIN
 70
     1
  9
$PLINEGEN
 70
     0
  9
$PSLTSCALE
 70
     1
  9
$TREEDEPTH
 70
  3020
  9
$CMLSTYLE
  2
Standard
  9
$CMLJUST
 70
     0
  9
$CMLSCALE
 40
1.0
  9
$PROXYGRAPHICS
 70
     1
  9
$MEASUREMENT
 70
     0
  9
$CELWEIGHT
370
    -1
  9
$ENDCAPS
280
     0
  9
$JOINSTYLE
280
     0
  9
$LWDISPLAY
290
     0
  9
$INSUNITS
 70
     0
  9
$HYPERLINKBASE
  1

  9
$STYLESHEET
  1

  9
$XEDIT
290
     1
  9
$CEPSNTYPE
380
     0
  9
$PSTYLEMODE
290
     1
  9
$FINGERPRINTGUID
  2
{8BD3EAE9-E81E-4F19-8351-C43FCD9E2BAE}
  9
$VERSIONGUID
  2
{D8FDF2B5-32A6-4EB2-9924-0C543B091300}
  9
$EXTNAMES
290
     1
  9
$PSVPSCALE
 40
0.0
  9
$OLESTARTUP
290
     0
  0
ENDSEC
  0
SECTION
  2
CLASSES
  0
CLASS
  1
ACDBDICTIONARYWDFLT
  2
AcDbDictionaryWithDefault
  3
ObjectDBX Classes
 90
        0
280
     0
281
     0
  0
CLASS
  1
MATERIAL
  2
AcDbMaterial
  3
ObjectDBX Classes
 90
     1153
280
     0
281
     0
  0
CLASS
  1
VISUALSTYLE
  2
AcDbVisualStyle
  3
ObjectDBX Classes
 90
     4095
280
     0
281
     0
  0
CLASS
  1
TABLESTYLE
  2
AcDbTableStyle
  3
ObjectDBX Classes
 90
     4095
280
     0
281
     0
  0
CLASS
  1
AMGSETTINGSOBJ
  2
AmgSettingsObj
  3
"AcadM|Product Description: AutoCAD Mechanical|Company: Autodesk"
 90
        0
280
     0
281
     0
  0
CLASS
  1
ACME_DOCUMENT
  2
AcMeDbDoc
  3
AcMeServices
 90
        0
280
     0
281
     0
  0
CLASS
  1
ACMESCOPE
  2
AcMeScope
  3
AcMeServices
 90
        0
280
     0
281
     0
  0
CLASS
  1
ACMECOMMANDHISTORY
  2
AcMeCommandHistory
  3
AcMeServices
 90
        0
280
     0
281
     0
  0
CLASS
  1
ACIMSYSVARMAN
  2
AcImSysVarManager
  3
AcMeServices
 90
        0
280
     0
281
     0
  0
CLASS
  1
ACIMINTSYSVAR
  2
AcImIntSysVar
  3
AcMeServices
 90
        0
280
     0
281
     0
  0
CLASS
  1
ACMEDRAWINGMAN
  2
AcMeDrawingMan
  3
AcMeServices
 90
        0
280
     0
281
     0
  0
CLASS
  1
ACMEVIEW
  2
AcMeView
  3
AcMeServices
 90
        0
280
     0
281
     0
  0
CLASS
  1
ACDBENTITYCACHE
  2
AcMeEntityCache
  3
AcMeServices
 90
        0
280
     0
281
     0
  0
CLASS
  1
GSMANAGER
  2
AcMeGSManager
  3
AcMeServices
 90
        0
280
     0
281
     0
  0
CLASS
  1
AMDTINTERNALREACTOR
  2
AmdtInternalReactor
  3
AcMeServices
 90
        0
280
     0
281
     0
  0
CLASS
  1
ACMESTATEMGR
  2
AcMeStateMgr
  3
AcMeServices
 90
        0
280
     0
281
     0
  0
CLASS
  1
ACGREFMASTER
  2
AcGrefMaster
  3
AcAttribServices
 90
        0
280
     0
281
     0
  0
CLASS
  1
AM_DRAWING_MGR
  2
AcDmDwgMgr
  3
AcMechDwgViewMgmt
 90
        0
280
     0
281
     0
  0
CLASS
  1
AM_DWG_DOCUMENT
  2
AcDmDwgDocument
  3
AcMechDwgViewMgmt
 90
        0
280
     0
281
     0
  0
CLASS
  1
AM_DWG_SHEET
  2
AcDmSheet
  3
AcMechDwgViewMgmt
 90
        0
280
     0
281
     0
  0
CLASS
  1
AM_VIEWDIMPARMAP
  2
AcDmViewDimParMap
  3
AcMechDwgViewMgmt
 90
        0
280
     0
281
     0
  0
CLASS
  1
ACIMREALSYSVAR
  2
AcImRealSysVar
  3
AcMeServices
 90
        0
280
     0
281
     0
  0
CLASS
  1
AM_DWGMGR_NAME
  2
AcDmDwgMgrName
  3
AcMechDwgViewMgmt
 90
        0
280
     0
281
     0
  0
CLASS
  1
ACME_DATABASE
  2
AcMeDbDatabase
  3
AcMeServices
 90
        0
280
     0
281
     0
  0
CLASS
  1
ACRFINSADJUSTERMGR
  2
AcRfInsAdjusterMgr
  3
AcMeServices
 90
        0
280
     0
281
     0
  0
CLASS
  1
ACGREFACADMASTER
  2
AcGrefacadMaster
  3
AcGrefServices
 90
        0
280
     0
281
     0
  0
CLASS
  1
AMDTMENUSTATEMGR
  2
AmdtMenuStateMgr
  3
McadcomServices
 90
        0
280
     0
281
     0
  0
CLASS
  1
AMDTMCOMMENUSTATE
  2
AmdtMcomMenuState
  3
McadcomServices
 90
        0
280
     0
281
     0
  0
CLASS
  1
AMIMASTER
  2
AmiMaster
  3
AmiServices
 90
        0
280
     0
281
     0
  0
CLASS
  1
MAPIAMMOUDLE
  2
MApiAmModule
  3
MApiAmServices
 90
        0
280
     0
281
     0
  0
CLASS
  1
ACIMSTRSYSVAR
  2
AcImStrSysVar
  3
AcMeServices
 90
        0
280
     0
281
     0
  0
CLASS
  1
AMDTADMENUSTATE
  2
AmdtAdMenuState
  3
DesignerServices
 90
        0
280
     0
281
     0
  0
CLASS
  1
ADAPPL
  2
AcAdAppl
  3
DesignerServices
 90
        0
280
     0
281
     0
  0
CLASS
  1
DEPMGR
  2
AcAdDepMgr
  3
DesignerServices
 90
        0
280
     0
281
     0
  0
CLASS
  1
PARAMMGR
  2
AcAdParamMgr
  3
DesignerServices
 90
        0
280
     0
281
     0
  0
CLASS
  1
PARAMSCOPE
  2
AcAdParamScope
  3
DesignerServices
 90
        0
280
     0
281
     0
  0
CLASS
  1
NAMEDAPPL
  2
AcAdNamedAppl
  3
DesignerServices
 90
        0
280
     0
281
     0
  0
CLASS
  1
AMDTDMMENUSTATE
  2
AmdtDmMenuState
  3
AcMechDwgViewMgmt
 90
        0
280
     0
281
     0
  0
CLASS
  1
AMDTAMMENUSTATE
  2
AmdtAmMenuState
  3
DesignerAssemblies
 90
        0
280
     0
281
     0
  0
CLASS
  1
ACAMPROJECT
  2
AcAmProject
  3
DesignerAssemblies
 90
        0
280
     0
281
     0
  0
CLASS
  1
ACAMGRCOMPDEF
  2
AcAmGrCompDef
  3
DesignerAssemblies
 90
        0
280
     0
281
     0
  0
CLASS
  1
ACCMCONTEXT
  2
AcCmContext
  3
DesignerAssemblies
 90
        0
280
     0
281
     0
  0
CLASS
  1
ACAMCOMPDEF
  2
AcAmCompDef
  3
DesignerAssemblies
 90
        0
280
     0
281
     0
  0
CLASS
  1
ACAMCOMPDEFMGR
  2
AcAmCompDefMgr
  3
DesignerAssemblies
 90
        0
280
     0
281
     0
  0
CLASS
  1
AMCONTEXTMGR
  2
AcAmContextMgr
  3
DesignerAssemblies
 90
        0
280
     0
281
     0
  0
CLASS
  1
ACAMCONTEXTMODELER
  2
AcAmContextModeler
  3
DesignerAssemblies
 90
        0
280
     0
281
     0
  0
CLASS
  1
ACMDATADICTIONARY
  2
AcmDataDictionary
  3
"AcmSymBB|Product Description: AutoCAD Mechanical|Company: Autodesk"
 90
        0
280
     0
281
     0
  0
CLASS
  1
CATALOGSTATE
  2
AcAmCatalogState
  3
DesignerAssemblies
 90
        0
280
     0
281
     0
  0
CLASS
  1
ACAMGRCOMPDEFSET
  2
AcAmGrCompDefSet
  3
DesignerAssemblies
 90
        0
280
     0
281
     0
  0
CLASS
  1
AMDTBROWSERDBTAB
  2
AmdtBrowserDbTab
  3
McadcomServices
 90
        0
280
     0
281
     0
  0
CLASS
  1
CBROWSERAPPOBJECT
  2
CBrowserAppObject
  3
McadcomServices
 90
        0
280
     0
281
     0
  0
CLASS
  1
DM_PLACEHOLDER
  2
AcDmSelsetPlaceholder
  3
AcMechDwgViewMgmt
 90
        0
280
     0
281
     0
  0
CLASS
  1
ACMSTANDARDANSI
  2
AcmStandardANSI
  3
"Amdt_StdImp|Product Description: AutoCAD Mechanical|Company: Autodesk"
 90
        0
280
     0
281
     0
  0
CLASS
  1
AMGOBJPROPCFG
  2
AmgObjPropCfg
  3
"AmgLay|Product Description: AutoCAD Mechanical|Company: Autodesk"
 90
        1
280
     0
281
     0
  0
CLASS
  1
ACMSURFSTANDARDANSI
  2
AcmSurfTextStdANSI
  3
"Amdt_StdImp|Product Description: AutoCAD Mechanical|Company: Autodesk"
 90
        0
280
     0
281
     0
  0
CLASS
  1
ACMFCFSTANDARDANSI
  2
AcmFCFStdANSI
  3
"Amdt_StdImp|Product Description: AutoCAD Mechanical|Company: Autodesk"
 90
        0
280
     0
281
     0
  0
CLASS
  1
ACMWELDSTANDARDANSI
  2
AcmWeldingStdANSI
  3
"Amdt_StdImp|Product Description: AutoCAD Mechanical|Company: Autodesk"
 90
        0
280
     0
281
     0
  0
CLASS
  1
ACMIDSTANDARDANSI
  2
AcmIdStdANSI
  3
"Amdt_StdImp|Product Description: AutoCAD Mechanical|Company: Autodesk"
 90
        0
280
     0
281
     0
  0
CLASS
  1
ACMDATUMSTANDARDANSI
  2
AcmDatumStdANSI
  3
"Amdt_StdImp|Product Description: AutoCAD Mechanical|Company: Autodesk"
 90
        0
280
     0
281
     0
  0
CLASS
  1
ACMBOMSTANDARDANSI
  2
AcmBOMStdANSI
  3
"Amdt_StdImp|Product Description: AutoCAD Mechanical|Company: Autodesk"
 90
        0
280
     0
281
     0
  0
CLASS
  1
ACMDETAILSTANDARDANSI
  2
AmdtDetailSymStdANSI
  3
"Amdt_StdImp|Product Description: AutoCAD Mechanical|Company: Autodesk"
 90
        0
280
     0
281
     0
  0
CLASS
  1
ACMSECTIONSTANDARDANSI
  2
AmdtSectionSymStdANSI
  3
"Amdt_StdImp|Product Description: AutoCAD Mechanical|Company: Autodesk"
 90
        0
280
     0
281
     0
  0
CLASS
  1
ACMCENTERLINESTANDARDANSI
  2
AmdtCenterLineStdANSI
  3
"Amdt_StdImp|Product Description: AutoCAD Mechanical|Company: Autodesk"
 90
        0
280
     0
281
     0
  0
CLASS
  1
ACMTHREADLINESTANDARDANSI
  2
AmdtThreadLineStdANSI
  3
"Amdt_StdImp|Product Description: AutoCAD Mechanical|Company: Autodesk"
 90
        0
280
     0
281
     0
  0
CLASS
  1
ACMNOTESTANDARDANSI
  2
AmdtNoteStdANSI
  3
"Amdt_StdImp|Product Description: AutoCAD Mechanical|Company: Autodesk"
 90
        0
280
     0
281
     0
  0
CLASS
  1
ACMTAPERSTANDARDANSI
  2
AcmTaperStdANSI
  3
"Amdt_StdImp|Product Description: AutoCAD Mechanical|Company: Autodesk"
 90
        0
280
     0
281
     0
  0
CLASS
  1
AMDTNOTETEMPLATEDB
  2
AmdtNoteTemplateDB
  3
AMDT_STDIMP_MODULE_NAME
 90
        0
280
     0
281
     0
  0
CLASS
  1
ACAMGLAYSTD
  2
AcAmgLayStd
  3
"AmgLay|Product Description: AutoCAD Mechanical|Company: Autodesk"
 90
        0
280
     0
281
     0
  0
CLASS
  1
ACAMGDIMSTD
  2
AcAmgDimStd
  3
"AmgDim|Product Description: AutoCAD Mechanical|Company: Autodesk"
 90
        0
280
     0
281
     0
  0
CLASS
  1
ACAMGHOLECHARTSTDANSI
  2
AcAmgHoleChartStdANSI
  3
ACMSYMBB_MODULE_NAME
 90
        0
280
     0
281
     0
  0
CLASS
  1
ACAMGTITLESTD
  2
AcAmgTitleStd
  3
"AmgTitle|Product Description: AutoCAD Mechanical|Company: Autodesk"
 90
        0
280
     0
281
     0
  0
CLASS
  1
ACAMGFILTERDAT
  2
AcAmgFilterDat
  3
"AcadM|Product Description: AutoCAD Mechanical|Company: Autodesk"
 90
        0
280
     0
281
     0
  0
CLASS
  1
CAMSSTRUCTBTNSTATE
  2
StructBtnState
  3
L"DesignerAssemblies"
 90
        0
280
     0
281
     0
  0
CLASS
  1
DICTIONARYVAR
  2
AcDbDictionaryVar
  3
ObjectDBX Classes
 90
        0
280
     0
281
     0
  0
CLASS
  1
ACDBPLACEHOLDER
  2
AcDbPlaceHolder
  3
ObjectDBX Classes
 90
        0
280
     0
281
     0
  0
CLASS
  1
LAYOUT
  2
AcDbLayout
  3
ObjectDBX Classes
 90
        0
280
     0
281
     0
  0
ENDSEC
  0
SECTION
  2
TABLES
  0
TABLE
  2
VPORT
  5
8
330
0
100
AcDbSymbolTable
 70
     1
  0
VPORT
  5
45
330
8
100
AcDbSymbolTableRecord
100
AcDbViewportTableRecord
  2
*Active
 70
     0
 10
0.0
 20
0.0
 11
1.0
 21
1.0
 12
-20.4999973385834
 22
36.50000190699933
 13
0.0
 23
0.0
 14
1.0
 24
1.0
 15
0.0
 25
0.0
 16
0.0
 26
0.0
 36
1.0
 17
0.0
 27
0.0
 37
0.0
 40
274.8183292377622
 41
1.65929203539823
 42
50.0
 43
0.0
 44
0.0
 50
0.0
 51
0.0
 71
     0
 72
   100
 73
     1
 74
     1
 75
     0
 76
     0
 77
     0
 78
     0
281
     0
 65
     0
110
0.0
120
0.0
130
0.0
111
1.0
121
0.0
131
0.0
112
0.0
122
1.0
132
0.0
 79
     0
146
0.0
  0
ENDTAB
  0
TABLE
  2
LTYPE
  5
5
330
0
100
AcDbSymbolTable
 70
    19
  0
LTYPE
  5
28
330
5
100
AcDbSymbolTableRecord
100
AcDbLinetypeTableRecord
  2
ByBlock
 70
     0
  3

 72
    65
 73
     0
 40
0.0
  0
LTYPE
  5
29
330
5
100
AcDbSymbolTableRecord
100
AcDbLinetypeTableRecord
  2
ByLayer
 70
     0
  3

 72
    65
 73
     0
 40
0.0
  0
LTYPE
  5
2A
330
5
100
AcDbSymbolTableRecord
100
AcDbLinetypeTableRecord
  2
CONTINUOUS
 70
     0
  3
Solid line
 72
    65
 73
     0
 40
0.0
  0
LTYPE
  5
3A
330
5
100
AcDbSymbolTableRecord
100
AcDbLinetypeTableRecord
  2
DASHED
 70
     0
  3
__ __ __ __ __ __ __ __ __ __ __ __ __ __ __
 72
    65
 73
     2
 40
3.5
 49
2.0
 74
     0
 49
-1.5
 74
     0
  0
LTYPE
  5
3B
330
5
100
AcDbSymbolTableRecord
100
AcDbLinetypeTableRecord
  2
CENTER
 70
     0
  3
____ _ ____ _ ____ _ ____ _ ____ _ ____ _ ____
 72
    65
 73
     4
 40
17.5
 49
13.0
 74
     0
 49
-1.5
 74
     0
 49
1.5
 74
     0
 49
-1.5
 74
     0
  0
LTYPE
  5
3C
330
5
100
AcDbSymbolTableRecord
100
AcDbLinetypeTableRecord
  2
PHANTOM
 70
     0
  3
_____ _ _ _____ _ _ _____ _ _ _____ _ _ ____  
 72
    65
 73
     6
 40
15.5
 49
8.0
 74
     0
 49
-1.5
 74
     0
 49
1.5
 74
     0
 49
-1.5
 74
     0
 49
1.5
 74
     0
 49
-1.5
 74
     0
  0
LTYPE
  5
3D
330
5
100
AcDbSymbolTableRecord
100
AcDbLinetypeTableRecord
  2
DOT
 70
     0
  3
. . . . . . . . . . . . . . . . . . . . . . . .
 72
    65
 73
     2
 40
0.25
 49
0.0
 74
     0
 49
-0.25
 74
     0
  0
LTYPE
  5
3E
330
5
100
AcDbSymbolTableRecord
100
AcDbLinetypeTableRecord
  2
HIDDEN
 70
     0
  3
__ __ __ __ __ __ __ __ __ __ __ __ __ __ __
 72
    65
 73
     2
 40
3.5
 49
2.0
 74
     0
 49
-1.5
 74
     0
  0
LTYPE
  5
24F
330
5
100
AcDbSymbolTableRecord
100
AcDbLinetypeTableRecord
  2
PHANTOM2
 70
     0
  3
Phantom (.5x) ___ _ _ ___ _ _ ___ _ _ ___ _ _
 72
    65
 73
     6
 40
1.25
 49
0.625
 74
     0
 49
-0.125
 74
     0
 49
0.125
 74
     0
 49
-0.125
 74
     0
 49
0.125
 74
     0
 49
-0.125
 74
     0
  0
LTYPE
  5
284
330
5
100
AcDbSymbolTableRecord
100
AcDbLinetypeTableRecord
  2
AM_ISO02W050
 70
     0
  3
__ __ __ __ __ __ __ __ __ __ __ __ __ __ __
 72
    65
 73
     2
 40
7.5
 49
6.0
 74
     0
 49
-1.5
 74
     0
  0
LTYPE
  5
285
330
5
100
AcDbSymbolTableRecord
100
AcDbLinetypeTableRecord
  2
AM_ISO08W050
 70
     0
  3
____ . ____ . ____ . ____ . ____ . ____ . ____
 72
    65
 73
     4
 40
18.0
 49
12.0
 74
     0
 49
-1.5
 74
     0
 49
3.0
 74
     0
 49
-1.5
 74
     0
  0
LTYPE
  5
286
330
5
100
AcDbSymbolTableRecord
100
AcDbLinetypeTableRecord
  2
AM_ISO09W050
 70
     0
  3
_____ . . _____ . . _____ . . ____ .. ____
 72
    65
 73
     6
 40
22.5
 49
12.0
 74
     0
 49
-1.5
 74
     0
 49
3.0
 74
     0
 49
-1.5
 74
     0
 49
3.0
 74
     0
 49
-1.5
 74
     0
  0
LTYPE
  5
287
330
5
100
AcDbSymbolTableRecord
100
AcDbLinetypeTableRecord
  2
Amconstr
 70
     0
  3
_______________________
 72
    65
 73
     2
 40
9999.0
 49
9999.0
 74
     0
 49
0.0
 74
     0
  0
LTYPE
  5
288
330
5
100
AcDbSymbolTableRecord
100
AcDbLinetypeTableRecord
  2
AM_ISO08W050x2
 70
     0
  3
__ . __ . __ . __ . __ . __
 72
    65
 73
     4
 40
9.0
 49
6.0
 74
     0
 49
-0.75
 74
     0
 49
1.5
 74
     0
 49
-0.75
 74
     0
  0
LTYPE
  5
289
330
5
100
AcDbSymbolTableRecord
100
AcDbLinetypeTableRecord
  2
AM_ISO02W050x2
 70
     0
  3
 _ _ _ _ _ _ _ _ _ _ _ _
 72
    65
 73
     2
 40
3.75
 49
3.0
 74
     0
 49
-0.75
 74
     0
  0
LTYPE
  5
28C
330
5
100
AcDbSymbolTableRecord
100
AcDbLinetypeTableRecord
  2
Amzigzag
 70
     0
  3
/\/-/\/-/\/-/\/-/\/-/\/
 72
    65
 73
     2
 40
11.0001
 49
0.0001
 74
     4
 75
   136
340
28B
 46
0.04
 50
0.0
 44
0.0
 45
0.0
 49
-11.0
 74
     0
  0
LTYPE
  5
28D
330
5
100
AcDbSymbolTableRecord
100
AcDbLinetypeTableRecord
  2
CENTER2
 70
     0
  3
Center (.5x) ___ _ ___ _ ___ _ ___ _ ___ _ ___
 72
    65
 73
     4
 40
1.125
 49
0.75
 74
     0
 49
-0.125
 74
     0
 49
0.125
 74
     0
 49
-0.125
 74
     0
  0
LTYPE
  5
28E
330
5
100
AcDbSymbolTableRecord
100
AcDbLinetypeTableRecord
  2
HIDDEN2
 70
     0
  3
Hidden (.5x) _ _ _ _ _ _ _ _ _ _ _ _ _ _ _ _ _
 72
    65
 73
     2
 40
0.1875
 49
0.125
 74
     0
 49
-0.0625
 74
     0
  0
LTYPE
  5
28F
330
5
100
AcDbSymbolTableRecord
100
AcDbLinetypeTableRecord
  2
Amzigzag2
 70
     0
  3
/\/-/\/-/\/-/\/-/\/-/\/
 72
    65
 73
     2
 40
0.4401
 49
0.0001
 74
     4
 75
   136
340
28B
 46
0.0016
 50
0.0
 44
0.0
 45
0.0
 49
-0.4400000000000001
 74
     0
  0
LTYPE
  5
29E
330
5
100
AcDbSymbolTableRecord
100
AcDbLinetypeTableRecord
  2
ACANSTGB
 70
     0
  3
__ . . __ . .
 72
    65
 73
     6
 40
0.35433070866
 49
0.15748031496
 74
     0
 49
-0.03937007874
 74
     0
 49
0.03937007874
 74
     0
 49
-0.03937007874
 74
     0
 49
0.03937007874
 74
     0
 49
-0.03937007874
 74
     0
  0
LTYPE
  5
29F
330
5
100
AcDbSymbolTableRecord
100
AcDbLinetypeTableRecord
  2
ACANSTGL
 70
     0
  3
_ _ _ _ _
 72
    65
 73
     2
 40
0.11811023622
 49
0.07874015748
 74
     0
 49
-0.03937007874
 74
     0
  0
ENDTAB
  0
TABLE
  2
LAYER
  5
2
330
0
100
AcDbSymbolTable
 70
     5
  0
LAYER
  5
25
330
2
100
AcDbSymbolTableRecord
100
AcDbLayerTableRecord
  2
0
 70
     0
 62
     7
  6
CONTINUOUS
370
    -3
390
F
  0
LAYER
  5
3F
330
2
100
AcDbSymbolTableRecord
100
AcDbLayerTableRecord
  2
1
 70
     0
 62
     7
  6
CONTINUOUS
370
    -3
390
F
  0
LAYER
  5
40
330
2
100
AcDbSymbolTableRecord
100
AcDbLayerTableRecord
  2
2
 70
     0
 62
     7
  6
CONTINUOUS
370
    -3
390
F
  0
LAYER
  5
41
330
2
100
AcDbSymbolTableRecord
100
AcDbLayerTableRecord
  2
DEFPOINTS
 70
     0
 62
     7
  6
CONTINUOUS
290
     0
370
    -3
390
F
  0
LAYER
  5
3A2
330
2
100
AcDbSymbolTableRecord
100
AcDbLayerTableRecord
  2
AM_5
 70
     0
 62
     3
  6
CONTINUOUS
370
    15
390
F
1001
AcAecLayerStandard
1000

1000

  0
ENDTAB
  0
TABLE
  2
STYLE
  5
3
330
0
100
AcDbSymbolTable
 70
     4
  0
STYLE
  5
26
330
3
100
AcDbSymbolTableRecord
100
AcDbTextStyleTableRecord
  2
STANDARD
 70
     0
 40
0.0
 41
1.0
 50
0.0
 71
     0
 42
0.2
  3
txt
  4
BIGFONT
  0
STYLE
  5
28B
330
3
100
AcDbSymbolTableRecord
100
AcDbTextStyleTableRecord
  2

 70
     1
 40
0.0
 41
1.0
 50
0.0
 71
     0
 42
3.2
  3
genltshp.shx
  4

  0
STYLE
  5
290
330
3
100
AcDbSymbolTableRecord
100
AcDbTextStyleTableRecord
  2
ACANSTS
 70
     0
 40
1.0
 41
1.0
 50
0.0
 71
     0
 42
3.2
  3
romans.shx
  4
extfont.shx
  0
STYLE
  5
29D
330
3
100
AcDbSymbolTableRecord
100
AcDbTextStyleTableRecord
  2
ACANSGDT
 70
     0
 40
0.0
 41
1.0
 50
0.0
 71
     0
 42
3.2
  3
amgdt.shx
  4

  0
ENDTAB
  0
TABLE
  2
VIEW
  5
6
330
0
100
AcDbSymbolTable
 70
     0
  0
ENDTAB
  0
TABLE
  2
UCS
  5
7
330
0
100
AcDbSymbolTable
 70
     0
  0
ENDTAB
  0
TABLE
  2
APPID
  5
9
330
0
100
AcDbSymbolTable
 70
    10
  0
APPID
  5
27
330
9
100
AcDbSymbolTableRecord
100
AcDbRegAppTableRecord
  2
ACAD
 70
     0
  0
APPID
  5
222
330
9
100
AcDbSymbolTableRecord
100
AcDbRegAppTableRecord
  2
MCAD_NO_VIS
 70
     0
  0
APPID
  5
223
330
9
100
AcDbSymbolTableRecord
100
AcDbRegAppTableRecord
  2
ACAD_TEMP_GRAPHIC
 70
     0
  0
APPID
  5
251
330
9
100
AcDbSymbolTableRecord
100
AcDbRegAppTableRecord
  2
AD_DRAW
 70
     0
  0
APPID
  5
254
330
9
100
AcDbSymbolTableRecord
100
AcDbRegAppTableRecord
  2
ACATTRIBSERVICES
 70
     0
  0
APPID
  5
275
330
9
100
AcDbSymbolTableRecord
100
AcDbRegAppTableRecord
  2
DESIGNERASSEMBLIES
 70
     0
  0
APPID
  5
27B
330
9
100
AcDbSymbolTableRecord
100
AcDbRegAppTableRecord
  2
ACADM_DIM_EDIT
 70
     0
  0
APPID
  5
27C
330
9
100
AcDbSymbolTableRecord
100
AcDbRegAppTableRecord
  2
AMDT_DM_ADJ
 70
     0
  0
APPID
  5
3A3
330
9
100
AcDbSymbolTableRecord
100
AcDbRegAppTableRecord
  2
AcAecLayerStandard
 70
     0
  0
APPID
  5
3CE
330
9
100
AcDbSymbolTableRecord
100
AcDbRegAppTableRecord
  2
ACAD_DSTYLE_DIMARC_LENGTH_SYMBOL
 70
     0
  0
ENDTAB
  0
TABLE
  2
DIMSTYLE
  5
A
330
0
100
AcDbSymbolTable
 70
     7
100
AcDbDimStyleTable
 71
     0
  0
DIMSTYLE
105
42
102
{ACAD_REACTORS
330
203
330
204
330
205
330
206
330
207
330
208
330
209
330
20A
330
20B
330
20C
330
20D
330
20E
330
20F
330
210
330
211
330
212
330
213
330
214
330
215
330
216
330
217
330
218
330
21A
102
}
330
A
100
AcDbSymbolTableRecord
100
AcDbDimStyleTableRecord
  2
DIMSTYLE
 70
     0
 41
1.0
 42
2.54
 44
2.54
 73
     0
 74
     0
140
3.2
147
1.6
173
     1
279
     2
340
26
  0
DIMSTYLE
105
2AB
330
A
100
AcDbSymbolTableRecord
100
AcDbDimStyleTableRecord
  2
AM_ANSI
 70
     0
  4
mm
 41
0.1
 42
0.05
 43
0.5
 44
0.1
 47
0.1
 48
0.1
 78
     7
 79
     2
140
0.12
141
0.0
146
0.71
147
0.06
176
   256
177
   256
178
     2
274
     4
284
     7
340
26
371
    -1
372
    -1
1001
ACAD_DSTYLE_DIMARC_LENGTH_SYMBOL
1070
   379
1070
     1
  0
DIMSTYLE
105
2AC
330
A
100
AcDbSymbolTableRecord
100
AcDbDimStyleTableRecord
  2
AM_ANSI$3
 70
     0
  4
mm
 41
0.1
 42
0.05
 43
0.5
 44
0.1
 47
0.1
 48
0.1
 78
     7
 79
     2
140
0.12
141
0.0
146
0.71
147
0.06
176
   256
177
   256
178
     2
274
     4
284
     7
288
     1
289
     0
340
26
371
    -1
372
    -1
1001
ACAD_DSTYLE_DIMARC_LENGTH_SYMBOL
1070
   379
1070
     1
  0
DIMSTYLE
105
2AD
330
A
100
AcDbSymbolTableRecord
100
AcDbDimStyleTableRecord
  2
AM_ANSI$4
 70
     0
  4
mm
 41
0.1
 42
0.05
 43
0.5
 44
0.1
 47
0.1
 48
0.1
 78
     7
 79
     2
140
0.12
141
0.0
146
0.71
147
0.06
176
   256
177
   256
178
     2
274
     4
284
     7
288
     1
289
     0
340
26
371
    -1
372
    -1
1001
ACAD_DSTYLE_DIMARC_LENGTH_SYMBOL
1070
   379
1070
     1
  0
DIMSTYLE
105
2AE
330
A
100
AcDbSymbolTableRecord
100
AcDbDimStyleTableRecord
  2
AM_ANSI$7
 70
     0
  4
mm
 41
0.1
 42
0.05
 43
0.5
 44
0.1
 47
0.1
 48
0.1
 78
     7
 79
     2
140
0.24
141
0.0
146
0.71
147
0.06
176
   256
177
   256
178
     2
274
     4
284
     7
340
26
371
    -1
372
    -1
1001
ACAD_DSTYLE_DIMARC_LENGTH_SYMBOL
1070
   379
1070
     1
  0
DIMSTYLE
105
2AF
330
A
100
AcDbSymbolTableRecord
100
AcDbDimStyleTableRecord
  2
AM_ANSI$SF
 70
     0
  4
mm
 41
0.1
 42
0.05
 43
0.5
 44
0.1
 47
0.1
 48
0.1
 75
     1
 76
     1
 78
     7
 79
     2
140
0.12
141
0.0
146
0.71
147
0.06
176
   256
177
   256
178
     2
274
     4
284
     7
340
26
371
    -1
372
    -1
1001
ACAD_DSTYLE_DIMARC_LENGTH_SYMBOL
1070
   379
1070
     1
  0
DIMSTYLE
105
2B4
330
A
100
AcDbSymbolTableRecord
100
AcDbDimStyleTableRecord
  2
AM_ANSI$SH
 70
     0
  4
mm
 41
0.1
 42
0.05
 43
0.5
 44
0.1
 47
0.1
 48
0.1
 75
     1
 76
     1
 78
     7
 79
     2
140
0.12
141
0.0
146
0.71
147
0.06
173
     1
176
   256
177
   256
178
     2
274
     4
284
     7
340
26
343
2B0
371
    -1
372
    -1
1001
ACAD_DSTYLE_DIMARC_LENGTH_SYMBOL
1070
   379
1070
     1
  0
ENDTAB
  0
TABLE
  2
BLOCK_RECORD
  5
1
330
0
100
AcDbSymbolTable
 70
    35
  0
BLOCK_RECORD
  5
36
330
1
100
AcDbSymbolTableRecord
100
AcDbBlockTableRecord
  2
*Model_Space
340
39
  0
BLOCK_RECORD
  5
32
330
1
100
AcDbSymbolTableRecord
100
AcDbBlockTableRecord
  2
*Paper_Space
340
35
  0
BLOCK_RECORD
  5
46
330
1
100
AcDbSymbolTableRecord
100
AcDbBlockTableRecord
  2
_DOT
340
0
102
{BLKREFS
331
55
331
56
331
61
331
6B
331
75
331
76
331
81
331
82
331
8D
331
8E
331
99
331
9A
331
A5
331
AF
331
B9
331
BA
331
C6
331
C7
331
D3
331
D4
331
DF
331
E0
331
EB
331
EC
331
F6
331
F7
331
102
331
103
331
10E
331
10F
331
11A
331
11B
331
126
331
127
331
132
331
133
331
13E
331
13F
331
14A
331
14B
331
156
331
157
331
162
102
}
  0
BLOCK_RECORD
  5
4E
330
1
100
AcDbSymbolTableRecord
100
AcDbBlockTableRecord
  2
_NONE
340
0
  0
BLOCK_RECORD
  5
72
330
1
100
AcDbSymbolTableRecord
100
AcDbBlockTableRecord
  2
*D5
340
0
  0
BLOCK_RECORD
  5
7E
330
1
100
AcDbSymbolTableRecord
100
AcDbBlockTableRecord
  2
*D6
340
0
  0
BLOCK_RECORD
  5
8A
330
1
100
AcDbSymbolTableRecord
100
AcDbBlockTableRecord
  2
*D7
340
0
  0
BLOCK_RECORD
  5
96
330
1
100
AcDbSymbolTableRecord
100
AcDbBlockTableRecord
  2
*D8
340
0
  0
BLOCK_RECORD
  5
A2
330
1
100
AcDbSymbolTableRecord
100
AcDbBlockTableRecord
  2
*D9
340
0
  0
BLOCK_RECORD
  5
AC
330
1
100
AcDbSymbolTableRecord
100
AcDbBlockTableRecord
  2
*D10
340
0
  0
BLOCK_RECORD
  5
B6
330
1
100
AcDbSymbolTableRecord
100
AcDbBlockTableRecord
  2
*D11
340
0
  0
BLOCK_RECORD
  5
DC
330
1
100
AcDbSymbolTableRecord
100
AcDbBlockTableRecord
  2
*D14
340
0
  0
BLOCK_RECORD
  5
E8
330
1
100
AcDbSymbolTableRecord
100
AcDbBlockTableRecord
  2
*D15
340
0
  0
BLOCK_RECORD
  5
F3
330
1
100
AcDbSymbolTableRecord
100
AcDbBlockTableRecord
  2
*D16
340
0
  0
BLOCK_RECORD
  5
FF
330
1
100
AcDbSymbolTableRecord
100
AcDbBlockTableRecord
  2
*D17
340
0
  0
BLOCK_RECORD
  5
10B
330
1
100
AcDbSymbolTableRecord
100
AcDbBlockTableRecord
  2
*D18
340
0
  0
BLOCK_RECORD
  5
117
330
1
100
AcDbSymbolTableRecord
100
AcDbBlockTableRecord
  2
*D19
340
0
  0
BLOCK_RECORD
  5
123
330
1
100
AcDbSymbolTableRecord
100
AcDbBlockTableRecord
  2
*D20
340
0
  0
BLOCK_RECORD
  5
12F
330
1
100
AcDbSymbolTableRecord
100
AcDbBlockTableRecord
  2
*D21
340
0
  0
BLOCK_RECORD
  5
13B
330
1
100
AcDbSymbolTableRecord
100
AcDbBlockTableRecord
  2
*D22
340
0
  0
BLOCK_RECORD
  5
147
330
1
100
AcDbSymbolTableRecord
100
AcDbBlockTableRecord
  2
*D23
340
0
  0
BLOCK_RECORD
  5
153
330
1
100
AcDbSymbolTableRecord
100
AcDbBlockTableRecord
  2
*D24
340
0
  0
BLOCK_RECORD
  5
15F
330
1
100
AcDbSymbolTableRecord
100
AcDbBlockTableRecord
  2
*D25
340
0
102
{BLKREFS
331
21B
102
}
  0
BLOCK_RECORD
  5
168
330
1
100
AcDbSymbolTableRecord
100
AcDbBlockTableRecord
  2
KOZU0001
340
0
102
{BLKREFS
331
219
102
}
  0
BLOCK_RECORD
  5
16F
330
1
100
AcDbSymbolTableRecord
100
AcDbBlockTableRecord
  2
KOZU0002
340
0
102
{BLKREFS
331
202
102
}
  0
BLOCK_RECORD
  5
2B0
330
1
100
AcDbSymbolTableRecord
100
AcDbBlockTableRecord
  2
GENAXEH
340
0
  0
BLOCK_RECORD
  5
307
330
1
100
AcDbSymbolTableRecord
100
AcDbBlockTableRecord
  2
*D30
340
0
  0
BLOCK_RECORD
  5
313
330
1
100
AcDbSymbolTableRecord
100
AcDbBlockTableRecord
  2
*D31
340
0
  0
BLOCK_RECORD
  5
321
330
1
100
AcDbSymbolTableRecord
100
AcDbBlockTableRecord
  2
*D32
340
0
  0
BLOCK_RECORD
  5
32B
330
1
100
AcDbSymbolTableRecord
100
AcDbBlockTableRecord
  2
*D33
340
0
  0
BLOCK_RECORD
  5
335
330
1
100
AcDbSymbolTableRecord
100
AcDbBlockTableRecord
  2
*D34
340
0
  0
ENDTAB
  0
ENDSEC
  0
SECTION
  2
BLOCKS
  0
BLOCK
  5
37
330
36
100
AcDbEntity
  8
0
100
AcDbBlockBegin
  2
*Model_Space
 70
     0
 10
0.0
 20
0.0
 30
0.0
  3
*Model_Space
  1

  0
ENDBLK
  5
38
330
36
100
AcDbEntity
  8
0
100
AcDbBlockEnd
  0
BLOCK
  5
33
330
32
100
AcDbEntity
 67
     1
  8
0
100
AcDbBlockBegin
  2
*Paper_Space
 70
     0
 10
0.0
 20
0.0
 30
0.0
  3
*Paper_Space
  1

  0
ENDBLK
  5
34
330
32
100
AcDbEntity
 67
     1
  8
0
100
AcDbBlockEnd
  0
BLOCK
  5
47
330
46
100
AcDbEntity
  8
0
100
AcDbBlockBegin
  2
_DOT
 70
     0
 10
0.0
 20
0.0
 30
0.0
  3
_DOT
  1

  0
POLYLINE
  5
48
330
46
100
AcDbEntity
  8
0
  6
ByBlock
 62
     0
100
AcDb2dPolyline
 66
     1
 10
0.0
 20
0.0
 30
0.0
 70
     1
 40
0.4000000100000001
 41
0.4000000100000001
  0
VERTEX
  5
49
330
48
100
AcDbEntity
  8
0
  6
ByBlock
 62
     0
100
AcDbVertex
100
AcDb2dVertex
 10
-0.2
 20
0.0
 30
0.0
 42
1.0
  0
VERTEX
  5
4A
330
48
100
AcDbEntity
  8
0
  6
ByBlock
 62
     0
100
AcDbVertex
100
AcDb2dVertex
 10
0.2
 20
0.0
 30
0.0
 42
1.0
  0
SEQEND
  5
4B
330
48
100
AcDbEntity
  8
0
  6
ByBlock
 62
     0
  0
LINE
  5
4C
330
46
100
AcDbEntity
  8
0
  6
ByBlock
 62
     0
100
AcDbLine
 10
-0.4000000100000001
 20
0.0
 30
0.0
 11
-3.0
 21
0.0
 31
0.0
  0
ENDBLK
  5
4D
330
46
100
AcDbEntity
  8
0
100
AcDbBlockEnd
  0
BLOCK
  5
4F
330
4E
100
AcDbEntity
  8
0
100
AcDbBlockBegin
  2
_NONE
 70
     0
 10
0.0
 20
0.0
 30
0.0
  3
_NONE
  1

  0
CIRCLE
  5
50
330
4E
100
AcDbEntity
  8
0
  6
ByBlock
 62
     0
100
AcDbCircle
 10
0.0
 20
0.0
 30
0.0
 40
0.001
  0
ENDBLK
  5
51
330
4E
100
AcDbEntity
  8
0
100
AcDbBlockEnd
  0
BLOCK
  5
73
330
72
100
AcDbEntity
  8
0
100
AcDbBlockBegin
  2
*D5
 70
     1
 10
0.0
 20
0.0
 30
0.0
  3
*D5
  1

  0
LINE
  5
74
330
72
100
AcDbEntity
  8
0
  6
Continuous
 62
     7
100
AcDbLine
 10
23.558496
 20
127.10783
 30
0.0
 11
28.058496
 21
127.10783
 31
0.0
  0
INSERT
  5
75
330
72
100
AcDbEntity
  8
0
  6
Continuous
 62
     7
100
AcDbBlockReference
  2
_DOT
 10
23.558496
 20
127.10783
 30
0.0
 50
180.0
  0
INSERT
  5
76
330
72
100
AcDbEntity
  8
0
  6
Continuous
 62
     7
100
AcDbBlockReference
  2
_DOT
 10
28.058496
 20
127.10783
 30
0.0
  0
LINE
  5
77
330
72
100
AcDbEntity
  8
0
  6
Continuous
 62
     7
100
AcDbLine
 10
23.558496
 20
111.44783
 30
0.0
 11
23.558496
 21
128.30783
 31
0.0
  0
LINE
  5
78
330
72
100
AcDbEntity
  8
0
  6
Continuous
 62
     7
100
AcDbLine
 10
28.058496
 20
118.14783
 30
0.0
 11
28.058496
 21
128.30783
 31
0.0
  0
TEXT
  5
79
330
72
100
AcDbEntity
  8
0
  6
Continuous
 62
     7
100
AcDbText
 10
21.465496
 20
127.90783
 30
0.0
 40
3.2
  1
4.5
 41
1.357187499999999
100
AcDbText
  0
POINT
  5
7A
330
72
100
AcDbEntity
  8
DEFPOINTS
  6
Continuous
 62
     7
100
AcDbPoint
 10
23.558496
 20
108.90783
 30
0.0
  0
POINT
  5
7B
330
72
100
AcDbEntity
  8
DEFPOINTS
  6
Continuous
 62
     7
100
AcDbPoint
 10
28.058496
 20
115.60783
 30
0.0
  0
POINT
  5
7C
330
72
100
AcDbEntity
  8
DEFPOINTS
  6
Continuous
 62
     7
100
AcDbPoint
 10
28.058496
 20
127.10783
 30
0.0
  0
ENDBLK
  5
7D
330
72
100
AcDbEntity
  8
0
100
AcDbBlockEnd
  0
BLOCK
  5
7F
330
7E
100
AcDbEntity
  8
0
100
AcDbBlockBegin
  2
*D6
 70
     1
 10
0.0
 20
0.0
 30
0.0
  3
*D6
  1

  0
LINE
  5
80
330
7E
100
AcDbEntity
  8
0
  6
Continuous
 62
     7
100
AcDbLine
 10
49.058498
 20
127.10783
 30
0.0
 11
28.058496
 21
127.10783
 31
0.0
  0
INSERT
  5
81
330
7E
100
AcDbEntity
  8
0
  6
Continuous
 62
     7
100
AcDbBlockReference
  2
_DOT
 10
49.058498
 20
127.10783
 30
0.0
  0
INSERT
  5
82
330
7E
100
AcDbEntity
  8
0
  6
Continuous
 62
     7
100
AcDbBlockReference
  2
_DOT
 10
28.058496
 20
127.10783
 30
0.0
 50
180.0
  0
LINE
  5
83
330
7E
100
AcDbEntity
  8
0
  6
Continuous
 62
     7
100
AcDbLine
 10
49.058498
 20
118.14783
 30
0.0
 11
49.058498
 21
128.30783
 31
0.0
  0
LINE
  5
84
330
7E
100
AcDbEntity
  8
0
  6
Continuous
 62
     7
100
AcDbLine
 10
28.058496
 20
118.14783
 30
0.0
 11
28.058496
 21
128.30783
 31
0.0
  0
TEXT
  5
85
330
7E
100
AcDbEntity
  8
0
  6
Continuous
 62
     7
100
AcDbText
 10
35.815498
 20
127.90783
 30
0.0
 40
3.2
  1
21
 41
1.186874999999999
100
AcDbText
  0
POINT
  5
86
330
7E
100
AcDbEntity
  8
DEFPOINTS
  6
Continuous
 62
     7
100
AcDbPoint
 10
49.058498
 20
115.60783
 30
0.0
  0
POINT
  5
87
330
7E
100
AcDbEntity
  8
DEFPOINTS
  6
Continuous
 62
     7
100
AcDbPoint
 10
28.058496
 20
115.60783
 30
0.0
  0
POINT
  5
88
330
7E
100
AcDbEntity
  8
DEFPOINTS
  6
Continuous
 62
     7
100
AcDbPoint
 10
28.058496
 20
127.10783
 30
0.0
  0
ENDBLK
  5
89
330
7E
100
AcDbEntity
  8
0
100
AcDbBlockEnd
  0
BLOCK
  5
8B
330
8A
100
AcDbEntity
  8
0
100
AcDbBlockBegin
  2
*D7
 70
     1
 10
0.0
 20
0.0
 30
0.0
  3
*D7
  1

  0
LINE
  5
8C
330
8A
100
AcDbEntity
  8
0
  6
Continuous
 62
     7
100
AcDbLine
 10
49.058498
 20
127.10783
 30
0.0
 11
53.558498
 21
127.10783
 31
0.0
  0
INSERT
  5
8D
330
8A
100
AcDbEntity
  8
0
  6
Continuous
 62
     7
100
AcDbBlockReference
  2
_DOT
 10
49.058498
 20
127.10783
 30
0.0
 50
180.0
  0
INSERT
  5
8E
330
8A
100
AcDbEntity
  8
0
  6
Continuous
 62
     7
100
AcDbBlockReference
  2
_DOT
 10
53.558498
 20
127.10783
 30
0.0
  0
LINE
  5
8F
330
8A
100
AcDbEntity
  8
0
  6
Continuous
 62
     7
100
AcDbLine
 10
49.058498
 20
118.14783
 30
0.0
 11
49.058498
 21
128.30783
 31
0.0
  0
LINE
  5
90
330
8A
100
AcDbEntity
  8
0
  6
Continuous
 62
     7
100
AcDbLine
 10
53.558498
 20
111.44783
 30
0.0
 11
53.558498
 21
128.30783
 31
0.0
  0
TEXT
  5
91
330
8A
100
AcDbEntity
  8
0
  6
Continuous
 62
     7
100
AcDbText
 10
46.96549799999999
 20
127.90783
 30
0.0
 40
3.2
  1
4.5
 41
1.357187499999999
100
AcDbText
  0
POINT
  5
92
330
8A
100
AcDbEntity
  8
DEFPOINTS
  6
Continuous
 62
     7
100
AcDbPoint
 10
49.058498
 20
115.60783
 30
0.0
  0
POINT
  5
93
330
8A
100
AcDbEntity
  8
DEFPOINTS
  6
Continuous
 62
     7
100
AcDbPoint
 10
53.558498
 20
108.90783
 30
0.0
  0
POINT
  5
94
330
8A
100
AcDbEntity
  8
DEFPOINTS
  6
Continuous
 62
     7
100
AcDbPoint
 10
53.558498
 20
127.10783
 30
0.0
  0
ENDBLK
  5
95
330
8A
100
AcDbEntity
  8
0
100
AcDbBlockEnd
  0
BLOCK
  5
97
330
96
100
AcDbEntity
  8
0
100
AcDbBlockBegin
  2
*D8
 70
     1
 10
0.0
 20
0.0
 30
0.0
  3
*D8
  1

  0
LINE
  5
98
330
96
100
AcDbEntity
  8
0
  6
Continuous
 62
     7
100
AcDbLine
 10
23.558496
 20
66.607826
 30
0.0
 11
29.558496
 21
66.607826
 31
0.0
  0
INSERT
  5
99
330
96
100
AcDbEntity
  8
0
  6
Continuous
 62
     7
100
AcDbBlockReference
  2
_DOT
 10
23.558496
 20
66.607826
 30
0.0
 50
180.0
  0
INSERT
  5
9A
330
96
100
AcDbEntity
  8
0
  6
Continuous
 62
     7
100
AcDbBlockReference
  2
_DOT
 10
29.558496
 20
66.607826
 30
0.0
  0
LINE
  5
9B
330
96
100
AcDbEntity
  8
0
  6
Continuous
 62
     7
100
AcDbLine
 10
23.558496
 20
59.14783
 30
0.0
 11
23.558496
 21
67.807831
 31
0.0
  0
LINE
  5
9C
330
96
100
AcDbEntity
  8
0
  6
Continuous
 62
     7
100
AcDbLine
 10
29.558496
 20
42.14782999999999
 30
0.0
 11
29.558496
 21
67.807831
 31
0.0
  0
TEXT
  5
9D
330
96
100
AcDbEntity
  8
0
  6
Continuous
 62
     7
100
AcDbText
 10
25.415496
 20
67.407826
 30
0.0
 40
3.2
  1
6
100
AcDbText
  0
POINT
  5
9E
330
96
100
AcDbEntity
  8
DEFPOINTS
  6
Continuous
 62
     7
100
AcDbPoint
 10
23.558496
 20
56.60783000000001
 30
0.0
  0
POINT
  5
9F
330
96
100
AcDbEntity
  8
DEFPOINTS
  6
Continuous
 62
     7
100
AcDbPoint
 10
29.558496
 20
39.60783
 30
0.0
  0
POINT
  5
A0
330
96
100
AcDbEntity
  8
DEFPOINTS
  6
Continuous
 62
     7
100
AcDbPoint
 10
29.558496
 20
66.607826
 30
0.0
  0
ENDBLK
  5
A1
330
96
100
AcDbEntity
  8
0
100
AcDbBlockEnd
  0
BLOCK
  5
A3
330
A2
100
AcDbEntity
  8
0
100
AcDbBlockBegin
  2
*D9
 70
     1
 10
0.0
 20
0.0
 30
0.0
  3
*D9
  1

  0
LINE
  5
A4
330
A2
100
AcDbEntity
  8
0
  6
Continuous
 62
     7
100
AcDbLine
 10
29.558496
 20
66.607826
 30
0.0
 11
47.558498
 21
66.607826
 31
0.0
  0
INSERT
  5
A5
330
A2
100
AcDbEntity
  8
0
  6
Continuous
 62
     7
100
AcDbBlockReference
  2
_DOT
 10
47.558498
 20
66.607826
 30
0.0
  0
LINE
  5
A6
330
A2
100
AcDbEntity
  8
0
  6
Continuous
 62
     7
100
AcDbLine
 10
47.558498
 20
42.14782999999999
 30
0.0
 11
47.558498
 21
67.807831
 31
0.0
  0
TEXT
  5
A7
330
A2
100
AcDbEntity
  8
0
  6
Continuous
 62
     7
100
AcDbText
 10
35.815498
 20
67.407826
 30
0.0
 40
3.2
  1
18
 41
1.285781199999999
100
AcDbText
  0
POINT
  5
A8
330
A2
100
AcDbEntity
  8
DEFPOINTS
  6
Continuous
 62
     7
100
AcDbPoint
 10
29.558496
 20
39.60783
 30
0.0
  0
POINT
  5
A9
330
A2
100
AcDbEntity
  8
DEFPOINTS
  6
Continuous
 62
     7
100
AcDbPoint
 10
47.558498
 20
39.60783
 30
0.0
  0
POINT
  5
AA
330
A2
100
AcDbEntity
  8
DEFPOINTS
  6
Continuous
 62
     7
100
AcDbPoint
 10
47.558498
 20
66.607826
 30
0.0
  0
ENDBLK
  5
AB
330
A2
100
AcDbEntity
  8
0
100
AcDbBlockEnd
  0
BLOCK
  5
AD
330
AC
100
AcDbEntity
  8
0
100
AcDbBlockBegin
  2
*D10
 70
     1
 10
0.0
 20
0.0
 30
0.0
  3
*D10
  1

  0
LINE
  5
AE
330
AC
100
AcDbEntity
  8
0
  6
Continuous
 62
     7
100
AcDbLine
 10
47.558498
 20
66.607826
 30
0.0
 11
53.558498
 21
66.607826
 31
0.0
  0
INSERT
  5
AF
330
AC
100
AcDbEntity
  8
0
  6
Continuous
 62
     7
100
AcDbBlockReference
  2
_DOT
 10
53.558498
 20
66.607826
 30
0.0
  0
LINE
  5
B0
330
AC
100
AcDbEntity
  8
0
  6
Continuous
 62
     7
100
AcDbLine
 10
53.558498
 20
59.14783
 30
0.0
 11
53.558498
 21
67.807831
 31
0.0
  0
TEXT
  5
B1
330
AC
100
AcDbEntity
  8
0
  6
Continuous
 62
     7
100
AcDbText
 10
49.415498
 20
67.407826
 30
0.0
 40
3.2
  1
6
100
AcDbText
  0
POINT
  5
B2
330
AC
100
AcDbEntity
  8
DEFPOINTS
  6
Continuous
 62
     7
100
AcDbPoint
 10
47.558498
 20
39.60783
 30
0.0
  0
POINT
  5
B3
330
AC
100
AcDbEntity
  8
DEFPOINTS
  6
Continuous
 62
     7
100
AcDbPoint
 10
53.558498
 20
56.60783000000001
 30
0.0
  0
POINT
  5
B4
330
AC
100
AcDbEntity
  8
DEFPOINTS
  6
Continuous
 62
     7
100
AcDbPoint
 10
53.558498
 20
66.607826
 30
0.0
  0
ENDBLK
  5
B5
330
AC
100
AcDbEntity
  8
0
100
AcDbBlockEnd
  0
BLOCK
  5
B7
330
B6
100
AcDbEntity
  8
0
100
AcDbBlockBegin
  2
*D11
 70
     1
 10
0.0
 20
0.0
 30
0.0
  3
*D11
  1

  0
LINE
  5
B8
330
B6
100
AcDbEntity
  8
0
  6
Continuous
 62
     7
100
AcDbLine
 10
23.558496
 20
76.607826
 30
0.0
 11
53.558498
 21
76.607826
 31
0.0
  0
INSERT
  5
B9
330
B6
100
AcDbEntity
  8
0
  6
Continuous
 62
     7
100
AcDbBlockReference
  2
_DOT
 10
23.558496
 20
76.607826
 30
0.0
 50
180.0
  0
INSERT
  5
BA
330
B6
100
AcDbEntity
  8
0
  6
Continuous
 62
     7
100
AcDbBlockReference
  2
_DOT
 10
53.558498
 20
76.607826
 30
0.0
  0
LINE
  5
BB
330
B6
100
AcDbEntity
  8
0
  6
Continuous
 62
     7
100
AcDbLine
 10
23.558496
 20
59.14783
 30
0.0
 11
23.558496
 21
77.807831
 31
0.0
  0
LINE
  5
BC
330
B6
100
AcDbEntity
  8
0
  6
Continuous
 62
     7
100
AcDbLine
 10
53.558498
 20
59.14783
 30
0.0
 11
53.558498
 21
77.807831
 31
0.0
  0
TEXT
  5
BD
330
B6
100
AcDbEntity
  8
0
  6
Continuous
 62
     7
100
AcDbText
 10
35.815498
 20
77.407826
 30
0.0
 40
3.2
  1
30
 41
1.102098199999999
100
AcDbText
  0
POINT
  5
BE
330
B6
100
AcDbEntity
  8
DEFPOINTS
  6
Continuous
 62
     7
100
AcDbPoint
 10
23.558496
 20
56.60783000000001
 30
0.0
  0
POINT
  5
BF
330
B6
100
AcDbEntity
  8
DEFPOINTS
  6
Continuous
 62
     7
100
AcDbPoint
 10
53.558498
 20
56.60783000000001
 30
0.0
  0
POINT
  5
C0
330
B6
100
AcDbEntity
  8
DEFPOINTS
  6
Continuous
 62
     7
100
AcDbPoint
 10
53.558498
 20
76.607826
 30
0.0
  0
ENDBLK
  5
C1
330
B6
100
AcDbEntity
  8
0
100
AcDbBlockEnd
  0
BLOCK
  5
DD
330
DC
100
AcDbEntity
  8
0
100
AcDbBlockBegin
  2
*D14
 70
     1
 10
0.0
 20
0.0
 30
0.0
  3
*D14
  1

  0
LINE
  5
DE
330
DC
100
AcDbEntity
  8
0
  6
Continuous
 62
     7
100
AcDbLine
 10
123.55849
 20
76.607826
 30
0.0
 11
134.0585
 21
76.607826
 31
0.0
  0
INSERT
  5
DF
330
DC
100
AcDbEntity
  8
0
  6
Continuous
 62
     7
100
AcDbBlockReference
  2
_DOT
 10
123.55849
 20
76.607826
 30
0.0
 50
180.0
  0
INSERT
  5
E0
330
DC
100
AcDbEntity
  8
0
  6
Continuous
 62
     7
100
AcDbBlockReference
  2
_DOT
 10
134.0585
 20
76.607826
 30
0.0
  0
LINE
  5
E1
330
DC
100
AcDbEntity
  8
0
  6
Continuous
 62
     7
100
AcDbLine
 10
123.55849
 20
59.14783
 30
0.0
 11
123.55849
 21
77.807831
 31
0.0
  0
LINE
  5
E2
330
DC
100
AcDbEntity
  8
0
  6
Continuous
 62
     7
100
AcDbLine
 10
134.0585
 20
29.177861
 30
0.0
 11
134.0585
 21
77.807831
 31
0.0
  0
TEXT
  5
E3
330
DC
100
AcDbEntity
  8
0
  6
Continuous
 62
     7
100
AcDbText
 10
122.8655
 20
77.407826
 30
0.0
 40
3.2
  1
10.5
 41
1.485749999999999
100
AcDbText
  0
POINT
  5
E4
330
DC
100
AcDbEntity
  8
DEFPOINTS
  6
Continuous
 62
     7
100
AcDbPoint
 10
123.55849
 20
56.60783000000001
 30
0.0
  0
POINT
  5
E5
330
DC
100
AcDbEntity
  8
DEFPOINTS
  6
Continuous
 62
     7
100
AcDbPoint
 10
134.0585
 20
26.637861
 30
0.0
  0
POINT
  5
E6
330
DC
100
AcDbEntity
  8
DEFPOINTS
  6
Continuous
 62
     7
100
AcDbPoint
 10
134.0585
 20
76.607826
 30
0.0
  0
ENDBLK
  5
E7
330
DC
100
AcDbEntity
  8
0
100
AcDbBlockEnd
  0
BLOCK
  5
E9
330
E8
100
AcDbEntity
  8
0
100
AcDbBlockBegin
  2
*D15
 70
     1
 10
0.0
 20
0.0
 30
0.0
  3
*D15
  1

  0
LINE
  5
EA
330
E8
100
AcDbEntity
  8
0
  6
Continuous
 62
     7
100
AcDbLine
 10
68.55849499999999
 20
56.60783000000001
 30
0.0
 11
68.55849499999999
 21
40.60782999999999
 31
0.0
  0
INSERT
  5
EB
330
E8
100
AcDbEntity
  8
0
  6
Continuous
 62
     7
100
AcDbBlockReference
  2
_DOT
 10
68.55849499999999
 20
56.60783000000001
 30
0.0
 50
90.0
  0
INSERT
  5
EC
330
E8
100
AcDbEntity
  8
0
  6
Continuous
 62
     7
100
AcDbBlockReference
  2
_DOT
 10
68.55849499999999
 20
40.60782999999999
 30
0.0
 50
270.0
  0
LINE
  5
ED
330
E8
100
AcDbEntity
  8
0
  6
Continuous
 62
     7
100
AcDbLine
 10
56.098498
 20
56.60783000000001
 30
0.0
 11
69.758499
 21
56.60783000000001
 31
0.0
  0
TEXT
  5
EE
330
E8
100
AcDbEntity
  8
0
  6
Continuous
 62
     7
100
AcDbText
 10
67.75849499999999
 20
41.152977
 30
0.0
 40
3.2
  1
16
 50
90.00000300000001
 41
1.285781199999999
100
AcDbText
  0
POINT
  5
EF
330
E8
100
AcDbEntity
  8
DEFPOINTS
  6
Continuous
 62
     7
100
AcDbPoint
 10
53.558498
 20
56.60783000000001
 30
0.0
  0
POINT
  5
F0
330
E8
100
AcDbEntity
  8
DEFPOINTS
  6
Continuous
 62
     7
100
AcDbPoint
 10
46.558498
 20
40.60782999999999
 30
0.0
  0
POINT
  5
F1
330
E8
100
AcDbEntity
  8
DEFPOINTS
  6
Continuous
 62
     7
100
AcDbPoint
 10
68.55849499999999
 20
40.60782999999999
 30
0.0
  0
ENDBLK
  5
F2
330
E8
100
AcDbEntity
  8
0
100
AcDbBlockEnd
  0
BLOCK
  5
F4
330
F3
100
AcDbEntity
  8
0
100
AcDbBlockBegin
  2
*D16
 70
     1
 10
0.0
 20
0.0
 30
0.0
  3
*D16
  1

  0
LINE
  5
F5
330
F3
100
AcDbEntity
  8
0
  6
Continuous
 62
     7
100
AcDbLine
 10
68.55849499999999
 20
-47.39217
 30
0.0
 11
68.55849499999999
 21
40.60782999999999
 31
0.0
  0
INSERT
  5
F6
330
F3
100
AcDbEntity
  8
0
  6
Continuous
 62
     7
100
AcDbBlockReference
  2
_DOT
 10
68.55849499999999
 20
-47.39217
 30
0.0
 50
270.0
  0
INSERT
  5
F7
330
F3
100
AcDbEntity
  8
0
  6
Continuous
 62
     7
100
AcDbBlockReference
  2
_DOT
 10
68.55849499999999
 20
40.60782999999999
 30
0.0
 50
90.0
  0
LINE
  5
F8
330
F3
100
AcDbEntity
  8
0
  6
Continuous
 62
     7
100
AcDbLine
 10
49.09849799999999
 20
-47.39217
 30
0.0
 11
69.758499
 21
-47.39217
 31
0.0
  0
LINE
  5
F9
330
F3
100
AcDbEntity
  8
0
  6
Continuous
 62
     7
100
AcDbLine
 10
49.09849799999999
 20
40.60782999999999
 30
0.0
 11
69.758499
 21
40.60782999999999
 31
0.0
  0
TEXT
  5
FA
330
F3
100
AcDbEntity
  8
0
  6
Continuous
 62
     7
100
AcDbText
 10
67.75849499999999
 20
-6.1351702
 30
0.0
 40
3.2
  1
88
 50
90.00000300000001
 41
1.028624999999999
100
AcDbText
  0
POINT
  5
FB
330
F3
100
AcDbEntity
  8
DEFPOINTS
  6
Continuous
 62
     7
100
AcDbPoint
 10
46.558498
 20
-47.39217
 30
0.0
  0
POINT
  5
FC
330
F3
100
AcDbEntity
  8
DEFPOINTS
  6
Continuous
 62
     7
100
AcDbPoint
 10
46.558498
 20
40.60782999999999
 30
0.0
  0
POINT
  5
FD
330
F3
100
AcDbEntity
  8
DEFPOINTS
  6
Continuous
 62
     7
100
AcDbPoint
 10
68.55849499999999
 20
40.60782999999999
 30
0.0
  0
ENDBLK
  5
FE
330
F3
100
AcDbEntity
  8
0
100
AcDbBlockEnd
  0
BLOCK
  5
100
330
FF
100
AcDbEntity
  8
0
100
AcDbBlockBegin
  2
*D17
 70
     1
 10
0.0
 20
0.0
 30
0.0
  3
*D17
  1

  0
LINE
  5
101
330
FF
100
AcDbEntity
  8
0
  6
Continuous
 62
     7
100
AcDbLine
 10
68.06047099999999
 20
-47.39217
 30
0.0
 11
68.06047099999999
 21
-63.39216999999999
 31
0.0
  0
INSERT
  5
102
330
FF
100
AcDbEntity
  8
0
  6
Continuous
 62
     7
100
AcDbBlockReference
  2
_DOT
 10
68.06047099999999
 20
-47.39217
 30
0.0
 50
90.0
  0
INSERT
  5
103
330
FF
100
AcDbEntity
  8
0
  6
Continuous
 62
     7
100
AcDbBlockReference
  2
_DOT
 10
68.06047099999999
 20
-63.39216999999999
 30
0.0
 50
270.0
  0
LINE
  5
104
330
FF
100
AcDbEntity
  8
0
  6
Continuous
 62
     7
100
AcDbLine
 10
49.09849799999999
 20
-47.39217
 30
0.0
 11
69.260475
 21
-47.39217
 31
0.0
  0
LINE
  5
105
330
FF
100
AcDbEntity
  8
0
  6
Continuous
 62
     7
100
AcDbLine
 10
56.098498
 20
-63.39216999999999
 30
0.0
 11
69.260475
 21
-63.39216999999999
 31
0.0
  0
TEXT
  5
106
330
FF
100
AcDbEntity
  8
0
  6
Continuous
 62
     7
100
AcDbText
 10
67.26047099999999
 20
-55.638016
 30
0.0
 40
3.2
  1
16
 50
90.00000300000001
 41
1.285781199999999
100
AcDbText
  0
POINT
  5
107
330
FF
100
AcDbEntity
  8
DEFPOINTS
  6
Continuous
 62
     7
100
AcDbPoint
 10
46.558498
 20
-47.39217
 30
0.0
  0
POINT
  5
108
330
FF
100
AcDbEntity
  8
DEFPOINTS
  6
Continuous
 62
     7
100
AcDbPoint
 10
53.558498
 20
-63.39216999999999
 30
0.0
  0
POINT
  5
109
330
FF
100
AcDbEntity
  8
DEFPOINTS
  6
Continuous
 62
     7
100
AcDbPoint
 10
68.06047099999999
 20
-63.39216999999999
 30
0.0
  0
ENDBLK
  5
10A
330
FF
100
AcDbEntity
  8
0
100
AcDbBlockEnd
  0
BLOCK
  5
10C
330
10B
100
AcDbEntity
  8
0
100
AcDbBlockBegin
  2
*D18
 70
     1
 10
0.0
 20
0.0
 30
0.0
  3
*D18
  1

  0
LINE
  5
10D
330
10B
100
AcDbEntity
  8
0
  6
Continuous
 62
     7
100
AcDbLine
 10
78.55849499999999
 20
56.60783000000001
 30
0.0
 11
78.55849499999999
 21
49.60783
 31
0.0
  0
INSERT
  5
10E
330
10B
100
AcDbEntity
  8
0
  6
Continuous
 62
     7
100
AcDbBlockReference
  2
_DOT
 10
78.55849499999999
 20
56.60783000000001
 30
0.0
 50
90.0
  0
INSERT
  5
10F
330
10B
100
AcDbEntity
  8
0
  6
Continuous
 62
     7
100
AcDbBlockReference
  2
_DOT
 10
78.55849499999999
 20
49.60783
 30
0.0
 50
270.0
  0
LINE
  5
110
330
10B
100
AcDbEntity
  8
0
  6
Continuous
 62
     7
100
AcDbLine
 10
56.098498
 20
56.60783000000001
 30
0.0
 11
79.758499
 21
56.60783000000001
 31
0.0
  0
LINE
  5
111
330
10B
100
AcDbEntity
  8
0
  6
Continuous
 62
     7
100
AcDbLine
 10
48.098498
 20
49.60783
 30
0.0
 11
79.758499
 21
49.60783
 31
0.0
  0
TEXT
  5
112
330
10B
100
AcDbEntity
  8
0
  6
Continuous
 62
     7
100
AcDbText
 10
77.75849499999999
 20
51.96483
 30
0.0
 40
3.2
  1
7
 50
90.00000300000001
100
AcDbText
  0
POINT
  5
113
330
10B
100
AcDbEntity
  8
DEFPOINTS
  6
Continuous
 62
     7
100
AcDbPoint
 10
53.558498
 20
56.60783000000001
 30
0.0
  0
POINT
  5
114
330
10B
100
AcDbEntity
  8
DEFPOINTS
  6
Continuous
 62
     7
100
AcDbPoint
 10
45.55849799999999
 20
49.60783
 30
0.0
  0
POINT
  5
115
330
10B
100
AcDbEntity
  8
DEFPOINTS
  6
Continuous
 62
     7
100
AcDbPoint
 10
78.55849499999999
 20
49.60783
 30
0.0
  0
ENDBLK
  5
116
330
10B
100
AcDbEntity
  8
0
100
AcDbBlockEnd
  0
BLOCK
  5
118
330
117
100
AcDbEntity
  8
0
100
AcDbBlockBegin
  2
*D19
 70
     1
 10
0.0
 20
0.0
 30
0.0
  3
*D19
  1

  0
LINE
  5
119
330
117
100
AcDbEntity
  8
0
  6
Continuous
 62
     7
100
AcDbLine
 10
78.55849499999999
 20
49.60783
 30
0.0
 11
78.55849499999999
 21
-56.39216999999999
 31
0.0
  0
INSERT
  5
11A
330
117
100
AcDbEntity
  8
0
  6
Continuous
 62
     7
100
AcDbBlockReference
  2
_DOT
 10
78.55849499999999
 20
49.60783
 30
0.0
 50
90.0
  0
INSERT
  5
11B
330
117
100
AcDbEntity
  8
0
  6
Continuous
 62
     7
100
AcDbBlockReference
  2
_DOT
 10
78.55849499999999
 20
-56.39216999999999
 30
0.0
 50
270.0
  0
LINE
  5
11C
330
117
100
AcDbEntity
  8
0
  6
Continuous
 62
     7
100
AcDbLine
 10
48.098498
 20
49.60783
 30
0.0
 11
79.758499
 21
49.60783
 31
0.0
  0
LINE
  5
11D
330
117
100
AcDbEntity
  8
0
  6
Continuous
 62
     7
100
AcDbLine
 10
48.098498
 20
-56.39216999999999
 30
0.0
 11
79.758499
 21
-56.39216999999999
 31
0.0
  0
TEXT
  5
11E
330
117
100
AcDbEntity
  8
0
  6
Continuous
 62
     7
100
AcDbText
 10
77.75849499999999
 20
-7.7351702
 30
0.0
 40
3.2
  1
106
 50
90.00000300000001
 41
1.2527885
100
AcDbText
  0
POINT
  5
11F
330
117
100
AcDbEntity
  8
DEFPOINTS
  6
Continuous
 62
     7
100
AcDbPoint
 10
45.55849799999999
 20
49.60783
 30
0.0
  0
POINT
  5
120
330
117
100
AcDbEntity
  8
DEFPOINTS
  6
Continuous
 62
     7
100
AcDbPoint
 10
45.55849799999999
 20
-56.39216999999999
 30
0.0
  0
POINT
  5
121
330
117
100
AcDbEntity
  8
DEFPOINTS
  6
Continuous
 62
     7
100
AcDbPoint
 10
78.55849499999999
 20
-56.39216999999999
 30
0.0
  0
ENDBLK
  5
122
330
117
100
AcDbEntity
  8
0
100
AcDbBlockEnd
  0
BLOCK
  5
124
330
123
100
AcDbEntity
  8
0
100
AcDbBlockBegin
  2
*D20
 70
     1
 10
0.0
 20
0.0
 30
0.0
  3
*D20
  1

  0
LINE
  5
125
330
123
100
AcDbEntity
  8
0
  6
Continuous
 62
     7
100
AcDbLine
 10
78.55849499999999
 20
-56.39216999999999
 30
0.0
 11
78.55849499999999
 21
-63.39216999999999
 31
0.0
  0
INSERT
  5
126
330
123
100
AcDbEntity
  8
0
  6
Continuous
 62
     7
100
AcDbBlockReference
  2
_DOT
 10
78.55849499999999
 20
-56.39216999999999
 30
0.0
 50
90.0
  0
INSERT
  5
127
330
123
100
AcDbEntity
  8
0
  6
Continuous
 62
     7
100
AcDbBlockReference
  2
_DOT
 10
78.55849499999999
 20
-63.39216999999999
 30
0.0
 50
270.0
  0
LINE
  5
128
330
123
100
AcDbEntity
  8
0
  6
Continuous
 62
     7
100
AcDbLine
 10
48.098498
 20
-56.39216999999999
 30
0.0
 11
79.758499
 21
-56.39216999999999
 31
0.0
  0
LINE
  5
129
330
123
100
AcDbEntity
  8
0
  6
Continuous
 62
     7
100
AcDbLine
 10
56.098498
 20
-63.39216999999999
 30
0.0
 11
79.758499
 21
-63.39216999999999
 31
0.0
  0
TEXT
  5
12A
330
123
100
AcDbEntity
  8
0
  6
Continuous
 62
     7
100
AcDbText
 10
77.75849499999999
 20
-61.03517
 30
0.0
 40
3.2
  1
7
 50
90.00000300000001
100
AcDbText
  0
POINT
  5
12B
330
123
100
AcDbEntity
  8
DEFPOINTS
  6
Continuous
 62
     7
100
AcDbPoint
 10
45.55849799999999
 20
-56.39216999999999
 30
0.0
  0
POINT
  5
12C
330
123
100
AcDbEntity
  8
DEFPOINTS
  6
Continuous
 62
     7
100
AcDbPoint
 10
53.558498
 20
-63.39216999999999
 30
0.0
  0
POINT
  5
12D
330
123
100
AcDbEntity
  8
DEFPOINTS
  6
Continuous
 62
     7
100
AcDbPoint
 10
78.55849499999999
 20
-63.39216999999999
 30
0.0
  0
ENDBLK
  5
12E
330
123
100
AcDbEntity
  8
0
100
AcDbBlockEnd
  0
BLOCK
  5
130
330
12F
100
AcDbEntity
  8
0
100
AcDbBlockBegin
  2
*D21
 70
     1
 10
0.0
 20
0.0
 30
0.0
  3
*D21
  1

  0
LINE
  5
131
330
12F
100
AcDbEntity
  8
0
  6
Continuous
 62
     7
100
AcDbLine
 10
88.55849499999999
 20
56.60783000000001
 30
0.0
 11
88.55849499999999
 21
-63.39216999999999
 31
0.0
  0
INSERT
  5
132
330
12F
100
AcDbEntity
  8
0
  6
Continuous
 62
     7
100
AcDbBlockReference
  2
_DOT
 10
88.55849499999999
 20
56.60783000000001
 30
0.0
 50
90.0
  0
INSERT
  5
133
330
12F
100
AcDbEntity
  8
0
  6
Continuous
 62
     7
100
AcDbBlockReference
  2
_DOT
 10
88.55849499999999
 20
-63.39216999999999
 30
0.0
 50
270.0
  0
LINE
  5
134
330
12F
100
AcDbEntity
  8
0
  6
Continuous
 62
     7
100
AcDbLine
 10
56.098498
 20
56.60783000000001
 30
0.0
 11
89.758499
 21
56.60783000000001
 31
0.0
  0
LINE
  5
135
330
12F
100
AcDbEntity
  8
0
  6
Continuous
 62
     7
100
AcDbLine
 10
56.098498
 20
-63.39216999999999
 30
0.0
 11
89.758499
 21
-63.39216999999999
 31
0.0
  0
TEXT
  5
136
330
12F
100
AcDbEntity
  8
0
  6
Continuous
 62
     7
100
AcDbText
 10
87.75849499999999
 20
-7.7351702
 30
0.0
 40
3.2
  1
120
 50
90.00000300000001
 41
1.221468699999999
100
AcDbText
  0
POINT
  5
137
330
12F
100
AcDbEntity
  8
DEFPOINTS
  6
Continuous
 62
     7
100
AcDbPoint
 10
53.558498
 20
56.60783000000001
 30
0.0
  0
POINT
  5
138
330
12F
100
AcDbEntity
  8
DEFPOINTS
  6
Continuous
 62
     7
100
AcDbPoint
 10
53.558498
 20
-63.39216999999999
 30
0.0
  0
POINT
  5
139
330
12F
100
AcDbEntity
  8
DEFPOINTS
  6
Continuous
 62
     7
100
AcDbPoint
 10
88.55849499999999
 20
-63.39216999999999
 30
0.0
  0
ENDBLK
  5
13A
330
12F
100
AcDbEntity
  8
0
100
AcDbBlockEnd
  0
BLOCK
  5
13C
330
13B
100
AcDbEntity
  8
0
100
AcDbBlockBegin
  2
*D22
 70
     1
 10
0.0
 20
0.0
 30
0.0
  3
*D22
  1

  0
LINE
  5
13D
330
13B
100
AcDbEntity
  8
0
  6
Continuous
 62
     7
100
AcDbLine
 10
-42.94150199999999
 20
61.60783000000001
 30
0.0
 11
-19.941504
 21
61.60783000000001
 31
0.0
  0
INSERT
  5
13E
330
13B
100
AcDbEntity
  8
0
  6
Continuous
 62
     7
100
AcDbBlockReference
  2
_DOT
 10
-42.94150199999999
 20
61.60783000000001
 30
0.0
 50
180.0
  0
INSERT
  5
13F
330
13B
100
AcDbEntity
  8
0
  6
Continuous
 62
     7
100
AcDbBlockReference
  2
_DOT
 10
-19.941504
 20
61.60783000000001
 30
0.0
  0
LINE
  5
140
330
13B
100
AcDbEntity
  8
0
  6
Continuous
 62
     7
100
AcDbLine
 10
-42.94150199999999
 20
44.14782999999999
 30
0.0
 11
-42.94150199999999
 21
62.807831
 31
0.0
  0
LINE
  5
141
330
13B
100
AcDbEntity
  8
0
  6
Continuous
 62
     7
100
AcDbLine
 10
-19.941504
 20
44.14782999999999
 30
0.0
 11
-19.941504
 21
62.807831
 31
0.0
  0
TEXT
  5
142
330
13B
100
AcDbEntity
  8
0
  6
Continuous
 62
     7
100
AcDbText
 10
-34.184504
 20
62.40783
 30
0.0
 40
3.2
  1
23
 41
1.028624999999999
100
AcDbText
  0
POINT
  5
143
330
13B
100
AcDbEntity
  8
DEFPOINTS
  6
Continuous
 62
     7
100
AcDbPoint
 10
-42.94150199999999
 20
41.60783
 30
0.0
  0
POINT
  5
144
330
13B
100
AcDbEntity
  8
DEFPOINTS
  6
Continuous
 62
     7
100
AcDbPoint
 10
-19.941504
 20
41.60783
 30
0.0
  0
POINT
  5
145
330
13B
100
AcDbEntity
  8
DEFPOINTS
  6
Continuous
 62
     7
100
AcDbPoint
 10
-19.941504
 20
61.60783000000001
 30
0.0
  0
ENDBLK
  5
146
330
13B
100
AcDbEntity
  8
0
100
AcDbBlockEnd
  0
BLOCK
  5
148
330
147
100
AcDbEntity
  8
0
100
AcDbBlockBegin
  2
*D23
 70
     1
 10
0.0
 20
0.0
 30
0.0
  3
*D23
  1

  0
LINE
  5
149
330
147
100
AcDbEntity
  8
0
  6
Continuous
 62
     7
100
AcDbLine
 10
-52.941502
 20
41.60783
 30
0.0
 11
-52.941502
 21
-48.39217
 31
0.0
  0
INSERT
  5
14A
330
147
100
AcDbEntity
  8
0
  6
Continuous
 62
     7
100
AcDbBlockReference
  2
_DOT
 10
-52.941502
 20
41.60783
 30
0.0
 50
90.0
  0
INSERT
  5
14B
330
147
100
AcDbEntity
  8
0
  6
Continuous
 62
     7
100
AcDbBlockReference
  2
_DOT
 10
-52.941502
 20
-48.39217
 30
0.0
 50
270.0
  0
LINE
  5
14C
330
147
100
AcDbEntity
  8
0
  6
Continuous
 62
     7
100
AcDbLine
 10
-45.481502
 20
41.60783
 30
0.0
 11
-54.141502
 21
41.60783
 31
0.0
  0
LINE
  5
14D
330
147
100
AcDbEntity
  8
0
  6
Continuous
 62
     7
100
AcDbLine
 10
-45.481502
 20
-48.39217
 30
0.0
 11
-54.141502
 21
-48.39217
 31
0.0
  0
TEXT
  5
14E
330
147
100
AcDbEntity
  8
0
  6
Continuous
 62
     7
100
AcDbText
 10
-53.741502
 20
-6.1351702
 30
0.0
 40
3.2
  1
90
 50
90.00000300000001
 41
1.102098199999999
100
AcDbText
  0
POINT
  5
14F
330
147
100
AcDbEntity
  8
DEFPOINTS
  6
Continuous
 62
     7
100
AcDbPoint
 10
-42.94150199999999
 20
41.60783
 30
0.0
  0
POINT
  5
150
330
147
100
AcDbEntity
  8
DEFPOINTS
  6
Continuous
 62
     7
100
AcDbPoint
 10
-42.94150199999999
 20
-48.39217
 30
0.0
  0
POINT
  5
151
330
147
100
AcDbEntity
  8
DEFPOINTS
  6
Continuous
 62
     7
100
AcDbPoint
 10
-52.941502
 20
-48.39217
 30
0.0
  0
ENDBLK
  5
152
330
147
100
AcDbEntity
  8
0
100
AcDbBlockEnd
  0
BLOCK
  5
154
330
153
100
AcDbEntity
  8
0
100
AcDbBlockBegin
  2
*D24
 70
     1
 10
0.0
 20
0.0
 30
0.0
  3
*D24
  1

  0
LINE
  5
155
330
153
100
AcDbEntity
  8
0
  6
Continuous
 62
     7
100
AcDbLine
 10
-62.941502
 20
49.60783
 30
0.0
 11
-62.941502
 21
-56.39216999999999
 31
0.0
  0
INSERT
  5
156
330
153
100
AcDbEntity
  8
0
  6
Continuous
 62
     7
100
AcDbBlockReference
  2
_DOT
 10
-62.941502
 20
49.60783
 30
0.0
 50
90.0
  0
INSERT
  5
157
330
153
100
AcDbEntity
  8
0
  6
Continuous
 62
     7
100
AcDbBlockReference
  2
_DOT
 10
-62.941502
 20
-56.39216999999999
 30
0.0
 50
270.0
  0
LINE
  5
158
330
153
100
AcDbEntity
  8
0
  6
Continuous
 62
     7
100
AcDbLine
 10
-38.521502
 20
49.60783
 30
0.0
 11
-64.141502
 21
49.60783
 31
0.0
  0
LINE
  5
159
330
153
100
AcDbEntity
  8
0
  6
Continuous
 62
     7
100
AcDbLine
 10
-38.521502
 20
-56.39216999999999
 30
0.0
 11
-64.141502
 21
-56.39216999999999
 31
0.0
  0
TEXT
  5
15A
330
153
100
AcDbEntity
  8
0
  6
Continuous
 62
     7
100
AcDbText
 10
-63.566501
 20
-7.035169999999999
 30
0.0
 40
2.5
  1
106
 50
90.00000300000001
 41
1.3451077
100
AcDbText
  0
POINT
  5
15B
330
153
100
AcDbEntity
  8
DEFPOINTS
  6
Continuous
 62
     7
100
AcDbPoint
 10
-35.981503
 20
49.60783
 30
0.0
  0
POINT
  5
15C
330
153
100
AcDbEntity
  8
DEFPOINTS
  6
Continuous
 62
     7
100
AcDbPoint
 10
-35.981503
 20
-56.39216999999999
 30
0.0
  0
POINT
  5
15D
330
153
100
AcDbEntity
  8
DEFPOINTS
  6
Continuous
 62
     7
100
AcDbPoint
 10
-62.941502
 20
-56.39216999999999
 30
0.0
  0
ENDBLK
  5
15E
330
153
100
AcDbEntity
  8
0
100
AcDbBlockEnd
  0
BLOCK
  5
160
330
15F
100
AcDbEntity
  8
0
100
AcDbBlockBegin
  2
*D25
 70
     1
 10
0.0
 20
0.0
 30
0.0
  3
*D25
  1

  0
LINE
  5
161
330
15F
100
AcDbEntity
  8
0
  6
Continuous
 62
     7
100
AcDbLine
 10
-29.872381
 20
48.367725
 30
0.0
 11
-40.791477
 21
56.99728799999999
 31
0.0
  0
INSERT
  5
162
330
15F
100
AcDbEntity
  8
0
  6
Continuous
 62
     7
100
AcDbBlockReference
  2
_DOT
 10
-29.872381
 20
48.367725
 30
0.0
 50
321.68003
  0
LINE
  5
163
330
15F
100
AcDbEntity
  8
0
  6
Continuous
 62
     7
100
AcDbLine
 10
-40.791477
 20
56.99728799999999
 30
0.0
 11
-62.86276199999999
 21
56.99728799999999
 31
0.0
  0
TEXT
  5
164
330
15F
100
AcDbEntity
  8
0
  6
Continuous
 62
     7
100
AcDbText
 10
-62.862761
 20
57.62228799999999
 30
0.0
 40
2.5
  1
２－Ｍ４タップ
 41
0.87156303
100
AcDbText
  0
POINT
  5
165
330
15F
100
AcDbEntity
  8
DEFPOINTS
  6
Continuous
 62
     7
100
AcDbPoint
 10
-29.872381
 20
48.367725
 30
0.0
  0
POINT
  5
166
330
15F
100
AcDbEntity
  8
DEFPOINTS
  6
Continuous
 62
     7
100
AcDbPoint
 10
-40.791477
 20
56.99728799999999
 30
0.0
  0
ENDBLK
  5
167
330
15F
100
AcDbEntity
  8
0
100
AcDbBlockEnd
  0
BLOCK
  5
169
330
168
100
AcDbEntity
  8
0
100
AcDbBlockBegin
  2
KOZU0001
 70
     0
 10
0.0
 20
0.0
 30
0.0
  3
KOZU0001
  1

  0
LINE
  5
16A
330
168
100
AcDbEntity
  8
0
  6
Continuous
 62
     7
100
AcDbLine
 10
0.0
 20
0.0
 30
0.0
 11
-19.048893
 21
-28.224716
 31
0.0
  0
LINE
  5
16B
330
168
100
AcDbEntity
  8
0
  6
Continuous
 62
     7
100
AcDbLine
 10
-19.048893
 20
-28.224716
 30
0.0
 11
-49.432036
 21
-28.224716
 31
0.0
  0
CIRCLE
  5
16C
330
168
100
AcDbEntity
  8
0
  6
Continuous
 62
     7
100
AcDbCircle
 10
0.0
 20
0.0
 30
0.0
 40
0.4000000100000001
  0
TEXT
  5
16D
330
168
100
AcDbEntity
  8
0
  6
Continuous
 62
     7
100
AcDbText
 10
-48.518037
 20
-27.424716
 30
0.0
 40
3.2
  1
２－%%C５×%%C８サラ
 41
0.84496202
100
AcDbText
  0
ENDBLK
  5
16E
330
168
100
AcDbEntity
  8
0
100
AcDbBlockEnd
  0
BLOCK
  5
170
330
16F
100
AcDbEntity
  8
0
100
AcDbBlockBegin
  2
KOZU0002
 70
     0
 10
0.0
 20
0.0
 30
0.0
  3
KOZU0002
  1

  0
LINE
  5
171
330
16F
100
AcDbEntity
  8
0
  6
Continuous
 62
     7
100
AcDbLine
 10
-21.456474
 20
-48.39217
 30
0.0
 11
-19.941504
 21
-46.87719699999999
 31
0.0
  0
LINE
  5
172
330
16F
100
AcDbEntity
  8
0
  6
Continuous
 62
     7
100
AcDbLine
 10
-25.946597
 20
-48.39217
 30
0.0
 11
-19.941504
 21
-42.387064
 31
0.0
  0
LINE
  5
173
330
16F
100
AcDbEntity
  8
0
  6
Continuous
 62
     7
100
AcDbLine
 10
-30.436721
 20
-48.39217
 30
0.0
 11
-19.941504
 21
-37.896932
 31
0.0
  0
LINE
  5
174
330
16F
100
AcDbEntity
  8
0
  6
Continuous
 62
     7
100
AcDbLine
 10
-34.926844
 20
-48.39217
 30
0.0
 11
-19.941504
 21
-33.406799
 31
0.0
  0
LINE
  5
175
330
16F
100
AcDbEntity
  8
0
  6
Continuous
 62
     7
100
AcDbLine
 10
-39.416968
 20
-48.39217
 30
0.0
 11
-19.941504
 21
-28.916667
 31
0.0
  0
LINE
  5
176
330
16F
100
AcDbEntity
  8
0
  6
Continuous
 62
     7
100
AcDbLine
 10
-42.94150199999999
 20
-47.426579
 30
0.0
 11
-19.941504
 21
-24.426534
 31
0.0
  0
LINE
  5
177
330
16F
100
AcDbEntity
  8
0
  6
Continuous
 62
     7
100
AcDbLine
 10
-42.94150199999999
 20
-42.936446
 30
0.0
 11
-19.941504
 21
-19.93640199999999
 31
0.0
  0
LINE
  5
178
330
16F
100
AcDbEntity
  8
0
  6
Continuous
 62
     7
100
AcDbLine
 10
-42.94150199999999
 20
-38.446314
 30
0.0
 11
-19.941504
 21
-15.44627
 31
0.0
  0
LINE
  5
179
330
16F
100
AcDbEntity
  8
0
  6
Continuous
 62
     7
100
AcDbLine
 10
-42.94150199999999
 20
-33.956181
 30
0.0
 11
-19.941504
 21
-10.956137
 31
0.0
  0
LINE
  5
17A
330
16F
100
AcDbEntity
  8
0
  6
Continuous
 62
     7
100
AcDbLine
 10
-42.94150199999999
 20
-29.466049
 30
0.0
 11
-19.941504
 21
-6.466004599999999
 31
0.0
  0
LINE
  5
17B
330
16F
100
AcDbEntity
  8
0
  6
Continuous
 62
     7
100
AcDbLine
 10
-42.94150199999999
 20
-24.975916
 30
0.0
 11
-19.941504
 21
-1.9758721
 31
0.0
  0
LINE
  5
17C
330
16F
100
AcDbEntity
  8
0
  6
Continuous
 62
     7
100
AcDbLine
 10
-42.94150199999999
 20
-20.485784
 30
0.0
 11
-19.941504
 21
2.514260399999999
 31
0.0
  0
LINE
  5
17D
330
16F
100
AcDbEntity
  8
0
  6
Continuous
 62
     7
100
AcDbLine
 10
-42.94150199999999
 20
-15.995651
 30
0.0
 11
-19.941504
 21
7.0043929
 31
0.0
  0
LINE
  5
17E
330
16F
100
AcDbEntity
  8
0
  6
Continuous
 62
     7
100
AcDbLine
 10
-42.94150199999999
 20
-11.505519
 30
0.0
 11
-19.941504
 21
11.494525
 31
0.0
  0
LINE
  5
17F
330
16F
100
AcDbEntity
  8
0
  6
Continuous
 62
     7
100
AcDbLine
 10
-42.94150199999999
 20
-7.0153862
 30
0.0
 11
-19.941504
 21
15.984658
 31
0.0
  0
LINE
  5
180
330
16F
100
AcDbEntity
  8
0
  6
Continuous
 62
     7
100
AcDbLine
 10
-42.94150199999999
 20
-2.525253799999999
 30
0.0
 11
-19.941504
 21
20.47479
 31
0.0
  0
LINE
  5
181
330
16F
100
AcDbEntity
  8
0
  6
Continuous
 62
     7
100
AcDbLine
 10
-42.94150199999999
 20
1.9648787
 30
0.0
 11
-19.941504
 21
24.964923
 31
0.0
  0
LINE
  5
182
330
16F
100
AcDbEntity
  8
0
  6
Continuous
 62
     7
100
AcDbLine
 10
-42.94150199999999
 20
6.4550112
 30
0.0
 11
-19.941504
 21
29.455055
 31
0.0
  0
LINE
  5
183
330
16F
100
AcDbEntity
  8
0
  6
Continuous
 62
     7
100
AcDbLine
 10
-42.94150199999999
 20
10.945144
 30
0.0
 11
-19.941504
 21
33.945188
 31
0.0
  0
LINE
  5
184
330
16F
100
AcDbEntity
  8
0
  6
Continuous
 62
     7
100
AcDbLine
 10
-42.94150199999999
 20
15.435276
 30
0.0
 11
-19.941504
 21
38.43532000000001
 31
0.0
  0
LINE
  5
185
330
16F
100
AcDbEntity
  8
0
  6
Continuous
 62
     7
100
AcDbLine
 10
-42.94150199999999
 20
19.925409
 30
0.0
 11
-21.259124
 21
41.60783
 31
0.0
  0
LINE
  5
186
330
16F
100
AcDbEntity
  8
0
  6
Continuous
 62
     7
100
AcDbLine
 10
-42.94150199999999
 20
24.415541
 30
0.0
 11
-25.749247
 21
41.60783
 31
0.0
  0
LINE
  5
187
330
16F
100
AcDbEntity
  8
0
  6
Continuous
 62
     7
100
AcDbLine
 10
-42.94150199999999
 20
28.905674
 30
0.0
 11
-30.239371
 21
41.60783
 31
0.0
  0
LINE
  5
188
330
16F
100
AcDbEntity
  8
0
  6
Continuous
 62
     7
100
AcDbLine
 10
-42.94150199999999
 20
33.395806
 30
0.0
 11
-34.729494
 21
41.60783
 31
0.0
  0
LINE
  5
189
330
16F
100
AcDbEntity
  8
0
  6
Continuous
 62
     7
100
AcDbLine
 10
-42.94150199999999
 20
37.885939
 30
0.0
 11
-39.219618
 21
41.60783
 31
0.0
  0
ENDBLK
  5
18A
330
16F
100
AcDbEntity
  8
0
100
AcDbBlockEnd
  0
BLOCK
  5
2B2
330
2B0
100
AcDbEntity
  8
0
100
AcDbBlockBegin
  2
GENAXEH
 70
     0
 10
0.0
 20
0.0
 30
0.0
  3
GENAXEH
  1

  0
LINE
  5
2B1
330
2B0
100
AcDbEntity
  8
0
100
AcDbLine
 10
-1.0
 20
0.0
 30
0.0
 11
1.0
 21
0.0
 31
0.0
  0
ENDBLK
  5
2B3
330
2B0
100
AcDbEntity
  8
0
100
AcDbBlockEnd
  0
BLOCK
  5
311
330
307
100
AcDbEntity
  8
0
100
AcDbBlockBegin
  2
*D30
 70
     1
 10
0.0
 20
0.0
 30
0.0
  3
*D30
  1

  0
LINE
  5
37D
330
307
100
AcDbEntity
  8
0
  6
Continuous
 62
     0
370
    -2
100
AcDbLine
 10
125.6585
 20
59.14783
 30
0.0
 11
125.6585
 21
69.14782600000001
 31
0.0
  0
LINE
  5
37E
330
307
100
AcDbEntity
  8
0
  6
Continuous
 62
     0
370
    -2
100
AcDbLine
 10
134.0585
 20
29.177861
 30
0.0
 11
134.0585
 21
69.14782599999999
 31
0.0
  0
LINE
  5
37F
330
307
100
AcDbEntity
  8
0
  6
Continuous
 62
     0
370
    -2
100
AcDbLine
 10
126.6585
 20
66.607826
 30
0.0
 11
133.0585
 21
66.607826
 31
0.0
  0
MTEXT
  5
380
330
307
100
AcDbEntity
  8
0
  6
Continuous
 62
     0
100
AcDbMText
 10
130.2993730023856
 20
69.40237560498167
 30
0.0
 40
3.2
 41
0.0
 71
     5
 72
     1
  1
\A1;8.4
 73
     1
 44
1.0
1001
ACAD
1000
MTEXTBEGIN
1070
    73
1070
     1
1070
    44
1040
1.0
1070
    74
1070
     0
1000
MTEXTEND
  0
SOLID
  5
381
330
307
100
AcDbEntity
  8
0
  6
Continuous
 62
     0
100
AcDbTrace
 10
126.6585
 20
66.77449266666667
 30
0.0
 11
126.6585
 21
66.44115933333333
 31
0.0
 12
125.6585
 22
66.607826
 32
0.0
 13
125.6585
 23
66.607826
 33
0.0
  0
SOLID
  5
382
330
307
100
AcDbEntity
  8
0
  6
Continuous
 62
     0
100
AcDbTrace
 10
133.0585
 20
66.77449266666667
 30
0.0
 11
133.0585
 21
66.44115933333333
 31
0.0
 12
134.0585
 22
66.607826
 32
0.0
 13
134.0585
 23
66.607826
 33
0.0
  0
POINT
  5
383
330
307
100
AcDbEntity
  8
DEFPOINTS
  6
Continuous
 62
     0
100
AcDbPoint
 10
125.6585
 20
56.60783000000001
 30
0.0
  0
POINT
  5
384
330
307
100
AcDbEntity
  8
DEFPOINTS
  6
Continuous
 62
     0
100
AcDbPoint
 10
134.0585
 20
26.637861
 30
0.0
  0
POINT
  5
385
330
307
100
AcDbEntity
  8
DEFPOINTS
  6
Continuous
 62
     0
100
AcDbPoint
 10
134.0585
 20
66.607826
 30
0.0
  0
ENDBLK
  5
312
330
307
100
AcDbEntity
  8
0
100
AcDbBlockEnd
  0
BLOCK
  5
31F
330
313
100
AcDbEntity
  8
0
100
AcDbBlockBegin
  2
*D31
 70
     1
 10
0.0
 20
0.0
 30
0.0
  3
*D31
  1

  0
LINE
  5
360
330
313
100
AcDbEntity
  8
0
  6
Continuous
 62
     0
370
    -2
100
AcDbLine
 10
123.55849
 20
59.14783
 30
0.0
 11
123.55849
 21
69.14782600000001
 31
0.0
  0
LINE
  5
361
330
313
100
AcDbEntity
  8
0
  6
Continuous
 62
     0
370
    -2
100
AcDbLine
 10
125.6585
 20
59.14783
 30
0.0
 11
125.6585
 21
69.14782600000001
 31
0.0
  0
LINE
  5
362
330
313
100
AcDbEntity
  8
0
  6
Continuous
 62
     0
370
    -2
100
AcDbLine
 10
122.55849
 20
66.607826
 30
0.0
 11
121.55849
 21
66.607826
 31
0.0
  0
LINE
  5
363
330
313
100
AcDbEntity
  8
0
  6
Continuous
 62
     0
370
    -2
100
AcDbLine
 10
126.6585
 20
66.607826
 30
0.0
 11
127.6585
 21
66.607826
 31
0.0
  0
MTEXT
  5
364
330
313
100
AcDbEntity
  8
0
  6
Continuous
 62
     0
100
AcDbMText
 10
119.012322945265
 20
69.91687455776733
 30
0.0
 40
3.2
 41
0.0
 71
     5
 72
     1
  1
\A1;2.1
 73
     1
 44
1.0
1001
ACAD
1000
MTEXTBEGIN
1070
    73
1070
     1
1070
    44
1040
1.0
1070
    74
1070
     0
1000
MTEXTEND
  0
LINE
  5
365
330
313
100
AcDbEntity
  8
0
  6
Continuous
 62
     0
370
    -2
100
AcDbLine
 10
123.55849
 20
66.607826
 30
0.0
 11
125.6585
 21
66.607826
 31
0.0
  0
SOLID
  5
366
330
313
100
AcDbEntity
  8
0
  6
Continuous
 62
     0
100
AcDbTrace
 10
122.55849
 20
66.77449266666667
 30
0.0
 11
122.55849
 21
66.44115933333333
 31
0.0
 12
123.55849
 22
66.607826
 32
0.0
 13
123.55849
 23
66.607826
 33
0.0
  0
SOLID
  5
367
330
313
100
AcDbEntity
  8
0
  6
Continuous
 62
     0
100
AcDbTrace
 10
126.6585
 20
66.77449266666667
 30
0.0
 11
126.6585
 21
66.44115933333333
 31
0.0
 12
125.6585
 22
66.607826
 32
0.0
 13
125.6585
 23
66.607826
 33
0.0
  0
POINT
  5
368
330
313
100
AcDbEntity
  8
DEFPOINTS
  6
Continuous
 62
     0
100
AcDbPoint
 10
123.55849
 20
56.60783000000001
 30
0.0
  0
POINT
  5
369
330
313
100
AcDbEntity
  8
DEFPOINTS
  6
Continuous
 62
     0
100
AcDbPoint
 10
125.6585
 20
56.60783000000001
 30
0.0
  0
POINT
  5
36A
330
313
100
AcDbEntity
  8
DEFPOINTS
  6
Continuous
 62
     0
100
AcDbPoint
 10
125.6585
 20
66.607826
 30
0.0
  0
ENDBLK
  5
320
330
313
100
AcDbEntity
  8
0
100
AcDbBlockEnd
  0
BLOCK
  5
329
330
321
100
AcDbEntity
  8
0
100
AcDbBlockBegin
  2
*D32
 70
     1
 10
0.0
 20
0.0
 30
0.0
  3
*D32
  1

  0
LINE
  5
322
330
321
100
AcDbEntity
  8
0
  6
Continuous
 62
     0
370
    -2
100
AcDbLine
 10
128.1985
 20
-63.39216999999999
 30
0.0
 11
151.5985
 21
-63.39217
 31
0.0
  0
LINE
  5
323
330
321
100
AcDbEntity
  8
0
  6
Continuous
 62
     0
370
    -2
100
AcDbLine
 10
149.0585
 20
-47.392166
 30
0.0
 11
149.0585
 21
-62.39217
 31
0.0
  0
MTEXT
  5
324
330
321
100
AcDbEntity
  8
0
  6
Continuous
 62
     0
100
AcDbMText
 10
158.7985
 20
-55.39216799999998
 30
0.0
 40
3.2
 41
0.0
 71
     5
 72
     1
  1
\A1;16.0000
 11
0.0000000000000001
 21
1.0
 31
0.0
 73
     1
 44
1.0
1001
ACAD
1000
MTEXTBEGIN
1070
    73
1070
     1
1070
    44
1040
1.0
1070
    74
1070
     0
1000
MTEXTEND
  0
SOLID
  5
325
330
321
100
AcDbEntity
  8
0
  6
Continuous
 62
     0
100
AcDbTrace
 10
148.8918333333333
 20
-62.39217
 30
0.0
 11
149.2251666666667
 21
-62.39217
 31
0.0
 12
149.0585
 22
-63.39217
 32
0.0
 13
149.0585
 23
-63.39217
 33
0.0
  0
POINT
  5
326
330
321
100
AcDbEntity
  8
DEFPOINTS
  6
Continuous
 62
     0
100
AcDbPoint
 10
125.6585
 20
-47.39216599999999
 30
0.0
  0
POINT
  5
327
330
321
100
AcDbEntity
  8
DEFPOINTS
  6
Continuous
 62
     0
100
AcDbPoint
 10
125.6585
 20
-63.39216999999999
 30
0.0
  0
POINT
  5
328
330
321
100
AcDbEntity
  8
DEFPOINTS
  6
Continuous
 62
     0
100
AcDbPoint
 10
149.0585
 20
-63.39217
 30
0.0
  0
ENDBLK
  5
32A
330
321
100
AcDbEntity
  8
0
100
AcDbBlockEnd
  0
BLOCK
  5
333
330
32B
100
AcDbEntity
  8
0
100
AcDbBlockBegin
  2
*D33
 70
     1
 10
0.0
 20
0.0
 30
0.0
  3
*D33
  1

  0
LINE
  5
32C
330
32B
100
AcDbEntity
  8
0
  6
Continuous
 62
     0
370
    -2
100
AcDbLine
 10
128.1985
 20
-47.39216599999999
 30
0.0
 11
151.5985
 21
-47.392166
 31
0.0
  0
LINE
  5
32D
330
32B
100
AcDbEntity
  8
0
  6
Continuous
 62
     0
370
    -2
100
AcDbLine
 10
149.0585
 20
40.60782999999999
 30
0.0
 11
149.0585
 21
-46.392166
 31
0.0
  0
SOLID
  5
32E
330
32B
100
AcDbEntity
  8
0
  6
Continuous
 62
     0
100
AcDbTrace
 10
148.8918333333333
 20
-46.392166
 30
0.0
 11
149.2251666666667
 21
-46.392166
 31
0.0
 12
149.0585
 22
-47.392166
 32
0.0
 13
149.0585
 23
-47.392166
 33
0.0
  0
MTEXT
  5
32F
330
32B
100
AcDbEntity
  8
0
  6
Continuous
 62
     0
100
AcDbMText
 10
145.8585
 20
-2.892167999999978
 30
0.0
 40
3.2
 41
0.0
 71
     5
 72
     1
  1
\A1;88.0000
 11
0.0000000000000001
 21
1.0
 31
0.0
 73
     1
 44
1.0
1001
ACAD
1000
MTEXTBEGIN
1070
    73
1070
     1
1070
    44
1040
1.0
1070
    74
1070
     0
1000
MTEXTEND
  0
POINT
  5
330
330
32B
100
AcDbEntity
  8
DEFPOINTS
  6
Continuous
 62
     0
100
AcDbPoint
 10
125.6585
 20
40.60782999999999
 30
0.0
  0
POINT
  5
331
330
32B
100
AcDbEntity
  8
DEFPOINTS
  6
Continuous
 62
     0
100
AcDbPoint
 10
125.6585
 20
-47.39216599999999
 30
0.0
  0
POINT
  5
332
330
32B
100
AcDbEntity
  8
DEFPOINTS
  6
Continuous
 62
     0
100
AcDbPoint
 10
149.0585
 20
-47.392166
 30
0.0
  0
ENDBLK
  5
334
330
32B
100
AcDbEntity
  8
0
100
AcDbBlockEnd
  0
BLOCK
  5
33F
330
335
100
AcDbEntity
  8
0
100
AcDbBlockBegin
  2
*D34
 70
     1
 10
0.0
 20
0.0
 30
0.0
  3
*D34
  1

  0
LINE
  5
336
330
335
100
AcDbEntity
  8
0
  6
Continuous
 62
     0
370
    -2
100
AcDbLine
 10
128.1985
 20
56.60783000000001
 30
0.0
 11
151.5985
 21
56.60783
 31
0.0
  0
LINE
  5
337
330
335
100
AcDbEntity
  8
0
  6
Continuous
 62
     0
370
    -2
100
AcDbLine
 10
128.1985
 20
40.60782999999999
 30
0.0
 11
151.5985
 21
40.60782999999999
 31
0.0
  0
LINE
  5
338
330
335
100
AcDbEntity
  8
0
  6
Continuous
 62
     0
370
    -2
100
AcDbLine
 10
149.0585
 20
55.60783
 30
0.0
 11
149.0585
 21
41.60782999999999
 31
0.0
  0
MTEXT
  5
339
330
335
100
AcDbEntity
  8
0
  6
Continuous
 62
     0
100
AcDbMText
 10
158.7985
 20
48.60783000000003
 30
0.0
 40
3.2
 41
0.0
 71
     5
 72
     1
  1
\A1;16.0000
 11
0.0000000000000001
 21
1.0
 31
0.0
 73
     1
 44
1.0
1001
ACAD
1000
MTEXTBEGIN
1070
    73
1070
     1
1070
    44
1040
1.0
1070
    74
1070
     0
1000
MTEXTEND
  0
SOLID
  5
33A
330
335
100
AcDbEntity
  8
0
  6
Continuous
 62
     0
100
AcDbTrace
 10
148.8918333333333
 20
55.60783
 30
0.0
 11
149.2251666666667
 21
55.60783
 31
0.0
 12
149.0585
 22
56.60783
 32
0.0
 13
149.0585
 23
56.60783
 33
0.0
  0
SOLID
  5
33B
330
335
100
AcDbEntity
  8
0
  6
Continuous
 62
     0
100
AcDbTrace
 10
148.8918333333333
 20
41.60782999999999
 30
0.0
 11
149.2251666666667
 21
41.60782999999999
 31
0.0
 12
149.0585
 22
40.60782999999999
 32
0.0
 13
149.0585
 23
40.60782999999999
 33
0.0
  0
POINT
  5
33C
330
335
100
AcDbEntity
  8
DEFPOINTS
  6
Continuous
 62
     0
100
AcDbPoint
 10
125.6585
 20
56.60783000000001
 30
0.0
  0
POINT
  5
33D
330
335
100
AcDbEntity
  8
DEFPOINTS
  6
Continuous
 62
     0
100
AcDbPoint
 10
125.6585
 20
40.60782999999999
 30
0.0
  0
POINT
  5
33E
330
335
100
AcDbEntity
  8
DEFPOINTS
  6
Continuous
 62
     0
100
AcDbPoint
 10
149.0585
 20
40.60782999999999
 30
0.0
  0
ENDBLK
  5
340
330
335
100
AcDbEntity
  8
0
100
AcDbBlockEnd
  0
ENDSEC
  0
SECTION
  2
ENTITIES
  0
LINE
  5
18B
330
36
100
AcDbEntity
  8
0
  6
Continuous
 62
     7
100
AcDbLine
 10
170.0
 20
173.0
 30
0.0
 11
170.0
 21
-100.0
 31
0.0
  0
LINE
  5
18C
330
36
100
AcDbEntity
  8
0
  6
Continuous
 62
     7
100
AcDbLine
 10
-211.0
 20
-100.0
 30
0.0
 11
170.0
 21
-100.0
 31
0.0
  0
LINE
  5
18D
330
36
100
AcDbEntity
  8
0
  6
Continuous
 62
     7
100
AcDbLine
 10
-211.0
 20
173.0
 30
0.0
 11
170.0
 21
173.0
 31
0.0
  0
LINE
  5
18E
330
36
100
AcDbEntity
  8
0
  6
Continuous
 62
     7
100
AcDbLine
 10
-211.0
 20
173.0
 30
0.0
 11
-211.0
 21
-100.0
 31
0.0
  0
LINE
  5
18F
330
36
100
AcDbEntity
  8
0
  6
Continuous
 62
     7
100
AcDbLine
 10
-191.0
 20
173.0
 30
0.0
 11
-191.0
 21
77.0
 31
0.0
  0
LINE
  5
190
330
36
100
AcDbEntity
  8
0
  6
Continuous
 62
     7
100
AcDbLine
 10
-211.0
 20
165.0
 30
0.0
 11
-101.0
 21
165.0
 31
0.0
  0
LINE
  5
191
330
36
100
AcDbEntity
  8
0
  6
Continuous
 62
     7
100
AcDbLine
 10
-211.0
 20
157.0
 30
0.0
 11
-101.0
 21
157.0
 31
0.0
  0
LINE
  5
192
330
36
100
AcDbEntity
  8
0
  6
Continuous
 62
     7
100
AcDbLine
 10
-211.0
 20
149.0
 30
0.0
 11
-101.0
 21
149.0
 31
0.0
  0
LINE
  5
193
330
36
100
AcDbEntity
  8
0
  6
Continuous
 62
     7
100
AcDbLine
 10
-211.0
 20
141.0
 30
0.0
 11
-101.0
 21
141.0
 31
0.0
  0
LINE
  5
194
330
36
100
AcDbEntity
  8
0
  6
Continuous
 62
     7
100
AcDbLine
 10
-191.0
 20
117.0
 30
0.0
 11
-101.0
 21
117.0
 31
0.0
  0
LINE
  5
195
330
36
100
AcDbEntity
  8
0
  6
Continuous
 62
     7
100
AcDbLine
 10
-191.0
 20
109.0
 30
0.0
 11
-101.0
 21
109.0
 31
0.0
  0
LINE
  5
196
330
36
100
AcDbEntity
  8
0
  6
Continuous
 62
     7
100
AcDbLine
 10
-211.0
 20
101.0
 30
0.0
 11
-101.0
 21
101.0
 31
0.0
  0
LINE
  5
197
330
36
100
AcDbEntity
  8
0
  6
Continuous
 62
     7
100
AcDbLine
 10
-191.0
 20
93.0
 30
0.0
 11
-101.0
 21
93.0
 31
0.0
  0
LINE
  5
198
330
36
100
AcDbEntity
  8
0
  6
Continuous
 62
     7
100
AcDbLine
 10
-191.0
 20
85.0
 30
0.0
 11
-101.0
 21
85.0
 31
0.0
  0
LINE
  5
199
330
36
100
AcDbEntity
  8
0
  6
Continuous
 62
     7
100
AcDbLine
 10
-211.0
 20
77.0
 30
0.0
 11
-101.0
 21
77.0
 31
0.0
  0
LINE
  5
19A
330
36
100
AcDbEntity
  8
0
  6
Continuous
 62
     7
100
AcDbLine
 10
-211.0
 20
173.0
 30
0.0
 11
-211.0
 21
77.0
 31
0.0
  0
LINE
  5
19B
330
36
100
AcDbEntity
  8
0
  6
Continuous
 62
     7
100
AcDbLine
 10
-211.0
 20
173.0
 30
0.0
 11
-101.0
 21
173.0
 31
0.0
  0
LINE
  5
19C
330
36
100
AcDbEntity
  8
0
  6
Continuous
 62
     7
100
AcDbLine
 10
-101.0
 20
173.0
 30
0.0
 11
-101.0
 21
77.0
 31
0.0
  0
LINE
  5
19D
330
36
100
AcDbEntity
  8
0
  6
Continuous
 62
     7
100
AcDbLine
 10
-211.0
 20
133.0
 30
0.0
 11
-101.0
 21
133.0
 31
0.0
  0
LINE
  5
19E
330
36
100
AcDbEntity
  8
0
  6
Continuous
 62
     7
100
AcDbLine
 10
-211.0
 20
125.0
 30
0.0
 11
-101.0
 21
125.0
 31
0.0
  0
LINE
  5
19F
330
36
100
AcDbEntity
  8
0
  6
Continuous
 62
     7
100
AcDbLine
 10
-191.0
 20
117.0
 30
0.0
 11
-101.0
 21
117.0
 31
0.0
  0
LINE
  5
1A0
330
36
100
AcDbEntity
  8
0
  6
Continuous
 62
     7
100
AcDbLine
 10
23.558496
 20
56.60783000000001
 30
0.0
 11
53.558498
 21
56.60783000000001
 31
0.0
  0
LINE
  5
1A1
330
36
100
AcDbEntity
  8
0
  6
Continuous
 62
     7
100
AcDbLine
 10
23.558496
 20
-63.39216999999999
 30
0.0
 11
53.558498
 21
-63.39216999999999
 31
0.0
  0
LINE
  5
1A2
330
36
100
AcDbEntity
  8
0
  6
Continuous
 62
     7
100
AcDbLine
 10
23.558496
 20
108.90783
 30
0.0
 11
23.558496
 21
106.80783
 31
0.0
  0
LINE
  5
1A3
330
36
100
AcDbEntity
  8
0
  6
Continuous
 62
     7
100
AcDbLine
 10
53.558498
 20
108.90783
 30
0.0
 11
53.558498
 21
106.80783
 31
0.0
  0
LINE
  5
1A4
330
36
100
AcDbEntity
  8
0
  6
Continuous
 62
     7
100
AcDbLine
 10
123.55849
 20
-63.39216999999999
 30
0.0
 11
123.55849
 21
56.60783000000001
 31
0.0
  0
LINE
  5
1A5
330
36
100
AcDbEntity
  8
0
  6
Continuous
 62
     7
100
AcDbLine
 10
134.0585
 20
-33.422199
 30
0.0
 11
134.0585
 21
26.637861
 31
0.0
  0
LINE
  5
1A6
330
36
100
AcDbEntity
  8
0
  6
Continuous
 62
     7
100
AcDbLine
 10
125.6585
 20
-63.39216999999999
 30
0.0
 11
125.6585
 21
56.60783000000001
 31
0.0
  0
LINE
  5
1A7
330
36
100
AcDbEntity
  8
0
  6
Continuous
 62
     7
100
AcDbLine
 10
23.558496
 20
106.80783
 30
0.0
 11
53.558498
 21
106.80783
 31
0.0
  0
LINE
  5
1A8
330
36
100
AcDbEntity
  8
0
  6
Continuous
 62
     7
100
AcDbLine
 10
29.558496
 20
117.10783
 30
0.0
 11
47.558498
 21
117.10783
 31
0.0
  0
LINE
  5
1A9
330
36
100
AcDbEntity
  8
0
  6
Continuous
 62
     7
100
AcDbLine
 10
23.558496
 20
108.90783
 30
0.0
 11
53.558498
 21
108.90783
 31
0.0
  0
LINE
  5
1AA
330
36
100
AcDbEntity
  8
0
  6
Continuous
 62
     7
100
AcDbLine
 10
123.55849
 20
-63.39216999999999
 30
0.0
 11
125.6585
 21
-63.39216999999999
 31
0.0
  0
LINE
  5
1AB
330
36
100
AcDbEntity
  8
0
  6
Continuous
 62
     7
100
AcDbLine
 10
123.55849
 20
56.60783000000001
 30
0.0
 11
125.6585
 21
56.60783000000001
 31
0.0
  0
LINE
  5
1AC
330
36
100
AcDbEntity
  8
0
  6
Continuous
 62
     7
100
AcDbLine
 10
29.558496
 20
-46.39217
 30
0.0
 11
29.558496
 21
39.60783
 31
0.0
  0
LINE
  5
1AD
330
36
100
AcDbEntity
  8
0
  6
Continuous
 62
     7
100
AcDbLine
 10
47.558498
 20
-46.39217
 30
0.0
 11
47.558498
 21
39.60783
 31
0.0
  0
LINE
  5
1AE
330
36
100
AcDbEntity
  8
0
  6
Continuous
 62
     7
100
AcDbLine
 10
30.558496
 20
40.60782999999999
 30
0.0
 11
46.558498
 21
40.60782999999999
 31
0.0
  0
LINE
  5
1AF
330
36
100
AcDbEntity
  8
0
  6
Continuous
 62
     7
100
AcDbLine
 10
30.558496
 20
-47.39217
 30
0.0
 11
46.558498
 21
-47.39217
 31
0.0
  0
LINE
  5
1B0
330
36
100
AcDbEntity
  8
0
  6
Continuous
 62
     7
100
AcDbLine
 10
49.058498
 20
115.60783
 30
0.0
 11
49.058498
 21
109.90783
 31
0.0
  0
LINE
  5
1B1
330
36
100
AcDbEntity
  8
0
  6
Continuous
 62
     7
100
AcDbLine
 10
28.058496
 20
115.60783
 30
0.0
 11
28.058496
 21
109.90783
 31
0.0
  0
LINE
  5
1B2
330
36
100
AcDbEntity
  8
0
  6
Continuous
 62
     7
100
AcDbLine
 10
23.558496
 20
-63.39216999999999
 30
0.0
 11
23.558496
 21
56.60783000000001
 31
0.0
  0
LINE
  5
1B3
330
36
100
AcDbEntity
  8
0
  6
Continuous
 62
     7
100
AcDbLine
 10
125.6585
 20
-47.39217
 30
0.0
 11
125.85849
 21
-47.39217
 31
0.0
  0
LINE
  5
1B4
330
36
100
AcDbEntity
  8
0
  6
Continuous
 62
     7
100
AcDbLine
 10
53.558498
 20
-63.39216999999999
 30
0.0
 11
53.558498
 21
56.60783000000001
 31
0.0
  0
LINE
  5
1B5
330
36
100
AcDbEntity
  8
0
  6
CENTER
 62
     7
100
AcDbLine
 10
-45.941502
 20
-3.3921702
 30
0.0
 11
-16.941504
 21
-3.3921702
 31
0.0
  0
LINE
  5
1B6
330
36
100
AcDbEntity
  8
0
  6
Continuous
 62
     7
100
AcDbLine
 10
125.55552
 20
40.60782999999999
 30
0.0
 11
125.6585
 21
40.60782999999999
 31
0.0
  0
LINE
  5
1B7
330
36
100
AcDbEntity
  8
0
  6
CENTER
 62
     7
100
AcDbLine
 10
38.558498
 20
120.10783
 30
0.0
 11
38.558498
 21
103.80783
 31
0.0
  0
LINE
  5
1B8
330
36
100
AcDbEntity
  8
0
  6
CENTER
 62
     7
100
AcDbLine
 10
31.558496
 20
-56.39216999999999
 30
0.0
 11
45.55849799999999
 21
-56.39216999999999
 31
0.0
  0
LINE
  5
1B9
330
36
100
AcDbEntity
  8
0
  6
CENTER
 62
     7
100
AcDbLine
 10
31.558496
 20
49.60783
 30
0.0
 11
45.55849799999999
 21
49.60783
 31
0.0
  0
LINE
  5
1BA
330
36
100
AcDbEntity
  8
0
  6
PHANTOM
 62
     7
100
AcDbLine
 10
27.558496
 20
108.93214
 30
0.0
 11
27.558496
 21
108.90783
 31
0.0
  0
LINE
  5
1BB
330
36
100
AcDbEntity
  8
0
  6
CENTER
 62
     7
100
AcDbLine
 10
38.558498
 20
59.60783000000001
 30
0.0
 11
38.558498
 21
-66.39217399999999
 31
0.0
  0
LINE
  5
1BC
330
36
100
AcDbEntity
  8
0
  6
CENTER
 62
     7
100
AcDbLine
 10
120.55849
 20
-3.3921702
 30
0.0
 11
137.0585
 21
-3.3921702
 31
0.0
  0
LINE
  5
1BD
330
36
100
AcDbEntity
  8
0
  6
CENTER
 62
     7
100
AcDbLine
 10
20.558496
 20
-3.3921702
 30
0.0
 11
56.558498
 21
-3.3921702
 31
0.0
  0
LINE
  5
1BE
330
36
100
AcDbEntity
  8
0
  6
CENTER
 62
     7
100
AcDbLine
 10
-31.441504
 20
44.60783
 30
0.0
 11
-31.441504
 21
-51.39217
 31
0.0
  0
LINE
  5
1BF
330
36
100
AcDbEntity
  8
0
  6
Continuous
 62
     7
100
AcDbLine
 10
-42.94150199999999
 20
-48.39217
 30
0.0
 11
-19.941504
 21
-48.39217
 31
0.0
  0
LINE
  5
1C0
330
36
100
AcDbEntity
  8
0
  6
Continuous
 62
     7
100
AcDbLine
 10
-42.94150199999999
 20
41.60783
 30
0.0
 11
-19.941504
 21
41.60783
 31
0.0
  0
LINE
  5
1C1
330
36
100
AcDbEntity
  8
0
  6
Continuous
 62
     7
100
AcDbLine
 10
-19.941504
 20
41.60783
 30
0.0
 11
-19.941504
 21
-48.39217
 31
0.0
  0
LINE
  5
1C2
330
36
100
AcDbEntity
  8
0
  6
Continuous
 62
     7
100
AcDbLine
 10
-42.94150199999999
 20
41.60783
 30
0.0
 11
-42.94150199999999
 21
-48.39217
 31
0.0
  0
LINE
  5
1C3
330
36
100
AcDbEntity
  8
0
  6
Continuous
 62
     7
100
AcDbLine
 10
23.558496
 20
108.10783
 30
0.0
 11
53.558498
 21
108.10783
 31
0.0
  0
LINE
  5
1C4
330
36
100
AcDbEntity
  8
0
  6
Continuous
 62
     7
100
AcDbLine
 10
124.85849
 20
-63.39216999999999
 30
0.0
 11
124.85849
 21
56.60783000000001
 31
0.0
  0
LINE
  5
1C5
330
36
100
AcDbEntity
  8
0
  6
CENTER
 62
     7
100
AcDbLine
 10
-31.441504
 20
54.14783100000001
 30
0.0
 11
-31.441504
 21
45.067829
 31
0.0
  0
LINE
  5
1C6
330
36
100
AcDbEntity
  8
0
  6
CENTER
 62
     7
100
AcDbLine
 10
-35.981503
 20
49.60783
 30
0.0
 11
-26.901503
 21
49.60783
 31
0.0
  0
LINE
  5
1C7
330
36
100
AcDbEntity
  8
0
  6
CENTER
 62
     7
100
AcDbLine
 10
-31.441504
 20
-51.852169
 30
0.0
 11
-31.441504
 21
-60.932171
 31
0.0
  0
LINE
  5
1C8
330
36
100
AcDbEntity
  8
0
  6
CENTER
 62
     7
100
AcDbLine
 10
-35.981503
 20
-56.39216999999999
 30
0.0
 11
-26.901503
 21
-56.39216999999999
 31
0.0
  0
CIRCLE
  5
1C9
330
36
100
AcDbEntity
  8
0
  6
Continuous
 62
     7
100
AcDbCircle
 10
38.558498
 20
-56.39216999999999
 30
0.0
 40
2.5
  0
CIRCLE
  5
1CA
330
36
100
AcDbEntity
  8
0
  6
Continuous
 62
     7
100
AcDbCircle
 10
38.558498
 20
-56.39216999999999
 30
0.0
 40
4.0
  0
CIRCLE
  5
1CB
330
36
100
AcDbEntity
  8
0
  6
Continuous
 62
     7
100
AcDbCircle
 10
38.558498
 20
49.60783
 30
0.0
 40
2.5
  0
CIRCLE
  5
1CC
330
36
100
AcDbEntity
  8
0
  6
Continuous
 62
     7
100
AcDbCircle
 10
38.558498
 20
49.60783
 30
0.0
 40
4.0
  0
ARC
  5
1CD
330
36
100
AcDbEntity
  8
0
  6
Continuous
 62
     7
100
AcDbCircle
 10
29.546412
 20
51.367489
 30
0.0
 40
0.054630607
100
AcDbArc
 50
114.54279
 51
157.84793
  0
ARC
  5
1CE
330
36
100
AcDbEntity
  8
0
  6
Continuous
 62
     7
100
AcDbCircle
 10
29.67637100000001
 20
51.788139
 30
0.0
 40
0.01638918
100
AcDbArc
 50
157.84943
 51
282.32484
  0
ARC
  5
1CF
330
36
100
AcDbEntity
  8
0
  6
Continuous
 62
     7
100
AcDbCircle
 10
30.611399
 20
50.001915
 30
0.0
 40
0.018210202
100
AcDbArc
 50
157.84868
 51
276.56222
  0
ARC
  5
1D0
330
36
100
AcDbEntity
  8
0
  6
Continuous
 62
     7
100
AcDbCircle
 10
31.515779
 20
50.157894
 30
0.0
 40
0.018210202
100
AcDbArc
 50
283.29103
 51
337.84868
  0
ARC
  5
1D1
330
36
100
AcDbEntity
  8
0
  6
Continuous
 62
     7
100
AcDbCircle
 10
32.281704
 20
50.404526
 30
0.0
 40
0.01638918
100
AcDbArc
 50
157.8469199999999
 51
295.83145
  0
ARC
  5
1D2
330
36
100
AcDbEntity
  8
0
  6
Continuous
 62
     7
100
AcDbCircle
 10
31.584955
 20
52.671688
 30
0.0
 40
0.01638918
100
AcDbArc
 50
337.84692
 51
74.016133
  0
ARC
  5
1D3
330
36
100
AcDbEntity
  8
0
  6
Continuous
 62
     7
100
AcDbCircle
 10
32.30236400000001
 20
52.401157
 30
0.0
 40
0.01638918
100
AcDbArc
 50
63.78089
 51
157.8469199999999
  0
ARC
  5
1D4
330
36
100
AcDbEntity
  8
0
  6
Continuous
 62
     7
100
AcDbCircle
 10
30.13521
 20
52.91516899999999
 30
0.0
 40
0.01638918
100
AcDbArc
 50
86.08257100000001
 51
157.84943
  0
ARC
  5
1D5
330
36
100
AcDbEntity
  8
0
  6
Continuous
 62
     7
100
AcDbCircle
 10
27.964174
 20
50.082088
 30
0.0
 40
0.018210202
100
AcDbArc
 50
259.62806
 51
337.84868
  0
ARC
  5
1D6
330
36
100
AcDbEntity
  8
0
  6
Continuous
 62
     7
100
AcDbCircle
 10
27.320101
 20
50.230919
 30
0.0
 40
0.018210202
100
AcDbArc
 50
157.84868
 51
254.14116
  0
ARC
  5
1D7
330
36
100
AcDbEntity
  8
0
  6
Continuous
 62
     7
100
AcDbCircle
 10
29.314219
 20
52.93124399999999
 30
0.0
 40
0.01638918
100
AcDbArc
 50
337.84692
 51
91.640385
  0
ARC
  5
1D8
330
36
100
AcDbEntity
  8
0
  6
Continuous
 62
     7
100
AcDbCircle
 10
27.811716
 20
52.74416
 30
0.0
 40
0.01638918
100
AcDbArc
 50
103.15004
 51
157.8469199999999
  0
ARC
  5
1D9
330
36
100
AcDbEntity
  8
0
  6
Continuous
 62
     7
100
AcDbCircle
 10
26.85180900000001
 20
52.419098
 30
0.0
 40
0.01638918
100
AcDbArc
 50
337.84943
 51
115.51524
  0
ARC
  5
1DA
330
36
100
AcDbEntity
  8
0
  6
Continuous
 62
     7
100
AcDbCircle
 10
26.825754
 20
50.40919500000001
 30
0.0
 40
0.01638918
100
AcDbArc
 50
243.98964
 51
337.84692
  0
ARC
  5
1DB
330
36
100
AcDbEntity
  8
0
  6
Continuous
 62
     7
100
AcDbCircle
 10
47.558498
 20
115.60783
 30
0.0
 40
1.5
100
AcDbArc
 50
0.0
 51
90.0
  0
ARC
  5
1DC
330
36
100
AcDbEntity
  8
0
  6
Continuous
 62
     7
100
AcDbCircle
 10
29.558496
 20
115.60783
 30
0.0
 40
1.5
100
AcDbArc
 50
90.00007300000001
 51
180.0
  0
ARC
  5
1DD
330
36
100
AcDbEntity
  8
0
  6
Continuous
 62
     7
100
AcDbCircle
 10
30.558496
 20
39.60783
 30
0.0
 40
1.0
100
AcDbArc
 50
90.0
 51
180.0
  0
ARC
  5
1DE
330
36
100
AcDbEntity
  8
0
  6
Continuous
 62
     7
100
AcDbCircle
 10
46.558498
 20
-46.39217
 30
0.0
 40
1.0
100
AcDbArc
 50
270.0
 51
0.0
  0
ARC
  5
1DF
330
36
100
AcDbEntity
  8
0
  6
Continuous
 62
     7
100
AcDbCircle
 10
30.558496
 20
-46.39217
 30
0.0
 40
1.0
100
AcDbArc
 50
180.0
 51
270.0
  0
ARC
  5
1E0
330
36
100
AcDbEntity
  8
0
  6
Continuous
 62
     7
100
AcDbCircle
 10
46.558498
 20
39.60783
 30
0.0
 40
1.0
100
AcDbArc
 50
0.0
 51
90.0
  0
ARC
  5
1E1
330
36
100
AcDbEntity
  8
0
  6
Continuous
 62
     7
100
AcDbCircle
 10
46.558498
 20
-46.39217
 30
0.0
 40
1.0
100
AcDbArc
 50
270.0
 51
0.0
  0
ARC
  5
1E2
330
36
100
AcDbEntity
  8
0
  6
Continuous
 62
     7
100
AcDbCircle
 10
117.8715092754972
 20
-33.19953301016615
 30
0.0
 40
16.18851208170918
100
AcDbArc
 50
298.7519553543143
 51
359.211909957319
  0
ARC
  5
1E3
330
36
100
AcDbEntity
  8
0
  6
Continuous
 62
     7
100
AcDbCircle
 10
117.8715091911939
 20
26.41519474994
 30
0.0
 40
16.18851230075777
100
AcDbArc
 50
0.7881247095920605
 51
61.24802110725029
  0
ARC
  5
1E4
330
36
100
AcDbEntity
  8
0
  6
Continuous
 62
     7
100
AcDbCircle
 10
27.058496
 20
109.90783
 30
0.0
 40
1.0
100
AcDbArc
 50
270.0
 51
0.0
  0
ARC
  5
1E5
330
36
100
AcDbEntity
  8
0
  6
Continuous
 62
     7
100
AcDbCircle
 10
50.058498
 20
109.90783
 30
0.0
 40
1.0
100
AcDbArc
 50
180.0
 51
270.0
  0
CIRCLE
  5
1E6
330
36
100
AcDbEntity
  8
0
  6
Continuous
 62
     7
100
AcDbCircle
 10
-151.64885
 20
120.89766
 30
0.0
 40
1.5
  0
CIRCLE
  5
1E7
330
36
100
AcDbEntity
  8
0
  6
Continuous
 62
     7
100
AcDbCircle
 10
36.320713
 20
-59.70710799999999
 30
0.0
 40
0.30000001
  0
CIRCLE
  5
1E8
330
36
100
AcDbEntity
  8
0
  6
Continuous
 62
     7
100
AcDbCircle
 10
-31.441504
 20
49.60783
 30
0.0
 40
2.0
  0
CIRCLE
  5
1E9
330
36
100
AcDbEntity
  8
0
  6
Continuous
 62
     7
100
AcDbCircle
 10
-31.441504
 20
49.60783
 30
0.0
 40
1.6
  0
CIRCLE
  5
1EA
330
36
100
AcDbEntity
  8
0
  6
Continuous
 62
     7
100
AcDbCircle
 10
-31.441504
 20
-56.39216999999999
 30
0.0
 40
2.0
  0
CIRCLE
  5
1EB
330
36
100
AcDbEntity
  8
0
  6
Continuous
 62
     7
100
AcDbCircle
 10
-31.441504
 20
-56.39216999999999
 30
0.0
 40
1.6
  0
CIRCLE
  5
1EC
330
36
100
AcDbEntity
  8
0
  6
Continuous
 62
     7
100
AcDbCircle
 10
-33.010624
 20
50.84793499999999
 30
0.0
 40
0.25
  0
TEXT
  5
1ED
330
36
100
AcDbEntity
  8
0
  6
Continuous
 62
     7
100
AcDbText
 10
-188.143
 20
95.4
 30
0.0
 40
3.2
  1
＊
 41
0.90047268
100
AcDbText
  0
TEXT
  5
1EE
330
36
100
AcDbEntity
  8
0
  6
Continuous
 62
     7
100
AcDbText
 10
-205.343
 20
167.4
 30
0.0
 40
3.2
  1
品　名
 41
0.85537027
100
AcDbText
  0
TEXT
  5
1EF
330
36
100
AcDbEntity
  8
0
  6
Continuous
 62
     7
100
AcDbText
 10
-205.343
 20
159.4
 30
0.0
 40
3.2
  1
品　番
 41
0.85537027
100
AcDbText
  0
TEXT
  5
1F0
330
36
100
AcDbEntity
  8
0
  6
Continuous
 62
     7
100
AcDbText
 10
-188.143
 20
87.4
 30
0.0
 40
3.2
  1
＊
 41
0.90047268
100
AcDbText
  0
TEXT
  5
1F1
330
36
100
AcDbEntity
  8
0
  6
Continuous
 62
     7
100
AcDbText
 10
-188.143
 20
79.40000000000001
 30
0.0
 40
3.2
  1
＊
 41
0.90047268
100
AcDbText
  0
TEXT
  5
1F2
330
36
100
AcDbEntity
  8
0
  6
Continuous
 62
     7
100
AcDbText
 10
-188.143
 20
167.4
 30
0.0
 40
3.2
  1
引手
 41
0.8643907499999999
100
AcDbText
  0
TEXT
  5
1F3
330
36
100
AcDbEntity
  8
0
  6
Continuous
 62
     7
100
AcDbText
 10
-205.343
 20
151.4
 30
0.0
 40
3.2
  1
材　質
 41
0.85537027
100
AcDbText
  0
TEXT
  5
1F4
330
36
100
AcDbEntity
  8
0
  6
Continuous
 62
     7
100
AcDbText
 10
-205.343
 20
143.4
 30
0.0
 40
3.2
  1
仕上げ
 41
0.85537027
100
AcDbText
  0
TEXT
  5
1F5
330
36
100
AcDbEntity
  8
0
  6
Continuous
 62
     7
100
AcDbText
 10
-188.143
 20
103.4
 30
0.0
 40
3.2
  1
＊
 41
0.90047268
100
AcDbText
  0
TEXT
  5
1F6
330
36
100
AcDbEntity
  8
0
  6
Continuous
 62
     7
100
AcDbText
 10
-188.143
 20
111.4
 30
0.0
 40
3.2
  1
＊
 41
0.90047268
100
AcDbText
  0
TEXT
  5
1F7
330
36
100
AcDbEntity
  8
0
  6
Continuous
 62
     7
100
AcDbText
 10
-208.543
 20
119.4
 30
0.0
 40
3.2
  1
セットビス
 41
0.84892707
100
AcDbText
  0
TEXT
  5
1F8
330
36
100
AcDbEntity
  8
0
  6
Continuous
 62
     7
100
AcDbText
 10
-188.143
 20
119.4
 30
0.0
 40
3.2
  1
Ｍ４×１０サラ小ネシ゛＋　ＳＵＳ　　２本付
 41
0.84227602
100
AcDbText
  0
TEXT
  5
1F9
330
36
100
AcDbEntity
  8
0
  6
Continuous
 62
     7
100
AcDbText
 10
-188.143
 20
143.4
 30
0.0
 40
3.2
  1
ヘアーライン（シルバー）
 41
0.8437725099999999
100
AcDbText
  0
TEXT
  5
1FA
330
36
100
AcDbEntity
  8
0
  6
Continuous
 62
     7
100
AcDbText
 10
-203.743
 20
95.4
 30
0.0
 40
3.2
  1
備考
 41
0.8643907499999999
100
AcDbText
  0
TEXT
  5
1FB
330
36
100
AcDbEntity
  8
0
  6
Continuous
 62
     7
100
AcDbText
 10
-188.143
 20
151.4
 30
0.0
 40
3.2
  1
ステンレス
 41
0.84892707
100
AcDbText
  0
TEXT
  5
1FC
330
36
100
AcDbEntity
  8
0
  6
Continuous
 62
     7
100
AcDbText
 10
-188.143
 20
159.4
 30
0.0
 40
3.2
  1
ＳＵ－１２０
 41
0.84741102
100
AcDbText
  0
TEXT
  5
1FD
330
36
100
AcDbEntity
  8
0
  6
Continuous
 62
     7
100
AcDbText
 10
-205.343
 20
135.4
 30
0.0
 40
3.2
  1
定　尺
 41
0.85537027
100
AcDbText
  0
TEXT
  5
1FE
330
36
100
AcDbEntity
  8
0
  6
Continuous
 62
     7
100
AcDbText
 10
-206.943
 20
127.4
 30
0.0
 40
3.2
  1
左右勝手
 41
0.8512700499999999
100
AcDbText
  0
TEXT
  5
1FF
330
36
100
AcDbEntity
  8
0
  6
Continuous
 62
     7
100
AcDbText
 10
-188.37853
 20
134.96998
 30
0.0
 40
3.2
  1
＊
 41
0.90047268
100
AcDbText
  0
TEXT
  5
200
330
36
100
AcDbEntity
  8
0
  6
Continuous
 62
     7
100
AcDbText
 10
-188.37853
 20
127.36617
 30
0.0
 40
3.2
  1
無し
 41
0.8643907499999999
100
AcDbText
  0
TEXT
  5
201
330
36
100
AcDbEntity
  8
0
  6
Continuous
 62
     7
100
AcDbText
 10
-48.37609699999999
 20
-66.33329899999999
 30
0.0
 40
3.2
  1
切欠推奨寸法
 41
0.84741102
100
AcDbText
  0
INSERT
  5
202
330
36
100
AcDbEntity
  8
0
  6
Continuous
 62
     7
100
AcDbBlockReference
  2
KOZU0002
 10
0.0
 20
0.0
 30
0.0
  0
DIMENSION
  5
203
330
36
100
AcDbEntity
  8
0
  6
Continuous
 62
     7
100
AcDbDimension
  2
*D34
 10
149.0585
 20
40.60782999999999
 30
0.0
 11
158.7985
 21
48.60783000000003
 31
0.0
 70
    32
 71
     5
 42
16.0
  3
DIMSTYLE
100
AcDbAlignedDimension
 13
125.6585
 23
56.60783000000001
 33
0.0
 14
125.6585
 24
40.60782999999999
 34
0.0
 50
90.0
100
AcDbRotatedDimension
1001
ACAD
1000
DSTYLE
1002
{
1070
    77
1070
     1
1070
   172
1070
     1
1002
}
  0
DIMENSION
  5
204
330
36
100
AcDbEntity
  8
0
  6
Continuous
 62
     7
100
AcDbDimension
  2
*D33
 10
149.0585
 20
-47.392166
 30
0.0
 11
145.8585
 21
-2.892167999999978
 31
0.0
 70
    32
 71
     5
 42
87.99999599999999
  3
DIMSTYLE
100
AcDbAlignedDimension
 13
125.6585
 23
40.60782999999999
 33
0.0
 14
125.6585
 24
-47.39216599999999
 34
0.0
 50
90.0
100
AcDbRotatedDimension
1001
ACAD
1000
DSTYLE
1002
{
1070
     6
1000
_NONE
1070
    77
1070
     1
1070
   172
1070
     1
1070
    75
1070
     1
1002
}
  0
DIMENSION
  5
205
330
36
100
AcDbEntity
  8
0
  6
Continuous
 62
     7
100
AcDbDimension
  2
*D32
 10
149.0585
 20
-63.39217
 30
0.0
 11
158.7985
 21
-55.39216799999998
 31
0.0
 70
    32
 71
     5
 42
16.000004
  3
DIMSTYLE
100
AcDbAlignedDimension
 13
125.6585
 23
-47.39216599999999
 33
0.0
 14
125.6585
 24
-63.39216999999999
 34
0.0
 50
90.0
100
AcDbRotatedDimension
1001
ACAD
1000
DSTYLE
1002
{
1070
     6
1000
_NONE
1070
    77
1070
     1
1070
   172
1070
     1
1070
    75
1070
     1
1002
}
  0
DIMENSION
  5
206
330
36
100
AcDbEntity
  8
0
  6
Continuous
 62
     7
100
AcDbDimension
  2
*D5
 10
28.058496
 20
127.10783
 30
0.0
 11
25.808496
 21
127.10783
 31
0.0
 71
     5
 42
-1.0
  3
DIMSTYLE
100
AcDbAlignedDimension
 13
23.558496
 23
108.90783
 33
0.0
 14
28.058496
 24
115.60783
 34
0.0
100
AcDbRotatedDimension
1001
ACAD
1000
DSTYLE
1002
{
1070
    77
1070
     1
1070
   172
1070
     1
1002
}
  0
DIMENSION
  5
207
330
36
100
AcDbEntity
  8
0
  6
Continuous
 62
     7
100
AcDbDimension
  2
*D6
 10
28.058496
 20
127.10783
 30
0.0
 11
38.558498
 21
127.10783
 31
0.0
 71
     5
 42
-1.0
  3
DIMSTYLE
100
AcDbAlignedDimension
 13
49.058498
 23
115.60783
 33
0.0
 14
28.058496
 24
115.60783
 34
0.0
100
AcDbRotatedDimension
1001
ACAD
1000
DSTYLE
1002
{
1070
    77
1070
     1
1070
   172
1070
     1
1002
}
  0
DIMENSION
  5
208
330
36
100
AcDbEntity
  8
0
  6
Continuous
 62
     7
100
AcDbDimension
  2
*D7
 10
53.558498
 20
127.10783
 30
0.0
 11
51.308498
 21
127.10783
 31
0.0
 71
     5
 42
-1.0
  3
DIMSTYLE
100
AcDbAlignedDimension
 13
49.058498
 23
115.60783
 33
0.0
 14
53.558498
 24
108.90783
 34
0.0
100
AcDbRotatedDimension
1001
ACAD
1000
DSTYLE
1002
{
1070
    77
1070
     1
1070
   172
1070
     1
1002
}
  0
DIMENSION
  5
209
330
36
100
AcDbEntity
  8
0
  6
Continuous
 62
     7
100
AcDbDimension
  2
*D8
 10
29.558496
 20
66.607826
 30
0.0
 11
26.558496
 21
66.607826
 31
0.0
 71
     5
 42
-1.0
  3
DIMSTYLE
100
AcDbAlignedDimension
 13
23.558496
 23
56.60783000000001
 33
0.0
 14
29.558496
 24
39.60783
 34
0.0
100
AcDbRotatedDimension
1001
ACAD
1000
DSTYLE
1002
{
1070
    77
1070
     1
1070
   172
1070
     1
1002
}
  0
DIMENSION
  5
20A
330
36
100
AcDbEntity
  8
0
  6
Continuous
 62
     7
100
AcDbDimension
  2
*D9
 10
47.558498
 20
66.607826
 30
0.0
 11
38.558498
 21
66.607826
 31
0.0
 71
     5
 42
-1.0
  3
DIMSTYLE
100
AcDbAlignedDimension
 13
29.558496
 23
39.60783
 33
0.0
 14
47.558498
 24
39.60783
 34
0.0
100
AcDbRotatedDimension
1001
ACAD
1000
DSTYLE
1002
{
1070
     6
1000
_NONE
1070
    77
1070
     1
1070
   172
1070
     1
1070
    75
1070
     1
1002
}
  0
DIMENSION
  5
20B
330
36
100
AcDbEntity
  8
0
  6
Continuous
 62
     7
100
AcDbDimension
  2
*D10
 10
53.558498
 20
66.607826
 30
0.0
 11
50.558498
 21
66.607826
 31
0.0
 71
     5
 42
-1.0
  3
DIMSTYLE
100
AcDbAlignedDimension
 13
47.558498
 23
39.60783
 33
0.0
 14
53.558498
 24
56.60783000000001
 34
0.0
100
AcDbRotatedDimension
1001
ACAD
1000
DSTYLE
1002
{
1070
     6
1000
_NONE
1070
    77
1070
     1
1070
   172
1070
     1
1070
    75
1070
     1
1002
}
  0
DIMENSION
  5
20C
330
36
100
AcDbEntity
  8
0
  6
Continuous
 62
     7
100
AcDbDimension
  2
*D11
 10
53.558498
 20
76.607826
 30
0.0
 11
38.558498
 21
76.607826
 31
0.0
 71
     5
 42
-1.0
  3
DIMSTYLE
100
AcDbAlignedDimension
 13
23.558496
 23
56.60783000000001
 33
0.0
 14
53.558498
 24
56.60783000000001
 34
0.0
100
AcDbRotatedDimension
1001
ACAD
1000
DSTYLE
1002
{
1070
    77
1070
     1
1070
   172
1070
     1
1002
}
  0
DIMENSION
  5
20D
330
36
100
AcDbEntity
  8
0
  6
Continuous
 62
     7
100
AcDbDimension
  2
*D31
 10
125.6585
 20
66.607826
 30
0.0
 11
119.012322945265
 21
69.91687455776733
 31
0.0
 70
   160
 71
     5
 42
2.100010000000011
  3
DIMSTYLE
100
AcDbAlignedDimension
 13
123.55849
 23
56.60783000000001
 33
0.0
 14
125.6585
 24
56.60783000000001
 34
0.0
100
AcDbRotatedDimension
1001
ACAD
1000
DSTYLE
1002
{
1070
    77
1070
     1
1070
   172
1070
     1
1070
   271
1070
     1
1002
}
  0
DIMENSION
  5
20E
330
36
100
AcDbEntity
  8
0
  6
Continuous
 62
     7
100
AcDbDimension
  2
*D30
 10
134.0585
 20
66.607826
 30
0.0
 11
130.2993730023856
 21
69.40237560498167
 31
0.0
 70
   160
 71
     5
 42
8.400000000000005
  3
DIMSTYLE
100
AcDbAlignedDimension
 13
125.6585
 23
56.60783000000001
 33
0.0
 14
134.0585
 24
26.637861
 34
0.0
100
AcDbRotatedDimension
1001
ACAD
1000
DSTYLE
1002
{
1070
    77
1070
     1
1070
   172
1070
     1
1070
   271
1070
     1
1002
}
  0
DIMENSION
  5
20F
330
36
100
AcDbEntity
  8
0
  6
Continuous
 62
     7
100
AcDbDimension
  2
*D14
 10
134.0585
 20
76.607826
 30
0.0
 11
128.8085
 21
76.607826
 31
0.0
 71
     5
 42
-1.0
  3
DIMSTYLE
100
AcDbAlignedDimension
 13
123.55849
 23
56.60783000000001
 33
0.0
 14
134.0585
 24
26.637861
 34
0.0
100
AcDbRotatedDimension
1001
ACAD
1000
DSTYLE
1002
{
1070
    77
1070
     1
1070
   172
1070
     1
1002
}
  0
DIMENSION
  5
210
330
36
100
AcDbEntity
  8
0
  6
Continuous
 62
     7
100
AcDbDimension
  2
*D15
 10
68.55849499999999
 20
40.60782999999999
 30
0.0
 11
68.55849499999999
 21
43.895977
 31
0.0
 71
     5
 42
-1.0
  3
DIMSTYLE
100
AcDbAlignedDimension
 13
53.558498
 23
56.60783000000001
 33
0.0
 14
46.558498
 24
40.60782999999999
 34
0.0
 50
90.0
100
AcDbRotatedDimension
1001
ACAD
1000
DSTYLE
1002
{
1070
    77
1070
     1
1070
   172
1070
     1
1070
    76
1070
     1
1002
}
  0
DIMENSION
  5
211
330
36
100
AcDbEntity
  8
0
  6
Continuous
 62
     7
100
AcDbDimension
  2
*D16
 10
68.55849499999999
 20
40.60782999999999
 30
0.0
 11
68.55849499999999
 21
-3.3921702
 31
0.0
 71
     5
 42
-1.0
  3
DIMSTYLE
100
AcDbAlignedDimension
 13
46.558498
 23
-47.39217
 33
0.0
 14
46.558498
 24
40.60782999999999
 34
0.0
 50
90.0
100
AcDbRotatedDimension
1001
ACAD
1000
DSTYLE
1002
{
1070
    77
1070
     1
1070
   172
1070
     1
1002
}
  0
DIMENSION
  5
212
330
36
100
AcDbEntity
  8
0
  6
Continuous
 62
     7
100
AcDbDimension
  2
*D17
 10
68.06047099999999
 20
-63.39216999999999
 30
0.0
 11
68.06047099999999
 21
-52.89501600000001
 31
0.0
 71
     5
 42
-1.0
  3
DIMSTYLE
100
AcDbAlignedDimension
 13
46.558498
 23
-47.39217
 33
0.0
 14
53.558498
 24
-63.39216999999999
 34
0.0
 50
90.0
100
AcDbRotatedDimension
1001
ACAD
1000
DSTYLE
1002
{
1070
    77
1070
     1
1070
   172
1070
     1
1002
}
  0
DIMENSION
  5
213
330
36
100
AcDbEntity
  8
0
  6
Continuous
 62
     7
100
AcDbDimension
  2
*D18
 10
78.55849499999999
 20
49.60783
 30
0.0
 11
78.55849499999999
 21
53.10783
 31
0.0
 71
     5
 42
-1.0
  3
DIMSTYLE
100
AcDbAlignedDimension
 13
53.558498
 23
56.60783000000001
 33
0.0
 14
45.55849799999999
 24
49.60783
 34
0.0
 50
90.0
100
AcDbRotatedDimension
1001
ACAD
1000
DSTYLE
1002
{
1070
    77
1070
     1
1070
   172
1070
     1
1002
}
  0
DIMENSION
  5
214
330
36
100
AcDbEntity
  8
0
  6
Continuous
 62
     7
100
AcDbDimension
  2
*D19
 10
78.55849499999999
 20
-56.39216999999999
 30
0.0
 11
78.55849499999999
 21
-3.3921702
 31
0.0
 71
     5
 42
-1.0
  3
DIMSTYLE
100
AcDbAlignedDimension
 13
45.55849799999999
 23
49.60783
 33
0.0
 14
45.55849799999999
 24
-56.39216999999999
 34
0.0
 50
90.0
100
AcDbRotatedDimension
1001
ACAD
1000
DSTYLE
1002
{
1070
    77
1070
     1
1070
   172
1070
     1
1002
}
  0
DIMENSION
  5
215
330
36
100
AcDbEntity
  8
0
  6
Continuous
 62
     7
100
AcDbDimension
  2
*D20
 10
78.55849499999999
 20
-63.39216999999999
 30
0.0
 11
78.55849499999999
 21
-59.89217
 31
0.0
 71
     5
 42
-1.0
  3
DIMSTYLE
100
AcDbAlignedDimension
 13
45.55849799999999
 23
-56.39216999999999
 33
0.0
 14
53.558498
 24
-63.39216999999999
 34
0.0
 50
90.0
100
AcDbRotatedDimension
1001
ACAD
1000
DSTYLE
1002
{
1070
    77
1070
     1
1070
   172
1070
     1
1002
}
  0
DIMENSION
  5
216
330
36
100
AcDbEntity
  8
0
  6
Continuous
 62
     7
100
AcDbDimension
  2
*D21
 10
88.55849499999999
 20
-63.39216999999999
 30
0.0
 11
88.55849499999999
 21
-3.3921702
 31
0.0
 71
     5
 42
-1.0
  3
DIMSTYLE
100
AcDbAlignedDimension
 13
53.558498
 23
56.60783000000001
 33
0.0
 14
53.558498
 24
-63.39216999999999
 34
0.0
 50
90.0
100
AcDbRotatedDimension
1001
ACAD
1000
DSTYLE
1002
{
1070
    77
1070
     1
1070
   172
1070
     1
1002
}
  0
DIMENSION
  5
217
330
36
100
AcDbEntity
  8
0
  6
Continuous
 62
     7
100
AcDbDimension
  2
*D22
 10
-19.941504
 20
61.60783000000001
 30
0.0
 11
-31.441504
 21
61.60783000000001
 31
0.0
 71
     5
 42
-1.0
  3
DIMSTYLE
100
AcDbAlignedDimension
 13
-42.94150199999999
 23
41.60783
 33
0.0
 14
-19.941504
 24
41.60783
 34
0.0
100
AcDbRotatedDimension
1001
ACAD
1000
DSTYLE
1002
{
1070
    77
1070
     1
1070
   172
1070
     1
1002
}
  0
DIMENSION
  5
218
330
36
100
AcDbEntity
  8
0
  6
Continuous
 62
     7
100
AcDbDimension
  2
*D23
 10
-52.941502
 20
-48.39217
 30
0.0
 11
-52.941502
 21
-3.3921702
 31
0.0
 71
     5
 42
-1.0
  3
DIMSTYLE
100
AcDbAlignedDimension
 13
-42.94150199999999
 23
41.60783
 33
0.0
 14
-42.94150199999999
 24
-48.39217
 34
0.0
 50
90.0
100
AcDbRotatedDimension
1001
ACAD
1000
DSTYLE
1002
{
1070
    77
1070
     1
1070
   172
1070
     1
1002
}
  0
INSERT
  5
219
330
36
100
AcDbEntity
  8
0
  6
Continuous
 62
     7
100
AcDbBlockReference
  2
KOZU0001
 10
40.796162
 20
-53.076622
 30
0.0
  0
DIMENSION
  5
21A
330
36
100
AcDbEntity
  8
0
  6
Continuous
 62
     7
100
AcDbDimension
  2
*D24
 10
-62.941502
 20
-56.39216999999999
 30
0.0
 11
-62.941502
 21
-3.392169999999999
 31
0.0
 71
     5
 42
-1.0
  3
DIMSTYLE
100
AcDbAlignedDimension
 13
-35.981503
 23
49.60783
 33
0.0
 14
-35.981503
 24
-56.39216999999999
 34
0.0
 50
90.0
100
AcDbRotatedDimension
1001
ACAD
1000
DSTYLE
1002
{
1070
    77
1070
     1
1070
   172
1070
     1
1002
}
  0
INSERT
  5
21B
330
36
100
AcDbEntity
  8
0
  6
Continuous
 62
     7
100
AcDbBlockReference
  2
*D25
 10
0.0
 20
0.0
 30
0.0
  0
ENDSEC
  0
SECTION
  2
OBJECTS
  0
DICTIONARY
  5
C
330
0
100
AcDbDictionary
281
     1
  3
ACAD_COLOR
350
2F
  3
ACAD_GROUP
350
D
  3
ACAD_LAYOUT
350
2E
  3
ACAD_MATERIAL
350
10
  3
ACAD_MLINESTYLE
350
2B
  3
ACAD_PLOTSETTINGS
350
2D
  3
ACAD_PLOTSTYLENAME
350
E
  3
ACAD_TABLESTYLE
350
30
  3
ACAD_VISUALSTYLE
350
14
  3
AcDbVariableDictionary
350
2BF
  3
AcmDictionary
350
276
  3
AMG
350
21D
  3
AMGSNAPSETTINGS
350
2B7
  3
DWGPROPS
350
3C1
  0
DICTIONARY
  5
2F
102
{ACAD_REACTORS
330
C
102
}
330
C
100
AcDbDictionary
281
     1
  0
DICTIONARY
  5
D
102
{ACAD_REACTORS
330
C
102
}
330
C
100
AcDbDictionary
281
     1
  0
DICTIONARY
  5
2E
102
{ACAD_REACTORS
330
C
102
}
330
C
100
AcDbDictionary
281
     1
  3
Model
350
39
  3
レイアウト1
350
35
  0
DICTIONARY
  5
10
102
{ACAD_REACTORS
330
C
102
}
330
C
100
AcDbDictionary
281
     1
  3
ByBlock
350
12
  3
ByLayer
350
11
  3
Global
350
13
  0
DICTIONARY
  5
2B
102
{ACAD_REACTORS
330
C
102
}
330
C
100
AcDbDictionary
281
     1
  3
Standard
350
2C
  0
DICTIONARY
  5
2D
102
{ACAD_REACTORS
330
C
102
}
330
C
100
AcDbDictionary
281
     1
  0
ACDBDICTIONARYWDFLT
  5
E
102
{ACAD_REACTORS
330
C
102
}
330
C
100
AcDbDictionary
281
     1
  3
Normal
350
F
100
AcDbDictionaryWithDefault
340
F
  0
DICTIONARY
  5
30
102
{ACAD_REACTORS
330
C
102
}
330
C
100
AcDbDictionary
281
     1
  3
Standard
350
31
  0
DICTIONARY
  5
14
102
{ACAD_REACTORS
330
C
102
}
330
C
100
AcDbDictionary
281
     1
  3
2dWireframe
350
1A
  3
3D Hidden
350
1C
  3
3dWireframe
350
1B
  3
Basic
350
19
  3
Brighten
350
20
  3
ColorChange
350
24
  3
Conceptual
350
1D
  3
Dim
350
1F
  3
Facepattern
350
23
  3
Flat
350
15
  3
FlatWithEdges
350
16
  3
Gouraud
350
17
  3
GouraudWithEdges
350
18
  3
Linepattern
350
22
  3
Realistic
350
1E
  3
Thicken
350
21
  0
DICTIONARY
  5
2BF
102
{ACAD_REACTORS
330
C
102
}
330
C
100
AcDbDictionary
281
     1
  3
CTABLESTYLE
350
2C0
  3
DIMASSOC
350
3C0
  3
INDEXCTL
350
3BF
  3
SORTENTS
350
3BE
  0
DICTIONARY
  5
276
102
{ACAD_REACTORS
330
C
102
}
330
C
100
AcDbDictionary
281
     1
  3
AcmStdDictionary
350
281
  3
AMDTSECTSYM_ARROWCOLOR
350
2A2
  0
DICTIONARY
  5
21D
102
{ACAD_REACTORS
330
C
102
}
330
C
100
AcDbDictionary
281
     1
  0
DICTIONARY
  5
2B7
102
{ACAD_REACTORS
330
C
102
}
330
C
100
AcDbDictionary
281
     1
  0
XRECORD
  5
3C1
102
{ACAD_REACTORS
330
C
102
}
330
C
100
AcDbXrecord
280
     1
  1
DWGPROPS COOKIE
  2

  3

  4

  6

  7

  8
Administrator
  9

300
=
301
=
302
=
303
=
304
=
305
=
306
=
307
=
308
=
309
=
 40
0.0020354166666667
 41
2454475.493035833
 42
2454597.601050521
  1

 90
        0
  0
LAYOUT
  5
39
102
{ACAD_XDICTIONARY
360
3CC
102
}
102
{ACAD_REACTORS
330
2E
102
}
330
2E
100
AcDbPlotSettings
  1

  2
\\CAD-SRV01\FX DocuColor 1250 PLW
  4

  6

 40
0.0
 41
0.0
 42
0.0
 43
0.0
 44
0.0
 45
0.0
 46
0.0
 47
0.0
 48
0.0
 49
0.0
140
0.0
141
0.0
142
1.0
143
1.0
 70
  1712
 72
     0
 73
     0
 74
     0
  7

 75
     0
147
1.0
148
0.0
149
0.0
100
AcDbLayout
  1
Model
 70
     1
 71
     0
 10
0.0
 20
0.0
 11
12.0
 21
9.0
 12
0.0
 22
0.0
 32
0.0
 14
0.0
 24
0.0
 34
0.0
 15
0.0
 25
0.0
 35
0.0
146
0.0
 13
0.0
 23
0.0
 33
0.0
 16
1.0
 26
0.0
 36
0.0
 17
0.0
 27
1.0
 37
0.0
 76
     0
330
36
331
45
  0
LAYOUT
  5
35
102
{ACAD_XDICTIONARY
360
3CA
102
}
102
{ACAD_REACTORS
330
2E
102
}
330
2E
100
AcDbPlotSettings
  1

  2
\\CAD-SRV01\FX DocuColor 1250 PLW
  4

  6

 40
0.0
 41
0.0
 42
0.0
 43
0.0
 44
0.0
 45
0.0
 46
0.0
 47
0.0
 48
0.0
 49
0.0
140
0.0
141
0.0
142
1.0
143
1.0
 70
   688
 72
     0
 73
     0
 74
     5
  7

 75
    16
147
1.0
148
0.0
149
0.0
100
AcDbLayout
  1
レイアウト1
 70
     1
 71
     1
 10
-211.0
 20
-100.0
 11
170.0
 21
173.0
 12
0.0
 22
0.0
 32
0.0
 14
1.000000000000000E+20
 24
1.000000000000000E+20
 34
1.000000000000000E+20
 15
-1.000000000000000E+20
 25
-1.000000000000000E+20
 35
-1.000000000000000E+20
146
0.0
 13
0.0
 23
0.0
 33
0.0
 16
1.0
 26
0.0
 36
0.0
 17
0.0
 27
1.0
 37
0.0
 76
     0
330
32
  0
MATERIAL
  5
12
102
{ACAD_XDICTIONARY
360
3C4
102
}
102
{ACAD_REACTORS
330
10
102
}
330
10
100
AcDbMaterial
  1
ByBlock
  0
MATERIAL
  5
11
102
{ACAD_XDICTIONARY
360
3C2
102
}
102
{ACAD_REACTORS
330
10
102
}
330
10
100
AcDbMaterial
  1
ByLayer
  0
MATERIAL
  5
13
102
{ACAD_XDICTIONARY
360
3C6
102
}
102
{ACAD_REACTORS
330
10
102
}
330
10
100
AcDbMaterial
  1
Global
  0
MLINESTYLE
  5
2C
102
{ACAD_REACTORS
330
2B
102
}
330
2B
100
AcDbMlineStyle
  2
STANDARD
 70
     0
  3

 62
   256
 51
90.0
 52
90.0
 71
     2
 49
0.5
 62
   256
  6
BYLAYER
 49
-0.5
 62
   256
  6
BYLAYER
  0
ACDBPLACEHOLDER
  5
F
102
{ACAD_REACTORS
330
E
102
}
330
E
  0
TABLESTYLE
  5
31
102
{ACAD_XDICTIONARY
360
3C8
102
}
102
{ACAD_REACTORS
330
30
102
}
330
30
100
AcDbTableStyle
  3
Standard
 70
     0
 71
     0
 40
0.06
 41
0.06
280
     0
281
     0
  7
STANDARD
140
0.18
170
     2
 62
     0
 63
     7
283
     0
274
    -2
284
     1
 64
     0
275
    -2
285
     1
 65
     0
276
    -2
286
     1
 66
     0
277
    -2
287
     1
 67
     0
278
    -2
288
     1
 68
     0
279
    -2
289
     1
 69
     0
  7
STANDARD
140
0.25
170
     5
 62
     0
 63
     7
283
     0
274
    -2
284
     1
 64
     0
275
    -2
285
     1
 65
     0
276
    -2
286
     1
 66
     0
277
    -2
287
     1
 67
     0
278
    -2
288
     1
 68
     0
279
    -2
289
     1
 69
     0
  7
STANDARD
140
0.18
170
     5
 62
     0
 63
     7
283
     0
274
    -2
284
     1
 64
     0
275
    -2
285
     1
 65
     0
276
    -2
286
     1
 66
     0
277
    -2
287
     1
 67
     0
278
    -2
288
     1
 68
     0
279
    -2
289
     1
 69
     0
  0
VISUALSTYLE
  5
1A
102
{ACAD_REACTORS
330
14
102
}
330
14
100
AcDbVisualStyle
  2
2dWireframe
 70
     4
 71
     0
 72
     2
 73
     0
 90
        0
 40
-0.6
 41
-30.0
 62
     5
 63
     7
 74
     1
 91
        4
 64
     7
 65
   257
 75
     1
175
     1
 42
1.0
 92
        0
 66
   257
 43
1.0
 76
     1
 77
     6
 78
     2
 67
     7
 79
     5
170
     0
171
     0
290
     0
174
     0
 93
        1
 44
0.0
173
     0
291
     0
 45
0.0
1001
ACAD
1000
AcDbSavedByObjectVersion
1070
     0
  0
VISUALSTYLE
  5
1C
102
{ACAD_REACTORS
330
14
102
}
330
14
100
AcDbVisualStyle
  2
3D Hidden
 70
     6
 71
     1
 72
     2
 73
     2
 90
        0
 40
-0.6
 41
-30.0
 62
     5
 63
     7
 74
     2
 91
        2
 64
     7
 65
   257
 75
     2
175
     1
 42
40.0
 92
        0
 66
   257
 43
1.0
 76
     1
 77
     6
 78
     2
 67
     7
 79
     3
170
     0
171
     0
290
     0
174
     0
 93
        1
 44
0.0
173
     0
291
     0
 45
0.0
1001
ACAD
1000
AcDbSavedByObjectVersion
1070
     0
  0
VISUALSTYLE
  5
1B
102
{ACAD_REACTORS
330
14
102
}
330
14
100
AcDbVisualStyle
  2
3dWireframe
 70
     5
 71
     0
 72
     2
 73
     0
 90
        0
 40
-0.6
 41
-30.0
 62
     5
 63
     7
 74
     1
 91
        4
 64
     7
 65
   257
 75
     1
175
     1
 42
1.0
 92
        0
 66
   257
 43
1.0
 76
     1
 77
     6
 78
     2
 67
     7
 79
     5
170
     0
171
     0
290
     0
174
     0
 93
        1
 44
0.0
173
     0
291
     0
 45
0.0
1001
ACAD
1000
AcDbSavedByObjectVersion
1070
     0
  0
VISUALSTYLE
  5
19
102
{ACAD_REACTORS
330
14
102
}
330
14
100
AcDbVisualStyle
  2
Basic
 70
     7
 71
     1
 72
     0
 73
     1
 90
        0
 40
-0.6
 41
-30.0
 62
     5
 63
     7
 74
     0
 91
        4
 64
     7
 65
   257
 75
     1
175
     1
 42
1.0
 92
        8
 66
     7
 43
1.0
 76
     1
 77
     6
 78
     2
 67
     7
 79
     5
170
     0
171
     0
290
     0
174
     0
 93
        1
 44
0.0
173
     0
291
     1
 45
0.0
1001
ACAD
1000
AcDbSavedByObjectVersion
1070
     0
  0
VISUALSTYLE
  5
20
102
{ACAD_REACTORS
330
14
102
}
330
14
100
AcDbVisualStyle
  2
Brighten
 70
    12
 71
     2
 72
     2
 73
     0
 90
        0
 40
-0.6
 41
-30.0
 62
     5
 63
     7
 74
     1
 91
        4
 64
     7
 65
   257
 75
     1
175
     1
 42
1.0
 92
        8
 66
     7
 43
1.0
 76
     1
 77
     6
 78
     2
 67
     7
 79
     5
170
     0
171
     0
290
     0
174
     0
 93
        1
 44
50.0
173
     0
291
     1
 45
0.0
1001
ACAD
1000
AcDbSavedByObjectVersion
1070
     0
  0
VISUALSTYLE
  5
24
102
{ACAD_REACTORS
330
14
102
}
330
14
100
AcDbVisualStyle
  2
ColorChange
 70
    16
 71
     2
 72
     2
 73
     3
 90
        0
 40
-0.6
 41
-30.0
 62
     5
 63
     8
 74
     1
 91
        4
 64
     7
 65
   257
 75
     1
175
     1
 42
1.0
 92
        8
 66
     8
 43
1.0
 76
     1
 77
     6
 78
     2
 67
     7
 79
     5
170
     0
171
     0
290
     0
174
     0
 93
        1
 44
0.0
173
     0
291
     1
 45
0.0
1001
ACAD
1000
AcDbSavedByObjectVersion
1070
     0
  0
VISUALSTYLE
  5
1D
102
{ACAD_REACTORS
330
14
102
}
330
14
100
AcDbVisualStyle
  2
Conceptual
 70
     9
 71
     3
 72
     2
 73
     0
 90
        0
 40
-0.6
 41
-30.0
 62
     5
 63
     7
 74
     2
 91
        2
 64
     7
 65
   257
 75
     1
175
     1
 42
40.0
 92
        8
 66
     7
 43
1.0
 76
     1
 77
     6
 78
     2
 67
     7
 79
     3
170
     0
171
     0
290
     0
174
     0
 93
        1
 44
0.0
173
     0
291
     0
 45
0.0
1001
ACAD
1000
AcDbSavedByObjectVersion
1070
     0
  0
VISUALSTYLE
  5
1F
102
{ACAD_REACTORS
330
14
102
}
330
14
100
AcDbVisualStyle
  2
Dim
 70
    11
 71
     2
 72
     2
 73
     0
 90
        0
 40
-0.6
 41
-30.0
 62
     5
 63
     7
 74
     1
 91
        4
 64
     7
 65
   257
 75
     1
175
     1
 42
1.0
 92
        8
 66
     7
 43
1.0
 76
     1
 77
     6
 78
     2
 67
     7
 79
     5
170
     0
171
     0
290
     0
174
     0
 93
        1
 44
-50.0
173
     0
291
     1
 45
0.0
1001
ACAD
1000
AcDbSavedByObjectVersion
1070
     0
  0
VISUALSTYLE
  5
23
102
{ACAD_REACTORS
330
14
102
}
330
14
100
AcDbVisualStyle
  2
Facepattern
 70
    15
 71
     2
 72
     2
 73
     0
 90
        0
 40
-0.6
 41
-30.0
 62
     5
 63
     7
 74
     1
 91
        4
 64
     7
 65
   257
 75
     1
175
     1
 42
1.0
 92
        8
 66
     7
 43
1.0
 76
     1
 77
     6
 78
     2
 67
     7
 79
     5
170
     0
171
     0
290
     0
174
     0
 93
        1
 44
0.0
173
     0
291
     1
 45
0.0
1001
ACAD
1000
AcDbSavedByObjectVersion
1070
     0
  0
VISUALSTYLE
  5
15
102
{ACAD_REACTORS
330
14
102
}
330
14
100
AcDbVisualStyle
  2
Flat
 70
     0
 71
     2
 72
     1
 73
     1
 90
        2
 40
-0.6
 41
30.0
 62
     5
 63
     7
 74
     0
 91
        4
 64
     7
 65
   257
 75
     1
175
     1
 42
1.0
 92
        8
 66
     7
 43
1.0
 76
     1
 77
     6
 78
     2
 67
     7
 79
     5
170
     0
171
     0
290
     0
174
     0
 93
       13
 44
0.0
173
     0
291
     1
 45
0.0
1001
ACAD
1000
AcDbSavedByObjectVersion
1070
     0
  0
VISUALSTYLE
  5
16
102
{ACAD_REACTORS
330
14
102
}
330
14
100
AcDbVisualStyle
  2
FlatWithEdges
 70
     1
 71
     2
 72
     1
 73
     1
 90
        2
 40
-0.6
 41
30.0
 62
     5
 63
     7
 74
     1
 91
        4
 64
     7
 65
   257
 75
     1
175
     1
 42
1.0
 92
        0
 66
   257
 43
1.0
 76
     1
 77
     6
 78
     2
 67
     7
 79
     5
170
     0
171
     0
290
     0
174
     0
 93
       13
 44
0.0
173
     0
291
     1
 45
0.0
1001
ACAD
1000
AcDbSavedByObjectVersion
1070
     0
  0
VISUALSTYLE
  5
17
102
{ACAD_REACTORS
330
14
102
}
330
14
100
AcDbVisualStyle
  2
Gouraud
 70
     2
 71
     2
 72
     2
 73
     1
 90
        2
 40
-0.6
 41
30.0
 62
     5
 63
     7
 74
     0
 91
        4
 64
     7
 65
   257
 75
     1
175
     1
 42
1.0
 92
        0
 66
     7
 43
1.0
 76
     1
 77
     6
 78
     2
 67
     7
 79
     5
170
     0
171
     0
290
     0
174
     0
 93
       13
 44
0.0
173
     0
291
     1
 45
0.0
1001
ACAD
1000
AcDbSavedByObjectVersion
1070
     0
  0
VISUALSTYLE
  5
18
102
{ACAD_REACTORS
330
14
102
}
330
14
100
AcDbVisualStyle
  2
GouraudWithEdges
 70
     3
 71
     2
 72
     2
 73
     1
 90
        2
 40
-0.6
 41
30.0
 62
     5
 63
     7
 74
     1
 91
        4
 64
     7
 65
   257
 75
     1
175
     1
 42
1.0
 92
        0
 66
   257
 43
1.0
 76
     1
 77
     6
 78
     2
 67
     7
 79
     5
170
     0
171
     0
290
     0
174
     0
 93
       13
 44
0.0
173
     0
291
     1
 45
0.0
1001
ACAD
1000
AcDbSavedByObjectVersion
1070
     0
  0
VISUALSTYLE
  5
22
102
{ACAD_REACTORS
330
14
102
}
330
14
100
AcDbVisualStyle
  2
Linepattern
 70
    14
 71
     2
 72
     2
 73
     0
 90
        0
 40
-0.6
 41
-30.0
 62
     5
 63
     7
 74
     1
 91
        4
 64
     7
 65
   257
 75
     7
175
     7
 42
1.0
 92
        8
 66
     7
 43
1.0
 76
     1
 77
     6
 78
     2
 67
     7
 79
     5
170
     0
171
     0
290
     0
174
     0
 93
        1
 44
0.0
173
     0
291
     1
 45
0.0
1001
ACAD
1000
AcDbSavedByObjectVersion
1070
     0
  0
VISUALSTYLE
  5
1E
102
{ACAD_REACTORS
330
14
102
}
330
14
100
AcDbVisualStyle
  2
Realistic
 70
     8
 71
     2
 72
     2
 73
     0
 90
        0
 40
-0.6
 41
-30.0
 62
     5
 63
     7
 74
     1
 91
        0
 64
     7
 65
   257
 75
     1
175
     1
 42
1.0
 92
        8
 66
     8
 43
1.0
 76
     1
 77
     6
 78
     2
 67
     7
 79
     5
170
     0
171
     0
290
     0
174
     0
 93
       13
 44
0.0
173
     0
291
     0
 45
0.0
1001
ACAD
1000
AcDbSavedByObjectVersion
1070
     0
  0
VISUALSTYLE
  5
21
102
{ACAD_REACTORS
330
14
102
}
330
14
100
AcDbVisualStyle
  2
Thicken
 70
    13
 71
     2
 72
     2
 73
     0
 90
        0
 40
-0.6
 41
-30.0
 62
     5
 63
     7
 74
     1
 91
        4
 64
     7
 65
   257
 75
     1
175
     1
 42
1.0
 92
       12
 66
     7
 43
1.0
 76
     1
 77
     6
 78
     2
 67
     7
 79
     5
170
     0
171
     0
290
     0
174
     0
 93
        1
 44
0.0
173
     0
291
     1
 45
0.0
1001
ACAD
1000
AcDbSavedByObjectVersion
1070
     0
  0
DICTIONARYVAR
  5
2C0
102
{ACAD_REACTORS
330
2BF
102
}
330
2BF
100
DictionaryVariables
280
     0
  1
STANDARD
  0
DICTIONARYVAR
  5
3C0
102
{ACAD_REACTORS
330
2BF
102
}
330
2BF
100
DictionaryVariables
280
     0
  1
1
  0
DICTIONARYVAR
  5
3BF
102
{ACAD_REACTORS
330
2BF
102
}
330
2BF
100
DictionaryVariables
280
     0
  1
0
  0
DICTIONARYVAR
  5
3BE
102
{ACAD_REACTORS
330
2BF
102
}
330
2BF
100
DictionaryVariables
280
     0
  1
127
  0
DICTIONARY
  5
281
102
{ACAD_REACTORS
330
276
102
}
330
276
100
AcDbDictionary
281
     1
  0
XRECORD
  5
2A2
102
{ACAD_REACTORS
330
276
102
}
330
276
100
AcDbXrecord
280
     1
 90
-1023410169
  0
DICTIONARY
  5
3CC
330
39
100
AcDbDictionary
280
     1
281
     1
  3
ACAD_XREC_ROUNDTRIP
360
3CD
  0
DICTIONARY
  5
3CA
330
35
100
AcDbDictionary
280
     1
281
     1
  3
ACAD_XREC_ROUNDTRIP
360
3CB
  0
DICTIONARY
  5
3C4
330
12
100
AcDbDictionary
280
     1
281
     1
  3
ACAD_XREC_ROUNDTRIP
360
3C5
  0
DICTIONARY
  5
3C2
330
11
100
AcDbDictionary
280
     1
281
     1
  3
ACAD_XREC_ROUNDTRIP
360
3C3
  0
DICTIONARY
  5
3C6
330
13
100
AcDbDictionary
280
     1
281
     1
  3
ACAD_XREC_ROUNDTRIP
360
3C7
  0
DICTIONARY
  5
3C8
330
31
100
AcDbDictionary
280
     1
281
     1
  3
ACAD_XREC_ROUNDTRIP
360
3C9
  0
XRECORD
  5
3CD
102
{ACAD_REACTORS
330
3CC
102
}
330
3CC
100
AcDbXrecord
280
     1
102
SHADEPLOT
 70
     0
102
SHADEPLOTRESLEVEL
 70
     2
102
SHADEPLOTCUSTOMDPI
 70
   300
  0
XRECORD
  5
3CB
102
{ACAD_REACTORS
330
3CA
102
}
330
3CA
100
AcDbXrecord
280
     1
102
SHADEPLOT
 70
     0
102
SHADEPLOTRESLEVEL
 70
     2
102
SHADEPLOTCUSTOMDPI
 70
   300
  0
XRECORD
  5
3C5
102
{ACAD_REACTORS
330
3C4
102
}
330
3C4
100
AcDbXrecord
280
     1
102
MATERIAL
148
0.0
149
0.0
149
0.0
 93
        0
 94
       63
282
     0
 72
     1
 77
     1
171
     1
175
     1
179
     1
273
     0
  0
XRECORD
  5
3C3
102
{ACAD_REACTORS
330
3C2
102
}
330
3C2
100
AcDbXrecord
280
     1
102
MATERIAL
148
0.0
149
0.0
149
0.0
 93
        0
 94
       63
282
     0
 72
     1
 77
     1
171
     1
175
     1
179
     1
273
     0
  0
XRECORD
  5
3C7
102
{ACAD_REACTORS
330
3C6
102
}
330
3C6
100
AcDbXrecord
280
     1
102
MATERIAL
148
0.0
149
0.0
149
0.0
 93
        0
 94
       63
282
     0
 72
     1
 77
     1
171
     1
175
     1
179
     1
273
     0
  0
XRECORD
  5
3C9
102
{ACAD_REACTORS
330
3C8
102
}
330
3C8
100
AcDbXrecord
280
     1
102
ACAD_ROUNDTRIP_PRE2007_TABLESTYLE
 90
      512
 91
        0
  1

 92
      512
 93
        0
  2

 94
      512
 95
        0
  3

  0
ENDSEC
  0
EOF
