  0
SECTION
  2
HEADER
  9
$ACADVER
  1
AC1015
  9
$ACADMAINTVER
 70
    14
  9
$DWGCODEPAGE
  3
ANSI_932
  9
$INSBASE
 10
0.0
 20
0.0
 30
0.0
  9
$EXTMIN
 10
-211.0
 20
-100.0
 30
0.0
  9
$EXTMAX
 10
170.0
 20
173.0
 30
0.0
  9
$LIMMIN
 10
-211.0
 20
-100.0
  9
$LIMMAX
 10
170.0
 20
173.0
  9
$ORTHOMODE
 70
     0
  9
$REGENMODE
 70
     1
  9
$FILLMODE
 70
     1
  9
$QTEXTMODE
 70
     0
  9
$MIRRTEXT
 70
     1
  9
$LTSCALE
 40
1.0
  9
$ATTMODE
 70
     1
  9
$TEXTSIZE
 40
0.2
  9
$TRACEWID
 40
0.05
  9
$TEXTSTYLE
  7
STANDARD
  9
$CLAYER
  8
0
  9
$CELTYPE
  6
CONTINUOUS
  9
$CECOLOR
 62
   256
  9
$CELTSCALE
 40
1.0
  9
$DISPSILH
 70
     0
  9
$DIMSCALE
 40
1.0
  9
$DIMASZ
 40
1.0
  9
$DIMEXO
 40
2.54
  9
$DIMDLI
 40
0.38
  9
$DIMRND
 40
0.0
  9
$DIMDLE
 40
0.0
  9
$DIMEXE
 40
2.54
  9
$DIMTP
 40
0.0
  9
$DIMTM
 40
0.0
  9
$DIMTXT
 40
3.2
  9
$DIMCEN
 40
0.09
  9
$DIMTSZ
 40
0.0
  9
$DIMTOL
 70
     0
  9
$DIMLIM
 70
     0
  9
$DIMTIH
 70
     0
  9
$DIMTOH
 70
     0
  9
$DIMSE1
 70
     0
  9
$DIMSE2
 70
     0
  9
$DIMTAD
 70
     1
  9
$DIMZIN
 70
     0
  9
$DIMBLK
  1

  9
$DIMASO
 70
     1
  9
$DIMSHO
 70
     0
  9
$DIMPOST
  1

  9
$DIMAPOST
  1

  9
$DIMALT
 70
     0
  9
$DIMALTD
 70
     2
  9
$DIMALTF
 40
25.4
  9
$DIMLFAC
 40
1.0
  9
$DIMTOFL
 70
     0
  9
$DIMTVP
 40
1.0
  9
$DIMTIX
 70
     0
  9
$DIMSOXD
 70
     0
  9
$DIMSAH
 70
     1
  9
$DIMBLK1
  1

  9
$DIMBLK2
  1

  9
$DIMSTYLE
  2
DIMSTYLE
  9
$DIMCLRD
 70
     0
  9
$DIMCLRE
 70
     0
  9
$DIMCLRT
 70
     0
  9
$DIMTFAC
 40
1.0
  9
$DIMGAP
 40
1.6
  9
$DIMJUST
 70
     0
  9
$DIMSD1
 70
     0
  9
$DIMSD2
 70
     0
  9
$DIMTOLJ
 70
     1
  9
$DIMTZIN
 70
     0
  9
$DIMALTZ
 70
     0
  9
$DIMALTTZ
 70
     0
  9
$DIMUPT
 70
     0
  9
$DIMDEC
 70
     4
  9
$DIMTDEC
 70
     4
  9
$DIMALTU
 70
     2
  9
$DIMALTTD
 70
     2
  9
$DIMTXSTY
  7
STANDARD
  9
$DIMAUNIT
 70
     0
  9
$DIMADEC
 70
     0
  9
$DIMALTRND
 40
0.0
  9
$DIMAZIN
 70
     0
  9
$DIMDSEP
 70
    46
  9
$DIMATFIT
 70
     3
  9
$DIMFRAC
 70
     0
  9
$DIMLDRBLK
  1

  9
$DIMLUNIT
 70
     2
  9
$DIMLWD
 70
    -2
  9
$DIMLWE
 70
    -2
  9
$DIMTMOVE
 70
     0
  9
$LUNITS
 70
     2
  9
$LUPREC
 70
     4
  9
$SKETCHINC
 40
0.1
  9
$FILLETRAD
 40
0.0
  9
$AUNITS
 70
     0
  9
$AUPREC
 70
     0
  9
$MENU
  1
.
  9
$ELEVATION
 40
0.0
  9
$PELEVATION
 40
0.0
  9
$THICKNESS
 40
0.0
  9
$LIMCHECK
 70
     0
  9
$CHAMFERA
 40
0.0
  9
$CHAMFERB
 40
0.0
  9
$CHAMFERC
 40
0.0
  9
$CHAMFERD
 40
0.0
  9
$SKPOLY
 70
     0
  9
$TDCREATE
 40
2452815.792577731
  9
$TDUCREATE
 40
2452815.417577731
  9
$TDUPDATE
 40
2453448.599912789
  9
$TDUUPDATE
 40
2453448.224912789
  9
$TDINDWG
 40
0.0632458102
  9
$TDUSRTIMER
 40
0.0632456944
  9
$USRTIMER
 70
     1
  9
$ANGBASE
 50
0.0
  9
$ANGDIR
 70
     0
  9
$PDMODE
 70
     0
  9
$PDSIZE
 40
0.0
  9
$PLINEWID
 40
0.0
  9
$SPLFRAME
 70
     0
  9
$SPLINETYPE
 70
     6
  9
$SPLINESEGS
 70
     8
  9
$HANDSEED
  5
2DA
  9
$SURFTAB1
 70
     6
  9
$SURFTAB2
 70
     6
  9
$SURFTYPE
 70
     6
  9
$SURFU
 70
     6
  9
$SURFV
 70
     6
  9
$UCSBASE
  2

  9
$UCSNAME
  2

  9
$UCSORG
 10
0.0
 20
0.0
 30
0.0
  9
$UCSXDIR
 10
1.0
 20
0.0
 30
0.0
  9
$UCSYDIR
 10
0.0
 20
1.0
 30
0.0
  9
$UCSORTHOREF
  2

  9
$UCSORTHOVIEW
 70
     0
  9
$UCSORGTOP
 10
0.0
 20
0.0
 30
0.0
  9
$UCSORGBOTTOM
 10
0.0
 20
0.0
 30
0.0
  9
$UCSORGLEFT
 10
0.0
 20
0.0
 30
0.0
  9
$UCSORGRIGHT
 10
0.0
 20
0.0
 30
0.0
  9
$UCSORGFRONT
 10
0.0
 20
0.0
 30
0.0
  9
$UCSORGBACK
 10
0.0
 20
0.0
 30
0.0
  9
$PUCSBASE
  2

  9
$PUCSNAME
  2

  9
$PUCSORG
 10
0.0
 20
0.0
 30
0.0
  9
$PUCSXDIR
 10
1.0
 20
0.0
 30
0.0
  9
$PUCSYDIR
 10
0.0
 20
1.0
 30
0.0
  9
$PUCSORTHOREF
  2

  9
$PUCSORTHOVIEW
 70
     0
  9
$PUCSORGTOP
 10
0.0
 20
0.0
 30
0.0
  9
$PUCSORGBOTTOM
 10
0.0
 20
0.0
 30
0.0
  9
$PUCSORGLEFT
 10
0.0
 20
0.0
 30
0.0
  9
$PUCSORGRIGHT
 10
0.0
 20
0.0
 30
0.0
  9
$PUCSORGFRONT
 10
0.0
 20
0.0
 30
0.0
  9
$PUCSORGBACK
 10
0.0
 20
0.0
 30
0.0
  9
$USERI1
 70
     0
  9
$USERI2
 70
     0
  9
$USERI3
 70
     0
  9
$USERI4
 70
     0
  9
$USERI5
 70
     0
  9
$USERR1
 40
0.0
  9
$USERR2
 40
0.0
  9
$USERR3
 40
0.0
  9
$USERR4
 40
0.0
  9
$USERR5
 40
0.0
  9
$WORLDVIEW
 70
     1
  9
$SHADEDGE
 70
     3
  9
$SHADEDIF
 70
    70
  9
$TILEMODE
 70
     1
  9
$MAXACTVP
 70
    64
  9
$PINSBASE
 10
0.0
 20
0.0
 30
0.0
  9
$PLIMCHECK
 70
     0
  9
$PEXTMIN
 10
1.000000000000000E+20
 20
1.000000000000000E+20
 30
1.000000000000000E+20
  9
$PEXTMAX
 10
-1.000000000000000E+20
 20
-1.000000000000000E+20
 30
-1.000000000000000E+20
  9
$PLIMMIN
 10
-211.0
 20
-100.0
  9
$PLIMMAX
 10
170.0
 20
173.0
  9
$UNITMODE
 70
     0
  9
$VISRETAIN
 70
     1
  9
$PLINEGEN
 70
     0
  9
$PSLTSCALE
 70
     1
  9
$TREEDEPTH
 70
  3020
  9
$CMLSTYLE
  2
Standard
  9
$CMLJUST
 70
     0
  9
$CMLSCALE
 40
1.0
  9
$PROXYGRAPHICS
 70
     1
  9
$MEASUREMENT
 70
     0
  9
$CELWEIGHT
370
    -1
  9
$ENDCAPS
280
     0
  9
$JOINSTYLE
280
     0
  9
$LWDISPLAY
290
     0
  9
$INSUNITS
 70
     0
  9
$HYPERLINKBASE
  1

  9
$STYLESHEET
  1

  9
$XEDIT
290
     1
  9
$CEPSNTYPE
380
     0
  9
$PSTYLEMODE
290
     1
  9
$FINGERPRINTGUID
  2
{F413AEA0-2EB3-457B-913F-393AD0E10F1F}
  9
$VERSIONGUID
  2
{56B35B61-8FE2-4382-91FB-DD01BDC32879}
  9
$EXTNAMES
290
     1
  9
$PSVPSCALE
 40
0.0
  9
$OLESTARTUP
290
     0
  0
ENDSEC
  0
SECTION
  2
CLASSES
  0
CLASS
  1
ACDBDICTIONARYWDFLT
  2
AcDbDictionaryWithDefault
  3
AutoCAD 2000
 90
        0
280
     0
281
     0
  0
CLASS
  1
ACDBPLACEHOLDER
  2
AcDbPlaceHolder
  3
AutoCAD 2000
 90
        0
280
     0
281
     0
  0
CLASS
  1
LAYOUT
  2
AcDbLayout
  3
AutoCAD 2000
 90
        0
280
     0
281
     0
  0
CLASS
  1
AMGSETTINGSOBJ
  2
AmgSettingsObj
  3
"AcadM|Product Description: AutoCAD Mechanical 2000|Company: Autodesk"
 90
        0
280
     0
281
     0
  0
CLASS
  1
ACME_DOCUMENT
  2
AcMeDbDoc
  3
AcMeServices
 90
        0
280
     0
281
     0
  0
CLASS
  1
ACMESCOPE
  2
AcMeScope
  3
AcMeServices
 90
        0
280
     0
281
     0
  0
CLASS
  1
ACMECOMMANDHISTORY
  2
AcMeCommandHistory
  3
AcMeServices
 90
        0
280
     0
281
     0
  0
CLASS
  1
ACIMSYSVARMAN
  2
AcImSysVarManager
  3
AcMeServices
 90
        0
280
     0
281
     0
  0
CLASS
  1
ACIMREALSYSVAR
  2
AcImRealSysVar
  3
AcMeServices
 90
        0
280
     0
281
     0
  0
CLASS
  1
ACIMINTSYSVAR
  2
AcImIntSysVar
  3
AcMeServices
 90
        0
280
     0
281
     0
  0
CLASS
  1
ACMEDRAWINGMAN
  2
AcMeDrawingMan
  3
AcMeServices
 90
        0
280
     0
281
     0
  0
CLASS
  1
ACMEVIEW
  2
AcMeView
  3
AcMeServices
 90
        0
280
     0
281
     0
  0
CLASS
  1
ACDBENTITYCACHE
  2
AcMeEntityCache
  3
AcMeServices
 90
        0
280
     0
281
     0
  0
CLASS
  1
GSMANAGER
  2
AcMeGSManager
  3
AcMeServices
 90
        0
280
     0
281
     0
  0
CLASS
  1
AMDTINTERNALREACTOR
  2
AmdtInternalReactor
  3
AcMeServices
 90
        0
280
     0
281
     0
  0
CLASS
  1
ACMESTATEMGR
  2
AcMeStateMgr
  3
AcMeServices
 90
        0
280
     0
281
     0
  0
CLASS
  1
ACGREFMASTER
  2
AcGrefMaster
  3
AcAttribServices
 90
        0
280
     0
281
     0
  0
CLASS
  1
ACME_DATABASE
  2
AcMeDbDatabase
  3
AcMeServices
 90
        0
280
     0
281
     0
  0
CLASS
  1
ACRFINSADJUSTERMGR
  2
AcRfInsAdjusterMgr
  3
AcMeServices
 90
        0
280
     0
281
     0
  0
CLASS
  1
ACGREFACADMASTER
  2
AcGrefacadMaster
  3
AcGrefServices
 90
        0
280
     0
281
     0
  0
CLASS
  1
AMIMASTER
  2
AmiMaster
  3
AmiServices
 90
        0
280
     0
281
     0
  0
CLASS
  1
ACMDATADICTIONARY
  2
AcmDataDictionary
  3
"AcmSymBB|Product Description: AutoCAD Mechanical 2000|Company: Autodesk"
 90
        0
280
     0
281
     0
  0
CLASS
  1
ACMDATAENTRYBLOCK
  2
AcmDataEntryBlock
  3
"AcmSymBB|Product Description: AutoCAD Mechanical 2000|Company: Autodesk"
 90
        0
280
     0
281
     0
  0
CLASS
  1
ACIMSTRSYSVAR
  2
AcImStrSysVar
  3
AcMeServices
 90
        0
280
     0
281
     0
  0
CLASS
  1
ACMSTANDARDANSI
  2
AcmStandardANSI
  3
"Amdt_StdImp|Product Description: AutoCAD Mechanical 2000|Company: Autodesk"
 90
        0
280
     0
281
     0
  0
CLASS
  1
AMGOBJPROPCFG
  2
AmgObjPropCfg
  3
"AmgLay|Product Description: AutoCAD Mechanical 2000|Company: Autodesk"
 90
        1
280
     0
281
     0
  0
CLASS
  1
ACMSURFSTANDARDANSI
  2
AcmSurfTextStdANSI
  3
"Amdt_StdImp|Product Description: AutoCAD Mechanical 2000|Company: Autodesk"
 90
        0
280
     0
281
     0
  0
CLASS
  1
ACMFCFSTANDARDANSI
  2
AcmFCFStdANSI
  3
"Amdt_StdImp|Product Description: AutoCAD Mechanical 2000|Company: Autodesk"
 90
        0
280
     0
281
     0
  0
CLASS
  1
ACMWELDSTANDARDANSI
  2
AcmWeldingStdANSI
  3
"Amdt_StdImp|Product Description: AutoCAD Mechanical 2000|Company: Autodesk"
 90
        0
280
     0
281
     0
  0
CLASS
  1
ACMIDSTANDARDANSI
  2
AcmIdStdANSI
  3
"Amdt_StdImp|Product Description: AutoCAD Mechanical 2000|Company: Autodesk"
 90
        0
280
     0
281
     0
  0
CLASS
  1
ACMDATUMSTANDARDANSI
  2
AcmDatumStdANSI
  3
"Amdt_StdImp|Product Description: AutoCAD Mechanical 2000|Company: Autodesk"
 90
        0
280
     0
281
     0
  0
CLASS
  1
ACMBOMSTANDARDANSI
  2
AcmBOMStdANSI
  3
"Amdt_StdImp|Product Description: AutoCAD Mechanical 2000|Company: Autodesk"
 90
        0
280
     0
281
     0
  0
CLASS
  1
ACMDETAILSTANDARDANSI
  2
AmdtDetailSymStdANSI
  3
"Amdt_StdImp|Product Description: AutoCAD Mechanical 2000|Company: Autodesk"
 90
        0
280
     0
281
     0
  0
CLASS
  1
ACMSECTIONSTANDARDANSI
  2
AmdtSectionSymStdANSI
  3
"Amdt_StdImp|Product Description: AutoCAD Mechanical 2000|Company: Autodesk"
 90
        0
280
     0
281
     0
  0
CLASS
  1
ACMCENTERLINESTANDARDANSI
  2
AmdtCenterLineStdANSI
  3
"Amdt_StdImp|Product Description: AutoCAD Mechanical 2000|Company: Autodesk"
 90
        0
280
     0
281
     0
  0
CLASS
  1
ACMNOTESTANDARDANSI
  2
AmdtNoteStdANSI
  3
"Amdt_StdImp|Product Description: AutoCAD Mechanical 2000|Company: Autodesk"
 90
        0
280
     0
281
     0
  0
CLASS
  1
ACAMGLAYSTD
  2
AcAmgLayStd
  3
"AcAmgLayStd|Product Description: AutoCAD Mechanical 2000|Company: Autodesk"
 90
        0
280
     0
281
     0
  0
CLASS
  1
ACAMGDIMSTD
  2
AcAmgDimStd
  3
"AcAmgDimStd|Product Description: AutoCAD Mechanical 2000|Company: Autodesk"
 90
        0
280
     0
281
     0
  0
CLASS
  1
ACAMGHOLECHARTSTDANSI
  2
AcAmgHoleChartStdANSI
  3
ACMSYMBB_MODULE_NAME
 90
        0
280
     0
281
     0
  0
CLASS
  1
ACAMGTITLESTD
  2
AcAmgTitleStd
  3
"TITLEAPP"
 90
        0
280
     0
281
     0
  0
CLASS
  1
ACAMGFILTERDAT
  2
AcAmgFilterDat
  3
"AcadM|Product Description: AutoCAD Mechanical 2000|Company: Autodesk"
 90
        0
280
     0
281
     0
  0
CLASS
  1
LAYER_INDEX
  2
AcDbLayerIndex
  3
AutoCAD 2000
 90
        0
280
     0
281
     0
  0
CLASS
  1
IDBUFFER
  2
AcDbIdBuffer
  3
AutoCAD 2000
 90
        0
280
     0
281
     0
  0
CLASS
  1
DICTIONARYVAR
  2
AcDbDictionaryVar
  3
AutoCAD 2000
 90
        0
280
     0
281
     0
  0
ENDSEC
  0
SECTION
  2
TABLES
  0
TABLE
  2
VPORT
  5
205
330
0
100
AcDbSymbolTable
 70
     3
  0
VPORT
  5
2D9
330
205
100
AcDbSymbolTableRecord
100
AcDbViewportTableRecord
  2
*Active
 70
     0
 10
0.0
 20
0.0
 11
1.0
 21
1.0
 12
64.01019227302459
 22
127.5263104719171
 13
0.0
 23
0.0
 14
1.0
 24
1.0
 15
0.0
 25
0.0
 16
0.0
 26
0.0
 36
1.0
 17
0.0
 27
0.0
 37
0.0
 40
881.462091503141
 41
1.252577319587628
 42
50.0
 43
0.0
 44
0.0
 50
0.0
 51
0.0
 71
     0
 72
   100
 73
     1
 74
     1
 75
     0
 76
     0
 77
     0
 78
     0
281
     0
 65
     1
110
0.0
120
0.0
130
0.0
111
1.0
121
0.0
131
0.0
112
0.0
122
1.0
132
0.0
 79
     0
146
0.0
  0
ENDTAB
  0
TABLE
  2
LTYPE
  5
202
330
0
100
AcDbSymbolTable
 70
    19
  0
LTYPE
  5
210
330
202
100
AcDbSymbolTableRecord
100
AcDbLinetypeTableRecord
  2
ByBlock
 70
     0
  3

 72
    65
 73
     0
 40
0.0
  0
LTYPE
  5
211
330
202
100
AcDbSymbolTableRecord
100
AcDbLinetypeTableRecord
  2
ByLayer
 70
     0
  3

 72
    65
 73
     0
 40
0.0
  0
LTYPE
  5
212
330
202
100
AcDbSymbolTableRecord
100
AcDbLinetypeTableRecord
  2
CONTINUOUS
 70
     0
  3
Solid line
 72
    65
 73
     0
 40
0.0
  0
LTYPE
  5
220
330
202
100
AcDbSymbolTableRecord
100
AcDbLinetypeTableRecord
  2
DASHED
 70
     0
  3
__ __ __ __ __ __ __ __ __ __ __ __ __ __ __
 72
    65
 73
     2
 40
3.5
 49
2.0
 74
     0
 49
-1.5
 74
     0
  0
LTYPE
  5
221
330
202
100
AcDbSymbolTableRecord
100
AcDbLinetypeTableRecord
  2
CENTER
 70
     0
  3
____ _ ____ _ ____ _ ____ _ ____ _ ____ _ ____
 72
    65
 73
     4
 40
17.5
 49
13.0
 74
     0
 49
-1.5
 74
     0
 49
1.5
 74
     0
 49
-1.5
 74
     0
  0
LTYPE
  5
222
330
202
100
AcDbSymbolTableRecord
100
AcDbLinetypeTableRecord
  2
PHANTOM
 70
     0
  3
_____ _ _ _____ _ _ _____ _ _ _____ _ _ ____  
 72
    65
 73
     6
 40
15.5
 49
8.0
 74
     0
 49
-1.5
 74
     0
 49
1.5
 74
     0
 49
-1.5
 74
     0
 49
1.5
 74
     0
 49
-1.5
 74
     0
  0
LTYPE
  5
223
330
202
100
AcDbSymbolTableRecord
100
AcDbLinetypeTableRecord
  2
DOT
 70
     0
  3
. . . . . . . . . . . . . . . . . . . . . . . .
 72
    65
 73
     2
 40
0.25
 49
0.0
 74
     0
 49
-0.25
 74
     0
  0
LTYPE
  5
224
330
202
100
AcDbSymbolTableRecord
100
AcDbLinetypeTableRecord
  2
HIDDEN
 70
     0
  3
__ __ __ __ __ __ __ __ __ __ __ __ __ __ __
 72
    65
 73
     2
 40
3.5
 49
2.0
 74
     0
 49
-1.5
 74
     0
  0
LTYPE
  5
289
330
202
100
AcDbSymbolTableRecord
100
AcDbLinetypeTableRecord
  2
AM_ISO02W050
 70
     0
  3
__ __ __ __ __ __ __ __ __ __ __ __ __ __ __
 72
    65
 73
     2
 40
7.5
 49
6.0
 74
     0
 49
-1.5
 74
     0
  0
LTYPE
  5
28A
330
202
100
AcDbSymbolTableRecord
100
AcDbLinetypeTableRecord
  2
AM_ISO08W050
 70
     0
  3
____ . ____ . ____ . ____ . ____ . ____ . ____
 72
    65
 73
     4
 40
18.0
 49
12.0
 74
     0
 49
-1.5
 74
     0
 49
3.0
 74
     0
 49
-1.5
 74
     0
  0
LTYPE
  5
28B
330
202
100
AcDbSymbolTableRecord
100
AcDbLinetypeTableRecord
  2
AM_ISO09W050
 70
     0
  3
_____ . . _____ . . _____ . . ____ .. ____
 72
    65
 73
     6
 40
22.5
 49
12.0
 74
     0
 49
-1.5
 74
     0
 49
3.0
 74
     0
 49
-1.5
 74
     0
 49
3.0
 74
     0
 49
-1.5
 74
     0
  0
LTYPE
  5
28C
330
202
100
AcDbSymbolTableRecord
100
AcDbLinetypeTableRecord
  2
Amconstr
 70
     0
  3
_______________________
 72
    65
 73
     2
 40
9999.0
 49
9999.0
 74
     0
 49
0.0
 74
     0
  0
LTYPE
  5
28D
330
202
100
AcDbSymbolTableRecord
100
AcDbLinetypeTableRecord
  2
AM_ISO08W050x2
 70
     0
  3
__ . __ . __ . __ . __ . __
 72
    65
 73
     4
 40
9.0
 49
6.0
 74
     0
 49
-0.75
 74
     0
 49
1.5
 74
     0
 49
-0.75
 74
     0
  0
LTYPE
  5
28E
330
202
100
AcDbSymbolTableRecord
100
AcDbLinetypeTableRecord
  2
AM_ISO02W050x2
 70
     0
  3
 _ _ _ _ _ _ _ _ _ _ _ _
 72
    65
 73
     2
 40
3.75
 49
3.0
 74
     0
 49
-0.75
 74
     0
  0
LTYPE
  5
291
330
202
100
AcDbSymbolTableRecord
100
AcDbLinetypeTableRecord
  2
Amzigzag
 70
     0
  3
/\/-/\/-/\/-/\/-/\/-/\/
 72
    65
 73
     2
 40
11.00009999999999
 49
0.0001
 74
     4
 75
   135
340
290
 46
0.04
 50
0.0
 44
0.0
 45
0.0
 49
-11.0
 74
     0
  0
LTYPE
  5
292
330
202
100
AcDbSymbolTableRecord
100
AcDbLinetypeTableRecord
  2
PHANTOM2
 70
     0
  3
Phantom (.5x) ___ _ _ ___ _ _ ___ _ _ ___ _ _
 72
    65
 73
     6
 40
1.25
 49
0.625
 74
     0
 49
-0.125
 74
     0
 49
0.125
 74
     0
 49
-0.125
 74
     0
 49
0.125
 74
     0
 49
-0.125
 74
     0
  0
LTYPE
  5
293
330
202
100
AcDbSymbolTableRecord
100
AcDbLinetypeTableRecord
  2
CENTER2
 70
     0
  3
Center (.5x) ___ _ ___ _ ___ _ ___ _ ___ _ ___
 72
    65
 73
     4
 40
1.125
 49
0.75
 74
     0
 49
-0.125
 74
     0
 49
0.125
 74
     0
 49
-0.125
 74
     0
  0
LTYPE
  5
294
330
202
100
AcDbSymbolTableRecord
100
AcDbLinetypeTableRecord
  2
HIDDEN2
 70
     0
  3
Hidden (.5x) _ _ _ _ _ _ _ _ _ _ _ _ _ _ _ _ _
 72
    65
 73
     2
 40
0.1875
 49
0.125
 74
     0
 49
-0.0625
 74
     0
  0
LTYPE
  5
295
330
202
100
AcDbSymbolTableRecord
100
AcDbLinetypeTableRecord
  2
Amzigzag2
 70
     0
  3
/\/-/\/-/\/-/\/-/\/-/\/
 72
    65
 73
     2
 40
0.4401
 49
0.0001
 74
     4
 75
   135
340
290
 46
0.0016
 50
0.0
 44
0.0
 45
0.0
 49
-0.4400000000000001
 74
     0
  0
LTYPE
  5
2A2
330
202
100
AcDbSymbolTableRecord
100
AcDbLinetypeTableRecord
  2
ACANSTGB
 70
     0
  3
__ . . __ . .
 72
    65
 73
     6
 40
0.35433070866
 49
0.15748031496
 74
     0
 49
-0.03937007874
 74
     0
 49
0.03937007874
 74
     0
 49
-0.03937007874
 74
     0
 49
0.03937007874
 74
     0
 49
-0.03937007874
 74
     0
  0
LTYPE
  5
2A3
330
202
100
AcDbSymbolTableRecord
100
AcDbLinetypeTableRecord
  2
ACANSTGL
 70
     0
  3
_ _ _ _ _
 72
    65
 73
     2
 40
0.11811023622
 49
0.07874015748
 74
     0
 49
-0.03937007874
 74
     0
  0
ENDTAB
  0
TABLE
  2
LAYER
  5
1FF
330
0
100
AcDbSymbolTable
 70
     4
  0
LAYER
  5
20D
330
1FF
100
AcDbSymbolTableRecord
100
AcDbLayerTableRecord
  2
0
 70
     0
 62
     7
  6
CONTINUOUS
370
    -3
390
20C
  0
LAYER
  5
225
330
1FF
100
AcDbSymbolTableRecord
100
AcDbLayerTableRecord
  2
1
 70
     0
 62
     7
  6
CONTINUOUS
370
    -3
390
20C
  0
LAYER
  5
226
330
1FF
100
AcDbSymbolTableRecord
100
AcDbLayerTableRecord
  2
2
 70
     0
 62
     7
  6
CONTINUOUS
370
    -3
390
20C
  0
LAYER
  5
227
330
1FF
100
AcDbSymbolTableRecord
100
AcDbLayerTableRecord
  2
DEFPOINTS
 70
     0
 62
     7
  6
CONTINUOUS
290
     0
370
    -3
390
20C
  0
ENDTAB
  0
TABLE
  2
STYLE
  5
200
330
0
100
AcDbSymbolTable
 70
     4
  0
STYLE
  5
20E
330
200
100
AcDbSymbolTableRecord
100
AcDbTextStyleTableRecord
  2
STANDARD
 70
     0
 40
0.0
 41
1.0
 50
0.0
 71
     0
 42
0.2
  3
txt
  4
BIGFONT
  0
STYLE
  5
290
330
200
100
AcDbSymbolTableRecord
100
AcDbTextStyleTableRecord
  2

 70
     1
 40
0.0
 41
1.0
 50
0.0
 71
     0
 42
0.2
  3
ltypeshp.shx
  4

  0
STYLE
  5
296
330
200
100
AcDbSymbolTableRecord
100
AcDbTextStyleTableRecord
  2
ACANSTS
 70
     0
 40
1.0
 41
1.0
 50
0.0
 71
     0
 42
0.2
  3
romans.shx
  4
extfont.shx
  0
STYLE
  5
2A1
330
200
100
AcDbSymbolTableRecord
100
AcDbTextStyleTableRecord
  2
ACANSGDT
 70
     0
 40
0.0
 41
1.0
 50
0.0
 71
     0
 42
0.2
  3
amgdtans.shx
  4

  0
ENDTAB
  0
TABLE
  2
VIEW
  5
203
330
0
100
AcDbSymbolTable
 70
     0
  0
ENDTAB
  0
TABLE
  2
UCS
  5
204
330
0
100
AcDbSymbolTable
 70
     0
  0
ENDTAB
  0
TABLE
  2
APPID
  5
206
330
0
100
AcDbSymbolTable
 70
     4
  0
APPID
  5
20F
330
206
100
AcDbSymbolTableRecord
100
AcDbRegAppTableRecord
  2
ACAD
 70
     0
  0
APPID
  5
26B
330
206
100
AcDbSymbolTableRecord
100
AcDbRegAppTableRecord
  2
MCAD_NO_VIS
 70
     0
  0
APPID
  5
26C
330
206
100
AcDbSymbolTableRecord
100
AcDbRegAppTableRecord
  2
ACAD_TEMP_GRAPHIC
 70
     0
  0
APPID
  5
27D
330
206
100
AcDbSymbolTableRecord
100
AcDbRegAppTableRecord
  2
ACATTRIBSERVICES
 70
     0
  0
ENDTAB
  0
TABLE
  2
DIMSTYLE
  5
207
330
0
100
AcDbSymbolTable
 70
     7
100
AcDbDimStyleTable
 71
     0
  0
DIMSTYLE
105
228
102
{ACAD_REACTORS
330
1DA
330
1DB
330
1DC
330
1DD
330
1DE
330
1DF
330
1E0
330
1E1
330
1E2
330
1E3
330
1E4
330
1E5
330
1E6
330
1E8
330
1E9
330
1EA
330
1EB
330
1EC
330
1ED
330
1EE
330
1EF
102
}
330
207
100
AcDbSymbolTableRecord
100
AcDbDimStyleTableRecord
  2
DIMSTYLE
 70
     0
 41
1.0
 42
2.54
 44
2.54
 73
     0
 74
     0
140
3.2
147
1.6
173
     1
279
     2
340
20E
  0
DIMSTYLE
105
2A8
330
207
100
AcDbSymbolTableRecord
100
AcDbDimStyleTableRecord
  2
AM_ANSI
 70
     0
  4
mm
 41
0.1
 42
0.05
 43
0.5
 44
0.1
 47
0.1
 48
0.1
 78
     7
 79
     2
140
0.12
141
0.0
146
0.71
147
0.06
176
   256
177
   256
178
     2
274
     4
284
     7
340
20E
371
    -1
372
    -1
  0
DIMSTYLE
105
2A9
330
207
100
AcDbSymbolTableRecord
100
AcDbDimStyleTableRecord
  2
AM_ANSI$3
 70
     0
  4
mm
 41
0.1
 42
0.05
 43
0.5
 44
0.1
 47
0.1
 48
0.1
 78
     7
 79
     2
140
0.12
141
0.0
146
0.71
147
0.06
176
   256
177
   256
178
     2
274
     4
284
     7
288
     1
289
     0
340
20E
371
    -1
372
    -1
  0
DIMSTYLE
105
2AA
330
207
100
AcDbSymbolTableRecord
100
AcDbDimStyleTableRecord
  2
AM_ANSI$4
 70
     0
  4
mm
 41
0.1
 42
0.05
 43
0.5
 44
0.1
 47
0.1
 48
0.1
 78
     7
 79
     2
140
0.12
141
0.0
146
0.71
147
0.06
176
   256
177
   256
178
     2
274
     4
284
     7
288
     1
289
     0
340
20E
371
    -1
372
    -1
  0
DIMSTYLE
105
2AB
330
207
100
AcDbSymbolTableRecord
100
AcDbDimStyleTableRecord
  2
AM_ANSI$7
 70
     0
  4
mm
 41
0.1
 42
0.05
 43
0.5
 44
0.1
 47
0.1
 48
0.1
 78
     7
 79
     2
140
0.24
141
0.0
146
0.71
147
0.06
176
   256
177
   256
178
     2
274
     4
284
     7
340
20E
371
    -1
372
    -1
  0
DIMSTYLE
105
2AC
330
207
100
AcDbSymbolTableRecord
100
AcDbDimStyleTableRecord
  2
AM_ANSI$SF
 70
     0
  4
mm
 41
0.1
 42
0.05
 43
0.5
 44
0.1
 47
0.1
 48
0.1
 75
     1
 76
     1
 78
     7
 79
     2
140
0.12
141
0.0
146
0.71
147
0.06
176
   256
177
   256
178
     2
274
     4
284
     7
340
20E
371
    -1
372
    -1
  0
DIMSTYLE
105
2B1
330
207
100
AcDbSymbolTableRecord
100
AcDbDimStyleTableRecord
  2
AM_ANSI$SH
 70
     0
  4
mm
 41
0.1
 42
0.05
 43
0.5
 44
0.1
 47
0.1
 48
0.1
 75
     1
 76
     1
 78
     7
 79
     2
140
0.12
141
0.0
146
0.71
147
0.06
173
     1
176
   256
177
   256
178
     2
274
     4
284
     7
340
20E
343
2AD
371
    -1
372
    -1
  0
ENDTAB
  0
TABLE
  2
BLOCK_RECORD
  5
1FE
330
0
100
AcDbSymbolTable
 70
    30
  0
BLOCK_RECORD
  5
21B
102
{ACAD_XDICTIONARY
360
2BD
102
}
330
1FE
100
AcDbSymbolTableRecord
100
AcDbBlockTableRecord
  2
*Model_Space
340
21E
  0
BLOCK_RECORD
  5
217
330
1FE
100
AcDbSymbolTableRecord
100
AcDbBlockTableRecord
  2
*Paper_Space
340
21A
  0
BLOCK_RECORD
  5
22B
330
1FE
100
AcDbSymbolTableRecord
100
AcDbBlockTableRecord
  2
$MODEL_SPACE
340
0
  0
BLOCK_RECORD
  5
22D
330
1FE
100
AcDbSymbolTableRecord
100
AcDbBlockTableRecord
  2
$PAPER_SPACE
340
0
  0
BLOCK_RECORD
  5
22F
330
1FE
100
AcDbSymbolTableRecord
100
AcDbBlockTableRecord
  2
_DOT
340
0
102
{BLKREFS
331
39
331
3A
331
46
331
47
331
52
331
53
331
5C
331
5D
331
68
331
69
331
74
331
75
331
7F
331
80
331
8B
331
8C
331
96
331
97
331
A1
331
A2
331
AE
331
AF
331
B9
331
BA
331
C3
331
C4
331
D0
331
D1
331
DC
331
DD
331
E8
331
E9
331
F4
331
F5
331
100
331
101
331
10C
331
10D
331
118
331
119
331
124
331
125
102
}
  0
BLOCK_RECORD
  5
231
330
1FE
100
AcDbSymbolTableRecord
100
AcDbBlockTableRecord
  2
*D3
340
0
  0
BLOCK_RECORD
  5
233
330
1FE
100
AcDbSymbolTableRecord
100
AcDbBlockTableRecord
  2
*D4
340
0
  0
BLOCK_RECORD
  5
235
330
1FE
100
AcDbSymbolTableRecord
100
AcDbBlockTableRecord
  2
*D5
340
0
  0
BLOCK_RECORD
  5
237
330
1FE
100
AcDbSymbolTableRecord
100
AcDbBlockTableRecord
  2
*D6
340
0
  0
BLOCK_RECORD
  5
239
330
1FE
100
AcDbSymbolTableRecord
100
AcDbBlockTableRecord
  2
*D7
340
0
  0
BLOCK_RECORD
  5
23B
330
1FE
100
AcDbSymbolTableRecord
100
AcDbBlockTableRecord
  2
*D8
340
0
  0
BLOCK_RECORD
  5
23D
330
1FE
100
AcDbSymbolTableRecord
100
AcDbBlockTableRecord
  2
*D9
340
0
  0
BLOCK_RECORD
  5
23F
330
1FE
100
AcDbSymbolTableRecord
100
AcDbBlockTableRecord
  2
*D10
340
0
  0
BLOCK_RECORD
  5
241
330
1FE
100
AcDbSymbolTableRecord
100
AcDbBlockTableRecord
  2
*D11
340
0
  0
BLOCK_RECORD
  5
243
330
1FE
100
AcDbSymbolTableRecord
100
AcDbBlockTableRecord
  2
*D12
340
0
  0
BLOCK_RECORD
  5
245
330
1FE
100
AcDbSymbolTableRecord
100
AcDbBlockTableRecord
  2
*D13
340
0
  0
BLOCK_RECORD
  5
247
330
1FE
100
AcDbSymbolTableRecord
100
AcDbBlockTableRecord
  2
*D14
340
0
  0
BLOCK_RECORD
  5
249
330
1FE
100
AcDbSymbolTableRecord
100
AcDbBlockTableRecord
  2
*D15
340
0
  0
BLOCK_RECORD
  5
24B
330
1FE
100
AcDbSymbolTableRecord
100
AcDbBlockTableRecord
  2
*D16
340
0
  0
BLOCK_RECORD
  5
24D
330
1FE
100
AcDbSymbolTableRecord
100
AcDbBlockTableRecord
  2
*D17
340
0
  0
BLOCK_RECORD
  5
24F
330
1FE
100
AcDbSymbolTableRecord
100
AcDbBlockTableRecord
  2
*D18
340
0
  0
BLOCK_RECORD
  5
251
330
1FE
100
AcDbSymbolTableRecord
100
AcDbBlockTableRecord
  2
*D19
340
0
  0
BLOCK_RECORD
  5
253
330
1FE
100
AcDbSymbolTableRecord
100
AcDbBlockTableRecord
  2
*D20
340
0
  0
BLOCK_RECORD
  5
255
330
1FE
100
AcDbSymbolTableRecord
100
AcDbBlockTableRecord
  2
*D21
340
0
  0
BLOCK_RECORD
  5
257
330
1FE
100
AcDbSymbolTableRecord
100
AcDbBlockTableRecord
  2
*D22
340
0
  0
BLOCK_RECORD
  5
259
330
1FE
100
AcDbSymbolTableRecord
100
AcDbBlockTableRecord
  2
*D23
340
0
  0
BLOCK_RECORD
  5
25B
330
1FE
100
AcDbSymbolTableRecord
100
AcDbBlockTableRecord
  2
KOZU0001
340
0
102
{BLKREFS
331
1E7
102
}
  0
BLOCK_RECORD
  5
25D
330
1FE
100
AcDbSymbolTableRecord
100
AcDbBlockTableRecord
  2
KOZU0002
340
0
102
{BLKREFS
331
1F0
102
}
  0
BLOCK_RECORD
  5
25F
330
1FE
100
AcDbSymbolTableRecord
100
AcDbBlockTableRecord
  2
KOZU0003
340
0
102
{BLKREFS
331
1D7
102
}
  0
BLOCK_RECORD
  5
261
330
1FE
100
AcDbSymbolTableRecord
100
AcDbBlockTableRecord
  2
KOZU0004
340
0
102
{BLKREFS
331
1D8
102
}
  0
BLOCK_RECORD
  5
263
330
1FE
100
AcDbSymbolTableRecord
100
AcDbBlockTableRecord
  2
KOZU0005
340
0
102
{BLKREFS
331
1D9
102
}
  0
BLOCK_RECORD
  5
2AD
330
1FE
100
AcDbSymbolTableRecord
100
AcDbBlockTableRecord
  2
GENAXEH
340
0
  0
ENDTAB
  0
ENDSEC
  0
SECTION
  2
BLOCKS
  0
BLOCK
  5
21C
330
21B
100
AcDbEntity
  8
0
100
AcDbBlockBegin
  2
*Model_Space
 70
     0
 10
0.0
 20
0.0
 30
0.0
  3
*Model_Space
  1

  0
ENDBLK
  5
21D
330
21B
100
AcDbEntity
  8
0
100
AcDbBlockEnd
  0
BLOCK
  5
218
330
217
100
AcDbEntity
 67
     1
  8
0
100
AcDbBlockBegin
  2
*Paper_Space
 70
     0
 10
0.0
 20
0.0
 30
0.0
  3
*Paper_Space
  1

  0
ENDBLK
  5
219
330
217
100
AcDbEntity
 67
     1
  8
0
100
AcDbBlockEnd
  0
BLOCK
  5
22C
330
22B
100
AcDbEntity
  8
0
100
AcDbBlockBegin
  2
$MODEL_SPACE
 70
     0
 10
0.0
 20
0.0
 30
0.0
  3
$MODEL_SPACE
  1

  0
ENDBLK
  5
20
330
22B
100
AcDbEntity
  8
0
100
AcDbBlockEnd
  0
BLOCK
  5
22E
330
22D
100
AcDbEntity
  8
0
100
AcDbBlockBegin
  2
$PAPER_SPACE
 70
     0
 10
0.0
 20
0.0
 30
0.0
  3
$PAPER_SPACE
  1

  0
ENDBLK
  5
1C
330
22D
100
AcDbEntity
  8
0
100
AcDbBlockEnd
  0
BLOCK
  5
230
330
22F
100
AcDbEntity
  8
0
100
AcDbBlockBegin
  2
_DOT
 70
     0
 10
0.0
 20
0.0
 30
0.0
  3
_DOT
  1

  0
POLYLINE
  5
30
330
22F
100
AcDbEntity
  8
0
  6
ByBlock
 62
     0
100
AcDb2dPolyline
 66
     1
 10
0.0
 20
0.0
 30
0.0
 70
     1
 40
0.4000000100000002
 41
0.4000000100000002
  0
VERTEX
  5
1FB
330
30
100
AcDbEntity
  8
0
  6
ByBlock
 62
     0
100
AcDbVertex
100
AcDb2dVertex
 10
-0.2
 20
0.0
 30
0.0
 42
1.0
  0
VERTEX
  5
1FC
330
30
100
AcDbEntity
  8
0
  6
ByBlock
 62
     0
100
AcDbVertex
100
AcDb2dVertex
 10
0.2
 20
0.0
 30
0.0
 42
1.0
  0
SEQEND
  5
1FD
330
30
100
AcDbEntity
  8
0
  6
ByBlock
 62
     0
  0
LINE
  5
34
330
22F
100
AcDbEntity
  8
0
  6
ByBlock
 62
     0
100
AcDbLine
 10
-0.4000000100000002
 20
0.0
 30
0.0
 11
-3.0
 21
0.0
 31
0.0
  0
ENDBLK
  5
35
330
22F
100
AcDbEntity
  8
0
100
AcDbBlockEnd
  0
BLOCK
  5
232
330
231
100
AcDbEntity
  8
0
100
AcDbBlockBegin
  2
*D3
 70
     1
 10
0.0
 20
0.0
 30
0.0
  3
*D3
  1

  0
LINE
  5
38
330
231
100
AcDbEntity
  8
0
  6
Continuous
 62
     7
100
AcDbLine
 10
-1.5304565
 20
69.517761
 30
0.0
 11
18.46954299999999
 21
69.517761
 31
0.0
  0
INSERT
  5
39
330
231
100
AcDbEntity
  8
0
  6
Continuous
 62
     7
100
AcDbBlockReference
  2
_DOT
 10
-1.5304565
 20
69.517761
 30
0.0
 50
180.0
  0
INSERT
  5
3A
330
231
100
AcDbEntity
  8
0
  6
Continuous
 62
     7
100
AcDbBlockReference
  2
_DOT
 10
18.46954299999999
 20
69.517761
 30
0.0
  0
LINE
  5
3B
330
231
100
AcDbEntity
  8
0
  6
Continuous
 62
     7
100
AcDbLine
 10
-1.5304565
 20
52.057765
 30
0.0
 11
-1.5304565
 21
70.71776599999998
 31
0.0
  0
LINE
  5
3C
330
231
100
AcDbEntity
  8
0
  6
Continuous
 62
     7
100
AcDbLine
 10
18.46954299999999
 20
52.057765
 30
0.0
 11
18.46954299999999
 21
70.71776599999998
 31
0.0
  0
TEXT
  5
3D
330
231
100
AcDbEntity
  8
0
  6
Continuous
 62
     7
100
AcDbText
 10
5.898043499999999
 20
70.26776099999999
 30
0.0
 40
3.0
  1
20
 41
1.1020714
100
AcDbText
  0
POINT
  5
3E
330
231
100
AcDbEntity
  8
DEFPOINTS
  6
Continuous
 62
     7
100
AcDbPoint
 10
-1.5304565
 20
49.51776500000001
 30
0.0
  0
POINT
  5
3F
330
231
100
AcDbEntity
  8
DEFPOINTS
  6
Continuous
 62
     7
100
AcDbPoint
 10
18.46954299999999
 20
49.51776500000001
 30
0.0
  0
POINT
  5
40
330
231
100
AcDbEntity
  8
DEFPOINTS
  6
Continuous
 62
     7
100
AcDbPoint
 10
18.46954299999999
 20
69.517761
 30
0.0
  0
ENDBLK
  5
41
330
231
100
AcDbEntity
  8
0
100
AcDbBlockEnd
  0
BLOCK
  5
234
330
233
100
AcDbEntity
  8
0
100
AcDbBlockBegin
  2
*D4
 70
     1
 10
0.0
 20
0.0
 30
0.0
  3
*D4
  1

  0
LINE
  5
44
330
233
100
AcDbEntity
  8
0
  6
Continuous
 62
     7
100
AcDbLine
 10
-1.5304565
 20
59.51776500000001
 30
0.0
 11
-12.88433799999999
 21
59.51776500000001
 31
0.0
  0
LINE
  5
45
330
233
100
AcDbEntity
  8
0
  6
Continuous
 62
     7
100
AcDbLine
 10
-1.5304565
 20
59.51776500000001
 30
0.0
 11
2.219543499999999
 21
59.51776500000001
 31
0.0
  0
INSERT
  5
46
330
233
100
AcDbEntity
  8
0
  6
Continuous
 62
     7
100
AcDbBlockReference
  2
_DOT
 10
-1.5304565
 20
59.51776500000001
 30
0.0
 50
180.0
  0
INSERT
  5
47
330
233
100
AcDbEntity
  8
0
  6
Continuous
 62
     7
100
AcDbBlockReference
  2
_DOT
 10
2.219543499999999
 20
59.51776500000001
 30
0.0
  0
LINE
  5
48
330
233
100
AcDbEntity
  8
0
  6
Continuous
 62
     7
100
AcDbLine
 10
2.219543499999999
 20
52.057765
 30
0.0
 11
2.219543499999999
 21
60.71776599999999
 31
0.0
  0
TEXT
  5
49
330
233
100
AcDbEntity
  8
0
  6
Continuous
 62
     7
100
AcDbText
 10
-13.184339
 20
60.267765
 30
0.0
 40
3.0
  1
3.75
 41
1.2381111
100
AcDbText
  0
POINT
  5
4A
330
233
100
AcDbEntity
  8
DEFPOINTS
  6
Continuous
 62
     7
100
AcDbPoint
 10
-1.5304565
 20
49.51776500000001
 30
0.0
  0
POINT
  5
4B
330
233
100
AcDbEntity
  8
DEFPOINTS
  6
Continuous
 62
     7
100
AcDbPoint
 10
2.219543499999999
 20
49.51776500000001
 30
0.0
  0
POINT
  5
4C
330
233
100
AcDbEntity
  8
DEFPOINTS
  6
Continuous
 62
     7
100
AcDbPoint
 10
2.219543499999999
 20
59.51776500000001
 30
0.0
  0
ENDBLK
  5
4D
330
233
100
AcDbEntity
  8
0
100
AcDbBlockEnd
  0
BLOCK
  5
236
330
235
100
AcDbEntity
  8
0
100
AcDbBlockBegin
  2
*D5
 70
     1
 10
0.0
 20
0.0
 30
0.0
  3
*D5
  1

  0
LINE
  5
50
330
235
100
AcDbEntity
  8
0
  6
Continuous
 62
     7
100
AcDbLine
 10
18.46954299999999
 20
59.51776500000001
 30
0.0
 11
29.564362
 21
59.51776500000001
 31
0.0
  0
LINE
  5
51
330
235
100
AcDbEntity
  8
0
  6
Continuous
 62
     7
100
AcDbLine
 10
14.719543
 20
59.51776500000001
 30
0.0
 11
18.46954299999999
 21
59.51776500000001
 31
0.0
  0
INSERT
  5
52
330
235
100
AcDbEntity
  8
0
  6
Continuous
 62
     7
100
AcDbBlockReference
  2
_DOT
 10
14.719543
 20
59.51776500000001
 30
0.0
 50
180.0
  0
INSERT
  5
53
330
235
100
AcDbEntity
  8
0
  6
Continuous
 62
     7
100
AcDbBlockReference
  2
_DOT
 10
18.46954299999999
 20
59.51776500000001
 30
0.0
  0
TEXT
  5
54
330
235
100
AcDbEntity
  8
0
  6
Continuous
 62
     7
100
AcDbText
 10
18.72136199999999
 20
60.267765
 30
0.0
 40
3.0
  1
3.75
 41
1.2381111
100
AcDbText
  0
POINT
  5
55
330
235
100
AcDbEntity
  8
DEFPOINTS
  6
Continuous
 62
     7
100
AcDbPoint
 10
14.719543
 20
39.51776499999999
 30
0.0
  0
POINT
  5
56
330
235
100
AcDbEntity
  8
DEFPOINTS
  6
Continuous
 62
     7
100
AcDbPoint
 10
18.46954299999999
 20
49.51776500000001
 30
0.0
  0
POINT
  5
57
330
235
100
AcDbEntity
  8
DEFPOINTS
  6
Continuous
 62
     7
100
AcDbPoint
 10
18.46954299999999
 20
59.51776500000001
 30
0.0
  0
ENDBLK
  5
58
330
235
100
AcDbEntity
  8
0
100
AcDbBlockEnd
  0
BLOCK
  5
238
330
237
100
AcDbEntity
  8
0
100
AcDbBlockBegin
  2
*D6
 70
     1
 10
0.0
 20
0.0
 30
0.0
  3
*D6
  1

  0
LINE
  5
5B
330
237
100
AcDbEntity
  8
0
  6
Continuous
 62
     7
100
AcDbLine
 10
1.719543499999999
 20
128.8532999999999
 30
0.0
 11
15.21954299999998
 21
128.8532999999999
 31
0.0
  0
INSERT
  5
5C
330
237
100
AcDbEntity
  8
0
  6
Continuous
 62
     7
100
AcDbBlockReference
  2
_DOT
 10
1.719543499999999
 20
128.8532999999999
 30
0.0
 50
180.0
  0
INSERT
  5
5D
330
237
100
AcDbEntity
  8
0
  6
Continuous
 62
     7
100
AcDbBlockReference
  2
_DOT
 10
15.21954299999998
 20
128.8532999999999
 30
0.0
  0
LINE
  5
5E
330
237
100
AcDbEntity
  8
0
  6
Continuous
 62
     7
100
AcDbLine
 10
1.719543499999999
 20
119.17108
 30
0.0
 11
1.719543499999999
 21
130.0533
 31
0.0
  0
LINE
  5
5F
330
237
100
AcDbEntity
  8
0
  6
Continuous
 62
     7
100
AcDbLine
 10
15.21954299999998
 20
119.17108
 30
0.0
 11
15.21954299999998
 21
130.0533
 31
0.0
  0
TEXT
  5
60
330
237
100
AcDbEntity
  8
0
  6
Continuous
 62
     7
100
AcDbText
 10
2.898043499999999
 20
129.6032999999999
 30
0.0
 40
3.0
  1
13.5
 41
1.392875
100
AcDbText
  0
POINT
  5
61
330
237
100
AcDbEntity
  8
DEFPOINTS
  6
Continuous
 62
     7
100
AcDbPoint
 10
1.719543499999999
 20
116.63108
 30
0.0
  0
POINT
  5
62
330
237
100
AcDbEntity
  8
DEFPOINTS
  6
Continuous
 62
     7
100
AcDbPoint
 10
15.21954299999998
 20
116.63108
 30
0.0
  0
POINT
  5
63
330
237
100
AcDbEntity
  8
DEFPOINTS
  6
Continuous
 62
     7
100
AcDbPoint
 10
15.21954299999998
 20
128.8532999999999
 30
0.0
  0
ENDBLK
  5
64
330
237
100
AcDbEntity
  8
0
100
AcDbBlockEnd
  0
BLOCK
  5
23A
330
239
100
AcDbEntity
  8
0
100
AcDbBlockBegin
  2
*D7
 70
     1
 10
0.0
 20
0.0
 30
0.0
  3
*D7
  1

  0
LINE
  5
67
330
239
100
AcDbEntity
  8
0
  6
Continuous
 62
     7
100
AcDbLine
 10
53.469543
 20
49.51776500000001
 30
0.0
 11
53.469543
 21
-54.482235
 31
0.0
  0
INSERT
  5
68
330
239
100
AcDbEntity
  8
0
  6
Continuous
 62
     7
100
AcDbBlockReference
  2
_DOT
 10
53.469543
 20
49.51776500000001
 30
0.0
 50
90.0
  0
INSERT
  5
69
330
239
100
AcDbEntity
  8
0
  6
Continuous
 62
     7
100
AcDbBlockReference
  2
_DOT
 10
53.469543
 20
-54.482235
 30
0.0
 50
270.0
  0
LINE
  5
6A
330
239
100
AcDbEntity
  8
0
  6
Continuous
 62
     7
100
AcDbLine
 10
21.009543
 20
49.51776500000001
 30
0.0
 11
54.66954399999998
 21
49.51776500000001
 31
0.0
  0
LINE
  5
6B
330
239
100
AcDbEntity
  8
0
  6
Continuous
 62
     7
100
AcDbLine
 10
21.009543
 20
-54.482235
 30
0.0
 11
54.66954399999998
 21
-54.482235
 31
0.0
  0
TEXT
  5
6C
330
239
100
AcDbEntity
  8
0
  6
Continuous
 62
     7
100
AcDbText
 10
52.71954399999999
 20
-6.5537349
 30
0.0
 40
3.0
  1
104
 50
90.00000300000001
 41
1.252769199999999
100
AcDbText
  0
POINT
  5
6D
330
239
100
AcDbEntity
  8
DEFPOINTS
  6
Continuous
 62
     7
100
AcDbPoint
 10
18.46954299999999
 20
49.51776500000001
 30
0.0
  0
POINT
  5
6E
330
239
100
AcDbEntity
  8
DEFPOINTS
  6
Continuous
 62
     7
100
AcDbPoint
 10
18.46954299999999
 20
-54.482235
 30
0.0
  0
POINT
  5
6F
330
239
100
AcDbEntity
  8
DEFPOINTS
  6
Continuous
 62
     7
100
AcDbPoint
 10
53.469543
 20
-54.482235
 30
0.0
  0
ENDBLK
  5
70
330
239
100
AcDbEntity
  8
0
100
AcDbBlockEnd
  0
BLOCK
  5
23C
330
23B
100
AcDbEntity
  8
0
100
AcDbBlockBegin
  2
*D8
 70
     1
 10
0.0
 20
0.0
 30
0.0
  3
*D8
  1

  0
LINE
  5
73
330
23B
100
AcDbEntity
  8
0
  6
Continuous
 62
     7
100
AcDbLine
 10
33.469543
 20
30.017767
 30
0.0
 11
33.469543
 21
-34.98223499999999
 31
0.0
  0
INSERT
  5
74
330
23B
100
AcDbEntity
  8
0
  6
Continuous
 62
     7
100
AcDbBlockReference
  2
_DOT
 10
33.469543
 20
30.017767
 30
0.0
 50
90.0
  0
INSERT
  5
75
330
23B
100
AcDbEntity
  8
0
  6
Continuous
 62
     7
100
AcDbBlockReference
  2
_DOT
 10
33.469543
 20
-34.98223499999999
 30
0.0
 50
270.0
  0
LINE
  5
76
330
23B
100
AcDbEntity
  8
0
  6
Continuous
 62
     7
100
AcDbLine
 10
15.25954299999999
 20
-34.98223499999999
 30
0.0
 11
33.469543
 21
-34.98223499999999
 31
0.0
  0
TEXT
  5
77
330
23B
100
AcDbEntity
  8
0
  6
Continuous
 62
     7
100
AcDbText
 10
32.719544
 20
-5.053733499999998
 30
0.0
 40
3.0
  1
65
 50
90.00000300000001
 41
1.028599999999999
100
AcDbText
  0
POINT
  5
78
330
23B
100
AcDbEntity
  8
DEFPOINTS
  6
Continuous
 62
     7
100
AcDbPoint
 10
10.469543
 20
30.017767
 30
0.0
  0
POINT
  5
79
330
23B
100
AcDbEntity
  8
DEFPOINTS
  6
Continuous
 62
     7
100
AcDbPoint
 10
12.71954299999998
 20
-34.98223499999999
 30
0.0
  0
POINT
  5
7A
330
23B
100
AcDbEntity
  8
DEFPOINTS
  6
Continuous
 62
     7
100
AcDbPoint
 10
33.469543
 20
-34.98223499999999
 30
0.0
  0
ENDBLK
  5
7B
330
23B
100
AcDbEntity
  8
0
100
AcDbBlockEnd
  0
BLOCK
  5
23E
330
23D
100
AcDbEntity
  8
0
100
AcDbBlockBegin
  2
*D9
 70
     1
 10
0.0
 20
0.0
 30
0.0
  3
*D9
  1

  0
LINE
  5
7E
330
23D
100
AcDbEntity
  8
0
  6
Continuous
 62
     7
100
AcDbLine
 10
114.93655
 20
49.51776500000001
 30
0.0
 11
114.93655
 21
28.01776699999999
 31
0.0
  0
INSERT
  5
7F
330
23D
100
AcDbEntity
  8
0
  6
Continuous
 62
     7
100
AcDbBlockReference
  2
_DOT
 10
114.93655
 20
49.51776500000001
 30
0.0
 50
90.0
  0
INSERT
  5
80
330
23D
100
AcDbEntity
  8
0
  6
Continuous
 62
     7
100
AcDbBlockReference
  2
_DOT
 10
114.93655
 20
28.01776699999999
 30
0.0
 50
270.0
  0
LINE
  5
81
330
23D
100
AcDbEntity
  8
0
  6
Continuous
 62
     7
100
AcDbLine
 10
95.47654599999999
 20
49.51776500000001
 30
0.0
 11
114.93655
 21
49.51776500000001
 31
0.0
  0
LINE
  5
82
330
23D
100
AcDbEntity
  8
0
  6
Continuous
 62
     7
100
AcDbLine
 10
95.47654599999999
 20
28.01776699999999
 30
0.0
 11
114.93655
 21
28.01776699999999
 31
0.0
  0
TEXT
  5
83
330
23D
100
AcDbEntity
  8
0
  6
Continuous
 62
     7
100
AcDbText
 10
114.1865499999999
 20
33.196265
 30
0.0
 40
3.0
  1
21.5
 50
90.00000300000001
 41
1.392875
100
AcDbText
  0
POINT
  5
84
330
23D
100
AcDbEntity
  8
DEFPOINTS
  6
Continuous
 62
     7
100
AcDbPoint
 10
92.93654600000001
 20
49.51776500000001
 30
0.0
  0
POINT
  5
85
330
23D
100
AcDbEntity
  8
DEFPOINTS
  6
Continuous
 62
     7
100
AcDbPoint
 10
92.93654600000001
 20
28.01776699999999
 30
0.0
  0
POINT
  5
86
330
23D
100
AcDbEntity
  8
DEFPOINTS
  6
Continuous
 62
     7
100
AcDbPoint
 10
114.93655
 20
28.01776699999999
 30
0.0
  0
ENDBLK
  5
87
330
23D
100
AcDbEntity
  8
0
100
AcDbBlockEnd
  0
BLOCK
  5
240
330
23F
100
AcDbEntity
  8
0
100
AcDbBlockBegin
  2
*D10
 70
     1
 10
0.0
 20
0.0
 30
0.0
  3
*D10
  1

  0
LINE
  5
8A
330
23F
100
AcDbEntity
  8
0
  6
Continuous
 62
     7
100
AcDbLine
 10
114.93655
 20
28.01776699999999
 30
0.0
 11
114.93655
 21
-32.98223499999998
 31
0.0
  0
INSERT
  5
8B
330
23F
100
AcDbEntity
  8
0
  6
Continuous
 62
     7
100
AcDbBlockReference
  2
_DOT
 10
114.93655
 20
28.01776699999999
 30
0.0
 50
90.0
  0
INSERT
  5
8C
330
23F
100
AcDbEntity
  8
0
  6
Continuous
 62
     7
100
AcDbBlockReference
  2
_DOT
 10
114.93655
 20
-32.98223499999998
 30
0.0
 50
270.0
  0
LINE
  5
8D
330
23F
100
AcDbEntity
  8
0
  6
Continuous
 62
     7
100
AcDbLine
 10
95.47654599999999
 20
-32.98223499999998
 30
0.0
 11
114.93655
 21
-32.98223499999998
 31
0.0
  0
TEXT
  5
8E
330
23F
100
AcDbEntity
  8
0
  6
Continuous
 62
     7
100
AcDbText
 10
114.1865499999999
 20
-5.053733499999998
 30
0.0
 40
3.0
  1
61
 50
90.00000300000001
 41
1.186846099999999
100
AcDbText
  0
POINT
  5
8F
330
23F
100
AcDbEntity
  8
DEFPOINTS
  6
Continuous
 62
     7
100
AcDbPoint
 10
92.93654600000001
 20
28.01776699999999
 30
0.0
  0
POINT
  5
90
330
23F
100
AcDbEntity
  8
DEFPOINTS
  6
Continuous
 62
     7
100
AcDbPoint
 10
92.93654600000001
 20
-32.98223499999998
 30
0.0
  0
POINT
  5
91
330
23F
100
AcDbEntity
  8
DEFPOINTS
  6
Continuous
 62
     7
100
AcDbPoint
 10
114.93655
 20
-32.98223499999998
 30
0.0
  0
ENDBLK
  5
92
330
23F
100
AcDbEntity
  8
0
100
AcDbBlockEnd
  0
BLOCK
  5
242
330
241
100
AcDbEntity
  8
0
100
AcDbBlockBegin
  2
*D11
 70
     1
 10
0.0
 20
0.0
 30
0.0
  3
*D11
  1

  0
LINE
  5
95
330
241
100
AcDbEntity
  8
0
  6
Continuous
 62
     7
100
AcDbLine
 10
114.93655
 20
-32.98223499999998
 30
0.0
 11
114.93655
 21
-54.482235
 31
0.0
  0
INSERT
  5
96
330
241
100
AcDbEntity
  8
0
  6
Continuous
 62
     7
100
AcDbBlockReference
  2
_DOT
 10
114.93655
 20
-32.98223499999998
 30
0.0
 50
90.0
  0
INSERT
  5
97
330
241
100
AcDbEntity
  8
0
  6
Continuous
 62
     7
100
AcDbBlockReference
  2
_DOT
 10
114.93655
 20
-54.482235
 30
0.0
 50
270.0
  0
LINE
  5
98
330
241
100
AcDbEntity
  8
0
  6
Continuous
 62
     7
100
AcDbLine
 10
93.47654600000002
 20
-54.482235
 30
0.0
 11
114.93655
 21
-54.482235
 31
0.0
  0
TEXT
  5
99
330
241
100
AcDbEntity
  8
0
  6
Continuous
 62
     7
100
AcDbText
 10
114.1865499999999
 20
-49.30373499999999
 30
0.0
 40
3.0
  1
21.5
 50
90.00000300000001
 41
1.392875
100
AcDbText
  0
POINT
  5
9A
330
241
100
AcDbEntity
  8
DEFPOINTS
  6
Continuous
 62
     7
100
AcDbPoint
 10
92.93654600000001
 20
-32.98223499999998
 30
0.0
  0
POINT
  5
9B
330
241
100
AcDbEntity
  8
DEFPOINTS
  6
Continuous
 62
     7
100
AcDbPoint
 10
90.93654599999998
 20
-54.482235
 30
0.0
  0
POINT
  5
9C
330
241
100
AcDbEntity
  8
DEFPOINTS
  6
Continuous
 62
     7
100
AcDbPoint
 10
114.93655
 20
-54.482235
 30
0.0
  0
ENDBLK
  5
9D
330
241
100
AcDbEntity
  8
0
100
AcDbBlockEnd
  0
BLOCK
  5
244
330
243
100
AcDbEntity
  8
0
100
AcDbBlockBegin
  2
*D12
 70
     1
 10
0.0
 20
0.0
 30
0.0
  3
*D12
  1

  0
LINE
  5
A0
330
243
100
AcDbEntity
  8
0
  6
Continuous
 62
     7
100
AcDbLine
 10
90.93654599999998
 20
69.517761
 30
0.0
 11
99.93654600000001
 21
69.517761
 31
0.0
  0
INSERT
  5
A1
330
243
100
AcDbEntity
  8
0
  6
Continuous
 62
     7
100
AcDbBlockReference
  2
_DOT
 10
90.93654599999998
 20
69.517761
 30
0.0
 50
180.0
  0
INSERT
  5
A2
330
243
100
AcDbEntity
  8
0
  6
Continuous
 62
     7
100
AcDbBlockReference
  2
_DOT
 10
99.93654600000001
 20
69.517761
 30
0.0
  0
LINE
  5
A3
330
243
100
AcDbEntity
  8
0
  6
Continuous
 62
     7
100
AcDbLine
 10
90.93654599999998
 20
52.057765
 30
0.0
 11
90.93654599999998
 21
70.71776599999998
 31
0.0
  0
LINE
  5
A4
330
243
100
AcDbEntity
  8
0
  6
Continuous
 62
     7
100
AcDbLine
 10
99.93654600000001
 20
0.057766399
 30
0.0
 11
99.93654600000001
 21
70.71776599999998
 31
0.0
  0
TEXT
  5
A5
330
243
100
AcDbEntity
  8
0
  6
Continuous
 62
     7
100
AcDbText
 10
94.36504600000001
 20
70.26776099999999
 30
0.0
 40
3.0
  1
9
100
AcDbText
  0
POINT
  5
A6
330
243
100
AcDbEntity
  8
DEFPOINTS
  6
Continuous
 62
     7
100
AcDbPoint
 10
90.93654599999998
 20
49.51776500000001
 30
0.0
  0
POINT
  5
A7
330
243
100
AcDbEntity
  8
DEFPOINTS
  6
Continuous
 62
     7
100
AcDbPoint
 10
99.93654600000001
 20
-2.482233499999999
 30
0.0
  0
POINT
  5
A8
330
243
100
AcDbEntity
  8
DEFPOINTS
  6
Continuous
 62
     7
100
AcDbPoint
 10
99.93654600000001
 20
69.517761
 30
0.0
  0
ENDBLK
  5
A9
330
243
100
AcDbEntity
  8
0
100
AcDbBlockEnd
  0
BLOCK
  5
246
330
245
100
AcDbEntity
  8
0
100
AcDbBlockBegin
  2
*D13
 70
     1
 10
0.0
 20
0.0
 30
0.0
  3
*D13
  1

  0
LINE
  5
AC
330
245
100
AcDbEntity
  8
0
  6
Continuous
 62
     7
100
AcDbLine
 10
90.93654599999998
 20
59.51776500000001
 30
0.0
 11
87.03276800000001
 21
59.51776500000001
 31
0.0
  0
LINE
  5
AD
330
245
100
AcDbEntity
  8
0
  6
Continuous
 62
     7
100
AcDbLine
 10
90.93654599999998
 20
59.51776500000001
 30
0.0
 11
92.93654600000001
 21
59.51776500000001
 31
0.0
  0
INSERT
  5
AE
330
245
100
AcDbEntity
  8
0
  6
Continuous
 62
     7
100
AcDbBlockReference
  2
_DOT
 10
90.93654599999998
 20
59.51776500000001
 30
0.0
 50
180.0
  0
INSERT
  5
AF
330
245
100
AcDbEntity
  8
0
  6
Continuous
 62
     7
100
AcDbBlockReference
  2
_DOT
 10
92.93654600000001
 20
59.51776500000001
 30
0.0
  0
LINE
  5
B0
330
245
100
AcDbEntity
  8
0
  6
Continuous
 62
     7
100
AcDbLine
 10
92.93654600000001
 20
52.057765
 30
0.0
 11
92.93654600000001
 21
60.71776599999999
 31
0.0
  0
TEXT
  5
B1
330
245
100
AcDbEntity
  8
0
  6
Continuous
 62
     7
100
AcDbText
 10
87.03277099999999
 20
60.267765
 30
0.0
 40
3.0
  1
2
100
AcDbText
  0
POINT
  5
B2
330
245
100
AcDbEntity
  8
DEFPOINTS
  6
Continuous
 62
     7
100
AcDbPoint
 10
90.93654599999998
 20
49.51776500000001
 30
0.0
  0
POINT
  5
B3
330
245
100
AcDbEntity
  8
DEFPOINTS
  6
Continuous
 62
     7
100
AcDbPoint
 10
92.93654600000001
 20
49.51776500000001
 30
0.0
  0
POINT
  5
B4
330
245
100
AcDbEntity
  8
DEFPOINTS
  6
Continuous
 62
     7
100
AcDbPoint
 10
92.93654600000001
 20
59.51776500000001
 30
0.0
  0
ENDBLK
  5
B5
330
245
100
AcDbEntity
  8
0
100
AcDbBlockEnd
  0
BLOCK
  5
248
330
247
100
AcDbEntity
  8
0
100
AcDbBlockBegin
  2
*D14
 70
     1
 10
0.0
 20
0.0
 30
0.0
  3
*D14
  1

  0
LINE
  5
B8
330
247
100
AcDbEntity
  8
0
  6
Continuous
 62
     7
100
AcDbLine
 10
92.93654600000001
 20
59.51776500000001
 30
0.0
 11
99.93654600000001
 21
59.51776500000001
 31
0.0
  0
INSERT
  5
B9
330
247
100
AcDbEntity
  8
0
  6
Continuous
 62
     7
100
AcDbBlockReference
  2
_DOT
 10
92.93654600000001
 20
59.51776500000001
 30
0.0
 50
180.0
  0
INSERT
  5
BA
330
247
100
AcDbEntity
  8
0
  6
Continuous
 62
     7
100
AcDbBlockReference
  2
_DOT
 10
99.93654600000001
 20
59.51776500000001
 30
0.0
  0
TEXT
  5
BB
330
247
100
AcDbEntity
  8
0
  6
Continuous
 62
     7
100
AcDbText
 10
95.36504599999997
 20
60.267765
 30
0.0
 40
3.0
  1
7
100
AcDbText
  0
POINT
  5
BC
330
247
100
AcDbEntity
  8
DEFPOINTS
  6
Continuous
 62
     7
100
AcDbPoint
 10
92.93654600000001
 20
49.51776500000001
 30
0.0
  0
POINT
  5
BD
330
247
100
AcDbEntity
  8
DEFPOINTS
  6
Continuous
 62
     7
100
AcDbPoint
 10
99.93654600000001
 20
-2.482233499999999
 30
0.0
  0
POINT
  5
BE
330
247
100
AcDbEntity
  8
DEFPOINTS
  6
Continuous
 62
     7
100
AcDbPoint
 10
99.93654600000001
 20
59.51776500000001
 30
0.0
  0
ENDBLK
  5
BF
330
247
100
AcDbEntity
  8
0
100
AcDbBlockEnd
  0
BLOCK
  5
24A
330
249
100
AcDbEntity
  8
0
100
AcDbBlockBegin
  2
*D15
 70
     1
 10
0.0
 20
0.0
 30
0.0
  3
*D15
  1

  0
LINE
  5
C2
330
249
100
AcDbEntity
  8
0
  6
Continuous
 62
     7
100
AcDbLine
 10
2.219543499999999
 20
59.51776500000001
 30
0.0
 11
14.719543
 21
59.51776500000001
 31
0.0
  0
INSERT
  5
C3
330
249
100
AcDbEntity
  8
0
  6
Continuous
 62
     7
100
AcDbBlockReference
  2
_DOT
 10
2.219543499999999
 20
59.51776500000001
 30
0.0
 50
180.0
  0
INSERT
  5
C4
330
249
100
AcDbEntity
  8
0
  6
Continuous
 62
     7
100
AcDbBlockReference
  2
_DOT
 10
14.719543
 20
59.51776500000001
 30
0.0
  0
LINE
  5
C5
330
249
100
AcDbEntity
  8
0
  6
Continuous
 62
     7
100
AcDbLine
 10
2.219543499999999
 20
52.057765
 30
0.0
 11
2.219543499999999
 21
60.71776599999999
 31
0.0
  0
LINE
  5
C6
330
249
100
AcDbEntity
  8
0
  6
Continuous
 62
     7
100
AcDbLine
 10
14.719543
 20
52.057765
 30
0.0
 11
14.719543
 21
60.71776599999999
 31
0.0
  0
TEXT
  5
C7
330
249
100
AcDbEntity
  8
0
  6
Continuous
 62
     7
100
AcDbText
 10
2.898043499999999
 20
60.267765
 30
0.0
 40
3.0
  1
12.5
 41
1.392875
100
AcDbText
  0
POINT
  5
C8
330
249
100
AcDbEntity
  8
DEFPOINTS
  6
Continuous
 62
     7
100
AcDbPoint
 10
2.219543499999999
 20
49.51776500000001
 30
0.0
  0
POINT
  5
C9
330
249
100
AcDbEntity
  8
DEFPOINTS
  6
Continuous
 62
     7
100
AcDbPoint
 10
14.719543
 20
49.51776500000001
 30
0.0
  0
POINT
  5
CA
330
249
100
AcDbEntity
  8
DEFPOINTS
  6
Continuous
 62
     7
100
AcDbPoint
 10
14.719543
 20
59.51776500000001
 30
0.0
  0
ENDBLK
  5
CB
330
249
100
AcDbEntity
  8
0
100
AcDbBlockEnd
  0
BLOCK
  5
24C
330
24B
100
AcDbEntity
  8
0
100
AcDbBlockBegin
  2
*D16
 70
     1
 10
0.0
 20
0.0
 30
0.0
  3
*D16
  1

  0
LINE
  5
CE
330
24B
100
AcDbEntity
  8
0
  6
Continuous
 62
     7
100
AcDbLine
 10
33.469543
 20
-54.482235
 30
0.0
 11
33.469543
 21
-67.63542199999999
 31
0.0
  0
LINE
  5
CF
330
24B
100
AcDbEntity
  8
0
  6
Continuous
 62
     7
100
AcDbLine
 10
33.469543
 20
-54.482235
 30
0.0
 11
33.469543
 21
-34.98223499999999
 31
0.0
  0
INSERT
  5
D0
330
24B
100
AcDbEntity
  8
0
  6
Continuous
 62
     7
100
AcDbBlockReference
  2
_DOT
 10
33.469543
 20
-54.482235
 30
0.0
 50
270.0
  0
INSERT
  5
D1
330
24B
100
AcDbEntity
  8
0
  6
Continuous
 62
     7
100
AcDbBlockReference
  2
_DOT
 10
33.469543
 20
-34.98223499999999
 30
0.0
 50
90.0
  0
LINE
  5
D2
330
24B
100
AcDbEntity
  8
0
  6
Continuous
 62
     7
100
AcDbLine
 10
21.009543
 20
-54.482235
 30
0.0
 11
34.669544
 21
-54.482235
 31
0.0
  0
TEXT
  5
D3
330
24B
100
AcDbEntity
  8
0
  6
Continuous
 62
     7
100
AcDbText
 10
32.669544
 20
-67.95542399999999
 30
0.0
 40
3.2
  1
19.5
 50
90.00000300000001
 41
1.3928906
100
AcDbText
  0
POINT
  5
D4
330
24B
100
AcDbEntity
  8
DEFPOINTS
  6
Continuous
 62
     7
100
AcDbPoint
 10
18.46954299999999
 20
-54.482235
 30
0.0
  0
POINT
  5
D5
330
24B
100
AcDbEntity
  8
DEFPOINTS
  6
Continuous
 62
     7
100
AcDbPoint
 10
12.71954299999998
 20
-34.98223499999999
 30
0.0
  0
POINT
  5
D6
330
24B
100
AcDbEntity
  8
DEFPOINTS
  6
Continuous
 62
     7
100
AcDbPoint
 10
33.469543
 20
-34.98223499999999
 30
0.0
  0
ENDBLK
  5
D7
330
24B
100
AcDbEntity
  8
0
100
AcDbBlockEnd
  0
BLOCK
  5
24E
330
24D
100
AcDbEntity
  8
0
100
AcDbBlockBegin
  2
*D17
 70
     1
 10
0.0
 20
0.0
 30
0.0
  3
*D17
  1

  0
LINE
  5
DA
330
24D
100
AcDbEntity
  8
0
  6
Continuous
 62
     7
100
AcDbLine
 10
33.469543
 20
49.51776500000001
 30
0.0
 11
33.469543
 21
60.403473
 31
0.0
  0
LINE
  5
DB
330
24D
100
AcDbEntity
  8
0
  6
Continuous
 62
     7
100
AcDbLine
 10
33.469543
 20
30.017767
 30
0.0
 11
33.469543
 21
49.51776500000001
 31
0.0
  0
INSERT
  5
DC
330
24D
100
AcDbEntity
  8
0
  6
Continuous
 62
     7
100
AcDbBlockReference
  2
_DOT
 10
33.469543
 20
30.017767
 30
0.0
 50
270.0
  0
INSERT
  5
DD
330
24D
100
AcDbEntity
  8
0
  6
Continuous
 62
     7
100
AcDbBlockReference
  2
_DOT
 10
33.469543
 20
49.51776500000001
 30
0.0
 50
90.0
  0
LINE
  5
DE
330
24D
100
AcDbEntity
  8
0
  6
Continuous
 62
     7
100
AcDbLine
 10
15.25954299999999
 20
30.017767
 30
0.0
 11
34.669544
 21
30.017767
 31
0.0
  0
LINE
  5
DF
330
24D
100
AcDbEntity
  8
0
  6
Continuous
 62
     7
100
AcDbLine
 10
21.009543
 20
49.51776500000001
 30
0.0
 11
34.669544
 21
49.51776500000001
 31
0.0
  0
TEXT
  5
E0
330
24D
100
AcDbEntity
  8
0
  6
Continuous
 62
     7
100
AcDbText
 10
32.669544
 20
48.837476
 30
0.0
 40
3.2
  1
19.5
 50
90.00000300000001
 41
1.3928906
100
AcDbText
  0
POINT
  5
E1
330
24D
100
AcDbEntity
  8
DEFPOINTS
  6
Continuous
 62
     7
100
AcDbPoint
 10
12.71954299999998
 20
30.017767
 30
0.0
  0
POINT
  5
E2
330
24D
100
AcDbEntity
  8
DEFPOINTS
  6
Continuous
 62
     7
100
AcDbPoint
 10
18.46954299999999
 20
49.51776500000001
 30
0.0
  0
POINT
  5
E3
330
24D
100
AcDbEntity
  8
DEFPOINTS
  6
Continuous
 62
     7
100
AcDbPoint
 10
33.469543
 20
49.51776500000001
 30
0.0
  0
ENDBLK
  5
E4
330
24D
100
AcDbEntity
  8
0
100
AcDbBlockEnd
  0
BLOCK
  5
250
330
24F
100
AcDbEntity
  8
0
100
AcDbBlockBegin
  2
*D18
 70
     1
 10
0.0
 20
0.0
 30
0.0
  3
*D18
  1

  0
LINE
  5
E7
330
24F
100
AcDbEntity
  8
0
  6
Continuous
 62
     7
100
AcDbLine
 10
43.469543
 20
49.51776500000001
 30
0.0
 11
43.469543
 21
40.017765
 31
0.0
  0
INSERT
  5
E8
330
24F
100
AcDbEntity
  8
0
  6
Continuous
 62
     7
100
AcDbBlockReference
  2
_DOT
 10
43.469543
 20
49.51776500000001
 30
0.0
 50
90.0
  0
INSERT
  5
E9
330
24F
100
AcDbEntity
  8
0
  6
Continuous
 62
     7
100
AcDbBlockReference
  2
_DOT
 10
43.469543
 20
40.017765
 30
0.0
 50
270.0
  0
LINE
  5
EA
330
24F
100
AcDbEntity
  8
0
  6
Continuous
 62
     7
100
AcDbLine
 10
21.009543
 20
49.51776500000001
 30
0.0
 11
44.669544
 21
49.51776500000001
 31
0.0
  0
LINE
  5
EB
330
24F
100
AcDbEntity
  8
0
  6
Continuous
 62
     7
100
AcDbLine
 10
16.649544
 20
40.017765
 30
0.0
 11
44.669544
 21
40.017765
 31
0.0
  0
TEXT
  5
EC
330
24F
100
AcDbEntity
  8
0
  6
Continuous
 62
     7
100
AcDbText
 10
42.669544
 20
40.424765
 30
0.0
 40
3.2
  1
9.5
 50
90.00000300000001
 41
1.357187499999999
100
AcDbText
  0
POINT
  5
ED
330
24F
100
AcDbEntity
  8
DEFPOINTS
  6
Continuous
 62
     7
100
AcDbPoint
 10
18.46954299999999
 20
49.51776500000001
 30
0.0
  0
POINT
  5
EE
330
24F
100
AcDbEntity
  8
DEFPOINTS
  6
Continuous
 62
     7
100
AcDbPoint
 10
14.109544
 20
40.017765
 30
0.0
  0
POINT
  5
EF
330
24F
100
AcDbEntity
  8
DEFPOINTS
  6
Continuous
 62
     7
100
AcDbPoint
 10
43.469543
 20
40.017765
 30
0.0
  0
ENDBLK
  5
F0
330
24F
100
AcDbEntity
  8
0
100
AcDbBlockEnd
  0
BLOCK
  5
252
330
251
100
AcDbEntity
  8
0
100
AcDbBlockBegin
  2
*D19
 70
     1
 10
0.0
 20
0.0
 30
0.0
  3
*D19
  1

  0
LINE
  5
F3
330
251
100
AcDbEntity
  8
0
  6
Continuous
 62
     7
100
AcDbLine
 10
43.469543
 20
-44.98223499999999
 30
0.0
 11
43.469543
 21
40.017765
 31
0.0
  0
INSERT
  5
F4
330
251
100
AcDbEntity
  8
0
  6
Continuous
 62
     7
100
AcDbBlockReference
  2
_DOT
 10
43.469543
 20
-44.98223499999999
 30
0.0
 50
270.0
  0
INSERT
  5
F5
330
251
100
AcDbEntity
  8
0
  6
Continuous
 62
     7
100
AcDbBlockReference
  2
_DOT
 10
43.469543
 20
40.017765
 30
0.0
 50
90.0
  0
LINE
  5
F6
330
251
100
AcDbEntity
  8
0
  6
Continuous
 62
     7
100
AcDbLine
 10
16.649544
 20
-44.98223499999999
 30
0.0
 11
44.669544
 21
-44.98223499999999
 31
0.0
  0
LINE
  5
F7
330
251
100
AcDbEntity
  8
0
  6
Continuous
 62
     7
100
AcDbLine
 10
16.649544
 20
40.017765
 30
0.0
 11
44.669544
 21
40.017765
 31
0.0
  0
TEXT
  5
F8
330
251
100
AcDbEntity
  8
0
  6
Continuous
 62
     7
100
AcDbText
 10
42.669544
 20
-5.225234999999999
 30
0.0
 40
3.2
  1
85
 50
90.00000300000001
 41
1.028624999999999
100
AcDbText
  0
POINT
  5
F9
330
251
100
AcDbEntity
  8
DEFPOINTS
  6
Continuous
 62
     7
100
AcDbPoint
 10
14.109544
 20
-44.98223499999999
 30
0.0
  0
POINT
  5
FA
330
251
100
AcDbEntity
  8
DEFPOINTS
  6
Continuous
 62
     7
100
AcDbPoint
 10
14.109544
 20
40.017765
 30
0.0
  0
POINT
  5
FB
330
251
100
AcDbEntity
  8
DEFPOINTS
  6
Continuous
 62
     7
100
AcDbPoint
 10
43.469543
 20
40.017765
 30
0.0
  0
ENDBLK
  5
FC
330
251
100
AcDbEntity
  8
0
100
AcDbBlockEnd
  0
BLOCK
  5
254
330
253
100
AcDbEntity
  8
0
100
AcDbBlockBegin
  2
*D20
 70
     1
 10
0.0
 20
0.0
 30
0.0
  3
*D20
  1

  0
LINE
  5
FF
330
253
100
AcDbEntity
  8
0
  6
Continuous
 62
     7
100
AcDbLine
 10
43.469543
 20
-54.482235
 30
0.0
 11
43.469543
 21
-44.98223499999999
 31
0.0
  0
INSERT
  5
100
330
253
100
AcDbEntity
  8
0
  6
Continuous
 62
     7
100
AcDbBlockReference
  2
_DOT
 10
43.469543
 20
-54.482235
 30
0.0
 50
270.0
  0
INSERT
  5
101
330
253
100
AcDbEntity
  8
0
  6
Continuous
 62
     7
100
AcDbBlockReference
  2
_DOT
 10
43.469543
 20
-44.98223499999999
 30
0.0
 50
90.0
  0
LINE
  5
102
330
253
100
AcDbEntity
  8
0
  6
Continuous
 62
     7
100
AcDbLine
 10
21.009543
 20
-54.482235
 30
0.0
 11
44.669544
 21
-54.482235
 31
0.0
  0
LINE
  5
103
330
253
100
AcDbEntity
  8
0
  6
Continuous
 62
     7
100
AcDbLine
 10
16.649544
 20
-44.98223499999999
 30
0.0
 11
44.669544
 21
-44.98223499999999
 31
0.0
  0
TEXT
  5
104
330
253
100
AcDbEntity
  8
0
  6
Continuous
 62
     7
100
AcDbText
 10
42.669544
 20
-54.07523499999999
 30
0.0
 40
3.2
  1
9.5
 50
90.00000300000001
 41
1.357187499999999
100
AcDbText
  0
POINT
  5
105
330
253
100
AcDbEntity
  8
DEFPOINTS
  6
Continuous
 62
     7
100
AcDbPoint
 10
18.46954299999999
 20
-54.482235
 30
0.0
  0
POINT
  5
106
330
253
100
AcDbEntity
  8
DEFPOINTS
  6
Continuous
 62
     7
100
AcDbPoint
 10
14.109544
 20
-44.98223499999999
 30
0.0
  0
POINT
  5
107
330
253
100
AcDbEntity
  8
DEFPOINTS
  6
Continuous
 62
     7
100
AcDbPoint
 10
43.469543
 20
-44.98223499999999
 30
0.0
  0
ENDBLK
  5
108
330
253
100
AcDbEntity
  8
0
100
AcDbBlockEnd
  0
BLOCK
  5
256
330
255
100
AcDbEntity
  8
0
100
AcDbBlockBegin
  2
*D21
 70
     1
 10
0.0
 20
0.0
 30
0.0
  3
*D21
  1

  0
LINE
  5
10B
330
255
100
AcDbEntity
  8
0
  6
Continuous
 62
     7
100
AcDbLine
 10
-69.530457
 20
50.017765
 30
0.0
 11
-53.530457
 21
50.017765
 31
0.0
  0
INSERT
  5
10C
330
255
100
AcDbEntity
  8
0
  6
Continuous
 62
     7
100
AcDbBlockReference
  2
_DOT
 10
-69.530457
 20
50.017765
 30
0.0
 50
180.0
  0
INSERT
  5
10D
330
255
100
AcDbEntity
  8
0
  6
Continuous
 62
     7
100
AcDbBlockReference
  2
_DOT
 10
-53.530457
 20
50.017765
 30
0.0
  0
LINE
  5
10E
330
255
100
AcDbEntity
  8
0
  6
Continuous
 62
     7
100
AcDbLine
 10
-69.530457
 20
32.557767
 30
0.0
 11
-69.530457
 21
51.217766
 31
0.0
  0
LINE
  5
10F
330
255
100
AcDbEntity
  8
0
  6
Continuous
 62
     7
100
AcDbLine
 10
-53.530457
 20
32.557767
 30
0.0
 11
-53.530457
 21
51.217766
 31
0.0
  0
TEXT
  5
110
330
255
100
AcDbEntity
  8
0
  6
Continuous
 62
     7
100
AcDbText
 10
-64.273457
 20
50.817765
 30
0.0
 40
3.2
  1
16
 41
1.285781199999999
100
AcDbText
  0
POINT
  5
111
330
255
100
AcDbEntity
  8
DEFPOINTS
  6
Continuous
 62
     7
100
AcDbPoint
 10
-69.530457
 20
30.017767
 30
0.0
  0
POINT
  5
112
330
255
100
AcDbEntity
  8
DEFPOINTS
  6
Continuous
 62
     7
100
AcDbPoint
 10
-53.530457
 20
30.017767
 30
0.0
  0
POINT
  5
113
330
255
100
AcDbEntity
  8
DEFPOINTS
  6
Continuous
 62
     7
100
AcDbPoint
 10
-53.530457
 20
50.017765
 30
0.0
  0
ENDBLK
  5
114
330
255
100
AcDbEntity
  8
0
100
AcDbBlockEnd
  0
BLOCK
  5
258
330
257
100
AcDbEntity
  8
0
100
AcDbBlockBegin
  2
*D22
 70
     1
 10
0.0
 20
0.0
 30
0.0
  3
*D22
  1

  0
LINE
  5
117
330
257
100
AcDbEntity
  8
0
  6
Continuous
 62
     7
100
AcDbLine
 10
-79.530457
 20
30.017767
 30
0.0
 11
-79.530457
 21
-34.98223499999999
 31
0.0
  0
INSERT
  5
118
330
257
100
AcDbEntity
  8
0
  6
Continuous
 62
     7
100
AcDbBlockReference
  2
_DOT
 10
-79.530457
 20
30.017767
 30
0.0
 50
90.0
  0
INSERT
  5
119
330
257
100
AcDbEntity
  8
0
  6
Continuous
 62
     7
100
AcDbBlockReference
  2
_DOT
 10
-79.530457
 20
-34.98223499999999
 30
0.0
 50
270.0
  0
LINE
  5
11A
330
257
100
AcDbEntity
  8
0
  6
Continuous
 62
     7
100
AcDbLine
 10
-72.07045599999998
 20
30.017767
 30
0.0
 11
-80.73045299999998
 21
30.017767
 31
0.0
  0
LINE
  5
11B
330
257
100
AcDbEntity
  8
0
  6
Continuous
 62
     7
100
AcDbLine
 10
-72.07045599999998
 20
-34.98223499999999
 30
0.0
 11
-80.73045299999998
 21
-34.98223499999999
 31
0.0
  0
TEXT
  5
11C
330
257
100
AcDbEntity
  8
0
  6
Continuous
 62
     7
100
AcDbText
 10
-80.33045600000001
 20
-5.225233599999999
 30
0.0
 40
3.2
  1
65
 50
90.00000300000001
 41
1.028624999999999
100
AcDbText
  0
POINT
  5
11D
330
257
100
AcDbEntity
  8
DEFPOINTS
  6
Continuous
 62
     7
100
AcDbPoint
 10
-69.530457
 20
30.017767
 30
0.0
  0
POINT
  5
11E
330
257
100
AcDbEntity
  8
DEFPOINTS
  6
Continuous
 62
     7
100
AcDbPoint
 10
-69.530457
 20
-34.98223499999999
 30
0.0
  0
POINT
  5
11F
330
257
100
AcDbEntity
  8
DEFPOINTS
  6
Continuous
 62
     7
100
AcDbPoint
 10
-79.530457
 20
-34.98223499999999
 30
0.0
  0
ENDBLK
  5
120
330
257
100
AcDbEntity
  8
0
100
AcDbBlockEnd
  0
BLOCK
  5
25A
330
259
100
AcDbEntity
  8
0
100
AcDbBlockBegin
  2
*D23
 70
     1
 10
0.0
 20
0.0
 30
0.0
  3
*D23
  1

  0
LINE
  5
123
330
259
100
AcDbEntity
  8
0
  6
Continuous
 62
     7
100
AcDbLine
 10
-38.530457
 20
40.017765
 30
0.0
 11
-38.530457
 21
-44.98223499999999
 31
0.0
  0
INSERT
  5
124
330
259
100
AcDbEntity
  8
0
  6
Continuous
 62
     7
100
AcDbBlockReference
  2
_DOT
 10
-38.530457
 20
40.017765
 30
0.0
 50
90.0
  0
INSERT
  5
125
330
259
100
AcDbEntity
  8
0
  6
Continuous
 62
     7
100
AcDbBlockReference
  2
_DOT
 10
-38.530457
 20
-44.98223499999999
 30
0.0
 50
270.0
  0
LINE
  5
126
330
259
100
AcDbEntity
  8
0
  6
Continuous
 62
     7
100
AcDbLine
 10
-54.24045699999999
 20
40.017765
 30
0.0
 11
-37.330456
 21
40.017765
 31
0.0
  0
LINE
  5
127
330
259
100
AcDbEntity
  8
0
  6
Continuous
 62
     7
100
AcDbLine
 10
-53.99045699999999
 20
-44.98223499999999
 30
0.0
 11
-37.330456
 21
-44.98223499999999
 31
0.0
  0
TEXT
  5
128
330
259
100
AcDbEntity
  8
0
  6
Continuous
 62
     7
100
AcDbText
 10
-39.33045599999999
 20
-5.225234999999999
 30
0.0
 40
3.2
  1
85
 50
90.00000300000001
 41
1.028624999999999
100
AcDbText
  0
POINT
  5
129
330
259
100
AcDbEntity
  8
DEFPOINTS
  6
Continuous
 62
     7
100
AcDbPoint
 10
-56.780457
 20
40.017765
 30
0.0
  0
POINT
  5
12A
330
259
100
AcDbEntity
  8
DEFPOINTS
  6
Continuous
 62
     7
100
AcDbPoint
 10
-56.53045699999999
 20
-44.98223499999999
 30
0.0
  0
POINT
  5
12B
330
259
100
AcDbEntity
  8
DEFPOINTS
  6
Continuous
 62
     7
100
AcDbPoint
 10
-38.530457
 20
-44.98223499999999
 30
0.0
  0
ENDBLK
  5
12C
330
259
100
AcDbEntity
  8
0
100
AcDbBlockEnd
  0
BLOCK
  5
25C
330
25B
100
AcDbEntity
  8
0
100
AcDbBlockBegin
  2
KOZU0001
 70
     0
 10
0.0
 20
0.0
 30
0.0
  3
KOZU0001
  1

  0
LINE
  5
12F
330
25B
100
AcDbEntity
  8
0
  6
Continuous
 62
     7
100
AcDbLine
 10
0.0
 20
0.0
 30
0.0
 11
-18.00431899999999
 21
-30.976883
 31
0.0
  0
LINE
  5
130
330
25B
100
AcDbEntity
  8
0
  6
Continuous
 62
     7
100
AcDbLine
 10
-18.00431899999999
 20
-30.976883
 30
0.0
 11
19.882062
 21
-30.976883
 31
0.0
  0
CIRCLE
  5
131
330
25B
100
AcDbEntity
  8
0
  6
Continuous
 62
     7
100
AcDbCircle
 10
0.0
 20
0.0
 30
0.0
 40
0.4000000100000002
  0
TEXT
  5
132
330
25B
100
AcDbEntity
  8
0
  6
Continuous
 62
     7
100
AcDbText
 10
-15.31793799999998
 20
-30.176891
 30
0.0
 40
3.2
  1
２－%%C４×%%C６．２サラ
 41
0.8440946700000001
100
AcDbText
  0
ENDBLK
  5
133
330
25B
100
AcDbEntity
  8
0
100
AcDbBlockEnd
  0
BLOCK
  5
25E
330
25D
100
AcDbEntity
  8
0
100
AcDbBlockBegin
  2
KOZU0002
 70
     0
 10
0.0
 20
0.0
 30
0.0
  3
KOZU0002
  1

  0
LINE
  5
136
330
25D
100
AcDbEntity
  8
0
  6
Continuous
 62
     7
100
AcDbLine
 10
0.0
 20
0.0
 30
0.0
 11
-16.47368599999999
 21
9.4228783
 31
0.0
  0
LINE
  5
137
330
25D
100
AcDbEntity
  8
0
  6
Continuous
 62
     7
100
AcDbLine
 10
-16.47368599999999
 20
9.4228783
 30
0.0
 11
-41.169266
 21
9.4228783
 31
0.0
  0
CIRCLE
  5
138
330
25D
100
AcDbEntity
  8
0
  6
Continuous
 62
     7
100
AcDbCircle
 10
0.0
 20
0.0
 30
0.0
 40
0.4000000100000002
  0
TEXT
  5
139
330
25D
100
AcDbEntity
  8
0
  6
Continuous
 62
     7
100
AcDbText
 10
-40.255263
 20
10.22287799999999
 30
0.0
 40
3.2
  1
２－Ｍ４タップ
 41
0.84634979
100
AcDbText
  0
ENDBLK
  5
13A
330
25D
100
AcDbEntity
  8
0
100
AcDbBlockEnd
  0
BLOCK
  5
260
330
25F
100
AcDbEntity
  8
0
100
AcDbBlockBegin
  2
KOZU0003
 70
     0
 10
0.0
 20
0.0
 30
0.0
  3
KOZU0003
  1

  0
LINE
  5
13D
330
25F
100
AcDbEntity
  8
0
  6
Continuous
 62
     7
100
AcDbLine
 10
-57.437924
 20
-34.98223499999999
 30
0.0
 11
-53.530457
 21
-31.07476
 31
0.0
  0
LINE
  5
13E
330
25F
100
AcDbEntity
  8
0
  6
Continuous
 62
     7
100
AcDbLine
 10
-61.92804699999999
 20
-34.98223499999999
 30
0.0
 11
-53.530457
 21
-26.584627
 31
0.0
  0
LINE
  5
13F
330
25F
100
AcDbEntity
  8
0
  6
Continuous
 62
     7
100
AcDbLine
 10
-66.418171
 20
-34.98223499999999
 30
0.0
 11
-53.530457
 21
-22.09449499999999
 31
0.0
  0
LINE
  5
140
330
25F
100
AcDbEntity
  8
0
  6
Continuous
 62
     7
100
AcDbLine
 10
-69.530457
 20
-33.604394
 30
0.0
 11
-53.530457
 21
-17.60436199999999
 31
0.0
  0
LINE
  5
141
330
25F
100
AcDbEntity
  8
0
  6
Continuous
 62
     7
100
AcDbLine
 10
-69.530457
 20
-29.114262
 30
0.0
 11
-53.530457
 21
-13.11423
 31
0.0
  0
LINE
  5
142
330
25F
100
AcDbEntity
  8
0
  6
Continuous
 62
     7
100
AcDbLine
 10
-69.530457
 20
-24.624129
 30
0.0
 11
-53.530457
 21
-8.6240974
 31
0.0
  0
LINE
  5
143
330
25F
100
AcDbEntity
  8
0
  6
Continuous
 62
     7
100
AcDbLine
 10
-69.530457
 20
-20.133997
 30
0.0
 11
-53.530457
 21
-4.133964899999999
 31
0.0
  0
LINE
  5
144
330
25F
100
AcDbEntity
  8
0
  6
Continuous
 62
     7
100
AcDbLine
 10
-69.530457
 20
-15.643864
 30
0.0
 11
-53.530457
 21
0.35616759
 31
0.0
  0
LINE
  5
145
330
25F
100
AcDbEntity
  8
0
  6
Continuous
 62
     7
100
AcDbLine
 10
-69.530457
 20
-11.153732
 30
0.0
 11
-53.530457
 21
4.846300099999998
 31
0.0
  0
LINE
  5
146
330
25F
100
AcDbEntity
  8
0
  6
Continuous
 62
     7
100
AcDbLine
 10
-69.530457
 20
-6.663599399999999
 30
0.0
 11
-53.530457
 21
9.3364326
 31
0.0
  0
LINE
  5
147
330
25F
100
AcDbEntity
  8
0
  6
Continuous
 62
     7
100
AcDbLine
 10
-69.530457
 20
-2.173467
 30
0.0
 11
-53.530457
 21
13.82656499999999
 31
0.0
  0
LINE
  5
148
330
25F
100
AcDbEntity
  8
0
  6
Continuous
 62
     7
100
AcDbLine
 10
-69.530457
 20
2.3166655
 30
0.0
 11
-53.530457
 21
18.316698
 31
0.0
  0
LINE
  5
149
330
25F
100
AcDbEntity
  8
0
  6
Continuous
 62
     7
100
AcDbLine
 10
-69.530457
 20
6.806797999999998
 30
0.0
 11
-53.530457
 21
22.80682999999999
 31
0.0
  0
LINE
  5
14A
330
25F
100
AcDbEntity
  8
0
  6
Continuous
 62
     7
100
AcDbLine
 10
-69.530457
 20
11.29693
 30
0.0
 11
-53.530457
 21
27.296962
 31
0.0
  0
LINE
  5
14B
330
25F
100
AcDbEntity
  8
0
  6
Continuous
 62
     7
100
AcDbLine
 10
-69.530457
 20
15.787063
 30
0.0
 11
-55.29978100000001
 21
30.017767
 31
0.0
  0
LINE
  5
14C
330
25F
100
AcDbEntity
  8
0
  6
Continuous
 62
     7
100
AcDbLine
 10
-69.530457
 20
20.27719499999999
 30
0.0
 11
-59.789905
 21
30.017767
 31
0.0
  0
LINE
  5
14D
330
25F
100
AcDbEntity
  8
0
  6
Continuous
 62
     7
100
AcDbLine
 10
-69.530457
 20
24.767328
 30
0.0
 11
-64.280028
 21
30.017767
 31
0.0
  0
LINE
  5
14E
330
25F
100
AcDbEntity
  8
0
  6
Continuous
 62
     7
100
AcDbLine
 10
-69.530457
 20
29.25746
 30
0.0
 11
-68.77015199999999
 21
30.017767
 31
0.0
  0
ENDBLK
  5
14F
330
25F
100
AcDbEntity
  8
0
100
AcDbBlockEnd
  0
BLOCK
  5
262
330
261
100
AcDbEntity
  8
0
100
AcDbBlockBegin
  2
KOZU0004
 70
     0
 10
0.0
 20
0.0
 30
0.0
  3
KOZU0004
  1

  0
LINE
  5
152
330
261
100
AcDbEntity
  8
0
  6
Continuous
 62
     7
100
AcDbLine
 10
-62.28106499999999
 20
-46.563085
 30
0.0
 11
-59.949608
 21
-44.231623
 31
0.0
  0
LINE
  5
153
330
261
100
AcDbEntity
  8
0
  6
Continuous
 62
     7
100
AcDbLine
 10
-63.253161
 20
-45.29011599999999
 30
0.0
 11
-61.22257900000001
 21
-43.25953
 31
0.0
  0
ENDBLK
  5
154
330
261
100
AcDbEntity
  8
0
100
AcDbBlockEnd
  0
BLOCK
  5
264
330
263
100
AcDbEntity
  8
0
100
AcDbBlockBegin
  2
KOZU0005
 70
     0
 10
0.0
 20
0.0
 30
0.0
  3
KOZU0005
  1

  0
LINE
  5
157
330
263
100
AcDbEntity
  8
0
  6
Continuous
 62
     7
100
AcDbLine
 10
-62.48165199999999
 20
38.548845
 30
0.0
 11
-60.06153799999999
 21
40.968964
 31
0.0
  0
LINE
  5
158
330
263
100
AcDbEntity
  8
0
  6
Continuous
 62
     7
100
AcDbLine
 10
-63.280312
 20
39.99525
 30
0.0
 11
-61.50794499999999
 21
41.76762
 31
0.0
  0
ENDBLK
  5
159
330
263
100
AcDbEntity
  8
0
100
AcDbBlockEnd
  0
BLOCK
  5
2AF
330
2AD
100
AcDbEntity
  8
0
100
AcDbBlockBegin
  2
GENAXEH
 70
     0
 10
0.0
 20
0.0
 30
0.0
  3
GENAXEH
  1

  0
LINE
  5
2AE
330
2AD
100
AcDbEntity
  8
0
100
AcDbLine
 10
-1.0
 20
0.0
 30
0.0
 11
1.0
 21
0.0
 31
0.0
  0
ENDBLK
  5
2B0
330
2AD
100
AcDbEntity
  8
0
100
AcDbBlockEnd
  0
ENDSEC
  0
SECTION
  2
ENTITIES
  0
POINT
  5
15A
330
21B
100
AcDbEntity
  8
0
  6
Continuous
 62
     7
100
AcDbPoint
 10
8.4695435
 20
-44.98223499999999
 30
0.0
  0
POINT
  5
15B
330
21B
100
AcDbEntity
  8
0
  6
Continuous
 62
     7
100
AcDbPoint
 10
8.4700699
 20
-44.982315
 30
0.0
  0
POINT
  5
15C
330
21B
100
AcDbEntity
  8
0
  6
Continuous
 62
     7
100
AcDbPoint
 10
8.4695435
 20
40.017765
 30
0.0
  0
POINT
  5
15D
330
21B
100
AcDbEntity
  8
0
  6
Continuous
 62
     7
100
AcDbPoint
 10
8.469505300000001
 20
40.01793699999999
 30
0.0
  0
POINT
  5
15E
330
21B
100
AcDbEntity
  8
0
  6
Continuous
 62
     7
100
AcDbPoint
 10
92.93654600000001
 20
-32.982227
 30
0.0
  0
POINT
  5
15F
330
21B
100
AcDbEntity
  8
0
  6
Continuous
 62
     7
100
AcDbPoint
 10
92.93654600000001
 20
28.017761
 30
0.0
  0
POINT
  5
160
330
21B
100
AcDbEntity
  8
0
  6
Continuous
 62
     7
100
AcDbPoint
 10
92.93654600000001
 20
49.51776500000001
 30
0.0
  0
POINT
  5
161
330
21B
100
AcDbEntity
  8
0
  6
Continuous
 62
     7
100
AcDbPoint
 10
92.93654600000001
 20
59.51776500000001
 30
0.0
  0
POINT
  5
162
330
21B
100
AcDbEntity
  8
0
  6
Continuous
 62
     7
100
AcDbPoint
 10
92.93654600000001
 20
69.517761
 30
0.0
  0
POINT
  5
163
330
21B
100
AcDbEntity
  8
0
  6
Continuous
 62
     7
100
AcDbPoint
 10
99.93654600000001
 20
-2.482233499999999
 30
0.0
  0
POINT
  5
164
330
21B
100
AcDbEntity
  8
0
  6
Continuous
 62
     7
100
AcDbPoint
 10
114.93655
 20
-2.482233499999999
 30
0.0
  0
POINT
  5
165
330
21B
100
AcDbEntity
  8
0
  6
Continuous
 62
     7
100
AcDbPoint
 10
18.46954299999999
 20
49.51776500000001
 30
0.0
  0
POINT
  5
166
330
21B
100
AcDbEntity
  8
0
  6
Continuous
 62
     7
100
AcDbPoint
 10
18.46954299999999
 20
49.51776500000001
 30
0.0
  0
POINT
  5
167
330
21B
100
AcDbEntity
  8
0
  6
Continuous
 62
     7
100
AcDbPoint
 10
95.0
 20
0.0
 30
0.0
  0
POINT
  5
168
330
21B
100
AcDbEntity
  8
0
  6
Continuous
 62
     7
100
AcDbPoint
 10
43.469543
 20
49.51776500000001
 30
0.0
  0
POINT
  5
169
330
21B
100
AcDbEntity
  8
0
  6
Continuous
 62
     7
100
AcDbPoint
 10
53.469543
 20
49.51776500000001
 30
0.0
  0
POINT
  5
16A
330
21B
100
AcDbEntity
  8
0
  6
Continuous
 62
     7
100
AcDbPoint
 10
6.8877072
 20
-47.61293
 30
0.0
  0
POINT
  5
16B
330
21B
100
AcDbEntity
  8
0
  6
Continuous
 62
     7
100
AcDbPoint
 10
8.4695435
 20
118.8533
 30
0.0
  0
POINT
  5
16C
330
21B
100
AcDbEntity
  8
0
  6
Continuous
 62
     7
100
AcDbPoint
 10
8.4695435
 20
128.8532999999999
 30
0.0
  0
POINT
  5
16D
330
21B
100
AcDbEntity
  8
0
  6
Continuous
 62
     7
100
AcDbPoint
 10
-69.530457
 20
30.017767
 30
0.0
  0
POINT
  5
16E
330
21B
100
AcDbEntity
  8
0
  6
Continuous
 62
     7
100
AcDbPoint
 10
-79.530457
 20
30.017767
 30
0.0
  0
POINT
  5
16F
330
21B
100
AcDbEntity
  8
0
  6
Continuous
 62
     7
100
AcDbPoint
 10
-69.530457
 20
40.017765
 30
0.0
  0
POINT
  5
170
330
21B
100
AcDbEntity
  8
0
  6
Continuous
 62
     7
100
AcDbPoint
 10
-211.0
 20
173.0
 30
0.0
  0
POINT
  5
171
330
21B
100
AcDbEntity
  8
0
  6
Continuous
 62
     7
100
AcDbPoint
 10
-61.53045699999999
 20
40.017765
 30
0.0
  0
POINT
  5
172
330
21B
100
AcDbEntity
  8
0
  6
Continuous
 62
     7
100
AcDbPoint
 10
-61.53045699999999
 20
-44.98223499999999
 30
0.0
  0
POINT
  5
173
330
21B
100
AcDbEntity
  8
0
  6
Continuous
 62
     7
100
AcDbPoint
 10
-61.53045699999999
 20
50.017765
 30
0.0
  0
POINT
  5
174
330
21B
100
AcDbEntity
  8
0
  6
Continuous
 62
     7
100
AcDbPoint
 10
-53.530457
 20
-34.98223499999999
 30
0.0
  0
POINT
  5
175
330
21B
100
AcDbEntity
  8
0
  6
Continuous
 62
     7
100
AcDbPoint
 10
-38.530457
 20
-34.98223499999999
 30
0.0
  0
POINT
  5
176
330
21B
100
AcDbEntity
  8
0
  6
Continuous
 62
     7
100
AcDbPoint
 10
-63.27073299999999
 20
40.992607
 30
0.0
  0
LINE
  5
177
330
21B
100
AcDbEntity
  8
0
  6
Continuous
 62
     7
100
AcDbLine
 10
170.0
 20
173.0
 30
0.0
 11
170.0
 21
-100.0
 31
0.0
  0
LINE
  5
178
330
21B
100
AcDbEntity
  8
0
  6
Continuous
 62
     7
100
AcDbLine
 10
-211.0
 20
-100.0
 30
0.0
 11
170.0
 21
-100.0
 31
0.0
  0
LINE
  5
179
330
21B
100
AcDbEntity
  8
0
  6
Continuous
 62
     7
100
AcDbLine
 10
-211.0
 20
173.0
 30
0.0
 11
170.0
 21
173.0
 31
0.0
  0
LINE
  5
17A
330
21B
100
AcDbEntity
  8
0
  6
Continuous
 62
     7
100
AcDbLine
 10
-211.0
 20
173.0
 30
0.0
 11
-211.0
 21
-100.0
 31
0.0
  0
LINE
  5
17B
330
21B
100
AcDbEntity
  8
0
  6
Continuous
 62
     3
100
AcDbLine
 10
90.93654599999998
 20
49.51776500000001
 30
0.0
 11
90.93654599999998
 21
-54.482235
 31
0.0
  0
LINE
  5
17C
330
21B
100
AcDbEntity
  8
0
  6
Continuous
 62
     3
100
AcDbLine
 10
92.93654600000001
 20
49.51776500000001
 30
0.0
 11
92.93654600000001
 21
-54.482235
 31
0.0
  0
LINE
  5
17D
330
21B
100
AcDbEntity
  8
0
  6
Continuous
 62
     3
100
AcDbLine
 10
-1.5304565
 20
49.51776500000001
 30
0.0
 11
18.46954299999999
 21
49.51776500000001
 31
0.0
  0
LINE
  5
17E
330
21B
100
AcDbEntity
  8
0
  6
Continuous
 62
     3
100
AcDbLine
 10
-1.5304565
 20
-54.482235
 30
0.0
 11
18.46954299999999
 21
-54.482235
 31
0.0
  0
LINE
  5
17F
330
21B
100
AcDbEntity
  8
0
  6
Continuous
 62
     3
100
AcDbLine
 10
-1.5304565
 20
111.8532999999999
 30
0.0
 11
18.46954299999999
 21
111.8532999999999
 31
0.0
  0
LINE
  5
180
330
21B
100
AcDbEntity
  8
0
  6
Continuous
 62
     3
100
AcDbLine
 10
90.93654599999998
 20
49.51776500000001
 30
0.0
 11
92.93654600000001
 21
49.51776500000001
 31
0.0
  0
LINE
  5
181
330
21B
100
AcDbEntity
  8
0
  6
Continuous
 62
     3
100
AcDbLine
 10
90.93654599999998
 20
-54.482235
 30
0.0
 11
92.93654600000001
 21
-54.482235
 31
0.0
  0
LINE
  5
182
330
21B
100
AcDbEntity
  8
0
  6
Continuous
 62
     3
100
AcDbLine
 10
18.46954299999999
 20
49.51776500000001
 30
0.0
 11
18.46954299999999
 21
-54.482235
 31
0.0
  0
LINE
  5
183
330
21B
100
AcDbEntity
  8
0
  6
Continuous
 62
     3
100
AcDbLine
 10
-1.5304565
 20
49.51776500000001
 30
0.0
 11
-1.5304565
 21
-54.482235
 31
0.0
  0
LINE
  5
184
330
21B
100
AcDbEntity
  8
0
  6
Continuous
 62
     3
100
AcDbLine
 10
3.941764799999999
 20
118.8533
 30
0.0
 11
12.997322
 21
118.8533
 31
0.0
  0
LINE
  5
185
330
21B
100
AcDbEntity
  8
0
  6
CENTER
 62
     7
100
AcDbLine
 10
8.4695435
 20
122.6731
 30
0.0
 11
8.4695435
 21
107.24365
 31
0.0
  0
LINE
  5
186
330
21B
100
AcDbEntity
  8
0
  6
CENTER
 62
     7
100
AcDbLine
 10
-72.530457
 20
-2.482233499999999
 30
0.0
 11
-50.530457
 21
-2.482233499999999
 31
0.0
  0
LINE
  5
187
330
21B
100
AcDbEntity
  8
0
  6
CENTER
 62
     7
100
AcDbLine
 10
87.93654599999998
 20
-2.482233499999999
 30
0.0
 11
102.9365499999999
 21
-2.482233499999999
 31
0.0
  0
LINE
  5
188
330
21B
100
AcDbEntity
  8
0
  6
CENTER
 62
     7
100
AcDbLine
 10
8.4695435
 20
52.517765
 30
0.0
 11
8.4695435
 21
-57.48223499999999
 31
0.0
  0
LINE
  5
189
330
21B
100
AcDbEntity
  8
0
  6
Continuous
 62
     3
100
AcDbLine
 10
1.719543499999999
 20
116.63108
 30
0.0
 11
1.719543499999999
 21
111.8532999999999
 31
0.0
  0
LINE
  5
18A
330
21B
100
AcDbEntity
  8
0
  6
Continuous
 62
     3
100
AcDbLine
 10
15.21954299999998
 20
116.63108
 30
0.0
 11
15.21954299999998
 21
111.8532999999999
 31
0.0
  0
LINE
  5
18B
330
21B
100
AcDbEntity
  8
0
  6
Continuous
 62
     3
100
AcDbLine
 10
4.219543499999999
 20
-34.98223499999999
 30
0.0
 11
12.71954299999998
 21
-34.98223499999999
 31
0.0
  0
LINE
  5
18C
330
21B
100
AcDbEntity
  8
0
  6
Continuous
 62
     3
100
AcDbLine
 10
4.219543499999999
 20
30.017767
 30
0.0
 11
12.71954299999998
 21
30.017767
 31
0.0
  0
LINE
  5
18D
330
21B
100
AcDbEntity
  8
0
  6
Continuous
 62
     3
100
AcDbLine
 10
-1.5304565
 20
109.8532999999999
 30
0.0
 11
18.46954299999999
 21
109.8532999999999
 31
0.0
  0
LINE
  5
18E
330
21B
100
AcDbEntity
  8
0
  6
Continuous
 62
     3
100
AcDbLine
 10
-1.5304565
 20
111.8532999999999
 30
0.0
 11
-1.5304565
 21
109.8532999999999
 31
0.0
  0
LINE
  5
18F
330
21B
100
AcDbEntity
  8
0
  6
Continuous
 62
     3
100
AcDbLine
 10
18.46954299999999
 20
111.8532999999999
 30
0.0
 11
18.46954299999999
 21
109.8532999999999
 31
0.0
  0
LINE
  5
190
330
21B
100
AcDbEntity
  8
0
  6
Continuous
 62
     3
100
AcDbLine
 10
2.219543499999999
 20
28.01776699999999
 30
0.0
 11
2.219543499999999
 21
-32.98223499999998
 31
0.0
  0
LINE
  5
191
330
21B
100
AcDbEntity
  8
0
  6
Continuous
 62
     3
100
AcDbLine
 10
14.719543
 20
28.01776699999999
 30
0.0
 11
14.719543
 21
-32.98223499999998
 31
0.0
  0
LINE
  5
192
330
21B
100
AcDbEntity
  8
0
  6
CENTER
 62
     7
100
AcDbLine
 10
8.4695435
 20
45.65776399999999
 30
0.0
 11
8.4695435
 21
34.37776599999998
 31
0.0
  0
LINE
  5
193
330
21B
100
AcDbEntity
  8
0
  6
CENTER
 62
     7
100
AcDbLine
 10
2.8295436
 20
40.017765
 30
0.0
 11
14.109544
 21
40.017765
 31
0.0
  0
LINE
  5
194
330
21B
100
AcDbEntity
  8
0
  6
CENTER
 62
     7
100
AcDbLine
 10
8.4695435
 20
-39.342236
 30
0.0
 11
8.4695435
 21
-50.622234
 31
0.0
  0
LINE
  5
195
330
21B
100
AcDbEntity
  8
0
  6
CENTER
 62
     7
100
AcDbLine
 10
2.8295436
 20
-44.98223499999999
 30
0.0
 11
14.109544
 21
-44.98223499999999
 31
0.0
  0
LINE
  5
196
330
21B
100
AcDbEntity
  8
0
  6
CENTER
 62
     7
100
AcDbLine
 10
-61.53045699999999
 20
33.01776499999999
 30
0.0
 11
-61.53045699999999
 21
-37.98223499999998
 31
0.0
  0
LINE
  5
197
330
21B
100
AcDbEntity
  8
0
  6
Continuous
 62
     7
100
AcDbLine
 10
-69.530457
 20
-34.98223499999999
 30
0.0
 11
-53.530457
 21
-34.98223499999999
 31
0.0
  0
LINE
  5
198
330
21B
100
AcDbEntity
  8
0
  6
Continuous
 62
     7
100
AcDbLine
 10
-69.530457
 20
30.017767
 30
0.0
 11
-53.530457
 21
30.017767
 31
0.0
  0
LINE
  5
199
330
21B
100
AcDbEntity
  8
0
  6
Continuous
 62
     7
100
AcDbLine
 10
-69.530457
 20
30.017767
 30
0.0
 11
-69.530457
 21
-34.98223499999999
 31
0.0
  0
LINE
  5
19A
330
21B
100
AcDbEntity
  8
0
  6
Continuous
 62
     7
100
AcDbLine
 10
-53.530457
 20
30.017767
 30
0.0
 11
-53.530457
 21
-34.98223499999999
 31
0.0
  0
LINE
  5
19B
330
21B
100
AcDbEntity
  8
0
  6
CENTER
 62
     7
100
AcDbLine
 10
-4.530456499999999
 20
-2.482233499999999
 30
0.0
 11
18.46954299999999
 21
-2.482233499999999
 31
0.0
  0
LINE
  5
19C
330
21B
100
AcDbEntity
  8
0
  6
Continuous
 62
     7
100
AcDbLine
 10
-191.0
 20
173.0
 30
0.0
 11
-191.0
 21
77.0
 31
0.0
  0
LINE
  5
19D
330
21B
100
AcDbEntity
  8
0
  6
Continuous
 62
     7
100
AcDbLine
 10
-211.0
 20
165.0
 30
0.0
 11
-101.0
 21
165.0
 31
0.0
  0
LINE
  5
19E
330
21B
100
AcDbEntity
  8
0
  6
Continuous
 62
     7
100
AcDbLine
 10
-211.0
 20
157.0
 30
0.0
 11
-101.0
 21
157.0
 31
0.0
  0
LINE
  5
19F
330
21B
100
AcDbEntity
  8
0
  6
Continuous
 62
     7
100
AcDbLine
 10
-211.0
 20
149.0
 30
0.0
 11
-101.0
 21
149.0
 31
0.0
  0
LINE
  5
1A0
330
21B
100
AcDbEntity
  8
0
  6
Continuous
 62
     7
100
AcDbLine
 10
-211.0
 20
141.0
 30
0.0
 11
-101.0
 21
141.0
 31
0.0
  0
LINE
  5
1A1
330
21B
100
AcDbEntity
  8
0
  6
Continuous
 62
     7
100
AcDbLine
 10
-191.0
 20
117.0
 30
0.0
 11
-101.0
 21
117.0
 31
0.0
  0
LINE
  5
1A2
330
21B
100
AcDbEntity
  8
0
  6
Continuous
 62
     7
100
AcDbLine
 10
-191.0
 20
109.0
 30
0.0
 11
-101.0
 21
109.0
 31
0.0
  0
LINE
  5
1A3
330
21B
100
AcDbEntity
  8
0
  6
Continuous
 62
     7
100
AcDbLine
 10
-211.0
 20
101.0
 30
0.0
 11
-101.0
 21
101.0
 31
0.0
  0
LINE
  5
1A4
330
21B
100
AcDbEntity
  8
0
  6
Continuous
 62
     7
100
AcDbLine
 10
-191.0
 20
93.0
 30
0.0
 11
-101.0
 21
93.0
 31
0.0
  0
LINE
  5
1A5
330
21B
100
AcDbEntity
  8
0
  6
Continuous
 62
     7
100
AcDbLine
 10
-191.0
 20
85.0
 30
0.0
 11
-101.0
 21
85.0
 31
0.0
  0
LINE
  5
1A6
330
21B
100
AcDbEntity
  8
0
  6
Continuous
 62
     7
100
AcDbLine
 10
-211.0
 20
77.0
 30
0.0
 11
-101.0
 21
77.0
 31
0.0
  0
LINE
  5
1A7
330
21B
100
AcDbEntity
  8
0
  6
Continuous
 62
     7
100
AcDbLine
 10
-211.0
 20
173.0
 30
0.0
 11
-211.0
 21
77.0
 31
0.0
  0
LINE
  5
1A8
330
21B
100
AcDbEntity
  8
0
  6
Continuous
 62
     7
100
AcDbLine
 10
-211.0
 20
173.0
 30
0.0
 11
-101.0
 21
173.0
 31
0.0
  0
LINE
  5
1A9
330
21B
100
AcDbEntity
  8
0
  6
Continuous
 62
     7
100
AcDbLine
 10
-101.0
 20
173.0
 30
0.0
 11
-101.0
 21
77.0
 31
0.0
  0
LINE
  5
1AA
330
21B
100
AcDbEntity
  8
0
  6
Continuous
 62
     7
100
AcDbLine
 10
-211.0
 20
133.0
 30
0.0
 11
-101.0
 21
133.0
 31
0.0
  0
LINE
  5
1AB
330
21B
100
AcDbEntity
  8
0
  6
Continuous
 62
     7
100
AcDbLine
 10
-211.0
 20
125.0
 30
0.0
 11
-101.0
 21
125.0
 31
0.0
  0
LINE
  5
1AC
330
21B
100
AcDbEntity
  8
0
  6
Continuous
 62
     7
100
AcDbLine
 10
-191.0
 20
117.0
 30
0.0
 11
-101.0
 21
117.0
 31
0.0
  0
LINE
  5
1AD
330
21B
100
AcDbEntity
  8
0
  6
CENTER
 62
     7
100
AcDbLine
 10
-61.53045699999999
 20
44.76776499999999
 30
0.0
 11
-61.53045699999999
 21
35.26776499999999
 31
0.0
  0
LINE
  5
1AE
330
21B
100
AcDbEntity
  8
0
  6
CENTER
 62
     7
100
AcDbLine
 10
-66.280457
 20
40.017765
 30
0.0
 11
-56.780457
 21
40.017765
 31
0.0
  0
LINE
  5
1AF
330
21B
100
AcDbEntity
  8
0
  6
CENTER
 62
     7
100
AcDbLine
 10
-61.53045699999999
 20
-39.98223499999999
 30
0.0
 11
-61.53045699999999
 21
-49.98223499999999
 31
0.0
  0
LINE
  5
1B0
330
21B
100
AcDbEntity
  8
0
  6
CENTER
 62
     7
100
AcDbLine
 10
-66.53045699999998
 20
-44.98223499999999
 30
0.0
 11
-56.53045699999999
 21
-44.98223499999999
 31
0.0
  0
ARC
  5
1B1
330
21B
100
AcDbEntity
  8
0
  6
Continuous
 62
     3
100
AcDbCircle
 10
3.941764799999999
 20
116.63108
 30
0.0
 40
2.222222299999998
100
AcDbArc
 50
90.0
 51
180.0
  0
ARC
  5
1B2
330
21B
100
AcDbEntity
  8
0
  6
Continuous
 62
     3
100
AcDbCircle
 10
12.997322
 20
116.63108
 30
0.0
 40
2.222222299999998
100
AcDbArc
 50
0.0
 51
90.0
  0
CIRCLE
  5
1B3
330
21B
100
AcDbEntity
  8
0
  6
Continuous
 62
     3
100
AcDbCircle
 10
8.4695435
 20
40.017765
 30
0.0
 40
3.099999899999998
  0
CIRCLE
  5
1B4
330
21B
100
AcDbEntity
  8
0
  6
Continuous
 62
     3
100
AcDbCircle
 10
8.4695435
 20
-44.98223499999999
 30
0.0
 40
3.099999899999998
  0
ARC
  5
1B5
330
21B
100
AcDbEntity
  8
0
  6
Continuous
 62
     3
100
AcDbCircle
 10
29.99012
 20
-2.482233499999999
 30
0.0
 40
69.946426
100
AcDbArc
 50
334.148
 51
25.85199799999999
  0
ARC
  5
1B6
330
21B
100
AcDbEntity
  8
0
  6
Continuous
 62
     3
100
AcDbCircle
 10
4.219543499999999
 20
28.01776699999999
 30
0.0
 40
2.0
100
AcDbArc
 50
90.0
 51
180.0
  0
ARC
  5
1B7
330
21B
100
AcDbEntity
  8
0
  6
Continuous
 62
     3
100
AcDbCircle
 10
12.71954299999998
 20
28.01776699999999
 30
0.0
 40
2.0
100
AcDbArc
 50
0.0
 51
90.0
  0
ARC
  5
1B8
330
21B
100
AcDbEntity
  8
0
  6
Continuous
 62
     3
100
AcDbCircle
 10
4.219543499999999
 20
-32.98223499999998
 30
0.0
 40
2.0
100
AcDbArc
 50
180.0
 51
270.0
  0
ARC
  5
1B9
330
21B
100
AcDbEntity
  8
0
  6
Continuous
 62
     3
100
AcDbCircle
 10
12.71954299999998
 20
-32.98223499999998
 30
0.0
 40
2.0
100
AcDbArc
 50
270.0
 51
0.0
  0
CIRCLE
  5
1BA
330
21B
100
AcDbEntity
  8
0
  6
Continuous
 62
     7
100
AcDbCircle
 10
8.4700699
 20
-44.982315
 30
0.0
 40
2.0
  0
CIRCLE
  5
1BB
330
21B
100
AcDbEntity
  8
0
  6
Continuous
 62
     7
100
AcDbCircle
 10
8.469505300000001
 20
40.01793699999999
 30
0.0
 40
2.0
  0
CIRCLE
  5
1BC
330
21B
100
AcDbEntity
  8
0
  6
Continuous
 62
     7
100
AcDbCircle
 10
6.8877072
 20
-47.61293
 30
0.0
 40
0.30000001
  0
CIRCLE
  5
1BD
330
21B
100
AcDbEntity
  8
0
  6
Continuous
 62
     7
100
AcDbCircle
 10
-61.53045699999999
 20
40.017765
 30
0.0
 40
2.0
  0
CIRCLE
  5
1BE
330
21B
100
AcDbEntity
  8
0
  6
Continuous
 62
     7
100
AcDbCircle
 10
-61.53045699999999
 20
-44.98223499999999
 30
0.0
 40
2.0
  0
CIRCLE
  5
1BF
330
21B
100
AcDbEntity
  8
0
  6
Continuous
 62
     7
100
AcDbCircle
 10
-61.53045699999999
 20
-44.98223499999999
 30
0.0
 40
1.75
  0
CIRCLE
  5
1C0
330
21B
100
AcDbEntity
  8
0
  6
Continuous
 62
     7
100
AcDbCircle
 10
-61.53045699999999
 20
40.017765
 30
0.0
 40
1.75
  0
CIRCLE
  5
1C1
330
21B
100
AcDbEntity
  8
0
  6
Continuous
 62
     7
100
AcDbCircle
 10
-63.27073299999999
 20
40.992607
 30
0.0
 40
0.30000001
  0
TEXT
  5
1C2
330
21B
100
AcDbEntity
  8
0
  6
Continuous
 62
     7
100
AcDbText
 10
-70.933543
 20
-56.507833
 30
0.0
 40
3.2
  1
切欠推奨寸法
 41
0.84741102
100
AcDbText
  0
TEXT
  5
1C3
330
21B
100
AcDbEntity
  8
0
  6
Continuous
 62
     7
100
AcDbText
 10
-188.1429999999998
 20
95.4
 30
0.0
 40
3.2
  1
＊
 41
0.90047268
100
AcDbText
  0
TEXT
  5
1C4
330
21B
100
AcDbEntity
  8
0
  6
Continuous
 62
     7
100
AcDbText
 10
-205.343
 20
167.4
 30
0.0
 40
3.2
  1
品　名
 41
0.85537027
100
AcDbText
  0
TEXT
  5
1C5
330
21B
100
AcDbEntity
  8
0
  6
Continuous
 62
     7
100
AcDbText
 10
-205.343
 20
159.4
 30
0.0
 40
3.2
  1
品　番
 41
0.85537027
100
AcDbText
  0
TEXT
  5
1C6
330
21B
100
AcDbEntity
  8
0
  6
Continuous
 62
     7
100
AcDbText
 10
-188.1429999999998
 20
87.4
 30
0.0
 40
3.2
  1
＊
 41
0.90047268
100
AcDbText
  0
TEXT
  5
1C7
330
21B
100
AcDbEntity
  8
0
  6
Continuous
 62
     7
100
AcDbText
 10
-188.1429999999998
 20
79.40000000000001
 30
0.0
 40
3.2
  1
＊
 41
0.90047268
100
AcDbText
  0
TEXT
  5
1C8
330
21B
100
AcDbEntity
  8
0
  6
Continuous
 62
     7
100
AcDbText
 10
-188.1429999999998
 20
167.4
 30
0.0
 40
3.2
  1
引手
 41
0.8643907499999999
100
AcDbText
  0
TEXT
  5
1C9
330
21B
100
AcDbEntity
  8
0
  6
Continuous
 62
     7
100
AcDbText
 10
-205.343
 20
151.4
 30
0.0
 40
3.2
  1
材　質
 41
0.85537027
100
AcDbText
  0
TEXT
  5
1CA
330
21B
100
AcDbEntity
  8
0
  6
Continuous
 62
     7
100
AcDbText
 10
-205.343
 20
143.4
 30
0.0
 40
3.2
  1
仕上げ
 41
0.85537027
100
AcDbText
  0
TEXT
  5
1CB
330
21B
100
AcDbEntity
  8
0
  6
Continuous
 62
     7
100
AcDbText
 10
-188.1429999999998
 20
103.4
 30
0.0
 40
3.2
  1
＊
 41
0.90047268
100
AcDbText
  0
TEXT
  5
1CC
330
21B
100
AcDbEntity
  8
0
  6
Continuous
 62
     7
100
AcDbText
 10
-188.1429999999998
 20
111.4
 30
0.0
 40
3.2
  1
＊
 41
0.90047268
100
AcDbText
  0
TEXT
  5
1CD
330
21B
100
AcDbEntity
  8
0
  6
Continuous
 62
     7
100
AcDbText
 10
-208.543
 20
119.4
 30
0.0
 40
3.2
  1
セットビス
 41
0.84892707
100
AcDbText
  0
TEXT
  5
1CE
330
21B
100
AcDbEntity
  8
0
  6
Continuous
 62
     7
100
AcDbText
 10
-188.1429999999998
 20
119.4
 30
0.0
 40
3.2
  1
＊
 41
0.90047268
100
AcDbText
  0
TEXT
  5
1CF
330
21B
100
AcDbEntity
  8
0
  6
Continuous
 62
     7
100
AcDbText
 10
-188.1429999999998
 20
143.4
 30
0.0
 40
3.2
  1
電解研磨（シルバー）・酸化着色（ブロンズ）
 41
0.8421048599999998
100
AcDbText
  0
TEXT
  5
1D0
330
21B
100
AcDbEntity
  8
0
  6
Continuous
 62
     7
100
AcDbText
 10
-203.743
 20
95.4
 30
0.0
 40
3.2
  1
備考
 41
0.8643907499999999
100
AcDbText
  0
TEXT
  5
1D1
330
21B
100
AcDbEntity
  8
0
  6
Continuous
 62
     7
100
AcDbText
 10
-188.1429999999998
 20
151.4
 30
0.0
 40
3.2
  1
ステンレス
 41
0.84892707
100
AcDbText
  0
TEXT
  5
1D2
330
21B
100
AcDbEntity
  8
0
  6
Continuous
 62
     7
100
AcDbText
 10
-188.1429999999998
 20
159.4
 30
0.0
 40
3.2
  1
ＳＵ－１０４
 41
0.84741102
100
AcDbText
  0
TEXT
  5
1D3
330
21B
100
AcDbEntity
  8
0
  6
Continuous
 62
     7
100
AcDbText
 10
-205.343
 20
135.4
 30
0.0
 40
3.2
  1
定　尺
 41
0.85537027
100
AcDbText
  0
TEXT
  5
1D4
330
21B
100
AcDbEntity
  8
0
  6
Continuous
 62
     7
100
AcDbText
 10
-206.9429999999999
 20
127.4
 30
0.0
 40
3.2
  1
左右勝手
 41
0.8512700499999999
100
AcDbText
  0
TEXT
  5
1D5
330
21B
100
AcDbEntity
  8
0
  6
Continuous
 62
     7
100
AcDbText
 10
-188.37853
 20
134.96998
 30
0.0
 40
3.2
  1
＊
 41
0.90047268
100
AcDbText
  0
TEXT
  5
1D6
330
21B
100
AcDbEntity
  8
0
  6
Continuous
 62
     7
100
AcDbText
 10
-188.37853
 20
127.3661699999999
 30
0.0
 40
3.2
  1
無し
 41
0.8643907499999999
100
AcDbText
  0
INSERT
  5
1D7
330
21B
100
AcDbEntity
  8
0
  6
Continuous
 62
     7
100
AcDbBlockReference
  2
KOZU0003
 10
0.0
 20
0.0
 30
0.0
  0
INSERT
  5
1D8
330
21B
100
AcDbEntity
  8
0
  6
Continuous
 62
     7
100
AcDbBlockReference
  2
KOZU0004
 10
0.0
 20
0.0
 30
0.0
  0
INSERT
  5
1D9
330
21B
100
AcDbEntity
  8
0
  6
Continuous
 62
     7
100
AcDbBlockReference
  2
KOZU0005
 10
0.0
 20
0.0
 30
0.0
  0
DIMENSION
  5
1DA
330
21B
100
AcDbEntity
  8
0
  6
Continuous
 62
     7
100
AcDbDimension
  2
*D3
 10
18.46954299999999
 20
69.517761
 30
0.0
 11
8.4695435
 21
69.517761
 31
0.0
 71
     5
 42
-1.0
  3
DIMSTYLE
100
AcDbAlignedDimension
 13
-1.5304565
 23
49.51776500000001
 33
0.0
 14
18.46954299999999
 24
49.51776500000001
 34
0.0
100
AcDbRotatedDimension
1001
ACAD
1000
DSTYLE
1002
{
1070
    77
1070
     1
1070
   172
1070
     1
1002
}
  0
DIMENSION
  5
1DB
330
21B
100
AcDbEntity
  8
0
  6
Continuous
 62
     7
100
AcDbDimension
  2
*D4
 10
2.219543499999999
 20
59.51776500000001
 30
0.0
 11
-7.6128387
 21
59.51776500000001
 31
0.0
 71
     5
 42
-1.0
  3
DIMSTYLE
100
AcDbAlignedDimension
 13
-1.5304565
 23
49.51776500000001
 33
0.0
 14
2.219543499999999
 24
49.51776500000001
 34
0.0
100
AcDbRotatedDimension
1001
ACAD
1000
DSTYLE
1002
{
1070
    77
1070
     1
1070
   172
1070
     1
1070
    75
1070
     1
1002
}
  0
DIMENSION
  5
1DC
330
21B
100
AcDbEntity
  8
0
  6
Continuous
 62
     7
100
AcDbDimension
  2
*D5
 10
18.46954299999999
 20
59.51776500000001
 30
0.0
 11
24.29286199999999
 21
59.51776500000001
 31
0.0
 71
     5
 42
-1.0
  3
DIMSTYLE
100
AcDbAlignedDimension
 13
14.719543
 23
39.51776499999999
 33
0.0
 14
18.46954299999999
 24
49.51776500000001
 34
0.0
100
AcDbRotatedDimension
1001
ACAD
1000
DSTYLE
1002
{
1070
    77
1070
     1
1070
   172
1070
     1
1070
    75
1070
     1
1070
    76
1070
     1
1002
}
  0
DIMENSION
  5
1DD
330
21B
100
AcDbEntity
  8
0
  6
Continuous
 62
     7
100
AcDbDimension
  2
*D6
 10
15.21954299999998
 20
128.8532999999999
 30
0.0
 11
8.4695435
 21
128.8532999999999
 31
0.0
 71
     5
 42
-1.0
  3
DIMSTYLE
100
AcDbAlignedDimension
 13
1.719543499999999
 23
116.63108
 33
0.0
 14
15.21954299999998
 24
116.63108
 34
0.0
100
AcDbRotatedDimension
1001
ACAD
1000
DSTYLE
1002
{
1070
    77
1070
     1
1070
   172
1070
     1
1002
}
  0
DIMENSION
  5
1DE
330
21B
100
AcDbEntity
  8
0
  6
Continuous
 62
     7
100
AcDbDimension
  2
*D7
 10
53.469543
 20
-54.482235
 30
0.0
 11
53.469543
 21
-2.482234999999998
 31
0.0
 71
     5
 42
-1.0
  3
DIMSTYLE
100
AcDbAlignedDimension
 13
18.46954299999999
 23
49.51776500000001
 33
0.0
 14
18.46954299999999
 24
-54.482235
 34
0.0
 50
90.0
100
AcDbRotatedDimension
1001
ACAD
1000
DSTYLE
1002
{
1070
    77
1070
     1
1070
   172
1070
     1
1002
}
  0
DIMENSION
  5
1DF
330
21B
100
AcDbEntity
  8
0
  6
Continuous
 62
     7
100
AcDbDimension
  2
*D8
 10
33.469543
 20
-34.98223499999999
 30
0.0
 11
33.469543
 21
-2.482233499999999
 31
0.0
 71
     5
 42
-1.0
  3
DIMSTYLE
100
AcDbAlignedDimension
 13
10.469543
 23
30.017767
 33
0.0
 14
12.71954299999998
 24
-34.98223499999999
 34
0.0
 50
90.0
100
AcDbRotatedDimension
1001
ACAD
1000
DSTYLE
1002
{
1070
    77
1070
     1
1070
   172
1070
     1
1070
    75
1070
     1
1002
}
  0
DIMENSION
  5
1E0
330
21B
100
AcDbEntity
  8
0
  6
Continuous
 62
     7
100
AcDbDimension
  2
*D9
 10
114.93655
 20
28.01776699999999
 30
0.0
 11
114.93655
 21
38.767765
 31
0.0
 71
     5
 42
-1.0
  3
DIMSTYLE
100
AcDbAlignedDimension
 13
92.93654600000001
 23
49.51776500000001
 33
0.0
 14
92.93654600000001
 24
28.01776699999999
 34
0.0
 50
90.0
100
AcDbRotatedDimension
1001
ACAD
1000
DSTYLE
1002
{
1070
    77
1070
     1
1070
   172
1070
     1
1002
}
  0
DIMENSION
  5
1E1
330
21B
100
AcDbEntity
  8
0
  6
Continuous
 62
     7
100
AcDbDimension
  2
*D10
 10
114.93655
 20
-32.98223499999998
 30
0.0
 11
114.93655
 21
-2.482233499999999
 31
0.0
 71
     5
 42
-1.0
  3
DIMSTYLE
100
AcDbAlignedDimension
 13
92.93654600000001
 23
28.01776699999999
 33
0.0
 14
92.93654600000001
 24
-32.98223499999998
 34
0.0
 50
90.0
100
AcDbRotatedDimension
1001
ACAD
1000
DSTYLE
1002
{
1070
    77
1070
     1
1070
   172
1070
     1
1070
    75
1070
     1
1002
}
  0
DIMENSION
  5
1E2
330
21B
100
AcDbEntity
  8
0
  6
Continuous
 62
     7
100
AcDbDimension
  2
*D11
 10
114.93655
 20
-54.482235
 30
0.0
 11
114.93655
 21
-43.73223499999999
 31
0.0
 71
     5
 42
-1.0
  3
DIMSTYLE
100
AcDbAlignedDimension
 13
92.93654600000001
 23
-32.98223499999998
 33
0.0
 14
90.93654599999998
 24
-54.482235
 34
0.0
 50
90.0
100
AcDbRotatedDimension
1001
ACAD
1000
DSTYLE
1002
{
1070
    77
1070
     1
1070
   172
1070
     1
1070
    75
1070
     1
1002
}
  0
DIMENSION
  5
1E3
330
21B
100
AcDbEntity
  8
0
  6
Continuous
 62
     7
100
AcDbDimension
  2
*D12
 10
99.93654600000001
 20
69.517761
 30
0.0
 11
95.43654600000001
 21
69.517761
 31
0.0
 71
     5
 42
-1.0
  3
DIMSTYLE
100
AcDbAlignedDimension
 13
90.93654599999998
 23
49.51776500000001
 33
0.0
 14
99.93654600000001
 24
-2.482233499999999
 34
0.0
100
AcDbRotatedDimension
1001
ACAD
1000
DSTYLE
1002
{
1070
    77
1070
     1
1070
   172
1070
     1
1002
}
  0
DIMENSION
  5
1E4
330
21B
100
AcDbEntity
  8
0
  6
Continuous
 62
     7
100
AcDbDimension
  2
*D13
 10
92.93654600000001
 20
59.51776500000001
 30
0.0
 11
88.10427099999998
 21
59.51776500000001
 31
0.0
 71
     5
 42
-1.0
  3
DIMSTYLE
100
AcDbAlignedDimension
 13
90.93654599999998
 23
49.51776500000001
 33
0.0
 14
92.93654600000001
 24
49.51776500000001
 34
0.0
100
AcDbRotatedDimension
1001
ACAD
1000
DSTYLE
1002
{
1070
    77
1070
     1
1070
   172
1070
     1
1070
    75
1070
     1
1002
}
  0
DIMENSION
  5
1E5
330
21B
100
AcDbEntity
  8
0
  6
Continuous
 62
     7
100
AcDbDimension
  2
*D14
 10
99.93654600000001
 20
59.51776500000001
 30
0.0
 11
96.43654600000001
 21
59.51776500000001
 31
0.0
 71
     5
 42
-1.0
  3
DIMSTYLE
100
AcDbAlignedDimension
 13
92.93654600000001
 23
49.51776500000001
 33
0.0
 14
99.93654600000001
 24
-2.482233499999999
 34
0.0
100
AcDbRotatedDimension
1001
ACAD
1000
DSTYLE
1002
{
1070
    77
1070
     1
1070
   172
1070
     1
1070
    75
1070
     1
1070
    76
1070
     1
1002
}
  0
DIMENSION
  5
1E6
330
21B
100
AcDbEntity
  8
0
  6
Continuous
 62
     7
100
AcDbDimension
  2
*D15
 10
14.719543
 20
59.51776500000001
 30
0.0
 11
8.4695435
 21
59.51776500000001
 31
0.0
 71
     5
 42
-1.0
  3
DIMSTYLE
100
AcDbAlignedDimension
 13
2.219543499999999
 23
49.51776500000001
 33
0.0
 14
14.719543
 24
49.51776500000001
 34
0.0
100
AcDbRotatedDimension
1001
ACAD
1000
DSTYLE
1002
{
1070
    77
1070
     1
1070
   172
1070
     1
1002
}
  0
INSERT
  5
1E7
330
21B
100
AcDbEntity
  8
0
  6
Continuous
 62
     7
100
AcDbBlockReference
  2
KOZU0001
 10
10.027312
 20
-42.30205499999999
 30
0.0
  0
DIMENSION
  5
1E8
330
21B
100
AcDbEntity
  8
0
  6
Continuous
 62
     7
100
AcDbDimension
  2
*D16
 10
33.469543
 20
-34.98223499999999
 30
0.0
 11
33.469543
 21
-62.01242399999999
 31
0.0
 71
     5
 42
-1.0
  3
DIMSTYLE
100
AcDbAlignedDimension
 13
18.46954299999999
 23
-54.482235
 33
0.0
 14
12.71954299999998
 24
-34.98223499999999
 34
0.0
 50
90.0
100
AcDbRotatedDimension
1001
ACAD
1000
DSTYLE
1002
{
1070
    77
1070
     1
1070
   172
1070
     1
1070
    76
1070
     1
1002
}
  0
DIMENSION
  5
1E9
330
21B
100
AcDbEntity
  8
0
  6
Continuous
 62
     7
100
AcDbDimension
  2
*D17
 10
33.469543
 20
49.51776500000001
 30
0.0
 11
33.469543
 21
54.780476
 31
0.0
 71
     5
 42
-1.0
  3
DIMSTYLE
100
AcDbAlignedDimension
 13
12.71954299999998
 23
30.017767
 33
0.0
 14
18.46954299999999
 24
49.51776500000001
 34
0.0
 50
90.0
100
AcDbRotatedDimension
1001
ACAD
1000
DSTYLE
1002
{
1070
    77
1070
     1
1070
   172
1070
     1
1002
}
  0
DIMENSION
  5
1EA
330
21B
100
AcDbEntity
  8
0
  6
Continuous
 62
     7
100
AcDbDimension
  2
*D18
 10
43.469543
 20
40.017765
 30
0.0
 11
43.469543
 21
44.76776499999999
 31
0.0
 71
     5
 42
-1.0
  3
DIMSTYLE
100
AcDbAlignedDimension
 13
18.46954299999999
 23
49.51776500000001
 33
0.0
 14
14.109544
 24
40.017765
 34
0.0
 50
90.0
100
AcDbRotatedDimension
1001
ACAD
1000
DSTYLE
1002
{
1070
    77
1070
     1
1070
   172
1070
     1
1002
}
  0
DIMENSION
  5
1EB
330
21B
100
AcDbEntity
  8
0
  6
Continuous
 62
     7
100
AcDbDimension
  2
*D19
 10
43.469543
 20
40.017765
 30
0.0
 11
43.469543
 21
-2.482234999999998
 31
0.0
 71
     5
 42
-1.0
  3
DIMSTYLE
100
AcDbAlignedDimension
 13
14.109544
 23
-44.98223499999999
 33
0.0
 14
14.109544
 24
40.017765
 34
0.0
 50
90.0
100
AcDbRotatedDimension
1001
ACAD
1000
DSTYLE
1002
{
1070
    77
1070
     1
1070
   172
1070
     1
1002
}
  0
DIMENSION
  5
1EC
330
21B
100
AcDbEntity
  8
0
  6
Continuous
 62
     7
100
AcDbDimension
  2
*D20
 10
43.469543
 20
-44.98223499999999
 30
0.0
 11
43.469543
 21
-49.73223499999999
 31
0.0
 71
     5
 42
-1.0
  3
DIMSTYLE
100
AcDbAlignedDimension
 13
18.46954299999999
 23
-54.482235
 33
0.0
 14
14.109544
 24
-44.98223499999999
 34
0.0
 50
90.0
100
AcDbRotatedDimension
1001
ACAD
1000
DSTYLE
1002
{
1070
    77
1070
     1
1070
   172
1070
     1
1002
}
  0
DIMENSION
  5
1ED
330
21B
100
AcDbEntity
  8
0
  6
Continuous
 62
     7
100
AcDbDimension
  2
*D21
 10
-53.530457
 20
50.017765
 30
0.0
 11
-61.53045699999999
 21
50.017765
 31
0.0
 71
     5
 42
-1.0
  3
DIMSTYLE
100
AcDbAlignedDimension
 13
-69.530457
 23
30.017767
 33
0.0
 14
-53.530457
 24
30.017767
 34
0.0
100
AcDbRotatedDimension
1001
ACAD
1000
DSTYLE
1002
{
1070
    77
1070
     1
1070
   172
1070
     1
1002
}
  0
DIMENSION
  5
1EE
330
21B
100
AcDbEntity
  8
0
  6
Continuous
 62
     7
100
AcDbDimension
  2
*D22
 10
-79.530457
 20
-34.98223499999999
 30
0.0
 11
-79.530457
 21
-2.482233499999999
 31
0.0
 71
     5
 42
-1.0
  3
DIMSTYLE
100
AcDbAlignedDimension
 13
-69.530457
 23
30.017767
 33
0.0
 14
-69.530457
 24
-34.98223499999999
 34
0.0
 50
90.0
100
AcDbRotatedDimension
1001
ACAD
1000
DSTYLE
1002
{
1070
    77
1070
     1
1070
   172
1070
     1
1002
}
  0
DIMENSION
  5
1EF
330
21B
100
AcDbEntity
  8
0
  6
Continuous
 62
     7
100
AcDbDimension
  2
*D23
 10
-38.530457
 20
-44.98223499999999
 30
0.0
 11
-38.530457
 21
-2.482234999999998
 31
0.0
 71
     5
 42
-1.0
  3
DIMSTYLE
100
AcDbAlignedDimension
 13
-56.780457
 23
40.017765
 33
0.0
 14
-56.53045699999999
 24
-44.98223499999999
 34
0.0
 50
90.0
100
AcDbRotatedDimension
1001
ACAD
1000
DSTYLE
1002
{
1070
    77
1070
     1
1070
   172
1070
     1
1002
}
  0
INSERT
  5
1F0
330
21B
100
AcDbEntity
  8
0
  6
Continuous
 62
     7
100
AcDbBlockReference
  2
KOZU0002
 10
-59.79439499999998
 20
39.024746
 30
0.0
  0
ENDSEC
  0
SECTION
  2
OBJECTS
  0
DICTIONARY
  5
209
330
0
100
AcDbDictionary
281
     1
  3
ACAD_GROUP
350
20A
  3
ACAD_LAYOUT
350
216
  3
ACAD_MLINESTYLE
350
213
  3
ACAD_PLOTSETTINGS
350
215
  3
ACAD_PLOTSTYLENAME
350
20B
  3
AcDbVariableDictionary
350
2C5
  3
AcmDictionary
350
280
  3
AMG
350
266
  3
AMGSNAPSETTINGS
350
2B6
  3
DWGPROPS
350
2D7
  0
DICTIONARY
  5
2BD
330
21B
100
AcDbDictionary
280
     1
281
     1
  3
ACAD_INDEX
360
2BE
  0
DICTIONARY
  5
20A
102
{ACAD_REACTORS
330
209
102
}
330
209
100
AcDbDictionary
281
     1
  0
DICTIONARY
  5
216
102
{ACAD_REACTORS
330
209
102
}
330
209
100
AcDbDictionary
281
     1
  3
Model
350
21E
  3
ﾚｲｱｳﾄ1
350
21A
  0
DICTIONARY
  5
213
102
{ACAD_REACTORS
330
209
102
}
330
209
100
AcDbDictionary
281
     1
  3
Standard
350
214
  0
DICTIONARY
  5
215
102
{ACAD_REACTORS
330
209
102
}
330
209
100
AcDbDictionary
281
     1
  0
ACDBDICTIONARYWDFLT
  5
20B
102
{ACAD_REACTORS
330
209
102
}
330
209
100
AcDbDictionary
281
     1
  3
Normal
350
20C
100
AcDbDictionaryWithDefault
340
20C
  0
DICTIONARY
  5
2C5
102
{ACAD_REACTORS
330
209
102
}
330
209
100
AcDbDictionary
281
     1
  3
DIMASSOC
350
2C7
  3
INDEXCTL
350
2C6
  0
DICTIONARY
  5
280
102
{ACAD_REACTORS
330
209
102
}
330
209
100
AcDbDictionary
281
     1
  3
AcmBOMDATA
350
281
  3
AcmStdDictionary
350
286
  0
DICTIONARY
  5
266
102
{ACAD_REACTORS
330
209
102
}
330
209
100
AcDbDictionary
281
     1
  3
AcMgSettings
350
267
  3
AMGLAYCFG
350
288
  0
DICTIONARY
  5
2B6
102
{ACAD_REACTORS
330
209
102
}
330
209
100
AcDbDictionary
281
     1
  3
DIMENSION
350
2BB
  3
FEA
350
2BA
  3
HATCH (1)
350
2B7
  3
HATCH (2)
350
2B8
  3
SIMPLE WELD
350
2BC
  3
SYMBOLS
350
2B9
  0
XRECORD
  5
2D7
102
{ACAD_REACTORS
330
209
102
}
330
209
100
AcDbXrecord
280
     1
  1
DWGPROPS COOKIE
  2

  3

  4

  6

  7

  8

  9

300
AmdtFileType=84
301
=
302
=
303
=
304
=
305
=
306
=
307
=
308
=
309
=
 40
0.0628962384259259
 41
2452815.792577731
 42
2453446.604893414
  1

 90
        1
  0
DICTIONARY
  5
2BE
102
{ACAD_REACTORS
330
2BD
102
}
330
2BD
100
AcDbDictionary
281
     1
  3
*A1
350
2BF
  0
LAYOUT
  5
21E
102
{ACAD_REACTORS
330
216
102
}
330
216
100
AcDbPlotSettings
  1

  2
Fuji Xerox BT8050
  4

  6

 40
0.0
 41
0.0
 42
0.0
 43
0.0
 44
0.0
 45
0.0
 46
0.0
 47
0.0
 48
0.0
 49
0.0
140
0.0
141
0.0
142
1.0
143
1.0
 70
  1712
 72
     0
 73
     0
 74
     0
  7
monochrome.ctb
 75
     0
147
1.0
148
0.0
149
0.0
100
AcDbLayout
  1
Model
 70
     1
 71
     0
 10
0.0
 20
0.0
 11
12.0
 21
9.0
 12
0.0
 22
0.0
 32
0.0
 14
0.0
 24
0.0
 34
0.0
 15
0.0
 25
0.0
 35
0.0
146
0.0
 13
0.0
 23
0.0
 33
0.0
 16
1.0
 26
0.0
 36
0.0
 17
0.0
 27
1.0
 37
0.0
 76
     0
330
21B
  0
LAYOUT
  5
21A
102
{ACAD_REACTORS
330
216
102
}
330
216
100
AcDbPlotSettings
  1

  2
Fuji Xerox BT8050
  4

  6

 40
0.0
 41
0.0
 42
0.0
 43
0.0
 44
0.0
 45
0.0
 46
0.0
 47
0.0
 48
0.0
 49
0.0
140
0.0
141
0.0
142
1.0
143
1.0
 70
   688
 72
     0
 73
     0
 74
     5
  7
monochrome.ctb
 75
    16
147
1.0
148
0.0
149
0.0
100
AcDbLayout
  1
ﾚｲｱｳﾄ1
 70
     1
 71
     1
 10
-211.0
 20
-100.0
 11
170.0
 21
173.0
 12
0.0
 22
0.0
 32
0.0
 14
1.000000000000000E+20
 24
1.000000000000000E+20
 34
1.000000000000000E+20
 15
-1.000000000000000E+20
 25
-1.000000000000000E+20
 35
-1.000000000000000E+20
146
0.0
 13
0.0
 23
0.0
 33
0.0
 16
1.0
 26
0.0
 36
0.0
 17
0.0
 27
1.0
 37
0.0
 76
     0
330
217
  0
MLINESTYLE
  5
214
102
{ACAD_REACTORS
330
213
102
}
330
213
100
AcDbMlineStyle
  2
STANDARD
 70
     0
  3

 62
   256
 51
90.0
 52
90.0
 71
     2
 49
0.5
 62
   256
  6
BYLAYER
 49
-0.5
 62
   256
  6
BYLAYER
  0
ACDBPLACEHOLDER
  5
20C
102
{ACAD_REACTORS
330
20B
102
}
330
20B
  0
DICTIONARYVAR
  5
2C7
102
{ACAD_REACTORS
330
2C5
102
}
330
2C5
100
DictionaryVariables
280
     0
  1
1
  0
DICTIONARYVAR
  5
2C6
102
{ACAD_REACTORS
330
2C5
102
}
330
2C5
100
DictionaryVariables
280
     0
  1
1
  0
ACMDATADICTIONARY
  5
281
102
{ACAD_REACTORS
330
280
102
}
330
280
100
AcDbDictionary
281
     1
  3
*A1
350
282
100
AcmDataDictionary
  0
DICTIONARY
  5
286
102
{ACAD_REACTORS
330
280
102
}
330
280
100
AcDbDictionary
281
     1
  3
ANSI
350
287
  0
DICTIONARY
  5
267
102
{ACAD_REACTORS
330
266
102
}
330
266
100
AcDbDictionary
281
     1
  3
DWGSETTINGS
350
268
  3
TRANSSETTINGS
350
269
  0
ACAMGFILTERDAT
  5
2BB
102
{ACAD_REACTORS
330
2B6
102
}
330
2B6
100
AcAmgFilterDat
 70
    15
  1
DIMENSION,AMDT_*_DIM
  2
*
  3
*
  4
*
  5
*
290
     1
  0
ACAMGFILTERDAT
  5
2BA
102
{ACAD_REACTORS
330
2B6
102
}
330
2B6
100
AcAmgFilterDat
 70
    15
  1
*
  2
AM_FEA-AM_*
  3
*
  4
*
  5
*
290
     1
  0
ACAMGFILTERDAT
  5
2B7
102
{ACAD_REACTORS
330
2B6
102
}
330
2B6
100
AcAmgFilterDat
 70
    15
  1
HATCH
  2
*
  3
*
  4
*
  5
*
290
     1
  0
ACAMGFILTERDAT
  5
2B8
102
{ACAD_REACTORS
330
2B6
102
}
330
2B6
100
AcAmgFilterDat
 70
    15
  1
LINE
  2
8,8N,*-8,*-8N,AM_8,AM_8N,*-AM_8,*-AM_8N
  3
*
  4
*
  5
INSERT,STDPART2D
290
     1
  0
ACAMGFILTERDAT
  5
2BC
102
{ACAD_REACTORS
330
2B6
102
}
330
2B6
100
AcAmgFilterDat
 70
    15
  1
ARC
  2
AM_5
  3
*
  4
2
  5
INSERT
290
     0
  0
ACAMGFILTERDAT
  5
2B9
102
{ACAD_REACTORS
330
2B6
102
}
330
2B6
100
AcAmgFilterDat
 70
    15
  1
ACMFCFRAME,ACMDATUMTARGET,ACMDATUMID,ACMWELDSYM,ACMSURFSYM,ACMFEATID,ACMPARTREF,ACMBALLOON,AMDTEDGESYM,AMGSCREWCALCTABLE
  2
*
  3
*
  4
*
  5
*
290
     1
  0
LAYER_INDEX
  5
2BF
102
{ACAD_REACTORS
330
2BE
102
}
330
2BE
100
AcDbIndex
 40
2453448.599912789
100
AcDbLayerIndex
  8
0
360
2C0
 90
      151
  8
1
360
2C1
 90
        0
  8
2
360
2C2
 90
        0
  8
DEFPOINTS
360
2C3
 90
        0
  0
ACMDATAENTRYBLOCK
  5
282
102
{ACAD_REACTORS
330
281
102
}
330
281
100
AcmDataEntry
100
AcmDataEntryBlock
  0
IDBUFFER
  5
2C0
330
0
100
AcDbIdBuffer
330
1CA
330
1CB
330
1CC
330
1CD
330
1CE
330
1CF
330
1D0
330
1D1
330
1D2
330
1D3
330
1D4
330
1D5
330
1D6
330
1D7
330
1D8
330
1D9
330
1DA
330
1DB
330
1DC
330
1DD
330
1DE
330
1DF
330
1E0
330
1E1
330
1E2
330
1E3
330
1E4
330
1E5
330
1E6
330
1E7
330
1E8
330
1E9
330
1EA
330
1EB
330
1EC
330
1ED
330
1EE
330
1EF
330
1F0
330
15A
330
15B
330
15C
330
15D
330
15E
330
15F
330
160
330
161
330
162
330
163
330
164
330
165
330
166
330
167
330
168
330
169
330
16A
330
16B
330
16C
330
16D
330
16E
330
16F
330
170
330
171
330
172
330
173
330
174
330
175
330
176
330
177
330
178
330
179
330
17A
330
17B
330
17C
330
17D
330
17E
330
17F
330
180
330
181
330
182
330
183
330
184
330
185
330
186
330
187
330
188
330
189
330
18A
330
18B
330
18C
330
18D
330
18E
330
18F
330
190
330
191
330
192
330
193
330
194
330
195
330
196
330
197
330
198
330
199
330
19A
330
19B
330
19C
330
19D
330
19E
330
19F
330
1A0
330
1A1
330
1A2
330
1A3
330
1A4
330
1A5
330
1A6
330
1A7
330
1A8
330
1A9
330
1AA
330
1AB
330
1AC
330
1AD
330
1AE
330
1AF
330
1B0
330
1B1
330
1B2
330
1B3
330
1B4
330
1B5
330
1B6
330
1B7
330
1B8
330
1B9
330
1BA
330
1BB
330
1BC
330
1BD
330
1BE
330
1BF
330
1C0
330
1C1
330
1C2
330
1C3
330
1C4
330
1C5
330
1C6
330
1C7
330
1C8
330
1C9
  0
IDBUFFER
  5
2C1
330
0
100
AcDbIdBuffer
  0
IDBUFFER
  5
2C2
330
0
100
AcDbIdBuffer
  0
IDBUFFER
  5
2C3
330
0
100
AcDbIdBuffer
  0
ENDSEC
  0
EOF
