  0
SECTION
  2
HEADER
  9
$EXTMAX
 10
170
 20
173
 30
0
  9
$EXTMIN
 10
-211
 20
-100
 30
0
  9
$LIMMAX
 10
170
 20
173
  9
$LIMMIN
 10
-211
 20
-100
  9
$PLIMMAX
 10
170
 20
173
  9
$PLIMMIN
 10
-211
 20
-100
  9
$TEXTSIZE
 40
3.2
  9
$DIMSHO
 70
     0
  9
$DIMASZ
 40
1.0
  9
$DIMTAD
 70
     1
  9
$DIMTIH
 70
     0
  9
$DIMTOH
 70
     0
  9
$DIMEXE
 40
2.54
  9
$DIMEXO
 40
2.54
  9
$DIMTVP
 40
1.0
  9
$DIMSAH
 70
     1
  9
$DIMDLE
 40
0.0
  9
$DIMTXT
 40
3.2
  9
$DIMGAP
 40
1.6
  0
ENDSEC
  0
SECTION
  2
TABLES
  0
TABLE
  2
LTYPE
 70
     6
  0
LTYPE
  2
CONTINUOUS
 70
    64
  3
Solid line
 72
    65
 73
     0
 40
0.0
  0
LTYPE
  2
DASHED
 70
    64
  3
__ __ __ __ __ __ __ __ __ __ __ __ __ __ __
 72
    65
 73
     2
 40
3.5
 49
2.0
 49
-1.5
  0
LTYPE
  2
CENTER
 70
    64
  3
____ _ ____ _ ____ _ ____ _ ____ _ ____ _ ____
 72
    65
 73
     4
 40
17.5
 49
13.0
 49
-1.5
 49
1.5
 49
-1.5
  0
LTYPE
  2
PHANTOM
 70
    64
  3
_____ _ _ _____ _ _ _____ _ _ _____ _ _ ____  
 72
    65
 73
     6
 40
15.5
 49
8.0
 49
-1.5
 49
1.5
 49
-1.5
 49
1.5
 49
-1.5
  0
LTYPE
  2
DOT
 70
    64
  3
. . . . . . . . . . . . . . . . . . . . . . . .
 72
    65
 73
     2
 40
0.25
 49
0.0
 49
-0.25
  0
LTYPE
  2
HIDDEN
 70
    64
  3
__ __ __ __ __ __ __ __ __ __ __ __ __ __ __
 72
    65
 73
     2
 40
3.5
 49
2.0
 49
-1.5
  0
ENDTAB
  0
TABLE
  2
LAYER
 70
     4
  0
LAYER
  2
0
 70
     0
 62
     7
  6
CONTINUOUS
  0
LAYER
  2
1
 70
     0
 62
     7
  6
CONTINUOUS
  0
LAYER
  2
2
 70
     0
 62
     7
  6
CONTINUOUS
  0
LAYER
  2
DEFPOINTS
 70
     0
 62
     7
  6
CONTINUOUS
  0
ENDTAB
  0
TABLE
  2
STYLE
 70
     1
  0
STYLE
  2
STANDARD
 70
     0
 40
0.0
 41
1.0
 50
0.0
 71
     0
 42
0.2
  3
txt
  4
BIGFONT
  0
ENDTAB
  0
TABLE
  2
DIMSTYLE
 70
     1
  0
DIMSTYLE
  2
DIMSTYLE
 70
     0
  3

  4

  5
_DOT
  6
_DOT
  7
_DOT
 40
1
 41
1
 42
2.54
 43
0.38
 44
2.54
 45
0
 46
0
 47
0
 48
0
140
3.2
141
0.09
142
0
143
25.4
144
1
145
0
146
1
147
1.6
 71
     0
 72
     0
 73
     0
 74
     0
 75
     0
 76
     0
 78
     0
170
     0
171
     2
 77
     0
172
     0
173
     1
174
     0
175
     0
176
     0
177
     0
178
     0
  0
ENDTAB
  0
ENDSEC
  0
SECTION
  2
BLOCKS
  0
BLOCK
  8
0
  2
_DOT
 70
    64
 10
0
 20
0
  3
_DOT
  0
POLYLINE
  8
0
  6
BYBLOCK
 62
     0
 66
     1
 10
0
 20
0
 70
     1
 40
0.40000001
 41
0.40000001
  0
VERTEX
  8
0
  6
BYBLOCK
 62
     0
 10
-0.2
 20
0
 42
1
  0
VERTEX
  8
0
  6
BYBLOCK
 62
     0
 10
0.2
 20
0
 42
1
  0
SEQEND
  8
0
  6
BYBLOCK
 62
     0
  0
LINE
  8
0
  6
BYBLOCK
 62
     0
 10
-0.40000001
 20
0
 11
-3
 21
0
  0
ENDBLK
  8
0
  0
BLOCK
  8
0
  2
*D1
 70
    65
 10
0
 20
0
  0
LINE
  8
0
  6
CONTINUOUS
 62
     7
 10
-2.1135025
 20
16.299999
 11
-2.1135025
 21
24.299999
  0
INSERT
  8
0
  6
CONTINUOUS
 62
     7
  2
_DOT
 10
-2.1135025
 20
16.299999
 50
270
  0
INSERT
  8
0
  6
CONTINUOUS
 62
     7
  2
_DOT
 10
-2.1135025
 20
24.299999
 50
90
  0
LINE
  8
0
  6
CONTINUOUS
 62
     7
 10
-12.073503
 20
16.299999
 11
-0.91350251
 21
16.299999
  0
LINE
  8
0
  6
CONTINUOUS
 62
     7
 10
-12.073503
 20
24.299999
 11
-0.91350251
 21
24.299999
  0
TEXT
  8
0
  6
CONTINUOUS
 62
     7
 10
-2.8635025
 20
19.228499
 40
3
 41
1
  1
8
 50
90.000003
  0
POINT
  8
DEFPOINTS
  6
CONTINUOUS
 62
     7
 10
-14.613503
 20
16.299999
  0
POINT
  8
DEFPOINTS
  6
CONTINUOUS
 62
     7
 10
-14.613503
 20
24.299999
  0
POINT
  8
DEFPOINTS
  6
CONTINUOUS
 62
     7
 10
-2.1135025
 20
24.299999
  0
ENDBLK
  8
0
  0
BLOCK
  8
0
  2
*D2
 70
    65
 10
0
 20
0
  0
LINE
  8
0
  6
CONTINUOUS
 62
     7
 10
-2.1135025
 20
26.299999
 11
-2.1135025
 21
31.399694
  0
LINE
  8
0
  6
CONTINUOUS
 62
     7
 10
-2.1135025
 20
24.299999
 11
-2.1135025
 21
26.299999
  0
INSERT
  8
0
  6
CONTINUOUS
 62
     7
  2
_DOT
 10
-2.1135025
 20
24.299999
 50
270
  0
INSERT
  8
0
  6
CONTINUOUS
 62
     7
  2
_DOT
 10
-2.1135025
 20
26.299999
 50
90
  0
LINE
  8
0
  6
CONTINUOUS
 62
     7
 10
-19.856628
 20
26.299999
 11
-0.91350251
 21
26.299999
  0
TEXT
  8
0
  6
CONTINUOUS
 62
     7
 10
-2.8635025
 20
29.256694
 40
3
 41
1
  1
2
 50
90.000003
  0
POINT
  8
DEFPOINTS
  6
CONTINUOUS
 62
     7
 10
-14.613503
 20
24.299999
  0
POINT
  8
DEFPOINTS
  6
CONTINUOUS
 62
     7
 10
-22.396627
 20
26.299999
  0
POINT
  8
DEFPOINTS
  6
CONTINUOUS
 62
     7
 10
-2.1135025
 20
26.299999
  0
ENDBLK
  8
0
  0
BLOCK
  8
0
  2
*D3
 70
    65
 10
0
 20
0
  0
LINE
  8
0
  6
CONTINUOUS
 62
     7
 10
-2.1135025
 20
15.5
 11
-2.1135025
 21
-13.5
  0
INSERT
  8
0
  6
CONTINUOUS
 62
     7
  2
_DOT
 10
-2.1135025
 20
15.5
 50
90
  0
INSERT
  8
0
  6
CONTINUOUS
 62
     7
  2
_DOT
 10
-2.1135025
 20
-13.5
 50
270
  0
LINE
  8
0
  6
CONTINUOUS
 62
     7
 10
-21.448503
 20
15.5
 11
-0.91350251
 21
15.5
  0
LINE
  8
0
  6
CONTINUOUS
 62
     7
 10
-27.073503
 20
-13.5
 11
-0.91350251
 21
-13.5
  0
TEXT
  8
0
  6
CONTINUOUS
 62
     7
 10
-2.8635024
 20
-1.5715001
 40
3
 41
1.0286
  1
29
 50
90.000003
  0
POINT
  8
DEFPOINTS
  6
CONTINUOUS
 62
     7
 10
-23.988503
 20
15.5
  0
POINT
  8
DEFPOINTS
  6
CONTINUOUS
 62
     7
 10
-29.613503
 20
-13.5
  0
POINT
  8
DEFPOINTS
  6
CONTINUOUS
 62
     7
 10
-2.1135025
 20
-13.5
  0
ENDBLK
  8
0
  0
BLOCK
  8
0
  2
*D4
 70
    65
 10
0
 20
0
  0
LINE
  8
0
  6
CONTINUOUS
 62
     7
 10
-2.1135025
 20
16.299999
 11
-2.1135025
 21
15.5
  0
INSERT
  8
0
  6
CONTINUOUS
 62
     7
  2
_DOT
 10
-2.1135025
 20
16.299999
 50
90
  0
INSERT
  8
0
  6
CONTINUOUS
 62
     7
  2
_DOT
 10
-2.1135025
 20
15.5
 50
270
  0
LINE
  8
0
  6
CONTINUOUS
 62
     7
 10
-21.448503
 20
15.5
 11
-0.91350251
 21
15.5
  0
TEXT
  8
0
  6
CONTINUOUS
 62
     7
 10
2.8630049
 20
18.986523
 40
3
 41
3.0858001
  1
  
 50
90.000003
  0
POINT
  8
DEFPOINTS
  6
CONTINUOUS
 62
     7
 10
-14.613503
 20
16.299999
  0
POINT
  8
DEFPOINTS
  6
CONTINUOUS
 62
     7
 10
-23.988503
 20
15.5
  0
POINT
  8
DEFPOINTS
  6
CONTINUOUS
 62
     7
 10
-2.1135025
 20
15.5
  0
ENDBLK
  8
0
  0
BLOCK
  8
0
  2
*D5
 70
    65
 10
0
 20
0
  0
LINE
  8
0
  6
CONTINUOUS
 62
     7
 10
-23.613503
 20
-48.074074
 11
7.6977472
 21
-48.074074
  0
LINE
  8
0
  6
CONTINUOUS
 62
     7
 10
-35.613503
 20
-48.074074
 11
-23.613503
 21
-48.074074
  0
INSERT
  8
0
  6
CONTINUOUS
 62
     7
  2
_DOT
 10
-35.613503
 20
-48.074074
 50
180
  0
INSERT
  8
0
  6
CONTINUOUS
 62
     7
  2
_DOT
 10
-23.613503
 20
-48.074074
  0
LINE
  8
0
  6
CONTINUOUS
 62
     7
 10
-35.613503
 20
-36.391631
 11
-35.613503
 21
-49.274075
  0
LINE
  8
0
  6
CONTINUOUS
 62
     7
 10
-23.613503
 20
-36.391631
 11
-23.613503
 21
-49.274075
  0
TEXT
  8
0
  6
CONTINUOUS
 62
     7
 10
-24.445253
 20
-47.324074
 40
3
 41
0.84409139
  1
（ドリル径%%C１２．５）
  0
POINT
  8
DEFPOINTS
  6
CONTINUOUS
 62
     7
 10
-35.613503
 20
-33.851631
  0
POINT
  8
DEFPOINTS
  6
CONTINUOUS
 62
     7
 10
-23.613503
 20
-33.851631
  0
POINT
  8
DEFPOINTS
  6
CONTINUOUS
 62
     7
 10
-23.613503
 20
-48.074074
  0
ENDBLK
  8
0
  0
BLOCK
  8
0
  2
*D6
 70
    65
 10
0
 20
0
  0
LINE
  8
0
  6
CONTINUOUS
 62
     7
 10
-42.113503
 20
105.58012
 11
-17.113503
 21
105.58012
  0
INSERT
  8
0
  6
CONTINUOUS
 62
     7
  2
_DOT
 10
-42.113503
 20
105.58012
 50
180
  0
INSERT
  8
0
  6
CONTINUOUS
 62
     7
  2
_DOT
 10
-17.113503
 20
105.58012
  0
LINE
  8
0
  6
CONTINUOUS
 62
     7
 10
-42.113503
 20
85.620124
 11
-42.113503
 21
106.78012
  0
LINE
  8
0
  6
CONTINUOUS
 62
     7
 10
-17.113503
 20
85.620124
 11
-17.113503
 21
106.78012
  0
TEXT
  8
0
  6
CONTINUOUS
 62
     7
 10
-33.956502
 20
106.38012
 40
3.2
 41
0.95018961
  1
%%C25
  0
POINT
  8
DEFPOINTS
  6
CONTINUOUS
 62
     7
 10
-42.113503
 20
83.080124
  0
POINT
  8
DEFPOINTS
  6
CONTINUOUS
 62
     7
 10
-17.113503
 20
83.080124
  0
POINT
  8
DEFPOINTS
  6
CONTINUOUS
 62
     7
 10
-17.113503
 20
105.58012
  0
ENDBLK
  8
0
  0
BLOCK
  8
0
  2
KOZU0001
 70
    64
 10
0
 20
0
  0
POINT
  8
0
  6
CONTINUOUS
 62
     7
 10
231.05074
 20
97.199097
  0
LINE
  8
0
  6
CENTER
 62
     2
 10
111.30495
 20
106.83076
 11
111.30495
 21
92.830757
  0
LINE
  8
0
  6
CONTINUOUS
 62
     7
 10
111.30495
 20
102.97421
 11
111.30495
 21
97.199097
  0
LINE
  8
0
  6
CONTINUOUS
 62
     7
 10
104.80495
 20
97.199097
 11
104.80495
 21
103.6991
  0
LINE
  8
0
  6
CONTINUOUS
 62
     7
 10
117.80495
 20
97.199097
 11
104.80495
 21
97.199097
  0
LINE
  8
0
  6
CONTINUOUS
 62
     7
 10
117.80495
 20
103.6991
 11
117.80495
 21
97.199097
  0
LINE
  8
0
  6
CONTINUOUS
 62
     7
 10
104.80495
 20
103.6991
 11
117.80495
 21
103.6991
  0
LINE
  8
0
  6
CENTER
 62
     2
 10
168.30496
 20
106.83076
 11
168.30496
 21
92.830757
  0
LINE
  8
0
  6
CONTINUOUS
 62
     7
 10
168.30496
 20
102.97421
 11
168.30496
 21
97.199097
  0
LINE
  8
0
  6
CONTINUOUS
 62
     7
 10
161.80496
 20
97.199097
 11
161.80496
 21
103.6991
  0
LINE
  8
0
  6
CONTINUOUS
 62
     7
 10
174.80496
 20
97.199097
 11
161.80496
 21
97.199097
  0
LINE
  8
0
  6
CONTINUOUS
 62
     7
 10
174.80496
 20
103.6991
 11
174.80496
 21
97.199097
  0
LINE
  8
0
  6
CONTINUOUS
 62
     7
 10
161.80496
 20
103.6991
 11
174.80496
 21
103.6991
  0
LINE
  8
0
  6
CONTINUOUS
 62
     7
 10
227.29573
 20
102.97421
 11
227.29573
 21
97.199097
  0
LINE
  8
0
  6
CONTINUOUS
 62
     7
 10
234.80573
 20
102.97421
 11
234.80573
 21
97.199097
  0
LINE
  8
0
  6
CONTINUOUS
 62
     2
 10
107.30495
 20
61.657688
 11
107.30495
 21
67.941177
  0
LINE
  8
0
  6
CONTINUOUS
 62
     7
 10
107.84646
 20
61.970322
 11
114.76346
 21
61.970322
  0
LINE
  8
0
  6
CONTINUOUS
 62
     7
 10
164.98146
 20
62.048264
 11
171.62845
 21
62.048264
  0
LINE
  8
0
  6
CENTER
 62
     2
 10
111.30495
 20
69.908653
 11
111.30495
 21
58.779861
  0
LINE
  8
0
  6
CONTINUOUS
 62
     7
 10
117.80495
 20
61.441181
 11
117.80495
 21
67.941177
  0
LINE
  8
0
  6
CONTINUOUS
 62
     7
 10
104.80495
 20
61.441181
 11
117.80495
 21
61.441181
  0
LINE
  8
0
  6
CONTINUOUS
 62
     7
 10
107.84645
 20
61.970322
 11
106.92995
 21
61.441181
  0
LINE
  8
0
  6
CONTINUOUS
 62
     7
 10
114.76346
 20
61.970322
 11
114.76346
 21
67.941177
  0
LINE
  8
0
  6
CONTINUOUS
 62
     7
 10
115.67995
 20
61.441177
 11
114.76346
 21
61.970318
  0
LINE
  8
0
  6
CONTINUOUS
 62
     7
 10
168.30496
 20
148.57109
 11
161.80496
 21
144.81831
  0
LINE
  8
0
  6
CONTINUOUS
 62
     7
 10
161.80496
 20
144.81831
 11
161.80496
 21
137.31276
  0
LINE
  8
0
  6
CONTINUOUS
 62
     7
 10
161.80496
 20
137.31276
 11
168.30496
 21
133.55998
  0
LINE
  8
0
  6
CONTINUOUS
 62
     7
 10
168.30496
 20
133.55998
 11
174.80496
 21
137.31276
  0
LINE
  8
0
  6
CONTINUOUS
 62
     7
 10
174.80496
 20
137.31276
 11
174.80496
 21
144.81831
  0
LINE
  8
0
  6
CONTINUOUS
 62
     7
 10
174.80496
 20
144.81831
 11
168.30496
 21
148.57109
  0
LINE
  8
0
  6
CENTER
 62
     2
 10
175.45496
 20
141.06554
 11
161.15495
 21
141.06554
  0
LINE
  8
0
  6
CENTER
 62
     2
 10
168.30496
 20
149.13252
 11
168.30496
 21
132.38205
  0
LINE
  8
0
  6
CONTINUOUS
 62
     7
 10
238.55629
 20
102.97421
 11
237.30074
 21
103.6991
  0
LINE
  8
0
  6
CONTINUOUS
 62
     7
 10
237.30074
 20
103.6991
 11
224.80074
 21
103.6991
  0
LINE
  8
0
  6
CONTINUOUS
 62
     7
 10
224.80074
 20
103.6991
 11
223.54518
 21
102.97421
  0
LINE
  8
0
  6
CONTINUOUS
 62
     7
 10
223.54518
 20
102.97421
 11
223.54518
 21
97.199097
  0
LINE
  8
0
  6
CENTER
 62
     2
 10
231.05074
 20
105.88769
 11
231.05074
 21
95.186607
  0
LINE
  8
0
  6
CENTER
 62
     2
 10
168.30496
 20
69.908653
 11
168.30496
 21
58.779861
  0
LINE
  8
0
  6
CONTINUOUS
 62
     7
 10
174.80496
 20
61.441181
 11
174.80496
 21
67.941177
  0
LINE
  8
0
  6
CONTINUOUS
 62
     7
 10
161.80496
 20
61.441181
 11
174.80496
 21
61.441181
  0
LINE
  8
0
  6
CONTINUOUS
 62
     7
 10
164.98146
 20
62.048267
 11
163.92995
 21
61.441181
  0
LINE
  8
0
  6
CONTINUOUS
 62
     7
 10
171.62845
 20
62.048264
 11
171.62845
 21
67.941177
  0
LINE
  8
0
  6
CONTINUOUS
 62
     7
 10
172.67996
 20
61.441185
 11
171.62846
 21
62.048267
  0
LINE
  8
0
  6
CONTINUOUS
 62
     7
 10
111.30496
 20
148.57109
 11
104.80496
 21
144.81831
  0
LINE
  8
0
  6
CONTINUOUS
 62
     7
 10
104.80495
 20
144.81831
 11
104.80495
 21
137.31276
  0
LINE
  8
0
  6
CONTINUOUS
 62
     7
 10
104.80496
 20
137.31276
 11
111.30495
 21
133.55998
  0
LINE
  8
0
  6
CONTINUOUS
 62
     7
 10
111.30495
 20
133.55998
 11
117.80495
 21
137.31276
  0
LINE
  8
0
  6
CONTINUOUS
 62
     7
 10
117.80495
 20
137.31276
 11
117.80495
 21
144.81831
  0
LINE
  8
0
  6
CONTINUOUS
 62
     7
 10
117.80495
 20
144.81831
 11
111.30496
 21
148.57109
  0
LINE
  8
0
  6
CENTER
 62
     2
 10
118.45496
 20
141.06554
 11
104.15495
 21
141.06554
  0
LINE
  8
0
  6
CENTER
 62
     2
 10
111.30495
 20
149.13252
 11
111.30495
 21
132.38205
  0
LINE
  8
0
  6
CONTINUOUS
 62
     2
 10
100
 20
0
 11
0
 21
0
  0
LINE
  8
0
  6
CONTINUOUS
 62
     2
 10
0
 20
20
 11
100
 21
20
  0
LINE
  8
0
  6
CONTINUOUS
 62
     2
 10
100
 20
25
 11
100
 21
0
  0
LINE
  8
0
  6
CONTINUOUS
 62
     2
 10
100
 20
5
 11
0
 21
5
  0
LINE
  8
0
  6
CONTINUOUS
 62
     2
 10
0
 20
0
 11
0
 21
25
  0
LINE
  8
0
  6
CONTINUOUS
 62
     2
 10
0
 20
10
 11
100
 21
10
  0
LINE
  8
0
  6
CONTINUOUS
 62
     2
 10
25
 20
25
 11
25
 21
0
  0
LINE
  8
0
  6
CONTINUOUS
 62
     2
 10
0
 20
25
 11
100
 21
25
  0
LINE
  8
0
  6
CONTINUOUS
 62
     7
 10
238.55629
 20
97.199097
 11
238.55629
 21
102.97421
  0
LINE
  8
0
  6
CONTINUOUS
 62
     7
 10
223.54518
 20
97.199097
 11
238.55629
 21
97.199097
  0
LINE
  8
0
  6
CONTINUOUS
 62
     2
 10
172.30496
 20
67.941177
 11
172.30496
 21
61.657688
  0
LINE
  8
0
  6
CONTINUOUS
 62
     7
 10
164.98146
 20
67.941177
 11
164.98146
 21
62.048264
  0
LINE
  8
0
  6
CONTINUOUS
 62
     2
 10
164.30496
 20
67.941177
 11
164.30496
 21
61.657688
  0
LINE
  8
0
  6
CONTINUOUS
 62
     7
 10
161.80496
 20
67.941177
 11
161.80496
 21
61.441181
  0
LINE
  8
0
  6
CONTINUOUS
 62
     2
 10
115.30495
 20
67.941177
 11
115.30495
 21
61.657688
  0
LINE
  8
0
  6
CONTINUOUS
 62
     7
 10
107.84646
 20
67.941177
 11
107.84646
 21
61.970322
  0
LINE
  8
0
  6
CONTINUOUS
 62
     7
 10
104.80495
 20
67.941177
 11
104.80495
 21
61.441181
  0
LINE
  8
0
  6
CONTINUOUS
 62
     7
 10
117.80495
 20
67.941177
 11
104.80495
 21
67.941177
  0
LINE
  8
0
  6
CONTINUOUS
 62
     7
 10
174.80496
 20
67.941177
 11
161.80496
 21
67.941177
  0
LINE
  8
0
  6
PHANTOM
 62
     4
 10
-5
 20
-5
 11
292
 21
-5
  0
LINE
  8
0
  6
PHANTOM
 62
     4
 10
292
 20
-5
 11
292
 21
205
  0
LINE
  8
0
  6
PHANTOM
 62
     4
 10
292
 20
205
 11
-5
 21
205
  0
LINE
  8
0
  6
PHANTOM
 62
     4
 10
-5
 20
205
 11
-5
 21
-5
  0
LINE
  8
0
  6
PHANTOM
 62
     4
 10
0
 20
0
 11
287
 21
0
  0
LINE
  8
0
  6
PHANTOM
 62
     4
 10
287
 20
0
 11
287
 21
200
  0
LINE
  8
0
  6
PHANTOM
 62
     4
 10
287
 20
200
 11
0
 21
200
  0
LINE
  8
0
  6
PHANTOM
 62
     4
 10
0
 20
200
 11
0
 21
0
  0
ARC
  8
0
  6
CONTINUOUS
 62
     7
 10
114.55495
 20
96.051102
 40
7.6479936
 50
64.852613
 51
115.14736
  0
ARC
  8
0
  6
CONTINUOUS
 62
     7
 10
108.05495
 20
96.051102
 40
7.6479936
 50
64.852613
 51
115.14736
  0
ARC
  8
0
  6
CONTINUOUS
 62
     7
 10
171.55496
 20
96.051102
 40
7.6479936
 50
64.852613
 51
115.14736
  0
ARC
  8
0
  6
CONTINUOUS
 62
     7
 10
165.05496
 20
96.051102
 40
7.6479936
 50
64.852613
 51
115.14736
  0
ARC
  8
0
  6
CONTINUOUS
 62
     7
 10
225.42046
 20
100.91101
 40
2.7880859
 50
47.731732
 51
107.73164
  0
ARC
  8
0
  6
CONTINUOUS
 62
     7
 10
236.68102
 20
100.91101
 40
2.7880859
 50
72.268362
 51
132.26827
  0
ARC
  8
0
  6
CONTINUOUS
 62
     7
 10
231.05074
 20
93.611076
 40
10.088022
 50
68.147157
 51
111.85284
  0
CIRCLE
  8
0
  6
CONTINUOUS
 62
     7
 10
168.30496
 20
141.06554
 40
6.5
  0
CIRCLE
  8
0
  6
CONTINUOUS
 62
     2
 10
168.30496
 20
141.06554
 40
4
  0
CIRCLE
  8
0
  6
CONTINUOUS
 62
     7
 10
168.30496
 20
141.06554
 40
3.3234999
  0
CIRCLE
  8
0
  6
CONTINUOUS
 62
     7
 10
111.30495
 20
141.06554
 40
6.5
  0
CIRCLE
  8
0
  6
CONTINUOUS
 62
     2
 10
111.30495
 20
141.06554
 40
4
  0
CIRCLE
  8
0
  6
CONTINUOUS
 62
     7
 10
111.30495
 20
141.06554
 40
3.4584999
  0
TEXT
  8
0
  6
CONTINUOUS
 62
     2
 10
167.19746
 20
164.82373
 40
3
 41
0.9
  1
並目
  0
TEXT
  8
0
  6
CONTINUOUS
 62
     2
 10
110.19745
 20
164.82373
 40
3
 41
0.9
  1
細目
  0
TEXT
  8
0
  6
CONTINUOUS
 62
     2
 10
30.820412
 20
13.5
 40
3
 41
0.80693702
  1
六角ナット－上／Ｍ８Ｘ６．５Ｈ
  0
TEXT
  8
0
  6
CONTINUOUS
 62
     2
 10
30.753923
 20
6
 40
3
 41
0.9801
  1
1/m8
  0
TEXT
  8
0
  6
CONTINUOUS
 62
     2
 10
30.761538
 20
21
 40
3
 41
1.2728571
  1
JIS B 1181 : 1993
  0
TEXT
  8
0
  6
CONTINUOUS
 62
     2
 10
3.2903501
 20
13.5
 40
3
 41
0.77966572
  1
形　　　　　　式
  0
TEXT
  8
0
  6
CONTINUOUS
 62
     2
 10
2.950878
 20
6
 40
3
 41
0.44384153
  1
サブフォルダ／ファイル名
  0
TEXT
  8
0
  6
CONTINUOUS
 62
     2
 10
3.2903501
 20
1
 40
3
 41
0.77966572
  1
備　　　　　　考
  0
TEXT
  8
0
  6
CONTINUOUS
 62
     2
 10
3.3375399
 20
21
 40
3
 41
0.82698272
  1
規　格　番　号
  0
TEXT
  8
0
  6
CONTINUOUS
 62
     2
 10
30.79893
 20
1
 40
3
 41
0.80564367
  1
１種
  0
ENDBLK
  8
0
  0
BLOCK
  8
0
  2
KOZU0002
 70
    64
 10
0
 20
0
  0
POINT
  8
0
  6
CONTINUOUS
 62
     7
 10
0
 20
0
  0
LINE
  8
0
  6
CONTINUOUS
 62
     7
 10
-3.7550049
 20
5.7751083
 11
-3.7550049
 21
-2.1316282e-013
  0
LINE
  8
0
  6
CONTINUOUS
 62
     7
 10
3.7549896
 20
5.7751083
 11
3.7549896
 21
-2.1316282e-013
  0
LINE
  8
0
  6
CONTINUOUS
 62
     7
 10
7.5055532
 20
5.7751055
 11
6.2500043
 21
6.4999971
  0
LINE
  8
0
  6
CONTINUOUS
 62
     7
 10
6.25
 20
6.5
 11
-6.25
 21
6.5
  0
LINE
  8
0
  6
CONTINUOUS
 62
     7
 10
-6.2499986
 20
6.5000048
 11
-7.5055609
 21
5.7751055
  0
LINE
  8
0
  6
CONTINUOUS
 62
     7
 10
-7.5055542
 20
5.7751083
 11
-7.5055542
 21
-2.1316282e-013
  0
LINE
  8
0
  6
CENTER
 62
     2
 10
0
 20
8.688591
 11
0
 21
-2.0124893
  0
LINE
  8
0
  6
CONTINUOUS
 62
     7
 10
7.5055542
 20
-2.1316282e-013
 11
7.5055542
 21
5.7751083
  0
LINE
  8
0
  6
CONTINUOUS
 62
     7
 10
-7.5055542
 20
-1.5349811e-015
 11
7.5055542
 21
1.2675875e-014
  0
ARC
  8
0
  6
CONTINUOUS
 62
     7
 10
-5.6302795
 20
3.7119141
 40
2.7880859
 50
47.731666
 51
107.73167
  0
ARC
  8
0
  6
CONTINUOUS
 62
     7
 10
5.6302795
 20
3.7119141
 40
2.7880859
 50
72.26833
 51
132.26833
  0
ARC
  8
0
  6
CONTINUOUS
 62
     7
 10
0
 20
-3.5880203
 40
10.088022
 50
68.147181
 51
111.85282
  0
ENDBLK
  8
0
  0
BLOCK
  8
0
  2
KOZU0003
 70
    64
 10
0
 20
0
  0
POINT
  8
0
  6
CONTINUOUS
 62
     7
 10
0
 20
0
  0
POINT
  8
0
  6
CONTINUOUS
 62
     7
 10
15
 20
0
  0
POINT
  8
0
  6
CONTINUOUS
 62
     7
 10
25
 20
0
  0
POINT
  8
0
  6
CONTINUOUS
 62
     7
 10
35
 20
0
  0
POINT
  8
0
  6
CONTINUOUS
 62
     7
 10
45
 20
0
  0
POINT
  8
0
  6
CONTINUOUS
 62
     7
 10
55
 20
0
  0
POINT
  8
0
  6
CONTINUOUS
 62
     7
 10
65
 20
0
  0
POINT
  8
0
  6
CONTINUOUS
 62
     7
 10
0
 20
10
  0
POINT
  8
0
  6
CONTINUOUS
 62
     7
 10
0
 20
20
  0
POINT
  8
0
  6
CONTINUOUS
 62
     7
 10
0
 20
30
  0
POINT
  8
0
  6
CONTINUOUS
 62
     7
 10
0
 20
40
  0
POINT
  8
0
  6
CONTINUOUS
 62
     7
 10
0
 20
50
  0
POINT
  8
0
  6
CONTINUOUS
 62
     7
 10
0
 20
60
  0
POINT
  8
0
  6
CONTINUOUS
 62
     7
 10
0
 20
-15
  0
POINT
  8
0
  6
CONTINUOUS
 62
     7
 10
0
 20
-25
  0
POINT
  8
0
  6
CONTINUOUS
 62
     7
 10
0
 20
-35
  0
POINT
  8
0
  6
CONTINUOUS
 62
     7
 10
0
 20
-45
  0
POINT
  8
0
  6
CONTINUOUS
 62
     7
 10
0
 20
-55
  0
POINT
  8
0
  6
CONTINUOUS
 62
     7
 10
-10
 20
0
  0
POINT
  8
0
  6
CONTINUOUS
 62
     7
 10
-20
 20
0
  0
POINT
  8
0
  6
CONTINUOUS
 62
     7
 10
-30
 20
0
  0
POINT
  8
0
  6
CONTINUOUS
 62
     7
 10
-40
 20
0
  0
POINT
  8
0
  6
CONTINUOUS
 62
     7
 10
-50
 20
0
  0
POINT
  8
0
  6
CONTINUOUS
 62
     7
 10
-60
 20
0
  0
POINT
  8
0
  6
CONTINUOUS
 62
     7
 10
0
 20
-65
  0
ENDBLK
  8
0
  0
ENDSEC
  0
SECTION
  2
ENTITIES
  0
POINT
  8
0
  6
CONTINUOUS
 62
     7
 10
-186.8372
 20
96.959854
  0
POINT
  8
0
  6
CONTINUOUS
 62
     7
 10
-186.8372
 20
80.959854
  0
LINE
  8
0
  6
CONTINUOUS
 62
     7
 10
170
 20
173
 11
170
 21
-100
  0
LINE
  8
0
  6
CONTINUOUS
 62
     7
 10
-211
 20
-100
 11
170
 21
-100
  0
LINE
  8
0
  6
CONTINUOUS
 62
     7
 10
-211
 20
173
 11
170
 21
173
  0
LINE
  8
0
  6
CONTINUOUS
 62
     7
 10
-211
 20
173
 11
-211
 21
-100
  0
LINE
  8
0
  6
CONTINUOUS
 62
     3
 10
-33.221947
 20
76.830124
 11
-36.830383
 21
83.080124
  0
LINE
  8
0
  6
CONTINUOUS
 62
     3
 10
-22.396627
 20
83.080116
 11
-26.005074
 21
89.330124
  0
LINE
  8
0
  6
CONTINUOUS
 62
     3
 10
-33.221939
 20
89.330124
 11
-26.00507
 21
89.330124
  0
LINE
  8
0
  6
CONTINUOUS
 62
     3
 10
-33.221943
 20
76.830124
 11
-26.005064
 21
76.830124
  0
LINE
  8
0
  6
CONTINUOUS
 62
     3
 10
-36.830383
 20
83.080116
 11
-33.221939
 21
89.330124
  0
LINE
  8
0
  6
CONTINUOUS
 62
     3
 10
-26.005066
 20
76.830124
 11
-22.396629
 21
83.080124
  0
LINE
  8
0
  6
CONTINUOUS
 62
     3
 10
-36.830379
 20
26.299999
 11
-22.396627
 21
26.299999
  0
LINE
  8
0
  6
CENTER
 62
     7
 10
-29.613503
 20
32.375668
 11
-29.613503
 21
-37.220844
  0
LINE
  8
0
  6
CONTINUOUS
 62
     3
 10
-40.113503
 20
24.299999
 11
-19.113503
 21
24.299999
  0
LINE
  8
0
  6
CONTINUOUS
 62
     3
 10
-40.113503
 20
16.299999
 11
-19.113503
 21
16.299999
  0
LINE
  8
0
  6
CONTINUOUS
 62
     3
 10
-39.863503
 20
18.049999
 11
-19.363503
 21
18.049999
  0
LINE
  8
0
  6
CONTINUOUS
 62
     3
 10
-39.863503
 20
22.549999
 11
-19.363503
 21
22.549999
  0
LINE
  8
0
  6
CONTINUOUS
 62
     3
 10
-40.113503
 20
24.299999
 11
-40.113503
 21
22.536068
  0
LINE
  8
0
  6
CONTINUOUS
 62
     3
 10
-19.113503
 20
24.299999
 11
-19.113503
 21
22.536068
  0
LINE
  8
0
  6
CONTINUOUS
 62
     3
 10
-40.113503
 20
18.063931
 11
-40.113503
 21
16.299999
  0
LINE
  8
0
  6
CONTINUOUS
 62
     3
 10
-19.113503
 20
18.063931
 11
-19.113503
 21
16.299999
  0
LINE
  8
0
  6
CONTINUOUS
 62
     3
 10
-36.830379
 20
26.299999
 11
-36.830379
 21
24.299999
  0
LINE
  8
0
  6
CONTINUOUS
 62
     3
 10
-22.396627
 20
26.299999
 11
-22.396627
 21
24.299999
  0
LINE
  8
0
  6
CONTINUOUS
 62
     3
 10
-33.221943
 20
26.299999
 11
-33.221943
 21
24.299999
  0
LINE
  8
0
  6
CONTINUOUS
 62
     3
 10
-26.005064
 20
26.299999
 11
-26.005064
 21
24.299999
  0
LINE
  8
0
  6
CONTINUOUS
 62
     3
 10
-35.238503
 20
15.5
 11
-23.988503
 21
15.5
  0
LINE
  8
0
  6
CONTINUOUS
 62
     3
 10
-35.238503
 20
16.299999
 11
-35.238503
 21
15.5
  0
LINE
  8
0
  6
CONTINUOUS
 62
     3
 10
-23.988503
 20
16.299999
 11
-23.988503
 21
15.5
  0
LINE
  8
0
  6
CONTINUOUS
 62
     3
 10
-25.738503
 20
15.5
 11
-25.738503
 21
2.4300003
  0
LINE
  8
0
  6
CONTINUOUS
 62
     3
 10
-33.488503
 20
15.5
 11
-33.488503
 21
2.4300003
  0
LINE
  8
0
  6
CONTINUOUS
 62
     3
 10
-33.488503
 20
10
 11
-25.738503
 21
10
  0
LINE
  8
0
  6
CONTINUOUS
 62
     7
 10
-32.738503
 20
10
 11
-32.738503
 21
2.4300003
  0
LINE
  8
0
  6
CONTINUOUS
 62
     7
 10
-26.488503
 20
10
 11
-26.488503
 21
2.4300003
  0
LINE
  8
0
  6
CONTINUOUS
 62
     7
 10
-25.738503
 20
-4.0699997
 11
-25.738503
 21
-11.262768
  0
LINE
  8
0
  6
CONTINUOUS
 62
     7
 10
-33.488503
 20
-4.0699997
 11
-33.488503
 21
-11.262768
  0
LINE
  8
0
  6
CONTINUOUS
 62
     7
 10
-29.613506
 20
-13.500001
 11
-25.738504
 21
-11.262767
  0
LINE
  8
0
  6
CONTINUOUS
 62
     7
 10
-29.613503
 20
-13.5
 11
-33.488503
 21
-11.262769
  0
LINE
  8
0
  6
CONTINUOUS
 62
     7
 10
-33.488503
 20
-11.262769
 11
-25.738503
 21
-11.262769
  0
LINE
  8
0
  6
PHANTOM
 62
     7
 10
-35.613503
 20
-4.0699997
 11
-35.613503
 21
-24.073788
  0
LINE
  8
0
  6
PHANTOM
 62
     7
 10
-23.613503
 20
-4.0699997
 11
-23.613503
 21
-24.073788
  0
LINE
  8
0
  6
PHANTOM
 62
     7
 10
-26.378263
 20
-33.074074
 11
-29.613503
 21
-21
  0
LINE
  8
0
  6
PHANTOM
 62
     7
 10
-32.84874
 20
-33.07407
 11
-29.613501
 21
-21
  0
LINE
  8
0
  6
PHANTOM
 62
     7
 10
-37.678368
 20
-31.77998
 11
-35.613503
 21
-24.07379
  0
LINE
  8
0
  6
PHANTOM
 62
     7
 10
-21.548635
 20
-31.779976
 11
-23.613503
 21
-24.073788
  0
LINE
  8
0
  6
PHANTOM
 62
     7
 10
-37.678368
 20
-31.779976
 11
-32.84874
 21
-33.07407
  0
LINE
  8
0
  6
PHANTOM
 62
     7
 10
-21.548637
 20
-31.779976
 11
-26.378263
 21
-33.07407
  0
LINE
  8
0
  6
CONTINUOUS
 62
     7
 10
-190.8372
 20
172.95985
 11
-190.8372
 21
76.959854
  0
LINE
  8
0
  6
CONTINUOUS
 62
     7
 10
-210.8372
 20
164.95985
 11
-100.8372
 21
164.95985
  0
LINE
  8
0
  6
CONTINUOUS
 62
     7
 10
-210.8372
 20
156.95985
 11
-100.8372
 21
156.95985
  0
LINE
  8
0
  6
CONTINUOUS
 62
     7
 10
-210.8372
 20
148.95985
 11
-100.8372
 21
148.95985
  0
LINE
  8
0
  6
CONTINUOUS
 62
     7
 10
-210.8372
 20
140.95985
 11
-100.8372
 21
140.95985
  0
LINE
  8
0
  6
CONTINUOUS
 62
     7
 10
-190.8372
 20
116.95985
 11
-100.8372
 21
116.95985
  0
LINE
  8
0
  6
CONTINUOUS
 62
     7
 10
-190.8372
 20
108.95985
 11
-100.8372
 21
108.95985
  0
LINE
  8
0
  6
CONTINUOUS
 62
     7
 10
-210.8372
 20
100.95985
 11
-100.8372
 21
100.95985
  0
LINE
  8
0
  6
CONTINUOUS
 62
     7
 10
-190.8372
 20
92.959854
 11
-100.8372
 21
92.959854
  0
LINE
  8
0
  6
CONTINUOUS
 62
     7
 10
-210.8372
 20
84.959854
 11
-100.8372
 21
84.959854
  0
LINE
  8
0
  6
CONTINUOUS
 62
     7
 10
-210.8372
 20
76.959854
 11
-100.8372
 21
76.959854
  0
LINE
  8
0
  6
CONTINUOUS
 62
     7
 10
-210.8372
 20
172.95985
 11
-210.8372
 21
76.959854
  0
LINE
  8
0
  6
CONTINUOUS
 62
     7
 10
-210.8372
 20
172.95985
 11
-100.8372
 21
172.95985
  0
LINE
  8
0
  6
CONTINUOUS
 62
     7
 10
-100.8372
 20
172.95985
 11
-100.8372
 21
76.959854
  0
LINE
  8
0
  6
CONTINUOUS
 62
     7
 10
-210.8372
 20
132.95985
 11
-100.8372
 21
132.95985
  0
LINE
  8
0
  6
CONTINUOUS
 62
     7
 10
-210.8372
 20
124.95985
 11
-100.8372
 21
124.95985
  0
LINE
  8
0
  6
CONTINUOUS
 62
     7
 10
-190.8372
 20
116.95985
 11
-100.8372
 21
116.95985
  0
LINE
  8
0
  6
CONTINUOUS
 62
     7
 10
-32.738503
 20
-4.0699997
 11
-32.738503
 21
-11.262769
  0
LINE
  8
0
  6
CONTINUOUS
 62
     7
 10
-26.488503
 20
-4.0699997
 11
-26.488503
 21
-11.262769
  0
LINE
  8
0
  6
CONTINUOUS
 62
     7
 10
-33.368507
 20
1.7051086
 11
-33.368507
 21
-4.0699997
  0
LINE
  8
0
  6
CONTINUOUS
 62
     7
 10
-25.858513
 20
1.7051086
 11
-25.858513
 21
-4.0699997
  0
LINE
  8
0
  6
CONTINUOUS
 62
     7
 10
-22.107948
 20
1.7051058
 11
-23.363499
 21
2.4299974
  0
LINE
  8
0
  6
CONTINUOUS
 62
     7
 10
-23.363503
 20
2.4300003
 11
-35.863503
 21
2.4300003
  0
LINE
  8
0
  6
CONTINUOUS
 62
     7
 10
-35.863499
 20
2.4300041
 11
-37.119064
 21
1.7051047
  0
LINE
  8
0
  6
CONTINUOUS
 62
     7
 10
-37.119057
 20
1.7051086
 11
-37.119057
 21
-4.0699997
  0
LINE
  8
0
  6
CENTER
 62
     2
 10
-29.613503
 20
4.6185913
 11
-29.613503
 21
-6.082489
  0
LINE
  8
0
  6
CONTINUOUS
 62
     7
 10
-22.107948
 20
-4.0699997
 11
-22.107948
 21
1.7051086
  0
LINE
  8
0
  6
CONTINUOUS
 62
     7
 10
-37.119057
 20
-4.0699997
 11
-22.107948
 21
-4.0699997
  0
LINE
  8
0
  6
CENTER
 62
     7
 10
-29.613503
 20
98.580124
 11
-29.613503
 21
67.580124
  0
LINE
  8
0
  6
CENTER
 62
     7
 10
-45.113503
 20
83.080124
 11
-14.113503
 21
83.080124
  0
ARC
  8
0
  6
CONTINUOUS
 62
     3
 10
-39.863503
 20
20.299999
 40
2.25
 50
90
 51
270
  0
ARC
  8
0
  6
CONTINUOUS
 62
     3
 10
-19.363503
 20
20.299999
 40
2.25
 50
270
 51
90
  0
ARC
  8
0
  6
CONTINUOUS
 62
     7
 10
-35.243782
 20
-0.35808563
 40
2.7880859
 50
47.731639
 51
107.73163
  0
ARC
  8
0
  6
CONTINUOUS
 62
     7
 10
-23.983223
 20
-0.35808563
 40
2.7880859
 50
72.268332
 51
132.26833
  0
ARC
  8
0
  6
CONTINUOUS
 62
     7
 10
-29.613503
 20
-7.65802
 40
10.088022
 50
68.147186
 51
111.85282
  0
CIRCLE
  8
0
  6
CONTINUOUS
 62
     7
 10
-29.613503
 20
83.080124
 40
12.5
  0
CIRCLE
  8
0
  6
CONTINUOUS
 62
     7
 10
-29.613503
 20
83.080124
 40
10.5
  0
TEXT
  8
0
  6
CONTINUOUS
 62
     7
 10
-205.1802
 20
167.35985
 40
3.2
 41
0.85537027
  1
品　名
  0
TEXT
  8
0
  6
CONTINUOUS
 62
     7
 10
-205.1802
 20
159.35985
 40
3.2
 41
0.85537027
  1
品　番
  0
TEXT
  8
0
  6
CONTINUOUS
 62
     7
 10
-187.9802
 20
167.35985
 40
3.2
 41
0.84634979
  1
ガイドローラー
  0
TEXT
  8
0
  6
CONTINUOUS
 62
     7
 10
-205.1802
 20
151.35985
 40
3.2
 41
0.85537027
  1
材　質
  0
TEXT
  8
0
  6
CONTINUOUS
 62
     7
 10
-205.1802
 20
143.35985
 40
3.2
 41
0.85537027
  1
仕上げ
  0
TEXT
  8
0
  6
CONTINUOUS
 62
     7
 10
-208.3802
 20
119.35985
 40
3.2
 41
0.84892707
  1
セットビス
  0
TEXT
  8
0
  6
CONTINUOUS
 62
     7
 10
-187.9802
 20
143.35985
 40
3.2
 41
0.84306961
  1
（軸）有色クロメート（車）生地
  0
TEXT
  8
0
  6
CONTINUOUS
 62
     7
 10
-203.5802
 20
95.359854
 40
3.2
 41
0.86439075
  1
備考
  0
TEXT
  8
0
  6
CONTINUOUS
 62
     7
 10
-187.9802
 20
151.35985
 40
3.2
 41
0.84237466
  1
（軸）スチール、（車）ポリアセタール樹脂
  0
TEXT
  8
0
  6
CONTINUOUS
 62
     7
 10
-187.9802
 20
159.35985
 40
3.2
 41
0.84892707
  1
ＳＴ－６５
  0
TEXT
  8
0
  6
CONTINUOUS
 62
     7
 10
-205.1802
 20
135.35985
 40
3.2
 41
0.85537027
  1
定　尺
  0
TEXT
  8
0
  6
CONTINUOUS
 62
     7
 10
-206.7802
 20
127.35985
 40
3.2
 41
0.85127005
  1
左右勝手
  0
TEXT
  8
0
  6
CONTINUOUS
 62
     7
 10
-208.3372
 20
79.359854
 40
3.2
 41
0.51379248
  1
使用可能シリーズ
  0
TEXT
  8
0
  6
CONTINUOUS
 62
     7
 10
-187.9802
 20
95.359854
 40
3.2
 41
0.84306961
  1
グリップアンカー　Ｍ８×３５付
  0
TEXT
  8
0
  6
CONTINUOUS
 62
     7
 10
-187.9802
 20
79.359854
 40
3.2
 41
0.8427416
  1
トリム・リフレイン・リズム・スリム
  0
DIMENSION
  8
0
  6
CONTINUOUS
 62
     7
  2
*D1
 70
     0
 10
-2.1135025
 20
24.299999
 11
-2.1135025
 21
20.299999
  3
DIMSTYLE
 13
-14.613503
 23
16.299999
 14
-14.613503
 24
24.299999
 50
90
1001
ACAD
1000
DSTYLE
1002
{
1070
    77
1070
     1
1070
   172
1070
     1
1002
}
  0
DIMENSION
  8
0
  6
CONTINUOUS
 62
     7
  2
*D2
 70
     0
 10
-2.1135025
 20
26.299999
 11
-2.1135025
 21
30.328194
  3
DIMSTYLE
 13
-14.613503
 23
24.299999
 14
-22.396627
 24
26.299999
 50
90
1001
ACAD
1000
DSTYLE
1002
{
1070
    77
1070
     1
1070
   172
1070
     1
1070
    75
1070
     1
1002
}
  0
DIMENSION
  8
0
  6
CONTINUOUS
 62
     7
  2
*D3
 70
     0
 10
-2.1135025
 20
-13.5
 11
-2.1135025
 21
1
  3
DIMSTYLE
 13
-23.988503
 23
15.5
 14
-29.613503
 24
-13.5
 50
90
1001
ACAD
1000
DSTYLE
1002
{
1070
    77
1070
     1
1070
   172
1070
     1
1002
}
  0
POLYLINE
  8
0
  6
CONTINUOUS
 62
     7
 66
     1
 10
0
 20
0
 40
0
 41
0
  0
VERTEX
  8
0
  6
CONTINUOUS
 62
     7
 10
-2.1135025
 20
15.9
  0
VERTEX
  8
0
  6
CONTINUOUS
 62
     7
 10
3.6130042
 20
19.2062
  0
VERTEX
  8
0
  6
CONTINUOUS
 62
     7
 10
3.6130047
 20
27.558023
  0
SEQEND
  8
0
  6
CONTINUOUS
 62
     7
  0
LINE
  8
0
  6
CONTINUOUS
 62
     7
 10
-2.1135025
 20
15.9
 11
0.31442497
 21
17.950706
  0
LINE
  8
0
  6
CONTINUOUS
 62
     7
 10
-2.1135025
 20
15.9
 11
0.87642494
 21
16.977293
  0
TEXT
  8
0
  6
CONTINUOUS
 62
     7
 10
2.8630049
 20
18.986523
 40
3
 41
1.4805455
  1
0.8
 50
90.000003
  0
DIMENSION
  8
0
  6
CONTINUOUS
 62
     7
  2
*D4
 70
     0
 10
-2.1135025
 20
15.5
 11
3.6130047
 21
23.058023
  3
DIMSTYLE
 13
-14.613503
 23
16.299999
 14
-23.988503
 24
15.5
 50
90
1001
ACAD
1000
DSTYLE
1002
{
1070
    77
1070
     1
1070
   172
1070
     1
1070
    75
1070
     1
1002
}
  0
DIMENSION
  8
0
  6
CONTINUOUS
 62
     7
  2
*D5
 70
     0
 10
-23.613503
 20
-48.074074
 11
-8.3737526
 21
-48.074074
  3
DIMSTYLE
 13
-35.613503
 23
-33.851631
 14
-23.613503
 24
-33.851631
 50
0
1001
ACAD
1000
DSTYLE
1002
{
1070
    77
1070
     1
1070
   172
1070
     1
1002
}
  0
DIMENSION
  8
0
  6
CONTINUOUS
 62
     7
  2
*D6
 70
     0
 10
-17.113503
 20
105.58012
 11
-29.613503
 21
105.58012
  3
DIMSTYLE
 13
-42.113503
 23
83.080124
 14
-17.113503
 24
83.080124
 50
0
1001
ACAD
1000
DSTYLE
1002
{
1070
    77
1070
     1
1070
   172
1070
     1
1002
}
  0
ENDSEC
  0
EOF
