  0
SECTION
  2
HEADER
  9
$ACADVER
  1
AC1015
  9
$ACADMAINTVER
 70
    20
  9
$DWGCODEPAGE
  3
ANSI_932
  9
$INSBASE
 10
0.0
 20
0.0
 30
0.0
  9
$EXTMIN
 10
-0.0000003291501116
 20
0.0000001587767429
 30
0.0
  9
$EXTMAX
 10
419.9999996708498
 20
297.0000001587767
 30
0.0
  9
$LIMMIN
 10
1700.85588156276
 20
1647.985052086429
  9
$LIMMAX
 10
1997.85588156276
 20
1857.985052086429
  9
$ORTHOMODE
 70
     0
  9
$REGENMODE
 70
     1
  9
$FILLMODE
 70
     1
  9
$QTEXTMODE
 70
     0
  9
$MIRRTEXT
 70
     0
  9
$LTSCALE
 40
1.0
  9
$ATTMODE
 70
     1
  9
$TEXTSIZE
 40
3.2
  9
$TRACEWID
 40
1.0
  9
$TEXTSTYLE
  7
STANDARD
  9
$CLAYER
  8
AM_0
  9
$CELTYPE
  6
ByLayer
  9
$CECOLOR
 62
   256
  9
$CELTSCALE
 40
1.0
  9
$DISPSILH
 70
     0
  9
$DIMSCALE
 40
1.0
  9
$DIMASZ
 40
1.0
  9
$DIMEXO
 40
1.0
  9
$DIMDLI
 40
10.0
  9
$DIMRND
 40
0.0
  9
$DIMDLE
 40
0.0
  9
$DIMEXE
 40
1.0
  9
$DIMTP
 40
0.1
  9
$DIMTM
 40
0.1
  9
$DIMTXT
 40
3.5
  9
$DIMCEN
 40
0.0
  9
$DIMTSZ
 40
0.0
  9
$DIMTOL
 70
     0
  9
$DIMLIM
 70
     0
  9
$DIMTIH
 70
     0
  9
$DIMTOH
 70
     0
  9
$DIMSE1
 70
     0
  9
$DIMSE2
 70
     0
  9
$DIMTAD
 70
     1
  9
$DIMZIN
 70
     8
  9
$DIMBLK
  1

  9
$DIMASO
 70
     1
  9
$DIMSHO
 70
     1
  9
$DIMPOST
  1

  9
$DIMAPOST
  1
"
  9
$DIMALT
 70
     0
  9
$DIMALTD
 70
     2
  9
$DIMALTF
 40
0.0393701
  9
$DIMLFAC
 40
1.0
  9
$DIMTOFL
 70
     1
  9
$DIMTVP
 40
0.0
  9
$DIMTIX
 70
     0
  9
$DIMSOXD
 70
     0
  9
$DIMSAH
 70
     0
  9
$DIMBLK1
  1

  9
$DIMBLK2
  1

  9
$DIMSTYLE
  2
SYS
  9
$DIMCLRD
 70
   256
  9
$DIMCLRE
 70
   256
  9
$DIMCLRT
 70
     7
  9
$DIMTFAC
 40
0.71
  9
$DIMGAP
 40
1.5
  9
$DIMJUST
 70
     0
  9
$DIMSD1
 70
     0
  9
$DIMSD2
 70
     0
  9
$DIMTOLJ
 70
     0
  9
$DIMTZIN
 70
     8
  9
$DIMALTZ
 70
     0
  9
$DIMALTTZ
 70
     0
  9
$DIMUPT
 70
     0
  9
$DIMDEC
 70
     2
  9
$DIMTDEC
 70
     2
  9
$DIMALTU
 70
     2
  9
$DIMALTTD
 70
     2
  9
$DIMTXSTY
  7
STANDARD
  9
$DIMAUNIT
 70
     0
  9
$DIMADEC
 70
     0
  9
$DIMALTRND
 40
0.0
  9
$DIMAZIN
 70
     2
  9
$DIMDSEP
 70
    46
  9
$DIMATFIT
 70
     3
  9
$DIMFRAC
 70
     0
  9
$DIMLDRBLK
  1

  9
$DIMLUNIT
 70
     2
  9
$DIMLWD
 70
    -1
  9
$DIMLWE
 70
    -1
  9
$DIMTMOVE
 70
     0
  9
$LUNITS
 70
     2
  9
$LUPREC
 70
     2
  9
$SKETCHINC
 40
1.0
  9
$FILLETRAD
 40
0.0
  9
$AUNITS
 70
     0
  9
$AUPREC
 70
     0
  9
$MENU
  1
.
  9
$ELEVATION
 40
0.0
  9
$PELEVATION
 40
0.0
  9
$THICKNESS
 40
0.0
  9
$LIMCHECK
 70
     0
  9
$CHAMFERA
 40
0.0
  9
$CHAMFERB
 40
0.0
  9
$CHAMFERC
 40
20.0
  9
$CHAMFERD
 40
0.0
  9
$SKPOLY
 70
     0
  9
$TDCREATE
 40
2455883.398549433
  9
$TDUCREATE
 40
2455883.023549433
  9
$TDUPDATE
 40
2456352.482121308
  9
$TDUUPDATE
 40
2456352.107121308
  9
$TDINDWG
 40
0.0007749190
  9
$TDUSRTIMER
 40
0.0007747454
  9
$USRTIMER
 70
     1
  9
$ANGBASE
 50
0.0
  9
$ANGDIR
 70
     0
  9
$PDMODE
 70
     0
  9
$PDSIZE
 40
-3.0
  9
$PLINEWID
 40
0.0
  9
$SPLFRAME
 70
     0
  9
$SPLINETYPE
 70
     6
  9
$SPLINESEGS
 70
     8
  9
$HANDSEED
  5
BA47
  9
$SURFTAB1
 70
     6
  9
$SURFTAB2
 70
     6
  9
$SURFTYPE
 70
     6
  9
$SURFU
 70
     6
  9
$SURFV
 70
     6
  9
$UCSBASE
  2

  9
$UCSNAME
  2

  9
$UCSORG
 10
0.0
 20
0.0
 30
0.0
  9
$UCSXDIR
 10
1.0
 20
0.0
 30
0.0
  9
$UCSYDIR
 10
0.0
 20
1.0
 30
0.0
  9
$UCSORTHOREF
  2

  9
$UCSORTHOVIEW
 70
     0
  9
$UCSORGTOP
 10
0.0
 20
0.0
 30
0.0
  9
$UCSORGBOTTOM
 10
0.0
 20
0.0
 30
0.0
  9
$UCSORGLEFT
 10
0.0
 20
0.0
 30
0.0
  9
$UCSORGRIGHT
 10
0.0
 20
0.0
 30
0.0
  9
$UCSORGFRONT
 10
0.0
 20
0.0
 30
0.0
  9
$UCSORGBACK
 10
0.0
 20
0.0
 30
0.0
  9
$PUCSBASE
  2

  9
$PUCSNAME
  2

  9
$PUCSORG
 10
0.0
 20
0.0
 30
0.0
  9
$PUCSXDIR
 10
1.0
 20
0.0
 30
0.0
  9
$PUCSYDIR
 10
0.0
 20
1.0
 30
0.0
  9
$PUCSORTHOREF
  2

  9
$PUCSORTHOVIEW
 70
     0
  9
$PUCSORGTOP
 10
0.0
 20
0.0
 30
0.0
  9
$PUCSORGBOTTOM
 10
0.0
 20
0.0
 30
0.0
  9
$PUCSORGLEFT
 10
0.0
 20
0.0
 30
0.0
  9
$PUCSORGRIGHT
 10
0.0
 20
0.0
 30
0.0
  9
$PUCSORGFRONT
 10
0.0
 20
0.0
 30
0.0
  9
$PUCSORGBACK
 10
0.0
 20
0.0
 30
0.0
  9
$USERI1
 70
     0
  9
$USERI2
 70
     0
  9
$USERI3
 70
     0
  9
$USERI4
 70
     0
  9
$USERI5
 70
     0
  9
$USERR1
 40
0.0
  9
$USERR2
 40
0.0
  9
$USERR3
 40
0.0
  9
$USERR4
 40
0.0
  9
$USERR5
 40
0.0
  9
$WORLDVIEW
 70
     1
  9
$SHADEDGE
 70
     3
  9
$SHADEDIF
 70
    70
  9
$TILEMODE
 70
     1
  9
$MAXACTVP
 70
    64
  9
$PINSBASE
 10
0.0
 20
0.0
 30
0.0
  9
$PLIMCHECK
 70
     0
  9
$PEXTMIN
 10
1.000000000000000E+20
 20
1.000000000000000E+20
 30
1.000000000000000E+20
  9
$PEXTMAX
 10
-1.000000000000000E+20
 20
-1.000000000000000E+20
 30
-1.000000000000000E+20
  9
$PLIMMIN
 10
-3.17498779296875
 20
-3.174999952316284
  9
$PLIMMAX
 10
293.4970092773438
 20
206.692492723465
  9
$UNITMODE
 70
     0
  9
$VISRETAIN
 70
     1
  9
$PLINEGEN
 70
     0
  9
$PSLTSCALE
 70
     1
  9
$TREEDEPTH
 70
  3020
  9
$CMLSTYLE
  2
Standard
  9
$CMLJUST
 70
     0
  9
$CMLSCALE
 40
20.0
  9
$PROXYGRAPHICS
 70
     1
  9
$MEASUREMENT
 70
     1
  9
$CELWEIGHT
370
    -1
  9
$ENDCAPS
280
     0
  9
$JOINSTYLE
280
     0
  9
$LWDISPLAY
290
     1
  9
$INSUNITS
 70
     4
  9
$HYPERLINKBASE
  1

  9
$STYLESHEET
  1
monochrome.ctb
  9
$XEDIT
290
     1
  9
$CEPSNTYPE
380
     0
  9
$PSTYLEMODE
290
     1
  9
$FINGERPRINTGUID
  2
{FCD8353B-E497-404E-A995-1923EA2D3164}
  9
$VERSIONGUID
  2
{66D3B9C8-DDB7-4D0A-A462-682998F351B3}
  9
$EXTNAMES
290
     1
  9
$PSVPSCALE
 40
0.0
  9
$OLESTARTUP
290
     0
  0
ENDSEC
  0
SECTION
  2
CLASSES
  0
CLASS
  1
ACDBDICTIONARYWDFLT
  2
AcDbDictionaryWithDefault
  3
ObjectDBX Classes
 90
        0
280
     0
281
     0
  0
CLASS
  1
ACDBPLACEHOLDER
  2
AcDbPlaceHolder
  3
ObjectDBX Classes
 90
        0
280
     0
281
     0
  0
CLASS
  1
LAYOUT
  2
AcDbLayout
  3
ObjectDBX Classes
 90
        0
280
     0
281
     0
  0
CLASS
  1
AMGSETTINGSOBJ
  2
AmgSettingsObj
  3
"AcadM|Product Description: AutoCAD Mechanical|Company: Autodesk"
 90
        0
280
     0
281
     0
  0
CLASS
  1
ACME_DOCUMENT
  2
AcMeDbDoc
  3
AcMeServices
 90
        0
280
     0
281
     0
  0
CLASS
  1
ACMESCOPE
  2
AcMeScope
  3
AcMeServices
 90
        0
280
     0
281
     0
  0
CLASS
  1
ACMECOMMANDHISTORY
  2
AcMeCommandHistory
  3
AcMeServices
 90
        0
280
     0
281
     0
  0
CLASS
  1
DICTIONARYVAR
  2
AcDbDictionaryVar
  3
ObjectDBX Classes
 90
        0
280
     0
281
     0
  0
CLASS
  1
ACIMSYSVARMAN
  2
AcImSysVarManager
  3
AcMeServices
 90
        0
280
     0
281
     0
  0
CLASS
  1
ACIMREALSYSVAR
  2
AcImRealSysVar
  3
AcMeServices
 90
        0
280
     0
281
     0
  0
CLASS
  1
ACIMINTSYSVAR
  2
AcImIntSysVar
  3
AcMeServices
 90
        0
280
     0
281
     0
  0
CLASS
  1
ACMEDRAWINGMAN
  2
AcMeDrawingMan
  3
AcMeServices
 90
        0
280
     0
281
     0
  0
CLASS
  1
ACMEVIEW
  2
AcMeView
  3
AcMeServices
 90
        0
280
     0
281
     0
  0
CLASS
  1
ACDBENTITYCACHE
  2
AcMeEntityCache
  3
AcMeServices
 90
        0
280
     0
281
     0
  0
CLASS
  1
GSMANAGER
  2
AcMeGSManager
  3
AcMeServices
 90
        0
280
     0
281
     0
  0
CLASS
  1
AMDTINTERNALREACTOR
  2
AmdtInternalReactor
  3
AcMeServices
 90
        0
280
     0
281
     0
  0
CLASS
  1
ACMESTATEMGR
  2
AcMeStateMgr
  3
AcMeServices
 90
        0
280
     0
281
     0
  0
CLASS
  1
ACGREFMASTER
  2
AcGrefMaster
  3
AcAttribServices
 90
        0
280
     0
281
     0
  0
CLASS
  1
ACME_DATABASE
  2
AcMeDbDatabase
  3
AcMeServices
 90
        0
280
     0
281
     0
  0
CLASS
  1
ACRFINSADJUSTERMGR
  2
AcRfInsAdjusterMgr
  3
AcMeServices
 90
        0
280
     0
281
     0
  0
CLASS
  1
ACGREFACADMASTER
  2
AcGrefacadMaster
  3
AcGrefServices
 90
        0
280
     0
281
     0
  0
CLASS
  1
AMIMASTER
  2
AmiMaster
  3
AmiServices
 90
        0
280
     0
281
     0
  0
CLASS
  1
ACMDATADICTIONARY
  2
AcmDataDictionary
  3
"AcmSymBB|Product Description: AutoCAD Mechanical|Company: Autodesk"
 90
        0
280
     0
281
     0
  0
CLASS
  1
ACMDATAENTRYBLOCK
  2
AcmDataEntryBlock
  3
"AcmSymBB|Product Description: AutoCAD Mechanical|Company: Autodesk"
 90
        0
280
     0
281
     0
  0
CLASS
  1
ACIMSTRSYSVAR
  2
AcImStrSysVar
  3
AcMeServices
 90
        0
280
     0
281
     0
  0
CLASS
  1
ACMSTANDARDISO
  2
AcmStandardISO
  3
"Amdt_StdImp|Product Description: AutoCAD Mechanical|Company: Autodesk"
 90
        0
280
     0
281
     0
  0
CLASS
  1
AMGOBJPROPCFG
  2
AmgObjPropCfg
  3
"AmgLay|Product Description: AutoCAD Mechanical|Company: Autodesk"
 90
        1
280
     0
281
     0
  0
CLASS
  1
AMDTEDGESTANDARDISO
  2
AmdtEdgeStdISO
  3
"Amdt_StdImp|Product Description: AutoCAD Mechanical|Company: Autodesk"
 90
        0
280
     0
281
     0
  0
CLASS
  1
ACMSURFSTANDARDISO
  2
AcmSurfTextStdISO
  3
"Amdt_StdImp|Product Description: AutoCAD Mechanical|Company: Autodesk"
 90
        0
280
     0
281
     0
  0
CLASS
  1
ACMFCFSTANDARDISO
  2
AcmFCFStdISO
  3
"Amdt_StdImp|Product Description: AutoCAD Mechanical|Company: Autodesk"
 90
        0
280
     0
281
     0
  0
CLASS
  1
ACMWELDSTANDARDISO
  2
AcmWeldingStdISO
  3
"Amdt_StdImp|Product Description: AutoCAD Mechanical|Company: Autodesk"
 90
        0
280
     0
281
     0
  0
CLASS
  1
ACMIDSTANDARDISO
  2
AcmIdStdISO
  3
"Amdt_StdImp|Product Description: AutoCAD Mechanical|Company: Autodesk"
 90
        0
280
     0
281
     0
  0
CLASS
  1
ACMDATUMSTANDARDISO
  2
AcmDatumStdISO
  3
"Amdt_StdImp|Product Description: AutoCAD Mechanical|Company: Autodesk"
 90
        0
280
     0
281
     0
  0
CLASS
  1
ACMBOMSTANDARDISO
  2
AcmBOMStdISO
  3
"Amdt_StdImp|Product Description: AutoCAD Mechanical|Company: Autodesk"
 90
        0
280
     0
281
     0
  0
CLASS
  1
ACMDETAILSTANDARDISO
  2
AmdtDetailSymStdISO
  3
"Amdt_StdImp|Product Description: AutoCAD Mechanical|Company: Autodesk"
 90
        0
280
     0
281
     0
  0
CLASS
  1
ACMSECTIONSTANDARDISO
  2
AmdtSectionSymStdISO
  3
"Amdt_StdImp|Product Description: AutoCAD Mechanical|Company: Autodesk"
 90
        0
280
     0
281
     0
  0
CLASS
  1
ACMCENTERLINESTANDARDISO
  2
AmdtCenterLineStdISO
  3
"Amdt_StdImp|Product Description: AutoCAD Mechanical|Company: Autodesk"
 90
        0
280
     0
281
     0
  0
CLASS
  1
ACAMGLAYSTD
  2
AcAmgLayStd
  3
"AmgLay|Product Description: AutoCAD Mechanical|Company: Autodesk"
 90
        0
280
     0
281
     0
  0
CLASS
  1
ACAMGDIMSTD
  2
AcAmgDimStd
  3
"AmgDim|Product Description: AutoCAD Mechanical|Company: Autodesk"
 90
        0
280
     0
281
     0
  0
CLASS
  1
ACAMGTITLESTD
  2
AcAmgTitleStd
  3
"AmgTitle|Product Description: AutoCAD Mechanical|Company: Autodesk"
 90
        0
280
     0
281
     0
  0
CLASS
  1
ACAMGFILTERDAT
  2
AcAmgFilterDat
  3
"AcadM|Product Description: AutoCAD Mechanical|Company: Autodesk"
 90
        0
280
     0
281
     0
  0
CLASS
  1
LAYER_INDEX
  2
AcDbLayerIndex
  3
ObjectDBX Classes
 90
    32768
280
     0
281
     0
  0
CLASS
  1
IDBUFFER
  2
AcDbIdBuffer
  3
ObjectDBX Classes
 90
    32768
280
     0
281
     0
  0
CLASS
  1
PLOTSETTINGS
  2
AcDbPlotSettings
  3
ObjectDBX Classes
 90
    32768
280
     0
281
     0
  0
CLASS
  1
AMDTFORMULAUPDATEDISPATCHER
  2
AmdtFormulaUpdateDispatcher
  3
AcMeServices
 90
        0
280
     0
281
     0
  0
CLASS
  1
ACMSTANDARDANSI
  2
AcmStandardANSI
  3
"Amdt_StdImp|Product Description: AutoCAD Mechanical|Company: Autodesk"
 90
    32768
280
     0
281
     0
  0
CLASS
  1
ACMSURFSTANDARDANSI
  2
AcmSurfTextStdANSI
  3
"Amdt_StdImp|Product Description: AutoCAD Mechanical|Company: Autodesk"
 90
    32768
280
     0
281
     0
  0
CLASS
  1
ACMFCFSTANDARDANSI
  2
AcmFCFStdANSI
  3
"Amdt_StdImp|Product Description: AutoCAD Mechanical|Company: Autodesk"
 90
    32768
280
     0
281
     0
  0
CLASS
  1
ACMWELDSTANDARDANSI
  2
AcmWeldingStdANSI
  3
"Amdt_StdImp|Product Description: AutoCAD Mechanical|Company: Autodesk"
 90
    32768
280
     0
281
     0
  0
CLASS
  1
ACMIDSTANDARDANSI
  2
AcmIdStdANSI
  3
"Amdt_StdImp|Product Description: AutoCAD Mechanical|Company: Autodesk"
 90
    32768
280
     0
281
     0
  0
CLASS
  1
ACMDATUMSTANDARDANSI
  2
AcmDatumStdANSI
  3
"Amdt_StdImp|Product Description: AutoCAD Mechanical|Company: Autodesk"
 90
    32768
280
     0
281
     0
  0
CLASS
  1
ACMBOMSTANDARDANSI
  2
AcmBOMStdANSI
  3
"Amdt_StdImp|Product Description: AutoCAD Mechanical|Company: Autodesk"
 90
    32768
280
     0
281
     0
  0
CLASS
  1
ACMDETAILSTANDARDANSI
  2
AmdtDetailSymStdANSI
  3
"Amdt_StdImp|Product Description: AutoCAD Mechanical|Company: Autodesk"
 90
    32768
280
     0
281
     0
  0
CLASS
  1
ACMSECTIONSTANDARDANSI
  2
AmdtSectionSymStdANSI
  3
"Amdt_StdImp|Product Description: AutoCAD Mechanical|Company: Autodesk"
 90
    32768
280
     0
281
     0
  0
CLASS
  1
ACMCENTERLINESTANDARDANSI
  2
AmdtCenterLineStdANSI
  3
"Amdt_StdImp|Product Description: AutoCAD Mechanical|Company: Autodesk"
 90
    32768
280
     0
281
     0
  0
CLASS
  1
ACMBOM
  2
AcmBom
  3
"AcmSymBB|Product Description: AutoCAD Mechanical|Company: Autodesk"
 90
        0
280
     0
281
     0
  0
CLASS
  1
ACMDATAENTRYPART
  2
AcmDataEntryPart
  3
"AcmSymBB|Product Description: AutoCAD Mechanical|Company: Autodesk"
 90
    32768
280
     0
281
     0
  0
CLASS
  1
ACMPARTREF
  2
AcmPartRef
  3
"AcmSymBB|Product Description: AutoCAD Mechanical|Company: Autodesk"
 90
    35839
280
     0
281
     1
  0
CLASS
  1
ACDBCIRCARCRES
  2
AcDbCircArcRes
  3
AcGrefServices
 90
    32768
280
     0
281
     0
  0
CLASS
  1
ACMBOMROW
  2
AcmBomRow
  3
"AcmSymBB|Product Description: AutoCAD Mechanical|Company: Autodesk"
 90
    32768
280
     0
281
     0
  0
CLASS
  1
ACMBALLOON
  2
AcmBalloon
  3
"AcmSymBB|Product Description: AutoCAD Mechanical|Company: Autodesk"
 90
    35839
280
     0
281
     1
  0
CLASS
  1
AMDTNOTE
  2
AmdtNote
  3
"AcmSymBB|Product Description: AutoCAD Mechanical|Company: Autodesk"
 90
    35839
280
     0
281
     1
  0
CLASS
  1
STDPART2D
  2
AmgStdPart
  3
"g3vace|Class: AmgStdPart|Product Description: AutoCAD Mechanical|Company: Autodesk"
 90
    35839
280
     0
281
     1
  0
CLASS
  1
ACDBSTDPARTRES_LINE
  2
AcDbStdPartRes_Line
  3
"g3vace|Class: AcDbStdPartRes_Line|Product Description: AutoCAD Mechanical|Company: Autodesk"
 90
    32768
280
     0
281
     0
  0
CLASS
  1
ACMDATAENTRY
  2
AcmDataEntry
  3
"AcmSymBB|Product Description: AutoCAD Mechanical|Company: Autodesk"
 90
        0
280
     0
281
     0
  0
CLASS
  1
ACDBOPPOLYLINERES
  2
AcDbOpPolylineRes
  3
AcGrefServices
 90
    32768
280
     0
281
     0
  0
CLASS
  1
ACMPARTLIST
  2
AcmPartList
  3
"AcmSymBB|Product Description: AutoCAD Mechanical|Company: Autodesk"
 90
    35839
280
     0
281
     1
  0
CLASS
  1
ACDBLINERES
  2
AcDbLineRes
  3
AcGrefServices
 90
    32768
280
     0
281
     0
  0
CLASS
  1
ACRFINSADJ
  2
AcRfInsAdjuster
  3
AcMeServices
 90
    32768
280
     0
281
     0
  0
CLASS
  1
AM_DRAWING_MGR
  2
AcDmDwgMgr
  3
AcMechDwgViewMgmt
 90
        0
280
     0
281
     0
  0
CLASS
  1
AM_DWG_DOCUMENT
  2
AcDmDwgDocument
  3
AcMechDwgViewMgmt
 90
        0
280
     0
281
     0
  0
CLASS
  1
AM_DWG_SHEET
  2
AcDmSheet
  3
AcMechDwgViewMgmt
 90
        0
280
     0
281
     0
  0
CLASS
  1
AM_VIEWDIMPARMAP
  2
AcDmViewDimParMap
  3
AcMechDwgViewMgmt
 90
        0
280
     0
281
     0
  0
CLASS
  1
AM_DWGMGR_NAME
  2
AcDmDwgMgrName
  3
AcMechDwgViewMgmt
 90
        0
280
     0
281
     0
  0
CLASS
  1
AMDTMENUSTATEMGR
  2
AmdtMenuStateMgr
  3
McadcomServices
 90
        0
280
     0
281
     0
  0
CLASS
  1
AMDTMCOMMENUSTATE
  2
AmdtMcomMenuState
  3
McadcomServices
 90
        0
280
     0
281
     0
  0
CLASS
  1
ASAPP
  2
AcAsAppObject
  3
AutoSurfServices
 90
        0
280
     0
281
     0
  0
CLASS
  1
IM_STATIC_MAN
  2
AcImStaticVarManager
  3
AcMeServices
 90
        0
280
     0
281
     0
  0
CLASS
  1
ACIMDBLSTATICVAR
  2
AcImDblStaticVar
  3
AcMeServices
 90
        0
280
     0
281
     0
  0
CLASS
  1
ACIMSTRSTATICVAR
  2
AcImStrStaticVar
  3
AcMeServices
 90
        0
280
     0
281
     0
  0
CLASS
  1
ACIMINTSTATICVAR
  2
AcImIntStaticVar
  3
AcMeServices
 90
        0
280
     0
281
     0
  0
CLASS
  1
ACASGREFMASTER
  2
AcAsGrefMaster
  3
AutoSurfResolverServices
 90
        0
280
     0
281
     0
  0
CLASS
  1
ACADGREFMODULE
  2
AcAdGrefModule
  3
AdGrefServices
 90
        0
280
     0
281
     0
  0
CLASS
  1
AMDTMAPISURFMOUDULE
  2
AmdtMApiSurfModule
  3
MApiSurfServices
 90
        0
280
     0
281
     0
  0
CLASS
  1
MAPIAMMOUDLE
  2
MApiAmModule
  3
MApiAmServices
 90
        0
280
     0
281
     0
  0
CLASS
  1
AMDTADMENUSTATE
  2
AmdtAdMenuState
  3
DesignerServices
 90
        0
280
     0
281
     0
  0
CLASS
  1
ADAPPL
  2
AcAdAppl
  3
DesignerServices
 90
        0
280
     0
281
     0
  0
CLASS
  1
DEPMGR
  2
AcAdDepMgr
  3
DesignerServices
 90
        0
280
     0
281
     0
  0
CLASS
  1
PARAMMGR
  2
AcAdParamMgr
  3
DesignerServices
 90
        0
280
     0
281
     0
  0
CLASS
  1
PARAMSCOPE
  2
AcAdParamScope
  3
DesignerServices
 90
        0
280
     0
281
     0
  0
CLASS
  1
NAMEDAPPL
  2
AcAdNamedAppl
  3
DesignerServices
 90
        0
280
     0
281
     0
  0
CLASS
  1
ADHNTMPLT
  2
AdHoleNoteTemplateMgr
  3
DesignerServices
 90
    32768
280
     0
281
     0
  0
CLASS
  1
AM_HNTEMPLATE_MGR_NAME
  2
AdHoleNoteTemplateMgrName
  3
DesignerServices
 90
    32768
280
     0
281
     0
  0
CLASS
  1
AMDTDMMENUSTATE
  2
AmdtDmMenuState
  3
AcMechDwgViewMgmt
 90
        0
280
     0
281
     0
  0
CLASS
  1
MAPIADMODULE
  2
MApiAdModule
  3
MApiAdServices
 90
        0
280
     0
281
     0
  0
CLASS
  1
AMDTAMMENUSTATE
  2
AmdtAmMenuState
  3
DesignerAssemblies
 90
        0
280
     0
281
     0
  0
CLASS
  1
ACAMPROJECT
  2
AcAmProject
  3
DesignerAssemblies
 90
        0
280
     0
281
     0
  0
CLASS
  1
ACAMGRCOMPDEF
  2
AcAmGrCompDef
  3
DesignerAssemblies
 90
        0
280
     0
281
     0
  0
CLASS
  1
ACCMCONTEXT
  2
AcCmContext
  3
DesignerAssemblies
 90
        0
280
     0
281
     0
  0
CLASS
  1
ACAMCOMPDEF
  2
AcAmCompDef
  3
DesignerAssemblies
 90
        0
280
     0
281
     0
  0
CLASS
  1
ACAMCOMPDEFMGR
  2
AcAmCompDefMgr
  3
DesignerAssemblies
 90
        0
280
     0
281
     0
  0
CLASS
  1
AMCONTEXTMGR
  2
AcAmContextMgr
  3
DesignerAssemblies
 90
        0
280
     0
281
     0
  0
CLASS
  1
ACAMCONTEXTMODELER
  2
AcAmContextModeler
  3
DesignerAssemblies
 90
        0
280
     0
281
     0
  0
CLASS
  1
CATALOGSTATE
  2
AcAmCatalogState
  3
DesignerAssemblies
 90
        0
280
     0
281
     0
  0
CLASS
  1
ACAMGRCOMPDEFSET
  2
AcAmGrCompDefSet
  3
DesignerAssemblies
 90
        0
280
     0
281
     0
  0
CLASS
  1
AMDTBROWSERDBTAB
  2
AmdtBrowserDbTab
  3
McadcomServices
 90
        0
280
     0
281
     0
  0
CLASS
  1
CBROWSERAPPOBJECT
  2
CBrowserAppObject
  3
McadcomServices
 90
        0
280
     0
281
     0
  0
CLASS
  1
DM_PLACEHOLDER
  2
AcDmSelsetPlaceholder
  3
AcMechDwgViewMgmt
 90
        0
280
     0
281
     0
  0
CLASS
  1
ACMPICKOBJ
  2
AcmPickEnt
  3
"AcmSymBB|Product Description: AutoCAD Mechanical|Company: Autodesk"
 90
    32768
280
     0
281
     1
  0
CLASS
  1
ACMNOTESTANDARDISO
  2
AmdtNoteStdISO
  3
"Amdt_StdImp|Product Description: AutoCAD Mechanical|Company: Autodesk"
 90
        0
280
     0
281
     0
  0
CLASS
  1
ACMNOTESTANDARDANSI
  2
AmdtNoteStdANSI
  3
"Amdt_StdImp|Product Description: AutoCAD Mechanical|Company: Autodesk"
 90
    32768
280
     0
281
     0
  0
CLASS
  1
ACMTHREADLINESTANDARDISO
  2
AmdtThreadLineStdISO
  3
"Amdt_StdImp|Product Description: AutoCAD Mechanical|Company: Autodesk"
 90
        0
280
     0
281
     0
  0
CLASS
  1
ACMTHREADLINESTANDARDANSI
  2
AmdtThreadLineStdANSI
  3
"Amdt_StdImp|Product Description: AutoCAD Mechanical|Company: Autodesk"
 90
    32768
280
     0
281
     0
  0
CLASS
  1
TABLESTYLE
  2
AcDbTableStyle
  3
ObjectDBX Classes
 90
     4095
280
     0
281
     0
  0
CLASS
  1
SORTENTSTABLE
  2
AcDbSortentsTable
  3
ObjectDBX Classes
 90
        0
280
     0
281
     0
  0
CLASS
  1
MATERIAL
  2
AcDbMaterial
  3
ObjectDBX Classes
 90
     1024
280
     0
281
     0
  0
CLASS
  1
VISUALSTYLE
  2
AcDbVisualStyle
  3
ObjectDBX Classes
 90
     4095
280
     0
281
     0
  0
CLASS
  1
ACRFATTGENMGR
  2
AcRfAttGeneralMgr
  3
AcAttribServices
 90
        0
280
     0
281
     0
  0
CLASS
  1
ACRFOBJATTMGR
  2
AcRfObjAttGroupMgr
  3
AcAttribServices
 90
        0
280
     0
281
     0
  0
CLASS
  1
ACRFMCADAPIATTHOLDER
  2
AcRfMCADAPIAttHolder
  3
AcAttribServices
 90
        0
280
     0
281
     0
  0
CLASS
  1
AMDTSYSATTR
  2
AmdtSystemAttribute
  3
AcAttribServices
 90
        0
280
     0
281
     0
  0
CLASS
  1
ACMTAPERSTANDARDISO
  2
AcmTaperStdISO
  3
"Amdt_StdImp|Product Description: AutoCAD Mechanical|Company: Autodesk"
 90
        0
280
     0
281
     0
  0
CLASS
  1
CAMSSTRUCTBTNSTATE
  2
StructBtnState
  3
L"DesignerAssemblies"
 90
        0
280
     0
281
     0
  0
CLASS
  1
DIMASSOC
  2
AcDbDimAssoc
  3
"AcDbDimAssoc|Product Desc:     AcDim ARX App For Dimension|Company:          Autodesk, Inc.|WEB Address:      www.autodesk.com"
 90
    32768
280
     0
281
     0
  0
CLASS
  1
AMDTNOTETEMPLATEDB
  2
AmdtNoteTemplateDB
  3
AMDT_STDIMP_MODULE_NAME
 90
        0
280
     0
281
     0
  0
CLASS
  1
SCALE
  2
AcDbScale
  3
ObjectDBX Classes
 90
     1153
280
     0
281
     0
  0
CLASS
  1
MLEADERSTYLE
  2
AcDbMLeaderStyle
  3
ACDB_MLEADERSTYLE_CLASS
 90
     4095
280
     0
281
     0
  0
CLASS
  1
ACMANOOTATIONVIEWSTANDARDISO
  2
AmdtAnViewStdISO
  3
"Amdt_StdImp|Product Description: AutoCAD Mechanical|Company: Autodesk, Inc."
 90
    33792
280
     0
281
     0
  0
CLASS
  1
CELLSTYLEMAP
  2
AcDbCellStyleMap
  3
ObjectDBX Classes
 90
     1152
280
     0
281
     0
  0
ENDSEC
  0
SECTION
  2
TABLES
  0
TABLE
  2
VPORT
  5
8
330
0
100
AcDbSymbolTable
 70
     1
  0
VPORT
  5
B0EC
330
8
100
AcDbSymbolTableRecord
100
AcDbViewportTableRecord
  2
*Active
 70
     0
 10
0.0
 20
0.0
 11
1.0
 21
1.0
 12
209.9797292718035
 22
174.1870654743542
 13
0.0
 23
0.0
 14
2.5
 24
2.5
 15
10.0
 25
10.0
 16
0.0
 26
0.0
 36
1.0
 17
0.0
 27
0.0
 37
0.0
 40
350.6748689789116
 41
1.407124681933842
 42
50.0
 43
-1370.695619172058
 44
-1370.695619172058
 50
0.0
 51
0.0
 71
    16
 72
   100
 73
     1
 74
     3
 75
     0
 76
     0
 77
     0
 78
     0
281
     0
 65
     0
110
0.0
120
0.0
130
0.0
111
1.0
121
0.0
131
0.0
112
0.0
122
1.0
132
0.0
 79
     0
146
0.0
  0
ENDTAB
  0
TABLE
  2
LTYPE
  5
5
330
0
100
AcDbSymbolTable
 70
    27
  0
LTYPE
  5
14
330
5
100
AcDbSymbolTableRecord
100
AcDbLinetypeTableRecord
  2
ByBlock
 70
     0
  3

 72
    65
 73
     0
 40
0.0
  0
LTYPE
  5
15
330
5
100
AcDbSymbolTableRecord
100
AcDbLinetypeTableRecord
  2
ByLayer
 70
     0
  3

 72
    65
 73
     0
 40
0.0
  0
LTYPE
  5
16
330
5
100
AcDbSymbolTableRecord
100
AcDbLinetypeTableRecord
  2
Continuous
 70
     0
  3
Solid line
 72
    65
 73
     0
 40
0.0
  0
LTYPE
  5
4F
330
5
100
AcDbSymbolTableRecord
100
AcDbLinetypeTableRecord
  2
AM_ISO02W050
 70
     0
  3
__ __ __ __ __ __ __ __ __ __ __ __ __ __ __
 72
    65
 73
     2
 40
7.5
 49
6.0
 74
     0
 49
-1.5
 74
     0
  0
LTYPE
  5
52
330
5
100
AcDbSymbolTableRecord
100
AcDbLinetypeTableRecord
  2
Amconstr
 70
     0
  3
_______________________
 72
    65
 73
     2
 40
9999.0
 49
9999.0
 74
     0
 49
0.0
 74
     0
  0
LTYPE
  5
64
330
5
100
AcDbSymbolTableRecord
100
AcDbLinetypeTableRecord
  2
ACISOWELD
 70
     0
  3
_ _ _ _ _
 72
    65
 73
     2
 40
2.0
 49
2.0
 74
     0
 49
-1.0
 74
     0
  0
LTYPE
  5
65
330
5
100
AcDbSymbolTableRecord
100
AcDbLinetypeTableRecord
  2
ACISOTGB
 70
     0
  3
__ . . __ . .
 72
    65
 73
     6
 40
9.0
 49
4.0
 74
     0
 49
-1.0
 74
     0
 49
1.0
 74
     0
 49
-1.0
 74
     0
 49
1.0
 74
     0
 49
-1.0
 74
     0
  0
LTYPE
  5
66
330
5
100
AcDbSymbolTableRecord
100
AcDbLinetypeTableRecord
  2
ACISOTGL
 70
     0
  3
_ _ _ _ _
 72
    65
 73
     2
 40
3.0
 49
2.0
 74
     0
 49
-1.0
 74
     0
  0
LTYPE
  5
69
330
5
100
AcDbSymbolTableRecord
100
AcDbLinetypeTableRecord
  2
CENTER
 70
     0
  3
__ . __
 72
    65
 73
     4
 40
7.0
 49
4.0
 74
     0
 49
-1.0
 74
     0
 49
1.0
 74
     0
 49
-1.0
 74
     0
  0
LTYPE
  5
A6E
330
5
100
AcDbSymbolTableRecord
100
AcDbLinetypeTableRecord
  2
PHANTOM2
 70
     0
  3
Phantom (.5x) ___ _ _ ___ _ _ ___ _ _ ___ _ _
 72
    65
 73
     6
 40
31.75
 49
15.875
 74
     0
 49
-3.174999999999999
 74
     0
 49
3.174999999999999
 74
     0
 49
-3.174999999999999
 74
     0
 49
3.174999999999999
 74
     0
 49
-3.174999999999999
 74
     0
  0
LTYPE
  5
4DED
330
5
100
AcDbSymbolTableRecord
100
AcDbLinetypeTableRecord
  2
中線
 70
     0
  3
___________________
 72
    65
 73
     2
 40
2.0
 49
1.0
 74
     0
 49
1.0
 74
     0
  0
LTYPE
  5
4DF6
330
5
100
AcDbSymbolTableRecord
100
AcDbLinetypeTableRecord
  2
細線
 70
     0
  3
___________________
 72
    65
 73
     2
 40
2.0
 49
1.0
 74
     0
 49
1.0
 74
     0
  0
LTYPE
  5
4DF7
330
5
100
AcDbSymbolTableRecord
100
AcDbLinetypeTableRecord
  2
太線
 70
     0
  3
___________________
 72
    65
 73
     2
 40
2.0
 49
1.0
 74
     0
 49
1.0
 74
     0
  0
LTYPE
  5
4EA7
330
5
100
AcDbSymbolTableRecord
100
AcDbLinetypeTableRecord
  2
文字
 70
     0
  3
_________________
 72
    65
 73
     2
 40
2.0
 49
1.0
 74
     0
 49
1.0
 74
     0
  0
LTYPE
  5
4EA9
330
5
100
AcDbSymbolTableRecord
100
AcDbLinetypeTableRecord
  2
寸法線
 70
     0
  3
________________
 72
    65
 73
     2
 40
2.0
 49
1.0
 74
     0
 49
1.0
 74
     0
  0
LTYPE
  5
4F12
330
5
100
AcDbSymbolTableRecord
100
AcDbLinetypeTableRecord
  2
ハッチング
 70
     0
  3
_________________
 72
    65
 73
     2
 40
2.0
 49
1.0
 74
     0
 49
1.0
 74
     0
  0
LTYPE
  5
5180
330
5
100
AcDbSymbolTableRecord
100
AcDbLinetypeTableRecord
  2
陰線1
 70
     0
  3
__ __ __ __
 72
    65
 73
     2
 40
4.0
 49
2.2
 74
     0
 49
-1.8
 74
     0
  0
LTYPE
  5
5182
330
5
100
AcDbSymbolTableRecord
100
AcDbLinetypeTableRecord
  2
切断線
 70
     0
  3
/\/-/\/-/\/-/\/-/\/-/\/
 72
    65
 73
     2
 40
11.0001
 49
0.0001
 74
     4
 75
   135
340
56
 46
0.04
 50
0.0
 44
0.0
 45
0.0
 49
-11.0
 74
     0
  0
LTYPE
  5
5183
330
5
100
AcDbSymbolTableRecord
100
AcDbLinetypeTableRecord
  2
想像線1
 70
     0
  3
__ __ __ _____ __ __ ____
 72
    65
 73
     6
 40
14.5
 49
6.0
 74
     0
 49
-1.5
 74
     0
 49
2.0
 74
     0
 49
-1.5
 74
     0
 49
2.0
 74
     0
 49
-1.5
 74
     0
  0
LTYPE
  5
5185
330
5
100
AcDbSymbolTableRecord
100
AcDbLinetypeTableRecord
  2
中心線1
 70
     0
  3
___ _ ___ _ ___
 72
    65
 73
     4
 40
18.0
 49
12.0
 74
     0
 49
-2.0
 74
     0
 49
2.0
 74
     0
 49
-2.0
 74
     0
  0
LTYPE
  5
5188
330
5
100
AcDbSymbolTableRecord
100
AcDbLinetypeTableRecord
  2
補助線
 70
     0
  3
______________
 72
    65
 73
     2
 40
2.0
 49
1.0
 74
     0
 49
1.0
 74
     0
  0
LTYPE
  5
6427
330
5
100
AcDbSymbolTableRecord
100
AcDbLinetypeTableRecord
  2
HIDDEN
 70
     0
  3
Hidden __ __ __ __ __ __ __ __ __ __ __ __ __ _
 72
    65
 73
     2
 40
0.375
 49
0.25
 74
     0
 49
-0.125
 74
     0
  0
LTYPE
  5
AC81
330
5
100
AcDbSymbolTableRecord
100
AcDbLinetypeTableRecord
  2
破断線
 70
     0
  3
/\/-/\/-/\/-/\/-/\/-/\/
 72
    65
 73
     2
 40
0.4401
 49
0.0001
 74
     4
 75
   136
340
AC80
 46
0.0016
 50
0.0
 44
0.0
 45
0.0
 49
-0.4400000000000001
 74
     0
  0
LTYPE
  5
AC9E
330
5
100
AcDbSymbolTableRecord
100
AcDbLinetypeTableRecord
  2
Amzigzag
 70
     0
  3
/\/-/\/-/\/-/\/-/\/-/\/
 72
    65
 73
     2
 40
11.0001
 49
0.0001
 74
     4
 75
   135
340
56
 46
0.04
 50
0.0
 44
0.0
 45
0.0
 49
-11.0
 74
     0
  0
LTYPE
  5
AF0F
330
5
100
AcDbSymbolTableRecord
100
AcDbLinetypeTableRecord
  2
genzigzag
 70
     0
  3
/\/-/\/-/\/-/\/-/\/-/\/
 72
    65
 73
     2
 40
12.0001
 49
0.0001
 74
     4
 75
   135
340
AC80
 46
2.0
 50
0.0
 44
0.0
 45
0.0
 49
-12.0
 74
     0
  0
LTYPE
  5
AF95
330
5
100
AcDbSymbolTableRecord
100
AcDbLinetypeTableRecord
  2
AM_ISO08W050
 70
     0
  3
____ . ____ . ____ . ____ . ____ . ____ . ____
 72
    65
 73
     4
 40
18.0
 49
12.0
 74
     0
 49
-1.5
 74
     0
 49
3.0
 74
     0
 49
-1.5
 74
     0
  0
LTYPE
  5
AF96
330
5
100
AcDbSymbolTableRecord
100
AcDbLinetypeTableRecord
  2
AM_ISO09W050
 70
     0
  3
_____ . . _____ . . _____ . . ____ .. ____
 72
    65
 73
     6
 40
22.5
 49
12.0
 74
     0
 49
-1.5
 74
     0
 49
3.0
 74
     0
 49
-1.5
 74
     0
 49
3.0
 74
     0
 49
-1.5
 74
     0
  0
LTYPE
  5
AF97
330
5
100
AcDbSymbolTableRecord
100
AcDbLinetypeTableRecord
  2
AM_ISO08W050x2
 70
     0
  3
__ . __ . __ . __ . __ . __
 72
    65
 73
     4
 40
9.0
 49
6.0
 74
     0
 49
-0.75
 74
     0
 49
1.5
 74
     0
 49
-0.75
 74
     0
  0
LTYPE
  5
AF98
330
5
100
AcDbSymbolTableRecord
100
AcDbLinetypeTableRecord
  2
AM_ISO02W050x2
 70
     0
  3
 _ _ _ _ _ _ _ _ _ _ _ _
 72
    65
 73
     2
 40
3.75
 49
3.0
 74
     0
 49
-0.75
 74
     0
  0
ENDTAB
  0
TABLE
  2
LAYER
  5
2
102
{ACAD_XDICTIONARY
360
3F95
102
}
330
0
100
AcDbSymbolTable
 70
    20
  0
LAYER
  5
10
102
{ACAD_XDICTIONARY
360
B9B2
102
}
330
2
100
AcDbSymbolTableRecord
100
AcDbLayerTableRecord
  2
0
 70
     0
 62
     7
  6
Continuous
370
    -3
390
F
  0
LAYER
  5
6D1
330
2
100
AcDbSymbolTableRecord
100
AcDbLayerTableRecord
  2
Defpoints
 70
     0
 62
     7
  6
Continuous
290
     0
370
    -3
390
F
  0
LAYER
  5
5F85
102
{ACAD_XDICTIONARY
360
B9B4
102
}
330
2
100
AcDbSymbolTableRecord
100
AcDbLayerTableRecord
  2
AM_0
 70
     0
 62
     7
  6
中線
370
    30
390
F
1001
AcAecLayerStandard
1000

1000

  0
LAYER
  5
AC9F
102
{ACAD_XDICTIONARY
360
B9B6
102
}
330
2
100
AcDbSymbolTableRecord
100
AcDbLayerTableRecord
  2
size
 70
     0
 62
     5
  6
Continuous
290
     0
370
    25
390
F
  0
LAYER
  5
ACA0
102
{ACAD_XDICTIONARY
360
B9B8
102
}
330
2
100
AcDbSymbolTableRecord
100
AcDbLayerTableRecord
  2
waku
 70
     0
 62
     7
  6
Continuous
370
    35
390
F
  0
LAYER
  5
ACA1
102
{ACAD_XDICTIONARY
360
B9BA
102
}
330
2
100
AcDbSymbolTableRecord
100
AcDbLayerTableRecord
  2
AM_6
 70
     0
 62
     2
  6
文字
370
    13
390
F
1001
AcAecLayerStandard
1000

1000

  0
LAYER
  5
ACC8
102
{ACAD_XDICTIONARY
360
B9BC
102
}
330
2
100
AcDbSymbolTableRecord
100
AcDbLayerTableRecord
  2
hyomoji
 70
     0
 62
     2
  6
Continuous
370
    13
390
F
  0
LAYER
  5
ACC9
102
{ACAD_XDICTIONARY
360
B9BE
102
}
330
2
100
AcDbSymbolTableRecord
100
AcDbLayerTableRecord
  2
hyosen1
 70
     0
 62
    12
  6
Continuous
370
    25
390
F
  0
LAYER
  5
ACCA
102
{ACAD_XDICTIONARY
360
B9C0
102
}
330
2
100
AcDbSymbolTableRecord
100
AcDbLayerTableRecord
  2
hyosen2
 70
     0
 62
    12
  6
Continuous
370
    13
390
F
  0
LAYER
  5
AD60
102
{ACAD_XDICTIONARY
360
B9C2
102
}
330
2
100
AcDbSymbolTableRecord
100
AcDbLayerTableRecord
  2
AM_1
 70
     0
 62
    30
  6
太線
370
    40
390
F
1001
AcAecLayerStandard
1000

1000

  0
LAYER
  5
AD64
102
{ACAD_XDICTIONARY
360
B9C4
102
}
330
2
100
AcDbSymbolTableRecord
100
AcDbLayerTableRecord
  2
AM_2
 70
     0
 62
     1
  6
細線
370
    13
390
F
1001
AcAecLayerStandard
1000

1000

  0
LAYER
  5
AD67
102
{ACAD_XDICTIONARY
360
B9C6
102
}
330
2
100
AcDbSymbolTableRecord
100
AcDbLayerTableRecord
  2
AM_3
 70
     0
 62
     6
  6
陰線1
370
    13
390
F
1001
AcAecLayerStandard
1000

1000

  0
LAYER
  5
AD68
102
{ACAD_XDICTIONARY
360
B9C8
102
}
330
2
100
AcDbSymbolTableRecord
100
AcDbLayerTableRecord
  2
AM_5
 70
     0
 62
     3
  6
寸法線
370
    13
390
F
1001
AcAecLayerStandard
1000

1000

  0
LAYER
  5
AD69
102
{ACAD_XDICTIONARY
360
B9CA
102
}
330
2
100
AcDbSymbolTableRecord
100
AcDbLayerTableRecord
  2
AM_7
 70
     0
 62
     4
  6
中心線1
370
    13
390
F
1001
AcAecLayerStandard
1000

1000

  0
LAYER
  5
AD6A
102
{ACAD_XDICTIONARY
360
B9CC
102
}
330
2
100
AcDbSymbolTableRecord
100
AcDbLayerTableRecord
  2
AM_8
 70
     0
 62
     1
  6
ハッチング
370
    13
390
F
1001
AcAecLayerStandard
1000

1000

  0
LAYER
  5
AD6E
102
{ACAD_XDICTIONARY
360
B9CE
102
}
330
2
100
AcDbSymbolTableRecord
100
AcDbLayerTableRecord
  2
AM_10
 70
     0
 62
     7
  6
切断線
370
    13
390
F
1001
AcAecLayerStandard
1000

1000

  0
LAYER
  5
AD6F
102
{ACAD_XDICTIONARY
360
B9D0
102
}
330
2
100
AcDbSymbolTableRecord
100
AcDbLayerTableRecord
  2
AM_11
 70
     0
 62
     2
  6
想像線1
370
    13
390
F
1001
AcAecLayerStandard
1000

1000

  0
LAYER
  5
B1B6
102
{ACAD_XDICTIONARY
360
B9D2
102
}
330
2
100
AcDbSymbolTableRecord
100
AcDbLayerTableRecord
  2
AM_CL
 70
     1
 62
    -1
  6
Amconstr
370
    15
390
F
1001
AcAecLayerStandard
1000

1000

  0
LAYER
  5
B2EB
102
{ACAD_XDICTIONARY
360
B9D4
102
}
330
2
100
AcDbSymbolTableRecord
100
AcDbLayerTableRecord
  2
AM_14
 70
     0
 62
     5
  6
細線
370
     9
390
F
1001
AcAecLayerStandard
1000

1000

  0
LAYER
  5
B2EC
102
{ACAD_XDICTIONARY
360
B9D6
102
}
330
2
100
AcDbSymbolTableRecord
100
AcDbLayerTableRecord
  2
AM_15
 70
     0
 62
     6
  6
陰線1
370
     9
390
F
1001
AcAecLayerStandard
1000

1000

  0
ENDTAB
  0
TABLE
  2
STYLE
  5
3
330
0
100
AcDbSymbolTable
 70
     6
  0
STYLE
  5
11
330
3
100
AcDbSymbolTableRecord
100
AcDbTextStyleTableRecord
  2
STANDARD
 70
     0
 40
0.0
 41
0.7
 50
0.0
 71
     0
 42
3.2
  3
romans.shx
  4
extfont.shx
  0
STYLE
  5
56
330
3
100
AcDbSymbolTableRecord
100
AcDbTextStyleTableRecord
  2

 70
     1
 40
0.0
 41
1.0
 50
0.0
 71
     0
 42
2.5
  3
ltypeshp.shx
  4

  0
STYLE
  5
58
330
3
100
AcDbSymbolTableRecord
100
AcDbTextStyleTableRecord
  2
ACISOTS
 70
     0
 40
1.0
 41
1.0
 50
0.0
 71
     0
 42
2.5
  3
isocp.shx
  4
extfont.shx
  0
STYLE
  5
63
330
3
100
AcDbSymbolTableRecord
100
AcDbTextStyleTableRecord
  2
ACISOGDT
 70
     0
 40
0.0
 41
1.0
 50
0.0
 71
     0
 42
2.5
  3
amgdt.shx
  4

  0
STYLE
  5
A74
330
3
100
AcDbSymbolTableRecord
100
AcDbTextStyleTableRecord
  2
DIM
 70
     0
 40
0.0
 41
1.0
 50
0.0
 71
     0
 42
2.5
  3
monotxt.shx
  4
extfont.shx
  0
STYLE
  5
AC80
330
3
100
AcDbSymbolTableRecord
100
AcDbTextStyleTableRecord
  2

 70
     1
 40
0.0
 41
1.0
 50
0.0
 71
     0
 42
3.2
  3
genltshp.shx
  4

  0
ENDTAB
  0
TABLE
  2
VIEW
  5
6
330
0
100
AcDbSymbolTable
 70
     6
  0
VIEW
  5
AE1
330
6
100
AcDbSymbolTableRecord
100
AcDbViewTableRecord
  2
AM_VIEW1
 70
     0
 40
129.7276464542651
 10
1775.10588156276
 20
1793.121228859297
 41
148.5
 11
0.0
 21
0.0
 31
1.0
 12
0.0
 22
0.0
 32
0.0
 42
50.0
 43
-1370.695619172058
 44
-1370.695619172058
 50
0.0
 71
    16
281
     0
 72
     0
  0
VIEW
  5
AE2
330
6
100
AcDbSymbolTableRecord
100
AcDbViewTableRecord
  2
AM_VIEW2
 70
     0
 40
129.7276464542651
 10
1923.60588156276
 20
1793.121228859297
 41
148.5
 11
0.0
 21
0.0
 31
1.0
 12
0.0
 22
0.0
 32
0.0
 42
50.0
 43
-1370.695619172058
 44
-1370.695619172058
 50
0.0
 71
    16
281
     0
 72
     0
  0
VIEW
  5
AE3
330
6
100
AcDbSymbolTableRecord
100
AcDbViewTableRecord
  2
AM_VIEW3
 70
     0
 40
129.7276464542651
 10
1775.10588156276
 20
1712.848875313562
 41
148.5
 11
0.0
 21
0.0
 31
1.0
 12
0.0
 22
0.0
 32
0.0
 42
50.0
 43
-1370.695619172058
 44
-1370.695619172058
 50
0.0
 71
    16
281
     0
 72
     0
  0
VIEW
  5
AE4
330
6
100
AcDbSymbolTableRecord
100
AcDbViewTableRecord
  2
AM_VIEW4
 70
     0
 40
129.7276464542651
 10
1923.60588156276
 20
1712.848875313562
 41
148.5
 11
0.0
 21
0.0
 31
1.0
 12
0.0
 22
0.0
 32
0.0
 42
50.0
 43
-1370.695619172058
 44
-1370.695619172058
 50
0.0
 71
    16
281
     0
 72
     0
  0
VIEW
  5
AE5
330
6
100
AcDbSymbolTableRecord
100
AcDbViewTableRecord
  2
AM_VIEW5
 70
     0
 40
129.7276464542651
 10
1849.35588156276
 20
1752.985052086429
 41
148.5
 11
0.0
 21
0.0
 31
1.0
 12
0.0
 22
0.0
 32
0.0
 42
50.0
 43
-1370.695619172058
 44
-1370.695619172058
 50
0.0
 71
    16
281
     0
 72
     0
  0
VIEW
  5
AE6
330
6
100
AcDbSymbolTableRecord
100
AcDbViewTableRecord
  2
AM_VIEW6
 70
     0
 40
259.4526983556011
 10
1849.35588156276
 20
1752.985052086429
 41
296.99703
 11
0.0
 21
0.0
 31
1.0
 12
0.0
 22
0.0
 32
0.0
 42
50.0
 43
-1370.695619172058
 44
-1370.695619172058
 50
0.0
 71
    16
281
     0
 72
     0
  0
ENDTAB
  0
TABLE
  2
UCS
  5
7
330
0
100
AcDbSymbolTable
 70
     0
  0
ENDTAB
  0
TABLE
  2
APPID
  5
9
330
0
100
AcDbSymbolTable
 70
    58
  0
APPID
  5
12
330
9
100
AcDbSymbolTableRecord
100
AcDbRegAppTableRecord
  2
ACAD
 70
     0
  0
APPID
  5
30
330
9
100
AcDbSymbolTableRecord
100
AcDbRegAppTableRecord
  2
MCAD_NO_VIS
 70
     0
  0
APPID
  5
31
330
9
100
AcDbSymbolTableRecord
100
AcDbRegAppTableRecord
  2
ACAD_TEMP_GRAPHIC
 70
     0
  0
APPID
  5
44
330
9
100
AcDbSymbolTableRecord
100
AcDbRegAppTableRecord
  2
ACATTRIBSERVICES
 70
     0
  0
APPID
  5
7A1
330
9
100
AcDbSymbolTableRecord
100
AcDbRegAppTableRecord
  2
GENIUS_GENDIMSH_14
 70
     0
  0
APPID
  5
A49
330
9
100
AcDbSymbolTableRecord
100
AcDbRegAppTableRecord
  2
GENIUS_GENREC_14
 70
     0
  0
APPID
  5
A4A
330
9
100
AcDbSymbolTableRecord
100
AcDbRegAppTableRecord
  2
GENIUS_GENOBJ-N-REC_13
 70
     0
  0
APPID
  5
A4B
330
9
100
AcDbSymbolTableRecord
100
AcDbRegAppTableRecord
  2
GENIUS_GENODEF_13
 70
     0
  0
APPID
  5
A4C
330
9
100
AcDbSymbolTableRecord
100
AcDbRegAppTableRecord
  2
DCO15
 70
     0
  0
APPID
  5
ADC
330
9
100
AcDbSymbolTableRecord
100
AcDbRegAppTableRecord
  2
GENIUS_GENOLIS_13
 70
     0
  0
APPID
  5
ADD
330
9
100
AcDbSymbolTableRecord
100
AcDbRegAppTableRecord
  2
GENIUS_GENOENT_13
 70
     0
  0
APPID
  5
ADE
330
9
100
AcDbSymbolTableRecord
100
AcDbRegAppTableRecord
  2
GENIUS_GENOBJ-N-TIT_13
 70
     0
  0
APPID
  5
ADF
330
9
100
AcDbSymbolTableRecord
100
AcDbRegAppTableRecord
  2
GENIUS_GENTITLE_13
 70
     0
  0
APPID
  5
AE0
330
9
100
AcDbSymbolTableRecord
100
AcDbRegAppTableRecord
  2
GENIUS_GENOREF_13
 70
     0
  0
APPID
  5
AE7
330
9
100
AcDbSymbolTableRecord
100
AcDbRegAppTableRecord
  2
GENIUS_GENSCREG_15
 70
     0
  0
APPID
  5
AE8
330
9
100
AcDbSymbolTableRecord
100
AcDbRegAppTableRecord
  2
GENIUS_GENOBJ-N-SDF_13
 70
     0
  0
APPID
  5
FAF
330
9
100
AcDbSymbolTableRecord
100
AcDbRegAppTableRecord
  2
GENIUS_GENBLLY_14
 70
     0
  0
APPID
  5
FB0
330
9
100
AcDbSymbolTableRecord
100
AcDbRegAppTableRecord
  2
GENIUS_GENTRA_14
 70
     0
  0
APPID
  5
1285
330
9
100
AcDbSymbolTableRecord
100
AcDbRegAppTableRecord
  2
GENIUS_GENDTOL_13
 70
     0
  0
APPID
  5
142D
330
9
100
AcDbSymbolTableRecord
100
AcDbRegAppTableRecord
  2
GENIUS_GENOBJ-N-CEN_13
 70
     0
  0
APPID
  5
1AB5
330
9
100
AcDbSymbolTableRecord
100
AcDbRegAppTableRecord
  2
GENIUS_GENOBJ-N-CRS_13
 70
     0
  0
APPID
  5
1B36
330
9
100
AcDbSymbolTableRecord
100
AcDbRegAppTableRecord
  2
GENIUS_GENOBJ-N-HTC_13
 70
     0
  0
APPID
  5
1B37
330
9
100
AcDbSymbolTableRecord
100
AcDbRegAppTableRecord
  2
GENIUS_GENHATCH_13
 70
     0
  0
APPID
  5
216D
330
9
100
AcDbSymbolTableRecord
100
AcDbRegAppTableRecord
  2
GENIUS_GENOBJ-N-FIL_13
 70
     0
  0
APPID
  5
2356
330
9
100
AcDbSymbolTableRecord
100
AcDbRegAppTableRecord
  2
GEVID990412420
 70
     0
  0
APPID
  5
2357
330
9
100
AcDbSymbolTableRecord
100
AcDbRegAppTableRecord
  2
GEVDC
 70
     0
  0
APPID
  5
2358
330
9
100
AcDbSymbolTableRecord
100
AcDbRegAppTableRecord
  2
GEVCON
 70
     0
  0
APPID
  5
235B
330
9
100
AcDbSymbolTableRecord
100
AcDbRegAppTableRecord
  2
GEVRADREF
 70
     0
  0
APPID
  5
2360
330
9
100
AcDbSymbolTableRecord
100
AcDbRegAppTableRecord
  2
GENIUS_GENBH_13
 70
     0
  0
APPID
  5
2362
330
9
100
AcDbSymbolTableRecord
100
AcDbRegAppTableRecord
  2
GENIUS_GENOBJ-NBEHI-BHF_13
 70
     0
  0
APPID
  5
2364
330
9
100
AcDbSymbolTableRecord
100
AcDbRegAppTableRecord
  2
GENIUS_GENOBJ-NBEHI-BHB_13
 70
     0
  0
APPID
  5
2379
330
9
100
AcDbSymbolTableRecord
100
AcDbRegAppTableRecord
  2
GENIUS_GENOBJ-F-SCPASSM_13
 70
     0
  0
APPID
  5
3D74
330
9
100
AcDbSymbolTableRecord
100
AcDbRegAppTableRecord
  2
GENIUS_GENDIM_13
 70
     0
  0
APPID
  5
3D76
330
9
100
AcDbSymbolTableRecord
100
AcDbRegAppTableRecord
  2
GENIUS_GE3DTOL_13
 70
     0
  0
APPID
  5
3D9C
330
9
100
AcDbSymbolTableRecord
100
AcDbRegAppTableRecord
  2
AD_DRAW
 70
     0
  0
APPID
  5
3DE8
330
9
100
AcDbSymbolTableRecord
100
AcDbRegAppTableRecord
  2
ASURF_PCURVE_APPNAME
 70
     0
  0
APPID
  5
3DED
330
9
100
AcDbSymbolTableRecord
100
AcDbRegAppTableRecord
  2
AMG_3D2D_5.0
 70
     0
  0
APPID
  5
3E1B
330
9
100
AcDbSymbolTableRecord
100
AcDbRegAppTableRecord
  2
DESIGNERASSEMBLIES
 70
     0
  0
APPID
  5
3E20
330
9
100
AcDbSymbolTableRecord
100
AcDbRegAppTableRecord
  2
ACADM_DIM_EDIT
 70
     0
  0
APPID
  5
3E21
330
9
100
AcDbSymbolTableRecord
100
AcDbRegAppTableRecord
  2
AMDT_DM_ADJ
 70
     0
  0
APPID
  5
4143
330
9
100
AcDbSymbolTableRecord
100
AcDbRegAppTableRecord
  2
GENIUS_GENFIL_13
 70
     0
  0
APPID
  5
4144
330
9
100
AcDbSymbolTableRecord
100
AcDbRegAppTableRecord
  2
GENIUS_GENOBJ-N-CHA_13
 70
     0
  0
APPID
  5
4E17
330
9
100
AcDbSymbolTableRecord
100
AcDbRegAppTableRecord
  2
GEVID1008153417
 70
     0
  0
APPID
  5
4E58
330
9
100
AcDbSymbolTableRecord
100
AcDbRegAppTableRecord
  2
GEVID1008153418
 70
     0
  0
APPID
  5
4E5E
330
9
100
AcDbSymbolTableRecord
100
AcDbRegAppTableRecord
  2
GEVID1008153419
 70
     0
  0
APPID
  5
4E64
330
9
100
AcDbSymbolTableRecord
100
AcDbRegAppTableRecord
  2
GEVID1008153420
 70
     0
  0
APPID
  5
4E75
330
9
100
AcDbSymbolTableRecord
100
AcDbRegAppTableRecord
  2
GEVID1008153421
 70
     0
  0
APPID
  5
4EB7
330
9
100
AcDbSymbolTableRecord
100
AcDbRegAppTableRecord
  2
GENIUS_AMGTXT_16
 70
     0
  0
APPID
  5
7645
330
9
100
AcDbSymbolTableRecord
100
AcDbRegAppTableRecord
  2
GENIUS_GENOBJ-N-DIM_13
 70
     0
  0
APPID
  5
AAD0
330
9
100
AcDbSymbolTableRecord
100
AcDbRegAppTableRecord
  2
ACAD_DSTYLE_DIMARC_LENGTH_SYMBOL
 70
     0
  0
APPID
  5
AAD1
330
9
100
AcDbSymbolTableRecord
100
AcDbRegAppTableRecord
  2
ACAD_DSTYLE_DIMJOGGED_JOGANGLE_SYMBOL
 70
     0
  0
APPID
  5
AAFD
330
9
100
AcDbSymbolTableRecord
100
AcDbRegAppTableRecord
  2
ACAD_PSEXT
 70
     0
  0
APPID
  5
AD61
330
9
100
AcDbSymbolTableRecord
100
AcDbRegAppTableRecord
  2
AcAecLayerStandard
 70
     0
  0
APPID
  5
AEE3
330
9
100
AcDbSymbolTableRecord
100
AcDbRegAppTableRecord
  2
ACAD_EXEMPT_FROM_CAD_STANDARDS
 70
     0
  0
APPID
  5
B1BE
330
9
100
AcDbSymbolTableRecord
100
AcDbRegAppTableRecord
  2
GENIUS_GENCEN_19
 70
     0
  0
APPID
  5
B597
330
9
100
AcDbSymbolTableRecord
100
AcDbRegAppTableRecord
  2
ACAD_MLEADERVER
 70
     0
  0
APPID
  5
B6A4
330
9
100
AcDbSymbolTableRecord
100
AcDbRegAppTableRecord
  2
ACAD_DSTYLE_DIMINSPECT
 70
     0
  0
APPID
  5
B6A5
330
9
100
AcDbSymbolTableRecord
100
AcDbRegAppTableRecord
  2
ACAD_DSTYLE_DIMRADIAL_EXTENSION
 70
     0
  0
ENDTAB
  0
TABLE
  2
DIMSTYLE
  5
A
330
0
100
AcDbSymbolTable
 70
    17
100
AcDbDimStyleTable
 71
     1
340
2515
  0
DIMSTYLE
105
A76
330
A
100
AcDbSymbolTableRecord
100
AcDbDimStyleTableRecord
  2
STANDARD
 70
     0
 41
3.0
 42
1.0
 43
7.0
 44
2.0
 73
     0
 74
     0
 77
     1
140
2.799999999999999
141
0.0
143
0.0394
147
0.7
171
     4
172
     1
173
     1
176
     3
177
     3
178
     2
271
     3
272
     3
273
     8
274
     4
289
     0
340
A74
341
A66
343
A66
344
A66
  0
DIMSTYLE
105
2515
330
A
100
AcDbSymbolTableRecord
100
AcDbDimStyleTableRecord
  2
SYS
 70
     0
  4
"
 41
1.0
 42
1.0
 43
10.0
 44
1.0
 47
0.1
 48
0.1
 73
     0
 74
     0
 77
     1
 78
     8
 79
     2
140
3.5
141
0.0
143
0.0393701
146
0.71
147
1.5
172
     1
176
   256
177
   256
178
     7
271
     2
272
     2
283
     0
284
     8
340
11
371
    -1
372
    -1
1001
ACAD_DSTYLE_DIMJOGGED_JOGANGLE_SYMBOL
1070
   384
1040
0.7853981633974483
1001
ACAD_DSTYLE_DIMARC_LENGTH_SYMBOL
1070
   379
1070
     1
  0
DIMSTYLE
105
2516
102
{ACAD_REACTORS
330
B8DE
102
}
330
A
100
AcDbSymbolTableRecord
100
AcDbDimStyleTableRecord
  2
SYS$3
 70
     0
  4
"
 41
2.0
 42
1.0
 43
10.0
 44
1.0
 47
0.1
 48
0.1
 73
     0
 77
     1
 78
     8
 79
     2
140
3.5
141
0.0
143
0.0393701
146
0.71
147
1.5
176
   256
177
   256
178
     2
271
     2
272
     2
283
     0
284
     8
288
     1
340
11
342
A66
371
    -1
372
    -1
1001
ACAD_DSTYLE_DIMJOGGED_JOGANGLE_SYMBOL
1070
   384
1040
0.7853981633974483
1001
ACAD_DSTYLE_DIMARC_LENGTH_SYMBOL
1070
   379
1070
     1
  0
DIMSTYLE
105
2517
330
A
100
AcDbSymbolTableRecord
100
AcDbDimStyleTableRecord
  2
SYS$4
 70
     0
  4
"
 41
2.0
 42
1.0
 43
10.0
 44
1.0
 47
0.1
 48
0.1
 73
     0
 77
     1
 78
     8
 79
     2
140
3.5
141
0.0
143
0.0393701
146
0.71
147
1.5
173
     1
176
   256
177
   256
178
     2
271
     2
272
     2
283
     0
284
     8
288
     1
340
11
344
A66
371
    -1
372
    -1
1001
ACAD_DSTYLE_DIMJOGGED_JOGANGLE_SYMBOL
1070
   384
1040
0.7853981633974483
1001
ACAD_DSTYLE_DIMARC_LENGTH_SYMBOL
1070
   379
1070
     1
  0
DIMSTYLE
105
2518
330
A
100
AcDbSymbolTableRecord
100
AcDbDimStyleTableRecord
  2
SYS$6
 70
     0
  4
"
 41
2.0
 42
1.0
 43
10.0
 44
1.0
 47
0.1
 48
0.1
 73
     0
 74
     0
 78
     8
 79
     2
140
3.5
141
0.0
143
0.0393701
146
0.71
147
1.5
172
     1
176
   256
177
   256
178
     2
271
     2
272
     2
283
     0
284
     8
340
11
341
A66
371
    -1
372
    -1
1001
ACAD_DSTYLE_DIMJOGGED_JOGANGLE_SYMBOL
1070
   384
1040
0.7853981633974483
1001
ACAD_DSTYLE_DIMARC_LENGTH_SYMBOL
1070
   379
1070
     1
  0
DIMSTYLE
105
2519
330
A
100
AcDbSymbolTableRecord
100
AcDbDimStyleTableRecord
  2
SYS$7
 70
     0
  4
"
 41
2.0
 42
1.0
 43
10.0
 44
1.0
 47
0.1
 48
0.1
 73
     0
 74
     0
 77
     1
 78
     8
 79
     2
140
5.0
141
0.0
143
0.0393701
146
0.71
147
1.5
172
     1
176
   256
177
   256
178
     2
271
     2
272
     2
283
     0
284
     8
340
11
341
A66
342
A66
371
    -1
372
    -1
1001
ACAD_DSTYLE_DIMJOGGED_JOGANGLE_SYMBOL
1070
   384
1040
0.7853981633974483
1001
ACAD_DSTYLE_DIMARC_LENGTH_SYMBOL
1070
   379
1070
     1
  0
DIMSTYLE
105
251A
330
A
100
AcDbSymbolTableRecord
100
AcDbDimStyleTableRecord
  2
SYS$SF
 70
     0
  4
"
 41
2.5
 42
1.0
 43
10.0
 44
1.0
 47
0.1
 48
0.1
 73
     0
 74
     0
 75
     1
 76
     1
 77
     1
 78
     8
 79
     2
140
3.5
141
0.0
143
0.0393701
146
0.71
147
1.5
172
     1
176
   256
177
   256
178
     2
271
     2
272
     3
283
     0
284
     8
340
11
341
6C4
342
6C4
371
    -1
372
    -1
1001
ACAD_DSTYLE_DIMJOGGED_JOGANGLE_SYMBOL
1070
   384
1040
0.7853981633974483
1001
ACAD_DSTYLE_DIMARC_LENGTH_SYMBOL
1070
   379
1070
     1
  0
DIMSTYLE
105
251B
330
A
100
AcDbSymbolTableRecord
100
AcDbDimStyleTableRecord
  2
SYS$SH
 70
     0
  4
"
 41
2.5
 42
1.0
 43
10.0
 44
1.0
 47
0.1
 48
0.1
 73
     0
 74
     0
 75
     1
 76
     1
 77
     1
 78
     8
 79
     2
140
3.5
141
0.0
143
0.0393701
144
2.0
146
0.71
147
1.5
172
     1
173
     1
176
   256
177
   256
178
     2
271
     2
272
     3
283
     0
284
     8
340
11
341
6C4
343
72
344
6C4
371
    -1
372
    -1
1001
ACAD_DSTYLE_DIMJOGGED_JOGANGLE_SYMBOL
1070
   384
1040
0.7853981633974483
1001
ACAD_DSTYLE_DIMARC_LENGTH_SYMBOL
1070
   379
1070
     1
  0
DIMSTYLE
105
2A59
330
A
100
AcDbSymbolTableRecord
100
AcDbDimStyleTableRecord
  2
SYS$2
 70
     0
  4
"
 41
1.0
 42
1.0
 43
10.0
 44
1.0
 47
0.1
 48
0.1
 73
     0
 74
     0
 77
     1
 78
     8
 79
     2
140
3.5
141
0.0
143
0.0393701
146
0.71
147
1.5
172
     1
176
   256
177
   256
178
     2
271
     2
272
     2
283
     0
284
     8
340
11
342
6C4
371
    -1
372
    -1
1001
ACAD_DSTYLE_DIMJOGGED_JOGANGLE_SYMBOL
1070
   384
1040
0.7853981633974483
1001
ACAD_DSTYLE_DIMARC_LENGTH_SYMBOL
1070
   379
1070
     1
  0
DIMSTYLE
105
2AAB
102
{ACAD_REACTORS
330
B8DB
330
B8DC
330
B8DD
330
B90B
330
B90C
330
B90D
330
B90E
330
B91F
330
B920
330
B921
330
B922
102
}
330
A
100
AcDbSymbolTableRecord
100
AcDbDimStyleTableRecord
  2
SYS$0
 70
     0
  4
"
 41
1.0
 42
1.0
 43
10.0
 44
1.0
 47
0.1
 48
0.1
 73
     0
 74
     0
 77
     1
 78
     8
 79
     2
140
3.200000000000001
141
0.0
143
0.0393701
146
0.71
147
1.5
172
     1
176
   256
177
   256
178
     2
271
     2
272
     2
283
     0
284
     8
340
11
341
A66
342
6C4
371
    -1
372
    -1
1001
ACAD_DSTYLE_DIMJOGGED_JOGANGLE_SYMBOL
1070
   384
1040
0.7853981633974483
1001
ACAD_DSTYLE_DIMARC_LENGTH_SYMBOL
1070
   379
1070
     1
  0
DIMSTYLE
105
AF99
330
A
100
AcDbSymbolTableRecord
100
AcDbDimStyleTableRecord
  2
AM_ISO
 70
     0
  4
"
 41
2.5
 42
1.0
 43
10.0
 44
1.0
 47
0.1
 48
0.1
 73
     0
 74
     0
 77
     1
 78
     8
 79
     2
140
3.5
141
0.0
143
0.0393701
146
0.71
147
1.5
172
     1
176
   256
177
   256
178
     2
271
     2
272
     3
274
     4
283
     0
284
     8
340
11
371
    -1
372
    -1
  0
DIMSTYLE
105
AF9A
330
A
100
AcDbSymbolTableRecord
100
AcDbDimStyleTableRecord
  2
AM_ISO$3
 70
     0
  4
"
 41
2.5
 42
1.0
 43
10.0
 44
1.0
 47
0.1
 48
0.1
 73
     0
 77
     1
 78
     8
 79
     2
140
3.5
141
0.0
143
0.0393701
146
0.71
147
1.5
176
   256
177
   256
178
     2
271
     2
272
     3
274
     4
283
     0
284
     8
288
     1
289
     0
340
11
371
    -1
372
    -1
  0
DIMSTYLE
105
AF9B
330
A
100
AcDbSymbolTableRecord
100
AcDbDimStyleTableRecord
  2
AM_ISO$4
 70
     0
  4
"
 41
2.5
 42
1.0
 43
10.0
 44
1.0
 47
0.1
 48
0.1
 73
     0
 77
     1
 78
     8
 79
     2
140
3.5
141
0.0
143
0.0393701
146
0.71
147
1.5
176
   256
177
   256
178
     2
271
     2
272
     3
274
     4
283
     0
284
     8
288
     1
289
     0
340
11
371
    -1
372
    -1
  0
DIMSTYLE
105
AF9C
330
A
100
AcDbSymbolTableRecord
100
AcDbDimStyleTableRecord
  2
AM_ISO$6
 70
     0
  4
"
 41
2.5
 42
1.0
 43
10.0
 44
1.0
 47
0.1
 48
0.1
 73
     0
 74
     0
 78
     8
 79
     2
140
3.5
141
0.0
143
0.0393701
146
0.71
147
1.5
172
     1
176
   256
177
   256
178
     2
271
     2
272
     3
274
     4
283
     0
284
     8
340
11
371
    -1
372
    -1
  0
DIMSTYLE
105
AF9D
330
A
100
AcDbSymbolTableRecord
100
AcDbDimStyleTableRecord
  2
AM_ISO$7
 70
     0
  4
"
 41
2.5
 42
1.0
 43
10.0
 44
1.0
 47
0.1
 48
0.1
 73
     0
 74
     0
 77
     1
 78
     8
 79
     2
140
5.0
141
0.0
143
0.0393701
146
0.71
147
1.5
172
     1
176
   256
177
   256
178
     2
271
     2
272
     3
274
     4
283
     0
284
     8
340
11
371
    -1
372
    -1
  0
DIMSTYLE
105
AF9E
330
A
100
AcDbSymbolTableRecord
100
AcDbDimStyleTableRecord
  2
AM_ISO$SF
 70
     0
  4
"
 41
2.5
 42
1.0
 43
10.0
 44
1.0
 47
0.1
 48
0.1
 73
     0
 74
     0
 75
     1
 76
     1
 77
     1
 78
     8
 79
     2
140
3.5
141
0.0
143
0.0393701
146
0.71
147
1.5
172
     1
176
   256
177
   256
178
     2
271
     2
272
     3
274
     4
283
     0
284
     8
340
11
371
    -1
372
    -1
  0
DIMSTYLE
105
AF9F
330
A
100
AcDbSymbolTableRecord
100
AcDbDimStyleTableRecord
  2
AM_ISO$SH
 70
     0
  4
"
 41
2.5
 42
1.0
 43
10.0
 44
1.0
 47
0.1
 48
0.1
 73
     0
 74
     0
 75
     1
 76
     1
 77
     1
 78
     8
 79
     2
140
3.5
141
0.0
143
0.0393701
144
2.0
146
0.71
147
1.5
172
     1
173
     1
176
   256
177
   256
178
     2
271
     2
272
     3
274
     4
283
     0
284
     8
340
11
343
72
371
    -1
372
    -1
  0
ENDTAB
  0
TABLE
  2
BLOCK_RECORD
  5
1
330
0
100
AcDbSymbolTable
 70
    19
  0
BLOCK_RECORD
  5
1F
102
{ACAD_XDICTIONARY
360
8A
102
}
330
1
100
AcDbSymbolTableRecord
100
AcDbBlockTableRecord
  2
*Model_Space
340
22
  0
BLOCK_RECORD
  5
1B
330
1
100
AcDbSymbolTableRecord
100
AcDbBlockTableRecord
  2
*Paper_Space
340
1E
  0
BLOCK_RECORD
  5
23
330
1
100
AcDbSymbolTableRecord
100
AcDbBlockTableRecord
  2
*Paper_Space0
340
26
  0
BLOCK_RECORD
  5
72
330
1
100
AcDbSymbolTableRecord
100
AcDbBlockTableRecord
  2
GENAXEH
340
0
  0
BLOCK_RECORD
  5
6C4
330
1
100
AcDbSymbolTableRecord
100
AcDbBlockTableRecord
  2
_Dot
340
0
102
{BLKREFS
331
B929
331
B92A
331
B935
331
B936
331
B941
331
B942
331
B958
331
B959
331
B964
331
B965
331
B970
331
B971
331
B97C
331
B97D
331
B988
331
B989
331
B994
331
B995
331
B9A0
331
B9A1
331
B9AC
331
B9AD
102
}
  0
BLOCK_RECORD
  5
A66
330
1
100
AcDbSymbolTableRecord
100
AcDbBlockTableRecord
  2
_OPEN30
340
0
  0
BLOCK_RECORD
  5
B5F8
102
{ACAD_XDICTIONARY
360
B5F9
102
}
330
1
100
AcDbSymbolTableRecord
100
AcDbBlockTableRecord
  2
SYS図枠A3(AIS2008)
340
0
102
{BLKREFS
331
B7F0
102
}
  0
BLOCK_RECORD
  5
B610
330
1
100
AcDbSymbolTableRecord
100
AcDbBlockTableRecord
  2
GENDOT
340
0
102
{BLKREFS
331
B94D
331
B94E
102
}
  0
BLOCK_RECORD
  5
B923
330
1
100
AcDbSymbolTableRecord
100
AcDbBlockTableRecord
  2
*D7
340
0
  0
BLOCK_RECORD
  5
B92F
330
1
100
AcDbSymbolTableRecord
100
AcDbBlockTableRecord
  2
*D8
340
0
  0
BLOCK_RECORD
  5
B93B
330
1
100
AcDbSymbolTableRecord
100
AcDbBlockTableRecord
  2
*D9
340
0
  0
BLOCK_RECORD
  5
B947
330
1
100
AcDbSymbolTableRecord
100
AcDbBlockTableRecord
  2
*D10
340
0
  0
BLOCK_RECORD
  5
B952
330
1
100
AcDbSymbolTableRecord
100
AcDbBlockTableRecord
  2
*D11
340
0
  0
BLOCK_RECORD
  5
B95E
330
1
100
AcDbSymbolTableRecord
100
AcDbBlockTableRecord
  2
*D12
340
0
  0
BLOCK_RECORD
  5
B96A
330
1
100
AcDbSymbolTableRecord
100
AcDbBlockTableRecord
  2
*D13
340
0
  0
BLOCK_RECORD
  5
B976
330
1
100
AcDbSymbolTableRecord
100
AcDbBlockTableRecord
  2
*D14
340
0
  0
BLOCK_RECORD
  5
B982
330
1
100
AcDbSymbolTableRecord
100
AcDbBlockTableRecord
  2
*D15
340
0
  0
BLOCK_RECORD
  5
B98E
330
1
100
AcDbSymbolTableRecord
100
AcDbBlockTableRecord
  2
*D16
340
0
  0
BLOCK_RECORD
  5
B99A
330
1
100
AcDbSymbolTableRecord
100
AcDbBlockTableRecord
  2
*D17
340
0
  0
BLOCK_RECORD
  5
B9A6
330
1
100
AcDbSymbolTableRecord
100
AcDbBlockTableRecord
  2
*D18
340
0
  0
ENDTAB
  0
ENDSEC
  0
SECTION
  2
BLOCKS
  0
BLOCK
  5
20
330
1F
100
AcDbEntity
  8
0
100
AcDbBlockBegin
  2
*Model_Space
 70
     0
 10
0.0
 20
0.0
 30
0.0
  3
*Model_Space
  1

  0
ENDBLK
  5
21
330
1F
100
AcDbEntity
  8
0
100
AcDbBlockEnd
  0
BLOCK
  5
1C
330
1B
100
AcDbEntity
 67
     1
  8
0
100
AcDbBlockBegin
  2
*Paper_Space
 70
     0
 10
0.0
 20
0.0
 30
0.0
  3
*Paper_Space
  1

  0
ENDBLK
  5
1D
330
1B
100
AcDbEntity
 67
     1
  8
0
100
AcDbBlockEnd
  0
BLOCK
  5
24
330
23
100
AcDbEntity
 67
     1
  8
0
100
AcDbBlockBegin
  2
*Paper_Space0
 70
     0
 10
0.0
 20
0.0
 30
0.0
  3
*Paper_Space0
  1

  0
ENDBLK
  5
25
330
23
100
AcDbEntity
 67
     1
  8
0
100
AcDbBlockEnd
  0
BLOCK
  5
74
330
72
100
AcDbEntity
  8
0
100
AcDbBlockBegin
  2
GENAXEH
 70
     0
 10
0.0
 20
0.0
 30
0.0
  3
GENAXEH
  1

  0
LINE
  5
73
330
72
100
AcDbEntity
  8
0
100
AcDbLine
 10
-1.0
 20
0.0
 30
0.0
 11
1.0
 21
0.0
 31
0.0
  0
ENDBLK
  5
75
330
72
100
AcDbEntity
  8
0
100
AcDbBlockEnd
  0
BLOCK
  5
6C7
330
6C4
100
AcDbEntity
  8
0
100
AcDbBlockBegin
  2
_Dot
 70
     0
 10
0.0
 20
0.0
 30
0.0
  3
_Dot
  1

  0
LWPOLYLINE
  5
6C5
330
6C4
100
AcDbEntity
  8
0
  6
ByBlock
 62
     0
100
AcDbPolyline
 90
        2
 70
     1
 43
0.5
 10
-0.25
 20
0.0
 42
1.0
 10
0.25
 20
0.0
 42
1.0
  0
LINE
  5
6C6
330
6C4
100
AcDbEntity
  8
0
  6
ByBlock
 62
     0
370
    -2
100
AcDbLine
 10
-0.5
 20
0.0
 30
0.0
 11
-1.0
 21
0.0
 31
0.0
  0
ENDBLK
  5
6C8
330
6C4
100
AcDbEntity
  8
0
100
AcDbBlockEnd
  0
BLOCK
  5
A6A
330
A66
100
AcDbEntity
  8
0
100
AcDbBlockBegin
  2
_OPEN30
 70
     0
 10
0.0
 20
0.0
 30
0.0
  3
_OPEN30
  1

  0
LINE
  5
A67
330
A66
100
AcDbEntity
  8
0
  6
ByBlock
 62
     0
100
AcDbLine
 10
-1.0
 20
0.26794919
 30
0.0
 11
0.0
 21
0.0
 31
0.0
  0
LINE
  5
A68
330
A66
100
AcDbEntity
  8
0
  6
ByBlock
 62
     0
100
AcDbLine
 10
0.0
 20
0.0
 30
0.0
 11
-1.0
 21
-0.26794919
 31
0.0
  0
LINE
  5
A69
330
A66
100
AcDbEntity
  8
0
  6
ByBlock
 62
     0
100
AcDbLine
 10
0.0
 20
0.0
 30
0.0
 11
-1.0
 21
0.0
 31
0.0
  0
ENDBLK
  5
A6B
330
A66
100
AcDbEntity
  8
0
100
AcDbBlockEnd
  0
BLOCK
  5
B5FB
330
B5F8
100
AcDbEntity
  8
0
100
AcDbBlockBegin
  2
SYS図枠A3(AIS2008)
 70
     0
 10
0.0
 20
0.0
 30
0.0
  3
SYS図枠A3(AIS2008)
  1

  0
TEXT
  5
B5FC
330
B5F8
100
AcDbEntity
  8
AM_6
 60
     1
100
AcDbText
 10
408.4999999999999
 20
8.5
 30
0.0
 40
2.5
  1
!GENTITLE-INSERT
100
AcDbText
  0
TEXT
  5
B5FD
330
B5F8
100
AcDbEntity
  8
AM_6
 60
     1
100
AcDbText
 10
0.0
 20
0.0
 30
0.0
 40
2.5
  1
!GENTITLE-LL
100
AcDbText
  0
TEXT
  5
B5FE
330
B5F8
100
AcDbEntity
  8
AM_6
 60
     1
100
AcDbText
 10
420.0
 20
297.0
 30
0.0
 40
2.5
  1
!GENTITLE-RU
100
AcDbText
  0
TEXT
  5
B5FF
330
B5F8
100
AcDbEntity
  8
AM_6
 60
     1
100
AcDbText
 10
420.0
 20
297.0
 30
0.0
 40
2.5
  1
!GENTITLE-MAX
100
AcDbText
  0
LINE
  5
B600
330
B5F8
100
AcDbEntity
  8
size
100
AcDbLine
 10
0.0
 20
0.0
 30
0.0
 11
420.0
 21
0.0
 31
0.0
1001
GENIUS_GENREC_14
1002
{
1000
PYDIR
1011
0.0000000000000178
1021
297.0
1031
0.0
1002
}
1002
{
1000
PXDIR
1011
420.0
1021
0.0
1031
0.0
1002
}
1002
{
1000
PORI
1011
0.0
1021
0.0
1031
0.0
1002
}
1002
{
1000
PINS
1011
210.0
1021
148.4999999999999
1031
0.0
1002
}
1002
{
1000
HVAL
1000
297
1002
}
1002
{
1000
H
1070
     2
1002
}
1002
{
1000
WVAL
1000
420
1002
}
1002
{
1000
W
1070
     2
1002
}
1002
{
1000
C
1070
     4
1002
}
1001
GENIUS_GENOBJ-N-REC_13
1002
{
1000
OWNER
1000
GEN
1002
}
1001
GENIUS_GENODEF_13
1002
{
1000
HIER
1070
     0
1002
}
1002
{
1000
MANEDIT
1070
     0
1002
}
1002
{
1000
NOSEL
1070
     0
1002
}
1002
{
1000
BEHIND
1070
     0
1002
}
1002
{
1000
OTHER
1070
     0
1002
}
1002
{
1000
REACTOR
1002
}
  0
LINE
  5
B601
330
B5F8
100
AcDbEntity
  8
size
100
AcDbLine
 10
420.0
 20
0.0
 30
0.0
 11
420.0
 21
297.0
 31
0.0
1001
GENIUS_GENREC_14
1002
{
1000
PYDIR
1011
0.0000000000000178
1021
297.0
1031
0.0
1002
}
1002
{
1000
PXDIR
1011
420.0
1021
0.0
1031
0.0
1002
}
1002
{
1000
PORI
1011
0.0
1021
0.0
1031
0.0
1002
}
1002
{
1000
PINS
1011
210.0
1021
148.4999999999999
1031
0.0
1002
}
1002
{
1000
HVAL
1000
297
1002
}
1002
{
1000
H
1070
     2
1002
}
1002
{
1000
WVAL
1000
420
1002
}
1002
{
1000
W
1070
     2
1002
}
1002
{
1000
C
1070
     4
1002
}
1001
GENIUS_GENOBJ-N-REC_13
1002
{
1000
OWNER
1000
GEN
1002
}
1001
GENIUS_GENODEF_13
1002
{
1000
HIER
1070
     0
1002
}
1002
{
1000
MANEDIT
1070
     0
1002
}
1002
{
1000
NOSEL
1070
     0
1002
}
1002
{
1000
BEHIND
1070
     0
1002
}
1002
{
1000
OTHER
1070
     0
1002
}
1002
{
1000
REACTOR
1002
}
  0
LINE
  5
B602
330
B5F8
100
AcDbEntity
  8
size
100
AcDbLine
 10
420.0
 20
297.0
 30
0.0
 11
0.0000000000000275
 21
297.0
 31
0.0
1001
GENIUS_GENREC_14
1002
{
1000
PYDIR
1011
0.0000000000000178
1021
297.0
1031
0.0
1002
}
1002
{
1000
PXDIR
1011
420.0
1021
0.0
1031
0.0
1002
}
1002
{
1000
PORI
1011
0.0
1021
0.0
1031
0.0
1002
}
1002
{
1000
PINS
1011
210.0
1021
148.4999999999999
1031
0.0
1002
}
1002
{
1000
HVAL
1000
297
1002
}
1002
{
1000
H
1070
     2
1002
}
1002
{
1000
WVAL
1000
420
1002
}
1002
{
1000
W
1070
     2
1002
}
1002
{
1000
C
1070
     4
1002
}
1001
GENIUS_GENOBJ-N-REC_13
1002
{
1000
OWNER
1000
GEN
1002
}
1001
GENIUS_GENODEF_13
1002
{
1000
HIER
1070
     0
1002
}
1002
{
1000
MANEDIT
1070
     0
1002
}
1002
{
1000
NOSEL
1070
     0
1002
}
1002
{
1000
BEHIND
1070
     0
1002
}
1002
{
1000
OTHER
1070
     0
1002
}
1002
{
1000
REACTOR
1002
}
  0
LINE
  5
B603
330
B5F8
100
AcDbEntity
  8
size
100
AcDbLine
 10
0.0000000000000275
 20
297.0
 30
0.0
 11
0.0
 21
0.0
 31
0.0
1001
GENIUS_GENREC_14
1002
{
1000
PYDIR
1011
0.0000000000000178
1021
297.0
1031
0.0
1002
}
1002
{
1000
PXDIR
1011
420.0
1021
0.0
1031
0.0
1002
}
1002
{
1000
PORI
1011
0.0
1021
0.0
1031
0.0
1002
}
1002
{
1000
PINS
1011
210.0
1021
148.4999999999999
1031
0.0
1002
}
1002
{
1000
HVAL
1000
297
1002
}
1002
{
1000
H
1070
     2
1002
}
1002
{
1000
WVAL
1000
420
1002
}
1002
{
1000
W
1070
     2
1002
}
1002
{
1000
C
1070
     4
1002
}
1001
GENIUS_GENOBJ-N-REC_13
1002
{
1000
OWNER
1000
GEN
1002
}
1001
GENIUS_GENODEF_13
1002
{
1000
HIER
1070
     0
1002
}
1002
{
1000
MANEDIT
1070
     0
1002
}
1002
{
1000
NOSEL
1070
     0
1002
}
1002
{
1000
BEHIND
1070
     0
1002
}
1002
{
1000
OTHER
1070
     0
1002
}
1002
{
1000
REACTOR
1002
}
  0
LINE
  5
B604
330
B5F8
100
AcDbEntity
  8
waku
100
AcDbLine
 10
408.4999999999999
 20
8.5
 30
0.0
 11
408.4999999999999
 21
288.5
 31
0.0
1001
GENIUS_GENREC_14
1002
{
1000
PYDIR
1011
0.0000000000000178
1021
297.0
1031
0.0
1002
}
1002
{
1000
PXDIR
1011
420.0
1021
0.0
1031
0.0
1002
}
1002
{
1000
PORI
1011
0.0
1021
0.0
1031
0.0
1002
}
1002
{
1000
PINS
1011
210.0
1021
148.4999999999999
1031
0.0
1002
}
1002
{
1000
HVAL
1000
297
1002
}
1002
{
1000
H
1070
     2
1002
}
1002
{
1000
WVAL
1000
420
1002
}
1002
{
1000
W
1070
     2
1002
}
1002
{
1000
C
1070
     4
1002
}
1001
GENIUS_GENOBJ-N-REC_13
1002
{
1000
OWNER
1000
GEN
1002
}
1001
GENIUS_GENODEF_13
1002
{
1000
HIER
1070
     0
1002
}
1002
{
1000
MANEDIT
1070
     0
1002
}
1002
{
1000
NOSEL
1070
     0
1002
}
1002
{
1000
BEHIND
1070
     0
1002
}
1002
{
1000
OTHER
1070
     0
1002
}
1002
{
1000
REACTOR
1002
}
  0
LINE
  5
B605
330
B5F8
100
AcDbEntity
  8
waku
100
AcDbLine
 10
11.50000000000002
 20
288.5
 30
0.0
 11
11.5
 21
8.5
 31
0.0
1001
GENIUS_GENREC_14
1002
{
1000
PYDIR
1011
0.0000000000000178
1021
297.0
1031
0.0
1002
}
1002
{
1000
PXDIR
1011
420.0
1021
0.0
1031
0.0
1002
}
1002
{
1000
PORI
1011
0.0
1021
0.0
1031
0.0
1002
}
1002
{
1000
PINS
1011
210.0
1021
148.4999999999999
1031
0.0
1002
}
1002
{
1000
HVAL
1000
297
1002
}
1002
{
1000
H
1070
     2
1002
}
1002
{
1000
WVAL
1000
420
1002
}
1002
{
1000
W
1070
     2
1002
}
1002
{
1000
C
1070
     4
1002
}
1001
GENIUS_GENOBJ-N-REC_13
1002
{
1000
OWNER
1000
GEN
1002
}
1001
GENIUS_GENODEF_13
1002
{
1000
HIER
1070
     0
1002
}
1002
{
1000
MANEDIT
1070
     0
1002
}
1002
{
1000
NOSEL
1070
     0
1002
}
1002
{
1000
BEHIND
1070
     0
1002
}
1002
{
1000
OTHER
1070
     0
1002
}
1002
{
1000
REACTOR
1002
}
  0
LINE
  5
B606
330
B5F8
100
AcDbEntity
  8
waku
100
AcDbLine
 10
408.4999999999999
 20
288.5
 30
0.0
 11
11.50000000000002
 21
288.5
 31
0.0
1001
GENIUS_GENREC_14
1002
{
1000
PYDIR
1011
0.0000000000000178
1021
297.0
1031
0.0
1002
}
1002
{
1000
PXDIR
1011
420.0
1021
0.0
1031
0.0
1002
}
1002
{
1000
PORI
1011
0.0
1021
0.0
1031
0.0
1002
}
1002
{
1000
PINS
1011
210.0
1021
148.4999999999999
1031
0.0
1002
}
1002
{
1000
HVAL
1000
297
1002
}
1002
{
1000
H
1070
     2
1002
}
1002
{
1000
WVAL
1000
420
1002
}
1002
{
1000
W
1070
     2
1002
}
1002
{
1000
C
1070
     4
1002
}
1001
GENIUS_GENOBJ-N-REC_13
1002
{
1000
OWNER
1000
GEN
1002
}
1001
GENIUS_GENODEF_13
1002
{
1000
HIER
1070
     0
1002
}
1002
{
1000
MANEDIT
1070
     0
1002
}
1002
{
1000
NOSEL
1070
     0
1002
}
1002
{
1000
BEHIND
1070
     0
1002
}
1002
{
1000
OTHER
1070
     0
1002
}
1002
{
1000
REACTOR
1002
}
  0
TEXT
  5
B607
330
B5F8
100
AcDbEntity
  8
AM_6
 60
     1
100
AcDbText
 10
0.0
 20
0.0
 30
0.0
 40
2.5
  1
!GENTITLE-LL
100
AcDbText
  0
TEXT
  5
B608
330
B5F8
100
AcDbEntity
  8
AM_6
 60
     1
100
AcDbText
 10
408.4999999999999
 20
288.5
 30
0.0
 40
2.5
  1
!GENTITLE-RU
100
AcDbText
  0
TEXT
  5
B609
330
B5F8
100
AcDbEntity
  8
AM_6
 60
     1
100
AcDbText
 10
420.0
 20
297.0
 30
0.0
 40
2.5
  1
!GENTITLE-MAX
100
AcDbText
  0
TEXT
  5
B60A
330
B5F8
100
AcDbEntity
  8
AM_6
 60
     1
100
AcDbText
 10
408.4999999999999
 20
8.5
 30
0.0
 40
2.5
  1
!GENTITLE-INSERT
100
AcDbText
  0
LINE
  5
B60B
330
B5F8
100
AcDbEntity
  8
waku
100
AcDbLine
 10
11.5
 20
8.5
 30
0.0
 11
408.4999999999999
 21
8.5
 31
0.0
  0
LINE
  5
B60C
330
B5F8
100
AcDbEntity
  8
waku
100
AcDbLine
 10
246.499999999999
 20
33.49999999999332
 30
0.0
 11
408.4999999999999
 21
33.49999999999981
 31
0.0
  0
LINE
  5
B60D
330
B5F8
100
AcDbEntity
  8
waku
100
AcDbLine
 10
246.4999999999983
 20
8.5
 30
0.0
 11
246.4999999999974
 21
33.49999999999332
 31
0.0
  0
MTEXT
  5
B60E
330
B5F8
100
AcDbEntity
  8
AM_6
100
AcDbMText
 10
316.9999999999996
 20
25.74999999999989
 30
0.0
 40
4.0
 41
9.015095283510618
 71
     5
 72
     5
  1
A3
 73
     1
 44
1.0
1001
ACAD
1000
MTEXTBEGIN
1070
    73
1070
     1
1070
    44
1040
1.0
1070
    74
1070
     0
1000
MTEXTEND
  0
ENDBLK
  5
B60F
330
B5F8
100
AcDbEntity
  8
0
100
AcDbBlockEnd
  0
BLOCK
  5
B611
330
B610
100
AcDbEntity
  8
0
100
AcDbBlockBegin
  2
GENDOT
 70
     0
 10
0.0
 20
0.0
 30
0.0
  3
GENDOT
  1

  0
LINE
  5
B612
330
B610
100
AcDbEntity
  8
0
100
AcDbLine
 10
0.0
 20
0.0
 30
0.0
 11
-1.0
 21
0.0
 31
0.0
  0
LWPOLYLINE
  5
B613
330
B610
100
AcDbEntity
  8
0
100
AcDbPolyline
 90
        2
 70
     1
 43
0.25
 10
-0.125
 20
0.0
 42
1.0
 10
0.125
 20
0.0
 42
1.0
  0
ENDBLK
  5
B614
330
B610
100
AcDbEntity
  8
0
100
AcDbBlockEnd
  0
BLOCK
  5
B924
330
B923
100
AcDbEntity
  8
0
100
AcDbBlockBegin
  2
*D7
 70
     1
 10
0.0
 20
0.0
 30
0.0
  3
*D7
  1

  0
LINE
  5
B926
330
B923
100
AcDbEntity
  8
AM_5
100
AcDbLine
 10
150.7424989354695
 20
128.25378353655
 30
0.0
 11
150.7424989354695
 21
101.75378253655
 31
0.0
  0
LINE
  5
B927
330
B923
100
AcDbEntity
  8
AM_5
100
AcDbLine
 10
238.7424969354695
 20
128.25378353655
 30
0.0
 11
238.7424969354695
 21
101.75378253655
 31
0.0
  0
LINE
  5
B928
330
B923
100
AcDbEntity
  8
AM_5
100
AcDbLine
 10
151.7424989354695
 20
102.75378253655
 30
0.0
 11
237.7424969354696
 21
102.75378253655
 31
0.0
  0
INSERT
  5
B929
330
B923
100
AcDbEntity
  8
AM_5
100
AcDbBlockReference
  2
_Dot
 10
150.7424989354695
 20
102.75378253655
 30
0.0
 50
180.0
  0
INSERT
  5
B92A
330
B923
100
AcDbEntity
  8
AM_5
100
AcDbBlockReference
  2
_Dot
 10
238.7424969354695
 20
102.75378253655
 30
0.0
  0
MTEXT
  5
B92B
330
B923
100
AcDbEntity
  8
AM_5
 62
     2
100
AcDbMText
 10
194.7424979354695
 20
105.85378253655
 30
0.0
 40
3.200000000000001
 41
0.0
 71
     5
 72
     1
  1
B
 73
     1
 44
1.0
1001
ACAD
1000
MTEXTBEGIN
1070
    73
1070
     1
1070
    44
1040
1.0
1070
    74
1070
     0
1000
MTEXTEND
  0
POINT
  5
B92C
330
B923
100
AcDbEntity
  8
Defpoints
 62
     0
100
AcDbPoint
 10
150.7424989354695
 20
129.25378353655
 30
0.0
  0
POINT
  5
B92D
330
B923
100
AcDbEntity
  8
Defpoints
 62
     0
100
AcDbPoint
 10
238.7424969354695
 20
129.25378353655
 30
0.0
  0
POINT
  5
B92E
330
B923
100
AcDbEntity
  8
Defpoints
 62
     0
100
AcDbPoint
 10
238.7424969354695
 20
102.75378253655
 30
0.0
  0
ENDBLK
  5
B925
330
B923
100
AcDbEntity
  8
0
100
AcDbBlockEnd
  0
BLOCK
  5
B930
330
B92F
100
AcDbEntity
  8
0
100
AcDbBlockBegin
  2
*D8
 70
     1
 10
0.0
 20
0.0
 30
0.0
  3
*D8
  1

  0
LINE
  5
B932
330
B92F
100
AcDbEntity
  8
AM_5
100
AcDbLine
 10
139.2424989354695
 20
123.25378353655
 30
0.0
 11
139.2424989354695
 21
91.7537825365502
 31
0.0
  0
LINE
  5
B933
330
B92F
100
AcDbEntity
  8
AM_5
100
AcDbLine
 10
249.2424969354695
 20
123.25378353655
 30
0.0
 11
249.2424969354695
 21
91.7537825365502
 31
0.0
  0
LINE
  5
B934
330
B92F
100
AcDbEntity
  8
AM_5
100
AcDbLine
 10
140.2424989354695
 20
92.7537825365502
 30
0.0
 11
248.2424969354696
 21
92.7537825365502
 31
0.0
  0
INSERT
  5
B935
330
B92F
100
AcDbEntity
  8
AM_5
100
AcDbBlockReference
  2
_Dot
 10
139.2424989354695
 20
92.7537825365502
 30
0.0
 50
180.0
  0
INSERT
  5
B936
330
B92F
100
AcDbEntity
  8
AM_5
100
AcDbBlockReference
  2
_Dot
 10
249.2424969354695
 20
92.7537825365502
 30
0.0
  0
MTEXT
  5
B937
330
B92F
100
AcDbEntity
  8
AM_5
 62
     2
100
AcDbMText
 10
194.2424979354695
 20
95.8537825365502
 30
0.0
 40
3.200000000000001
 41
0.0
 71
     5
 72
     1
  1
A
 73
     1
 44
1.0
1001
ACAD
1000
MTEXTBEGIN
1070
    73
1070
     1
1070
    44
1040
1.0
1070
    74
1070
     0
1000
MTEXTEND
  0
POINT
  5
B938
330
B92F
100
AcDbEntity
  8
Defpoints
 62
     0
100
AcDbPoint
 10
139.2424989354695
 20
124.25378353655
 30
0.0
  0
POINT
  5
B939
330
B92F
100
AcDbEntity
  8
Defpoints
 62
     0
100
AcDbPoint
 10
249.2424969354695
 20
124.25378353655
 30
0.0
  0
POINT
  5
B93A
330
B92F
100
AcDbEntity
  8
Defpoints
 62
     0
100
AcDbPoint
 10
249.2424969354695
 20
92.7537825365502
 30
0.0
  0
ENDBLK
  5
B931
330
B92F
100
AcDbEntity
  8
0
100
AcDbBlockEnd
  0
BLOCK
  5
B93C
330
B93B
100
AcDbEntity
  8
0
100
AcDbBlockBegin
  2
*D9
 70
     1
 10
0.0
 20
0.0
 30
0.0
  3
*D9
  1

  0
LINE
  5
B93E
330
B93B
100
AcDbEntity
  8
AM_5
100
AcDbLine
 10
200.9925009354695
 20
155.75378253655
 30
0.0
 11
262.2424979354696
 21
155.75378253655
 31
0.0
  0
LINE
  5
B93F
330
B93B
100
AcDbEntity
  8
AM_5
100
AcDbLine
 10
199.2425009354695
 20
114.75378353655
 30
0.0
 11
262.2424979354696
 21
114.75378353655
 31
0.0
  0
LINE
  5
B940
330
B93B
100
AcDbEntity
  8
AM_5
100
AcDbLine
 10
261.2424979354696
 20
154.75378253655
 30
0.0
 11
261.2424979354695
 21
115.75378353655
 31
0.0
  0
INSERT
  5
B941
330
B93B
100
AcDbEntity
  8
AM_5
100
AcDbBlockReference
  2
_Dot
 10
261.2424979354696
 20
155.75378253655
 30
0.0
 50
90.0
  0
INSERT
  5
B942
330
B93B
100
AcDbEntity
  8
AM_5
100
AcDbBlockReference
  2
_Dot
 10
261.2424979354695
 20
114.75378353655
 30
0.0
 50
270.0
  0
MTEXT
  5
B943
330
B93B
100
AcDbEntity
  8
AM_5
 62
     2
100
AcDbMText
 10
258.1424979354695
 20
135.25378303655
 30
0.0
 40
3.200000000000001
 41
0.0
 71
     5
 72
     1
  1
L
 11
0.0000000000000001
 21
1.0
 31
0.0
 73
     1
 44
1.0
1001
ACAD
1000
MTEXTBEGIN
1070
    73
1070
     1
1070
    44
1040
1.0
1070
    74
1070
     0
1000
MTEXTEND
  0
POINT
  5
B944
330
B93B
100
AcDbEntity
  8
Defpoints
 62
     0
100
AcDbPoint
 10
199.9925009354695
 20
155.75378253655
 30
0.0
  0
POINT
  5
B945
330
B93B
100
AcDbEntity
  8
Defpoints
 62
     0
100
AcDbPoint
 10
198.2425009354695
 20
114.75378353655
 30
0.0
  0
POINT
  5
B946
330
B93B
100
AcDbEntity
  8
Defpoints
 62
     0
100
AcDbPoint
 10
261.2424979354695
 20
114.75378353655
 30
0.0
  0
ENDBLK
  5
B93D
330
B93B
100
AcDbEntity
  8
0
100
AcDbBlockEnd
  0
BLOCK
  5
B948
330
B947
100
AcDbEntity
  8
0
100
AcDbBlockBegin
  2
*D10
 70
     1
 10
0.0
 20
0.0
 30
0.0
  3
*D10
  1

  0
LINE
  5
B94A
330
B947
100
AcDbEntity
  8
AM_5
100
AcDbLine
 10
152.2318797588797
 20
134.6496052087738
 30
0.0
 11
149.2531181120596
 21
139.8579618643258
 31
0.0
  0
LINE
  5
B94B
330
B947
100
AcDbEntity
  8
AM_5
100
AcDbLine
 10
148.2601975631196
 20
141.5940807495098
 30
0.0
 11
137.4365640127093
 21
160.5191746386821
 31
0.0
  0
LINE
  5
B94C
330
B947
100
AcDbEntity
  8
AM_5
100
AcDbLine
 10
137.4365640127093
 20
160.5191746386821
 30
0.0
 11
132.6698973460426
 21
160.5191746386821
 31
0.0
  0
INSERT
  5
B94D
330
B947
100
AcDbEntity
  8
AM_5
100
AcDbBlockReference
  2
GENDOT
 10
153.2248003078197
 20
132.9134863235898
 30
0.0
 41
2.0
 42
2.0
 43
2.0
 50
299.7660886637254
  0
INSERT
  5
B94E
330
B947
100
AcDbEntity
  8
AM_5
100
AcDbBlockReference
  2
GENDOT
 10
148.2601975631196
 20
141.5940807495098
 30
0.0
 41
2.0
 42
2.0
 43
2.0
 50
119.7660886637254
  0
MTEXT
  5
B94F
330
B947
100
AcDbEntity
  8
AM_5
 62
     2
100
AcDbMText
 10
134.303230679376
 20
163.7691746386822
 30
0.0
 40
3.5
 41
0.0
 71
     5
 72
     1
  1
%%cJ
 73
     1
 44
1.0
1001
ACAD
1000
MTEXTBEGIN
1070
    73
1070
     1
1070
    44
1040
1.0
1070
    74
1070
     0
1000
MTEXTEND
  0
POINT
  5
B950
330
B947
100
AcDbEntity
  8
Defpoints
 62
     0
100
AcDbPoint
 10
148.2601975631196
 20
141.5940807495098
 30
0.0
  0
POINT
  5
B951
330
B947
100
AcDbEntity
  8
Defpoints
 62
     0
100
AcDbPoint
 10
153.2248003078197
 20
132.9134863235898
 30
0.0
  0
ENDBLK
  5
B949
330
B947
100
AcDbEntity
  8
0
100
AcDbBlockEnd
  0
BLOCK
  5
B953
330
B952
100
AcDbEntity
  8
0
100
AcDbBlockBegin
  2
*D11
 70
     1
 10
0.0
 20
0.0
 30
0.0
  3
*D11
  1

  0
LINE
  5
B955
330
B952
100
AcDbEntity
  8
AM_5
100
AcDbLine
 10
290.5079019206046
 20
230.9756893669941
 30
0.0
 11
261.0078999206046
 21
230.9756893669941
 31
0.0
  0
LINE
  5
B956
330
B952
100
AcDbEntity
  8
AM_5
100
AcDbLine
 10
290.5079019206046
 20
180.975691366994
 30
0.0
 11
261.0078999206046
 21
180.975691366994
 31
0.0
  0
LINE
  5
B957
330
B952
100
AcDbEntity
  8
AM_5
100
AcDbLine
 10
262.0078999206046
 20
229.9756893669941
 30
0.0
 11
262.0078999206046
 21
181.975691366994
 31
0.0
  0
INSERT
  5
B958
330
B952
100
AcDbEntity
  8
AM_5
100
AcDbBlockReference
  2
_Dot
 10
262.0078999206046
 20
230.9756893669941
 30
0.0
 50
90.0
  0
INSERT
  5
B959
330
B952
100
AcDbEntity
  8
AM_5
100
AcDbBlockReference
  2
_Dot
 10
262.0078999206046
 20
180.975691366994
 30
0.0
 50
270.0
  0
MTEXT
  5
B95A
330
B952
100
AcDbEntity
  8
AM_5
 62
     2
100
AcDbMText
 10
258.9078999206045
 20
205.9756903669941
 30
0.0
 40
3.200000000000001
 41
0.0
 71
     5
 72
     1
  1
%%cD
 11
0.0000000000000001
 21
1.0
 31
0.0
 73
     1
 44
1.0
1001
ACAD
1000
MTEXTBEGIN
1070
    73
1070
     1
1070
    44
1040
1.0
1070
    74
1070
     0
1000
MTEXTEND
  0
POINT
  5
B95B
330
B952
100
AcDbEntity
  8
Defpoints
 62
     0
100
AcDbPoint
 10
291.5079019206046
 20
230.9756893669941
 30
0.0
  0
POINT
  5
B95C
330
B952
100
AcDbEntity
  8
Defpoints
 62
     0
100
AcDbPoint
 10
291.5079019206046
 20
180.975691366994
 30
0.0
  0
POINT
  5
B95D
330
B952
100
AcDbEntity
  8
Defpoints
 62
     0
100
AcDbPoint
 10
262.0078999206046
 20
180.975691366994
 30
0.0
  0
ENDBLK
  5
B954
330
B952
100
AcDbEntity
  8
0
100
AcDbBlockEnd
  0
BLOCK
  5
B95F
330
B95E
100
AcDbEntity
  8
0
100
AcDbBlockBegin
  2
*D12
 70
     1
 10
0.0
 20
0.0
 30
0.0
  3
*D12
  1

  0
LINE
  5
B961
330
B95E
100
AcDbEntity
  8
AM_5
100
AcDbLine
 10
312.0078999206046
 20
234.9756843669941
 30
0.0
 11
346.0079009206046
 21
234.975684366994
 31
0.0
  0
LINE
  5
B962
330
B95E
100
AcDbEntity
  8
AM_5
100
AcDbLine
 10
310.5078999206046
 20
180.975691366994
 30
0.0
 11
346.0079009206046
 21
180.975691366994
 31
0.0
  0
LINE
  5
B963
330
B95E
100
AcDbEntity
  8
AM_5
100
AcDbLine
 10
345.0079009206046
 20
233.975684366994
 30
0.0
 11
345.0079009206046
 21
181.975691366994
 31
0.0
  0
INSERT
  5
B964
330
B95E
100
AcDbEntity
  8
AM_5
100
AcDbBlockReference
  2
_Dot
 10
345.0079009206046
 20
234.975684366994
 30
0.0
 50
90.0
  0
INSERT
  5
B965
330
B95E
100
AcDbEntity
  8
AM_5
100
AcDbBlockReference
  2
_Dot
 10
345.0079009206046
 20
180.975691366994
 30
0.0
 50
270.0
  0
MTEXT
  5
B966
330
B95E
100
AcDbEntity
  8
AM_5
 62
     2
100
AcDbMText
 10
341.9079009206045
 20
207.9756878669941
 30
0.0
 40
3.200000000000001
 41
0.0
 71
     5
 72
     1
  1
F
 11
0.0000000000000001
 21
1.0
 31
0.0
 73
     1
 44
1.0
1001
ACAD
1000
MTEXTBEGIN
1070
    73
1070
     1
1070
    44
1040
1.0
1070
    74
1070
     0
1000
MTEXTEND
  0
POINT
  5
B967
330
B95E
100
AcDbEntity
  8
Defpoints
 62
     0
100
AcDbPoint
 10
311.0078999206046
 20
234.9756843669941
 30
0.0
  0
POINT
  5
B968
330
B95E
100
AcDbEntity
  8
Defpoints
 62
     0
100
AcDbPoint
 10
309.5078999206046
 20
180.975691366994
 30
0.0
  0
POINT
  5
B969
330
B95E
100
AcDbEntity
  8
Defpoints
 62
     0
100
AcDbPoint
 10
345.0079009206046
 20
180.975691366994
 30
0.0
  0
ENDBLK
  5
B960
330
B95E
100
AcDbEntity
  8
0
100
AcDbBlockEnd
  0
BLOCK
  5
B96B
330
B96A
100
AcDbEntity
  8
0
100
AcDbBlockBegin
  2
*D13
 70
     1
 10
0.0
 20
0.0
 30
0.0
  3
*D13
  1

  0
LINE
  5
B96D
330
B96A
100
AcDbEntity
  8
AM_5
100
AcDbLine
 10
313.5078999206046
 20
233.4756843669941
 30
0.0
 11
313.5078999206046
 21
247.9756853769941
 31
0.0
  0
LINE
  5
B96E
330
B96A
100
AcDbEntity
  8
AM_5
100
AcDbLine
 10
287.5079019206045
 20
233.4756843669941
 30
0.0
 11
287.5079019206045
 21
247.9756853769941
 31
0.0
  0
LINE
  5
B96F
330
B96A
100
AcDbEntity
  8
AM_5
100
AcDbLine
 10
312.5078999206046
 20
246.9756853769941
 30
0.0
 11
288.5079019206045
 21
246.9756853769941
 31
0.0
  0
INSERT
  5
B970
330
B96A
100
AcDbEntity
  8
AM_5
100
AcDbBlockReference
  2
_Dot
 10
313.5078999206046
 20
246.9756853769941
 30
0.0
  0
INSERT
  5
B971
330
B96A
100
AcDbEntity
  8
AM_5
100
AcDbBlockReference
  2
_Dot
 10
287.5079019206045
 20
246.9756853769941
 30
0.0
 50
180.0
  0
MTEXT
  5
B972
330
B96A
100
AcDbEntity
  8
AM_5
 62
     2
100
AcDbMText
 10
300.5079009206045
 20
250.0756853769941
 30
0.0
 40
3.200000000000001
 41
0.0
 71
     5
 72
     1
  1
G
 73
     1
 44
1.0
1001
ACAD
1000
MTEXTBEGIN
1070
    73
1070
     1
1070
    44
1040
1.0
1070
    74
1070
     0
1000
MTEXTEND
  0
POINT
  5
B973
330
B96A
100
AcDbEntity
  8
Defpoints
 62
     0
100
AcDbPoint
 10
313.5078999206046
 20
232.475684366994
 30
0.0
  0
POINT
  5
B974
330
B96A
100
AcDbEntity
  8
Defpoints
 62
     0
100
AcDbPoint
 10
287.5079019206045
 20
232.4756843669941
 30
0.0
  0
POINT
  5
B975
330
B96A
100
AcDbEntity
  8
Defpoints
 62
     0
100
AcDbPoint
 10
287.5079019206045
 20
246.9756853769941
 30
0.0
  0
ENDBLK
  5
B96C
330
B96A
100
AcDbEntity
  8
0
100
AcDbBlockEnd
  0
BLOCK
  5
B977
330
B976
100
AcDbEntity
  8
0
100
AcDbBlockBegin
  2
*D14
 70
     1
 10
0.0
 20
0.0
 30
0.0
  3
*D14
  1

  0
LINE
  5
B979
330
B976
100
AcDbEntity
  8
AM_5
100
AcDbLine
 10
291.5079019206046
 20
179.975691366994
 30
0.0
 11
291.5079019206046
 21
157.975691366994
 31
0.0
  0
LINE
  5
B97A
330
B976
100
AcDbEntity
  8
AM_5
100
AcDbLine
 10
309.5078999206046
 20
179.975691366994
 30
0.0
 11
309.5078999206046
 21
157.975691366994
 31
0.0
  0
LINE
  5
B97B
330
B976
100
AcDbEntity
  8
AM_5
100
AcDbLine
 10
292.5079019206046
 20
158.975691366994
 30
0.0
 11
308.5078999206046
 21
158.975691366994
 31
0.0
  0
INSERT
  5
B97C
330
B976
100
AcDbEntity
  8
AM_5
100
AcDbBlockReference
  2
_Dot
 10
291.5079019206046
 20
158.975691366994
 30
0.0
 50
180.0
  0
INSERT
  5
B97D
330
B976
100
AcDbEntity
  8
AM_5
100
AcDbBlockReference
  2
_Dot
 10
309.5078999206046
 20
158.975691366994
 30
0.0
  0
MTEXT
  5
B97E
330
B976
100
AcDbEntity
  8
AM_5
 62
     2
100
AcDbMText
 10
300.5079009206046
 20
162.075691366994
 30
0.0
 40
3.200000000000001
 41
0.0
 71
     5
 72
     1
  1
H
 73
     1
 44
1.0
1001
ACAD
1000
MTEXTBEGIN
1070
    73
1070
     1
1070
    44
1040
1.0
1070
    74
1070
     0
1000
MTEXTEND
  0
POINT
  5
B97F
330
B976
100
AcDbEntity
  8
Defpoints
 62
     0
100
AcDbPoint
 10
291.5079019206046
 20
180.975691366994
 30
0.0
  0
POINT
  5
B980
330
B976
100
AcDbEntity
  8
Defpoints
 62
     0
100
AcDbPoint
 10
309.5078999206046
 20
180.975691366994
 30
0.0
  0
POINT
  5
B981
330
B976
100
AcDbEntity
  8
Defpoints
 62
     0
100
AcDbPoint
 10
309.5078999206046
 20
158.975691366994
 30
0.0
  0
ENDBLK
  5
B978
330
B976
100
AcDbEntity
  8
0
100
AcDbBlockEnd
  0
BLOCK
  5
B983
330
B982
100
AcDbEntity
  8
0
100
AcDbBlockBegin
  2
*D15
 70
     1
 10
0.0
 20
0.0
 30
0.0
  3
*D15
  1

  0
LINE
  5
B985
330
B982
100
AcDbEntity
  8
AM_5
100
AcDbLine
 10
304.5079004576416
 20
190.5165146364793
 30
0.0
 11
303.5079004576415
 21
190.5165146364793
 31
0.0
  0
LINE
  5
B986
330
B982
100
AcDbEntity
  8
AM_5
100
AcDbLine
 10
310.5079004576416
 20
190.5165146364793
 30
0.0
 11
321.363427118159
 21
190.5165146364793
 31
0.0
  0
LINE
  5
B987
330
B982
100
AcDbEntity
  8
AM_5
100
AcDbLine
 10
305.5079004576415
 20
190.5165146364793
 30
0.0
 11
309.5079004576415
 21
190.5165146364793
 31
0.0
  0
INSERT
  5
B988
330
B982
100
AcDbEntity
  8
AM_5
100
AcDbBlockReference
  2
_Dot
 10
305.5079004576415
 20
190.5165146364793
 30
0.0
  0
INSERT
  5
B989
330
B982
100
AcDbEntity
  8
AM_5
100
AcDbBlockReference
  2
_Dot
 10
309.5079004576415
 20
190.5165146364793
 30
0.0
 50
180.0
  0
MTEXT
  5
B98A
330
B982
100
AcDbEntity
  8
AM_5
 62
     2
100
AcDbMText
 10
319.1167604514924
 20
193.6165146364793
 30
0.0
 40
3.200000000000001
 41
0.0
 71
     5
 72
     1
  1
K
 73
     1
 44
1.0
1001
ACAD
1000
MTEXTBEGIN
1070
    73
1070
     1
1070
    44
1040
1.0
1070
    74
1070
     0
1000
MTEXTEND
  0
POINT
  5
B98B
330
B982
100
AcDbEntity
  8
Defpoints
 62
     0
100
AcDbPoint
 10
305.5079004576415
 20
180.9756876669941
 30
0.0
  0
POINT
  5
B98C
330
B982
100
AcDbEntity
  8
Defpoints
 62
     0
100
AcDbPoint
 10
309.5079004576415
 20
180.9756876669941
 30
0.0
  0
POINT
  5
B98D
330
B982
100
AcDbEntity
  8
Defpoints
 62
     0
100
AcDbPoint
 10
309.5079004576415
 20
190.5165146364793
 30
0.0
  0
ENDBLK
  5
B984
330
B982
100
AcDbEntity
  8
0
100
AcDbBlockEnd
  0
BLOCK
  5
B98F
330
B98E
100
AcDbEntity
  8
0
100
AcDbBlockBegin
  2
*D16
 70
     1
 10
0.0
 20
0.0
 30
0.0
  3
*D16
  1

  0
LINE
  5
B991
330
B98E
100
AcDbEntity
  8
AM_5
100
AcDbLine
 10
304.0079004576416
 20
181.4756876669941
 30
0.0
 11
304.0079004576416
 21
167.9756913669943
 31
0.0
  0
LINE
  5
B992
330
B98E
100
AcDbEntity
  8
AM_5
100
AcDbLine
 10
297.0079004576415
 20
181.4756876669941
 30
0.0
 11
297.0079004576415
 21
167.9756913669943
 31
0.0
  0
LINE
  5
B993
330
B98E
100
AcDbEntity
  8
AM_5
100
AcDbLine
 10
303.0079004576415
 20
168.9756913669944
 30
0.0
 11
298.0079004576415
 21
168.9756913669944
 31
0.0
  0
INSERT
  5
B994
330
B98E
100
AcDbEntity
  8
AM_5
100
AcDbBlockReference
  2
_Dot
 10
304.0079004576416
 20
168.9756913669944
 30
0.0
  0
INSERT
  5
B995
330
B98E
100
AcDbEntity
  8
AM_5
100
AcDbBlockReference
  2
_Dot
 10
297.0079004576415
 20
168.9756913669944
 30
0.0
 50
180.0
  0
MTEXT
  5
B996
330
B98E
100
AcDbEntity
  8
AM_5
 62
     2
100
AcDbMText
 10
300.5079004576415
 20
172.0756913669943
 30
0.0
 40
3.200000000000001
 41
0.0
 71
     5
 72
     1
  1
I
 73
     1
 44
1.0
1001
ACAD
1000
MTEXTBEGIN
1070
    73
1070
     1
1070
    44
1040
1.0
1070
    74
1070
     0
1000
MTEXTEND
  0
POINT
  5
B997
330
B98E
100
AcDbEntity
  8
Defpoints
 62
     0
100
AcDbPoint
 10
304.0079004576416
 20
182.4756876669941
 30
0.0
  0
POINT
  5
B998
330
B98E
100
AcDbEntity
  8
Defpoints
 62
     0
100
AcDbPoint
 10
297.0079004576415
 20
182.4756876669941
 30
0.0
  0
POINT
  5
B999
330
B98E
100
AcDbEntity
  8
Defpoints
 62
     0
100
AcDbPoint
 10
297.0079004576415
 20
168.9756913669944
 30
0.0
  0
ENDBLK
  5
B990
330
B98E
100
AcDbEntity
  8
0
100
AcDbBlockEnd
  0
BLOCK
  5
B99B
330
B99A
100
AcDbEntity
  8
0
100
AcDbBlockBegin
  2
*D17
 70
     1
 10
0.0
 20
0.0
 30
0.0
  3
*D17
  1

  0
LINE
  5
B99D
330
B99A
100
AcDbEntity
  8
AM_5
100
AcDbLine
 10
296.0079004576416
 20
225.475689866994
 30
0.0
 11
271.0078999206046
 21
225.475689866994
 31
0.0
  0
LINE
  5
B99E
330
B99A
100
AcDbEntity
  8
AM_5
100
AcDbLine
 10
296.0079004576416
 20
186.475687666994
 30
0.0
 11
271.0078999206046
 21
186.475687666994
 31
0.0
  0
LINE
  5
B99F
330
B99A
100
AcDbEntity
  8
AM_5
100
AcDbLine
 10
272.0078999206046
 20
224.475689866994
 30
0.0
 11
272.0078999206046
 21
187.475687666994
 31
0.0
  0
INSERT
  5
B9A0
330
B99A
100
AcDbEntity
  8
AM_5
100
AcDbBlockReference
  2
_Dot
 10
272.0078999206046
 20
225.475689866994
 30
0.0
 50
90.0
  0
INSERT
  5
B9A1
330
B99A
100
AcDbEntity
  8
AM_5
100
AcDbBlockReference
  2
_Dot
 10
272.0078999206046
 20
186.475687666994
 30
0.0
 50
270.0
  0
MTEXT
  5
B9A2
330
B99A
100
AcDbEntity
  8
AM_5
 62
     2
100
AcDbMText
 10
268.9078999206045
 20
205.9756887669941
 30
0.0
 40
3.200000000000001
 41
0.0
 71
     5
 72
     1
  1
%%cC
 11
0.0000000000000001
 21
1.0
 31
0.0
 73
     1
 44
1.0
1001
ACAD
1000
MTEXTBEGIN
1070
    73
1070
     1
1070
    44
1040
1.0
1070
    74
1070
     0
1000
MTEXTEND
  0
POINT
  5
B9A3
330
B99A
100
AcDbEntity
  8
Defpoints
 62
     0
100
AcDbPoint
 10
297.0079004576415
 20
225.475689866994
 30
0.0
  0
POINT
  5
B9A4
330
B99A
100
AcDbEntity
  8
Defpoints
 62
     0
100
AcDbPoint
 10
297.0079004576415
 20
186.475687666994
 30
0.0
  0
POINT
  5
B9A5
330
B99A
100
AcDbEntity
  8
Defpoints
 62
     0
100
AcDbPoint
 10
272.0078999206046
 20
186.475687666994
 30
0.0
  0
ENDBLK
  5
B99C
330
B99A
100
AcDbEntity
  8
0
100
AcDbBlockEnd
  0
BLOCK
  5
B9A7
330
B9A6
100
AcDbEntity
  8
0
100
AcDbBlockBegin
  2
*D18
 70
     1
 10
0.0
 20
0.0
 30
0.0
  3
*D18
  1

  0
LINE
  5
B9A9
330
B9A6
100
AcDbEntity
  8
AM_5
100
AcDbLine
 10
312.0078999206046
 20
234.9756843669941
 30
0.0
 11
336.0079009206046
 21
234.975684366994
 31
0.0
  0
LINE
  5
B9AA
330
B9A6
100
AcDbEntity
  8
AM_5
100
AcDbLine
 10
305.0079004576415
 20
186.475687666994
 30
0.0
 11
336.0079009206046
 21
186.475687666994
 31
0.0
  0
LINE
  5
B9AB
330
B9A6
100
AcDbEntity
  8
AM_5
100
AcDbLine
 10
335.0079009206047
 20
233.975684366994
 30
0.0
 11
335.0079009206047
 21
187.475687666994
 31
0.0
  0
INSERT
  5
B9AC
330
B9A6
100
AcDbEntity
  8
AM_5
100
AcDbBlockReference
  2
_Dot
 10
335.0079009206047
 20
234.975684366994
 30
0.0
 50
90.0
  0
INSERT
  5
B9AD
330
B9A6
100
AcDbEntity
  8
AM_5
100
AcDbBlockReference
  2
_Dot
 10
335.0079009206047
 20
186.475687666994
 30
0.0
 50
270.0
  0
MTEXT
  5
B9AE
330
B9A6
100
AcDbEntity
  8
AM_5
 62
     2
100
AcDbMText
 10
331.9079009206046
 20
210.7256860169941
 30
0.0
 40
3.200000000000001
 41
0.0
 71
     5
 72
     1
  1
E
 11
0.0000000000000001
 21
1.0
 31
0.0
 73
     1
 44
1.0
1001
ACAD
1000
MTEXTBEGIN
1070
    73
1070
     1
1070
    44
1040
1.0
1070
    74
1070
     0
1000
MTEXTEND
  0
POINT
  5
B9AF
330
B9A6
100
AcDbEntity
  8
Defpoints
 62
     0
100
AcDbPoint
 10
311.0078999206046
 20
234.9756843669941
 30
0.0
  0
POINT
  5
B9B0
330
B9A6
100
AcDbEntity
  8
Defpoints
 62
     0
100
AcDbPoint
 10
304.0079004576416
 20
186.475687666994
 30
0.0
  0
POINT
  5
B9B1
330
B9A6
100
AcDbEntity
  8
Defpoints
 62
     0
100
AcDbPoint
 10
335.0079009206047
 20
186.475687666994
 30
0.0
  0
ENDBLK
  5
B9A8
330
B9A6
100
AcDbEntity
  8
0
100
AcDbBlockEnd
  0
ENDSEC
  0
SECTION
  2
ENTITIES
  0
LINE
  5
B7E8
330
1F
100
AcDbEntity
  8
size
100
AcDbLine
 10
-0.0000003291501116
 20
0.0000001587767429
 30
0.0
 11
419.9999996708498
 21
0.0000001587767429
 31
0.0
1001
GENIUS_GENREC_14
1002
{
1000
PYDIR
1011
-0.0000003291500938
1021
297.0000001587767
1031
0.0
1002
}
1002
{
1000
PXDIR
1011
419.9999996708498
1021
0.0000001587767429
1031
0.0
1002
}
1002
{
1000
PORI
1011
-0.0000003291501116
1021
0.0000001587767429
1031
0.0
1002
}
1002
{
1000
PINS
1011
209.9999996708499
1021
148.5000001587767
1031
0.0
1002
}
1002
{
1000
HVAL
1000
297
1002
}
1002
{
1000
H
1070
     2
1002
}
1002
{
1000
WVAL
1000
420
1002
}
1002
{
1000
W
1070
     2
1002
}
1002
{
1000
C
1070
     4
1002
}
1001
GENIUS_GENOBJ-N-REC_13
1002
{
1000
OWNER
1000
GEN
1002
}
1001
GENIUS_GENODEF_13
1002
{
1000
HIER
1070
     0
1002
}
1002
{
1000
MANEDIT
1070
     0
1002
}
1002
{
1000
NOSEL
1070
     0
1002
}
1002
{
1000
BEHIND
1070
     0
1002
}
1002
{
1000
OTHER
1070
     0
1002
}
1002
{
1000
REACTOR
1002
}
  0
LINE
  5
B7E9
330
1F
100
AcDbEntity
  8
size
100
AcDbLine
 10
419.9999996708498
 20
0.0000001587767429
 30
0.0
 11
419.9999996708498
 21
297.0000001587767
 31
0.0
1001
GENIUS_GENREC_14
1002
{
1000
PYDIR
1011
-0.0000003291500938
1021
297.0000001587767
1031
0.0
1002
}
1002
{
1000
PXDIR
1011
419.9999996708498
1021
0.0000001587767429
1031
0.0
1002
}
1002
{
1000
PORI
1011
-0.0000003291501116
1021
0.0000001587767429
1031
0.0
1002
}
1002
{
1000
PINS
1011
209.9999996708499
1021
148.5000001587767
1031
0.0
1002
}
1002
{
1000
HVAL
1000
297
1002
}
1002
{
1000
H
1070
     2
1002
}
1002
{
1000
WVAL
1000
420
1002
}
1002
{
1000
W
1070
     2
1002
}
1002
{
1000
C
1070
     4
1002
}
1001
GENIUS_GENOBJ-N-REC_13
1002
{
1000
OWNER
1000
GEN
1002
}
1001
GENIUS_GENODEF_13
1002
{
1000
HIER
1070
     0
1002
}
1002
{
1000
MANEDIT
1070
     0
1002
}
1002
{
1000
NOSEL
1070
     0
1002
}
1002
{
1000
BEHIND
1070
     0
1002
}
1002
{
1000
OTHER
1070
     0
1002
}
1002
{
1000
REACTOR
1002
}
  0
LINE
  5
B7EA
330
1F
100
AcDbEntity
  8
size
100
AcDbLine
 10
419.9999996708498
 20
297.0000001587767
 30
0.0
 11
-0.0000003291500841
 21
297.0000001587767
 31
0.0
1001
GENIUS_GENREC_14
1002
{
1000
PYDIR
1011
-0.0000003291500938
1021
297.0000001587767
1031
0.0
1002
}
1002
{
1000
PXDIR
1011
419.9999996708498
1021
0.0000001587767429
1031
0.0
1002
}
1002
{
1000
PORI
1011
-0.0000003291501116
1021
0.0000001587767429
1031
0.0
1002
}
1002
{
1000
PINS
1011
209.9999996708499
1021
148.5000001587767
1031
0.0
1002
}
1002
{
1000
HVAL
1000
297
1002
}
1002
{
1000
H
1070
     2
1002
}
1002
{
1000
WVAL
1000
420
1002
}
1002
{
1000
W
1070
     2
1002
}
1002
{
1000
C
1070
     4
1002
}
1001
GENIUS_GENOBJ-N-REC_13
1002
{
1000
OWNER
1000
GEN
1002
}
1001
GENIUS_GENODEF_13
1002
{
1000
HIER
1070
     0
1002
}
1002
{
1000
MANEDIT
1070
     0
1002
}
1002
{
1000
NOSEL
1070
     0
1002
}
1002
{
1000
BEHIND
1070
     0
1002
}
1002
{
1000
OTHER
1070
     0
1002
}
1002
{
1000
REACTOR
1002
}
  0
LINE
  5
B7EB
330
1F
100
AcDbEntity
  8
size
100
AcDbLine
 10
-0.0000003291500841
 20
297.0000001587767
 30
0.0
 11
-0.0000003291501116
 21
0.0000001587767429
 31
0.0
1001
GENIUS_GENREC_14
1002
{
1000
PYDIR
1011
-0.0000003291500938
1021
297.0000001587767
1031
0.0
1002
}
1002
{
1000
PXDIR
1011
419.9999996708498
1021
0.0000001587767429
1031
0.0
1002
}
1002
{
1000
PORI
1011
-0.0000003291501116
1021
0.0000001587767429
1031
0.0
1002
}
1002
{
1000
PINS
1011
209.9999996708499
1021
148.5000001587767
1031
0.0
1002
}
1002
{
1000
HVAL
1000
297
1002
}
1002
{
1000
H
1070
     2
1002
}
1002
{
1000
WVAL
1000
420
1002
}
1002
{
1000
W
1070
     2
1002
}
1002
{
1000
C
1070
     4
1002
}
1001
GENIUS_GENOBJ-N-REC_13
1002
{
1000
OWNER
1000
GEN
1002
}
1001
GENIUS_GENODEF_13
1002
{
1000
HIER
1070
     0
1002
}
1002
{
1000
MANEDIT
1070
     0
1002
}
1002
{
1000
NOSEL
1070
     0
1002
}
1002
{
1000
BEHIND
1070
     0
1002
}
1002
{
1000
OTHER
1070
     0
1002
}
1002
{
1000
REACTOR
1002
}
  0
LINE
  5
B7EC
330
1F
100
AcDbEntity
  8
waku
100
AcDbLine
 10
408.4999996708498
 20
8.500000158776742
 30
0.0
 11
408.4999996708498
 21
288.5000001587767
 31
0.0
1001
GENIUS_GENREC_14
1002
{
1000
PYDIR
1011
-0.0000003291500938
1021
297.0000001587767
1031
0.0
1002
}
1002
{
1000
PXDIR
1011
419.9999996708498
1021
0.0000001587767429
1031
0.0
1002
}
1002
{
1000
PORI
1011
-0.0000003291501116
1021
0.0000001587767429
1031
0.0
1002
}
1002
{
1000
PINS
1011
209.9999996708499
1021
148.5000001587767
1031
0.0
1002
}
1002
{
1000
HVAL
1000
297
1002
}
1002
{
1000
H
1070
     2
1002
}
1002
{
1000
WVAL
1000
420
1002
}
1002
{
1000
W
1070
     2
1002
}
1002
{
1000
C
1070
     4
1002
}
1001
GENIUS_GENOBJ-N-REC_13
1002
{
1000
OWNER
1000
GEN
1002
}
1001
GENIUS_GENODEF_13
1002
{
1000
HIER
1070
     0
1002
}
1002
{
1000
MANEDIT
1070
     0
1002
}
1002
{
1000
NOSEL
1070
     0
1002
}
1002
{
1000
BEHIND
1070
     0
1002
}
1002
{
1000
OTHER
1070
     0
1002
}
1002
{
1000
REACTOR
1002
}
  0
LINE
  5
B7ED
330
1F
100
AcDbEntity
  8
waku
100
AcDbLine
 10
11.49999967084991
 20
288.5000001587767
 30
0.0
 11
11.49999967084989
 21
8.500000158776742
 31
0.0
1001
GENIUS_GENREC_14
1002
{
1000
PYDIR
1011
-0.0000003291500938
1021
297.0000001587767
1031
0.0
1002
}
1002
{
1000
PXDIR
1011
419.9999996708498
1021
0.0000001587767429
1031
0.0
1002
}
1002
{
1000
PORI
1011
-0.0000003291501116
1021
0.0000001587767429
1031
0.0
1002
}
1002
{
1000
PINS
1011
209.9999996708499
1021
148.5000001587767
1031
0.0
1002
}
1002
{
1000
HVAL
1000
297
1002
}
1002
{
1000
H
1070
     2
1002
}
1002
{
1000
WVAL
1000
420
1002
}
1002
{
1000
W
1070
     2
1002
}
1002
{
1000
C
1070
     4
1002
}
1001
GENIUS_GENOBJ-N-REC_13
1002
{
1000
OWNER
1000
GEN
1002
}
1001
GENIUS_GENODEF_13
1002
{
1000
HIER
1070
     0
1002
}
1002
{
1000
MANEDIT
1070
     0
1002
}
1002
{
1000
NOSEL
1070
     0
1002
}
1002
{
1000
BEHIND
1070
     0
1002
}
1002
{
1000
OTHER
1070
     0
1002
}
1002
{
1000
REACTOR
1002
}
  0
LINE
  5
B7EE
330
1F
100
AcDbEntity
  8
waku
100
AcDbLine
 10
408.4999996708498
 20
288.5000001587767
 30
0.0
 11
11.49999967084991
 21
288.5000001587767
 31
0.0
1001
GENIUS_GENREC_14
1002
{
1000
PYDIR
1011
-0.0000003291500938
1021
297.0000001587767
1031
0.0
1002
}
1002
{
1000
PXDIR
1011
419.9999996708498
1021
0.0000001587767429
1031
0.0
1002
}
1002
{
1000
PORI
1011
-0.0000003291501116
1021
0.0000001587767429
1031
0.0
1002
}
1002
{
1000
PINS
1011
209.9999996708499
1021
148.5000001587767
1031
0.0
1002
}
1002
{
1000
HVAL
1000
297
1002
}
1002
{
1000
H
1070
     2
1002
}
1002
{
1000
WVAL
1000
420
1002
}
1002
{
1000
W
1070
     2
1002
}
1002
{
1000
C
1070
     4
1002
}
1001
GENIUS_GENOBJ-N-REC_13
1002
{
1000
OWNER
1000
GEN
1002
}
1001
GENIUS_GENODEF_13
1002
{
1000
HIER
1070
     0
1002
}
1002
{
1000
MANEDIT
1070
     0
1002
}
1002
{
1000
NOSEL
1070
     0
1002
}
1002
{
1000
BEHIND
1070
     0
1002
}
1002
{
1000
OTHER
1070
     0
1002
}
1002
{
1000
REACTOR
1002
}
  0
LINE
  5
B7EF
330
1F
100
AcDbEntity
  8
waku
100
AcDbLine
 10
11.49999967084989
 20
8.500000158776742
 30
0.0
 11
408.4999996708498
 21
8.500000158776742
 31
0.0
  0
INSERT
  5
B7F0
330
1F
100
AcDbEntity
  8
AM_0
100
AcDbBlockReference
  2
SYS図枠A3(AIS2008)
 10
-0.0000003291501116
 20
0.0000001587767429
 30
0.0
 41
0.001
 42
0.001
 43
0.001
  0
LINE
  5
B7F1
330
1F
100
AcDbEntity
  8
AM_0
100
AcDbLine
 10
11.49999967084989
 20
288.5000001587767
 30
0.0
 11
101.4999796708498
 21
288.5000001587767
 31
0.0
  0
LINE
  5
B7F2
330
1F
100
AcDbEntity
  8
AM_0
100
AcDbLine
 10
11.49999967084989
 20
288.5000001587767
 30
0.0
 11
11.49999967084989
 21
232.5000001587767
 31
0.0
  0
LINE
  5
B7F3
330
1F
100
AcDbEntity
  8
AM_2
100
AcDbLine
 10
31.49999967084998
 20
288.5000001587767
 30
0.0
 11
31.49999967084998
 21
232.5000001587767
 31
0.0
  0
LINE
  5
B7F4
330
1F
100
AcDbEntity
  8
AM_2
100
AcDbLine
 10
11.49999967084989
 20
280.5000001587767
 30
0.0
 11
101.4999796708498
 21
280.5000001587767
 31
0.0
  0
LINE
  5
B7F5
330
1F
100
AcDbEntity
  8
AM_2
100
AcDbLine
 10
11.49999967084989
 20
272.5000001587767
 30
0.0
 11
101.4999796708498
 21
272.5000001587767
 31
0.0
  0
LINE
  5
B7F6
330
1F
100
AcDbEntity
  8
AM_2
100
AcDbLine
 10
11.49999967084989
 20
264.5000001587767
 30
0.0
 11
101.4999796708498
 21
264.5000001587767
 31
0.0
  0
LINE
  5
B7F7
330
1F
100
AcDbEntity
  8
AM_2
100
AcDbLine
 10
11.49999967084989
 20
240.5000001587766
 30
0.0
 11
101.4999796708498
 21
240.5000001587766
 31
0.0
  0
LINE
  5
B7F8
330
1F
100
AcDbEntity
  8
AM_0
100
AcDbLine
 10
11.49999967084989
 20
288.5000001587767
 30
0.0
 11
11.49999967084989
 21
232.5000001587767
 31
0.0
  0
LINE
  5
B7F9
330
1F
100
AcDbEntity
  8
AM_0
100
AcDbLine
 10
11.49999967084989
 20
288.5000001587767
 30
0.0
 11
101.4999796708498
 21
288.5000001587767
 31
0.0
  0
LINE
  5
B7FA
330
1F
100
AcDbEntity
  8
AM_0
100
AcDbLine
 10
101.4999796708498
 20
288.5000001587767
 30
0.0
 11
101.4999796708498
 21
232.5000001587767
 31
0.0
  0
LINE
  5
B7FB
330
1F
100
AcDbEntity
  8
AM_2
100
AcDbLine
 10
11.49999967084989
 20
256.5000001587766
 30
0.0
 11
101.4999796708498
 21
256.5000001587766
 31
0.0
  0
LINE
  5
B7FC
330
1F
100
AcDbEntity
  8
AM_2
100
AcDbLine
 10
11.49999967084989
 20
248.5000001587766
 30
0.0
 11
101.4999796708498
 21
248.5000001587766
 31
0.0
  0
LINE
  5
B7FD
330
1F
100
AcDbEntity
  8
AM_2
100
AcDbLine
 10
31.49999967084998
 20
240.5000001587766
 30
0.0
 11
101.4999796708498
 21
240.5000001587766
 31
0.0
  0
LINE
  5
B7FE
330
1F
100
AcDbEntity
  8
AM_0
100
AcDbLine
 10
11.49999967084989
 20
232.5000001587767
 30
0.0
 11
101.4999796708498
 21
232.5000001587767
 31
0.0
  0
TEXT
  5
B7FF
330
1F
100
AcDbEntity
  8
AM_6
100
AcDbText
 10
18.49657185339492
 20
283.1368052133861
 30
0.0
 40
3.2
  1
品　名
 41
0.60999997
100
AcDbText
  0
TEXT
  5
B800
330
1F
100
AcDbEntity
  8
AM_6
100
AcDbText
 10
18.49657185339492
 20
275.1368052133861
 30
0.0
 40
3.2
  1
品　番
 41
0.60999997
100
AcDbText
  0
TEXT
  5
B801
330
1F
100
AcDbEntity
  8
AM_6
100
AcDbText
 10
18.49657185339492
 20
267.1368052133861
 30
0.0
 40
3.2
  1
材　質
 41
0.60999997
100
AcDbText
  0
TEXT
  5
B802
330
1F
100
AcDbEntity
  8
AM_6
100
AcDbText
 10
18.49657185339492
 20
259.1368052133861
 30
0.0
 40
3.2
  1
仕上げ
 41
0.60999997
100
AcDbText
  0
TEXT
  5
B803
330
1F
100
AcDbEntity
  8
AM_6
100
AcDbText
 10
15.29657185339494
 20
243.1368052133862
 30
0.0
 40
3.2
  1
セットビス
 41
0.6099999900000001
100
AcDbText
  0
TEXT
  5
B804
330
1F
100
AcDbEntity
  8
AM_6
100
AcDbText
 10
20.09658185339493
 20
235.1368052133862
 30
0.0
 40
3.2
  1
備考
 41
0.61
100
AcDbText
  0
TEXT
  5
B805
330
1F
100
AcDbEntity
  8
AM_6
100
AcDbText
 10
16.89657185339493
 20
251.1368052133861
 30
0.0
 40
3.2
  1
左右勝手
 41
0.60999998
100
AcDbText
  0
TEXT
  5
B806
330
1F
100
AcDbEntity
  8
AM_6
100
AcDbText
 10
34.92849967084999
 20
282.8999701587767
 30
0.0
 40
3.2
  1
重量用戸車（VH型兼用）
 41
0.74054621
100
AcDbText
  0
TEXT
  5
B807
330
1F
100
AcDbEntity
  8
AM_6
100
AcDbText
 10
34.92849967084999
 20
274.8999701587767
 30
0.0
 40
3.2
  1
ST-165
 41
0.8068965099999998
100
AcDbText
  0
TEXT
  5
B808
330
1F
100
AcDbEntity
  8
AM_6
100
AcDbText
 10
34.92849967084999
 20
266.8999701587767
 30
0.0
 40
3.2
  1
枠：ステンレス　車：ステンレス
 41
0.7499999600000002
100
AcDbText
  0
TEXT
  5
B809
330
1F
100
AcDbEntity
  8
AM_6
100
AcDbText
 10
34.92848967084987
 20
258.8999701587767
 30
0.0
 40
3.2
  1
枠：電解メッキ　車：生地
 41
0.7500000100000001
100
AcDbText
  0
TEXT
  5
B80A
330
1F
100
AcDbEntity
  8
AM_6
100
AcDbText
 10
34.92848967084987
 20
250.8999701587766
 30
0.0
 40
3.2
  1
無し
 41
0.74999999
100
AcDbText
  0
TEXT
  5
B80B
330
1F
100
AcDbEntity
  8
AM_6
100
AcDbText
 10
34.92848967084987
 20
234.8999701587767
 30
0.0
 40
3.2
  1
※軸受：ボールベアリング
 41
0.74999997
100
AcDbText
  0
TEXT
  5
B80C
330
1F
100
AcDbEntity
  8
AM_6
100
AcDbText
 10
34.92848967084987
 20
242.8999701587766
 30
0.0
 40
3.2
  1
無し
 41
0.74999999
100
AcDbText
  0
LINE
  5
B80D
330
1F
100
AcDbEntity
  8
AM_2
100
AcDbLine
 10
80.1793415214758
 20
68.4162574766799
 30
0.0
 11
352.1793015214758
 21
68.4162574766799
 31
0.0
  0
LINE
  5
B80E
330
1F
100
AcDbEntity
  8
AM_2
100
AcDbLine
 10
174.1793375214758
 20
68.4162574766799
 30
0.0
 11
174.1793375214758
 21
20.4162654766799
 31
0.0
  0
LINE
  5
B80F
330
1F
100
AcDbEntity
  8
AM_2
100
AcDbLine
 10
238.1793375214758
 20
68.4162574766799
 30
0.0
 11
238.1793375214758
 21
20.4162654766799
 31
0.0
  0
LINE
  5
B810
330
1F
100
AcDbEntity
  8
AM_2
100
AcDbLine
 10
80.1793415214758
 20
68.4162574766799
 30
0.0
 11
80.1793415214758
 21
20.4162654766799
 31
0.0
  0
LINE
  5
B811
330
1F
100
AcDbEntity
  8
AM_2
100
AcDbLine
 10
126.1793375214758
 20
68.4162574766799
 30
0.0
 11
126.1793375214758
 21
20.4162654766799
 31
0.0
  0
LINE
  5
B812
330
1F
100
AcDbEntity
  8
AM_2
100
AcDbLine
 10
110.1793375214758
 20
68.4162574766799
 30
0.0
 11
110.1793375214758
 21
20.4162654766799
 31
0.0
  0
LINE
  5
B813
330
1F
100
AcDbEntity
  8
AM_2
100
AcDbLine
 10
158.1793375214758
 20
68.4162574766799
 30
0.0
 11
158.1793375214758
 21
20.4162654766799
 31
0.0
  0
LINE
  5
B814
330
1F
100
AcDbEntity
  8
AM_2
100
AcDbLine
 10
142.1793375214758
 20
68.4162574766799
 30
0.0
 11
142.1793375214758
 21
20.4162654766799
 31
0.0
  0
LINE
  5
B815
330
1F
100
AcDbEntity
  8
AM_2
100
AcDbLine
 10
190.1793370214758
 20
68.4162574766799
 30
0.0
 11
190.1793370214758
 21
20.4162654766799
 31
0.0
  0
LINE
  5
B816
330
1F
100
AcDbEntity
  8
AM_2
100
AcDbLine
 10
270.1793375214758
 20
68.4162574766799
 30
0.0
 11
270.1793375214758
 21
20.4162654766799
 31
0.0
  0
LINE
  5
B817
330
1F
100
AcDbEntity
  8
AM_2
100
AcDbLine
 10
254.1793375214758
 20
68.4162574766799
 30
0.0
 11
254.1793375214758
 21
20.4162654766799
 31
0.0
  0
LINE
  5
B818
330
1F
100
AcDbEntity
  8
AM_2
100
AcDbLine
 10
318.1793015214758
 20
68.4162574766799
 30
0.0
 11
318.1793015214758
 21
20.4162654766799
 31
0.0
  0
LINE
  5
B819
330
1F
100
AcDbEntity
  8
AM_2
100
AcDbLine
 10
222.1793375214758
 20
68.4162574766799
 30
0.0
 11
222.1793375214758
 21
20.4162654766799
 31
0.0
  0
LINE
  5
B81A
330
1F
100
AcDbEntity
  8
AM_2
100
AcDbLine
 10
206.1793375214758
 20
68.4162574766799
 30
0.0
 11
206.1793375214758
 21
20.4162654766799
 31
0.0
  0
LINE
  5
B81B
330
1F
100
AcDbEntity
  8
AM_2
100
AcDbLine
 10
80.1793415214758
 20
60.41625747667989
 30
0.0
 11
352.1793015214758
 21
60.41625747667989
 31
0.0
  0
LINE
  5
B81C
330
1F
100
AcDbEntity
  8
AM_2
100
AcDbLine
 10
80.1793415214758
 20
44.41626547667989
 30
0.0
 11
352.1793015214758
 21
44.41626547667989
 31
0.0
  0
LINE
  5
B81D
330
1F
100
AcDbEntity
  8
AM_2
100
AcDbLine
 10
302.1793115214758
 20
68.4162574766799
 30
0.0
 11
302.1793115214758
 21
20.4162654766799
 31
0.0
  0
LINE
  5
B81E
330
1F
100
AcDbEntity
  8
AM_2
100
AcDbLine
 10
286.1793375214758
 20
68.4162574766799
 30
0.0
 11
286.1793375214758
 21
20.4162654766799
 31
0.0
  0
LINE
  5
B81F
330
1F
100
AcDbEntity
  8
AM_2
100
AcDbLine
 10
80.1793415214758
 20
52.41625747667988
 30
0.0
 11
352.1793015214758
 21
52.41625747667988
 31
0.0
  0
LINE
  5
B820
330
1F
100
AcDbEntity
  8
AM_2
100
AcDbLine
 10
352.1793015214758
 20
68.4162574766799
 30
0.0
 11
352.1793015214758
 21
20.4162654766799
 31
0.0
  0
LINE
  5
B821
330
1F
100
AcDbEntity
  8
AM_2
100
AcDbLine
 10
80.1793415214758
 20
20.4162654766799
 30
0.0
 11
352.1793015214758
 21
20.4162654766799
 31
0.0
  0
LINE
  5
B822
330
1F
100
AcDbEntity
  8
AM_2
100
AcDbLine
 10
80.1793415214758
 20
36.4162654766799
 30
0.0
 11
352.1793015214758
 21
36.4162654766799
 31
0.0
  0
LINE
  5
B823
330
1F
100
AcDbEntity
  8
AM_2
100
AcDbLine
 10
80.1793415214758
 20
28.4162654766799
 30
0.0
 11
352.1793015214758
 21
28.4162654766799
 31
0.0
  0
LINE
  5
B824
330
1F
100
AcDbEntity
  8
AM_7
 48
1.199999999999999
100
AcDbLine
 10
194.2424924354695
 20
237.9757033669941
 30
0.0
 11
194.2424924354695
 21
177.9756973669941
 31
0.0
  0
LINE
  5
B825
330
1F
100
AcDbEntity
  8
AM_0
100
AcDbLine
 10
139.2425014354695
 20
234.9757033669941
 30
0.0
 11
249.2424944354695
 21
234.9757033669941
 31
0.0
  0
LINE
  5
B826
330
1F
100
AcDbEntity
  8
AM_0
100
AcDbLine
 10
176.1236262854695
 20
193.975693366994
 30
0.0
 11
212.3613754354695
 21
193.975693366994
 31
0.0
  0
LINE
  5
B827
330
1F
100
AcDbEntity
  8
AM_7
100
AcDbLine
 10
164.2424994354695
 20
205.9756933669941
 30
0.0
 11
224.2424944354695
 21
205.9756933669941
 31
0.0
  0
LINE
  5
B828
330
1F
100
AcDbEntity
  8
AM_0
100
AcDbLine
 10
249.2424944354695
 20
234.9757033669941
 30
0.0
 11
249.2424944354695
 21
227.9757033669941
 31
0.0
  0
LINE
  5
B829
330
1F
100
AcDbEntity
  8
AM_0
100
AcDbLine
 10
139.2425014354695
 20
234.9757033669941
 30
0.0
 11
139.2425014354695
 21
227.9757033669941
 31
0.0
  0
LINE
  5
B82A
330
1F
100
AcDbEntity
  8
AM_0
100
AcDbLine
 10
142.2425014354695
 20
224.9757033669941
 30
0.0
 11
157.3613734354695
 21
224.9757033669941
 31
0.0
  0
LINE
  5
B82B
330
1F
100
AcDbEntity
  8
AM_0
100
AcDbLine
 10
160.0618454354695
 20
223.2823733669941
 30
0.0
 11
173.4231498354695
 21
195.669023366994
 31
0.0
  0
LINE
  5
B82C
330
1F
100
AcDbEntity
  8
AM_0
100
AcDbLine
 10
228.4231504354695
 20
223.2823933669941
 30
0.0
 11
215.0618454354695
 21
195.669023366994
 31
0.0
  0
LINE
  5
B82D
330
1F
100
AcDbEntity
  8
AM_0
100
AcDbLine
 10
231.1236284354695
 20
224.9757033669941
 30
0.0
 11
246.2424944354696
 21
224.9757033669941
 31
0.0
  0
LINE
  5
B82E
330
1F
100
AcDbEntity
  8
AM_0
100
AcDbLine
 10
194.2424984354695
 20
213.4757033669941
 30
0.0
 11
187.7473004354695
 21
209.7257033669941
 31
0.0
  0
LINE
  5
B82F
330
1F
100
AcDbEntity
  8
AM_0
100
AcDbLine
 10
187.7473144354695
 20
209.7256933669941
 30
0.0
 11
187.7473144354695
 21
202.225693366994
 31
0.0
  0
LINE
  5
B830
330
1F
100
AcDbEntity
  8
AM_0
100
AcDbLine
 10
187.7473164354695
 20
202.2257033669941
 30
0.0
 11
194.2425074354695
 21
198.4757033669941
 31
0.0
  0
LINE
  5
B831
330
1F
100
AcDbEntity
  8
AM_0
100
AcDbLine
 10
194.2425014354695
 20
198.4757033669941
 30
0.0
 11
200.7376934354695
 21
202.2257033669941
 31
0.0
  0
LINE
  5
B832
330
1F
100
AcDbEntity
  8
AM_0
100
AcDbLine
 10
200.7376854354695
 20
202.225693366994
 30
0.0
 11
200.7376854354695
 21
209.7256933669941
 31
0.0
  0
LINE
  5
B833
330
1F
100
AcDbEntity
  8
AM_0
100
AcDbLine
 10
200.7376854354695
 20
209.7257033669941
 30
0.0
 11
194.2424944354695
 21
213.4757033669941
 31
0.0
  0
LINE
  5
B834
330
1F
100
AcDbEntity
  8
AM_0
100
AcDbLine
 10
139.2425014354695
 20
150.25378353655
 30
0.0
 11
249.2424944354695
 21
150.25378353655
 31
0.0
  0
LINE
  5
B835
330
1F
100
AcDbEntity
  8
AM_0
100
AcDbLine
 10
139.2425014354695
 20
124.25378353655
 30
0.0
 11
249.2424944354695
 21
124.25378353655
 31
0.0
  0
LINE
  5
B836
330
1F
100
AcDbEntity
  8
AM_0
100
AcDbLine
 10
139.2425014354695
 20
150.25378353655
 30
0.0
 11
139.2425014354695
 21
124.25378353655
 31
0.0
  0
LINE
  5
B837
330
1F
100
AcDbEntity
  8
AM_0
100
AcDbLine
 10
249.2424944354695
 20
150.25378353655
 30
0.0
 11
249.2424944354695
 21
124.25378353655
 31
0.0
  0
LINE
  5
B838
330
1F
100
AcDbEntity
  8
AM_0
100
AcDbLine
 10
139.2425014354695
 20
147.65378453655
 30
0.0
 11
249.2424944354695
 21
147.65378453655
 31
0.0
  0
LINE
  5
B839
330
1F
100
AcDbEntity
  8
AM_0
100
AcDbLine
 10
139.2425014354695
 20
126.85378953655
 30
0.0
 11
249.2424944354695
 21
126.85378953655
 31
0.0
  0
LINE
  5
B83A
330
1F
100
AcDbEntity
  8
AM_0
100
AcDbLine
 10
214.2424944354695
 20
150.25378353655
 30
0.0
 11
214.2424944354695
 21
147.65378453655
 31
0.0
  0
LINE
  5
B83B
330
1F
100
AcDbEntity
  8
AM_0
100
AcDbLine
 10
229.2424944354696
 20
150.25378353655
 30
0.0
 11
229.2424944354696
 21
147.65378453655
 31
0.0
  0
LINE
  5
B83C
330
1F
100
AcDbEntity
  8
AM_0
100
AcDbLine
 10
174.2424922354695
 20
150.25378353655
 30
0.0
 11
174.2424922354695
 21
147.65378453655
 31
0.0
  0
LINE
  5
B83D
330
1F
100
AcDbEntity
  8
AM_0
100
AcDbLine
 10
159.2424994354695
 20
150.25378353655
 30
0.0
 11
159.2424994354695
 21
147.65378453655
 31
0.0
  0
LINE
  5
B83E
330
1F
100
AcDbEntity
  8
AM_0
100
AcDbLine
 10
159.2424994354695
 20
126.85378953655
 30
0.0
 11
159.2424994354695
 21
124.25378353655
 31
0.0
  0
LINE
  5
B83F
330
1F
100
AcDbEntity
  8
AM_0
100
AcDbLine
 10
174.2424922354695
 20
126.85378953655
 30
0.0
 11
174.2424922354695
 21
124.25378353655
 31
0.0
  0
LINE
  5
B840
330
1F
100
AcDbEntity
  8
AM_0
100
AcDbLine
 10
214.2424944354695
 20
126.85378953655
 30
0.0
 11
214.2424944354695
 21
124.25378353655
 31
0.0
  0
LINE
  5
B841
330
1F
100
AcDbEntity
  8
AM_0
100
AcDbLine
 10
229.2424944354696
 20
126.85378953655
 30
0.0
 11
229.2424944354696
 21
124.25378353655
 31
0.0
  0
LINE
  5
B842
330
1F
100
AcDbEntity
  8
AM_7
100
AcDbLine
 10
136.2425014354695
 20
137.25378353655
 30
0.0
 11
252.2424944354696
 21
137.25378353655
 31
0.0
  0
LINE
  5
B843
330
1F
100
AcDbEntity
  8
AM_7
100
AcDbLine
 10
194.2424924354695
 20
158.75378353655
 30
0.0
 11
194.2424924354695
 21
111.75378343655
 31
0.0
  0
LINE
  5
B844
330
1F
100
AcDbEntity
  8
AM_0
100
AcDbLine
 10
169.2424922354695
 20
146.25378353655
 30
0.0
 11
169.2424922354695
 21
142.25378353655
 31
0.0
  0
LINE
  5
B845
330
1F
100
AcDbEntity
  8
AM_0
100
AcDbLine
 10
174.7424922354695
 20
140.75378353655
 30
0.0
 11
174.7424922354695
 21
133.75378353655
 31
0.0
  0
LINE
  5
B846
330
1F
100
AcDbEntity
  8
AM_0
100
AcDbLine
 10
213.7424944354695
 20
140.75378353655
 30
0.0
 11
213.7424944354695
 21
133.75378353655
 31
0.0
  0
LINE
  5
B847
330
1F
100
AcDbEntity
  8
AM_0
100
AcDbLine
 10
219.2424944354695
 20
146.25378353655
 30
0.0
 11
219.2424944354695
 21
142.25378353655
 31
0.0
  0
LINE
  5
B848
330
1F
100
AcDbEntity
  8
AM_0
100
AcDbLine
 10
169.2424922354695
 20
128.25378353655
 30
0.0
 11
219.2424944354695
 21
128.25378353655
 31
0.0
  0
LINE
  5
B849
330
1F
100
AcDbEntity
  8
AM_0
100
AcDbLine
 10
169.2424922354695
 20
146.25378353655
 30
0.0
 11
219.2424944354695
 21
146.25378353655
 31
0.0
  0
LINE
  5
B84A
330
1F
100
AcDbEntity
  8
AM_0
100
AcDbLine
 10
170.7424922354695
 20
133.75378353655
 30
0.0
 11
217.7424944354695
 21
133.75378353655
 31
0.0
  0
LINE
  5
B84B
330
1F
100
AcDbEntity
  8
AM_0
100
AcDbLine
 10
170.7424922354695
 20
140.75378353655
 30
0.0
 11
217.7424944354695
 21
140.75378353655
 31
0.0
  0
LINE
  5
B84C
330
1F
100
AcDbEntity
  8
AM_0
100
AcDbLine
 10
169.2424922354695
 20
132.25378353655
 30
0.0
 11
169.2424922354695
 21
128.25378353655
 31
0.0
  0
LINE
  5
B84D
330
1F
100
AcDbEntity
  8
AM_0
100
AcDbLine
 10
219.2424944354695
 20
132.25378353655
 30
0.0
 11
219.2424944354695
 21
128.25378353655
 31
0.0
  0
LINE
  5
B84E
330
1F
100
AcDbEntity
  8
AM_0
100
AcDbLine
 10
169.2424922354695
 20
142.25378353655
 30
0.0
 11
219.2424944354695
 21
142.25378353655
 31
0.0
  0
LINE
  5
B84F
330
1F
100
AcDbEntity
  8
AM_0
100
AcDbLine
 10
169.2424951354695
 20
142.25378353655
 30
0.0
 11
170.7424965354695
 21
140.75378353655
 31
0.0
  0
LINE
  5
B850
330
1F
100
AcDbEntity
  8
AM_0
100
AcDbLine
 10
170.7425018354695
 20
133.75379153655
 30
0.0
 11
169.2425003354695
 21
132.25378953655
 31
0.0
  0
LINE
  5
B851
330
1F
100
AcDbEntity
  8
AM_0
100
AcDbLine
 10
219.2425014354695
 20
142.25379153655
 30
0.0
 11
217.7425014354696
 21
140.75379153655
 31
0.0
  0
LINE
  5
B852
330
1F
100
AcDbEntity
  8
AM_0
100
AcDbLine
 10
217.7425014354696
 20
133.75378153655
 30
0.0
 11
219.2424984354695
 21
132.25378553655
 31
0.0
  0
LINE
  5
B853
330
1F
100
AcDbEntity
  8
AM_0
100
AcDbLine
 10
169.2424922354695
 20
132.25378353655
 30
0.0
 11
219.2424944354695
 21
132.25378353655
 31
0.0
  0
LINE
  5
B854
330
1F
100
AcDbEntity
  8
AM_0
100
AcDbLine
 10
190.2424924354695
 20
154.75378353655
 30
0.0
 11
190.2424924354695
 21
150.25378353655
 31
0.0
  0
LINE
  5
B855
330
1F
100
AcDbEntity
  8
AM_0
100
AcDbLine
 10
198.2424924354695
 20
154.75378353655
 30
0.0
 11
198.2424924354695
 21
150.25378353655
 31
0.0
  0
LINE
  5
B856
330
1F
100
AcDbEntity
  8
AM_0
100
AcDbLine
 10
186.7424922354695
 20
154.75378353655
 30
0.0
 11
186.7424922354695
 21
150.25378353655
 31
0.0
  0
LINE
  5
B857
330
1F
100
AcDbEntity
  8
AM_0
100
AcDbLine
 10
201.7424924354695
 20
154.75378353655
 30
0.0
 11
201.7424924354695
 21
150.25378353655
 31
0.0
  0
LINE
  5
B858
330
1F
100
AcDbEntity
  8
AM_0
100
AcDbLine
 10
186.7424922354695
 20
121.25378353655
 30
0.0
 11
186.7424922354695
 21
118.25378353655
 31
0.0
  0
LINE
  5
B859
330
1F
100
AcDbEntity
  8
AM_0
100
AcDbLine
 10
201.7424924354695
 20
121.25378353655
 30
0.0
 11
201.7424924354695
 21
118.25378353655
 31
0.0
  0
LINE
  5
B85A
330
1F
100
AcDbEntity
  8
AM_0
100
AcDbLine
 10
188.4924924354695
 20
155.75378353655
 30
0.0
 11
199.9924924354695
 21
155.75378353655
 31
0.0
  0
LINE
  5
B85B
330
1F
100
AcDbEntity
  8
AM_0
100
AcDbLine
 10
186.5424953354695
 20
124.25378353655
 30
0.0
 11
186.5424953354695
 21
122.25378353655
 31
0.0
  0
LINE
  5
B85C
330
1F
100
AcDbEntity
  8
AM_0
100
AcDbLine
 10
201.9425044354695
 20
124.25378353655
 30
0.0
 11
201.9425044354695
 21
122.25378353655
 31
0.0
  0
LINE
  5
B85D
330
1F
100
AcDbEntity
  8
AM_0
100
AcDbLine
 10
186.5424953354695
 20
122.25378353655
 30
0.0
 11
201.9425044354695
 21
122.25378353655
 31
0.0
  0
LINE
  5
B85E
330
1F
100
AcDbEntity
  8
AM_0
100
AcDbLine
 10
198.2424924354695
 20
147.65378453655
 30
0.0
 11
198.2424924354695
 21
146.25378353655
 31
0.0
  0
LINE
  5
B85F
330
1F
100
AcDbEntity
  8
AM_0
100
AcDbLine
 10
190.2424924354695
 20
147.65378453655
 30
0.0
 11
190.2424924354695
 21
146.25378353655
 31
0.0
  0
LINE
  5
B860
330
1F
100
AcDbEntity
  8
AM_0
100
AcDbLine
 10
198.2424924354695
 20
128.25378353655
 30
0.0
 11
198.2424924354695
 21
126.85378953655
 31
0.0
  0
LINE
  5
B861
330
1F
100
AcDbEntity
  8
AM_0
100
AcDbLine
 10
190.2424924354695
 20
128.25378353655
 30
0.0
 11
190.2424924354695
 21
126.85378953655
 31
0.0
  0
LINE
  5
B862
330
1F
100
AcDbEntity
  8
AM_0
100
AcDbLine
 10
190.2424924354695
 20
121.25378353655
 30
0.0
 11
190.2424924354695
 21
118.25378353655
 31
0.0
  0
LINE
  5
B863
330
1F
100
AcDbEntity
  8
AM_0
100
AcDbLine
 10
190.2424924354695
 20
117.25378353655
 30
0.0
 11
190.2424924354695
 21
114.75378343655
 31
0.0
  0
LINE
  5
B864
330
1F
100
AcDbEntity
  8
AM_0
100
AcDbLine
 10
198.2424924354695
 20
121.25378353655
 30
0.0
 11
198.2424924354695
 21
118.25378353655
 31
0.0
  0
LINE
  5
B865
330
1F
100
AcDbEntity
  8
AM_0
100
AcDbLine
 10
198.2424924354695
 20
117.25378353655
 30
0.0
 11
198.2424924354695
 21
114.75378343655
 31
0.0
  0
LINE
  5
B866
330
1F
100
AcDbEntity
  8
AM_0
100
AcDbLine
 10
233.7424944354696
 20
142.25378353655
 30
0.0
 11
238.7424944354695
 21
142.25378353655
 31
0.0
  0
LINE
  5
B867
330
1F
100
AcDbEntity
  8
AM_0
100
AcDbLine
 10
233.7424944354696
 20
132.25378353655
 30
0.0
 11
238.7424944354695
 21
132.25378353655
 31
0.0
  0
LINE
  5
B868
330
1F
100
AcDbEntity
  8
AM_0
100
AcDbLine
 10
190.2424924354695
 20
114.75378343655
 30
0.0
 11
198.2424924354695
 21
114.75378343655
 31
0.0
  0
ARC
  5
B869
330
1F
100
AcDbEntity
  8
AM_0
100
AcDbCircle
 10
142.2425014354695
 20
227.9757033669941
 30
0.0
 40
3.0
100
AcDbArc
 50
180.0
 51
270.0
  0
ARC
  5
B86A
330
1F
100
AcDbEntity
  8
AM_0
100
AcDbCircle
 10
246.2424944354696
 20
227.9757033669941
 30
0.0
 40
3.0
100
AcDbArc
 50
270.0
 51
0.0
  0
ARC
  5
B86B
330
1F
100
AcDbEntity
  8
AM_0
100
AcDbCircle
 10
194.2424924354695
 20
205.9756933669941
 30
0.0
 40
25.0
100
AcDbArc
 50
184.1309299999998
 51
355.8690700000002
  0
ARC
  5
B86C
330
1F
100
AcDbEntity
  8
AM_0
100
AcDbCircle
 10
188.4924924354695
 20
153.72253353655
 30
0.0
 40
2.03125
100
AcDbArc
 50
30.51023699999958
 51
149.4897600000003
  0
ARC
  5
B86D
330
1F
100
AcDbEntity
  8
AM_0
100
AcDbCircle
 10
194.2424924354695
 20
147.25378353655
 30
0.0
 40
8.5
100
AcDbArc
 50
61.92751300000072
 51
118.0724800000003
  0
ARC
  5
B86E
330
1F
100
AcDbEntity
  8
AM_0
100
AcDbCircle
 10
199.9924924354695
 20
153.72253353655
 30
0.0
 40
2.03125
100
AcDbArc
 50
30.51023699999958
 51
149.4897600000003
  0
ARC
  5
B86F
330
1F
100
AcDbEntity
  8
AM_0
100
AcDbCircle
 10
188.4924924354695
 20
119.28503353655
 30
0.0
 40
2.03125
100
AcDbArc
 50
210.5102399999997
 51
329.4897600000002
  0
ARC
  5
B870
330
1F
100
AcDbEntity
  8
AM_0
100
AcDbCircle
 10
194.2424924354695
 20
125.75378353655
 30
0.0
 40
8.5
100
AcDbArc
 50
241.9275199999996
 51
298.0724899999991
  0
ARC
  5
B871
330
1F
100
AcDbEntity
  8
AM_0
100
AcDbCircle
 10
199.9924924354695
 20
119.28503353655
 30
0.0
 40
2.03125
100
AcDbArc
 50
210.5102399999997
 51
329.4897600000002
  0
ARC
  5
B872
330
1F
100
AcDbEntity
  8
AM_0
100
AcDbCircle
 10
199.9924924354695
 20
120.22253353655
 30
0.0
 40
2.03125
100
AcDbArc
 50
30.51023699999958
 51
149.4897600000003
  0
ARC
  5
B873
330
1F
100
AcDbEntity
  8
AM_0
100
AcDbCircle
 10
194.2424924354695
 20
113.75378733655
 30
0.0
 40
8.5
100
AcDbArc
 50
61.92751300000072
 51
118.0724800000003
  0
ARC
  5
B874
330
1F
100
AcDbEntity
  8
AM_0
100
AcDbCircle
 10
188.4924924354695
 20
120.22253353655
 30
0.0
 40
2.03125
100
AcDbArc
 50
30.51023699999958
 51
149.4897600000003
  0
CIRCLE
  5
B875
330
1F
100
AcDbEntity
  8
AM_0
100
AcDbCircle
 10
150.7424994354695
 20
137.25378353655
 30
0.0
 40
5.0
  0
ARC
  5
B876
330
1F
100
AcDbEntity
  8
AM_0
100
AcDbCircle
 10
238.7424944354695
 20
137.25378353655
 30
0.0
 40
5.0
100
AcDbArc
 50
0.0
 51
90.0
  0
ARC
  5
B877
330
1F
100
AcDbEntity
  8
AM_0
100
AcDbCircle
 10
233.7424944354696
 20
137.25378353655
 30
0.0
 40
5.0
100
AcDbArc
 50
90.0
 51
270.0
  0
ARC
  5
B878
330
1F
100
AcDbEntity
  8
AM_0
100
AcDbCircle
 10
238.7424944354695
 20
137.25378353655
 30
0.0
 40
5.0
100
AcDbArc
 50
270.0
 51
0.0
  0
ARC
  5
B879
330
1F
100
AcDbEntity
  8
AM_0
100
AcDbCircle
 10
157.3613734354695
 20
221.9757033669941
 30
0.0
 40
3.0
100
AcDbArc
 50
25.82105499999975
 51
90.0
  0
ARC
  5
B87A
330
1F
100
AcDbEntity
  8
AM_0
100
AcDbCircle
 10
176.1236262854695
 20
196.975693366994
 30
0.0
 40
3.0
100
AcDbArc
 50
205.8210500000001
 51
270.0
  0
ARC
  5
B87B
330
1F
100
AcDbEntity
  8
AM_0
100
AcDbCircle
 10
212.3613754354695
 20
196.975693366994
 30
0.0
 40
3.0
100
AcDbArc
 50
270.0
 51
334.1789400000008
  0
ARC
  5
B87C
330
1F
100
AcDbEntity
  8
AM_0
100
AcDbCircle
 10
231.1236284354695
 20
221.9757033669941
 30
0.0
 40
3.0
100
AcDbArc
 50
90.0
 51
154.1789400000009
  0
CIRCLE
  5
B87D
330
1F
100
AcDbEntity
  8
AM_2
100
AcDbCircle
 10
194.2424924354695
 20
205.9756933669941
 30
0.0
 40
6.495191099999999
  0
TEXT
  5
B87E
330
1F
100
AcDbEntity
  8
AM_6
100
AcDbText
 10
82.78589152147583
 20
46.0162574766799
 30
0.0
 40
4.8000002
  1
ＳＴ－１６５－２
 41
0.5660139600000001
100
AcDbText
  0
TEXT
  5
B87F
330
1F
100
AcDbEntity
  8
AM_6
100
AcDbText
 10
82.78589152147583
 20
38.01626547667991
 30
0.0
 40
4.8000002
  1
ＳＴ－１６５－３
 41
0.5660139600000001
100
AcDbText
  0
TEXT
  5
B880
330
1F
100
AcDbEntity
  8
AM_6
100
AcDbText
 10
306.0650215214758
 20
62.01625747667989
 30
0.0
 40
4.8000002
  1
枠ｔ
 41
0.8643459000000001
100
AcDbText
  0
TEXT
  5
B881
330
1F
100
AcDbEntity
  8
AM_6
100
AcDbText
 10
320.1793015214758
 20
38.01626547667991
 30
0.0
 40
4.8000002
  1
　　５００ｋｇ／２コ
 41
0.54332075
100
AcDbText
  0
TEXT
  5
B882
330
1F
100
AcDbEntity
  8
AM_6
100
AcDbText
 10
320.1793015214758
 20
46.0162574766799
 30
0.0
 40
4.8000002
  1
　　３００ｋｇ／２コ
 41
0.54332075
100
AcDbText
  0
TEXT
  5
B883
330
1F
100
AcDbEntity
  8
AM_6
100
AcDbText
 10
320.1793015214758
 20
54.01625747667988
 30
0.0
 40
4.8000002
  1
　　２００ｋｇ／２コ
 41
0.54332075
100
AcDbText
  0
TEXT
  5
B884
330
1F
100
AcDbEntity
  8
AM_6
100
AcDbText
 10
323.8650115214758
 20
62.01625747667989
 30
0.0
 40
4.8000002
  1
標準耐荷重
 41
0.84891105
100
AcDbText
  0
TEXT
  5
B885
330
1F
100
AcDbEntity
  8
AM_6
100
AcDbText
 10
291.1793415214758
 20
38.01626547667991
 30
0.0
 40
4.8000002
  1
５４
 41
0.6302521
100
AcDbText
  0
TEXT
  5
B886
330
1F
100
AcDbEntity
  8
AM_6
100
AcDbText
 10
259.1793375214758
 20
38.01626547667991
 30
0.0
 40
4.8000002
  1
１０
 41
0.6302521
100
AcDbText
  0
TEXT
  5
B887
330
1F
100
AcDbEntity
  8
AM_6
100
AcDbText
 10
242.5793385214758
 20
38.01626547667991
 30
0.0
 40
4.8000002
  1
１０
 41
0.7563022700000001
100
AcDbText
  0
TEXT
  5
B888
330
1F
100
AcDbEntity
  8
AM_6
100
AcDbText
 10
227.1793375214758
 20
38.01626547667991
 30
0.0
 40
4.8000002
  1
２５
 41
0.6302521
100
AcDbText
  0
TEXT
  5
B889
330
1F
100
AcDbEntity
  8
AM_6
100
AcDbText
 10
211.1793375214758
 20
38.01626547667991
 30
0.0
 40
4.8000002
  1
３３
 41
0.6302521
100
AcDbText
  0
TEXT
  5
B88A
330
1F
100
AcDbEntity
  8
AM_6
100
AcDbText
 10
195.1793376214758
 20
38.01626547667991
 30
0.0
 40
4.8000002
  1
８０
 41
0.6302521
100
AcDbText
  0
TEXT
  5
B88B
330
1F
100
AcDbEntity
  8
AM_6
100
AcDbText
 10
179.1793367214758
 20
38.01626547667991
 30
0.0
 40
4.8000002
  1
７２
 41
0.6302521
100
AcDbText
  0
TEXT
  5
B88C
330
1F
100
AcDbEntity
  8
AM_6
100
AcDbText
 10
163.1793375214758
 20
38.01626547667991
 30
0.0
 40
4.8000002
  1
７５
 41
0.6302521
100
AcDbText
  0
TEXT
  5
B88D
330
1F
100
AcDbEntity
  8
AM_6
100
AcDbText
 10
147.1793375214758
 20
38.01626547667991
 30
0.0
 40
4.8000002
  1
５９
 41
0.6302521
100
AcDbText
  0
TEXT
  5
B88E
330
1F
100
AcDbEntity
  8
AM_6
100
AcDbText
 10
129.6793375214758
 20
38.01626547667991
 30
0.0
 40
4.8000002
  1
１２８
 41
0.5908613400000001
100
AcDbText
  0
TEXT
  5
B88F
330
1F
100
AcDbEntity
  8
AM_6
100
AcDbText
 10
113.6793375214758
 20
38.01626547667991
 30
0.0
 40
4.8000002
  1
１５０
 41
0.5908613100000001
100
AcDbText
  0
TEXT
  5
B890
330
1F
100
AcDbEntity
  8
AM_6
100
AcDbText
 10
308.6793115214758
 20
38.01626547667991
 30
0.0
 40
4.8000002
  1
３
 41
0.7878150900000001
100
AcDbText
  0
TEXT
  5
B891
330
1F
100
AcDbEntity
  8
AM_6
100
AcDbText
 10
291.1793415214758
 20
46.0162574766799
 30
0.0
 40
4.8000002
  1
４７
 41
0.6302521
100
AcDbText
  0
TEXT
  5
B892
330
1F
100
AcDbEntity
  8
AM_6
100
AcDbText
 10
273.7946835214758
 20
46.0162574766799
 30
0.0
 40
4.8000002
  1
４．５
 41
0.5757161100000001
100
AcDbText
  0
TEXT
  5
B893
330
1F
100
AcDbEntity
  8
AM_6
100
AcDbText
 10
259.1793375214758
 20
46.0162574766799
 30
0.0
 40
4.8000002
  1
１０
 41
0.6302521
100
AcDbText
  0
TEXT
  5
B894
330
1F
100
AcDbEntity
  8
AM_6
100
AcDbText
 10
244.9951265214758
 20
46.0162574766799
 30
0.0
 40
4.8000002
  1
８
 41
0.6219594800000001
100
AcDbText
  0
TEXT
  5
B895
330
1F
100
AcDbEntity
  8
AM_6
100
AcDbText
 10
227.1793375214758
 20
46.0162574766799
 30
0.0
 40
4.8000002
  1
２０
 41
0.6302521
100
AcDbText
  0
TEXT
  5
B896
330
1F
100
AcDbEntity
  8
AM_6
100
AcDbText
 10
211.1793375214758
 20
46.0162574766799
 30
0.0
 40
4.8000002
  1
２８
 41
0.6302521
100
AcDbText
  0
TEXT
  5
B897
330
1F
100
AcDbEntity
  8
AM_6
100
AcDbText
 10
195.1793376214758
 20
46.0162574766799
 30
0.0
 40
4.8000002
  1
６５
 41
0.6302521
100
AcDbText
  0
TEXT
  5
B898
330
1F
100
AcDbEntity
  8
AM_6
100
AcDbText
 10
179.1793367214758
 20
46.0162574766799
 30
0.0
 40
4.8000002
  1
５９
 41
0.6302521
100
AcDbText
  0
TEXT
  5
B899
330
1F
100
AcDbEntity
  8
AM_6
100
AcDbText
 10
163.1793375214758
 20
46.0162574766799
 30
0.0
 40
4.8000002
  1
６０
 41
0.6302521
100
AcDbText
  0
TEXT
  5
B89A
330
1F
100
AcDbEntity
  8
AM_6
100
AcDbText
 10
147.1793375214758
 20
46.0162574766799
 30
0.0
 40
4.8000002
  1
４８
 41
0.6302521
100
AcDbText
  0
TEXT
  5
B89B
330
1F
100
AcDbEntity
  8
AM_6
100
AcDbText
 10
131.1793375214758
 20
46.0162574766799
 30
0.0
 40
4.8000002
  1
９８
 41
0.6302521
100
AcDbText
  0
TEXT
  5
B89C
330
1F
100
AcDbEntity
  8
AM_6
100
AcDbText
 10
113.6793375214758
 20
46.0162574766799
 30
0.0
 40
4.8000002
  1
１２０
 41
0.5908613100000001
100
AcDbText
  0
TEXT
  5
B89D
330
1F
100
AcDbEntity
  8
AM_6
100
AcDbText
 10
308.6793115214758
 20
46.0162574766799
 30
0.0
 40
4.8000002
  1
３
 41
0.7878150900000001
100
AcDbText
  0
TEXT
  5
B89E
330
1F
100
AcDbEntity
  8
AM_6
100
AcDbText
 10
82.78589152147583
 20
54.01625747667988
 30
0.0
 40
4.8000002
  1
ＳＴ－１６５－１
 41
0.5660139600000001
100
AcDbText
  0
TEXT
  5
B89F
330
1F
100
AcDbEntity
  8
AM_6
100
AcDbText
 10
291.1793415214758
 20
54.01625747667988
 30
0.0
 40
4.8000002
  1
４１
 41
0.6302521
100
AcDbText
  0
TEXT
  5
B8A0
330
1F
100
AcDbEntity
  8
AM_6
100
AcDbText
 10
195.1793376214758
 20
54.01625747667988
 30
0.0
 40
4.8000002
  1
５４
 41
0.63025208
100
AcDbText
  0
TEXT
  5
B8A1
330
1F
100
AcDbEntity
  8
AM_6
100
AcDbText
 10
259.1793375214758
 20
54.01625747667988
 30
0.0
 40
4.8000002
  1
１０
 41
0.6302521
100
AcDbText
  0
TEXT
  5
B8A2
330
1F
100
AcDbEntity
  8
AM_6
100
AcDbText
 10
113.6793375214758
 20
54.01625747667988
 30
0.0
 40
4.8000002
  1
１１０
 41
0.5908613100000001
100
AcDbText
  0
TEXT
  5
B8A3
330
1F
100
AcDbEntity
  8
AM_6
100
AcDbText
 10
175.6793375214758
 20
54.01625747667988
 30
0.0
 40
4.8000002
  1
４８．５
 41
0.62070277
100
AcDbText
  0
TEXT
  5
B8A4
330
1F
100
AcDbEntity
  8
AM_6
100
AcDbText
 10
244.9951265214758
 20
54.01625747667988
 30
0.0
 40
4.8000002
  1
７
 41
0.6219594800000001
100
AcDbText
  0
TEXT
  5
B8A5
330
1F
100
AcDbEntity
  8
AM_6
100
AcDbText
 10
227.1793375214758
 20
54.01625747667988
 30
0.0
 40
4.8000002
  1
１８
 41
0.6302521
100
AcDbText
  0
TEXT
  5
B8A6
330
1F
100
AcDbEntity
  8
AM_6
100
AcDbText
 10
211.1793375214758
 20
54.01625747667988
 30
0.0
 40
4.8000002
  1
２６
 41
0.6302521
100
AcDbText
  0
TEXT
  5
B8A7
330
1F
100
AcDbEntity
  8
AM_6
100
AcDbText
 10
147.1793375214758
 20
54.01625747667988
 30
0.0
 40
4.8000002
  1
３９
 41
0.6302521
100
AcDbText
  0
TEXT
  5
B8A8
330
1F
100
AcDbEntity
  8
AM_6
100
AcDbText
 10
305.6793115214758
 20
54.01625747667988
 30
0.0
 40
4.8000002
  1
２．５
 41
0.5908613100000001
100
AcDbText
  0
TEXT
  5
B8A9
330
1F
100
AcDbEntity
  8
AM_6
100
AcDbText
 10
163.1793375214758
 20
54.01625747667988
 30
0.0
 40
4.8000002
  1
５０
 41
0.6302521
100
AcDbText
  0
TEXT
  5
B8AA
330
1F
100
AcDbEntity
  8
AM_6
100
AcDbText
 10
244.4650515214758
 20
62.01625747667989
 30
0.0
 40
4.8000002
  1
Ｉ
 41
0.90036056
100
AcDbText
  0
TEXT
  5
B8AB
330
1F
100
AcDbEntity
  8
AM_6
100
AcDbText
 10
276.4650515214758
 20
62.01625747667989
 30
0.0
 40
4.8000002
  1
Ｋ
 41
0.90036056
100
AcDbText
  0
TEXT
  5
B8AC
330
1F
100
AcDbEntity
  8
AM_6
100
AcDbText
 10
260.4650515214758
 20
62.01625747667989
 30
0.0
 40
4.8000002
  1
Ｊ
 41
0.90036056
100
AcDbText
  0
TEXT
  5
B8AD
330
1F
100
AcDbEntity
  8
AM_6
100
AcDbText
 10
91.06505152147576
 20
62.01625747667989
 30
0.0
 40
4.8000002
  1
品番
 41
0.8643459000000001
100
AcDbText
  0
TEXT
  5
B8AE
330
1F
100
AcDbEntity
  8
AM_6
100
AcDbText
 10
292.4650515214758
 20
62.01625747667989
 30
0.0
 40
4.8000002
  1
Ｌ
 41
0.90036056
100
AcDbText
  0
TEXT
  5
B8AF
330
1F
100
AcDbEntity
  8
AM_6
100
AcDbText
 10
164.4650515214758
 20
62.01625747667989
 30
0.0
 40
4.8000002
  1
Ｄ
 41
0.90036056
100
AcDbText
  0
TEXT
  5
B8B0
330
1F
100
AcDbEntity
  8
AM_6
100
AcDbText
 10
180.4650501214758
 20
62.01625747667989
 30
0.0
 40
4.8000002
  1
Ｅ
 41
0.90036056
100
AcDbText
  0
TEXT
  5
B8B1
330
1F
100
AcDbEntity
  8
AM_6
100
AcDbText
 10
196.4650511214758
 20
62.01625747667989
 30
0.0
 40
4.8000002
  1
Ｆ
 41
0.90036056
100
AcDbText
  0
TEXT
  5
B8B2
330
1F
100
AcDbEntity
  8
AM_6
100
AcDbText
 10
228.4650515214758
 20
62.01625747667989
 30
0.0
 40
4.8000002
  1
Ｈ
 41
0.90036056
100
AcDbText
  0
TEXT
  5
B8B3
330
1F
100
AcDbEntity
  8
AM_6
100
AcDbText
 10
212.4650515214758
 20
62.01625747667989
 30
0.0
 40
4.8000002
  1
Ｇ
 41
0.90036056
100
AcDbText
  0
TEXT
  5
B8B4
330
1F
100
AcDbEntity
  8
AM_6
100
AcDbText
 10
148.4650515214758
 20
62.01625747667989
 30
0.0
 40
4.8000002
  1
Ｃ
 41
0.90036056
100
AcDbText
  0
TEXT
  5
B8B5
330
1F
100
AcDbEntity
  8
AM_6
100
AcDbText
 10
116.4650515214758
 20
62.01625747667989
 30
0.0
 40
4.8000002
  1
Ａ
 41
0.90036056
100
AcDbText
  0
TEXT
  5
B8B6
330
1F
100
AcDbEntity
  8
AM_6
100
AcDbText
 10
277.0253755214758
 20
54.01625747667988
 30
0.0
 40
4.8000002
  1
４
 41
0.60607278
100
AcDbText
  0
TEXT
  5
B8B7
330
1F
100
AcDbEntity
  8
AM_6
100
AcDbText
 10
132.4650515214758
 20
62.01625747667989
 30
0.0
 40
4.8000002
  1
Ｂ
 41
0.90036056
100
AcDbText
  0
TEXT
  5
B8B8
330
1F
100
AcDbEntity
  8
AM_6
100
AcDbText
 10
131.1793375214758
 20
54.01625747667988
 30
0.0
 40
4.8000002
  1
８８
 41
0.6302521
100
AcDbText
  0
TEXT
  5
B8B9
330
1F
100
AcDbEntity
  8
AM_6
100
AcDbText
 10
82.78589152147583
 20
30.01626547667991
 30
0.0
 40
4.8000002
  1
ＳＴ－１６５－４
 41
0.5660139600000001
100
AcDbText
  0
TEXT
  5
B8BA
330
1F
100
AcDbEntity
  8
AM_6
100
AcDbText
 10
82.78589152147583
 20
22.01626547667991
 30
0.0
 40
4.8000002
  1
ＳＴ－１６５－５
 41
0.5660139600000001
100
AcDbText
  0
TEXT
  5
B8BB
330
1F
100
AcDbEntity
  8
AM_6
100
AcDbText
 10
320.1793015214758
 20
30.01626547667991
 30
0.0
 40
4.8000002
  1
　　７００ｋｇ／２コ
 41
0.54332075
100
AcDbText
  0
TEXT
  5
B8BC
330
1F
100
AcDbEntity
  8
AM_6
100
AcDbText
 10
291.1793415214758
 20
30.01626547667991
 30
0.0
 40
4.8000002
  1
６０
 41
0.6302521
100
AcDbText
  0
TEXT
  5
B8BD
330
1F
100
AcDbEntity
  8
AM_6
100
AcDbText
 10
259.1793375214758
 20
30.01626547667991
 30
0.0
 40
4.8000002
  1
１４
 41
0.6302521
100
AcDbText
  0
TEXT
  5
B8BE
330
1F
100
AcDbEntity
  8
AM_6
100
AcDbText
 10
242.9485685214758
 20
30.01626547667991
 30
0.0
 40
4.8000002
  1
１４
 41
0.67873306
100
AcDbText
  0
TEXT
  5
B8BF
330
1F
100
AcDbEntity
  8
AM_6
100
AcDbText
 10
227.1793375214758
 20
30.01626547667991
 30
0.0
 40
4.8000002
  1
２７
 41
0.6302521
100
AcDbText
  0
TEXT
  5
B8C0
330
1F
100
AcDbEntity
  8
AM_6
100
AcDbText
 10
211.1793375214758
 20
30.01626547667991
 30
0.0
 40
4.8000002
  1
３８
 41
0.6302521
100
AcDbText
  0
TEXT
  5
B8C1
330
1F
100
AcDbEntity
  8
AM_6
100
AcDbText
 10
193.4293378214758
 20
30.01626547667991
 30
0.0
 40
4.8000002
  1
１００
 41
0.62368693
100
AcDbText
  0
TEXT
  5
B8C2
330
1F
100
AcDbEntity
  8
AM_6
100
AcDbText
 10
179.1793367214758
 20
30.01626547667991
 30
0.0
 40
4.8000002
  1
９１
 41
0.6302521
100
AcDbText
  0
TEXT
  5
B8C3
330
1F
100
AcDbEntity
  8
AM_6
100
AcDbText
 10
163.1793375214758
 20
30.01626547667991
 30
0.0
 40
4.8000002
  1
９０
 41
0.6302521
100
AcDbText
  0
TEXT
  5
B8C4
330
1F
100
AcDbEntity
  8
AM_6
100
AcDbText
 10
147.1793375214758
 20
30.01626547667991
 30
0.0
 40
4.8000002
  1
７２
 41
0.6302521
100
AcDbText
  0
TEXT
  5
B8C5
330
1F
100
AcDbEntity
  8
AM_6
100
AcDbText
 10
129.6793375214758
 20
30.01626547667991
 30
0.0
 40
4.8000002
  1
１４６
 41
0.5908613400000001
100
AcDbText
  0
TEXT
  5
B8C6
330
1F
100
AcDbEntity
  8
AM_6
100
AcDbText
 10
113.6793375214758
 20
30.01626547667991
 30
0.0
 40
4.8000002
  1
１８０
 41
0.5908613100000001
100
AcDbText
  0
TEXT
  5
B8C7
330
1F
100
AcDbEntity
  8
AM_6
100
AcDbText
 10
308.6793115214758
 20
30.01626547667991
 30
0.0
 40
4.8000002
  1
４
 41
0.7878150900000001
100
AcDbText
  0
TEXT
  5
B8C8
330
1F
100
AcDbEntity
  8
AM_6
100
AcDbText
 10
147.1793375214758
 20
22.01626547667991
 30
0.0
 40
4.8000002
  1
８０
 41
0.6302521
100
AcDbText
  0
TEXT
  5
B8C9
330
1F
100
AcDbEntity
  8
AM_6
100
AcDbText
 10
320.1793015214758
 20
22.01626547667991
 30
0.0
 40
4.8000002
  1
１，０００ｋｇ／２コ
 41
0.54332075
100
AcDbText
  0
TEXT
  5
B8CA
330
1F
100
AcDbEntity
  8
AM_6
100
AcDbText
 10
291.1793415214758
 20
22.01626547667991
 30
0.0
 40
4.8000002
  1
６７
 41
0.6302521
100
AcDbText
  0
TEXT
  5
B8CB
330
1F
100
AcDbEntity
  8
AM_6
100
AcDbText
 10
259.1793375214758
 20
22.01626547667991
 30
0.0
 40
4.8000002
  1
１４
 41
0.6302521
100
AcDbText
  0
TEXT
  5
B8CC
330
1F
100
AcDbEntity
  8
AM_6
100
AcDbText
 10
242.9485685214758
 20
22.01626547667991
 30
0.0
 40
4.8000002
  1
１４
 41
0.67873306
100
AcDbText
  0
TEXT
  5
B8CD
330
1F
100
AcDbEntity
  8
AM_6
100
AcDbText
 10
227.1793375214758
 20
22.01626547667991
 30
0.0
 40
4.8000002
  1
３０
 41
0.6302521
100
AcDbText
  0
TEXT
  5
B8CE
330
1F
100
AcDbEntity
  8
AM_6
100
AcDbText
 10
211.1793375214758
 20
22.01626547667991
 30
0.0
 40
4.8000002
  1
４２
 41
0.6302521
100
AcDbText
  0
TEXT
  5
B8CF
330
1F
100
AcDbEntity
  8
AM_6
100
AcDbText
 10
193.4293378214758
 20
22.01626547667991
 30
0.0
 40
4.8000002
  1
１１０
 41
0.62368693
100
AcDbText
  0
TEXT
  5
B8D0
330
1F
100
AcDbEntity
  8
AM_6
100
AcDbText
 10
113.6793375214758
 20
22.01626547667991
 30
0.0
 40
4.8000002
  1
２２０
 41
0.5908613100000001
100
AcDbText
  0
TEXT
  5
B8D1
330
1F
100
AcDbEntity
  8
AM_6
100
AcDbText
 10
308.6793115214758
 20
22.01626547667991
 30
0.0
 40
4.8000002
  1
４
 41
0.7878150900000001
100
AcDbText
  0
TEXT
  5
B8D2
330
1F
100
AcDbEntity
  8
AM_6
100
AcDbText
 10
161.4293375214758
 20
22.01626547667991
 30
0.0
 40
4.8000002
  1
１００
 41
0.62368693
100
AcDbText
  0
TEXT
  5
B8D3
330
1F
100
AcDbEntity
  8
AM_6
100
AcDbText
 10
177.4293370214758
 20
22.01626547667991
 30
0.0
 40
4.8000002
  1
１００
 41
0.62368693
100
AcDbText
  0
TEXT
  5
B8D4
330
1F
100
AcDbEntity
  8
AM_6
100
AcDbText
 10
129.6793375214758
 20
22.01626547667991
 30
0.0
 40
4.8000002
  1
１７６
 41
0.5908613400000001
100
AcDbText
  0
TEXT
  5
B8D5
330
1F
100
AcDbEntity
  8
AM_6
100
AcDbText
 10
276.9293375214758
 20
30.01626547667991
 30
0.0
 40
4.8000002
  1
５
 41
0.65651277
100
AcDbText
  0
TEXT
  5
B8D6
330
1F
100
AcDbEntity
  8
AM_6
100
AcDbText
 10
273.4293375214758
 20
22.01626547667991
 30
0.0
 40
4.8000002
  1
５．５
 41
0.62368693
100
AcDbText
  0
TEXT
  5
B8D7
330
1F
100
AcDbEntity
  8
AM_6
100
AcDbText
 10
277.0253755214758
 20
38.0162574766799
 30
0.0
 40
4.8000002
  1
５
 41
0.60607278
100
AcDbText
  0
LINE
  5
B8D8
330
1F
100
AcDbEntity
  8
AM_7
 48
0.6
100
AcDbLine
 10
238.7424944354695
 20
145.25378153655
 30
0.0
 11
238.7424944354695
 21
129.25378353655
 31
0.0
  0
LINE
  5
B8D9
330
1F
100
AcDbEntity
  8
AM_7
 48
0.6
100
AcDbLine
 10
233.7424944354696
 20
145.25378153655
 30
0.0
 11
233.7424944354696
 21
129.25378353655
 31
0.0
  0
LINE
  5
B8DA
330
1F
100
AcDbEntity
  8
AM_7
 48
0.6
100
AcDbLine
 10
150.7424994354695
 20
145.25378253655
 30
0.0
 11
150.7424994354695
 21
129.25378453655
 31
0.0
  0
DIMENSION
  5
B8DB
330
1F
100
AcDbEntity
  8
AM_5
100
AcDbDimension
  2
*D7
 10
238.7424969354695
 20
102.75378253655
 30
0.0
 11
194.7424979354695
 21
105.85378253655
 31
0.0
 70
    32
  1
B
 71
     5
 42
87.999998
  3
SYS$0
100
AcDbAlignedDimension
 13
150.7424989354695
 23
129.25378353655
 33
0.0
 14
238.7424969354695
 24
129.25378353655
 34
0.0
100
AcDbRotatedDimension
1001
ACAD
1000
DSTYLE
1002
{
1070
   179
1070
     2
1002
}
1001
ACAD_DSTYLE_DIMINSPECT
1070
   396
1000
100%
1070
   395
1000

1070
   394
1070
    33
1070
   393
1070
     0
  0
DIMENSION
  5
B8DC
330
1F
100
AcDbEntity
  8
AM_5
100
AcDbDimension
  2
*D8
 10
249.2424969354695
 20
92.7537825365502
 30
0.0
 11
194.2424979354695
 21
95.8537825365502
 31
0.0
 70
    32
  1
A
 71
     5
 42
109.999998
  3
SYS$0
100
AcDbAlignedDimension
 13
139.2424989354695
 23
124.25378353655
 33
0.0
 14
249.2424969354695
 24
124.25378353655
 34
0.0
100
AcDbRotatedDimension
1001
ACAD
1000
DSTYLE
1002
{
1070
   179
1070
     2
1002
}
1001
ACAD_DSTYLE_DIMINSPECT
1070
   396
1000
100%
1070
   395
1000

1070
   394
1070
    33
1070
   393
1070
     0
  0
DIMENSION
  5
B8DD
330
1F
100
AcDbEntity
  8
AM_5
100
AcDbDimension
  2
*D9
 10
261.2424979354695
 20
114.75378353655
 30
0.0
 11
258.1424979354695
 21
135.25378303655
 31
0.0
 70
    32
  1
L
 71
     5
 42
40.99999900000002
  3
SYS$0
100
AcDbAlignedDimension
 13
199.9925009354695
 23
155.75378253655
 33
0.0
 14
198.2425009354695
 24
114.75378353655
 34
0.0
 50
90.0
100
AcDbRotatedDimension
1001
ACAD
1000
DSTYLE
1002
{
1070
   179
1070
     2
1002
}
1001
ACAD_DSTYLE_DIMINSPECT
1070
   396
1000
100%
1070
   395
1000

1070
   394
1070
    33
1070
   393
1070
     0
  0
DIMENSION
  5
B8DE
330
1F
100
AcDbEntity
  8
AM_5
100
AcDbDimension
  2
*D10
 10
153.2248003078197
 20
132.9134863235898
 30
0.0
 11
134.303230679376
 21
160.5191746386822
 31
0.0
 70
   163
  1
%%cJ
 71
     5
 42
9.999999999999914
  3
SYS$3
100
AcDbDiametricDimension
 15
148.2601975631196
 25
141.5940807495098
 35
0.0
 40
0.0
1001
ACAD_DSTYLE_DIMRADIAL_EXTENSION
1070
   387
1070
     1
1070
   388
1040
0.0
1070
   390
1040
0.0
1001
ACAD_DSTYLE_DIMINSPECT
1070
   396
1000
100%
1070
   395
1000

1070
   394
1070
    33
1070
   393
1070
     0
1001
ACAD
1000
DSTYLE
1002
{
1070
   172
1070
     1
1070
   179
1070
     2
1070
   289
1070
     2
1070
   342
1005
B610
1002
}
  0
LINE
  5
B8DF
330
1F
100
AcDbEntity
  8
AM_0
100
AcDbLine
 10
188.4924924354695
 20
117.25378353655
 30
0.0
 11
199.9924924354695
 21
117.25378353655
 31
0.0
  0
LINE
  5
B8E0
330
1F
100
AcDbEntity
  8
AM_0
100
AcDbLine
 10
287.5079019206046
 20
232.475684366994
 30
0.0
 11
287.5079019206046
 21
193.975691366994
 31
0.0
  0
LINE
  5
B8E1
330
1F
100
AcDbEntity
  8
AM_0
100
AcDbLine
 10
290.1078999206045
 20
232.375684366994
 30
0.0
 11
290.1078999206045
 21
193.975691366994
 31
0.0
  0
LINE
  5
B8E2
330
1F
100
AcDbEntity
  8
AM_0
100
AcDbLine
 10
310.9078939206046
 20
232.375684366994
 30
0.0
 11
310.9078939206046
 21
193.975691366994
 31
0.0
  0
LINE
  5
B8E3
330
1F
100
AcDbEntity
  8
AM_0
100
AcDbLine
 10
313.5078999206046
 20
232.475684366994
 30
0.0
 11
313.5078999206046
 21
193.975691366994
 31
0.0
  0
LINE
  5
B8E4
330
1F
100
AcDbEntity
  8
AM_0
100
AcDbLine
 10
290.0079019206046
 20
234.9756843669941
 30
0.0
 11
311.0078999206046
 21
234.9756843669941
 31
0.0
  0
LINE
  5
B8E5
330
1F
100
AcDbEntity
  8
AM_0
100
AcDbLine
 10
290.1078999206045
 20
232.375684366994
 30
0.0
 11
310.9078939206046
 21
232.375684366994
 31
0.0
  0
LINE
  5
B8E6
330
1F
100
AcDbEntity
  8
AM_0
100
AcDbLine
 10
290.1078999206045
 20
224.9756923669941
 30
0.0
 11
287.5079019206046
 21
224.9756923669941
 31
0.0
  0
LINE
  5
B8E7
330
1F
100
AcDbEntity
  8
AM_0
100
AcDbLine
 10
310.9078939206046
 20
224.9756923669941
 30
0.0
 11
313.5078999206046
 21
224.9756923669941
 31
0.0
  0
LINE
  5
B8E8
330
1F
100
AcDbEntity
  8
AM_0
100
AcDbLine
 10
287.5079019206046
 20
193.975691366994
 30
0.0
 11
290.1078999206045
 21
193.975691366994
 31
0.0
  0
LINE
  5
B8E9
330
1F
100
AcDbEntity
  8
AM_0
100
AcDbLine
 10
310.9078939206046
 20
193.975691366994
 30
0.0
 11
313.5078999206046
 21
193.975691366994
 31
0.0
  0
LINE
  5
B8EA
330
1F
100
AcDbEntity
  8
AM_7
100
AcDbLine
 10
279.0079009206046
 20
205.9756933669941
 30
0.0
 11
326.0078999206046
 21
205.9756933669941
 31
0.0
  0
LINE
  5
B8EB
330
1F
100
AcDbEntity
  8
AM_0
100
AcDbLine
 10
283.0079019206046
 20
201.9756933669941
 30
0.0
 11
287.5079019206046
 21
201.9756933669941
 31
0.0
  0
LINE
  5
B8EC
330
1F
100
AcDbEntity
  8
AM_0
100
AcDbLine
 10
283.0079019206046
 20
209.9756933669941
 30
0.0
 11
287.5079019206046
 21
209.9756933669941
 31
0.0
  0
LINE
  5
B8ED
330
1F
100
AcDbEntity
  8
AM_0
100
AcDbLine
 10
283.0079019206046
 20
198.475693366994
 30
0.0
 11
287.5079019206046
 21
198.475693366994
 31
0.0
  0
LINE
  5
B8EE
330
1F
100
AcDbEntity
  8
AM_0
100
AcDbLine
 10
283.0079019206046
 20
213.475693366994
 30
0.0
 11
287.5079019206046
 21
213.475693366994
 31
0.0
  0
LINE
  5
B8EF
330
1F
100
AcDbEntity
  8
AM_0
100
AcDbLine
 10
316.5078999206046
 20
198.475693366994
 30
0.0
 11
319.5078999206046
 21
198.475693366994
 31
0.0
  0
LINE
  5
B8F0
330
1F
100
AcDbEntity
  8
AM_0
100
AcDbLine
 10
316.5078999206046
 20
213.475693366994
 30
0.0
 11
319.5078999206046
 21
213.475693366994
 31
0.0
  0
LINE
  5
B8F1
330
1F
100
AcDbEntity
  8
AM_0
100
AcDbLine
 10
282.0079009206046
 20
200.225693366994
 30
0.0
 11
282.0079009206046
 21
211.7256933669941
 31
0.0
  0
LINE
  5
B8F2
330
1F
100
AcDbEntity
  8
AM_0
100
AcDbLine
 10
313.5078999206046
 20
198.275696366994
 30
0.0
 11
315.5078999206046
 21
198.275696366994
 31
0.0
  0
LINE
  5
B8F3
330
1F
100
AcDbEntity
  8
AM_0
100
AcDbLine
 10
313.5078999206046
 20
213.6757053669941
 30
0.0
 11
315.5078999206046
 21
213.6757053669941
 31
0.0
  0
LINE
  5
B8F4
330
1F
100
AcDbEntity
  8
AM_0
100
AcDbLine
 10
315.5078999206046
 20
198.275696366994
 30
0.0
 11
315.5078999206046
 21
213.6757053669941
 31
0.0
  0
LINE
  5
B8F5
330
1F
100
AcDbEntity
  8
AM_0
100
AcDbLine
 10
290.1078999206046
 20
209.9756933669941
 30
0.0
 11
291.5079019206046
 21
209.9756933669941
 31
0.0
  0
LINE
  5
B8F6
330
1F
100
AcDbEntity
  8
AM_0
100
AcDbLine
 10
290.1078999206046
 20
201.9756933669941
 30
0.0
 11
291.5079019206046
 21
201.9756933669941
 31
0.0
  0
LINE
  5
B8F7
330
1F
100
AcDbEntity
  8
AM_0
100
AcDbLine
 10
309.5078999206046
 20
209.9756933669941
 30
0.0
 11
310.9078939206046
 21
209.9756933669941
 31
0.0
  0
LINE
  5
B8F8
330
1F
100
AcDbEntity
  8
AM_0
100
AcDbLine
 10
309.5078999206046
 20
201.9756933669941
 30
0.0
 11
310.9078939206046
 21
201.9756933669941
 31
0.0
  0
LINE
  5
B8F9
330
1F
100
AcDbEntity
  8
AM_0
100
AcDbLine
 10
316.5078999206046
 20
201.9756933669941
 30
0.0
 11
319.5078999206046
 21
201.9756933669941
 31
0.0
  0
LINE
  5
B8FA
330
1F
100
AcDbEntity
  8
AM_0
100
AcDbLine
 10
320.5078999206046
 20
201.9756933669941
 30
0.0
 11
323.0078999206046
 21
201.9756933669941
 31
0.0
  0
LINE
  5
B8FB
330
1F
100
AcDbEntity
  8
AM_0
100
AcDbLine
 10
316.5078999206046
 20
209.9756933669941
 30
0.0
 11
319.5078999206046
 21
209.9756933669941
 31
0.0
  0
LINE
  5
B8FC
330
1F
100
AcDbEntity
  8
AM_0
100
AcDbLine
 10
320.5078999206046
 20
209.9756933669941
 30
0.0
 11
323.0078999206046
 21
209.9756933669941
 31
0.0
  0
LINE
  5
B8FD
330
1F
100
AcDbEntity
  8
AM_0
100
AcDbLine
 10
323.0078999206046
 20
201.9756933669941
 30
0.0
 11
323.0078999206046
 21
209.9756933669941
 31
0.0
  0
LINE
  5
B8FE
330
1F
100
AcDbEntity
  8
AM_0
100
AcDbLine
 10
320.5078999206046
 20
200.225693366994
 30
0.0
 11
320.5078999206046
 21
211.7256933669941
 31
0.0
  0
ARC
  5
B8FF
330
1F
100
AcDbEntity
  8
AM_0
100
AcDbCircle
 10
284.0391519206046
 20
200.225693366994
 30
0.0
 40
2.03125
100
AcDbArc
 50
120.5102370000001
 51
239.4897600000012
  0
ARC
  5
B900
330
1F
100
AcDbEntity
  8
AM_0
100
AcDbCircle
 10
290.5079019206046
 20
205.9756933669941
 30
0.0
 40
8.5
100
AcDbArc
 50
151.9275130000016
 51
208.0724899999996
  0
ARC
  5
B901
330
1F
100
AcDbEntity
  8
AM_0
100
AcDbCircle
 10
284.0391519206046
 20
211.7256933669941
 30
0.0
 40
2.03125
100
AcDbArc
 50
120.5102370000001
 51
239.4897600000012
  0
ARC
  5
B902
330
1F
100
AcDbEntity
  8
AM_0
100
AcDbCircle
 10
318.4766499206046
 20
200.225693366994
 30
0.0
 40
2.03125
100
AcDbArc
 50
300.5102399999988
 51
59.48976000000118
  0
ARC
  5
B903
330
1F
100
AcDbEntity
  8
AM_0
100
AcDbCircle
 10
312.0078999206046
 20
205.9756933669941
 30
0.0
 40
8.5
100
AcDbArc
 50
331.9275100000003
 51
28.0724899999996
  0
ARC
  5
B904
330
1F
100
AcDbEntity
  8
AM_0
100
AcDbCircle
 10
318.4766499206046
 20
211.7256933669941
 30
0.0
 40
2.03125
100
AcDbArc
 50
300.5102399999988
 51
59.48976000000118
  0
ARC
  5
B905
330
1F
100
AcDbEntity
  8
AM_0
100
AcDbCircle
 10
317.5391499206046
 20
211.7256933669941
 30
0.0
 40
2.03125
100
AcDbArc
 50
120.5102370000001
 51
239.4897600000012
  0
ARC
  5
B906
330
1F
100
AcDbEntity
  8
AM_0
100
AcDbCircle
 10
324.0078959206046
 20
205.9756933669941
 30
0.0
 40
8.5
100
AcDbArc
 50
151.9275130000016
 51
208.0724899999996
  0
ARC
  5
B907
330
1F
100
AcDbEntity
  8
AM_0
100
AcDbCircle
 10
317.5391499206046
 20
200.225693366994
 30
0.0
 40
2.03125
100
AcDbArc
 50
120.5102370000001
 51
239.4897600000012
  0
ARC
  5
B908
330
1F
100
AcDbEntity
  8
AM_0
100
AcDbCircle
 10
290.0079019206044
 20
232.4756843669941
 30
0.0
 40
2.5
100
AcDbArc
 50
89.99999999999674
 51
180.0000000000016
1001
GENIUS_GENODEF_13
1002
{
1000
HIER
1070
     0
1002
}
1002
{
1000
MANEDIT
1070
     0
1002
}
1002
{
1000
NOSEL
1070
     0
1002
}
1002
{
1000
BEHIND
1070
     0
1002
}
1002
{
1000
OTHER
1070
     0
1002
}
1002
{
1000
REACTOR
1002
}
1001
GENIUS_GENOBJ-N-FIL_13
1002
{
1000
OWNER
1000
GEN
1002
}
  0
ARC
  5
B909
330
1F
100
AcDbEntity
  8
AM_0
100
AcDbCircle
 10
311.0078999206046
 20
232.4756843669941
 30
0.0
 40
2.5
100
AcDbArc
 50
359.9999999999984
 51
90.0
1001
GENIUS_GENODEF_13
1002
{
1000
HIER
1070
     0
1002
}
1002
{
1000
MANEDIT
1070
     0
1002
}
1002
{
1000
NOSEL
1070
     0
1002
}
1002
{
1000
BEHIND
1070
     0
1002
}
1002
{
1000
OTHER
1070
     0
1002
}
1002
{
1000
REACTOR
1002
}
1001
GENIUS_GENOBJ-N-FIL_13
1002
{
1000
OWNER
1000
GEN
1002
}
  0
LINE
  5
B90A
330
1F
100
AcDbEntity
  8
AM_7
 48
1.199999999999999
100
AcDbLine
 10
300.507899865049
 20
237.9756843669941
 30
0.0
 11
300.5079009761602
 21
177.975691366994
 31
0.0
1001
GENIUS_GENOBJ-N-CEN_13
1002
{
1000
OWNER
1000
GEN
1002
}
1001
GENIUS_GENODEF_13
1002
{
1000
HIER
1070
     0
1002
}
1002
{
1000
MANEDIT
1070
     0
1002
}
1002
{
1000
NOSEL
1070
     0
1002
}
1002
{
1000
BEHIND
1070
     0
1002
}
1002
{
1000
OTHER
1070
     0
1002
}
1002
{
1000
REACTOR
1002
}
1001
GENIUS_GENCEN_19
1002
{
1040
3.0
1002
}
  0
DIMENSION
  5
B90B
330
1F
100
AcDbEntity
  8
AM_5
100
AcDbDimension
  2
*D11
 10
262.0078999206046
 20
180.975691366994
 30
0.0
 11
258.9078999206045
 21
205.9756903669941
 31
0.0
 70
    32
  1
%%cD
 71
     5
 42
49.99999800000001
  3
SYS$0
100
AcDbAlignedDimension
 13
291.5079019206046
 23
230.9756893669941
 33
0.0
 14
291.5079019206046
 24
180.975691366994
 34
0.0
 50
90.0
100
AcDbRotatedDimension
1001
ACAD
1000
DSTYLE
1002
{
1070
   179
1070
     2
1002
}
1001
ACAD_DSTYLE_DIMINSPECT
1070
   396
1000
100%
1070
   395
1000

1070
   394
1070
    33
1070
   393
1070
     0
  0
DIMENSION
  5
B90C
330
1F
100
AcDbEntity
  8
AM_5
100
AcDbDimension
  2
*D12
 10
345.0079009206046
 20
180.975691366994
 30
0.0
 11
341.9079009206045
 21
207.9756878669941
 31
0.0
 70
    32
  1
F
 71
     5
 42
53.99999300000001
  3
SYS$0
100
AcDbAlignedDimension
 13
311.0078999206046
 23
234.9756843669941
 33
0.0
 14
309.5078999206046
 24
180.975691366994
 34
0.0
 50
90.0
100
AcDbRotatedDimension
1001
ACAD
1000
DSTYLE
1002
{
1070
   179
1070
     2
1002
}
1001
ACAD_DSTYLE_DIMINSPECT
1070
   396
1000
100%
1070
   395
1000

1070
   394
1070
    33
1070
   393
1070
     0
  0
DIMENSION
  5
B90D
330
1F
100
AcDbEntity
  8
AM_5
100
AcDbDimension
  2
*D13
 10
287.5079019206045
 20
246.9756853769941
 30
0.0
 11
300.5079009206045
 21
250.0756853769941
 31
0.0
 70
    32
  1
G
 71
     5
 42
25.99999800000012
  3
SYS$0
100
AcDbAlignedDimension
 13
313.5078999206046
 23
232.475684366994
 33
0.0
 14
287.5079019206045
 24
232.4756843669941
 34
0.0
100
AcDbRotatedDimension
1001
ACAD
1000
DSTYLE
1002
{
1070
   179
1070
     2
1002
}
1001
ACAD_DSTYLE_DIMINSPECT
1070
   396
1000
100%
1070
   395
1000

1070
   394
1070
    33
1070
   393
1070
     0
  0
DIMENSION
  5
B90E
330
1F
100
AcDbEntity
  8
AM_5
100
AcDbDimension
  2
*D14
 10
309.5078999206046
 20
158.975691366994
 30
0.0
 11
300.5079009206046
 21
162.075691366994
 31
0.0
 70
    32
  1
H
 71
     5
 42
17.999998
  3
SYS$0
100
AcDbAlignedDimension
 13
291.5079019206046
 23
180.975691366994
 33
0.0
 14
309.5078999206046
 24
180.975691366994
 34
0.0
100
AcDbRotatedDimension
1001
ACAD
1000
DSTYLE
1002
{
1070
   179
1070
     2
1002
}
1001
ACAD_DSTYLE_DIMINSPECT
1070
   396
1000
100%
1070
   395
1000

1070
   394
1070
    33
1070
   393
1070
     0
  0
LINE
  5
B90F
330
1F
100
AcDbEntity
  8
AM_0
100
AcDbLine
 10
291.5079004576416
 20
180.9756876669941
 30
0.0
 11
295.5079004576415
 21
180.9756876669941
 31
0.0
  0
LINE
  5
B910
330
1F
100
AcDbEntity
  8
AM_0
100
AcDbLine
 10
297.0079004576415
 20
186.475687666994
 30
0.0
 11
304.0079004576416
 21
186.475687666994
 31
0.0
  0
LINE
  5
B911
330
1F
100
AcDbEntity
  8
AM_0
100
AcDbLine
 10
297.0079004576415
 20
225.475689866994
 30
0.0
 11
304.0079004576416
 21
225.475689866994
 31
0.0
  0
LINE
  5
B912
330
1F
100
AcDbEntity
  8
AM_0
100
AcDbLine
 10
291.5079004576416
 20
230.975689866994
 30
0.0
 11
295.5079004576415
 21
230.975689866994
 31
0.0
  0
LINE
  5
B913
330
1F
100
AcDbEntity
  8
AM_0
100
AcDbLine
 10
309.5079004576415
 20
180.9756876669941
 30
0.0
 11
309.5079004576415
 21
230.975689866994
 31
0.0
  0
LINE
  5
B914
330
1F
100
AcDbEntity
  8
AM_0
100
AcDbLine
 10
291.5079004576416
 20
180.9756876669941
 30
0.0
 11
291.5079004576416
 21
230.975689866994
 31
0.0
  0
LINE
  5
B915
330
1F
100
AcDbEntity
  8
AM_0
100
AcDbLine
 10
304.0079004576416
 20
182.4756876669941
 30
0.0
 11
304.0079004576416
 21
229.475689866994
 31
0.0
  0
LINE
  5
B916
330
1F
100
AcDbEntity
  8
AM_0
100
AcDbLine
 10
297.0079004576415
 20
182.4756876669941
 30
0.0
 11
297.0079004576415
 21
229.475689866994
 31
0.0
  0
LINE
  5
B917
330
1F
100
AcDbEntity
  8
AM_0
100
AcDbLine
 10
305.5079004576415
 20
180.9756876669941
 30
0.0
 11
309.5079004576415
 21
180.9756876669941
 31
0.0
  0
LINE
  5
B918
330
1F
100
AcDbEntity
  8
AM_0
100
AcDbLine
 10
305.5079004576415
 20
230.975689866994
 30
0.0
 11
309.5079004576415
 21
230.975689866994
 31
0.0
  0
LINE
  5
B919
330
1F
100
AcDbEntity
  8
AM_0
100
AcDbLine
 10
295.5079004576415
 20
180.9756876669941
 30
0.0
 11
295.5079004576415
 21
230.975689866994
 31
0.0
  0
LINE
  5
B91A
330
1F
100
AcDbEntity
  8
AM_0
100
AcDbLine
 10
295.5079004576415
 20
180.975690566994
 30
0.0
 11
297.0079004576415
 21
182.475691966994
 31
0.0
  0
LINE
  5
B91B
330
1F
100
AcDbEntity
  8
AM_0
100
AcDbLine
 10
304.0078924576416
 20
182.4756972669941
 30
0.0
 11
305.5078944576416
 21
180.975695766994
 31
0.0
  0
LINE
  5
B91C
330
1F
100
AcDbEntity
  8
AM_0
100
AcDbLine
 10
295.5078924576416
 20
230.975696866994
 30
0.0
 11
297.0078924576416
 21
229.475696866994
 31
0.0
  0
LINE
  5
B91D
330
1F
100
AcDbEntity
  8
AM_0
100
AcDbLine
 10
304.0079024576415
 20
229.475696866994
 30
0.0
 11
305.5078984576415
 21
230.9756938669941
 31
0.0
  0
LINE
  5
B91E
330
1F
100
AcDbEntity
  8
AM_0
100
AcDbLine
 10
305.5079004576415
 20
180.9756876669941
 30
0.0
 11
305.5079004576415
 21
230.975689866994
 31
0.0
  0
DIMENSION
  5
B91F
330
1F
100
AcDbEntity
  8
AM_5
100
AcDbDimension
  2
*D15
 10
309.5079004576415
 20
190.5165146364793
 30
0.0
 11
319.1167604514924
 21
190.5165146364793
 31
0.0
 70
   160
  1
K
 71
     5
 42
4.0
  3
SYS$0
100
AcDbAlignedDimension
 13
305.5079004576415
 23
180.9756876669941
 33
0.0
 14
309.5079004576415
 24
180.9756876669941
 34
0.0
 50
0.0000000000001132
100
AcDbRotatedDimension
1001
ACAD_DSTYLE_DIMINSPECT
1070
   396
1000
100%
1070
   395
1000

1070
   394
1070
    33
1070
   393
1070
     0
1001
ACAD
1000
DSTYLE
1002
{
1070
    75
1070
     1
1070
    76
1070
     1
1070
   179
1070
     2
1002
}
  0
DIMENSION
  5
B920
330
1F
100
AcDbEntity
  8
AM_5
100
AcDbDimension
  2
*D16
 10
297.0079004576415
 20
168.9756913669944
 30
0.0
 11
300.5079004576415
 21
172.0756913669943
 31
0.0
 70
    32
  1
I
 71
     5
 42
7.0
  3
SYS$0
100
AcDbAlignedDimension
 13
304.0079004576416
 23
182.4756876669941
 33
0.0
 14
297.0079004576415
 24
182.4756876669941
 34
0.0
 50
0.0000000000001132
100
AcDbRotatedDimension
1001
ACAD
1000
DSTYLE
1002
{
1070
   179
1070
     2
1002
}
1001
ACAD_DSTYLE_DIMINSPECT
1070
   396
1000
100%
1070
   395
1000

1070
   394
1070
    33
1070
   393
1070
     0
  0
DIMENSION
  5
B921
330
1F
100
AcDbEntity
  8
AM_5
100
AcDbDimension
  2
*D17
 10
272.0078999206046
 20
186.475687666994
 30
0.0
 11
268.9078999206045
 21
205.9756887669941
 31
0.0
 70
    32
  1
%%cC
 71
     5
 42
39.00000219999993
  3
SYS$0
100
AcDbAlignedDimension
 13
297.0079004576415
 23
225.475689866994
 33
0.0
 14
297.0079004576415
 24
186.475687666994
 34
0.0
 50
90.0
100
AcDbRotatedDimension
1001
ACAD
1000
DSTYLE
1002
{
1070
   179
1070
     2
1002
}
1001
ACAD_DSTYLE_DIMINSPECT
1070
   396
1000
100%
1070
   395
1000

1070
   394
1070
    33
1070
   393
1070
     0
  0
DIMENSION
  5
B922
330
1F
100
AcDbEntity
  8
AM_5
100
AcDbDimension
  2
*D18
 10
335.0079009206047
 20
186.475687666994
 30
0.0
 11
331.9079009206046
 21
210.7256860169941
 31
0.0
 70
    32
  1
E
 71
     5
 42
48.49999669999999
  3
SYS$0
100
AcDbAlignedDimension
 13
311.0078999206046
 23
234.9756843669941
 33
0.0
 14
304.0079004576416
 24
186.475687666994
 34
0.0
 50
90.00000000000003
100
AcDbRotatedDimension
1001
ACAD
1000
DSTYLE
1002
{
1070
   179
1070
     2
1002
}
1001
ACAD_DSTYLE_DIMINSPECT
1070
   396
1000
100%
1070
   395
1000

1070
   394
1070
    33
1070
   393
1070
     0
  0
ENDSEC
  0
SECTION
  2
OBJECTS
  0
DICTIONARY
  5
C
330
0
100
AcDbDictionary
281
     1
  3
ACAD_2007HEADERVARS_RT
350
BA38
  3
ACAD_BGPLOT_KEY
350
AB06
  3
ACAD_COLOR
350
A91D
  3
ACAD_GROUP
350
D
  3
ACAD_LAYOUT
350
1A
  3
ACAD_MATERIAL
350
A91C
  3
ACAD_MLEADERSTYLE
350
B595
  3
ACAD_MLINESTYLE
350
17
  3
ACAD_PLOTSETTINGS
350
19
  3
ACAD_PLOTSTYLENAME
350
E
  3
ACAD_SCALELIST
350
B573
  3
ACAD_TABLESTYLE
350
AAB9
  3
ACAD_VISUALSTYLE
350
B0F1
  3
AcAsAppObject
350
3DA1
  3
ACASGREF_MASTER
350
3DE9
  3
ACDB_RECOMPOSE_DATA
350
B5B7
  3
AcDbVariableDictionary
350
34
  3
AcmDictionary
350
47
  3
AD_GREF_MODULE
350
3DEA
  3
AD_MAPI_MODULE
350
3E06
  3
AMG
350
2B
  3
AMGSNAPSETTINGS
350
7D
  3
ASE_INDEX_DICTIONARY
350
B570
  3
DWGPROPS
350
BA37
  3
MAPISURF_MODULE
350
3DEB
  0
DICTIONARY
  5
3F95
330
2
100
AcDbDictionary
280
     1
281
     1
  3
ACAD_LAYERFILTERS
360
B4F7
  3
ACAD_LAYERSTATES
360
3F96
  3
ACLYDICTIONARY
360
B4F6
  3
AMLAYER_GROUPCOLORS
360
AAB4
  0
DICTIONARY
  5
B9B2
330
10
100
AcDbDictionary
280
     1
281
     1
  3
ADSK_XREC_LAYER_RECONCILED
360
B9B3
  0
DICTIONARY
  5
B9B4
330
5F85
100
AcDbDictionary
280
     1
281
     1
  3
ADSK_XREC_LAYER_RECONCILED
360
B9B5
  0
DICTIONARY
  5
B9B6
330
AC9F
100
AcDbDictionary
280
     1
281
     1
  3
ADSK_XREC_LAYER_RECONCILED
360
B9B7
  0
DICTIONARY
  5
B9B8
330
ACA0
100
AcDbDictionary
280
     1
281
     1
  3
ADSK_XREC_LAYER_RECONCILED
360
B9B9
  0
DICTIONARY
  5
B9BA
330
ACA1
100
AcDbDictionary
280
     1
281
     1
  3
ADSK_XREC_LAYER_RECONCILED
360
B9BB
  0
DICTIONARY
  5
B9BC
330
ACC8
100
AcDbDictionary
280
     1
281
     1
  3
ADSK_XREC_LAYER_RECONCILED
360
B9BD
  0
DICTIONARY
  5
B9BE
330
ACC9
100
AcDbDictionary
280
     1
281
     1
  3
ADSK_XREC_LAYER_RECONCILED
360
B9BF
  0
DICTIONARY
  5
B9C0
330
ACCA
100
AcDbDictionary
280
     1
281
     1
  3
ADSK_XREC_LAYER_RECONCILED
360
B9C1
  0
DICTIONARY
  5
B9C2
330
AD60
100
AcDbDictionary
280
     1
281
     1
  3
ADSK_XREC_LAYER_RECONCILED
360
B9C3
  0
DICTIONARY
  5
B9C4
330
AD64
100
AcDbDictionary
280
     1
281
     1
  3
ADSK_XREC_LAYER_RECONCILED
360
B9C5
  0
DICTIONARY
  5
B9C6
330
AD67
100
AcDbDictionary
280
     1
281
     1
  3
ADSK_XREC_LAYER_RECONCILED
360
B9C7
  0
DICTIONARY
  5
B9C8
330
AD68
100
AcDbDictionary
280
     1
281
     1
  3
ADSK_XREC_LAYER_RECONCILED
360
B9C9
  0
DICTIONARY
  5
B9CA
330
AD69
100
AcDbDictionary
280
     1
281
     1
  3
ADSK_XREC_LAYER_RECONCILED
360
B9CB
  0
DICTIONARY
  5
B9CC
330
AD6A
100
AcDbDictionary
280
     1
281
     1
  3
ADSK_XREC_LAYER_RECONCILED
360
B9CD
  0
DICTIONARY
  5
B9CE
330
AD6E
100
AcDbDictionary
280
     1
281
     1
  3
ADSK_XREC_LAYER_RECONCILED
360
B9CF
  0
DICTIONARY
  5
B9D0
330
AD6F
100
AcDbDictionary
280
     1
281
     1
  3
ADSK_XREC_LAYER_RECONCILED
360
B9D1
  0
DICTIONARY
  5
B9D2
330
B1B6
100
AcDbDictionary
280
     1
281
     1
  3
ADSK_XREC_LAYER_RECONCILED
360
B9D3
  0
DICTIONARY
  5
B9D4
330
B2EB
100
AcDbDictionary
280
     1
281
     1
  3
ADSK_XREC_LAYER_RECONCILED
360
B9D5
  0
DICTIONARY
  5
B9D6
330
B2EC
100
AcDbDictionary
280
     1
281
     1
  3
ADSK_XREC_LAYER_RECONCILED
360
B9D7
  0
DICTIONARY
  5
8A
330
1F
100
AcDbDictionary
280
     1
281
     1
  3
ACAD_SORTENTS
360
B1BA
  0
DICTIONARY
  5
B5F9
330
B5F8
100
AcDbDictionary
280
     1
281
     1
  3
ACAD_SORTENTS
360
B5FA
  0
DICTIONARY
  5
BA38
102
{ACAD_REACTORS
330
C
102
}
330
C
100
AcDbDictionary
281
     1
  3
DIMARCSYM
350
BA39
  0
DICTIONARY
  5
AB06
102
{ACAD_REACTORS
330
C
102
}
330
C
100
AcDbDictionary
280
     1
281
     1
  0
DICTIONARY
  5
A91D
102
{ACAD_REACTORS
330
C
102
}
330
C
100
AcDbDictionary
281
     1
  0
DICTIONARY
  5
D
102
{ACAD_REACTORS
330
C
102
}
330
C
100
AcDbDictionary
281
     1
  0
DICTIONARY
  5
1A
102
{ACAD_REACTORS
330
C
102
}
330
C
100
AcDbDictionary
281
     1
  3
Model
350
22
  3
ﾚｲｱｳﾄ1
350
1E
  3
ﾚｲｱｳﾄ2
350
26
  0
DICTIONARY
  5
A91C
102
{ACAD_REACTORS
330
C
102
}
330
C
100
AcDbDictionary
281
     1
  3
ByBlock
350
B0EF
  3
ByLayer
350
B0EE
  3
Global
350
B0F0
  0
DICTIONARY
  5
B595
102
{ACAD_REACTORS
330
C
102
}
330
C
100
AcDbDictionary
281
     1
  3
Standard
350
B596
  0
DICTIONARY
  5
17
102
{ACAD_REACTORS
330
C
102
}
330
C
100
AcDbDictionary
281
     1
  3
Standard
350
18
  0
DICTIONARY
  5
19
102
{ACAD_REACTORS
330
C
102
}
330
C
100
AcDbDictionary
281
     1
  0
ACDBDICTIONARYWDFLT
  5
E
102
{ACAD_REACTORS
330
C
102
}
330
C
100
AcDbDictionary
281
     1
  3
Normal
350
F
100
AcDbDictionaryWithDefault
340
F
  0
DICTIONARY
  5
B573
102
{ACAD_REACTORS
330
C
102
}
330
C
100
AcDbDictionary
281
     1
  3
A0
350
B574
  3
A1
350
B575
  3
A2
350
B576
  3
A3
350
B577
  3
A4
350
B578
  3
A5
350
B579
  3
A6
350
B57A
  3
A7
350
B57B
  3
A8
350
B57C
  3
A9
350
B57D
  3
B0
350
B57E
  3
B1
350
B57F
  3
B2
350
B580
  3
B3
350
B581
  3
B4
350
B582
  3
B5
350
B583
  3
B6
350
B584
  3
B7
350
B585
  3
B8
350
B586
  3
B9
350
B587
  3
C0
350
B588
  3
C1
350
B589
  3
C2
350
B58A
  3
C3
350
B58B
  3
C4
350
B58C
  3
C5
350
B58D
  3
C6
350
B58E
  3
C7
350
B58F
  3
C8
350
B590
  3
C9
350
B591
  3
D0
350
B592
  3
D1
350
B593
  3
D2
350
B594
  0
DICTIONARY
  5
AAB9
102
{ACAD_REACTORS
330
C
102
}
330
C
100
AcDbDictionary
281
     1
  3
Standard
350
AABA
  0
DICTIONARY
  5
B0F1
102
{ACAD_REACTORS
330
C
102
}
330
C
100
AcDbDictionary
281
     1
  3
2dWireframe
350
B0F7
  3
3D Hidden
350
B0F9
  3
3dWireframe
350
B0F8
  3
Basic
350
B0F6
  3
Brighten
350
B0FD
  3
ColorChange
350
B101
  3
Conceptual
350
B0FA
  3
Dim
350
B0FC
  3
Facepattern
350
B100
  3
Flat
350
B0F2
  3
FlatWithEdges
350
B0F3
  3
Gouraud
350
B0F4
  3
GouraudWithEdges
350
B0F5
  3
Linepattern
350
B0FF
  3
Realistic
350
B0FB
  3
Thicken
350
B0FE
  0
ACAD_PROXY_OBJECT
  5
3DA1
102
{ACAD_REACTORS
330
C
102
}
330
C
100
AcDbProxyObject
 90
      499
 91
      576
 95
   917527
 70
     0
 93
       10
310
407F
 94
        0
1001
ACAD
1000
AcRTDxfName
1000
ASAPP
  0
ACAD_PROXY_OBJECT
  5
3DE9
102
{ACAD_REACTORS
330
C
102
}
330
C
100
AcDbProxyObject
 90
      499
 91
      581
 95
   917527
 70
     0
 93
       34
310
010000407F
 94
        0
1001
ACAD
1000
AcRTDxfName
1000
ACASGREFMASTER
  0
XRECORD
  5
B5B7
102
{ACAD_REACTORS
330
C
102
}
330
C
100
AcDbXrecord
280
     1
 90
        1
330
AABA
  0
DICTIONARY
  5
34
102
{ACAD_REACTORS
330
C
102
}
330
C
100
AcDbDictionary
281
     1
  3
CANNOSCALE
350
B5BA
  3
CMLEADERSTYLE
350
B5B8
  3
CTABLESTYLE
350
AAF3
  3
DIMASSOC
350
A10C
  3
FIELDEVAL
350
AB07
  3
INDEXCTL
350
35
  3
LIGHTINGUNITS
350
B5BB
  3
MSLTSCALE
350
B5B9
  3
SORTENTS
350
194C
  0
DICTIONARY
  5
47
102
{ACAD_REACTORS
330
C
102
}
330
C
100
AcDbDictionary
281
     1
  3
AcmBOM
350
7E8
  3
AcmStdDictionary
350
4C
  3
AMDTSECTSYM_ARROWCOLOR
350
A929
  0
ACAD_PROXY_OBJECT
  5
3DEA
102
{ACAD_REACTORS
330
C
102
}
330
C
100
AcDbProxyObject
 90
      499
 91
      582
 95
   917527
 70
     0
 93
      114
310
00000043800000000000000000003F
 94
        0
1001
ACAD
1000
AcRTDxfName
1000
ACADGREFMODULE
  0
ACAD_PROXY_OBJECT
  5
3E06
102
{ACAD_REACTORS
330
C
102
}
330
C
100
AcDbProxyObject
 90
      499
 91
      594
 95
   917527
 70
     0
 93
       34
310
05000044FF
 94
        0
1001
ACAD
1000
AcRTDxfName
1000
MAPIADMODULE
  0
DICTIONARY
  5
2B
102
{ACAD_REACTORS
330
C
102
}
330
C
100
AcDbDictionary
281
     1
  0
DICTIONARY
  5
7D
102
{ACAD_REACTORS
330
C
102
}
330
C
100
AcDbDictionary
281
     1
  0
DICTIONARY
  5
B570
102
{ACAD_REACTORS
330
C
102
}
330
C
100
AcDbDictionary
281
     1
  3
ASEBlockHierarchyIndexRecord
350
B571
1001
DCO15
1040
1706332604.97
  0
XRECORD
  5
BA37
102
{ACAD_REACTORS
330
C
102
}
330
C
100
AcDbXrecord
280
     1
  1
DWGPROPS COOKIE
  2

  3

  4

  6

  7

  8
Administrator
  9

300
AmdtFileType=84
301
=
302
=
303
=
304
=
305
=
306
=
307
=
308
=
309
=
 40
0.0007749189814815
 41
2455883.398549433
 42
2456352.482121308
  1

 90
        1
  0
ACAD_PROXY_OBJECT
  5
3DEB
102
{ACAD_REACTORS
330
C
102
}
330
C
100
AcDbProxyObject
 90
      499
 91
      583
 95
   917527
 70
     0
 93
        8
310
047B
 94
        0
1001
ACAD
1000
AcRTDxfName
1000
AMDTMAPISURFMOUDULE
  0
DICTIONARY
  5
B4F7
102
{ACAD_REACTORS
330
3F95
102
}
330
3F95
100
AcDbDictionary
281
     1
  0
DICTIONARY
  5
3F96
102
{ACAD_REACTORS
330
3F95
102
}
330
3F95
100
AcDbDictionary
281
     1
  3
20011210
350
3FB7
  0
DICTIONARY
  5
B4F6
102
{ACAD_REACTORS
330
3F95
102
}
330
3F95
100
AcDbDictionary
281
     1
1001
ACAD
1000
<All
  0
DICTIONARY
  5
AAB4
102
{ACAD_REACTORS
330
3F95
102
}
330
3F95
100
AcDbDictionary
280
     1
281
     1
  0
XRECORD
  5
B9B3
102
{ACAD_REACTORS
330
B9B2
102
}
330
B9B2
100
AcDbXrecord
280
     1
290
     1
  0
XRECORD
  5
B9B5
102
{ACAD_REACTORS
330
B9B4
102
}
330
B9B4
100
AcDbXrecord
280
     1
290
     1
  0
XRECORD
  5
B9B7
102
{ACAD_REACTORS
330
B9B6
102
}
330
B9B6
100
AcDbXrecord
280
     1
290
     1
  0
XRECORD
  5
B9B9
102
{ACAD_REACTORS
330
B9B8
102
}
330
B9B8
100
AcDbXrecord
280
     1
290
     1
  0
XRECORD
  5
B9BB
102
{ACAD_REACTORS
330
B9BA
102
}
330
B9BA
100
AcDbXrecord
280
     1
290
     1
  0
XRECORD
  5
B9BD
102
{ACAD_REACTORS
330
B9BC
102
}
330
B9BC
100
AcDbXrecord
280
     1
290
     1
  0
XRECORD
  5
B9BF
102
{ACAD_REACTORS
330
B9BE
102
}
330
B9BE
100
AcDbXrecord
280
     1
290
     1
  0
XRECORD
  5
B9C1
102
{ACAD_REACTORS
330
B9C0
102
}
330
B9C0
100
AcDbXrecord
280
     1
290
     1
  0
XRECORD
  5
B9C3
102
{ACAD_REACTORS
330
B9C2
102
}
330
B9C2
100
AcDbXrecord
280
     1
290
     1
  0
XRECORD
  5
B9C5
102
{ACAD_REACTORS
330
B9C4
102
}
330
B9C4
100
AcDbXrecord
280
     1
290
     1
  0
XRECORD
  5
B9C7
102
{ACAD_REACTORS
330
B9C6
102
}
330
B9C6
100
AcDbXrecord
280
     1
290
     1
  0
XRECORD
  5
B9C9
102
{ACAD_REACTORS
330
B9C8
102
}
330
B9C8
100
AcDbXrecord
280
     1
290
     1
  0
XRECORD
  5
B9CB
102
{ACAD_REACTORS
330
B9CA
102
}
330
B9CA
100
AcDbXrecord
280
     1
290
     1
  0
XRECORD
  5
B9CD
102
{ACAD_REACTORS
330
B9CC
102
}
330
B9CC
100
AcDbXrecord
280
     1
290
     1
  0
XRECORD
  5
B9CF
102
{ACAD_REACTORS
330
B9CE
102
}
330
B9CE
100
AcDbXrecord
280
     1
290
     1
  0
XRECORD
  5
B9D1
102
{ACAD_REACTORS
330
B9D0
102
}
330
B9D0
100
AcDbXrecord
280
     1
290
     1
  0
XRECORD
  5
B9D3
102
{ACAD_REACTORS
330
B9D2
102
}
330
B9D2
100
AcDbXrecord
280
     1
290
     1
  0
XRECORD
  5
B9D5
102
{ACAD_REACTORS
330
B9D4
102
}
330
B9D4
100
AcDbXrecord
280
     1
290
     1
  0
XRECORD
  5
B9D7
102
{ACAD_REACTORS
330
B9D6
102
}
330
B9D6
100
AcDbXrecord
280
     1
290
     1
  0
SORTENTSTABLE
  5
B1BA
102
{ACAD_REACTORS
330
8A
102
}
330
8A
100
AcDbSortentsTable
330
1F
  0
SORTENTSTABLE
  5
B5FA
102
{ACAD_REACTORS
330
B5F9
102
}
330
B5F9
100
AcDbSortentsTable
330
B5F8
  0
XRECORD
  5
BA39
102
{ACAD_REACTORS
330
BA38
102
}
330
BA38
100
AcDbXrecord
280
     1
 70
     1
  0
LAYOUT
  5
22
102
{ACAD_XDICTIONARY
360
BA3C
102
}
102
{ACAD_REACTORS
330
1A
102
}
330
1A
100
AcDbPlotSettings
  1

  2
FX DocuWide 2050/2051
  4
A3
  6
AM_VIEW1
 40
3.174999952316284
 41
3.174999952316284
 42
3.17498779296875
 43
3.17498779296875
 44
296.989501953125
 45
419.9889831542968
 46
0.0
 47
1.295841228961961
 48
214.3704939521119
 49
367.5855324241176
140
275.6727856380065
141
407.629191407817
142
1.0
143
0.7225445603030646
 70
  3764
 72
     1
 73
     1
 74
     2
  7
monochrome.ctb
 75
     0
147
1.383997686703999
148
-1700.85588156276
149
-1647.985052086429
100
AcDbLayout
  1
Model
 70
     1
 71
     0
 10
0.0
 20
0.0
 11
12.0
 21
9.0
 12
0.0
 22
0.0
 32
0.0
 14
0.0
 24
0.0
 34
0.0
 15
0.0
 25
0.0
 35
0.0
146
0.0
 13
0.0
 23
0.0
 33
0.0
 16
1.0
 26
0.0
 36
0.0
 17
0.0
 27
1.0
 37
0.0
 76
     0
330
1F
331
B0EC
1001
ACAD_PSEXT
1000
FX DocuWide 2050/2051
1000
FX DocuWide 2050/2051
1000
IP_192.200.15.252
1000

1070
     0
  0
LAYOUT
  5
1E
102
{ACAD_XDICTIONARY
360
BA3A
102
}
102
{ACAD_REACTORS
330
1A
102
}
330
1A
100
AcDbPlotSettings
  1

  2
\\ML370\XEROX
  4
A4
  6

 40
3.174999952316284
 41
3.174999952316284
 42
3.175003051757812
 43
3.17498779296875
 44
209.8674926757813
 45
296.6719970703125
 46
0.0
 47
0.0
 48
0.0
 49
0.0
140
0.0
141
0.0
142
1.0
143
1.0
 70
   688
 72
     1
 73
     1
 74
     5
  7
monochrome.ctb
 75
    16
147
1.0
148
0.0
149
0.0
100
AcDbLayout
  1
ﾚｲｱｳﾄ1
 70
     1
 71
     1
 10
-3.17498779296875
 20
-3.174999952316284
 11
293.4970092773438
 21
206.692492723465
 12
0.0
 22
0.0
 32
0.0
 14
1.000000000000000E+20
 24
1.000000000000000E+20
 34
1.000000000000000E+20
 15
-1.000000000000000E+20
 25
-1.000000000000000E+20
 35
-1.000000000000000E+20
146
0.0
 13
0.0
 23
0.0
 33
0.0
 16
1.0
 26
0.0
 36
0.0
 17
0.0
 27
1.0
 37
0.0
 76
     0
330
1B
  0
LAYOUT
  5
26
102
{ACAD_XDICTIONARY
360
BA3E
102
}
102
{ACAD_REACTORS
330
1A
102
}
330
1A
100
AcDbPlotSettings
  1

  2
\\ML370\XEROX
  4

  6

 40
0.0
 41
0.0
 42
0.0
 43
0.0
 44
0.0
 45
0.0
 46
0.0
 47
0.0
 48
0.0
 49
0.0
140
0.0
141
0.0
142
1.0
143
1.0
 70
   688
 72
     0
 73
     0
 74
     5
  7
monochrome.ctb
 75
    16
147
1.0
148
0.0
149
0.0
100
AcDbLayout
  1
ﾚｲｱｳﾄ2
 70
     1
 71
     2
 10
0.0
 20
0.0
 11
12.0
 21
9.0
 12
0.0
 22
0.0
 32
0.0
 14
0.0
 24
0.0
 34
0.0
 15
0.0
 25
0.0
 35
0.0
146
0.0
 13
0.0
 23
0.0
 33
0.0
 16
1.0
 26
0.0
 36
0.0
 17
0.0
 27
1.0
 37
0.0
 76
     0
330
23
  0
MATERIAL
  5
B0EF
102
{ACAD_XDICTIONARY
360
BA43
102
}
102
{ACAD_REACTORS
330
A91C
102
}
330
A91C
100
AcDbMaterial
  1
ByBlock
  0
MATERIAL
  5
B0EE
102
{ACAD_XDICTIONARY
360
BA41
102
}
102
{ACAD_REACTORS
330
A91C
102
}
330
A91C
100
AcDbMaterial
  1
ByLayer
  0
MATERIAL
  5
B0F0
102
{ACAD_XDICTIONARY
360
BA45
102
}
102
{ACAD_REACTORS
330
A91C
102
}
330
A91C
100
AcDbMaterial
  1
Global
  0
ACAD_PROXY_OBJECT
  5
B596
102
{ACAD_REACTORS
330
B595
102
}
330
B595
100
AcDbProxyObject
 90
      499
 91
      626
 95
    65563
 70
     0
 93
      817
310
40901902A40600000030400FEFFFFFF8000000000000008102B5E8DC0F42B5CFC0000000000001040405064068000000C1000000000000000410000000000000004102000000304015D94000000000000C03F4214C01D0018401B80190018401C80190028C00CC
340
14
340
0
340
11
340
0
 94
        0
1001
ACAD_MLEADERVER
1070
     2
1001
ACAD
1000
AcRTDxfName
1000
MLEADERSTYLE
  0
MLINESTYLE
  5
18
102
{ACAD_REACTORS
330
17
102
}
330
17
100
AcDbMlineStyle
  2
STANDARD
 70
     0
  3

 62
   256
 51
90.0
 52
90.0
 71
     2
 49
0.5
 62
   256
  6
BYLAYER
 49
-0.5
 62
   256
  6
BYLAYER
  0
ACDBPLACEHOLDER
  5
F
102
{ACAD_REACTORS
330
E
102
}
330
E
  0
ACAD_PROXY_OBJECT
  5
B574
102
{ACAD_REACTORS
330
B573
102
}
330
B573
100
AcDbProxyObject
 90
      499
 91
      625
 95
    65563
 70
     0
 93
       82
310
968198801D0018801D004C
 94
        0
1001
ACAD
1000
AcRTDxfName
1000
SCALE
  0
ACAD_PROXY_OBJECT
  5
B575
102
{ACAD_REACTORS
330
B573
102
}
330
B573
100
AcDbProxyObject
 90
      499
 91
      625
 95
    65563
 70
     0
 93
      146
310
9000000000000001008198801D0019001D004C
 94
        0
1001
ACAD
1000
AcRTDxfName
1000
SCALE
  0
ACAD_PROXY_OBJECT
  5
B576
102
{ACAD_REACTORS
330
B573
102
}
330
B573
100
AcDbProxyObject
 90
      499
 91
      625
 95
    65563
 70
     0
 93
      146
310
9000000000000041008198801D001A001D004C
 94
        0
1001
ACAD
1000
AcRTDxfName
1000
SCALE
  0
ACAD_PROXY_OBJECT
  5
B577
102
{ACAD_REACTORS
330
B573
102
}
330
B573
100
AcDbProxyObject
 90
      499
 91
      625
 95
    65563
 70
     0
 93
      146
310
9000000000000051008198801D001A801D004C
 94
        0
1001
ACAD
1000
AcRTDxfName
1000
SCALE
  0
ACAD_PROXY_OBJECT
  5
B578
102
{ACAD_REACTORS
330
B573
102
}
330
B573
100
AcDbProxyObject
 90
      499
 91
      625
 95
    65563
 70
     0
 93
      146
310
9000000000000081008198801D001C001D004C
 94
        0
1001
ACAD
1000
AcRTDxfName
1000
SCALE
  0
ACAD_PROXY_OBJECT
  5
B579
102
{ACAD_REACTORS
330
B573
102
}
330
B573
100
AcDbProxyObject
 90
      499
 91
      625
 95
    65563
 70
     0
 93
      162
310
9000000000000091008218801D001880180025004C
 94
        0
1001
ACAD
1000
AcRTDxfName
1000
SCALE
  0
ACAD_PROXY_OBJECT
  5
B57A
102
{ACAD_REACTORS
330
B573
102
}
330
B573
100
AcDbProxyObject
 90
      499
 91
      625
 95
    65563
 70
     0
 93
      162
310
90000000000000C1008218801D0018801B0025004C
 94
        0
1001
ACAD
1000
AcRTDxfName
1000
SCALE
  0
ACAD_PROXY_OBJECT
  5
B57B
102
{ACAD_REACTORS
330
B573
102
}
330
B573
100
AcDbProxyObject
 90
      499
 91
      625
 95
    65563
 70
     0
 93
      162
310
90000000000000D1008218801D001900180025004C
 94
        0
1001
ACAD
1000
AcRTDxfName
1000
SCALE
  0
ACAD_PROXY_OBJECT
  5
B57C
102
{ACAD_REACTORS
330
B573
102
}
330
B573
100
AcDbProxyObject
 90
      499
 91
      625
 95
    65563
 70
     0
 93
      162
310
90000000000000F9008218801D001980180025004C
 94
        0
1001
ACAD
1000
AcRTDxfName
1000
SCALE
  0
ACAD_PROXY_OBJECT
  5
B57D
102
{ACAD_REACTORS
330
B573
102
}
330
B573
100
AcDbProxyObject
 90
      499
 91
      625
 95
    65563
 70
     0
 93
      162
310
9000000000000111008218801D001A00180025004C
 94
        0
1001
ACAD
1000
AcRTDxfName
1000
SCALE
  0
ACAD_PROXY_OBJECT
  5
B57E
102
{ACAD_REACTORS
330
B573
102
}
330
B573
100
AcDbProxyObject
 90
      499
 91
      625
 95
    65563
 70
     0
 93
      162
310
9000000000000125008218801D001A80180025004C
 94
        0
1001
ACAD
1000
AcRTDxfName
1000
SCALE
  0
ACAD_PROXY_OBJECT
  5
B57F
102
{ACAD_REACTORS
330
B573
102
}
330
B573
100
AcDbProxyObject
 90
      499
 91
      625
 95
    65563
 70
     0
 93
      178
310
9000000000000165008298801D001880180018002D004C
 94
        0
1001
ACAD
1000
AcRTDxfName
1000
SCALE
  0
ACAD_PROXY_OBJECT
  5
B580
102
{ACAD_REACTORS
330
B573
102
}
330
B573
100
AcDbProxyObject
 90
      499
 91
      625
 95
    65563
 70
     0
 93
      146
310
8000000000000004048199001D0018801D004C
 94
        0
1001
ACAD
1000
AcRTDxfName
1000
SCALE
  0
ACAD_PROXY_OBJECT
  5
B581
102
{ACAD_REACTORS
330
B573
102
}
330
B573
100
AcDbProxyObject
 90
      499
 91
      625
 95
    65563
 70
     0
 93
      146
310
800000000000010404819A001D0018801D004C
 94
        0
1001
ACAD
1000
AcRTDxfName
1000
SCALE
  0
ACAD_PROXY_OBJECT
  5
B582
102
{ACAD_REACTORS
330
B573
102
}
330
B573
100
AcDbProxyObject
 90
      499
 91
      625
 95
    65563
 70
     0
 93
      146
310
800000000000020404819C001D0018801D004C
 94
        0
1001
ACAD
1000
AcRTDxfName
1000
SCALE
  0
ACAD_PROXY_OBJECT
  5
B583
102
{ACAD_REACTORS
330
B573
102
}
330
B573
100
AcDbProxyObject
 90
      499
 91
      625
 95
    65563
 70
     0
 93
      162
310
80000000000002440482188018001D00188025004C
 94
        0
1001
ACAD
1000
AcRTDxfName
1000
SCALE
  0
ACAD_PROXY_OBJECT
  5
B584
102
{ACAD_REACTORS
330
B573
102
}
330
B573
100
AcDbProxyObject
 90
      499
 91
      625
 95
    65563
 70
     0
 93
      178
310
800000000000059404829880180018001D0018802D004C
 94
        0
1001
ACAD
1000
AcRTDxfName
1000
SCALE
  0
ACAD_PROXY_OBJECT
  5
B585
102
{ACAD_REACTORS
330
B573
102
}
330
B573
100
AcDbProxyObject
 90
      499
 91
      625
 95
    65563
 70
     0
 93
      386
310
8000000000000803F0000000000000A1008718801780188019001C00110010001E8010001880138016801800110075004C
 94
        0
1001
ACAD
1000
AcRTDxfName
1000
SCALE
  0
ACAD_PROXY_OBJECT
  5
B586
102
{ACAD_REACTORS
330
B573
102
}
330
B573
100
AcDbProxyObject
 90
      499
 91
      625
 95
    65563
 70
     0
 93
      370
310
8000000000000903F0000000000000A10086988017801B001A00110010001E801000188013801680180011006D004C
 94
        0
1001
ACAD
1000
AcRTDxfName
1000
SCALE
  0
ACAD_PROXY_OBJECT
  5
B587
102
{ACAD_REACTORS
330
B573
102
}
330
B573
100
AcDbProxyObject
 90
      499
 91
      625
 95
    65563
 70
     0
 93
      370
310
8000000000000A03F0000000000000A100869880178019801900110010001E801000188013801680180011006D004C
 94
        0
1001
ACAD
1000
AcRTDxfName
1000
SCALE
  0
ACAD_PROXY_OBJECT
  5
B588
102
{ACAD_REACTORS
330
B573
102
}
330
B573
100
AcDbProxyObject
 90
      499
 91
      625
 95
    65563
 70
     0
 93
      370
310
8000000000000B03F0000000000000A100869880178018801B00110010001E801000188013801680180011006D004C
 94
        0
1001
ACAD
1000
AcRTDxfName
1000
SCALE
  0
ACAD_PROXY_OBJECT
  5
B589
102
{ACAD_REACTORS
330
B573
102
}
330
B573
100
AcDbProxyObject
 90
      499
 91
      625
 95
    65563
 70
     0
 93
      370
310
8000000000000B83F0000000000000A100869980178019801900110010001E801000188013801680180011006D004C
 94
        0
1001
ACAD
1000
AcRTDxfName
1000
SCALE
  0
ACAD_PROXY_OBJECT
  5
B58A
102
{ACAD_REACTORS
330
B573
102
}
330
B573
100
AcDbProxyObject
 90
      499
 91
      625
 95
    65563
 70
     0
 93
      354
310
8000000000000C03F0000000000000A10086188017801C00110010001E8010001880138016801800110065004C
 94
        0
1001
ACAD
1000
AcRTDxfName
1000
SCALE
  0
ACAD_PROXY_OBJECT
  5
B58B
102
{ACAD_REACTORS
330
B573
102
}
330
B573
100
AcDbProxyObject
 90
      499
 91
      625
 95
    65563
 70
     0
 93
      370
310
8000000000000C83F0000000000000A100869980178018801B00110010001E801000188013801680180011006D004C
 94
        0
1001
ACAD
1000
AcRTDxfName
1000
SCALE
  0
ACAD_PROXY_OBJECT
  5
B58C
102
{ACAD_REACTORS
330
B573
102
}
330
B573
100
AcDbProxyObject
 90
      499
 91
      625
 95
    65563
 70
     0
 93
      354
310
8000000000000D03F0000000000000A10086188017801A00110010001E8010001880138016801800110065004C
 94
        0
1001
ACAD
1000
AcRTDxfName
1000
SCALE
  0
ACAD_PROXY_OBJECT
  5
B58D
102
{ACAD_REACTORS
330
B573
102
}
330
B573
100
AcDbProxyObject
 90
      499
 91
      625
 95
    65563
 70
     0
 93
      354
310
8000000000000D83F0000000000000A10086198017801C00110010001E8010001880138016801800110065004C
 94
        0
1001
ACAD
1000
AcRTDxfName
1000
SCALE
  0
ACAD_PROXY_OBJECT
  5
B58E
102
{ACAD_REACTORS
330
B573
102
}
330
B573
100
AcDbProxyObject
 90
      499
 91
      625
 95
    65563
 70
     0
 93
      354
310
8000000000000E03F0000000000000A10086188017801900110010001E8010001880138016801800110065004C
 94
        0
1001
ACAD
1000
AcRTDxfName
1000
SCALE
  0
ACAD_PROXY_OBJECT
  5
B58F
102
{ACAD_REACTORS
330
B573
102
}
330
B573
100
AcDbProxyObject
 90
      499
 91
      625
 95
    65563
 70
     0
 93
      354
310
8000000000000E83F0000000000000A10086198017801A00110010001E8010001880138016801800110065004C
 94
        0
1001
ACAD
1000
AcRTDxfName
1000
SCALE
  0
ACAD_PROXY_OBJECT
  5
B590
102
{ACAD_REACTORS
330
B573
102
}
330
B573
100
AcDbProxyObject
 90
      499
 91
      625
 95
    65563
 70
     0
 93
      258
310
90000000000000A100851880110010001E8010001880138016801800110055004C
 94
        0
1001
ACAD
1000
AcRTDxfName
1000
SCALE
  0
ACAD_PROXY_OBJECT
  5
B591
102
{ACAD_REACTORS
330
B573
102
}
330
B573
100
AcDbProxyObject
 90
      499
 91
      625
 95
    65563
 70
     0
 93
      386
310
8000000000000F83F0000000000000A1008718801680188017801900110010001E8010001880138016801800110075004C
 94
        0
1001
ACAD
1000
AcRTDxfName
1000
SCALE
  0
ACAD_PROXY_OBJECT
  5
B592
102
{ACAD_REACTORS
330
B573
102
}
330
B573
100
AcDbProxyObject
 90
      499
 91
      625
 95
    65563
 70
     0
 93
      322
310
800000000000008400000000000000A100851980110010001E8010001880138016801800110055004C
 94
        0
1001
ACAD
1000
AcRTDxfName
1000
SCALE
  0
ACAD_PROXY_OBJECT
  5
B593
102
{ACAD_REACTORS
330
B573
102
}
330
B573
100
AcDbProxyObject
 90
      499
 91
      625
 95
    65563
 70
     0
 93
      322
310
800000000000018400000000000000A100851B00110010001E8010001880138016801800110055004C
 94
        0
1001
ACAD
1000
AcRTDxfName
1000
SCALE
  0
ACAD_PROXY_OBJECT
  5
B594
102
{ACAD_REACTORS
330
B573
102
}
330
B573
100
AcDbProxyObject
 90
      499
 91
      625
 95
    65563
 70
     0
 93
      370
310
800000000000028400000000000000A100869880138016801800110010001E801000188013801680180011006D004C
 94
        0
1001
ACAD
1000
AcRTDxfName
1000
SCALE
  0
TABLESTYLE
  5
AABA
102
{ACAD_XDICTIONARY
360
B5B5
102
}
102
{ACAD_REACTORS
330
AAB9
102
}
330
AAB9
100
AcDbTableStyle
  3
Standard
 70
     0
 71
     0
 40
1.5
 41
1.5
280
     0
281
     0
  7
STANDARD
140
4.5
170
     2
 62
     0
 63
     7
283
     0
274
    -2
284
     1
 64
     0
275
    -2
285
     1
 65
     0
276
    -2
286
     1
 66
     0
277
    -2
287
     1
 67
     0
278
    -2
288
     1
 68
     0
279
    -2
289
     1
 69
     0
  7
STANDARD
140
6.0
170
     5
 62
     0
 63
     7
283
     0
274
    -2
284
     1
 64
     0
275
    -2
285
     1
 65
     0
276
    -2
286
     1
 66
     0
277
    -2
287
     1
 67
     0
278
    -2
288
     1
 68
     0
279
    -2
289
     1
 69
     0
  7
STANDARD
140
4.5
170
     5
 62
     0
 63
     7
283
     0
274
    -2
284
     1
 64
     0
275
    -2
285
     1
 65
     0
276
    -2
286
     1
 66
     0
277
    -2
287
     1
 67
     0
278
    -2
288
     1
 68
     0
279
    -2
289
     1
 69
     0
  0
VISUALSTYLE
  5
B0F7
102
{ACAD_REACTORS
330
B0F1
102
}
330
B0F1
100
AcDbVisualStyle
  2
2dWireframe
 70
     4
 71
     0
 72
     2
 73
     0
 90
        0
 40
-0.6
 41
-30.0
 62
     5
 63
     7
 74
     1
 91
        4
 64
     7
 65
   257
 75
     1
175
     1
 42
1.0
 92
        0
 66
   257
 43
1.0
 76
     1
 77
     6
 78
     2
 67
     7
 79
     5
170
     0
171
     0
290
     0
174
     0
 93
        1
 44
0.0
173
     0
291
     0
 45
0.0
1001
ACAD
1000
AcDbSavedByObjectVersion
1070
     0
  0
VISUALSTYLE
  5
B0F9
102
{ACAD_REACTORS
330
B0F1
102
}
330
B0F1
100
AcDbVisualStyle
  2
3D Hidden
 70
     6
 71
     1
 72
     2
 73
     2
 90
        0
 40
-0.6
 41
-30.0
 62
     5
 63
     7
 74
     2
 91
        2
 64
     7
 65
   257
 75
     2
175
     1
 42
40.0
 92
        0
 66
   257
 43
1.0
 76
     1
 77
     6
 78
     2
 67
     7
 79
     3
170
     0
171
     0
290
     0
174
     0
 93
        1
 44
0.0
173
     0
291
     0
 45
0.0
1001
ACAD
1000
AcDbSavedByObjectVersion
1070
     0
  0
VISUALSTYLE
  5
B0F8
102
{ACAD_REACTORS
330
B0F1
102
}
330
B0F1
100
AcDbVisualStyle
  2
3dWireframe
 70
     5
 71
     0
 72
     2
 73
     0
 90
        0
 40
-0.6
 41
-30.0
 62
     5
 63
     7
 74
     1
 91
        4
 64
     7
 65
   257
 75
     1
175
     1
 42
1.0
 92
        0
 66
   257
 43
1.0
 76
     1
 77
     6
 78
     2
 67
     7
 79
     5
170
     0
171
     0
290
     0
174
     0
 93
        1
 44
0.0
173
     0
291
     0
 45
0.0
1001
ACAD
1000
AcDbSavedByObjectVersion
1070
     0
  0
VISUALSTYLE
  5
B0F6
102
{ACAD_REACTORS
330
B0F1
102
}
330
B0F1
100
AcDbVisualStyle
  2
Basic
 70
     7
 71
     1
 72
     0
 73
     1
 90
        0
 40
-0.6
 41
-30.0
 62
     5
 63
     7
 74
     0
 91
        4
 64
     7
 65
   257
 75
     1
175
     1
 42
1.0
 92
        8
 66
     7
 43
1.0
 76
     1
 77
     6
 78
     2
 67
     7
 79
     5
170
     0
171
     0
290
     0
174
     0
 93
        1
 44
0.0
173
     0
291
     1
 45
0.0
1001
ACAD
1000
AcDbSavedByObjectVersion
1070
     0
  0
VISUALSTYLE
  5
B0FD
102
{ACAD_REACTORS
330
B0F1
102
}
330
B0F1
100
AcDbVisualStyle
  2
Brighten
 70
    12
 71
     2
 72
     2
 73
     0
 90
        0
 40
-0.6
 41
-30.0
 62
     5
 63
     7
 74
     1
 91
        4
 64
     7
 65
   257
 75
     1
175
     1
 42
1.0
 92
        8
 66
     7
 43
1.0
 76
     1
 77
     6
 78
     2
 67
     7
 79
     5
170
     0
171
     0
290
     0
174
     0
 93
        1
 44
50.0
173
     0
291
     1
 45
0.0
1001
ACAD
1000
AcDbSavedByObjectVersion
1070
     0
  0
VISUALSTYLE
  5
B101
102
{ACAD_REACTORS
330
B0F1
102
}
330
B0F1
100
AcDbVisualStyle
  2
ColorChange
 70
    16
 71
     2
 72
     2
 73
     3
 90
        0
 40
-0.6
 41
-30.0
 62
     5
 63
     8
 74
     1
 91
        4
 64
     7
 65
   257
 75
     1
175
     1
 42
1.0
 92
        8
 66
     8
 43
1.0
 76
     1
 77
     6
 78
     2
 67
     7
 79
     5
170
     0
171
     0
290
     0
174
     0
 93
        1
 44
0.0
173
     0
291
     1
 45
0.0
1001
ACAD
1000
AcDbSavedByObjectVersion
1070
     0
  0
VISUALSTYLE
  5
B0FA
102
{ACAD_REACTORS
330
B0F1
102
}
330
B0F1
100
AcDbVisualStyle
  2
Conceptual
 70
     9
 71
     3
 72
     2
 73
     0
 90
        0
 40
-0.6
 41
-30.0
 62
     5
 63
     7
 74
     2
 91
        2
 64
     7
 65
   257
 75
     1
175
     1
 42
40.0
 92
        8
 66
     7
 43
1.0
 76
     1
 77
     6
 78
     2
 67
     7
 79
     3
170
     0
171
     0
290
     0
174
     0
 93
        1
 44
0.0
173
     0
291
     0
 45
0.0
1001
ACAD
1000
AcDbSavedByObjectVersion
1070
     0
  0
VISUALSTYLE
  5
B0FC
102
{ACAD_REACTORS
330
B0F1
102
}
330
B0F1
100
AcDbVisualStyle
  2
Dim
 70
    11
 71
     2
 72
     2
 73
     0
 90
        0
 40
-0.6
 41
-30.0
 62
     5
 63
     7
 74
     1
 91
        4
 64
     7
 65
   257
 75
     1
175
     1
 42
1.0
 92
        8
 66
     7
 43
1.0
 76
     1
 77
     6
 78
     2
 67
     7
 79
     5
170
     0
171
     0
290
     0
174
     0
 93
        1
 44
-50.0
173
     0
291
     1
 45
0.0
1001
ACAD
1000
AcDbSavedByObjectVersion
1070
     0
  0
VISUALSTYLE
  5
B100
102
{ACAD_REACTORS
330
B0F1
102
}
330
B0F1
100
AcDbVisualStyle
  2
Facepattern
 70
    15
 71
     2
 72
     2
 73
     0
 90
        0
 40
-0.6
 41
-30.0
 62
     5
 63
     7
 74
     1
 91
        4
 64
     7
 65
   257
 75
     1
175
     1
 42
1.0
 92
        8
 66
     7
 43
1.0
 76
     1
 77
     6
 78
     2
 67
     7
 79
     5
170
     0
171
     0
290
     0
174
     0
 93
        1
 44
0.0
173
     0
291
     1
 45
0.0
1001
ACAD
1000
AcDbSavedByObjectVersion
1070
     0
  0
VISUALSTYLE
  5
B0F2
102
{ACAD_REACTORS
330
B0F1
102
}
330
B0F1
100
AcDbVisualStyle
  2
Flat
 70
     0
 71
     2
 72
     1
 73
     1
 90
        2
 40
-0.6
 41
30.0
 62
     5
 63
     7
 74
     0
 91
        4
 64
     7
 65
   257
 75
     1
175
     1
 42
1.0
 92
        8
 66
     7
 43
1.0
 76
     1
 77
     6
 78
     2
 67
     7
 79
     5
170
     0
171
     0
290
     0
174
     0
 93
       13
 44
0.0
173
     0
291
     1
 45
0.0
1001
ACAD
1000
AcDbSavedByObjectVersion
1070
     0
  0
VISUALSTYLE
  5
B0F3
102
{ACAD_REACTORS
330
B0F1
102
}
330
B0F1
100
AcDbVisualStyle
  2
FlatWithEdges
 70
     1
 71
     2
 72
     1
 73
     1
 90
        2
 40
-0.6
 41
30.0
 62
     5
 63
     7
 74
     1
 91
        4
 64
     7
 65
   257
 75
     1
175
     1
 42
1.0
 92
        0
 66
   257
 43
1.0
 76
     1
 77
     6
 78
     2
 67
     7
 79
     5
170
     0
171
     0
290
     0
174
     0
 93
       13
 44
0.0
173
     0
291
     1
 45
0.0
1001
ACAD
1000
AcDbSavedByObjectVersion
1070
     0
  0
VISUALSTYLE
  5
B0F4
102
{ACAD_REACTORS
330
B0F1
102
}
330
B0F1
100
AcDbVisualStyle
  2
Gouraud
 70
     2
 71
     2
 72
     2
 73
     1
 90
        2
 40
-0.6
 41
30.0
 62
     5
 63
     7
 74
     0
 91
        4
 64
     7
 65
   257
 75
     1
175
     1
 42
1.0
 92
        0
 66
     7
 43
1.0
 76
     1
 77
     6
 78
     2
 67
     7
 79
     5
170
     0
171
     0
290
     0
174
     0
 93
       13
 44
0.0
173
     0
291
     1
 45
0.0
1001
ACAD
1000
AcDbSavedByObjectVersion
1070
     0
  0
VISUALSTYLE
  5
B0F5
102
{ACAD_REACTORS
330
B0F1
102
}
330
B0F1
100
AcDbVisualStyle
  2
GouraudWithEdges
 70
     3
 71
     2
 72
     2
 73
     1
 90
        2
 40
-0.6
 41
30.0
 62
     5
 63
     7
 74
     1
 91
        4
 64
     7
 65
   257
 75
     1
175
     1
 42
1.0
 92
        0
 66
   257
 43
1.0
 76
     1
 77
     6
 78
     2
 67
     7
 79
     5
170
     0
171
     0
290
     0
174
     0
 93
       13
 44
0.0
173
     0
291
     1
 45
0.0
1001
ACAD
1000
AcDbSavedByObjectVersion
1070
     0
  0
VISUALSTYLE
  5
B0FF
102
{ACAD_REACTORS
330
B0F1
102
}
330
B0F1
100
AcDbVisualStyle
  2
Linepattern
 70
    14
 71
     2
 72
     2
 73
     0
 90
        0
 40
-0.6
 41
-30.0
 62
     5
 63
     7
 74
     1
 91
        4
 64
     7
 65
   257
 75
     7
175
     7
 42
1.0
 92
        8
 66
     7
 43
1.0
 76
     1
 77
     6
 78
     2
 67
     7
 79
     5
170
     0
171
     0
290
     0
174
     0
 93
        1
 44
0.0
173
     0
291
     1
 45
0.0
1001
ACAD
1000
AcDbSavedByObjectVersion
1070
     0
  0
VISUALSTYLE
  5
B0FB
102
{ACAD_REACTORS
330
B0F1
102
}
330
B0F1
100
AcDbVisualStyle
  2
Realistic
 70
     8
 71
     2
 72
     2
 73
     0
 90
        0
 40
-0.6
 41
-30.0
 62
     5
 63
     7
 74
     1
 91
        0
 64
     7
 65
   257
 75
     1
175
     1
 42
1.0
 92
        8
 66
     8
 43
1.0
 76
     1
 77
     6
 78
     2
 67
     7
 79
     5
170
     0
171
     0
290
     0
174
     0
 93
       13
 44
0.0
173
     0
291
     0
 45
0.0
1001
ACAD
1000
AcDbSavedByObjectVersion
1070
     0
  0
VISUALSTYLE
  5
B0FE
102
{ACAD_REACTORS
330
B0F1
102
}
330
B0F1
100
AcDbVisualStyle
  2
Thicken
 70
    13
 71
     2
 72
     2
 73
     0
 90
        0
 40
-0.6
 41
-30.0
 62
     5
 63
     7
 74
     1
 91
        4
 64
     7
 65
   257
 75
     1
175
     1
 42
1.0
 92
       12
 66
     7
 43
1.0
 76
     1
 77
     6
 78
     2
 67
     7
 79
     5
170
     0
171
     0
290
     0
174
     0
 93
        1
 44
0.0
173
     0
291
     1
 45
0.0
1001
ACAD
1000
AcDbSavedByObjectVersion
1070
     0
  0
DICTIONARYVAR
  5
B5BA
102
{ACAD_REACTORS
330
34
102
}
330
34
100
DictionaryVariables
280
     0
  1
1:1
  0
DICTIONARYVAR
  5
B5B8
102
{ACAD_REACTORS
330
34
102
}
330
34
100
DictionaryVariables
280
     0
  1
STANDARD
  0
DICTIONARYVAR
  5
AAF3
102
{ACAD_REACTORS
330
34
102
}
330
34
100
DictionaryVariables
280
     0
  1
STANDARD
  0
DICTIONARYVAR
  5
A10C
102
{ACAD_REACTORS
330
34
102
}
330
34
100
DictionaryVariables
280
     0
  1
1
  0
DICTIONARYVAR
  5
AB07
102
{ACAD_REACTORS
330
34
102
}
330
34
100
DictionaryVariables
280
     0
  1
4
  0
DICTIONARYVAR
  5
35
102
{ACAD_REACTORS
330
34
102
}
330
34
100
DictionaryVariables
280
     0
  1
0
  0
DICTIONARYVAR
  5
B5BB
102
{ACAD_REACTORS
330
34
102
}
330
34
100
DictionaryVariables
280
     0
  1
0
  0
DICTIONARYVAR
  5
B5B9
102
{ACAD_REACTORS
330
34
102
}
330
34
100
DictionaryVariables
280
     0
  1
0
  0
DICTIONARYVAR
  5
194C
102
{ACAD_REACTORS
330
34
102
}
330
34
100
DictionaryVariables
280
     0
  1
96
  0
DICTIONARY
  5
7E8
102
{ACAD_REACTORS
330
47
102
}
330
47
100
AcDbDictionary
281
     1
  0
DICTIONARY
  5
4C
102
{ACAD_REACTORS
330
47
102
}
330
47
100
AcDbDictionary
281
     1
  0
XRECORD
  5
A929
102
{ACAD_REACTORS
330
47
102
}
330
47
100
AcDbXrecord
280
     1
 90
-1023410169
  0
XRECORD
  5
B571
102
{ACAD_REACTORS
330
B570
102
}
330
B570
100
AcDbXrecord
280
     1
  0
XRECORD
  5
3FB7
102
{ACAD_REACTORS
330
3F96
102
}
330
3F96
100
AcDbXrecord
280
     1
 91
        3
330
0
 90
        8
 62
     7
370
    40
331
16
  1
Color_7
330
0
 90
        0
 62
    14
370
    -3
331
16
  1
Color_14
330
0
 90
        8
 62
     7
370
    20
331
16
  1
Color_7
330
6D1
 90
        0
 62
     7
370
    -3
331
16
  1
Color_7
330
0
 90
        8
 62
     7
370
    50
331
16
  1
Color_7
330
0
 90
        8
 62
     2
370
    35
331
16
  1
Color_2
330
0
 90
        8
 62
     7
370
    -3
331
16
  1
Color_7
330
10
 90
        8
 62
     7
370
    -3
331
16
  1
Color_7
  0
DICTIONARY
  5
BA3C
330
22
100
AcDbDictionary
280
     1
281
     1
  3
ACAD_XREC_ROUNDTRIP
360
BA3D
  0
DICTIONARY
  5
BA3A
330
1E
100
AcDbDictionary
280
     1
281
     1
  3
ACAD_XREC_ROUNDTRIP
360
BA3B
  0
DICTIONARY
  5
BA3E
330
26
100
AcDbDictionary
280
     1
281
     1
  3
ACAD_XREC_ROUNDTRIP
360
BA3F
  0
DICTIONARY
  5
BA43
330
B0EF
100
AcDbDictionary
280
     1
281
     1
  3
ACAD_XREC_ROUNDTRIP
360
BA44
  0
DICTIONARY
  5
BA41
330
B0EE
100
AcDbDictionary
280
     1
281
     1
  3
ACAD_XREC_ROUNDTRIP
360
BA42
  0
DICTIONARY
  5
BA45
330
B0F0
100
AcDbDictionary
280
     1
281
     1
  3
ACAD_XREC_ROUNDTRIP
360
BA46
  0
DICTIONARY
  5
B5B5
330
AABA
100
AcDbDictionary
280
     1
281
     1
  3
ACAD_ROUNDTRIP_2008_TABLESTYLE_CELLSTYLEMAP
360
B9D8
  3
ACAD_XREC_ROUNDTRIP
360
BA40
  0
XRECORD
  5
BA3D
102
{ACAD_REACTORS
330
BA3C
102
}
330
BA3C
100
AcDbXrecord
280
     1
102
SHADEPLOT
 70
     0
102
SHADEPLOTRESLEVEL
 70
     2
102
SHADEPLOTCUSTOMDPI
 70
   200
  0
XRECORD
  5
BA3B
102
{ACAD_REACTORS
330
BA3A
102
}
330
BA3A
100
AcDbXrecord
280
     1
102
SHADEPLOT
 70
     0
102
SHADEPLOTRESLEVEL
 70
     2
102
SHADEPLOTCUSTOMDPI
 70
   300
  0
XRECORD
  5
BA3F
102
{ACAD_REACTORS
330
BA3E
102
}
330
BA3E
100
AcDbXrecord
280
     1
102
SHADEPLOT
 70
     0
102
SHADEPLOTRESLEVEL
 70
     2
102
SHADEPLOTCUSTOMDPI
 70
   300
  0
XRECORD
  5
BA44
102
{ACAD_REACTORS
330
BA43
102
}
330
BA43
100
AcDbXrecord
280
     1
102
MATERIAL
148
0.0
149
0.0
149
0.0
 93
        0
 94
       63
282
     0
 72
     1
 77
     1
171
     1
175
     1
179
     1
273
     0
  0
XRECORD
  5
BA42
102
{ACAD_REACTORS
330
BA41
102
}
330
BA41
100
AcDbXrecord
280
     1
102
MATERIAL
148
0.0
149
0.0
149
0.0
 93
        0
 94
       63
282
     0
 72
     1
 77
     1
171
     1
175
     1
179
     1
273
     0
  0
XRECORD
  5
BA46
102
{ACAD_REACTORS
330
BA45
102
}
330
BA45
100
AcDbXrecord
280
     1
102
MATERIAL
148
0.0
149
0.0
149
0.0
 93
        0
 94
       63
282
     0
 72
     1
 77
     1
171
     1
175
     1
179
     1
273
     0
  0
ACAD_PROXY_OBJECT
  5
B9D8
102
{ACAD_REACTORS
330
B5B5
102
}
330
B5B5
100
AcDbProxyObject
 90
      499
 91
      628
 95
    65563
 70
     0
 93
     5369
310
40D054060020000020000003200101A4129416000000304000000000000001840404000000000000F83F0000000000003E0FC000000000000F83F0000000000003E0FC0AD7A3703D0AC73F02B5E8DC0F42B1CFD0640640600000030400FEFFFFFF80AD7A3703D0AA73F40A40600000030400FEFFFFFF80AD7A3703D0AA73F4
310
1240600000030400FEFFFFFF80AD7A3703D0AA73F42240600000030400FEFFFFFF80AD7A3703D0AA73F44240600000030400FEFFFFFF80AD7A3703D0AA73F48240600000030400FEFFFFFF80AD7A3703D0AA73F4050141501A8000000C800406904A5058000000C10000000000000004901010000000000003E0FC00000000
310
0000F83F0000000000003E0FC000000000000F83F02B5E8DC0F42B1CFC0AD7A3703D0AC73F419019018000000C1003FBFFFFFE02B5E8DC0F42A9CFD029018000000C1003FBFFFFFE02B5E8DC0F42A9CFD049018000000C1003FBFFFFFE02B5E8DC0F42A9CFD089018000000C1003FBFFFFFE02B5E8DC0F42A9CFD109018000
310
000C1003FBFFFFFE02B5E8DC0F42A9CFD209018000000C1003FBFFFFFE02B5E8DC0F42A9CFD0240505406A0000003200101A412940A000000304000000000000001240404000000000000F83F0000000000003E0FC000000000000F83F0000000000003E0FC0AD7A3703D0AC73F02B5E8DC0F42B1CFD064064060000003040
310
0FEFFFFFF80AD7A3703D0AA73F40A40600000030400FEFFFFFF80AD7A3703D0AA73F41240600000030400FEFFFFFF80AD7A3703D0AA73F42240600000030400FEFFFFFF80AD7A3703D0AA73F44240600000030400FEFFFFFF80AD7A3703D0AA73F48240600000030400FEFFFFFF80AD7A3703D0AA73F40D029065F00540049
310
0054004C0045009075F004800450041004400450052009055F0044004100540041004401CC
340
11
340
0
340
0
340
0
340
0
340
0
340
0
340
11
340
0
340
0
340
0
340
0
340
0
340
0
340
11
340
0
340
0
340
0
340
0
340
0
340
0
 94
        0
1001
ACAD
1000
AcRTDxfName
1000
CELLSTYLEMAP
  0
XRECORD
  5
BA40
102
{ACAD_REACTORS
330
B5B5
102
}
330
B5B5
100
AcDbXrecord
280
     1
102
ACAD_ROUNDTRIP_PRE2007_TABLESTYLE
 90
        4
 91
        0
  1

 92
        4
 93
        0
  2

 94
        4
 95
        0
  3

  0
ENDSEC
  0
EOF
