  0
SECTION
  2
HEADER
  9
$ACADVER
  1
AC1015
  9
$ACADMAINTVER
 70
    20
  9
$DWGCODEPAGE
  3
ANSI_932
  9
$INSBASE
 10
0.0
 20
0.0
 30
0.0
  9
$EXTMIN
 10
-0.0000003291501116
 20
0.0000001587767429
 30
0.0
  9
$EXTMAX
 10
419.9999996708498
 20
297.0000001587767
 30
0.0
  9
$LIMMIN
 10
1700.85588156276
 20
1647.985052086429
  9
$LIMMAX
 10
1997.85588156276
 20
1857.985052086429
  9
$ORTHOMODE
 70
     0
  9
$REGENMODE
 70
     1
  9
$FILLMODE
 70
     1
  9
$QTEXTMODE
 70
     0
  9
$MIRRTEXT
 70
     0
  9
$LTSCALE
 40
1.0
  9
$ATTMODE
 70
     1
  9
$TEXTSIZE
 40
3.2
  9
$TRACEWID
 40
1.0
  9
$TEXTSTYLE
  7
STANDARD
  9
$CLAYER
  8
AM_0
  9
$CELTYPE
  6
ByLayer
  9
$CECOLOR
 62
   256
  9
$CELTSCALE
 40
1.0
  9
$DISPSILH
 70
     0
  9
$DIMSCALE
 40
1.0
  9
$DIMASZ
 40
1.0
  9
$DIMEXO
 40
1.0
  9
$DIMDLI
 40
10.0
  9
$DIMRND
 40
0.0
  9
$DIMDLE
 40
0.0
  9
$DIMEXE
 40
1.0
  9
$DIMTP
 40
0.1
  9
$DIMTM
 40
0.1
  9
$DIMTXT
 40
3.5
  9
$DIMCEN
 40
0.0
  9
$DIMTSZ
 40
0.0
  9
$DIMTOL
 70
     0
  9
$DIMLIM
 70
     0
  9
$DIMTIH
 70
     0
  9
$DIMTOH
 70
     0
  9
$DIMSE1
 70
     0
  9
$DIMSE2
 70
     0
  9
$DIMTAD
 70
     1
  9
$DIMZIN
 70
     8
  9
$DIMBLK
  1

  9
$DIMASO
 70
     1
  9
$DIMSHO
 70
     1
  9
$DIMPOST
  1

  9
$DIMAPOST
  1
"
  9
$DIMALT
 70
     0
  9
$DIMALTD
 70
     2
  9
$DIMALTF
 40
0.0393701
  9
$DIMLFAC
 40
1.0
  9
$DIMTOFL
 70
     1
  9
$DIMTVP
 40
0.0
  9
$DIMTIX
 70
     0
  9
$DIMSOXD
 70
     0
  9
$DIMSAH
 70
     0
  9
$DIMBLK1
  1

  9
$DIMBLK2
  1

  9
$DIMSTYLE
  2
SYS
  9
$DIMCLRD
 70
   256
  9
$DIMCLRE
 70
   256
  9
$DIMCLRT
 70
     7
  9
$DIMTFAC
 40
0.71
  9
$DIMGAP
 40
1.5
  9
$DIMJUST
 70
     0
  9
$DIMSD1
 70
     0
  9
$DIMSD2
 70
     0
  9
$DIMTOLJ
 70
     0
  9
$DIMTZIN
 70
     8
  9
$DIMALTZ
 70
     0
  9
$DIMALTTZ
 70
     0
  9
$DIMUPT
 70
     0
  9
$DIMDEC
 70
     2
  9
$DIMTDEC
 70
     2
  9
$DIMALTU
 70
     2
  9
$DIMALTTD
 70
     2
  9
$DIMTXSTY
  7
STANDARD
  9
$DIMAUNIT
 70
     0
  9
$DIMADEC
 70
     0
  9
$DIMALTRND
 40
0.0
  9
$DIMAZIN
 70
     2
  9
$DIMDSEP
 70
    46
  9
$DIMATFIT
 70
     3
  9
$DIMFRAC
 70
     0
  9
$DIMLDRBLK
  1

  9
$DIMLUNIT
 70
     2
  9
$DIMLWD
 70
    -1
  9
$DIMLWE
 70
    -1
  9
$DIMTMOVE
 70
     0
  9
$LUNITS
 70
     2
  9
$LUPREC
 70
     2
  9
$SKETCHINC
 40
1.0
  9
$FILLETRAD
 40
0.0
  9
$AUNITS
 70
     0
  9
$AUPREC
 70
     0
  9
$MENU
  1
.
  9
$ELEVATION
 40
0.0
  9
$PELEVATION
 40
0.0
  9
$THICKNESS
 40
0.0
  9
$LIMCHECK
 70
     0
  9
$CHAMFERA
 40
0.0
  9
$CHAMFERB
 40
0.0
  9
$CHAMFERC
 40
20.0
  9
$CHAMFERD
 40
0.0
  9
$SKPOLY
 70
     0
  9
$TDCREATE
 40
2455883.397878322
  9
$TDUCREATE
 40
2455883.022878322
  9
$TDUPDATE
 40
2456352.481949317
  9
$TDUUPDATE
 40
2456352.106949317
  9
$TDINDWG
 40
0.0010479861
  9
$TDUSRTIMER
 40
0.0010478009
  9
$USRTIMER
 70
     1
  9
$ANGBASE
 50
0.0
  9
$ANGDIR
 70
     0
  9
$PDMODE
 70
     0
  9
$PDSIZE
 40
-3.0
  9
$PLINEWID
 40
0.0
  9
$SPLFRAME
 70
     0
  9
$SPLINETYPE
 70
     6
  9
$SPLINESEGS
 70
     8
  9
$HANDSEED
  5
BB67
  9
$SURFTAB1
 70
     6
  9
$SURFTAB2
 70
     6
  9
$SURFTYPE
 70
     6
  9
$SURFU
 70
     6
  9
$SURFV
 70
     6
  9
$UCSBASE
  2

  9
$UCSNAME
  2

  9
$UCSORG
 10
0.0
 20
0.0
 30
0.0
  9
$UCSXDIR
 10
1.0
 20
0.0
 30
0.0
  9
$UCSYDIR
 10
0.0
 20
1.0
 30
0.0
  9
$UCSORTHOREF
  2

  9
$UCSORTHOVIEW
 70
     0
  9
$UCSORGTOP
 10
0.0
 20
0.0
 30
0.0
  9
$UCSORGBOTTOM
 10
0.0
 20
0.0
 30
0.0
  9
$UCSORGLEFT
 10
0.0
 20
0.0
 30
0.0
  9
$UCSORGRIGHT
 10
0.0
 20
0.0
 30
0.0
  9
$UCSORGFRONT
 10
0.0
 20
0.0
 30
0.0
  9
$UCSORGBACK
 10
0.0
 20
0.0
 30
0.0
  9
$PUCSBASE
  2

  9
$PUCSNAME
  2

  9
$PUCSORG
 10
0.0
 20
0.0
 30
0.0
  9
$PUCSXDIR
 10
1.0
 20
0.0
 30
0.0
  9
$PUCSYDIR
 10
0.0
 20
1.0
 30
0.0
  9
$PUCSORTHOREF
  2

  9
$PUCSORTHOVIEW
 70
     0
  9
$PUCSORGTOP
 10
0.0
 20
0.0
 30
0.0
  9
$PUCSORGBOTTOM
 10
0.0
 20
0.0
 30
0.0
  9
$PUCSORGLEFT
 10
0.0
 20
0.0
 30
0.0
  9
$PUCSORGRIGHT
 10
0.0
 20
0.0
 30
0.0
  9
$PUCSORGFRONT
 10
0.0
 20
0.0
 30
0.0
  9
$PUCSORGBACK
 10
0.0
 20
0.0
 30
0.0
  9
$USERI1
 70
     0
  9
$USERI2
 70
     0
  9
$USERI3
 70
     0
  9
$USERI4
 70
     0
  9
$USERI5
 70
     0
  9
$USERR1
 40
0.0
  9
$USERR2
 40
0.0
  9
$USERR3
 40
0.0
  9
$USERR4
 40
0.0
  9
$USERR5
 40
0.0
  9
$WORLDVIEW
 70
     1
  9
$SHADEDGE
 70
     3
  9
$SHADEDIF
 70
    70
  9
$TILEMODE
 70
     1
  9
$MAXACTVP
 70
    64
  9
$PINSBASE
 10
0.0
 20
0.0
 30
0.0
  9
$PLIMCHECK
 70
     0
  9
$PEXTMIN
 10
1.000000000000000E+20
 20
1.000000000000000E+20
 30
1.000000000000000E+20
  9
$PEXTMAX
 10
-1.000000000000000E+20
 20
-1.000000000000000E+20
 30
-1.000000000000000E+20
  9
$PLIMMIN
 10
-3.17498779296875
 20
-3.174999952316284
  9
$PLIMMAX
 10
293.4970092773438
 20
206.692492723465
  9
$UNITMODE
 70
     0
  9
$VISRETAIN
 70
     1
  9
$PLINEGEN
 70
     0
  9
$PSLTSCALE
 70
     1
  9
$TREEDEPTH
 70
  3020
  9
$CMLSTYLE
  2
Standard
  9
$CMLJUST
 70
     0
  9
$CMLSCALE
 40
20.0
  9
$PROXYGRAPHICS
 70
     1
  9
$MEASUREMENT
 70
     1
  9
$CELWEIGHT
370
    -1
  9
$ENDCAPS
280
     0
  9
$JOINSTYLE
280
     0
  9
$LWDISPLAY
290
     1
  9
$INSUNITS
 70
     4
  9
$HYPERLINKBASE
  1

  9
$STYLESHEET
  1
monochrome.ctb
  9
$XEDIT
290
     1
  9
$CEPSNTYPE
380
     0
  9
$PSTYLEMODE
290
     1
  9
$FINGERPRINTGUID
  2
{47BBDCD8-5CB8-450C-81B2-D45CF43AC319}
  9
$VERSIONGUID
  2
{203309AA-186D-4340-B7CC-21F95656FF7C}
  9
$EXTNAMES
290
     1
  9
$PSVPSCALE
 40
0.0
  9
$OLESTARTUP
290
     0
  0
ENDSEC
  0
SECTION
  2
CLASSES
  0
CLASS
  1
ACDBDICTIONARYWDFLT
  2
AcDbDictionaryWithDefault
  3
ObjectDBX Classes
 90
        0
280
     0
281
     0
  0
CLASS
  1
ACDBPLACEHOLDER
  2
AcDbPlaceHolder
  3
ObjectDBX Classes
 90
        0
280
     0
281
     0
  0
CLASS
  1
LAYOUT
  2
AcDbLayout
  3
ObjectDBX Classes
 90
        0
280
     0
281
     0
  0
CLASS
  1
AMGSETTINGSOBJ
  2
AmgSettingsObj
  3
"AcadM|Product Description: AutoCAD Mechanical|Company: Autodesk"
 90
        0
280
     0
281
     0
  0
CLASS
  1
ACME_DOCUMENT
  2
AcMeDbDoc
  3
AcMeServices
 90
        0
280
     0
281
     0
  0
CLASS
  1
ACMESCOPE
  2
AcMeScope
  3
AcMeServices
 90
        0
280
     0
281
     0
  0
CLASS
  1
ACMECOMMANDHISTORY
  2
AcMeCommandHistory
  3
AcMeServices
 90
        0
280
     0
281
     0
  0
CLASS
  1
DICTIONARYVAR
  2
AcDbDictionaryVar
  3
ObjectDBX Classes
 90
        0
280
     0
281
     0
  0
CLASS
  1
ACIMSYSVARMAN
  2
AcImSysVarManager
  3
AcMeServices
 90
        0
280
     0
281
     0
  0
CLASS
  1
ACIMREALSYSVAR
  2
AcImRealSysVar
  3
AcMeServices
 90
        0
280
     0
281
     0
  0
CLASS
  1
ACIMINTSYSVAR
  2
AcImIntSysVar
  3
AcMeServices
 90
        0
280
     0
281
     0
  0
CLASS
  1
ACMEDRAWINGMAN
  2
AcMeDrawingMan
  3
AcMeServices
 90
        0
280
     0
281
     0
  0
CLASS
  1
ACMEVIEW
  2
AcMeView
  3
AcMeServices
 90
        0
280
     0
281
     0
  0
CLASS
  1
ACDBENTITYCACHE
  2
AcMeEntityCache
  3
AcMeServices
 90
        0
280
     0
281
     0
  0
CLASS
  1
GSMANAGER
  2
AcMeGSManager
  3
AcMeServices
 90
        0
280
     0
281
     0
  0
CLASS
  1
AMDTINTERNALREACTOR
  2
AmdtInternalReactor
  3
AcMeServices
 90
        0
280
     0
281
     0
  0
CLASS
  1
ACMESTATEMGR
  2
AcMeStateMgr
  3
AcMeServices
 90
        0
280
     0
281
     0
  0
CLASS
  1
ACGREFMASTER
  2
AcGrefMaster
  3
AcAttribServices
 90
        0
280
     0
281
     0
  0
CLASS
  1
ACME_DATABASE
  2
AcMeDbDatabase
  3
AcMeServices
 90
        0
280
     0
281
     0
  0
CLASS
  1
ACRFINSADJUSTERMGR
  2
AcRfInsAdjusterMgr
  3
AcMeServices
 90
        0
280
     0
281
     0
  0
CLASS
  1
ACGREFACADMASTER
  2
AcGrefacadMaster
  3
AcGrefServices
 90
        0
280
     0
281
     0
  0
CLASS
  1
AMIMASTER
  2
AmiMaster
  3
AmiServices
 90
        0
280
     0
281
     0
  0
CLASS
  1
ACMDATADICTIONARY
  2
AcmDataDictionary
  3
"AcmSymBB|Product Description: AutoCAD Mechanical|Company: Autodesk"
 90
        0
280
     0
281
     0
  0
CLASS
  1
ACMDATAENTRYBLOCK
  2
AcmDataEntryBlock
  3
"AcmSymBB|Product Description: AutoCAD Mechanical|Company: Autodesk"
 90
        0
280
     0
281
     0
  0
CLASS
  1
ACIMSTRSYSVAR
  2
AcImStrSysVar
  3
AcMeServices
 90
        0
280
     0
281
     0
  0
CLASS
  1
ACMSTANDARDISO
  2
AcmStandardISO
  3
"Amdt_StdImp|Product Description: AutoCAD Mechanical|Company: Autodesk"
 90
        0
280
     0
281
     0
  0
CLASS
  1
AMGOBJPROPCFG
  2
AmgObjPropCfg
  3
"AmgLay|Product Description: AutoCAD Mechanical|Company: Autodesk"
 90
        1
280
     0
281
     0
  0
CLASS
  1
AMDTEDGESTANDARDISO
  2
AmdtEdgeStdISO
  3
"Amdt_StdImp|Product Description: AutoCAD Mechanical|Company: Autodesk"
 90
        0
280
     0
281
     0
  0
CLASS
  1
ACMSURFSTANDARDISO
  2
AcmSurfTextStdISO
  3
"Amdt_StdImp|Product Description: AutoCAD Mechanical|Company: Autodesk"
 90
        0
280
     0
281
     0
  0
CLASS
  1
ACMFCFSTANDARDISO
  2
AcmFCFStdISO
  3
"Amdt_StdImp|Product Description: AutoCAD Mechanical|Company: Autodesk"
 90
        0
280
     0
281
     0
  0
CLASS
  1
ACMWELDSTANDARDISO
  2
AcmWeldingStdISO
  3
"Amdt_StdImp|Product Description: AutoCAD Mechanical|Company: Autodesk"
 90
        0
280
     0
281
     0
  0
CLASS
  1
ACMIDSTANDARDISO
  2
AcmIdStdISO
  3
"Amdt_StdImp|Product Description: AutoCAD Mechanical|Company: Autodesk"
 90
        0
280
     0
281
     0
  0
CLASS
  1
ACMDATUMSTANDARDISO
  2
AcmDatumStdISO
  3
"Amdt_StdImp|Product Description: AutoCAD Mechanical|Company: Autodesk"
 90
        0
280
     0
281
     0
  0
CLASS
  1
ACMBOMSTANDARDISO
  2
AcmBOMStdISO
  3
"Amdt_StdImp|Product Description: AutoCAD Mechanical|Company: Autodesk"
 90
        0
280
     0
281
     0
  0
CLASS
  1
ACMDETAILSTANDARDISO
  2
AmdtDetailSymStdISO
  3
"Amdt_StdImp|Product Description: AutoCAD Mechanical|Company: Autodesk"
 90
        0
280
     0
281
     0
  0
CLASS
  1
ACMSECTIONSTANDARDISO
  2
AmdtSectionSymStdISO
  3
"Amdt_StdImp|Product Description: AutoCAD Mechanical|Company: Autodesk"
 90
        0
280
     0
281
     0
  0
CLASS
  1
ACMCENTERLINESTANDARDISO
  2
AmdtCenterLineStdISO
  3
"Amdt_StdImp|Product Description: AutoCAD Mechanical|Company: Autodesk"
 90
        0
280
     0
281
     0
  0
CLASS
  1
ACAMGLAYSTD
  2
AcAmgLayStd
  3
"AmgLay|Product Description: AutoCAD Mechanical|Company: Autodesk"
 90
        0
280
     0
281
     0
  0
CLASS
  1
ACAMGDIMSTD
  2
AcAmgDimStd
  3
"AmgDim|Product Description: AutoCAD Mechanical|Company: Autodesk"
 90
        0
280
     0
281
     0
  0
CLASS
  1
ACAMGTITLESTD
  2
AcAmgTitleStd
  3
"AmgTitle|Product Description: AutoCAD Mechanical|Company: Autodesk"
 90
        0
280
     0
281
     0
  0
CLASS
  1
ACAMGFILTERDAT
  2
AcAmgFilterDat
  3
"AcadM|Product Description: AutoCAD Mechanical|Company: Autodesk"
 90
        0
280
     0
281
     0
  0
CLASS
  1
LAYER_INDEX
  2
AcDbLayerIndex
  3
ObjectDBX Classes
 90
    32768
280
     0
281
     0
  0
CLASS
  1
IDBUFFER
  2
AcDbIdBuffer
  3
ObjectDBX Classes
 90
    32768
280
     0
281
     0
  0
CLASS
  1
PLOTSETTINGS
  2
AcDbPlotSettings
  3
ObjectDBX Classes
 90
    32768
280
     0
281
     0
  0
CLASS
  1
AMDTFORMULAUPDATEDISPATCHER
  2
AmdtFormulaUpdateDispatcher
  3
AcMeServices
 90
        0
280
     0
281
     0
  0
CLASS
  1
ACMSTANDARDANSI
  2
AcmStandardANSI
  3
"Amdt_StdImp|Product Description: AutoCAD Mechanical|Company: Autodesk"
 90
    32768
280
     0
281
     0
  0
CLASS
  1
ACMSURFSTANDARDANSI
  2
AcmSurfTextStdANSI
  3
"Amdt_StdImp|Product Description: AutoCAD Mechanical|Company: Autodesk"
 90
    32768
280
     0
281
     0
  0
CLASS
  1
ACMFCFSTANDARDANSI
  2
AcmFCFStdANSI
  3
"Amdt_StdImp|Product Description: AutoCAD Mechanical|Company: Autodesk"
 90
    32768
280
     0
281
     0
  0
CLASS
  1
ACMWELDSTANDARDANSI
  2
AcmWeldingStdANSI
  3
"Amdt_StdImp|Product Description: AutoCAD Mechanical|Company: Autodesk"
 90
    32768
280
     0
281
     0
  0
CLASS
  1
ACMIDSTANDARDANSI
  2
AcmIdStdANSI
  3
"Amdt_StdImp|Product Description: AutoCAD Mechanical|Company: Autodesk"
 90
    32768
280
     0
281
     0
  0
CLASS
  1
ACMDATUMSTANDARDANSI
  2
AcmDatumStdANSI
  3
"Amdt_StdImp|Product Description: AutoCAD Mechanical|Company: Autodesk"
 90
    32768
280
     0
281
     0
  0
CLASS
  1
ACMBOMSTANDARDANSI
  2
AcmBOMStdANSI
  3
"Amdt_StdImp|Product Description: AutoCAD Mechanical|Company: Autodesk"
 90
    32768
280
     0
281
     0
  0
CLASS
  1
ACMDETAILSTANDARDANSI
  2
AmdtDetailSymStdANSI
  3
"Amdt_StdImp|Product Description: AutoCAD Mechanical|Company: Autodesk"
 90
    32768
280
     0
281
     0
  0
CLASS
  1
ACMSECTIONSTANDARDANSI
  2
AmdtSectionSymStdANSI
  3
"Amdt_StdImp|Product Description: AutoCAD Mechanical|Company: Autodesk"
 90
    32768
280
     0
281
     0
  0
CLASS
  1
ACMCENTERLINESTANDARDANSI
  2
AmdtCenterLineStdANSI
  3
"Amdt_StdImp|Product Description: AutoCAD Mechanical|Company: Autodesk"
 90
    32768
280
     0
281
     0
  0
CLASS
  1
ACMBOM
  2
AcmBom
  3
"AcmSymBB|Product Description: AutoCAD Mechanical|Company: Autodesk"
 90
        0
280
     0
281
     0
  0
CLASS
  1
ACMDATAENTRYPART
  2
AcmDataEntryPart
  3
"AcmSymBB|Product Description: AutoCAD Mechanical|Company: Autodesk"
 90
    32768
280
     0
281
     0
  0
CLASS
  1
ACMPARTREF
  2
AcmPartRef
  3
"AcmSymBB|Product Description: AutoCAD Mechanical|Company: Autodesk"
 90
    35839
280
     0
281
     1
  0
CLASS
  1
ACDBCIRCARCRES
  2
AcDbCircArcRes
  3
AcGrefServices
 90
    32768
280
     0
281
     0
  0
CLASS
  1
ACMBOMROW
  2
AcmBomRow
  3
"AcmSymBB|Product Description: AutoCAD Mechanical|Company: Autodesk"
 90
    32768
280
     0
281
     0
  0
CLASS
  1
ACMBALLOON
  2
AcmBalloon
  3
"AcmSymBB|Product Description: AutoCAD Mechanical|Company: Autodesk"
 90
    35839
280
     0
281
     1
  0
CLASS
  1
AMDTNOTE
  2
AmdtNote
  3
"AcmSymBB|Product Description: AutoCAD Mechanical|Company: Autodesk"
 90
    35839
280
     0
281
     1
  0
CLASS
  1
STDPART2D
  2
AmgStdPart
  3
"g3vace|Class: AmgStdPart|Product Description: AutoCAD Mechanical|Company: Autodesk"
 90
    35839
280
     0
281
     1
  0
CLASS
  1
ACDBSTDPARTRES_LINE
  2
AcDbStdPartRes_Line
  3
"g3vace|Class: AcDbStdPartRes_Line|Product Description: AutoCAD Mechanical|Company: Autodesk"
 90
    32768
280
     0
281
     0
  0
CLASS
  1
ACMDATAENTRY
  2
AcmDataEntry
  3
"AcmSymBB|Product Description: AutoCAD Mechanical|Company: Autodesk"
 90
        0
280
     0
281
     0
  0
CLASS
  1
ACDBOPPOLYLINERES
  2
AcDbOpPolylineRes
  3
AcGrefServices
 90
    32768
280
     0
281
     0
  0
CLASS
  1
ACMPARTLIST
  2
AcmPartList
  3
"AcmSymBB|Product Description: AutoCAD Mechanical|Company: Autodesk"
 90
    35839
280
     0
281
     1
  0
CLASS
  1
ACDBLINERES
  2
AcDbLineRes
  3
AcGrefServices
 90
    32768
280
     0
281
     0
  0
CLASS
  1
ACRFINSADJ
  2
AcRfInsAdjuster
  3
AcMeServices
 90
    32768
280
     0
281
     0
  0
CLASS
  1
AM_DRAWING_MGR
  2
AcDmDwgMgr
  3
AcMechDwgViewMgmt
 90
        0
280
     0
281
     0
  0
CLASS
  1
AM_DWG_DOCUMENT
  2
AcDmDwgDocument
  3
AcMechDwgViewMgmt
 90
        0
280
     0
281
     0
  0
CLASS
  1
AM_DWG_SHEET
  2
AcDmSheet
  3
AcMechDwgViewMgmt
 90
        0
280
     0
281
     0
  0
CLASS
  1
AM_VIEWDIMPARMAP
  2
AcDmViewDimParMap
  3
AcMechDwgViewMgmt
 90
        0
280
     0
281
     0
  0
CLASS
  1
AM_DWGMGR_NAME
  2
AcDmDwgMgrName
  3
AcMechDwgViewMgmt
 90
        0
280
     0
281
     0
  0
CLASS
  1
AMDTMENUSTATEMGR
  2
AmdtMenuStateMgr
  3
McadcomServices
 90
        0
280
     0
281
     0
  0
CLASS
  1
AMDTMCOMMENUSTATE
  2
AmdtMcomMenuState
  3
McadcomServices
 90
        0
280
     0
281
     0
  0
CLASS
  1
ASAPP
  2
AcAsAppObject
  3
AutoSurfServices
 90
        0
280
     0
281
     0
  0
CLASS
  1
IM_STATIC_MAN
  2
AcImStaticVarManager
  3
AcMeServices
 90
        0
280
     0
281
     0
  0
CLASS
  1
ACIMDBLSTATICVAR
  2
AcImDblStaticVar
  3
AcMeServices
 90
        0
280
     0
281
     0
  0
CLASS
  1
ACIMSTRSTATICVAR
  2
AcImStrStaticVar
  3
AcMeServices
 90
        0
280
     0
281
     0
  0
CLASS
  1
ACIMINTSTATICVAR
  2
AcImIntStaticVar
  3
AcMeServices
 90
        0
280
     0
281
     0
  0
CLASS
  1
ACASGREFMASTER
  2
AcAsGrefMaster
  3
AutoSurfResolverServices
 90
        0
280
     0
281
     0
  0
CLASS
  1
ACADGREFMODULE
  2
AcAdGrefModule
  3
AdGrefServices
 90
        0
280
     0
281
     0
  0
CLASS
  1
AMDTMAPISURFMOUDULE
  2
AmdtMApiSurfModule
  3
MApiSurfServices
 90
        0
280
     0
281
     0
  0
CLASS
  1
MAPIAMMOUDLE
  2
MApiAmModule
  3
MApiAmServices
 90
        0
280
     0
281
     0
  0
CLASS
  1
AMDTADMENUSTATE
  2
AmdtAdMenuState
  3
DesignerServices
 90
        0
280
     0
281
     0
  0
CLASS
  1
ADAPPL
  2
AcAdAppl
  3
DesignerServices
 90
        0
280
     0
281
     0
  0
CLASS
  1
DEPMGR
  2
AcAdDepMgr
  3
DesignerServices
 90
        0
280
     0
281
     0
  0
CLASS
  1
PARAMMGR
  2
AcAdParamMgr
  3
DesignerServices
 90
        0
280
     0
281
     0
  0
CLASS
  1
PARAMSCOPE
  2
AcAdParamScope
  3
DesignerServices
 90
        0
280
     0
281
     0
  0
CLASS
  1
NAMEDAPPL
  2
AcAdNamedAppl
  3
DesignerServices
 90
        0
280
     0
281
     0
  0
CLASS
  1
ADHNTMPLT
  2
AdHoleNoteTemplateMgr
  3
DesignerServices
 90
    32768
280
     0
281
     0
  0
CLASS
  1
AM_HNTEMPLATE_MGR_NAME
  2
AdHoleNoteTemplateMgrName
  3
DesignerServices
 90
    32768
280
     0
281
     0
  0
CLASS
  1
AMDTDMMENUSTATE
  2
AmdtDmMenuState
  3
AcMechDwgViewMgmt
 90
        0
280
     0
281
     0
  0
CLASS
  1
MAPIADMODULE
  2
MApiAdModule
  3
MApiAdServices
 90
        0
280
     0
281
     0
  0
CLASS
  1
AMDTAMMENUSTATE
  2
AmdtAmMenuState
  3
DesignerAssemblies
 90
        0
280
     0
281
     0
  0
CLASS
  1
ACAMPROJECT
  2
AcAmProject
  3
DesignerAssemblies
 90
        0
280
     0
281
     0
  0
CLASS
  1
ACAMGRCOMPDEF
  2
AcAmGrCompDef
  3
DesignerAssemblies
 90
        0
280
     0
281
     0
  0
CLASS
  1
ACCMCONTEXT
  2
AcCmContext
  3
DesignerAssemblies
 90
        0
280
     0
281
     0
  0
CLASS
  1
ACAMCOMPDEF
  2
AcAmCompDef
  3
DesignerAssemblies
 90
        0
280
     0
281
     0
  0
CLASS
  1
ACAMCOMPDEFMGR
  2
AcAmCompDefMgr
  3
DesignerAssemblies
 90
        0
280
     0
281
     0
  0
CLASS
  1
AMCONTEXTMGR
  2
AcAmContextMgr
  3
DesignerAssemblies
 90
        0
280
     0
281
     0
  0
CLASS
  1
ACAMCONTEXTMODELER
  2
AcAmContextModeler
  3
DesignerAssemblies
 90
        0
280
     0
281
     0
  0
CLASS
  1
CATALOGSTATE
  2
AcAmCatalogState
  3
DesignerAssemblies
 90
        0
280
     0
281
     0
  0
CLASS
  1
ACAMGRCOMPDEFSET
  2
AcAmGrCompDefSet
  3
DesignerAssemblies
 90
        0
280
     0
281
     0
  0
CLASS
  1
AMDTBROWSERDBTAB
  2
AmdtBrowserDbTab
  3
McadcomServices
 90
        0
280
     0
281
     0
  0
CLASS
  1
CBROWSERAPPOBJECT
  2
CBrowserAppObject
  3
McadcomServices
 90
        0
280
     0
281
     0
  0
CLASS
  1
DM_PLACEHOLDER
  2
AcDmSelsetPlaceholder
  3
AcMechDwgViewMgmt
 90
        0
280
     0
281
     0
  0
CLASS
  1
ACMPICKOBJ
  2
AcmPickEnt
  3
"AcmSymBB|Product Description: AutoCAD Mechanical|Company: Autodesk"
 90
    32768
280
     0
281
     1
  0
CLASS
  1
ACMNOTESTANDARDISO
  2
AmdtNoteStdISO
  3
"Amdt_StdImp|Product Description: AutoCAD Mechanical|Company: Autodesk"
 90
        0
280
     0
281
     0
  0
CLASS
  1
ACMNOTESTANDARDANSI
  2
AmdtNoteStdANSI
  3
"Amdt_StdImp|Product Description: AutoCAD Mechanical|Company: Autodesk"
 90
    32768
280
     0
281
     0
  0
CLASS
  1
ACMTHREADLINESTANDARDISO
  2
AmdtThreadLineStdISO
  3
"Amdt_StdImp|Product Description: AutoCAD Mechanical|Company: Autodesk"
 90
        0
280
     0
281
     0
  0
CLASS
  1
ACMTHREADLINESTANDARDANSI
  2
AmdtThreadLineStdANSI
  3
"Amdt_StdImp|Product Description: AutoCAD Mechanical|Company: Autodesk"
 90
    32768
280
     0
281
     0
  0
CLASS
  1
TABLESTYLE
  2
AcDbTableStyle
  3
ObjectDBX Classes
 90
     4095
280
     0
281
     0
  0
CLASS
  1
SORTENTSTABLE
  2
AcDbSortentsTable
  3
ObjectDBX Classes
 90
        0
280
     0
281
     0
  0
CLASS
  1
MATERIAL
  2
AcDbMaterial
  3
ObjectDBX Classes
 90
     1024
280
     0
281
     0
  0
CLASS
  1
VISUALSTYLE
  2
AcDbVisualStyle
  3
ObjectDBX Classes
 90
     4095
280
     0
281
     0
  0
CLASS
  1
ACRFATTGENMGR
  2
AcRfAttGeneralMgr
  3
AcAttribServices
 90
        0
280
     0
281
     0
  0
CLASS
  1
ACRFOBJATTMGR
  2
AcRfObjAttGroupMgr
  3
AcAttribServices
 90
        0
280
     0
281
     0
  0
CLASS
  1
ACRFMCADAPIATTHOLDER
  2
AcRfMCADAPIAttHolder
  3
AcAttribServices
 90
        0
280
     0
281
     0
  0
CLASS
  1
AMDTSYSATTR
  2
AmdtSystemAttribute
  3
AcAttribServices
 90
        0
280
     0
281
     0
  0
CLASS
  1
ACMTAPERSTANDARDISO
  2
AcmTaperStdISO
  3
"Amdt_StdImp|Product Description: AutoCAD Mechanical|Company: Autodesk"
 90
        0
280
     0
281
     0
  0
CLASS
  1
CAMSSTRUCTBTNSTATE
  2
StructBtnState
  3
L"DesignerAssemblies"
 90
        0
280
     0
281
     0
  0
CLASS
  1
DIMASSOC
  2
AcDbDimAssoc
  3
"AcDbDimAssoc|Product Desc:     AcDim ARX App For Dimension|Company:          Autodesk, Inc.|WEB Address:      www.autodesk.com"
 90
    32768
280
     0
281
     0
  0
CLASS
  1
AMDTNOTETEMPLATEDB
  2
AmdtNoteTemplateDB
  3
AMDT_STDIMP_MODULE_NAME
 90
        0
280
     0
281
     0
  0
CLASS
  1
SCALE
  2
AcDbScale
  3
ObjectDBX Classes
 90
     1153
280
     0
281
     0
  0
CLASS
  1
MLEADERSTYLE
  2
AcDbMLeaderStyle
  3
ACDB_MLEADERSTYLE_CLASS
 90
     4095
280
     0
281
     0
  0
CLASS
  1
ACMANOOTATIONVIEWSTANDARDISO
  2
AmdtAnViewStdISO
  3
"Amdt_StdImp|Product Description: AutoCAD Mechanical|Company: Autodesk, Inc."
 90
    33792
280
     0
281
     0
  0
CLASS
  1
CELLSTYLEMAP
  2
AcDbCellStyleMap
  3
ObjectDBX Classes
 90
     1152
280
     0
281
     0
  0
ENDSEC
  0
SECTION
  2
TABLES
  0
TABLE
  2
VPORT
  5
8
330
0
100
AcDbSymbolTable
 70
     1
  0
VPORT
  5
B0EC
330
8
100
AcDbSymbolTableRecord
100
AcDbViewportTableRecord
  2
*Active
 70
     0
 10
0.0
 20
0.0
 11
1.0
 21
1.0
 12
210.0013862637275
 22
174.1356839580888
 13
0.0
 23
0.0
 14
2.5
 24
2.5
 15
10.0
 25
10.0
 16
0.0
 26
0.0
 36
1.0
 17
0.0
 27
0.0
 37
0.0
 40
350.6855699101563
 41
1.407124681933842
 42
50.0
 43
-1370.695619172058
 44
-1370.695619172058
 50
0.0
 51
0.0
 71
    16
 72
   100
 73
     1
 74
     3
 75
     0
 76
     0
 77
     0
 78
     0
281
     0
 65
     0
110
0.0
120
0.0
130
0.0
111
1.0
121
0.0
131
0.0
112
0.0
122
1.0
132
0.0
 79
     0
146
0.0
  0
ENDTAB
  0
TABLE
  2
LTYPE
  5
5
330
0
100
AcDbSymbolTable
 70
    27
  0
LTYPE
  5
14
330
5
100
AcDbSymbolTableRecord
100
AcDbLinetypeTableRecord
  2
ByBlock
 70
     0
  3

 72
    65
 73
     0
 40
0.0
  0
LTYPE
  5
15
330
5
100
AcDbSymbolTableRecord
100
AcDbLinetypeTableRecord
  2
ByLayer
 70
     0
  3

 72
    65
 73
     0
 40
0.0
  0
LTYPE
  5
16
330
5
100
AcDbSymbolTableRecord
100
AcDbLinetypeTableRecord
  2
Continuous
 70
     0
  3
Solid line
 72
    65
 73
     0
 40
0.0
  0
LTYPE
  5
4F
330
5
100
AcDbSymbolTableRecord
100
AcDbLinetypeTableRecord
  2
AM_ISO02W050
 70
     0
  3
__ __ __ __ __ __ __ __ __ __ __ __ __ __ __
 72
    65
 73
     2
 40
7.5
 49
6.0
 74
     0
 49
-1.5
 74
     0
  0
LTYPE
  5
52
330
5
100
AcDbSymbolTableRecord
100
AcDbLinetypeTableRecord
  2
Amconstr
 70
     0
  3
_______________________
 72
    65
 73
     2
 40
9999.0
 49
9999.0
 74
     0
 49
0.0
 74
     0
  0
LTYPE
  5
64
330
5
100
AcDbSymbolTableRecord
100
AcDbLinetypeTableRecord
  2
ACISOWELD
 70
     0
  3
_ _ _ _ _
 72
    65
 73
     2
 40
2.0
 49
2.0
 74
     0
 49
-1.0
 74
     0
  0
LTYPE
  5
65
330
5
100
AcDbSymbolTableRecord
100
AcDbLinetypeTableRecord
  2
ACISOTGB
 70
     0
  3
__ . . __ . .
 72
    65
 73
     6
 40
9.0
 49
4.0
 74
     0
 49
-1.0
 74
     0
 49
1.0
 74
     0
 49
-1.0
 74
     0
 49
1.0
 74
     0
 49
-1.0
 74
     0
  0
LTYPE
  5
66
330
5
100
AcDbSymbolTableRecord
100
AcDbLinetypeTableRecord
  2
ACISOTGL
 70
     0
  3
_ _ _ _ _
 72
    65
 73
     2
 40
3.0
 49
2.0
 74
     0
 49
-1.0
 74
     0
  0
LTYPE
  5
69
330
5
100
AcDbSymbolTableRecord
100
AcDbLinetypeTableRecord
  2
CENTER
 70
     0
  3
__ . __
 72
    65
 73
     4
 40
7.0
 49
4.0
 74
     0
 49
-1.0
 74
     0
 49
1.0
 74
     0
 49
-1.0
 74
     0
  0
LTYPE
  5
A6E
330
5
100
AcDbSymbolTableRecord
100
AcDbLinetypeTableRecord
  2
PHANTOM2
 70
     0
  3
Phantom (.5x) ___ _ _ ___ _ _ ___ _ _ ___ _ _
 72
    65
 73
     6
 40
31.75
 49
15.875
 74
     0
 49
-3.174999999999999
 74
     0
 49
3.174999999999999
 74
     0
 49
-3.174999999999999
 74
     0
 49
3.174999999999999
 74
     0
 49
-3.174999999999999
 74
     0
  0
LTYPE
  5
4DED
330
5
100
AcDbSymbolTableRecord
100
AcDbLinetypeTableRecord
  2
中線
 70
     0
  3
___________________
 72
    65
 73
     2
 40
2.0
 49
1.0
 74
     0
 49
1.0
 74
     0
  0
LTYPE
  5
4DF6
330
5
100
AcDbSymbolTableRecord
100
AcDbLinetypeTableRecord
  2
細線
 70
     0
  3
___________________
 72
    65
 73
     2
 40
2.0
 49
1.0
 74
     0
 49
1.0
 74
     0
  0
LTYPE
  5
4DF7
330
5
100
AcDbSymbolTableRecord
100
AcDbLinetypeTableRecord
  2
太線
 70
     0
  3
___________________
 72
    65
 73
     2
 40
2.0
 49
1.0
 74
     0
 49
1.0
 74
     0
  0
LTYPE
  5
4EA7
330
5
100
AcDbSymbolTableRecord
100
AcDbLinetypeTableRecord
  2
文字
 70
     0
  3
_________________
 72
    65
 73
     2
 40
2.0
 49
1.0
 74
     0
 49
1.0
 74
     0
  0
LTYPE
  5
4EA9
330
5
100
AcDbSymbolTableRecord
100
AcDbLinetypeTableRecord
  2
寸法線
 70
     0
  3
________________
 72
    65
 73
     2
 40
2.0
 49
1.0
 74
     0
 49
1.0
 74
     0
  0
LTYPE
  5
4F12
330
5
100
AcDbSymbolTableRecord
100
AcDbLinetypeTableRecord
  2
ハッチング
 70
     0
  3
_________________
 72
    65
 73
     2
 40
2.0
 49
1.0
 74
     0
 49
1.0
 74
     0
  0
LTYPE
  5
5180
330
5
100
AcDbSymbolTableRecord
100
AcDbLinetypeTableRecord
  2
陰線1
 70
     0
  3
__ __ __ __
 72
    65
 73
     2
 40
4.0
 49
2.2
 74
     0
 49
-1.8
 74
     0
  0
LTYPE
  5
5182
330
5
100
AcDbSymbolTableRecord
100
AcDbLinetypeTableRecord
  2
切断線
 70
     0
  3
/\/-/\/-/\/-/\/-/\/-/\/
 72
    65
 73
     2
 40
11.0001
 49
0.0001
 74
     4
 75
   135
340
56
 46
0.04
 50
0.0
 44
0.0
 45
0.0
 49
-11.0
 74
     0
  0
LTYPE
  5
5183
330
5
100
AcDbSymbolTableRecord
100
AcDbLinetypeTableRecord
  2
想像線1
 70
     0
  3
__ __ __ _____ __ __ ____
 72
    65
 73
     6
 40
14.5
 49
6.0
 74
     0
 49
-1.5
 74
     0
 49
2.0
 74
     0
 49
-1.5
 74
     0
 49
2.0
 74
     0
 49
-1.5
 74
     0
  0
LTYPE
  5
5185
330
5
100
AcDbSymbolTableRecord
100
AcDbLinetypeTableRecord
  2
中心線1
 70
     0
  3
___ _ ___ _ ___
 72
    65
 73
     4
 40
18.0
 49
12.0
 74
     0
 49
-2.0
 74
     0
 49
2.0
 74
     0
 49
-2.0
 74
     0
  0
LTYPE
  5
5188
330
5
100
AcDbSymbolTableRecord
100
AcDbLinetypeTableRecord
  2
補助線
 70
     0
  3
______________
 72
    65
 73
     2
 40
2.0
 49
1.0
 74
     0
 49
1.0
 74
     0
  0
LTYPE
  5
6427
330
5
100
AcDbSymbolTableRecord
100
AcDbLinetypeTableRecord
  2
HIDDEN
 70
     0
  3
Hidden __ __ __ __ __ __ __ __ __ __ __ __ __ _
 72
    65
 73
     2
 40
0.375
 49
0.25
 74
     0
 49
-0.125
 74
     0
  0
LTYPE
  5
AC81
330
5
100
AcDbSymbolTableRecord
100
AcDbLinetypeTableRecord
  2
破断線
 70
     0
  3
/\/-/\/-/\/-/\/-/\/-/\/
 72
    65
 73
     2
 40
0.4401
 49
0.0001
 74
     4
 75
   136
340
AC80
 46
0.0016
 50
0.0
 44
0.0
 45
0.0
 49
-0.4400000000000001
 74
     0
  0
LTYPE
  5
AC9E
330
5
100
AcDbSymbolTableRecord
100
AcDbLinetypeTableRecord
  2
Amzigzag
 70
     0
  3
/\/-/\/-/\/-/\/-/\/-/\/
 72
    65
 73
     2
 40
11.0001
 49
0.0001
 74
     4
 75
   135
340
56
 46
0.04
 50
0.0
 44
0.0
 45
0.0
 49
-11.0
 74
     0
  0
LTYPE
  5
AF0F
330
5
100
AcDbSymbolTableRecord
100
AcDbLinetypeTableRecord
  2
genzigzag
 70
     0
  3
/\/-/\/-/\/-/\/-/\/-/\/
 72
    65
 73
     2
 40
12.0001
 49
0.0001
 74
     4
 75
   135
340
AC80
 46
2.0
 50
0.0
 44
0.0
 45
0.0
 49
-12.0
 74
     0
  0
LTYPE
  5
AF95
330
5
100
AcDbSymbolTableRecord
100
AcDbLinetypeTableRecord
  2
AM_ISO08W050
 70
     0
  3
____ . ____ . ____ . ____ . ____ . ____ . ____
 72
    65
 73
     4
 40
18.0
 49
12.0
 74
     0
 49
-1.5
 74
     0
 49
3.0
 74
     0
 49
-1.5
 74
     0
  0
LTYPE
  5
AF96
330
5
100
AcDbSymbolTableRecord
100
AcDbLinetypeTableRecord
  2
AM_ISO09W050
 70
     0
  3
_____ . . _____ . . _____ . . ____ .. ____
 72
    65
 73
     6
 40
22.5
 49
12.0
 74
     0
 49
-1.5
 74
     0
 49
3.0
 74
     0
 49
-1.5
 74
     0
 49
3.0
 74
     0
 49
-1.5
 74
     0
  0
LTYPE
  5
AF97
330
5
100
AcDbSymbolTableRecord
100
AcDbLinetypeTableRecord
  2
AM_ISO08W050x2
 70
     0
  3
__ . __ . __ . __ . __ . __
 72
    65
 73
     4
 40
9.0
 49
6.0
 74
     0
 49
-0.75
 74
     0
 49
1.5
 74
     0
 49
-0.75
 74
     0
  0
LTYPE
  5
AF98
330
5
100
AcDbSymbolTableRecord
100
AcDbLinetypeTableRecord
  2
AM_ISO02W050x2
 70
     0
  3
 _ _ _ _ _ _ _ _ _ _ _ _
 72
    65
 73
     2
 40
3.75
 49
3.0
 74
     0
 49
-0.75
 74
     0
  0
ENDTAB
  0
TABLE
  2
LAYER
  5
2
102
{ACAD_XDICTIONARY
360
3F95
102
}
330
0
100
AcDbSymbolTable
 70
    20
  0
LAYER
  5
10
102
{ACAD_XDICTIONARY
360
BAD2
102
}
330
2
100
AcDbSymbolTableRecord
100
AcDbLayerTableRecord
  2
0
 70
     0
 62
     7
  6
Continuous
370
    -3
390
F
  0
LAYER
  5
6D1
330
2
100
AcDbSymbolTableRecord
100
AcDbLayerTableRecord
  2
Defpoints
 70
     0
 62
     7
  6
Continuous
290
     0
370
    -3
390
F
  0
LAYER
  5
5F85
102
{ACAD_XDICTIONARY
360
BAD4
102
}
330
2
100
AcDbSymbolTableRecord
100
AcDbLayerTableRecord
  2
AM_0
 70
     0
 62
     7
  6
中線
370
    30
390
F
1001
AcAecLayerStandard
1000

1000

  0
LAYER
  5
AC9F
102
{ACAD_XDICTIONARY
360
BAD6
102
}
330
2
100
AcDbSymbolTableRecord
100
AcDbLayerTableRecord
  2
size
 70
     0
 62
     5
  6
Continuous
290
     0
370
    25
390
F
  0
LAYER
  5
ACA0
102
{ACAD_XDICTIONARY
360
BAD8
102
}
330
2
100
AcDbSymbolTableRecord
100
AcDbLayerTableRecord
  2
waku
 70
     0
 62
     7
  6
Continuous
370
    35
390
F
  0
LAYER
  5
ACA1
102
{ACAD_XDICTIONARY
360
BADA
102
}
330
2
100
AcDbSymbolTableRecord
100
AcDbLayerTableRecord
  2
AM_6
 70
     0
 62
     2
  6
文字
370
    13
390
F
1001
AcAecLayerStandard
1000

1000

  0
LAYER
  5
ACC8
102
{ACAD_XDICTIONARY
360
BADC
102
}
330
2
100
AcDbSymbolTableRecord
100
AcDbLayerTableRecord
  2
hyomoji
 70
     0
 62
     2
  6
Continuous
370
    13
390
F
  0
LAYER
  5
ACC9
102
{ACAD_XDICTIONARY
360
BADE
102
}
330
2
100
AcDbSymbolTableRecord
100
AcDbLayerTableRecord
  2
hyosen1
 70
     0
 62
    12
  6
Continuous
370
    25
390
F
  0
LAYER
  5
ACCA
102
{ACAD_XDICTIONARY
360
BAE0
102
}
330
2
100
AcDbSymbolTableRecord
100
AcDbLayerTableRecord
  2
hyosen2
 70
     0
 62
    12
  6
Continuous
370
    13
390
F
  0
LAYER
  5
AD60
102
{ACAD_XDICTIONARY
360
BAE2
102
}
330
2
100
AcDbSymbolTableRecord
100
AcDbLayerTableRecord
  2
AM_1
 70
     0
 62
    30
  6
太線
370
    40
390
F
1001
AcAecLayerStandard
1000

1000

  0
LAYER
  5
AD64
102
{ACAD_XDICTIONARY
360
BAE4
102
}
330
2
100
AcDbSymbolTableRecord
100
AcDbLayerTableRecord
  2
AM_2
 70
     0
 62
     1
  6
細線
370
    13
390
F
1001
AcAecLayerStandard
1000

1000

  0
LAYER
  5
AD67
102
{ACAD_XDICTIONARY
360
BAE6
102
}
330
2
100
AcDbSymbolTableRecord
100
AcDbLayerTableRecord
  2
AM_3
 70
     0
 62
     6
  6
陰線1
370
    13
390
F
1001
AcAecLayerStandard
1000

1000

  0
LAYER
  5
AD68
102
{ACAD_XDICTIONARY
360
BAE8
102
}
330
2
100
AcDbSymbolTableRecord
100
AcDbLayerTableRecord
  2
AM_5
 70
     0
 62
     3
  6
寸法線
370
    13
390
F
1001
AcAecLayerStandard
1000

1000

  0
LAYER
  5
AD69
102
{ACAD_XDICTIONARY
360
BAEA
102
}
330
2
100
AcDbSymbolTableRecord
100
AcDbLayerTableRecord
  2
AM_7
 70
     0
 62
     4
  6
中心線1
370
    13
390
F
1001
AcAecLayerStandard
1000

1000

  0
LAYER
  5
AD6A
102
{ACAD_XDICTIONARY
360
BAEC
102
}
330
2
100
AcDbSymbolTableRecord
100
AcDbLayerTableRecord
  2
AM_8
 70
     0
 62
     1
  6
ハッチング
370
    13
390
F
1001
AcAecLayerStandard
1000

1000

  0
LAYER
  5
AD6E
102
{ACAD_XDICTIONARY
360
BAEE
102
}
330
2
100
AcDbSymbolTableRecord
100
AcDbLayerTableRecord
  2
AM_10
 70
     0
 62
     7
  6
切断線
370
    13
390
F
1001
AcAecLayerStandard
1000

1000

  0
LAYER
  5
AD6F
102
{ACAD_XDICTIONARY
360
BAF0
102
}
330
2
100
AcDbSymbolTableRecord
100
AcDbLayerTableRecord
  2
AM_11
 70
     0
 62
     2
  6
想像線1
370
    13
390
F
1001
AcAecLayerStandard
1000

1000

  0
LAYER
  5
B1B6
102
{ACAD_XDICTIONARY
360
BAF2
102
}
330
2
100
AcDbSymbolTableRecord
100
AcDbLayerTableRecord
  2
AM_CL
 70
     1
 62
    -1
  6
Amconstr
370
    15
390
F
1001
AcAecLayerStandard
1000

1000

  0
LAYER
  5
B2EB
102
{ACAD_XDICTIONARY
360
BAF4
102
}
330
2
100
AcDbSymbolTableRecord
100
AcDbLayerTableRecord
  2
AM_14
 70
     0
 62
     5
  6
細線
370
     9
390
F
1001
AcAecLayerStandard
1000

1000

  0
LAYER
  5
B2EC
102
{ACAD_XDICTIONARY
360
BAF6
102
}
330
2
100
AcDbSymbolTableRecord
100
AcDbLayerTableRecord
  2
AM_15
 70
     0
 62
     6
  6
陰線1
370
     9
390
F
1001
AcAecLayerStandard
1000

1000

  0
ENDTAB
  0
TABLE
  2
STYLE
  5
3
330
0
100
AcDbSymbolTable
 70
     6
  0
STYLE
  5
11
330
3
100
AcDbSymbolTableRecord
100
AcDbTextStyleTableRecord
  2
STANDARD
 70
     0
 40
0.0
 41
0.7
 50
0.0
 71
     0
 42
3.2
  3
romans.shx
  4
extfont.shx
  0
STYLE
  5
56
330
3
100
AcDbSymbolTableRecord
100
AcDbTextStyleTableRecord
  2

 70
     1
 40
0.0
 41
1.0
 50
0.0
 71
     0
 42
2.5
  3
ltypeshp.shx
  4

  0
STYLE
  5
58
330
3
100
AcDbSymbolTableRecord
100
AcDbTextStyleTableRecord
  2
ACISOTS
 70
     0
 40
1.0
 41
1.0
 50
0.0
 71
     0
 42
2.5
  3
isocp.shx
  4
extfont.shx
  0
STYLE
  5
63
330
3
100
AcDbSymbolTableRecord
100
AcDbTextStyleTableRecord
  2
ACISOGDT
 70
     0
 40
0.0
 41
1.0
 50
0.0
 71
     0
 42
2.5
  3
amgdt.shx
  4

  0
STYLE
  5
A74
330
3
100
AcDbSymbolTableRecord
100
AcDbTextStyleTableRecord
  2
DIM
 70
     0
 40
0.0
 41
1.0
 50
0.0
 71
     0
 42
2.5
  3
monotxt.shx
  4
extfont.shx
  0
STYLE
  5
AC80
330
3
100
AcDbSymbolTableRecord
100
AcDbTextStyleTableRecord
  2

 70
     1
 40
0.0
 41
1.0
 50
0.0
 71
     0
 42
3.2
  3
genltshp.shx
  4

  0
ENDTAB
  0
TABLE
  2
VIEW
  5
6
330
0
100
AcDbSymbolTable
 70
     6
  0
VIEW
  5
AE1
330
6
100
AcDbSymbolTableRecord
100
AcDbViewTableRecord
  2
AM_VIEW1
 70
     0
 40
129.7276464542651
 10
1775.10588156276
 20
1793.121228859297
 41
148.5
 11
0.0
 21
0.0
 31
1.0
 12
0.0
 22
0.0
 32
0.0
 42
50.0
 43
-1370.695619172058
 44
-1370.695619172058
 50
0.0
 71
    16
281
     0
 72
     0
  0
VIEW
  5
AE2
330
6
100
AcDbSymbolTableRecord
100
AcDbViewTableRecord
  2
AM_VIEW2
 70
     0
 40
129.7276464542651
 10
1923.60588156276
 20
1793.121228859297
 41
148.5
 11
0.0
 21
0.0
 31
1.0
 12
0.0
 22
0.0
 32
0.0
 42
50.0
 43
-1370.695619172058
 44
-1370.695619172058
 50
0.0
 71
    16
281
     0
 72
     0
  0
VIEW
  5
AE3
330
6
100
AcDbSymbolTableRecord
100
AcDbViewTableRecord
  2
AM_VIEW3
 70
     0
 40
129.7276464542651
 10
1775.10588156276
 20
1712.848875313562
 41
148.5
 11
0.0
 21
0.0
 31
1.0
 12
0.0
 22
0.0
 32
0.0
 42
50.0
 43
-1370.695619172058
 44
-1370.695619172058
 50
0.0
 71
    16
281
     0
 72
     0
  0
VIEW
  5
AE4
330
6
100
AcDbSymbolTableRecord
100
AcDbViewTableRecord
  2
AM_VIEW4
 70
     0
 40
129.7276464542651
 10
1923.60588156276
 20
1712.848875313562
 41
148.5
 11
0.0
 21
0.0
 31
1.0
 12
0.0
 22
0.0
 32
0.0
 42
50.0
 43
-1370.695619172058
 44
-1370.695619172058
 50
0.0
 71
    16
281
     0
 72
     0
  0
VIEW
  5
AE5
330
6
100
AcDbSymbolTableRecord
100
AcDbViewTableRecord
  2
AM_VIEW5
 70
     0
 40
129.7276464542651
 10
1849.35588156276
 20
1752.985052086429
 41
148.5
 11
0.0
 21
0.0
 31
1.0
 12
0.0
 22
0.0
 32
0.0
 42
50.0
 43
-1370.695619172058
 44
-1370.695619172058
 50
0.0
 71
    16
281
     0
 72
     0
  0
VIEW
  5
AE6
330
6
100
AcDbSymbolTableRecord
100
AcDbViewTableRecord
  2
AM_VIEW6
 70
     0
 40
259.4526983556011
 10
1849.35588156276
 20
1752.985052086429
 41
296.99703
 11
0.0
 21
0.0
 31
1.0
 12
0.0
 22
0.0
 32
0.0
 42
50.0
 43
-1370.695619172058
 44
-1370.695619172058
 50
0.0
 71
    16
281
     0
 72
     0
  0
ENDTAB
  0
TABLE
  2
UCS
  5
7
330
0
100
AcDbSymbolTable
 70
     0
  0
ENDTAB
  0
TABLE
  2
APPID
  5
9
330
0
100
AcDbSymbolTable
 70
    58
  0
APPID
  5
12
330
9
100
AcDbSymbolTableRecord
100
AcDbRegAppTableRecord
  2
ACAD
 70
     0
  0
APPID
  5
30
330
9
100
AcDbSymbolTableRecord
100
AcDbRegAppTableRecord
  2
MCAD_NO_VIS
 70
     0
  0
APPID
  5
31
330
9
100
AcDbSymbolTableRecord
100
AcDbRegAppTableRecord
  2
ACAD_TEMP_GRAPHIC
 70
     0
  0
APPID
  5
44
330
9
100
AcDbSymbolTableRecord
100
AcDbRegAppTableRecord
  2
ACATTRIBSERVICES
 70
     0
  0
APPID
  5
7A1
330
9
100
AcDbSymbolTableRecord
100
AcDbRegAppTableRecord
  2
GENIUS_GENDIMSH_14
 70
     0
  0
APPID
  5
A49
330
9
100
AcDbSymbolTableRecord
100
AcDbRegAppTableRecord
  2
GENIUS_GENREC_14
 70
     0
  0
APPID
  5
A4A
330
9
100
AcDbSymbolTableRecord
100
AcDbRegAppTableRecord
  2
GENIUS_GENOBJ-N-REC_13
 70
     0
  0
APPID
  5
A4B
330
9
100
AcDbSymbolTableRecord
100
AcDbRegAppTableRecord
  2
GENIUS_GENODEF_13
 70
     0
  0
APPID
  5
A4C
330
9
100
AcDbSymbolTableRecord
100
AcDbRegAppTableRecord
  2
DCO15
 70
     0
  0
APPID
  5
ADC
330
9
100
AcDbSymbolTableRecord
100
AcDbRegAppTableRecord
  2
GENIUS_GENOLIS_13
 70
     0
  0
APPID
  5
ADD
330
9
100
AcDbSymbolTableRecord
100
AcDbRegAppTableRecord
  2
GENIUS_GENOENT_13
 70
     0
  0
APPID
  5
ADE
330
9
100
AcDbSymbolTableRecord
100
AcDbRegAppTableRecord
  2
GENIUS_GENOBJ-N-TIT_13
 70
     0
  0
APPID
  5
ADF
330
9
100
AcDbSymbolTableRecord
100
AcDbRegAppTableRecord
  2
GENIUS_GENTITLE_13
 70
     0
  0
APPID
  5
AE0
330
9
100
AcDbSymbolTableRecord
100
AcDbRegAppTableRecord
  2
GENIUS_GENOREF_13
 70
     0
  0
APPID
  5
AE7
330
9
100
AcDbSymbolTableRecord
100
AcDbRegAppTableRecord
  2
GENIUS_GENSCREG_15
 70
     0
  0
APPID
  5
AE8
330
9
100
AcDbSymbolTableRecord
100
AcDbRegAppTableRecord
  2
GENIUS_GENOBJ-N-SDF_13
 70
     0
  0
APPID
  5
FAF
330
9
100
AcDbSymbolTableRecord
100
AcDbRegAppTableRecord
  2
GENIUS_GENBLLY_14
 70
     0
  0
APPID
  5
FB0
330
9
100
AcDbSymbolTableRecord
100
AcDbRegAppTableRecord
  2
GENIUS_GENTRA_14
 70
     0
  0
APPID
  5
1285
330
9
100
AcDbSymbolTableRecord
100
AcDbRegAppTableRecord
  2
GENIUS_GENDTOL_13
 70
     0
  0
APPID
  5
142D
330
9
100
AcDbSymbolTableRecord
100
AcDbRegAppTableRecord
  2
GENIUS_GENOBJ-N-CEN_13
 70
     0
  0
APPID
  5
1AB5
330
9
100
AcDbSymbolTableRecord
100
AcDbRegAppTableRecord
  2
GENIUS_GENOBJ-N-CRS_13
 70
     0
  0
APPID
  5
1B36
330
9
100
AcDbSymbolTableRecord
100
AcDbRegAppTableRecord
  2
GENIUS_GENOBJ-N-HTC_13
 70
     0
  0
APPID
  5
1B37
330
9
100
AcDbSymbolTableRecord
100
AcDbRegAppTableRecord
  2
GENIUS_GENHATCH_13
 70
     0
  0
APPID
  5
216D
330
9
100
AcDbSymbolTableRecord
100
AcDbRegAppTableRecord
  2
GENIUS_GENOBJ-N-FIL_13
 70
     0
  0
APPID
  5
2356
330
9
100
AcDbSymbolTableRecord
100
AcDbRegAppTableRecord
  2
GEVID990412420
 70
     0
  0
APPID
  5
2357
330
9
100
AcDbSymbolTableRecord
100
AcDbRegAppTableRecord
  2
GEVDC
 70
     0
  0
APPID
  5
2358
330
9
100
AcDbSymbolTableRecord
100
AcDbRegAppTableRecord
  2
GEVCON
 70
     0
  0
APPID
  5
235B
330
9
100
AcDbSymbolTableRecord
100
AcDbRegAppTableRecord
  2
GEVRADREF
 70
     0
  0
APPID
  5
2360
330
9
100
AcDbSymbolTableRecord
100
AcDbRegAppTableRecord
  2
GENIUS_GENBH_13
 70
     0
  0
APPID
  5
2362
330
9
100
AcDbSymbolTableRecord
100
AcDbRegAppTableRecord
  2
GENIUS_GENOBJ-NBEHI-BHF_13
 70
     0
  0
APPID
  5
2364
330
9
100
AcDbSymbolTableRecord
100
AcDbRegAppTableRecord
  2
GENIUS_GENOBJ-NBEHI-BHB_13
 70
     0
  0
APPID
  5
2379
330
9
100
AcDbSymbolTableRecord
100
AcDbRegAppTableRecord
  2
GENIUS_GENOBJ-F-SCPASSM_13
 70
     0
  0
APPID
  5
3D74
330
9
100
AcDbSymbolTableRecord
100
AcDbRegAppTableRecord
  2
GENIUS_GENDIM_13
 70
     0
  0
APPID
  5
3D76
330
9
100
AcDbSymbolTableRecord
100
AcDbRegAppTableRecord
  2
GENIUS_GE3DTOL_13
 70
     0
  0
APPID
  5
3D9C
330
9
100
AcDbSymbolTableRecord
100
AcDbRegAppTableRecord
  2
AD_DRAW
 70
     0
  0
APPID
  5
3DE8
330
9
100
AcDbSymbolTableRecord
100
AcDbRegAppTableRecord
  2
ASURF_PCURVE_APPNAME
 70
     0
  0
APPID
  5
3DED
330
9
100
AcDbSymbolTableRecord
100
AcDbRegAppTableRecord
  2
AMG_3D2D_5.0
 70
     0
  0
APPID
  5
3E1B
330
9
100
AcDbSymbolTableRecord
100
AcDbRegAppTableRecord
  2
DESIGNERASSEMBLIES
 70
     0
  0
APPID
  5
3E20
330
9
100
AcDbSymbolTableRecord
100
AcDbRegAppTableRecord
  2
ACADM_DIM_EDIT
 70
     0
  0
APPID
  5
3E21
330
9
100
AcDbSymbolTableRecord
100
AcDbRegAppTableRecord
  2
AMDT_DM_ADJ
 70
     0
  0
APPID
  5
4143
330
9
100
AcDbSymbolTableRecord
100
AcDbRegAppTableRecord
  2
GENIUS_GENFIL_13
 70
     0
  0
APPID
  5
4144
330
9
100
AcDbSymbolTableRecord
100
AcDbRegAppTableRecord
  2
GENIUS_GENOBJ-N-CHA_13
 70
     0
  0
APPID
  5
4E17
330
9
100
AcDbSymbolTableRecord
100
AcDbRegAppTableRecord
  2
GEVID1008153417
 70
     0
  0
APPID
  5
4E58
330
9
100
AcDbSymbolTableRecord
100
AcDbRegAppTableRecord
  2
GEVID1008153418
 70
     0
  0
APPID
  5
4E5E
330
9
100
AcDbSymbolTableRecord
100
AcDbRegAppTableRecord
  2
GEVID1008153419
 70
     0
  0
APPID
  5
4E64
330
9
100
AcDbSymbolTableRecord
100
AcDbRegAppTableRecord
  2
GEVID1008153420
 70
     0
  0
APPID
  5
4E75
330
9
100
AcDbSymbolTableRecord
100
AcDbRegAppTableRecord
  2
GEVID1008153421
 70
     0
  0
APPID
  5
4EB7
330
9
100
AcDbSymbolTableRecord
100
AcDbRegAppTableRecord
  2
GENIUS_AMGTXT_16
 70
     0
  0
APPID
  5
7645
330
9
100
AcDbSymbolTableRecord
100
AcDbRegAppTableRecord
  2
GENIUS_GENOBJ-N-DIM_13
 70
     0
  0
APPID
  5
AAD0
330
9
100
AcDbSymbolTableRecord
100
AcDbRegAppTableRecord
  2
ACAD_DSTYLE_DIMARC_LENGTH_SYMBOL
 70
     0
  0
APPID
  5
AAD1
330
9
100
AcDbSymbolTableRecord
100
AcDbRegAppTableRecord
  2
ACAD_DSTYLE_DIMJOGGED_JOGANGLE_SYMBOL
 70
     0
  0
APPID
  5
AAFD
330
9
100
AcDbSymbolTableRecord
100
AcDbRegAppTableRecord
  2
ACAD_PSEXT
 70
     0
  0
APPID
  5
AD61
330
9
100
AcDbSymbolTableRecord
100
AcDbRegAppTableRecord
  2
AcAecLayerStandard
 70
     0
  0
APPID
  5
AEE3
330
9
100
AcDbSymbolTableRecord
100
AcDbRegAppTableRecord
  2
ACAD_EXEMPT_FROM_CAD_STANDARDS
 70
     0
  0
APPID
  5
B1BE
330
9
100
AcDbSymbolTableRecord
100
AcDbRegAppTableRecord
  2
GENIUS_GENCEN_19
 70
     0
  0
APPID
  5
B597
330
9
100
AcDbSymbolTableRecord
100
AcDbRegAppTableRecord
  2
ACAD_MLEADERVER
 70
     0
  0
APPID
  5
B6C8
330
9
100
AcDbSymbolTableRecord
100
AcDbRegAppTableRecord
  2
ACAD_DSTYLE_DIMINSPECT
 70
     0
  0
APPID
  5
B6C9
330
9
100
AcDbSymbolTableRecord
100
AcDbRegAppTableRecord
  2
ACAD_DSTYLE_DIMRADIAL_EXTENSION
 70
     0
  0
ENDTAB
  0
TABLE
  2
DIMSTYLE
  5
A
330
0
100
AcDbSymbolTable
 70
    17
100
AcDbDimStyleTable
 71
     1
340
2515
  0
DIMSTYLE
105
A76
330
A
100
AcDbSymbolTableRecord
100
AcDbDimStyleTableRecord
  2
STANDARD
 70
     0
 41
3.0
 42
1.0
 43
7.0
 44
2.0
 73
     0
 74
     0
 77
     1
140
2.799999999999999
141
0.0
143
0.0394
147
0.7
171
     4
172
     1
173
     1
176
     3
177
     3
178
     2
271
     3
272
     3
273
     8
274
     4
289
     0
340
A74
341
A66
343
A66
344
A66
  0
DIMSTYLE
105
2515
330
A
100
AcDbSymbolTableRecord
100
AcDbDimStyleTableRecord
  2
SYS
 70
     0
  4
"
 41
1.0
 42
1.0
 43
10.0
 44
1.0
 47
0.1
 48
0.1
 73
     0
 74
     0
 77
     1
 78
     8
 79
     2
140
3.5
141
0.0
143
0.0393701
146
0.71
147
1.5
172
     1
176
   256
177
   256
178
     7
271
     2
272
     2
283
     0
284
     8
340
11
371
    -1
372
    -1
1001
ACAD_DSTYLE_DIMJOGGED_JOGANGLE_SYMBOL
1070
   384
1040
0.7853981633974483
1001
ACAD_DSTYLE_DIMARC_LENGTH_SYMBOL
1070
   379
1070
     1
  0
DIMSTYLE
105
2516
102
{ACAD_REACTORS
330
BA08
102
}
330
A
100
AcDbSymbolTableRecord
100
AcDbDimStyleTableRecord
  2
SYS$3
 70
     0
  4
"
 41
2.0
 42
1.0
 43
10.0
 44
1.0
 47
0.1
 48
0.1
 73
     0
 77
     1
 78
     8
 79
     2
140
3.5
141
0.0
143
0.0393701
146
0.71
147
1.5
176
   256
177
   256
178
     2
271
     2
272
     2
283
     0
284
     8
288
     1
340
11
342
A66
371
    -1
372
    -1
1001
ACAD_DSTYLE_DIMJOGGED_JOGANGLE_SYMBOL
1070
   384
1040
0.7853981633974483
1001
ACAD_DSTYLE_DIMARC_LENGTH_SYMBOL
1070
   379
1070
     1
  0
DIMSTYLE
105
2517
330
A
100
AcDbSymbolTableRecord
100
AcDbDimStyleTableRecord
  2
SYS$4
 70
     0
  4
"
 41
2.0
 42
1.0
 43
10.0
 44
1.0
 47
0.1
 48
0.1
 73
     0
 77
     1
 78
     8
 79
     2
140
3.5
141
0.0
143
0.0393701
146
0.71
147
1.5
173
     1
176
   256
177
   256
178
     2
271
     2
272
     2
283
     0
284
     8
288
     1
340
11
344
A66
371
    -1
372
    -1
1001
ACAD_DSTYLE_DIMJOGGED_JOGANGLE_SYMBOL
1070
   384
1040
0.7853981633974483
1001
ACAD_DSTYLE_DIMARC_LENGTH_SYMBOL
1070
   379
1070
     1
  0
DIMSTYLE
105
2518
330
A
100
AcDbSymbolTableRecord
100
AcDbDimStyleTableRecord
  2
SYS$6
 70
     0
  4
"
 41
2.0
 42
1.0
 43
10.0
 44
1.0
 47
0.1
 48
0.1
 73
     0
 74
     0
 78
     8
 79
     2
140
3.5
141
0.0
143
0.0393701
146
0.71
147
1.5
172
     1
176
   256
177
   256
178
     2
271
     2
272
     2
283
     0
284
     8
340
11
341
A66
371
    -1
372
    -1
1001
ACAD_DSTYLE_DIMJOGGED_JOGANGLE_SYMBOL
1070
   384
1040
0.7853981633974483
1001
ACAD_DSTYLE_DIMARC_LENGTH_SYMBOL
1070
   379
1070
     1
  0
DIMSTYLE
105
2519
330
A
100
AcDbSymbolTableRecord
100
AcDbDimStyleTableRecord
  2
SYS$7
 70
     0
  4
"
 41
2.0
 42
1.0
 43
10.0
 44
1.0
 47
0.1
 48
0.1
 73
     0
 74
     0
 77
     1
 78
     8
 79
     2
140
5.0
141
0.0
143
0.0393701
146
0.71
147
1.5
172
     1
176
   256
177
   256
178
     2
271
     2
272
     2
283
     0
284
     8
340
11
341
A66
342
A66
371
    -1
372
    -1
1001
ACAD_DSTYLE_DIMJOGGED_JOGANGLE_SYMBOL
1070
   384
1040
0.7853981633974483
1001
ACAD_DSTYLE_DIMARC_LENGTH_SYMBOL
1070
   379
1070
     1
  0
DIMSTYLE
105
251A
330
A
100
AcDbSymbolTableRecord
100
AcDbDimStyleTableRecord
  2
SYS$SF
 70
     0
  4
"
 41
2.5
 42
1.0
 43
10.0
 44
1.0
 47
0.1
 48
0.1
 73
     0
 74
     0
 75
     1
 76
     1
 77
     1
 78
     8
 79
     2
140
3.5
141
0.0
143
0.0393701
146
0.71
147
1.5
172
     1
176
   256
177
   256
178
     2
271
     2
272
     3
283
     0
284
     8
340
11
341
6C4
342
6C4
371
    -1
372
    -1
1001
ACAD_DSTYLE_DIMJOGGED_JOGANGLE_SYMBOL
1070
   384
1040
0.7853981633974483
1001
ACAD_DSTYLE_DIMARC_LENGTH_SYMBOL
1070
   379
1070
     1
  0
DIMSTYLE
105
251B
330
A
100
AcDbSymbolTableRecord
100
AcDbDimStyleTableRecord
  2
SYS$SH
 70
     0
  4
"
 41
2.5
 42
1.0
 43
10.0
 44
1.0
 47
0.1
 48
0.1
 73
     0
 74
     0
 75
     1
 76
     1
 77
     1
 78
     8
 79
     2
140
3.5
141
0.0
143
0.0393701
144
2.0
146
0.71
147
1.5
172
     1
173
     1
176
   256
177
   256
178
     2
271
     2
272
     3
283
     0
284
     8
340
11
341
6C4
343
72
344
6C4
371
    -1
372
    -1
1001
ACAD_DSTYLE_DIMJOGGED_JOGANGLE_SYMBOL
1070
   384
1040
0.7853981633974483
1001
ACAD_DSTYLE_DIMARC_LENGTH_SYMBOL
1070
   379
1070
     1
  0
DIMSTYLE
105
2A59
330
A
100
AcDbSymbolTableRecord
100
AcDbDimStyleTableRecord
  2
SYS$2
 70
     0
  4
"
 41
1.0
 42
1.0
 43
10.0
 44
1.0
 47
0.1
 48
0.1
 73
     0
 74
     0
 77
     1
 78
     8
 79
     2
140
3.5
141
0.0
143
0.0393701
146
0.71
147
1.5
172
     1
176
   256
177
   256
178
     2
271
     2
272
     2
283
     0
284
     8
340
11
342
6C4
371
    -1
372
    -1
1001
ACAD_DSTYLE_DIMJOGGED_JOGANGLE_SYMBOL
1070
   384
1040
0.7853981633974483
1001
ACAD_DSTYLE_DIMARC_LENGTH_SYMBOL
1070
   379
1070
     1
  0
DIMSTYLE
105
2AAB
102
{ACAD_REACTORS
330
BA05
330
BA06
330
BA07
330
BA09
330
BA0A
330
BA0B
330
BA0C
330
BA0D
330
BA0E
330
BA0F
330
BA10
330
BA11
330
BA12
330
BA13
102
}
330
A
100
AcDbSymbolTableRecord
100
AcDbDimStyleTableRecord
  2
SYS$0
 70
     0
  4
"
 41
1.0
 42
1.0
 43
10.0
 44
1.0
 47
0.1
 48
0.1
 73
     0
 74
     0
 77
     1
 78
     8
 79
     2
140
3.200000000000001
141
0.0
143
0.0393701
146
0.71
147
1.5
172
     1
176
   256
177
   256
178
     2
271
     2
272
     2
283
     0
284
     8
340
11
341
A66
342
6C4
371
    -1
372
    -1
1001
ACAD_DSTYLE_DIMJOGGED_JOGANGLE_SYMBOL
1070
   384
1040
0.7853981633974483
1001
ACAD_DSTYLE_DIMARC_LENGTH_SYMBOL
1070
   379
1070
     1
  0
DIMSTYLE
105
AF99
330
A
100
AcDbSymbolTableRecord
100
AcDbDimStyleTableRecord
  2
AM_ISO
 70
     0
  4
"
 41
2.5
 42
1.0
 43
10.0
 44
1.0
 47
0.1
 48
0.1
 73
     0
 74
     0
 77
     1
 78
     8
 79
     2
140
3.5
141
0.0
143
0.0393701
146
0.71
147
1.5
172
     1
176
   256
177
   256
178
     2
271
     2
272
     3
274
     4
283
     0
284
     8
340
11
371
    -1
372
    -1
  0
DIMSTYLE
105
AF9A
330
A
100
AcDbSymbolTableRecord
100
AcDbDimStyleTableRecord
  2
AM_ISO$3
 70
     0
  4
"
 41
2.5
 42
1.0
 43
10.0
 44
1.0
 47
0.1
 48
0.1
 73
     0
 77
     1
 78
     8
 79
     2
140
3.5
141
0.0
143
0.0393701
146
0.71
147
1.5
176
   256
177
   256
178
     2
271
     2
272
     3
274
     4
283
     0
284
     8
288
     1
289
     0
340
11
371
    -1
372
    -1
  0
DIMSTYLE
105
AF9B
330
A
100
AcDbSymbolTableRecord
100
AcDbDimStyleTableRecord
  2
AM_ISO$4
 70
     0
  4
"
 41
2.5
 42
1.0
 43
10.0
 44
1.0
 47
0.1
 48
0.1
 73
     0
 77
     1
 78
     8
 79
     2
140
3.5
141
0.0
143
0.0393701
146
0.71
147
1.5
176
   256
177
   256
178
     2
271
     2
272
     3
274
     4
283
     0
284
     8
288
     1
289
     0
340
11
371
    -1
372
    -1
  0
DIMSTYLE
105
AF9C
330
A
100
AcDbSymbolTableRecord
100
AcDbDimStyleTableRecord
  2
AM_ISO$6
 70
     0
  4
"
 41
2.5
 42
1.0
 43
10.0
 44
1.0
 47
0.1
 48
0.1
 73
     0
 74
     0
 78
     8
 79
     2
140
3.5
141
0.0
143
0.0393701
146
0.71
147
1.5
172
     1
176
   256
177
   256
178
     2
271
     2
272
     3
274
     4
283
     0
284
     8
340
11
371
    -1
372
    -1
  0
DIMSTYLE
105
AF9D
330
A
100
AcDbSymbolTableRecord
100
AcDbDimStyleTableRecord
  2
AM_ISO$7
 70
     0
  4
"
 41
2.5
 42
1.0
 43
10.0
 44
1.0
 47
0.1
 48
0.1
 73
     0
 74
     0
 77
     1
 78
     8
 79
     2
140
5.0
141
0.0
143
0.0393701
146
0.71
147
1.5
172
     1
176
   256
177
   256
178
     2
271
     2
272
     3
274
     4
283
     0
284
     8
340
11
371
    -1
372
    -1
  0
DIMSTYLE
105
AF9E
330
A
100
AcDbSymbolTableRecord
100
AcDbDimStyleTableRecord
  2
AM_ISO$SF
 70
     0
  4
"
 41
2.5
 42
1.0
 43
10.0
 44
1.0
 47
0.1
 48
0.1
 73
     0
 74
     0
 75
     1
 76
     1
 77
     1
 78
     8
 79
     2
140
3.5
141
0.0
143
0.0393701
146
0.71
147
1.5
172
     1
176
   256
177
   256
178
     2
271
     2
272
     3
274
     4
283
     0
284
     8
340
11
371
    -1
372
    -1
  0
DIMSTYLE
105
AF9F
330
A
100
AcDbSymbolTableRecord
100
AcDbDimStyleTableRecord
  2
AM_ISO$SH
 70
     0
  4
"
 41
2.5
 42
1.0
 43
10.0
 44
1.0
 47
0.1
 48
0.1
 73
     0
 74
     0
 75
     1
 76
     1
 77
     1
 78
     8
 79
     2
140
3.5
141
0.0
143
0.0393701
144
2.0
146
0.71
147
1.5
172
     1
173
     1
176
   256
177
   256
178
     2
271
     2
272
     3
274
     4
283
     0
284
     8
340
11
343
72
371
    -1
372
    -1
  0
ENDTAB
  0
TABLE
  2
BLOCK_RECORD
  5
1
330
0
100
AcDbSymbolTable
 70
    22
  0
BLOCK_RECORD
  5
1F
102
{ACAD_XDICTIONARY
360
8A
102
}
330
1
100
AcDbSymbolTableRecord
100
AcDbBlockTableRecord
  2
*Model_Space
340
22
  0
BLOCK_RECORD
  5
1B
330
1
100
AcDbSymbolTableRecord
100
AcDbBlockTableRecord
  2
*Paper_Space
340
1E
  0
BLOCK_RECORD
  5
23
330
1
100
AcDbSymbolTableRecord
100
AcDbBlockTableRecord
  2
*Paper_Space0
340
26
  0
BLOCK_RECORD
  5
72
330
1
100
AcDbSymbolTableRecord
100
AcDbBlockTableRecord
  2
GENAXEH
340
0
  0
BLOCK_RECORD
  5
6C4
330
1
100
AcDbSymbolTableRecord
100
AcDbBlockTableRecord
  2
_Dot
340
0
102
{BLKREFS
331
BA25
331
BA26
331
BA31
331
BA32
331
BA3D
331
BA3E
331
BA54
331
BA55
331
BA60
331
BA61
331
BA6C
331
BA6D
331
BA78
331
BA79
331
BA84
331
BA85
331
BA90
331
BA91
331
BA9C
331
BA9D
331
BAA8
331
BAA9
331
BAB4
331
BAB5
331
BAC0
331
BAC1
331
BACC
331
BACD
102
}
  0
BLOCK_RECORD
  5
A66
330
1
100
AcDbSymbolTableRecord
100
AcDbBlockTableRecord
  2
_OPEN30
340
0
  0
BLOCK_RECORD
  5
B5F8
102
{ACAD_XDICTIONARY
360
B5F9
102
}
330
1
100
AcDbSymbolTableRecord
100
AcDbBlockTableRecord
  2
SYS図枠A3(AIS2008)
340
0
102
{BLKREFS
331
B880
102
}
  0
BLOCK_RECORD
  5
B610
330
1
100
AcDbSymbolTableRecord
100
AcDbBlockTableRecord
  2
GENDOT
340
0
102
{BLKREFS
331
BA18
331
BA49
331
BA4A
102
}
  0
BLOCK_RECORD
  5
BA1F
330
1
100
AcDbSymbolTableRecord
100
AcDbBlockTableRecord
  2
*D7
340
0
  0
BLOCK_RECORD
  5
BA2B
330
1
100
AcDbSymbolTableRecord
100
AcDbBlockTableRecord
  2
*D8
340
0
  0
BLOCK_RECORD
  5
BA37
330
1
100
AcDbSymbolTableRecord
100
AcDbBlockTableRecord
  2
*D9
340
0
  0
BLOCK_RECORD
  5
BA43
330
1
100
AcDbSymbolTableRecord
100
AcDbBlockTableRecord
  2
*D10
340
0
  0
BLOCK_RECORD
  5
BA4E
330
1
100
AcDbSymbolTableRecord
100
AcDbBlockTableRecord
  2
*D11
340
0
  0
BLOCK_RECORD
  5
BA5A
330
1
100
AcDbSymbolTableRecord
100
AcDbBlockTableRecord
  2
*D12
340
0
  0
BLOCK_RECORD
  5
BA66
330
1
100
AcDbSymbolTableRecord
100
AcDbBlockTableRecord
  2
*D13
340
0
  0
BLOCK_RECORD
  5
BA72
330
1
100
AcDbSymbolTableRecord
100
AcDbBlockTableRecord
  2
*D14
340
0
  0
BLOCK_RECORD
  5
BA7E
330
1
100
AcDbSymbolTableRecord
100
AcDbBlockTableRecord
  2
*D15
340
0
  0
BLOCK_RECORD
  5
BA8A
330
1
100
AcDbSymbolTableRecord
100
AcDbBlockTableRecord
  2
*D16
340
0
  0
BLOCK_RECORD
  5
BA96
330
1
100
AcDbSymbolTableRecord
100
AcDbBlockTableRecord
  2
*D17
340
0
  0
BLOCK_RECORD
  5
BAA2
330
1
100
AcDbSymbolTableRecord
100
AcDbBlockTableRecord
  2
*D18
340
0
  0
BLOCK_RECORD
  5
BAAE
330
1
100
AcDbSymbolTableRecord
100
AcDbBlockTableRecord
  2
*D19
340
0
  0
BLOCK_RECORD
  5
BABA
330
1
100
AcDbSymbolTableRecord
100
AcDbBlockTableRecord
  2
*D20
340
0
  0
BLOCK_RECORD
  5
BAC6
330
1
100
AcDbSymbolTableRecord
100
AcDbBlockTableRecord
  2
*D21
340
0
  0
ENDTAB
  0
ENDSEC
  0
SECTION
  2
BLOCKS
  0
BLOCK
  5
20
330
1F
100
AcDbEntity
  8
0
100
AcDbBlockBegin
  2
*Model_Space
 70
     0
 10
0.0
 20
0.0
 30
0.0
  3
*Model_Space
  1

  0
ENDBLK
  5
21
330
1F
100
AcDbEntity
  8
0
100
AcDbBlockEnd
  0
BLOCK
  5
1C
330
1B
100
AcDbEntity
 67
     1
  8
0
100
AcDbBlockBegin
  2
*Paper_Space
 70
     0
 10
0.0
 20
0.0
 30
0.0
  3
*Paper_Space
  1

  0
ENDBLK
  5
1D
330
1B
100
AcDbEntity
 67
     1
  8
0
100
AcDbBlockEnd
  0
BLOCK
  5
24
330
23
100
AcDbEntity
 67
     1
  8
0
100
AcDbBlockBegin
  2
*Paper_Space0
 70
     0
 10
0.0
 20
0.0
 30
0.0
  3
*Paper_Space0
  1

  0
ENDBLK
  5
25
330
23
100
AcDbEntity
 67
     1
  8
0
100
AcDbBlockEnd
  0
BLOCK
  5
74
330
72
100
AcDbEntity
  8
0
100
AcDbBlockBegin
  2
GENAXEH
 70
     0
 10
0.0
 20
0.0
 30
0.0
  3
GENAXEH
  1

  0
LINE
  5
73
330
72
100
AcDbEntity
  8
0
100
AcDbLine
 10
-1.0
 20
0.0
 30
0.0
 11
1.0
 21
0.0
 31
0.0
  0
ENDBLK
  5
75
330
72
100
AcDbEntity
  8
0
100
AcDbBlockEnd
  0
BLOCK
  5
6C7
330
6C4
100
AcDbEntity
  8
0
100
AcDbBlockBegin
  2
_Dot
 70
     0
 10
0.0
 20
0.0
 30
0.0
  3
_Dot
  1

  0
LWPOLYLINE
  5
6C5
330
6C4
100
AcDbEntity
  8
0
  6
ByBlock
 62
     0
100
AcDbPolyline
 90
        2
 70
     1
 43
0.5
 10
-0.25
 20
0.0
 42
1.0
 10
0.25
 20
0.0
 42
1.0
  0
LINE
  5
6C6
330
6C4
100
AcDbEntity
  8
0
  6
ByBlock
 62
     0
370
    -2
100
AcDbLine
 10
-0.5
 20
0.0
 30
0.0
 11
-1.0
 21
0.0
 31
0.0
  0
ENDBLK
  5
6C8
330
6C4
100
AcDbEntity
  8
0
100
AcDbBlockEnd
  0
BLOCK
  5
A6A
330
A66
100
AcDbEntity
  8
0
100
AcDbBlockBegin
  2
_OPEN30
 70
     0
 10
0.0
 20
0.0
 30
0.0
  3
_OPEN30
  1

  0
LINE
  5
A67
330
A66
100
AcDbEntity
  8
0
  6
ByBlock
 62
     0
100
AcDbLine
 10
-1.0
 20
0.26794919
 30
0.0
 11
0.0
 21
0.0
 31
0.0
  0
LINE
  5
A68
330
A66
100
AcDbEntity
  8
0
  6
ByBlock
 62
     0
100
AcDbLine
 10
0.0
 20
0.0
 30
0.0
 11
-1.0
 21
-0.26794919
 31
0.0
  0
LINE
  5
A69
330
A66
100
AcDbEntity
  8
0
  6
ByBlock
 62
     0
100
AcDbLine
 10
0.0
 20
0.0
 30
0.0
 11
-1.0
 21
0.0
 31
0.0
  0
ENDBLK
  5
A6B
330
A66
100
AcDbEntity
  8
0
100
AcDbBlockEnd
  0
BLOCK
  5
B5FB
330
B5F8
100
AcDbEntity
  8
0
100
AcDbBlockBegin
  2
SYS図枠A3(AIS2008)
 70
     0
 10
0.0
 20
0.0
 30
0.0
  3
SYS図枠A3(AIS2008)
  1

  0
TEXT
  5
B5FC
330
B5F8
100
AcDbEntity
  8
AM_6
 60
     1
100
AcDbText
 10
408.4999999999999
 20
8.5
 30
0.0
 40
2.5
  1
!GENTITLE-INSERT
100
AcDbText
  0
TEXT
  5
B5FD
330
B5F8
100
AcDbEntity
  8
AM_6
 60
     1
100
AcDbText
 10
0.0
 20
0.0
 30
0.0
 40
2.5
  1
!GENTITLE-LL
100
AcDbText
  0
TEXT
  5
B5FE
330
B5F8
100
AcDbEntity
  8
AM_6
 60
     1
100
AcDbText
 10
420.0
 20
297.0
 30
0.0
 40
2.5
  1
!GENTITLE-RU
100
AcDbText
  0
TEXT
  5
B5FF
330
B5F8
100
AcDbEntity
  8
AM_6
 60
     1
100
AcDbText
 10
420.0
 20
297.0
 30
0.0
 40
2.5
  1
!GENTITLE-MAX
100
AcDbText
  0
LINE
  5
B600
330
B5F8
100
AcDbEntity
  8
size
100
AcDbLine
 10
0.0
 20
0.0
 30
0.0
 11
420.0
 21
0.0
 31
0.0
1001
GENIUS_GENREC_14
1002
{
1000
PYDIR
1011
0.0000000000000178
1021
297.0
1031
0.0
1002
}
1002
{
1000
PXDIR
1011
420.0
1021
0.0
1031
0.0
1002
}
1002
{
1000
PORI
1011
0.0
1021
0.0
1031
0.0
1002
}
1002
{
1000
PINS
1011
210.0
1021
148.4999999999999
1031
0.0
1002
}
1002
{
1000
HVAL
1000
297
1002
}
1002
{
1000
H
1070
     2
1002
}
1002
{
1000
WVAL
1000
420
1002
}
1002
{
1000
W
1070
     2
1002
}
1002
{
1000
C
1070
     4
1002
}
1001
GENIUS_GENOBJ-N-REC_13
1002
{
1000
OWNER
1000
GEN
1002
}
1001
GENIUS_GENODEF_13
1002
{
1000
HIER
1070
     0
1002
}
1002
{
1000
MANEDIT
1070
     0
1002
}
1002
{
1000
NOSEL
1070
     0
1002
}
1002
{
1000
BEHIND
1070
     0
1002
}
1002
{
1000
OTHER
1070
     0
1002
}
1002
{
1000
REACTOR
1002
}
  0
LINE
  5
B601
330
B5F8
100
AcDbEntity
  8
size
100
AcDbLine
 10
420.0
 20
0.0
 30
0.0
 11
420.0
 21
297.0
 31
0.0
1001
GENIUS_GENREC_14
1002
{
1000
PYDIR
1011
0.0000000000000178
1021
297.0
1031
0.0
1002
}
1002
{
1000
PXDIR
1011
420.0
1021
0.0
1031
0.0
1002
}
1002
{
1000
PORI
1011
0.0
1021
0.0
1031
0.0
1002
}
1002
{
1000
PINS
1011
210.0
1021
148.4999999999999
1031
0.0
1002
}
1002
{
1000
HVAL
1000
297
1002
}
1002
{
1000
H
1070
     2
1002
}
1002
{
1000
WVAL
1000
420
1002
}
1002
{
1000
W
1070
     2
1002
}
1002
{
1000
C
1070
     4
1002
}
1001
GENIUS_GENOBJ-N-REC_13
1002
{
1000
OWNER
1000
GEN
1002
}
1001
GENIUS_GENODEF_13
1002
{
1000
HIER
1070
     0
1002
}
1002
{
1000
MANEDIT
1070
     0
1002
}
1002
{
1000
NOSEL
1070
     0
1002
}
1002
{
1000
BEHIND
1070
     0
1002
}
1002
{
1000
OTHER
1070
     0
1002
}
1002
{
1000
REACTOR
1002
}
  0
LINE
  5
B602
330
B5F8
100
AcDbEntity
  8
size
100
AcDbLine
 10
420.0
 20
297.0
 30
0.0
 11
0.0000000000000275
 21
297.0
 31
0.0
1001
GENIUS_GENREC_14
1002
{
1000
PYDIR
1011
0.0000000000000178
1021
297.0
1031
0.0
1002
}
1002
{
1000
PXDIR
1011
420.0
1021
0.0
1031
0.0
1002
}
1002
{
1000
PORI
1011
0.0
1021
0.0
1031
0.0
1002
}
1002
{
1000
PINS
1011
210.0
1021
148.4999999999999
1031
0.0
1002
}
1002
{
1000
HVAL
1000
297
1002
}
1002
{
1000
H
1070
     2
1002
}
1002
{
1000
WVAL
1000
420
1002
}
1002
{
1000
W
1070
     2
1002
}
1002
{
1000
C
1070
     4
1002
}
1001
GENIUS_GENOBJ-N-REC_13
1002
{
1000
OWNER
1000
GEN
1002
}
1001
GENIUS_GENODEF_13
1002
{
1000
HIER
1070
     0
1002
}
1002
{
1000
MANEDIT
1070
     0
1002
}
1002
{
1000
NOSEL
1070
     0
1002
}
1002
{
1000
BEHIND
1070
     0
1002
}
1002
{
1000
OTHER
1070
     0
1002
}
1002
{
1000
REACTOR
1002
}
  0
LINE
  5
B603
330
B5F8
100
AcDbEntity
  8
size
100
AcDbLine
 10
0.0000000000000275
 20
297.0
 30
0.0
 11
0.0
 21
0.0
 31
0.0
1001
GENIUS_GENREC_14
1002
{
1000
PYDIR
1011
0.0000000000000178
1021
297.0
1031
0.0
1002
}
1002
{
1000
PXDIR
1011
420.0
1021
0.0
1031
0.0
1002
}
1002
{
1000
PORI
1011
0.0
1021
0.0
1031
0.0
1002
}
1002
{
1000
PINS
1011
210.0
1021
148.4999999999999
1031
0.0
1002
}
1002
{
1000
HVAL
1000
297
1002
}
1002
{
1000
H
1070
     2
1002
}
1002
{
1000
WVAL
1000
420
1002
}
1002
{
1000
W
1070
     2
1002
}
1002
{
1000
C
1070
     4
1002
}
1001
GENIUS_GENOBJ-N-REC_13
1002
{
1000
OWNER
1000
GEN
1002
}
1001
GENIUS_GENODEF_13
1002
{
1000
HIER
1070
     0
1002
}
1002
{
1000
MANEDIT
1070
     0
1002
}
1002
{
1000
NOSEL
1070
     0
1002
}
1002
{
1000
BEHIND
1070
     0
1002
}
1002
{
1000
OTHER
1070
     0
1002
}
1002
{
1000
REACTOR
1002
}
  0
LINE
  5
B604
330
B5F8
100
AcDbEntity
  8
waku
100
AcDbLine
 10
408.4999999999999
 20
8.5
 30
0.0
 11
408.4999999999999
 21
288.5
 31
0.0
1001
GENIUS_GENREC_14
1002
{
1000
PYDIR
1011
0.0000000000000178
1021
297.0
1031
0.0
1002
}
1002
{
1000
PXDIR
1011
420.0
1021
0.0
1031
0.0
1002
}
1002
{
1000
PORI
1011
0.0
1021
0.0
1031
0.0
1002
}
1002
{
1000
PINS
1011
210.0
1021
148.4999999999999
1031
0.0
1002
}
1002
{
1000
HVAL
1000
297
1002
}
1002
{
1000
H
1070
     2
1002
}
1002
{
1000
WVAL
1000
420
1002
}
1002
{
1000
W
1070
     2
1002
}
1002
{
1000
C
1070
     4
1002
}
1001
GENIUS_GENOBJ-N-REC_13
1002
{
1000
OWNER
1000
GEN
1002
}
1001
GENIUS_GENODEF_13
1002
{
1000
HIER
1070
     0
1002
}
1002
{
1000
MANEDIT
1070
     0
1002
}
1002
{
1000
NOSEL
1070
     0
1002
}
1002
{
1000
BEHIND
1070
     0
1002
}
1002
{
1000
OTHER
1070
     0
1002
}
1002
{
1000
REACTOR
1002
}
  0
LINE
  5
B605
330
B5F8
100
AcDbEntity
  8
waku
100
AcDbLine
 10
11.50000000000002
 20
288.5
 30
0.0
 11
11.5
 21
8.5
 31
0.0
1001
GENIUS_GENREC_14
1002
{
1000
PYDIR
1011
0.0000000000000178
1021
297.0
1031
0.0
1002
}
1002
{
1000
PXDIR
1011
420.0
1021
0.0
1031
0.0
1002
}
1002
{
1000
PORI
1011
0.0
1021
0.0
1031
0.0
1002
}
1002
{
1000
PINS
1011
210.0
1021
148.4999999999999
1031
0.0
1002
}
1002
{
1000
HVAL
1000
297
1002
}
1002
{
1000
H
1070
     2
1002
}
1002
{
1000
WVAL
1000
420
1002
}
1002
{
1000
W
1070
     2
1002
}
1002
{
1000
C
1070
     4
1002
}
1001
GENIUS_GENOBJ-N-REC_13
1002
{
1000
OWNER
1000
GEN
1002
}
1001
GENIUS_GENODEF_13
1002
{
1000
HIER
1070
     0
1002
}
1002
{
1000
MANEDIT
1070
     0
1002
}
1002
{
1000
NOSEL
1070
     0
1002
}
1002
{
1000
BEHIND
1070
     0
1002
}
1002
{
1000
OTHER
1070
     0
1002
}
1002
{
1000
REACTOR
1002
}
  0
LINE
  5
B606
330
B5F8
100
AcDbEntity
  8
waku
100
AcDbLine
 10
408.4999999999999
 20
288.5
 30
0.0
 11
11.50000000000002
 21
288.5
 31
0.0
1001
GENIUS_GENREC_14
1002
{
1000
PYDIR
1011
0.0000000000000178
1021
297.0
1031
0.0
1002
}
1002
{
1000
PXDIR
1011
420.0
1021
0.0
1031
0.0
1002
}
1002
{
1000
PORI
1011
0.0
1021
0.0
1031
0.0
1002
}
1002
{
1000
PINS
1011
210.0
1021
148.4999999999999
1031
0.0
1002
}
1002
{
1000
HVAL
1000
297
1002
}
1002
{
1000
H
1070
     2
1002
}
1002
{
1000
WVAL
1000
420
1002
}
1002
{
1000
W
1070
     2
1002
}
1002
{
1000
C
1070
     4
1002
}
1001
GENIUS_GENOBJ-N-REC_13
1002
{
1000
OWNER
1000
GEN
1002
}
1001
GENIUS_GENODEF_13
1002
{
1000
HIER
1070
     0
1002
}
1002
{
1000
MANEDIT
1070
     0
1002
}
1002
{
1000
NOSEL
1070
     0
1002
}
1002
{
1000
BEHIND
1070
     0
1002
}
1002
{
1000
OTHER
1070
     0
1002
}
1002
{
1000
REACTOR
1002
}
  0
TEXT
  5
B607
330
B5F8
100
AcDbEntity
  8
AM_6
 60
     1
100
AcDbText
 10
0.0
 20
0.0
 30
0.0
 40
2.5
  1
!GENTITLE-LL
100
AcDbText
  0
TEXT
  5
B608
330
B5F8
100
AcDbEntity
  8
AM_6
 60
     1
100
AcDbText
 10
408.4999999999999
 20
288.5
 30
0.0
 40
2.5
  1
!GENTITLE-RU
100
AcDbText
  0
TEXT
  5
B609
330
B5F8
100
AcDbEntity
  8
AM_6
 60
     1
100
AcDbText
 10
420.0
 20
297.0
 30
0.0
 40
2.5
  1
!GENTITLE-MAX
100
AcDbText
  0
TEXT
  5
B60A
330
B5F8
100
AcDbEntity
  8
AM_6
 60
     1
100
AcDbText
 10
408.4999999999999
 20
8.5
 30
0.0
 40
2.5
  1
!GENTITLE-INSERT
100
AcDbText
  0
LINE
  5
B60B
330
B5F8
100
AcDbEntity
  8
waku
100
AcDbLine
 10
11.5
 20
8.5
 30
0.0
 11
408.4999999999999
 21
8.5
 31
0.0
  0
LINE
  5
B60C
330
B5F8
100
AcDbEntity
  8
waku
100
AcDbLine
 10
246.499999999999
 20
33.49999999999332
 30
0.0
 11
408.4999999999999
 21
33.49999999999981
 31
0.0
  0
LINE
  5
B60D
330
B5F8
100
AcDbEntity
  8
waku
100
AcDbLine
 10
246.4999999999983
 20
8.5
 30
0.0
 11
246.4999999999974
 21
33.49999999999332
 31
0.0
  0
MTEXT
  5
B60E
330
B5F8
100
AcDbEntity
  8
AM_6
100
AcDbMText
 10
316.9999999999996
 20
25.74999999999989
 30
0.0
 40
4.0
 41
9.015095283510618
 71
     5
 72
     5
  1
A3
 73
     1
 44
1.0
1001
ACAD
1000
MTEXTBEGIN
1070
    73
1070
     1
1070
    44
1040
1.0
1070
    74
1070
     0
1000
MTEXTEND
  0
ENDBLK
  5
B60F
330
B5F8
100
AcDbEntity
  8
0
100
AcDbBlockEnd
  0
BLOCK
  5
B611
330
B610
100
AcDbEntity
  8
0
100
AcDbBlockBegin
  2
GENDOT
 70
     0
 10
0.0
 20
0.0
 30
0.0
  3
GENDOT
  1

  0
LINE
  5
B612
330
B610
100
AcDbEntity
  8
0
100
AcDbLine
 10
0.0
 20
0.0
 30
0.0
 11
-1.0
 21
0.0
 31
0.0
  0
LWPOLYLINE
  5
B613
330
B610
100
AcDbEntity
  8
0
100
AcDbPolyline
 90
        2
 70
     1
 43
0.25
 10
-0.125
 20
0.0
 42
1.0
 10
0.125
 20
0.0
 42
1.0
  0
ENDBLK
  5
B614
330
B610
100
AcDbEntity
  8
0
100
AcDbBlockEnd
  0
BLOCK
  5
BA20
330
BA1F
100
AcDbEntity
  8
0
100
AcDbBlockBegin
  2
*D7
 70
     1
 10
0.0
 20
0.0
 30
0.0
  3
*D7
  1

  0
LINE
  5
BA22
330
BA1F
100
AcDbEntity
  8
AM_5
100
AcDbLine
 10
40.01924343831518
 20
62.88029156720303
 30
0.0
 11
40.01924343831518
 21
36.38029056720307
 31
0.0
  0
LINE
  5
BA23
330
BA1F
100
AcDbEntity
  8
AM_5
100
AcDbLine
 10
128.0192414383152
 20
62.88029156720303
 30
0.0
 11
128.0192414383152
 21
36.38029056720307
 31
0.0
  0
LINE
  5
BA24
330
BA1F
100
AcDbEntity
  8
AM_5
100
AcDbLine
 10
41.01924343831519
 20
37.38029056720307
 30
0.0
 11
127.0192414383152
 21
37.38029056720307
 31
0.0
  0
INSERT
  5
BA25
330
BA1F
100
AcDbEntity
  8
AM_5
100
AcDbBlockReference
  2
_Dot
 10
40.01924343831518
 20
37.38029056720307
 30
0.0
 50
180.0
  0
INSERT
  5
BA26
330
BA1F
100
AcDbEntity
  8
AM_5
100
AcDbBlockReference
  2
_Dot
 10
128.0192414383152
 20
37.38029056720307
 30
0.0
  0
MTEXT
  5
BA27
330
BA1F
100
AcDbEntity
  8
AM_5
 62
     2
100
AcDbMText
 10
84.01924243831519
 20
40.48029056720307
 30
0.0
 40
3.200000000000001
 41
0.0
 71
     5
 72
     1
  1
B
 73
     1
 44
1.0
1001
ACAD
1000
MTEXTBEGIN
1070
    73
1070
     1
1070
    44
1040
1.0
1070
    74
1070
     0
1000
MTEXTEND
  0
POINT
  5
BA28
330
BA1F
100
AcDbEntity
  8
Defpoints
 62
     0
100
AcDbPoint
 10
40.01924343831518
 20
63.88029156720303
 30
0.0
  0
POINT
  5
BA29
330
BA1F
100
AcDbEntity
  8
Defpoints
 62
     0
100
AcDbPoint
 10
128.0192414383152
 20
63.88029156720303
 30
0.0
  0
POINT
  5
BA2A
330
BA1F
100
AcDbEntity
  8
Defpoints
 62
     0
100
AcDbPoint
 10
128.0192414383152
 20
37.38029056720307
 30
0.0
  0
ENDBLK
  5
BA21
330
BA1F
100
AcDbEntity
  8
0
100
AcDbBlockEnd
  0
BLOCK
  5
BA2C
330
BA2B
100
AcDbEntity
  8
0
100
AcDbBlockBegin
  2
*D8
 70
     1
 10
0.0
 20
0.0
 30
0.0
  3
*D8
  1

  0
LINE
  5
BA2E
330
BA2B
100
AcDbEntity
  8
AM_5
100
AcDbLine
 10
28.51924343831519
 20
57.88029156720303
 30
0.0
 11
28.51924343831518
 21
26.38029056720324
 31
0.0
  0
LINE
  5
BA2F
330
BA2B
100
AcDbEntity
  8
AM_5
100
AcDbLine
 10
138.5192414383152
 20
57.88029156720303
 30
0.0
 11
138.5192414383152
 21
26.38029056720324
 31
0.0
  0
LINE
  5
BA30
330
BA2B
100
AcDbEntity
  8
AM_5
100
AcDbLine
 10
29.51924343831518
 20
27.38029056720324
 30
0.0
 11
137.5192414383152
 21
27.38029056720324
 31
0.0
  0
INSERT
  5
BA31
330
BA2B
100
AcDbEntity
  8
AM_5
100
AcDbBlockReference
  2
_Dot
 10
28.51924343831518
 20
27.38029056720324
 30
0.0
 50
180.0
  0
INSERT
  5
BA32
330
BA2B
100
AcDbEntity
  8
AM_5
100
AcDbBlockReference
  2
_Dot
 10
138.5192414383152
 20
27.38029056720324
 30
0.0
  0
MTEXT
  5
BA33
330
BA2B
100
AcDbEntity
  8
AM_5
 62
     2
100
AcDbMText
 10
83.51924243831518
 20
30.48029056720324
 30
0.0
 40
3.200000000000001
 41
0.0
 71
     5
 72
     1
  1
A
 73
     1
 44
1.0
1001
ACAD
1000
MTEXTBEGIN
1070
    73
1070
     1
1070
    44
1040
1.0
1070
    74
1070
     0
1000
MTEXTEND
  0
POINT
  5
BA34
330
BA2B
100
AcDbEntity
  8
Defpoints
 62
     0
100
AcDbPoint
 10
28.51924343831519
 20
58.88029156720303
 30
0.0
  0
POINT
  5
BA35
330
BA2B
100
AcDbEntity
  8
Defpoints
 62
     0
100
AcDbPoint
 10
138.5192414383152
 20
58.88029156720303
 30
0.0
  0
POINT
  5
BA36
330
BA2B
100
AcDbEntity
  8
Defpoints
 62
     0
100
AcDbPoint
 10
138.5192414383152
 20
27.38029056720324
 30
0.0
  0
ENDBLK
  5
BA2D
330
BA2B
100
AcDbEntity
  8
0
100
AcDbBlockEnd
  0
BLOCK
  5
BA38
330
BA37
100
AcDbEntity
  8
0
100
AcDbBlockBegin
  2
*D9
 70
     1
 10
0.0
 20
0.0
 30
0.0
  3
*D9
  1

  0
LINE
  5
BA3A
330
BA37
100
AcDbEntity
  8
AM_5
100
AcDbLine
 10
90.26924543831517
 20
90.38029056720302
 30
0.0
 11
151.5192424383152
 21
90.38029056720302
 31
0.0
  0
LINE
  5
BA3B
330
BA37
100
AcDbEntity
  8
AM_5
100
AcDbLine
 10
88.51924543831518
 20
49.38029156720303
 30
0.0
 11
151.5192424383152
 21
49.380291567203
 31
0.0
  0
LINE
  5
BA3C
330
BA37
100
AcDbEntity
  8
AM_5
100
AcDbLine
 10
150.5192424383152
 20
89.38029056720301
 30
0.0
 11
150.5192424383151
 21
50.38029156720301
 31
0.0
  0
INSERT
  5
BA3D
330
BA37
100
AcDbEntity
  8
AM_5
100
AcDbBlockReference
  2
_Dot
 10
150.5192424383152
 20
90.38029056720302
 30
0.0
 50
90.0
  0
INSERT
  5
BA3E
330
BA37
100
AcDbEntity
  8
AM_5
100
AcDbBlockReference
  2
_Dot
 10
150.5192424383151
 20
49.380291567203
 30
0.0
 50
270.0
  0
MTEXT
  5
BA3F
330
BA37
100
AcDbEntity
  8
AM_5
 62
     2
100
AcDbMText
 10
147.4192424383152
 20
69.88029106720303
 30
0.0
 40
3.200000000000001
 41
0.0
 71
     5
 72
     1
  1
L
 11
0.0000000000000001
 21
1.0
 31
0.0
 73
     1
 44
1.0
1001
ACAD
1000
MTEXTBEGIN
1070
    73
1070
     1
1070
    44
1040
1.0
1070
    74
1070
     0
1000
MTEXTEND
  0
POINT
  5
BA40
330
BA37
100
AcDbEntity
  8
Defpoints
 62
     0
100
AcDbPoint
 10
89.26924543831518
 20
90.38029056720302
 30
0.0
  0
POINT
  5
BA41
330
BA37
100
AcDbEntity
  8
Defpoints
 62
     0
100
AcDbPoint
 10
87.51924543831519
 20
49.38029156720303
 30
0.0
  0
POINT
  5
BA42
330
BA37
100
AcDbEntity
  8
Defpoints
 62
     0
100
AcDbPoint
 10
150.5192424383151
 20
49.380291567203
 30
0.0
  0
ENDBLK
  5
BA39
330
BA37
100
AcDbEntity
  8
0
100
AcDbBlockEnd
  0
BLOCK
  5
BA44
330
BA43
100
AcDbEntity
  8
0
100
AcDbBlockBegin
  2
*D10
 70
     1
 10
0.0
 20
0.0
 30
0.0
  3
*D10
  1

  0
LINE
  5
BA46
330
BA43
100
AcDbEntity
  8
AM_5
100
AcDbLine
 10
41.50862426172537
 20
69.27611323942705
 30
0.0
 11
38.52986261490535
 21
74.48446989497904
 31
0.0
  0
LINE
  5
BA47
330
BA43
100
AcDbEntity
  8
AM_5
100
AcDbLine
 10
37.53694206596532
 20
76.22058878016307
 30
0.0
 11
26.71330851555526
 21
95.14568266933526
 31
0.0
  0
LINE
  5
BA48
330
BA43
100
AcDbEntity
  8
AM_5
100
AcDbLine
 10
26.71330851555526
 20
95.14568266933526
 30
0.0
 11
21.94664184888859
 21
95.14568266933526
 31
0.0
  0
INSERT
  5
BA49
330
BA43
100
AcDbEntity
  8
AM_5
100
AcDbBlockReference
  2
GENDOT
 10
42.5015448106654
 20
67.53999435424302
 30
0.0
 41
2.0
 42
2.0
 43
2.0
 50
299.7660886637252
  0
INSERT
  5
BA4A
330
BA43
100
AcDbEntity
  8
AM_5
100
AcDbBlockReference
  2
GENDOT
 10
37.53694206596532
 20
76.22058878016307
 30
0.0
 41
2.0
 42
2.0
 43
2.0
 50
119.7660886637251
  0
MTEXT
  5
BA4B
330
BA43
100
AcDbEntity
  8
AM_5
 62
     2
100
AcDbMText
 10
23.57997518222189
 20
98.39568266933525
 30
0.0
 40
3.5
 41
0.0
 71
     5
 72
     1
  1
%%cJ
 73
     1
 44
1.0
1001
ACAD
1000
MTEXTBEGIN
1070
    73
1070
     1
1070
    44
1040
1.0
1070
    74
1070
     0
1000
MTEXTEND
  0
POINT
  5
BA4C
330
BA43
100
AcDbEntity
  8
Defpoints
 62
     0
100
AcDbPoint
 10
37.53694206596532
 20
76.22058878016307
 30
0.0
  0
POINT
  5
BA4D
330
BA43
100
AcDbEntity
  8
Defpoints
 62
     0
100
AcDbPoint
 10
42.5015448106654
 20
67.53999435424302
 30
0.0
  0
ENDBLK
  5
BA45
330
BA43
100
AcDbEntity
  8
0
100
AcDbBlockEnd
  0
BLOCK
  5
BA4F
330
BA4E
100
AcDbEntity
  8
0
100
AcDbBlockBegin
  2
*D11
 70
     1
 10
0.0
 20
0.0
 30
0.0
  3
*D11
  1

  0
LINE
  5
BA51
330
BA4E
100
AcDbEntity
  8
AM_5
100
AcDbLine
 10
168.2001208910887
 20
162.8580724666844
 30
0.0
 11
146.7001188910887
 21
162.8580724666844
 31
0.0
  0
LINE
  5
BA52
330
BA4E
100
AcDbEntity
  8
AM_5
100
AcDbLine
 10
168.2001208910887
 20
112.8580744666844
 30
0.0
 11
146.7001188910887
 21
112.8580744666844
 31
0.0
  0
LINE
  5
BA53
330
BA4E
100
AcDbEntity
  8
AM_5
100
AcDbLine
 10
147.7001188910887
 20
161.8580724666844
 30
0.0
 11
147.7001188910887
 21
113.8580744666844
 31
0.0
  0
INSERT
  5
BA54
330
BA4E
100
AcDbEntity
  8
AM_5
100
AcDbBlockReference
  2
_Dot
 10
147.7001188910887
 20
162.8580724666844
 30
0.0
 50
90.0
  0
INSERT
  5
BA55
330
BA4E
100
AcDbEntity
  8
AM_5
100
AcDbBlockReference
  2
_Dot
 10
147.7001188910887
 20
112.8580744666844
 30
0.0
 50
270.0
  0
MTEXT
  5
BA56
330
BA4E
100
AcDbEntity
  8
AM_5
 62
     2
100
AcDbMText
 10
144.6001188910887
 20
137.8580734666844
 30
0.0
 40
3.200000000000001
 41
0.0
 71
     5
 72
     1
  1
%%cD
 11
0.0000000000000001
 21
1.0
 31
0.0
 73
     1
 44
1.0
1001
ACAD
1000
MTEXTBEGIN
1070
    73
1070
     1
1070
    44
1040
1.0
1070
    74
1070
     0
1000
MTEXTEND
  0
POINT
  5
BA57
330
BA4E
100
AcDbEntity
  8
Defpoints
 62
     0
100
AcDbPoint
 10
169.2001208910887
 20
162.8580724666844
 30
0.0
  0
POINT
  5
BA58
330
BA4E
100
AcDbEntity
  8
Defpoints
 62
     0
100
AcDbPoint
 10
169.2001208910887
 20
112.8580744666844
 30
0.0
  0
POINT
  5
BA59
330
BA4E
100
AcDbEntity
  8
Defpoints
 62
     0
100
AcDbPoint
 10
147.7001188910887
 20
112.8580744666844
 30
0.0
  0
ENDBLK
  5
BA50
330
BA4E
100
AcDbEntity
  8
0
100
AcDbBlockEnd
  0
BLOCK
  5
BA5B
330
BA5A
100
AcDbEntity
  8
0
100
AcDbBlockBegin
  2
*D12
 70
     1
 10
0.0
 20
0.0
 30
0.0
  3
*D12
  1

  0
LINE
  5
BA5D
330
BA5A
100
AcDbEntity
  8
AM_5
100
AcDbLine
 10
189.7001188910887
 20
166.8580674666845
 30
0.0
 11
213.7001198910887
 21
166.8580674666844
 31
0.0
  0
LINE
  5
BA5E
330
BA5A
100
AcDbEntity
  8
AM_5
100
AcDbLine
 10
188.2001188910887
 20
112.8580744666844
 30
0.0
 11
213.7001198910887
 21
112.8580744666844
 31
0.0
  0
LINE
  5
BA5F
330
BA5A
100
AcDbEntity
  8
AM_5
100
AcDbLine
 10
212.7001198910887
 20
165.8580674666844
 30
0.0
 11
212.7001198910887
 21
113.8580744666844
 31
0.0
  0
INSERT
  5
BA60
330
BA5A
100
AcDbEntity
  8
AM_5
100
AcDbBlockReference
  2
_Dot
 10
212.7001198910887
 20
166.8580674666844
 30
0.0
 50
90.0
  0
INSERT
  5
BA61
330
BA5A
100
AcDbEntity
  8
AM_5
100
AcDbBlockReference
  2
_Dot
 10
212.7001198910887
 20
112.8580744666844
 30
0.0
 50
270.0
  0
MTEXT
  5
BA62
330
BA5A
100
AcDbEntity
  8
AM_5
 62
     2
100
AcDbMText
 10
209.6001198910887
 20
139.8580709666845
 30
0.0
 40
3.200000000000001
 41
0.0
 71
     5
 72
     1
  1
F
 11
0.0000000000000001
 21
1.0
 31
0.0
 73
     1
 44
1.0
1001
ACAD
1000
MTEXTBEGIN
1070
    73
1070
     1
1070
    44
1040
1.0
1070
    74
1070
     0
1000
MTEXTEND
  0
POINT
  5
BA63
330
BA5A
100
AcDbEntity
  8
Defpoints
 62
     0
100
AcDbPoint
 10
188.7001188910887
 20
166.8580674666845
 30
0.0
  0
POINT
  5
BA64
330
BA5A
100
AcDbEntity
  8
Defpoints
 62
     0
100
AcDbPoint
 10
187.2001188910887
 20
112.8580744666844
 30
0.0
  0
POINT
  5
BA65
330
BA5A
100
AcDbEntity
  8
Defpoints
 62
     0
100
AcDbPoint
 10
212.7001198910887
 20
112.8580744666844
 30
0.0
  0
ENDBLK
  5
BA5C
330
BA5A
100
AcDbEntity
  8
0
100
AcDbBlockEnd
  0
BLOCK
  5
BA67
330
BA66
100
AcDbEntity
  8
0
100
AcDbBlockBegin
  2
*D13
 70
     1
 10
0.0
 20
0.0
 30
0.0
  3
*D13
  1

  0
LINE
  5
BA69
330
BA66
100
AcDbEntity
  8
AM_5
100
AcDbLine
 10
191.2001188910887
 20
165.3580674666844
 30
0.0
 11
191.2001188910887
 21
179.8580684766844
 31
0.0
  0
LINE
  5
BA6A
330
BA66
100
AcDbEntity
  8
AM_5
100
AcDbLine
 10
165.2001208910886
 20
165.3580674666845
 30
0.0
 11
165.2001208910886
 21
179.8580684766844
 31
0.0
  0
LINE
  5
BA6B
330
BA66
100
AcDbEntity
  8
AM_5
100
AcDbLine
 10
190.2001188910887
 20
178.8580684766844
 30
0.0
 11
166.2001208910886
 21
178.8580684766844
 31
0.0
  0
INSERT
  5
BA6C
330
BA66
100
AcDbEntity
  8
AM_5
100
AcDbBlockReference
  2
_Dot
 10
191.2001188910887
 20
178.8580684766844
 30
0.0
  0
INSERT
  5
BA6D
330
BA66
100
AcDbEntity
  8
AM_5
100
AcDbBlockReference
  2
_Dot
 10
165.2001208910886
 20
178.8580684766844
 30
0.0
 50
180.0
  0
MTEXT
  5
BA6E
330
BA66
100
AcDbEntity
  8
AM_5
 62
     2
100
AcDbMText
 10
178.2001198910886
 20
181.9580684766844
 30
0.0
 40
3.200000000000001
 41
0.0
 71
     5
 72
     1
  1
G
 73
     1
 44
1.0
1001
ACAD
1000
MTEXTBEGIN
1070
    73
1070
     1
1070
    44
1040
1.0
1070
    74
1070
     0
1000
MTEXTEND
  0
POINT
  5
BA6F
330
BA66
100
AcDbEntity
  8
Defpoints
 62
     0
100
AcDbPoint
 10
191.2001188910887
 20
164.3580674666844
 30
0.0
  0
POINT
  5
BA70
330
BA66
100
AcDbEntity
  8
Defpoints
 62
     0
100
AcDbPoint
 10
165.2001208910886
 20
164.3580674666845
 30
0.0
  0
POINT
  5
BA71
330
BA66
100
AcDbEntity
  8
Defpoints
 62
     0
100
AcDbPoint
 10
165.2001208910886
 20
178.8580684766844
 30
0.0
  0
ENDBLK
  5
BA68
330
BA66
100
AcDbEntity
  8
0
100
AcDbBlockEnd
  0
BLOCK
  5
BA73
330
BA72
100
AcDbEntity
  8
0
100
AcDbBlockBegin
  2
*D14
 70
     1
 10
0.0
 20
0.0
 30
0.0
  3
*D14
  1

  0
LINE
  5
BA75
330
BA72
100
AcDbEntity
  8
AM_5
100
AcDbLine
 10
169.2001208910887
 20
111.8580744666844
 30
0.0
 11
169.2001208910887
 21
99.85807446668442
 31
0.0
  0
LINE
  5
BA76
330
BA72
100
AcDbEntity
  8
AM_5
100
AcDbLine
 10
187.2001188910887
 20
111.8580744666844
 30
0.0
 11
187.2001188910887
 21
99.85807446668442
 31
0.0
  0
LINE
  5
BA77
330
BA72
100
AcDbEntity
  8
AM_5
100
AcDbLine
 10
170.2001208910887
 20
100.8580744666844
 30
0.0
 11
186.2001188910887
 21
100.8580744666844
 31
0.0
  0
INSERT
  5
BA78
330
BA72
100
AcDbEntity
  8
AM_5
100
AcDbBlockReference
  2
_Dot
 10
169.2001208910887
 20
100.8580744666844
 30
0.0
 50
180.0
  0
INSERT
  5
BA79
330
BA72
100
AcDbEntity
  8
AM_5
100
AcDbBlockReference
  2
_Dot
 10
187.2001188910887
 20
100.8580744666844
 30
0.0
  0
MTEXT
  5
BA7A
330
BA72
100
AcDbEntity
  8
AM_5
 62
     2
100
AcDbMText
 10
178.2001198910887
 20
103.9580744666844
 30
0.0
 40
3.200000000000001
 41
0.0
 71
     5
 72
     1
  1
H
 73
     1
 44
1.0
1001
ACAD
1000
MTEXTBEGIN
1070
    73
1070
     1
1070
    44
1040
1.0
1070
    74
1070
     0
1000
MTEXTEND
  0
POINT
  5
BA7B
330
BA72
100
AcDbEntity
  8
Defpoints
 62
     0
100
AcDbPoint
 10
169.2001208910887
 20
112.8580744666844
 30
0.0
  0
POINT
  5
BA7C
330
BA72
100
AcDbEntity
  8
Defpoints
 62
     0
100
AcDbPoint
 10
187.2001188910887
 20
112.8580744666844
 30
0.0
  0
POINT
  5
BA7D
330
BA72
100
AcDbEntity
  8
Defpoints
 62
     0
100
AcDbPoint
 10
187.2001188910887
 20
100.8580744666844
 30
0.0
  0
ENDBLK
  5
BA74
330
BA72
100
AcDbEntity
  8
0
100
AcDbBlockEnd
  0
BLOCK
  5
BA7F
330
BA7E
100
AcDbEntity
  8
0
100
AcDbBlockBegin
  2
*D15
 70
     1
 10
0.0
 20
0.0
 30
0.0
  3
*D15
  1

  0
LINE
  5
BA81
330
BA7E
100
AcDbEntity
  8
AM_5
100
AcDbLine
 10
244.2201323587848
 20
65.21362226720305
 30
0.0
 11
244.2201323587848
 21
42.88028505720308
 31
0.0
  0
LINE
  5
BA82
330
BA7E
100
AcDbEntity
  8
AM_5
100
AcDbLine
 10
320.8868093587848
 20
65.21362226720305
 30
0.0
 11
320.8868093587848
 21
42.88028505720308
 31
0.0
  0
LINE
  5
BA83
330
BA7E
100
AcDbEntity
  8
AM_5
100
AcDbLine
 10
245.2201323587849
 20
43.88028505720308
 30
0.0
 11
319.8868093587848
 21
43.88028505720308
 31
0.0
  0
INSERT
  5
BA84
330
BA7E
100
AcDbEntity
  8
AM_5
100
AcDbBlockReference
  2
_Dot
 10
244.2201323587848
 20
43.88028505720308
 30
0.0
 50
180.0
  0
INSERT
  5
BA85
330
BA7E
100
AcDbEntity
  8
AM_5
100
AcDbBlockReference
  2
_Dot
 10
320.8868093587848
 20
43.88028505720308
 30
0.0
  0
MTEXT
  5
BA86
330
BA7E
100
AcDbEntity
  8
AM_5
 62
     2
100
AcDbMText
 10
282.5534708587849
 20
46.98028505720308
 30
0.0
 40
3.200000000000001
 41
0.0
 71
     5
 72
     1
  1
B
 73
     1
 44
1.0
1001
ACAD
1000
MTEXTBEGIN
1070
    73
1070
     1
1070
    44
1040
1.0
1070
    74
1070
     0
1000
MTEXTEND
  0
POINT
  5
BA87
330
BA7E
100
AcDbEntity
  8
Defpoints
 62
     0
100
AcDbPoint
 10
244.2201323587848
 20
66.21362226720305
 30
0.0
  0
POINT
  5
BA88
330
BA7E
100
AcDbEntity
  8
Defpoints
 62
     0
100
AcDbPoint
 10
320.8868093587848
 20
66.21362226720305
 30
0.0
  0
POINT
  5
BA89
330
BA7E
100
AcDbEntity
  8
Defpoints
 62
     0
100
AcDbPoint
 10
320.8868093587848
 20
43.88028505720308
 30
0.0
  0
ENDBLK
  5
BA80
330
BA7E
100
AcDbEntity
  8
0
100
AcDbBlockEnd
  0
BLOCK
  5
BA8B
330
BA8A
100
AcDbEntity
  8
0
100
AcDbBlockBegin
  2
*D16
 70
     1
 10
0.0
 20
0.0
 30
0.0
  3
*D16
  1

  0
LINE
  5
BA8D
330
BA8A
100
AcDbEntity
  8
AM_5
100
AcDbLine
 10
232.5534683587848
 20
59.21361956720303
 30
0.0
 11
232.5534683587848
 21
32.88028505720312
 31
0.0
  0
LINE
  5
BA8E
330
BA8A
100
AcDbEntity
  8
AM_5
100
AcDbLine
 10
332.5534793587849
 20
59.21361956720303
 30
0.0
 11
332.5534793587849
 21
32.88028505720312
 31
0.0
  0
LINE
  5
BA8F
330
BA8A
100
AcDbEntity
  8
AM_5
100
AcDbLine
 10
233.5534683587848
 20
33.88028505720312
 30
0.0
 11
331.5534793587849
 21
33.88028505720312
 31
0.0
  0
INSERT
  5
BA90
330
BA8A
100
AcDbEntity
  8
AM_5
100
AcDbBlockReference
  2
_Dot
 10
232.5534683587848
 20
33.88028505720312
 30
0.0
 50
180.0
  0
INSERT
  5
BA91
330
BA8A
100
AcDbEntity
  8
AM_5
100
AcDbBlockReference
  2
_Dot
 10
332.5534793587849
 20
33.88028505720312
 30
0.0
  0
MTEXT
  5
BA92
330
BA8A
100
AcDbEntity
  8
AM_5
 62
     2
100
AcDbMText
 10
282.5534738587848
 20
36.98028505720313
 30
0.0
 40
3.200000000000001
 41
0.0
 71
     5
 72
     1
  1
A
 73
     1
 44
1.0
1001
ACAD
1000
MTEXTBEGIN
1070
    73
1070
     1
1070
    44
1040
1.0
1070
    74
1070
     0
1000
MTEXTEND
  0
POINT
  5
BA93
330
BA8A
100
AcDbEntity
  8
Defpoints
 62
     0
100
AcDbPoint
 10
232.5534683587848
 20
60.21361956720304
 30
0.0
  0
POINT
  5
BA94
330
BA8A
100
AcDbEntity
  8
Defpoints
 62
     0
100
AcDbPoint
 10
332.5534793587849
 20
60.21361956720304
 30
0.0
  0
POINT
  5
BA95
330
BA8A
100
AcDbEntity
  8
Defpoints
 62
     0
100
AcDbPoint
 10
332.5534793587849
 20
33.88028505720312
 30
0.0
  0
ENDBLK
  5
BA8C
330
BA8A
100
AcDbEntity
  8
0
100
AcDbBlockEnd
  0
BLOCK
  5
BA97
330
BA96
100
AcDbEntity
  8
0
100
AcDbBlockBegin
  2
*D17
 70
     1
 10
0.0
 20
0.0
 30
0.0
  3
*D17
  1

  0
LINE
  5
BA99
330
BA96
100
AcDbEntity
  8
AM_5
100
AcDbLine
 10
357.7872541688205
 20
165.8580674666844
 30
0.0
 11
357.7872541688205
 21
177.8580674666844
 31
0.0
  0
LINE
  5
BA9A
330
BA96
100
AcDbEntity
  8
AM_5
100
AcDbLine
 10
382.4539241688205
 20
165.8580674666844
 30
0.0
 11
382.4539241688205
 21
177.8580674666844
 31
0.0
  0
LINE
  5
BA9B
330
BA96
100
AcDbEntity
  8
AM_5
100
AcDbLine
 10
358.7872541688205
 20
176.8580674666844
 30
0.0
 11
381.4539241688205
 21
176.8580674666844
 31
0.0
  0
INSERT
  5
BA9C
330
BA96
100
AcDbEntity
  8
AM_5
100
AcDbBlockReference
  2
_Dot
 10
357.7872541688205
 20
176.8580674666844
 30
0.0
 50
180.0
  0
INSERT
  5
BA9D
330
BA96
100
AcDbEntity
  8
AM_5
100
AcDbBlockReference
  2
_Dot
 10
382.4539241688205
 20
176.8580674666844
 30
0.0
  0
MTEXT
  5
BA9E
330
BA96
100
AcDbEntity
  8
AM_5
 62
     2
100
AcDbMText
 10
370.1205891688205
 20
179.9580674666844
 30
0.0
 40
3.200000000000001
 41
0.0
 71
     5
 72
     1
  1
G
 73
     1
 44
1.0
1001
ACAD
1000
MTEXTBEGIN
1070
    73
1070
     1
1070
    44
1040
1.0
1070
    74
1070
     0
1000
MTEXTEND
  0
POINT
  5
BA9F
330
BA96
100
AcDbEntity
  8
Defpoints
 62
     0
100
AcDbPoint
 10
357.7872541688205
 20
164.8580674666844
 30
0.0
  0
POINT
  5
BAA0
330
BA96
100
AcDbEntity
  8
Defpoints
 62
     0
100
AcDbPoint
 10
382.4539241688205
 20
164.8580674666844
 30
0.0
  0
POINT
  5
BAA1
330
BA96
100
AcDbEntity
  8
Defpoints
 62
     0
100
AcDbPoint
 10
382.4539241688205
 20
176.8580674666844
 30
0.0
  0
ENDBLK
  5
BA98
330
BA96
100
AcDbEntity
  8
0
100
AcDbBlockEnd
  0
BLOCK
  5
BAA3
330
BAA2
100
AcDbEntity
  8
0
100
AcDbBlockBegin
  2
*D18
 70
     1
 10
0.0
 20
0.0
 30
0.0
  3
*D18
  1

  0
LINE
  5
BAA5
330
BAA2
100
AcDbEntity
  8
AM_5
100
AcDbLine
 10
381.4539241688205
 20
166.8580674666844
 30
0.0
 11
399.7872586788205
 21
166.8580674666844
 31
0.0
  0
LINE
  5
BAA6
330
BAA2
100
AcDbEntity
  8
AM_5
100
AcDbLine
 10
379.7872521688205
 20
108.5247249666844
 30
0.0
 11
399.7872586788205
 21
108.5247249666844
 31
0.0
  0
LINE
  5
BAA7
330
BAA2
100
AcDbEntity
  8
AM_5
100
AcDbLine
 10
398.7872586788205
 20
165.8580674666844
 30
0.0
 11
398.7872586788205
 21
109.5247249666844
 31
0.0
  0
INSERT
  5
BAA8
330
BAA2
100
AcDbEntity
  8
AM_5
100
AcDbBlockReference
  2
_Dot
 10
398.7872586788205
 20
166.8580674666844
 30
0.0
 50
90.0
  0
INSERT
  5
BAA9
330
BAA2
100
AcDbEntity
  8
AM_5
100
AcDbBlockReference
  2
_Dot
 10
398.7872586788205
 20
108.5247249666844
 30
0.0
 50
270.0
  0
MTEXT
  5
BAAA
330
BAA2
100
AcDbEntity
  8
AM_5
 62
     2
100
AcDbMText
 10
395.6872586788205
 20
137.6913962166845
 30
0.0
 40
3.200000000000001
 41
0.0
 71
     5
 72
     1
  1
F
 11
0.0000000000000001
 21
1.0
 31
0.0
 73
     1
 44
1.0
1001
ACAD
1000
MTEXTBEGIN
1070
    73
1070
     1
1070
    44
1040
1.0
1070
    74
1070
     0
1000
MTEXTEND
  0
POINT
  5
BAAB
330
BAA2
100
AcDbEntity
  8
Defpoints
 62
     0
100
AcDbPoint
 10
380.4539241688205
 20
166.8580674666844
 30
0.0
  0
POINT
  5
BAAC
330
BAA2
100
AcDbEntity
  8
Defpoints
 62
     0
100
AcDbPoint
 10
378.7872521688205
 20
108.5247249666844
 30
0.0
  0
POINT
  5
BAAD
330
BAA2
100
AcDbEntity
  8
Defpoints
 62
     0
100
AcDbPoint
 10
398.7872586788205
 20
108.5247249666844
 30
0.0
  0
ENDBLK
  5
BAA4
330
BAA2
100
AcDbEntity
  8
0
100
AcDbBlockEnd
  0
BLOCK
  5
BAAF
330
BAAE
100
AcDbEntity
  8
0
100
AcDbBlockBegin
  2
*D19
 70
     1
 10
0.0
 20
0.0
 30
0.0
  3
*D19
  1

  0
LINE
  5
BAB1
330
BAAE
100
AcDbEntity
  8
AM_5
100
AcDbLine
 10
360.4539201688205
 20
158.5247359666844
 30
0.0
 11
339.7872521688205
 21
158.5247359666844
 31
0.0
  0
LINE
  5
BAB2
330
BAAE
100
AcDbEntity
  8
AM_5
100
AcDbLine
 10
360.4539201688205
 20
108.5247249666844
 30
0.0
 11
339.7872521688205
 21
108.5247249666844
 31
0.0
  0
LINE
  5
BAB3
330
BAAE
100
AcDbEntity
  8
AM_5
100
AcDbLine
 10
340.7872521688205
 20
157.5247359666844
 30
0.0
 11
340.7872521688205
 21
109.5247249666844
 31
0.0
  0
INSERT
  5
BAB4
330
BAAE
100
AcDbEntity
  8
AM_5
100
AcDbBlockReference
  2
_Dot
 10
340.7872521688205
 20
158.5247359666844
 30
0.0
 50
90.0
  0
INSERT
  5
BAB5
330
BAAE
100
AcDbEntity
  8
AM_5
100
AcDbBlockReference
  2
_Dot
 10
340.7872521688205
 20
108.5247249666844
 30
0.0
 50
270.0
  0
MTEXT
  5
BAB6
330
BAAE
100
AcDbEntity
  8
AM_5
 62
     2
100
AcDbMText
 10
337.6872521688205
 20
133.5247304666844
 30
0.0
 40
3.200000000000001
 41
0.0
 71
     5
 72
     1
  1
%%cD
 11
0.0000000000000001
 21
1.0
 31
0.0
 73
     1
 44
1.0
1001
ACAD
1000
MTEXTBEGIN
1070
    73
1070
     1
1070
    44
1040
1.0
1070
    74
1070
     0
1000
MTEXTEND
  0
POINT
  5
BAB7
330
BAAE
100
AcDbEntity
  8
Defpoints
 62
     0
100
AcDbPoint
 10
361.4539201688205
 20
158.5247359666844
 30
0.0
  0
POINT
  5
BAB8
330
BAAE
100
AcDbEntity
  8
Defpoints
 62
     0
100
AcDbPoint
 10
361.4539201688205
 20
108.5247249666844
 30
0.0
  0
POINT
  5
BAB9
330
BAAE
100
AcDbEntity
  8
Defpoints
 62
     0
100
AcDbPoint
 10
340.7872521688205
 20
108.5247249666844
 30
0.0
  0
ENDBLK
  5
BAB0
330
BAAE
100
AcDbEntity
  8
0
100
AcDbBlockEnd
  0
BLOCK
  5
BABB
330
BABA
100
AcDbEntity
  8
0
100
AcDbBlockBegin
  2
*D20
 70
     1
 10
0.0
 20
0.0
 30
0.0
  3
*D20
  1

  0
LINE
  5
BABD
330
BABA
100
AcDbEntity
  8
AM_5
100
AcDbLine
 10
361.4539201688205
 20
107.5247249666844
 30
0.0
 11
361.4539201688205
 21
95.52472496668441
 31
0.0
  0
LINE
  5
BABE
330
BABA
100
AcDbEntity
  8
AM_5
100
AcDbLine
 10
378.7872521688205
 20
107.5247249666844
 30
0.0
 11
378.7872521688205
 21
95.52472496668441
 31
0.0
  0
LINE
  5
BABF
330
BABA
100
AcDbEntity
  8
AM_5
100
AcDbLine
 10
362.4539201688205
 20
96.52472496668442
 30
0.0
 11
377.7872521688205
 21
96.52472496668442
 31
0.0
  0
INSERT
  5
BAC0
330
BABA
100
AcDbEntity
  8
AM_5
100
AcDbBlockReference
  2
_Dot
 10
361.4539201688205
 20
96.52472496668442
 30
0.0
 50
180.0
  0
INSERT
  5
BAC1
330
BABA
100
AcDbEntity
  8
AM_5
100
AcDbBlockReference
  2
_Dot
 10
378.7872521688205
 20
96.52472496668442
 30
0.0
  0
MTEXT
  5
BAC2
330
BABA
100
AcDbEntity
  8
AM_5
 62
     2
100
AcDbMText
 10
370.1205861688205
 20
99.62472496668441
 30
0.0
 40
3.200000000000001
 41
0.0
 71
     5
 72
     1
  1
H
 73
     1
 44
1.0
1001
ACAD
1000
MTEXTBEGIN
1070
    73
1070
     1
1070
    44
1040
1.0
1070
    74
1070
     0
1000
MTEXTEND
  0
POINT
  5
BAC3
330
BABA
100
AcDbEntity
  8
Defpoints
 62
     0
100
AcDbPoint
 10
361.4539201688205
 20
108.5247249666844
 30
0.0
  0
POINT
  5
BAC4
330
BABA
100
AcDbEntity
  8
Defpoints
 62
     0
100
AcDbPoint
 10
378.7872521688205
 20
108.5247249666844
 30
0.0
  0
POINT
  5
BAC5
330
BABA
100
AcDbEntity
  8
Defpoints
 62
     0
100
AcDbPoint
 10
378.7872521688205
 20
96.52472496668442
 30
0.0
  0
ENDBLK
  5
BABC
330
BABA
100
AcDbEntity
  8
0
100
AcDbBlockEnd
  0
BLOCK
  5
BAC7
330
BAC6
100
AcDbEntity
  8
0
100
AcDbBlockBegin
  2
*D21
 70
     1
 10
0.0
 20
0.0
 30
0.0
  3
*D21
  1

  0
LINE
  5
BAC9
330
BAC6
100
AcDbEntity
  8
AM_5
100
AcDbLine
 10
286.5534753587848
 20
91.88029056720303
 30
0.0
 11
345.5534803587849
 21
91.88029056720301
 31
0.0
  0
LINE
  5
BACA
330
BAC6
100
AcDbEntity
  8
AM_5
100
AcDbLine
 10
288.1368113587848
 20
55.88028756720303
 30
0.0
 11
345.5534803587849
 21
55.88028756720301
 31
0.0
  0
LINE
  5
BACB
330
BAC6
100
AcDbEntity
  8
AM_5
100
AcDbLine
 10
344.5534803587849
 20
90.88029056720301
 30
0.0
 11
344.5534803587849
 21
56.88028756720302
 31
0.0
  0
INSERT
  5
BACC
330
BAC6
100
AcDbEntity
  8
AM_5
100
AcDbBlockReference
  2
_Dot
 10
344.5534803587849
 20
91.88029056720301
 30
0.0
 50
90.0
  0
INSERT
  5
BACD
330
BAC6
100
AcDbEntity
  8
AM_5
100
AcDbBlockReference
  2
_Dot
 10
344.5534803587849
 20
55.88028756720301
 30
0.0
 50
270.0
  0
MTEXT
  5
BACE
330
BAC6
100
AcDbEntity
  8
AM_5
 62
     2
100
AcDbMText
 10
341.4534803587849
 20
73.88028906720307
 30
0.0
 40
3.200000000000001
 41
0.0
 71
     5
 72
     1
  1
L
 11
0.0000000000000001
 21
1.0
 31
0.0
 73
     1
 44
1.0
1001
ACAD
1000
MTEXTBEGIN
1070
    73
1070
     1
1070
    44
1040
1.0
1070
    74
1070
     0
1000
MTEXTEND
  0
POINT
  5
BACF
330
BAC6
100
AcDbEntity
  8
Defpoints
 62
     0
100
AcDbPoint
 10
285.5534753587848
 20
91.88029056720303
 30
0.0
  0
POINT
  5
BAD0
330
BAC6
100
AcDbEntity
  8
Defpoints
 62
     0
100
AcDbPoint
 10
287.1368113587848
 20
55.88028756720303
 30
0.0
  0
POINT
  5
BAD1
330
BAC6
100
AcDbEntity
  8
Defpoints
 62
     0
100
AcDbPoint
 10
344.5534803587849
 20
55.88028756720301
 30
0.0
  0
ENDBLK
  5
BAC8
330
BAC6
100
AcDbEntity
  8
0
100
AcDbBlockEnd
  0
ENDSEC
  0
SECTION
  2
ENTITIES
  0
LINE
  5
B878
330
1F
100
AcDbEntity
  8
size
100
AcDbLine
 10
-0.0000003291501116
 20
0.0000001587767429
 30
0.0
 11
419.9999996708498
 21
0.0000001587767429
 31
0.0
1001
GENIUS_GENREC_14
1002
{
1000
PYDIR
1011
-0.0000003291500938
1021
297.0000001587767
1031
0.0
1002
}
1002
{
1000
PXDIR
1011
419.9999996708498
1021
0.0000001587767429
1031
0.0
1002
}
1002
{
1000
PORI
1011
-0.0000003291501116
1021
0.0000001587767429
1031
0.0
1002
}
1002
{
1000
PINS
1011
209.9999996708499
1021
148.5000001587767
1031
0.0
1002
}
1002
{
1000
HVAL
1000
297
1002
}
1002
{
1000
H
1070
     2
1002
}
1002
{
1000
WVAL
1000
420
1002
}
1002
{
1000
W
1070
     2
1002
}
1002
{
1000
C
1070
     4
1002
}
1001
GENIUS_GENOBJ-N-REC_13
1002
{
1000
OWNER
1000
GEN
1002
}
1001
GENIUS_GENODEF_13
1002
{
1000
HIER
1070
     0
1002
}
1002
{
1000
MANEDIT
1070
     0
1002
}
1002
{
1000
NOSEL
1070
     0
1002
}
1002
{
1000
BEHIND
1070
     0
1002
}
1002
{
1000
OTHER
1070
     0
1002
}
1002
{
1000
REACTOR
1002
}
  0
LINE
  5
B879
330
1F
100
AcDbEntity
  8
size
100
AcDbLine
 10
419.9999996708498
 20
0.0000001587767429
 30
0.0
 11
419.9999996708498
 21
297.0000001587767
 31
0.0
1001
GENIUS_GENREC_14
1002
{
1000
PYDIR
1011
-0.0000003291500938
1021
297.0000001587767
1031
0.0
1002
}
1002
{
1000
PXDIR
1011
419.9999996708498
1021
0.0000001587767429
1031
0.0
1002
}
1002
{
1000
PORI
1011
-0.0000003291501116
1021
0.0000001587767429
1031
0.0
1002
}
1002
{
1000
PINS
1011
209.9999996708499
1021
148.5000001587767
1031
0.0
1002
}
1002
{
1000
HVAL
1000
297
1002
}
1002
{
1000
H
1070
     2
1002
}
1002
{
1000
WVAL
1000
420
1002
}
1002
{
1000
W
1070
     2
1002
}
1002
{
1000
C
1070
     4
1002
}
1001
GENIUS_GENOBJ-N-REC_13
1002
{
1000
OWNER
1000
GEN
1002
}
1001
GENIUS_GENODEF_13
1002
{
1000
HIER
1070
     0
1002
}
1002
{
1000
MANEDIT
1070
     0
1002
}
1002
{
1000
NOSEL
1070
     0
1002
}
1002
{
1000
BEHIND
1070
     0
1002
}
1002
{
1000
OTHER
1070
     0
1002
}
1002
{
1000
REACTOR
1002
}
  0
LINE
  5
B87A
330
1F
100
AcDbEntity
  8
size
100
AcDbLine
 10
419.9999996708498
 20
297.0000001587767
 30
0.0
 11
-0.0000003291500841
 21
297.0000001587767
 31
0.0
1001
GENIUS_GENREC_14
1002
{
1000
PYDIR
1011
-0.0000003291500938
1021
297.0000001587767
1031
0.0
1002
}
1002
{
1000
PXDIR
1011
419.9999996708498
1021
0.0000001587767429
1031
0.0
1002
}
1002
{
1000
PORI
1011
-0.0000003291501116
1021
0.0000001587767429
1031
0.0
1002
}
1002
{
1000
PINS
1011
209.9999996708499
1021
148.5000001587767
1031
0.0
1002
}
1002
{
1000
HVAL
1000
297
1002
}
1002
{
1000
H
1070
     2
1002
}
1002
{
1000
WVAL
1000
420
1002
}
1002
{
1000
W
1070
     2
1002
}
1002
{
1000
C
1070
     4
1002
}
1001
GENIUS_GENOBJ-N-REC_13
1002
{
1000
OWNER
1000
GEN
1002
}
1001
GENIUS_GENODEF_13
1002
{
1000
HIER
1070
     0
1002
}
1002
{
1000
MANEDIT
1070
     0
1002
}
1002
{
1000
NOSEL
1070
     0
1002
}
1002
{
1000
BEHIND
1070
     0
1002
}
1002
{
1000
OTHER
1070
     0
1002
}
1002
{
1000
REACTOR
1002
}
  0
LINE
  5
B87B
330
1F
100
AcDbEntity
  8
size
100
AcDbLine
 10
-0.0000003291500841
 20
297.0000001587767
 30
0.0
 11
-0.0000003291501116
 21
0.0000001587767429
 31
0.0
1001
GENIUS_GENREC_14
1002
{
1000
PYDIR
1011
-0.0000003291500938
1021
297.0000001587767
1031
0.0
1002
}
1002
{
1000
PXDIR
1011
419.9999996708498
1021
0.0000001587767429
1031
0.0
1002
}
1002
{
1000
PORI
1011
-0.0000003291501116
1021
0.0000001587767429
1031
0.0
1002
}
1002
{
1000
PINS
1011
209.9999996708499
1021
148.5000001587767
1031
0.0
1002
}
1002
{
1000
HVAL
1000
297
1002
}
1002
{
1000
H
1070
     2
1002
}
1002
{
1000
WVAL
1000
420
1002
}
1002
{
1000
W
1070
     2
1002
}
1002
{
1000
C
1070
     4
1002
}
1001
GENIUS_GENOBJ-N-REC_13
1002
{
1000
OWNER
1000
GEN
1002
}
1001
GENIUS_GENODEF_13
1002
{
1000
HIER
1070
     0
1002
}
1002
{
1000
MANEDIT
1070
     0
1002
}
1002
{
1000
NOSEL
1070
     0
1002
}
1002
{
1000
BEHIND
1070
     0
1002
}
1002
{
1000
OTHER
1070
     0
1002
}
1002
{
1000
REACTOR
1002
}
  0
LINE
  5
B87C
330
1F
100
AcDbEntity
  8
waku
100
AcDbLine
 10
408.4999996708498
 20
8.500000158776742
 30
0.0
 11
408.4999996708498
 21
288.5000001587767
 31
0.0
1001
GENIUS_GENREC_14
1002
{
1000
PYDIR
1011
-0.0000003291500938
1021
297.0000001587767
1031
0.0
1002
}
1002
{
1000
PXDIR
1011
419.9999996708498
1021
0.0000001587767429
1031
0.0
1002
}
1002
{
1000
PORI
1011
-0.0000003291501116
1021
0.0000001587767429
1031
0.0
1002
}
1002
{
1000
PINS
1011
209.9999996708499
1021
148.5000001587767
1031
0.0
1002
}
1002
{
1000
HVAL
1000
297
1002
}
1002
{
1000
H
1070
     2
1002
}
1002
{
1000
WVAL
1000
420
1002
}
1002
{
1000
W
1070
     2
1002
}
1002
{
1000
C
1070
     4
1002
}
1001
GENIUS_GENOBJ-N-REC_13
1002
{
1000
OWNER
1000
GEN
1002
}
1001
GENIUS_GENODEF_13
1002
{
1000
HIER
1070
     0
1002
}
1002
{
1000
MANEDIT
1070
     0
1002
}
1002
{
1000
NOSEL
1070
     0
1002
}
1002
{
1000
BEHIND
1070
     0
1002
}
1002
{
1000
OTHER
1070
     0
1002
}
1002
{
1000
REACTOR
1002
}
  0
LINE
  5
B87D
330
1F
100
AcDbEntity
  8
waku
100
AcDbLine
 10
11.49999967084991
 20
288.5000001587767
 30
0.0
 11
11.49999967084989
 21
8.500000158776742
 31
0.0
1001
GENIUS_GENREC_14
1002
{
1000
PYDIR
1011
-0.0000003291500938
1021
297.0000001587767
1031
0.0
1002
}
1002
{
1000
PXDIR
1011
419.9999996708498
1021
0.0000001587767429
1031
0.0
1002
}
1002
{
1000
PORI
1011
-0.0000003291501116
1021
0.0000001587767429
1031
0.0
1002
}
1002
{
1000
PINS
1011
209.9999996708499
1021
148.5000001587767
1031
0.0
1002
}
1002
{
1000
HVAL
1000
297
1002
}
1002
{
1000
H
1070
     2
1002
}
1002
{
1000
WVAL
1000
420
1002
}
1002
{
1000
W
1070
     2
1002
}
1002
{
1000
C
1070
     4
1002
}
1001
GENIUS_GENOBJ-N-REC_13
1002
{
1000
OWNER
1000
GEN
1002
}
1001
GENIUS_GENODEF_13
1002
{
1000
HIER
1070
     0
1002
}
1002
{
1000
MANEDIT
1070
     0
1002
}
1002
{
1000
NOSEL
1070
     0
1002
}
1002
{
1000
BEHIND
1070
     0
1002
}
1002
{
1000
OTHER
1070
     0
1002
}
1002
{
1000
REACTOR
1002
}
  0
LINE
  5
B87E
330
1F
100
AcDbEntity
  8
waku
100
AcDbLine
 10
408.4999996708498
 20
288.5000001587767
 30
0.0
 11
11.49999967084991
 21
288.5000001587767
 31
0.0
1001
GENIUS_GENREC_14
1002
{
1000
PYDIR
1011
-0.0000003291500938
1021
297.0000001587767
1031
0.0
1002
}
1002
{
1000
PXDIR
1011
419.9999996708498
1021
0.0000001587767429
1031
0.0
1002
}
1002
{
1000
PORI
1011
-0.0000003291501116
1021
0.0000001587767429
1031
0.0
1002
}
1002
{
1000
PINS
1011
209.9999996708499
1021
148.5000001587767
1031
0.0
1002
}
1002
{
1000
HVAL
1000
297
1002
}
1002
{
1000
H
1070
     2
1002
}
1002
{
1000
WVAL
1000
420
1002
}
1002
{
1000
W
1070
     2
1002
}
1002
{
1000
C
1070
     4
1002
}
1001
GENIUS_GENOBJ-N-REC_13
1002
{
1000
OWNER
1000
GEN
1002
}
1001
GENIUS_GENODEF_13
1002
{
1000
HIER
1070
     0
1002
}
1002
{
1000
MANEDIT
1070
     0
1002
}
1002
{
1000
NOSEL
1070
     0
1002
}
1002
{
1000
BEHIND
1070
     0
1002
}
1002
{
1000
OTHER
1070
     0
1002
}
1002
{
1000
REACTOR
1002
}
  0
LINE
  5
B87F
330
1F
100
AcDbEntity
  8
waku
100
AcDbLine
 10
11.49999967084989
 20
8.500000158776742
 30
0.0
 11
408.4999996708498
 21
8.500000158776742
 31
0.0
  0
INSERT
  5
B880
330
1F
100
AcDbEntity
  8
AM_0
100
AcDbBlockReference
  2
SYS図枠A3(AIS2008)
 10
-0.0000003291501116
 20
0.0000001587767429
 30
0.0
 41
0.001
 42
0.001
 43
0.001
  0
LINE
  5
B881
330
1F
100
AcDbEntity
  8
AM_0
100
AcDbLine
 10
11.49999967084989
 20
288.5000001587767
 30
0.0
 11
101.4999796708498
 21
288.5000001587767
 31
0.0
  0
LINE
  5
B882
330
1F
100
AcDbEntity
  8
AM_0
100
AcDbLine
 10
11.49999967084989
 20
288.5000001587767
 30
0.0
 11
11.49999967084989
 21
224.5000001587767
 31
0.0
  0
LINE
  5
B883
330
1F
100
AcDbEntity
  8
AM_2
100
AcDbLine
 10
31.49999967084998
 20
288.5000001587767
 30
0.0
 11
31.49999967084998
 21
224.5000001587767
 31
0.0
  0
LINE
  5
B884
330
1F
100
AcDbEntity
  8
AM_2
100
AcDbLine
 10
11.49999967084989
 20
280.5000001587767
 30
0.0
 11
101.4999796708498
 21
280.5000001587767
 31
0.0
  0
LINE
  5
B885
330
1F
100
AcDbEntity
  8
AM_2
100
AcDbLine
 10
11.49999967084989
 20
272.5000001587767
 30
0.0
 11
101.4999796708498
 21
272.5000001587767
 31
0.0
  0
LINE
  5
B886
330
1F
100
AcDbEntity
  8
AM_2
100
AcDbLine
 10
11.49999967084989
 20
264.5000001587767
 30
0.0
 11
101.4999796708498
 21
264.5000001587767
 31
0.0
  0
LINE
  5
B887
330
1F
100
AcDbEntity
  8
AM_2
100
AcDbLine
 10
11.49999967084989
 20
240.5000001587766
 30
0.0
 11
101.4999796708498
 21
240.5000001587766
 31
0.0
  0
LINE
  5
B888
330
1F
100
AcDbEntity
  8
AM_0
100
AcDbLine
 10
11.49999967084989
 20
288.5000001587767
 30
0.0
 11
11.49999967084989
 21
224.5000001587767
 31
0.0
  0
LINE
  5
B889
330
1F
100
AcDbEntity
  8
AM_0
100
AcDbLine
 10
11.49999967084989
 20
288.5000001587767
 30
0.0
 11
101.4999796708498
 21
288.5000001587767
 31
0.0
  0
LINE
  5
B88A
330
1F
100
AcDbEntity
  8
AM_0
100
AcDbLine
 10
101.4999796708498
 20
288.5000001587767
 30
0.0
 11
101.4999796708498
 21
224.5000001587767
 31
0.0
  0
LINE
  5
B88B
330
1F
100
AcDbEntity
  8
AM_2
100
AcDbLine
 10
11.49999967084989
 20
256.5000001587766
 30
0.0
 11
101.4999796708498
 21
256.5000001587766
 31
0.0
  0
LINE
  5
B88C
330
1F
100
AcDbEntity
  8
AM_2
100
AcDbLine
 10
11.49999967084989
 20
248.5000001587766
 30
0.0
 11
101.4999796708498
 21
248.5000001587766
 31
0.0
  0
LINE
  5
B88D
330
1F
100
AcDbEntity
  8
AM_2
100
AcDbLine
 10
31.49999967084998
 20
240.5000001587766
 30
0.0
 11
101.4999796708498
 21
240.5000001587766
 31
0.0
  0
LINE
  5
B88E
330
1F
100
AcDbEntity
  8
AM_0
100
AcDbLine
 10
11.49999967084989
 20
224.5000001587767
 30
0.0
 11
101.4999796708498
 21
224.5000001587767
 31
0.0
  0
TEXT
  5
B88F
330
1F
100
AcDbEntity
  8
AM_6
100
AcDbText
 10
18.49657185339492
 20
283.1368052133861
 30
0.0
 40
3.2
  1
品　名
 41
0.60999997
100
AcDbText
  0
TEXT
  5
B890
330
1F
100
AcDbEntity
  8
AM_6
100
AcDbText
 10
18.49657185339492
 20
275.1368052133861
 30
0.0
 40
3.2
  1
品　番
 41
0.60999997
100
AcDbText
  0
TEXT
  5
B891
330
1F
100
AcDbEntity
  8
AM_6
100
AcDbText
 10
18.49657185339492
 20
267.1368052133861
 30
0.0
 40
3.2
  1
材　質
 41
0.60999997
100
AcDbText
  0
TEXT
  5
B892
330
1F
100
AcDbEntity
  8
AM_6
100
AcDbText
 10
18.49657185339492
 20
259.1368052133861
 30
0.0
 40
3.2
  1
仕上げ
 41
0.60999997
100
AcDbText
  0
TEXT
  5
B893
330
1F
100
AcDbEntity
  8
AM_6
100
AcDbText
 10
15.29657185339494
 20
243.1368052133862
 30
0.0
 40
3.2
  1
セットビス
 41
0.6099999900000001
100
AcDbText
  0
TEXT
  5
B894
330
1F
100
AcDbEntity
  8
AM_6
100
AcDbText
 10
20.09658185339493
 20
235.1368052133862
 30
0.0
 40
3.2
  1
備考
 41
0.61
100
AcDbText
  0
TEXT
  5
B895
330
1F
100
AcDbEntity
  8
AM_6
100
AcDbText
 10
16.89657185339493
 20
251.1368052133861
 30
0.0
 40
3.2
  1
左右勝手
 41
0.60999998
100
AcDbText
  0
TEXT
  5
B896
330
1F
100
AcDbEntity
  8
AM_6
100
AcDbText
 10
34.92849967084999
 20
282.8999701587767
 30
0.0
 40
3.2
  1
重量用戸車（F型）
 41
0.74054621
100
AcDbText
  0
TEXT
  5
B897
330
1F
100
AcDbEntity
  8
AM_6
100
AcDbText
 10
34.92849967084999
 20
274.8999701587767
 30
0.0
 40
3.2
  1
ST-164
 41
0.8068965099999998
100
AcDbText
  0
TEXT
  5
B898
330
1F
100
AcDbEntity
  8
AM_6
100
AcDbText
 10
34.92849967084999
 20
266.8999701587767
 30
0.0
 40
3.2
  1
枠：ステンレス　車：ステンレス
 41
0.7499999600000002
100
AcDbText
  0
TEXT
  5
B899
330
1F
100
AcDbEntity
  8
AM_6
100
AcDbText
 10
34.92848967084987
 20
258.8999701587767
 30
0.0
 40
3.2
  1
枠：電解メッキ　車：生地
 41
0.7500000100000001
100
AcDbText
  0
TEXT
  5
B89A
330
1F
100
AcDbEntity
  8
AM_6
100
AcDbText
 10
34.92848967084987
 20
250.8999701587766
 30
0.0
 40
3.2
  1
無し
 41
0.74999999
100
AcDbText
  0
TEXT
  5
B89B
330
1F
100
AcDbEntity
  8
AM_6
100
AcDbText
 10
34.92848967084987
 20
234.8999701587767
 30
0.0
 40
3.2
  1
※軸受：ボールベアリング
 41
0.74999997
100
AcDbText
  0
TEXT
  5
B89C
330
1F
100
AcDbEntity
  8
AM_6
100
AcDbText
 10
34.92848967084987
 20
242.8999701587766
 30
0.0
 40
3.2
  1
無し
 41
0.74999999
100
AcDbText
  0
LINE
  5
B89D
330
1F
100
AcDbEntity
  8
AM_2
100
AcDbLine
 10
133.2740188051474
 20
277.7786894666844
 30
0.0
 11
341.2739858051474
 21
277.7786894666844
 31
0.0
  0
LINE
  5
B89E
330
1F
100
AcDbEntity
  8
AM_2
100
AcDbLine
 10
211.2740188051474
 20
277.7786894666844
 30
0.0
 11
211.2740188051474
 21
205.7786874666844
 31
0.0
  0
LINE
  5
B89F
330
1F
100
AcDbEntity
  8
AM_2
100
AcDbLine
 10
259.2740188051474
 20
277.7786894666844
 30
0.0
 11
259.2740188051474
 21
205.7786874666844
 31
0.0
  0
LINE
  5
B8A0
330
1F
100
AcDbEntity
  8
AM_2
100
AcDbLine
 10
133.2740188051474
 20
277.7786894666844
 30
0.0
 11
133.2740188051474
 21
205.7786874666844
 31
0.0
  0
LINE
  5
B8A1
330
1F
100
AcDbEntity
  8
AM_2
100
AcDbLine
 10
179.2740195051474
 20
277.7786894666844
 30
0.0
 11
179.2740195051474
 21
205.7786874666844
 31
0.0
  0
LINE
  5
B8A2
330
1F
100
AcDbEntity
  8
AM_2
100
AcDbLine
 10
163.2740198051474
 20
277.7786894666844
 30
0.0
 11
163.2740198051474
 21
205.7786874666844
 31
0.0
  0
LINE
  5
B8A3
330
1F
100
AcDbEntity
  8
AM_2
100
AcDbLine
 10
195.2740188051474
 20
277.7786894666844
 30
0.0
 11
195.2740188051474
 21
205.7786874666844
 31
0.0
  0
LINE
  5
B8A4
330
1F
100
AcDbEntity
  8
AM_2
100
AcDbLine
 10
275.2740188051474
 20
277.7786894666844
 30
0.0
 11
275.2740188051474
 21
205.7786874666844
 31
0.0
  0
LINE
  5
B8A5
330
1F
100
AcDbEntity
  8
AM_2
100
AcDbLine
 10
307.2739858051474
 20
277.7786894666844
 30
0.0
 11
307.2739858051474
 21
205.7786874666844
 31
0.0
  0
LINE
  5
B8A6
330
1F
100
AcDbEntity
  8
AM_2
100
AcDbLine
 10
243.2740188051474
 20
277.7786894666844
 30
0.0
 11
243.2740188051474
 21
205.7786874666844
 31
0.0
  0
LINE
  5
B8A7
330
1F
100
AcDbEntity
  8
AM_2
100
AcDbLine
 10
227.2740188051474
 20
277.7786894666844
 30
0.0
 11
227.2740188051474
 21
205.7786874666844
 31
0.0
  0
LINE
  5
B8A8
330
1F
100
AcDbEntity
  8
AM_2
100
AcDbLine
 10
133.2740188051474
 20
269.7786894666844
 30
0.0
 11
341.2739858051474
 21
269.7786894666844
 31
0.0
  0
LINE
  5
B8A9
330
1F
100
AcDbEntity
  8
AM_2
100
AcDbLine
 10
133.2740188051474
 20
253.7786894666844
 30
0.0
 11
341.2739858051474
 21
253.7786894666844
 31
0.0
  0
LINE
  5
B8AA
330
1F
100
AcDbEntity
  8
AM_2
100
AcDbLine
 10
291.2739858051474
 20
277.7786894666844
 30
0.0
 11
291.2739858051474
 21
205.7786874666844
 31
0.0
  0
LINE
  5
B8AB
330
1F
100
AcDbEntity
  8
AM_2
100
AcDbLine
 10
133.2740188051474
 20
261.7786894666845
 30
0.0
 11
341.2739858051474
 21
261.7786894666845
 31
0.0
  0
LINE
  5
B8AC
330
1F
100
AcDbEntity
  8
AM_2
100
AcDbLine
 10
341.2739858051474
 20
277.7786894666844
 30
0.0
 11
341.2739858051474
 21
205.7786874666844
 31
0.0
  0
LINE
  5
B8AD
330
1F
100
AcDbEntity
  8
AM_2
100
AcDbLine
 10
133.2740188051474
 20
205.7786874666844
 30
0.0
 11
341.2739858051474
 21
205.7786874666844
 31
0.0
  0
LINE
  5
B8AE
330
1F
100
AcDbEntity
  8
AM_2
100
AcDbLine
 10
133.2740188051474
 20
245.7786894666844
 30
0.0
 11
341.2739858051474
 21
245.7786894666844
 31
0.0
  0
LINE
  5
B8AF
330
1F
100
AcDbEntity
  8
AM_2
100
AcDbLine
 10
133.2740188051474
 20
237.7786894666845
 30
0.0
 11
341.2739858051474
 21
237.7786894666845
 31
0.0
  0
LINE
  5
B8B0
330
1F
100
AcDbEntity
  8
AM_2
100
AcDbLine
 10
133.2740188051474
 20
229.7786894666844
 30
0.0
 11
341.2739858051474
 21
229.7786894666844
 31
0.0
  0
LINE
  5
B8B1
330
1F
100
AcDbEntity
  8
AM_2
100
AcDbLine
 10
133.2740188051474
 20
221.7786894666844
 30
0.0
 11
341.2739858051474
 21
221.7786894666844
 31
0.0
  0
LINE
  5
B8B2
330
1F
100
AcDbEntity
  8
AM_2
100
AcDbLine
 10
133.2740188051474
 20
213.7786894666844
 30
0.0
 11
341.2739858051474
 21
213.7786894666844
 31
0.0
  0
LINE
  5
B8B3
330
1F
100
AcDbEntity
  8
AM_7
 48
1.199999999999999
100
AcDbLine
 10
83.51924543831518
 20
169.8580674666844
 30
0.0
 11
83.51924543831518
 21
109.8580734666844
 31
0.0
  0
LINE
  5
B8B4
330
1F
100
AcDbEntity
  8
AM_0
100
AcDbLine
 10
28.51924343831519
 20
166.8580674666844
 30
0.0
 11
138.5192414383152
 21
166.8580674666844
 31
0.0
  0
LINE
  5
B8B5
330
1F
100
AcDbEntity
  8
AM_0
100
AcDbLine
 10
65.40037943831521
 20
125.8580744666844
 30
0.0
 11
101.6381224383152
 21
125.8580744666844
 31
0.0
  0
LINE
  5
B8B6
330
1F
100
AcDbEntity
  8
AM_7
100
AcDbLine
 10
55.51924543831518
 20
137.8580734666844
 30
0.0
 11
111.5192454383151
 21
137.8580734666844
 31
0.0
  0
LINE
  5
B8B7
330
1F
100
AcDbEntity
  8
AM_0
100
AcDbLine
 10
138.5192414383152
 20
166.8580674666844
 30
0.0
 11
138.5192414383152
 21
159.8580754666844
 31
0.0
  0
LINE
  5
B8B8
330
1F
100
AcDbEntity
  8
AM_0
100
AcDbLine
 10
28.51924343831519
 20
166.8580674666844
 30
0.0
 11
28.51924343831519
 21
159.8580754666844
 31
0.0
  0
LINE
  5
B8B9
330
1F
100
AcDbEntity
  8
AM_0
100
AcDbLine
 10
31.51924343831519
 20
156.8580754666844
 30
0.0
 11
46.63812343831517
 21
156.8580754666844
 31
0.0
  0
LINE
  5
B8BA
330
1F
100
AcDbEntity
  8
AM_0
100
AcDbLine
 10
49.33859343831517
 20
155.1647614666844
 30
0.0
 11
62.69990143831518
 21
127.5513964666844
 31
0.0
  0
LINE
  5
B8BB
330
1F
100
AcDbEntity
  8
AM_0
100
AcDbLine
 10
117.6998984383152
 20
155.1647584666844
 30
0.0
 11
104.3385924383152
 21
127.5513984666844
 31
0.0
  0
LINE
  5
B8BC
330
1F
100
AcDbEntity
  8
AM_0
100
AcDbLine
 10
120.4003754383151
 20
156.8580754666844
 30
0.0
 11
135.5192414383152
 21
156.8580754666844
 31
0.0
  0
LINE
  5
B8BD
330
1F
100
AcDbEntity
  8
AM_0
100
AcDbLine
 10
83.5192374383152
 20
145.3580874666844
 30
0.0
 11
77.02404443831517
 21
141.6080874666844
 31
0.0
  0
LINE
  5
B8BE
330
1F
100
AcDbEntity
  8
AM_0
100
AcDbLine
 10
77.02406743831517
 20
141.6080734666844
 30
0.0
 11
77.02406743831517
 21
134.1080734666844
 31
0.0
  0
LINE
  5
B8BF
330
1F
100
AcDbEntity
  8
AM_0
100
AcDbLine
 10
77.02406743831517
 20
134.1080814666844
 30
0.0
 11
83.5192604383152
 21
130.3580814666844
 31
0.0
  0
LINE
  5
B8C0
330
1F
100
AcDbEntity
  8
AM_0
100
AcDbLine
 10
83.51925343831515
 20
130.3580734666844
 30
0.0
 11
90.01443843831522
 21
134.1080734666844
 31
0.0
  0
LINE
  5
B8C1
330
1F
100
AcDbEntity
  8
AM_0
100
AcDbLine
 10
90.01443843831522
 20
134.1080734666844
 30
0.0
 11
90.01443843831522
 21
141.6080734666844
 31
0.0
  0
LINE
  5
B8C2
330
1F
100
AcDbEntity
  8
AM_0
100
AcDbLine
 10
90.01444643831518
 20
141.6080814666844
 30
0.0
 11
83.51925343831515
 21
145.3580834666844
 31
0.0
  0
LINE
  5
B8C3
330
1F
100
AcDbEntity
  8
AM_0
100
AcDbLine
 10
28.51924343831519
 20
84.88028956720304
 30
0.0
 11
138.5192414383152
 21
84.88028956720304
 31
0.0
  0
LINE
  5
B8C4
330
1F
100
AcDbEntity
  8
AM_0
100
AcDbLine
 10
28.51924343831519
 20
58.88029156720303
 30
0.0
 11
138.5192414383152
 21
58.88029156720303
 31
0.0
  0
LINE
  5
B8C5
330
1F
100
AcDbEntity
  8
AM_0
100
AcDbLine
 10
28.51924343831519
 20
84.88028956720304
 30
0.0
 11
28.51924343831519
 21
58.88029156720303
 31
0.0
  0
LINE
  5
B8C6
330
1F
100
AcDbEntity
  8
AM_0
100
AcDbLine
 10
138.5192414383152
 20
84.88028956720304
 30
0.0
 11
138.5192414383152
 21
58.88029156720303
 31
0.0
  0
LINE
  5
B8C7
330
1F
100
AcDbEntity
  8
AM_0
100
AcDbLine
 10
28.51924343831519
 20
82.28029156720303
 30
0.0
 11
138.5192414383152
 21
82.28029156720303
 31
0.0
  0
LINE
  5
B8C8
330
1F
100
AcDbEntity
  8
AM_0
100
AcDbLine
 10
28.51924343831519
 20
61.48029756720302
 30
0.0
 11
138.5192414383152
 21
61.48029756720302
 31
0.0
  0
LINE
  5
B8C9
330
1F
100
AcDbEntity
  8
AM_0
100
AcDbLine
 10
103.5192414383152
 20
84.88028956720304
 30
0.0
 11
103.5192414383152
 21
82.28029156720303
 31
0.0
  0
LINE
  5
B8CA
330
1F
100
AcDbEntity
  8
AM_0
100
AcDbLine
 10
118.5192414383152
 20
84.88028956720304
 30
0.0
 11
118.5192414383152
 21
82.28029156720303
 31
0.0
  0
LINE
  5
B8CB
330
1F
100
AcDbEntity
  8
AM_0
100
AcDbLine
 10
63.51924543831518
 20
84.88028956720304
 30
0.0
 11
63.51924543831518
 21
82.28029156720303
 31
0.0
  0
LINE
  5
B8CC
330
1F
100
AcDbEntity
  8
AM_0
100
AcDbLine
 10
48.51924343831519
 20
84.88028956720304
 30
0.0
 11
48.51924343831519
 21
82.28029156720303
 31
0.0
  0
LINE
  5
B8CD
330
1F
100
AcDbEntity
  8
AM_0
100
AcDbLine
 10
48.51924343831519
 20
61.48029756720302
 30
0.0
 11
48.51924343831519
 21
58.88029156720303
 31
0.0
  0
LINE
  5
B8CE
330
1F
100
AcDbEntity
  8
AM_0
100
AcDbLine
 10
63.51924543831518
 20
61.48029756720302
 30
0.0
 11
63.51924543831518
 21
58.88029156720303
 31
0.0
  0
LINE
  5
B8CF
330
1F
100
AcDbEntity
  8
AM_0
100
AcDbLine
 10
103.5192414383152
 20
61.48029756720302
 30
0.0
 11
103.5192414383152
 21
58.88029156720303
 31
0.0
  0
LINE
  5
B8D0
330
1F
100
AcDbEntity
  8
AM_0
100
AcDbLine
 10
118.5192414383152
 20
61.48029756720302
 30
0.0
 11
118.5192414383152
 21
58.88029156720303
 31
0.0
  0
LINE
  5
B8D1
330
1F
100
AcDbEntity
  8
AM_7
 48
1.199999999999999
100
AcDbLine
 10
25.51924343831519
 20
71.88029156720304
 30
0.0
 11
141.5192414383152
 21
71.88029156720301
 31
0.0
  0
LINE
  5
B8D2
330
1F
100
AcDbEntity
  8
AM_7
100
AcDbLine
 10
83.51924543831518
 20
93.38029056720303
 30
0.0
 11
83.51924543831518
 21
46.38029156720302
 31
0.0
  0
LINE
  5
B8D3
330
1F
100
AcDbEntity
  8
AM_0
100
AcDbLine
 10
58.51924343831519
 20
80.88028956720304
 30
0.0
 11
58.51924343831519
 21
62.88029156720303
 31
0.0
  0
LINE
  5
B8D4
330
1F
100
AcDbEntity
  8
AM_0
100
AcDbLine
 10
108.5192414383152
 20
80.88028956720304
 30
0.0
 11
108.5192414383152
 21
62.88029156720303
 31
0.0
  0
LINE
  5
B8D5
330
1F
100
AcDbEntity
  8
AM_0
100
AcDbLine
 10
58.51924343831519
 20
62.88029156720303
 30
0.0
 11
108.5192414383152
 21
62.88029156720303
 31
0.0
  0
LINE
  5
B8D6
330
1F
100
AcDbEntity
  8
AM_0
100
AcDbLine
 10
58.51924343831519
 20
80.88028956720304
 30
0.0
 11
108.5192414383152
 21
80.88028956720304
 31
0.0
  0
LINE
  5
B8D7
330
1F
100
AcDbEntity
  8
AM_0
100
AcDbLine
 10
79.51924543831518
 20
89.38028956720303
 30
0.0
 11
79.51924543831518
 21
84.88028956720304
 31
0.0
  0
LINE
  5
B8D8
330
1F
100
AcDbEntity
  8
AM_0
100
AcDbLine
 10
87.51924543831519
 20
89.38028956720303
 30
0.0
 11
87.51924543831519
 21
84.88028956720304
 31
0.0
  0
LINE
  5
B8D9
330
1F
100
AcDbEntity
  8
AM_0
100
AcDbLine
 10
76.01924543831518
 20
89.38028956720303
 30
0.0
 11
76.01924543831518
 21
84.88028956720304
 31
0.0
  0
LINE
  5
B8DA
330
1F
100
AcDbEntity
  8
AM_0
100
AcDbLine
 10
91.01924543831518
 20
89.38028956720303
 30
0.0
 11
91.01924543831518
 21
84.88028956720304
 31
0.0
  0
LINE
  5
B8DB
330
1F
100
AcDbEntity
  8
AM_0
100
AcDbLine
 10
76.01924543831518
 20
55.88029156720303
 30
0.0
 11
76.01924543831518
 21
52.88029156720303
 31
0.0
  0
LINE
  5
B8DC
330
1F
100
AcDbEntity
  8
AM_0
100
AcDbLine
 10
91.01924543831518
 20
55.88029156720303
 30
0.0
 11
91.01924543831518
 21
52.88029156720303
 31
0.0
  0
LINE
  5
B8DD
330
1F
100
AcDbEntity
  8
AM_0
100
AcDbLine
 10
77.76924543831518
 20
90.38029056720302
 30
0.0
 11
89.26924543831518
 21
90.38029056720302
 31
0.0
  0
LINE
  5
B8DE
330
1F
100
AcDbEntity
  8
AM_0
100
AcDbLine
 10
75.81924843831519
 20
58.88029156720303
 30
0.0
 11
75.81924843831519
 21
56.88029156720303
 31
0.0
  0
LINE
  5
B8DF
330
1F
100
AcDbEntity
  8
AM_0
100
AcDbLine
 10
91.21925743831519
 20
58.88029156720303
 30
0.0
 11
91.21925743831519
 21
56.88029156720303
 31
0.0
  0
LINE
  5
B8E0
330
1F
100
AcDbEntity
  8
AM_0
100
AcDbLine
 10
75.81924843831519
 20
56.88029156720303
 30
0.0
 11
91.21925743831519
 21
56.88029156720303
 31
0.0
  0
LINE
  5
B8E1
330
1F
100
AcDbEntity
  8
AM_0
100
AcDbLine
 10
87.51924543831519
 20
82.28029156720303
 30
0.0
 11
87.51924543831519
 21
80.88028956720304
 31
0.0
  0
LINE
  5
B8E2
330
1F
100
AcDbEntity
  8
AM_0
100
AcDbLine
 10
79.51924543831518
 20
82.28029156720303
 30
0.0
 11
79.51924543831518
 21
80.88028956720304
 31
0.0
  0
LINE
  5
B8E3
330
1F
100
AcDbEntity
  8
AM_0
100
AcDbLine
 10
87.51924543831519
 20
62.88029156720303
 30
0.0
 11
87.51924543831519
 21
61.48029756720302
 31
0.0
  0
LINE
  5
B8E4
330
1F
100
AcDbEntity
  8
AM_0
100
AcDbLine
 10
79.51924543831518
 20
62.88029156720303
 30
0.0
 11
79.51924543831518
 21
61.48029756720302
 31
0.0
  0
LINE
  5
B8E5
330
1F
100
AcDbEntity
  8
AM_0
100
AcDbLine
 10
79.51924543831518
 20
55.88029156720303
 30
0.0
 11
79.51924543831518
 21
52.88029156720303
 31
0.0
  0
LINE
  5
B8E6
330
1F
100
AcDbEntity
  8
AM_0
100
AcDbLine
 10
79.51924543831523
 20
51.88029156720303
 30
0.0
 11
79.51924543831518
 21
49.38029156720303
 31
0.0
  0
LINE
  5
B8E7
330
1F
100
AcDbEntity
  8
AM_0
100
AcDbLine
 10
87.51924543831519
 20
55.88029156720303
 30
0.0
 11
87.51924543831519
 21
52.88029156720303
 31
0.0
  0
LINE
  5
B8E8
330
1F
100
AcDbEntity
  8
AM_0
100
AcDbLine
 10
87.51924543831519
 20
51.88029156720303
 30
0.0
 11
87.51924543831519
 21
49.38029156720303
 31
0.0
  0
LINE
  5
B8E9
330
1F
100
AcDbEntity
  8
AM_7
 48
0.6
100
AcDbLine
 10
40.01924343831518
 20
79.88029156720303
 30
0.0
 11
40.01924343831518
 21
63.88029156720303
 31
0.0
  0
LINE
  5
B8EA
330
1F
100
AcDbEntity
  8
AM_7
 48
0.6
100
AcDbLine
 10
128.0192414383152
 20
79.88028956720303
 30
0.0
 11
128.0192414383152
 21
63.88029156720303
 31
0.0
  0
LINE
  5
B8EB
330
1F
100
AcDbEntity
  8
AM_0
100
AcDbLine
 10
123.0192414383152
 20
76.88028956720303
 30
0.0
 11
128.0192414383152
 21
76.88028956720303
 31
0.0
  0
LINE
  5
B8EC
330
1F
100
AcDbEntity
  8
AM_0
100
AcDbLine
 10
123.0192414383152
 20
66.88029156720303
 30
0.0
 11
128.0192414383152
 21
66.88029156720303
 31
0.0
  0
LINE
  5
B8ED
330
1F
100
AcDbEntity
  8
AM_7
 48
0.6
100
AcDbLine
 10
123.0192414383152
 20
79.88028956720303
 30
0.0
 11
123.0192414383152
 21
63.88029156720303
 31
0.0
  0
LINE
  5
B8EE
330
1F
100
AcDbEntity
  8
AM_7
100
AcDbLine
 10
254.5534753587848
 20
133.5247304666844
 30
0.0
 11
310.5534753587849
 21
133.5247304666844
 31
0.0
  0
LINE
  5
B8EF
330
1F
100
AcDbEntity
  8
AM_7
100
AcDbLine
 10
282.5534753587849
 20
169.8580674666844
 30
0.0
 11
282.5534753587849
 21
105.5512813666844
 31
0.0
  0
LINE
  5
B8F0
330
1F
100
AcDbEntity
  8
AM_7
100
AcDbLine
 10
282.5534753587849
 20
52.88028756720303
 30
0.0
 11
282.5534753587849
 21
94.88029056720304
 31
0.0
  0
LINE
  5
B8F1
330
1F
100
AcDbEntity
  8
AM_7
 48
1.199999999999999
100
AcDbLine
 10
229.5534683587848
 20
72.54695556720304
 30
0.0
 11
335.5534793587849
 21
72.54695556720304
 31
0.0
  0
LINE
  5
B8F2
330
1F
100
AcDbEntity
  8
AM_0
100
AcDbLine
 10
232.5534683587848
 20
166.8580674666844
 30
0.0
 11
332.5534793587849
 21
166.8580674666844
 31
0.0
  0
LINE
  5
B8F3
330
1F
100
AcDbEntity
  8
AM_0
100
AcDbLine
 10
332.5534793587849
 20
166.8580674666844
 30
0.0
 11
332.5534793587849
 21
147.8580674666844
 31
0.0
  0
LINE
  5
B8F4
330
1F
100
AcDbEntity
  8
AM_0
100
AcDbLine
 10
232.5534683587848
 20
166.8580674666844
 30
0.0
 11
232.5534683587848
 21
147.8580674666844
 31
0.0
  0
LINE
  5
B8F5
330
1F
100
AcDbEntity
  8
AM_0
100
AcDbLine
 10
262.5534683587849
 20
117.8580669666844
 30
0.0
 11
302.5534753587848
 21
117.8580669666844
 31
0.0
  0
LINE
  5
B8F6
330
1F
100
AcDbEntity
  8
AM_0
100
AcDbLine
 10
232.5534733587848
 20
147.8580714666844
 30
0.0
 11
262.5534713587849
 21
117.8580731666844
 31
0.0
  0
LINE
  5
B8F7
330
1F
100
AcDbEntity
  8
AM_0
100
AcDbLine
 10
302.5534683587848
 20
117.8580731666844
 30
0.0
 11
332.5534793587849
 21
147.8580714666844
 31
0.0
  0
LINE
  5
B8F8
330
1F
100
AcDbEntity
  8
AM_0
100
AcDbLine
 10
282.5534683587848
 20
139.6914054666844
 30
0.0
 11
277.2129753587849
 21
136.6080694666844
 31
0.0
  0
LINE
  5
B8F9
330
1F
100
AcDbEntity
  8
AM_0
100
AcDbLine
 10
277.2129753587849
 20
136.6080664666844
 30
0.0
 11
277.2129753587849
 21
130.4414014666844
 31
0.0
  0
LINE
  5
B8FA
330
1F
100
AcDbEntity
  8
AM_0
100
AcDbLine
 10
277.2129753587849
 20
130.4413964666844
 30
0.0
 11
282.5534683587848
 21
127.3580644666844
 31
0.0
  0
LINE
  5
B8FB
330
1F
100
AcDbEntity
  8
AM_0
100
AcDbLine
 10
282.5534683587848
 20
127.3580664666844
 30
0.0
 11
287.8939603587848
 21
130.4414014666844
 31
0.0
  0
LINE
  5
B8FC
330
1F
100
AcDbEntity
  8
AM_0
100
AcDbLine
 10
287.8939603587848
 20
130.4414014666844
 30
0.0
 11
287.8939603587848
 21
136.6080664666844
 31
0.0
  0
LINE
  5
B8FD
330
1F
100
AcDbEntity
  8
AM_0
100
AcDbLine
 10
287.8939603587848
 20
136.6080674666844
 30
0.0
 11
282.5534683587848
 21
139.6913994666844
 31
0.0
  0
LINE
  5
B8FE
330
1F
100
AcDbEntity
  8
AM_0
100
AcDbLine
 10
232.5534683587848
 20
84.88028956720304
 30
0.0
 11
332.5534793587849
 21
84.88028956720304
 31
0.0
  0
LINE
  5
B8FF
330
1F
100
AcDbEntity
  8
AM_0
100
AcDbLine
 10
232.5534683587848
 20
82.88028956720303
 30
0.0
 11
332.5534793587849
 21
82.88028956720303
 31
0.0
  0
LINE
  5
B900
330
1F
100
AcDbEntity
  8
AM_0
100
AcDbLine
 10
232.5534683587848
 20
60.21361956720304
 30
0.0
 11
332.5534793587849
 21
60.21361956720304
 31
0.0
  0
LINE
  5
B901
330
1F
100
AcDbEntity
  8
AM_0
100
AcDbLine
 10
232.5534683587848
 20
62.21361956720304
 30
0.0
 11
332.5534793587849
 21
62.21361956720304
 31
0.0
  0
LINE
  5
B902
330
1F
100
AcDbEntity
  8
AM_0
100
AcDbLine
 10
257.5534683587849
 20
63.88029156720303
 30
0.0
 11
257.5534683587849
 21
81.21362356720302
 31
0.0
  0
LINE
  5
B903
330
1F
100
AcDbEntity
  8
AM_0
100
AcDbLine
 10
307.5534793587848
 20
63.88029156720303
 30
0.0
 11
307.5534793587848
 21
81.21362356720302
 31
0.0
  0
LINE
  5
B904
330
1F
100
AcDbEntity
  8
AM_0
100
AcDbLine
 10
257.5534683587849
 20
81.21362356720302
 30
0.0
 11
307.5534793587848
 21
81.21362356720302
 31
0.0
  0
LINE
  5
B905
330
1F
100
AcDbEntity
  8
AM_0
100
AcDbLine
 10
257.5534683587849
 20
63.88029156720303
 30
0.0
 11
307.5534793587848
 21
63.88029156720303
 31
0.0
  0
LINE
  5
B906
330
1F
100
AcDbEntity
  8
AM_0
100
AcDbLine
 10
277.9701323587848
 20
55.88028756720303
 30
0.0
 11
287.1368113587848
 21
55.88028756720303
 31
0.0
  0
LINE
  5
B907
330
1F
100
AcDbEntity
  8
AM_0
100
AcDbLine
 10
276.3868033587848
 20
56.54695556720303
 30
0.0
 11
276.3868033587848
 21
60.21361956720304
 31
0.0
  0
LINE
  5
B908
330
1F
100
AcDbEntity
  8
AM_0
100
AcDbLine
 10
288.7201393587849
 20
56.54695556720303
 30
0.0
 11
288.7201393587849
 21
60.21361956720304
 31
0.0
  0
LINE
  5
B909
330
1F
100
AcDbEntity
  8
AM_0
100
AcDbLine
 10
285.5534753587848
 20
56.54695556720303
 30
0.0
 11
285.5534753587848
 21
60.21361956720304
 31
0.0
  0
LINE
  5
B90A
330
1F
100
AcDbEntity
  8
AM_0
100
AcDbLine
 10
279.5534753587848
 20
56.54695556720303
 30
0.0
 11
279.5534753587848
 21
60.21361956720304
 31
0.0
  0
LINE
  5
B90B
330
1F
100
AcDbEntity
  8
AM_0
100
AcDbLine
 10
279.5534753587848
 20
91.88029056720303
 30
0.0
 11
285.5534753587848
 21
91.88029056720303
 31
0.0
  0
LINE
  5
B90C
330
1F
100
AcDbEntity
  8
AM_0
100
AcDbLine
 10
277.1034713587849
 20
86.54695556720303
 30
0.0
 11
288.0034653587848
 21
86.54695556720303
 31
0.0
  0
LINE
  5
B90D
330
1F
100
AcDbEntity
  8
AM_0
100
AcDbLine
 10
277.1034713587849
 20
84.88028956720304
 30
0.0
 11
277.1034713587849
 21
86.54695556720303
 31
0.0
  0
LINE
  5
B90E
330
1F
100
AcDbEntity
  8
AM_0
100
AcDbLine
 10
288.0034653587848
 20
84.88028956720304
 30
0.0
 11
288.0034653587848
 21
86.54695556720303
 31
0.0
  0
LINE
  5
B90F
330
1F
100
AcDbEntity
  8
AM_0
100
AcDbLine
 10
276.3868033587848
 20
87.21362356720304
 30
0.0
 11
276.3868033587848
 21
89.88028956720304
 31
0.0
  0
LINE
  5
B910
330
1F
100
AcDbEntity
  8
AM_0
100
AcDbLine
 10
288.7201393587849
 20
87.21362356720304
 30
0.0
 11
288.7201393587849
 21
89.88028956720304
 31
0.0
  0
LINE
  5
B911
330
1F
100
AcDbEntity
  8
AM_0
100
AcDbLine
 10
277.9701323587848
 20
90.54695856720304
 30
0.0
 11
287.1368113587848
 21
90.54695856720304
 31
0.0
  0
LINE
  5
B912
330
1F
100
AcDbEntity
  8
AM_0
100
AcDbLine
 10
279.5534753587848
 20
62.21361956720304
 30
0.0
 11
279.5534753587848
 21
63.88029156720303
 31
0.0
  0
LINE
  5
B913
330
1F
100
AcDbEntity
  8
AM_0
100
AcDbLine
 10
285.5534753587848
 20
62.21361956720304
 30
0.0
 11
285.5534753587848
 21
63.88029156720303
 31
0.0
  0
LINE
  5
B914
330
1F
100
AcDbEntity
  8
AM_0
100
AcDbLine
 10
285.5534753587848
 20
87.21362356720304
 30
0.0
 11
285.5534753587848
 21
89.88029041785237
 31
0.0
  0
LINE
  5
B915
330
1F
100
AcDbEntity
  8
AM_0
100
AcDbLine
 10
285.5534753587848
 20
90.54695856720304
 30
0.0
 11
285.5534753587848
 21
91.88029056720303
 31
0.0
  0
LINE
  5
B916
330
1F
100
AcDbEntity
  8
AM_0
100
AcDbLine
 10
279.5534753587848
 20
87.21362356720304
 30
0.0
 11
279.5534753587848
 21
89.88029041785237
 31
0.0
  0
LINE
  5
B917
330
1F
100
AcDbEntity
  8
AM_0
100
AcDbLine
 10
279.5534753587848
 20
90.54695856720304
 30
0.0
 11
279.5534753587848
 21
91.88029056720303
 31
0.0
  0
LINE
  5
B918
330
1F
100
AcDbEntity
  8
AM_0
100
AcDbLine
 10
232.5534683587848
 20
84.88028956720304
 30
0.0
 11
232.5534683587848
 21
60.21361956720304
 31
0.0
  0
LINE
  5
B919
330
1F
100
AcDbEntity
  8
AM_0
100
AcDbLine
 10
332.5534793587849
 20
84.88028956720304
 30
0.0
 11
332.5534793587849
 21
60.21361956720304
 31
0.0
  0
LINE
  5
B91A
330
1F
100
AcDbEntity
  8
AM_7
 48
0.6
100
AcDbLine
 10
244.2201323587848
 20
78.88028886720303
 30
0.0
 11
244.2201323587848
 21
66.21362226720305
 31
0.0
  0
LINE
  5
B91B
330
1F
100
AcDbEntity
  8
AM_7
 48
0.6
100
AcDbLine
 10
320.8868093587848
 20
78.88028886720303
 30
0.0
 11
320.8868093587848
 21
66.21362226720305
 31
0.0
  0
LINE
  5
B91C
330
1F
100
AcDbEntity
  8
AM_0
100
AcDbLine
 10
79.51924543831518
 20
49.38029156720303
 30
0.0
 11
87.51924543831519
 21
49.38029156720303
 31
0.0
  0
LINE
  5
B91D
330
1F
100
AcDbEntity
  8
AM_0
100
AcDbLine
 10
279.5534753587848
 20
81.21362356720302
 30
0.0
 11
279.5534753587848
 21
82.88028956720303
 31
0.0
  0
LINE
  5
B91E
330
1F
100
AcDbEntity
  8
AM_0
100
AcDbLine
 10
285.5534753587848
 20
81.21362356720302
 30
0.0
 11
285.5534753587848
 21
82.88028956720303
 31
0.0
  0
LINE
  5
B91F
330
1F
100
AcDbEntity
  8
AM_0
100
AcDbLine
 10
77.76924543831518
 20
51.88029156720303
 30
0.0
 11
89.26924543831518
 21
51.88029156720303
 31
0.0
  0
ARC
  5
B920
330
1F
100
AcDbEntity
  8
AM_0
100
AcDbCircle
 10
31.51924343831519
 20
159.8580754666844
 30
0.0
 40
3.0
100
AcDbArc
 50
180.0
 51
270.0
  0
ARC
  5
B921
330
1F
100
AcDbEntity
  8
AM_0
100
AcDbCircle
 10
135.5192414383152
 20
159.8580754666844
 30
0.0
 40
3.0
100
AcDbArc
 50
270.0
 51
0.0
  0
ARC
  5
B922
330
1F
100
AcDbEntity
  8
AM_0
100
AcDbCircle
 10
83.51924543831518
 20
137.8580734666844
 30
0.0
 40
25.0
100
AcDbArc
 50
184.1309200000001
 51
355.8690799999998
  0
ARC
  5
B923
330
1F
100
AcDbEntity
  8
AM_0
100
AcDbCircle
 10
77.76924543831518
 20
88.34903956720303
 30
0.0
 40
2.03125
100
AcDbArc
 50
30.51023699999968
 51
149.4897600000002
  0
ARC
  5
B924
330
1F
100
AcDbEntity
  8
AM_0
100
AcDbCircle
 10
83.51924543831518
 20
81.88028956720303
 30
0.0
 40
8.5
100
AcDbArc
 50
61.92751300000068
 51
118.0724899999991
  0
ARC
  5
B925
330
1F
100
AcDbEntity
  8
AM_0
100
AcDbCircle
 10
89.26924543831518
 20
88.34903956720303
 30
0.0
 40
2.03125
100
AcDbArc
 50
30.51023699999968
 51
149.4897600000002
  0
ARC
  5
B926
330
1F
100
AcDbEntity
  8
AM_0
100
AcDbCircle
 10
77.76924543831518
 20
53.91154156720303
 30
0.0
 40
2.03125
100
AcDbArc
 50
210.5102399999997
 51
329.4897600000002
  0
ARC
  5
B927
330
1F
100
AcDbEntity
  8
AM_0
100
AcDbCircle
 10
83.51924543831518
 20
60.38029156720303
 30
0.0
 40
8.5
100
AcDbArc
 50
241.9275100000009
 51
298.072489999999
  0
ARC
  5
B928
330
1F
100
AcDbEntity
  8
AM_0
100
AcDbCircle
 10
89.26924543831518
 20
53.91154156720303
 30
0.0
 40
2.03125
100
AcDbArc
 50
210.5102399999997
 51
329.4897600000002
  0
ARC
  5
B929
330
1F
100
AcDbEntity
  8
AM_0
100
AcDbCircle
 10
89.26924543831518
 20
54.84904156720303
 30
0.0
 40
2.03125
100
AcDbArc
 50
30.51023699999968
 51
149.4897600000002
  0
ARC
  5
B92A
330
1F
100
AcDbEntity
  8
AM_0
100
AcDbCircle
 10
83.51924543831518
 20
48.38029556720304
 30
0.0
 40
8.5
100
AcDbArc
 50
61.92751300000068
 51
118.0724899999991
  0
ARC
  5
B92B
330
1F
100
AcDbEntity
  8
AM_0
100
AcDbCircle
 10
77.76924543831518
 20
54.84904156720303
 30
0.0
 40
2.03125
100
AcDbArc
 50
30.51023699999968
 51
149.4897600000002
  0
CIRCLE
  5
B92C
330
1F
100
AcDbEntity
  8
AM_0
100
AcDbCircle
 10
40.01924343831518
 20
71.88029156720303
 30
0.0
 40
5.0
  0
ARC
  5
B92D
330
1F
100
AcDbEntity
  8
AM_0
100
AcDbCircle
 10
128.0192414383152
 20
71.88029156720303
 30
0.0
 40
5.0
100
AcDbArc
 50
0.0
 51
90.0
  0
ARC
  5
B92E
330
1F
100
AcDbEntity
  8
AM_0
100
AcDbCircle
 10
123.0192414383152
 20
71.88029156720303
 30
0.0
 40
5.0
100
AcDbArc
 50
90.0
 51
270.0
  0
ARC
  5
B92F
330
1F
100
AcDbEntity
  8
AM_0
100
AcDbCircle
 10
128.0192414383152
 20
71.88029156720303
 30
0.0
 40
5.0
100
AcDbArc
 50
270.0
 51
0.0
  0
ARC
  5
B930
330
1F
100
AcDbEntity
  8
AM_0
100
AcDbCircle
 10
46.63812343831517
 20
153.8580754666844
 30
0.0
 40
3.0
100
AcDbArc
 50
25.82098999999896
 51
90.0
  0
ARC
  5
B931
330
1F
100
AcDbEntity
  8
AM_0
100
AcDbCircle
 10
65.40037943831521
 20
128.8580734666844
 30
0.0
 40
3.0
100
AcDbArc
 50
205.8209899999989
 51
270.0
  0
ARC
  5
B932
330
1F
100
AcDbEntity
  8
AM_0
100
AcDbCircle
 10
101.6381224383152
 20
128.8580734666844
 30
0.0
 40
3.0
100
AcDbArc
 50
270.0
 51
334.179010000001
  0
ARC
  5
B933
330
1F
100
AcDbEntity
  8
AM_0
100
AcDbCircle
 10
120.4003754383151
 20
153.8580754666844
 30
0.0
 40
3.0
100
AcDbArc
 50
90.0
 51
154.179010000001
  0
CIRCLE
  5
B934
330
1F
100
AcDbEntity
  8
AM_2
100
AcDbCircle
 10
83.51924543831518
 20
137.8580734666844
 30
0.0
 40
6.495191099999999
  0
ARC
  5
B935
330
1F
100
AcDbEntity
  8
AM_0
100
AcDbCircle
 10
282.5534753587849
 20
133.5247304666844
 30
0.0
 40
25.0
100
AcDbArc
 50
218.8046200000008
 51
321.1953799999992
  0
CIRCLE
  5
B936
330
1F
100
AcDbEntity
  8
AM_2
100
AcDbCircle
 10
282.5534753587849
 20
133.5247304666844
 30
0.0
 40
5.3400002
  0
ARC
  5
B937
330
1F
100
AcDbEntity
  8
AM_0
100
AcDbCircle
 10
277.9701323587848
 20
58.09383056720303
 30
0.0
 40
2.213541699999999
100
AcDbArc
 50
224.33265
 51
315.66735
  0
ARC
  5
B938
330
1F
100
AcDbEntity
  8
AM_0
100
AcDbCircle
 10
282.5534753587849
 20
62.96361956720303
 30
0.0
 40
7.083333500000001
100
AcDbArc
 50
244.9423899999992
 51
295.0576100000009
  0
ARC
  5
B939
330
1F
100
AcDbEntity
  8
AM_0
100
AcDbCircle
 10
287.1368113587848
 20
58.09383056720303
 30
0.0
 40
2.213541699999999
100
AcDbArc
 50
224.33265
 51
315.66735
  0
ARC
  5
B93A
330
1F
100
AcDbEntity
  8
AM_0
100
AcDbCircle
 10
277.9701323587848
 20
88.76049856720303
 30
0.0
 40
2.213541699999999
100
AcDbArc
 50
224.33265
 51
315.66735
  0
ARC
  5
B93B
330
1F
100
AcDbEntity
  8
AM_0
100
AcDbCircle
 10
282.5534753587849
 20
93.63029056720304
 30
0.0
 40
7.083333500000001
100
AcDbArc
 50
244.9423899999992
 51
295.0576100000009
  0
ARC
  5
B93C
330
1F
100
AcDbEntity
  8
AM_0
100
AcDbCircle
 10
287.1368113587848
 20
88.76049856720303
 30
0.0
 40
2.213541699999999
100
AcDbArc
 50
224.33265
 51
315.66735
  0
ARC
  5
B93D
330
1F
100
AcDbEntity
  8
AM_0
100
AcDbCircle
 10
277.9701323587848
 20
88.33341456720303
 30
0.0
 40
2.213541699999999
100
AcDbArc
 50
44.33264599999934
 51
135.6673499999999
  0
ARC
  5
B93E
330
1F
100
AcDbEntity
  8
AM_0
100
AcDbCircle
 10
282.5534753587849
 20
83.46362356720304
 30
0.0
 40
7.083333500000001
100
AcDbArc
 50
64.94238900000103
 51
115.0576100000008
  0
ARC
  5
B93F
330
1F
100
AcDbEntity
  8
AM_0
100
AcDbCircle
 10
287.1368113587848
 20
88.33341456720303
 30
0.0
 40
2.213541699999999
100
AcDbArc
 50
44.33264599999934
 51
135.6673499999999
  0
CIRCLE
  5
B940
330
1F
100
AcDbEntity
  8
AM_0
100
AcDbCircle
 10
244.2201323587848
 20
72.54695556720304
 30
0.0
 40
3.3333333
  0
CIRCLE
  5
B941
330
1F
100
AcDbEntity
  8
AM_0
100
AcDbCircle
 10
320.8868093587848
 20
72.54695556720304
 30
0.0
 40
3.3333333
  0
TEXT
  5
B942
330
1F
100
AcDbEntity
  8
AM_6
100
AcDbText
 10
135.8805768051474
 20
255.3786894666844
 30
0.0
 40
4.8000002
  1
ＳＴ－１６４－２
 41
0.5660139600000001
100
AcDbText
  0
TEXT
  5
B943
330
1F
100
AcDbEntity
  8
AM_6
100
AcDbText
 10
135.8805768051474
 20
247.3786894666844
 30
0.0
 40
4.8000002
  1
ＳＴ－１６４－３
 41
0.5660139600000001
100
AcDbText
  0
TEXT
  5
B944
330
1F
100
AcDbEntity
  8
AM_6
100
AcDbText
 10
295.1597058051474
 20
271.3786894666844
 30
0.0
 40
4.8000002
  1
枠ｔ
 41
0.8643459000000001
100
AcDbText
  0
TEXT
  5
B945
330
1F
100
AcDbEntity
  8
AM_6
100
AcDbText
 10
309.2739858051474
 20
247.3786894666844
 30
0.0
 40
4.8000002
  1
　　５００ｋｇ／２コ
 41
0.54332075
100
AcDbText
  0
TEXT
  5
B946
330
1F
100
AcDbEntity
  8
AM_6
100
AcDbText
 10
309.2739858051474
 20
255.3786894666844
 30
0.0
 40
4.8000002
  1
　　３００ｋｇ／２コ
 41
0.54332075
100
AcDbText
  0
TEXT
  5
B947
330
1F
100
AcDbEntity
  8
AM_6
100
AcDbText
 10
309.2739858051474
 20
263.3786894666844
 30
0.0
 40
4.8000002
  1
　　２００ｋｇ／２コ
 41
0.54332075
100
AcDbText
  0
TEXT
  5
B948
330
1F
100
AcDbEntity
  8
AM_6
100
AcDbText
 10
312.9596958051474
 20
271.3786894666844
 30
0.0
 40
4.8000002
  1
標準耐荷重
 41
0.84891105
100
AcDbText
  0
TEXT
  5
B949
330
1F
100
AcDbEntity
  8
AM_6
100
AcDbText
 10
280.2740158051474
 20
247.3786894666844
 30
0.0
 40
4.8000002
  1
５４
 41
0.6302521
100
AcDbText
  0
TEXT
  5
B94A
330
1F
100
AcDbEntity
  8
AM_6
100
AcDbText
 10
264.2740188051474
 20
247.3786894666844
 30
0.0
 40
4.8000002
  1
１０
 41
0.6302521
100
AcDbText
  0
TEXT
  5
B94B
330
1F
100
AcDbEntity
  8
AM_6
100
AcDbText
 10
248.2740188051474
 20
247.3786894666844
 30
0.0
 40
4.8000002
  1
２５
 41
0.6302521
100
AcDbText
  0
TEXT
  5
B94C
330
1F
100
AcDbEntity
  8
AM_6
100
AcDbText
 10
232.2740188051474
 20
247.3786894666844
 30
0.0
 40
4.8000002
  1
３３
 41
0.6302521
100
AcDbText
  0
TEXT
  5
B94D
330
1F
100
AcDbEntity
  8
AM_6
100
AcDbText
 10
216.2740188051474
 20
247.3786894666844
 30
0.0
 40
4.8000002
  1
８０
 41
0.6302521
100
AcDbText
  0
TEXT
  5
B94E
330
1F
100
AcDbEntity
  8
AM_6
100
AcDbText
 10
200.2740188051474
 20
247.3786894666844
 30
0.0
 40
4.8000002
  1
７５
 41
0.6302521
100
AcDbText
  0
TEXT
  5
B94F
330
1F
100
AcDbEntity
  8
AM_6
100
AcDbText
 10
182.7740200051474
 20
247.3786894666844
 30
0.0
 40
4.8000002
  1
１２８
 41
0.5908613400000001
100
AcDbText
  0
TEXT
  5
B950
330
1F
100
AcDbEntity
  8
AM_6
100
AcDbText
 10
166.7740198051474
 20
247.3786894666844
 30
0.0
 40
4.8000002
  1
１５０
 41
0.5908613100000001
100
AcDbText
  0
TEXT
  5
B951
330
1F
100
AcDbEntity
  8
AM_6
100
AcDbText
 10
297.7739858051474
 20
247.3786894666844
 30
0.0
 40
4.8000002
  1
３
 41
0.7878150900000001
100
AcDbText
  0
TEXT
  5
B952
330
1F
100
AcDbEntity
  8
AM_6
100
AcDbText
 10
280.2740158051474
 20
255.3786894666844
 30
0.0
 40
4.8000002
  1
４７
 41
0.6302521
100
AcDbText
  0
TEXT
  5
B953
330
1F
100
AcDbEntity
  8
AM_6
100
AcDbText
 10
264.2740188051474
 20
255.3786894666844
 30
0.0
 40
4.8000002
  1
１０
 41
0.6302521
100
AcDbText
  0
TEXT
  5
B954
330
1F
100
AcDbEntity
  8
AM_6
100
AcDbText
 10
248.2740188051474
 20
255.3786894666844
 30
0.0
 40
4.8000002
  1
２０
 41
0.6302521
100
AcDbText
  0
TEXT
  5
B955
330
1F
100
AcDbEntity
  8
AM_6
100
AcDbText
 10
232.2740188051474
 20
255.3786894666844
 30
0.0
 40
4.8000002
  1
２８
 41
0.6302521
100
AcDbText
  0
TEXT
  5
B956
330
1F
100
AcDbEntity
  8
AM_6
100
AcDbText
 10
216.2740188051474
 20
255.3786894666844
 30
0.0
 40
4.8000002
  1
６５
 41
0.6302521
100
AcDbText
  0
TEXT
  5
B957
330
1F
100
AcDbEntity
  8
AM_6
100
AcDbText
 10
200.2740188051474
 20
255.3786894666844
 30
0.0
 40
4.8000002
  1
６０
 41
0.6302521
100
AcDbText
  0
TEXT
  5
B958
330
1F
100
AcDbEntity
  8
AM_6
100
AcDbText
 10
184.2740199051474
 20
255.3786894666844
 30
0.0
 40
4.8000002
  1
９８
 41
0.6302521
100
AcDbText
  0
TEXT
  5
B959
330
1F
100
AcDbEntity
  8
AM_6
100
AcDbText
 10
166.7740198051474
 20
255.3786894666844
 30
0.0
 40
4.8000002
  1
１２０
 41
0.5908613100000001
100
AcDbText
  0
TEXT
  5
B95A
330
1F
100
AcDbEntity
  8
AM_6
100
AcDbText
 10
297.7739858051474
 20
255.3786894666844
 30
0.0
 40
4.8000002
  1
３
 41
0.7878150900000001
100
AcDbText
  0
TEXT
  5
B95B
330
1F
100
AcDbEntity
  8
AM_6
100
AcDbText
 10
135.8805768051474
 20
263.3786894666844
 30
0.0
 40
4.8000002
  1
ＳＴ－１６４－１
 41
0.5660139600000001
100
AcDbText
  0
TEXT
  5
B95C
330
1F
100
AcDbEntity
  8
AM_6
100
AcDbText
 10
280.2740158051474
 20
263.3786894666844
 30
0.0
 40
4.8000002
  1
４１
 41
0.6302521
100
AcDbText
  0
TEXT
  5
B95D
330
1F
100
AcDbEntity
  8
AM_6
100
AcDbText
 10
216.2740188051474
 20
263.3786894666844
 30
0.0
 40
4.8000002
  1
５４
 41
0.63025208
100
AcDbText
  0
TEXT
  5
B95E
330
1F
100
AcDbEntity
  8
AM_6
100
AcDbText
 10
264.2740188051474
 20
263.3786894666844
 30
0.0
 40
4.8000002
  1
１０
 41
0.6302521
100
AcDbText
  0
TEXT
  5
B95F
330
1F
100
AcDbEntity
  8
AM_6
100
AcDbText
 10
166.7740198051474
 20
263.3786894666844
 30
0.0
 40
4.8000002
  1
１１０
 41
0.5908613100000001
100
AcDbText
  0
TEXT
  5
B960
330
1F
100
AcDbEntity
  8
AM_6
100
AcDbText
 10
248.2740188051474
 20
263.3786894666844
 30
0.0
 40
4.8000002
  1
１８
 41
0.6302521
100
AcDbText
  0
TEXT
  5
B961
330
1F
100
AcDbEntity
  8
AM_6
100
AcDbText
 10
232.2740188051474
 20
263.3786894666844
 30
0.0
 40
4.8000002
  1
２６
 41
0.6302521
100
AcDbText
  0
TEXT
  5
B962
330
1F
100
AcDbEntity
  8
AM_6
100
AcDbText
 10
296.0043303413214
 20
263.3786894666844
 30
0.0
 40
4.8000002
  1
２.５
 41
0.5908613100000001
100
AcDbText
  0
TEXT
  5
B963
330
1F
100
AcDbEntity
  8
AM_6
100
AcDbText
 10
200.2740188051474
 20
263.3786894666844
 30
0.0
 40
4.8000002
  1
５０
 41
0.6302521
100
AcDbText
  0
TEXT
  5
B964
330
1F
100
AcDbEntity
  8
AM_6
100
AcDbText
 10
265.5597328051474
 20
271.3786894666844
 30
0.0
 40
4.8000002
  1
Ｊ
 41
0.90036056
100
AcDbText
  0
TEXT
  5
B965
330
1F
100
AcDbEntity
  8
AM_6
100
AcDbText
 10
144.1597328051474
 20
271.3786894666844
 30
0.0
 40
4.8000002
  1
品番
 41
0.8643459000000001
100
AcDbText
  0
TEXT
  5
B966
330
1F
100
AcDbEntity
  8
AM_6
100
AcDbText
 10
281.5597358051474
 20
271.3786894666844
 30
0.0
 40
4.8000002
  1
Ｌ
 41
0.90036056
100
AcDbText
  0
TEXT
  5
B967
330
1F
100
AcDbEntity
  8
AM_6
100
AcDbText
 10
201.5597328051474
 20
271.3786894666844
 30
0.0
 40
4.8000002
  1
Ｄ
 41
0.90036056
100
AcDbText
  0
TEXT
  5
B968
330
1F
100
AcDbEntity
  8
AM_6
100
AcDbText
 10
217.5597328051474
 20
271.3786894666844
 30
0.0
 40
4.8000002
  1
Ｆ
 41
0.90036056
100
AcDbText
  0
TEXT
  5
B969
330
1F
100
AcDbEntity
  8
AM_6
100
AcDbText
 10
249.5597328051474
 20
271.3786894666844
 30
0.0
 40
4.8000002
  1
Ｈ
 41
0.90036056
100
AcDbText
  0
TEXT
  5
B96A
330
1F
100
AcDbEntity
  8
AM_6
100
AcDbText
 10
233.5597328051474
 20
271.3786894666844
 30
0.0
 40
4.8000002
  1
Ｇ
 41
0.90036056
100
AcDbText
  0
TEXT
  5
B96B
330
1F
100
AcDbEntity
  8
AM_6
100
AcDbText
 10
169.5597330051474
 20
271.3786894666844
 30
0.0
 40
4.8000002
  1
Ａ
 41
0.90036056
100
AcDbText
  0
TEXT
  5
B96C
330
1F
100
AcDbEntity
  8
AM_6
100
AcDbText
 10
185.5597334051474
 20
271.3786894666844
 30
0.0
 40
4.8000002
  1
Ｂ
 41
0.90036056
100
AcDbText
  0
TEXT
  5
B96D
330
1F
100
AcDbEntity
  8
AM_6
100
AcDbText
 10
184.2740199051474
 20
263.3786894666844
 30
0.0
 40
4.8000002
  1
８８
 41
0.6302521
100
AcDbText
  0
TEXT
  5
B96E
330
1F
100
AcDbEntity
  8
AM_6
100
AcDbText
 10
135.8805768051474
 20
239.3786894666844
 30
0.0
 40
4.8000002
  1
ＳＴ－１６４－４
 41
0.5660139600000001
100
AcDbText
  0
TEXT
  5
B96F
330
1F
100
AcDbEntity
  8
AM_6
100
AcDbText
 10
135.8805768051474
 20
231.3786894666844
 30
0.0
 40
4.8000002
  1
ＳＴ－１６４－５
 41
0.5660139600000001
100
AcDbText
  0
TEXT
  5
B970
330
1F
100
AcDbEntity
  8
AM_6
100
AcDbText
 10
309.2739858051474
 20
239.3786894666844
 30
0.0
 40
4.8000002
  1
　　７００ｋｇ／２コ
 41
0.54332075
100
AcDbText
  0
TEXT
  5
B971
330
1F
100
AcDbEntity
  8
AM_6
100
AcDbText
 10
280.2740158051474
 20
239.3786894666844
 30
0.0
 40
4.8000002
  1
６０
 41
0.6302521
100
AcDbText
  0
TEXT
  5
B972
330
1F
100
AcDbEntity
  8
AM_6
100
AcDbText
 10
264.2740188051474
 20
239.3786894666844
 30
0.0
 40
4.8000002
  1
１４
 41
0.6302521
100
AcDbText
  0
TEXT
  5
B973
330
1F
100
AcDbEntity
  8
AM_6
100
AcDbText
 10
248.2740188051474
 20
239.3786894666844
 30
0.0
 40
4.8000002
  1
２７
 41
0.6302521
100
AcDbText
  0
TEXT
  5
B974
330
1F
100
AcDbEntity
  8
AM_6
100
AcDbText
 10
232.2740188051474
 20
239.3786894666844
 30
0.0
 40
4.8000002
  1
３８
 41
0.6302521
100
AcDbText
  0
TEXT
  5
B975
330
1F
100
AcDbEntity
  8
AM_6
100
AcDbText
 10
214.5240188051474
 20
239.3786894666844
 30
0.0
 40
4.8000002
  1
１００
 41
0.62368693
100
AcDbText
  0
TEXT
  5
B976
330
1F
100
AcDbEntity
  8
AM_6
100
AcDbText
 10
200.2740188051474
 20
239.3786894666844
 30
0.0
 40
4.8000002
  1
９０
 41
0.6302521
100
AcDbText
  0
TEXT
  5
B977
330
1F
100
AcDbEntity
  8
AM_6
100
AcDbText
 10
182.7740200051474
 20
239.3786894666844
 30
0.0
 40
4.8000002
  1
１４６
 41
0.5908613400000001
100
AcDbText
  0
TEXT
  5
B978
330
1F
100
AcDbEntity
  8
AM_6
100
AcDbText
 10
166.7740198051474
 20
239.3786894666844
 30
0.0
 40
4.8000002
  1
１８０
 41
0.5908613100000001
100
AcDbText
  0
TEXT
  5
B979
330
1F
100
AcDbEntity
  8
AM_6
100
AcDbText
 10
297.7739858051474
 20
239.3786894666844
 30
0.0
 40
4.8000002
  1
４
 41
0.7878150900000001
100
AcDbText
  0
TEXT
  5
B97A
330
1F
100
AcDbEntity
  8
AM_6
100
AcDbText
 10
309.2739858051474
 20
231.3786894666844
 30
0.0
 40
4.8000002
  1
１，０００ｋｇ／２コ
 41
0.54332075
100
AcDbText
  0
TEXT
  5
B97B
330
1F
100
AcDbEntity
  8
AM_6
100
AcDbText
 10
280.2740158051474
 20
231.3786894666844
 30
0.0
 40
4.8000002
  1
６７
 41
0.6302521
100
AcDbText
  0
TEXT
  5
B97C
330
1F
100
AcDbEntity
  8
AM_6
100
AcDbText
 10
264.2740188051474
 20
231.3786894666844
 30
0.0
 40
4.8000002
  1
１４
 41
0.6302521
100
AcDbText
  0
TEXT
  5
B97D
330
1F
100
AcDbEntity
  8
AM_6
100
AcDbText
 10
248.2740188051474
 20
231.3786894666844
 30
0.0
 40
4.8000002
  1
３０
 41
0.6302521
100
AcDbText
  0
TEXT
  5
B97E
330
1F
100
AcDbEntity
  8
AM_6
100
AcDbText
 10
232.2740188051474
 20
231.3786894666844
 30
0.0
 40
4.8000002
  1
４２
 41
0.6302521
100
AcDbText
  0
TEXT
  5
B97F
330
1F
100
AcDbEntity
  8
AM_6
100
AcDbText
 10
214.5240188051474
 20
231.3786894666844
 30
0.0
 40
4.8000002
  1
１１０
 41
0.62368693
100
AcDbText
  0
TEXT
  5
B980
330
1F
100
AcDbEntity
  8
AM_6
100
AcDbText
 10
166.7740198051474
 20
231.3786894666844
 30
0.0
 40
4.8000002
  1
２２０
 41
0.5908613100000001
100
AcDbText
  0
TEXT
  5
B981
330
1F
100
AcDbEntity
  8
AM_6
100
AcDbText
 10
297.7739858051474
 20
231.3786894666844
 30
0.0
 40
4.8000002
  1
４
 41
0.7878150900000001
100
AcDbText
  0
TEXT
  5
B982
330
1F
100
AcDbEntity
  8
AM_6
100
AcDbText
 10
198.5240188051474
 20
231.3786894666844
 30
0.0
 40
4.8000002
  1
１００
 41
0.62368693
100
AcDbText
  0
TEXT
  5
B983
330
1F
100
AcDbEntity
  8
AM_6
100
AcDbText
 10
182.7740200051474
 20
231.3786894666844
 30
0.0
 40
4.8000002
  1
１７６
 41
0.5908613400000001
100
AcDbText
  0
TEXT
  5
B984
330
1F
100
AcDbEntity
  8
AM_6
100
AcDbText
 10
135.8805768051474
 20
223.3786894666844
 30
0.0
 40
4.8000002
  1
ＳＴ－１６４－６
 41
0.5660139600000001
100
AcDbText
  0
TEXT
  5
B985
330
1F
100
AcDbEntity
  8
AM_6
100
AcDbText
 10
135.8805768051474
 20
215.3786894666844
 30
0.0
 40
4.8000002
  1
ＳＴ－１６４－７
 41
0.5660139600000001
100
AcDbText
  0
TEXT
  5
B986
330
1F
100
AcDbEntity
  8
AM_6
100
AcDbText
 10
135.8805768051474
 20
207.3786874666844
 30
0.0
 40
4.8000002
  1
ＳＴ－１６４－８
 41
0.5660139600000001
100
AcDbText
  0
TEXT
  5
B987
330
1F
100
AcDbEntity
  8
AM_6
100
AcDbText
 10
182.7740200051474
 20
223.3786894666844
 30
0.0
 40
4.8000002
  1
１８５
 41
0.5908613400000001
100
AcDbText
  0
TEXT
  5
B988
330
1F
100
AcDbEntity
  8
AM_6
100
AcDbText
 10
198.5240188051474
 20
223.3786894666844
 30
0.0
 40
4.8000002
  1
１３０
 41
0.62368693
100
AcDbText
  0
TEXT
  5
B989
330
1F
100
AcDbEntity
  8
AM_6
100
AcDbText
 10
297.7739858051474
 20
223.3786894666844
 30
0.0
 40
4.8000002
  1
４
 41
0.7878150900000001
100
AcDbText
  0
TEXT
  5
B98A
330
1F
100
AcDbEntity
  8
AM_6
100
AcDbText
 10
166.7740198051474
 20
223.3786894666844
 30
0.0
 40
4.8000002
  1
２５０
 41
0.5908613100000001
100
AcDbText
  0
TEXT
  5
B98B
330
1F
100
AcDbEntity
  8
AM_6
100
AcDbText
 10
214.5240188051474
 20
223.3786894666844
 30
0.0
 40
4.8000002
  1
１３９
 41
0.62368693
100
AcDbText
  0
TEXT
  5
B98C
330
1F
100
AcDbEntity
  8
AM_6
100
AcDbText
 10
232.2740188051474
 20
223.3786894666844
 30
0.0
 40
4.8000002
  1
５６
 41
0.6302521
100
AcDbText
  0
TEXT
  5
B98D
330
1F
100
AcDbEntity
  8
AM_6
100
AcDbText
 10
248.2740188051474
 20
223.3786894666844
 30
0.0
 40
4.8000002
  1
４２
 41
0.6302521
100
AcDbText
  0
TEXT
  5
B98E
330
1F
100
AcDbEntity
  8
AM_6
100
AcDbText
 10
264.2740188051474
 20
223.3786894666844
 30
0.0
 40
4.8000002
  1
１６
 41
0.6302521
100
AcDbText
  0
TEXT
  5
B98F
330
1F
100
AcDbEntity
  8
AM_6
100
AcDbText
 10
280.2740158051474
 20
223.3786894666844
 30
0.0
 40
4.8000002
  1
８１
 41
0.6302521
100
AcDbText
  0
TEXT
  5
B990
330
1F
100
AcDbEntity
  8
AM_6
100
AcDbText
 10
309.2739858051474
 20
223.3786894666844
 30
0.0
 40
4.8000002
  1
１，８００ｋｇ／２コ
 41
0.54332075
100
AcDbText
  0
TEXT
  5
B991
330
1F
100
AcDbEntity
  8
AM_6
100
AcDbText
 10
278.5240158051474
 20
215.3786894666844
 30
0.0
 40
4.8000002
  1
１０５
 41
0.62368693
100
AcDbText
  0
TEXT
  5
B992
330
1F
100
AcDbEntity
  8
AM_6
100
AcDbText
 10
264.2740188051474
 20
215.3786894666844
 30
0.0
 40
4.8000002
  1
２０
 41
0.6302521
100
AcDbText
  0
TEXT
  5
B993
330
1F
100
AcDbEntity
  8
AM_6
100
AcDbText
 10
248.2740188051474
 20
215.3786894666844
 30
0.0
 40
4.8000002
  1
５２
 41
0.6302521
100
AcDbText
  0
TEXT
  5
B994
330
1F
100
AcDbEntity
  8
AM_6
100
AcDbText
 10
232.2740188051474
 20
215.3786894666844
 30
0.0
 40
4.8000002
  1
７４
 41
0.6302521
100
AcDbText
  0
TEXT
  5
B995
330
1F
100
AcDbEntity
  8
AM_6
100
AcDbText
 10
214.5240188051474
 20
215.3786894666844
 30
0.0
 40
4.8000002
  1
１７５
 41
0.62368693
100
AcDbText
  0
TEXT
  5
B996
330
1F
100
AcDbEntity
  8
AM_6
100
AcDbText
 10
166.7740198051474
 20
215.3786894666844
 30
0.0
 40
4.8000002
  1
３００
 41
0.5908613100000001
100
AcDbText
  0
TEXT
  5
B997
330
1F
100
AcDbEntity
  8
AM_6
100
AcDbText
 10
297.7739858051474
 20
215.3786894666844
 30
0.0
 40
4.8000002
  1
６
 41
0.7878150900000001
100
AcDbText
  0
TEXT
  5
B998
330
1F
100
AcDbEntity
  8
AM_6
100
AcDbText
 10
198.5240188051474
 20
215.3786894666844
 30
0.0
 40
4.8000002
  1
１５０
 41
0.62368693
100
AcDbText
  0
TEXT
  5
B999
330
1F
100
AcDbEntity
  8
AM_6
100
AcDbText
 10
182.7740200051474
 20
215.3786894666844
 30
0.0
 40
4.8000002
  1
２３０
 41
0.5908613400000001
100
AcDbText
  0
TEXT
  5
B99A
330
1F
100
AcDbEntity
  8
AM_6
100
AcDbText
 10
309.2739858051474
 20
215.3786894666844
 30
0.0
 40
4.8000002
  1
２，０００ｋｇ／２コ
 41
0.54332075
100
AcDbText
  0
TEXT
  5
B99B
330
1F
100
AcDbEntity
  8
AM_6
100
AcDbText
 10
278.5240158051474
 20
207.3786874666844
 30
0.0
 40
4.8000002
  1
１０５
 41
0.62368693
100
AcDbText
  0
TEXT
  5
B99C
330
1F
100
AcDbEntity
  8
AM_6
100
AcDbText
 10
264.2740188051474
 20
207.3786874666844
 30
0.0
 40
4.8000002
  1
２０
 41
0.6302521
100
AcDbText
  0
TEXT
  5
B99D
330
1F
100
AcDbEntity
  8
AM_6
100
AcDbText
 10
248.2740188051474
 20
207.3786874666844
 30
0.0
 40
4.8000002
  1
５２
 41
0.6302521
100
AcDbText
  0
TEXT
  5
B99E
330
1F
100
AcDbEntity
  8
AM_6
100
AcDbText
 10
232.2740188051474
 20
207.3786874666844
 30
0.0
 40
4.8000002
  1
７４
 41
0.6302521
100
AcDbText
  0
TEXT
  5
B99F
330
1F
100
AcDbEntity
  8
AM_6
100
AcDbText
 10
214.5240188051474
 20
207.3786874666844
 30
0.0
 40
4.8000002
  1
２１５
 41
0.62368693
100
AcDbText
  0
TEXT
  5
B9A0
330
1F
100
AcDbEntity
  8
AM_6
100
AcDbText
 10
166.7740198051474
 20
207.3786874666844
 30
0.0
 40
4.8000002
  1
３００
 41
0.5908613100000001
100
AcDbText
  0
TEXT
  5
B9A1
330
1F
100
AcDbEntity
  8
AM_6
100
AcDbText
 10
297.7739858051474
 20
207.3786874666844
 30
0.0
 40
4.8000002
  1
６
 41
0.7878150900000001
100
AcDbText
  0
TEXT
  5
B9A2
330
1F
100
AcDbEntity
  8
AM_6
100
AcDbText
 10
198.5240188051474
 20
207.3786874666844
 30
0.0
 40
4.8000002
  1
２００
 41
0.62368693
100
AcDbText
  0
TEXT
  5
B9A3
330
1F
100
AcDbEntity
  8
AM_6
100
AcDbText
 10
182.7740200051474
 20
207.3786874666844
 30
0.0
 40
4.8000002
  1
２３０
 41
0.5908613400000001
100
AcDbText
  0
TEXT
  5
B9A4
330
1F
100
AcDbEntity
  8
AM_6
100
AcDbText
 10
309.2739858051474
 20
207.3786874666844
 30
0.0
 40
4.8000002
  1
２，３００ｋｇ／２コ
 41
0.54332075
100
AcDbText
  0
TEXT
  5
B9A5
330
1F
100
AcDbEntity
  8
AM_6
100
AcDbText
 10
54.08945427285596
 20
184.5251955377444
 30
0.0
 40
5.0
  1
ST-164-1,2,3,4,5
 41
0.74054621
100
AcDbText
  0
TEXT
  5
B9A6
330
1F
100
AcDbEntity
  8
AM_6
100
AcDbText
 10
261.1217424426903
 20
184.5251955377444
 30
0.0
 40
5.0
  1
ST-164-6,7,8
 41
0.74054621
100
AcDbText
  0
LINE
  5
B9A7
330
1F
100
AcDbEntity
  8
AM_0
100
AcDbLine
 10
165.2001208910887
 20
164.3580674666844
 30
0.0
 11
165.2001208910887
 21
125.8580744666844
 31
0.0
  0
LINE
  5
B9A8
330
1F
100
AcDbEntity
  8
AM_0
100
AcDbLine
 10
167.8001188910887
 20
164.2580674666844
 30
0.0
 11
167.8001188910887
 21
125.8580744666844
 31
0.0
  0
LINE
  5
B9A9
330
1F
100
AcDbEntity
  8
AM_0
100
AcDbLine
 10
188.6001128910887
 20
164.2580674666844
 30
0.0
 11
188.6001128910887
 21
125.8580744666844
 31
0.0
  0
LINE
  5
B9AA
330
1F
100
AcDbEntity
  8
AM_0
100
AcDbLine
 10
191.2001188910887
 20
164.3580674666844
 30
0.0
 11
191.2001188910887
 21
125.8580744666844
 31
0.0
  0
LINE
  5
B9AB
330
1F
100
AcDbEntity
  8
AM_0
100
AcDbLine
 10
167.7001208910887
 20
166.8580674666844
 30
0.0
 11
188.7001188910886
 21
166.8580674666844
 31
0.0
  0
LINE
  5
B9AC
330
1F
100
AcDbEntity
  8
AM_0
100
AcDbLine
 10
167.8001188910887
 20
164.2580674666844
 30
0.0
 11
188.6001128910887
 21
164.2580674666844
 31
0.0
  0
LINE
  5
B9AD
330
1F
100
AcDbEntity
  8
AM_0
100
AcDbLine
 10
167.8001188910887
 20
156.8580754666844
 30
0.0
 11
165.2001208910887
 21
156.8580754666844
 31
0.0
  0
LINE
  5
B9AE
330
1F
100
AcDbEntity
  8
AM_0
100
AcDbLine
 10
188.6001128910887
 20
156.8580754666844
 30
0.0
 11
191.2001188910887
 21
156.8580754666844
 31
0.0
  0
LINE
  5
B9AF
330
1F
100
AcDbEntity
  8
AM_0
100
AcDbLine
 10
165.2001208910887
 20
125.8580744666844
 30
0.0
 11
167.8001188910886
 21
125.8580744666844
 31
0.0
  0
LINE
  5
B9B0
330
1F
100
AcDbEntity
  8
AM_0
100
AcDbLine
 10
188.6001128910887
 20
125.8580744666844
 30
0.0
 11
191.2001188910887
 21
125.8580744666844
 31
0.0
  0
LINE
  5
B9B1
330
1F
100
AcDbEntity
  8
AM_7
100
AcDbLine
 10
156.7001198910887
 20
137.8580764666844
 30
0.0
 11
203.7001188910887
 21
137.8580764666844
 31
0.0
  0
LINE
  5
B9B2
330
1F
100
AcDbEntity
  8
AM_0
100
AcDbLine
 10
169.2001208910887
 20
112.8580744666844
 30
0.0
 11
187.2001188910887
 21
112.8580744666844
 31
0.0
  0
LINE
  5
B9B3
330
1F
100
AcDbEntity
  8
AM_0
100
AcDbLine
 10
169.2001208910887
 20
162.8580724666844
 30
0.0
 11
187.2001188910887
 21
162.8580724666844
 31
0.0
  0
LINE
  5
B9B4
330
1F
100
AcDbEntity
  8
AM_0
100
AcDbLine
 10
187.2001188910887
 20
112.8580744666844
 30
0.0
 11
187.2001188910887
 21
162.8580724666844
 31
0.0
  0
LINE
  5
B9B5
330
1F
100
AcDbEntity
  8
AM_0
100
AcDbLine
 10
169.2001208910887
 20
112.8580744666844
 30
0.0
 11
169.2001208910887
 21
162.8580724666844
 31
0.0
  0
LINE
  5
B9B6
330
1F
100
AcDbEntity
  8
AM_0
100
AcDbLine
 10
160.7001208910887
 20
133.8580764666844
 30
0.0
 11
165.2001208910887
 21
133.8580764666844
 31
0.0
  0
LINE
  5
B9B7
330
1F
100
AcDbEntity
  8
AM_0
100
AcDbLine
 10
160.7001208910887
 20
141.8580764666844
 30
0.0
 11
165.2001208910887
 21
141.8580764666844
 31
0.0
  0
LINE
  5
B9B8
330
1F
100
AcDbEntity
  8
AM_0
100
AcDbLine
 10
160.7001208910887
 20
130.3580764666844
 30
0.0
 11
165.2001208910887
 21
130.3580764666844
 31
0.0
  0
LINE
  5
B9B9
330
1F
100
AcDbEntity
  8
AM_0
100
AcDbLine
 10
160.7001208910887
 20
145.3580764666844
 30
0.0
 11
165.2001208910887
 21
145.3580764666844
 31
0.0
  0
LINE
  5
B9BA
330
1F
100
AcDbEntity
  8
AM_0
100
AcDbLine
 10
194.2001188910887
 20
130.3580764666844
 30
0.0
 11
197.2001188910887
 21
130.3580764666844
 31
0.0
  0
LINE
  5
B9BB
330
1F
100
AcDbEntity
  8
AM_0
100
AcDbLine
 10
194.2001188910887
 20
145.3580764666844
 30
0.0
 11
197.2001188910887
 21
145.3580764666844
 31
0.0
  0
LINE
  5
B9BC
330
1F
100
AcDbEntity
  8
AM_0
100
AcDbLine
 10
159.7001198910887
 20
132.1080764666844
 30
0.0
 11
159.7001198910887
 21
143.6080764666844
 31
0.0
  0
LINE
  5
B9BD
330
1F
100
AcDbEntity
  8
AM_0
100
AcDbLine
 10
191.2001188910887
 20
130.1580794666844
 30
0.0
 11
193.2001188910887
 21
130.1580794666844
 31
0.0
  0
LINE
  5
B9BE
330
1F
100
AcDbEntity
  8
AM_0
100
AcDbLine
 10
191.2001188910887
 20
145.5580884666844
 30
0.0
 11
193.2001188910887
 21
145.5580884666844
 31
0.0
  0
LINE
  5
B9BF
330
1F
100
AcDbEntity
  8
AM_0
100
AcDbLine
 10
193.2001188910887
 20
130.1580794666844
 30
0.0
 11
193.2001188910887
 21
145.5580884666844
 31
0.0
  0
LINE
  5
B9C0
330
1F
100
AcDbEntity
  8
AM_0
100
AcDbLine
 10
167.8001188910887
 20
141.8580764666844
 30
0.0
 11
169.2001208910887
 21
141.8580764666844
 31
0.0
  0
LINE
  5
B9C1
330
1F
100
AcDbEntity
  8
AM_0
100
AcDbLine
 10
167.8001188910887
 20
133.8580764666844
 30
0.0
 11
169.2001208910887
 21
133.8580764666844
 31
0.0
  0
LINE
  5
B9C2
330
1F
100
AcDbEntity
  8
AM_0
100
AcDbLine
 10
187.2001188910887
 20
141.8580764666844
 30
0.0
 11
188.6001128910887
 21
141.8580764666844
 31
0.0
  0
LINE
  5
B9C3
330
1F
100
AcDbEntity
  8
AM_0
100
AcDbLine
 10
187.2001188910887
 20
133.8580764666844
 30
0.0
 11
188.6001128910887
 21
133.8580764666844
 31
0.0
  0
LINE
  5
B9C4
330
1F
100
AcDbEntity
  8
AM_0
100
AcDbLine
 10
194.2001188910887
 20
133.8580764666844
 30
0.0
 11
197.2001188910887
 21
133.8580764666844
 31
0.0
  0
LINE
  5
B9C5
330
1F
100
AcDbEntity
  8
AM_0
100
AcDbLine
 10
198.2001188910887
 20
133.8580764666845
 30
0.0
 11
200.7001188910887
 21
133.8580764666844
 31
0.0
  0
LINE
  5
B9C6
330
1F
100
AcDbEntity
  8
AM_0
100
AcDbLine
 10
194.2001188910887
 20
141.8580764666844
 30
0.0
 11
197.2001188910887
 21
141.8580764666844
 31
0.0
  0
LINE
  5
B9C7
330
1F
100
AcDbEntity
  8
AM_0
100
AcDbLine
 10
198.2001188910887
 20
141.8580764666844
 30
0.0
 11
200.7001188910887
 21
141.8580764666844
 31
0.0
  0
LINE
  5
B9C8
330
1F
100
AcDbEntity
  8
AM_0
100
AcDbLine
 10
200.7001188910887
 20
133.8580764666844
 30
0.0
 11
200.7001188910887
 21
141.8580764666844
 31
0.0
  0
LINE
  5
B9C9
330
1F
100
AcDbEntity
  8
AM_0
100
AcDbLine
 10
198.2001188910887
 20
132.1080764666844
 30
0.0
 11
198.2001188910887
 21
143.6080764666844
 31
0.0
  0
ARC
  5
B9CA
330
1F
100
AcDbEntity
  8
AM_0
100
AcDbCircle
 10
161.7313708910887
 20
132.1080764666844
 30
0.0
 40
2.03125
100
AcDbArc
 50
120.510237
 51
239.4897600000009
  0
ARC
  5
B9CB
330
1F
100
AcDbEntity
  8
AM_0
100
AcDbCircle
 10
168.2001208910887
 20
137.8580764666844
 30
0.0
 40
8.5
100
AcDbArc
 50
151.9275130000012
 51
208.0724899999993
  0
ARC
  5
B9CC
330
1F
100
AcDbEntity
  8
AM_0
100
AcDbCircle
 10
161.7313708910887
 20
143.6080764666844
 30
0.0
 40
2.03125
100
AcDbArc
 50
120.510237
 51
239.4897600000009
  0
ARC
  5
B9CD
330
1F
100
AcDbEntity
  8
AM_0
100
AcDbCircle
 10
196.1688688910887
 20
132.1080764666844
 30
0.0
 40
2.03125
100
AcDbArc
 50
300.5102399999991
 51
59.4897600000009
  0
ARC
  5
B9CE
330
1F
100
AcDbEntity
  8
AM_0
100
AcDbCircle
 10
189.7001188910887
 20
137.8580764666844
 30
0.0
 40
8.5
100
AcDbArc
 50
331.9275100000007
 51
28.07248999999933
  0
ARC
  5
B9CF
330
1F
100
AcDbEntity
  8
AM_0
100
AcDbCircle
 10
196.1688688910887
 20
143.6080764666844
 30
0.0
 40
2.03125
100
AcDbArc
 50
300.5102399999991
 51
59.4897600000009
  0
ARC
  5
B9D0
330
1F
100
AcDbEntity
  8
AM_0
100
AcDbCircle
 10
195.2313688910887
 20
143.6080764666844
 30
0.0
 40
2.03125
100
AcDbArc
 50
120.510237
 51
239.4897600000009
  0
ARC
  5
B9D1
330
1F
100
AcDbEntity
  8
AM_0
100
AcDbCircle
 10
201.7001148910887
 20
137.8580764666844
 30
0.0
 40
8.5
100
AcDbArc
 50
151.9275130000012
 51
208.0724899999993
  0
ARC
  5
B9D2
330
1F
100
AcDbEntity
  8
AM_0
100
AcDbCircle
 10
195.2313688910887
 20
132.1080764666844
 30
0.0
 40
2.03125
100
AcDbArc
 50
120.510237
 51
239.4897600000009
  0
ARC
  5
B9D3
330
1F
100
AcDbEntity
  8
AM_0
100
AcDbCircle
 10
167.7001208910886
 20
164.3580674666845
 30
0.0
 40
2.5
100
AcDbArc
 50
89.99999999999674
 51
180.0000000000013
1001
GENIUS_GENODEF_13
1002
{
1000
HIER
1070
     0
1002
}
1002
{
1000
MANEDIT
1070
     0
1002
}
1002
{
1000
NOSEL
1070
     0
1002
}
1002
{
1000
BEHIND
1070
     0
1002
}
1002
{
1000
OTHER
1070
     0
1002
}
1002
{
1000
REACTOR
1002
}
1001
GENIUS_GENOBJ-N-FIL_13
1002
{
1000
OWNER
1000
GEN
1002
}
  0
ARC
  5
B9D4
330
1F
100
AcDbEntity
  8
AM_0
100
AcDbCircle
 10
188.7001188910887
 20
164.3580674666845
 30
0.0
 40
2.5
100
AcDbArc
 50
359.9999999999987
 51
90.0
1001
GENIUS_GENODEF_13
1002
{
1000
HIER
1070
     0
1002
}
1002
{
1000
MANEDIT
1070
     0
1002
}
1002
{
1000
NOSEL
1070
     0
1002
}
1002
{
1000
BEHIND
1070
     0
1002
}
1002
{
1000
OTHER
1070
     0
1002
}
1002
{
1000
REACTOR
1002
}
1001
GENIUS_GENOBJ-N-FIL_13
1002
{
1000
OWNER
1000
GEN
1002
}
  0
LINE
  5
B9D5
330
1F
100
AcDbEntity
  8
AM_7
100
AcDbLine
 10
178.2001188355331
 20
169.8580674666844
 30
0.0
 11
178.2001199466443
 21
109.8580744666844
 31
0.0
1001
GENIUS_GENOBJ-N-CEN_13
1002
{
1000
OWNER
1000
GEN
1002
}
1001
GENIUS_GENODEF_13
1002
{
1000
HIER
1070
     0
1002
}
1002
{
1000
MANEDIT
1070
     0
1002
}
1002
{
1000
NOSEL
1070
     0
1002
}
1002
{
1000
BEHIND
1070
     0
1002
}
1002
{
1000
OTHER
1070
     0
1002
}
1002
{
1000
REACTOR
1002
}
1001
GENIUS_GENCEN_19
1002
{
1040
3.0
1002
}
  0
LINE
  5
B9D6
330
1F
100
AcDbEntity
  8
AM_0
100
AcDbLine
 10
357.7872541688205
 20
164.8580674666844
 30
0.0
 11
357.7872541688205
 21
117.8580669666844
 31
0.0
  0
LINE
  5
B9D7
330
1F
100
AcDbEntity
  8
AM_0
100
AcDbLine
 10
359.7872541688205
 20
164.8580674666844
 30
0.0
 11
359.7872541688205
 21
117.8580669666844
 31
0.0
  0
LINE
  5
B9D8
330
1F
100
AcDbEntity
  8
AM_0
100
AcDbLine
 10
382.4539241688205
 20
164.8580674666844
 30
0.0
 11
382.4539241688205
 21
117.8580669666844
 31
0.0
  0
LINE
  5
B9D9
330
1F
100
AcDbEntity
  8
AM_0
100
AcDbLine
 10
380.4539241688205
 20
164.8580674666844
 30
0.0
 11
380.4539241688205
 21
117.8580669666844
 31
0.0
  0
LINE
  5
B9DA
330
1F
100
AcDbEntity
  8
AM_0
100
AcDbLine
 10
359.7872541688205
 20
166.8580674666844
 30
0.0
 11
380.4539241688205
 21
166.8580674666844
 31
0.0
  0
LINE
  5
B9DB
330
1F
100
AcDbEntity
  8
AM_0
100
AcDbLine
 10
359.7872541688205
 20
164.8580674666844
 30
0.0
 11
380.4539241688205
 21
164.8580674666844
 31
0.0
  0
LINE
  5
B9DC
330
1F
100
AcDbEntity
  8
AM_0
100
AcDbLine
 10
359.7872541688205
 20
147.8580674666844
 30
0.0
 11
357.7872541688205
 21
147.8580674666844
 31
0.0
  0
LINE
  5
B9DD
330
1F
100
AcDbEntity
  8
AM_0
100
AcDbLine
 10
380.4539241688205
 20
147.8580674666844
 30
0.0
 11
382.4539241688205
 21
147.8580674666844
 31
0.0
  0
LINE
  5
B9DE
330
1F
100
AcDbEntity
  8
AM_0
100
AcDbLine
 10
357.7872541688205
 20
117.8580669666844
 30
0.0
 11
359.7872541688205
 21
117.8580669666844
 31
0.0
  0
LINE
  5
B9DF
330
1F
100
AcDbEntity
  8
AM_0
100
AcDbLine
 10
380.4539241688205
 20
117.8580669666844
 30
0.0
 11
382.4539241688205
 21
117.8580669666844
 31
0.0
  0
LINE
  5
B9E0
330
1F
100
AcDbEntity
  8
AM_7
100
AcDbLine
 10
389.7872561688205
 20
133.5247319666844
 30
0.0
 11
347.7872531688205
 21
133.5247319666844
 31
0.0
  0
LINE
  5
B9E1
330
1F
100
AcDbEntity
  8
AM_0
100
AcDbLine
 10
378.7872521688205
 20
108.5247249666844
 30
0.0
 11
361.4539201688205
 21
108.5247249666844
 31
0.0
  0
LINE
  5
B9E2
330
1F
100
AcDbEntity
  8
AM_0
100
AcDbLine
 10
378.7872521688205
 20
158.5247359666844
 30
0.0
 11
361.4539201688205
 21
158.5247359666844
 31
0.0
  0
LINE
  5
B9E3
330
1F
100
AcDbEntity
  8
AM_0
100
AcDbLine
 10
361.4539201688205
 20
108.5247249666844
 30
0.0
 11
361.4539201688205
 21
158.5247359666844
 31
0.0
  0
LINE
  5
B9E4
330
1F
100
AcDbEntity
  8
AM_0
100
AcDbLine
 10
378.7872521688205
 20
108.5247249666844
 30
0.0
 11
378.7872521688205
 21
158.5247359666844
 31
0.0
  0
LINE
  5
B9E5
330
1F
100
AcDbEntity
  8
AM_0
100
AcDbLine
 10
386.7872561688205
 20
128.9413889666844
 30
0.0
 11
386.7872561688205
 21
138.1080679666844
 31
0.0
  0
LINE
  5
B9E6
330
1F
100
AcDbEntity
  8
AM_0
100
AcDbLine
 10
386.1205881688205
 20
127.3580599666844
 30
0.0
 11
382.4539241688205
 21
127.3580599666844
 31
0.0
  0
LINE
  5
B9E7
330
1F
100
AcDbEntity
  8
AM_0
100
AcDbLine
 10
386.1205881688205
 20
139.6913959666844
 30
0.0
 11
382.4539241688205
 21
139.6913959666844
 31
0.0
  0
LINE
  5
B9E8
330
1F
100
AcDbEntity
  8
AM_0
100
AcDbLine
 10
386.1205881688205
 20
136.5247319666844
 30
0.0
 11
382.4539241688205
 21
136.5247319666844
 31
0.0
  0
LINE
  5
B9E9
330
1F
100
AcDbEntity
  8
AM_0
100
AcDbLine
 10
386.1205881688205
 20
130.5247319666844
 30
0.0
 11
382.4539241688205
 21
130.5247319666844
 31
0.0
  0
LINE
  5
B9EA
330
1F
100
AcDbEntity
  8
AM_0
100
AcDbLine
 10
350.7872531688205
 20
130.5247319666844
 30
0.0
 11
350.7872531688205
 21
136.5247319666844
 31
0.0
  0
LINE
  5
B9EB
330
1F
100
AcDbEntity
  8
AM_0
100
AcDbLine
 10
356.1205881688205
 20
128.0747279666844
 30
0.0
 11
356.1205881688205
 21
138.9747219666844
 31
0.0
  0
LINE
  5
B9EC
330
1F
100
AcDbEntity
  8
AM_0
100
AcDbLine
 10
357.7872541688205
 20
128.0747279666844
 30
0.0
 11
356.1205881688205
 21
128.0747279666844
 31
0.0
  0
LINE
  5
B9ED
330
1F
100
AcDbEntity
  8
AM_0
100
AcDbLine
 10
357.7872541688205
 20
138.9747219666844
 30
0.0
 11
356.1205881688205
 21
138.9747219666844
 31
0.0
  0
LINE
  5
B9EE
330
1F
100
AcDbEntity
  8
AM_0
100
AcDbLine
 10
355.4539201688205
 20
127.3580599666844
 30
0.0
 11
352.7872541688205
 21
127.3580599666844
 31
0.0
  0
LINE
  5
B9EF
330
1F
100
AcDbEntity
  8
AM_0
100
AcDbLine
 10
355.4539201688205
 20
139.6913959666844
 30
0.0
 11
352.7872541688205
 21
139.6913959666844
 31
0.0
  0
LINE
  5
B9F0
330
1F
100
AcDbEntity
  8
AM_0
100
AcDbLine
 10
352.1205851688205
 20
128.9413889666844
 30
0.0
 11
352.1205851688205
 21
138.1080679666844
 31
0.0
  0
LINE
  5
B9F1
330
1F
100
AcDbEntity
  8
AM_0
100
AcDbLine
 10
380.4539241688205
 20
130.5247319666844
 30
0.0
 11
378.7872521688205
 21
130.5247319666844
 31
0.0
  0
LINE
  5
B9F2
330
1F
100
AcDbEntity
  8
AM_0
100
AcDbLine
 10
380.4539241688205
 20
136.5247319666844
 30
0.0
 11
378.7872521688205
 21
136.5247319666844
 31
0.0
  0
LINE
  5
B9F3
330
1F
100
AcDbEntity
  8
AM_0
100
AcDbLine
 10
355.4539201688205
 20
136.5247319666844
 30
0.0
 11
352.7872533181711
 21
136.5247319666844
 31
0.0
  0
LINE
  5
B9F4
330
1F
100
AcDbEntity
  8
AM_0
100
AcDbLine
 10
352.1205851688205
 20
136.5247319666844
 30
0.0
 11
350.7872531688205
 21
136.5247319666844
 31
0.0
  0
LINE
  5
B9F5
330
1F
100
AcDbEntity
  8
AM_0
100
AcDbLine
 10
355.4539201688205
 20
130.5247319666844
 30
0.0
 11
352.7872533181711
 21
130.5247319666844
 31
0.0
  0
LINE
  5
B9F6
330
1F
100
AcDbEntity
  8
AM_0
100
AcDbLine
 10
352.1205851688205
 20
130.5247319666844
 30
0.0
 11
350.7872531688205
 21
130.5247319666844
 31
0.0
  0
LINE
  5
B9F7
330
1F
100
AcDbEntity
  8
AM_0
100
AcDbLine
 10
361.4539201688205
 20
130.5247319666844
 30
0.0
 11
359.7872541688205
 21
130.5247319666844
 31
0.0
  0
LINE
  5
B9F8
330
1F
100
AcDbEntity
  8
AM_0
100
AcDbLine
 10
361.4539201688205
 20
136.5247319666844
 30
0.0
 11
359.7872541688205
 21
136.5247319666844
 31
0.0
  0
ARC
  5
B9F9
330
1F
100
AcDbEntity
  8
AM_0
100
AcDbCircle
 10
384.5737131688205
 20
128.9413889666844
 30
0.0
 40
2.213541699999999
100
AcDbArc
 50
314.3326499999998
 51
45.66735000000003
  0
ARC
  5
B9FA
330
1F
100
AcDbEntity
  8
AM_0
100
AcDbCircle
 10
379.7039241688205
 20
133.5247319666844
 30
0.0
 40
7.083333500000001
100
AcDbArc
 50
334.9423899999997
 51
25.05761000000032
  0
ARC
  5
B9FB
330
1F
100
AcDbEntity
  8
AM_0
100
AcDbCircle
 10
384.5737131688205
 20
138.1080679666844
 30
0.0
 40
2.213541699999999
100
AcDbArc
 50
314.3326499999998
 51
45.66735000000003
  0
ARC
  5
B9FC
330
1F
100
AcDbEntity
  8
AM_0
100
AcDbCircle
 10
353.9070451688205
 20
128.9413889666844
 30
0.0
 40
2.213541699999999
100
AcDbArc
 50
314.3326499999998
 51
45.66735000000003
  0
ARC
  5
B9FD
330
1F
100
AcDbEntity
  8
AM_0
100
AcDbCircle
 10
349.0372531688205
 20
133.5247319666844
 30
0.0
 40
7.083333500000001
100
AcDbArc
 50
334.9423899999997
 51
25.05761000000032
  0
ARC
  5
B9FE
330
1F
100
AcDbEntity
  8
AM_0
100
AcDbCircle
 10
353.9070451688205
 20
138.1080679666844
 30
0.0
 40
2.213541699999999
100
AcDbArc
 50
314.3326499999998
 51
45.66735000000003
  0
ARC
  5
B9FF
330
1F
100
AcDbEntity
  8
AM_0
100
AcDbCircle
 10
354.3341291688205
 20
128.9413889666844
 30
0.0
 40
2.213541699999999
100
AcDbArc
 50
134.3326459999989
 51
225.66735
  0
ARC
  5
BA00
330
1F
100
AcDbEntity
  8
AM_0
100
AcDbCircle
 10
359.2039201688205
 20
133.5247319666844
 30
0.0
 40
7.083333500000001
100
AcDbArc
 50
154.9423890000014
 51
205.0576100000003
  0
ARC
  5
BA01
330
1F
100
AcDbEntity
  8
AM_0
100
AcDbCircle
 10
354.3341291688205
 20
138.1080679666844
 30
0.0
 40
2.213541699999999
100
AcDbArc
 50
134.3326459999989
 51
225.66735
  0
ARC
  5
BA02
330
1F
100
AcDbEntity
  8
AM_0
100
AcDbCircle
 10
359.7872541688205
 20
164.8580674666844
 30
0.0
 40
2.0
100
AcDbArc
 50
90.0
 51
180.0000000000008
1001
GENIUS_GENOBJ-N-FIL_13
1002
{
1000
OWNER
1000
GEN
1002
}
1001
GENIUS_GENODEF_13
1002
{
1000
HIER
1070
     0
1002
}
1002
{
1000
MANEDIT
1070
     0
1002
}
1002
{
1000
NOSEL
1070
     0
1002
}
1002
{
1000
BEHIND
1070
     0
1002
}
1002
{
1000
OTHER
1070
     0
1002
}
1002
{
1000
REACTOR
1002
}
  0
ARC
  5
BA03
330
1F
100
AcDbEntity
  8
AM_0
100
AcDbCircle
 10
380.4539241688205
 20
164.8580674666844
 30
0.0
 40
2.0
100
AcDbArc
 50
359.9999999999992
 51
90.0
1001
GENIUS_GENODEF_13
1002
{
1000
HIER
1070
     0
1002
}
1002
{
1000
MANEDIT
1070
     0
1002
}
1002
{
1000
NOSEL
1070
     0
1002
}
1002
{
1000
BEHIND
1070
     0
1002
}
1002
{
1000
OTHER
1070
     0
1002
}
1002
{
1000
REACTOR
1002
}
1001
GENIUS_GENOBJ-N-FIL_13
1002
{
1000
OWNER
1000
GEN
1002
}
  0
LINE
  5
BA04
330
1F
100
AcDbEntity
  8
AM_7
100
AcDbLine
 10
370.1205893231062
 20
169.8580674666844
 30
0.0
 11
370.1205860145348
 21
105.5247249666844
 31
0.0
1001
GENIUS_GENODEF_13
1002
{
1000
HIER
1070
     0
1002
}
1002
{
1000
MANEDIT
1070
     0
1002
}
1002
{
1000
NOSEL
1070
     0
1002
}
1002
{
1000
BEHIND
1070
     0
1002
}
1002
{
1000
OTHER
1070
     0
1002
}
1002
{
1000
REACTOR
1002
}
1001
GENIUS_GENOBJ-N-CEN_13
1002
{
1000
OWNER
1000
GEN
1002
}
1001
GENIUS_GENCEN_19
1002
{
1040
3.0
1002
}
  0
DIMENSION
  5
BA05
330
1F
100
AcDbEntity
  8
AM_5
100
AcDbDimension
  2
*D7
 10
128.0192414383152
 20
37.38029056720307
 30
0.0
 11
84.01924243831519
 21
40.48029056720307
 31
0.0
 70
    32
  1
B
 71
     5
 42
87.999998
  3
SYS$0
100
AcDbAlignedDimension
 13
40.01924343831518
 23
63.88029156720303
 33
0.0
 14
128.0192414383152
 24
63.88029156720303
 34
0.0
 50
0.0000000000001132
100
AcDbRotatedDimension
1001
ACAD
1000
DSTYLE
1002
{
1070
   179
1070
     2
1002
}
1001
ACAD_DSTYLE_DIMINSPECT
1070
   396
1000
100%
1070
   395
1000

1070
   394
1070
    33
1070
   393
1070
     0
  0
DIMENSION
  5
BA06
330
1F
100
AcDbEntity
  8
AM_5
100
AcDbDimension
  2
*D8
 10
138.5192414383152
 20
27.38029056720324
 30
0.0
 11
83.51924243831518
 21
30.48029056720324
 31
0.0
 70
    32
  1
A
 71
     5
 42
109.999998
  3
SYS$0
100
AcDbAlignedDimension
 13
28.51924343831519
 23
58.88029156720303
 33
0.0
 14
138.5192414383152
 24
58.88029156720303
 34
0.0
 50
0.0000000000001132
100
AcDbRotatedDimension
1001
ACAD
1000
DSTYLE
1002
{
1070
   179
1070
     2
1002
}
1001
ACAD_DSTYLE_DIMINSPECT
1070
   396
1000
100%
1070
   395
1000

1070
   394
1070
    33
1070
   393
1070
     0
  0
DIMENSION
  5
BA07
330
1F
100
AcDbEntity
  8
AM_5
100
AcDbDimension
  2
*D9
 10
150.5192424383151
 20
49.380291567203
 30
0.0
 11
147.4192424383152
 21
69.88029106720303
 31
0.0
 70
    32
  1
L
 71
     5
 42
40.99999899999999
  3
SYS$0
100
AcDbAlignedDimension
 13
89.26924543831518
 23
90.38029056720302
 33
0.0
 14
87.51924543831519
 24
49.38029156720303
 34
0.0
 50
90.0
100
AcDbRotatedDimension
1001
ACAD
1000
DSTYLE
1002
{
1070
   179
1070
     2
1002
}
1001
ACAD_DSTYLE_DIMINSPECT
1070
   396
1000
100%
1070
   395
1000

1070
   394
1070
    33
1070
   393
1070
     0
  0
DIMENSION
  5
BA08
330
1F
100
AcDbEntity
  8
AM_5
100
AcDbDimension
  2
*D10
 10
42.5015448106654
 20
67.53999435424302
 30
0.0
 11
23.57997518222189
 21
95.14568266933524
 31
0.0
 70
   163
  1
%%cJ
 71
     5
 42
9.999999999999886
  3
SYS$3
100
AcDbDiametricDimension
 15
37.53694206596532
 25
76.22058878016307
 35
0.0
 40
0.0
1001
ACAD_DSTYLE_DIMRADIAL_EXTENSION
1070
   387
1070
     1
1070
   388
1040
0.0
1070
   390
1040
0.0
1001
ACAD_DSTYLE_DIMINSPECT
1070
   396
1000
100%
1070
   395
1000

1070
   394
1070
    33
1070
   393
1070
     0
1001
ACAD
1000
DSTYLE
1002
{
1070
   172
1070
     1
1070
   179
1070
     2
1070
   289
1070
     2
1070
   342
1005
B610
1002
}
  0
DIMENSION
  5
BA09
330
1F
100
AcDbEntity
  8
AM_5
100
AcDbDimension
  2
*D11
 10
147.7001188910887
 20
112.8580744666844
 30
0.0
 11
144.6001188910887
 21
137.8580734666844
 31
0.0
 70
    32
  1
%%cD
 71
     5
 42
49.99999799999997
  3
SYS$0
100
AcDbAlignedDimension
 13
169.2001208910887
 23
162.8580724666844
 33
0.0
 14
169.2001208910887
 24
112.8580744666844
 34
0.0
 50
90.0
100
AcDbRotatedDimension
1001
ACAD
1000
DSTYLE
1002
{
1070
   179
1070
     2
1002
}
1001
ACAD_DSTYLE_DIMINSPECT
1070
   396
1000
100%
1070
   395
1000

1070
   394
1070
    33
1070
   393
1070
     0
  0
DIMENSION
  5
BA0A
330
1F
100
AcDbEntity
  8
AM_5
100
AcDbDimension
  2
*D12
 10
212.7001198910887
 20
112.8580744666844
 30
0.0
 11
209.6001198910887
 21
139.8580709666845
 31
0.0
 70
    32
  1
F
 71
     5
 42
53.99999300000003
  3
SYS$0
100
AcDbAlignedDimension
 13
188.7001188910887
 23
166.8580674666845
 33
0.0
 14
187.2001188910887
 24
112.8580744666844
 34
0.0
 50
90.0
100
AcDbRotatedDimension
1001
ACAD
1000
DSTYLE
1002
{
1070
   179
1070
     2
1002
}
1001
ACAD_DSTYLE_DIMINSPECT
1070
   396
1000
100%
1070
   395
1000

1070
   394
1070
    33
1070
   393
1070
     0
  0
DIMENSION
  5
BA0B
330
1F
100
AcDbEntity
  8
AM_5
100
AcDbDimension
  2
*D13
 10
165.2001208910886
 20
178.8580684766844
 30
0.0
 11
178.2001198910886
 21
181.9580684766844
 31
0.0
 70
    32
  1
G
 71
     5
 42
25.99999800000009
  3
SYS$0
100
AcDbAlignedDimension
 13
191.2001188910887
 23
164.3580674666844
 33
0.0
 14
165.2001208910886
 24
164.3580674666845
 34
0.0
100
AcDbRotatedDimension
1001
ACAD
1000
DSTYLE
1002
{
1070
   179
1070
     2
1002
}
1001
ACAD_DSTYLE_DIMINSPECT
1070
   396
1000
100%
1070
   395
1000

1070
   394
1070
    33
1070
   393
1070
     0
  0
DIMENSION
  5
BA0C
330
1F
100
AcDbEntity
  8
AM_5
100
AcDbDimension
  2
*D14
 10
187.2001188910887
 20
100.8580744666844
 30
0.0
 11
178.2001198910887
 21
103.9580744666844
 31
0.0
 70
    32
  1
H
 71
     5
 42
17.999998
  3
SYS$0
100
AcDbAlignedDimension
 13
169.2001208910887
 23
112.8580744666844
 33
0.0
 14
187.2001188910887
 24
112.8580744666844
 34
0.0
 50
0.0000000000001132
100
AcDbRotatedDimension
1001
ACAD
1000
DSTYLE
1002
{
1070
   179
1070
     2
1002
}
1001
ACAD_DSTYLE_DIMINSPECT
1070
   396
1000
100%
1070
   395
1000

1070
   394
1070
    33
1070
   393
1070
     0
  0
DIMENSION
  5
BA0D
330
1F
100
AcDbEntity
  8
AM_5
100
AcDbDimension
  2
*D15
 10
320.8868093587848
 20
43.88028505720308
 30
0.0
 11
282.5534708587849
 21
46.98028505720308
 31
0.0
 70
    32
  1
B
 71
     5
 42
76.66667699999999
  3
SYS$0
100
AcDbAlignedDimension
 13
244.2201323587848
 23
66.21362226720305
 33
0.0
 14
320.8868093587848
 24
66.21362226720305
 34
0.0
 50
0.0000000000001132
100
AcDbRotatedDimension
1001
ACAD
1000
DSTYLE
1002
{
1070
   179
1070
     2
1002
}
1001
ACAD_DSTYLE_DIMINSPECT
1070
   396
1000
100%
1070
   395
1000

1070
   394
1070
    33
1070
   393
1070
     0
  0
DIMENSION
  5
BA0E
330
1F
100
AcDbEntity
  8
AM_5
100
AcDbDimension
  2
*D16
 10
332.5534793587849
 20
33.88028505720312
 30
0.0
 11
282.5534738587848
 21
36.98028505720313
 31
0.0
 70
    32
  1
A
 71
     5
 42
100.000011
  3
SYS$0
100
AcDbAlignedDimension
 13
232.5534683587848
 23
60.21361956720304
 33
0.0
 14
332.5534793587849
 24
60.21361956720304
 34
0.0
 50
0.0000000000001132
100
AcDbRotatedDimension
1001
ACAD
1000
DSTYLE
1002
{
1070
   179
1070
     2
1002
}
1001
ACAD_DSTYLE_DIMINSPECT
1070
   396
1000
100%
1070
   395
1000

1070
   394
1070
    33
1070
   393
1070
     0
  0
DIMENSION
  5
BA0F
330
1F
100
AcDbEntity
  8
AM_5
100
AcDbDimension
  2
*D17
 10
382.4539241688205
 20
176.8580674666844
 30
0.0
 11
370.1205891688205
 21
179.9580674666844
 31
0.0
 70
    32
  1
G
 71
     5
 42
24.66667000000001
  3
SYS$0
100
AcDbAlignedDimension
 13
357.7872541688205
 23
164.8580674666844
 33
0.0
 14
382.4539241688205
 24
164.8580674666844
 34
0.0
100
AcDbRotatedDimension
1001
ACAD
1000
DSTYLE
1002
{
1070
   179
1070
     2
1002
}
1001
ACAD_DSTYLE_DIMINSPECT
1070
   396
1000
100%
1070
   395
1000

1070
   394
1070
    33
1070
   393
1070
     0
  0
DIMENSION
  5
BA10
330
1F
100
AcDbEntity
  8
AM_5
100
AcDbDimension
  2
*D18
 10
398.7872586788205
 20
108.5247249666844
 30
0.0
 11
395.6872586788205
 21
137.6913962166845
 31
0.0
 70
    32
  1
F
 71
     5
 42
58.3333425
  3
SYS$0
100
AcDbAlignedDimension
 13
380.4539241688205
 23
166.8580674666844
 33
0.0
 14
378.7872521688205
 24
108.5247249666844
 34
0.0
 50
90.0
100
AcDbRotatedDimension
1001
ACAD
1000
DSTYLE
1002
{
1070
   179
1070
     2
1002
}
1001
ACAD_DSTYLE_DIMINSPECT
1070
   396
1000
100%
1070
   395
1000

1070
   394
1070
    33
1070
   393
1070
     0
  0
DIMENSION
  5
BA11
330
1F
100
AcDbEntity
  8
AM_5
100
AcDbDimension
  2
*D19
 10
340.7872521688205
 20
108.5247249666844
 30
0.0
 11
337.6872521688205
 21
133.5247304666844
 31
0.0
 70
    32
  1
%%cD
 71
     5
 42
50.00001099999995
  3
SYS$0
100
AcDbAlignedDimension
 13
361.4539201688205
 23
158.5247359666844
 33
0.0
 14
361.4539201688205
 24
108.5247249666844
 34
0.0
 50
90.0
100
AcDbRotatedDimension
1001
ACAD
1000
DSTYLE
1002
{
1070
   179
1070
     2
1002
}
1001
ACAD_DSTYLE_DIMINSPECT
1070
   396
1000
100%
1070
   395
1000

1070
   394
1070
    33
1070
   393
1070
     0
  0
DIMENSION
  5
BA12
330
1F
100
AcDbEntity
  8
AM_5
100
AcDbDimension
  2
*D20
 10
378.7872521688205
 20
96.52472496668442
 30
0.0
 11
370.1205861688205
 21
99.62472496668441
 31
0.0
 70
    32
  1
H
 71
     5
 42
17.33333199999998
  3
SYS$0
100
AcDbAlignedDimension
 13
361.4539201688205
 23
108.5247249666844
 33
0.0
 14
378.7872521688205
 24
108.5247249666844
 34
0.0
 50
0.0000000000001132
100
AcDbRotatedDimension
1001
ACAD
1000
DSTYLE
1002
{
1070
   179
1070
     2
1002
}
1001
ACAD_DSTYLE_DIMINSPECT
1070
   396
1000
100%
1070
   395
1000

1070
   394
1070
    33
1070
   393
1070
     0
  0
DIMENSION
  5
BA13
330
1F
100
AcDbEntity
  8
AM_5
100
AcDbDimension
  2
*D21
 10
344.5534803587849
 20
55.88028756720301
 30
0.0
 11
341.4534803587849
 21
73.88028906720307
 31
0.0
 70
    32
  1
L
 71
     5
 42
36.000003
  3
SYS$0
100
AcDbAlignedDimension
 13
285.5534753587848
 23
91.88029056720303
 33
0.0
 14
287.1368113587848
 24
55.88028756720303
 34
0.0
 50
90.0
100
AcDbRotatedDimension
1001
ACAD
1000
DSTYLE
1002
{
1070
   179
1070
     2
1002
}
1001
ACAD_DSTYLE_DIMINSPECT
1070
   396
1000
100%
1070
   395
1000

1070
   394
1070
    33
1070
   393
1070
     0
  0
LINE
  5
BA14
330
1F
100
AcDbEntity
  8
AM_5
100
AcDbLine
 10
241.7211290817217
 20
77.25858232556558
 30
0.0
 11
233.3146893348301
 21
93.10810393986599
 31
0.0
  0
LINE
  5
BA15
330
1F
100
AcDbEntity
  8
AM_5
100
AcDbLine
 10
233.3146893348301
 20
93.10810393986599
 30
0.0
 11
228.5480226681634
 21
93.10810393986599
 31
0.0
  0
LINE
  5
BA16
330
1F
100
AcDbEntity
  8
AM_5
100
AcDbLine
 10
245.782009401092
 20
69.60218885426936
 30
0.0
 11
242.6582553164774
 21
75.49172228013677
 31
0.0
  0
LWPOLYLINE
  5
BA17
330
1F
100
AcDbEntity
  8
AM_5
100
AcDbPolyline
 90
        2
 70
     1
 43
0.5
 10
245.8991501804365
 20
69.38133134859076
 42
1.0
 10
245.6648686217476
 20
69.82304635994795
 42
1.0
  0
INSERT
  5
BA18
330
1F
100
AcDbEntity
  8
AM_5
100
AcDbBlockReference
  2
GENDOT
 10
242.6582553164774
 20
75.49172228013677
 30
0.0
 41
1.99999999999999
 42
2.0
 43
2.0
 50
297.9410657350356
  0
MTEXT
  5
BA19
330
1F
100
AcDbEntity
  8
AM_5
 62
     2
100
AcDbMText
 10
230.1813560014969
 20
96.35810393986602
 30
0.0
 40
3.5
 41
0.0
 71
     5
 72
     1
  1
%%cJ
 73
     1
 44
1.0
1001
ACAD
1000
MTEXTBEGIN
1070
    73
1070
     1
1070
    44
1040
1.0
1070
    74
1070
     0
1000
MTEXTEND
  0
TEXT
  5
BA1A
330
1F
100
AcDbEntity
  8
AM_6
100
AcDbText
 10
34.92848967084987
 20
226.8999701587767
 30
0.0
 40
3.2
  1
　　　　440Cベアリング（ST-164-6～8）
 41
0.74999997
100
AcDbText
  0
LINE
  5
BA1B
330
1F
100
AcDbEntity
  8
AM_0
100
AcDbLine
 10
262.5534683587849
 20
84.88028956720304
 30
0.0
 11
262.5534683587849
 21
82.88028956720303
 31
0.0
  0
LINE
  5
BA1C
330
1F
100
AcDbEntity
  8
AM_0
100
AcDbLine
 10
262.5534683587849
 20
62.21361956720304
 30
0.0
 11
262.5534683587849
 21
60.21361956720304
 31
0.0
  0
LINE
  5
BA1D
330
1F
100
AcDbEntity
  8
AM_0
100
AcDbLine
 10
302.5534753587848
 20
84.88028956720304
 30
0.0
 11
302.5534753587848
 21
82.88028956720303
 31
0.0
  0
LINE
  5
BA1E
330
1F
100
AcDbEntity
  8
AM_0
100
AcDbLine
 10
302.5534753587848
 20
62.21361956720304
 30
0.0
 11
302.5534753587848
 21
60.21361956720304
 31
0.0
  0
ENDSEC
  0
SECTION
  2
OBJECTS
  0
DICTIONARY
  5
C
330
0
100
AcDbDictionary
281
     1
  3
ACAD_2007HEADERVARS_RT
350
BB58
  3
ACAD_BGPLOT_KEY
350
AB06
  3
ACAD_COLOR
350
A91D
  3
ACAD_GROUP
350
D
  3
ACAD_LAYOUT
350
1A
  3
ACAD_MATERIAL
350
A91C
  3
ACAD_MLEADERSTYLE
350
B595
  3
ACAD_MLINESTYLE
350
17
  3
ACAD_PLOTSETTINGS
350
19
  3
ACAD_PLOTSTYLENAME
350
E
  3
ACAD_SCALELIST
350
B573
  3
ACAD_TABLESTYLE
350
AAB9
  3
ACAD_VISUALSTYLE
350
B0F1
  3
AcAsAppObject
350
3DA1
  3
ACASGREF_MASTER
350
3DE9
  3
ACDB_RECOMPOSE_DATA
350
B5B7
  3
AcDbVariableDictionary
350
34
  3
AcmDictionary
350
47
  3
AD_GREF_MODULE
350
3DEA
  3
AD_MAPI_MODULE
350
3E06
  3
AMG
350
2B
  3
AMGSNAPSETTINGS
350
7D
  3
ASE_INDEX_DICTIONARY
350
B570
  3
DWGPROPS
350
BB57
  3
MAPISURF_MODULE
350
3DEB
  0
DICTIONARY
  5
3F95
330
2
100
AcDbDictionary
280
     1
281
     1
  3
ACAD_LAYERFILTERS
360
B4F7
  3
ACAD_LAYERSTATES
360
3F96
  3
ACLYDICTIONARY
360
B4F6
  3
AMLAYER_GROUPCOLORS
360
AAB4
  0
DICTIONARY
  5
BAD2
330
10
100
AcDbDictionary
280
     1
281
     1
  3
ADSK_XREC_LAYER_RECONCILED
360
BAD3
  0
DICTIONARY
  5
BAD4
330
5F85
100
AcDbDictionary
280
     1
281
     1
  3
ADSK_XREC_LAYER_RECONCILED
360
BAD5
  0
DICTIONARY
  5
BAD6
330
AC9F
100
AcDbDictionary
280
     1
281
     1
  3
ADSK_XREC_LAYER_RECONCILED
360
BAD7
  0
DICTIONARY
  5
BAD8
330
ACA0
100
AcDbDictionary
280
     1
281
     1
  3
ADSK_XREC_LAYER_RECONCILED
360
BAD9
  0
DICTIONARY
  5
BADA
330
ACA1
100
AcDbDictionary
280
     1
281
     1
  3
ADSK_XREC_LAYER_RECONCILED
360
BADB
  0
DICTIONARY
  5
BADC
330
ACC8
100
AcDbDictionary
280
     1
281
     1
  3
ADSK_XREC_LAYER_RECONCILED
360
BADD
  0
DICTIONARY
  5
BADE
330
ACC9
100
AcDbDictionary
280
     1
281
     1
  3
ADSK_XREC_LAYER_RECONCILED
360
BADF
  0
DICTIONARY
  5
BAE0
330
ACCA
100
AcDbDictionary
280
     1
281
     1
  3
ADSK_XREC_LAYER_RECONCILED
360
BAE1
  0
DICTIONARY
  5
BAE2
330
AD60
100
AcDbDictionary
280
     1
281
     1
  3
ADSK_XREC_LAYER_RECONCILED
360
BAE3
  0
DICTIONARY
  5
BAE4
330
AD64
100
AcDbDictionary
280
     1
281
     1
  3
ADSK_XREC_LAYER_RECONCILED
360
BAE5
  0
DICTIONARY
  5
BAE6
330
AD67
100
AcDbDictionary
280
     1
281
     1
  3
ADSK_XREC_LAYER_RECONCILED
360
BAE7
  0
DICTIONARY
  5
BAE8
330
AD68
100
AcDbDictionary
280
     1
281
     1
  3
ADSK_XREC_LAYER_RECONCILED
360
BAE9
  0
DICTIONARY
  5
BAEA
330
AD69
100
AcDbDictionary
280
     1
281
     1
  3
ADSK_XREC_LAYER_RECONCILED
360
BAEB
  0
DICTIONARY
  5
BAEC
330
AD6A
100
AcDbDictionary
280
     1
281
     1
  3
ADSK_XREC_LAYER_RECONCILED
360
BAED
  0
DICTIONARY
  5
BAEE
330
AD6E
100
AcDbDictionary
280
     1
281
     1
  3
ADSK_XREC_LAYER_RECONCILED
360
BAEF
  0
DICTIONARY
  5
BAF0
330
AD6F
100
AcDbDictionary
280
     1
281
     1
  3
ADSK_XREC_LAYER_RECONCILED
360
BAF1
  0
DICTIONARY
  5
BAF2
330
B1B6
100
AcDbDictionary
280
     1
281
     1
  3
ADSK_XREC_LAYER_RECONCILED
360
BAF3
  0
DICTIONARY
  5
BAF4
330
B2EB
100
AcDbDictionary
280
     1
281
     1
  3
ADSK_XREC_LAYER_RECONCILED
360
BAF5
  0
DICTIONARY
  5
BAF6
330
B2EC
100
AcDbDictionary
280
     1
281
     1
  3
ADSK_XREC_LAYER_RECONCILED
360
BAF7
  0
DICTIONARY
  5
8A
330
1F
100
AcDbDictionary
280
     1
281
     1
  3
ACAD_SORTENTS
360
B1BA
  0
DICTIONARY
  5
B5F9
330
B5F8
100
AcDbDictionary
280
     1
281
     1
  3
ACAD_SORTENTS
360
B5FA
  0
DICTIONARY
  5
BB58
102
{ACAD_REACTORS
330
C
102
}
330
C
100
AcDbDictionary
281
     1
  3
DIMARCSYM
350
BB59
  0
DICTIONARY
  5
AB06
102
{ACAD_REACTORS
330
C
102
}
330
C
100
AcDbDictionary
280
     1
281
     1
  0
DICTIONARY
  5
A91D
102
{ACAD_REACTORS
330
C
102
}
330
C
100
AcDbDictionary
281
     1
  0
DICTIONARY
  5
D
102
{ACAD_REACTORS
330
C
102
}
330
C
100
AcDbDictionary
281
     1
  0
DICTIONARY
  5
1A
102
{ACAD_REACTORS
330
C
102
}
330
C
100
AcDbDictionary
281
     1
  3
Model
350
22
  3
ﾚｲｱｳﾄ1
350
1E
  3
ﾚｲｱｳﾄ2
350
26
  0
DICTIONARY
  5
A91C
102
{ACAD_REACTORS
330
C
102
}
330
C
100
AcDbDictionary
281
     1
  3
ByBlock
350
B0EF
  3
ByLayer
350
B0EE
  3
Global
350
B0F0
  0
DICTIONARY
  5
B595
102
{ACAD_REACTORS
330
C
102
}
330
C
100
AcDbDictionary
281
     1
  3
Standard
350
B596
  0
DICTIONARY
  5
17
102
{ACAD_REACTORS
330
C
102
}
330
C
100
AcDbDictionary
281
     1
  3
Standard
350
18
  0
DICTIONARY
  5
19
102
{ACAD_REACTORS
330
C
102
}
330
C
100
AcDbDictionary
281
     1
  0
ACDBDICTIONARYWDFLT
  5
E
102
{ACAD_REACTORS
330
C
102
}
330
C
100
AcDbDictionary
281
     1
  3
Normal
350
F
100
AcDbDictionaryWithDefault
340
F
  0
DICTIONARY
  5
B573
102
{ACAD_REACTORS
330
C
102
}
330
C
100
AcDbDictionary
281
     1
  3
A0
350
B574
  3
A1
350
B575
  3
A2
350
B576
  3
A3
350
B577
  3
A4
350
B578
  3
A5
350
B579
  3
A6
350
B57A
  3
A7
350
B57B
  3
A8
350
B57C
  3
A9
350
B57D
  3
B0
350
B57E
  3
B1
350
B57F
  3
B2
350
B580
  3
B3
350
B581
  3
B4
350
B582
  3
B5
350
B583
  3
B6
350
B584
  3
B7
350
B585
  3
B8
350
B586
  3
B9
350
B587
  3
C0
350
B588
  3
C1
350
B589
  3
C2
350
B58A
  3
C3
350
B58B
  3
C4
350
B58C
  3
C5
350
B58D
  3
C6
350
B58E
  3
C7
350
B58F
  3
C8
350
B590
  3
C9
350
B591
  3
D0
350
B592
  3
D1
350
B593
  3
D2
350
B594
  0
DICTIONARY
  5
AAB9
102
{ACAD_REACTORS
330
C
102
}
330
C
100
AcDbDictionary
281
     1
  3
Standard
350
AABA
  0
DICTIONARY
  5
B0F1
102
{ACAD_REACTORS
330
C
102
}
330
C
100
AcDbDictionary
281
     1
  3
2dWireframe
350
B0F7
  3
3D Hidden
350
B0F9
  3
3dWireframe
350
B0F8
  3
Basic
350
B0F6
  3
Brighten
350
B0FD
  3
ColorChange
350
B101
  3
Conceptual
350
B0FA
  3
Dim
350
B0FC
  3
Facepattern
350
B100
  3
Flat
350
B0F2
  3
FlatWithEdges
350
B0F3
  3
Gouraud
350
B0F4
  3
GouraudWithEdges
350
B0F5
  3
Linepattern
350
B0FF
  3
Realistic
350
B0FB
  3
Thicken
350
B0FE
  0
ACAD_PROXY_OBJECT
  5
3DA1
102
{ACAD_REACTORS
330
C
102
}
330
C
100
AcDbProxyObject
 90
      499
 91
      576
 95
   917527
 70
     0
 93
       10
310
407F
 94
        0
1001
ACAD
1000
AcRTDxfName
1000
ASAPP
  0
ACAD_PROXY_OBJECT
  5
3DE9
102
{ACAD_REACTORS
330
C
102
}
330
C
100
AcDbProxyObject
 90
      499
 91
      581
 95
   917527
 70
     0
 93
       34
310
010000407F
 94
        0
1001
ACAD
1000
AcRTDxfName
1000
ACASGREFMASTER
  0
XRECORD
  5
B5B7
102
{ACAD_REACTORS
330
C
102
}
330
C
100
AcDbXrecord
280
     1
 90
        1
330
AABA
  0
DICTIONARY
  5
34
102
{ACAD_REACTORS
330
C
102
}
330
C
100
AcDbDictionary
281
     1
  3
CANNOSCALE
350
B5BA
  3
CMLEADERSTYLE
350
B5B8
  3
CTABLESTYLE
350
AAF3
  3
DIMASSOC
350
A10C
  3
FIELDEVAL
350
AB07
  3
INDEXCTL
350
35
  3
LIGHTINGUNITS
350
B5BB
  3
MSLTSCALE
350
B5B9
  3
SORTENTS
350
194C
  0
DICTIONARY
  5
47
102
{ACAD_REACTORS
330
C
102
}
330
C
100
AcDbDictionary
281
     1
  3
AcmBOM
350
7E8
  3
AcmStdDictionary
350
4C
  3
AMDTSECTSYM_ARROWCOLOR
350
A929
  0
ACAD_PROXY_OBJECT
  5
3DEA
102
{ACAD_REACTORS
330
C
102
}
330
C
100
AcDbProxyObject
 90
      499
 91
      582
 95
   917527
 70
     0
 93
      114
310
00000043800000000000000000003F
 94
        0
1001
ACAD
1000
AcRTDxfName
1000
ACADGREFMODULE
  0
ACAD_PROXY_OBJECT
  5
3E06
102
{ACAD_REACTORS
330
C
102
}
330
C
100
AcDbProxyObject
 90
      499
 91
      594
 95
   917527
 70
     0
 93
       34
310
05000044FF
 94
        0
1001
ACAD
1000
AcRTDxfName
1000
MAPIADMODULE
  0
DICTIONARY
  5
2B
102
{ACAD_REACTORS
330
C
102
}
330
C
100
AcDbDictionary
281
     1
  0
DICTIONARY
  5
7D
102
{ACAD_REACTORS
330
C
102
}
330
C
100
AcDbDictionary
281
     1
  0
DICTIONARY
  5
B570
102
{ACAD_REACTORS
330
C
102
}
330
C
100
AcDbDictionary
281
     1
  3
ASEBlockHierarchyIndexRecord
350
B571
1001
DCO15
1040
1706332604.97
  0
XRECORD
  5
BB57
102
{ACAD_REACTORS
330
C
102
}
330
C
100
AcDbXrecord
280
     1
  1
DWGPROPS COOKIE
  2

  3

  4

  6

  7

  8
Administrator
  9

300
AmdtFileType=84
301
=
302
=
303
=
304
=
305
=
306
=
307
=
308
=
309
=
 40
0.0010479861111111
 41
2455883.397878322
 42
2456352.481949317
  1

 90
        1
  0
ACAD_PROXY_OBJECT
  5
3DEB
102
{ACAD_REACTORS
330
C
102
}
330
C
100
AcDbProxyObject
 90
      499
 91
      583
 95
   917527
 70
     0
 93
        8
310
047B
 94
        0
1001
ACAD
1000
AcRTDxfName
1000
AMDTMAPISURFMOUDULE
  0
DICTIONARY
  5
B4F7
102
{ACAD_REACTORS
330
3F95
102
}
330
3F95
100
AcDbDictionary
281
     1
  0
DICTIONARY
  5
3F96
102
{ACAD_REACTORS
330
3F95
102
}
330
3F95
100
AcDbDictionary
281
     1
  3
20011210
350
3FB7
  0
DICTIONARY
  5
B4F6
102
{ACAD_REACTORS
330
3F95
102
}
330
3F95
100
AcDbDictionary
281
     1
1001
ACAD
1000
<All
  0
DICTIONARY
  5
AAB4
102
{ACAD_REACTORS
330
3F95
102
}
330
3F95
100
AcDbDictionary
280
     1
281
     1
  0
XRECORD
  5
BAD3
102
{ACAD_REACTORS
330
BAD2
102
}
330
BAD2
100
AcDbXrecord
280
     1
290
     1
  0
XRECORD
  5
BAD5
102
{ACAD_REACTORS
330
BAD4
102
}
330
BAD4
100
AcDbXrecord
280
     1
290
     1
  0
XRECORD
  5
BAD7
102
{ACAD_REACTORS
330
BAD6
102
}
330
BAD6
100
AcDbXrecord
280
     1
290
     1
  0
XRECORD
  5
BAD9
102
{ACAD_REACTORS
330
BAD8
102
}
330
BAD8
100
AcDbXrecord
280
     1
290
     1
  0
XRECORD
  5
BADB
102
{ACAD_REACTORS
330
BADA
102
}
330
BADA
100
AcDbXrecord
280
     1
290
     1
  0
XRECORD
  5
BADD
102
{ACAD_REACTORS
330
BADC
102
}
330
BADC
100
AcDbXrecord
280
     1
290
     1
  0
XRECORD
  5
BADF
102
{ACAD_REACTORS
330
BADE
102
}
330
BADE
100
AcDbXrecord
280
     1
290
     1
  0
XRECORD
  5
BAE1
102
{ACAD_REACTORS
330
BAE0
102
}
330
BAE0
100
AcDbXrecord
280
     1
290
     1
  0
XRECORD
  5
BAE3
102
{ACAD_REACTORS
330
BAE2
102
}
330
BAE2
100
AcDbXrecord
280
     1
290
     1
  0
XRECORD
  5
BAE5
102
{ACAD_REACTORS
330
BAE4
102
}
330
BAE4
100
AcDbXrecord
280
     1
290
     1
  0
XRECORD
  5
BAE7
102
{ACAD_REACTORS
330
BAE6
102
}
330
BAE6
100
AcDbXrecord
280
     1
290
     1
  0
XRECORD
  5
BAE9
102
{ACAD_REACTORS
330
BAE8
102
}
330
BAE8
100
AcDbXrecord
280
     1
290
     1
  0
XRECORD
  5
BAEB
102
{ACAD_REACTORS
330
BAEA
102
}
330
BAEA
100
AcDbXrecord
280
     1
290
     1
  0
XRECORD
  5
BAED
102
{ACAD_REACTORS
330
BAEC
102
}
330
BAEC
100
AcDbXrecord
280
     1
290
     1
  0
XRECORD
  5
BAEF
102
{ACAD_REACTORS
330
BAEE
102
}
330
BAEE
100
AcDbXrecord
280
     1
290
     1
  0
XRECORD
  5
BAF1
102
{ACAD_REACTORS
330
BAF0
102
}
330
BAF0
100
AcDbXrecord
280
     1
290
     1
  0
XRECORD
  5
BAF3
102
{ACAD_REACTORS
330
BAF2
102
}
330
BAF2
100
AcDbXrecord
280
     1
290
     1
  0
XRECORD
  5
BAF5
102
{ACAD_REACTORS
330
BAF4
102
}
330
BAF4
100
AcDbXrecord
280
     1
290
     1
  0
XRECORD
  5
BAF7
102
{ACAD_REACTORS
330
BAF6
102
}
330
BAF6
100
AcDbXrecord
280
     1
290
     1
  0
SORTENTSTABLE
  5
B1BA
102
{ACAD_REACTORS
330
8A
102
}
330
8A
100
AcDbSortentsTable
330
1F
  0
SORTENTSTABLE
  5
B5FA
102
{ACAD_REACTORS
330
B5F9
102
}
330
B5F9
100
AcDbSortentsTable
330
B5F8
  0
XRECORD
  5
BB59
102
{ACAD_REACTORS
330
BB58
102
}
330
BB58
100
AcDbXrecord
280
     1
 70
     1
  0
LAYOUT
  5
22
102
{ACAD_XDICTIONARY
360
BB5C
102
}
102
{ACAD_REACTORS
330
1A
102
}
330
1A
100
AcDbPlotSettings
  1

  2
FX DocuWide 2050/2051
  4
A3
  6
AM_VIEW1
 40
3.174999952316284
 41
3.174999952316284
 42
3.17498779296875
 43
3.17498779296875
 44
296.989501953125
 45
419.9889831542968
 46
0.0
 47
1.295841228961961
 48
214.3704939521119
 49
367.5855324241176
140
275.6727856380065
141
407.629191407817
142
1.0
143
0.7225445603030646
 70
  3764
 72
     1
 73
     1
 74
     2
  7
monochrome.ctb
 75
     0
147
1.383997686703999
148
-1700.85588156276
149
-1647.985052086429
100
AcDbLayout
  1
Model
 70
     1
 71
     0
 10
0.0
 20
0.0
 11
12.0
 21
9.0
 12
0.0
 22
0.0
 32
0.0
 14
0.0
 24
0.0
 34
0.0
 15
0.0
 25
0.0
 35
0.0
146
0.0
 13
0.0
 23
0.0
 33
0.0
 16
1.0
 26
0.0
 36
0.0
 17
0.0
 27
1.0
 37
0.0
 76
     0
330
1F
331
B0EC
1001
ACAD_PSEXT
1000
FX DocuWide 2050/2051
1000
FX DocuWide 2050/2051
1000
IP_192.200.15.252
1000

1070
     0
  0
LAYOUT
  5
1E
102
{ACAD_XDICTIONARY
360
BB5A
102
}
102
{ACAD_REACTORS
330
1A
102
}
330
1A
100
AcDbPlotSettings
  1

  2
\\ML370\XEROX
  4
A4
  6

 40
3.174999952316284
 41
3.174999952316284
 42
3.175003051757812
 43
3.17498779296875
 44
209.8674926757813
 45
296.6719970703125
 46
0.0
 47
0.0
 48
0.0
 49
0.0
140
0.0
141
0.0
142
1.0
143
1.0
 70
   688
 72
     1
 73
     1
 74
     5
  7
monochrome.ctb
 75
    16
147
1.0
148
0.0
149
0.0
100
AcDbLayout
  1
ﾚｲｱｳﾄ1
 70
     1
 71
     1
 10
-3.17498779296875
 20
-3.174999952316284
 11
293.4970092773438
 21
206.692492723465
 12
0.0
 22
0.0
 32
0.0
 14
1.000000000000000E+20
 24
1.000000000000000E+20
 34
1.000000000000000E+20
 15
-1.000000000000000E+20
 25
-1.000000000000000E+20
 35
-1.000000000000000E+20
146
0.0
 13
0.0
 23
0.0
 33
0.0
 16
1.0
 26
0.0
 36
0.0
 17
0.0
 27
1.0
 37
0.0
 76
     0
330
1B
  0
LAYOUT
  5
26
102
{ACAD_XDICTIONARY
360
BB5E
102
}
102
{ACAD_REACTORS
330
1A
102
}
330
1A
100
AcDbPlotSettings
  1

  2
\\ML370\XEROX
  4

  6

 40
0.0
 41
0.0
 42
0.0
 43
0.0
 44
0.0
 45
0.0
 46
0.0
 47
0.0
 48
0.0
 49
0.0
140
0.0
141
0.0
142
1.0
143
1.0
 70
   688
 72
     0
 73
     0
 74
     5
  7
monochrome.ctb
 75
    16
147
1.0
148
0.0
149
0.0
100
AcDbLayout
  1
ﾚｲｱｳﾄ2
 70
     1
 71
     2
 10
0.0
 20
0.0
 11
12.0
 21
9.0
 12
0.0
 22
0.0
 32
0.0
 14
0.0
 24
0.0
 34
0.0
 15
0.0
 25
0.0
 35
0.0
146
0.0
 13
0.0
 23
0.0
 33
0.0
 16
1.0
 26
0.0
 36
0.0
 17
0.0
 27
1.0
 37
0.0
 76
     0
330
23
  0
MATERIAL
  5
B0EF
102
{ACAD_XDICTIONARY
360
BB63
102
}
102
{ACAD_REACTORS
330
A91C
102
}
330
A91C
100
AcDbMaterial
  1
ByBlock
  0
MATERIAL
  5
B0EE
102
{ACAD_XDICTIONARY
360
BB61
102
}
102
{ACAD_REACTORS
330
A91C
102
}
330
A91C
100
AcDbMaterial
  1
ByLayer
  0
MATERIAL
  5
B0F0
102
{ACAD_XDICTIONARY
360
BB65
102
}
102
{ACAD_REACTORS
330
A91C
102
}
330
A91C
100
AcDbMaterial
  1
Global
  0
ACAD_PROXY_OBJECT
  5
B596
102
{ACAD_REACTORS
330
B595
102
}
330
B595
100
AcDbProxyObject
 90
      499
 91
      626
 95
    65563
 70
     0
 93
      817
310
40901902A40600000030400FEFFFFFF8000000000000008102B5E8DC0F42B5CFC0000000000001040405064068000000C1000000000000000410000000000000004102000000304015D94000000000000C03F4214C01D0018401B80190018401C80190028C00CC
340
14
340
0
340
11
340
0
 94
        0
1001
ACAD_MLEADERVER
1070
     2
1001
ACAD
1000
AcRTDxfName
1000
MLEADERSTYLE
  0
MLINESTYLE
  5
18
102
{ACAD_REACTORS
330
17
102
}
330
17
100
AcDbMlineStyle
  2
STANDARD
 70
     0
  3

 62
   256
 51
90.0
 52
90.0
 71
     2
 49
0.5
 62
   256
  6
BYLAYER
 49
-0.5
 62
   256
  6
BYLAYER
  0
ACDBPLACEHOLDER
  5
F
102
{ACAD_REACTORS
330
E
102
}
330
E
  0
ACAD_PROXY_OBJECT
  5
B574
102
{ACAD_REACTORS
330
B573
102
}
330
B573
100
AcDbProxyObject
 90
      499
 91
      625
 95
    65563
 70
     0
 93
       82
310
968198801D0018801D004C
 94
        0
1001
ACAD
1000
AcRTDxfName
1000
SCALE
  0
ACAD_PROXY_OBJECT
  5
B575
102
{ACAD_REACTORS
330
B573
102
}
330
B573
100
AcDbProxyObject
 90
      499
 91
      625
 95
    65563
 70
     0
 93
      146
310
9000000000000001008198801D0019001D004C
 94
        0
1001
ACAD
1000
AcRTDxfName
1000
SCALE
  0
ACAD_PROXY_OBJECT
  5
B576
102
{ACAD_REACTORS
330
B573
102
}
330
B573
100
AcDbProxyObject
 90
      499
 91
      625
 95
    65563
 70
     0
 93
      146
310
9000000000000041008198801D001A001D004C
 94
        0
1001
ACAD
1000
AcRTDxfName
1000
SCALE
  0
ACAD_PROXY_OBJECT
  5
B577
102
{ACAD_REACTORS
330
B573
102
}
330
B573
100
AcDbProxyObject
 90
      499
 91
      625
 95
    65563
 70
     0
 93
      146
310
9000000000000051008198801D001A801D004C
 94
        0
1001
ACAD
1000
AcRTDxfName
1000
SCALE
  0
ACAD_PROXY_OBJECT
  5
B578
102
{ACAD_REACTORS
330
B573
102
}
330
B573
100
AcDbProxyObject
 90
      499
 91
      625
 95
    65563
 70
     0
 93
      146
310
9000000000000081008198801D001C001D004C
 94
        0
1001
ACAD
1000
AcRTDxfName
1000
SCALE
  0
ACAD_PROXY_OBJECT
  5
B579
102
{ACAD_REACTORS
330
B573
102
}
330
B573
100
AcDbProxyObject
 90
      499
 91
      625
 95
    65563
 70
     0
 93
      162
310
9000000000000091008218801D001880180025004C
 94
        0
1001
ACAD
1000
AcRTDxfName
1000
SCALE
  0
ACAD_PROXY_OBJECT
  5
B57A
102
{ACAD_REACTORS
330
B573
102
}
330
B573
100
AcDbProxyObject
 90
      499
 91
      625
 95
    65563
 70
     0
 93
      162
310
90000000000000C1008218801D0018801B0025004C
 94
        0
1001
ACAD
1000
AcRTDxfName
1000
SCALE
  0
ACAD_PROXY_OBJECT
  5
B57B
102
{ACAD_REACTORS
330
B573
102
}
330
B573
100
AcDbProxyObject
 90
      499
 91
      625
 95
    65563
 70
     0
 93
      162
310
90000000000000D1008218801D001900180025004C
 94
        0
1001
ACAD
1000
AcRTDxfName
1000
SCALE
  0
ACAD_PROXY_OBJECT
  5
B57C
102
{ACAD_REACTORS
330
B573
102
}
330
B573
100
AcDbProxyObject
 90
      499
 91
      625
 95
    65563
 70
     0
 93
      162
310
90000000000000F9008218801D001980180025004C
 94
        0
1001
ACAD
1000
AcRTDxfName
1000
SCALE
  0
ACAD_PROXY_OBJECT
  5
B57D
102
{ACAD_REACTORS
330
B573
102
}
330
B573
100
AcDbProxyObject
 90
      499
 91
      625
 95
    65563
 70
     0
 93
      162
310
9000000000000111008218801D001A00180025004C
 94
        0
1001
ACAD
1000
AcRTDxfName
1000
SCALE
  0
ACAD_PROXY_OBJECT
  5
B57E
102
{ACAD_REACTORS
330
B573
102
}
330
B573
100
AcDbProxyObject
 90
      499
 91
      625
 95
    65563
 70
     0
 93
      162
310
9000000000000125008218801D001A80180025004C
 94
        0
1001
ACAD
1000
AcRTDxfName
1000
SCALE
  0
ACAD_PROXY_OBJECT
  5
B57F
102
{ACAD_REACTORS
330
B573
102
}
330
B573
100
AcDbProxyObject
 90
      499
 91
      625
 95
    65563
 70
     0
 93
      178
310
9000000000000165008298801D001880180018002D004C
 94
        0
1001
ACAD
1000
AcRTDxfName
1000
SCALE
  0
ACAD_PROXY_OBJECT
  5
B580
102
{ACAD_REACTORS
330
B573
102
}
330
B573
100
AcDbProxyObject
 90
      499
 91
      625
 95
    65563
 70
     0
 93
      146
310
8000000000000004048199001D0018801D004C
 94
        0
1001
ACAD
1000
AcRTDxfName
1000
SCALE
  0
ACAD_PROXY_OBJECT
  5
B581
102
{ACAD_REACTORS
330
B573
102
}
330
B573
100
AcDbProxyObject
 90
      499
 91
      625
 95
    65563
 70
     0
 93
      146
310
800000000000010404819A001D0018801D004C
 94
        0
1001
ACAD
1000
AcRTDxfName
1000
SCALE
  0
ACAD_PROXY_OBJECT
  5
B582
102
{ACAD_REACTORS
330
B573
102
}
330
B573
100
AcDbProxyObject
 90
      499
 91
      625
 95
    65563
 70
     0
 93
      146
310
800000000000020404819C001D0018801D004C
 94
        0
1001
ACAD
1000
AcRTDxfName
1000
SCALE
  0
ACAD_PROXY_OBJECT
  5
B583
102
{ACAD_REACTORS
330
B573
102
}
330
B573
100
AcDbProxyObject
 90
      499
 91
      625
 95
    65563
 70
     0
 93
      162
310
80000000000002440482188018001D00188025004C
 94
        0
1001
ACAD
1000
AcRTDxfName
1000
SCALE
  0
ACAD_PROXY_OBJECT
  5
B584
102
{ACAD_REACTORS
330
B573
102
}
330
B573
100
AcDbProxyObject
 90
      499
 91
      625
 95
    65563
 70
     0
 93
      178
310
800000000000059404829880180018001D0018802D004C
 94
        0
1001
ACAD
1000
AcRTDxfName
1000
SCALE
  0
ACAD_PROXY_OBJECT
  5
B585
102
{ACAD_REACTORS
330
B573
102
}
330
B573
100
AcDbProxyObject
 90
      499
 91
      625
 95
    65563
 70
     0
 93
      386
310
8000000000000803F0000000000000A1008718801780188019001C00110010001E8010001880138016801800110075004C
 94
        0
1001
ACAD
1000
AcRTDxfName
1000
SCALE
  0
ACAD_PROXY_OBJECT
  5
B586
102
{ACAD_REACTORS
330
B573
102
}
330
B573
100
AcDbProxyObject
 90
      499
 91
      625
 95
    65563
 70
     0
 93
      370
310
8000000000000903F0000000000000A10086988017801B001A00110010001E801000188013801680180011006D004C
 94
        0
1001
ACAD
1000
AcRTDxfName
1000
SCALE
  0
ACAD_PROXY_OBJECT
  5
B587
102
{ACAD_REACTORS
330
B573
102
}
330
B573
100
AcDbProxyObject
 90
      499
 91
      625
 95
    65563
 70
     0
 93
      370
310
8000000000000A03F0000000000000A100869880178019801900110010001E801000188013801680180011006D004C
 94
        0
1001
ACAD
1000
AcRTDxfName
1000
SCALE
  0
ACAD_PROXY_OBJECT
  5
B588
102
{ACAD_REACTORS
330
B573
102
}
330
B573
100
AcDbProxyObject
 90
      499
 91
      625
 95
    65563
 70
     0
 93
      370
310
8000000000000B03F0000000000000A100869880178018801B00110010001E801000188013801680180011006D004C
 94
        0
1001
ACAD
1000
AcRTDxfName
1000
SCALE
  0
ACAD_PROXY_OBJECT
  5
B589
102
{ACAD_REACTORS
330
B573
102
}
330
B573
100
AcDbProxyObject
 90
      499
 91
      625
 95
    65563
 70
     0
 93
      370
310
8000000000000B83F0000000000000A100869980178019801900110010001E801000188013801680180011006D004C
 94
        0
1001
ACAD
1000
AcRTDxfName
1000
SCALE
  0
ACAD_PROXY_OBJECT
  5
B58A
102
{ACAD_REACTORS
330
B573
102
}
330
B573
100
AcDbProxyObject
 90
      499
 91
      625
 95
    65563
 70
     0
 93
      354
310
8000000000000C03F0000000000000A10086188017801C00110010001E8010001880138016801800110065004C
 94
        0
1001
ACAD
1000
AcRTDxfName
1000
SCALE
  0
ACAD_PROXY_OBJECT
  5
B58B
102
{ACAD_REACTORS
330
B573
102
}
330
B573
100
AcDbProxyObject
 90
      499
 91
      625
 95
    65563
 70
     0
 93
      370
310
8000000000000C83F0000000000000A100869980178018801B00110010001E801000188013801680180011006D004C
 94
        0
1001
ACAD
1000
AcRTDxfName
1000
SCALE
  0
ACAD_PROXY_OBJECT
  5
B58C
102
{ACAD_REACTORS
330
B573
102
}
330
B573
100
AcDbProxyObject
 90
      499
 91
      625
 95
    65563
 70
     0
 93
      354
310
8000000000000D03F0000000000000A10086188017801A00110010001E8010001880138016801800110065004C
 94
        0
1001
ACAD
1000
AcRTDxfName
1000
SCALE
  0
ACAD_PROXY_OBJECT
  5
B58D
102
{ACAD_REACTORS
330
B573
102
}
330
B573
100
AcDbProxyObject
 90
      499
 91
      625
 95
    65563
 70
     0
 93
      354
310
8000000000000D83F0000000000000A10086198017801C00110010001E8010001880138016801800110065004C
 94
        0
1001
ACAD
1000
AcRTDxfName
1000
SCALE
  0
ACAD_PROXY_OBJECT
  5
B58E
102
{ACAD_REACTORS
330
B573
102
}
330
B573
100
AcDbProxyObject
 90
      499
 91
      625
 95
    65563
 70
     0
 93
      354
310
8000000000000E03F0000000000000A10086188017801900110010001E8010001880138016801800110065004C
 94
        0
1001
ACAD
1000
AcRTDxfName
1000
SCALE
  0
ACAD_PROXY_OBJECT
  5
B58F
102
{ACAD_REACTORS
330
B573
102
}
330
B573
100
AcDbProxyObject
 90
      499
 91
      625
 95
    65563
 70
     0
 93
      354
310
8000000000000E83F0000000000000A10086198017801A00110010001E8010001880138016801800110065004C
 94
        0
1001
ACAD
1000
AcRTDxfName
1000
SCALE
  0
ACAD_PROXY_OBJECT
  5
B590
102
{ACAD_REACTORS
330
B573
102
}
330
B573
100
AcDbProxyObject
 90
      499
 91
      625
 95
    65563
 70
     0
 93
      258
310
90000000000000A100851880110010001E8010001880138016801800110055004C
 94
        0
1001
ACAD
1000
AcRTDxfName
1000
SCALE
  0
ACAD_PROXY_OBJECT
  5
B591
102
{ACAD_REACTORS
330
B573
102
}
330
B573
100
AcDbProxyObject
 90
      499
 91
      625
 95
    65563
 70
     0
 93
      386
310
8000000000000F83F0000000000000A1008718801680188017801900110010001E8010001880138016801800110075004C
 94
        0
1001
ACAD
1000
AcRTDxfName
1000
SCALE
  0
ACAD_PROXY_OBJECT
  5
B592
102
{ACAD_REACTORS
330
B573
102
}
330
B573
100
AcDbProxyObject
 90
      499
 91
      625
 95
    65563
 70
     0
 93
      322
310
800000000000008400000000000000A100851980110010001E8010001880138016801800110055004C
 94
        0
1001
ACAD
1000
AcRTDxfName
1000
SCALE
  0
ACAD_PROXY_OBJECT
  5
B593
102
{ACAD_REACTORS
330
B573
102
}
330
B573
100
AcDbProxyObject
 90
      499
 91
      625
 95
    65563
 70
     0
 93
      322
310
800000000000018400000000000000A100851B00110010001E8010001880138016801800110055004C
 94
        0
1001
ACAD
1000
AcRTDxfName
1000
SCALE
  0
ACAD_PROXY_OBJECT
  5
B594
102
{ACAD_REACTORS
330
B573
102
}
330
B573
100
AcDbProxyObject
 90
      499
 91
      625
 95
    65563
 70
     0
 93
      370
310
800000000000028400000000000000A100869880138016801800110010001E801000188013801680180011006D004C
 94
        0
1001
ACAD
1000
AcRTDxfName
1000
SCALE
  0
TABLESTYLE
  5
AABA
102
{ACAD_XDICTIONARY
360
B5B5
102
}
102
{ACAD_REACTORS
330
AAB9
102
}
330
AAB9
100
AcDbTableStyle
  3
Standard
 70
     0
 71
     0
 40
1.5
 41
1.5
280
     0
281
     0
  7
STANDARD
140
4.5
170
     2
 62
     0
 63
     7
283
     0
274
    -2
284
     1
 64
     0
275
    -2
285
     1
 65
     0
276
    -2
286
     1
 66
     0
277
    -2
287
     1
 67
     0
278
    -2
288
     1
 68
     0
279
    -2
289
     1
 69
     0
  7
STANDARD
140
6.0
170
     5
 62
     0
 63
     7
283
     0
274
    -2
284
     1
 64
     0
275
    -2
285
     1
 65
     0
276
    -2
286
     1
 66
     0
277
    -2
287
     1
 67
     0
278
    -2
288
     1
 68
     0
279
    -2
289
     1
 69
     0
  7
STANDARD
140
4.5
170
     5
 62
     0
 63
     7
283
     0
274
    -2
284
     1
 64
     0
275
    -2
285
     1
 65
     0
276
    -2
286
     1
 66
     0
277
    -2
287
     1
 67
     0
278
    -2
288
     1
 68
     0
279
    -2
289
     1
 69
     0
  0
VISUALSTYLE
  5
B0F7
102
{ACAD_REACTORS
330
B0F1
102
}
330
B0F1
100
AcDbVisualStyle
  2
2dWireframe
 70
     4
 71
     0
 72
     2
 73
     0
 90
        0
 40
-0.6
 41
-30.0
 62
     5
 63
     7
 74
     1
 91
        4
 64
     7
 65
   257
 75
     1
175
     1
 42
1.0
 92
        0
 66
   257
 43
1.0
 76
     1
 77
     6
 78
     2
 67
     7
 79
     5
170
     0
171
     0
290
     0
174
     0
 93
        1
 44
0.0
173
     0
291
     0
 45
0.0
1001
ACAD
1000
AcDbSavedByObjectVersion
1070
     0
  0
VISUALSTYLE
  5
B0F9
102
{ACAD_REACTORS
330
B0F1
102
}
330
B0F1
100
AcDbVisualStyle
  2
3D Hidden
 70
     6
 71
     1
 72
     2
 73
     2
 90
        0
 40
-0.6
 41
-30.0
 62
     5
 63
     7
 74
     2
 91
        2
 64
     7
 65
   257
 75
     2
175
     1
 42
40.0
 92
        0
 66
   257
 43
1.0
 76
     1
 77
     6
 78
     2
 67
     7
 79
     3
170
     0
171
     0
290
     0
174
     0
 93
        1
 44
0.0
173
     0
291
     0
 45
0.0
1001
ACAD
1000
AcDbSavedByObjectVersion
1070
     0
  0
VISUALSTYLE
  5
B0F8
102
{ACAD_REACTORS
330
B0F1
102
}
330
B0F1
100
AcDbVisualStyle
  2
3dWireframe
 70
     5
 71
     0
 72
     2
 73
     0
 90
        0
 40
-0.6
 41
-30.0
 62
     5
 63
     7
 74
     1
 91
        4
 64
     7
 65
   257
 75
     1
175
     1
 42
1.0
 92
        0
 66
   257
 43
1.0
 76
     1
 77
     6
 78
     2
 67
     7
 79
     5
170
     0
171
     0
290
     0
174
     0
 93
        1
 44
0.0
173
     0
291
     0
 45
0.0
1001
ACAD
1000
AcDbSavedByObjectVersion
1070
     0
  0
VISUALSTYLE
  5
B0F6
102
{ACAD_REACTORS
330
B0F1
102
}
330
B0F1
100
AcDbVisualStyle
  2
Basic
 70
     7
 71
     1
 72
     0
 73
     1
 90
        0
 40
-0.6
 41
-30.0
 62
     5
 63
     7
 74
     0
 91
        4
 64
     7
 65
   257
 75
     1
175
     1
 42
1.0
 92
        8
 66
     7
 43
1.0
 76
     1
 77
     6
 78
     2
 67
     7
 79
     5
170
     0
171
     0
290
     0
174
     0
 93
        1
 44
0.0
173
     0
291
     1
 45
0.0
1001
ACAD
1000
AcDbSavedByObjectVersion
1070
     0
  0
VISUALSTYLE
  5
B0FD
102
{ACAD_REACTORS
330
B0F1
102
}
330
B0F1
100
AcDbVisualStyle
  2
Brighten
 70
    12
 71
     2
 72
     2
 73
     0
 90
        0
 40
-0.6
 41
-30.0
 62
     5
 63
     7
 74
     1
 91
        4
 64
     7
 65
   257
 75
     1
175
     1
 42
1.0
 92
        8
 66
     7
 43
1.0
 76
     1
 77
     6
 78
     2
 67
     7
 79
     5
170
     0
171
     0
290
     0
174
     0
 93
        1
 44
50.0
173
     0
291
     1
 45
0.0
1001
ACAD
1000
AcDbSavedByObjectVersion
1070
     0
  0
VISUALSTYLE
  5
B101
102
{ACAD_REACTORS
330
B0F1
102
}
330
B0F1
100
AcDbVisualStyle
  2
ColorChange
 70
    16
 71
     2
 72
     2
 73
     3
 90
        0
 40
-0.6
 41
-30.0
 62
     5
 63
     8
 74
     1
 91
        4
 64
     7
 65
   257
 75
     1
175
     1
 42
1.0
 92
        8
 66
     8
 43
1.0
 76
     1
 77
     6
 78
     2
 67
     7
 79
     5
170
     0
171
     0
290
     0
174
     0
 93
        1
 44
0.0
173
     0
291
     1
 45
0.0
1001
ACAD
1000
AcDbSavedByObjectVersion
1070
     0
  0
VISUALSTYLE
  5
B0FA
102
{ACAD_REACTORS
330
B0F1
102
}
330
B0F1
100
AcDbVisualStyle
  2
Conceptual
 70
     9
 71
     3
 72
     2
 73
     0
 90
        0
 40
-0.6
 41
-30.0
 62
     5
 63
     7
 74
     2
 91
        2
 64
     7
 65
   257
 75
     1
175
     1
 42
40.0
 92
        8
 66
     7
 43
1.0
 76
     1
 77
     6
 78
     2
 67
     7
 79
     3
170
     0
171
     0
290
     0
174
     0
 93
        1
 44
0.0
173
     0
291
     0
 45
0.0
1001
ACAD
1000
AcDbSavedByObjectVersion
1070
     0
  0
VISUALSTYLE
  5
B0FC
102
{ACAD_REACTORS
330
B0F1
102
}
330
B0F1
100
AcDbVisualStyle
  2
Dim
 70
    11
 71
     2
 72
     2
 73
     0
 90
        0
 40
-0.6
 41
-30.0
 62
     5
 63
     7
 74
     1
 91
        4
 64
     7
 65
   257
 75
     1
175
     1
 42
1.0
 92
        8
 66
     7
 43
1.0
 76
     1
 77
     6
 78
     2
 67
     7
 79
     5
170
     0
171
     0
290
     0
174
     0
 93
        1
 44
-50.0
173
     0
291
     1
 45
0.0
1001
ACAD
1000
AcDbSavedByObjectVersion
1070
     0
  0
VISUALSTYLE
  5
B100
102
{ACAD_REACTORS
330
B0F1
102
}
330
B0F1
100
AcDbVisualStyle
  2
Facepattern
 70
    15
 71
     2
 72
     2
 73
     0
 90
        0
 40
-0.6
 41
-30.0
 62
     5
 63
     7
 74
     1
 91
        4
 64
     7
 65
   257
 75
     1
175
     1
 42
1.0
 92
        8
 66
     7
 43
1.0
 76
     1
 77
     6
 78
     2
 67
     7
 79
     5
170
     0
171
     0
290
     0
174
     0
 93
        1
 44
0.0
173
     0
291
     1
 45
0.0
1001
ACAD
1000
AcDbSavedByObjectVersion
1070
     0
  0
VISUALSTYLE
  5
B0F2
102
{ACAD_REACTORS
330
B0F1
102
}
330
B0F1
100
AcDbVisualStyle
  2
Flat
 70
     0
 71
     2
 72
     1
 73
     1
 90
        2
 40
-0.6
 41
30.0
 62
     5
 63
     7
 74
     0
 91
        4
 64
     7
 65
   257
 75
     1
175
     1
 42
1.0
 92
        8
 66
     7
 43
1.0
 76
     1
 77
     6
 78
     2
 67
     7
 79
     5
170
     0
171
     0
290
     0
174
     0
 93
       13
 44
0.0
173
     0
291
     1
 45
0.0
1001
ACAD
1000
AcDbSavedByObjectVersion
1070
     0
  0
VISUALSTYLE
  5
B0F3
102
{ACAD_REACTORS
330
B0F1
102
}
330
B0F1
100
AcDbVisualStyle
  2
FlatWithEdges
 70
     1
 71
     2
 72
     1
 73
     1
 90
        2
 40
-0.6
 41
30.0
 62
     5
 63
     7
 74
     1
 91
        4
 64
     7
 65
   257
 75
     1
175
     1
 42
1.0
 92
        0
 66
   257
 43
1.0
 76
     1
 77
     6
 78
     2
 67
     7
 79
     5
170
     0
171
     0
290
     0
174
     0
 93
       13
 44
0.0
173
     0
291
     1
 45
0.0
1001
ACAD
1000
AcDbSavedByObjectVersion
1070
     0
  0
VISUALSTYLE
  5
B0F4
102
{ACAD_REACTORS
330
B0F1
102
}
330
B0F1
100
AcDbVisualStyle
  2
Gouraud
 70
     2
 71
     2
 72
     2
 73
     1
 90
        2
 40
-0.6
 41
30.0
 62
     5
 63
     7
 74
     0
 91
        4
 64
     7
 65
   257
 75
     1
175
     1
 42
1.0
 92
        0
 66
     7
 43
1.0
 76
     1
 77
     6
 78
     2
 67
     7
 79
     5
170
     0
171
     0
290
     0
174
     0
 93
       13
 44
0.0
173
     0
291
     1
 45
0.0
1001
ACAD
1000
AcDbSavedByObjectVersion
1070
     0
  0
VISUALSTYLE
  5
B0F5
102
{ACAD_REACTORS
330
B0F1
102
}
330
B0F1
100
AcDbVisualStyle
  2
GouraudWithEdges
 70
     3
 71
     2
 72
     2
 73
     1
 90
        2
 40
-0.6
 41
30.0
 62
     5
 63
     7
 74
     1
 91
        4
 64
     7
 65
   257
 75
     1
175
     1
 42
1.0
 92
        0
 66
   257
 43
1.0
 76
     1
 77
     6
 78
     2
 67
     7
 79
     5
170
     0
171
     0
290
     0
174
     0
 93
       13
 44
0.0
173
     0
291
     1
 45
0.0
1001
ACAD
1000
AcDbSavedByObjectVersion
1070
     0
  0
VISUALSTYLE
  5
B0FF
102
{ACAD_REACTORS
330
B0F1
102
}
330
B0F1
100
AcDbVisualStyle
  2
Linepattern
 70
    14
 71
     2
 72
     2
 73
     0
 90
        0
 40
-0.6
 41
-30.0
 62
     5
 63
     7
 74
     1
 91
        4
 64
     7
 65
   257
 75
     7
175
     7
 42
1.0
 92
        8
 66
     7
 43
1.0
 76
     1
 77
     6
 78
     2
 67
     7
 79
     5
170
     0
171
     0
290
     0
174
     0
 93
        1
 44
0.0
173
     0
291
     1
 45
0.0
1001
ACAD
1000
AcDbSavedByObjectVersion
1070
     0
  0
VISUALSTYLE
  5
B0FB
102
{ACAD_REACTORS
330
B0F1
102
}
330
B0F1
100
AcDbVisualStyle
  2
Realistic
 70
     8
 71
     2
 72
     2
 73
     0
 90
        0
 40
-0.6
 41
-30.0
 62
     5
 63
     7
 74
     1
 91
        0
 64
     7
 65
   257
 75
     1
175
     1
 42
1.0
 92
        8
 66
     8
 43
1.0
 76
     1
 77
     6
 78
     2
 67
     7
 79
     5
170
     0
171
     0
290
     0
174
     0
 93
       13
 44
0.0
173
     0
291
     0
 45
0.0
1001
ACAD
1000
AcDbSavedByObjectVersion
1070
     0
  0
VISUALSTYLE
  5
B0FE
102
{ACAD_REACTORS
330
B0F1
102
}
330
B0F1
100
AcDbVisualStyle
  2
Thicken
 70
    13
 71
     2
 72
     2
 73
     0
 90
        0
 40
-0.6
 41
-30.0
 62
     5
 63
     7
 74
     1
 91
        4
 64
     7
 65
   257
 75
     1
175
     1
 42
1.0
 92
       12
 66
     7
 43
1.0
 76
     1
 77
     6
 78
     2
 67
     7
 79
     5
170
     0
171
     0
290
     0
174
     0
 93
        1
 44
0.0
173
     0
291
     1
 45
0.0
1001
ACAD
1000
AcDbSavedByObjectVersion
1070
     0
  0
DICTIONARYVAR
  5
B5BA
102
{ACAD_REACTORS
330
34
102
}
330
34
100
DictionaryVariables
280
     0
  1
1:1
  0
DICTIONARYVAR
  5
B5B8
102
{ACAD_REACTORS
330
34
102
}
330
34
100
DictionaryVariables
280
     0
  1
STANDARD
  0
DICTIONARYVAR
  5
AAF3
102
{ACAD_REACTORS
330
34
102
}
330
34
100
DictionaryVariables
280
     0
  1
STANDARD
  0
DICTIONARYVAR
  5
A10C
102
{ACAD_REACTORS
330
34
102
}
330
34
100
DictionaryVariables
280
     0
  1
1
  0
DICTIONARYVAR
  5
AB07
102
{ACAD_REACTORS
330
34
102
}
330
34
100
DictionaryVariables
280
     0
  1
4
  0
DICTIONARYVAR
  5
35
102
{ACAD_REACTORS
330
34
102
}
330
34
100
DictionaryVariables
280
     0
  1
0
  0
DICTIONARYVAR
  5
B5BB
102
{ACAD_REACTORS
330
34
102
}
330
34
100
DictionaryVariables
280
     0
  1
0
  0
DICTIONARYVAR
  5
B5B9
102
{ACAD_REACTORS
330
34
102
}
330
34
100
DictionaryVariables
280
     0
  1
0
  0
DICTIONARYVAR
  5
194C
102
{ACAD_REACTORS
330
34
102
}
330
34
100
DictionaryVariables
280
     0
  1
96
  0
DICTIONARY
  5
7E8
102
{ACAD_REACTORS
330
47
102
}
330
47
100
AcDbDictionary
281
     1
  0
DICTIONARY
  5
4C
102
{ACAD_REACTORS
330
47
102
}
330
47
100
AcDbDictionary
281
     1
  0
XRECORD
  5
A929
102
{ACAD_REACTORS
330
47
102
}
330
47
100
AcDbXrecord
280
     1
 90
-1023410169
  0
XRECORD
  5
B571
102
{ACAD_REACTORS
330
B570
102
}
330
B570
100
AcDbXrecord
280
     1
  0
XRECORD
  5
3FB7
102
{ACAD_REACTORS
330
3F96
102
}
330
3F96
100
AcDbXrecord
280
     1
 91
        3
330
0
 90
        8
 62
     7
370
    40
331
16
  1
Color_7
330
0
 90
        0
 62
    14
370
    -3
331
16
  1
Color_14
330
0
 90
        8
 62
     7
370
    20
331
16
  1
Color_7
330
6D1
 90
        0
 62
     7
370
    -3
331
16
  1
Color_7
330
0
 90
        8
 62
     7
370
    50
331
16
  1
Color_7
330
0
 90
        8
 62
     2
370
    35
331
16
  1
Color_2
330
0
 90
        8
 62
     7
370
    -3
331
16
  1
Color_7
330
10
 90
        8
 62
     7
370
    -3
331
16
  1
Color_7
  0
DICTIONARY
  5
BB5C
330
22
100
AcDbDictionary
280
     1
281
     1
  3
ACAD_XREC_ROUNDTRIP
360
BB5D
  0
DICTIONARY
  5
BB5A
330
1E
100
AcDbDictionary
280
     1
281
     1
  3
ACAD_XREC_ROUNDTRIP
360
BB5B
  0
DICTIONARY
  5
BB5E
330
26
100
AcDbDictionary
280
     1
281
     1
  3
ACAD_XREC_ROUNDTRIP
360
BB5F
  0
DICTIONARY
  5
BB63
330
B0EF
100
AcDbDictionary
280
     1
281
     1
  3
ACAD_XREC_ROUNDTRIP
360
BB64
  0
DICTIONARY
  5
BB61
330
B0EE
100
AcDbDictionary
280
     1
281
     1
  3
ACAD_XREC_ROUNDTRIP
360
BB62
  0
DICTIONARY
  5
BB65
330
B0F0
100
AcDbDictionary
280
     1
281
     1
  3
ACAD_XREC_ROUNDTRIP
360
BB66
  0
DICTIONARY
  5
B5B5
330
AABA
100
AcDbDictionary
280
     1
281
     1
  3
ACAD_ROUNDTRIP_2008_TABLESTYLE_CELLSTYLEMAP
360
BAF8
  3
ACAD_XREC_ROUNDTRIP
360
BB60
  0
XRECORD
  5
BB5D
102
{ACAD_REACTORS
330
BB5C
102
}
330
BB5C
100
AcDbXrecord
280
     1
102
SHADEPLOT
 70
     0
102
SHADEPLOTRESLEVEL
 70
     2
102
SHADEPLOTCUSTOMDPI
 70
   200
  0
XRECORD
  5
BB5B
102
{ACAD_REACTORS
330
BB5A
102
}
330
BB5A
100
AcDbXrecord
280
     1
102
SHADEPLOT
 70
     0
102
SHADEPLOTRESLEVEL
 70
     2
102
SHADEPLOTCUSTOMDPI
 70
   300
  0
XRECORD
  5
BB5F
102
{ACAD_REACTORS
330
BB5E
102
}
330
BB5E
100
AcDbXrecord
280
     1
102
SHADEPLOT
 70
     0
102
SHADEPLOTRESLEVEL
 70
     2
102
SHADEPLOTCUSTOMDPI
 70
   300
  0
XRECORD
  5
BB64
102
{ACAD_REACTORS
330
BB63
102
}
330
BB63
100
AcDbXrecord
280
     1
102
MATERIAL
148
0.0
149
0.0
149
0.0
 93
        0
 94
       63
282
     0
 72
     1
 77
     1
171
     1
175
     1
179
     1
273
     0
  0
XRECORD
  5
BB62
102
{ACAD_REACTORS
330
BB61
102
}
330
BB61
100
AcDbXrecord
280
     1
102
MATERIAL
148
0.0
149
0.0
149
0.0
 93
        0
 94
       63
282
     0
 72
     1
 77
     1
171
     1
175
     1
179
     1
273
     0
  0
XRECORD
  5
BB66
102
{ACAD_REACTORS
330
BB65
102
}
330
BB65
100
AcDbXrecord
280
     1
102
MATERIAL
148
0.0
149
0.0
149
0.0
 93
        0
 94
       63
282
     0
 72
     1
 77
     1
171
     1
175
     1
179
     1
273
     0
  0
ACAD_PROXY_OBJECT
  5
BAF8
102
{ACAD_REACTORS
330
B5B5
102
}
330
B5B5
100
AcDbProxyObject
 90
      499
 91
      628
 95
    65563
 70
     0
 93
     5369
310
40D054060020000020000003200101A4129416000000304000000000000001840404000000000000F83F0000000000003E0FC000000000000F83F0000000000003E0FC0AD7A3703D0AC73F02B5E8DC0F42B1CFD0640640600000030400FEFFFFFF80AD7A3703D0AA73F40A40600000030400FEFFFFFF80AD7A3703D0AA73F4
310
1240600000030400FEFFFFFF80AD7A3703D0AA73F42240600000030400FEFFFFFF80AD7A3703D0AA73F44240600000030400FEFFFFFF80AD7A3703D0AA73F48240600000030400FEFFFFFF80AD7A3703D0AA73F4050141501A8000000C800406904A5058000000C10000000000000004901010000000000003E0FC00000000
310
0000F83F0000000000003E0FC000000000000F83F02B5E8DC0F42B1CFC0AD7A3703D0AC73F419019018000000C1003FBFFFFFE02B5E8DC0F42A9CFD029018000000C1003FBFFFFFE02B5E8DC0F42A9CFD049018000000C1003FBFFFFFE02B5E8DC0F42A9CFD089018000000C1003FBFFFFFE02B5E8DC0F42A9CFD109018000
310
000C1003FBFFFFFE02B5E8DC0F42A9CFD209018000000C1003FBFFFFFE02B5E8DC0F42A9CFD0240505406A0000003200101A412940A000000304000000000000001240404000000000000F83F0000000000003E0FC000000000000F83F0000000000003E0FC0AD7A3703D0AC73F02B5E8DC0F42B1CFD064064060000003040
310
0FEFFFFFF80AD7A3703D0AA73F40A40600000030400FEFFFFFF80AD7A3703D0AA73F41240600000030400FEFFFFFF80AD7A3703D0AA73F42240600000030400FEFFFFFF80AD7A3703D0AA73F44240600000030400FEFFFFFF80AD7A3703D0AA73F48240600000030400FEFFFFFF80AD7A3703D0AA73F40D029065F00540049
310
0054004C0045009075F004800450041004400450052009055F0044004100540041004401CC
340
11
340
0
340
0
340
0
340
0
340
0
340
0
340
11
340
0
340
0
340
0
340
0
340
0
340
0
340
11
340
0
340
0
340
0
340
0
340
0
340
0
 94
        0
1001
ACAD
1000
AcRTDxfName
1000
CELLSTYLEMAP
  0
XRECORD
  5
BB60
102
{ACAD_REACTORS
330
B5B5
102
}
330
B5B5
100
AcDbXrecord
280
     1
102
ACAD_ROUNDTRIP_PRE2007_TABLESTYLE
 90
        4
 91
        0
  1

 92
        4
 93
        0
  2

 94
        4
 95
        0
  3

  0
ENDSEC
  0
EOF
