  0
SECTION
  2
HEADER
  9
$ACADVER
  1
AC1027
  9
$ACADMAINTVER
 70
   105
  9
$DWGCODEPAGE
  3
ANSI_932
  9
$REQUIREDVERSIONS
160
                 0
  9
$LASTSAVEDBY
  1
G1022U
  9
$CUSTOMPROPERTYTAG
  1
AmdtFileType
  9
$CUSTOMPROPERTY
  1
84
  9
$INSBASE
 10
0.0
 20
0.0
 30
0.0
  9
$EXTMIN
 10
-0.0000000994001539
 20
-0.0000002194942681
 30
0.0
  9
$EXTMAX
 10
419.9999999005998
 20
296.9999997805057
 30
0.0
  9
$LIMMIN
 10
1700.85588156276
 20
1647.985052086429
  9
$LIMMAX
 10
1997.85588156276
 20
1857.985052086429
  9
$ORTHOMODE
 70
     0
  9
$REGENMODE
 70
     1
  9
$FILLMODE
 70
     1
  9
$QTEXTMODE
 70
     0
  9
$MIRRTEXT
 70
     0
  9
$LTSCALE
 40
1.0
  9
$ATTMODE
 70
     1
  9
$TEXTSIZE
 40
3.2
  9
$TRACEWID
 40
1.0
  9
$TEXTSTYLE
  7
STANDARD
  9
$CLAYER
  8
AM_0
  9
$CELTYPE
  6
ByLayer
  9
$CECOLOR
 62
   256
  9
$CELTSCALE
 40
1.0
  9
$DISPSILH
 70
     0
  9
$DIMSCALE
 40
1.0
  9
$DIMASZ
 40
1.0
  9
$DIMEXO
 40
1.0
  9
$DIMDLI
 40
10.0
  9
$DIMRND
 40
0.0
  9
$DIMDLE
 40
0.0
  9
$DIMEXE
 40
1.0
  9
$DIMTP
 40
0.1
  9
$DIMTM
 40
0.1
  9
$DIMTXT
 40
3.5
  9
$DIMCEN
 40
0.0
  9
$DIMTSZ
 40
0.0
  9
$DIMTOL
 70
     0
  9
$DIMLIM
 70
     0
  9
$DIMTIH
 70
     0
  9
$DIMTOH
 70
     0
  9
$DIMSE1
 70
     0
  9
$DIMSE2
 70
     0
  9
$DIMTAD
 70
     1
  9
$DIMZIN
 70
     8
  9
$DIMBLK
  1

  9
$DIMASO
 70
     1
  9
$DIMSHO
 70
     1
  9
$DIMPOST
  1

  9
$DIMAPOST
  1
"
  9
$DIMALT
 70
     0
  9
$DIMALTD
 70
     2
  9
$DIMALTF
 40
0.0393701
  9
$DIMLFAC
 40
1.0
  9
$DIMTOFL
 70
     1
  9
$DIMTVP
 40
0.0
  9
$DIMTIX
 70
     0
  9
$DIMSOXD
 70
     0
  9
$DIMSAH
 70
     0
  9
$DIMBLK1
  1

  9
$DIMBLK2
  1

  9
$DIMSTYLE
  2
SYS
  9
$DIMCLRD
 70
   256
  9
$DIMCLRE
 70
   256
  9
$DIMCLRT
 70
     7
  9
$DIMTFAC
 40
0.71
  9
$DIMGAP
 40
1.5
  9
$DIMJUST
 70
     0
  9
$DIMSD1
 70
     0
  9
$DIMSD2
 70
     0
  9
$DIMTOLJ
 70
     0
  9
$DIMTZIN
 70
     8
  9
$DIMALTZ
 70
     0
  9
$DIMALTTZ
 70
     0
  9
$DIMUPT
 70
     0
  9
$DIMDEC
 70
     2
  9
$DIMTDEC
 70
     2
  9
$DIMALTU
 70
     2
  9
$DIMALTTD
 70
     2
  9
$DIMTXSTY
  7
STANDARD
  9
$DIMAUNIT
 70
     0
  9
$DIMADEC
 70
     0
  9
$DIMALTRND
 40
0.0
  9
$DIMAZIN
 70
     2
  9
$DIMDSEP
 70
    46
  9
$DIMATFIT
 70
     3
  9
$DIMFRAC
 70
     0
  9
$DIMLDRBLK
  1

  9
$DIMLUNIT
 70
     2
  9
$DIMLWD
 70
    -1
  9
$DIMLWE
 70
    -1
  9
$DIMTMOVE
 70
     0
  9
$DIMFXL
 40
1.0
  9
$DIMFXLON
 70
     0
  9
$DIMJOGANG
 40
0.7853981633974483
  9
$DIMTFILL
 70
     0
  9
$DIMTFILLCLR
 70
     0
  9
$DIMARCSYM
 70
     0
  9
$DIMLTYPE
  6

  9
$DIMLTEX1
  6

  9
$DIMLTEX2
  6

  9
$DIMTXTDIRECTION
 70
     0
  9
$LUNITS
 70
     2
  9
$LUPREC
 70
     2
  9
$SKETCHINC
 40
1.0
  9
$FILLETRAD
 40
0.0
  9
$AUNITS
 70
     0
  9
$AUPREC
 70
     0
  9
$MENU
  1
.
  9
$ELEVATION
 40
0.0
  9
$PELEVATION
 40
0.0
  9
$THICKNESS
 40
0.0
  9
$LIMCHECK
 70
     0
  9
$CHAMFERA
 40
0.0
  9
$CHAMFERB
 40
0.0
  9
$CHAMFERC
 40
20.0
  9
$CHAMFERD
 40
0.0
  9
$SKPOLY
 70
     0
  9
$TDCREATE
 40
2455883.393150671
  9
$TDUCREATE
 40
2455883.018150671
  9
$TDUPDATE
 40
2459933.760889178
  9
$TDUUPDATE
 40
2459933.385889178
  9
$TDINDWG
 40
0.0033370139
  9
$TDUSRTIMER
 40
0.0033364468
  9
$USRTIMER
 70
     1
  9
$ANGBASE
 50
0.0
  9
$ANGDIR
 70
     0
  9
$PDMODE
 70
     0
  9
$PDSIZE
 40
-3.0
  9
$PLINEWID
 40
0.0
  9
$SPLFRAME
 70
     0
  9
$SPLINETYPE
 70
     6
  9
$SPLINESEGS
 70
     8
  9
$HANDSEED
  5
BBC7
  9
$SURFTAB1
 70
     6
  9
$SURFTAB2
 70
     6
  9
$SURFTYPE
 70
     6
  9
$SURFU
 70
     6
  9
$SURFV
 70
     6
  9
$UCSBASE
  2

  9
$UCSNAME
  2

  9
$UCSORG
 10
0.0
 20
0.0
 30
0.0
  9
$UCSXDIR
 10
1.0
 20
0.0
 30
0.0
  9
$UCSYDIR
 10
0.0
 20
1.0
 30
0.0
  9
$UCSORTHOREF
  2

  9
$UCSORTHOVIEW
 70
     0
  9
$UCSORGTOP
 10
0.0
 20
0.0
 30
0.0
  9
$UCSORGBOTTOM
 10
0.0
 20
0.0
 30
0.0
  9
$UCSORGLEFT
 10
0.0
 20
0.0
 30
0.0
  9
$UCSORGRIGHT
 10
0.0
 20
0.0
 30
0.0
  9
$UCSORGFRONT
 10
0.0
 20
0.0
 30
0.0
  9
$UCSORGBACK
 10
0.0
 20
0.0
 30
0.0
  9
$PUCSBASE
  2

  9
$PUCSNAME
  2

  9
$PUCSORG
 10
0.0
 20
0.0
 30
0.0
  9
$PUCSXDIR
 10
1.0
 20
0.0
 30
0.0
  9
$PUCSYDIR
 10
0.0
 20
1.0
 30
0.0
  9
$PUCSORTHOREF
  2

  9
$PUCSORTHOVIEW
 70
     0
  9
$PUCSORGTOP
 10
0.0
 20
0.0
 30
0.0
  9
$PUCSORGBOTTOM
 10
0.0
 20
0.0
 30
0.0
  9
$PUCSORGLEFT
 10
0.0
 20
0.0
 30
0.0
  9
$PUCSORGRIGHT
 10
0.0
 20
0.0
 30
0.0
  9
$PUCSORGFRONT
 10
0.0
 20
0.0
 30
0.0
  9
$PUCSORGBACK
 10
0.0
 20
0.0
 30
0.0
  9
$USERI1
 70
     0
  9
$USERI2
 70
     0
  9
$USERI3
 70
     0
  9
$USERI4
 70
     0
  9
$USERI5
 70
     0
  9
$USERR1
 40
0.0
  9
$USERR2
 40
0.0
  9
$USERR3
 40
0.0
  9
$USERR4
 40
0.0
  9
$USERR5
 40
0.0
  9
$WORLDVIEW
 70
     1
  9
$SHADEDGE
 70
     3
  9
$SHADEDIF
 70
    70
  9
$TILEMODE
 70
     1
  9
$MAXACTVP
 70
    64
  9
$PINSBASE
 10
0.0
 20
0.0
 30
0.0
  9
$PLIMCHECK
 70
     0
  9
$PEXTMIN
 10
1.000000000000000E+20
 20
1.000000000000000E+20
 30
1.000000000000000E+20
  9
$PEXTMAX
 10
-1.000000000000000E+20
 20
-1.000000000000000E+20
 30
-1.000000000000000E+20
  9
$PLIMMIN
 10
-3.17498779296875
 20
-3.174999952316283
  9
$PLIMMAX
 10
293.4970092773438
 20
206.692492723465
  9
$UNITMODE
 70
     0
  9
$VISRETAIN
 70
     1
  9
$PLINEGEN
 70
     0
  9
$PSLTSCALE
 70
     1
  9
$TREEDEPTH
 70
  3020
  9
$CMLSTYLE
  2
Standard
  9
$CMLJUST
 70
     0
  9
$CMLSCALE
 40
20.0
  9
$PROXYGRAPHICS
 70
     1
  9
$MEASUREMENT
 70
     1
  9
$CELWEIGHT
370
    -1
  9
$ENDCAPS
280
     0
  9
$JOINSTYLE
280
     0
  9
$LWDISPLAY
290
     1
  9
$INSUNITS
 70
     4
  9
$HYPERLINKBASE
  1

  9
$STYLESHEET
  1
MONOCHROME.CTB
  9
$XEDIT
290
     1
  9
$CEPSNTYPE
380
     0
  9
$PSTYLEMODE
290
     1
  9
$FINGERPRINTGUID
  2
{EAB98E95-8D68-41B9-BE78-D94138F3DE61}
  9
$VERSIONGUID
  2
{8A89E38B-BBE9-4E19-BC7E-DE30D6071280}
  9
$EXTNAMES
290
     1
  9
$PSVPSCALE
 40
0.0
  9
$OLESTARTUP
290
     0
  9
$SORTENTS
280
    96
  9
$INDEXCTL
280
     0
  9
$HIDETEXT
280
     1
  9
$XCLIPFRAME
280
     2
  9
$HALOGAP
280
     0
  9
$OBSCOLOR
 70
   257
  9
$OBSLTYPE
280
     0
  9
$INTERSECTIONDISPLAY
280
     0
  9
$INTERSECTIONCOLOR
 70
   257
  9
$DIMASSOC
280
     1
  9
$PROJECTNAME
  1

  9
$CAMERADISPLAY
290
     0
  9
$LENSLENGTH
 40
50.0
  9
$CAMERAHEIGHT
 40
0.0
  9
$STEPSPERSEC
 40
2.0
  9
$STEPSIZE
 40
6.0
  9
$3DDWFPREC
 40
2.0
  9
$PSOLWIDTH
 40
0.25
  9
$PSOLHEIGHT
 40
4.0
  9
$LOFTANG1
 40
1.570796326794897
  9
$LOFTANG2
 40
1.570796326794897
  9
$LOFTMAG1
 40
0.0
  9
$LOFTMAG2
 40
0.0
  9
$LOFTPARAM
 70
     7
  9
$LOFTNORMALS
280
     1
  9
$LATITUDE
 40
37.795
  9
$LONGITUDE
 40
-122.394
  9
$NORTHDIRECTION
 40
0.0
  9
$TIMEZONE
 70
 -8000
  9
$LIGHTGLYPHDISPLAY
280
     1
  9
$TILEMODELIGHTSYNCH
280
     1
  9
$CMATERIAL
347
B0EE
  9
$SOLIDHIST
280
     1
  9
$SHOWHIST
280
     1
  9
$DWFFRAME
280
     2
  9
$DGNFRAME
280
     0
  9
$REALWORLDSCALE
290
     1
  9
$INTERFERECOLOR
 62
   256
  9
$INTERFEREOBJVS
345
B0FB
  9
$INTERFEREVPVS
346
B9C7
  9
$CSHADOW
280
     0
  9
$SHADOWPLANELOCATION
 40
0.0
  0
ENDSEC
  0
SECTION
  2
CLASSES
  0
CLASS
  1
ACDBDICTIONARYWDFLT
  2
AcDbDictionaryWithDefault
  3
ObjectDBX Classes
 90
        0
 91
        8
280
     0
281
     0
  0
CLASS
  1
ACDBPLACEHOLDER
  2
AcDbPlaceHolder
  3
ObjectDBX Classes
 90
        0
 91
        1
280
     0
281
     0
  0
CLASS
  1
LAYOUT
  2
AcDbLayout
  3
ObjectDBX Classes
 90
        0
 91
        1
280
     0
281
     0
  0
CLASS
  1
AMGSETTINGSOBJ
  2
AmgSettingsObj
  3
AmgSettingsObj|...|...
 90
        0
 91
        8
280
     0
281
     0
  0
CLASS
  1
ACME_DOCUMENT
  2
AcMeDbDoc
  3
AcMeServices
 90
        0
 91
        1
280
     1
281
     0
  0
CLASS
  1
ACMESCOPE
  2
AcMeScope
  3
AcMeScope|...|...
 90
        0
 91
        8
280
     0
281
     0
  0
CLASS
  1
ACMECOMMANDHISTORY
  2
AcMeCommandHistory
  3
AcMeServices
 90
        0
 91
        2
280
     1
281
     0
  0
CLASS
  1
DICTIONARYVAR
  2
AcDbDictionaryVar
  3
ObjectDBX Classes
 90
        0
 91
        8
280
     0
281
     0
  0
CLASS
  1
ACIMSYSVARMAN
  2
AcImSysVarManager
  3
AcImSysVarManager|...|...
 90
        0
 91
        8
280
     0
281
     0
  0
CLASS
  1
ACIMREALSYSVAR
  2
AcImRealSysVar
  3
AcMeServices
 90
        0
 91
       18
280
     1
281
     0
  0
CLASS
  1
ACIMINTSYSVAR
  2
AcImIntSysVar
  3
AcImIntSysVar|...|...
 90
        0
 91
        8
280
     0
281
     0
  0
CLASS
  1
ACMEDRAWINGMAN
  2
AcMeDrawingMan
  3
AcMeServices
 90
        0
 91
        2
280
     1
281
     0
  0
CLASS
  1
ACMEVIEW
  2
AcMeView
  3
AcMeServices
 90
        0
 91
        2
280
     1
281
     0
  0
CLASS
  1
ACDBENTITYCACHE
  2
AcMeEntityCache
  3
AcMeServices
 90
        0
 91
        1
280
     1
281
     0
  0
CLASS
  1
GSMANAGER
  2
AcMeGSManager
  3
AcMeServices
 90
        0
 91
        1
280
     1
281
     0
  0
CLASS
  1
AMDTINTERNALREACTOR
  2
AmdtInternalReactor
  3
AcMeServices
 90
        0
 91
        1
280
     1
281
     0
  0
CLASS
  1
ACMESTATEMGR
  2
AcMeStateMgr
  3
AcMeStateMgr|...|...
 90
        0
 91
        8
280
     0
281
     0
  0
CLASS
  1
ACGREFMASTER
  2
AcGrefMaster
  3
AcAttribServices
 90
        0
 91
        2
280
     1
281
     0
  0
CLASS
  1
ACME_DATABASE
  2
AcMeDbDatabase
  3
AcMeServices
 90
        0
 91
        1
280
     1
281
     0
  0
CLASS
  1
ACRFINSADJUSTERMGR
  2
AcRfInsAdjusterMgr
  3
AcMeServices
 90
        0
 91
        1
280
     1
281
     0
  0
CLASS
  1
ACGREFACADMASTER
  2
AcGrefacadMaster
  3
AcGrefServices
 90
        0
 91
        2
280
     1
281
     0
  0
CLASS
  1
AMIMASTER
  2
AmiMaster
  3
AmiServices
 90
        0
 91
        2
280
     1
281
     0
  0
CLASS
  1
ACMDATADICTIONARY
  2
AcmDataDictionary
  3
AcmDataDictionary|...|...
 90
        0
 91
        8
280
     0
281
     0
  0
CLASS
  1
ACMDATAENTRYBLOCK
  2
AcmDataEntryBlock
  3
AcmDataEntryBlock|...|...
 90
        0
 91
        8
280
     0
281
     0
  0
CLASS
  1
ACIMSTRSYSVAR
  2
AcImStrSysVar
  3
AcImStrSysVar|...|...
 90
        0
 91
        8
280
     0
281
     0
  0
CLASS
  1
ACMSTANDARDISO
  2
AcmStandardISO
  3
AcmStandardISO|...|...
 90
        0
 91
       10
280
     0
281
     0
  0
CLASS
  1
AMGOBJPROPCFG
  2
AmgObjPropCfg
  3
AmgObjPropCfg|...|...
 90
        0
 91
        8
280
     0
281
     0
  0
CLASS
  1
AMDTEDGESTANDARDISO
  2
AmdtEdgeStdISO
  3
AmdtEdgeStdISO|...|...
 90
        0
 91
       10
280
     0
281
     0
  0
CLASS
  1
ACMSURFSTANDARDISO
  2
AcmSurfTextStdISO
  3
AcmSurfTextStdISO|...|...
 90
        0
 91
       12
280
     0
281
     0
  0
CLASS
  1
ACMFCFSTANDARDISO
  2
AcmFCFStdISO
  3
AcmFCFStdISO|...|...
 90
        0
 91
       11
280
     0
281
     0
  0
CLASS
  1
ACMWELDSTANDARDISO
  2
AcmWeldingStdISO
  3
AcmWeldingStdISO|...|...
 90
        0
 91
       12
280
     0
281
     0
  0
CLASS
  1
ACMIDSTANDARDISO
  2
AcmIdStdISO
  3
AcmIdStdISO|...|...
 90
        0
 91
       12
280
     0
281
     0
  0
CLASS
  1
ACMDATUMSTANDARDISO
  2
AcmDatumStdISO
  3
AcmDatumStdISO|...|...
 90
        0
 91
       13
280
     0
281
     0
  0
CLASS
  1
ACMBOMSTANDARDISO
  2
AcmBOMStdISO
  3
AcmBOMStdISO|...|...
 90
        0
 91
       10
280
     0
281
     0
  0
CLASS
  1
ACMDETAILSTANDARDISO
  2
AmdtDetailSymStdISO
  3
AmdtDetailSymStdISO|...|...
 90
        0
 91
        8
280
     0
281
     0
  0
CLASS
  1
ACMSECTIONSTANDARDISO
  2
AmdtSectionSymStdISO
  3
AmdtSectionSymStdISO|...|...
 90
        0
 91
        9
280
     0
281
     0
  0
CLASS
  1
ACMCENTERLINESTANDARDISO
  2
AmdtCenterLineStdISO
  3
AmdtCenterLineStdISO|...|...
 90
        0
 91
        8
280
     0
281
     0
  0
CLASS
  1
ACAMGLAYSTD
  2
AcAmgLayStd
  3
AcAmgLayStd|...|...
 90
        0
 91
        8
280
     0
281
     0
  0
CLASS
  1
ACAMGDIMSTD
  2
AcAmgDimStd
  3
AcAmgDimStd|...|...
 90
        0
 91
        8
280
     0
281
     0
  0
CLASS
  1
ACAMGTITLESTD
  2
AcAmgTitleStd
  3
AcAmgTitleStd|...|...
 90
        0
 91
        8
280
     0
281
     0
  0
CLASS
  1
ACAMGFILTERDAT
  2
AcAmgFilterDat
  3
"AcadM|Product Description: AutoCAD Mechanical|Company: Autodesk"
 90
        0
 91
        7
280
     1
281
     0
  0
CLASS
  1
LAYER_INDEX
  2
AcDbLayerIndex
  3
ObjectDBX Classes
 90
        0
 91
        8
280
     0
281
     0
  0
CLASS
  1
IDBUFFER
  2
AcDbIdBuffer
  3
ObjectDBX Classes
 90
        0
 91
        8
280
     0
281
     0
  0
CLASS
  1
PLOTSETTINGS
  2
AcDbPlotSettings
  3
ObjectDBX Classes
 90
        0
 91
        8
280
     0
281
     0
  0
CLASS
  1
AMDTFORMULAUPDATEDISPATCHER
  2
AmdtFormulaUpdateDispatcher
  3
AcMeServices
 90
        0
 91
        2
280
     1
281
     0
  0
CLASS
  1
ACMSTANDARDANSI
  2
AcmStandardANSI
  3
AcmStandardANSI|...|...
 90
        0
 91
        8
280
     0
281
     0
  0
CLASS
  1
ACMSURFSTANDARDANSI
  2
AcmSurfTextStdANSI
  3
AcmSurfTextStdANSI|...|...
 90
        0
 91
        8
280
     0
281
     0
  0
CLASS
  1
ACMFCFSTANDARDANSI
  2
AcmFCFStdANSI
  3
AcmFCFStdANSI|...|...
 90
        0
 91
        9
280
     0
281
     0
  0
CLASS
  1
ACMWELDSTANDARDANSI
  2
AcmWeldingStdANSI
  3
AcmWeldingStdANSI|...|...
 90
        0
 91
        8
280
     0
281
     0
  0
CLASS
  1
ACMIDSTANDARDANSI
  2
AcmIdStdANSI
  3
AcmIdStdANSI|...|...
 90
        0
 91
        9
280
     0
281
     0
  0
CLASS
  1
ACMDATUMSTANDARDANSI
  2
AcmDatumStdANSI
  3
AcmDatumStdANSI|...|...
 90
        0
 91
        8
280
     0
281
     0
  0
CLASS
  1
ACMBOMSTANDARDANSI
  2
AcmBOMStdANSI
  3
AcmBOMStdANSI|...|...
 90
        0
 91
        8
280
     0
281
     0
  0
CLASS
  1
ACMDETAILSTANDARDANSI
  2
AmdtDetailSymStdANSI
  3
AmdtDetailSymStdANSI|...|...
 90
        0
 91
        8
280
     0
281
     0
  0
CLASS
  1
ACMSECTIONSTANDARDANSI
  2
AmdtSectionSymStdANSI
  3
AmdtSectionSymStdANSI|...|...
 90
        0
 91
        8
280
     0
281
     0
  0
CLASS
  1
ACMCENTERLINESTANDARDANSI
  2
AmdtCenterLineStdANSI
  3
AmdtCenterLineStdANSI|...|...
 90
        0
 91
        8
280
     0
281
     0
  0
CLASS
  1
ACMBOM
  2
AcmBom
  3
AcmBom|...|...
 90
        0
 91
        8
280
     0
281
     0
  0
CLASS
  1
ACMDATAENTRYPART
  2
AcmDataEntryPart
  3
AcmDataEntryPart|...|...
 90
        0
 91
        8
280
     0
281
     0
  0
CLASS
  1
ACMPARTREF
  2
AcmPartRef
  3
AcmPartRef|...|...
 90
        0
 91
        8
280
     0
281
     1
  0
CLASS
  1
ACDBCIRCARCRES
  2
AcDbCircArcRes
  3
AcDbCircArcRes|...|...
 90
        0
 91
        9
280
     0
281
     0
  0
CLASS
  1
ACMBOMROW
  2
AcmBomRow
  3
AcmBomRow|...|...
 90
        0
 91
        8
280
     0
281
     0
  0
CLASS
  1
ACMBALLOON
  2
AcmBalloon
  3
AcmBalloon|...|...
 90
        0
 91
        8
280
     0
281
     1
  0
CLASS
  1
AMDTNOTE
  2
AmdtNote
  3
AmdtNote|...|...
 90
        0
 91
        8
280
     0
281
     1
  0
CLASS
  1
STDPART2D
  2
AmgStdPart
  3
AmgStdPart|...|...
 90
        0
 91
        8
280
     0
281
     1
  0
CLASS
  1
ACDBSTDPARTRES_LINE
  2
AcDbStdPartRes_Line
  3
AcDbStdPartRes_Line|...|...
 90
        0
 91
        8
280
     0
281
     0
  0
CLASS
  1
ACMDATAENTRY
  2
AcmDataEntry
  3
AcmDataEntry|...|...
 90
        0
 91
       10
280
     0
281
     0
  0
CLASS
  1
ACDBOPPOLYLINERES
  2
AcDbOpPolylineRes
  3
AcDbOpPolylineRes|...|...
 90
        0
 91
        8
280
     0
281
     0
  0
CLASS
  1
ACMPARTLIST
  2
AcmPartList
  3
AcmPartList|...|...
 90
        0
 91
        8
280
     0
281
     1
  0
CLASS
  1
ACDBLINERES
  2
AcDbLineRes
  3
AcDbLineRes|...|...
 90
        0
 91
        9
280
     0
281
     0
  0
CLASS
  1
ACRFINSADJ
  2
AcRfInsAdjuster
  3
AcRfInsAdjuster|...|...
 90
        0
 91
        9
280
     0
281
     0
  0
CLASS
  1
AM_DRAWING_MGR
  2
AcDmDwgMgr
  3
AcMechDwgViewMgmt
 90
        0
 91
        2
280
     1
281
     0
  0
CLASS
  1
AM_DWG_DOCUMENT
  2
AcDmDwgDocument
  3
AcMechDwgViewMgmt
 90
        0
 91
        2
280
     1
281
     0
  0
CLASS
  1
AM_DWG_SHEET
  2
AcDmSheet
  3
AcMechDwgViewMgmt
 90
        0
 91
        3
280
     1
281
     0
  0
CLASS
  1
AM_VIEWDIMPARMAP
  2
AcDmViewDimParMap
  3
AcMechDwgViewMgmt
 90
        0
 91
        3
280
     1
281
     0
  0
CLASS
  1
AM_DWGMGR_NAME
  2
AcDmDwgMgrName
  3
AcMechDwgViewMgmt
 90
        0
 91
        2
280
     1
281
     0
  0
CLASS
  1
AMDTMENUSTATEMGR
  2
AmdtMenuStateMgr
  3
McadcomServices
 90
        0
 91
        1
280
     1
281
     0
  0
CLASS
  1
AMDTMCOMMENUSTATE
  2
AmdtMcomMenuState
  3
McadcomServices
 90
        0
 91
        1
280
     1
281
     0
  0
CLASS
  1
ASAPP
  2
AcAsAppObject
  3
AutoSurfServices
 90
        0
 91
        2
280
     1
281
     0
  0
CLASS
  1
IM_STATIC_MAN
  2
AcImStaticVarManager
  3
AcMeServices
 90
        0
 91
        2
280
     1
281
     0
  0
CLASS
  1
ACIMDBLSTATICVAR
  2
AcImDblStaticVar
  3
AcMeServices
 90
        0
 91
       21
280
     1
281
     0
  0
CLASS
  1
ACIMSTRSTATICVAR
  2
AcImStrStaticVar
  3
AcMeServices
 90
        0
 91
       13
280
     1
281
     0
  0
CLASS
  1
ACIMINTSTATICVAR
  2
AcImIntStaticVar
  3
AcMeServices
 90
        0
 91
       18
280
     1
281
     0
  0
CLASS
  1
ACASGREFMASTER
  2
AcAsGrefMaster
  3
AutoSurfResolverServices
 90
        0
 91
        2
280
     1
281
     0
  0
CLASS
  1
ACADGREFMODULE
  2
AcAdGrefModule
  3
AdGrefServices
 90
        0
 91
        2
280
     1
281
     0
  0
CLASS
  1
AMDTMAPISURFMOUDULE
  2
AmdtMApiSurfModule
  3
MApiSurfServices
 90
        0
 91
        2
280
     1
281
     0
  0
CLASS
  1
MAPIAMMOUDLE
  2
MApiAmModule
  3
MApiAmServices
 90
        0
 91
        2
280
     1
281
     0
  0
CLASS
  1
AMDTADMENUSTATE
  2
AmdtAdMenuState
  3
DesignerServices
 90
        0
 91
        1
280
     1
281
     0
  0
CLASS
  1
ADAPPL
  2
AcAdAppl
  3
DesignerServices
 90
        0
 91
        2
280
     1
281
     0
  0
CLASS
  1
DEPMGR
  2
AcAdDepMgr
  3
DesignerServices
 90
        0
 91
        2
280
     1
281
     0
  0
CLASS
  1
PARAMMGR
  2
AcAdParamMgr
  3
DesignerServices
 90
        0
 91
        2
280
     1
281
     0
  0
CLASS
  1
PARAMSCOPE
  2
AcAdParamScope
  3
DesignerServices
 90
        0
 91
        2
280
     1
281
     0
  0
CLASS
  1
NAMEDAPPL
  2
AcAdNamedAppl
  3
DesignerServices
 90
        0
 91
        2
280
     1
281
     0
  0
CLASS
  1
ADHNTMPLT
  2
AdHoleNoteTemplateMgr
  3
DesignerServices
 90
        0
 91
        1
280
     1
281
     0
  0
CLASS
  1
AM_HNTEMPLATE_MGR_NAME
  2
AdHoleNoteTemplateMgrName
  3
DesignerServices
 90
        0
 91
        1
280
     1
281
     0
  0
CLASS
  1
AMDTDMMENUSTATE
  2
AmdtDmMenuState
  3
AcMechDwgViewMgmt
 90
        0
 91
        1
280
     1
281
     0
  0
CLASS
  1
MAPIADMODULE
  2
MApiAdModule
  3
MApiAdServices
 90
        0
 91
        2
280
     1
281
     0
  0
CLASS
  1
AMDTAMMENUSTATE
  2
AmdtAmMenuState
  3
DesignerAssemblies
 90
        0
 91
        1
280
     1
281
     0
  0
CLASS
  1
ACAMPROJECT
  2
AcAmProject
  3
AcAmProject|...|...
 90
        0
 91
        8
280
     0
281
     0
  0
CLASS
  1
ACAMGRCOMPDEF
  2
AcAmGrCompDef
  3
AcAmGrCompDef|...|...
 90
        0
 91
        8
280
     0
281
     0
  0
CLASS
  1
ACCMCONTEXT
  2
AcCmContext
  3
DesignerAssemblies
 90
        0
 91
        2
280
     1
281
     0
  0
CLASS
  1
ACAMCOMPDEF
  2
AcAmCompDef
  3
AcAmCompDef|...|...
 90
        0
 91
        8
280
     0
281
     0
  0
CLASS
  1
ACAMCOMPDEFMGR
  2
AcAmCompDefMgr
  3
AcAmCompDefMgr|...|...
 90
        0
 91
        8
280
     0
281
     0
  0
CLASS
  1
ACAMCONTEXTMGR
  2
AcAmContextMgr
  3
AcAmContextMgr|...|...
 90
        0
 91
        8
280
     0
281
     0
  0
CLASS
  1
ACAMCONTEXTMODELER
  2
AcAmContextModeler
  3
AcAmContextModeler|...|...
 90
        0
 91
        8
280
     0
281
     0
  0
CLASS
  1
CATALOGSTATE
  2
AcAmCatalogState
  3
DesignerAssemblies
 90
        0
 91
        2
280
     1
281
     0
  0
CLASS
  1
ACAMGRCOMPDEFSET
  2
AcAmGrCompDefSet
  3
DesignerAssemblies
 90
        0
 91
        1
280
     1
281
     0
  0
CLASS
  1
AMDTBROWSERDBTAB
  2
AmdtBrowserDbTab
  3
McadcomServices
 90
        0
 91
        1
280
     1
281
     0
  0
CLASS
  1
CBROWSERAPPOBJECT
  2
CBrowserAppObject
  3
McadcomServices
 90
        0
 91
        1
280
     1
281
     0
  0
CLASS
  1
DM_PLACEHOLDER
  2
AcDmSelsetPlaceholder
  3
AcMechDwgViewMgmt
 90
        0
 91
        1
280
     1
281
     0
  0
CLASS
  1
ACMPICKOBJ
  2
AcmPickEnt
  3
"AcmSymBB|Product Description: AutoCAD Mechanical|Company: Autodesk"
 90
        0
 91
        1
280
     1
281
     1
  0
CLASS
  1
ACMNOTESTANDARDISO
  2
AmdtNoteStdISO
  3
AmdtNoteStdISO|...|...
 90
        0
 91
        8
280
     0
281
     0
  0
CLASS
  1
ACMNOTESTANDARDANSI
  2
AmdtNoteStdANSI
  3
AmdtNoteStdANSI|...|...
 90
        0
 91
        8
280
     0
281
     0
  0
CLASS
  1
ACMTHREADLINESTANDARDISO
  2
AmdtThreadLineStdISO
  3
AmdtThreadLineStdISO|...|...
 90
        0
 91
        8
280
     0
281
     0
  0
CLASS
  1
ACMTHREADLINESTANDARDANSI
  2
AmdtThreadLineStdANSI
  3
AmdtThreadLineStdANSI|...|...
 90
        0
 91
        8
280
     0
281
     0
  0
CLASS
  1
TABLESTYLE
  2
AcDbTableStyle
  3
ObjectDBX Classes
 90
     4095
 91
        8
280
     0
281
     0
  0
CLASS
  1
SORTENTSTABLE
  2
AcDbSortentsTable
  3
ObjectDBX Classes
 90
        0
 91
        8
280
     0
281
     0
  0
CLASS
  1
MATERIAL
  2
AcDbMaterial
  3
ObjectDBX Classes
 90
     1153
 91
        8
280
     0
281
     0
  0
CLASS
  1
VISUALSTYLE
  2
AcDbVisualStyle
  3
ObjectDBX Classes
 90
     4095
 91
        8
280
     0
281
     0
  0
CLASS
  1
ACRFATTGENMGR
  2
AcRfAttGeneralMgr
  3
AcAttribServices
 90
        0
 91
        2
280
     1
281
     0
  0
CLASS
  1
ACRFOBJATTMGR
  2
AcRfObjAttGroupMgr
  3
AcAttribServices
 90
        0
 91
        2
280
     1
281
     0
  0
CLASS
  1
ACRFMCADAPIATTHOLDER
  2
AcRfMCADAPIAttHolder
  3
AcAttribServices
 90
        0
 91
        2
280
     1
281
     0
  0
CLASS
  1
AMDTSYSATTR
  2
AmdtSystemAttribute
  3
AmdtSystemAttribute|...|...
 90
        0
 91
        8
280
     0
281
     0
  0
CLASS
  1
ACMTAPERSTANDARDISO
  2
AcmTaperStdISO
  3
AcmTaperStdISO|...|...
 90
        0
 91
       11
280
     0
281
     0
  0
CLASS
  1
CAMSSTRUCTBTNSTATE
  2
StructBtnState
  3
L"DesignerAssemblies"
 90
        0
 91
        2
280
     1
281
     0
  0
CLASS
  1
DIMASSOC
  2
AcDbDimAssoc
  3
"AcDbDimAssoc|Product Desc:     AcDim ARX App For Dimension|Company:          Autodesk, Inc.|WEB Address:      www.autodesk.com"
 90
        0
 91
        8
280
     0
281
     0
  0
CLASS
  1
AMDTNOTETEMPLATEDB
  2
AmdtNoteTemplateDB
  3
AmdtNoteTemplateDB|...|...
 90
        0
 91
        8
280
     0
281
     0
  0
CLASS
  1
SCALE
  2
AcDbScale
  3
ObjectDBX Classes
 90
     1153
 91
        8
280
     0
281
     0
  0
CLASS
  1
MLEADERSTYLE
  2
AcDbMLeaderStyle
  3
ACDB_MLEADERSTYLE_CLASS
 90
     4095
 91
        8
280
     0
281
     0
  0
CLASS
  1
ACMANOOTATIONVIEWSTANDARDISO
  2
AmdtAnViewStdISO
  3
AmdtAnViewStdISO|...|...
 90
        0
 91
        8
280
     0
281
     0
  0
CLASS
  1
CELLSTYLEMAP
  2
AcDbCellStyleMap
  3
ObjectDBX Classes
 90
     1152
 91
        8
280
     0
281
     0
  0
CLASS
  1
ACDBSECTIONVIEWSTYLE
  2
AcDbSectionViewStyle
  3
ObjectDBX Classes
 90
     1025
 91
        8
280
     0
281
     0
  0
CLASS
  1
ACDBDETAILVIEWSTYLE
  2
AcDbDetailViewStyle
  3
ObjectDBX Classes
 90
     1025
 91
        8
280
     0
281
     0
  0
CLASS
  1
ACMSECTIONSTANDARDCUSTOM
  2
AmdtSectionSymStdCustom
  3
AmdtSectionSymStdCustom|...|...
 90
        0
 91
        8
280
     0
281
     0
  0
CLASS
  1
ACMDETAILSTANDARDCUSTOM
  2
AmdtDetailSymStdCustom
  3
AmdtDetailSymStdCustom|...|...
 90
        0
 91
        8
280
     0
281
     0
  0
ENDSEC
  0
SECTION
  2
TABLES
  0
TABLE
  2
VPORT
  5
8
330
0
100
AcDbSymbolTable
 70
     1
  0
VPORT
  5
B0EC
330
8
100
AcDbSymbolTableRecord
100
AcDbViewportTableRecord
  2
*Active
 70
     0
 10
0.0
 20
0.0
 11
1.0
 21
1.0
 12
209.9999999005998
 22
148.4999997805057
 13
0.0
 23
0.0
 14
2.5
 24
2.5
 15
10.0
 25
10.0
 16
0.0
 26
0.0
 36
1.0
 17
0.0
 27
0.0
 37
0.0
 40
299.9333333333333
 41
1.748166259168704
 42
50.0
 43
-1370.695619172058
 44
-1370.695619172058
 50
0.0
 51
0.0
 71
    16
 72
   100
 73
     1
 74
     3
 75
     0
 76
     0
 77
     0
 78
     0
281
     0
 65
     0
110
0.0
120
0.0
130
0.0
111
1.0
121
0.0
131
0.0
112
0.0
122
1.0
132
0.0
 79
     0
146
0.0
348
B0F7
 60
     3
 61
     5
292
     1
282
     1
141
0.0
142
0.0
 63
   250
1001
ACAD_NAV_VCDISPLAY
1070
     3
  0
ENDTAB
  0
TABLE
  2
LTYPE
  5
5
330
0
100
AcDbSymbolTable
 70
    27
  0
LTYPE
  5
14
330
5
100
AcDbSymbolTableRecord
100
AcDbLinetypeTableRecord
  2
ByBlock
 70
     0
  3

 72
    65
 73
     0
 40
0.0
  0
LTYPE
  5
15
330
5
100
AcDbSymbolTableRecord
100
AcDbLinetypeTableRecord
  2
ByLayer
 70
     0
  3

 72
    65
 73
     0
 40
0.0
  0
LTYPE
  5
16
330
5
100
AcDbSymbolTableRecord
100
AcDbLinetypeTableRecord
  2
Continuous
 70
     0
  3
Solid line
 72
    65
 73
     0
 40
0.0
  0
LTYPE
  5
4F
330
5
100
AcDbSymbolTableRecord
100
AcDbLinetypeTableRecord
  2
AM_ISO02W050
 70
     0
  3
__ __ __ __ __ __ __ __ __ __ __ __ __ __ __
 72
    65
 73
     2
 40
7.5
 49
6.0
 74
     0
 49
-1.5
 74
     0
  0
LTYPE
  5
52
330
5
100
AcDbSymbolTableRecord
100
AcDbLinetypeTableRecord
  2
Amconstr
 70
     0
  3
_______________________
 72
    65
 73
     2
 40
9999.0
 49
9999.0
 74
     0
 49
0.0
 74
     0
  0
LTYPE
  5
64
330
5
100
AcDbSymbolTableRecord
100
AcDbLinetypeTableRecord
  2
ACISOWELD
 70
     0
  3
_ _ _ _ _
 72
    65
 73
     2
 40
2.0
 49
2.0
 74
     0
 49
-1.0
 74
     0
  0
LTYPE
  5
65
330
5
100
AcDbSymbolTableRecord
100
AcDbLinetypeTableRecord
  2
ACISOTGB
 70
     0
  3
__ . . __ . .
 72
    65
 73
     6
 40
9.0
 49
4.0
 74
     0
 49
-1.0
 74
     0
 49
1.0
 74
     0
 49
-1.0
 74
     0
 49
1.0
 74
     0
 49
-1.0
 74
     0
  0
LTYPE
  5
66
330
5
100
AcDbSymbolTableRecord
100
AcDbLinetypeTableRecord
  2
ACISOTGL
 70
     0
  3
_ _ _ _ _
 72
    65
 73
     2
 40
3.0
 49
2.0
 74
     0
 49
-1.0
 74
     0
  0
LTYPE
  5
69
330
5
100
AcDbSymbolTableRecord
100
AcDbLinetypeTableRecord
  2
CENTER
 70
     0
  3
__ . __
 72
    65
 73
     4
 40
7.0
 49
4.0
 74
     0
 49
-1.0
 74
     0
 49
1.0
 74
     0
 49
-1.0
 74
     0
  0
LTYPE
  5
A6E
330
5
100
AcDbSymbolTableRecord
100
AcDbLinetypeTableRecord
  2
PHANTOM2
 70
     0
  3
Phantom (.5x) ___ _ _ ___ _ _ ___ _ _ ___ _ _
 72
    65
 73
     6
 40
31.75
 49
15.875
 74
     0
 49
-3.174999999999998
 74
     0
 49
3.174999999999998
 74
     0
 49
-3.174999999999998
 74
     0
 49
3.174999999999998
 74
     0
 49
-3.174999999999998
 74
     0
  0
LTYPE
  5
4DED
330
5
100
AcDbSymbolTableRecord
100
AcDbLinetypeTableRecord
  2
中線
 70
     0
  3
___________________
 72
    65
 73
     2
 40
2.0
 49
1.0
 74
     0
 49
1.0
 74
     0
  0
LTYPE
  5
4DF6
330
5
100
AcDbSymbolTableRecord
100
AcDbLinetypeTableRecord
  2
細線
 70
     0
  3
___________________
 72
    65
 73
     2
 40
2.0
 49
1.0
 74
     0
 49
1.0
 74
     0
  0
LTYPE
  5
4DF7
330
5
100
AcDbSymbolTableRecord
100
AcDbLinetypeTableRecord
  2
太線
 70
     0
  3
___________________
 72
    65
 73
     2
 40
2.0
 49
1.0
 74
     0
 49
1.0
 74
     0
  0
LTYPE
  5
4EA7
330
5
100
AcDbSymbolTableRecord
100
AcDbLinetypeTableRecord
  2
文字
 70
     0
  3
_________________
 72
    65
 73
     2
 40
2.0
 49
1.0
 74
     0
 49
1.0
 74
     0
  0
LTYPE
  5
4EA9
330
5
100
AcDbSymbolTableRecord
100
AcDbLinetypeTableRecord
  2
寸法線
 70
     0
  3
________________
 72
    65
 73
     2
 40
2.0
 49
1.0
 74
     0
 49
1.0
 74
     0
  0
LTYPE
  5
4F12
330
5
100
AcDbSymbolTableRecord
100
AcDbLinetypeTableRecord
  2
ハッチング
 70
     0
  3
_________________
 72
    65
 73
     2
 40
2.0
 49
1.0
 74
     0
 49
1.0
 74
     0
  0
LTYPE
  5
5180
330
5
100
AcDbSymbolTableRecord
100
AcDbLinetypeTableRecord
  2
陰線1
 70
     0
  3
__ __ __ __
 72
    65
 73
     2
 40
4.0
 49
2.2
 74
     0
 49
-1.8
 74
     0
  0
LTYPE
  5
5182
330
5
100
AcDbSymbolTableRecord
100
AcDbLinetypeTableRecord
  2
切断線
 70
     0
  3
/\/-/\/-/\/-/\/-/\/-/\/
 72
    65
 73
     2
 40
11.0001
 49
0.0001
 74
     4
 75
   135
340
56
 46
0.04
 50
0.0
 44
0.0
 45
0.0
 49
-11.0
 74
     0
  0
LTYPE
  5
5183
330
5
100
AcDbSymbolTableRecord
100
AcDbLinetypeTableRecord
  2
想像線1
 70
     0
  3
__ __ __ _____ __ __ ____
 72
    65
 73
     6
 40
14.5
 49
6.0
 74
     0
 49
-1.5
 74
     0
 49
2.0
 74
     0
 49
-1.5
 74
     0
 49
2.0
 74
     0
 49
-1.5
 74
     0
  0
LTYPE
  5
5185
330
5
100
AcDbSymbolTableRecord
100
AcDbLinetypeTableRecord
  2
中心線1
 70
     0
  3
___ _ ___ _ ___
 72
    65
 73
     4
 40
18.0
 49
12.0
 74
     0
 49
-2.0
 74
     0
 49
2.0
 74
     0
 49
-2.0
 74
     0
  0
LTYPE
  5
5188
330
5
100
AcDbSymbolTableRecord
100
AcDbLinetypeTableRecord
  2
補助線
 70
     0
  3
______________
 72
    65
 73
     2
 40
2.0
 49
1.0
 74
     0
 49
1.0
 74
     0
  0
LTYPE
  5
6427
330
5
100
AcDbSymbolTableRecord
100
AcDbLinetypeTableRecord
  2
HIDDEN
 70
     0
  3
Hidden __ __ __ __ __ __ __ __ __ __ __ __ __ _
 72
    65
 73
     2
 40
0.375
 49
0.25
 74
     0
 49
-0.125
 74
     0
  0
LTYPE
  5
AC81
330
5
100
AcDbSymbolTableRecord
100
AcDbLinetypeTableRecord
  2
破断線
 70
     0
  3
/\/-/\/-/\/-/\/-/\/-/\/
 72
    65
 73
     2
 40
0.4401
 49
0.0001
 74
     4
 75
   136
340
AC80
 46
0.0016
 50
0.0
 44
0.0
 45
0.0
 49
-0.4400000000000002
 74
     0
  0
LTYPE
  5
AC9E
330
5
100
AcDbSymbolTableRecord
100
AcDbLinetypeTableRecord
  2
Amzigzag
 70
     0
  3
/\/-/\/-/\/-/\/-/\/-/\/
 72
    65
 73
     2
 40
11.0001
 49
0.0001
 74
     4
 75
   135
340
56
 46
0.04
 50
0.0
 44
0.0
 45
0.0
 49
-11.0
 74
     0
  0
LTYPE
  5
AF0F
330
5
100
AcDbSymbolTableRecord
100
AcDbLinetypeTableRecord
  2
genzigzag
 70
     0
  3
/\/-/\/-/\/-/\/-/\/-/\/
 72
    65
 73
     2
 40
12.0001
 49
0.0001
 74
     4
 75
   135
340
AC80
 46
2.0
 50
0.0
 44
0.0
 45
0.0
 49
-12.0
 74
     0
  0
LTYPE
  5
AF95
330
5
100
AcDbSymbolTableRecord
100
AcDbLinetypeTableRecord
  2
AM_ISO08W050
 70
     0
  3
____ . ____ . ____ . ____ . ____ . ____ . ____
 72
    65
 73
     4
 40
18.0
 49
12.0
 74
     0
 49
-1.5
 74
     0
 49
3.0
 74
     0
 49
-1.5
 74
     0
  0
LTYPE
  5
AF96
330
5
100
AcDbSymbolTableRecord
100
AcDbLinetypeTableRecord
  2
AM_ISO09W050
 70
     0
  3
_____ . . _____ . . _____ . . ____ .. ____
 72
    65
 73
     6
 40
22.5
 49
12.0
 74
     0
 49
-1.5
 74
     0
 49
3.0
 74
     0
 49
-1.5
 74
     0
 49
3.0
 74
     0
 49
-1.5
 74
     0
  0
LTYPE
  5
AF97
330
5
100
AcDbSymbolTableRecord
100
AcDbLinetypeTableRecord
  2
AM_ISO08W050x2
 70
     0
  3
__ . __ . __ . __ . __ . __
 72
    65
 73
     4
 40
9.0
 49
6.0
 74
     0
 49
-0.75
 74
     0
 49
1.5
 74
     0
 49
-0.75
 74
     0
  0
LTYPE
  5
AF98
330
5
100
AcDbSymbolTableRecord
100
AcDbLinetypeTableRecord
  2
AM_ISO02W050x2
 70
     0
  3
 _ _ _ _ _ _ _ _ _ _ _ _
 72
    65
 73
     2
 40
3.75
 49
3.0
 74
     0
 49
-0.75
 74
     0
  0
ENDTAB
  0
TABLE
  2
LAYER
  5
2
102
{ACAD_XDICTIONARY
360
3F95
102
}
330
0
100
AcDbSymbolTable
 70
    21
  0
LAYER
  5
10
102
{ACAD_XDICTIONARY
360
B95E
102
}
330
2
100
AcDbSymbolTableRecord
100
AcDbLayerTableRecord
  2
0
 70
     0
 62
     7
  6
Continuous
370
    -3
390
F
347
B0F0
348
0
  0
LAYER
  5
6D1
330
2
100
AcDbSymbolTableRecord
100
AcDbLayerTableRecord
  2
Defpoints
 70
     0
 62
     7
  6
Continuous
290
     0
370
    -3
390
F
347
B0F0
348
0
  0
LAYER
  5
5F85
102
{ACAD_XDICTIONARY
360
B960
102
}
330
2
100
AcDbSymbolTableRecord
100
AcDbLayerTableRecord
  2
AM_0
 70
     0
 62
     7
  6
中線
370
    30
390
F
347
B0F0
348
0
1001
AcAecLayerStandard
1000

1000

  0
LAYER
  5
AC9F
102
{ACAD_XDICTIONARY
360
B962
102
}
330
2
100
AcDbSymbolTableRecord
100
AcDbLayerTableRecord
  2
size
 70
     0
 62
     5
  6
Continuous
290
     0
370
    25
390
F
347
B0F0
348
0
  0
LAYER
  5
ACA0
102
{ACAD_XDICTIONARY
360
B964
102
}
330
2
100
AcDbSymbolTableRecord
100
AcDbLayerTableRecord
  2
waku
 70
     0
 62
     7
  6
Continuous
370
    35
390
F
347
B0F0
348
0
  0
LAYER
  5
ACA1
102
{ACAD_XDICTIONARY
360
B966
102
}
330
2
100
AcDbSymbolTableRecord
100
AcDbLayerTableRecord
  2
AM_6
 70
     0
 62
     2
  6
文字
370
    13
390
F
347
B0F0
348
0
1001
AcAecLayerStandard
1000

1000

  0
LAYER
  5
ACC8
102
{ACAD_XDICTIONARY
360
B968
102
}
330
2
100
AcDbSymbolTableRecord
100
AcDbLayerTableRecord
  2
hyomoji
 70
     0
 62
     2
  6
Continuous
370
    13
390
F
347
B0F0
348
0
  0
LAYER
  5
ACC9
102
{ACAD_XDICTIONARY
360
B96A
102
}
330
2
100
AcDbSymbolTableRecord
100
AcDbLayerTableRecord
  2
hyosen1
 70
     0
 62
    12
  6
Continuous
370
    25
390
F
347
B0F0
348
0
  0
LAYER
  5
ACCA
102
{ACAD_XDICTIONARY
360
B96C
102
}
330
2
100
AcDbSymbolTableRecord
100
AcDbLayerTableRecord
  2
hyosen2
 70
     0
 62
    12
  6
Continuous
370
    13
390
F
347
B0F0
348
0
  0
LAYER
  5
AD60
102
{ACAD_XDICTIONARY
360
B96E
102
}
330
2
100
AcDbSymbolTableRecord
100
AcDbLayerTableRecord
  2
AM_1
 70
     0
 62
    30
  6
太線
370
    40
390
F
347
B0F0
348
0
1001
AcAecLayerStandard
1000

1000

  0
LAYER
  5
AD64
102
{ACAD_XDICTIONARY
360
B970
102
}
330
2
100
AcDbSymbolTableRecord
100
AcDbLayerTableRecord
  2
AM_2
 70
     0
 62
     1
  6
細線
370
    13
390
F
347
B0F0
348
0
1001
AcAecLayerStandard
1000

1000

  0
LAYER
  5
AD67
102
{ACAD_XDICTIONARY
360
B972
102
}
330
2
100
AcDbSymbolTableRecord
100
AcDbLayerTableRecord
  2
AM_3
 70
     0
 62
     6
  6
陰線1
370
    13
390
F
347
B0F0
348
0
1001
AcAecLayerStandard
1000

1000

  0
LAYER
  5
AD68
102
{ACAD_XDICTIONARY
360
B974
102
}
330
2
100
AcDbSymbolTableRecord
100
AcDbLayerTableRecord
  2
AM_5
 70
     0
 62
     3
  6
寸法線
370
    13
390
F
347
B0F0
348
0
1001
AcAecLayerStandard
1000

1000

  0
LAYER
  5
AD69
102
{ACAD_XDICTIONARY
360
B976
102
}
330
2
100
AcDbSymbolTableRecord
100
AcDbLayerTableRecord
  2
AM_7
 70
     0
 62
     4
  6
中心線1
370
    13
390
F
347
B0F0
348
0
1001
AcAecLayerStandard
1000

1000

  0
LAYER
  5
AD6A
102
{ACAD_XDICTIONARY
360
B978
102
}
330
2
100
AcDbSymbolTableRecord
100
AcDbLayerTableRecord
  2
AM_8
 70
     0
 62
     1
  6
ハッチング
370
    13
390
F
347
B0F0
348
0
1001
AcAecLayerStandard
1000

1000

  0
LAYER
  5
AD6E
102
{ACAD_XDICTIONARY
360
B97A
102
}
330
2
100
AcDbSymbolTableRecord
100
AcDbLayerTableRecord
  2
AM_10
 70
     0
 62
     7
  6
切断線
370
    13
390
F
347
B0F0
348
0
1001
AcAecLayerStandard
1000

1000

  0
LAYER
  5
AD6F
102
{ACAD_XDICTIONARY
360
B97C
102
}
330
2
100
AcDbSymbolTableRecord
100
AcDbLayerTableRecord
  2
AM_11
 70
     0
 62
     2
  6
想像線1
370
    13
390
F
347
B0F0
348
0
1001
AcAecLayerStandard
1000

1000

  0
LAYER
  5
B1B6
102
{ACAD_XDICTIONARY
360
B97E
102
}
330
2
100
AcDbSymbolTableRecord
100
AcDbLayerTableRecord
  2
AM_CL
 70
     1
 62
    -1
  6
Amconstr
370
    15
390
F
347
B0F0
348
0
1001
AcAecLayerStandard
1000

1000

  0
LAYER
  5
B2EB
102
{ACAD_XDICTIONARY
360
B980
102
}
330
2
100
AcDbSymbolTableRecord
100
AcDbLayerTableRecord
  2
AM_14
 70
     0
 62
     5
  6
細線
370
     9
390
F
347
B0F0
348
0
1001
AcAecLayerStandard
1000

1000

  0
LAYER
  5
B2EC
102
{ACAD_XDICTIONARY
360
B982
102
}
330
2
100
AcDbSymbolTableRecord
100
AcDbLayerTableRecord
  2
AM_15
 70
     0
 62
     6
  6
陰線1
370
     9
390
F
347
B0F0
348
0
1001
AcAecLayerStandard
1000

1000

  0
ENDTAB
  0
TABLE
  2
STYLE
  5
3
330
0
100
AcDbSymbolTable
 70
     6
  0
STYLE
  5
11
330
3
100
AcDbSymbolTableRecord
100
AcDbTextStyleTableRecord
  2
STANDARD
 70
     0
 40
0.0
 41
0.7
 50
0.0
 71
     0
 42
3.2
  3
romans.shx
  4
extfont.shx
  0
STYLE
  5
56
330
3
100
AcDbSymbolTableRecord
100
AcDbTextStyleTableRecord
  2

 70
     1
 40
0.0
 41
1.0
 50
0.0
 71
     0
 42
2.5
  3
ltypeshp.shx
  4

  0
STYLE
  5
58
330
3
100
AcDbSymbolTableRecord
100
AcDbTextStyleTableRecord
  2
ACISOTS
 70
     0
 40
1.0
 41
1.0
 50
0.0
 71
     0
 42
2.5
  3
isocp.shx
  4
extfont.shx
  0
STYLE
  5
63
330
3
100
AcDbSymbolTableRecord
100
AcDbTextStyleTableRecord
  2
ACISOGDT
 70
     0
 40
0.0
 41
1.0
 50
0.0
 71
     0
 42
2.5
  3
amgdt.shx
  4

  0
STYLE
  5
A74
330
3
100
AcDbSymbolTableRecord
100
AcDbTextStyleTableRecord
  2
DIM
 70
     0
 40
0.0
 41
1.0
 50
0.0
 71
     0
 42
2.5
  3
monotxt.shx
  4
extfont.shx
  0
STYLE
  5
AC80
330
3
100
AcDbSymbolTableRecord
100
AcDbTextStyleTableRecord
  2

 70
     1
 40
0.0
 41
1.0
 50
0.0
 71
     0
 42
3.2
  3
genltshp.shx
  4

  0
ENDTAB
  0
TABLE
  2
VIEW
  5
6
330
0
100
AcDbSymbolTable
 70
     6
  0
VIEW
  5
AE1
330
6
100
AcDbSymbolTableRecord
100
AcDbViewTableRecord
  2
AM_VIEW1
 70
     0
 40
129.7276464542651
 10
1775.10588156276
 20
1793.121228859297
 41
148.5
 11
0.0
 21
0.0
 31
1.0
 12
0.0
 22
0.0
 32
0.0
 42
50.0
 43
-1370.695619172058
 44
-1370.695619172058
 50
0.0
 71
    16
281
     0
 72
     0
 73
     0
348
B0F7
  0
VIEW
  5
AE2
330
6
100
AcDbSymbolTableRecord
100
AcDbViewTableRecord
  2
AM_VIEW2
 70
     0
 40
129.7276464542651
 10
1923.60588156276
 20
1793.121228859297
 41
148.5
 11
0.0
 21
0.0
 31
1.0
 12
0.0
 22
0.0
 32
0.0
 42
50.0
 43
-1370.695619172058
 44
-1370.695619172058
 50
0.0
 71
    16
281
     0
 72
     0
 73
     0
348
B0F7
  0
VIEW
  5
AE3
330
6
100
AcDbSymbolTableRecord
100
AcDbViewTableRecord
  2
AM_VIEW3
 70
     0
 40
129.7276464542651
 10
1775.10588156276
 20
1712.848875313562
 41
148.5
 11
0.0
 21
0.0
 31
1.0
 12
0.0
 22
0.0
 32
0.0
 42
50.0
 43
-1370.695619172058
 44
-1370.695619172058
 50
0.0
 71
    16
281
     0
 72
     0
 73
     0
348
B0F7
  0
VIEW
  5
AE4
330
6
100
AcDbSymbolTableRecord
100
AcDbViewTableRecord
  2
AM_VIEW4
 70
     0
 40
129.7276464542651
 10
1923.60588156276
 20
1712.848875313562
 41
148.5
 11
0.0
 21
0.0
 31
1.0
 12
0.0
 22
0.0
 32
0.0
 42
50.0
 43
-1370.695619172058
 44
-1370.695619172058
 50
0.0
 71
    16
281
     0
 72
     0
 73
     0
348
B0F7
  0
VIEW
  5
AE5
330
6
100
AcDbSymbolTableRecord
100
AcDbViewTableRecord
  2
AM_VIEW5
 70
     0
 40
129.7276464542651
 10
1849.35588156276
 20
1752.985052086429
 41
148.5
 11
0.0
 21
0.0
 31
1.0
 12
0.0
 22
0.0
 32
0.0
 42
50.0
 43
-1370.695619172058
 44
-1370.695619172058
 50
0.0
 71
    16
281
     0
 72
     0
 73
     0
348
B0F7
  0
VIEW
  5
AE6
330
6
100
AcDbSymbolTableRecord
100
AcDbViewTableRecord
  2
AM_VIEW6
 70
     0
 40
259.452698355601
 10
1849.35588156276
 20
1752.985052086429
 41
296.99703
 11
0.0
 21
0.0
 31
1.0
 12
0.0
 22
0.0
 32
0.0
 42
50.0
 43
-1370.695619172058
 44
-1370.695619172058
 50
0.0
 71
    16
281
     0
 72
     0
 73
     0
348
B0F7
  0
ENDTAB
  0
TABLE
  2
UCS
  5
7
330
0
100
AcDbSymbolTable
 70
     0
  0
ENDTAB
  0
TABLE
  2
APPID
  5
9
330
0
100
AcDbSymbolTable
 70
    79
  0
APPID
  5
12
330
9
100
AcDbSymbolTableRecord
100
AcDbRegAppTableRecord
  2
ACAD
 70
     0
  0
APPID
  5
30
330
9
100
AcDbSymbolTableRecord
100
AcDbRegAppTableRecord
  2
MCAD_NO_VIS
 70
     0
  0
APPID
  5
31
330
9
100
AcDbSymbolTableRecord
100
AcDbRegAppTableRecord
  2
ACAD_TEMP_GRAPHIC
 70
     0
  0
APPID
  5
44
330
9
100
AcDbSymbolTableRecord
100
AcDbRegAppTableRecord
  2
ACATTRIBSERVICES
 70
     0
  0
APPID
  5
7A1
330
9
100
AcDbSymbolTableRecord
100
AcDbRegAppTableRecord
  2
GENIUS_GENDIMSH_14
 70
     0
  0
APPID
  5
A49
330
9
100
AcDbSymbolTableRecord
100
AcDbRegAppTableRecord
  2
GENIUS_GENREC_14
 70
     0
  0
APPID
  5
A4A
330
9
100
AcDbSymbolTableRecord
100
AcDbRegAppTableRecord
  2
GENIUS_GENOBJ-N-REC_13
 70
     0
  0
APPID
  5
A4B
330
9
100
AcDbSymbolTableRecord
100
AcDbRegAppTableRecord
  2
GENIUS_GENODEF_13
 70
     0
  0
APPID
  5
A4C
330
9
100
AcDbSymbolTableRecord
100
AcDbRegAppTableRecord
  2
DCO15
 70
     0
  0
APPID
  5
ADC
330
9
100
AcDbSymbolTableRecord
100
AcDbRegAppTableRecord
  2
GENIUS_GENOLIS_13
 70
     0
  0
APPID
  5
ADD
330
9
100
AcDbSymbolTableRecord
100
AcDbRegAppTableRecord
  2
GENIUS_GENOENT_13
 70
     0
  0
APPID
  5
ADE
330
9
100
AcDbSymbolTableRecord
100
AcDbRegAppTableRecord
  2
GENIUS_GENOBJ-N-TIT_13
 70
     0
  0
APPID
  5
ADF
330
9
100
AcDbSymbolTableRecord
100
AcDbRegAppTableRecord
  2
GENIUS_GENTITLE_13
 70
     0
  0
APPID
  5
AE0
330
9
100
AcDbSymbolTableRecord
100
AcDbRegAppTableRecord
  2
GENIUS_GENOREF_13
 70
     0
  0
APPID
  5
AE7
330
9
100
AcDbSymbolTableRecord
100
AcDbRegAppTableRecord
  2
GENIUS_GENSCREG_15
 70
     0
  0
APPID
  5
AE8
330
9
100
AcDbSymbolTableRecord
100
AcDbRegAppTableRecord
  2
GENIUS_GENOBJ-N-SDF_13
 70
     0
  0
APPID
  5
FAF
330
9
100
AcDbSymbolTableRecord
100
AcDbRegAppTableRecord
  2
GENIUS_GENBLLY_14
 70
     0
  0
APPID
  5
FB0
330
9
100
AcDbSymbolTableRecord
100
AcDbRegAppTableRecord
  2
GENIUS_GENTRA_14
 70
     0
  0
APPID
  5
1285
330
9
100
AcDbSymbolTableRecord
100
AcDbRegAppTableRecord
  2
GENIUS_GENDTOL_13
 70
     0
  0
APPID
  5
142D
330
9
100
AcDbSymbolTableRecord
100
AcDbRegAppTableRecord
  2
GENIUS_GENOBJ-N-CEN_13
 70
     0
  0
APPID
  5
1AB5
330
9
100
AcDbSymbolTableRecord
100
AcDbRegAppTableRecord
  2
GENIUS_GENOBJ-N-CRS_13
 70
     0
  0
APPID
  5
1B36
330
9
100
AcDbSymbolTableRecord
100
AcDbRegAppTableRecord
  2
GENIUS_GENOBJ-N-HTC_13
 70
     0
  0
APPID
  5
1B37
330
9
100
AcDbSymbolTableRecord
100
AcDbRegAppTableRecord
  2
GENIUS_GENHATCH_13
 70
     0
  0
APPID
  5
216D
330
9
100
AcDbSymbolTableRecord
100
AcDbRegAppTableRecord
  2
GENIUS_GENOBJ-N-FIL_13
 70
     0
  0
APPID
  5
2356
330
9
100
AcDbSymbolTableRecord
100
AcDbRegAppTableRecord
  2
GEVID990412420
 70
     0
  0
APPID
  5
2357
330
9
100
AcDbSymbolTableRecord
100
AcDbRegAppTableRecord
  2
GEVDC
 70
     0
  0
APPID
  5
2358
330
9
100
AcDbSymbolTableRecord
100
AcDbRegAppTableRecord
  2
GEVCON
 70
     0
  0
APPID
  5
235B
330
9
100
AcDbSymbolTableRecord
100
AcDbRegAppTableRecord
  2
GEVRADREF
 70
     0
  0
APPID
  5
2360
330
9
100
AcDbSymbolTableRecord
100
AcDbRegAppTableRecord
  2
GENIUS_GENBH_13
 70
     0
  0
APPID
  5
2362
330
9
100
AcDbSymbolTableRecord
100
AcDbRegAppTableRecord
  2
GENIUS_GENOBJ-NBEHI-BHF_13
 70
     0
  0
APPID
  5
2364
330
9
100
AcDbSymbolTableRecord
100
AcDbRegAppTableRecord
  2
GENIUS_GENOBJ-NBEHI-BHB_13
 70
     0
  0
APPID
  5
2379
330
9
100
AcDbSymbolTableRecord
100
AcDbRegAppTableRecord
  2
GENIUS_GENOBJ-F-SCPASSM_13
 70
     0
  0
APPID
  5
3D74
330
9
100
AcDbSymbolTableRecord
100
AcDbRegAppTableRecord
  2
GENIUS_GENDIM_13
 70
     0
  0
APPID
  5
3D76
330
9
100
AcDbSymbolTableRecord
100
AcDbRegAppTableRecord
  2
GENIUS_GE3DTOL_13
 70
     0
  0
APPID
  5
3D9C
330
9
100
AcDbSymbolTableRecord
100
AcDbRegAppTableRecord
  2
AD_DRAW
 70
     0
  0
APPID
  5
3DE8
330
9
100
AcDbSymbolTableRecord
100
AcDbRegAppTableRecord
  2
ASURF_PCURVE_APPNAME
 70
     0
  0
APPID
  5
3DED
330
9
100
AcDbSymbolTableRecord
100
AcDbRegAppTableRecord
  2
AMG_3D2D_5.0
 70
     0
  0
APPID
  5
3E1B
330
9
100
AcDbSymbolTableRecord
100
AcDbRegAppTableRecord
  2
DESIGNERASSEMBLIES
 70
     0
  0
APPID
  5
3E20
330
9
100
AcDbSymbolTableRecord
100
AcDbRegAppTableRecord
  2
ACADM_DIM_EDIT
 70
     0
  0
APPID
  5
3E21
330
9
100
AcDbSymbolTableRecord
100
AcDbRegAppTableRecord
  2
AMDT_DM_ADJ
 70
     0
  0
APPID
  5
4143
330
9
100
AcDbSymbolTableRecord
100
AcDbRegAppTableRecord
  2
GENIUS_GENFIL_13
 70
     0
  0
APPID
  5
4144
330
9
100
AcDbSymbolTableRecord
100
AcDbRegAppTableRecord
  2
GENIUS_GENOBJ-N-CHA_13
 70
     0
  0
APPID
  5
4E17
330
9
100
AcDbSymbolTableRecord
100
AcDbRegAppTableRecord
  2
GEVID1008153417
 70
     0
  0
APPID
  5
4E58
330
9
100
AcDbSymbolTableRecord
100
AcDbRegAppTableRecord
  2
GEVID1008153418
 70
     0
  0
APPID
  5
4E5E
330
9
100
AcDbSymbolTableRecord
100
AcDbRegAppTableRecord
  2
GEVID1008153419
 70
     0
  0
APPID
  5
4E64
330
9
100
AcDbSymbolTableRecord
100
AcDbRegAppTableRecord
  2
GEVID1008153420
 70
     0
  0
APPID
  5
4E75
330
9
100
AcDbSymbolTableRecord
100
AcDbRegAppTableRecord
  2
GEVID1008153421
 70
     0
  0
APPID
  5
4EB7
330
9
100
AcDbSymbolTableRecord
100
AcDbRegAppTableRecord
  2
GENIUS_AMGTXT_16
 70
     0
  0
APPID
  5
7645
330
9
100
AcDbSymbolTableRecord
100
AcDbRegAppTableRecord
  2
GENIUS_GENOBJ-N-DIM_13
 70
     0
  0
APPID
  5
AAD0
330
9
100
AcDbSymbolTableRecord
100
AcDbRegAppTableRecord
  2
ACAD_DSTYLE_DIMARC_LENGTH_SYMBOL
 70
     0
  0
APPID
  5
AAD1
330
9
100
AcDbSymbolTableRecord
100
AcDbRegAppTableRecord
  2
ACAD_DSTYLE_DIMJOGGED_JOGANGLE_SYMBOL
 70
     0
  0
APPID
  5
AAFD
330
9
100
AcDbSymbolTableRecord
100
AcDbRegAppTableRecord
  2
ACAD_PSEXT
 70
     0
  0
APPID
  5
AD61
330
9
100
AcDbSymbolTableRecord
100
AcDbRegAppTableRecord
  2
AcAecLayerStandard
 70
     0
  0
APPID
  5
AEE3
330
9
100
AcDbSymbolTableRecord
100
AcDbRegAppTableRecord
  2
ACAD_EXEMPT_FROM_CAD_STANDARDS
 70
     0
  0
APPID
  5
B1BE
330
9
100
AcDbSymbolTableRecord
100
AcDbRegAppTableRecord
  2
GENIUS_GENCEN_19
 70
     0
  0
APPID
  5
B597
330
9
100
AcDbSymbolTableRecord
100
AcDbRegAppTableRecord
  2
ACAD_MLEADERVER
 70
     0
  0
APPID
  5
B6A6
330
9
100
AcDbSymbolTableRecord
100
AcDbRegAppTableRecord
  2
ACAD_DSTYLE_DIMINSPECT
 70
     0
  0
APPID
  5
B6A7
330
9
100
AcDbSymbolTableRecord
100
AcDbRegAppTableRecord
  2
ACAD_DSTYLE_DIMRADIAL_EXTENSION
 70
     0
  0
APPID
  5
B9E0
330
9
100
AcDbSymbolTableRecord
100
AcDbRegAppTableRecord
  2
ACAD_NAV_VCDISPLAY
 70
     0
  0
APPID
  5
BB97
330
9
100
AcDbSymbolTableRecord
100
AcDbRegAppTableRecord
  2
HC_SUPERPART
 70
     0
  0
APPID
  5
BB98
330
9
100
AcDbSymbolTableRecord
100
AcDbRegAppTableRecord
  2
HC_SP4BLOCK
 70
     0
  0
APPID
  5
BB99
330
9
100
AcDbSymbolTableRecord
100
AcDbRegAppTableRecord
  2
HC_XDATA_SPRING
 70
     0
  0
APPID
  5
BB9A
330
9
100
AcDbSymbolTableRecord
100
AcDbRegAppTableRecord
  2
HCCAD_FRAME
 70
     0
  0
APPID
  5
BB9B
330
9
100
AcDbSymbolTableRecord
100
AcDbRegAppTableRecord
  2
GENIUS_GENOBJ-N-ZOO_13
 70
     0
  0
APPID
  5
BB9C
330
9
100
AcDbSymbolTableRecord
100
AcDbRegAppTableRecord
  2
GENIUS_GENSYMENT_13
 70
     0
  0
APPID
  5
BB9D
330
9
100
AcDbSymbolTableRecord
100
AcDbRegAppTableRecord
  2
GENIUS_GENSCSYM_13
 70
     0
  0
APPID
  5
BB9E
330
9
100
AcDbSymbolTableRecord
100
AcDbRegAppTableRecord
  2
GENIUS_GENOBJ-N-REV_13
 70
     0
  0
APPID
  5
BB9F
330
9
100
AcDbSymbolTableRecord
100
AcDbRegAppTableRecord
  2
GENIUS_GENOBJ-N-RSSYM_13
 70
     0
  0
APPID
  5
BBA0
330
9
100
AcDbSymbolTableRecord
100
AcDbRegAppTableRecord
  2
GENIUS_GENREV_15
 70
     0
  0
APPID
  5
BBA1
330
9
100
AcDbSymbolTableRecord
100
AcDbRegAppTableRecord
  2
HRA
 70
     0
  0
APPID
  5
BBA2
330
9
100
AcDbSymbolTableRecord
100
AcDbRegAppTableRecord
  2
HTIT
 70
     0
  0
APPID
  5
BBA3
330
9
100
AcDbSymbolTableRecord
100
AcDbRegAppTableRecord
  2
GENIUS_GENZOO_17
 70
     0
  0
APPID
  5
BBA4
330
9
100
AcDbSymbolTableRecord
100
AcDbRegAppTableRecord
  2
GENIUS_GENCRS_20
 70
     0
  0
APPID
  5
BBA5
330
9
100
AcDbSymbolTableRecord
100
AcDbRegAppTableRecord
  2
GENIUS_GENOBJ-N-CRC_13
 70
     0
  0
APPID
  5
BBA6
330
9
100
AcDbSymbolTableRecord
100
AcDbRegAppTableRecord
  2
GENIUS_GENCRC_14
 70
     0
  0
APPID
  5
BBA7
330
9
100
AcDbSymbolTableRecord
100
AcDbRegAppTableRecord
  2
GENIUS_GENOBJ-N-DIMLI_13
 70
     0
  0
APPID
  5
BBA8
330
9
100
AcDbSymbolTableRecord
100
AcDbRegAppTableRecord
  2
GENIUS_GENOBJ-N-FITL_13
 70
     0
  0
APPID
  5
BBA9
330
9
100
AcDbSymbolTableRecord
100
AcDbRegAppTableRecord
  2
GENIUS_GENFITL_13
 70
     0
  0
APPID
  5
BBAA
330
9
100
AcDbSymbolTableRecord
100
AcDbRegAppTableRecord
  2
GENLAYCOLOR
 70
     0
  0
ENDTAB
  0
TABLE
  2
DIMSTYLE
  5
A
330
0
100
AcDbSymbolTable
 70
    17
100
AcDbDimStyleTable
  0
DIMSTYLE
105
A76
330
A
100
AcDbSymbolTableRecord
100
AcDbDimStyleTableRecord
  2
STANDARD
 70
     0
 41
3.0
 42
1.0
 43
7.0
 44
2.0
 73
     0
 74
     0
 77
     1
140
2.799999999999998
141
0.0
143
0.0394
147
0.7
171
     4
172
     1
173
     1
176
     3
177
     3
271
     3
178
     2
271
     3
272
     3
273
     8
274
     4
289
     0
340
A74
341
A66
343
A66
344
A66
  0
DIMSTYLE
105
2515
330
A
100
AcDbSymbolTableRecord
100
AcDbDimStyleTableRecord
  2
SYS
 70
     0
  4
"
 41
1.0
 42
1.0
 43
10.0
 44
1.0
 47
0.1
 48
0.1
 90
        1
 73
     0
 74
     0
 77
     1
 78
     8
 79
     2
140
3.5
141
0.0
143
0.0393701
146
0.71
147
1.5
172
     1
176
   256
177
   256
271
     2
178
     7
271
     2
272
     2
283
     0
284
     8
340
11
371
    -1
372
    -1
  0
DIMSTYLE
105
2516
102
{ACAD_REACTORS
330
B8CC
102
}
330
A
100
AcDbSymbolTableRecord
100
AcDbDimStyleTableRecord
  2
SYS$3
 70
     0
  4
"
 41
2.0
 42
1.0
 43
10.0
 44
1.0
 47
0.1
 48
0.1
 90
        1
 73
     0
 77
     1
 78
     8
 79
     2
140
3.5
141
0.0
143
0.0393701
146
0.71
147
1.5
176
   256
177
   256
271
     2
178
     2
271
     2
272
     2
283
     0
284
     8
288
     1
340
11
342
A66
371
    -1
372
    -1
  0
DIMSTYLE
105
2517
330
A
100
AcDbSymbolTableRecord
100
AcDbDimStyleTableRecord
  2
SYS$4
 70
     0
  4
"
 41
2.0
 42
1.0
 43
10.0
 44
1.0
 47
0.1
 48
0.1
 90
        1
 73
     0
 77
     1
 78
     8
 79
     2
140
3.5
141
0.0
143
0.0393701
146
0.71
147
1.5
173
     1
176
   256
177
   256
271
     2
178
     2
271
     2
272
     2
283
     0
284
     8
288
     1
340
11
344
A66
371
    -1
372
    -1
  0
DIMSTYLE
105
2518
330
A
100
AcDbSymbolTableRecord
100
AcDbDimStyleTableRecord
  2
SYS$6
 70
     0
  4
"
 41
2.0
 42
1.0
 43
10.0
 44
1.0
 47
0.1
 48
0.1
 90
        1
 73
     0
 74
     0
 78
     8
 79
     2
140
3.5
141
0.0
143
0.0393701
146
0.71
147
1.5
172
     1
176
   256
177
   256
271
     2
178
     2
271
     2
272
     2
283
     0
284
     8
340
11
341
A66
371
    -1
372
    -1
  0
DIMSTYLE
105
2519
330
A
100
AcDbSymbolTableRecord
100
AcDbDimStyleTableRecord
  2
SYS$7
 70
     0
  4
"
 41
2.0
 42
1.0
 43
10.0
 44
1.0
 47
0.1
 48
0.1
 90
        1
 73
     0
 74
     0
 77
     1
 78
     8
 79
     2
140
5.0
141
0.0
143
0.0393701
146
0.71
147
1.5
172
     1
176
   256
177
   256
271
     2
178
     2
271
     2
272
     2
283
     0
284
     8
340
11
341
A66
342
A66
371
    -1
372
    -1
  0
DIMSTYLE
105
251A
330
A
100
AcDbSymbolTableRecord
100
AcDbDimStyleTableRecord
  2
SYS$SF
 70
     0
  4
"
 41
2.5
 42
1.0
 43
10.0
 44
1.0
 47
0.1
 48
0.1
 90
        1
 73
     0
 74
     0
 75
     1
 76
     1
 77
     1
 78
     8
 79
     2
140
3.5
141
0.0
143
0.0393701
146
0.71
147
1.5
172
     1
176
   256
177
   256
271
     2
178
     2
271
     2
272
     3
283
     0
284
     8
340
11
341
6C4
342
6C4
371
    -1
372
    -1
  0
DIMSTYLE
105
251B
330
A
100
AcDbSymbolTableRecord
100
AcDbDimStyleTableRecord
  2
SYS$SH
 70
     0
  4
"
 41
2.5
 42
1.0
 43
10.0
 44
1.0
 47
0.1
 48
0.1
 90
        1
 73
     0
 74
     0
 75
     1
 76
     1
 77
     1
 78
     8
 79
     2
140
3.5
141
0.0
143
0.0393701
144
2.0
146
0.71
147
1.5
172
     1
173
     1
176
   256
177
   256
271
     2
178
     2
271
     2
272
     3
283
     0
284
     8
340
11
341
6C4
343
72
344
6C4
371
    -1
372
    -1
  0
DIMSTYLE
105
2A59
330
A
100
AcDbSymbolTableRecord
100
AcDbDimStyleTableRecord
  2
SYS$2
 70
     0
  4
"
 41
1.0
 42
1.0
 43
10.0
 44
1.0
 47
0.1
 48
0.1
 90
        1
 73
     0
 74
     0
 77
     1
 78
     8
 79
     2
140
3.5
141
0.0
143
0.0393701
146
0.71
147
1.5
172
     1
176
   256
177
   256
271
     2
178
     2
271
     2
272
     2
283
     0
284
     8
340
11
342
6C4
371
    -1
372
    -1
  0
DIMSTYLE
105
2AAB
102
{ACAD_REACTORS
330
B8C1
330
B8C2
330
B8C3
330
B8C4
330
B8C5
330
B8C6
330
B8C7
330
B8C8
330
B8C9
330
B8CA
330
B8CB
102
}
330
A
100
AcDbSymbolTableRecord
100
AcDbDimStyleTableRecord
  2
SYS$0
 70
     0
  4
"
 41
1.0
 42
1.0
 43
10.0
 44
1.0
 47
0.1
 48
0.1
 90
        1
 73
     0
 74
     0
 77
     1
 78
     8
 79
     2
140
3.200000000000001
141
0.0
143
0.0393701
146
0.71
147
1.5
172
     1
176
   256
177
   256
271
     2
178
     2
271
     2
272
     2
283
     0
284
     8
340
11
341
A66
342
6C4
371
    -1
372
    -1
  0
DIMSTYLE
105
AF99
330
A
100
AcDbSymbolTableRecord
100
AcDbDimStyleTableRecord
  2
AM_ISO
 70
     0
  4
"
 41
2.5
 42
1.0
 43
10.0
 44
1.0
 47
0.1
 48
0.1
 73
     0
 74
     0
 77
     1
 78
     8
 79
     2
140
3.5
141
0.0
143
0.0393701
146
0.71
147
1.5
172
     1
176
   256
177
   256
271
     2
178
     2
271
     2
272
     3
274
     4
283
     0
284
     8
340
11
371
    -1
372
    -1
  0
DIMSTYLE
105
AF9A
330
A
100
AcDbSymbolTableRecord
100
AcDbDimStyleTableRecord
  2
AM_ISO$3
 70
     0
  4
"
 41
2.5
 42
1.0
 43
10.0
 44
1.0
 47
0.1
 48
0.1
 73
     0
 77
     1
 78
     8
 79
     2
140
3.5
141
0.0
143
0.0393701
146
0.71
147
1.5
176
   256
177
   256
271
     2
178
     2
271
     2
272
     3
274
     4
283
     0
284
     8
288
     1
289
     0
340
11
371
    -1
372
    -1
  0
DIMSTYLE
105
AF9B
330
A
100
AcDbSymbolTableRecord
100
AcDbDimStyleTableRecord
  2
AM_ISO$4
 70
     0
  4
"
 41
2.5
 42
1.0
 43
10.0
 44
1.0
 47
0.1
 48
0.1
 73
     0
 77
     1
 78
     8
 79
     2
140
3.5
141
0.0
143
0.0393701
146
0.71
147
1.5
176
   256
177
   256
271
     2
178
     2
271
     2
272
     3
274
     4
283
     0
284
     8
288
     1
289
     0
340
11
371
    -1
372
    -1
  0
DIMSTYLE
105
AF9C
330
A
100
AcDbSymbolTableRecord
100
AcDbDimStyleTableRecord
  2
AM_ISO$6
 70
     0
  4
"
 41
2.5
 42
1.0
 43
10.0
 44
1.0
 47
0.1
 48
0.1
 73
     0
 74
     0
 78
     8
 79
     2
140
3.5
141
0.0
143
0.0393701
146
0.71
147
1.5
172
     1
176
   256
177
   256
271
     2
178
     2
271
     2
272
     3
274
     4
283
     0
284
     8
340
11
371
    -1
372
    -1
  0
DIMSTYLE
105
AF9D
330
A
100
AcDbSymbolTableRecord
100
AcDbDimStyleTableRecord
  2
AM_ISO$7
 70
     0
  4
"
 41
2.5
 42
1.0
 43
10.0
 44
1.0
 47
0.1
 48
0.1
 73
     0
 74
     0
 77
     1
 78
     8
 79
     2
140
5.0
141
0.0
143
0.0393701
146
0.71
147
1.5
172
     1
176
   256
177
   256
271
     2
178
     2
271
     2
272
     3
274
     4
283
     0
284
     8
340
11
371
    -1
372
    -1
  0
DIMSTYLE
105
AF9E
330
A
100
AcDbSymbolTableRecord
100
AcDbDimStyleTableRecord
  2
AM_ISO$SF
 70
     0
  4
"
 41
2.5
 42
1.0
 43
10.0
 44
1.0
 47
0.1
 48
0.1
 73
     0
 74
     0
 75
     1
 76
     1
 77
     1
 78
     8
 79
     2
140
3.5
141
0.0
143
0.0393701
146
0.71
147
1.5
172
     1
176
   256
177
   256
271
     2
178
     2
271
     2
272
     3
274
     4
283
     0
284
     8
340
11
371
    -1
372
    -1
  0
DIMSTYLE
105
AF9F
330
A
100
AcDbSymbolTableRecord
100
AcDbDimStyleTableRecord
  2
AM_ISO$SH
 70
     0
  4
"
 41
2.5
 42
1.0
 43
10.0
 44
1.0
 47
0.1
 48
0.1
 73
     0
 74
     0
 75
     1
 76
     1
 77
     1
 78
     8
 79
     2
140
3.5
141
0.0
143
0.0393701
144
2.0
146
0.71
147
1.5
172
     1
173
     1
176
   256
177
   256
271
     2
178
     2
271
     2
272
     3
274
     4
283
     0
284
     8
340
11
343
72
371
    -1
372
    -1
  0
ENDTAB
  0
TABLE
  2
BLOCK_RECORD
  5
1
330
0
100
AcDbSymbolTable
 70
    20
  0
BLOCK_RECORD
  5
1F
102
{ACAD_XDICTIONARY
360
8A
102
}
330
1
100
AcDbSymbolTableRecord
100
AcDbBlockTableRecord
  2
*Model_Space
340
22
 70
     0
280
     1
281
     0
  0
BLOCK_RECORD
  5
1B
330
1
100
AcDbSymbolTableRecord
100
AcDbBlockTableRecord
  2
*Paper_Space
340
1E
 70
     0
280
     1
281
     0
  0
BLOCK_RECORD
  5
23
330
1
100
AcDbSymbolTableRecord
100
AcDbBlockTableRecord
  2
*Paper_Space0
340
26
 70
     0
280
     1
281
     0
  0
BLOCK_RECORD
  5
72
330
1
100
AcDbSymbolTableRecord
100
AcDbBlockTableRecord
  2
GENAXEH
340
0
 70
     0
280
     1
281
     0
  0
BLOCK_RECORD
  5
6C4
330
1
100
AcDbSymbolTableRecord
100
AcDbBlockTableRecord
  2
_Dot
340
0
102
{BLKREFS
331
BAE1
331
BAE2
331
BAEA
331
BAEB
331
BAF3
331
BAF4
331
BAFC
331
BAFD
331
BB05
331
BB06
331
BB0E
331
BB0F
331
BB19
331
BB1A
331
BB22
331
BB23
331
BB2B
331
BB2C
331
BB34
331
BB35
331
BB3D
331
BB3E
331
BAE1
331
BAE2
331
BAEA
331
BAEB
331
BAF3
331
BAF4
331
BAFC
331
BAFD
331
BB05
331
BB06
331
BB0E
331
BB0F
331
BB19
331
BB1A
331
BB22
331
BB23
331
BB2B
331
BB2C
331
BB34
331
BB35
331
BB3D
331
BB3E
102
}
 70
     0
280
     1
281
     0
  0
BLOCK_RECORD
  5
A66
330
1
100
AcDbSymbolTableRecord
100
AcDbBlockTableRecord
  2
_OPEN30
340
0
 70
     0
280
     1
281
     0
  0
BLOCK_RECORD
  5
3E12
330
1
100
AcDbSymbolTableRecord
100
AcDbBlockTableRecord
  2
*U4
340
0
 70
     0
280
     1
281
     0
  0
BLOCK_RECORD
  5
B5F8
102
{ACAD_XDICTIONARY
360
B5F9
102
}
330
1
100
AcDbSymbolTableRecord
100
AcDbBlockTableRecord
  2
SYS図枠A3(AIS2008)
340
0
102
{BLKREFS
331
B7C6
331
B7C6
102
}
 70
     0
280
     1
281
     0
  0
BLOCK_RECORD
  5
B610
330
1
100
AcDbSymbolTableRecord
100
AcDbBlockTableRecord
  2
GENDOT
340
0
102
{BLKREFS
331
BB46
331
BB47
331
BB46
331
BB47
102
}
 70
     0
280
     1
281
     0
  0
BLOCK_RECORD
  5
B8CD
330
1
100
AcDbSymbolTableRecord
100
AcDbBlockTableRecord
  2
*D7
340
0
 70
     0
280
     1
281
     0
  0
BLOCK_RECORD
  5
B8D9
330
1
100
AcDbSymbolTableRecord
100
AcDbBlockTableRecord
  2
*D8
340
0
 70
     0
280
     1
281
     0
  0
BLOCK_RECORD
  5
B8E5
330
1
100
AcDbSymbolTableRecord
100
AcDbBlockTableRecord
  2
*D9
340
0
 70
     0
280
     1
281
     0
  0
BLOCK_RECORD
  5
B8F1
330
1
100
AcDbSymbolTableRecord
100
AcDbBlockTableRecord
  2
*D10
340
0
 70
     0
280
     1
281
     0
  0
BLOCK_RECORD
  5
B8FD
330
1
100
AcDbSymbolTableRecord
100
AcDbBlockTableRecord
  2
*D11
340
0
 70
     0
280
     1
281
     0
  0
BLOCK_RECORD
  5
B909
330
1
100
AcDbSymbolTableRecord
100
AcDbBlockTableRecord
  2
*D12
340
0
 70
     0
280
     1
281
     0
  0
BLOCK_RECORD
  5
B915
330
1
100
AcDbSymbolTableRecord
100
AcDbBlockTableRecord
  2
*D13
340
0
 70
     0
280
     1
281
     0
  0
BLOCK_RECORD
  5
B923
330
1
100
AcDbSymbolTableRecord
100
AcDbBlockTableRecord
  2
*D14
340
0
 70
     0
280
     1
281
     0
  0
BLOCK_RECORD
  5
B92F
330
1
100
AcDbSymbolTableRecord
100
AcDbBlockTableRecord
  2
*D15
340
0
 70
     0
280
     1
281
     0
  0
BLOCK_RECORD
  5
B93B
330
1
100
AcDbSymbolTableRecord
100
AcDbBlockTableRecord
  2
*D16
340
0
 70
     0
280
     1
281
     0
  0
BLOCK_RECORD
  5
B947
330
1
100
AcDbSymbolTableRecord
100
AcDbBlockTableRecord
  2
*D17
340
0
 70
     0
280
     1
281
     0
  0
BLOCK_RECORD
  5
B953
330
1
100
AcDbSymbolTableRecord
100
AcDbBlockTableRecord
  2
*D18
340
0
 70
     0
280
     1
281
     0
  0
BLOCK_RECORD
  5
BBAF
330
1
100
AcDbSymbolTableRecord
100
AcDbBlockTableRecord
  2
_ACMOPEN30
340
0
 70
     0
280
     1
281
     0
  0
ENDTAB
  0
ENDSEC
  0
SECTION
  2
BLOCKS
  0
BLOCK
  5
20
330
1F
100
AcDbEntity
  8
0
100
AcDbBlockBegin
  2
*Model_Space
 70
     0
 10
0.0
 20
0.0
 30
0.0
  3
*Model_Space
  1

  0
ENDBLK
  5
21
330
1F
100
AcDbEntity
  8
0
100
AcDbBlockEnd
  0
BLOCK
  5
1C
330
1B
100
AcDbEntity
 67
     1
  8
0
100
AcDbBlockBegin
  2
*Paper_Space
 70
     0
 10
0.0
 20
0.0
 30
0.0
  3
*Paper_Space
  1

  0
ENDBLK
  5
1D
330
1B
100
AcDbEntity
 67
     1
  8
0
100
AcDbBlockEnd
  0
BLOCK
  5
24
330
23
100
AcDbEntity
  8
0
100
AcDbBlockBegin
  2
*Paper_Space0
 70
     0
 10
0.0
 20
0.0
 30
0.0
  3
*Paper_Space0
  1

  0
ENDBLK
  5
25
330
23
100
AcDbEntity
  8
0
100
AcDbBlockEnd
  0
BLOCK
  5
74
330
72
100
AcDbEntity
  8
0
100
AcDbBlockBegin
  2
GENAXEH
 70
     0
 10
0.0
 20
0.0
 30
0.0
  3
GENAXEH
  1

  0
LINE
  5
73
330
72
100
AcDbEntity
  8
0
100
AcDbLine
 10
-1.0
 20
0.0
 30
0.0
 11
1.0
 21
0.0
 31
0.0
  0
ENDBLK
  5
75
330
72
100
AcDbEntity
  8
0
100
AcDbBlockEnd
  0
BLOCK
  5
6C7
330
6C4
100
AcDbEntity
  8
0
100
AcDbBlockBegin
  2
_Dot
 70
     0
 10
0.0
 20
0.0
 30
0.0
  3
_Dot
  1

  0
LWPOLYLINE
  5
6C5
330
6C4
100
AcDbEntity
  8
0
  6
ByBlock
 62
     0
100
AcDbPolyline
 90
        2
 70
     1
 43
0.5
 10
-0.25
 20
0.0
 42
1.0
 10
0.25
 20
0.0
 42
1.0
  0
LINE
  5
6C6
330
6C4
100
AcDbEntity
  8
0
  6
ByBlock
 62
     0
370
    -2
100
AcDbLine
 10
-0.5
 20
0.0
 30
0.0
 11
-1.0
 21
0.0
 31
0.0
  0
ENDBLK
  5
6C8
330
6C4
100
AcDbEntity
  8
0
100
AcDbBlockEnd
  0
BLOCK
  5
A6A
330
A66
100
AcDbEntity
  8
0
100
AcDbBlockBegin
  2
_OPEN30
 70
     0
 10
0.0
 20
0.0
 30
0.0
  3
_OPEN30
  1

  0
LINE
  5
A67
330
A66
100
AcDbEntity
  8
0
  6
ByBlock
 62
     0
100
AcDbLine
 10
-1.0
 20
0.26794919
 30
0.0
 11
0.0
 21
0.0
 31
0.0
  0
LINE
  5
A68
330
A66
100
AcDbEntity
  8
0
  6
ByBlock
 62
     0
100
AcDbLine
 10
0.0
 20
0.0
 30
0.0
 11
-1.0
 21
-0.26794919
 31
0.0
  0
LINE
  5
A69
330
A66
100
AcDbEntity
  8
0
  6
ByBlock
 62
     0
100
AcDbLine
 10
0.0
 20
0.0
 30
0.0
 11
-1.0
 21
0.0
 31
0.0
  0
ENDBLK
  5
A6B
330
A66
100
AcDbEntity
  8
0
100
AcDbBlockEnd
  0
BLOCK
  5
3E13
330
3E12
100
AcDbEntity
  8
0
100
AcDbBlockBegin
  2
*U4
 70
     1
 10
0.0
 20
0.0
 30
0.0
  3
*U4
  1

  0
ENDBLK
  5
3E14
330
3E12
100
AcDbEntity
  8
0
100
AcDbBlockEnd
  0
BLOCK
  5
B5FB
330
B5F8
100
AcDbEntity
  8
0
100
AcDbBlockBegin
  2
SYS図枠A3(AIS2008)
 70
     0
 10
0.0
 20
0.0
 30
0.0
  3
SYS図枠A3(AIS2008)
  1

  0
TEXT
  5
B5FC
330
B5F8
100
AcDbEntity
  8
AM_6
 60
     1
100
AcDbText
 10
408.4999999999998
 20
8.5
 30
0.0
 40
2.5
  1
!GENTITLE-INSERT
100
AcDbText
  0
TEXT
  5
B5FD
330
B5F8
100
AcDbEntity
  8
AM_6
 60
     1
100
AcDbText
 10
0.0
 20
0.0
 30
0.0
 40
2.5
  1
!GENTITLE-LL
100
AcDbText
  0
TEXT
  5
B5FE
330
B5F8
100
AcDbEntity
  8
AM_6
 60
     1
100
AcDbText
 10
420.0
 20
297.0
 30
0.0
 40
2.5
  1
!GENTITLE-RU
100
AcDbText
  0
TEXT
  5
B5FF
330
B5F8
100
AcDbEntity
  8
AM_6
 60
     1
100
AcDbText
 10
420.0
 20
297.0
 30
0.0
 40
2.5
  1
!GENTITLE-MAX
100
AcDbText
  0
LINE
  5
B600
330
B5F8
100
AcDbEntity
  8
size
100
AcDbLine
 10
0.0
 20
0.0
 30
0.0
 11
420.0
 21
0.0
 31
0.0
1001
GENIUS_GENREC_14
1002
{
1000
PYDIR
1011
0.0000000000000178
1021
297.0
1031
0.0
1002
}
1002
{
1000
PXDIR
1011
420.0
1021
0.0
1031
0.0
1002
}
1002
{
1000
PORI
1011
0.0
1021
0.0
1031
0.0
1002
}
1002
{
1000
PINS
1011
210.0
1021
148.4999999999999
1031
0.0
1002
}
1002
{
1000
HVAL
1000
297
1002
}
1002
{
1000
H
1070
     2
1002
}
1002
{
1000
WVAL
1000
420
1002
}
1002
{
1000
W
1070
     2
1002
}
1002
{
1000
C
1070
     4
1002
}
1001
GENIUS_GENOBJ-N-REC_13
1002
{
1000
OWNER
1000
GEN
1002
}
1001
GENIUS_GENODEF_13
1002
{
1000
HIER
1070
     0
1002
}
1002
{
1000
MANEDIT
1070
     0
1002
}
1002
{
1000
NOSEL
1070
     0
1002
}
1002
{
1000
BEHIND
1070
     0
1002
}
1002
{
1000
OTHER
1070
     0
1002
}
1002
{
1000
REACTOR
1002
}
  0
LINE
  5
B601
330
B5F8
100
AcDbEntity
  8
size
100
AcDbLine
 10
420.0
 20
0.0
 30
0.0
 11
420.0
 21
297.0
 31
0.0
1001
GENIUS_GENREC_14
1002
{
1000
PYDIR
1011
0.0000000000000178
1021
297.0
1031
0.0
1002
}
1002
{
1000
PXDIR
1011
420.0
1021
0.0
1031
0.0
1002
}
1002
{
1000
PORI
1011
0.0
1021
0.0
1031
0.0
1002
}
1002
{
1000
PINS
1011
210.0
1021
148.4999999999999
1031
0.0
1002
}
1002
{
1000
HVAL
1000
297
1002
}
1002
{
1000
H
1070
     2
1002
}
1002
{
1000
WVAL
1000
420
1002
}
1002
{
1000
W
1070
     2
1002
}
1002
{
1000
C
1070
     4
1002
}
1001
GENIUS_GENOBJ-N-REC_13
1002
{
1000
OWNER
1000
GEN
1002
}
1001
GENIUS_GENODEF_13
1002
{
1000
HIER
1070
     0
1002
}
1002
{
1000
MANEDIT
1070
     0
1002
}
1002
{
1000
NOSEL
1070
     0
1002
}
1002
{
1000
BEHIND
1070
     0
1002
}
1002
{
1000
OTHER
1070
     0
1002
}
1002
{
1000
REACTOR
1002
}
  0
LINE
  5
B602
330
B5F8
100
AcDbEntity
  8
size
100
AcDbLine
 10
420.0
 20
297.0
 30
0.0
 11
0.0000000000000275
 21
297.0
 31
0.0
1001
GENIUS_GENREC_14
1002
{
1000
PYDIR
1011
0.0000000000000178
1021
297.0
1031
0.0
1002
}
1002
{
1000
PXDIR
1011
420.0
1021
0.0
1031
0.0
1002
}
1002
{
1000
PORI
1011
0.0
1021
0.0
1031
0.0
1002
}
1002
{
1000
PINS
1011
210.0
1021
148.4999999999999
1031
0.0
1002
}
1002
{
1000
HVAL
1000
297
1002
}
1002
{
1000
H
1070
     2
1002
}
1002
{
1000
WVAL
1000
420
1002
}
1002
{
1000
W
1070
     2
1002
}
1002
{
1000
C
1070
     4
1002
}
1001
GENIUS_GENOBJ-N-REC_13
1002
{
1000
OWNER
1000
GEN
1002
}
1001
GENIUS_GENODEF_13
1002
{
1000
HIER
1070
     0
1002
}
1002
{
1000
MANEDIT
1070
     0
1002
}
1002
{
1000
NOSEL
1070
     0
1002
}
1002
{
1000
BEHIND
1070
     0
1002
}
1002
{
1000
OTHER
1070
     0
1002
}
1002
{
1000
REACTOR
1002
}
  0
LINE
  5
B603
330
B5F8
100
AcDbEntity
  8
size
100
AcDbLine
 10
0.0000000000000275
 20
297.0
 30
0.0
 11
0.0
 21
0.0
 31
0.0
1001
GENIUS_GENREC_14
1002
{
1000
PYDIR
1011
0.0000000000000178
1021
297.0
1031
0.0
1002
}
1002
{
1000
PXDIR
1011
420.0
1021
0.0
1031
0.0
1002
}
1002
{
1000
PORI
1011
0.0
1021
0.0
1031
0.0
1002
}
1002
{
1000
PINS
1011
210.0
1021
148.4999999999999
1031
0.0
1002
}
1002
{
1000
HVAL
1000
297
1002
}
1002
{
1000
H
1070
     2
1002
}
1002
{
1000
WVAL
1000
420
1002
}
1002
{
1000
W
1070
     2
1002
}
1002
{
1000
C
1070
     4
1002
}
1001
GENIUS_GENOBJ-N-REC_13
1002
{
1000
OWNER
1000
GEN
1002
}
1001
GENIUS_GENODEF_13
1002
{
1000
HIER
1070
     0
1002
}
1002
{
1000
MANEDIT
1070
     0
1002
}
1002
{
1000
NOSEL
1070
     0
1002
}
1002
{
1000
BEHIND
1070
     0
1002
}
1002
{
1000
OTHER
1070
     0
1002
}
1002
{
1000
REACTOR
1002
}
  0
LINE
  5
B604
330
B5F8
100
AcDbEntity
  8
waku
100
AcDbLine
 10
408.4999999999998
 20
8.5
 30
0.0
 11
408.4999999999998
 21
288.5
 31
0.0
1001
GENIUS_GENREC_14
1002
{
1000
PYDIR
1011
0.0000000000000178
1021
297.0
1031
0.0
1002
}
1002
{
1000
PXDIR
1011
420.0
1021
0.0
1031
0.0
1002
}
1002
{
1000
PORI
1011
0.0
1021
0.0
1031
0.0
1002
}
1002
{
1000
PINS
1011
210.0
1021
148.4999999999999
1031
0.0
1002
}
1002
{
1000
HVAL
1000
297
1002
}
1002
{
1000
H
1070
     2
1002
}
1002
{
1000
WVAL
1000
420
1002
}
1002
{
1000
W
1070
     2
1002
}
1002
{
1000
C
1070
     4
1002
}
1001
GENIUS_GENOBJ-N-REC_13
1002
{
1000
OWNER
1000
GEN
1002
}
1001
GENIUS_GENODEF_13
1002
{
1000
HIER
1070
     0
1002
}
1002
{
1000
MANEDIT
1070
     0
1002
}
1002
{
1000
NOSEL
1070
     0
1002
}
1002
{
1000
BEHIND
1070
     0
1002
}
1002
{
1000
OTHER
1070
     0
1002
}
1002
{
1000
REACTOR
1002
}
  0
LINE
  5
B605
330
B5F8
100
AcDbEntity
  8
waku
100
AcDbLine
 10
11.50000000000002
 20
288.5
 30
0.0
 11
11.5
 21
8.5
 31
0.0
1001
GENIUS_GENREC_14
1002
{
1000
PYDIR
1011
0.0000000000000178
1021
297.0
1031
0.0
1002
}
1002
{
1000
PXDIR
1011
420.0
1021
0.0
1031
0.0
1002
}
1002
{
1000
PORI
1011
0.0
1021
0.0
1031
0.0
1002
}
1002
{
1000
PINS
1011
210.0
1021
148.4999999999999
1031
0.0
1002
}
1002
{
1000
HVAL
1000
297
1002
}
1002
{
1000
H
1070
     2
1002
}
1002
{
1000
WVAL
1000
420
1002
}
1002
{
1000
W
1070
     2
1002
}
1002
{
1000
C
1070
     4
1002
}
1001
GENIUS_GENOBJ-N-REC_13
1002
{
1000
OWNER
1000
GEN
1002
}
1001
GENIUS_GENODEF_13
1002
{
1000
HIER
1070
     0
1002
}
1002
{
1000
MANEDIT
1070
     0
1002
}
1002
{
1000
NOSEL
1070
     0
1002
}
1002
{
1000
BEHIND
1070
     0
1002
}
1002
{
1000
OTHER
1070
     0
1002
}
1002
{
1000
REACTOR
1002
}
  0
LINE
  5
B606
330
B5F8
100
AcDbEntity
  8
waku
100
AcDbLine
 10
408.4999999999998
 20
288.5
 30
0.0
 11
11.50000000000002
 21
288.5
 31
0.0
1001
GENIUS_GENREC_14
1002
{
1000
PYDIR
1011
0.0000000000000178
1021
297.0
1031
0.0
1002
}
1002
{
1000
PXDIR
1011
420.0
1021
0.0
1031
0.0
1002
}
1002
{
1000
PORI
1011
0.0
1021
0.0
1031
0.0
1002
}
1002
{
1000
PINS
1011
210.0
1021
148.4999999999999
1031
0.0
1002
}
1002
{
1000
HVAL
1000
297
1002
}
1002
{
1000
H
1070
     2
1002
}
1002
{
1000
WVAL
1000
420
1002
}
1002
{
1000
W
1070
     2
1002
}
1002
{
1000
C
1070
     4
1002
}
1001
GENIUS_GENOBJ-N-REC_13
1002
{
1000
OWNER
1000
GEN
1002
}
1001
GENIUS_GENODEF_13
1002
{
1000
HIER
1070
     0
1002
}
1002
{
1000
MANEDIT
1070
     0
1002
}
1002
{
1000
NOSEL
1070
     0
1002
}
1002
{
1000
BEHIND
1070
     0
1002
}
1002
{
1000
OTHER
1070
     0
1002
}
1002
{
1000
REACTOR
1002
}
  0
TEXT
  5
B607
330
B5F8
100
AcDbEntity
  8
AM_6
 60
     1
100
AcDbText
 10
0.0
 20
0.0
 30
0.0
 40
2.5
  1
!GENTITLE-LL
100
AcDbText
  0
TEXT
  5
B608
330
B5F8
100
AcDbEntity
  8
AM_6
 60
     1
100
AcDbText
 10
408.4999999999998
 20
288.5
 30
0.0
 40
2.5
  1
!GENTITLE-RU
100
AcDbText
  0
TEXT
  5
B609
330
B5F8
100
AcDbEntity
  8
AM_6
 60
     1
100
AcDbText
 10
420.0
 20
297.0
 30
0.0
 40
2.5
  1
!GENTITLE-MAX
100
AcDbText
  0
TEXT
  5
B60A
330
B5F8
100
AcDbEntity
  8
AM_6
 60
     1
100
AcDbText
 10
408.4999999999998
 20
8.5
 30
0.0
 40
2.5
  1
!GENTITLE-INSERT
100
AcDbText
  0
LINE
  5
B60B
330
B5F8
100
AcDbEntity
  8
waku
100
AcDbLine
 10
11.5
 20
8.5
 30
0.0
 11
408.4999999999998
 21
8.5
 31
0.0
  0
LINE
  5
B60C
330
B5F8
100
AcDbEntity
  8
waku
100
AcDbLine
 10
246.499999999999
 20
33.49999999999332
 30
0.0
 11
408.4999999999998
 21
33.49999999999981
 31
0.0
  0
LINE
  5
B60D
330
B5F8
100
AcDbEntity
  8
waku
100
AcDbLine
 10
246.4999999999983
 20
8.5
 30
0.0
 11
246.4999999999974
 21
33.49999999999332
 31
0.0
  0
MTEXT
  5
B60E
330
B5F8
100
AcDbEntity
  8
AM_6
100
AcDbMText
 10
316.9999999999996
 20
25.74999999999989
 30
0.0
 40
4.0
 41
9.015095283510616
 46
0.0
 71
     5
 72
     5
  1
A3
 73
     1
 44
1.0
  0
ENDBLK
  5
B60F
330
B5F8
100
AcDbEntity
  8
0
100
AcDbBlockEnd
  0
BLOCK
  5
B611
330
B610
100
AcDbEntity
  8
0
100
AcDbBlockBegin
  2
GENDOT
 70
     0
 10
0.0
 20
0.0
 30
0.0
  3
GENDOT
  1

  0
LINE
  5
B612
330
B610
100
AcDbEntity
  8
0
100
AcDbLine
 10
0.0
 20
0.0
 30
0.0
 11
-1.0
 21
0.0
 31
0.0
  0
LWPOLYLINE
  5
B613
330
B610
100
AcDbEntity
  8
0
100
AcDbPolyline
 90
        2
 70
     1
 43
0.25
 10
-0.125
 20
0.0
 42
1.0
 10
0.125
 20
0.0
 42
1.0
  0
ENDBLK
  5
B614
330
B610
100
AcDbEntity
  8
0
100
AcDbBlockEnd
  0
BLOCK
  5
B8CE
330
B8CD
100
AcDbEntity
  8
0
100
AcDbBlockBegin
  2
*D7
 70
     1
 10
0.0
 20
0.0
 30
0.0
  3
*D7
  1

  0
LINE
  5
BADE
330
B8CD
100
AcDbEntity
  8
AM_5
100
AcDbLine
 10
152.5925963183274
 20
125.7797315349756
 30
0.0
 11
152.5925963183274
 21
105.7797305349756
 31
0.0
  0
LINE
  5
BADF
330
B8CD
100
AcDbEntity
  8
AM_5
100
AcDbLine
 10
222.5925983183275
 20
125.7797315349756
 30
0.0
 11
222.5925983183275
 21
105.7797305349756
 31
0.0
  0
LINE
  5
BAE0
330
B8CD
100
AcDbEntity
  8
AM_5
100
AcDbLine
 10
153.5925963183274
 20
106.7797305349756
 30
0.0
 11
221.5925983183275
 21
106.7797305349756
 31
0.0
  0
INSERT
  5
BAE1
330
B8CD
100
AcDbEntity
  8
AM_5
100
AcDbBlockReference
  2
_Dot
 10
152.5925963183274
 20
106.7797305349756
 30
0.0
 50
180.0
  0
INSERT
  5
BAE2
330
B8CD
100
AcDbEntity
  8
AM_5
100
AcDbBlockReference
  2
_Dot
 10
222.5925983183275
 20
106.7797305349756
 30
0.0
  0
MTEXT
  5
BAE3
330
B8CD
100
AcDbEntity
  8
AM_5
 62
     2
100
AcDbMText
 10
187.5925973183274
 20
109.8797305349755
 30
0.0
 40
3.200000000000001
 41
0.0
 46
0.0
 71
     5
 72
     1
  1
B
 73
     1
 44
1.0
  0
POINT
  5
BAE4
330
B8CD
100
AcDbEntity
  8
Defpoints
 62
     0
100
AcDbPoint
 10
152.5925963183274
 20
126.7797315349756
 30
0.0
  0
POINT
  5
BAE5
330
B8CD
100
AcDbEntity
  8
Defpoints
 62
     0
100
AcDbPoint
 10
222.5925983183275
 20
126.7797315349756
 30
0.0
  0
POINT
  5
BAE6
330
B8CD
100
AcDbEntity
  8
Defpoints
 62
     0
100
AcDbPoint
 10
222.5925983183275
 20
106.7797305349756
 30
0.0
  0
ENDBLK
  5
B8CF
330
B8CD
100
AcDbEntity
  8
0
100
AcDbBlockEnd
  0
BLOCK
  5
B8DA
330
B8D9
100
AcDbEntity
  8
0
100
AcDbBlockBegin
  2
*D8
 70
     1
 10
0.0
 20
0.0
 30
0.0
  3
*D8
  1

  0
LINE
  5
BAE7
330
B8D9
100
AcDbEntity
  8
AM_5
100
AcDbLine
 10
143.0925963183274
 20
122.2797315349755
 30
0.0
 11
143.0925963183274
 21
95.7797305349757
 31
0.0
  0
LINE
  5
BAE8
330
B8D9
100
AcDbEntity
  8
AM_5
100
AcDbLine
 10
232.0925983183274
 20
122.2797315349755
 30
0.0
 11
232.0925983183274
 21
95.7797305349757
 31
0.0
  0
LINE
  5
BAE9
330
B8D9
100
AcDbEntity
  8
AM_5
100
AcDbLine
 10
144.0925963183274
 20
96.77973053497573
 30
0.0
 11
231.0925983183274
 21
96.77973053497573
 31
0.0
  0
INSERT
  5
BAEA
330
B8D9
100
AcDbEntity
  8
AM_5
100
AcDbBlockReference
  2
_Dot
 10
143.0925963183274
 20
96.77973053497573
 30
0.0
 50
180.0
  0
INSERT
  5
BAEB
330
B8D9
100
AcDbEntity
  8
AM_5
100
AcDbBlockReference
  2
_Dot
 10
232.0925983183274
 20
96.77973053497573
 30
0.0
  0
MTEXT
  5
BAEC
330
B8D9
100
AcDbEntity
  8
AM_5
 62
     2
100
AcDbMText
 10
187.5925973183274
 20
99.8797305349757
 30
0.0
 40
3.200000000000001
 41
0.0
 46
0.0
 71
     5
 72
     1
  1
A
 73
     1
 44
1.0
  0
POINT
  5
BAED
330
B8D9
100
AcDbEntity
  8
Defpoints
 62
     0
100
AcDbPoint
 10
143.0925963183274
 20
123.2797315349756
 30
0.0
  0
POINT
  5
BAEE
330
B8D9
100
AcDbEntity
  8
Defpoints
 62
     0
100
AcDbPoint
 10
232.0925983183274
 20
123.2797315349756
 30
0.0
  0
POINT
  5
BAEF
330
B8D9
100
AcDbEntity
  8
Defpoints
 62
     0
100
AcDbPoint
 10
232.0925983183274
 20
96.77973053497573
 30
0.0
  0
ENDBLK
  5
B8DB
330
B8D9
100
AcDbEntity
  8
0
100
AcDbBlockEnd
  0
BLOCK
  5
B8E6
330
B8E5
100
AcDbEntity
  8
0
100
AcDbBlockBegin
  2
*D9
 70
     1
 10
0.0
 20
0.0
 30
0.0
  3
*D9
  1

  0
LINE
  5
BAF0
330
B8E5
100
AcDbEntity
  8
AM_5
100
AcDbLine
 10
306.0587208796317
 20
240.5297375349755
 30
0.0
 11
323.6587224931478
 21
240.5297375349755
 31
0.0
  0
LINE
  5
BAF1
330
B8E5
100
AcDbEntity
  8
AM_5
100
AcDbLine
 10
301.1587208796318
 20
181.5297263349755
 30
0.0
 11
323.6587224931478
 21
181.5297263349755
 31
0.0
  0
LINE
  5
BAF2
330
B8E5
100
AcDbEntity
  8
AM_5
100
AcDbLine
 10
322.6587224931478
 20
239.5297375349755
 30
0.0
 11
322.6587224931478
 21
182.5297263349755
 31
0.0
  0
INSERT
  5
BAF3
330
B8E5
100
AcDbEntity
  8
AM_5
100
AcDbBlockReference
  2
_Dot
 10
322.6587224931478
 20
240.5297375349755
 30
0.0
 50
90.0
  0
INSERT
  5
BAF4
330
B8E5
100
AcDbEntity
  8
AM_5
100
AcDbBlockReference
  2
_Dot
 10
322.6587224931478
 20
181.5297263349755
 30
0.0
 50
270.0
  0
MTEXT
  5
BAF5
330
B8E5
100
AcDbEntity
  8
AM_5
 62
     2
100
AcDbMText
 10
319.5587224931478
 20
211.0297319349756
 30
0.0
 40
3.200000000000001
 41
0.0
 46
0.0
 71
     5
 72
     1
  1
E
 11
1.000000000000000E-16
 21
1.0
 31
0.0
 73
     1
 44
1.0
  0
POINT
  5
BAF6
330
B8E5
100
AcDbEntity
  8
Defpoints
 62
     0
100
AcDbPoint
 10
305.0587208796317
 20
240.5297375349755
 30
0.0
  0
POINT
  5
BAF7
330
B8E5
100
AcDbEntity
  8
Defpoints
 62
     0
100
AcDbPoint
 10
300.1587208796318
 20
181.5297263349755
 30
0.0
  0
POINT
  5
BAF8
330
B8E5
100
AcDbEntity
  8
Defpoints
 62
     0
100
AcDbPoint
 10
322.6587224931478
 20
181.5297263349755
 30
0.0
  0
ENDBLK
  5
B8E7
330
B8E5
100
AcDbEntity
  8
0
100
AcDbBlockEnd
  0
BLOCK
  5
B8F2
330
B8F1
100
AcDbEntity
  8
0
100
AcDbBlockBegin
  2
*D10
 70
     1
 10
0.0
 20
0.0
 30
0.0
  3
*D10
  1

  0
LINE
  5
BAF9
330
B8F1
100
AcDbEntity
  8
AM_5
100
AcDbLine
 10
306.0587208796318
 20
240.5297375349755
 30
0.0
 11
333.6587224931478
 21
240.5297375349755
 31
0.0
  0
LINE
  5
BAFA
330
B8F1
100
AcDbEntity
  8
AM_5
100
AcDbLine
 10
304.6587208796318
 20
178.0297265349756
 30
0.0
 11
333.6587224931478
 21
178.0297265349755
 31
0.0
  0
LINE
  5
BAFB
330
B8F1
100
AcDbEntity
  8
AM_5
100
AcDbLine
 10
332.6587224931478
 20
239.5297375349755
 30
0.0
 11
332.6587224931478
 21
179.0297265349756
 31
0.0
  0
INSERT
  5
BAFC
330
B8F1
100
AcDbEntity
  8
AM_5
100
AcDbBlockReference
  2
_Dot
 10
332.6587224931478
 20
240.5297375349755
 30
0.0
 50
90.0
  0
INSERT
  5
BAFD
330
B8F1
100
AcDbEntity
  8
AM_5
100
AcDbBlockReference
  2
_Dot
 10
332.6587224931478
 20
178.0297265349755
 30
0.0
 50
270.0
  0
MTEXT
  5
BAFE
330
B8F1
100
AcDbEntity
  8
AM_5
 62
     2
100
AcDbMText
 10
329.5587224931477
 20
209.2797320349756
 30
0.0
 40
3.200000000000001
 41
0.0
 46
0.0
 71
     5
 72
     1
  1
F
 11
1.000000000000000E-16
 21
1.0
 31
0.0
 73
     1
 44
1.0
  0
POINT
  5
BAFF
330
B8F1
100
AcDbEntity
  8
Defpoints
 62
     0
100
AcDbPoint
 10
305.0587208796318
 20
240.5297375349755
 30
0.0
  0
POINT
  5
BB00
330
B8F1
100
AcDbEntity
  8
Defpoints
 62
     0
100
AcDbPoint
 10
303.6587208796318
 20
178.0297265349756
 30
0.0
  0
POINT
  5
BB01
330
B8F1
100
AcDbEntity
  8
Defpoints
 62
     0
100
AcDbPoint
 10
332.6587224931478
 20
178.0297265349755
 30
0.0
  0
ENDBLK
  5
B8F3
330
B8F1
100
AcDbEntity
  8
0
100
AcDbBlockEnd
  0
BLOCK
  5
B8FE
330
B8FD
100
AcDbEntity
  8
0
100
AcDbBlockBegin
  2
*D11
 70
     1
 10
0.0
 20
0.0
 30
0.0
  3
*D11
  1

  0
LINE
  5
BB02
330
B8FD
100
AcDbEntity
  8
AM_5
100
AcDbLine
 10
284.6587208796318
 20
239.9297375349756
 30
0.0
 11
284.6587208796318
 21
251.9297385349756
 31
0.0
  0
LINE
  5
BB03
330
B8FD
100
AcDbEntity
  8
AM_5
100
AcDbLine
 10
306.6587208796318
 20
239.9297375349755
 30
0.0
 11
306.6587208796318
 21
251.9297385349756
 31
0.0
  0
LINE
  5
BB04
330
B8FD
100
AcDbEntity
  8
AM_5
100
AcDbLine
 10
285.6587208796318
 20
250.9297385349756
 30
0.0
 11
305.6587208796318
 21
250.9297385349756
 31
0.0
  0
INSERT
  5
BB05
330
B8FD
100
AcDbEntity
  8
AM_5
100
AcDbBlockReference
  2
_Dot
 10
284.6587208796318
 20
250.9297385349756
 30
0.0
 50
180.0
  0
INSERT
  5
BB06
330
B8FD
100
AcDbEntity
  8
AM_5
100
AcDbBlockReference
  2
_Dot
 10
306.6587208796318
 20
250.9297385349756
 30
0.0
  0
MTEXT
  5
BB07
330
B8FD
100
AcDbEntity
  8
AM_5
 62
     2
100
AcDbMText
 10
295.6587208796318
 20
254.0297385349756
 30
0.0
 40
3.200000000000001
 41
0.0
 46
0.0
 71
     5
 72
     1
  1
G
 73
     1
 44
1.0
  0
POINT
  5
BB08
330
B8FD
100
AcDbEntity
  8
Defpoints
 62
     0
100
AcDbPoint
 10
284.6587208796318
 20
238.9297375349756
 30
0.0
  0
POINT
  5
BB09
330
B8FD
100
AcDbEntity
  8
Defpoints
 62
     0
100
AcDbPoint
 10
306.6587208796318
 20
238.9297375349755
 30
0.0
  0
POINT
  5
BB0A
330
B8FD
100
AcDbEntity
  8
Defpoints
 62
     0
100
AcDbPoint
 10
306.6587208796318
 20
250.9297385349756
 30
0.0
  0
ENDBLK
  5
B8FF
330
B8FD
100
AcDbEntity
  8
0
100
AcDbBlockEnd
  0
BLOCK
  5
B90A
330
B909
100
AcDbEntity
  8
0
100
AcDbBlockBegin
  2
*D12
 70
     1
 10
0.0
 20
0.0
 30
0.0
  3
*D12
  1

  0
LINE
  5
BB0B
330
B909
100
AcDbEntity
  8
AM_5
100
AcDbLine
 10
303.6587208796318
 20
177.0297265349756
 30
0.0
 11
303.6587208796318
 21
155.0297265349756
 31
0.0
  0
LINE
  5
BB0C
330
B909
100
AcDbEntity
  8
AM_5
100
AcDbLine
 10
287.6587208796319
 20
180.5297263349755
 30
0.0
 11
287.6587208796319
 21
155.0297265349756
 31
0.0
  0
LINE
  5
BB0D
330
B909
100
AcDbEntity
  8
AM_5
100
AcDbLine
 10
302.6587208796318
 20
156.0297265349756
 30
0.0
 11
288.6587208796319
 21
156.0297265349756
 31
0.0
  0
INSERT
  5
BB0E
330
B909
100
AcDbEntity
  8
AM_5
100
AcDbBlockReference
  2
_Dot
 10
303.6587208796318
 20
156.0297265349756
 30
0.0
  0
INSERT
  5
BB0F
330
B909
100
AcDbEntity
  8
AM_5
100
AcDbBlockReference
  2
_Dot
 10
287.6587208796319
 20
156.0297265349756
 30
0.0
 50
180.0
  0
MTEXT
  5
BB10
330
B909
100
AcDbEntity
  8
AM_5
 62
     2
100
AcDbMText
 10
295.6587208796318
 20
159.1297265349756
 30
0.0
 40
3.200000000000001
 41
0.0
 46
0.0
 71
     5
 72
     1
  1
H
 73
     1
 44
1.0
  0
POINT
  5
BB11
330
B909
100
AcDbEntity
  8
Defpoints
 62
     0
100
AcDbPoint
 10
303.6587208796318
 20
178.0297265349756
 30
0.0
  0
POINT
  5
BB12
330
B909
100
AcDbEntity
  8
Defpoints
 62
     0
100
AcDbPoint
 10
287.6587208796319
 20
181.5297263349755
 30
0.0
  0
POINT
  5
BB13
330
B909
100
AcDbEntity
  8
Defpoints
 62
     0
100
AcDbPoint
 10
287.6587208796319
 20
156.0297265349756
 30
0.0
  0
ENDBLK
  5
B90B
330
B909
100
AcDbEntity
  8
0
100
AcDbBlockEnd
  0
BLOCK
  5
B916
330
B915
100
AcDbEntity
  8
0
100
AcDbBlockBegin
  2
*D13
 70
     1
 10
0.0
 20
0.0
 30
0.0
  3
*D13
  1

  0
LINE
  5
BB14
330
B915
100
AcDbEntity
  8
AM_5
100
AcDbLine
 10
300.1587208796318
 20
177.0297265349756
 30
0.0
 11
300.1587208796318
 21
165.0297265349756
 31
0.0
  0
LINE
  5
BB15
330
B915
100
AcDbEntity
  8
AM_5
100
AcDbLine
 10
303.6587208796318
 20
177.0297265349756
 30
0.0
 11
303.6587208796318
 21
165.0297265349756
 31
0.0
  0
LINE
  5
BB16
330
B915
100
AcDbEntity
  8
AM_5
100
AcDbLine
 10
299.1587208796318
 20
166.0297265349757
 30
0.0
 11
298.1587208796318
 21
166.0297265349757
 31
0.0
  0
LINE
  5
BB17
330
B915
100
AcDbEntity
  8
AM_5
100
AcDbLine
 10
304.6587208796318
 20
166.0297265349757
 30
0.0
 11
310.1520542129652
 21
166.0297265349757
 31
0.0
  0
LINE
  5
BB18
330
B915
100
AcDbEntity
  8
AM_5
100
AcDbLine
 10
300.1587208796318
 20
166.0297265349757
 30
0.0
 11
303.6587208796318
 21
166.0297265349757
 31
0.0
  0
INSERT
  5
BB19
330
B915
100
AcDbEntity
  8
AM_5
100
AcDbBlockReference
  2
_Dot
 10
300.1587208796318
 20
166.0297265349757
 30
0.0
  0
INSERT
  5
BB1A
330
B915
100
AcDbEntity
  8
AM_5
100
AcDbBlockReference
  2
_Dot
 10
303.6587208796318
 20
166.0297265349757
 30
0.0
 50
180.0
  0
MTEXT
  5
BB1B
330
B915
100
AcDbEntity
  8
AM_5
 62
     2
100
AcDbMText
 10
307.9053875462985
 20
169.1297265349757
 30
0.0
 40
3.200000000000001
 41
0.0
 46
0.0
 71
     5
 72
     1
  1
K
 73
     1
 44
1.0
  0
POINT
  5
BB1C
330
B915
100
AcDbEntity
  8
Defpoints
 62
     0
100
AcDbPoint
 10
300.1587208796318
 20
178.0297265349756
 30
0.0
  0
POINT
  5
BB1D
330
B915
100
AcDbEntity
  8
Defpoints
 62
     0
100
AcDbPoint
 10
303.6587208796318
 20
178.0297265349756
 30
0.0
  0
POINT
  5
BB1E
330
B915
100
AcDbEntity
  8
Defpoints
 62
     0
100
AcDbPoint
 10
303.6587208796318
 20
166.0297265349757
 30
0.0
  0
ENDBLK
  5
B917
330
B915
100
AcDbEntity
  8
0
100
AcDbBlockEnd
  0
BLOCK
  5
B924
330
B923
100
AcDbEntity
  8
0
100
AcDbBlockBegin
  2
*D14
 70
     1
 10
0.0
 20
0.0
 30
0.0
  3
*D14
  1

  0
LINE
  5
BB1F
330
B923
100
AcDbEntity
  8
AM_5
100
AcDbLine
 10
300.1587208796318
 20
177.0297265349756
 30
0.0
 11
300.1587208796318
 21
165.0297265349756
 31
0.0
  0
LINE
  5
BB20
330
B923
100
AcDbEntity
  8
AM_5
100
AcDbLine
 10
287.6587208796319
 20
180.5297263349755
 30
0.0
 11
287.6587208796319
 21
165.0297265349756
 31
0.0
  0
LINE
  5
BB21
330
B923
100
AcDbEntity
  8
AM_5
100
AcDbLine
 10
299.1587208796318
 20
166.0297265349757
 30
0.0
 11
288.6587208796319
 21
166.0297265349757
 31
0.0
  0
INSERT
  5
BB22
330
B923
100
AcDbEntity
  8
AM_5
100
AcDbBlockReference
  2
_Dot
 10
300.1587208796318
 20
166.0297265349757
 30
0.0
  0
INSERT
  5
BB23
330
B923
100
AcDbEntity
  8
AM_5
100
AcDbBlockReference
  2
_Dot
 10
287.6587208796319
 20
166.0297265349757
 30
0.0
 50
180.0
  0
MTEXT
  5
BB24
330
B923
100
AcDbEntity
  8
AM_5
 62
     2
100
AcDbMText
 10
293.9087208796318
 20
169.1297265349757
 30
0.0
 40
3.200000000000001
 41
0.0
 46
0.0
 71
     5
 72
     1
  1
I
 73
     1
 44
1.0
  0
POINT
  5
BB25
330
B923
100
AcDbEntity
  8
Defpoints
 62
     0
100
AcDbPoint
 10
300.1587208796318
 20
178.0297265349756
 30
0.0
  0
POINT
  5
BB26
330
B923
100
AcDbEntity
  8
Defpoints
 62
     0
100
AcDbPoint
 10
287.6587208796319
 20
181.5297263349755
 30
0.0
  0
POINT
  5
BB27
330
B923
100
AcDbEntity
  8
Defpoints
 62
     0
100
AcDbPoint
 10
287.6587208796319
 20
166.0297265349757
 30
0.0
  0
ENDBLK
  5
B925
330
B923
100
AcDbEntity
  8
0
100
AcDbBlockEnd
  0
BLOCK
  5
B930
330
B92F
100
AcDbEntity
  8
0
100
AcDbBlockBegin
  2
*D15
 70
     1
 10
0.0
 20
0.0
 30
0.0
  3
*D15
  1

  0
LINE
  5
BB28
330
B92F
100
AcDbEntity
  8
AM_5
100
AcDbLine
 10
193.1939530977875
 20
149.2797315349756
 30
0.0
 11
245.0925983183274
 21
149.2797315349756
 31
0.0
  0
LINE
  5
BB29
330
B92F
100
AcDbEntity
  8
AM_5
100
AcDbLine
 10
191.0925963183274
 20
118.7797315349756
 30
0.0
 11
245.0925983183274
 21
118.7797315349755
 31
0.0
  0
LINE
  5
BB2A
330
B92F
100
AcDbEntity
  8
AM_5
100
AcDbLine
 10
244.0925983183274
 20
148.2797315349755
 30
0.0
 11
244.0925983183274
 21
119.7797315349755
 31
0.0
  0
INSERT
  5
BB2B
330
B92F
100
AcDbEntity
  8
AM_5
100
AcDbBlockReference
  2
_Dot
 10
244.0925983183274
 20
149.2797315349756
 30
0.0
 50
90.0
  0
INSERT
  5
BB2C
330
B92F
100
AcDbEntity
  8
AM_5
100
AcDbBlockReference
  2
_Dot
 10
244.0925983183274
 20
118.7797315349755
 30
0.0
 50
270.0
  0
MTEXT
  5
BB2D
330
B92F
100
AcDbEntity
  8
AM_5
 62
     2
100
AcDbMText
 10
240.9925983183274
 20
134.0297315349756
 30
0.0
 40
3.200000000000001
 41
0.0
 46
0.0
 71
     5
 72
     1
  1
L
 11
1.000000000000000E-16
 21
1.0
 31
0.0
 73
     1
 44
1.0
  0
POINT
  5
BB2E
330
B92F
100
AcDbEntity
  8
Defpoints
 62
     0
100
AcDbPoint
 10
192.1939530977875
 20
149.2797315349756
 30
0.0
  0
POINT
  5
BB2F
330
B92F
100
AcDbEntity
  8
Defpoints
 62
     0
100
AcDbPoint
 10
190.0925963183274
 20
118.7797315349756
 30
0.0
  0
POINT
  5
BB30
330
B92F
100
AcDbEntity
  8
Defpoints
 62
     0
100
AcDbPoint
 10
244.0925983183274
 20
118.7797315349755
 30
0.0
  0
ENDBLK
  5
B931
330
B92F
100
AcDbEntity
  8
0
100
AcDbBlockEnd
  0
BLOCK
  5
B93C
330
B93B
100
AcDbEntity
  8
0
100
AcDbBlockBegin
  2
*D16
 70
     1
 10
0.0
 20
0.0
 30
0.0
  3
*D16
  1

  0
LINE
  5
BB31
330
B93B
100
AcDbEntity
  8
AM_5
100
AcDbLine
 10
286.6587208796318
 20
231.5297285349756
 30
0.0
 11
267.6587192661158
 21
231.5297285349756
 31
0.0
  0
LINE
  5
BB32
330
B93B
100
AcDbEntity
  8
AM_5
100
AcDbLine
 10
286.6587208796318
 20
181.5297263349755
 30
0.0
 11
267.6587192661158
 21
181.5297263349755
 31
0.0
  0
LINE
  5
BB33
330
B93B
100
AcDbEntity
  8
AM_5
100
AcDbLine
 10
268.6587192661158
 20
230.5297285349756
 30
0.0
 11
268.6587192661158
 21
182.5297263349755
 31
0.0
  0
INSERT
  5
BB34
330
B93B
100
AcDbEntity
  8
AM_5
100
AcDbBlockReference
  2
_Dot
 10
268.6587192661158
 20
231.5297285349756
 30
0.0
 50
90.0
  0
INSERT
  5
BB35
330
B93B
100
AcDbEntity
  8
AM_5
100
AcDbBlockReference
  2
_Dot
 10
268.6587192661158
 20
181.5297263349755
 30
0.0
 50
270.0
  0
MTEXT
  5
BB36
330
B93B
100
AcDbEntity
  8
AM_5
 62
     2
100
AcDbMText
 10
265.5587192661157
 20
206.5297274349756
 30
0.0
 40
3.200000000000001
 41
0.0
 46
0.0
 71
     5
 72
     1
  1
%%cC
 11
1.000000000000000E-16
 21
1.0
 31
0.0
 73
     1
 44
1.0
  0
POINT
  5
BB37
330
B93B
100
AcDbEntity
  8
Defpoints
 62
     0
100
AcDbPoint
 10
287.6587208796319
 20
231.5297285349756
 30
0.0
  0
POINT
  5
BB38
330
B93B
100
AcDbEntity
  8
Defpoints
 62
     0
100
AcDbPoint
 10
287.6587208796319
 20
181.5297263349755
 30
0.0
  0
POINT
  5
BB39
330
B93B
100
AcDbEntity
  8
Defpoints
 62
     0
100
AcDbPoint
 10
268.6587192661158
 20
181.5297263349755
 30
0.0
  0
ENDBLK
  5
B93D
330
B93B
100
AcDbEntity
  8
0
100
AcDbBlockEnd
  0
BLOCK
  5
B948
330
B947
100
AcDbEntity
  8
0
100
AcDbBlockBegin
  2
*D17
 70
     1
 10
0.0
 20
0.0
 30
0.0
  3
*D17
  1

  0
LINE
  5
BB3A
330
B947
100
AcDbEntity
  8
AM_5
100
AcDbLine
 10
299.1587208796318
 20
235.0297285349756
 30
0.0
 11
257.6587192661158
 21
235.0297285349756
 31
0.0
  0
LINE
  5
BB3B
330
B947
100
AcDbEntity
  8
AM_5
100
AcDbLine
 10
299.1587208796318
 20
178.0297265349756
 30
0.0
 11
257.6587192661158
 21
178.0297265349756
 31
0.0
  0
LINE
  5
BB3C
330
B947
100
AcDbEntity
  8
AM_5
100
AcDbLine
 10
258.6587192661158
 20
234.0297285349756
 30
0.0
 11
258.6587192661158
 21
179.0297265349756
 31
0.0
  0
INSERT
  5
BB3D
330
B947
100
AcDbEntity
  8
AM_5
100
AcDbBlockReference
  2
_Dot
 10
258.6587192661158
 20
235.0297285349756
 30
0.0
 50
90.0
  0
INSERT
  5
BB3E
330
B947
100
AcDbEntity
  8
AM_5
100
AcDbBlockReference
  2
_Dot
 10
258.6587192661158
 20
178.0297265349756
 30
0.0
 50
270.0
  0
MTEXT
  5
BB3F
330
B947
100
AcDbEntity
  8
AM_5
 62
     2
100
AcDbMText
 10
255.5587192661157
 20
206.5297275349756
 30
0.0
 40
3.200000000000001
 41
0.0
 46
0.0
 71
     5
 72
     1
  1
%%cD
 11
1.000000000000000E-16
 21
1.0
 31
0.0
 73
     1
 44
1.0
  0
POINT
  5
BB40
330
B947
100
AcDbEntity
  8
Defpoints
 62
     0
100
AcDbPoint
 10
300.1587208796318
 20
235.0297285349756
 30
0.0
  0
POINT
  5
BB41
330
B947
100
AcDbEntity
  8
Defpoints
 62
     0
100
AcDbPoint
 10
300.1587208796318
 20
178.0297265349756
 30
0.0
  0
POINT
  5
BB42
330
B947
100
AcDbEntity
  8
Defpoints
 62
     0
100
AcDbPoint
 10
258.6587192661158
 20
178.0297265349756
 30
0.0
  0
ENDBLK
  5
B949
330
B947
100
AcDbEntity
  8
0
100
AcDbBlockEnd
  0
BLOCK
  5
B954
330
B953
100
AcDbEntity
  8
0
100
AcDbBlockBegin
  2
*D18
 70
     1
 10
0.0
 20
0.0
 30
0.0
  3
*D18
  1

  0
LINE
  5
BB43
330
B953
100
AcDbEntity
  8
AM_5
100
AcDbLine
 10
153.297601464573
 20
132.9557346528918
 30
0.0
 11
151.8875911720817
 21
135.603728417059
 31
0.0
  0
LINE
  5
BB44
330
B953
100
AcDbEntity
  8
AM_5
100
AcDbLine
 10
150.9475843104208
 20
137.3690575931705
 30
0.0
 11
141.6186986181407
 21
154.8886681033458
 31
0.0
  0
LINE
  5
BB45
330
B953
100
AcDbEntity
  8
AM_5
100
AcDbLine
 10
141.6186986181407
 20
154.8886681033458
 30
0.0
 11
136.852031951474
 21
154.8886681033458
 31
0.0
  0
INSERT
  5
BB46
330
B953
100
AcDbEntity
  8
AM_5
100
AcDbBlockReference
  2
GENDOT
 10
154.2376083262339
 20
131.1904054767803
 30
0.0
 41
2.0
 42
2.0
 43
2.0
 50
298.0345192377108
  0
INSERT
  5
BB47
330
B953
100
AcDbEntity
  8
AM_5
100
AcDbBlockReference
  2
GENDOT
 10
150.9475843104208
 20
137.3690575931705
 30
0.0
 41
2.0
 42
2.0
 43
2.0
 50
118.0345192377108
  0
MTEXT
  5
BB48
330
B953
100
AcDbEntity
  8
AM_5
 62
     2
100
AcDbMText
 10
138.4853652848073
 20
158.1386681033457
 30
0.0
 40
3.5
 41
0.0
 46
0.0
 71
     5
 72
     1
  1
%%cJ
 73
     1
 44
1.0
  0
POINT
  5
BB49
330
B953
100
AcDbEntity
  8
Defpoints
 62
     0
100
AcDbPoint
 10
150.9475843104208
 20
137.3690575931705
 30
0.0
  0
POINT
  5
BB4A
330
B953
100
AcDbEntity
  8
Defpoints
 62
     0
100
AcDbPoint
 10
154.2376083262339
 20
131.1904054767803
 30
0.0
  0
ENDBLK
  5
B955
330
B953
100
AcDbEntity
  8
0
100
AcDbBlockEnd
  0
BLOCK
  5
BBB0
330
BBAF
100
AcDbEntity
  8
AM_0
100
AcDbBlockBegin
  2
_ACMOPEN30
 70
     0
 10
0.0
 20
0.0
 30
0.0
  3
_ACMOPEN30
  1
Acad:XRef
  0
LINE
  5
BBB2
330
BBAF
100
AcDbEntity
  8
AM_0
 62
     0
100
AcDbLine
 10
-1.0
 20
0.0
 30
0.0
 11
0.0
 21
0.0
 31
0.0
  0
LINE
  5
BBB3
330
BBAF
100
AcDbEntity
  8
AM_0
 62
     0
100
AcDbLine
 10
-1.0
 20
-0.2679491924311227
 30
0.0
 11
0.0
 21
0.0
 31
0.0
  0
LINE
  5
BBB4
330
BBAF
100
AcDbEntity
  8
AM_0
 62
     0
100
AcDbLine
 10
-1.0
 20
0.2679491924311227
 30
0.0
 11
0.0
 21
0.0
 31
0.0
  0
ENDBLK
  5
BBB1
330
BBAF
100
AcDbEntity
  8
AM_0
100
AcDbBlockEnd
  0
ENDSEC
  0
SECTION
  2
ENTITIES
  0
LINE
  5
B7BE
330
1F
100
AcDbEntity
  8
size
100
AcDbLine
 10
-0.0000000994001539
 20
-0.0000002194942681
 30
0.0
 11
419.9999999005998
 21
-0.0000002194942681
 31
0.0
1001
GENIUS_GENREC_14
1002
{
1000
PYDIR
1011
-0.0000000994001361
1021
296.9999997805057
1031
0.0
1002
}
1002
{
1000
PXDIR
1011
419.9999999005998
1021
-0.0000002194942681
1031
0.0
1002
}
1002
{
1000
PORI
1011
-0.0000000994001539
1021
-0.0000002194942681
1031
0.0
1002
}
1002
{
1000
PINS
1011
209.9999999005999
1021
148.4999997805057
1031
0.0
1002
}
1002
{
1000
HVAL
1000
297
1002
}
1002
{
1000
H
1070
     2
1002
}
1002
{
1000
WVAL
1000
420
1002
}
1002
{
1000
W
1070
     2
1002
}
1002
{
1000
C
1070
     4
1002
}
1001
GENIUS_GENOBJ-N-REC_13
1002
{
1000
OWNER
1000
GEN
1002
}
1001
GENIUS_GENODEF_13
1002
{
1000
HIER
1070
     0
1002
}
1002
{
1000
MANEDIT
1070
     0
1002
}
1002
{
1000
NOSEL
1070
     0
1002
}
1002
{
1000
BEHIND
1070
     0
1002
}
1002
{
1000
OTHER
1070
     0
1002
}
1002
{
1000
REACTOR
1002
}
  0
LINE
  5
B7BF
330
1F
100
AcDbEntity
  8
size
100
AcDbLine
 10
419.9999999005998
 20
-0.0000002194942681
 30
0.0
 11
419.9999999005998
 21
296.9999997805057
 31
0.0
1001
GENIUS_GENREC_14
1002
{
1000
PYDIR
1011
-0.0000000994001361
1021
296.9999997805057
1031
0.0
1002
}
1002
{
1000
PXDIR
1011
419.9999999005998
1021
-0.0000002194942681
1031
0.0
1002
}
1002
{
1000
PORI
1011
-0.0000000994001539
1021
-0.0000002194942681
1031
0.0
1002
}
1002
{
1000
PINS
1011
209.9999999005999
1021
148.4999997805057
1031
0.0
1002
}
1002
{
1000
HVAL
1000
297
1002
}
1002
{
1000
H
1070
     2
1002
}
1002
{
1000
WVAL
1000
420
1002
}
1002
{
1000
W
1070
     2
1002
}
1002
{
1000
C
1070
     4
1002
}
1001
GENIUS_GENOBJ-N-REC_13
1002
{
1000
OWNER
1000
GEN
1002
}
1001
GENIUS_GENODEF_13
1002
{
1000
HIER
1070
     0
1002
}
1002
{
1000
MANEDIT
1070
     0
1002
}
1002
{
1000
NOSEL
1070
     0
1002
}
1002
{
1000
BEHIND
1070
     0
1002
}
1002
{
1000
OTHER
1070
     0
1002
}
1002
{
1000
REACTOR
1002
}
  0
LINE
  5
B7C0
330
1F
100
AcDbEntity
  8
size
100
AcDbLine
 10
419.9999999005998
 20
296.9999997805057
 30
0.0
 11
-0.0000000994001264
 21
296.9999997805057
 31
0.0
1001
GENIUS_GENREC_14
1002
{
1000
PYDIR
1011
-0.0000000994001361
1021
296.9999997805057
1031
0.0
1002
}
1002
{
1000
PXDIR
1011
419.9999999005998
1021
-0.0000002194942681
1031
0.0
1002
}
1002
{
1000
PORI
1011
-0.0000000994001539
1021
-0.0000002194942681
1031
0.0
1002
}
1002
{
1000
PINS
1011
209.9999999005999
1021
148.4999997805057
1031
0.0
1002
}
1002
{
1000
HVAL
1000
297
1002
}
1002
{
1000
H
1070
     2
1002
}
1002
{
1000
WVAL
1000
420
1002
}
1002
{
1000
W
1070
     2
1002
}
1002
{
1000
C
1070
     4
1002
}
1001
GENIUS_GENOBJ-N-REC_13
1002
{
1000
OWNER
1000
GEN
1002
}
1001
GENIUS_GENODEF_13
1002
{
1000
HIER
1070
     0
1002
}
1002
{
1000
MANEDIT
1070
     0
1002
}
1002
{
1000
NOSEL
1070
     0
1002
}
1002
{
1000
BEHIND
1070
     0
1002
}
1002
{
1000
OTHER
1070
     0
1002
}
1002
{
1000
REACTOR
1002
}
  0
LINE
  5
B7C1
330
1F
100
AcDbEntity
  8
size
100
AcDbLine
 10
-0.0000000994001264
 20
296.9999997805057
 30
0.0
 11
-0.0000000994001539
 21
-0.0000002194942681
 31
0.0
1001
GENIUS_GENREC_14
1002
{
1000
PYDIR
1011
-0.0000000994001361
1021
296.9999997805057
1031
0.0
1002
}
1002
{
1000
PXDIR
1011
419.9999999005998
1021
-0.0000002194942681
1031
0.0
1002
}
1002
{
1000
PORI
1011
-0.0000000994001539
1021
-0.0000002194942681
1031
0.0
1002
}
1002
{
1000
PINS
1011
209.9999999005999
1021
148.4999997805057
1031
0.0
1002
}
1002
{
1000
HVAL
1000
297
1002
}
1002
{
1000
H
1070
     2
1002
}
1002
{
1000
WVAL
1000
420
1002
}
1002
{
1000
W
1070
     2
1002
}
1002
{
1000
C
1070
     4
1002
}
1001
GENIUS_GENOBJ-N-REC_13
1002
{
1000
OWNER
1000
GEN
1002
}
1001
GENIUS_GENODEF_13
1002
{
1000
HIER
1070
     0
1002
}
1002
{
1000
MANEDIT
1070
     0
1002
}
1002
{
1000
NOSEL
1070
     0
1002
}
1002
{
1000
BEHIND
1070
     0
1002
}
1002
{
1000
OTHER
1070
     0
1002
}
1002
{
1000
REACTOR
1002
}
  0
LINE
  5
B7C2
330
1F
100
AcDbEntity
  8
waku
100
AcDbLine
 10
408.4999999005996
 20
8.49999978050573
 30
0.0
 11
408.4999999005998
 21
288.4999997805057
 31
0.0
1001
GENIUS_GENREC_14
1002
{
1000
PYDIR
1011
-0.0000000994001361
1021
296.9999997805057
1031
0.0
1002
}
1002
{
1000
PXDIR
1011
419.9999999005998
1021
-0.0000002194942681
1031
0.0
1002
}
1002
{
1000
PORI
1011
-0.0000000994001539
1021
-0.0000002194942681
1031
0.0
1002
}
1002
{
1000
PINS
1011
209.9999999005999
1021
148.4999997805057
1031
0.0
1002
}
1002
{
1000
HVAL
1000
297
1002
}
1002
{
1000
H
1070
     2
1002
}
1002
{
1000
WVAL
1000
420
1002
}
1002
{
1000
W
1070
     2
1002
}
1002
{
1000
C
1070
     4
1002
}
1001
GENIUS_GENOBJ-N-REC_13
1002
{
1000
OWNER
1000
GEN
1002
}
1001
GENIUS_GENODEF_13
1002
{
1000
HIER
1070
     0
1002
}
1002
{
1000
MANEDIT
1070
     0
1002
}
1002
{
1000
NOSEL
1070
     0
1002
}
1002
{
1000
BEHIND
1070
     0
1002
}
1002
{
1000
OTHER
1070
     0
1002
}
1002
{
1000
REACTOR
1002
}
  0
LINE
  5
B7C3
330
1F
100
AcDbEntity
  8
waku
100
AcDbLine
 10
11.49999990059987
 20
288.4999997805057
 30
0.0
 11
11.49999990059984
 21
8.49999978050573
 31
0.0
1001
GENIUS_GENREC_14
1002
{
1000
PYDIR
1011
-0.0000000994001361
1021
296.9999997805057
1031
0.0
1002
}
1002
{
1000
PXDIR
1011
419.9999999005998
1021
-0.0000002194942681
1031
0.0
1002
}
1002
{
1000
PORI
1011
-0.0000000994001539
1021
-0.0000002194942681
1031
0.0
1002
}
1002
{
1000
PINS
1011
209.9999999005999
1021
148.4999997805057
1031
0.0
1002
}
1002
{
1000
HVAL
1000
297
1002
}
1002
{
1000
H
1070
     2
1002
}
1002
{
1000
WVAL
1000
420
1002
}
1002
{
1000
W
1070
     2
1002
}
1002
{
1000
C
1070
     4
1002
}
1001
GENIUS_GENOBJ-N-REC_13
1002
{
1000
OWNER
1000
GEN
1002
}
1001
GENIUS_GENODEF_13
1002
{
1000
HIER
1070
     0
1002
}
1002
{
1000
MANEDIT
1070
     0
1002
}
1002
{
1000
NOSEL
1070
     0
1002
}
1002
{
1000
BEHIND
1070
     0
1002
}
1002
{
1000
OTHER
1070
     0
1002
}
1002
{
1000
REACTOR
1002
}
  0
LINE
  5
B7C4
330
1F
100
AcDbEntity
  8
waku
100
AcDbLine
 10
408.4999999005998
 20
288.4999997805057
 30
0.0
 11
11.49999990059987
 21
288.4999997805057
 31
0.0
1001
GENIUS_GENREC_14
1002
{
1000
PYDIR
1011
-0.0000000994001361
1021
296.9999997805057
1031
0.0
1002
}
1002
{
1000
PXDIR
1011
419.9999999005998
1021
-0.0000002194942681
1031
0.0
1002
}
1002
{
1000
PORI
1011
-0.0000000994001539
1021
-0.0000002194942681
1031
0.0
1002
}
1002
{
1000
PINS
1011
209.9999999005999
1021
148.4999997805057
1031
0.0
1002
}
1002
{
1000
HVAL
1000
297
1002
}
1002
{
1000
H
1070
     2
1002
}
1002
{
1000
WVAL
1000
420
1002
}
1002
{
1000
W
1070
     2
1002
}
1002
{
1000
C
1070
     4
1002
}
1001
GENIUS_GENOBJ-N-REC_13
1002
{
1000
OWNER
1000
GEN
1002
}
1001
GENIUS_GENODEF_13
1002
{
1000
HIER
1070
     0
1002
}
1002
{
1000
MANEDIT
1070
     0
1002
}
1002
{
1000
NOSEL
1070
     0
1002
}
1002
{
1000
BEHIND
1070
     0
1002
}
1002
{
1000
OTHER
1070
     0
1002
}
1002
{
1000
REACTOR
1002
}
  0
LINE
  5
B7C5
330
1F
100
AcDbEntity
  8
waku
100
AcDbLine
 10
11.49999990059984
 20
8.49999978050573
 30
0.0
 11
408.4999999005996
 21
8.49999978050573
 31
0.0
  0
INSERT
  5
B7C6
330
1F
100
AcDbEntity
  8
AM_0
100
AcDbBlockReference
  2
SYS図枠A3(AIS2008)
 10
-0.0000000994001539
 20
-0.0000002194942681
 30
0.0
 41
0.001
 42
0.001
 43
0.001
  0
LINE
  5
B7C7
330
1F
100
AcDbEntity
  8
AM_0
100
AcDbLine
 10
11.49999990059984
 20
288.4999997805057
 30
0.0
 11
101.4999799005998
 21
288.4999997805057
 31
0.0
  0
LINE
  5
B7C8
330
1F
100
AcDbEntity
  8
AM_0
100
AcDbLine
 10
11.49999990059984
 20
288.4999997805057
 30
0.0
 11
11.49999990059984
 21
232.4999997805057
 31
0.0
  0
LINE
  5
B7C9
330
1F
100
AcDbEntity
  8
AM_2
100
AcDbLine
 10
31.49999990059994
 20
288.4999997805057
 30
0.0
 11
31.49999990059994
 21
232.4999997805057
 31
0.0
  0
LINE
  5
B7CA
330
1F
100
AcDbEntity
  8
AM_2
100
AcDbLine
 10
11.49999990059984
 20
280.4999997805057
 30
0.0
 11
101.4999799005998
 21
280.4999997805057
 31
0.0
  0
LINE
  5
B7CB
330
1F
100
AcDbEntity
  8
AM_2
100
AcDbLine
 10
11.49999990059984
 20
272.4999997805057
 30
0.0
 11
101.4999799005998
 21
272.4999997805057
 31
0.0
  0
LINE
  5
B7CC
330
1F
100
AcDbEntity
  8
AM_2
100
AcDbLine
 10
11.49999990059984
 20
264.4999997805057
 30
0.0
 11
101.4999799005998
 21
264.4999997805057
 31
0.0
  0
LINE
  5
B7CD
330
1F
100
AcDbEntity
  8
AM_2
100
AcDbLine
 10
11.49999990059984
 20
240.4999997805056
 30
0.0
 11
101.4999799005998
 21
240.4999997805056
 31
0.0
  0
LINE
  5
B7CE
330
1F
100
AcDbEntity
  8
AM_0
100
AcDbLine
 10
11.49999990059984
 20
288.4999997805057
 30
0.0
 11
11.49999990059984
 21
232.4999997805057
 31
0.0
  0
LINE
  5
B7CF
330
1F
100
AcDbEntity
  8
AM_0
100
AcDbLine
 10
11.49999990059984
 20
288.4999997805057
 30
0.0
 11
101.4999799005998
 21
288.4999997805057
 31
0.0
  0
LINE
  5
B7D0
330
1F
100
AcDbEntity
  8
AM_0
100
AcDbLine
 10
101.4999799005998
 20
288.4999997805057
 30
0.0
 11
101.4999799005998
 21
232.4999997805057
 31
0.0
  0
LINE
  5
B7D1
330
1F
100
AcDbEntity
  8
AM_2
100
AcDbLine
 10
11.49999990059984
 20
256.4999997805056
 30
0.0
 11
101.4999799005998
 21
256.4999997805056
 31
0.0
  0
LINE
  5
B7D2
330
1F
100
AcDbEntity
  8
AM_2
100
AcDbLine
 10
11.49999990059984
 20
248.4999997805056
 30
0.0
 11
101.4999799005998
 21
248.4999997805056
 31
0.0
  0
LINE
  5
B7D3
330
1F
100
AcDbEntity
  8
AM_2
100
AcDbLine
 10
31.49999990059994
 20
240.4999997805056
 30
0.0
 11
101.4999799005998
 21
240.4999997805056
 31
0.0
  0
LINE
  5
B7D4
330
1F
100
AcDbEntity
  8
AM_0
100
AcDbLine
 10
11.49999990059984
 20
232.4999997805057
 30
0.0
 11
101.4999799005998
 21
232.4999997805057
 31
0.0
  0
TEXT
  5
B7D5
330
1F
100
AcDbEntity
  8
AM_6
100
AcDbText
 10
18.49657208314488
 20
283.1368048351151
 30
0.0
 40
3.2
  1
品　名
 41
0.60999997
100
AcDbText
  0
TEXT
  5
B7D6
330
1F
100
AcDbEntity
  8
AM_6
100
AcDbText
 10
18.49657208314488
 20
275.1368048351151
 30
0.0
 40
3.2
  1
品　番
 41
0.60999997
100
AcDbText
  0
TEXT
  5
B7D7
330
1F
100
AcDbEntity
  8
AM_6
100
AcDbText
 10
18.49657208314488
 20
267.1368048351151
 30
0.0
 40
3.2
  1
材　質
 41
0.60999997
100
AcDbText
  0
TEXT
  5
B7D8
330
1F
100
AcDbEntity
  8
AM_6
100
AcDbText
 10
18.49657208314488
 20
259.1368048351151
 30
0.0
 40
3.2
  1
仕上げ
 41
0.60999997
100
AcDbText
  0
TEXT
  5
B7D9
330
1F
100
AcDbEntity
  8
AM_6
100
AcDbText
 10
15.29657208314489
 20
243.1368048351152
 30
0.0
 40
3.2
  1
セットビス
 41
0.60999999
100
AcDbText
  0
TEXT
  5
B7DA
330
1F
100
AcDbEntity
  8
AM_6
100
AcDbText
 10
20.09658208314488
 20
235.1368048351151
 30
0.0
 40
3.2
  1
備考
 41
0.61
100
AcDbText
  0
TEXT
  5
B7DB
330
1F
100
AcDbEntity
  8
AM_6
100
AcDbText
 10
16.89657208314489
 20
251.1368048351151
 30
0.0
 40
3.2
  1
左右勝手
 41
0.60999998
100
AcDbText
  0
TEXT
  5
B7DC
330
1F
100
AcDbEntity
  8
AM_6
100
AcDbText
 10
34.92849990059994
 20
282.8999697805057
 30
0.0
 40
3.2
  1
重量用戸車（トロ型）
 41
0.74054621
100
AcDbText
  0
TEXT
  5
B7DD
330
1F
100
AcDbEntity
  8
AM_6
100
AcDbText
 10
34.92849990059994
 20
274.8999697805057
 30
0.0
 40
3.2
  1
ST-163
 41
0.8068965099999998
100
AcDbText
  0
TEXT
  5
B7DE
330
1F
100
AcDbEntity
  8
AM_6
100
AcDbText
 10
34.92849990059994
 20
266.8999697805057
 30
0.0
 40
3.2
  1
枠：スチール　車：スチール
 41
0.7499999600000004
100
AcDbText
  0
TEXT
  5
B7DF
330
1F
100
AcDbEntity
  8
AM_6
100
AcDbText
 10
34.92848990059983
 20
258.8999697805057
 30
0.0
 40
3.2
  1
枠：三価クロメート　車：黒塗装
 41
0.75000001
100
AcDbText
  0
TEXT
  5
B7E0
330
1F
100
AcDbEntity
  8
AM_6
100
AcDbText
 10
34.92848990059983
 20
250.8999697805056
 30
0.0
 40
3.2
  1
無し
 41
0.74999999
100
AcDbText
  0
TEXT
  5
B7E1
330
1F
100
AcDbEntity
  8
AM_6
100
AcDbText
 10
34.92848990059983
 20
234.8999697805057
 30
0.0
 40
3.2
  1
※軸受：ボールベアリング
 41
0.74999997
100
AcDbText
  0
TEXT
  5
B7E2
330
1F
100
AcDbEntity
  8
AM_6
100
AcDbText
 10
34.92848990059983
 20
242.8999697805056
 30
0.0
 40
3.2
  1
無し
 41
0.74999999
100
AcDbText
  0
LINE
  5
B7E3
330
1F
100
AcDbEntity
  8
AM_2
100
AcDbLine
 10
79.02305825555612
 20
65.74935592548024
 30
0.0
 11
351.0230182555561
 21
65.74935592548024
 31
0.0
  0
LINE
  5
B7E4
330
1F
100
AcDbEntity
  8
AM_2
100
AcDbLine
 10
173.0230542555561
 20
65.74935592548024
 30
0.0
 11
173.0230542555561
 21
25.74936392548023
 31
0.0
  0
LINE
  5
B7E5
330
1F
100
AcDbEntity
  8
AM_2
100
AcDbLine
 10
237.0230542555561
 20
65.74935592548024
 30
0.0
 11
237.0230542555561
 21
25.74936392548023
 31
0.0
  0
LINE
  5
B7E6
330
1F
100
AcDbEntity
  8
AM_2
100
AcDbLine
 10
79.02305825555612
 20
65.74935592548024
 30
0.0
 11
79.02305825555612
 21
25.74936392548023
 31
0.0
  0
LINE
  5
B7E7
330
1F
100
AcDbEntity
  8
AM_2
100
AcDbLine
 10
125.0230542555561
 20
65.74935592548024
 30
0.0
 11
125.0230542555561
 21
25.74936392548023
 31
0.0
  0
LINE
  5
B7E8
330
1F
100
AcDbEntity
  8
AM_2
100
AcDbLine
 10
109.0230542555561
 20
65.74935592548024
 30
0.0
 11
109.0230542555561
 21
25.74936392548023
 31
0.0
  0
LINE
  5
B7E9
330
1F
100
AcDbEntity
  8
AM_2
100
AcDbLine
 10
157.023054255556
 20
65.74935592548024
 30
0.0
 11
157.023054255556
 21
25.74936392548023
 31
0.0
  0
LINE
  5
B7EA
330
1F
100
AcDbEntity
  8
AM_2
100
AcDbLine
 10
141.023054255556
 20
65.74935592548024
 30
0.0
 11
141.023054255556
 21
25.74936392548023
 31
0.0
  0
LINE
  5
B7EB
330
1F
100
AcDbEntity
  8
AM_2
100
AcDbLine
 10
189.0230537555561
 20
65.74935592548024
 30
0.0
 11
189.0230537555561
 21
25.74936392548023
 31
0.0
  0
LINE
  5
B7EC
330
1F
100
AcDbEntity
  8
AM_2
100
AcDbLine
 10
269.0230542555561
 20
65.74935592548024
 30
0.0
 11
269.0230542555561
 21
25.74936392548023
 31
0.0
  0
LINE
  5
B7ED
330
1F
100
AcDbEntity
  8
AM_2
100
AcDbLine
 10
253.0230542555561
 20
65.74935592548024
 30
0.0
 11
253.0230542555561
 21
25.74936392548023
 31
0.0
  0
LINE
  5
B7EE
330
1F
100
AcDbEntity
  8
AM_2
100
AcDbLine
 10
317.0230182555561
 20
65.74935592548024
 30
0.0
 11
317.0230182555561
 21
25.74936392548023
 31
0.0
  0
LINE
  5
B7EF
330
1F
100
AcDbEntity
  8
AM_2
100
AcDbLine
 10
221.0230542555561
 20
65.74935592548024
 30
0.0
 11
221.0230542555561
 21
25.74936392548023
 31
0.0
  0
LINE
  5
B7F0
330
1F
100
AcDbEntity
  8
AM_2
100
AcDbLine
 10
205.0230542555561
 20
65.74935592548024
 30
0.0
 11
205.0230542555561
 21
25.74936392548023
 31
0.0
  0
LINE
  5
B7F1
330
1F
100
AcDbEntity
  8
AM_2
100
AcDbLine
 10
79.02305825555612
 20
57.74935592548025
 30
0.0
 11
351.0230182555561
 21
57.74935592548025
 31
0.0
  0
LINE
  5
B7F2
330
1F
100
AcDbEntity
  8
AM_2
100
AcDbLine
 10
79.02305825555612
 20
41.74936392548024
 30
0.0
 11
351.0230182555561
 21
41.74936392548024
 31
0.0
  0
LINE
  5
B7F3
330
1F
100
AcDbEntity
  8
AM_2
100
AcDbLine
 10
301.0230282555562
 20
65.74935592548024
 30
0.0
 11
301.0230282555562
 21
25.74936392548023
 31
0.0
  0
LINE
  5
B7F4
330
1F
100
AcDbEntity
  8
AM_2
100
AcDbLine
 10
285.0230542555561
 20
65.74935592548024
 30
0.0
 11
285.0230542555561
 21
25.74936392548023
 31
0.0
  0
LINE
  5
B7F5
330
1F
100
AcDbEntity
  8
AM_2
100
AcDbLine
 10
79.02305825555612
 20
49.74935592548021
 30
0.0
 11
351.0230182555561
 21
49.74935592548021
 31
0.0
  0
LINE
  5
B7F6
330
1F
100
AcDbEntity
  8
AM_2
100
AcDbLine
 10
351.0230182555561
 20
65.74935592548024
 30
0.0
 11
351.0230182555561
 21
25.74936392548023
 31
0.0
  0
LINE
  5
B7F7
330
1F
100
AcDbEntity
  8
AM_0
100
AcDbLine
 10
143.0925963183274
 20
124.8797315349756
 30
0.0
 11
232.0925983183274
 21
124.8797315349756
 31
0.0
  0
LINE
  5
B7F8
330
1F
100
AcDbEntity
  8
AM_0
100
AcDbLine
 10
159.0925963183274
 20
126.2797315349756
 30
0.0
 11
159.0925963183274
 21
129.7797315349756
 31
0.0
  0
LINE
  5
B7F9
330
1F
100
AcDbEntity
  8
AM_0
100
AcDbLine
 10
212.5925983183274
 20
129.7797315349756
 30
0.0
 11
212.5925983183274
 21
142.2797315349756
 31
0.0
  0
LINE
  5
B7FA
330
1F
100
AcDbEntity
  8
AM_0
100
AcDbLine
 10
182.3964333183274
 20
148.9363245349756
 30
0.0
 11
182.3964333183274
 21
145.2797315349755
 31
0.0
  0
LINE
  5
B7FB
330
1F
100
AcDbEntity
  8
AM_0
100
AcDbLine
 10
170.0925961383274
 20
196.5297275349755
 30
0.0
 11
205.0925983183275
 21
196.5297275349755
 31
0.0
  0
LINE
  5
B7FC
330
1F
100
AcDbEntity
  8
AM_0
100
AcDbLine
 10
182.9912323183274
 20
149.2797315349756
 30
0.0
 11
192.1939603183274
 21
149.2797315349756
 31
0.0
  0
LINE
  5
B7FD
330
1F
100
AcDbEntity
  8
AM_0
100
AcDbLine
 10
143.0925963183274
 20
145.2797315349755
 30
0.0
 11
232.0925983183274
 21
145.2797315349755
 31
0.0
  0
LINE
  5
B7FE
330
1F
100
AcDbEntity
  8
AM_7
100
AcDbLine
 10
140.0925963183274
 20
134.2797315349756
 30
0.0
 11
235.0925983183275
 21
134.2797315349756
 31
0.0
  0
LINE
  5
B7FF
330
1F
100
AcDbEntity
  8
AM_0
100
AcDbLine
 10
184.9945093183274
 20
202.0297275349756
 30
0.0
 11
190.1906703183274
 21
202.0297275349756
 31
0.0
  0
LINE
  5
B800
330
1F
100
AcDbEntity
  8
AM_0
100
AcDbLine
 10
143.0925963183274
 20
240.5297375349756
 30
0.0
 11
232.0925983183274
 21
240.5297375349756
 31
0.0
  0
LINE
  5
B801
330
1F
100
AcDbEntity
  8
AM_7
 48
1.3
100
AcDbLine
 10
187.5925963183274
 20
243.5297375349756
 30
0.0
 11
187.5925963183274
 21
175.0297275349755
 31
0.0
  0
LINE
  5
B802
330
1F
100
AcDbEntity
  8
AM_0
100
AcDbLine
 10
159.0925963183274
 20
129.7797315349756
 30
0.0
 11
216.0925983183275
 21
129.7797315349756
 31
0.0
  0
LINE
  5
B803
330
1F
100
AcDbEntity
  8
AM_0
100
AcDbLine
 10
159.0925963183274
 20
126.2797315349756
 30
0.0
 11
216.0925983183275
 21
126.2797315349756
 31
0.0
  0
LINE
  5
B804
330
1F
100
AcDbEntity
  8
AM_0
100
AcDbLine
 10
182.9912323183274
 20
119.2797315349755
 30
0.0
 11
192.1939603183274
 21
119.2797315349755
 31
0.0
  0
LINE
  5
B805
330
1F
100
AcDbEntity
  8
AM_0
100
AcDbLine
 10
184.9945123183274
 20
211.0297275349755
 30
0.0
 11
190.1906683183274
 21
211.0297275349755
 31
0.0
  0
LINE
  5
B806
330
1F
100
AcDbEntity
  8
AM_0
100
AcDbLine
 10
143.0925963183274
 20
145.2797315349755
 30
0.0
 11
143.0925963183274
 21
123.2797315349756
 31
0.0
  0
LINE
  5
B807
330
1F
100
AcDbEntity
  8
AM_0
100
AcDbLine
 10
143.0925963183274
 20
123.2797315349756
 30
0.0
 11
232.0925983183274
 21
123.2797315349756
 31
0.0
  0
LINE
  5
B808
330
1F
100
AcDbEntity
  8
AM_0
100
AcDbLine
 10
216.0925983183275
 20
126.2797315349756
 30
0.0
 11
216.0925983183275
 21
129.7797315349756
 31
0.0
  0
LINE
  5
B809
330
1F
100
AcDbEntity
  8
AM_0
100
AcDbLine
 10
182.0925963183274
 20
143.6797335349756
 30
0.0
 11
182.0925963183274
 21
142.2797315349756
 31
0.0
  0
LINE
  5
B80A
330
1F
100
AcDbEntity
  8
AM_0
100
AcDbLine
 10
170.0926010583274
 20
196.5297275349755
 30
0.0
 11
143.0926023183275
 21
224.5297275349756
 31
0.0
  0
LINE
  5
B80B
330
1F
100
AcDbEntity
  8
AM_0
100
AcDbLine
 10
190.1906663183274
 20
148.9363365349755
 30
0.0
 11
190.1906663183274
 21
145.2797315349755
 31
0.0
  0
LINE
  5
B80C
330
1F
100
AcDbEntity
  8
AM_0
100
AcDbLine
 10
232.0925983183274
 20
145.2797315349755
 30
0.0
 11
232.0925983183274
 21
123.2797315349756
 31
0.0
  0
LINE
  5
B80D
330
1F
100
AcDbEntity
  8
AM_0
100
AcDbLine
 10
184.9945103183274
 20
148.9363325349756
 30
0.0
 11
184.9945103183274
 21
145.2797315349755
 31
0.0
  0
LINE
  5
B80E
330
1F
100
AcDbEntity
  8
AM_0
100
AcDbLine
 10
162.5925961183274
 20
129.7797315349756
 30
0.0
 11
162.5925961183274
 21
142.2797315349756
 31
0.0
  0
LINE
  5
B80F
330
1F
100
AcDbEntity
  8
AM_0
100
AcDbLine
 10
143.0925963183274
 20
143.6797335349756
 30
0.0
 11
232.0925983183274
 21
143.6797335349756
 31
0.0
  0
LINE
  5
B810
330
1F
100
AcDbEntity
  8
AM_0
100
AcDbLine
 10
190.1906703183274
 20
202.0297275349756
 30
0.0
 11
192.7887463183274
 21
206.5297275349756
 31
0.0
  0
LINE
  5
B811
330
1F
100
AcDbEntity
  8
AM_0
100
AcDbLine
 10
184.9945013183274
 20
202.0297375349756
 30
0.0
 11
182.3964283183274
 21
206.5297275349756
 31
0.0
  0
LINE
  5
B812
330
1F
100
AcDbEntity
  8
AM_0
100
AcDbLine
 10
192.7887443183274
 20
148.9363365349755
 30
0.0
 11
192.7887443183274
 21
145.2797315349755
 31
0.0
  0
LINE
  5
B813
330
1F
100
AcDbEntity
  8
AM_0
100
AcDbLine
 10
232.0925983183274
 20
240.5297375349756
 30
0.0
 11
232.0925983183274
 21
224.5297375349756
 31
0.0
  0
LINE
  5
B814
330
1F
100
AcDbEntity
  8
AM_0
100
AcDbLine
 10
182.3964343183274
 20
206.5297275349756
 30
0.0
 11
184.9945133183274
 21
211.0297275349755
 31
0.0
  0
LINE
  5
B815
330
1F
100
AcDbEntity
  8
AM_0
100
AcDbLine
 10
162.5925961183274
 20
142.2797315349756
 30
0.0
 11
212.5925983183274
 21
142.2797315349756
 31
0.0
  0
LINE
  5
B816
330
1F
100
AcDbEntity
  8
AM_0
100
AcDbLine
 10
192.7887383183274
 20
206.5297375349756
 30
0.0
 11
190.1906623183274
 21
211.0297375349756
 31
0.0
  0
LINE
  5
B817
330
1F
100
AcDbEntity
  8
AM_0
100
AcDbLine
 10
190.1906663183274
 20
119.6231265349755
 30
0.0
 11
190.1906663183274
 21
122.7797315349756
 31
0.0
  0
LINE
  5
B818
330
1F
100
AcDbEntity
  8
AM_7
 48
0.8
100
AcDbLine
 10
152.5925963183274
 20
141.7797315349756
 30
0.0
 11
152.5925963183274
 21
126.7797315349756
 31
0.0
  0
LINE
  5
B819
330
1F
100
AcDbEntity
  8
AM_0
100
AcDbLine
 10
192.7887483183274
 20
148.9363365349755
 30
0.0
 11
192.1939693183274
 21
149.2797315349756
 31
0.0
  0
LINE
  5
B81A
330
1F
100
AcDbEntity
  8
AM_0
100
AcDbLine
 10
143.0925963183274
 20
240.5297375349756
 30
0.0
 11
143.0925963183274
 21
224.5297375349756
 31
0.0
  0
LINE
  5
B81B
330
1F
100
AcDbEntity
  8
AM_7
 48
0.8
100
AcDbLine
 10
222.5925983183275
 20
141.7797315349756
 30
0.0
 11
222.5925983183275
 21
126.7797315349756
 31
0.0
  0
LINE
  5
B81C
330
1F
100
AcDbEntity
  8
AM_0
100
AcDbLine
 10
170.0925961383274
 20
145.2797315349755
 30
0.0
 11
170.0925961383274
 21
143.6797335349756
 31
0.0
  0
LINE
  5
B81D
330
1F
100
AcDbEntity
  8
AM_7
100
AcDbLine
 10
156.0925963183274
 20
206.5297275349756
 30
0.0
 11
219.0925963183275
 21
206.5297275349756
 31
0.0
  0
LINE
  5
B81E
330
1F
100
AcDbEntity
  8
AM_0
100
AcDbLine
 10
205.0925943183274
 20
196.5297275349755
 30
0.0
 11
232.0925903183274
 21
224.5297275349756
 31
0.0
  0
LINE
  5
B81F
330
1F
100
AcDbEntity
  8
AM_0
100
AcDbLine
 10
182.3964483183274
 20
148.9363325349756
 30
0.0
 11
182.9912263183274
 21
149.2797275349756
 31
0.0
  0
LINE
  5
B820
330
1F
100
AcDbEntity
  8
AM_0
100
AcDbLine
 10
205.0925983183275
 20
124.8797315349756
 30
0.0
 11
205.0925983183275
 21
123.2797315349756
 31
0.0
  0
LINE
  5
B821
330
1F
100
AcDbEntity
  8
AM_0
100
AcDbLine
 10
182.3964333183274
 20
119.6231385349756
 30
0.0
 11
182.3964333183274
 21
122.7797315349756
 31
0.0
  0
LINE
  5
B822
330
1F
100
AcDbEntity
  8
AM_0
100
AcDbLine
 10
205.0925983183275
 20
145.2797315349755
 30
0.0
 11
205.0925983183275
 21
143.6797335349756
 31
0.0
  0
LINE
  5
B823
330
1F
100
AcDbEntity
  8
AM_0
100
AcDbLine
 10
170.0925961383274
 20
124.8797315349756
 30
0.0
 11
170.0925961383274
 21
123.2797315349756
 31
0.0
  0
LINE
  5
B824
330
1F
100
AcDbEntity
  8
AM_0
100
AcDbLine
 10
193.0925963183274
 20
143.6797335349756
 30
0.0
 11
193.0925963183274
 21
142.2797315349756
 31
0.0
  0
LINE
  5
B825
330
1F
100
AcDbEntity
  8
AM_0
100
AcDbLine
 10
182.0925963183274
 20
126.2797315349756
 30
0.0
 11
182.0925963183274
 21
124.8797315349756
 31
0.0
  0
LINE
  5
B826
330
1F
100
AcDbEntity
  8
AM_0
100
AcDbLine
 10
193.0925963183274
 20
126.2797315349756
 30
0.0
 11
193.0925963183274
 21
124.8797315349756
 31
0.0
  0
LINE
  5
B827
330
1F
100
AcDbEntity
  8
AM_0
100
AcDbLine
 10
192.7887443183274
 20
119.6231265349755
 30
0.0
 11
192.7887443183274
 21
122.7797315349756
 31
0.0
  0
LINE
  5
B828
330
1F
100
AcDbEntity
  8
AM_0
100
AcDbLine
 10
182.3964483183274
 20
119.6231245349756
 30
0.0
 11
182.9912253183274
 21
119.2797295349756
 31
0.0
  0
LINE
  5
B829
330
1F
100
AcDbEntity
  8
AM_0
100
AcDbLine
 10
184.9945103183274
 20
119.6231305349756
 30
0.0
 11
184.9945103183274
 21
122.7797315349756
 31
0.0
  0
LINE
  5
B82A
330
1F
100
AcDbEntity
  8
AM_0
100
AcDbLine
 10
192.7887463183274
 20
119.6231305349756
 30
0.0
 11
192.1939683183274
 21
119.2797355349756
 31
0.0
  0
LINE
  5
B82B
330
1F
100
AcDbEntity
  8
AM_7
100
AcDbLine
 10
187.5925963183274
 20
152.2797315349755
 30
0.0
 11
187.5925963183274
 21
115.7797315349756
 31
0.0
  0
LINE
  5
B82C
330
1F
100
AcDbEntity
  8
AM_0
100
AcDbLine
 10
181.5925963183274
 20
122.7797315349756
 30
0.0
 11
193.5925963183274
 21
122.7797315349756
 31
0.0
  0
LINE
  5
B82D
330
1F
100
AcDbEntity
  8
AM_0
100
AcDbLine
 10
193.5925963183274
 20
123.2797315349756
 30
0.0
 11
193.5925963183274
 21
122.7797315349756
 31
0.0
  0
LINE
  5
B82E
330
1F
100
AcDbEntity
  8
AM_0
100
AcDbLine
 10
181.5925963183274
 20
123.2797315349756
 30
0.0
 11
181.5925963183274
 21
122.7797315349756
 31
0.0
  0
LINE
  5
B82F
330
1F
100
AcDbEntity
  8
AM_0
100
AcDbLine
 10
185.0925963183274
 20
118.7797315349756
 30
0.0
 11
190.0925963183274
 21
118.7797315349756
 31
0.0
  0
LINE
  5
B830
330
1F
100
AcDbEntity
  8
AM_0
100
AcDbLine
 10
190.0925963183274
 20
119.2797315349755
 30
0.0
 11
190.0925963183274
 21
118.7797315349756
 31
0.0
  0
LINE
  5
B831
330
1F
100
AcDbEntity
  8
AM_0
100
AcDbLine
 10
185.0925963183274
 20
119.2797315349755
 30
0.0
 11
185.0925963183274
 21
118.7797315349756
 31
0.0
  0
LINE
  5
B832
330
1F
100
AcDbEntity
  8
AM_2
100
AcDbLine
 10
189.5925963183274
 20
119.2797315349755
 30
0.0
 11
189.5925963183274
 21
118.7797315349756
 31
0.0
  0
LINE
  5
B833
330
1F
100
AcDbEntity
  8
AM_2
100
AcDbLine
 10
185.5925963183274
 20
119.2797315349755
 30
0.0
 11
185.5925963183274
 21
118.7797315349756
 31
0.0
  0
LINE
  5
B834
330
1F
100
AcDbEntity
  8
AM_2
100
AcDbLine
 10
79.02305825555612
 20
33.74936392548026
 30
0.0
 11
351.0230182555561
 21
33.74936392548026
 31
0.0
  0
LINE
  5
B835
330
1F
100
AcDbEntity
  8
AM_2
100
AcDbLine
 10
79.02305825555612
 20
25.74936392548023
 30
0.0
 11
351.0230182555561
 21
25.74936392548023
 31
0.0
  0
CIRCLE
  5
B836
330
1F
100
AcDbEntity
  8
AM_0
100
AcDbCircle
 10
152.5925963183274
 20
134.2797315349756
 30
0.0
 40
3.5
  0
CIRCLE
  5
B837
330
1F
100
AcDbEntity
  8
AM_0
100
AcDbCircle
 10
222.5925983183275
 20
134.2797315349756
 30
0.0
 40
3.5
  0
ARC
  5
B838
330
1F
100
AcDbEntity
  8
AM_0
100
AcDbCircle
 10
192.8730753183274
 20
139.3028185349756
 30
0.0
 40
10.0
100
AcDbArc
 50
93.89403000000046
 51
105.5596399999995
  0
ARC
  5
B839
330
1F
100
AcDbEntity
  8
AM_0
100
AcDbCircle
 10
182.3121163183274
 20
139.3028185349756
 30
0.0
 40
10.0
100
AcDbArc
 50
74.44031700000116
 51
86.10593199999987
  0
ARC
  5
B83A
330
1F
100
AcDbEntity
  8
AM_0
100
AcDbCircle
 10
187.5925963183274
 20
206.5297275349756
 30
0.0
 40
28.5
100
AcDbArc
 50
177.2385299999997
 51
2.761489099999879
  0
ARC
  5
B83B
330
1F
100
AcDbEntity
  8
AM_0
100
AcDbCircle
 10
192.8730753183274
 20
129.2566455349756
 30
0.0
 40
10.0
100
AcDbArc
 50
254.4403000000023
 51
266.1059199999981
  0
ARC
  5
B83C
330
1F
100
AcDbEntity
  8
AM_0
100
AcDbCircle
 10
187.5925963183274
 20
129.2797315349756
 30
0.0
 40
10.0
100
AcDbArc
 50
254.9412299999978
 51
285.0585500000002
  0
ARC
  5
B83D
330
1F
100
AcDbEntity
  8
AM_0
100
AcDbCircle
 10
187.5925963183274
 20
139.2797315349756
 30
0.0
 40
10.0
100
AcDbArc
 50
74.9413869999978
 51
105.05872
  0
CIRCLE
  5
B83E
330
1F
100
AcDbEntity
  8
AM_2
100
AcDbCircle
 10
187.5925963183274
 20
206.5297275349756
 30
0.0
 40
4.5
  0
ARC
  5
B83F
330
1F
100
AcDbEntity
  8
AM_0
100
AcDbCircle
 10
182.3121163183274
 20
129.2566455349756
 30
0.0
 40
10.0
100
AcDbArc
 50
273.8940099999989
 51
285.5596199999995
  0
ARC
  5
B840
330
1F
100
AcDbEntity
  8
AM_0
100
AcDbCircle
 10
187.5925963183274
 20
206.5297275349756
 30
0.0
 40
25.0
100
AcDbArc
 50
185.3606399999999
 51
354.6393399999997
  0
TEXT
  5
B841
330
1F
100
AcDbEntity
  8
AM_6
100
AcDbText
 10
81.62960825555614
 20
43.34935592548022
 30
0.0
 40
4.8000002
  1
ＳＴ－１６３－２
 41
0.5660139600000001
100
AcDbText
  0
TEXT
  5
B842
330
1F
100
AcDbEntity
  8
AM_6
100
AcDbText
 10
81.62960825555614
 20
35.34936392548026
 30
0.0
 40
4.8000002
  1
ＳＴ－１６３－３
 41
0.5660139600000001
100
AcDbText
  0
TEXT
  5
B843
330
1F
100
AcDbEntity
  8
AM_6
100
AcDbText
 10
304.9087382555561
 20
59.34935592548022
 30
0.0
 40
4.8000002
  1
枠ｔ
 41
0.8643459000000001
100
AcDbText
  0
TEXT
  5
B844
330
1F
100
AcDbEntity
  8
AM_6
100
AcDbText
 10
319.0230182555561
 20
35.34936392548026
 30
0.0
 40
4.8000002
  1
１，２００ｋｇ／２コ
 41
0.54332075
100
AcDbText
  0
TEXT
  5
B845
330
1F
100
AcDbEntity
  8
AM_6
100
AcDbText
 10
319.0230182555561
 20
43.34935592548022
 30
0.0
 40
4.8000002
  1
　　６００ｋｇ／２コ
 41
0.54332075
100
AcDbText
  0
TEXT
  5
B846
330
1F
100
AcDbEntity
  8
AM_6
100
AcDbText
 10
319.0230182555561
 20
51.34935592548024
 30
0.0
 40
4.8000002
  1
　　５００ｋｇ／２コ
 41
0.54332075
100
AcDbText
  0
TEXT
  5
B847
330
1F
100
AcDbEntity
  8
AM_6
100
AcDbText
 10
322.7087282555562
 20
59.34935592548022
 30
0.0
 40
4.8000002
  1
標準耐荷重
 41
0.84891105
100
AcDbText
  0
TEXT
  5
B848
330
1F
100
AcDbEntity
  8
AM_6
100
AcDbText
 10
290.0230582555561
 20
35.34936392548026
 30
0.0
 40
4.8000002
  1
８１
 41
0.6302521
100
AcDbText
  0
TEXT
  5
B849
330
1F
100
AcDbEntity
  8
AM_6
100
AcDbText
 10
258.0230542555561
 20
35.34936392548026
 30
0.0
 40
4.8000002
  1
１６
 41
0.6302521
100
AcDbText
  0
TEXT
  5
B84A
330
1F
100
AcDbEntity
  8
AM_6
100
AcDbText
 10
241.4230552555561
 20
35.34936392548026
 30
0.0
 40
4.8000002
  1
３１
 41
0.75630227
100
AcDbText
  0
TEXT
  5
B84B
330
1F
100
AcDbEntity
  8
AM_6
100
AcDbText
 10
226.0230542555561
 20
35.34936392548026
 30
0.0
 40
4.8000002
  1
４２
 41
0.6302521
100
AcDbText
  0
TEXT
  5
B84C
330
1F
100
AcDbEntity
  8
AM_6
100
AcDbText
 10
210.0230542555561
 20
35.34936392548026
 30
0.0
 40
4.8000002
  1
５６
 41
0.6302521
100
AcDbText
  0
TEXT
  5
B84D
330
1F
100
AcDbEntity
  8
AM_6
100
AcDbText
 10
160.273054255556
 20
35.34936392548026
 30
0.0
 40
4.8000002
  1
１３０
 41
0.62368693
100
AcDbText
  0
TEXT
  5
B84E
330
1F
100
AcDbEntity
  8
AM_6
100
AcDbText
 10
144.273054255556
 20
35.34936392548026
 30
0.0
 40
4.8000002
  1
１１０
 41
0.62368693
100
AcDbText
  0
TEXT
  5
B84F
330
1F
100
AcDbEntity
  8
AM_6
100
AcDbText
 10
128.5230542555561
 20
35.34936392548026
 30
0.0
 40
4.8000002
  1
１８５
 41
0.5908613400000001
100
AcDbText
  0
TEXT
  5
B850
330
1F
100
AcDbEntity
  8
AM_6
100
AcDbText
 10
112.5230542555561
 20
35.34936392548026
 30
0.0
 40
4.8000002
  1
２５０
 41
0.5908613100000001
100
AcDbText
  0
TEXT
  5
B851
330
1F
100
AcDbEntity
  8
AM_6
100
AcDbText
 10
307.5230282555561
 20
35.34936392548026
 30
0.0
 40
4.8000002
  1
４
 41
0.78781509
100
AcDbText
  0
TEXT
  5
B852
330
1F
100
AcDbEntity
  8
AM_6
100
AcDbText
 10
290.0230582555561
 20
43.34935592548022
 30
0.0
 40
4.8000002
  1
７５
 41
0.6302521
100
AcDbText
  0
TEXT
  5
B853
330
1F
100
AcDbEntity
  8
AM_6
100
AcDbText
 10
274.2537462555562
 20
43.34935592548022
 30
0.0
 40
4.8000002
  1
１０
 41
0.58178744
100
AcDbText
  0
TEXT
  5
B854
330
1F
100
AcDbEntity
  8
AM_6
100
AcDbText
 10
258.0230542555561
 20
43.34935592548022
 30
0.0
 40
4.8000002
  1
１４
 41
0.6302521
100
AcDbText
  0
TEXT
  5
B855
330
1F
100
AcDbEntity
  8
AM_6
100
AcDbText
 10
242.1809492555561
 20
43.34935592548022
 30
0.0
 40
4.8000002
  1
２８
 41
0.5970809400000002
100
AcDbText
  0
TEXT
  5
B856
330
1F
100
AcDbEntity
  8
AM_6
100
AcDbText
 10
226.0230542555561
 20
43.34935592548022
 30
0.0
 40
4.8000002
  1
３８
 41
0.6302521
100
AcDbText
  0
TEXT
  5
B857
330
1F
100
AcDbEntity
  8
AM_6
100
AcDbText
 10
210.0230542555561
 20
43.34935592548022
 30
0.0
 40
4.8000002
  1
５２
 41
0.6302521
100
AcDbText
  0
TEXT
  5
B858
330
1F
100
AcDbEntity
  8
AM_6
100
AcDbText
 10
192.2730546555561
 20
43.34935592548022
 30
0.0
 40
4.8000002
  1
１２０
 41
0.62368693
100
AcDbText
  0
TEXT
  5
B859
330
1F
100
AcDbEntity
  8
AM_6
100
AcDbText
 10
176.2730537555561
 20
43.34935592548022
 30
0.0
 40
4.8000002
  1
１１０
 41
0.62368693
100
AcDbText
  0
TEXT
  5
B85A
330
1F
100
AcDbEntity
  8
AM_6
100
AcDbText
 10
160.273054255556
 20
43.34935592548022
 30
0.0
 40
4.8000002
  1
１１０
 41
0.62368693
100
AcDbText
  0
TEXT
  5
B85B
330
1F
100
AcDbEntity
  8
AM_6
100
AcDbText
 10
146.0230542555561
 20
43.34935592548022
 30
0.0
 40
4.8000002
  1
９０
 41
0.6302521
100
AcDbText
  0
TEXT
  5
B85C
330
1F
100
AcDbEntity
  8
AM_6
100
AcDbText
 10
128.2730542555561
 20
43.34935592548022
 30
0.0
 40
4.8000002
  1
１３０
 41
0.62368693
100
AcDbText
  0
TEXT
  5
B85D
330
1F
100
AcDbEntity
  8
AM_6
100
AcDbText
 10
112.5230542555561
 20
43.34935592548022
 30
0.0
 40
4.8000002
  1
１８０
 41
0.5908613100000001
100
AcDbText
  0
TEXT
  5
B85E
330
1F
100
AcDbEntity
  8
AM_6
100
AcDbText
 10
307.5230282555561
 20
43.34935592548022
 30
0.0
 40
4.8000002
  1
４
 41
0.78781509
100
AcDbText
  0
TEXT
  5
B85F
330
1F
100
AcDbEntity
  8
AM_6
100
AcDbText
 10
81.62960825555614
 20
51.34935592548024
 30
0.0
 40
4.8000002
  1
ＳＴ－１６３－１
 41
0.5660139600000001
100
AcDbText
  0
TEXT
  5
B860
330
1F
100
AcDbEntity
  8
AM_6
100
AcDbText
 10
290.0230582555561
 20
51.34935592548024
 30
0.0
 40
4.8000002
  1
６５
 41
0.6302521
100
AcDbText
  0
TEXT
  5
B861
330
1F
100
AcDbEntity
  8
AM_6
100
AcDbText
 10
192.2730547555561
 20
51.34935592548024
 30
0.0
 40
4.8000002
  1
１００
 41
0.6236869000000002
100
AcDbText
  0
TEXT
  5
B862
330
1F
100
AcDbEntity
  8
AM_6
100
AcDbText
 10
258.0230542555561
 20
51.34935592548024
 30
0.0
 40
4.8000002
  1
１４
 41
0.6302521
100
AcDbText
  0
TEXT
  5
B863
330
1F
100
AcDbEntity
  8
AM_6
100
AcDbText
 10
112.5230542555561
 20
51.34935592548024
 30
0.0
 40
4.8000002
  1
１６０
 41
0.5908613100000001
100
AcDbText
  0
TEXT
  5
B864
330
1F
100
AcDbEntity
  8
AM_6
100
AcDbText
 10
175.4980667106055
 20
51.34935592548024
 30
0.0
 40
4.8000002
  1
９２.５
 41
0.6302521
100
AcDbText
  0
TEXT
  5
B865
330
1F
100
AcDbEntity
  8
AM_6
100
AcDbText
 10
242.1809492555561
 20
51.34935592548024
 30
0.0
 40
4.8000002
  1
２６
 41
0.5970809400000002
100
AcDbText
  0
TEXT
  5
B866
330
1F
100
AcDbEntity
  8
AM_6
100
AcDbText
 10
226.0230542555561
 20
51.34935592548024
 30
0.0
 40
4.8000002
  1
３４
 41
0.6302521
100
AcDbText
  0
TEXT
  5
B867
330
1F
100
AcDbEntity
  8
AM_6
100
AcDbText
 10
210.0230542555561
 20
51.34935592548024
 30
0.0
 40
4.8000002
  1
４６
 41
0.6302521
100
AcDbText
  0
TEXT
  5
B868
330
1F
100
AcDbEntity
  8
AM_6
100
AcDbText
 10
146.0230542555561
 20
51.34935592548024
 30
0.0
 40
4.8000002
  1
７５
 41
0.6302521
100
AcDbText
  0
TEXT
  5
B869
330
1F
100
AcDbEntity
  8
AM_6
100
AcDbText
 10
307.8388082555561
 20
51.34935592548024
 30
0.0
 40
4.8000002
  1
４
 41
0.6219594800000002
100
AcDbText
  0
TEXT
  5
B86A
330
1F
100
AcDbEntity
  8
AM_6
100
AcDbText
 10
162.023054255556
 20
51.34935592548024
 30
0.0
 40
4.8000002
  1
９０
 41
0.6302521
100
AcDbText
  0
TEXT
  5
B86B
330
1F
100
AcDbEntity
  8
AM_6
100
AcDbText
 10
243.3087682555561
 20
59.34935592548022
 30
0.0
 40
4.8000002
  1
Ｉ
 41
0.90036056
100
AcDbText
  0
TEXT
  5
B86C
330
1F
100
AcDbEntity
  8
AM_6
100
AcDbText
 10
275.3087682555561
 20
59.34935592548022
 30
0.0
 40
4.8000002
  1
Ｋ
 41
0.90036056
100
AcDbText
  0
TEXT
  5
B86D
330
1F
100
AcDbEntity
  8
AM_6
100
AcDbText
 10
259.3087682555561
 20
59.34935592548022
 30
0.0
 40
4.8000002
  1
Ｊ
 41
0.90036056
100
AcDbText
  0
TEXT
  5
B86E
330
1F
100
AcDbEntity
  8
AM_6
100
AcDbText
 10
89.90876825555607
 20
59.34935592548022
 30
0.0
 40
4.8000002
  1
品番
 41
0.8643459000000001
100
AcDbText
  0
TEXT
  5
B86F
330
1F
100
AcDbEntity
  8
AM_6
100
AcDbText
 10
291.3087682555561
 20
59.34935592548022
 30
0.0
 40
4.8000002
  1
Ｌ
 41
0.90036056
100
AcDbText
  0
TEXT
  5
B870
330
1F
100
AcDbEntity
  8
AM_6
100
AcDbText
 10
163.3087682555561
 20
59.34935592548022
 30
0.0
 40
4.8000002
  1
Ｄ
 41
0.90036056
100
AcDbText
  0
TEXT
  5
B871
330
1F
100
AcDbEntity
  8
AM_6
100
AcDbText
 10
179.3087668555561
 20
59.34935592548022
 30
0.0
 40
4.8000002
  1
Ｅ
 41
0.90036056
100
AcDbText
  0
TEXT
  5
B872
330
1F
100
AcDbEntity
  8
AM_6
100
AcDbText
 10
195.3087678555561
 20
59.34935592548022
 30
0.0
 40
4.8000002
  1
Ｆ
 41
0.90036056
100
AcDbText
  0
TEXT
  5
B873
330
1F
100
AcDbEntity
  8
AM_6
100
AcDbText
 10
227.3087682555561
 20
59.34935592548022
 30
0.0
 40
4.8000002
  1
Ｈ
 41
0.90036056
100
AcDbText
  0
TEXT
  5
B874
330
1F
100
AcDbEntity
  8
AM_6
100
AcDbText
 10
211.3087682555561
 20
59.34935592548022
 30
0.0
 40
4.8000002
  1
Ｇ
 41
0.90036056
100
AcDbText
  0
TEXT
  5
B875
330
1F
100
AcDbEntity
  8
AM_6
100
AcDbText
 10
147.3087682555561
 20
59.34935592548022
 30
0.0
 40
4.8000002
  1
Ｃ
 41
0.90036056
100
AcDbText
  0
TEXT
  5
B876
330
1F
100
AcDbEntity
  8
AM_6
100
AcDbText
 10
115.3087682555561
 20
59.34935592548022
 30
0.0
 40
4.8000002
  1
Ａ
 41
0.90036056
100
AcDbText
  0
TEXT
  5
B877
330
1F
100
AcDbEntity
  8
AM_6
100
AcDbText
 10
275.8690922555561
 20
51.34935592548024
 30
0.0
 40
4.8000002
  1
８
 41
0.60607278
100
AcDbText
  0
TEXT
  5
B878
330
1F
100
AcDbEntity
  8
AM_6
100
AcDbText
 10
131.3087682555561
 20
59.34935592548022
 30
0.0
 40
4.8000002
  1
Ｂ
 41
0.90036056
100
AcDbText
  0
TEXT
  5
B879
330
1F
100
AcDbEntity
  8
AM_6
100
AcDbText
 10
128.2730542555561
 20
51.34935592548024
 30
0.0
 40
4.8000002
  1
１２０
 41
0.62368693
100
AcDbText
  0
TEXT
  5
B87A
330
1F
100
AcDbEntity
  8
AM_6
100
AcDbText
 10
81.62960825555614
 20
27.34936392548025
 30
0.0
 40
4.8000002
  1
ＳＴ－１６３－４
 41
0.5660139600000001
100
AcDbText
  0
TEXT
  5
B87B
330
1F
100
AcDbEntity
  8
AM_6
100
AcDbText
 10
319.0230182555561
 20
27.34936392548025
 30
0.0
 40
4.8000002
  1
１，５００ｋｇ／２コ
 41
0.54332075
100
AcDbText
  0
TEXT
  5
B87C
330
1F
100
AcDbEntity
  8
AM_6
100
AcDbText
 10
288.2730582555561
 20
27.34936392548025
 30
0.0
 40
4.8000002
  1
１０２
 41
0.62368693
100
AcDbText
  0
TEXT
  5
B87D
330
1F
100
AcDbEntity
  8
AM_6
100
AcDbText
 10
258.0230542555561
 20
27.34936392548025
 30
0.0
 40
4.8000002
  1
２０
 41
0.6302521
100
AcDbText
  0
TEXT
  5
B87E
330
1F
100
AcDbEntity
  8
AM_6
100
AcDbText
 10
238.0230542555561
 20
27.34936392548025
 30
0.0
 40
4.8000002
  1
３９．５
 41
0.66844916
100
AcDbText
  0
TEXT
  5
B87F
330
1F
100
AcDbEntity
  8
AM_6
100
AcDbText
 10
226.0230542555561
 20
27.34936392548025
 30
0.0
 40
4.8000002
  1
５２
 41
0.6302521
100
AcDbText
  0
TEXT
  5
B880
330
1F
100
AcDbEntity
  8
AM_6
100
AcDbText
 10
210.0230542555561
 20
27.34936392548025
 30
0.0
 40
4.8000002
  1
７４
 41
0.6302521
100
AcDbText
  0
TEXT
  5
B881
330
1F
100
AcDbEntity
  8
AM_6
100
AcDbText
 10
192.2730545555561
 20
27.34936392548025
 30
0.0
 40
4.8000002
  1
１９０
 41
0.62368693
100
AcDbText
  0
TEXT
  5
B882
330
1F
100
AcDbEntity
  8
AM_6
100
AcDbText
 10
176.2730537555561
 20
27.34936392548025
 30
0.0
 40
4.8000002
  1
１７６
 41
0.62368693
100
AcDbText
  0
TEXT
  5
B883
330
1F
100
AcDbEntity
  8
AM_6
100
AcDbText
 10
160.273054255556
 20
27.34936392548025
 30
0.0
 40
4.8000002
  1
１５０
 41
0.62368693
100
AcDbText
  0
TEXT
  5
B884
330
1F
100
AcDbEntity
  8
AM_6
100
AcDbText
 10
144.273054255556
 20
27.34936392548025
 30
0.0
 40
4.8000002
  1
１２２
 41
0.62368693
100
AcDbText
  0
TEXT
  5
B885
330
1F
100
AcDbEntity
  8
AM_6
100
AcDbText
 10
128.5230542555561
 20
27.34936392548025
 30
0.0
 40
4.8000002
  1
２３０
 41
0.5908613400000001
100
AcDbText
  0
TEXT
  5
B886
330
1F
100
AcDbEntity
  8
AM_6
100
AcDbText
 10
112.5230542555561
 20
27.34936392548025
 30
0.0
 40
4.8000002
  1
３００
 41
0.5908613100000001
100
AcDbText
  0
TEXT
  5
B887
330
1F
100
AcDbEntity
  8
AM_6
100
AcDbText
 10
307.5230282555561
 20
27.34936392548025
 30
0.0
 40
4.8000002
  1
６
 41
0.78781509
100
AcDbText
  0
TEXT
  5
B888
330
1F
100
AcDbEntity
  8
AM_6
100
AcDbText
 10
270.5230552555561
 20
27.34936392548025
 30
0.0
 40
4.8000002
  1
１２．５
 41
0.62070277
100
AcDbText
  0
TEXT
  5
B889
330
1F
100
AcDbEntity
  8
AM_6
100
AcDbText
 10
274.2537462555562
 20
35.34935592548024
 30
0.0
 40
4.8000002
  1
１１
 41
0.58178744
100
AcDbText
  0
TEXT
  5
B88A
330
1F
100
AcDbEntity
  8
AM_6
100
AcDbText
 10
176.2730542555561
 20
35.34936392548026
 30
0.0
 40
4.8000002
  1
１３０
 41
0.62368693
100
AcDbText
  0
TEXT
  5
B88B
330
1F
100
AcDbEntity
  8
AM_6
100
AcDbText
 10
192.2730537555561
 20
35.34936392548026
 30
0.0
 40
4.8000002
  1
１４０
 41
0.62368693
100
AcDbText
  0
LINE
  5
B88C
330
1F
100
AcDbEntity
  8
AM_0
100
AcDbLine
 10
284.6587208796318
 20
238.9297375349756
 30
0.0
 11
284.6587208796318
 21
196.5297275349755
 31
0.0
  0
LINE
  5
B88D
330
1F
100
AcDbEntity
  8
AM_0
100
AcDbLine
 10
286.2587188796318
 20
238.9297375349756
 30
0.0
 11
286.2587188796318
 21
196.5297275349755
 31
0.0
  0
LINE
  5
B88E
330
1F
100
AcDbEntity
  8
AM_0
100
AcDbLine
 10
306.6587208796318
 20
238.9297375349756
 30
0.0
 11
306.6587208796318
 21
196.5297275349755
 31
0.0
  0
LINE
  5
B88F
330
1F
100
AcDbEntity
  8
AM_0
100
AcDbLine
 10
305.0587208796319
 20
238.9297375349756
 30
0.0
 11
305.0587208796319
 21
196.5297275349755
 31
0.0
  0
LINE
  5
B890
330
1F
100
AcDbEntity
  8
AM_0
100
AcDbLine
 10
286.2587208796318
 20
240.5297375349756
 30
0.0
 11
305.0587208796318
 21
240.5297375349756
 31
0.0
  0
LINE
  5
B891
330
1F
100
AcDbEntity
  8
AM_0
100
AcDbLine
 10
286.2587188796318
 20
238.9297375349756
 30
0.0
 11
305.0587208796319
 21
238.9297375349756
 31
0.0
  0
LINE
  5
B892
330
1F
100
AcDbEntity
  8
AM_0
100
AcDbLine
 10
284.6587208796318
 20
224.5297275349756
 30
0.0
 11
286.2587188796318
 21
224.5297275349756
 31
0.0
  0
LINE
  5
B893
330
1F
100
AcDbEntity
  8
AM_0
100
AcDbLine
 10
305.0587208796319
 20
224.5297275349756
 30
0.0
 11
306.6587208796318
 21
224.5297275349756
 31
0.0
  0
LINE
  5
B894
330
1F
100
AcDbEntity
  8
AM_0
100
AcDbLine
 10
284.6587208796318
 20
196.5297275349755
 30
0.0
 11
286.2587188796318
 21
196.5297275349755
 31
0.0
  0
LINE
  5
B895
330
1F
100
AcDbEntity
  8
AM_0
100
AcDbLine
 10
305.0587208796319
 20
196.5297275349755
 30
0.0
 11
306.6587208796318
 21
196.5297275349755
 31
0.0
  0
LINE
  5
B896
330
1F
100
AcDbEntity
  8
AM_0
100
AcDbLine
 10
303.6587208796318
 20
178.0297265349756
 30
0.0
 11
300.1587208796318
 21
178.0297265349756
 31
0.0
  0
LINE
  5
B897
330
1F
100
AcDbEntity
  8
AM_0
100
AcDbLine
 10
300.1587208796318
 20
231.5297285349756
 30
0.0
 11
287.6587208796319
 21
231.5297285349756
 31
0.0
  0
LINE
  5
B898
330
1F
100
AcDbEntity
  8
AM_0
100
AcDbLine
 10
281.0021278796318
 20
201.3335635349756
 30
0.0
 11
284.6587208796318
 21
201.3335635349756
 31
0.0
  0
LINE
  5
B899
330
1F
100
AcDbEntity
  8
AM_0
100
AcDbLine
 10
280.6587208796318
 20
201.9283625349757
 30
0.0
 11
280.6587208796319
 21
211.1310905349756
 31
0.0
  0
LINE
  5
B89A
330
1F
100
AcDbEntity
  8
AM_0
100
AcDbLine
 10
300.1587208796318
 20
178.0297265349756
 30
0.0
 11
300.1587208796318
 21
235.0297285349756
 31
0.0
  0
LINE
  5
B89B
330
1F
100
AcDbEntity
  8
AM_0
100
AcDbLine
 10
303.6587208796318
 20
178.0297265349756
 30
0.0
 11
303.6587208796318
 21
235.0297285349756
 31
0.0
  0
LINE
  5
B89C
330
1F
100
AcDbEntity
  8
AM_0
100
AcDbLine
 10
310.6587208796318
 20
201.9283625349757
 30
0.0
 11
310.6587208796318
 21
211.1310905349756
 31
0.0
  0
LINE
  5
B89D
330
1F
100
AcDbEntity
  8
AM_0
100
AcDbLine
 10
303.6587208796318
 20
235.0297285349756
 30
0.0
 11
300.1587208796318
 21
235.0297285349756
 31
0.0
  0
LINE
  5
B89E
330
1F
100
AcDbEntity
  8
AM_0
100
AcDbLine
 10
286.2587188796318
 20
201.0297265349756
 30
0.0
 11
287.6587208796319
 21
201.0297265349756
 31
0.0
  0
LINE
  5
B89F
330
1F
100
AcDbEntity
  8
AM_0
100
AcDbLine
 10
281.0021158796319
 20
209.1277965349756
 30
0.0
 11
284.6587208796318
 21
209.1277965349756
 31
0.0
  0
LINE
  5
B8A0
330
1F
100
AcDbEntity
  8
AM_0
100
AcDbLine
 10
281.0021198796318
 20
203.9316405349756
 30
0.0
 11
284.6587208796318
 21
203.9316405349756
 31
0.0
  0
LINE
  5
B8A1
330
1F
100
AcDbEntity
  8
AM_0
100
AcDbLine
 10
300.1587208796318
 20
181.5297263349755
 30
0.0
 11
287.6587208796319
 21
181.5297263349755
 31
0.0
  0
LINE
  5
B8A2
330
1F
100
AcDbEntity
  8
AM_0
100
AcDbLine
 10
281.0021158796319
 20
211.7258745349756
 30
0.0
 11
284.6587208796318
 21
211.7258745349756
 31
0.0
  0
LINE
  5
B8A3
330
1F
100
AcDbEntity
  8
AM_0
100
AcDbLine
 10
287.6587208796319
 20
181.5297263349755
 30
0.0
 11
287.6587208796319
 21
231.5297285349756
 31
0.0
  0
LINE
  5
B8A4
330
1F
100
AcDbEntity
  8
AM_0
100
AcDbLine
 10
310.3153258796318
 20
209.1277965349756
 30
0.0
 11
307.1587208796318
 21
209.1277965349756
 31
0.0
  0
LINE
  5
B8A5
330
1F
100
AcDbEntity
  8
AM_0
100
AcDbLine
 10
281.0021158796319
 20
211.7258785349756
 30
0.0
 11
280.6587208796319
 21
211.1310995349756
 31
0.0
  0
LINE
  5
B8A6
330
1F
100
AcDbEntity
  8
AM_0
100
AcDbLine
 10
281.0021198796318
 20
201.3335785349755
 30
0.0
 11
280.6587248796318
 21
201.9283565349756
 31
0.0
  0
LINE
  5
B8A7
330
1F
100
AcDbEntity
  8
AM_0
100
AcDbLine
 10
310.3153138796318
 20
201.3335635349756
 30
0.0
 11
307.1587208796318
 21
201.3335635349756
 31
0.0
  0
LINE
  5
B8A8
330
1F
100
AcDbEntity
  8
AM_0
100
AcDbLine
 10
286.2587188796318
 20
212.0297265349756
 30
0.0
 11
287.6587208796319
 21
212.0297265349756
 31
0.0
  0
LINE
  5
B8A9
330
1F
100
AcDbEntity
  8
AM_0
100
AcDbLine
 10
303.6587208796318
 20
201.0297265349756
 30
0.0
 11
305.0587208796319
 21
201.0297265349756
 31
0.0
  0
LINE
  5
B8AA
330
1F
100
AcDbEntity
  8
AM_0
100
AcDbLine
 10
303.6587208796318
 20
212.0297265349756
 30
0.0
 11
305.0587208796319
 21
212.0297265349756
 31
0.0
  0
LINE
  5
B8AB
330
1F
100
AcDbEntity
  8
AM_0
100
AcDbLine
 10
310.3153258796318
 20
211.7258745349756
 30
0.0
 11
307.1587208796318
 21
211.7258745349756
 31
0.0
  0
LINE
  5
B8AC
330
1F
100
AcDbEntity
  8
AM_0
100
AcDbLine
 10
310.3153278796318
 20
201.3335785349755
 30
0.0
 11
310.6587228796318
 21
201.9283555349756
 31
0.0
  0
LINE
  5
B8AD
330
1F
100
AcDbEntity
  8
AM_0
100
AcDbLine
 10
310.3153218796318
 20
203.9316405349756
 30
0.0
 11
307.1587208796318
 21
203.9316405349756
 31
0.0
  0
LINE
  5
B8AE
330
1F
100
AcDbEntity
  8
AM_0
100
AcDbLine
 10
310.3153218796318
 20
211.7258765349756
 30
0.0
 11
310.6587168796318
 21
211.1310985349756
 31
0.0
  0
LINE
  5
B8AF
330
1F
100
AcDbEntity
  8
AM_7
100
AcDbLine
 10
277.6587208796318
 20
206.5297265349756
 30
0.0
 11
314.1587208796319
 21
206.5297265349756
 31
0.0
  0
LINE
  5
B8B0
330
1F
100
AcDbEntity
  8
AM_0
100
AcDbLine
 10
307.1587208796318
 20
200.5297265349756
 30
0.0
 11
307.1587208796318
 21
212.5297265349756
 31
0.0
  0
LINE
  5
B8B1
330
1F
100
AcDbEntity
  8
AM_0
100
AcDbLine
 10
306.6587208796318
 20
212.5297265349756
 30
0.0
 11
307.1587208796318
 21
212.5297265349756
 31
0.0
  0
LINE
  5
B8B2
330
1F
100
AcDbEntity
  8
AM_0
100
AcDbLine
 10
306.6587208796318
 20
200.5297265349756
 30
0.0
 11
307.1587208796318
 21
200.5297265349756
 31
0.0
  0
LINE
  5
B8B3
330
1F
100
AcDbEntity
  8
AM_0
100
AcDbLine
 10
311.1587208796318
 20
204.0297265349756
 30
0.0
 11
311.1587208796318
 21
209.0297265349756
 31
0.0
  0
LINE
  5
B8B4
330
1F
100
AcDbEntity
  8
AM_0
100
AcDbLine
 10
310.6587208796318
 20
209.0297265349756
 30
0.0
 11
311.1587208796318
 21
209.0297265349756
 31
0.0
  0
LINE
  5
B8B5
330
1F
100
AcDbEntity
  8
AM_0
100
AcDbLine
 10
310.6587208796318
 20
204.0297265349756
 30
0.0
 11
311.1587208796318
 21
204.0297265349756
 31
0.0
  0
LINE
  5
B8B6
330
1F
100
AcDbEntity
  8
AM_2
100
AcDbLine
 10
310.6587208796318
 20
208.5297265349756
 30
0.0
 11
311.1587208796318
 21
208.5297265349756
 31
0.0
  0
LINE
  5
B8B7
330
1F
100
AcDbEntity
  8
AM_2
100
AcDbLine
 10
310.6587208796318
 20
204.5297265349756
 30
0.0
 11
311.1587208796318
 21
204.5297265349756
 31
0.0
  0
ARC
  5
B8B8
330
1F
100
AcDbEntity
  8
AM_0
100
AcDbCircle
 10
290.6356338796318
 20
211.8102055349756
 30
0.0
 40
10.0
100
AcDbArc
 50
183.8940300000004
 51
195.5596399999962
  0
ARC
  5
B8B9
330
1F
100
AcDbEntity
  8
AM_0
100
AcDbCircle
 10
290.6356338796318
 20
201.2492465349756
 30
0.0
 40
10.0
100
AcDbArc
 50
164.4403170000008
 51
176.1059319999966
  0
ARC
  5
B8BA
330
1F
100
AcDbEntity
  8
AM_0
100
AcDbCircle
 10
300.6818068796318
 20
211.8102055349756
 30
0.0
 40
10.0
100
AcDbArc
 50
344.4403000000022
 51
356.105919999998
  0
ARC
  5
B8BB
330
1F
100
AcDbEntity
  8
AM_0
100
AcDbCircle
 10
300.6587208796318
 20
206.5297265349756
 30
0.0
 40
10.0
100
AcDbArc
 50
344.9412299999977
 51
15.05855000000376
  0
ARC
  5
B8BC
330
1F
100
AcDbEntity
  8
AM_0
100
AcDbCircle
 10
290.6587208796318
 20
206.5297265349756
 30
0.0
 40
10.0
100
AcDbArc
 50
164.9413869999976
 51
195.0587199999997
  0
ARC
  5
B8BD
330
1F
100
AcDbEntity
  8
AM_0
100
AcDbCircle
 10
300.6818068796318
 20
201.2492465349756
 30
0.0
 40
10.0
100
AcDbArc
 50
3.894009999995586
 51
15.5596199999998
  0
ARC
  5
B8BE
330
1F
100
AcDbEntity
  8
AM_0
100
AcDbCircle
 10
286.2587208796319
 20
238.9297375349755
 30
0.0
 40
1.6
100
AcDbArc
 50
90.00000000000318
 51
179.9999999999979
1001
GENIUS_GENODEF_13
1002
{
1000
HIER
1070
     0
1002
}
1002
{
1000
MANEDIT
1070
     0
1002
}
1002
{
1000
NOSEL
1070
     0
1002
}
1002
{
1000
BEHIND
1070
     0
1002
}
1002
{
1000
OTHER
1070
     0
1002
}
1002
{
1000
REACTOR
1002
}
1001
GENIUS_GENOBJ-N-FIL_13
1002
{
1000
OWNER
1000
GEN
1002
}
  0
ARC
  5
B8BF
330
1F
100
AcDbEntity
  8
AM_0
100
AcDbCircle
 10
305.0587208796317
 20
238.9297375349755
 30
0.0
 40
1.6
100
AcDbArc
 50
0.0000000000020356
 51
89.99999999999673
1001
GENIUS_GENODEF_13
1002
{
1000
HIER
1070
     0
1002
}
1002
{
1000
MANEDIT
1070
     0
1002
}
1002
{
1000
NOSEL
1070
     0
1002
}
1002
{
1000
BEHIND
1070
     0
1002
}
1002
{
1000
OTHER
1070
     0
1002
}
1002
{
1000
REACTOR
1002
}
1001
GENIUS_GENOBJ-N-FIL_13
1002
{
1000
OWNER
1000
GEN
1002
}
  0
LINE
  5
B8C0
330
1F
100
AcDbEntity
  8
AM_7
100
AcDbLine
 10
295.6587208796318
 20
243.5297375349756
 30
0.0
 11
295.6587208796317
 21
175.0297265349756
 31
0.0
1001
GENIUS_GENODEF_13
1002
{
1000
HIER
1070
     0
1002
}
1002
{
1000
MANEDIT
1070
     0
1002
}
1002
{
1000
NOSEL
1070
     0
1002
}
1002
{
1000
BEHIND
1070
     0
1002
}
1002
{
1000
OTHER
1070
     0
1002
}
1002
{
1000
REACTOR
1002
}
1001
GENIUS_GENOBJ-N-CEN_13
1002
{
1000
OWNER
1000
GEN
1002
}
1001
GENIUS_GENCEN_19
1002
{
1040
3.0
1002
}
  0
DIMENSION
  5
B8C1
330
1F
100
AcDbEntity
  8
AM_5
100
AcDbDimension
280
     0
  2
*D7
 10
222.5925983183275
 20
106.7797305349756
 30
0.0
 11
187.5925973183274
 21
109.8797305349755
 31
0.0
 70
    32
  1
B
 71
     5
 42
70.00000200000008
 73
     0
 74
     0
 75
     0
  3
SYS$0
100
AcDbAlignedDimension
 13
152.5925963183274
 23
126.7797315349756
 33
0.0
 14
222.5925983183275
 24
126.7797315349756
 34
0.0
 50
0.0000000000001018
100
AcDbRotatedDimension
1001
ACAD
1000
DSTYLE
1002
{
1070
   179
1070
     2
1002
}
1001
ACAD_DSTYLE_DIMINSPECT
1070
   396
1000
100%
1070
   395
1000

1070
   394
1070
    33
1070
   393
1070
     0
  0
DIMENSION
  5
B8C2
330
1F
100
AcDbEntity
  8
AM_5
100
AcDbDimension
280
     0
  2
*D8
 10
232.0925983183274
 20
96.77973053497573
 30
0.0
 11
187.5925973183274
 21
99.8797305349757
 31
0.0
 70
    32
  1
A
 71
     5
 42
89.00000200000002
 73
     0
 74
     0
 75
     0
  3
SYS$0
100
AcDbAlignedDimension
 13
143.0925963183274
 23
123.2797315349756
 33
0.0
 14
232.0925983183274
 24
123.2797315349756
 34
0.0
 50
0.0000000000001018
100
AcDbRotatedDimension
1001
ACAD
1000
DSTYLE
1002
{
1070
   179
1070
     2
1002
}
1001
ACAD_DSTYLE_DIMINSPECT
1070
   396
1000
100%
1070
   395
1000

1070
   394
1070
    33
1070
   393
1070
     0
  0
DIMENSION
  5
B8C3
330
1F
100
AcDbEntity
  8
AM_5
100
AcDbDimension
280
     0
  2
*D9
 10
322.6587224931478
 20
181.5297263349755
 30
0.0
 11
319.5587224931478
 21
211.0297319349756
 31
0.0
 70
    32
  1
E
 71
     5
 42
59.00001119999993
 73
     0
 74
     0
 75
     0
  3
SYS$0
100
AcDbAlignedDimension
 13
305.0587208796317
 23
240.5297375349755
 33
0.0
 14
300.1587208796318
 24
181.5297263349755
 34
0.0
 50
90.0
100
AcDbRotatedDimension
1001
ACAD
1000
DSTYLE
1002
{
1070
   179
1070
     2
1002
}
1001
ACAD_DSTYLE_DIMINSPECT
1070
   396
1000
100%
1070
   395
1000

1070
   394
1070
    33
1070
   393
1070
     0
  0
DIMENSION
  5
B8C4
330
1F
100
AcDbEntity
  8
AM_5
100
AcDbDimension
280
     0
  2
*D10
 10
332.6587224931478
 20
178.0297265349755
 30
0.0
 11
329.5587224931477
 21
209.2797320349756
 31
0.0
 70
    32
  1
F
 71
     5
 42
62.50001099999991
 73
     0
 74
     0
 75
     0
  3
SYS$0
100
AcDbAlignedDimension
 13
305.0587208796318
 23
240.5297375349755
 33
0.0
 14
303.6587208796318
 24
178.0297265349756
 34
0.0
 50
90.0
100
AcDbRotatedDimension
1001
ACAD
1000
DSTYLE
1002
{
1070
   179
1070
     2
1002
}
1001
ACAD_DSTYLE_DIMINSPECT
1070
   396
1000
100%
1070
   395
1000

1070
   394
1070
    33
1070
   393
1070
     0
  0
DIMENSION
  5
B8C5
330
1F
100
AcDbEntity
  8
AM_5
100
AcDbDimension
280
     0
  2
*D11
 10
306.6587208796318
 20
250.9297385349756
 30
0.0
 11
295.6587208796318
 21
254.0297385349756
 31
0.0
 70
    32
  1
G
 71
     5
 42
22.0
 73
     0
 74
     0
 75
     0
  3
SYS$0
100
AcDbAlignedDimension
 13
284.6587208796318
 23
238.9297375349756
 33
0.0
 14
306.6587208796318
 24
238.9297375349755
 34
0.0
100
AcDbRotatedDimension
1001
ACAD
1000
DSTYLE
1002
{
1070
   179
1070
     2
1002
}
1001
ACAD_DSTYLE_DIMINSPECT
1070
   396
1000
100%
1070
   395
1000

1070
   394
1070
    33
1070
   393
1070
     0
  0
DIMENSION
  5
B8C6
330
1F
100
AcDbEntity
  8
AM_5
100
AcDbDimension
280
     0
  2
*D12
 10
287.6587208796319
 20
156.0297265349756
 30
0.0
 11
295.6587208796318
 21
159.1297265349756
 31
0.0
 70
    32
  1
H
 71
     5
 42
15.99999999999994
 73
     0
 74
     0
 75
     0
  3
SYS$0
100
AcDbAlignedDimension
 13
303.6587208796318
 23
178.0297265349756
 33
0.0
 14
287.6587208796319
 24
181.5297263349755
 34
0.0
 50
0.0000000000001018
100
AcDbRotatedDimension
1001
ACAD
1000
DSTYLE
1002
{
1070
   179
1070
     2
1002
}
1001
ACAD_DSTYLE_DIMINSPECT
1070
   396
1000
100%
1070
   395
1000

1070
   394
1070
    33
1070
   393
1070
     0
  0
DIMENSION
  5
B8C7
330
1F
100
AcDbEntity
  8
AM_5
100
AcDbDimension
280
     0
  2
*D13
 10
303.6587208796318
 20
166.0297265349757
 30
0.0
 11
307.9053875462985
 21
169.1297265349757
 31
0.0
 70
    32
  1
K
 71
     5
 42
3.5
 73
     0
 74
     0
 75
     0
  3
SYS$0
100
AcDbAlignedDimension
 13
300.1587208796318
 23
178.0297265349756
 33
0.0
 14
303.6587208796318
 24
178.0297265349756
 34
0.0
 50
0.0000000000001018
100
AcDbRotatedDimension
1001
ACAD
1000
DSTYLE
1002
{
1070
   179
1070
     2
1002
}
1001
ACAD_DSTYLE_DIMINSPECT
1070
   396
1000
100%
1070
   395
1000

1070
   394
1070
    33
1070
   393
1070
     0
  0
DIMENSION
  5
B8C8
330
1F
100
AcDbEntity
  8
AM_5
100
AcDbDimension
280
     0
  2
*D14
 10
287.6587208796319
 20
166.0297265349757
 30
0.0
 11
293.9087208796318
 21
169.1297265349757
 31
0.0
 70
    32
  1
I
 71
     5
 42
12.49999999999994
 73
     0
 74
     0
 75
     0
  3
SYS$0
100
AcDbAlignedDimension
 13
300.1587208796318
 23
178.0297265349756
 33
0.0
 14
287.6587208796319
 24
181.5297263349755
 34
0.0
 50
0.0000000000001018
100
AcDbRotatedDimension
1001
ACAD
1000
DSTYLE
1002
{
1070
   179
1070
     2
1002
}
1001
ACAD_DSTYLE_DIMINSPECT
1070
   396
1000
100%
1070
   395
1000

1070
   394
1070
    33
1070
   393
1070
     0
  0
DIMENSION
  5
B8C9
330
1F
100
AcDbEntity
  8
AM_5
100
AcDbDimension
280
     0
  2
*D15
 10
244.0925983183274
 20
118.7797315349755
 30
0.0
 11
240.9925983183274
 21
134.0297315349756
 31
0.0
 70
    32
  1
L
 71
     5
 42
30.50000000000002
 73
     0
 74
     0
 75
     0
  3
SYS$0
100
AcDbAlignedDimension
 13
192.1939530977875
 23
149.2797315349756
 33
0.0
 14
190.0925963183274
 24
118.7797315349756
 34
0.0
 50
90.0
100
AcDbRotatedDimension
1001
ACAD
1000
DSTYLE
1002
{
1070
   179
1070
     2
1002
}
1001
ACAD_DSTYLE_DIMINSPECT
1070
   396
1000
100%
1070
   395
1000

1070
   394
1070
    33
1070
   393
1070
     0
  0
DIMENSION
  5
B8CA
330
1F
100
AcDbEntity
  8
AM_5
100
AcDbDimension
280
     0
  2
*D16
 10
268.6587192661158
 20
181.5297263349755
 30
0.0
 11
265.5587192661157
 21
206.5297274349756
 31
0.0
 70
    32
  1
%%cC
 71
     5
 42
50.00000220000001
 73
     0
 74
     0
 75
     0
  3
SYS$0
100
AcDbAlignedDimension
 13
287.6587208796319
 23
231.5297285349756
 33
0.0
 14
287.6587208796319
 24
181.5297263349755
 34
0.0
 50
90.0
100
AcDbRotatedDimension
1001
ACAD
1000
DSTYLE
1002
{
1070
   179
1070
     2
1002
}
1001
ACAD_DSTYLE_DIMINSPECT
1070
   396
1000
100%
1070
   395
1000

1070
   394
1070
    33
1070
   393
1070
     0
  0
DIMENSION
  5
B8CB
330
1F
100
AcDbEntity
  8
AM_5
100
AcDbDimension
280
     0
  2
*D17
 10
258.6587192661158
 20
178.0297265349756
 30
0.0
 11
255.5587192661157
 21
206.5297275349756
 31
0.0
 70
    32
  1
%%cD
 71
     5
 42
57.00000199999999
 73
     0
 74
     0
 75
     0
  3
SYS$0
100
AcDbAlignedDimension
 13
300.1587208796318
 23
235.0297285349756
 33
0.0
 14
300.1587208796318
 24
178.0297265349756
 34
0.0
 50
90.0
100
AcDbRotatedDimension
1001
ACAD
1000
DSTYLE
1002
{
1070
   179
1070
     2
1002
}
1001
ACAD_DSTYLE_DIMINSPECT
1070
   396
1000
100%
1070
   395
1000

1070
   394
1070
    33
1070
   393
1070
     0
  0
DIMENSION
  5
B8CC
330
1F
100
AcDbEntity
  8
AM_5
100
AcDbDimension
280
     0
  2
*D18
 10
154.2376083262339
 20
131.1904054767803
 30
0.0
 11
138.4853652848073
 21
154.8886681033457
 31
0.0
 70
   163
  1
%%cJ
 71
     5
 42
7.0
 73
     0
 74
     0
 75
     0
  3
SYS$3
100
AcDbDiametricDimension
 15
150.9475843104208
 25
137.3690575931705
 35
0.0
 40
0.0
1001
ACAD_DSTYLE_DIMRADIAL_EXTENSION
1070
   387
1070
     1
1070
   388
1040
0.0
1070
   390
1040
0.0
1001
ACAD
1000
DSTYLE
1002
{
1070
   172
1070
     1
1070
   179
1070
     2
1070
   289
1070
     2
1070
   342
1005
B610
1002
}
1001
ACAD_DSTYLE_DIMINSPECT
1070
   396
1000
100%
1070
   395
1000

1070
   394
1070
    33
1070
   393
1070
     0
  0
ENDSEC
  0
SECTION
  2
OBJECTS
  0
DICTIONARY
  5
C
330
0
100
AcDbDictionary
281
     1
  3
ACAD_2007HEADERVARS_RT
350
BB56
  3
ACAD_BGPLOT_KEY
350
AB06
  3
ACAD_CIP_PREVIOUS_PRODUCT_INFO
350
B9DE
  3
ACAD_COLOR
350
A91D
  3
ACAD_DETAILVIEWSTYLE
350
B9D3
  3
ACAD_GROUP
350
D
  3
ACAD_LAYOUT
350
1A
  3
ACAD_MATERIAL
350
A91C
  3
ACAD_MLEADERSTYLE
350
B595
  3
ACAD_MLINESTYLE
350
17
  3
ACAD_PLOTSETTINGS
350
19
  3
ACAD_PLOTSTYLENAME
350
E
  3
ACAD_SCALELIST
350
B573
  3
ACAD_SECTIONVIEWSTYLE
350
B9D1
  3
ACAD_TABLESTYLE
350
AAB9
  3
ACAD_VISUALSTYLE
350
B0F1
  3
AcAsAppObject
350
3DA1
  3
ACASGREF_MASTER
350
3DE9
  3
ACDB_RECOMPOSE_DATA
350
BBC6
  3
AcDbVariableDictionary
350
34
  3
AD_APPL
350
3E01
  3
AD_GREF_MODULE
350
3DEA
  3
AD_MAPI_MODULE
350
3E06
  3
ASE_INDEX_DICTIONARY
350
B570
  3
ASURF_STATIC_VARS
350
3DA2
  3
AutoSurf_SysVars
350
3DA3
  3
gmRefExt
350
BBBB
  3
HCJX_INFO
350
BBBC
  3
MAPISURF_MODULE
350
3DEB
  0
DICTIONARY
  5
3F95
330
2
100
AcDbDictionary
280
     1
281
     1
  3
ACAD_LAYERFILTERS
360
B4F7
  3
ACAD_LAYERSTATES
360
3F96
  3
ACLYDICTIONARY
360
B4F6
  3
AMLAYER_GROUPCOLORS
360
AAB4
  0
DICTIONARY
  5
B95E
330
10
100
AcDbDictionary
280
     1
281
     1
  3
ADSK_XREC_LAYER_RECONCILED
360
B95F
  0
DICTIONARY
  5
B960
330
5F85
100
AcDbDictionary
280
     1
281
     1
  3
ADSK_XREC_LAYER_RECONCILED
360
B961
  0
DICTIONARY
  5
B962
330
AC9F
100
AcDbDictionary
280
     1
281
     1
  3
ADSK_XREC_LAYER_RECONCILED
360
B963
  0
DICTIONARY
  5
B964
330
ACA0
100
AcDbDictionary
280
     1
281
     1
  3
ADSK_XREC_LAYER_RECONCILED
360
B965
  0
DICTIONARY
  5
B966
330
ACA1
100
AcDbDictionary
280
     1
281
     1
  3
ADSK_XREC_LAYER_RECONCILED
360
B967
  0
DICTIONARY
  5
B968
330
ACC8
100
AcDbDictionary
280
     1
281
     1
  3
ADSK_XREC_LAYER_RECONCILED
360
B969
  0
DICTIONARY
  5
B96A
330
ACC9
100
AcDbDictionary
280
     1
281
     1
  3
ADSK_XREC_LAYER_RECONCILED
360
B96B
  0
DICTIONARY
  5
B96C
330
ACCA
100
AcDbDictionary
280
     1
281
     1
  3
ADSK_XREC_LAYER_RECONCILED
360
B96D
  0
DICTIONARY
  5
B96E
330
AD60
100
AcDbDictionary
280
     1
281
     1
  3
ADSK_XREC_LAYER_RECONCILED
360
B96F
  0
DICTIONARY
  5
B970
330
AD64
100
AcDbDictionary
280
     1
281
     1
  3
ADSK_XREC_LAYER_RECONCILED
360
B971
  0
DICTIONARY
  5
B972
330
AD67
100
AcDbDictionary
280
     1
281
     1
  3
ADSK_XREC_LAYER_RECONCILED
360
B973
  0
DICTIONARY
  5
B974
330
AD68
100
AcDbDictionary
280
     1
281
     1
  3
ADSK_XREC_LAYER_RECONCILED
360
B975
  0
DICTIONARY
  5
B976
330
AD69
100
AcDbDictionary
280
     1
281
     1
  3
ADSK_XREC_LAYER_RECONCILED
360
B977
  0
DICTIONARY
  5
B978
330
AD6A
100
AcDbDictionary
280
     1
281
     1
  3
ADSK_XREC_LAYER_RECONCILED
360
B979
  0
DICTIONARY
  5
B97A
330
AD6E
100
AcDbDictionary
280
     1
281
     1
  3
ADSK_XREC_LAYER_RECONCILED
360
B97B
  0
DICTIONARY
  5
B97C
330
AD6F
100
AcDbDictionary
280
     1
281
     1
  3
ADSK_XREC_LAYER_RECONCILED
360
B97D
  0
DICTIONARY
  5
B97E
330
B1B6
100
AcDbDictionary
280
     1
281
     1
  3
ADSK_XREC_LAYER_RECONCILED
360
B97F
  0
DICTIONARY
  5
B980
330
B2EB
100
AcDbDictionary
280
     1
281
     1
  3
ADSK_XREC_LAYER_RECONCILED
360
B981
  0
DICTIONARY
  5
B982
330
B2EC
100
AcDbDictionary
280
     1
281
     1
  3
ADSK_XREC_LAYER_RECONCILED
360
B983
  0
DICTIONARY
  5
8A
330
1F
100
AcDbDictionary
280
     1
281
     1
  3
ACAD_SORTENTS
360
B1BA
  0
DICTIONARY
  5
B5F9
330
B5F8
100
AcDbDictionary
280
     1
281
     1
  3
ACAD_SORTENTS
360
B5FA
  0
DICTIONARY
  5
BB56
102
{ACAD_REACTORS
330
C
102
}
330
C
100
AcDbDictionary
281
     1
  3
DIMARCSYM
350
BB57
  0
DICTIONARY
  5
AB06
102
{ACAD_REACTORS
330
C
102
}
330
C
100
AcDbDictionary
280
     1
281
     1
  0
XRECORD
  5
B9DE
102
{ACAD_REACTORS
330
C
102
}
330
C
100
AcDbXrecord
280
     1
300
ACDLT
300
2016
300
ACDLT_F_S
  0
DICTIONARY
  5
A91D
102
{ACAD_REACTORS
330
C
102
}
330
C
100
AcDbDictionary
281
     1
  0
DICTIONARY
  5
B9D3
102
{ACAD_REACTORS
330
C
102
}
330
C
100
AcDbDictionary
281
     1
  3
Metric50
350
B9D4
  0
DICTIONARY
  5
D
102
{ACAD_REACTORS
330
C
102
}
330
C
100
AcDbDictionary
281
     1
  0
DICTIONARY
  5
1A
102
{ACAD_REACTORS
330
C
102
}
330
C
100
AcDbDictionary
281
     1
  3
Model
350
22
  3
ﾚｲｱｳﾄ1
350
1E
  3
ﾚｲｱｳﾄ2
350
26
  0
DICTIONARY
  5
A91C
102
{ACAD_REACTORS
330
C
102
}
330
C
100
AcDbDictionary
281
     1
  3
ByBlock
350
B0EF
  3
ByLayer
350
B0EE
  3
Global
350
B0F0
  0
DICTIONARY
  5
B595
102
{ACAD_REACTORS
330
C
102
}
330
C
100
AcDbDictionary
281
     1
  3
Standard
350
B596
  0
DICTIONARY
  5
17
102
{ACAD_REACTORS
330
C
102
}
330
C
100
AcDbDictionary
281
     1
  3
Standard
350
18
  0
DICTIONARY
  5
19
102
{ACAD_REACTORS
330
C
102
}
330
C
100
AcDbDictionary
281
     1
  0
ACDBDICTIONARYWDFLT
  5
E
102
{ACAD_REACTORS
330
C
102
}
330
C
100
AcDbDictionary
281
     1
  3
Normal
350
F
100
AcDbDictionaryWithDefault
340
F
  0
DICTIONARY
  5
B573
102
{ACAD_REACTORS
330
C
102
}
330
C
100
AcDbDictionary
281
     1
  3
A0
350
B574
  3
A1
350
B575
  3
A2
350
B576
  3
A3
350
B577
  3
A4
350
B578
  3
A5
350
B579
  3
A6
350
B57A
  3
A7
350
B57B
  3
A8
350
B57C
  3
A9
350
B57D
  3
B0
350
B57E
  3
B1
350
B57F
  3
B2
350
B580
  3
B3
350
B581
  3
B4
350
B582
  3
B5
350
B583
  3
B6
350
B584
  3
B7
350
B585
  3
B8
350
B586
  3
B9
350
B587
  3
C0
350
B588
  3
C1
350
B589
  3
C2
350
B58A
  3
C3
350
B58B
  3
C4
350
B58C
  3
C5
350
B58D
  3
C6
350
B58E
  3
C7
350
B58F
  3
C8
350
B590
  3
C9
350
B591
  3
D0
350
B592
  3
D1
350
B593
  3
D2
350
B594
  0
DICTIONARY
  5
B9D1
102
{ACAD_REACTORS
330
C
102
}
330
C
100
AcDbDictionary
281
     1
  3
Metric50
350
B9D2
  0
DICTIONARY
  5
AAB9
102
{ACAD_REACTORS
330
C
102
}
330
C
100
AcDbDictionary
281
     1
  3
Standard
350
AABA
  0
DICTIONARY
  5
B0F1
102
{ACAD_REACTORS
330
C
102
}
330
C
100
AcDbDictionary
281
     1
  3
2dWireframe
350
B0F7
  3
3D Hidden
350
B0F9
  3
3dWireframe
350
B0F8
  3
Basic
350
B0F6
  3
Brighten
350
B0FD
  3
ColorChange
350
B101
  3
Conceptual
350
B0FA
  3
Dim
350
B0FC
  3
EdgeColorOff
350
B9D0
  3
Facepattern
350
B100
  3
Flat
350
B0F2
  3
FlatWithEdges
350
B0F3
  3
Gouraud
350
B0F4
  3
GouraudWithEdges
350
B0F5
  3
Hidden
350
B9C8
  3
JitterOff
350
B9CE
  3
Linepattern
350
B0FF
  3
OverhangOff
350
B9CF
  3
Realistic
350
B0FB
  3
Shaded
350
B9CD
  3
Shaded with edges
350
B9CC
  3
Shades of Gray
350
B9C9
  3
Sketchy
350
B9CA
  3
Thicken
350
B0FE
  3
Wireframe
350
B9C7
  3
X-Ray
350
B9CB
  0
ACAD_PROXY_OBJECT
  5
3DA1
102
{ACAD_REACTORS
330
C
102
}
330
C
100
AcDbProxyObject
 90
      499
 91
      576
 95
   917527
 70
     0
161
                10
310
404C
1001
ACAD
1000
AcRTDxfName
1000
ASAPP
1000
AcRTDxfName
1000
ASAPP
  0
ACAD_PROXY_OBJECT
  5
3DE9
102
{ACAD_REACTORS
330
C
102
}
330
C
100
AcDbProxyObject
 90
      499
 91
      581
 95
   917527
 70
     0
161
                34
310
010000404C
1001
ACAD
1000
AcRTDxfName
1000
ACASGREFMASTER
1000
AcRTDxfName
1000
ACASGREFMASTER
  0
XRECORD
  5
BBC6
102
{ACAD_REACTORS
330
C
102
}
330
C
100
AcDbXrecord
280
     1
 90
        1
330
AABA
  0
DICTIONARY
  5
34
102
{ACAD_REACTORS
330
C
102
}
330
C
100
AcDbDictionary
281
     1
  3
CANNOSCALE
350
BBBF
  3
CMLEADERSTYLE
350
B5B8
  3
CTABLESTYLE
350
AAF3
  3
CVIEWDETAILSTYLE
350
BA1F
  3
CVIEWSECTIONSTYLE
350
BA20
  3
DIMASSOC
350
A10C
  3
FIELDEVAL
350
AB07
  3
INDEXCTL
350
35
  3
LIGHTINGUNITS
350
B5BB
  3
MSLTSCALE
350
B5B9
  3
SOLIDHIST
350
BA22
  3
SORTENTS
350
194C
  3
XCLIPFRAME
350
BB52
  0
ACAD_PROXY_OBJECT
  5
3E01
102
{ACAD_REACTORS
330
C
102
}
330
C
100
AcDbProxyObject
 90
      499
 91
      590
 95
    65563
 70
     0
161
                34
310
000B00008C
330
3DEF
 94
        0
1001
ACAD
1000
AcRTDxfName
1000
NAMEDAPPL
1000
AcRTDxfName
1000
NAMEDAPPL
  0
ACAD_PROXY_OBJECT
  5
3DEA
102
{ACAD_REACTORS
330
C
102
}
330
C
100
AcDbProxyObject
 90
      499
 91
      582
 95
   917527
 70
     0
161
               114
310
00000043800000000000000000000C
1001
ACAD
1000
AcRTDxfName
1000
ACADGREFMODULE
1000
AcRTDxfName
1000
ACADGREFMODULE
  0
ACAD_PROXY_OBJECT
  5
3E06
102
{ACAD_REACTORS
330
C
102
}
330
C
100
AcDbProxyObject
 90
      499
 91
      594
 95
   917527
 70
     0
161
                34
310
05000044CC
1001
ACAD
1000
AcRTDxfName
1000
MAPIADMODULE
1000
AcRTDxfName
1000
MAPIADMODULE
  0
DICTIONARY
  5
B570
102
{ACAD_REACTORS
330
C
102
}
330
C
100
AcDbDictionary
281
     1
  3
ASEBlockHierarchyIndexRecord
350
B571
1001
DCO15
1040
1706332604.97
  0
ACAD_PROXY_OBJECT
  5
3DA2
102
{ACAD_REACTORS
330
C
102
}
330
C
100
AcDbProxyObject
 90
      499
 91
      577
 95
    65563
 70
     0
161
               424
310
585314D600000000000000000000000000000000000000000000000000000000000000000000000000000000000000000000000000
330
3DB5
330
3DB6
330
3DB7
330
3DB8
330
3DB9
330
3DBA
330
3DBB
330
3DBC
330
3DBD
330
3DBE
330
3DBF
330
3DC0
330
3DC1
330
3DC2
330
3DC3
330
3DC4
330
3DC5
330
3DC6
330
3DC7
330
3DC8
330
3DC9
330
3DCA
330
3DCB
330
3DCC
330
3DCD
330
3DCE
330
3DCF
330
3DD0
330
3DD1
330
3DD2
330
3DD3
330
3DD4
330
3DD5
330
3DD6
330
3DD7
330
3DD8
330
3DD9
330
3DDA
330
3DDB
330
3DDC
330
3DDD
330
3DDE
330
3DDF
330
3DE0
330
3DE1
330
3DE2
330
3DE3
330
3DE4
330
3DE5
 94
        0
1001
ACAD
1000
AcRTDxfName
1000
IM_STATIC_MAN
1000
AcRTDxfName
1000
IM_STATIC_MAN
  0
ACIMSYSVARMAN
  5
3DA3
102
{ACAD_REACTORS
330
C
102
}
330
C
1001
ACAD
1000
AcRTDxfName
1000
ACIMSYSVARMAN
1000
AcRTDxfName
1000
ACIMSYSVARMAN
  0
XRECORD
  5
BBBB
102
{ACAD_REACTORS
330
C
102
}
330
C
100
AcDbXrecord
280
     1
  0
DICTIONARY
  5
BBBC
102
{ACAD_REACTORS
330
C
102
}
330
C
100
AcDbDictionary
281
     1
  3
GmRelease
350
BBBD
  3
GmTimeStamp
350
BBBE
  0
ACAD_PROXY_OBJECT
  5
3DEB
102
{ACAD_REACTORS
330
C
102
}
330
C
100
AcDbProxyObject
 90
      499
 91
      583
 95
   917527
 70
     0
161
                 8
310
04
1001
ACAD
1000
AcRTDxfName
1000
AMDTMAPISURFMOUDULE
1000
AcRTDxfName
1000
AMDTMAPISURFMOUDULE
  0
DICTIONARY
  5
B4F7
102
{ACAD_REACTORS
330
3F95
102
}
330
3F95
100
AcDbDictionary
281
     1
  0
DICTIONARY
  5
3F96
102
{ACAD_REACTORS
330
3F95
102
}
330
3F95
100
AcDbDictionary
281
     1
  3
20011210
350
3FB7
  0
DICTIONARY
  5
B4F6
102
{ACAD_REACTORS
330
3F95
102
}
330
3F95
100
AcDbDictionary
281
     1
1001
ACAD
1000
<All
  0
DICTIONARY
  5
AAB4
102
{ACAD_REACTORS
330
3F95
102
}
330
3F95
100
AcDbDictionary
280
     1
281
     1
  0
XRECORD
  5
B95F
102
{ACAD_REACTORS
330
B95E
102
}
330
B95E
100
AcDbXrecord
280
     1
290
     1
  0
XRECORD
  5
B961
102
{ACAD_REACTORS
330
B960
102
}
330
B960
100
AcDbXrecord
280
     1
290
     1
  0
XRECORD
  5
B963
102
{ACAD_REACTORS
330
B962
102
}
330
B962
100
AcDbXrecord
280
     1
290
     1
  0
XRECORD
  5
B965
102
{ACAD_REACTORS
330
B964
102
}
330
B964
100
AcDbXrecord
280
     1
290
     1
  0
XRECORD
  5
B967
102
{ACAD_REACTORS
330
B966
102
}
330
B966
100
AcDbXrecord
280
     1
290
     1
  0
XRECORD
  5
B969
102
{ACAD_REACTORS
330
B968
102
}
330
B968
100
AcDbXrecord
280
     1
290
     1
  0
XRECORD
  5
B96B
102
{ACAD_REACTORS
330
B96A
102
}
330
B96A
100
AcDbXrecord
280
     1
290
     1
  0
XRECORD
  5
B96D
102
{ACAD_REACTORS
330
B96C
102
}
330
B96C
100
AcDbXrecord
280
     1
290
     1
  0
XRECORD
  5
B96F
102
{ACAD_REACTORS
330
B96E
102
}
330
B96E
100
AcDbXrecord
280
     1
290
     1
  0
XRECORD
  5
B971
102
{ACAD_REACTORS
330
B970
102
}
330
B970
100
AcDbXrecord
280
     1
290
     1
  0
XRECORD
  5
B973
102
{ACAD_REACTORS
330
B972
102
}
330
B972
100
AcDbXrecord
280
     1
290
     1
  0
XRECORD
  5
B975
102
{ACAD_REACTORS
330
B974
102
}
330
B974
100
AcDbXrecord
280
     1
290
     1
  0
XRECORD
  5
B977
102
{ACAD_REACTORS
330
B976
102
}
330
B976
100
AcDbXrecord
280
     1
290
     1
  0
XRECORD
  5
B979
102
{ACAD_REACTORS
330
B978
102
}
330
B978
100
AcDbXrecord
280
     1
290
     1
  0
XRECORD
  5
B97B
102
{ACAD_REACTORS
330
B97A
102
}
330
B97A
100
AcDbXrecord
280
     1
290
     1
  0
XRECORD
  5
B97D
102
{ACAD_REACTORS
330
B97C
102
}
330
B97C
100
AcDbXrecord
280
     1
290
     1
  0
XRECORD
  5
B97F
102
{ACAD_REACTORS
330
B97E
102
}
330
B97E
100
AcDbXrecord
280
     1
290
     1
  0
XRECORD
  5
B981
102
{ACAD_REACTORS
330
B980
102
}
330
B980
100
AcDbXrecord
280
     1
290
     1
  0
XRECORD
  5
B983
102
{ACAD_REACTORS
330
B982
102
}
330
B982
100
AcDbXrecord
280
     1
290
     1
  0
SORTENTSTABLE
  5
B1BA
102
{ACAD_REACTORS
330
8A
102
}
330
8A
100
AcDbSortentsTable
330
1F
  0
SORTENTSTABLE
  5
B5FA
102
{ACAD_REACTORS
330
B5F9
102
}
330
B5F9
100
AcDbSortentsTable
330
B5F8
  0
XRECORD
  5
BB57
102
{ACAD_REACTORS
330
BB56
102
}
330
BB56
100
AcDbXrecord
280
     1
 70
     1
  0
ACDBDETAILVIEWSTYLE
  5
B9D4
102
{ACAD_REACTORS
330
B9D3
102
}
102
{ACAD_XDICTIONARY
360
BB95
102
}
330
B9D3
100
AcDbModelDocViewStyle
 70
     0
  3
Metric50
290
     0
100
AcDbDetailViewStyle
 70
     0
 71
     0
 90
        3
 71
     1
340
11
 62
   256
 40
5.0
340
0
 62
   256
 40
5.0
300

 40
0.0
280
     1
 71
     2
340
16
 90
       25
 62
   256
 71
     3
340
11
 62
   256
 40
5.0
 90
        0
 40
15.0
 90
        1
300
%<\AcVar ViewDetailId>% (%<\AcVar ViewScale \f "%sn">%)
 71
     4
340
16
 90
       25
 62
   256
340
16
 90
       25
 62
   256
280
     0
  0
LAYOUT
  5
22
102
{ACAD_REACTORS
330
1A
102
}
330
1A
100
AcDbPlotSettings
  1

  2
FX DocuWide 2050/2051
  4
A3
  6
AM_VIEW1
 40
3.174999952316283
 41
3.174999952316283
 42
3.17498779296875
 43
3.17498779296875
 44
296.989501953125
 45
419.9889831542968
 46
0.0
 47
1.29584122896196
 48
214.3704939521119
 49
367.5855324241177
140
275.6727856380065
141
407.6291914078169
142
1.0
143
0.7225445603030646
 70
  3764
 72
     1
 73
     1
 74
     2
  7
monochrome.ctb
 75
     0
 76
     0
 77
     2
 78
   200
147
1.383997686703999
148
-1700.85588156276
149
-1647.985052086429
100
AcDbLayout
  1
Model
 70
     1
 71
     0
 10
0.0
 20
0.0
 11
12.0
 21
9.0
 12
0.0
 22
0.0
 32
0.0
 14
0.0
 24
0.0
 34
0.0
 15
0.0
 25
0.0
 35
0.0
146
0.0
 13
0.0
 23
0.0
 33
0.0
 16
1.0
 26
0.0
 36
0.0
 17
0.0
 27
1.0
 37
0.0
 76
     0
330
1F
331
B0EC
1001
ACAD_PSEXT
1000
FX DocuWide 2050/2051
1000
FX DocuWide 2050/2051
1000
IP_192.200.15.252
1000

1070
     0
  0
LAYOUT
  5
1E
102
{ACAD_REACTORS
330
1A
102
}
330
1A
100
AcDbPlotSettings
  1

  2
\\ML370\XEROX
  4
A4
  6

 40
3.174999952316283
 41
3.174999952316283
 42
3.175003051757812
 43
3.17498779296875
 44
209.8674926757813
 45
296.6719970703125
 46
0.0
 47
0.0
 48
0.0
 49
0.0
140
0.0
141
0.0
142
1.0
143
1.0
 70
   688
 72
     1
 73
     1
 74
     5
  7
monochrome.ctb
 75
    16
 76
     0
 77
     2
 78
   300
147
1.0
148
0.0
149
0.0
100
AcDbLayout
  1
ﾚｲｱｳﾄ1
 70
     1
 71
     1
 10
-3.17498779296875
 20
-3.174999952316283
 11
293.4970092773438
 21
206.692492723465
 12
0.0
 22
0.0
 32
0.0
 14
1.000000000000000E+20
 24
1.000000000000000E+20
 34
1.000000000000000E+20
 15
-1.000000000000000E+20
 25
-1.000000000000000E+20
 35
-1.000000000000000E+20
146
0.0
 13
0.0
 23
0.0
 33
0.0
 16
1.0
 26
0.0
 36
0.0
 17
0.0
 27
1.0
 37
0.0
 76
     0
330
1B
  0
LAYOUT
  5
26
102
{ACAD_REACTORS
330
1A
102
}
330
1A
100
AcDbPlotSettings
  1

  2
\\ML370\XEROX
  4

  6

 40
0.0
 41
0.0
 42
0.0
 43
0.0
 44
0.0
 45
0.0
 46
0.0
 47
0.0
 48
0.0
 49
0.0
140
0.0
141
0.0
142
1.0
143
1.0
 70
   688
 72
     0
 73
     0
 74
     5
  7
monochrome.ctb
 75
    16
 76
     0
 77
     2
 78
   300
147
1.0
148
0.0
149
0.0
100
AcDbLayout
  1
ﾚｲｱｳﾄ2
 70
     1
 71
     2
 10
0.0
 20
0.0
 11
12.0
 21
9.0
 12
0.0
 22
0.0
 32
0.0
 14
0.0
 24
0.0
 34
0.0
 15
0.0
 25
0.0
 35
0.0
146
0.0
 13
0.0
 23
0.0
 33
0.0
 16
1.0
 26
0.0
 36
0.0
 17
0.0
 27
1.0
 37
0.0
 76
     0
330
23
  0
MATERIAL
  5
B0EF
102
{ACAD_REACTORS
330
A91C
102
}
330
A91C
100
AcDbMaterial
  1
ByBlock
 72
     1
 94
      127
  0
MATERIAL
  5
B0EE
102
{ACAD_REACTORS
330
A91C
102
}
330
A91C
100
AcDbMaterial
  1
ByLayer
 72
     1
 94
      127
  0
MATERIAL
  5
B0F0
102
{ACAD_REACTORS
330
A91C
102
}
330
A91C
100
AcDbMaterial
  1
Global
 72
     1
 94
      127
  0
MLEADERSTYLE
  5
B596
102
{ACAD_REACTORS
330
B595
102
}
330
B595
100
AcDbMLeaderStyle
179
     2
170
     2
171
     1
172
     0
 90
        2
 40
0.0
 41
0.0
173
     1
 91
-1056964608
340
14
 92
       -2
290
     1
 42
2.0
291
     1
 43
0.36
  3
Standard
341
0
 44
4.0
300

342
11
174
     1
178
     6
175
     1
176
     0
 93
-1056964608
 45
4.0
292
     0
297
     0
 46
4.0
343
0
 94
-1056964608
 47
1.0
 49
1.0
140
1.0
293
     1
141
0.0
294
     1
177
     0
142
1.0
295
     0
296
     0
143
0.125
271
     0
272
     9
273
     9
298
     0
1001
ACAD_MLEADERVER
1070
     2
  0
MLINESTYLE
  5
18
102
{ACAD_REACTORS
330
17
102
}
330
17
100
AcDbMlineStyle
  2
STANDARD
 70
     0
  3

 62
   256
 51
90.0
 52
90.0
 71
     2
 49
0.5
 62
   256
  6
BYLAYER
 49
-0.5
 62
   256
  6
BYLAYER
  0
ACDBPLACEHOLDER
  5
F
102
{ACAD_REACTORS
330
E
102
}
330
E
  0
SCALE
  5
B574
102
{ACAD_REACTORS
330
B573
102
}
330
B573
100
AcDbScale
 70
     0
300
1:1
140
1.0
141
1.0
290
     1
  0
SCALE
  5
B575
102
{ACAD_REACTORS
330
B573
102
}
330
B573
100
AcDbScale
 70
     0
300
1:2
140
1.0
141
2.0
290
     0
  0
SCALE
  5
B576
102
{ACAD_REACTORS
330
B573
102
}
330
B573
100
AcDbScale
 70
     0
300
1:4
140
1.0
141
4.0
290
     0
  0
SCALE
  5
B577
102
{ACAD_REACTORS
330
B573
102
}
330
B573
100
AcDbScale
 70
     0
300
1:5
140
1.0
141
5.0
290
     0
  0
SCALE
  5
B578
102
{ACAD_REACTORS
330
B573
102
}
330
B573
100
AcDbScale
 70
     0
300
1:8
140
1.0
141
8.0
290
     0
  0
SCALE
  5
B579
102
{ACAD_REACTORS
330
B573
102
}
330
B573
100
AcDbScale
 70
     0
300
1:10
140
1.0
141
10.0
290
     0
  0
SCALE
  5
B57A
102
{ACAD_REACTORS
330
B573
102
}
330
B573
100
AcDbScale
 70
     0
300
1:16
140
1.0
141
16.0
290
     0
  0
SCALE
  5
B57B
102
{ACAD_REACTORS
330
B573
102
}
330
B573
100
AcDbScale
 70
     0
300
1:20
140
1.0
141
20.0
290
     0
  0
SCALE
  5
B57C
102
{ACAD_REACTORS
330
B573
102
}
330
B573
100
AcDbScale
 70
     0
300
1:30
140
1.0
141
30.0
290
     0
  0
SCALE
  5
B57D
102
{ACAD_REACTORS
330
B573
102
}
330
B573
100
AcDbScale
 70
     0
300
1:40
140
1.0
141
40.0
290
     0
  0
SCALE
  5
B57E
102
{ACAD_REACTORS
330
B573
102
}
330
B573
100
AcDbScale
 70
     0
300
1:50
140
1.0
141
50.0
290
     0
  0
SCALE
  5
B57F
102
{ACAD_REACTORS
330
B573
102
}
330
B573
100
AcDbScale
 70
     0
300
1:100
140
1.0
141
100.0
290
     0
  0
SCALE
  5
B580
102
{ACAD_REACTORS
330
B573
102
}
330
B573
100
AcDbScale
 70
     0
300
2:1
140
2.0
141
1.0
290
     0
  0
SCALE
  5
B581
102
{ACAD_REACTORS
330
B573
102
}
330
B573
100
AcDbScale
 70
     0
300
4:1
140
4.0
141
1.0
290
     0
  0
SCALE
  5
B582
102
{ACAD_REACTORS
330
B573
102
}
330
B573
100
AcDbScale
 70
     0
300
8:1
140
8.0
141
1.0
290
     0
  0
SCALE
  5
B583
102
{ACAD_REACTORS
330
B573
102
}
330
B573
100
AcDbScale
 70
     0
300
10:1
140
10.0
141
1.0
290
     0
  0
SCALE
  5
B584
102
{ACAD_REACTORS
330
B573
102
}
330
B573
100
AcDbScale
 70
     0
300
100:1
140
100.0
141
1.0
290
     0
  0
SCALE
  5
B585
102
{ACAD_REACTORS
330
B573
102
}
330
B573
100
AcDbScale
 70
     0
300
1/128" = 1'-0"
140
0.0078125
141
12.0
290
     0
  0
SCALE
  5
B586
102
{ACAD_REACTORS
330
B573
102
}
330
B573
100
AcDbScale
 70
     0
300
1/64" = 1'-0"
140
0.015625
141
12.0
290
     0
  0
SCALE
  5
B587
102
{ACAD_REACTORS
330
B573
102
}
330
B573
100
AcDbScale
 70
     0
300
1/32" = 1'-0"
140
0.03125
141
12.0
290
     0
  0
SCALE
  5
B588
102
{ACAD_REACTORS
330
B573
102
}
330
B573
100
AcDbScale
 70
     0
300
1/16" = 1'-0"
140
0.0625
141
12.0
290
     0
  0
SCALE
  5
B589
102
{ACAD_REACTORS
330
B573
102
}
330
B573
100
AcDbScale
 70
     0
300
3/32" = 1'-0"
140
0.09375
141
12.0
290
     0
  0
SCALE
  5
B58A
102
{ACAD_REACTORS
330
B573
102
}
330
B573
100
AcDbScale
 70
     0
300
1/8" = 1'-0"
140
0.125
141
12.0
290
     0
  0
SCALE
  5
B58B
102
{ACAD_REACTORS
330
B573
102
}
330
B573
100
AcDbScale
 70
     0
300
3/16" = 1'-0"
140
0.1875
141
12.0
290
     0
  0
SCALE
  5
B58C
102
{ACAD_REACTORS
330
B573
102
}
330
B573
100
AcDbScale
 70
     0
300
1/4" = 1'-0"
140
0.25
141
12.0
290
     0
  0
SCALE
  5
B58D
102
{ACAD_REACTORS
330
B573
102
}
330
B573
100
AcDbScale
 70
     0
300
3/8" = 1'-0"
140
0.375
141
12.0
290
     0
  0
SCALE
  5
B58E
102
{ACAD_REACTORS
330
B573
102
}
330
B573
100
AcDbScale
 70
     0
300
1/2" = 1'-0"
140
0.5
141
12.0
290
     0
  0
SCALE
  5
B58F
102
{ACAD_REACTORS
330
B573
102
}
330
B573
100
AcDbScale
 70
     0
300
3/4" = 1'-0"
140
0.75
141
12.0
290
     0
  0
SCALE
  5
B590
102
{ACAD_REACTORS
330
B573
102
}
330
B573
100
AcDbScale
 70
     0
300
1" = 1'-0"
140
1.0
141
12.0
290
     0
  0
SCALE
  5
B591
102
{ACAD_REACTORS
330
B573
102
}
330
B573
100
AcDbScale
 70
     0
300
1-1/2" = 1'-0"
140
1.5
141
12.0
290
     0
  0
SCALE
  5
B592
102
{ACAD_REACTORS
330
B573
102
}
330
B573
100
AcDbScale
 70
     0
300
3" = 1'-0"
140
3.0
141
12.0
290
     0
  0
SCALE
  5
B593
102
{ACAD_REACTORS
330
B573
102
}
330
B573
100
AcDbScale
 70
     0
300
6" = 1'-0"
140
6.0
141
12.0
290
     0
  0
SCALE
  5
B594
102
{ACAD_REACTORS
330
B573
102
}
330
B573
100
AcDbScale
 70
     0
300
1'-0" = 1'-0"
140
12.0
141
12.0
290
     0
  0
ACDBSECTIONVIEWSTYLE
  5
B9D2
102
{ACAD_REACTORS
330
B9D1
102
}
102
{ACAD_XDICTIONARY
360
BB93
102
}
330
B9D1
100
AcDbModelDocViewStyle
 70
     0
  3
Metric50
290
     0
100
AcDbSectionViewStyle
 70
     0
 71
     0
 90
      102
 71
     1
340
11
 62
   256
 40
5.0
340
0
340
0
 62
   256
 40
5.0
300
I, O, Q, S, X, Z
 40
10.0
 90
        0
 40
2.5
 90
        0
 71
     2
340
16
 90
       25
 62
   256
340
16
 90
       50
 62
   256
 40
5.0
 40
2.5
 40
5.0
 71
     3
340
11
 62
   256
 40
5.0
 90
        0
 40
15.0
 90
        1
300
%<\AcVar ViewSectionStartId>%-%<\AcVar ViewSectionEndId>% (%<\AcVar ViewScale \f "%sn">%)
 71
     4
 62
   256
 62
   257
300
ANSI31
 40
1.0
 90
        0
290
     0
290
     0
 90
        6
 40
0.0
 40
1.570796326794896
 40
0.2617993877991494
 40
1.308996938995747
 40
-0.2617993877991494
 40
1.832595714594045
  0
TABLESTYLE
  5
AABA
102
{ACAD_REACTORS
330
AAB9
102
}
102
{ACAD_XDICTIONARY
360
BBC4
102
}
330
AAB9
100
AcDbTableStyle
  3
Standard
 70
     0
 71
     0
 40
1.5
 41
1.5
280
     0
281
     0
  7
STANDARD
140
4.5
170
     2
 62
     0
 63
   257
283
     0
 90
        4
 91
        0
  1

274
    -2
284
     1
 64
     0
275
    -2
285
     1
 65
     0
276
    -2
286
     1
 66
     0
277
    -2
287
     1
 67
     0
278
    -2
288
     1
 68
     0
279
    -2
289
     1
 69
     0
  7
STANDARD
140
6.0
170
     5
 62
     0
 63
   257
283
     0
 90
        4
 91
        0
  1

274
    -2
284
     1
 64
     0
275
    -2
285
     1
 65
     0
276
    -2
286
     1
 66
     0
277
    -2
287
     1
 67
     0
278
    -2
288
     1
 68
     0
279
    -2
289
     1
 69
     0
  7
STANDARD
140
4.5
170
     5
 62
     0
 63
   257
283
     0
 90
        4
 91
        0
  1

274
    -2
284
     1
 64
     0
275
    -2
285
     1
 65
     0
276
    -2
286
     1
 66
     0
277
    -2
287
     1
 67
     0
278
    -2
288
     1
 68
     0
279
    -2
289
     1
 69
     0
  0
VISUALSTYLE
  5
B0F7
102
{ACAD_REACTORS
330
B0F1
102
}
330
B0F1
100
AcDbVisualStyle
  2

 70
     4
177
     3
291
     0
 70
    58
 90
        0
176
     1
 90
        2
176
     1
 90
        0
176
     1
 90
        0
176
     1
 40
-0.6
176
     1
 40
-30.0
176
     1
 62
     7
176
     1
 90
        1
176
     1
 90
        4
176
     1
 62
     7
176
     1
 62
   257
176
     1
 90
        1
176
     1
 90
        1
176
     1
 40
1.0
176
     1
 90
        0
176
     1
 62
   257
176
     1
 40
1.0
176
     1
 90
        1
176
     1
 90
        6
176
     1
 90
        2
176
     1
 62
     7
176
     1
 90
        5
176
     1
 90
        0
176
     1
 90
        0
176
     1
290
     0
176
     1
 90
        1
176
     1
 40
0.0
176
     1
 90
        0
176
     1
290
     1
176
     1
290
     1
176
     1
290
     0
176
     1
290
     0
176
     1
290
     0
176
     1
290
     0
176
     1
290
     0
176
     1
290
     0
176
     1
290
     0
176
     1
 90
       50
176
     1
 40
0.0
176
     1
 40
1.0
176
     1
 90
        0
176
     1
 62
    18
420
        0
176
     1
 90
       50
176
     1
 90
        3
176
     1
 62
     5
420
      255
176
     1
290
     0
176
     1
 90
       50
176
     1
 90
       50
176
     1
 90
       50
176
     1
290
     0
176
     1
 90
       50
176
     1
 62
   256
176
     0
 40
1.0
176
     0
 90
        2
176
     1
  1
strokes_ogs.tif
176
     1
290
     0
176
     1
 40
1.0
176
     1
 40
1.0
176
     1
  0
VISUALSTYLE
  5
B0F9
102
{ACAD_REACTORS
330
B0F1
102
}
330
B0F1
100
AcDbVisualStyle
  2

 70
     6
177
     3
291
     0
 70
    58
 90
        1
176
     1
 90
        2
176
     1
 90
        2
176
     1
 90
        0
176
     1
 40
-0.6
176
     1
 40
-30.0
176
     1
 62
     7
176
     1
 90
        2
176
     1
 90
        2
176
     1
 62
     7
176
     1
 62
   257
176
     1
 90
        2
176
     1
 90
        1
176
     1
 40
40.0
176
     1
 90
        0
176
     1
 62
   257
176
     1
 40
1.0
176
     1
 90
        1
176
     1
 90
        6
176
     1
 90
        2
176
     1
 62
     7
176
     1
 90
        3
176
     1
 90
        0
176
     1
 90
        0
176
     1
290
     0
176
     1
 90
        1
176
     1
 40
0.0
176
     1
 90
        0
176
     1
290
     0
176
     1
290
     1
176
     1
290
     1
176
     1
290
     0
176
     1
290
     0
176
     1
290
     0
176
     1
290
     0
176
     1
290
     0
176
     1
290
     0
176
     1
 90
       50
176
     1
 40
0.0
176
     1
 40
1.0
176
     1
 90
        0
176
     1
 62
    18
420
        0
176
     1
 90
       50
176
     1
 90
        3
176
     1
 62
     5
420
      255
176
     1
290
     0
176
     1
 90
       50
176
     1
 90
       50
176
     1
 90
       50
176
     1
290
     0
176
     1
 90
       50
176
     1
 62
   256
176
     0
 40
1.0
176
     0
 90
        2
176
     1
  1
strokes_ogs.tif
176
     1
290
     0
176
     1
 40
1.0
176
     1
 40
1.0
176
     1
  0
VISUALSTYLE
  5
B0F8
102
{ACAD_REACTORS
330
B0F1
102
}
330
B0F1
100
AcDbVisualStyle
  2

 70
     5
177
     3
291
     0
 70
    58
 90
        0
176
     1
 90
        2
176
     1
 90
        0
176
     1
 90
        0
176
     1
 40
-0.6
176
     1
 40
-30.0
176
     1
 62
     7
176
     1
 90
        1
176
     1
 90
        4
176
     1
 62
     7
176
     1
 62
   257
176
     1
 90
        1
176
     1
 90
        1
176
     1
 40
1.0
176
     1
 90
        0
176
     1
 62
   257
176
     1
 40
1.0
176
     1
 90
        1
176
     1
 90
        6
176
     1
 90
        2
176
     1
 62
     7
176
     1
 90
        5
176
     1
 90
        0
176
     1
 90
        0
176
     1
290
     0
176
     1
 90
        1
176
     1
 40
0.0
176
     1
 90
        0
176
     1
290
     0
176
     1
290
     1
176
     1
290
     1
176
     1
290
     0
176
     1
290
     0
176
     1
290
     0
176
     1
290
     0
176
     1
290
     0
176
     1
290
     0
176
     1
 90
       50
176
     1
 40
0.0
176
     1
 40
1.0
176
     1
 90
        0
176
     1
 62
    18
420
        0
176
     1
 90
       50
176
     1
 90
        3
176
     1
 62
     5
420
      255
176
     1
290
     0
176
     1
 90
       50
176
     1
 90
       50
176
     1
 90
       50
176
     1
290
     0
176
     1
 90
       50
176
     1
 62
   256
176
     0
 40
1.0
176
     0
 90
        2
176
     1
  1
strokes_ogs.tif
176
     1
290
     0
176
     1
 40
1.0
176
     1
 40
1.0
176
     1
  0
VISUALSTYLE
  5
B0F6
102
{ACAD_REACTORS
330
B0F1
102
}
330
B0F1
100
AcDbVisualStyle
  2

 70
     7
177
     3
291
     1
 70
    58
 90
        1
176
     1
 90
        0
176
     1
 90
        1
176
     1
 90
        0
176
     1
 40
-0.6
176
     1
 40
-30.0
176
     1
 62
     7
176
     1
 90
        0
176
     1
 90
        4
176
     1
 62
     7
176
     1
 62
   257
176
     1
 90
        1
176
     1
 90
        1
176
     1
 40
1.0
176
     1
 90
        8
176
     1
 62
     7
176
     1
 40
1.0
176
     1
 90
        1
176
     1
 90
        6
176
     1
 90
        2
176
     1
 62
     7
176
     1
 90
        5
176
     1
 90
        0
176
     1
 90
        0
176
     1
290
     0
176
     1
 90
        1
176
     1
 40
0.0
176
     1
 90
        0
176
     1
290
     0
176
     1
290
     1
176
     1
290
     1
176
     1
290
     0
176
     1
290
     0
176
     1
290
     0
176
     1
290
     0
176
     1
290
     0
176
     1
290
     0
176
     1
 90
       50
176
     1
 40
0.0
176
     1
 40
1.0
176
     1
 90
        0
176
     1
 62
    18
420
        0
176
     1
 90
       50
176
     1
 90
        3
176
     1
 62
     5
420
      255
176
     1
290
     0
176
     1
 90
       50
176
     1
 90
       50
176
     1
 90
       50
176
     1
290
     0
176
     1
 90
       50
176
     1
 62
   256
176
     0
 40
1.0
176
     0
 90
        2
176
     1
  1
strokes_ogs.tif
176
     1
290
     0
176
     1
 40
1.0
176
     1
 40
1.0
176
     1
  0
VISUALSTYLE
  5
B0FD
102
{ACAD_REACTORS
330
B0F1
102
}
330
B0F1
100
AcDbVisualStyle
  2

 70
    12
177
     3
291
     1
 70
    58
 90
        2
176
     1
 90
        2
176
     1
 90
        0
176
     1
 90
        0
176
     1
 40
-0.6
176
     1
 40
-30.0
176
     1
 62
     7
176
     1
 90
        1
176
     1
 90
        4
176
     1
 62
     7
176
     1
 62
   257
176
     1
 90
        1
176
     1
 90
        1
176
     1
 40
1.0
176
     1
 90
        8
176
     1
 62
     7
176
     1
 40
1.0
176
     1
 90
        1
176
     1
 90
        6
176
     1
 90
        2
176
     1
 62
     7
176
     1
 90
        5
176
     1
 90
        0
176
     1
 90
        0
176
     1
290
     0
176
     1
 90
        1
176
     1
 40
50.0
176
     1
 90
        0
176
     1
290
     0
176
     1
290
     1
176
     1
290
     1
176
     1
290
     0
176
     1
290
     0
176
     1
290
     0
176
     1
290
     0
176
     1
290
     0
176
     1
290
     0
176
     1
 90
       50
176
     1
 40
0.0
176
     1
 40
1.0
176
     1
 90
        0
176
     1
 62
    18
420
        0
176
     1
 90
       50
176
     1
 90
        3
176
     1
 62
     5
420
      255
176
     1
290
     0
176
     1
 90
       50
176
     1
 90
       50
176
     1
 90
       50
176
     1
290
     0
176
     1
 90
       50
176
     1
 62
   256
176
     0
 40
1.0
176
     0
 90
        2
176
     1
  1
strokes_ogs.tif
176
     1
290
     0
176
     1
 40
1.0
176
     1
 40
1.0
176
     1
  0
VISUALSTYLE
  5
B101
102
{ACAD_REACTORS
330
B0F1
102
}
330
B0F1
100
AcDbVisualStyle
  2

 70
    16
177
     3
291
     1
 70
    58
 90
        2
176
     1
 90
        2
176
     1
 90
        3
176
     1
 90
        0
176
     1
 40
-0.6
176
     1
 40
-30.0
176
     1
 62
     8
176
     1
 90
        1
176
     1
 90
        4
176
     1
 62
     7
176
     1
 62
   257
176
     1
 90
        1
176
     1
 90
        1
176
     1
 40
1.0
176
     1
 90
        8
176
     1
 62
     8
176
     1
 40
1.0
176
     1
 90
        1
176
     1
 90
        6
176
     1
 90
        2
176
     1
 62
     7
176
     1
 90
        5
176
     1
 90
        0
176
     1
 90
        0
176
     1
290
     0
176
     1
 90
        1
176
     1
 40
0.0
176
     1
 90
        0
176
     1
290
     0
176
     1
290
     1
176
     1
290
     1
176
     1
290
     0
176
     1
290
     0
176
     1
290
     0
176
     1
290
     0
176
     1
290
     0
176
     1
290
     0
176
     1
 90
       50
176
     1
 40
0.0
176
     1
 40
1.0
176
     1
 90
        0
176
     1
 62
    18
420
        0
176
     1
 90
       50
176
     1
 90
        3
176
     1
 62
     5
420
      255
176
     1
290
     0
176
     1
 90
       50
176
     1
 90
       50
176
     1
 90
       50
176
     1
290
     0
176
     1
 90
       50
176
     1
 62
   256
176
     0
 40
1.0
176
     0
 90
        2
176
     1
  1
strokes_ogs.tif
176
     1
290
     0
176
     1
 40
1.0
176
     1
 40
1.0
176
     1
  0
VISUALSTYLE
  5
B0FA
102
{ACAD_REACTORS
330
B0F1
102
}
330
B0F1
100
AcDbVisualStyle
  2

 70
     9
177
     3
291
     0
 70
    58
 90
        3
176
     1
 90
        2
176
     1
 90
        0
176
     1
 90
        0
176
     1
 40
-0.6
176
     1
 40
-30.0
176
     1
 62
     7
176
     1
 90
        2
176
     1
 90
        2
176
     1
 62
     7
176
     1
 62
   257
176
     1
 90
        1
176
     1
 90
        1
176
     1
 40
40.0
176
     1
 90
        8
176
     1
 62
     7
176
     1
 40
1.0
176
     1
 90
        1
176
     1
 90
        6
176
     1
 90
        2
176
     1
 62
     7
176
     1
 90
        3
176
     1
 90
        0
176
     1
 90
        0
176
     1
290
     0
176
     1
 90
        1
176
     1
 40
0.0
176
     1
 90
        0
176
     1
290
     0
176
     1
290
     1
176
     1
290
     1
176
     1
290
     0
176
     1
290
     0
176
     1
290
     0
176
     1
290
     0
176
     1
290
     0
176
     1
290
     0
176
     1
 90
       50
176
     1
 40
0.0
176
     1
 40
1.0
176
     1
 90
        0
176
     1
 62
    18
420
        0
176
     1
 90
       50
176
     1
 90
        3
176
     1
 62
     5
420
      255
176
     1
290
     0
176
     1
 90
       50
176
     1
 90
       50
176
     1
 90
       50
176
     1
290
     0
176
     1
 90
       50
176
     1
 62
   256
176
     0
 40
1.0
176
     0
 90
        2
176
     1
  1
strokes_ogs.tif
176
     1
290
     0
176
     1
 40
1.0
176
     1
 40
1.0
176
     1
  0
VISUALSTYLE
  5
B0FC
102
{ACAD_REACTORS
330
B0F1
102
}
330
B0F1
100
AcDbVisualStyle
  2

 70
    11
177
     3
291
     1
 70
    58
 90
        2
176
     1
 90
        2
176
     1
 90
        0
176
     1
 90
        0
176
     1
 40
-0.6
176
     1
 40
-30.0
176
     1
 62
     7
176
     1
 90
        1
176
     1
 90
        4
176
     1
 62
     7
176
     1
 62
   257
176
     1
 90
        1
176
     1
 90
        1
176
     1
 40
1.0
176
     1
 90
        8
176
     1
 62
     7
176
     1
 40
1.0
176
     1
 90
        1
176
     1
 90
        6
176
     1
 90
        2
176
     1
 62
     7
176
     1
 90
        5
176
     1
 90
        0
176
     1
 90
        0
176
     1
290
     0
176
     1
 90
        1
176
     1
 40
-50.0
176
     1
 90
        0
176
     1
290
     0
176
     1
290
     1
176
     1
290
     1
176
     1
290
     0
176
     1
290
     0
176
     1
290
     0
176
     1
290
     0
176
     1
290
     0
176
     1
290
     0
176
     1
 90
       50
176
     1
 40
0.0
176
     1
 40
1.0
176
     1
 90
        0
176
     1
 62
    18
420
        0
176
     1
 90
       50
176
     1
 90
        3
176
     1
 62
     5
420
      255
176
     1
290
     0
176
     1
 90
       50
176
     1
 90
       50
176
     1
 90
       50
176
     1
290
     0
176
     1
 90
       50
176
     1
 62
   256
176
     0
 40
1.0
176
     0
 90
        2
176
     1
  1
strokes_ogs.tif
176
     1
290
     0
176
     1
 40
1.0
176
     1
 40
1.0
176
     1
  0
VISUALSTYLE
  5
B9D0
102
{ACAD_REACTORS
330
B0F1
102
}
330
B0F1
100
AcDbVisualStyle
  2

 70
    22
177
     3
291
     1
 70
    58
 90
        2
176
     0
 90
        2
176
     0
 90
        0
176
     0
 90
        0
176
     0
 40
-0.6
176
     0
 40
-30.0
176
     0
 62
     7
176
     0
 90
        1
176
     0
 90
        4
176
     0
 62
     7
176
     0
 62
   257
176
     0
 90
        1
176
     0
 90
        1
176
     0
 40
1.0
176
     0
 90
        8
176
     2
 62
     7
176
     0
 40
1.0
176
     0
 90
        1
176
     0
 90
        6
176
     0
 90
        2
176
     0
 62
     7
176
     0
 90
        5
176
     0
 90
        0
176
     0
 90
        0
176
     0
290
     0
176
     0
 90
        1
176
     0
 40
0.0
176
     0
 90
        0
176
     0
290
     0
176
     0
290
     1
176
     0
290
     1
176
     0
290
     0
176
     0
290
     0
176
     0
290
     0
176
     0
290
     0
176
     0
290
     0
176
     0
290
     0
176
     0
 90
       50
176
     0
 40
0.0
176
     0
 40
1.0
176
     0
 90
        0
176
     0
 62
    18
420
        0
176
     0
 90
       50
176
     0
 90
        3
176
     0
 62
     5
420
      255
176
     0
290
     0
176
     0
 90
       50
176
     0
 90
       50
176
     0
 90
       50
176
     0
290
     0
176
     0
 90
       50
176
     0
 62
   256
176
     0
 40
1.0
176
     0
 90
        2
176
     0
  1
strokes_ogs.tif
176
     0
290
     0
176
     0
 40
1.0
176
     0
 40
1.0
176
     0
  0
VISUALSTYLE
  5
B100
102
{ACAD_REACTORS
330
B0F1
102
}
330
B0F1
100
AcDbVisualStyle
  2

 70
    15
177
     3
291
     1
 70
    58
 90
        2
176
     1
 90
        2
176
     1
 90
        0
176
     1
 90
        0
176
     1
 40
-0.6
176
     1
 40
-30.0
176
     1
 62
     7
176
     1
 90
        1
176
     1
 90
        4
176
     1
 62
     7
176
     1
 62
   257
176
     1
 90
        1
176
     1
 90
        1
176
     1
 40
1.0
176
     1
 90
        8
176
     1
 62
     7
176
     1
 40
1.0
176
     1
 90
        1
176
     1
 90
        6
176
     1
 90
        2
176
     1
 62
     7
176
     1
 90
        5
176
     1
 90
        0
176
     1
 90
        0
176
     1
290
     0
176
     1
 90
        1
176
     1
 40
0.0
176
     1
 90
        0
176
     1
290
     0
176
     1
290
     1
176
     1
290
     1
176
     1
290
     0
176
     1
290
     0
176
     1
290
     0
176
     1
290
     0
176
     1
290
     0
176
     1
290
     0
176
     1
 90
       50
176
     1
 40
0.0
176
     1
 40
1.0
176
     1
 90
        0
176
     1
 62
    18
420
        0
176
     1
 90
       50
176
     1
 90
        3
176
     1
 62
     5
420
      255
176
     1
290
     0
176
     1
 90
       50
176
     1
 90
       50
176
     1
 90
       50
176
     1
290
     0
176
     1
 90
       50
176
     1
 62
   256
176
     0
 40
1.0
176
     0
 90
        2
176
     1
  1
strokes_ogs.tif
176
     1
290
     0
176
     1
 40
1.0
176
     1
 40
1.0
176
     1
  0
VISUALSTYLE
  5
B0F2
102
{ACAD_REACTORS
330
B0F1
102
}
330
B0F1
100
AcDbVisualStyle
  2

 70
     0
177
     3
291
     1
 70
    58
 90
        2
176
     1
 90
        1
176
     1
 90
        1
176
     1
 90
        2
176
     1
 40
-0.6
176
     1
 40
30.0
176
     1
 62
     7
176
     1
 90
        0
176
     1
 90
        4
176
     1
 62
     7
176
     1
 62
   257
176
     1
 90
        1
176
     1
 90
        1
176
     1
 40
1.0
176
     1
 90
        8
176
     1
 62
     7
176
     1
 40
1.0
176
     1
 90
        1
176
     1
 90
        6
176
     1
 90
        2
176
     1
 62
     7
176
     1
 90
        5
176
     1
 90
        0
176
     1
 90
        0
176
     1
290
     0
176
     1
 90
       13
176
     1
 40
0.0
176
     1
 90
        0
176
     1
290
     0
176
     1
290
     1
176
     1
290
     1
176
     1
290
     0
176
     1
290
     0
176
     1
290
     0
176
     1
290
     0
176
     1
290
     0
176
     1
290
     0
176
     1
 90
       50
176
     1
 40
0.0
176
     1
 40
1.0
176
     1
 90
        0
176
     1
 62
    18
420
        0
176
     1
 90
       50
176
     1
 90
        3
176
     1
 62
     5
420
      255
176
     1
290
     0
176
     1
 90
       50
176
     1
 90
       50
176
     1
 90
       50
176
     1
290
     0
176
     1
 90
       50
176
     1
 62
   256
176
     0
 40
1.0
176
     0
 90
        2
176
     1
  1
strokes_ogs.tif
176
     1
290
     0
176
     1
 40
1.0
176
     1
 40
1.0
176
     1
  0
VISUALSTYLE
  5
B0F3
102
{ACAD_REACTORS
330
B0F1
102
}
330
B0F1
100
AcDbVisualStyle
  2

 70
     1
177
     3
291
     1
 70
    58
 90
        2
176
     1
 90
        1
176
     1
 90
        1
176
     1
 90
        2
176
     1
 40
-0.6
176
     1
 40
30.0
176
     1
 62
     7
176
     1
 90
        1
176
     1
 90
        4
176
     1
 62
     7
176
     1
 62
   257
176
     1
 90
        1
176
     1
 90
        1
176
     1
 40
1.0
176
     1
 90
        0
176
     1
 62
   257
176
     1
 40
1.0
176
     1
 90
        1
176
     1
 90
        6
176
     1
 90
        2
176
     1
 62
     7
176
     1
 90
        5
176
     1
 90
        0
176
     1
 90
        0
176
     1
290
     0
176
     1
 90
       13
176
     1
 40
0.0
176
     1
 90
        0
176
     1
290
     0
176
     1
290
     1
176
     1
290
     1
176
     1
290
     0
176
     1
290
     0
176
     1
290
     0
176
     1
290
     0
176
     1
290
     0
176
     1
290
     0
176
     1
 90
       50
176
     1
 40
0.0
176
     1
 40
1.0
176
     1
 90
        0
176
     1
 62
    18
420
        0
176
     1
 90
       50
176
     1
 90
        3
176
     1
 62
     5
420
      255
176
     1
290
     0
176
     1
 90
       50
176
     1
 90
       50
176
     1
 90
       50
176
     1
290
     0
176
     1
 90
       50
176
     1
 62
   256
176
     0
 40
1.0
176
     0
 90
        2
176
     1
  1
strokes_ogs.tif
176
     1
290
     0
176
     1
 40
1.0
176
     1
 40
1.0
176
     1
  0
VISUALSTYLE
  5
B0F4
102
{ACAD_REACTORS
330
B0F1
102
}
330
B0F1
100
AcDbVisualStyle
  2

 70
     2
177
     3
291
     1
 70
    58
 90
        2
176
     1
 90
        2
176
     1
 90
        1
176
     1
 90
        2
176
     1
 40
-0.6
176
     1
 40
30.0
176
     1
 62
     7
176
     1
 90
        0
176
     1
 90
        4
176
     1
 62
     7
176
     1
 62
   257
176
     1
 90
        1
176
     1
 90
        1
176
     1
 40
1.0
176
     1
 90
        0
176
     1
 62
     7
176
     1
 40
1.0
176
     1
 90
        1
176
     1
 90
        6
176
     1
 90
        2
176
     1
 62
     7
176
     1
 90
        5
176
     1
 90
        0
176
     1
 90
        0
176
     1
290
     0
176
     1
 90
       13
176
     1
 40
0.0
176
     1
 90
        0
176
     1
290
     0
176
     1
290
     1
176
     1
290
     1
176
     1
290
     0
176
     1
290
     0
176
     1
290
     0
176
     1
290
     0
176
     1
290
     0
176
     1
290
     0
176
     1
 90
       50
176
     1
 40
0.0
176
     1
 40
1.0
176
     1
 90
        0
176
     1
 62
    18
420
        0
176
     1
 90
       50
176
     1
 90
        3
176
     1
 62
     5
420
      255
176
     1
290
     0
176
     1
 90
       50
176
     1
 90
       50
176
     1
 90
       50
176
     1
290
     0
176
     1
 90
       50
176
     1
 62
   256
176
     0
 40
1.0
176
     0
 90
        2
176
     1
  1
strokes_ogs.tif
176
     1
290
     0
176
     1
 40
1.0
176
     1
 40
1.0
176
     1
  0
VISUALSTYLE
  5
B0F5
102
{ACAD_REACTORS
330
B0F1
102
}
330
B0F1
100
AcDbVisualStyle
  2

 70
     3
177
     3
291
     1
 70
    58
 90
        2
176
     1
 90
        2
176
     1
 90
        1
176
     1
 90
        2
176
     1
 40
-0.6
176
     1
 40
30.0
176
     1
 62
     7
176
     1
 90
        1
176
     1
 90
        4
176
     1
 62
     7
176
     1
 62
   257
176
     1
 90
        1
176
     1
 90
        1
176
     1
 40
1.0
176
     1
 90
        0
176
     1
 62
   257
176
     1
 40
1.0
176
     1
 90
        1
176
     1
 90
        6
176
     1
 90
        2
176
     1
 62
     7
176
     1
 90
        5
176
     1
 90
        0
176
     1
 90
        0
176
     1
290
     0
176
     1
 90
       13
176
     1
 40
0.0
176
     1
 90
        0
176
     1
290
     0
176
     1
290
     1
176
     1
290
     1
176
     1
290
     0
176
     1
290
     0
176
     1
290
     0
176
     1
290
     0
176
     1
290
     0
176
     1
290
     0
176
     1
 90
       50
176
     1
 40
0.0
176
     1
 40
1.0
176
     1
 90
        0
176
     1
 62
    18
420
        0
176
     1
 90
       50
176
     1
 90
        3
176
     1
 62
     5
420
      255
176
     1
290
     0
176
     1
 90
       50
176
     1
 90
       50
176
     1
 90
       50
176
     1
290
     0
176
     1
 90
       50
176
     1
 62
   256
176
     0
 40
1.0
176
     0
 90
        2
176
     1
  1
strokes_ogs.tif
176
     1
290
     0
176
     1
 40
1.0
176
     1
 40
1.0
176
     1
  0
VISUALSTYLE
  5
B9C8
102
{ACAD_REACTORS
330
B0F1
102
}
330
B0F1
100
AcDbVisualStyle
  2

 70
     6
177
     3
291
     0
 70
    58
 90
        1
176
     1
 90
        2
176
     1
 90
        2
176
     1
 90
        0
176
     1
 40
-0.6
176
     1
 40
-30.0
176
     1
 62
     7
176
     1
 90
        2
176
     1
 90
        2
176
     1
 62
     7
176
     1
 62
   257
176
     1
 90
        2
176
     1
 90
        1
176
     1
 40
40.0
176
     1
 90
        0
176
     1
 62
   257
176
     1
 40
1.0
176
     1
 90
        1
176
     1
 90
        6
176
     1
 90
        2
176
     1
 62
     7
176
     1
 90
        3
176
     1
 90
        0
176
     1
 90
        0
176
     1
290
     0
176
     1
 90
        1
176
     1
 40
0.0
176
     1
 90
        0
176
     1
290
     0
176
     1
290
     1
176
     1
290
     1
176
     1
290
     0
176
     1
290
     0
176
     1
290
     0
176
     1
290
     0
176
     1
290
     0
176
     1
290
     0
176
     1
 90
       50
176
     1
 40
0.0
176
     1
 40
1.0
176
     1
 90
        0
176
     1
 62
    18
420
        0
176
     1
 90
       50
176
     1
 90
        3
176
     1
 62
     5
420
      255
176
     1
290
     0
176
     1
 90
       50
176
     1
 90
       50
176
     1
 90
       50
176
     1
290
     0
176
     1
 90
       50
176
     1
 62
   256
176
     0
 40
1.0
176
     0
 90
        2
176
     1
  1
strokes_ogs.tif
176
     1
290
     0
176
     1
 40
1.0
176
     1
 40
1.0
176
     1
  0
VISUALSTYLE
  5
B9CE
102
{ACAD_REACTORS
330
B0F1
102
}
330
B0F1
100
AcDbVisualStyle
  2

 70
    20
177
     3
291
     1
 70
    58
 90
        2
176
     0
 90
        2
176
     0
 90
        0
176
     0
 90
        0
176
     0
 40
-0.6
176
     0
 40
-30.0
176
     0
 62
     7
176
     0
 90
        1
176
     0
 90
        4
176
     0
 62
     7
176
     0
 62
   257
176
     0
 90
        1
176
     0
 90
        1
176
     0
 40
1.0
176
     0
 90
       10
176
     2
 62
     7
176
     0
 40
1.0
176
     0
 90
        1
176
     0
 90
        6
176
     0
 90
        2
176
     0
 62
     7
176
     0
 90
        5
176
     0
 90
        0
176
     0
 90
        0
176
     0
290
     0
176
     0
 90
        1
176
     0
 40
0.0
176
     0
 90
        0
176
     0
290
     0
176
     0
290
     1
176
     0
290
     1
176
     0
290
     0
176
     0
290
     0
176
     0
290
     0
176
     0
290
     0
176
     0
290
     0
176
     0
290
     0
176
     0
 90
       50
176
     0
 40
0.0
176
     0
 40
1.0
176
     0
 90
        0
176
     0
 62
    18
420
        0
176
     0
 90
       50
176
     0
 90
        3
176
     0
 62
     5
420
      255
176
     0
290
     0
176
     0
 90
       50
176
     0
 90
       50
176
     0
 90
       50
176
     0
290
     0
176
     0
 90
       50
176
     0
 62
   256
176
     0
 40
1.0
176
     0
 90
        2
176
     0
  1
strokes_ogs.tif
176
     0
290
     0
176
     0
 40
1.0
176
     0
 40
1.0
176
     0
  0
VISUALSTYLE
  5
B0FF
102
{ACAD_REACTORS
330
B0F1
102
}
330
B0F1
100
AcDbVisualStyle
  2

 70
    14
177
     3
291
     1
 70
    58
 90
        2
176
     1
 90
        2
176
     1
 90
        0
176
     1
 90
        0
176
     1
 40
-0.6
176
     1
 40
-30.0
176
     1
 62
     7
176
     1
 90
        1
176
     1
 90
        4
176
     1
 62
     7
176
     1
 62
   257
176
     1
 90
        7
176
     1
 90
        7
176
     1
 40
1.0
176
     1
 90
        8
176
     1
 62
     7
176
     1
 40
1.0
176
     1
 90
        1
176
     1
 90
        6
176
     1
 90
        2
176
     1
 62
     7
176
     1
 90
        5
176
     1
 90
        0
176
     1
 90
        0
176
     1
290
     0
176
     1
 90
        1
176
     1
 40
0.0
176
     1
 90
        0
176
     1
290
     0
176
     1
290
     1
176
     1
290
     1
176
     1
290
     0
176
     1
290
     0
176
     1
290
     0
176
     1
290
     0
176
     1
290
     0
176
     1
290
     0
176
     1
 90
       50
176
     1
 40
0.0
176
     1
 40
1.0
176
     1
 90
        0
176
     1
 62
    18
420
        0
176
     1
 90
       50
176
     1
 90
        3
176
     1
 62
     5
420
      255
176
     1
290
     0
176
     1
 90
       50
176
     1
 90
       50
176
     1
 90
       50
176
     1
290
     0
176
     1
 90
       50
176
     1
 62
   256
176
     0
 40
1.0
176
     0
 90
        2
176
     1
  1
strokes_ogs.tif
176
     1
290
     0
176
     1
 40
1.0
176
     1
 40
1.0
176
     1
  0
VISUALSTYLE
  5
B9CF
102
{ACAD_REACTORS
330
B0F1
102
}
330
B0F1
100
AcDbVisualStyle
  2

 70
    21
177
     3
291
     1
 70
    58
 90
        2
176
     0
 90
        2
176
     0
 90
        0
176
     0
 90
        0
176
     0
 40
-0.6
176
     0
 40
-30.0
176
     0
 62
     7
176
     0
 90
        1
176
     0
 90
        4
176
     0
 62
     7
176
     0
 62
   257
176
     0
 90
        1
176
     0
 90
        1
176
     0
 40
1.0
176
     0
 90
        9
176
     2
 62
     7
176
     0
 40
1.0
176
     0
 90
        1
176
     0
 90
        6
176
     0
 90
        2
176
     0
 62
     7
176
     0
 90
        5
176
     0
 90
        0
176
     0
 90
        0
176
     0
290
     0
176
     0
 90
        1
176
     0
 40
0.0
176
     0
 90
        0
176
     0
290
     0
176
     0
290
     1
176
     0
290
     1
176
     0
290
     0
176
     0
290
     0
176
     0
290
     0
176
     0
290
     0
176
     0
290
     0
176
     0
290
     0
176
     0
 90
       50
176
     0
 40
0.0
176
     0
 40
1.0
176
     0
 90
        0
176
     0
 62
    18
420
        0
176
     0
 90
       50
176
     0
 90
        3
176
     0
 62
     5
420
      255
176
     0
290
     0
176
     0
 90
       50
176
     0
 90
       50
176
     0
 90
       50
176
     0
290
     0
176
     0
 90
       50
176
     0
 62
   256
176
     0
 40
1.0
176
     0
 90
        2
176
     0
  1
strokes_ogs.tif
176
     0
290
     0
176
     0
 40
1.0
176
     0
 40
1.0
176
     0
  0
VISUALSTYLE
  5
B0FB
102
{ACAD_REACTORS
330
B0F1
102
}
330
B0F1
100
AcDbVisualStyle
  2

 70
     8
177
     3
291
     0
 70
    58
 90
        2
176
     1
 90
        2
176
     1
 90
        0
176
     1
 90
        0
176
     1
 40
-0.6
176
     1
 40
-30.0
176
     1
 62
     7
176
     1
 90
        1
176
     1
 90
        0
176
     1
 62
     7
176
     1
 62
   257
176
     1
 90
        1
176
     1
 90
        1
176
     1
 40
1.0
176
     1
 90
        8
176
     1
 62
     8
176
     1
 40
1.0
176
     1
 90
        1
176
     1
 90
        6
176
     1
 90
        2
176
     1
 62
     7
176
     1
 90
        5
176
     1
 90
        0
176
     1
 90
        0
176
     1
290
     0
176
     1
 90
       13
176
     1
 40
0.0
176
     1
 90
        0
176
     1
290
     0
176
     1
290
     1
176
     1
290
     1
176
     1
290
     0
176
     1
290
     0
176
     1
290
     0
176
     1
290
     0
176
     1
290
     0
176
     1
290
     0
176
     1
 90
       50
176
     1
 40
0.0
176
     1
 40
1.0
176
     1
 90
        0
176
     1
 62
    18
420
        0
176
     1
 90
       50
176
     1
 90
        3
176
     1
 62
     5
420
      255
176
     1
290
     0
176
     1
 90
       50
176
     1
 90
       50
176
     1
 90
       50
176
     1
290
     0
176
     1
 90
       50
176
     1
 62
   256
176
     0
 40
1.0
176
     0
 90
        2
176
     1
  1
strokes_ogs.tif
176
     1
290
     0
176
     1
 40
1.0
176
     1
 40
1.0
176
     1
  0
VISUALSTYLE
  5
B9CD
102
{ACAD_REACTORS
330
B0F1
102
}
330
B0F1
100
AcDbVisualStyle
  2

 70
    27
177
     3
291
     0
 70
    58
 90
        2
176
     1
 90
        2
176
     1
 90
        1
176
     1
 90
        2
176
     1
 40
-0.6
176
     1
 40
30.0
176
     1
 62
     7
176
     1
 90
        0
176
     1
 90
        4
176
     1
 62
     7
176
     1
 62
   257
176
     1
 90
        1
176
     1
 90
        1
176
     1
 40
1.0
176
     1
 90
        8
176
     1
 62
   257
176
     1
 40
1.0
176
     1
 90
        1
176
     1
 90
        6
176
     1
 90
        2
176
     1
 62
     8
176
     1
 90
        3
176
     1
 90
        0
176
     1
 90
        0
176
     1
290
     0
176
     1
 90
        5
176
     1
 40
0.0
176
     1
 90
        0
176
     1
290
     0
176
     1
290
     1
176
     1
290
     1
176
     1
290
     0
176
     1
290
     0
176
     1
290
     0
176
     1
290
     0
176
     1
290
     0
176
     1
290
     0
176
     1
 90
       50
176
     1
 40
0.0
176
     1
 40
1.0
176
     1
 90
        0
176
     1
 62
    18
420
        0
176
     1
 90
       50
176
     1
 90
        3
176
     1
 62
     5
420
      255
176
     1
290
     0
176
     1
 90
       50
176
     1
 90
       50
176
     1
 90
       50
176
     1
290
     0
176
     1
 90
       50
176
     1
 62
   256
176
     0
 40
1.0
176
     0
 90
        2
176
     1
  1
strokes_ogs.tif
176
     1
290
     0
176
     1
 40
1.0
176
     1
 40
1.0
176
     1
  0
VISUALSTYLE
  5
B9CC
102
{ACAD_REACTORS
330
B0F1
102
}
330
B0F1
100
AcDbVisualStyle
  2

 70
    26
177
     3
291
     0
 70
    58
 90
        2
176
     1
 90
        2
176
     1
 90
        1
176
     1
 90
        2
176
     1
 40
-0.6
176
     1
 40
30.0
176
     1
 62
     7
176
     1
 90
        1
176
     1
 90
       10
176
     1
 62
     7
176
     1
 62
   257
176
     1
 90
        2
176
     1
 90
        1
176
     1
 40
1.0
176
     1
 90
        8
176
     1
 62
   257
176
     1
 40
1.0
176
     1
 90
        1
176
     1
 90
        6
176
     1
 90
        2
176
     1
 62
     7
176
     1
 90
        3
176
     1
 90
        0
176
     1
 90
        0
176
     1
290
     0
176
     1
 90
        5
176
     1
 40
0.0
176
     1
 90
        0
176
     1
290
     0
176
     1
290
     1
176
     1
290
     1
176
     1
290
     0
176
     1
290
     0
176
     1
290
     0
176
     1
290
     0
176
     1
290
     0
176
     1
290
     0
176
     1
 90
       50
176
     1
 40
0.0
176
     1
 40
1.0
176
     1
 90
        0
176
     1
 62
    18
420
        0
176
     1
 90
       50
176
     1
 90
        3
176
     1
 62
     5
420
      255
176
     1
290
     0
176
     1
 90
       50
176
     1
 90
       50
176
     1
 90
       50
176
     1
290
     0
176
     1
 90
       50
176
     1
 62
   256
176
     0
 40
1.0
176
     0
 90
        2
176
     1
  1
strokes_ogs.tif
176
     1
290
     0
176
     1
 40
1.0
176
     1
 40
1.0
176
     1
  0
VISUALSTYLE
  5
B9C9
102
{ACAD_REACTORS
330
B0F1
102
}
330
B0F1
100
AcDbVisualStyle
  2

 70
    23
177
     3
291
     0
 70
    58
 90
        2
176
     1
 90
        2
176
     1
 90
        3
176
     1
 90
        0
176
     1
 40
-0.6
176
     1
 40
-30.0
176
     1
 62
     7
176
     1
 90
        2
176
     1
 90
        2
176
     1
 62
     7
176
     1
 62
     7
176
     1
 90
        1
176
     1
 90
        1
176
     1
 40
40.0
176
     1
 90
        8
176
     1
 62
     7
176
     1
 40
1.0
176
     1
 90
        1
176
     1
 90
        6
176
     1
 90
        2
176
     1
 62
     7
176
     1
 90
        3
176
     1
 90
        0
176
     1
 90
        0
176
     1
290
     0
176
     1
 90
        1
176
     1
 40
0.0
176
     1
 90
        0
176
     1
290
     0
176
     1
290
     1
176
     1
290
     1
176
     1
290
     0
176
     1
290
     0
176
     1
290
     0
176
     1
290
     0
176
     1
290
     0
176
     1
290
     0
176
     1
 90
       50
176
     1
 40
0.0
176
     1
 40
1.0
176
     1
 90
        0
176
     1
 62
    18
420
        0
176
     1
 90
       50
176
     1
 90
        3
176
     1
 62
     5
420
      255
176
     1
290
     0
176
     1
 90
       50
176
     1
 90
       50
176
     1
 90
       50
176
     1
290
     0
176
     1
 90
       50
176
     1
 62
   256
176
     0
 40
1.0
176
     0
 90
        2
176
     1
  1
strokes_ogs.tif
176
     1
290
     0
176
     1
 40
1.0
176
     1
 40
1.0
176
     1
  0
VISUALSTYLE
  5
B9CA
102
{ACAD_REACTORS
330
B0F1
102
}
330
B0F1
100
AcDbVisualStyle
  2

 70
    24
177
     3
291
     0
 70
    58
 90
        1
176
     1
 90
        2
176
     1
 90
        2
176
     1
 90
        0
176
     1
 40
-0.6
176
     1
 40
-30.0
176
     1
 62
     7
176
     1
 90
        2
176
     1
 90
        2
176
     1
 62
     7
176
     1
 62
     7
176
     1
 90
        1
176
     1
 90
        1
176
     1
 40
40.0
176
     1
 90
       11
176
     1
 62
     7
176
     1
 40
1.0
176
     1
 90
        1
176
     1
 90
        6
176
     1
 90
        2
176
     1
 62
     7
176
     1
 90
        6
176
     1
 90
        0
176
     1
 90
        0
176
     1
290
     0
176
     1
 90
        1
176
     1
 40
0.0
176
     1
 90
        0
176
     1
290
     0
176
     1
290
     1
176
     1
290
     1
176
     1
290
     0
176
     1
290
     0
176
     1
290
     0
176
     1
290
     0
176
     1
290
     0
176
     1
290
     0
176
     1
 90
       50
176
     1
 40
0.0
176
     1
 40
1.0
176
     1
 90
        0
176
     1
 62
    18
420
        0
176
     1
 90
       50
176
     1
 90
        3
176
     1
 62
     5
420
      255
176
     1
290
     0
176
     1
 90
       50
176
     1
 90
       50
176
     1
 90
       50
176
     1
290
     0
176
     1
 90
       50
176
     1
 62
   256
176
     0
 40
1.0
176
     0
 90
        2
176
     1
  1
strokes_ogs.tif
176
     1
290
     0
176
     1
 40
1.0
176
     1
 40
1.0
176
     1
  0
VISUALSTYLE
  5
B0FE
102
{ACAD_REACTORS
330
B0F1
102
}
330
B0F1
100
AcDbVisualStyle
  2

 70
    13
177
     3
291
     1
 70
    58
 90
        2
176
     1
 90
        2
176
     1
 90
        0
176
     1
 90
        0
176
     1
 40
-0.6
176
     1
 40
-30.0
176
     1
 62
     7
176
     1
 90
        1
176
     1
 90
        4
176
     1
 62
     7
176
     1
 62
   257
176
     1
 90
        1
176
     1
 90
        1
176
     1
 40
1.0
176
     1
 90
       12
176
     1
 62
     7
176
     1
 40
1.0
176
     1
 90
        1
176
     1
 90
        6
176
     1
 90
        2
176
     1
 62
     7
176
     1
 90
        5
176
     1
 90
        0
176
     1
 90
        0
176
     1
290
     0
176
     1
 90
        1
176
     1
 40
0.0
176
     1
 90
        0
176
     1
290
     0
176
     1
290
     1
176
     1
290
     1
176
     1
290
     0
176
     1
290
     0
176
     1
290
     0
176
     1
290
     0
176
     1
290
     0
176
     1
290
     0
176
     1
 90
       50
176
     1
 40
0.0
176
     1
 40
1.0
176
     1
 90
        0
176
     1
 62
    18
420
        0
176
     1
 90
       50
176
     1
 90
        3
176
     1
 62
     5
420
      255
176
     1
290
     0
176
     1
 90
       50
176
     1
 90
       50
176
     1
 90
       50
176
     1
290
     0
176
     1
 90
       50
176
     1
 62
   256
176
     0
 40
1.0
176
     0
 90
        2
176
     1
  1
strokes_ogs.tif
176
     1
290
     0
176
     1
 40
1.0
176
     1
 40
1.0
176
     1
  0
VISUALSTYLE
  5
B9C7
102
{ACAD_REACTORS
330
B0F1
102
}
330
B0F1
100
AcDbVisualStyle
  2

 70
     5
177
     3
291
     0
 70
    58
 90
        0
176
     1
 90
        2
176
     1
 90
        0
176
     1
 90
        0
176
     1
 40
-0.6
176
     1
 40
-30.0
176
     1
 62
     7
176
     1
 90
        1
176
     1
 90
        4
176
     1
 62
     7
176
     1
 62
   257
176
     1
 90
        1
176
     1
 90
        1
176
     1
 40
1.0
176
     1
 90
        0
176
     1
 62
   257
176
     1
 40
1.0
176
     1
 90
        1
176
     1
 90
        6
176
     1
 90
        2
176
     1
 62
     7
176
     1
 90
        3
176
     1
 90
        0
176
     1
 90
        0
176
     1
290
     0
176
     1
 90
        1
176
     1
 40
0.0
176
     1
 90
        0
176
     1
290
     0
176
     1
290
     1
176
     1
290
     1
176
     1
290
     0
176
     1
290
     0
176
     1
290
     0
176
     1
290
     0
176
     1
290
     0
176
     1
290
     0
176
     1
 90
       50
176
     1
 40
0.0
176
     1
 40
1.0
176
     1
 90
        0
176
     1
 62
    18
420
        0
176
     1
 90
       50
176
     1
 90
        3
176
     1
 62
     5
420
      255
176
     1
290
     0
176
     1
 90
       50
176
     1
 90
       50
176
     1
 90
       50
176
     1
290
     0
176
     1
 90
       50
176
     1
 62
   256
176
     0
 40
1.0
176
     0
 90
        2
176
     1
  1
strokes_ogs.tif
176
     1
290
     0
176
     1
 40
1.0
176
     1
 40
1.0
176
     1
  0
VISUALSTYLE
  5
B9CB
102
{ACAD_REACTORS
330
B0F1
102
}
330
B0F1
100
AcDbVisualStyle
  2

 70
    25
177
     3
291
     0
 70
    58
 90
        2
176
     1
 90
        2
176
     1
 90
        1
176
     1
 90
        1
176
     1
 40
0.5
176
     1
 40
-30.0
176
     1
 62
     7
176
     1
 90
        1
176
     1
 90
        0
176
     1
 62
     7
176
     1
 62
   257
176
     1
 90
        1
176
     1
 90
        1
176
     1
 40
1.0
176
     1
 90
        8
176
     1
 62
     7
176
     1
 40
1.0
176
     1
 90
        1
176
     1
 90
        6
176
     1
 90
        2
176
     1
 62
     7
176
     1
 90
        3
176
     1
 90
        0
176
     1
 90
        0
176
     1
290
     0
176
     1
 90
       13
176
     1
 40
0.0
176
     1
 90
        0
176
     1
290
     0
176
     1
290
     1
176
     1
290
     1
176
     1
290
     0
176
     1
290
     0
176
     1
290
     0
176
     1
290
     0
176
     1
290
     0
176
     1
290
     0
176
     1
 90
       50
176
     1
 40
0.0
176
     1
 40
1.0
176
     1
 90
        0
176
     1
 62
    18
420
        0
176
     1
 90
       50
176
     1
 90
        3
176
     1
 62
     5
420
      255
176
     1
290
     0
176
     1
 90
       50
176
     1
 90
       50
176
     1
 90
       50
176
     1
290
     0
176
     1
 90
       50
176
     1
 62
   256
176
     0
 40
1.0
176
     0
 90
        2
176
     1
  1
strokes_ogs.tif
176
     1
290
     0
176
     1
 40
1.0
176
     1
 40
1.0
176
     1
  0
DICTIONARYVAR
  5
BBBF
102
{ACAD_REACTORS
330
34
102
}
330
34
100
DictionaryVariables
280
     0
  1
1:1
  0
DICTIONARYVAR
  5
B5B8
102
{ACAD_REACTORS
330
34
102
}
330
34
100
DictionaryVariables
280
     0
  1
Standard
  0
DICTIONARYVAR
  5
AAF3
102
{ACAD_REACTORS
330
34
102
}
330
34
100
DictionaryVariables
280
     0
  1
Standard
  0
DICTIONARYVAR
  5
BA1F
102
{ACAD_REACTORS
330
34
102
}
330
34
100
DictionaryVariables
280
     0
  1
Metric50
  0
DICTIONARYVAR
  5
BA20
102
{ACAD_REACTORS
330
34
102
}
330
34
100
DictionaryVariables
280
     0
  1
Metric50
  0
DICTIONARYVAR
  5
A10C
102
{ACAD_REACTORS
330
34
102
}
330
34
100
DictionaryVariables
280
     0
  1
1
  0
DICTIONARYVAR
  5
AB07
102
{ACAD_REACTORS
330
34
102
}
330
34
100
DictionaryVariables
280
     0
  1
4
  0
DICTIONARYVAR
  5
35
102
{ACAD_REACTORS
330
34
102
}
330
34
100
DictionaryVariables
280
     0
  1
0
  0
DICTIONARYVAR
  5
B5BB
102
{ACAD_REACTORS
330
34
102
}
330
34
100
DictionaryVariables
280
     0
  1
0
  0
DICTIONARYVAR
  5
B5B9
102
{ACAD_REACTORS
330
34
102
}
330
34
100
DictionaryVariables
280
     0
  1
0
  0
DICTIONARYVAR
  5
BA22
102
{ACAD_REACTORS
330
34
102
}
330
34
100
DictionaryVariables
280
     0
  1
1
  0
DICTIONARYVAR
  5
194C
102
{ACAD_REACTORS
330
34
102
}
330
34
100
DictionaryVariables
280
     0
  1
96
  0
DICTIONARYVAR
  5
BB52
102
{ACAD_REACTORS
330
34
102
}
330
34
100
DictionaryVariables
280
     0
  1
2
  0
XRECORD
  5
B571
102
{ACAD_REACTORS
330
B570
102
}
330
B570
100
AcDbXrecord
280
     1
  0
AMDTSYSATTR
  5
BBBD
102
{ACAD_REACTORS
330
BBBC
102
}
330
BBBC
  0
AMDTSYSATTR
  5
BBBE
102
{ACAD_REACTORS
330
BBBC
102
}
330
BBBC
  0
XRECORD
  5
3FB7
102
{ACAD_REACTORS
330
3F96
102
}
330
3F96
100
AcDbXrecord
280
     1
 91
        3
330
0
 90
        8
 62
     7
370
    40
331
16
  1
Color_7
330
0
 90
        0
 62
    14
370
    -3
331
16
  1
Color_14
330
0
 90
        8
 62
     7
370
    20
331
16
  1
Color_7
330
6D1
 90
        0
 62
     7
370
    -3
331
16
  1
Color_7
330
0
 90
        8
 62
     7
370
    50
331
16
  1
Color_7
330
0
 90
        8
 62
     2
370
    35
331
16
  1
Color_2
330
0
 90
        8
 62
     7
370
    -3
331
16
  1
Color_7
330
10
 90
        8
 62
     7
370
    -3
331
16
  1
Color_7
  0
DICTIONARY
  5
BB95
330
B9D4
100
AcDbDictionary
280
     1
281
     1
  3
ACAD_XREC_ROUNDTRIP
360
BBC2
  0
DICTIONARY
  5
BB93
330
B9D2
100
AcDbDictionary
280
     1
281
     1
  3
ACAD_XREC_ROUNDTRIP
360
BBC3
  0
DICTIONARY
  5
BBC4
330
AABA
100
AcDbDictionary
280
     1
281
     1
  3
ACAD_ROUNDTRIP_2008_TABLESTYLE_CELLSTYLEMAP
360
BBC5
  0
XRECORD
  5
BBC2
102
{ACAD_REACTORS
330
BB95
102
}
330
BB95
100
AcDbXrecord
280
     1
102
DISPLAYNAME
  1
Metric50
102
FLAGS
 90
        0
  0
XRECORD
  5
BBC3
102
{ACAD_REACTORS
330
BB93
102
}
330
BB93
100
AcDbXrecord
280
     1
102
DISPLAYNAME
  1
Metric50
102
FLAGS
 90
        0
  0
CELLSTYLEMAP
  5
BBC5
102
{ACAD_REACTORS
330
BBC4
102
}
330
BBC4
100
AcDbCellStyleMap
 90
        3
300
CELLSTYLE
  1
TABLEFORMAT_BEGIN
 90
        5
170
     1
 91
        0
 92
    32768
 62
   257
 93
        1
300
CONTENTFORMAT
  1
CONTENTFORMAT_BEGIN
 90
        0
 91
        0
 92
        4
 93
        0
300

 40
0.0
140
1.0
 94
        5
 62
     0
340
11
144
6.0
309
CONTENTFORMAT_END
171
     1
301
MARGIN
  1
CELLMARGIN_BEGIN
 40
1.5
 40
1.5
 40
1.5
 40
1.5
 40
0.18
 40
0.18
309
CELLMARGIN_END
 94
        6
 95
        1
302
GRIDFORMAT
  1
GRIDFORMAT_BEGIN
 90
        0
 91
        1
 62
     0
 92
       -2
340
0
 93
        0
 40
0.045
309
GRIDFORMAT_END
 95
        2
302
GRIDFORMAT
  1
GRIDFORMAT_BEGIN
 90
        0
 91
        1
 62
     0
 92
       -2
340
0
 93
        0
 40
0.045
309
GRIDFORMAT_END
 95
        4
302
GRIDFORMAT
  1
GRIDFORMAT_BEGIN
 90
        0
 91
        1
 62
     0
 92
       -2
340
0
 93
        0
 40
0.045
309
GRIDFORMAT_END
 95
        8
302
GRIDFORMAT
  1
GRIDFORMAT_BEGIN
 90
        0
 91
        1
 62
     0
 92
       -2
340
0
 93
        0
 40
0.045
309
GRIDFORMAT_END
 95
       16
302
GRIDFORMAT
  1
GRIDFORMAT_BEGIN
 90
        0
 91
        1
 62
     0
 92
       -2
340
0
 93
        0
 40
0.045
309
GRIDFORMAT_END
 95
       32
302
GRIDFORMAT
  1
GRIDFORMAT_BEGIN
 90
        0
 91
        1
 62
     0
 92
       -2
340
0
 93
        0
 40
0.045
309
GRIDFORMAT_END
309
TABLEFORMAT_END
  1
CELLSTYLE_BEGIN
 90
        1
 91
        1
300
_TITLE
309
CELLSTYLE_END
300
CELLSTYLE
  1
TABLEFORMAT_BEGIN
 90
        5
170
     1
 91
        0
 92
        0
 62
   257
 93
        1
300
CONTENTFORMAT
  1
CONTENTFORMAT_BEGIN
 90
        0
 91
        0
 92
        4
 93
        0
300

 40
0.0
140
1.0
 94
        5
 62
     0
340
11
144
4.5
309
CONTENTFORMAT_END
171
     1
301
MARGIN
  1
CELLMARGIN_BEGIN
 40
1.5
 40
1.5
 40
1.5
 40
1.5
 40
0.18
 40
0.18
309
CELLMARGIN_END
 94
        6
 95
        1
302
GRIDFORMAT
  1
GRIDFORMAT_BEGIN
 90
        0
 91
        1
 62
     0
 92
       -2
340
0
 93
        0
 40
0.045
309
GRIDFORMAT_END
 95
        2
302
GRIDFORMAT
  1
GRIDFORMAT_BEGIN
 90
        0
 91
        1
 62
     0
 92
       -2
340
0
 93
        0
 40
0.045
309
GRIDFORMAT_END
 95
        4
302
GRIDFORMAT
  1
GRIDFORMAT_BEGIN
 90
        0
 91
        1
 62
     0
 92
       -2
340
0
 93
        0
 40
0.045
309
GRIDFORMAT_END
 95
        8
302
GRIDFORMAT
  1
GRIDFORMAT_BEGIN
 90
        0
 91
        1
 62
     0
 92
       -2
340
0
 93
        0
 40
0.045
309
GRIDFORMAT_END
 95
       16
302
GRIDFORMAT
  1
GRIDFORMAT_BEGIN
 90
        0
 91
        1
 62
     0
 92
       -2
340
0
 93
        0
 40
0.045
309
GRIDFORMAT_END
 95
       32
302
GRIDFORMAT
  1
GRIDFORMAT_BEGIN
 90
        0
 91
        1
 62
     0
 92
       -2
340
0
 93
        0
 40
0.045
309
GRIDFORMAT_END
309
TABLEFORMAT_END
  1
CELLSTYLE_BEGIN
 90
        2
 91
        1
300
_HEADER
309
CELLSTYLE_END
300
CELLSTYLE
  1
TABLEFORMAT_BEGIN
 90
        5
170
     1
 91
        0
 92
        0
 62
   257
 93
        1
300
CONTENTFORMAT
  1
CONTENTFORMAT_BEGIN
 90
        0
 91
        0
 92
        4
 93
        0
300

 40
0.0
140
1.0
 94
        2
 62
     0
340
11
144
4.5
309
CONTENTFORMAT_END
171
     1
301
MARGIN
  1
CELLMARGIN_BEGIN
 40
1.5
 40
1.5
 40
1.5
 40
1.5
 40
0.18
 40
0.18
309
CELLMARGIN_END
 94
        6
 95
        1
302
GRIDFORMAT
  1
GRIDFORMAT_BEGIN
 90
        0
 91
        1
 62
     0
 92
       -2
340
0
 93
        0
 40
0.045
309
GRIDFORMAT_END
 95
        2
302
GRIDFORMAT
  1
GRIDFORMAT_BEGIN
 90
        0
 91
        1
 62
     0
 92
       -2
340
0
 93
        0
 40
0.045
309
GRIDFORMAT_END
 95
        4
302
GRIDFORMAT
  1
GRIDFORMAT_BEGIN
 90
        0
 91
        1
 62
     0
 92
       -2
340
0
 93
        0
 40
0.045
309
GRIDFORMAT_END
 95
        8
302
GRIDFORMAT
  1
GRIDFORMAT_BEGIN
 90
        0
 91
        1
 62
     0
 92
       -2
340
0
 93
        0
 40
0.045
309
GRIDFORMAT_END
 95
       16
302
GRIDFORMAT
  1
GRIDFORMAT_BEGIN
 90
        0
 91
        1
 62
     0
 92
       -2
340
0
 93
        0
 40
0.045
309
GRIDFORMAT_END
 95
       32
302
GRIDFORMAT
  1
GRIDFORMAT_BEGIN
 90
        0
 91
        1
 62
     0
 92
       -2
340
0
 93
        0
 40
0.045
309
GRIDFORMAT_END
309
TABLEFORMAT_END
  1
CELLSTYLE_BEGIN
 90
        3
 91
        2
300
_DATA
309
CELLSTYLE_END
  0
ENDSEC
  0
SECTION
  2
THUMBNAILIMAGE
 90
    16364
310
28000000B4000000550000000100080000000000C43B000000000000000000000001000000010000000000000000FF0000FFFF0000FF0000FFFF0000FF000000FF00FF00FFFFFF0080808000C0C0C0000000FF007F7FFF000000CC006666CC00000099004C4C990000007F003F3F7F0000004C0026264C00003FFF007F9FFF
310
000033CC00667FCC00002699004C5F9900001F7F003F4F7F0000134C00262F4C00007FFF007FBFFF000066CC006699CC00004C99004C729900003F7F003F5F7F0000264C0026394C0000BFFF007FDFFF000099CC0066B2CC00007299004C859900005F7F003F6F7F0000394C0026424C0000FFFF007FFFFF0000CCCC0066CC
310
CC00009999004C999900007F7F003F7F7F00004C4C00264C4C0000FFBF007FFFDF0000CC990066CCB200009972004C998500007F5F003F7F6F00004C3900264C420000FF7F007FFFBF0000CC660066CC990000994C004C997200007F3F003F7F5F00004C2600264C390000FF3F007FFF9F0000CC330066CC7F00009926004C
310
995F00007F1F003F7F4F00004C1300264C2F0000FF00007FFF7F0000CC000066CC6600009900004C994C00007F00003F7F3F00004C0000264C26003FFF00009FFF7F0033CC00007FCC6600269900005F994C001F7F00004F7F3F00134C00002F4C26007FFF0000BFFF7F0066CC000099CC66004C99000072994C003F7F0000
310
5F7F3F00264C0000394C2600BFFF0000DFFF7F0099CC0000B2CC66007299000085994C005F7F00006F7F3F00394C0000424C2600FFFF0000FFFF7F00CCCC0000CCCC66009999000099994C007F7F00007F7F3F004C4C00004C4C2600FFBF0000FFDF7F00CC990000CCB266009972000099854C007F5F00007F6F3F004C3900
310
004C422600FF7F0000FFBF7F00CC660000CC996600994C000099724C007F3F00007F5F3F004C2600004C392600FF3F0000FF9F7F00CC330000CC7F660099260000995F4C007F1F00007F4F3F004C1300004C2F2600FF000000FF7F7F00CC000000CC66660099000000994C4C007F0000007F3F3F004C0000004C262600FF00
310
3F00FF7F9F00CC003300CC667F0099002600994C5F007F001F007F3F4F004C0013004C262F00FF007F00FF7FBF00CC006600CC66990099004C00994C72007F003F007F3F5F004C0026004C263900FF00BF00FF7FDF00CC009900CC66B20099007200994C85007F005F007F3F6F004C0039004C264200FF00FF00FF7FFF00CC
310
00CC00CC66CC0099009900994C99007F007F007F3F7F004C004C004C264C00BF00FF00DF7FFF009900CC00B266CC0072009900854C99005F007F006F3F7F0039004C0042264C007F00FF00BF7FFF006600CC009966CC004C009900724C99003F007F005F3F7F0026004C0039264C003F00FF009F7FFF003300CC007F66CC00
310
260099005F4C99001F007F004F3F7F0013004C002F264C00333333005B5B5B0084848400ADADAD00D6D6D600FFFFFF00FAFAFAFAFAFAFAFAFAFAFAFAFAFAFAFAFAFAFAFAFAFAFAFAFAFAFAFAFA07070707FAFAFAFAFAFAFAFAFAFAFAFAFAFAFAFAFAFAFAFAFAFAFAFAFAFAFAFAFAFAFAFAFAFAFAFAFAFAFAFAFAFAFAFAFAFA
310
FAFAFAFAFAFAFAFAFAFAFAFAFAFAFAFAFAFAFAFAFAFAFAFAFAFAFAFAFAFAFAFAFAFAFAFAFAFAFAFAFAFAFAFAFAFAFAFAFAFAFAFAFAFAFAFAFAFAFAFAFAFAFAFAFAFAFAFAFAFAFA05FAFAFAFAFAFAFAFAFAFAFAFAFAFAFAFAFAFAFAFAFAFAFAFAFAFAFAFAFAFAFAFAFAFAFAFAFAFAFAFAFAFAFAFAFAFAFAFAFAFAFAFAFAFAFA
310
FAFAFAFA0707FAFA0707070707070707070707070707070707070707070707070707070707070707070707070707070707070707070707070707070707070707070707070707070707070707070707070707070707070707070707070707070707070707070707070707070707070707070707070707070707FAFAFA05FAFA
310
FAFAFAFAFAFAFAFAFAFAFAFAFAFAFAFAFAFAFAFAFAFAFAFAFAFAFAFAFAFAFAFAFAFAFAFAFAFAFAFAFAFAFAFAFAFAFAFAFAFAFAFAFAFAFAFAFA05FAFA07070707070707070707070707070707070707070707070707070707070707070707070707070707070707070707070707070707070707070707070707070707070707
310
070707070707070707070707070707070707070707070707070707070707070707070707070707070707070707070707FAFA05FAFAFAFAFAFAFAFAFAFAFAFAFAFAFAFAFAFAFAFAFAFAFAFAFAFAFAFAFAFAFAFAFAFAFAFAFAFAFAFAFAFAFAFAFAFAFAFAFAFAFAFAFAFAFAFAFAFAFA05FAFA0707070707070707070707070707
310
0707070707070707070707070707070707070707070707070707070707070707070707070707070707070707070707070707070707070707070707070707070707070707070707070707070707070707070707070707070707070707070707070707070707FAFA05FAFAFAFAFAFAFAFAFAFAFAFAFAFAFAFAFAFAFAFAFAFAFA
310
FAFAFAFAFAFAFAFAFAFAFAFAFAFAFAFAFAFAFAFAFAFAFAFAFAFAFAFAFAFAFAFAFAFAFAFA05FAFA070707FAFAFAFAFAFAFAFAFAFAFAFAFAFAFAFAFAFAFAFAFAFAFAFAFAFAFAFAFAFAFAFAFAFAFAFAFAFAFAFAFAFAFAFAFAFAFAFAFAFAFAFAFAFAFAFAFAFAFAFAFAFAFAFAFAFAFAFAFAFAFAFAFAFAFAFAFAFAFAFAFAFAFAFAFA
310
FAFAFAFAFAFAFAFAFAFAFAFAFAFAFAFAFAFAFAFAFAFAFAFA070707FAFA05FAFAFAFAFAFAFAFAFAFAFAFAFAFAFAFAFAFAFAFAFAFAFAFAFAFAFAFAFAFAFAFAFAFAFAFAFAFAFAFAFAFAFAFAFAFAFAFAFAFAFAFAFAFAFAFAFAFAFA05FAFA070707FAFAFAFAFAFAFAFAFAFAFAFAFAFAFAFAFAFAFAFAFAFAFAFAFAFAFAFAFAFAFAFA
310
FAFAFAFAFAFAFAFAFAFAFAFAFAFAFAFAFAFAFAFAFAFAFAFAFAFAFAFAFAFAFAFAFAFAFAFAFAFAFAFAFAFAFAFAFAFAFAFAFAFAFAFAFAFAFAFAFAFAFAFAFAFAFAFAFAFAFAFAFAFAFAFAFAFAFAFAFA070707FAFA05FAFAFAFAFAFAFAFAFAFAFAFAFAFAFAFAFAFAFAFAFAFAFAFAFAFAFAFAFAFAFAFAFAFAFAFAFAFAFAFAFAFAFAFA
310
FAFAFAFAFAFAFAFAFAFAFAFAFAFAFA05FAFA070707FAFAFAFAFAFAFAFAFAFAFAFAFAFAFAFAFAFAFAFAFAFAFAFAFAFAFAFAFAFAFAFAFAFAFAFAFAFAFAFAFAFAFAFAFAFAFAFAFAFAFAFAFAFAFAFAFAFAFAFAFAFAFAFAFAFAFAFAFAFAFAFAFAFAFAFAFAFAFAFAFAFAFAFAFAFAFAFAFAFAFAFAFAFAFAFAFAFAFAFAFAFAFAFAFAFA
310
FAFAFA070707FAFA05FAFAFAFAFAFAFAFAFAFAFAFAFAFAFAFAFAFAFAFAFAFAFAFAFAFAFAFAFAFAFAFAFAFAFAFAFAFAFAFAFAFAFAFAFAFAFAFAFAFAFAFAFAFAFAFAFAFAFA05FAFA070707FAFAFAFAFAFAFAFAFAFAFAFAFAFAFAFAFA010202010202020102010202020102020201010202020102020202010202020102020202
310
010201020101020201020202020201020201020202020202020202010102010102020202020202020201FAFAFAFAFAFAFAFAFAFAFAFAFAFA070707FAFA05FAFAFAFAFAFAFAFAFAFAFAFAFAFAFAFAFAFAFAFAFAFAFAFAFAFAFAFAFAFAFAFAFAFAFAFAFAFAFAFAFAFAFAFAFAFAFAFAFAFAFAFAFAFAFAFAFAFAFA05FAFA070707
310
FAFAFAFAFAFAFAFAFAFAFAFAFAFAFAFAFA010202020202020202020202020102020201FA02020201020202020102020201020202020102020201FA0202FA0202020202FA0202FA02020202020202020201FA02FA0102020202020202020201FAFAFAFAFAFAFAFAFAFAFAFAFAFA070707FAFA05FAFAFAFAFAFAFAFAFAFAFAFA
310
FAFAFAFAFAFAFAFAFAFAFAFAFAFAFAFAFAFAFAFAFAFAFAFAFAFAFAFAFAFAFAFAFAFAFAFAFAFAFAFAFAFAFAFAFAFAFA05FAFA070707FAFAFAFAFAFAFAFAFAFAFAFAFAFAFAFAFA010101010101010101010101010101010101010101010101010101010101010101010101010101010101010101010101010101010101010101
310
010101010101010101010101020101010102010101FAFAFAFAFAFAFAFAFAFAFAFAFAFA070707FAFA05FAFAFAFAFAFAFAFAFAFAFAFAFAFAFAFAFAFAFAFAFAFAFAFAFAFAFAFAFAFAFAFAFAFAFAFAFAFAFAFAFAFAFAFAFAFAFAFAFAFAFAFAFAFAFAFAFAFAFA05FAFA070707FAFAFAFAFAFAFAFAFAFAFAFAFAFAFAFAFA01020202
310
0202020202020202020102020201FA02020201020202020102020201020202020102020201FA0202FA0102020201FA0202FA0102020201FA0202FA01FA02FA0102020202020202020201FAFAFAFAFAFAFAFAFAFAFAFAFAFA070707FAFA05FAFAFAFAFAFAFAFAFAFAFAFAFAFAFAFAFAFAFAFAFAFAFAFAFAFAFAFAFAFAFAFAFA
310
FAFAFAFAFAFAFAFAFAFAFAFAFAFAFAFAFAFAFAFAFAFAFAFAFAFA05FAFA070707FAFAFAFAFAFAFAFAFAFAFAFAFAFAFAFAFA010202010202020202020202020102020201010202020102020202010202020102010202010202020101020201010202020101020201010202020101020201010102010102010202020201020201
310
FAFAFAFAFAFAFAFAFAFAFAFAFAFA070707FAFA05FAFAFAFAFAFAFAFAFAFAFAFAFAFAFAFAFAFAFAFAFAFAFAFAFAFAFAFAFAFAFAFAFAFAFAFAFAFAFAFAFAFAFAFAFAFAFAFAFAFAFAFAFAFAFAFAFAFAFA05FAFA070707FAFAFAFAFAFAFAFAFAFAFAFAFAFAFAFAFA010202020202020202FA0202020102020201FA020202010202
310
02020102020201020202020102020201FA0202FA0102020201FA0202FA0102020201FA0202FA01FA02FA01FAFA0202020202020201FAFAFAFAFAFAFAFAFAFAFAFAFAFA070707FAFA05FAFAFAFAFAFAFAFAFAFAFAFAFAFAFAFAFAFAFAFAFAFAFAFAFAFAFAFAFAFAFAFAFAFAFAFAFAFAFAFAFAFAFAFAFAFAFAFAFAFAFAFAFAFA
310
FAFAFAFAFA05FAFA070707FAFAFAFAFAFAFAFAFAFAFAFAFAFAFAFAFA010202FA0202020202FA0202020102020201FA02020201020202020102020201020202020102020201FA0202FA0102020201FA0202FA0102020201FA0202FA01FA02FA01FAFA0202020202020201FAFAFAFAFAFAFAFAFAFAFAFAFAFA070707FAFA05FA
310
FAFAFAFAFAFAFAFAFAFAFAFAFAFAFAFAFAFAFAFAFAFAFAFAFAFAFAFAFAFAFAFAFAFAFAFAFAFAFAFAFAFAFAFAFAFAFAFAFAFAFAFAFAFAFAFAFAFA05FAFA070707FAFAFAFAFAFAFAFAFAFAFAFAFAFAFAFAFA01020201020202020201020202010202020101020202010102020102020202010202020201020202010102020101
310
0202020101020201010102010101020201010102010101010202020202020201FAFAFAFAFAFAFAFAFAFAFAFAFAFA070707FAFA05FAFAFAFAFAFAFAFAFAFAFAFAFAFAFAFAFAFAFAFAFAFAFAFAFAFAFAFAFAFAFAFAFAFAFAFAFAFAFAFAFAFAFAFAFAFAFAFAFAFAFAFAFAFAFAFAFAFAFA05FAFA070707FAFAFAFAFAFAFAFAFAFA
310
FAFAFAFAFAFAFA010202020202020201FA0202020102020201FA02020201FA0202FA02020202010202020201FA020201FA0202FA0102020201FA0202FA01FA02FA01FA0202FA01FA02FA01FAFA0202020202020201FAFAFAFAFAFAFAFAFAFAFAFAFAFA070707FAFA05FAFAFAFAFAFAFAFAFAFAFAFAFAFAFAFAFAFAFAFAFAFA
310
FAFAFAFAFAFAFAFAFAFAFAFAFAFAFAFAFAFAFAFAFAFAFAFAFAFAFAFAFAFAFAFAFAFAFAFAFA05FAFA070707FAFAFAFAFAFAFAFAFAFAFAFAFAFAFAFAFA01010102020201010101020201010102010101010201010102010101020201010102010101010201010102020101010201010102020101010201010102020101020202
310
0101020202020202020201FAFAFAFAFAFAFAFAFAFAFAFAFAFA070707FAFA05FAFAFAFAFAFAFAFAFAFAFAFAFAFAFAFAFAFAFAFAFAFAFAFAFAFAFAFAFAFAFAFAFAFAFAFAFAFAFAFAFAFAFAFAFAFAFAFAFAFAFAFAFAFAFAFAFAFAFA05FAFA070707FAFAFAFAFAFAFAFAFAFAFAFAFAFAFAFAFA01FAFA020202FAFA01FA0202FA01
310
FA020201FA0202FA01FA0202FA010202FA01FA0202FA01FA02FA01FA0202FA01FA02FA01FA0202FA01FA02FA01FA02FAFA0102020201FA020202020202020201FAFAFAFAFAFAFAFAFAFAFAFAFAFA070707FAFA05FAFAFAFAFAFAFAFAFAFAFAFAFAFAFAFAFAFAFAFAFAFAFAFAFAFAFAFAFAFAFAFAFAFAFAFAFAFAFAFAFAFAFA
310
FAFAFAFAFAFAFAFAFAFAFAFAFAFAFAFA05FAFA070707FAFAFAFAFAFAFAFAFAFAFAFAFAFAFAFAFA010101020202010101010102010101020101010102010101020101010202010101020201010102010101020201010102010101010201010102010101020101010202010101020202020202020101FAFAFAFAFAFAFAFAFAFA
310
FAFAFAFA070707FAFA05FAFAFAFAFAFAFAFAFAFAFAFAFAFAFAFAFAFAFAFAFAFAFAFAFAFAFAFAFAFAFAFAFAFAFAFAFAFAFAFAFAFAFAFAFAFAFAFAFAFAFAFAFAFAFAFAFAFAFA05FAFA070707FAFAFAFAFAFAFAFAFAFAFAFAFAFAFAFAFAFAFAFAFAFAFAFAFAFAFAFAFAFAFAFAFAFAFAFAFAFAFAFAFAFAFAFAFAFAFAFAFAFAFAFA
310
FAFAFAFAFAFAFAFAFAFAFAFAFAFAFAFAFAFAFAFAFAFAFAFAFAFAFAFAFAFAFAFAFAFAFAFAFAFAFAFAFAFAFAFAFAFAFAFAFAFAFAFAFAFAFAFAFA070707FAFA05FAFAFAFAFAFAFAFAFAFAFAFAFAFAFAFAFAFAFAFAFAFAFAFAFAFAFAFAFAFAFAFAFAFAFAFAFAFAFAFAFAFAFAFAFAFAFAFAFAFAFAFAFAFAFAFAFAFAFA05FAFA0707
310
07FAFAFAFAFAFAFAFAFAFAFAFAFAFAFAFAFAFAFAFAFAFAFAFAFAFAFAFAFAFAFAFAFAFAFAFAFAFAFAFAFAFAFAFAFAFAFAFAFAFAFAFAFAFAFAFAFAFAFAFAFAFAFAFAFAFAFAFAFAFAFAFAFAFAFAFAFAFAFAFAFAFAFAFAFAFAFAFAFAFAFAFAFAFAFAFAFAFAFAFAFAFAFAFAFAFAFAFAFA070707FAFA05FAFAFAFAFAFAFAFAFAFAFA
310
FAFAFAFAFAFAFAFAFAFAFAFAFAFAFAFAFAFAFAFAFAFAFAFAFAFAFAFAFAFAFAFAFAFAFAFAFAFAFAFAFAFAFAFAFAFAFAFA05FAFA070707FAFAFAFAFAFAFAFAFAFAFAFAFAFAFAFAFAFAFAFAFAFAFAFAFAFAFAFAFAFAFAFAFAFAFAFAFAFAFAFAFAFAFAFAFAFAFAFAFAFAFAFAFAFAFAFAFAFAFAFAFAFAFAFAFAFAFAFAFAFAFAFAFA
310
FAFAFAFAFAFAFAFAFAFAFAFAFAFAFAFAFAFAFAFAFAFAFAFAFAFAFAFAFAFAFAFAFAFAFAFA070707FAFA05FAFAFAFAFAFAFAFAFAFAFAFAFAFAFAFAFAFAFAFAFAFAFAFAFAFAFAFAFAFAFAFAFAFAFAFAFAFAFAFAFAFAFAFAFAFAFAFAFAFAFAFAFAFAFAFAFAFAFA05FAFA070707FAFAFAFAFAFAFAFAFAFAFAFAFAFAFAFAFAFAFAFA
310
FAFAFAFAFAFAFAFAFAFAFAFAFAFAFAFAFAFAFAFAFAFAFAFAFAFAFAFAFAFAFAFAFAFAFAFAFAFAFAFAFAFAFAFAFAFAFAFAFAFAFAFAFAFAFAFAFAFAFAFAFAFAFAFAFAFAFAFAFAFAFAFAFAFAFAFAFAFAFAFAFAFAFAFAFAFAFAFAFA070707FAFA05FAFAFAFAFAFAFAFAFAFAFAFAFAFAFAFAFAFAFAFAFAFAFAFAFAFAFAFAFAFAFAFA
310
FAFAFAFAFAFAFAFAFAFAFAFAFAFAFAFAFAFAFAFAFAFAFAFAFAFAFA05FAFA070707FAFAFAFAFAFAFAFAFAFAFAFAFAFAFAFAFAFAFAFAFAFAFAFAFAFAFAFAFAFAFAFAFAFAFAFAFAFAFAFAFAFAFAFAFAFAFAFAFAFAFAFAFAFAFAFAFAFAFAFAFAFAFAFAFAFAFAFAFAFAFAFAFAFAFAFAFAFAFAFAFAFAFAFAFAFAFAFAFAFAFAFAFAFA
310
FAFAFAFAFAFAFAFAFAFAFAFAFAFAFA070707FAFA05FAFAFAFAFAFAFAFAFAFAFAFAFAFAFAFAFAFAFAFAFAFAFAFAFAFAFAFAFAFAFAFAFAFAFAFAFAFAFAFAFAFAFAFAFAFAFAFAFAFAFAFAFAFAFAFAFAFAFA05FAFA070707FAFAFAFAFAFAFAFAFAFAFAFAFAFAFAFAFAFAFAFAFAFAFAFAFAFAFAFAFAFAFAFAFAFAFAFAFAFAFAFAFA
310
FAFAFAFAFAFAFAFAFAFAFAFAFAFAFAFAFAFAFAFAFAFAFAFAFAFAFAFAFAFAFAFAFAFAFAFAFAFAFAFAFAFAFAFAFAFAFAFAFAFAFAFAFAFAFAFAFAFAFAFAFAFAFAFAFAFAFAFA070707FAFA05FAFAFAFAFAFAFAFAFAFAFAFAFAFAFAFAFAFAFAFAFAFAFAFAFAFAFAFAFAFAFAFAFAFAFAFAFAFAFAFAFAFAFAFAFAFAFAFAFAFAFAFAFA
310
FAFAFAFAFAFA05FAFA070707FAFAFAFAFAFAFAFAFAFAFAFAFAFAFAFAFAFAFAFAFAFAFAFAFAFAFAFAFAFAFAFAFAFAFAFAFAFAFAFAFAFAFAFAFAFAFAFAFAFAFAFAFAFAFAFAFAFAFAFAFAFAFAFAFAFAFAFAFAFAFAFAFAFAFAFAFAFAFAFAFAFAFAFAFAFAFAFAFAFAFAFAFAFAFAFAFAFAFAFAFAFAFAFAFAFAFAFAFA070707FAFA05
310
FAFAFAFAFAFAFAFAFAFAFAFAFAFAFAFAFAFAFAFAFAFAFAFAFAFAFAFAFAFAFAFAFAFAFAFAFAFAFAFAFAFAFAFAFAFAFAFAFAFAFAFAFAFAFAFAFAFAFA05FAFA070707FAFAFAFAFAFAFAFAFAFAFAFAFAFAFAFAFAFAFAFAFAFAFAFAFAFAFAFAFAFAFAFAFAFAFAFAFAFAFAFAFAFAFAFAFAFAFAFAFAFAFAFAFAFAFAFAFAFAFAFAFAFA
310
FAFAFAFAFAFAFAFAFAFAFAFAFAFAFAFAFAFAFAFAFAFAFAFAFAFAFAFAFAFAFAFAFAFAFAFAFAFAFAFAFAFAFAFAFAFAFA070707FAFA05FAFAFAFAFAFAFAFAFAFAFAFAFAFAFAFAFAFAFAFAFAFAFAFAFAFAFAFAFAFAFAFAFAFAFAFAFAFAFAFAFAFAFAFAFAFAFAFAFAFAFAFAFAFAFAFAFAFAFA05FAFA070707FAFAFAFAFAFAFAFAFA
310
FAFAFAFAFAFAFAFAFAFAFAFAFAFAFAFAFAFAFAFAFAFAFAFAFAFA0303030303030303030303030202030303030303030303030303FAFAFAFAFAFAFAFAFAFAFAFAFAFAFAFAFAFAFAFAFAFAFAFAFAFAFAFAFAFAFAFAFAFAFAFAFAFAFAFAFAFAFAFAFAFAFAFA070707FAFA05FAFAFAFAFAFAFAFAFAFAFAFAFAFAFAFAFAFAFAFAFA
310
FAFAFAFAFAFAFAFAFAFAFAFAFAFAFAFAFAFAFAFAFAFAFAFAFAFAFAFAFAFAFAFAFAFAFAFAFAFA05FAFA070707FAFAFAFAFAFAFAFAFAFAFAFAFAFAFAFAFAFAFAFAFAFAFAFAFAFAFAFAFAFAFAFAFAFAFA03FAFAFAFAFAFAFAFAFAFAFA0202FAFAFAFAFAFAFAFAFAFAFA03FAFAFAFAFAFAFAFAFAFAFAFAFAFAFAFAFAFAFAFAFAFA
310
FAFAFAFAFAFAFAFAFAFAFAFAFAFAFAFAFAFAFAFAFAFAFAFAFAFA070707FAFA05FAFAFAFAFAFAFAFAFAFAFAFAFAFAFAFAFAFAFAFAFAFAFAFAFAFAFAFAFAFAFAFAFAFAFAFAFAFAFAFAFAFAFAFAFAFAFAFAFAFAFAFAFAFAFAFAFAFAFA05FAFA070707FAFAFAFAFAFAFAFAFAFAFAFAFAFAFAFAFAFAFAFAFAFAFAFAFAFAFAFAFAFA
310
FAFAFAFAFA03FAFA03FAFAFAFAFAFAFAFAFAFAFAFAFAFAFAFAFAFAFA03FA03FAFAFAFAFAFAFAFAFAFAFAFAFAFAFAFAFAFAFAFAFAFAFAFAFAFAFAFAFAFAFAFAFAFAFAFAFAFAFAFAFAFAFAFAFAFAFAFA070707FAFA05FAFAFAFAFAFAFAFAFAFAFAFAFAFAFAFAFAFAFAFAFAFAFAFAFAFAFAFAFAFAFAFAFAFAFAFAFAFAFAFAFAFA
310
FAFAFAFAFAFAFAFAFAFAFAFAFAFAFAFAFA05FAFA070707FAFAFAFAFAFAFAFAFAFAFAFAFAFAFAFAFAFAFAFAFAFAFAFAFAFAFAFAFAFAFAFAFAFAFA03FAFA030303030303030303020203030303030303030303FA03FAFAFAFAFAFAFAFAFAFAFAFAFAFAFAFAFAFAFAFAFAFAFAFAFAFAFAFAFAFAFAFAFAFAFAFAFAFAFAFAFAFAFA
310
FAFAFAFAFA070707FAFA05FAFAFAFAFAFAFAFAFAFAFAFAFAFAFAFAFAFAFAFAFAFAFAFAFAFAFAFAFAFAFAFAFAFAFAFAFAFAFAFAFAFAFAFAFAFAFAFAFAFAFAFAFAFAFAFAFAFAFA05FAFA070707FAFAFAFAFAFAFAFAFAFAFAFAFAFAFAFAFAFAFAFAFAFAFAFAFAFAFAFAFAFAFAFAFAFAFA03FAFA03FAFAFAFAFAFAFAFA0202FAFA
310
FAFAFAFAFAFAFA03FA03FAFAFAFAFAFAFAFAFAFAFAFAFAFAFAFAFAFAFAFAFAFAFAFAFAFAFAFAFAFAFAFAFAFAFAFAFAFAFAFAFAFAFAFAFAFAFAFA070707FAFA05FAFAFAFAFAFAFAFAFAFAFAFAFAFAFAFAFAFAFAFAFAFAFAFAFAFAFAFAFAFAFAFAFAFAFAFAFAFAFAFAFAFAFAFAFAFAFAFAFAFAFAFAFAFAFAFAFAFAFA05FAFA07
310
0707FAFAFAFAFAFAFAFAFAFAFAFAFAFAFAFAFAFAFAFAFAFAFAFAFAFAFAFAFAFAFAFAFAFAFA03FAFA03FAFAFAFAFAFAFA07070707FAFAFAFAFAFAFAFA03FA03FAFAFAFAFAFAFAFAFAFAFAFAFAFAFAFAFAFAFAFAFAFAFAFAFAFAFAFAFAFAFAFAFAFAFAFAFAFAFAFAFAFAFAFAFAFAFAFA070707FAFA05FAFAFAFAFAFAFAFAFAFA
310
FAFAFAFAFAFAFAFAFAFAFAFAFAFAFAFAFAFAFAFAFAFAFAFAFAFAFAFAFAFAFAFAFAFAFAFAFAFAFAFAFAFAFAFAFAFAFAFAFA05FAFA070707FAFAFAFAFAFAFAFAFAFAFAFAFAFAFAFAFAFAFAFAFAFAFAFAFAFAFAFAFAFAFAFAFAFAFA030707030707070707070707070303030303030303030303030303030303FAFAFAFAFAFAFA
310
FAFAFAFAFAFAFAFAFAFAFAFAFAFAFAFAFAFAFAFAFAFAFAFAFAFAFAFAFAFAFAFAFAFAFAFAFA070707FAFA05FAFAFAFAFAFAFAFAFAFAFAFAFAFAFAFAFAFAFAFAFAFAFAFAFAFAFAFAFAFAFAFAFAFAFAFAFAFAFAFAFAFAFAFAFAFAFAFAFAFAFAFAFAFAFAFAFAFAFA05FAFA070707FAFAFAFAFAFAFAFAFAFAFAFAFAFAFAFAFAFAFA
310
FAFAFAFAFAFAFAFAFAFAFAFAFAFAFA07030707030707070707070707070707070707070707070703070307FAFA03FAFAFAFAFAFAFAFAFAFAFAFAFAFAFAFAFAFAFAFAFAFAFAFAFAFAFAFAFAFAFAFAFAFAFAFAFAFAFAFAFAFAFAFA070707FAFA05FAFAFAFAFAFAFAFAFAFAFAFAFAFAFAFAFAFAFAFAFAFAFAFAFAFAFAFAFAFAFA
310
FAFAFAFAFAFAFAFAFAFAFAFAFAFAFAFAFAFAFAFAFAFAFAFAFAFAFAFA05FAFA070707FAFAFAFAFAFAFAFAFAFAFAFAFAFAFAFAFAFAFAFAFAFAFAFAFAFAFAFAFAFAFAFAFAFA07070707030707070707070707070707070707070707070703070707FAFA03FAFAFAFAFAFAFAFAFAFAFAFAFAFAFAFAFAFAFAFAFAFAFAFAFAFAFAFA
310
FAFAFAFAFAFAFAFAFAFAFAFAFAFAFAFA070707FAFA05FAFAFAFAFAFAFAFAFAFAFAFAFAFAFAFAFAFAFAFAFAFAFAFAFAFAFAFAFAFAFAFAFAFAFAFAFAFAFAFAFAFAFAFAFAFAFAFAFAFAFAFAFAFAFAFAFAFAFA05FAFA070707FAFAFAFAFAFAFAFAFAFAFAFAFAFAFAFAFAFAFAFAFAFAFAFAFAFAFAFAFAFAFAFAFAFA070707070307
310
07070707070707070407070707070707070707070707FAFA03FAFAFAFAFAFAFAFAFAFAFAFAFAFAFAFAFAFAFAFAFAFAFAFAFAFAFAFAFAFAFAFAFAFAFAFAFAFAFAFAFAFAFAFA070707FAFA05FAFAFAFAFAFAFAFAFAFAFAFAFAFAFAFAFAFAFAFAFAFAFAFAFAFAFAFAFAFAFAFAFAFAFAFAFAFAFAFAFAFAFAFAFAFAFAFAFAFAFAFA
310
FAFAFAFAFAFAFA05FAFA070707FAFAFAFAFAFAFAFAFAFAFAFAFAFAFAFAFAFAFAFAFAFAFAFAFAFAFAFAFAFAFAFAFAFA07070707030707070707070707070407070707070707070707070707020203FAFAFAFAFAFAFAFAFAFAFAFAFAFAFAFAFAFAFAFAFAFAFAFAFAFAFAFAFAFAFAFAFAFAFAFAFAFAFAFAFAFAFAFA070707FAFA
310
05FAFAFAFAFAFAFAFAFAFAFAFAFAFAFAFAFAFAFAFAFAFAFAFAFAFAFAFAFAFAFAFAFAFAFAFAFAFAFAFAFAFAFAFAFAFAFAFAFAFAFAFAFAFAFAFAFAFAFA05FAFA070707FAFAFAFAFAFAFAFAFAFAFAFAFAFAFAFAFAFAFAFAFAFAFAFAFAFAFAFAFAFAFAFAFAFA070707030307070707FAFAFAFAFA04FAFAFAFAFA07070707070707
310
07FA0203FAFAFAFAFAFAFAFAFAFAFAFAFAFAFAFAFAFAFAFAFAFAFAFAFAFAFAFAFAFAFAFAFAFAFAFAFAFAFAFAFAFAFAFA070707FAFA05FAFAFAFAFAFAFAFAFAFAFAFAFAFAFAFAFAFAFAFAFAFAFAFAFAFAFAFAFAFAFAFAFAFAFAFAFAFAFAFAFAFAFAFAFAFAFAFAFAFAFAFAFAFAFAFAFAFAFA05FAFA070707FAFAFAFAFAFAFAFA
310
FAFAFAFAFAFAFAFAFAFAFAFAFAFAFAFAFAFAFAFAFAFAFAFAFAFA07070703070707070707070707070407070707070707070707070707FAFA03FAFAFAFAFAFAFAFAFAFAFAFAFAFAFAFAFAFAFAFAFAFAFAFAFAFAFAFAFAFAFAFAFAFAFAFAFAFAFAFAFAFAFAFA070707FAFA05FAFAFAFAFAFAFAFAFAFAFAFAFAFAFAFAFAFAFAFA
310
FAFAFAFAFAFAFAFAFAFAFAFAFAFAFAFAFAFAFAFAFAFAFAFAFAFAFAFAFAFAFAFAFAFAFAFAFAFAFA05FAFA070707FAFAFAFAFAFAFAFAFAFAFAFAFAFAFAFAFAFAFAFAFAFAFAFAFAFAFAFAFAFAFAFAFAFA07070307040707070707070707070407070707070707070704070707FAFA03FAFAFAFAFAFAFAFAFAFAFAFAFAFAFAFAFA
310
FAFAFAFAFAFAFAFAFAFAFAFAFAFAFAFAFAFAFAFAFAFAFAFAFAFAFA070707FAFA05FAFAFAFAFAFAFAFAFAFAFAFAFAFAFAFAFAFAFAFAFAFAFAFAFAFAFAFAFAFAFAFAFAFAFAFAFAFAFAFAFAFAFAFAFAFAFAFAFAFAFAFAFAFAFAFAFAFAFA05FAFA070707FAFAFAFAFAFAFAFAFAFAFAFAFAFAFAFAFAFAFAFAFAFAFAFAFAFAFAFAFA
310
FAFAFAFAFA07070307070707070707070707070707070707070707070707070707FAFA03FAFAFAFAFAFAFAFAFAFAFAFAFAFAFAFAFAFAFAFAFAFAFAFAFAFAFAFAFAFAFAFAFAFAFAFAFAFAFAFAFAFAFAFA070707FAFA05FAFAFAFAFAFAFAFAFAFAFAFAFAFAFAFAFAFAFAFAFAFAFAFAFAFAFAFAFAFAFAFAFAFAFAFAFAFAFAFAFA
310
FAFAFAFAFAFAFAFAFAFAFAFAFAFAFAFAFAFA05FAFA070707FAFAFAFAFAFAFAFAFAFAFAFAFAFAFAFAFAFAFAFAFAFAFAFAFAFAFAFAFAFAFAFAFAFAFA030707070707070707070707070703030303030303030303030303030303FAFAFAFAFAFAFAFAFAFAFAFAFAFAFAFAFAFAFAFAFAFAFAFAFAFAFAFAFAFAFAFAFAFAFAFAFAFA
310
FAFAFAFAFAFA070707FAFA05FAFAFAFAFAFAFAFAFAFAFAFAFAFAFAFAFAFAFAFAFAFAFAFAFAFAFAFAFAFAFAFAFAFAFAFAFAFAFAFAFAFAFAFAFAFAFAFAFAFAFAFAFAFAFAFAFAFAFA05FAFA070707FAFAFAFAFAFAFAFAFAFAFAFAFAFAFAFAFAFAFAFAFAFAFAFAFAFAFAFAFAFAFAFAFA030303FAFAFAFAFAFAFAFAFAFA07070707
310
FAFAFAFAFAFAFAFAFAFAFAFAFAFAFAFAFAFAFAFAFAFAFAFAFAFA03FAFAFAFA03FAFAFAFAFAFAFAFAFAFAFAFAFAFAFAFAFAFAFAFAFAFAFAFAFAFAFA070707FAFA05FAFAFAFAFAFAFAFAFAFAFAFAFAFAFAFAFAFAFAFAFAFAFAFAFAFAFAFAFAFAFAFAFAFAFAFAFAFAFAFAFAFAFAFAFAFAFAFAFAFAFAFAFAFAFAFAFAFAFA05FAFA
310
070707FAFAFAFAFAFAFAFAFAFAFAFAFAFAFAFAFAFAFAFAFAFAFAFAFAFAFAFAFAFAFAFAFA0202FAFAFAFAFAFAFAFAFAFAFAFAFAFAFAFAFAFAFAFAFAFAFAFAFAFAFAFAFAFAFAFAFAFAFAFAFAFAFAFAFA030302030303FAFAFAFAFAFAFAFAFAFAFAFAFAFAFAFAFAFAFAFAFAFAFAFAFAFAFA070707FAFA05FAFAFAFAFAFAFAFAFA
310
FAFAFAFAFAFAFAFAFAFAFAFAFAFAFAFAFAFAFAFAFAFAFAFAFAFAFAFAFAFAFAFAFAFAFAFAFAFAFAFAFAFAFAFAFAFAFAFAFAFA05FAFA070707FAFAFAFAFAFAFAFAFAFAFAFAFAFAFAFAFAFAFAFAFAFAFAFAFAFAFAFAFAFAFAFAFA0202FAFAFAFAFAFAFAFAFAFAFAFAFAFAFAFAFAFAFAFAFAFAFAFAFAFAFAFAFAFAFAFAFAFAFAFA
310
FAFAFAFAFA03FA02FAFA03FAFAFAFAFAFAFAFAFAFAFAFAFAFAFAFAFAFAFAFAFAFAFAFAFAFAFA070707FAFA05FAFAFAFAFAFAFAFAFAFAFAFAFAFAFAFAFAFAFAFAFAFAFAFAFAFAFAFAFAFAFAFAFAFAFAFAFAFAFAFAFAFAFAFAFAFAFAFAFAFAFAFAFAFAFAFAFAFAFA05FAFA070707FAFAFAFAFAFAFAFAFAFAFAFAFAFAFAFAFAFA
310
FAFAFAFAFAFAFAFAFAFAFAFAFAFAFAFAFAFAFAFAFAFAFAFAFAFAFAFAFAFAFAFAFAFAFAFAFAFAFAFAFAFAFAFAFAFAFAFAFAFAFAFAFAFAFAFAFAFA03030303030303FAFAFAFAFAFAFAFAFAFAFAFAFAFAFAFAFAFAFAFAFAFAFAFAFAFA070707FAFA05FAFAFAFAFAFAFAFAFAFAFAFAFAFAFAFAFAFAFAFAFAFAFAFAFAFAFAFAFAFA
310
FAFAFAFAFAFAFAFAFAFAFAFAFAFAFAFAFAFAFAFAFAFAFAFAFAFAFAFAFA05FAFA070707FAFAFAFAFAFAFAFAFAFAFAFAFAFAFAFAFAFAFAFAFAFAFAFAFAFAFAFAFAFAFAFAFAFAFAFAFAFAFAFAFAFAFAFAFAFAFAFAFAFAFAFAFAFAFAFAFAFAFAFAFAFAFAFAFAFAFAFAFAFAFAFAFAFAFAFA03FA0203030302FAFAFAFAFAFAFAFAFA
310
FAFAFAFAFAFAFAFAFAFAFAFAFAFAFAFAFA070707FAFA05FAFAFAFAFAFAFAFAFAFAFAFAFAFAFAFAFAFAFAFAFAFAFAFAFAFAFAFAFAFAFAFAFAFAFAFAFAFAFAFAFAFAFAFAFAFAFAFAFAFAFAFAFAFAFAFAFAFAFA05FAFA070707FAFAFAFAFAFAFAFAFAFAFAFAFAFAFAFAFAFAFAFAFAFAFAFAFAFAFAFAFAFAFAFAFAFAFAFAFAFAFA
310
FAFAFAFAFAFAFAFAFAFAFAFAFAFAFAFAFAFAFAFAFAFAFAFAFAFAFAFAFAFAFAFAFAFAFAFAFA03FA02FA030302FAFAFAFAFAFAFAFAFAFAFAFAFAFAFAFAFAFAFAFAFAFAFAFAFAFA070707FAFA05FAFAFAFAFAFAFAFAFAFAFAFAFAFAFAFAFAFAFAFAFAFAFAFAFAFAFAFAFAFAFAFAFAFAFAFAFAFAFAFAFAFAFAFAFAFAFAFAFAFAFA
310
FAFAFAFAFAFAFAFA05FAFA070707FAFAFAFAFAFAFAFAFAFAFAFAFAFAFAFAFAFAFAFAFAFAFAFAFAFAFAFAFAFAFAFAFAFAFAFAFAFAFAFAFAFAFAFA0707070707070707FAFAFAFAFAFAFAFAFAFAFAFAFAFAFAFAFAFAFAFAFAFAFAFA03FA04FA0303FAFAFAFAFAFAFAFAFAFAFAFAFAFAFAFAFAFAFAFAFAFAFAFAFAFAFA070707FA
310
FA05FAFAFAFAFAFAFAFAFAFAFAFAFAFAFAFAFAFAFAFAFAFAFAFAFAFAFAFAFAFAFAFAFAFAFAFAFAFAFAFAFAFAFAFAFAFAFAFAFAFAFAFAFAFAFAFAFAFAFA05FAFA070707FAFAFAFAFAFAFAFAFAFAFAFAFAFAFAFAFAFAFAFAFAFAFAFAFAFAFAFAFAFAFAFAFAFAFAFAFAFAFAFAFAFAFA07070707070707070707FAFAFAFAFAFAFA
310
FAFAFAFAFAFAFAFA03030303030303030303030303030303030303030303FAFAFAFAFAFAFAFAFAFAFAFAFAFAFAFAFAFAFA070707FAFA05FAFAFAFAFAFAFAFAFAFAFAFAFAFAFAFAFAFAFAFAFAFAFAFAFAFAFAFAFAFAFAFAFAFAFAFAFAFAFAFAFAFAFAFAFAFAFAFAFAFAFAFAFAFAFAFAFAFAFA05FAFA070707FAFAFAFAFAFAFA
310
FAFAFAFAFAFAFAFAFAFAFAFAFAFAFAFAFAFAFAFAFAFAFAFAFAFAFAFAFAFAFAFAFAFA07070707070707070707070707FAFAFAFAFAFAFAFAFAFAFAFAFAFA03FA0303030303030307040703030303030303FAFA03FAFAFAFAFAFAFAFAFAFAFAFAFAFAFAFAFAFAFA070707FAFA05FAFAFAFAFAFAFAFAFAFAFAFAFAFAFAFAFAFAFA
310
FAFAFAFAFAFAFAFAFAFAFAFAFAFAFAFAFAFAFAFAFAFAFAFAFAFAFAFAFAFAFAFAFAFAFAFAFAFAFAFA05FAFA070707FAFAFAFAFAFAFAFAFAFAFAFAFAFAFAFAFAFAFAFAFAFAFAFAFAFAFAFAFAFAFAFAFAFAFAFAFAFAFAFA070707070707070707070707070707FAFAFAFAFAFAFAFAFAFAFAFAFA03FAFA03FAFAFA070707040707
310
0707FAFAFA03FAFA03FAFAFAFAFAFAFAFAFAFAFAFAFAFAFAFAFAFAFA070707FAFA05FAFAFAFAFAFAFAFAFAFAFAFAFAFAFAFAFAFAFAFAFAFAFAFAFAFAFAFAFAFAFAFAFAFAFAFAFAFAFAFAFAFAFAFAFAFAFAFAFAFAFAFAFAFAFAFAFAFAFA05FAFA070707FAFAFAFAFAFAFAFAFAFAFAFAFAFAFAFAFAFAFAFAFAFAFAFAFAFAFAFA
310
FAFAFAFAFAFAFAFAFAFAFAFA070707070707FAFA04FA070707070707FAFAFAFAFAFAFAFAFAFAFAFA03FAFA03FAFAFA0707070407070707FAFAFA03FAFA03FAFAFAFAFAFAFAFAFAFAFAFAFAFAFAFAFAFAFA070707FAFA05FAFAFAFAFAFAFAFAFAFAFAFAFAFAFAFAFAFAFAFAFAFAFAFAFAFAFAFAFAFAFAFAFAFAFAFAFAFAFAFA
310
FAFAFAFAFAFAFAFAFAFAFAFAFAFAFAFAFAFAFA05FAFA070707FAFAFAFAFAFAFAFAFAFAFAFAFAFAFAFAFAFAFAFAFAFAFAFAFAFAFAFAFAFAFAFAFAFAFAFAFAFAFA070707070707070707040707070707070707FAFAFAFAFAFAFAFAFAFAFA03FAFA03FAFAFA0707070407070707FAFAFA03FAFA03FAFAFAFAFAFAFAFAFAFAFAFA
310
FAFAFAFAFAFAFA070707FAFA05FAFAFAFAFAFAFAFAFAFAFAFAFAFAFAFAFAFAFAFAFAFAFAFAFAFAFAFAFAFAFAFAFAFAFAFAFAFAFAFAFAFAFAFAFAFAFAFAFAFAFAFAFAFAFAFAFAFAFA05FAFA070707FAFAFAFAFAFAFAFAFAFAFAFAFAFAFAFAFAFAFAFAFAFAFAFAFAFAFAFAFAFAFAFAFAFAFAFAFAFAFA07070707070707070704
310
0707070707070707FAFAFAFAFAFAFAFAFAFAFA03FAFA03FAFA070707070407070707FAFAFA03FAFA03FAFAFAFAFAFAFAFAFAFAFAFAFAFAFAFAFAFAFA070707FAFA05FAFAFAFAFAFAFAFAFAFAFAFAFAFAFAFAFAFAFAFAFAFAFAFAFAFAFAFAFAFAFAFAFAFAFAFAFAFAFAFAFAFAFAFAFAFAFAFAFAFAFAFAFAFAFAFAFAFAFA05FA
310
FA070707FAFAFAFAFAFAFAFAFAFAFAFAFAFAFAFAFAFAFAFAFAFAFAFAFAFAFAFAFAFAFAFAFAFAFAFAFAFAFA07070707070707070707070707070707070707FAFAFAFAFAFAFAFAFAFA03FAFA03FA0707070707040707070707FAFA03FAFA03FAFAFAFAFAFAFAFAFAFAFAFAFAFAFAFAFAFAFA070707FAFA05FAFAFAFAFAFAFAFA
310
FAFAFAFAFAFAFAFAFAFAFAFAFAFAFAFAFAFAFAFAFAFAFAFAFAFAFAFAFAFAFAFAFAFAFAFAFAFAFAFAFAFAFAFAFAFAFAFAFAFAFA05FAFA070707FAFAFAFAFAFAFAFAFAFAFAFAFAFAFAFAFAFAFAFAFAFAFAFAFAFAFAFAFAFAFAFAFAFAFAFAFAFAFA07070707FAFAFA01010101FAFAFA0707070707FAFAFAFAFAFAFAFAFA0203FA
310
0203FA070707070704070707070707FA03FAFA03FAFAFAFAFAFAFAFAFAFAFAFAFAFAFAFAFAFAFA070707FAFA05FAFAFAFAFAFAFAFAFAFAFAFAFAFAFAFAFAFAFAFAFAFAFAFAFAFAFAFAFAFAFAFAFAFAFAFAFAFAFAFAFAFAFAFAFAFAFAFAFAFAFAFAFAFAFAFAFAFAFA05FAFA070707FAFAFAFAFAFAFAFAFAFAFAFAFAFAFAFAFA
310
FAFAFAFAFAFAFAFAFAFAFAFAFAFAFAFAFAFAFAFAFA0707070704040404010404010404040407070707FAFAFAFAFAFAFAFA020203020203FA070707040404040407070707FA03FAFA03FAFAFAFAFAFAFAFAFAFAFAFAFAFAFAFAFAFAFA070707FAFA05FAFAFAFAFAFAFAFAFAFAFAFAFAFAFAFAFAFAFAFAFAFAFAFAFAFAFAFAFA
310
FAFAFAFAFAFAFAFAFAFAFAFAFAFAFAFAFAFAFAFAFAFAFAFAFAFAFAFAFAFA05FAFA070707FAFAFAFAFAFAFAFAFAFAFAFAFAFAFAFAFAFAFAFAFAFAFAFAFAFAFAFAFAFAFAFAFAFAFAFAFA07070707FAFAFAFAFA07010101FAFAFAFAFA07070707FAFAFAFAFAFAFAFAFA03FAFA03FA0707070707040707070707070203020203FA
310
FAFAFAFAFAFAFAFAFAFAFAFAFAFAFAFAFAFA070707FAFA05FAFAFAFAFAFAFAFAFAFAFAFAFAFAFAFAFAFAFAFAFAFAFAFAFAFAFAFAFAFAFAFAFAFAFAFAFAFAFAFAFAFAFAFAFAFAFAFAFAFAFAFAFAFAFAFAFAFAFA05FAFA070707FAFAFAFAFAFAFAFAFAFAFAFAFAFAFAFAFAFAFAFAFAFAFAFAFAFAFAFAFAFAFAFAFAFAFAFA0707
310
0707FAFAFAFAFAFA070707FAFAFAFAFAFAFA07070707FAFAFAFAFAFAFAFA03FAFA03FAFA07070707040707070707FAFA03FAFA03FAFAFAFAFAFAFAFAFAFAFAFAFAFAFAFAFAFAFA070707FAFA05FAFAFAFAFAFAFAFAFAFAFAFAFAFAFAFAFAFAFAFAFAFAFAFAFAFAFAFAFAFAFAFAFAFAFAFAFAFAFAFAFAFAFAFAFAFAFAFAFAFA
310
FAFAFAFAFAFAFAFAFA05FAFA070707FAFAFAFAFAFAFAFAFAFAFAFAFAFAFAFAFAFAFAFAFAFAFAFAFAFAFAFAFAFAFAFAFAFAFA07070707FAFAFAFAFAFAFAFAFA04FAFAFAFAFAFAFAFA07070707FAFAFAFAFAFAFA03FAFA03FAFA070707070407070707FAFAFA03FAFA03FAFAFAFAFAFAFAFAFAFAFAFAFAFAFAFAFAFAFA070707
310
FAFA05FAFAFAFAFAFAFAFAFAFAFAFAFAFAFAFAFAFAFAFAFAFAFAFAFAFAFAFAFAFAFAFAFAFAFAFAFAFAFAFAFAFAFAFAFAFAFAFAFAFAFAFAFAFAFAFAFAFAFA05FAFA070707FAFAFAFAFAFAFAFAFAFAFAFAFAFAFAFAFAFAFAFAFAFAFAFAFAFAFAFAFAFAFAFAFAFAFA070707FAFAFAFAFAFAFAFAFAFA04FAFAFAFAFAFAFAFAFA07
310
070707FAFAFAFAFAFA03FAFA03FAFA070707070407070707FAFAFA03FAFA03FAFAFAFAFAFAFAFAFAFAFAFAFAFAFAFAFAFAFA070707FAFA05FAFAFAFAFAFAFAFAFAFAFAFAFAFAFAFAFAFAFAFAFAFAFAFAFAFAFAFAFAFAFAFAFAFAFAFAFAFAFAFAFAFAFAFAFAFAFAFAFAFAFAFAFAFAFAFAFAFAFA05FAFA070707FAFAFAFAFAFA
310
FAFAFAFAFAFAFAFAFAFAFAFAFAFAFAFAFAFAFAFAFAFAFAFAFAFAFAFA070707FAFAFAFAFAFAFAFAFAFAFA04FAFAFAFAFAFAFAFAFAFA070707FAFAFAFAFAFA03FAFA03FAFA070707070407070707FAFAFA03FAFA03FAFAFAFAFAFAFAFAFAFAFAFAFAFAFAFAFAFAFA070707FAFA05FAFAFAFAFAFAFAFAFAFAFAFAFAFAFAFAFAFA
310
FAFAFAFAFAFAFAFAFAFAFAFAFAFAFAFAFAFAFAFAFAFAFAFAFAFAFAFAFAFAFAFAFAFAFAFAFAFAFAFAFA05FAFA070707070707070707070707070707070707070707070707070707FAFAFAFAFAFAFAFAFAFA070707FAFAFAFAFAFAFAFAFAFAFA04FAFAFAFAFAFAFAFAFAFA070707FAFAFAFAFAFA03FAFA03FAFA070707070407
310
070707FAFAFA03FAFA03FAFAFAFAFAFAFAFAFAFAFAFAFAFAFAFAFAFAFA070707FAFA05FAFAFAFAFAFAFAFAFAFAFAFAFAFAFAFAFAFAFAFAFAFAFAFAFAFAFAFAFAFAFAFAFAFAFAFAFAFAFAFAFAFAFAFAFAFAFAFAFAFAFAFAFAFAFAFAFAFAFA05FAFA07070707070707070707070707070707070707070707070707070707FAFA
310
FAFAFAFAFAFAFA070707FAFAFAFAFAFAFAFAFAFAFA04FAFAFAFAFAFAFAFAFAFA070707FAFAFAFAFAFA03FA03030303030303070407070707FAFAFA03FAFA03FAFAFAFAFAFAFAFAFAFAFAFAFAFAFAFAFAFAFA070707FAFA05FAFAFAFAFAFAFAFAFAFAFAFAFAFAFAFAFAFAFAFAFAFAFAFAFAFAFAFAFAFAFAFAFAFAFAFAFAFAFA
310
FAFAFAFAFAFAFAFAFAFAFAFAFAFAFAFAFAFAFAFA05FAFA07070702020707070202020202020202020207070707070707070707FAFAFAFAFAFAFAFAFA070707FAFAFAFAFAFAFAFAFAFAFA04FAFAFAFAFAFAFAFAFAFA070707FAFAFAFAFAFA030303030303030303030303030707FAFAFA03FAFA03FAFAFAFAFAFAFAFAFAFAFA
310
FAFAFAFAFAFAFAFA070707FAFA05FAFAFAFAFAFAFAFAFAFAFAFAFAFAFAFAFAFAFAFAFAFAFAFAFAFAFAFAFAFAFAFAFAFAFAFAFAFAFAFAFAFAFAFAFAFAFAFAFAFAFAFAFAFAFAFAFAFAFA05FAFA0707070202FA01FA02020202020202020202FAFAFAFAFAFAFA070707FAFAFAFAFAFAFAFAFA0707070707070707070707070707
310
0407070707070707070707070707FAFAFAFAFAFAFAFAFAFAFAFA070307070407070307FAFAFA03FAFA03FAFAFAFAFAFAFAFAFAFAFAFAFAFAFAFAFAFAFA070707FAFA05FAFAFAFAFAFAFAFAFAFAFAFAFAFAFAFAFAFAFAFAFAFAFAFAFAFAFAFAFAFAFAFAFAFAFAFAFAFAFAFAFAFAFAFAFAFAFAFAFAFAFAFAFAFAFAFAFAFAFA05
310
FAFA07070202020201020202010101010101010101010101010101010107FAFAFAFAFAFAFAFAFA07070707070707070707070707070407070707070707070707070707FAFAFAFAFAFAFAFAFAFAFAFA07030707040707030303030303030303FAFAFAFAFAFAFAFAFAFAFAFAFAFAFAFAFAFAFA070707FAFA05FAFAFAFAFAFAFA
310
FAFAFAFAFAFAFAFAFAFAFAFAFAFAFAFAFAFAFAFAFAFAFAFAFAFAFAFAFAFAFAFAFAFAFAFAFAFAFAFAFAFAFAFAFAFAFAFAFAFAFAFA05FAFA07070202020201020202FAFAFAFAFAFAFAFAFAFAFAFAFAFAFA070707FAFAFAFAFAFAFAFAFAFA0707070707070707070707070707070707070707070707070707FAFAFAFAFAFAFAFA
310
FAFAFAFAFAFA03070707070703FAFAFAFAFAFAFAFAFAFAFAFAFAFAFAFAFAFAFAFAFAFAFAFAFAFAFA070707FAFA05FAFAFAFAFAFAFAFAFAFAFAFAFAFAFAFAFAFAFAFAFAFAFAFAFAFAFAFAFAFAFAFAFAFAFAFAFAFAFAFAFAFAFAFAFAFAFAFAFAFAFAFAFAFAFAFAFAFAFA05FAFA07010101010101010101010101010101010101
310
010101010101010107FAFAFAFAFAFAFAFAFAFAFAFAFAFAFAFAFAFAFAFAFAFAFAFAFAFAFAFAFAFAFAFAFAFAFAFAFAFAFAFAFAFAFAFAFAFAFAFAFAFA03FAFAFAFAFA03FAFAFAFAFAFAFAFAFAFAFAFAFAFAFAFAFAFAFAFAFAFAFAFAFAFAFA070707FAFA05FAFAFAFAFAFAFAFAFAFAFAFAFAFAFAFAFAFAFAFAFAFAFAFAFAFAFAFA
310
FAFAFAFAFAFAFAFAFAFAFAFAFAFAFAFAFAFAFAFAFAFAFAFAFAFAFAFAFAFAFA05FAFA07070202020201020202FAFAFAFAFAFAFAFAFAFAFAFAFAFAFA070707FAFAFAFAFAFAFAFAFAFAFAFAFAFAFAFAFAFAFAFAFAFAFAFAFAFAFAFAFAFAFAFAFAFAFAFAFAFAFAFAFAFAFAFAFAFAFAFAFAFA0303030202030303FAFAFAFAFAFAFA
310
FAFAFAFAFAFAFAFAFAFAFAFAFAFAFAFAFAFAFA070707FAFA05FAFAFAFAFAFAFAFAFAFAFAFAFAFAFAFAFAFAFAFAFAFAFAFAFAFAFAFAFAFAFAFAFAFAFAFAFAFAFAFAFAFAFAFAFAFAFAFAFAFAFAFAFAFAFAFAFAFAFA05FAFA07010101010101010101010101010101010101010101010101010107FAFAFAFAFAFAFAFAFAFAFAFA
310
FAFAFAFAFAFAFAFAFAFAFAFAFAFAFAFAFAFAFAFAFAFAFAFAFAFAFAFAFAFAFAFAFAFAFAFAFAFAFAFAFA0202FAFAFAFAFAFAFAFAFAFAFAFAFAFAFAFAFAFAFAFAFAFAFAFAFAFAFAFAFA070707FAFA05FAFAFAFAFAFAFAFAFAFAFAFAFAFAFAFAFAFAFAFAFAFAFAFAFAFAFAFAFAFAFAFAFAFAFAFAFAFAFAFAFAFAFAFAFAFAFAFAFA
310
FAFAFAFAFAFAFAFAFAFA05FAFA070707020202010202020202020202FA02020202FAFAFAFAFA070707FAFAFAFAFAFAFAFAFAFAFAFAFAFAFAFAFAFAFAFAFAFAFAFAFAFAFAFAFAFAFAFAFAFAFAFAFAFAFAFAFAFAFAFAFAFAFAFAFAFAFAFAFAFAFAFAFAFAFAFAFAFAFAFAFAFAFAFAFAFAFAFAFAFAFAFAFAFAFAFAFAFAFAFA0707
310
07FAFA05FAFAFAFAFAFAFAFAFAFAFAFAFAFAFAFAFAFAFAFAFAFAFAFAFAFAFAFAFAFAFAFAFAFAFAFAFAFAFAFAFAFAFAFAFAFAFAFAFAFAFAFAFAFAFAFAFAFAFA05FAFA07070702020201020202020202020201020202020101010101070707FAFAFAFAFAFAFAFAFAFAFAFAFAFAFAFAFAFAFAFAFAFAFAFAFAFAFAFAFAFAFAFAFA
310
FAFAFAFAFAFAFAFAFAFAFAFAFAFAFAFAFAFAFAFAFAFAFAFAFAFAFAFAFAFAFAFAFAFAFAFAFAFAFAFAFAFAFAFAFAFAFAFAFAFAFA070707FAFA05FAFAFAFAFAFAFAFAFAFAFAFAFAFAFAFAFAFAFAFAFAFAFAFAFAFAFAFAFAFAFAFAFAFAFAFAFAFAFAFAFAFAFAFAFAFAFAFAFAFAFAFAFAFAFAFAFAFAFA05FAFA0707070202020102
310
020202FA02020202020202FAFAFAFAFAFA070707FAFAFAFAFAFAFAFAFAFAFAFAFAFAFAFAFAFAFAFAFAFAFAFAFAFAFAFAFAFAFAFAFAFAFAFAFAFAFAFAFAFAFAFAFAFAFAFAFAFAFAFAFAFAFAFAFAFAFAFAFAFAFAFAFAFAFAFAFAFAFAFAFAFAFAFAFAFAFAFAFAFAFAFA070707FAFA05FAFAFAFAFAFAFAFAFAFAFAFAFAFAFAFAFA
310
FAFAFAFAFAFAFAFAFAFAFAFAFAFAFAFAFAFAFAFAFAFAFAFAFAFAFAFAFAFAFAFAFAFAFAFAFAFAFAFAFAFA05FAFA070707020202010202020202020202020202FAFAFAFAFAFAFA070707FAFAFAFAFAFAFAFAFAFAFAFAFAFAFAFAFAFAFAFAFAFAFAFAFAFAFAFAFAFAFAFAFAFAFAFAFAFAFAFAFAFAFAFAFAFAFAFAFAFAFAFAFAFA
310
FAFAFAFAFAFAFAFAFAFAFAFAFAFAFAFAFAFAFAFAFAFAFAFAFAFAFAFAFAFA070707FAFA05FAFAFAFAFAFAFAFAFAFAFAFAFAFAFAFAFAFAFAFAFAFAFAFAFAFAFAFAFAFAFAFAFAFAFAFAFAFAFAFAFAFAFAFAFAFAFAFAFAFAFAFAFAFAFAFAFAFAFA05FAFA07070702020101020201020202010101010101010101010101070707FA
310
FAFAFAFAFAFAFAFAFAFAFAFAFAFAFAFAFAFAFAFAFAFAFAFAFAFAFAFAFAFAFAFAFAFAFAFAFAFAFAFAFAFAFAFAFAFAFAFAFAFAFAFAFAFAFAFAFAFAFAFAFAFAFAFAFAFAFAFAFAFAFAFAFAFAFAFAFAFAFAFAFAFAFA070707FAFA05FAFAFAFAFAFAFAFAFAFAFAFAFAFAFAFAFAFAFAFAFAFAFAFAFAFAFAFAFAFAFAFAFAFAFAFAFAFA
310
FAFAFAFAFAFAFAFAFAFAFAFAFAFAFAFAFAFAFAFAFA05FAFA07070702020201020202020202FAFAFAFAFAFAFAFAFAFAFAFA070707FAFAFAFAFAFAFAFAFAFAFAFAFAFAFAFAFAFAFAFAFAFAFAFAFAFAFAFAFAFAFAFAFAFAFAFAFAFAFAFAFAFAFAFAFAFAFAFAFAFAFAFAFAFAFAFAFAFAFAFAFAFAFAFAFAFAFAFAFAFAFAFAFAFAFA
310
FAFAFAFAFAFAFAFAFA070707FAFA05FAFAFAFAFAFAFAFAFAFAFAFAFAFAFAFAFAFAFAFAFAFAFAFAFAFAFAFAFAFAFAFAFAFAFAFAFAFAFAFAFAFAFAFAFAFAFAFAFAFAFAFAFAFAFAFAFAFAFA05FAFA07070701010101010101010101010101010101010101010101070707FAFAFAFAFAFAFAFAFAFAFAFAFAFAFAFAFAFAFAFAFAFA
310
FAFAFAFAFAFAFAFAFAFAFAFAFAFAFAFAFAFAFAFAFAFAFAFAFAFAFAFAFAFAFAFAFAFAFAFAFAFAFAFAFAFAFAFAFAFAFAFAFAFAFAFAFAFAFAFAFAFAFAFAFAFA070707FAFA05FAFAFAFAFAFAFAFAFAFAFAFAFAFAFAFAFAFAFAFAFAFAFAFAFAFAFAFAFAFAFAFAFAFAFAFAFAFAFAFAFAFAFAFAFAFAFAFAFAFAFAFAFAFAFAFAFAFAFA
310
05FAFA07070702020207020202020202020202070707070707070707070707070707070707070707070707070707070707070707070707070707070707070707070707070707070707070707070707070707070707070707070707070707070707070707070707070707070707070707070707070707FAFA05FAFAFAFAFAFA
310
FAFAFAFAFAFAFAFAFAFAFAFAFAFAFAFAFAFAFAFAFAFAFAFAFAFAFAFAFAFAFAFAFAFAFAFAFAFAFAFAFAFAFAFAFAFAFAFAFAFAFAFAFA05FAFA0707070702070707070707070707070707070707070707070707070707070707070707070707070707070707070707070707070707070707070707070707070707070707070707
310
0707070707070707070707070707070707070707070707070707070707070707070707070707070707070707FAFA05FAFAFAFAFAFAFAFAFAFAFAFAFAFAFAFAFAFAFAFAFAFAFAFAFAFAFAFAFAFAFAFAFAFAFAFAFAFAFAFAFAFAFAFAFAFAFAFAFAFAFAFAFAFAFAFAFAFAFA05FAFAFA0707070707070707070707070707070707
310
070707070707070707070707070707070707070707070707070707070707070707070707070707070707070707070707070707070707070707070707070707070707070707070707070707070707070707070707070707070707070707070707FAFAFA05FAFAFAFAFAFAFAFAFAFAFAFAFAFAFAFAFAFAFAFAFAFAFAFAFAFAFA
310
FAFAFAFAFAFAFAFAFAFAFAFAFAFAFAFAFAFAFAFAFAFAFAFAFAFAFAFAFAFAFAFA05FAFAFAFAFAFAFAFAFAFAFAFAFAFAFAFAFAFAFAFAFAFAFAFAFAFAFAFAFAFAFAFAFAFAFAFAFAFAFAFAFAFAFAFAFAFAFAFAFAFAFAFAFAFAFAFAFAFAFAFAFAFAFAFAFAFAFAFAFAFAFAFAFAFAFAFAFAFAFAFAFAFAFAFAFAFAFAFAFAFAFAFAFAFA
310
FAFAFAFAFAFAFAFAFAFAFAFAFAFAFAFAFAFAFAFAFAFAFAFAFA05FAFAFAFAFAFAFAFAFAFAFAFAFAFAFAFAFAFAFAFAFAFAFAFAFAFAFAFAFAFAFAFAFAFAFAFAFAFAFAFAFAFAFAFAFAFAFAFAFAFAFAFAFAFAFAFAFAFAFA050505050505050505050505050505050505050505050505050505050505050505050505050505050505
310
05050505050505050505050505050505050505050505050505050505050505050505050505050505050505050505050505050505050505050505050505050505050505050505050505050505050505FAFAFAFAFAFAFAFAFAFAFAFAFAFAFAFAFAFAFAFAFAFAFAFAFAFAFAFAFA
  0
ENDSEC
  0
EOF
