  0
SECTION
  2
HEADER
  9
$ACADVER
  1
AC1027
  9
$ACADMAINTVER
 70
   105
  9
$DWGCODEPAGE
  3
ANSI_932
  9
$REQUIREDVERSIONS
160
                 0
  9
$LASTSAVEDBY
  1
G1022U
  9
$CUSTOMPROPERTYTAG
  1
AmdtFileType
  9
$CUSTOMPROPERTY
  1
84
  9
$INSBASE
 10
0.0
 20
0.0
 30
0.0
  9
$EXTMIN
 10
-0.0000004340002988
 20
0.0000002269418928
 30
0.0
  9
$EXTMAX
 10
419.9999995659997
 20
297.0000002269419
 30
0.0
  9
$LIMMIN
 10
1700.85588156276
 20
1647.985052086429
  9
$LIMMAX
 10
1997.85588156276
 20
1857.985052086429
  9
$ORTHOMODE
 70
     0
  9
$REGENMODE
 70
     1
  9
$FILLMODE
 70
     1
  9
$QTEXTMODE
 70
     0
  9
$MIRRTEXT
 70
     0
  9
$LTSCALE
 40
1.0
  9
$ATTMODE
 70
     1
  9
$TEXTSIZE
 40
3.2
  9
$TRACEWID
 40
1.0
  9
$TEXTSTYLE
  7
STANDARD
  9
$CLAYER
  8
AM_0
  9
$CELTYPE
  6
ByLayer
  9
$CECOLOR
 62
   256
  9
$CELTSCALE
 40
1.0
  9
$DISPSILH
 70
     0
  9
$DIMSCALE
 40
1.0
  9
$DIMASZ
 40
1.0
  9
$DIMEXO
 40
1.0
  9
$DIMDLI
 40
10.0
  9
$DIMRND
 40
0.0
  9
$DIMDLE
 40
0.0
  9
$DIMEXE
 40
1.0
  9
$DIMTP
 40
0.1
  9
$DIMTM
 40
0.1
  9
$DIMTXT
 40
3.5
  9
$DIMCEN
 40
0.0
  9
$DIMTSZ
 40
0.0
  9
$DIMTOL
 70
     0
  9
$DIMLIM
 70
     0
  9
$DIMTIH
 70
     0
  9
$DIMTOH
 70
     0
  9
$DIMSE1
 70
     0
  9
$DIMSE2
 70
     0
  9
$DIMTAD
 70
     1
  9
$DIMZIN
 70
     8
  9
$DIMBLK
  1

  9
$DIMASO
 70
     1
  9
$DIMSHO
 70
     1
  9
$DIMPOST
  1

  9
$DIMAPOST
  1
"
  9
$DIMALT
 70
     0
  9
$DIMALTD
 70
     2
  9
$DIMALTF
 40
0.0393701
  9
$DIMLFAC
 40
1.0
  9
$DIMTOFL
 70
     1
  9
$DIMTVP
 40
0.0
  9
$DIMTIX
 70
     0
  9
$DIMSOXD
 70
     0
  9
$DIMSAH
 70
     0
  9
$DIMBLK1
  1

  9
$DIMBLK2
  1

  9
$DIMSTYLE
  2
SYS
  9
$DIMCLRD
 70
   256
  9
$DIMCLRE
 70
   256
  9
$DIMCLRT
 70
     7
  9
$DIMTFAC
 40
0.71
  9
$DIMGAP
 40
1.5
  9
$DIMJUST
 70
     0
  9
$DIMSD1
 70
     0
  9
$DIMSD2
 70
     0
  9
$DIMTOLJ
 70
     0
  9
$DIMTZIN
 70
     8
  9
$DIMALTZ
 70
     0
  9
$DIMALTTZ
 70
     0
  9
$DIMUPT
 70
     0
  9
$DIMDEC
 70
     2
  9
$DIMTDEC
 70
     2
  9
$DIMALTU
 70
     2
  9
$DIMALTTD
 70
     2
  9
$DIMTXSTY
  7
STANDARD
  9
$DIMAUNIT
 70
     0
  9
$DIMADEC
 70
     0
  9
$DIMALTRND
 40
0.0
  9
$DIMAZIN
 70
     2
  9
$DIMDSEP
 70
    46
  9
$DIMATFIT
 70
     3
  9
$DIMFRAC
 70
     0
  9
$DIMLDRBLK
  1

  9
$DIMLUNIT
 70
     2
  9
$DIMLWD
 70
    -1
  9
$DIMLWE
 70
    -1
  9
$DIMTMOVE
 70
     0
  9
$DIMFXL
 40
1.0
  9
$DIMFXLON
 70
     0
  9
$DIMJOGANG
 40
0.7853981633974483
  9
$DIMTFILL
 70
     0
  9
$DIMTFILLCLR
 70
     0
  9
$DIMARCSYM
 70
     0
  9
$DIMLTYPE
  6

  9
$DIMLTEX1
  6

  9
$DIMLTEX2
  6

  9
$DIMTXTDIRECTION
 70
     0
  9
$LUNITS
 70
     2
  9
$LUPREC
 70
     2
  9
$SKETCHINC
 40
1.0
  9
$FILLETRAD
 40
0.0
  9
$AUNITS
 70
     0
  9
$AUPREC
 70
     0
  9
$MENU
  1
.
  9
$ELEVATION
 40
0.0
  9
$PELEVATION
 40
0.0
  9
$THICKNESS
 40
0.0
  9
$LIMCHECK
 70
     0
  9
$CHAMFERA
 40
0.0
  9
$CHAMFERB
 40
0.0
  9
$CHAMFERC
 40
20.0
  9
$CHAMFERD
 40
0.0
  9
$SKPOLY
 70
     0
  9
$TDCREATE
 40
2455883.396369352
  9
$TDUCREATE
 40
2455883.021369352
  9
$TDUPDATE
 40
2459933.759125278
  9
$TDUUPDATE
 40
2459933.384125278
  9
$TDINDWG
 40
0.0049265394
  9
$TDUSRTIMER
 40
0.0049260069
  9
$USRTIMER
 70
     1
  9
$ANGBASE
 50
0.0
  9
$ANGDIR
 70
     0
  9
$PDMODE
 70
     0
  9
$PDSIZE
 40
-3.0
  9
$PLINEWID
 40
0.0
  9
$SPLFRAME
 70
     0
  9
$SPLINETYPE
 70
     6
  9
$SPLINESEGS
 70
     8
  9
$HANDSEED
  5
BB85
  9
$SURFTAB1
 70
     6
  9
$SURFTAB2
 70
     6
  9
$SURFTYPE
 70
     6
  9
$SURFU
 70
     6
  9
$SURFV
 70
     6
  9
$UCSBASE
  2

  9
$UCSNAME
  2

  9
$UCSORG
 10
0.0
 20
0.0
 30
0.0
  9
$UCSXDIR
 10
1.0
 20
0.0
 30
0.0
  9
$UCSYDIR
 10
0.0
 20
1.0
 30
0.0
  9
$UCSORTHOREF
  2

  9
$UCSORTHOVIEW
 70
     0
  9
$UCSORGTOP
 10
0.0
 20
0.0
 30
0.0
  9
$UCSORGBOTTOM
 10
0.0
 20
0.0
 30
0.0
  9
$UCSORGLEFT
 10
0.0
 20
0.0
 30
0.0
  9
$UCSORGRIGHT
 10
0.0
 20
0.0
 30
0.0
  9
$UCSORGFRONT
 10
0.0
 20
0.0
 30
0.0
  9
$UCSORGBACK
 10
0.0
 20
0.0
 30
0.0
  9
$PUCSBASE
  2

  9
$PUCSNAME
  2

  9
$PUCSORG
 10
0.0
 20
0.0
 30
0.0
  9
$PUCSXDIR
 10
1.0
 20
0.0
 30
0.0
  9
$PUCSYDIR
 10
0.0
 20
1.0
 30
0.0
  9
$PUCSORTHOREF
  2

  9
$PUCSORTHOVIEW
 70
     0
  9
$PUCSORGTOP
 10
0.0
 20
0.0
 30
0.0
  9
$PUCSORGBOTTOM
 10
0.0
 20
0.0
 30
0.0
  9
$PUCSORGLEFT
 10
0.0
 20
0.0
 30
0.0
  9
$PUCSORGRIGHT
 10
0.0
 20
0.0
 30
0.0
  9
$PUCSORGFRONT
 10
0.0
 20
0.0
 30
0.0
  9
$PUCSORGBACK
 10
0.0
 20
0.0
 30
0.0
  9
$USERI1
 70
     0
  9
$USERI2
 70
     0
  9
$USERI3
 70
     0
  9
$USERI4
 70
     0
  9
$USERI5
 70
     0
  9
$USERR1
 40
0.0
  9
$USERR2
 40
0.0
  9
$USERR3
 40
0.0
  9
$USERR4
 40
0.0
  9
$USERR5
 40
0.0
  9
$WORLDVIEW
 70
     1
  9
$SHADEDGE
 70
     3
  9
$SHADEDIF
 70
    70
  9
$TILEMODE
 70
     1
  9
$MAXACTVP
 70
    64
  9
$PINSBASE
 10
0.0
 20
0.0
 30
0.0
  9
$PLIMCHECK
 70
     0
  9
$PEXTMIN
 10
1.000000000000000E+20
 20
1.000000000000000E+20
 30
1.000000000000000E+20
  9
$PEXTMAX
 10
-1.000000000000000E+20
 20
-1.000000000000000E+20
 30
-1.000000000000000E+20
  9
$PLIMMIN
 10
-3.17498779296875
 20
-3.174999952316284
  9
$PLIMMAX
 10
293.4970092773438
 20
206.692492723465
  9
$UNITMODE
 70
     0
  9
$VISRETAIN
 70
     1
  9
$PLINEGEN
 70
     0
  9
$PSLTSCALE
 70
     1
  9
$TREEDEPTH
 70
  3020
  9
$CMLSTYLE
  2
Standard
  9
$CMLJUST
 70
     0
  9
$CMLSCALE
 40
20.0
  9
$PROXYGRAPHICS
 70
     1
  9
$MEASUREMENT
 70
     1
  9
$CELWEIGHT
370
    -1
  9
$ENDCAPS
280
     0
  9
$JOINSTYLE
280
     0
  9
$LWDISPLAY
290
     1
  9
$INSUNITS
 70
     4
  9
$HYPERLINKBASE
  1

  9
$STYLESHEET
  1
monochrome.ctb
  9
$XEDIT
290
     1
  9
$CEPSNTYPE
380
     0
  9
$PSTYLEMODE
290
     1
  9
$FINGERPRINTGUID
  2
{716A2D34-C837-45AD-966D-6AC9DA1253E7}
  9
$VERSIONGUID
  2
{72830066-57C7-4140-8617-E8FFB1220427}
  9
$EXTNAMES
290
     1
  9
$PSVPSCALE
 40
0.0
  9
$OLESTARTUP
290
     0
  9
$SORTENTS
280
    96
  9
$INDEXCTL
280
     0
  9
$HIDETEXT
280
     1
  9
$XCLIPFRAME
280
     0
  9
$HALOGAP
280
     0
  9
$OBSCOLOR
 70
   257
  9
$OBSLTYPE
280
     0
  9
$INTERSECTIONDISPLAY
280
     0
  9
$INTERSECTIONCOLOR
 70
   257
  9
$DIMASSOC
280
     1
  9
$PROJECTNAME
  1

  9
$CAMERADISPLAY
290
     0
  9
$LENSLENGTH
 40
50.0
  9
$CAMERAHEIGHT
 40
0.0
  9
$STEPSPERSEC
 40
2.0
  9
$STEPSIZE
 40
6.0
  9
$3DDWFPREC
 40
2.0
  9
$PSOLWIDTH
 40
0.25
  9
$PSOLHEIGHT
 40
4.0
  9
$LOFTANG1
 40
1.570796326794897
  9
$LOFTANG2
 40
1.570796326794897
  9
$LOFTMAG1
 40
0.0
  9
$LOFTMAG2
 40
0.0
  9
$LOFTPARAM
 70
     7
  9
$LOFTNORMALS
280
     1
  9
$LATITUDE
 40
37.795
  9
$LONGITUDE
 40
-122.394
  9
$NORTHDIRECTION
 40
0.0
  9
$TIMEZONE
 70
 -8000
  9
$LIGHTGLYPHDISPLAY
280
     1
  9
$TILEMODELIGHTSYNCH
280
     1
  9
$CMATERIAL
347
B0EE
  9
$SOLIDHIST
280
     1
  9
$SHOWHIST
280
     1
  9
$DWFFRAME
280
     2
  9
$DGNFRAME
280
     0
  9
$REALWORLDSCALE
290
     1
  9
$INTERFERECOLOR
 62
   256
  9
$INTERFEREOBJVS
345
B0FB
  9
$INTERFEREVPVS
346
BA8F
  9
$CSHADOW
280
     0
  9
$SHADOWPLANELOCATION
 40
0.0
  0
ENDSEC
  0
SECTION
  2
CLASSES
  0
CLASS
  1
ACDBDICTIONARYWDFLT
  2
AcDbDictionaryWithDefault
  3
ObjectDBX Classes
 90
        0
 91
        8
280
     0
281
     0
  0
CLASS
  1
ACDBPLACEHOLDER
  2
AcDbPlaceHolder
  3
ObjectDBX Classes
 90
        0
 91
        1
280
     0
281
     0
  0
CLASS
  1
LAYOUT
  2
AcDbLayout
  3
ObjectDBX Classes
 90
        0
 91
        1
280
     0
281
     0
  0
CLASS
  1
AMGSETTINGSOBJ
  2
AmgSettingsObj
  3
AmgSettingsObj|...|...
 90
        0
 91
        8
280
     0
281
     0
  0
CLASS
  1
ACME_DOCUMENT
  2
AcMeDbDoc
  3
AcMeServices
 90
        0
 91
        1
280
     1
281
     0
  0
CLASS
  1
ACMESCOPE
  2
AcMeScope
  3
AcMeScope|...|...
 90
        0
 91
        8
280
     0
281
     0
  0
CLASS
  1
ACMECOMMANDHISTORY
  2
AcMeCommandHistory
  3
AcMeServices
 90
        0
 91
        2
280
     1
281
     0
  0
CLASS
  1
DICTIONARYVAR
  2
AcDbDictionaryVar
  3
ObjectDBX Classes
 90
        0
 91
        8
280
     0
281
     0
  0
CLASS
  1
ACIMSYSVARMAN
  2
AcImSysVarManager
  3
AcImSysVarManager|...|...
 90
        0
 91
        8
280
     0
281
     0
  0
CLASS
  1
ACIMREALSYSVAR
  2
AcImRealSysVar
  3
AcMeServices
 90
        0
 91
       18
280
     1
281
     0
  0
CLASS
  1
ACIMINTSYSVAR
  2
AcImIntSysVar
  3
AcImIntSysVar|...|...
 90
        0
 91
        8
280
     0
281
     0
  0
CLASS
  1
ACMEDRAWINGMAN
  2
AcMeDrawingMan
  3
AcMeServices
 90
        0
 91
        2
280
     1
281
     0
  0
CLASS
  1
ACMEVIEW
  2
AcMeView
  3
AcMeServices
 90
        0
 91
        2
280
     1
281
     0
  0
CLASS
  1
ACDBENTITYCACHE
  2
AcMeEntityCache
  3
AcMeServices
 90
        0
 91
        1
280
     1
281
     0
  0
CLASS
  1
GSMANAGER
  2
AcMeGSManager
  3
AcMeServices
 90
        0
 91
        1
280
     1
281
     0
  0
CLASS
  1
AMDTINTERNALREACTOR
  2
AmdtInternalReactor
  3
AcMeServices
 90
        0
 91
        1
280
     1
281
     0
  0
CLASS
  1
ACMESTATEMGR
  2
AcMeStateMgr
  3
AcMeStateMgr|...|...
 90
        0
 91
        8
280
     0
281
     0
  0
CLASS
  1
ACGREFMASTER
  2
AcGrefMaster
  3
AcAttribServices
 90
        0
 91
        2
280
     1
281
     0
  0
CLASS
  1
ACME_DATABASE
  2
AcMeDbDatabase
  3
AcMeServices
 90
        0
 91
        1
280
     1
281
     0
  0
CLASS
  1
ACRFINSADJUSTERMGR
  2
AcRfInsAdjusterMgr
  3
AcMeServices
 90
        0
 91
        1
280
     1
281
     0
  0
CLASS
  1
ACGREFACADMASTER
  2
AcGrefacadMaster
  3
AcGrefServices
 90
        0
 91
        2
280
     1
281
     0
  0
CLASS
  1
AMIMASTER
  2
AmiMaster
  3
AmiServices
 90
        0
 91
        2
280
     1
281
     0
  0
CLASS
  1
ACMDATADICTIONARY
  2
AcmDataDictionary
  3
AcmDataDictionary|...|...
 90
        0
 91
        8
280
     0
281
     0
  0
CLASS
  1
ACMDATAENTRYBLOCK
  2
AcmDataEntryBlock
  3
AcmDataEntryBlock|...|...
 90
        0
 91
        8
280
     0
281
     0
  0
CLASS
  1
ACIMSTRSYSVAR
  2
AcImStrSysVar
  3
AcImStrSysVar|...|...
 90
        0
 91
        8
280
     0
281
     0
  0
CLASS
  1
ACMSTANDARDISO
  2
AcmStandardISO
  3
AcmStandardISO|...|...
 90
        0
 91
       10
280
     0
281
     0
  0
CLASS
  1
AMGOBJPROPCFG
  2
AmgObjPropCfg
  3
AmgObjPropCfg|...|...
 90
        0
 91
        8
280
     0
281
     0
  0
CLASS
  1
AMDTEDGESTANDARDISO
  2
AmdtEdgeStdISO
  3
AmdtEdgeStdISO|...|...
 90
        0
 91
       10
280
     0
281
     0
  0
CLASS
  1
ACMSURFSTANDARDISO
  2
AcmSurfTextStdISO
  3
AcmSurfTextStdISO|...|...
 90
        0
 91
       12
280
     0
281
     0
  0
CLASS
  1
ACMFCFSTANDARDISO
  2
AcmFCFStdISO
  3
AcmFCFStdISO|...|...
 90
        0
 91
       11
280
     0
281
     0
  0
CLASS
  1
ACMWELDSTANDARDISO
  2
AcmWeldingStdISO
  3
AcmWeldingStdISO|...|...
 90
        0
 91
       12
280
     0
281
     0
  0
CLASS
  1
ACMIDSTANDARDISO
  2
AcmIdStdISO
  3
AcmIdStdISO|...|...
 90
        0
 91
       12
280
     0
281
     0
  0
CLASS
  1
ACMDATUMSTANDARDISO
  2
AcmDatumStdISO
  3
AcmDatumStdISO|...|...
 90
        0
 91
       13
280
     0
281
     0
  0
CLASS
  1
ACMBOMSTANDARDISO
  2
AcmBOMStdISO
  3
AcmBOMStdISO|...|...
 90
        0
 91
       10
280
     0
281
     0
  0
CLASS
  1
ACMDETAILSTANDARDISO
  2
AmdtDetailSymStdISO
  3
AmdtDetailSymStdISO|...|...
 90
        0
 91
        8
280
     0
281
     0
  0
CLASS
  1
ACMSECTIONSTANDARDISO
  2
AmdtSectionSymStdISO
  3
AmdtSectionSymStdISO|...|...
 90
        0
 91
        9
280
     0
281
     0
  0
CLASS
  1
ACMCENTERLINESTANDARDISO
  2
AmdtCenterLineStdISO
  3
AmdtCenterLineStdISO|...|...
 90
        0
 91
        8
280
     0
281
     0
  0
CLASS
  1
ACAMGLAYSTD
  2
AcAmgLayStd
  3
AcAmgLayStd|...|...
 90
        0
 91
        8
280
     0
281
     0
  0
CLASS
  1
ACAMGDIMSTD
  2
AcAmgDimStd
  3
AcAmgDimStd|...|...
 90
        0
 91
        8
280
     0
281
     0
  0
CLASS
  1
ACAMGTITLESTD
  2
AcAmgTitleStd
  3
AcAmgTitleStd|...|...
 90
        0
 91
        8
280
     0
281
     0
  0
CLASS
  1
ACAMGFILTERDAT
  2
AcAmgFilterDat
  3
"AcadM|Product Description: AutoCAD Mechanical|Company: Autodesk"
 90
        0
 91
        7
280
     1
281
     0
  0
CLASS
  1
LAYER_INDEX
  2
AcDbLayerIndex
  3
ObjectDBX Classes
 90
        0
 91
        8
280
     0
281
     0
  0
CLASS
  1
IDBUFFER
  2
AcDbIdBuffer
  3
ObjectDBX Classes
 90
        0
 91
        8
280
     0
281
     0
  0
CLASS
  1
PLOTSETTINGS
  2
AcDbPlotSettings
  3
ObjectDBX Classes
 90
        0
 91
        8
280
     0
281
     0
  0
CLASS
  1
AMDTFORMULAUPDATEDISPATCHER
  2
AmdtFormulaUpdateDispatcher
  3
AcMeServices
 90
        0
 91
        2
280
     1
281
     0
  0
CLASS
  1
ACMSTANDARDANSI
  2
AcmStandardANSI
  3
AcmStandardANSI|...|...
 90
        0
 91
        8
280
     0
281
     0
  0
CLASS
  1
ACMSURFSTANDARDANSI
  2
AcmSurfTextStdANSI
  3
AcmSurfTextStdANSI|...|...
 90
        0
 91
        8
280
     0
281
     0
  0
CLASS
  1
ACMFCFSTANDARDANSI
  2
AcmFCFStdANSI
  3
AcmFCFStdANSI|...|...
 90
        0
 91
        9
280
     0
281
     0
  0
CLASS
  1
ACMWELDSTANDARDANSI
  2
AcmWeldingStdANSI
  3
AcmWeldingStdANSI|...|...
 90
        0
 91
        8
280
     0
281
     0
  0
CLASS
  1
ACMIDSTANDARDANSI
  2
AcmIdStdANSI
  3
AcmIdStdANSI|...|...
 90
        0
 91
        9
280
     0
281
     0
  0
CLASS
  1
ACMDATUMSTANDARDANSI
  2
AcmDatumStdANSI
  3
AcmDatumStdANSI|...|...
 90
        0
 91
        8
280
     0
281
     0
  0
CLASS
  1
ACMBOMSTANDARDANSI
  2
AcmBOMStdANSI
  3
AcmBOMStdANSI|...|...
 90
        0
 91
        8
280
     0
281
     0
  0
CLASS
  1
ACMDETAILSTANDARDANSI
  2
AmdtDetailSymStdANSI
  3
AmdtDetailSymStdANSI|...|...
 90
        0
 91
        8
280
     0
281
     0
  0
CLASS
  1
ACMSECTIONSTANDARDANSI
  2
AmdtSectionSymStdANSI
  3
AmdtSectionSymStdANSI|...|...
 90
        0
 91
        8
280
     0
281
     0
  0
CLASS
  1
ACMCENTERLINESTANDARDANSI
  2
AmdtCenterLineStdANSI
  3
AmdtCenterLineStdANSI|...|...
 90
        0
 91
        8
280
     0
281
     0
  0
CLASS
  1
ACMBOM
  2
AcmBom
  3
AcmBom|...|...
 90
        0
 91
        8
280
     0
281
     0
  0
CLASS
  1
ACMDATAENTRYPART
  2
AcmDataEntryPart
  3
AcmDataEntryPart|...|...
 90
        0
 91
        8
280
     0
281
     0
  0
CLASS
  1
ACMPARTREF
  2
AcmPartRef
  3
AcmPartRef|...|...
 90
        0
 91
        8
280
     0
281
     1
  0
CLASS
  1
ACDBCIRCARCRES
  2
AcDbCircArcRes
  3
AcDbCircArcRes|...|...
 90
        0
 91
        9
280
     0
281
     0
  0
CLASS
  1
ACMBOMROW
  2
AcmBomRow
  3
AcmBomRow|...|...
 90
        0
 91
        8
280
     0
281
     0
  0
CLASS
  1
ACMBALLOON
  2
AcmBalloon
  3
AcmBalloon|...|...
 90
        0
 91
        8
280
     0
281
     1
  0
CLASS
  1
AMDTNOTE
  2
AmdtNote
  3
AmdtNote|...|...
 90
        0
 91
        8
280
     0
281
     1
  0
CLASS
  1
STDPART2D
  2
AmgStdPart
  3
AmgStdPart|...|...
 90
        0
 91
        8
280
     0
281
     1
  0
CLASS
  1
ACDBSTDPARTRES_LINE
  2
AcDbStdPartRes_Line
  3
AcDbStdPartRes_Line|...|...
 90
        0
 91
        8
280
     0
281
     0
  0
CLASS
  1
ACMDATAENTRY
  2
AcmDataEntry
  3
AcmDataEntry|...|...
 90
        0
 91
       10
280
     0
281
     0
  0
CLASS
  1
ACDBOPPOLYLINERES
  2
AcDbOpPolylineRes
  3
AcDbOpPolylineRes|...|...
 90
        0
 91
        8
280
     0
281
     0
  0
CLASS
  1
ACMPARTLIST
  2
AcmPartList
  3
AcmPartList|...|...
 90
        0
 91
        8
280
     0
281
     1
  0
CLASS
  1
ACDBLINERES
  2
AcDbLineRes
  3
AcDbLineRes|...|...
 90
        0
 91
        9
280
     0
281
     0
  0
CLASS
  1
ACRFINSADJ
  2
AcRfInsAdjuster
  3
AcRfInsAdjuster|...|...
 90
        0
 91
        9
280
     0
281
     0
  0
CLASS
  1
AM_DRAWING_MGR
  2
AcDmDwgMgr
  3
AcMechDwgViewMgmt
 90
        0
 91
        2
280
     1
281
     0
  0
CLASS
  1
AM_DWG_DOCUMENT
  2
AcDmDwgDocument
  3
AcMechDwgViewMgmt
 90
        0
 91
        2
280
     1
281
     0
  0
CLASS
  1
AM_DWG_SHEET
  2
AcDmSheet
  3
AcMechDwgViewMgmt
 90
        0
 91
        3
280
     1
281
     0
  0
CLASS
  1
AM_VIEWDIMPARMAP
  2
AcDmViewDimParMap
  3
AcMechDwgViewMgmt
 90
        0
 91
        3
280
     1
281
     0
  0
CLASS
  1
AM_DWGMGR_NAME
  2
AcDmDwgMgrName
  3
AcMechDwgViewMgmt
 90
        0
 91
        2
280
     1
281
     0
  0
CLASS
  1
AMDTMENUSTATEMGR
  2
AmdtMenuStateMgr
  3
McadcomServices
 90
        0
 91
        1
280
     1
281
     0
  0
CLASS
  1
AMDTMCOMMENUSTATE
  2
AmdtMcomMenuState
  3
McadcomServices
 90
        0
 91
        1
280
     1
281
     0
  0
CLASS
  1
ASAPP
  2
AcAsAppObject
  3
AutoSurfServices
 90
        0
 91
        2
280
     1
281
     0
  0
CLASS
  1
IM_STATIC_MAN
  2
AcImStaticVarManager
  3
AcMeServices
 90
        0
 91
        2
280
     1
281
     0
  0
CLASS
  1
ACIMDBLSTATICVAR
  2
AcImDblStaticVar
  3
AcMeServices
 90
        0
 91
       21
280
     1
281
     0
  0
CLASS
  1
ACIMSTRSTATICVAR
  2
AcImStrStaticVar
  3
AcMeServices
 90
        0
 91
       13
280
     1
281
     0
  0
CLASS
  1
ACIMINTSTATICVAR
  2
AcImIntStaticVar
  3
AcMeServices
 90
        0
 91
       18
280
     1
281
     0
  0
CLASS
  1
ACASGREFMASTER
  2
AcAsGrefMaster
  3
AutoSurfResolverServices
 90
        0
 91
        2
280
     1
281
     0
  0
CLASS
  1
ACADGREFMODULE
  2
AcAdGrefModule
  3
AdGrefServices
 90
        0
 91
        2
280
     1
281
     0
  0
CLASS
  1
AMDTMAPISURFMOUDULE
  2
AmdtMApiSurfModule
  3
MApiSurfServices
 90
        0
 91
        2
280
     1
281
     0
  0
CLASS
  1
MAPIAMMOUDLE
  2
MApiAmModule
  3
MApiAmServices
 90
        0
 91
        2
280
     1
281
     0
  0
CLASS
  1
AMDTADMENUSTATE
  2
AmdtAdMenuState
  3
DesignerServices
 90
        0
 91
        1
280
     1
281
     0
  0
CLASS
  1
ADAPPL
  2
AcAdAppl
  3
DesignerServices
 90
        0
 91
        2
280
     1
281
     0
  0
CLASS
  1
DEPMGR
  2
AcAdDepMgr
  3
DesignerServices
 90
        0
 91
        2
280
     1
281
     0
  0
CLASS
  1
PARAMMGR
  2
AcAdParamMgr
  3
DesignerServices
 90
        0
 91
        2
280
     1
281
     0
  0
CLASS
  1
PARAMSCOPE
  2
AcAdParamScope
  3
DesignerServices
 90
        0
 91
        2
280
     1
281
     0
  0
CLASS
  1
NAMEDAPPL
  2
AcAdNamedAppl
  3
DesignerServices
 90
        0
 91
        2
280
     1
281
     0
  0
CLASS
  1
ADHNTMPLT
  2
AdHoleNoteTemplateMgr
  3
DesignerServices
 90
        0
 91
        1
280
     1
281
     0
  0
CLASS
  1
AM_HNTEMPLATE_MGR_NAME
  2
AdHoleNoteTemplateMgrName
  3
DesignerServices
 90
        0
 91
        1
280
     1
281
     0
  0
CLASS
  1
AMDTDMMENUSTATE
  2
AmdtDmMenuState
  3
AcMechDwgViewMgmt
 90
        0
 91
        1
280
     1
281
     0
  0
CLASS
  1
MAPIADMODULE
  2
MApiAdModule
  3
MApiAdServices
 90
        0
 91
        2
280
     1
281
     0
  0
CLASS
  1
AMDTAMMENUSTATE
  2
AmdtAmMenuState
  3
DesignerAssemblies
 90
        0
 91
        1
280
     1
281
     0
  0
CLASS
  1
ACAMPROJECT
  2
AcAmProject
  3
AcAmProject|...|...
 90
        0
 91
        8
280
     0
281
     0
  0
CLASS
  1
ACAMGRCOMPDEF
  2
AcAmGrCompDef
  3
AcAmGrCompDef|...|...
 90
        0
 91
        8
280
     0
281
     0
  0
CLASS
  1
ACCMCONTEXT
  2
AcCmContext
  3
DesignerAssemblies
 90
        0
 91
        2
280
     1
281
     0
  0
CLASS
  1
ACAMCOMPDEF
  2
AcAmCompDef
  3
AcAmCompDef|...|...
 90
        0
 91
        8
280
     0
281
     0
  0
CLASS
  1
ACAMCOMPDEFMGR
  2
AcAmCompDefMgr
  3
AcAmCompDefMgr|...|...
 90
        0
 91
        8
280
     0
281
     0
  0
CLASS
  1
ACAMCONTEXTMGR
  2
AcAmContextMgr
  3
AcAmContextMgr|...|...
 90
        0
 91
        8
280
     0
281
     0
  0
CLASS
  1
ACAMCONTEXTMODELER
  2
AcAmContextModeler
  3
AcAmContextModeler|...|...
 90
        0
 91
        8
280
     0
281
     0
  0
CLASS
  1
CATALOGSTATE
  2
AcAmCatalogState
  3
DesignerAssemblies
 90
        0
 91
        2
280
     1
281
     0
  0
CLASS
  1
ACAMGRCOMPDEFSET
  2
AcAmGrCompDefSet
  3
DesignerAssemblies
 90
        0
 91
        1
280
     1
281
     0
  0
CLASS
  1
AMDTBROWSERDBTAB
  2
AmdtBrowserDbTab
  3
McadcomServices
 90
        0
 91
        1
280
     1
281
     0
  0
CLASS
  1
CBROWSERAPPOBJECT
  2
CBrowserAppObject
  3
McadcomServices
 90
        0
 91
        1
280
     1
281
     0
  0
CLASS
  1
DM_PLACEHOLDER
  2
AcDmSelsetPlaceholder
  3
AcMechDwgViewMgmt
 90
        0
 91
        1
280
     1
281
     0
  0
CLASS
  1
ACMPICKOBJ
  2
AcmPickEnt
  3
"AcmSymBB|Product Description: AutoCAD Mechanical|Company: Autodesk"
 90
        0
 91
        1
280
     1
281
     1
  0
CLASS
  1
ACMNOTESTANDARDISO
  2
AmdtNoteStdISO
  3
AmdtNoteStdISO|...|...
 90
        0
 91
        8
280
     0
281
     0
  0
CLASS
  1
ACMNOTESTANDARDANSI
  2
AmdtNoteStdANSI
  3
AmdtNoteStdANSI|...|...
 90
        0
 91
        8
280
     0
281
     0
  0
CLASS
  1
ACMTHREADLINESTANDARDISO
  2
AmdtThreadLineStdISO
  3
AmdtThreadLineStdISO|...|...
 90
        0
 91
        8
280
     0
281
     0
  0
CLASS
  1
ACMTHREADLINESTANDARDANSI
  2
AmdtThreadLineStdANSI
  3
AmdtThreadLineStdANSI|...|...
 90
        0
 91
        8
280
     0
281
     0
  0
CLASS
  1
TABLESTYLE
  2
AcDbTableStyle
  3
ObjectDBX Classes
 90
     4095
 91
        8
280
     0
281
     0
  0
CLASS
  1
SORTENTSTABLE
  2
AcDbSortentsTable
  3
ObjectDBX Classes
 90
        0
 91
        8
280
     0
281
     0
  0
CLASS
  1
MATERIAL
  2
AcDbMaterial
  3
ObjectDBX Classes
 90
     1153
 91
        8
280
     0
281
     0
  0
CLASS
  1
VISUALSTYLE
  2
AcDbVisualStyle
  3
ObjectDBX Classes
 90
     4095
 91
        8
280
     0
281
     0
  0
CLASS
  1
ACRFATTGENMGR
  2
AcRfAttGeneralMgr
  3
AcAttribServices
 90
        0
 91
        2
280
     1
281
     0
  0
CLASS
  1
ACRFOBJATTMGR
  2
AcRfObjAttGroupMgr
  3
AcAttribServices
 90
        0
 91
        2
280
     1
281
     0
  0
CLASS
  1
ACRFMCADAPIATTHOLDER
  2
AcRfMCADAPIAttHolder
  3
AcAttribServices
 90
        0
 91
        2
280
     1
281
     0
  0
CLASS
  1
AMDTSYSATTR
  2
AmdtSystemAttribute
  3
AmdtSystemAttribute|...|...
 90
        0
 91
        8
280
     0
281
     0
  0
CLASS
  1
ACMTAPERSTANDARDISO
  2
AcmTaperStdISO
  3
AcmTaperStdISO|...|...
 90
        0
 91
       11
280
     0
281
     0
  0
CLASS
  1
CAMSSTRUCTBTNSTATE
  2
StructBtnState
  3
L"DesignerAssemblies"
 90
        0
 91
        2
280
     1
281
     0
  0
CLASS
  1
DIMASSOC
  2
AcDbDimAssoc
  3
"AcDbDimAssoc|Product Desc:     AcDim ARX App For Dimension|Company:          Autodesk, Inc.|WEB Address:      www.autodesk.com"
 90
        0
 91
        8
280
     0
281
     0
  0
CLASS
  1
AMDTNOTETEMPLATEDB
  2
AmdtNoteTemplateDB
  3
AmdtNoteTemplateDB|...|...
 90
        0
 91
        8
280
     0
281
     0
  0
CLASS
  1
SCALE
  2
AcDbScale
  3
ObjectDBX Classes
 90
     1153
 91
        8
280
     0
281
     0
  0
CLASS
  1
MLEADERSTYLE
  2
AcDbMLeaderStyle
  3
ACDB_MLEADERSTYLE_CLASS
 90
     4095
 91
        8
280
     0
281
     0
  0
CLASS
  1
ACMANOOTATIONVIEWSTANDARDISO
  2
AmdtAnViewStdISO
  3
AmdtAnViewStdISO|...|...
 90
        0
 91
        8
280
     0
281
     0
  0
CLASS
  1
CELLSTYLEMAP
  2
AcDbCellStyleMap
  3
ObjectDBX Classes
 90
     1152
 91
        8
280
     0
281
     0
  0
CLASS
  1
ACDBSECTIONVIEWSTYLE
  2
AcDbSectionViewStyle
  3
ObjectDBX Classes
 90
     1025
 91
        8
280
     0
281
     0
  0
CLASS
  1
ACDBDETAILVIEWSTYLE
  2
AcDbDetailViewStyle
  3
ObjectDBX Classes
 90
     1025
 91
        8
280
     0
281
     0
  0
CLASS
  1
ACMSECTIONSTANDARDCUSTOM
  2
AmdtSectionSymStdCustom
  3
AmdtSectionSymStdCustom|...|...
 90
        0
 91
        8
280
     0
281
     0
  0
CLASS
  1
ACMDETAILSTANDARDCUSTOM
  2
AmdtDetailSymStdCustom
  3
AmdtDetailSymStdCustom|...|...
 90
        0
 91
        8
280
     0
281
     0
  0
ENDSEC
  0
SECTION
  2
TABLES
  0
TABLE
  2
VPORT
  5
8
330
0
100
AcDbSymbolTable
 70
     1
  0
VPORT
  5
B0EC
330
8
100
AcDbSymbolTableRecord
100
AcDbViewportTableRecord
  2
*Active
 70
     0
 10
0.0
 20
0.0
 11
1.0
 21
1.0
 12
209.9999995659997
 22
148.5000002269419
 13
0.0
 23
0.0
 14
2.5
 24
2.5
 15
10.0
 25
10.0
 16
0.0
 26
0.0
 36
1.0
 17
0.0
 27
0.0
 37
0.0
 40
299.9333333333334
 41
1.748166259168704
 42
50.0
 43
-1370.695619172058
 44
-1370.695619172058
 50
0.0
 51
0.0
 71
    16
 72
   100
 73
     1
 74
     3
 75
     0
 76
     0
 77
     0
 78
     0
281
     0
 65
     0
110
0.0
120
0.0
130
0.0
111
1.0
121
0.0
131
0.0
112
0.0
122
1.0
132
0.0
 79
     0
146
0.0
348
B0F7
 60
     3
 61
     5
292
     1
282
     1
141
0.0
142
0.0
 63
   250
1001
ACAD_NAV_VCDISPLAY
1070
     3
  0
ENDTAB
  0
TABLE
  2
LTYPE
  5
5
330
0
100
AcDbSymbolTable
 70
    27
  0
LTYPE
  5
14
330
5
100
AcDbSymbolTableRecord
100
AcDbLinetypeTableRecord
  2
ByBlock
 70
     0
  3

 72
    65
 73
     0
 40
0.0
  0
LTYPE
  5
15
330
5
100
AcDbSymbolTableRecord
100
AcDbLinetypeTableRecord
  2
ByLayer
 70
     0
  3

 72
    65
 73
     0
 40
0.0
  0
LTYPE
  5
16
330
5
100
AcDbSymbolTableRecord
100
AcDbLinetypeTableRecord
  2
Continuous
 70
     0
  3
Solid line
 72
    65
 73
     0
 40
0.0
  0
LTYPE
  5
4F
330
5
100
AcDbSymbolTableRecord
100
AcDbLinetypeTableRecord
  2
AM_ISO02W050
 70
     0
  3
__ __ __ __ __ __ __ __ __ __ __ __ __ __ __
 72
    65
 73
     2
 40
7.5
 49
6.0
 74
     0
 49
-1.5
 74
     0
  0
LTYPE
  5
52
330
5
100
AcDbSymbolTableRecord
100
AcDbLinetypeTableRecord
  2
Amconstr
 70
     0
  3
_______________________
 72
    65
 73
     2
 40
9999.0
 49
9999.0
 74
     0
 49
0.0
 74
     0
  0
LTYPE
  5
64
330
5
100
AcDbSymbolTableRecord
100
AcDbLinetypeTableRecord
  2
ACISOWELD
 70
     0
  3
_ _ _ _ _
 72
    65
 73
     2
 40
2.0
 49
2.0
 74
     0
 49
-1.0
 74
     0
  0
LTYPE
  5
65
330
5
100
AcDbSymbolTableRecord
100
AcDbLinetypeTableRecord
  2
ACISOTGB
 70
     0
  3
__ . . __ . .
 72
    65
 73
     6
 40
9.0
 49
4.0
 74
     0
 49
-1.0
 74
     0
 49
1.0
 74
     0
 49
-1.0
 74
     0
 49
1.0
 74
     0
 49
-1.0
 74
     0
  0
LTYPE
  5
66
330
5
100
AcDbSymbolTableRecord
100
AcDbLinetypeTableRecord
  2
ACISOTGL
 70
     0
  3
_ _ _ _ _
 72
    65
 73
     2
 40
3.0
 49
2.0
 74
     0
 49
-1.0
 74
     0
  0
LTYPE
  5
69
330
5
100
AcDbSymbolTableRecord
100
AcDbLinetypeTableRecord
  2
CENTER
 70
     0
  3
__ . __
 72
    65
 73
     4
 40
7.0
 49
4.0
 74
     0
 49
-1.0
 74
     0
 49
1.0
 74
     0
 49
-1.0
 74
     0
  0
LTYPE
  5
A6E
330
5
100
AcDbSymbolTableRecord
100
AcDbLinetypeTableRecord
  2
PHANTOM2
 70
     0
  3
Phantom (.5x) ___ _ _ ___ _ _ ___ _ _ ___ _ _
 72
    65
 73
     6
 40
31.75
 49
15.875
 74
     0
 49
-3.174999999999999
 74
     0
 49
3.174999999999999
 74
     0
 49
-3.174999999999999
 74
     0
 49
3.174999999999999
 74
     0
 49
-3.174999999999999
 74
     0
  0
LTYPE
  5
4DED
330
5
100
AcDbSymbolTableRecord
100
AcDbLinetypeTableRecord
  2
中線
 70
     0
  3
___________________
 72
    65
 73
     2
 40
2.0
 49
1.0
 74
     0
 49
1.0
 74
     0
  0
LTYPE
  5
4DF6
330
5
100
AcDbSymbolTableRecord
100
AcDbLinetypeTableRecord
  2
細線
 70
     0
  3
___________________
 72
    65
 73
     2
 40
2.0
 49
1.0
 74
     0
 49
1.0
 74
     0
  0
LTYPE
  5
4DF7
330
5
100
AcDbSymbolTableRecord
100
AcDbLinetypeTableRecord
  2
太線
 70
     0
  3
___________________
 72
    65
 73
     2
 40
2.0
 49
1.0
 74
     0
 49
1.0
 74
     0
  0
LTYPE
  5
4EA7
330
5
100
AcDbSymbolTableRecord
100
AcDbLinetypeTableRecord
  2
文字
 70
     0
  3
_________________
 72
    65
 73
     2
 40
2.0
 49
1.0
 74
     0
 49
1.0
 74
     0
  0
LTYPE
  5
4EA9
330
5
100
AcDbSymbolTableRecord
100
AcDbLinetypeTableRecord
  2
寸法線
 70
     0
  3
________________
 72
    65
 73
     2
 40
2.0
 49
1.0
 74
     0
 49
1.0
 74
     0
  0
LTYPE
  5
4F12
330
5
100
AcDbSymbolTableRecord
100
AcDbLinetypeTableRecord
  2
ハッチング
 70
     0
  3
_________________
 72
    65
 73
     2
 40
2.0
 49
1.0
 74
     0
 49
1.0
 74
     0
  0
LTYPE
  5
5180
330
5
100
AcDbSymbolTableRecord
100
AcDbLinetypeTableRecord
  2
陰線1
 70
     0
  3
__ __ __ __
 72
    65
 73
     2
 40
4.0
 49
2.2
 74
     0
 49
-1.8
 74
     0
  0
LTYPE
  5
5182
330
5
100
AcDbSymbolTableRecord
100
AcDbLinetypeTableRecord
  2
切断線
 70
     0
  3
/\/-/\/-/\/-/\/-/\/-/\/
 72
    65
 73
     2
 40
11.0001
 49
0.0001
 74
     4
 75
   135
340
56
 46
0.04
 50
0.0
 44
0.0
 45
0.0
 49
-11.0
 74
     0
  0
LTYPE
  5
5183
330
5
100
AcDbSymbolTableRecord
100
AcDbLinetypeTableRecord
  2
想像線1
 70
     0
  3
__ __ __ _____ __ __ ____
 72
    65
 73
     6
 40
14.5
 49
6.0
 74
     0
 49
-1.5
 74
     0
 49
2.0
 74
     0
 49
-1.5
 74
     0
 49
2.0
 74
     0
 49
-1.5
 74
     0
  0
LTYPE
  5
5185
330
5
100
AcDbSymbolTableRecord
100
AcDbLinetypeTableRecord
  2
中心線1
 70
     0
  3
___ _ ___ _ ___
 72
    65
 73
     4
 40
18.0
 49
12.0
 74
     0
 49
-2.0
 74
     0
 49
2.0
 74
     0
 49
-2.0
 74
     0
  0
LTYPE
  5
5188
330
5
100
AcDbSymbolTableRecord
100
AcDbLinetypeTableRecord
  2
補助線
 70
     0
  3
______________
 72
    65
 73
     2
 40
2.0
 49
1.0
 74
     0
 49
1.0
 74
     0
  0
LTYPE
  5
6427
330
5
100
AcDbSymbolTableRecord
100
AcDbLinetypeTableRecord
  2
HIDDEN
 70
     0
  3
Hidden __ __ __ __ __ __ __ __ __ __ __ __ __ _
 72
    65
 73
     2
 40
0.375
 49
0.25
 74
     0
 49
-0.125
 74
     0
  0
LTYPE
  5
AC81
330
5
100
AcDbSymbolTableRecord
100
AcDbLinetypeTableRecord
  2
破断線
 70
     0
  3
/\/-/\/-/\/-/\/-/\/-/\/
 72
    65
 73
     2
 40
0.4401
 49
0.0001
 74
     4
 75
   136
340
AC80
 46
0.0016
 50
0.0
 44
0.0
 45
0.0
 49
-0.4400000000000001
 74
     0
  0
LTYPE
  5
AC9E
330
5
100
AcDbSymbolTableRecord
100
AcDbLinetypeTableRecord
  2
Amzigzag
 70
     0
  3
/\/-/\/-/\/-/\/-/\/-/\/
 72
    65
 73
     2
 40
11.0001
 49
0.0001
 74
     4
 75
   135
340
56
 46
0.04
 50
0.0
 44
0.0
 45
0.0
 49
-11.0
 74
     0
  0
LTYPE
  5
AF0F
330
5
100
AcDbSymbolTableRecord
100
AcDbLinetypeTableRecord
  2
genzigzag
 70
     0
  3
/\/-/\/-/\/-/\/-/\/-/\/
 72
    65
 73
     2
 40
12.0001
 49
0.0001
 74
     4
 75
   135
340
AC80
 46
2.0
 50
0.0
 44
0.0
 45
0.0
 49
-12.0
 74
     0
  0
LTYPE
  5
AF95
330
5
100
AcDbSymbolTableRecord
100
AcDbLinetypeTableRecord
  2
AM_ISO08W050
 70
     0
  3
____ . ____ . ____ . ____ . ____ . ____ . ____
 72
    65
 73
     4
 40
18.0
 49
12.0
 74
     0
 49
-1.5
 74
     0
 49
3.0
 74
     0
 49
-1.5
 74
     0
  0
LTYPE
  5
AF96
330
5
100
AcDbSymbolTableRecord
100
AcDbLinetypeTableRecord
  2
AM_ISO09W050
 70
     0
  3
_____ . . _____ . . _____ . . ____ .. ____
 72
    65
 73
     6
 40
22.5
 49
12.0
 74
     0
 49
-1.5
 74
     0
 49
3.0
 74
     0
 49
-1.5
 74
     0
 49
3.0
 74
     0
 49
-1.5
 74
     0
  0
LTYPE
  5
AF97
330
5
100
AcDbSymbolTableRecord
100
AcDbLinetypeTableRecord
  2
AM_ISO08W050x2
 70
     0
  3
__ . __ . __ . __ . __ . __
 72
    65
 73
     4
 40
9.0
 49
6.0
 74
     0
 49
-0.75
 74
     0
 49
1.5
 74
     0
 49
-0.75
 74
     0
  0
LTYPE
  5
AF98
330
5
100
AcDbSymbolTableRecord
100
AcDbLinetypeTableRecord
  2
AM_ISO02W050x2
 70
     0
  3
 _ _ _ _ _ _ _ _ _ _ _ _
 72
    65
 73
     2
 40
3.75
 49
3.0
 74
     0
 49
-0.75
 74
     0
  0
ENDTAB
  0
TABLE
  2
LAYER
  5
2
102
{ACAD_XDICTIONARY
360
3F95
102
}
330
0
100
AcDbSymbolTable
 70
    21
  0
LAYER
  5
10
102
{ACAD_XDICTIONARY
360
BA26
102
}
330
2
100
AcDbSymbolTableRecord
100
AcDbLayerTableRecord
  2
0
 70
     0
 62
     7
  6
Continuous
370
    -3
390
F
347
B0F0
348
0
  0
LAYER
  5
6D1
330
2
100
AcDbSymbolTableRecord
100
AcDbLayerTableRecord
  2
Defpoints
 70
     0
 62
     7
  6
Continuous
290
     0
370
    -3
390
F
347
B0F0
348
0
  0
LAYER
  5
5F85
102
{ACAD_XDICTIONARY
360
BA28
102
}
330
2
100
AcDbSymbolTableRecord
100
AcDbLayerTableRecord
  2
AM_0
 70
     0
 62
     7
  6
中線
370
    30
390
F
347
B0F0
348
0
1001
AcAecLayerStandard
1000

1000

  0
LAYER
  5
AC9F
102
{ACAD_XDICTIONARY
360
BA2A
102
}
330
2
100
AcDbSymbolTableRecord
100
AcDbLayerTableRecord
  2
size
 70
     0
 62
     5
  6
Continuous
290
     0
370
    25
390
F
347
B0F0
348
0
  0
LAYER
  5
ACA0
102
{ACAD_XDICTIONARY
360
BA2C
102
}
330
2
100
AcDbSymbolTableRecord
100
AcDbLayerTableRecord
  2
waku
 70
     0
 62
     7
  6
Continuous
370
    35
390
F
347
B0F0
348
0
  0
LAYER
  5
ACA1
102
{ACAD_XDICTIONARY
360
BA2E
102
}
330
2
100
AcDbSymbolTableRecord
100
AcDbLayerTableRecord
  2
AM_6
 70
     0
 62
     2
  6
文字
370
    13
390
F
347
B0F0
348
0
1001
AcAecLayerStandard
1000

1000

  0
LAYER
  5
ACC8
102
{ACAD_XDICTIONARY
360
BA30
102
}
330
2
100
AcDbSymbolTableRecord
100
AcDbLayerTableRecord
  2
hyomoji
 70
     0
 62
     2
  6
Continuous
370
    13
390
F
347
B0F0
348
0
  0
LAYER
  5
ACC9
102
{ACAD_XDICTIONARY
360
BA32
102
}
330
2
100
AcDbSymbolTableRecord
100
AcDbLayerTableRecord
  2
hyosen1
 70
     0
 62
    12
  6
Continuous
370
    25
390
F
347
B0F0
348
0
  0
LAYER
  5
ACCA
102
{ACAD_XDICTIONARY
360
BA34
102
}
330
2
100
AcDbSymbolTableRecord
100
AcDbLayerTableRecord
  2
hyosen2
 70
     0
 62
    12
  6
Continuous
370
    13
390
F
347
B0F0
348
0
  0
LAYER
  5
AD60
102
{ACAD_XDICTIONARY
360
BA36
102
}
330
2
100
AcDbSymbolTableRecord
100
AcDbLayerTableRecord
  2
AM_1
 70
     0
 62
    30
  6
太線
370
    40
390
F
347
B0F0
348
0
1001
AcAecLayerStandard
1000

1000

  0
LAYER
  5
AD64
102
{ACAD_XDICTIONARY
360
BA38
102
}
330
2
100
AcDbSymbolTableRecord
100
AcDbLayerTableRecord
  2
AM_2
 70
     0
 62
     1
  6
細線
370
    13
390
F
347
B0F0
348
0
1001
AcAecLayerStandard
1000

1000

  0
LAYER
  5
AD67
102
{ACAD_XDICTIONARY
360
BA3A
102
}
330
2
100
AcDbSymbolTableRecord
100
AcDbLayerTableRecord
  2
AM_3
 70
     0
 62
     6
  6
陰線1
370
    13
390
F
347
B0F0
348
0
1001
AcAecLayerStandard
1000

1000

  0
LAYER
  5
AD68
102
{ACAD_XDICTIONARY
360
BA3C
102
}
330
2
100
AcDbSymbolTableRecord
100
AcDbLayerTableRecord
  2
AM_5
 70
     0
 62
     3
  6
寸法線
370
    13
390
F
347
B0F0
348
0
1001
AcAecLayerStandard
1000

1000

  0
LAYER
  5
AD69
102
{ACAD_XDICTIONARY
360
BA3E
102
}
330
2
100
AcDbSymbolTableRecord
100
AcDbLayerTableRecord
  2
AM_7
 70
     0
 62
     4
  6
中心線1
370
    13
390
F
347
B0F0
348
0
1001
AcAecLayerStandard
1000

1000

  0
LAYER
  5
AD6A
102
{ACAD_XDICTIONARY
360
BA40
102
}
330
2
100
AcDbSymbolTableRecord
100
AcDbLayerTableRecord
  2
AM_8
 70
     0
 62
     1
  6
ハッチング
370
    13
390
F
347
B0F0
348
0
1001
AcAecLayerStandard
1000

1000

  0
LAYER
  5
AD6E
102
{ACAD_XDICTIONARY
360
BA42
102
}
330
2
100
AcDbSymbolTableRecord
100
AcDbLayerTableRecord
  2
AM_10
 70
     0
 62
     7
  6
切断線
370
    13
390
F
347
B0F0
348
0
1001
AcAecLayerStandard
1000

1000

  0
LAYER
  5
AD6F
102
{ACAD_XDICTIONARY
360
BA44
102
}
330
2
100
AcDbSymbolTableRecord
100
AcDbLayerTableRecord
  2
AM_11
 70
     0
 62
     2
  6
想像線1
370
    13
390
F
347
B0F0
348
0
1001
AcAecLayerStandard
1000

1000

  0
LAYER
  5
B1B6
102
{ACAD_XDICTIONARY
360
BA46
102
}
330
2
100
AcDbSymbolTableRecord
100
AcDbLayerTableRecord
  2
AM_CL
 70
     1
 62
    -1
  6
Amconstr
370
    15
390
F
347
B0F0
348
0
1001
AcAecLayerStandard
1000

1000

  0
LAYER
  5
B2EB
102
{ACAD_XDICTIONARY
360
BA48
102
}
330
2
100
AcDbSymbolTableRecord
100
AcDbLayerTableRecord
  2
AM_14
 70
     0
 62
     5
  6
細線
370
     9
390
F
347
B0F0
348
0
1001
AcAecLayerStandard
1000

1000

  0
LAYER
  5
B2EC
102
{ACAD_XDICTIONARY
360
BA4A
102
}
330
2
100
AcDbSymbolTableRecord
100
AcDbLayerTableRecord
  2
AM_15
 70
     0
 62
     6
  6
陰線1
370
     9
390
F
347
B0F0
348
0
1001
AcAecLayerStandard
1000

1000

  0
ENDTAB
  0
TABLE
  2
STYLE
  5
3
330
0
100
AcDbSymbolTable
 70
     6
  0
STYLE
  5
11
330
3
100
AcDbSymbolTableRecord
100
AcDbTextStyleTableRecord
  2
STANDARD
 70
     0
 40
0.0
 41
0.7
 50
0.0
 71
     0
 42
3.2
  3
romans.shx
  4
extfont.shx
  0
STYLE
  5
56
330
3
100
AcDbSymbolTableRecord
100
AcDbTextStyleTableRecord
  2

 70
     1
 40
0.0
 41
1.0
 50
0.0
 71
     0
 42
2.5
  3
ltypeshp.shx
  4

  0
STYLE
  5
58
330
3
100
AcDbSymbolTableRecord
100
AcDbTextStyleTableRecord
  2
ACISOTS
 70
     0
 40
1.0
 41
1.0
 50
0.0
 71
     0
 42
2.5
  3
isocp.shx
  4
extfont.shx
  0
STYLE
  5
63
330
3
100
AcDbSymbolTableRecord
100
AcDbTextStyleTableRecord
  2
ACISOGDT
 70
     0
 40
0.0
 41
1.0
 50
0.0
 71
     0
 42
2.5
  3
amgdt.shx
  4

  0
STYLE
  5
A74
330
3
100
AcDbSymbolTableRecord
100
AcDbTextStyleTableRecord
  2
DIM
 70
     0
 40
0.0
 41
1.0
 50
0.0
 71
     0
 42
2.5
  3
monotxt.shx
  4
extfont.shx
  0
STYLE
  5
AC80
330
3
100
AcDbSymbolTableRecord
100
AcDbTextStyleTableRecord
  2

 70
     1
 40
0.0
 41
1.0
 50
0.0
 71
     0
 42
3.2
  3
genltshp.shx
  4

  0
ENDTAB
  0
TABLE
  2
VIEW
  5
6
330
0
100
AcDbSymbolTable
 70
     6
  0
VIEW
  5
AE1
330
6
100
AcDbSymbolTableRecord
100
AcDbViewTableRecord
  2
AM_VIEW1
 70
     0
 40
129.7276464542651
 10
1775.10588156276
 20
1793.121228859297
 41
148.5
 11
0.0
 21
0.0
 31
1.0
 12
0.0
 22
0.0
 32
0.0
 42
50.0
 43
-1370.695619172058
 44
-1370.695619172058
 50
0.0
 71
    16
281
     0
 72
     0
 73
     0
348
B0F7
  0
VIEW
  5
AE2
330
6
100
AcDbSymbolTableRecord
100
AcDbViewTableRecord
  2
AM_VIEW2
 70
     0
 40
129.7276464542651
 10
1923.60588156276
 20
1793.121228859297
 41
148.5
 11
0.0
 21
0.0
 31
1.0
 12
0.0
 22
0.0
 32
0.0
 42
50.0
 43
-1370.695619172058
 44
-1370.695619172058
 50
0.0
 71
    16
281
     0
 72
     0
 73
     0
348
B0F7
  0
VIEW
  5
AE3
330
6
100
AcDbSymbolTableRecord
100
AcDbViewTableRecord
  2
AM_VIEW3
 70
     0
 40
129.7276464542651
 10
1775.10588156276
 20
1712.848875313562
 41
148.5
 11
0.0
 21
0.0
 31
1.0
 12
0.0
 22
0.0
 32
0.0
 42
50.0
 43
-1370.695619172058
 44
-1370.695619172058
 50
0.0
 71
    16
281
     0
 72
     0
 73
     0
348
B0F7
  0
VIEW
  5
AE4
330
6
100
AcDbSymbolTableRecord
100
AcDbViewTableRecord
  2
AM_VIEW4
 70
     0
 40
129.7276464542651
 10
1923.60588156276
 20
1712.848875313562
 41
148.5
 11
0.0
 21
0.0
 31
1.0
 12
0.0
 22
0.0
 32
0.0
 42
50.0
 43
-1370.695619172058
 44
-1370.695619172058
 50
0.0
 71
    16
281
     0
 72
     0
 73
     0
348
B0F7
  0
VIEW
  5
AE5
330
6
100
AcDbSymbolTableRecord
100
AcDbViewTableRecord
  2
AM_VIEW5
 70
     0
 40
129.7276464542651
 10
1849.35588156276
 20
1752.985052086429
 41
148.5
 11
0.0
 21
0.0
 31
1.0
 12
0.0
 22
0.0
 32
0.0
 42
50.0
 43
-1370.695619172058
 44
-1370.695619172058
 50
0.0
 71
    16
281
     0
 72
     0
 73
     0
348
B0F7
  0
VIEW
  5
AE6
330
6
100
AcDbSymbolTableRecord
100
AcDbViewTableRecord
  2
AM_VIEW6
 70
     0
 40
259.4526983556011
 10
1849.35588156276
 20
1752.985052086429
 41
296.99703
 11
0.0
 21
0.0
 31
1.0
 12
0.0
 22
0.0
 32
0.0
 42
50.0
 43
-1370.695619172058
 44
-1370.695619172058
 50
0.0
 71
    16
281
     0
 72
     0
 73
     0
348
B0F7
  0
ENDTAB
  0
TABLE
  2
UCS
  5
7
330
0
100
AcDbSymbolTable
 70
     0
  0
ENDTAB
  0
TABLE
  2
APPID
  5
9
330
0
100
AcDbSymbolTable
 70
    80
  0
APPID
  5
12
330
9
100
AcDbSymbolTableRecord
100
AcDbRegAppTableRecord
  2
ACAD
 70
     0
  0
APPID
  5
30
330
9
100
AcDbSymbolTableRecord
100
AcDbRegAppTableRecord
  2
MCAD_NO_VIS
 70
     0
  0
APPID
  5
31
330
9
100
AcDbSymbolTableRecord
100
AcDbRegAppTableRecord
  2
ACAD_TEMP_GRAPHIC
 70
     0
  0
APPID
  5
44
330
9
100
AcDbSymbolTableRecord
100
AcDbRegAppTableRecord
  2
ACATTRIBSERVICES
 70
     0
  0
APPID
  5
7A1
330
9
100
AcDbSymbolTableRecord
100
AcDbRegAppTableRecord
  2
GENIUS_GENDIMSH_14
 70
     0
  0
APPID
  5
A49
330
9
100
AcDbSymbolTableRecord
100
AcDbRegAppTableRecord
  2
GENIUS_GENREC_14
 70
     0
  0
APPID
  5
A4A
330
9
100
AcDbSymbolTableRecord
100
AcDbRegAppTableRecord
  2
GENIUS_GENOBJ-N-REC_13
 70
     0
  0
APPID
  5
A4B
330
9
100
AcDbSymbolTableRecord
100
AcDbRegAppTableRecord
  2
GENIUS_GENODEF_13
 70
     0
  0
APPID
  5
A4C
330
9
100
AcDbSymbolTableRecord
100
AcDbRegAppTableRecord
  2
DCO15
 70
     0
  0
APPID
  5
ADC
330
9
100
AcDbSymbolTableRecord
100
AcDbRegAppTableRecord
  2
GENIUS_GENOLIS_13
 70
     0
  0
APPID
  5
ADD
330
9
100
AcDbSymbolTableRecord
100
AcDbRegAppTableRecord
  2
GENIUS_GENOENT_13
 70
     0
  0
APPID
  5
ADE
330
9
100
AcDbSymbolTableRecord
100
AcDbRegAppTableRecord
  2
GENIUS_GENOBJ-N-TIT_13
 70
     0
  0
APPID
  5
ADF
330
9
100
AcDbSymbolTableRecord
100
AcDbRegAppTableRecord
  2
GENIUS_GENTITLE_13
 70
     0
  0
APPID
  5
AE0
330
9
100
AcDbSymbolTableRecord
100
AcDbRegAppTableRecord
  2
GENIUS_GENOREF_13
 70
     0
  0
APPID
  5
AE7
330
9
100
AcDbSymbolTableRecord
100
AcDbRegAppTableRecord
  2
GENIUS_GENSCREG_15
 70
     0
  0
APPID
  5
AE8
330
9
100
AcDbSymbolTableRecord
100
AcDbRegAppTableRecord
  2
GENIUS_GENOBJ-N-SDF_13
 70
     0
  0
APPID
  5
FAF
330
9
100
AcDbSymbolTableRecord
100
AcDbRegAppTableRecord
  2
GENIUS_GENBLLY_14
 70
     0
  0
APPID
  5
FB0
330
9
100
AcDbSymbolTableRecord
100
AcDbRegAppTableRecord
  2
GENIUS_GENTRA_14
 70
     0
  0
APPID
  5
1285
330
9
100
AcDbSymbolTableRecord
100
AcDbRegAppTableRecord
  2
GENIUS_GENDTOL_13
 70
     0
  0
APPID
  5
142D
330
9
100
AcDbSymbolTableRecord
100
AcDbRegAppTableRecord
  2
GENIUS_GENOBJ-N-CEN_13
 70
     0
  0
APPID
  5
1AB5
330
9
100
AcDbSymbolTableRecord
100
AcDbRegAppTableRecord
  2
GENIUS_GENOBJ-N-CRS_13
 70
     0
  0
APPID
  5
1B36
330
9
100
AcDbSymbolTableRecord
100
AcDbRegAppTableRecord
  2
GENIUS_GENOBJ-N-HTC_13
 70
     0
  0
APPID
  5
1B37
330
9
100
AcDbSymbolTableRecord
100
AcDbRegAppTableRecord
  2
GENIUS_GENHATCH_13
 70
     0
  0
APPID
  5
216D
330
9
100
AcDbSymbolTableRecord
100
AcDbRegAppTableRecord
  2
GENIUS_GENOBJ-N-FIL_13
 70
     0
  0
APPID
  5
2356
330
9
100
AcDbSymbolTableRecord
100
AcDbRegAppTableRecord
  2
GEVID990412420
 70
     0
  0
APPID
  5
2357
330
9
100
AcDbSymbolTableRecord
100
AcDbRegAppTableRecord
  2
GEVDC
 70
     0
  0
APPID
  5
2358
330
9
100
AcDbSymbolTableRecord
100
AcDbRegAppTableRecord
  2
GEVCON
 70
     0
  0
APPID
  5
235B
330
9
100
AcDbSymbolTableRecord
100
AcDbRegAppTableRecord
  2
GEVRADREF
 70
     0
  0
APPID
  5
2360
330
9
100
AcDbSymbolTableRecord
100
AcDbRegAppTableRecord
  2
GENIUS_GENBH_13
 70
     0
  0
APPID
  5
2362
330
9
100
AcDbSymbolTableRecord
100
AcDbRegAppTableRecord
  2
GENIUS_GENOBJ-NBEHI-BHF_13
 70
     0
  0
APPID
  5
2364
330
9
100
AcDbSymbolTableRecord
100
AcDbRegAppTableRecord
  2
GENIUS_GENOBJ-NBEHI-BHB_13
 70
     0
  0
APPID
  5
2379
330
9
100
AcDbSymbolTableRecord
100
AcDbRegAppTableRecord
  2
GENIUS_GENOBJ-F-SCPASSM_13
 70
     0
  0
APPID
  5
3D74
330
9
100
AcDbSymbolTableRecord
100
AcDbRegAppTableRecord
  2
GENIUS_GENDIM_13
 70
     0
  0
APPID
  5
3D76
330
9
100
AcDbSymbolTableRecord
100
AcDbRegAppTableRecord
  2
GENIUS_GE3DTOL_13
 70
     0
  0
APPID
  5
3D9C
330
9
100
AcDbSymbolTableRecord
100
AcDbRegAppTableRecord
  2
AD_DRAW
 70
     0
  0
APPID
  5
3DE8
330
9
100
AcDbSymbolTableRecord
100
AcDbRegAppTableRecord
  2
ASURF_PCURVE_APPNAME
 70
     0
  0
APPID
  5
3DED
330
9
100
AcDbSymbolTableRecord
100
AcDbRegAppTableRecord
  2
AMG_3D2D_5.0
 70
     0
  0
APPID
  5
3E1B
330
9
100
AcDbSymbolTableRecord
100
AcDbRegAppTableRecord
  2
DESIGNERASSEMBLIES
 70
     0
  0
APPID
  5
3E20
330
9
100
AcDbSymbolTableRecord
100
AcDbRegAppTableRecord
  2
ACADM_DIM_EDIT
 70
     0
  0
APPID
  5
3E21
330
9
100
AcDbSymbolTableRecord
100
AcDbRegAppTableRecord
  2
AMDT_DM_ADJ
 70
     0
  0
APPID
  5
4143
330
9
100
AcDbSymbolTableRecord
100
AcDbRegAppTableRecord
  2
GENIUS_GENFIL_13
 70
     0
  0
APPID
  5
4144
330
9
100
AcDbSymbolTableRecord
100
AcDbRegAppTableRecord
  2
GENIUS_GENOBJ-N-CHA_13
 70
     0
  0
APPID
  5
4E17
330
9
100
AcDbSymbolTableRecord
100
AcDbRegAppTableRecord
  2
GEVID1008153417
 70
     0
  0
APPID
  5
4E58
330
9
100
AcDbSymbolTableRecord
100
AcDbRegAppTableRecord
  2
GEVID1008153418
 70
     0
  0
APPID
  5
4E5E
330
9
100
AcDbSymbolTableRecord
100
AcDbRegAppTableRecord
  2
GEVID1008153419
 70
     0
  0
APPID
  5
4E64
330
9
100
AcDbSymbolTableRecord
100
AcDbRegAppTableRecord
  2
GEVID1008153420
 70
     0
  0
APPID
  5
4E75
330
9
100
AcDbSymbolTableRecord
100
AcDbRegAppTableRecord
  2
GEVID1008153421
 70
     0
  0
APPID
  5
4EB7
330
9
100
AcDbSymbolTableRecord
100
AcDbRegAppTableRecord
  2
GENIUS_AMGTXT_16
 70
     0
  0
APPID
  5
7645
330
9
100
AcDbSymbolTableRecord
100
AcDbRegAppTableRecord
  2
GENIUS_GENOBJ-N-DIM_13
 70
     0
  0
APPID
  5
AAD0
330
9
100
AcDbSymbolTableRecord
100
AcDbRegAppTableRecord
  2
ACAD_DSTYLE_DIMARC_LENGTH_SYMBOL
 70
     0
  0
APPID
  5
AAD1
330
9
100
AcDbSymbolTableRecord
100
AcDbRegAppTableRecord
  2
ACAD_DSTYLE_DIMJOGGED_JOGANGLE_SYMBOL
 70
     0
  0
APPID
  5
AAFD
330
9
100
AcDbSymbolTableRecord
100
AcDbRegAppTableRecord
  2
ACAD_PSEXT
 70
     0
  0
APPID
  5
AD61
330
9
100
AcDbSymbolTableRecord
100
AcDbRegAppTableRecord
  2
AcAecLayerStandard
 70
     0
  0
APPID
  5
AEE3
330
9
100
AcDbSymbolTableRecord
100
AcDbRegAppTableRecord
  2
ACAD_EXEMPT_FROM_CAD_STANDARDS
 70
     0
  0
APPID
  5
B1BE
330
9
100
AcDbSymbolTableRecord
100
AcDbRegAppTableRecord
  2
GENIUS_GENCEN_19
 70
     0
  0
APPID
  5
B597
330
9
100
AcDbSymbolTableRecord
100
AcDbRegAppTableRecord
  2
ACAD_MLEADERVER
 70
     0
  0
APPID
  5
B6CC
330
9
100
AcDbSymbolTableRecord
100
AcDbRegAppTableRecord
  2
ACAD_DSTYLE_DIMINSPECT
 70
     0
  0
APPID
  5
B6CD
330
9
100
AcDbSymbolTableRecord
100
AcDbRegAppTableRecord
  2
ACAD_DSTYLE_DIMRADIAL_EXTENSION
 70
     0
  0
APPID
  5
BAA8
330
9
100
AcDbSymbolTableRecord
100
AcDbRegAppTableRecord
  2
AcadAnnoMonitorAlertIconDisabled
 70
     0
  0
APPID
  5
BAC8
330
9
100
AcDbSymbolTableRecord
100
AcDbRegAppTableRecord
  2
ACAD_NAV_VCDISPLAY
 70
     0
  0
APPID
  5
BB55
330
9
100
AcDbSymbolTableRecord
100
AcDbRegAppTableRecord
  2
HC_SUPERPART
 70
     0
  0
APPID
  5
BB56
330
9
100
AcDbSymbolTableRecord
100
AcDbRegAppTableRecord
  2
HC_SP4BLOCK
 70
     0
  0
APPID
  5
BB57
330
9
100
AcDbSymbolTableRecord
100
AcDbRegAppTableRecord
  2
HC_XDATA_SPRING
 70
     0
  0
APPID
  5
BB58
330
9
100
AcDbSymbolTableRecord
100
AcDbRegAppTableRecord
  2
HCCAD_FRAME
 70
     0
  0
APPID
  5
BB59
330
9
100
AcDbSymbolTableRecord
100
AcDbRegAppTableRecord
  2
GENIUS_GENOBJ-N-ZOO_13
 70
     0
  0
APPID
  5
BB5A
330
9
100
AcDbSymbolTableRecord
100
AcDbRegAppTableRecord
  2
GENIUS_GENSYMENT_13
 70
     0
  0
APPID
  5
BB5B
330
9
100
AcDbSymbolTableRecord
100
AcDbRegAppTableRecord
  2
GENIUS_GENSCSYM_13
 70
     0
  0
APPID
  5
BB5C
330
9
100
AcDbSymbolTableRecord
100
AcDbRegAppTableRecord
  2
GENIUS_GENOBJ-N-REV_13
 70
     0
  0
APPID
  5
BB5D
330
9
100
AcDbSymbolTableRecord
100
AcDbRegAppTableRecord
  2
GENIUS_GENOBJ-N-RSSYM_13
 70
     0
  0
APPID
  5
BB5E
330
9
100
AcDbSymbolTableRecord
100
AcDbRegAppTableRecord
  2
GENIUS_GENREV_15
 70
     0
  0
APPID
  5
BB5F
330
9
100
AcDbSymbolTableRecord
100
AcDbRegAppTableRecord
  2
HRA
 70
     0
  0
APPID
  5
BB60
330
9
100
AcDbSymbolTableRecord
100
AcDbRegAppTableRecord
  2
HTIT
 70
     0
  0
APPID
  5
BB61
330
9
100
AcDbSymbolTableRecord
100
AcDbRegAppTableRecord
  2
GENIUS_GENZOO_17
 70
     0
  0
APPID
  5
BB62
330
9
100
AcDbSymbolTableRecord
100
AcDbRegAppTableRecord
  2
GENIUS_GENCRS_20
 70
     0
  0
APPID
  5
BB63
330
9
100
AcDbSymbolTableRecord
100
AcDbRegAppTableRecord
  2
GENIUS_GENOBJ-N-CRC_13
 70
     0
  0
APPID
  5
BB64
330
9
100
AcDbSymbolTableRecord
100
AcDbRegAppTableRecord
  2
GENIUS_GENCRC_14
 70
     0
  0
APPID
  5
BB65
330
9
100
AcDbSymbolTableRecord
100
AcDbRegAppTableRecord
  2
GENIUS_GENOBJ-N-DIMLI_13
 70
     0
  0
APPID
  5
BB66
330
9
100
AcDbSymbolTableRecord
100
AcDbRegAppTableRecord
  2
GENIUS_GENOBJ-N-FITL_13
 70
     0
  0
APPID
  5
BB67
330
9
100
AcDbSymbolTableRecord
100
AcDbRegAppTableRecord
  2
GENIUS_GENFITL_13
 70
     0
  0
APPID
  5
BB68
330
9
100
AcDbSymbolTableRecord
100
AcDbRegAppTableRecord
  2
GENLAYCOLOR
 70
     0
  0
ENDTAB
  0
TABLE
  2
DIMSTYLE
  5
A
330
0
100
AcDbSymbolTable
 70
    17
100
AcDbDimStyleTable
  0
DIMSTYLE
105
A76
330
A
100
AcDbSymbolTableRecord
100
AcDbDimStyleTableRecord
  2
STANDARD
 70
     0
 41
3.0
 42
1.0
 43
7.0
 44
2.0
 73
     0
 74
     0
 77
     1
140
2.799999999999999
141
0.0
143
0.0394
147
0.7
171
     4
172
     1
173
     1
176
     3
177
     3
271
     3
178
     2
271
     3
272
     3
273
     8
274
     4
289
     0
340
A74
341
A66
343
A66
344
A66
  0
DIMSTYLE
105
2515
330
A
100
AcDbSymbolTableRecord
100
AcDbDimStyleTableRecord
  2
SYS
 70
     0
  4
"
 41
1.0
 42
1.0
 43
10.0
 44
1.0
 47
0.1
 48
0.1
 90
        1
 73
     0
 74
     0
 77
     1
 78
     8
 79
     2
140
3.5
141
0.0
143
0.0393701
146
0.71
147
1.5
172
     1
176
   256
177
   256
271
     2
178
     7
271
     2
272
     2
283
     0
284
     8
340
11
371
    -1
372
    -1
  0
DIMSTYLE
105
2516
102
{ACAD_REACTORS
330
B968
102
}
330
A
100
AcDbSymbolTableRecord
100
AcDbDimStyleTableRecord
  2
SYS$3
 70
     0
  4
"
 41
2.0
 42
1.0
 43
10.0
 44
1.0
 47
0.1
 48
0.1
 90
        1
 73
     0
 77
     1
 78
     8
 79
     2
140
3.5
141
0.0
143
0.0393701
146
0.71
147
1.5
176
   256
177
   256
271
     2
178
     2
271
     2
272
     2
283
     0
284
     8
288
     1
340
11
342
A66
371
    -1
372
    -1
  0
DIMSTYLE
105
2517
330
A
100
AcDbSymbolTableRecord
100
AcDbDimStyleTableRecord
  2
SYS$4
 70
     0
  4
"
 41
2.0
 42
1.0
 43
10.0
 44
1.0
 47
0.1
 48
0.1
 90
        1
 73
     0
 77
     1
 78
     8
 79
     2
140
3.5
141
0.0
143
0.0393701
146
0.71
147
1.5
173
     1
176
   256
177
   256
271
     2
178
     2
271
     2
272
     2
283
     0
284
     8
288
     1
340
11
344
A66
371
    -1
372
    -1
  0
DIMSTYLE
105
2518
330
A
100
AcDbSymbolTableRecord
100
AcDbDimStyleTableRecord
  2
SYS$6
 70
     0
  4
"
 41
2.0
 42
1.0
 43
10.0
 44
1.0
 47
0.1
 48
0.1
 90
        1
 73
     0
 74
     0
 78
     8
 79
     2
140
3.5
141
0.0
143
0.0393701
146
0.71
147
1.5
172
     1
176
   256
177
   256
271
     2
178
     2
271
     2
272
     2
283
     0
284
     8
340
11
341
A66
371
    -1
372
    -1
  0
DIMSTYLE
105
2519
330
A
100
AcDbSymbolTableRecord
100
AcDbDimStyleTableRecord
  2
SYS$7
 70
     0
  4
"
 41
2.0
 42
1.0
 43
10.0
 44
1.0
 47
0.1
 48
0.1
 90
        1
 73
     0
 74
     0
 77
     1
 78
     8
 79
     2
140
5.0
141
0.0
143
0.0393701
146
0.71
147
1.5
172
     1
176
   256
177
   256
271
     2
178
     2
271
     2
272
     2
283
     0
284
     8
340
11
341
A66
342
A66
371
    -1
372
    -1
  0
DIMSTYLE
105
251A
330
A
100
AcDbSymbolTableRecord
100
AcDbDimStyleTableRecord
  2
SYS$SF
 70
     0
  4
"
 41
2.5
 42
1.0
 43
10.0
 44
1.0
 47
0.1
 48
0.1
 90
        1
 73
     0
 74
     0
 75
     1
 76
     1
 77
     1
 78
     8
 79
     2
140
3.5
141
0.0
143
0.0393701
146
0.71
147
1.5
172
     1
176
   256
177
   256
271
     2
178
     2
271
     2
272
     3
283
     0
284
     8
340
11
341
6C4
342
6C4
371
    -1
372
    -1
  0
DIMSTYLE
105
251B
330
A
100
AcDbSymbolTableRecord
100
AcDbDimStyleTableRecord
  2
SYS$SH
 70
     0
  4
"
 41
2.5
 42
1.0
 43
10.0
 44
1.0
 47
0.1
 48
0.1
 90
        1
 73
     0
 74
     0
 75
     1
 76
     1
 77
     1
 78
     8
 79
     2
140
3.5
141
0.0
143
0.0393701
144
2.0
146
0.71
147
1.5
172
     1
173
     1
176
   256
177
   256
271
     2
178
     2
271
     2
272
     3
283
     0
284
     8
340
11
341
6C4
343
72
344
6C4
371
    -1
372
    -1
  0
DIMSTYLE
105
2A59
102
{ACAD_REACTORS
330
B967
102
}
330
A
100
AcDbSymbolTableRecord
100
AcDbDimStyleTableRecord
  2
SYS$2
 70
     0
  4
"
 41
1.0
 42
1.0
 43
10.0
 44
1.0
 47
0.1
 48
0.1
 90
        1
 73
     0
 74
     0
 77
     1
 78
     8
 79
     2
140
3.5
141
0.0
143
0.0393701
146
0.71
147
1.5
172
     1
176
   256
177
   256
271
     2
178
     2
271
     2
272
     2
283
     0
284
     8
340
11
342
6C4
371
    -1
372
    -1
  0
DIMSTYLE
105
2AAB
102
{ACAD_REACTORS
330
B925
330
B926
330
B927
330
B928
330
B964
330
B965
330
B966
330
B969
330
B96A
330
B96B
330
B96C
330
B96D
330
B96E
102
}
330
A
100
AcDbSymbolTableRecord
100
AcDbDimStyleTableRecord
  2
SYS$0
 70
     0
  4
"
 41
1.0
 42
1.0
 43
10.0
 44
1.0
 47
0.1
 48
0.1
 90
        1
 73
     0
 74
     0
 77
     1
 78
     8
 79
     2
140
3.200000000000001
141
0.0
143
0.0393701
146
0.71
147
1.5
172
     1
176
   256
177
   256
271
     2
178
     2
271
     2
272
     2
283
     0
284
     8
340
11
341
A66
342
6C4
371
    -1
372
    -1
  0
DIMSTYLE
105
AF99
330
A
100
AcDbSymbolTableRecord
100
AcDbDimStyleTableRecord
  2
AM_ISO
 70
     0
  4
"
 41
2.5
 42
1.0
 43
10.0
 44
1.0
 47
0.1
 48
0.1
 73
     0
 74
     0
 77
     1
 78
     8
 79
     2
140
3.5
141
0.0
143
0.0393701
146
0.71
147
1.5
172
     1
176
   256
177
   256
271
     2
178
     2
271
     2
272
     3
274
     4
283
     0
284
     8
340
11
371
    -1
372
    -1
  0
DIMSTYLE
105
AF9A
330
A
100
AcDbSymbolTableRecord
100
AcDbDimStyleTableRecord
  2
AM_ISO$3
 70
     0
  4
"
 41
2.5
 42
1.0
 43
10.0
 44
1.0
 47
0.1
 48
0.1
 73
     0
 77
     1
 78
     8
 79
     2
140
3.5
141
0.0
143
0.0393701
146
0.71
147
1.5
176
   256
177
   256
271
     2
178
     2
271
     2
272
     3
274
     4
283
     0
284
     8
288
     1
289
     0
340
11
371
    -1
372
    -1
  0
DIMSTYLE
105
AF9B
330
A
100
AcDbSymbolTableRecord
100
AcDbDimStyleTableRecord
  2
AM_ISO$4
 70
     0
  4
"
 41
2.5
 42
1.0
 43
10.0
 44
1.0
 47
0.1
 48
0.1
 73
     0
 77
     1
 78
     8
 79
     2
140
3.5
141
0.0
143
0.0393701
146
0.71
147
1.5
176
   256
177
   256
271
     2
178
     2
271
     2
272
     3
274
     4
283
     0
284
     8
288
     1
289
     0
340
11
371
    -1
372
    -1
  0
DIMSTYLE
105
AF9C
330
A
100
AcDbSymbolTableRecord
100
AcDbDimStyleTableRecord
  2
AM_ISO$6
 70
     0
  4
"
 41
2.5
 42
1.0
 43
10.0
 44
1.0
 47
0.1
 48
0.1
 73
     0
 74
     0
 78
     8
 79
     2
140
3.5
141
0.0
143
0.0393701
146
0.71
147
1.5
172
     1
176
   256
177
   256
271
     2
178
     2
271
     2
272
     3
274
     4
283
     0
284
     8
340
11
371
    -1
372
    -1
  0
DIMSTYLE
105
AF9D
330
A
100
AcDbSymbolTableRecord
100
AcDbDimStyleTableRecord
  2
AM_ISO$7
 70
     0
  4
"
 41
2.5
 42
1.0
 43
10.0
 44
1.0
 47
0.1
 48
0.1
 73
     0
 74
     0
 77
     1
 78
     8
 79
     2
140
5.0
141
0.0
143
0.0393701
146
0.71
147
1.5
172
     1
176
   256
177
   256
271
     2
178
     2
271
     2
272
     3
274
     4
283
     0
284
     8
340
11
371
    -1
372
    -1
  0
DIMSTYLE
105
AF9E
330
A
100
AcDbSymbolTableRecord
100
AcDbDimStyleTableRecord
  2
AM_ISO$SF
 70
     0
  4
"
 41
2.5
 42
1.0
 43
10.0
 44
1.0
 47
0.1
 48
0.1
 73
     0
 74
     0
 75
     1
 76
     1
 77
     1
 78
     8
 79
     2
140
3.5
141
0.0
143
0.0393701
146
0.71
147
1.5
172
     1
176
   256
177
   256
271
     2
178
     2
271
     2
272
     3
274
     4
283
     0
284
     8
340
11
371
    -1
372
    -1
  0
DIMSTYLE
105
AF9F
330
A
100
AcDbSymbolTableRecord
100
AcDbDimStyleTableRecord
  2
AM_ISO$SH
 70
     0
  4
"
 41
2.5
 42
1.0
 43
10.0
 44
1.0
 47
0.1
 48
0.1
 73
     0
 74
     0
 75
     1
 76
     1
 77
     1
 78
     8
 79
     2
140
3.5
141
0.0
143
0.0393701
144
2.0
146
0.71
147
1.5
172
     1
173
     1
176
   256
177
   256
271
     2
178
     2
271
     2
272
     3
274
     4
283
     0
284
     8
340
11
343
72
371
    -1
372
    -1
  0
ENDTAB
  0
TABLE
  2
BLOCK_RECORD
  5
1
330
0
100
AcDbSymbolTable
 70
    23
  0
BLOCK_RECORD
  5
1F
102
{ACAD_XDICTIONARY
360
8A
102
}
330
1
100
AcDbSymbolTableRecord
100
AcDbBlockTableRecord
  2
*Model_Space
340
22
 70
     0
280
     1
281
     0
  0
BLOCK_RECORD
  5
1B
330
1
100
AcDbSymbolTableRecord
100
AcDbBlockTableRecord
  2
*Paper_Space
340
1E
 70
     0
280
     1
281
     0
  0
BLOCK_RECORD
  5
23
330
1
100
AcDbSymbolTableRecord
100
AcDbBlockTableRecord
  2
*Paper_Space0
340
26
 70
     0
280
     1
281
     0
  0
BLOCK_RECORD
  5
72
330
1
100
AcDbSymbolTableRecord
100
AcDbBlockTableRecord
  2
GENAXEH
340
0
 70
     0
280
     1
281
     0
  0
BLOCK_RECORD
  5
6C4
330
1
100
AcDbSymbolTableRecord
100
AcDbBlockTableRecord
  2
_Dot
340
0
102
{BLKREFS
331
B975
331
B976
331
BAB9
331
BABA
331
B98F
331
B990
331
B99B
331
B99C
331
B9A7
331
B9A8
331
B9B3
331
B9B4
331
B9BF
331
B9C0
331
B9CB
331
B9CC
331
B9E4
331
B9E5
331
B9F0
331
B9F1
331
B9FC
331
B9FD
331
BA08
331
BA09
331
BA14
331
BA15
331
BA20
331
BA21
331
B975
331
B976
331
BAB9
331
BABA
331
B98F
331
B990
331
B99B
331
B99C
331
B9A7
331
B9A8
331
B9B3
331
B9B4
331
B9BF
331
B9C0
331
B9CB
331
B9CC
331
B9E4
331
B9E5
331
B9F0
331
B9F1
331
B9FC
331
B9FD
331
BA08
331
BA09
331
BA14
331
BA15
331
BA20
331
BA21
102
}
 70
     0
280
     1
281
     0
  0
BLOCK_RECORD
  5
A66
330
1
100
AcDbSymbolTableRecord
100
AcDbBlockTableRecord
  2
_OPEN30
340
0
 70
     0
280
     1
281
     0
  0
BLOCK_RECORD
  5
3E12
330
1
100
AcDbSymbolTableRecord
100
AcDbBlockTableRecord
  2
*U4
340
0
 70
     0
280
     1
281
     0
  0
BLOCK_RECORD
  5
B5F8
102
{ACAD_XDICTIONARY
360
B5F9
102
}
330
1
100
AcDbSymbolTableRecord
100
AcDbBlockTableRecord
  2
SYS図枠A3(AIS2008)
340
0
102
{BLKREFS
331
B82A
331
B82A
102
}
 70
     0
280
     1
281
     0
  0
BLOCK_RECORD
  5
B610
330
1
100
AcDbSymbolTableRecord
100
AcDbBlockTableRecord
  2
GENDOT
340
0
102
{BLKREFS
331
B9D9
331
B9DA
331
B9D9
331
B9DA
102
}
 70
     0
280
     1
281
     0
  0
BLOCK_RECORD
  5
B96F
330
1
100
AcDbSymbolTableRecord
100
AcDbBlockTableRecord
  2
*D7
340
0
 70
     0
280
     1
281
     0
  0
BLOCK_RECORD
  5
B97B
330
1
100
AcDbSymbolTableRecord
100
AcDbBlockTableRecord
  2
*D8
340
0
 70
     0
280
     1
281
     0
  0
BLOCK_RECORD
  5
B989
330
1
100
AcDbSymbolTableRecord
100
AcDbBlockTableRecord
  2
*D9
340
0
 70
     0
280
     1
281
     0
  0
BLOCK_RECORD
  5
B995
330
1
100
AcDbSymbolTableRecord
100
AcDbBlockTableRecord
  2
*D10
340
0
 70
     0
280
     1
281
     0
  0
BLOCK_RECORD
  5
B9A1
330
1
100
AcDbSymbolTableRecord
100
AcDbBlockTableRecord
  2
*D11
340
0
 70
     0
280
     1
281
     0
  0
BLOCK_RECORD
  5
B9AD
330
1
100
AcDbSymbolTableRecord
100
AcDbBlockTableRecord
  2
*D12
340
0
 70
     0
280
     1
281
     0
  0
BLOCK_RECORD
  5
B9B9
330
1
100
AcDbSymbolTableRecord
100
AcDbBlockTableRecord
  2
*D13
340
0
 70
     0
280
     1
281
     0
  0
BLOCK_RECORD
  5
B9C5
330
1
100
AcDbSymbolTableRecord
100
AcDbBlockTableRecord
  2
*D14
340
0
 70
     0
280
     1
281
     0
  0
BLOCK_RECORD
  5
B9D3
330
1
100
AcDbSymbolTableRecord
100
AcDbBlockTableRecord
  2
*D15
340
0
 70
     0
280
     1
281
     0
  0
BLOCK_RECORD
  5
B9DE
330
1
100
AcDbSymbolTableRecord
100
AcDbBlockTableRecord
  2
*D16
340
0
 70
     0
280
     1
281
     0
  0
BLOCK_RECORD
  5
B9EA
330
1
100
AcDbSymbolTableRecord
100
AcDbBlockTableRecord
  2
*D17
340
0
 70
     0
280
     1
281
     0
  0
BLOCK_RECORD
  5
B9F6
330
1
100
AcDbSymbolTableRecord
100
AcDbBlockTableRecord
  2
*D18
340
0
 70
     0
280
     1
281
     0
  0
BLOCK_RECORD
  5
BA02
330
1
100
AcDbSymbolTableRecord
100
AcDbBlockTableRecord
  2
*D19
340
0
 70
     0
280
     1
281
     0
  0
BLOCK_RECORD
  5
BA0E
330
1
100
AcDbSymbolTableRecord
100
AcDbBlockTableRecord
  2
*D20
340
0
 70
     0
280
     1
281
     0
  0
BLOCK_RECORD
  5
BA1A
330
1
100
AcDbSymbolTableRecord
100
AcDbBlockTableRecord
  2
*D21
340
0
 70
     0
280
     1
281
     0
  0
BLOCK_RECORD
  5
BB6D
330
1
100
AcDbSymbolTableRecord
100
AcDbBlockTableRecord
  2
_ACMOPEN30
340
0
 70
     0
280
     1
281
     0
  0
ENDTAB
  0
ENDSEC
  0
SECTION
  2
BLOCKS
  0
BLOCK
  5
20
330
1F
100
AcDbEntity
  8
0
100
AcDbBlockBegin
  2
*Model_Space
 70
     0
 10
0.0
 20
0.0
 30
0.0
  3
*Model_Space
  1

  0
ENDBLK
  5
21
330
1F
100
AcDbEntity
  8
0
100
AcDbBlockEnd
  0
BLOCK
  5
1C
330
1B
100
AcDbEntity
 67
     1
  8
0
100
AcDbBlockBegin
  2
*Paper_Space
 70
     0
 10
0.0
 20
0.0
 30
0.0
  3
*Paper_Space
  1

  0
ENDBLK
  5
1D
330
1B
100
AcDbEntity
 67
     1
  8
0
100
AcDbBlockEnd
  0
BLOCK
  5
24
330
23
100
AcDbEntity
  8
0
100
AcDbBlockBegin
  2
*Paper_Space0
 70
     0
 10
0.0
 20
0.0
 30
0.0
  3
*Paper_Space0
  1

  0
ENDBLK
  5
25
330
23
100
AcDbEntity
  8
0
100
AcDbBlockEnd
  0
BLOCK
  5
74
330
72
100
AcDbEntity
  8
0
100
AcDbBlockBegin
  2
GENAXEH
 70
     0
 10
0.0
 20
0.0
 30
0.0
  3
GENAXEH
  1

  0
LINE
  5
73
330
72
100
AcDbEntity
  8
0
100
AcDbLine
 10
-1.0
 20
0.0
 30
0.0
 11
1.0
 21
0.0
 31
0.0
  0
ENDBLK
  5
75
330
72
100
AcDbEntity
  8
0
100
AcDbBlockEnd
  0
BLOCK
  5
6C7
330
6C4
100
AcDbEntity
  8
0
100
AcDbBlockBegin
  2
_Dot
 70
     0
 10
0.0
 20
0.0
 30
0.0
  3
_Dot
  1

  0
LWPOLYLINE
  5
6C5
330
6C4
100
AcDbEntity
  8
0
  6
ByBlock
 62
     0
100
AcDbPolyline
 90
        2
 70
     1
 43
0.5
 10
-0.25
 20
0.0
 42
1.0
 10
0.25
 20
0.0
 42
1.0
  0
LINE
  5
6C6
330
6C4
100
AcDbEntity
  8
0
  6
ByBlock
 62
     0
370
    -2
100
AcDbLine
 10
-0.5
 20
0.0
 30
0.0
 11
-1.0
 21
0.0
 31
0.0
  0
ENDBLK
  5
6C8
330
6C4
100
AcDbEntity
  8
0
100
AcDbBlockEnd
  0
BLOCK
  5
A6A
330
A66
100
AcDbEntity
  8
0
100
AcDbBlockBegin
  2
_OPEN30
 70
     0
 10
0.0
 20
0.0
 30
0.0
  3
_OPEN30
  1

  0
LINE
  5
A67
330
A66
100
AcDbEntity
  8
0
  6
ByBlock
 62
     0
100
AcDbLine
 10
-1.0
 20
0.26794919
 30
0.0
 11
0.0
 21
0.0
 31
0.0
  0
LINE
  5
A68
330
A66
100
AcDbEntity
  8
0
  6
ByBlock
 62
     0
100
AcDbLine
 10
0.0
 20
0.0
 30
0.0
 11
-1.0
 21
-0.26794919
 31
0.0
  0
LINE
  5
A69
330
A66
100
AcDbEntity
  8
0
  6
ByBlock
 62
     0
100
AcDbLine
 10
0.0
 20
0.0
 30
0.0
 11
-1.0
 21
0.0
 31
0.0
  0
ENDBLK
  5
A6B
330
A66
100
AcDbEntity
  8
0
100
AcDbBlockEnd
  0
BLOCK
  5
3E13
330
3E12
100
AcDbEntity
  8
0
100
AcDbBlockBegin
  2
*U4
 70
     1
 10
0.0
 20
0.0
 30
0.0
  3
*U4
  1

  0
ENDBLK
  5
3E14
330
3E12
100
AcDbEntity
  8
0
100
AcDbBlockEnd
  0
BLOCK
  5
B5FB
330
B5F8
100
AcDbEntity
  8
0
100
AcDbBlockBegin
  2
SYS図枠A3(AIS2008)
 70
     0
 10
0.0
 20
0.0
 30
0.0
  3
SYS図枠A3(AIS2008)
  1

  0
TEXT
  5
B5FC
330
B5F8
100
AcDbEntity
  8
AM_6
 60
     1
100
AcDbText
 10
408.4999999999999
 20
8.5
 30
0.0
 40
2.5
  1
!GENTITLE-INSERT
100
AcDbText
  0
TEXT
  5
B5FD
330
B5F8
100
AcDbEntity
  8
AM_6
 60
     1
100
AcDbText
 10
0.0
 20
0.0
 30
0.0
 40
2.5
  1
!GENTITLE-LL
100
AcDbText
  0
TEXT
  5
B5FE
330
B5F8
100
AcDbEntity
  8
AM_6
 60
     1
100
AcDbText
 10
420.0
 20
297.0
 30
0.0
 40
2.5
  1
!GENTITLE-RU
100
AcDbText
  0
TEXT
  5
B5FF
330
B5F8
100
AcDbEntity
  8
AM_6
 60
     1
100
AcDbText
 10
420.0
 20
297.0
 30
0.0
 40
2.5
  1
!GENTITLE-MAX
100
AcDbText
  0
LINE
  5
B600
330
B5F8
100
AcDbEntity
  8
size
100
AcDbLine
 10
0.0
 20
0.0
 30
0.0
 11
420.0
 21
0.0
 31
0.0
1001
GENIUS_GENREC_14
1002
{
1000
PYDIR
1011
0.0000000000000178
1021
297.0
1031
0.0
1002
}
1002
{
1000
PXDIR
1011
420.0
1021
0.0
1031
0.0
1002
}
1002
{
1000
PORI
1011
0.0
1021
0.0
1031
0.0
1002
}
1002
{
1000
PINS
1011
210.0
1021
148.4999999999999
1031
0.0
1002
}
1002
{
1000
HVAL
1000
297
1002
}
1002
{
1000
H
1070
     2
1002
}
1002
{
1000
WVAL
1000
420
1002
}
1002
{
1000
W
1070
     2
1002
}
1002
{
1000
C
1070
     4
1002
}
1001
GENIUS_GENOBJ-N-REC_13
1002
{
1000
OWNER
1000
GEN
1002
}
1001
GENIUS_GENODEF_13
1002
{
1000
HIER
1070
     0
1002
}
1002
{
1000
MANEDIT
1070
     0
1002
}
1002
{
1000
NOSEL
1070
     0
1002
}
1002
{
1000
BEHIND
1070
     0
1002
}
1002
{
1000
OTHER
1070
     0
1002
}
1002
{
1000
REACTOR
1002
}
  0
LINE
  5
B601
330
B5F8
100
AcDbEntity
  8
size
100
AcDbLine
 10
420.0
 20
0.0
 30
0.0
 11
420.0
 21
297.0
 31
0.0
1001
GENIUS_GENREC_14
1002
{
1000
PYDIR
1011
0.0000000000000178
1021
297.0
1031
0.0
1002
}
1002
{
1000
PXDIR
1011
420.0
1021
0.0
1031
0.0
1002
}
1002
{
1000
PORI
1011
0.0
1021
0.0
1031
0.0
1002
}
1002
{
1000
PINS
1011
210.0
1021
148.4999999999999
1031
0.0
1002
}
1002
{
1000
HVAL
1000
297
1002
}
1002
{
1000
H
1070
     2
1002
}
1002
{
1000
WVAL
1000
420
1002
}
1002
{
1000
W
1070
     2
1002
}
1002
{
1000
C
1070
     4
1002
}
1001
GENIUS_GENOBJ-N-REC_13
1002
{
1000
OWNER
1000
GEN
1002
}
1001
GENIUS_GENODEF_13
1002
{
1000
HIER
1070
     0
1002
}
1002
{
1000
MANEDIT
1070
     0
1002
}
1002
{
1000
NOSEL
1070
     0
1002
}
1002
{
1000
BEHIND
1070
     0
1002
}
1002
{
1000
OTHER
1070
     0
1002
}
1002
{
1000
REACTOR
1002
}
  0
LINE
  5
B602
330
B5F8
100
AcDbEntity
  8
size
100
AcDbLine
 10
420.0
 20
297.0
 30
0.0
 11
0.0000000000000275
 21
297.0
 31
0.0
1001
GENIUS_GENREC_14
1002
{
1000
PYDIR
1011
0.0000000000000178
1021
297.0
1031
0.0
1002
}
1002
{
1000
PXDIR
1011
420.0
1021
0.0
1031
0.0
1002
}
1002
{
1000
PORI
1011
0.0
1021
0.0
1031
0.0
1002
}
1002
{
1000
PINS
1011
210.0
1021
148.4999999999999
1031
0.0
1002
}
1002
{
1000
HVAL
1000
297
1002
}
1002
{
1000
H
1070
     2
1002
}
1002
{
1000
WVAL
1000
420
1002
}
1002
{
1000
W
1070
     2
1002
}
1002
{
1000
C
1070
     4
1002
}
1001
GENIUS_GENOBJ-N-REC_13
1002
{
1000
OWNER
1000
GEN
1002
}
1001
GENIUS_GENODEF_13
1002
{
1000
HIER
1070
     0
1002
}
1002
{
1000
MANEDIT
1070
     0
1002
}
1002
{
1000
NOSEL
1070
     0
1002
}
1002
{
1000
BEHIND
1070
     0
1002
}
1002
{
1000
OTHER
1070
     0
1002
}
1002
{
1000
REACTOR
1002
}
  0
LINE
  5
B603
330
B5F8
100
AcDbEntity
  8
size
100
AcDbLine
 10
0.0000000000000275
 20
297.0
 30
0.0
 11
0.0
 21
0.0
 31
0.0
1001
GENIUS_GENREC_14
1002
{
1000
PYDIR
1011
0.0000000000000178
1021
297.0
1031
0.0
1002
}
1002
{
1000
PXDIR
1011
420.0
1021
0.0
1031
0.0
1002
}
1002
{
1000
PORI
1011
0.0
1021
0.0
1031
0.0
1002
}
1002
{
1000
PINS
1011
210.0
1021
148.4999999999999
1031
0.0
1002
}
1002
{
1000
HVAL
1000
297
1002
}
1002
{
1000
H
1070
     2
1002
}
1002
{
1000
WVAL
1000
420
1002
}
1002
{
1000
W
1070
     2
1002
}
1002
{
1000
C
1070
     4
1002
}
1001
GENIUS_GENOBJ-N-REC_13
1002
{
1000
OWNER
1000
GEN
1002
}
1001
GENIUS_GENODEF_13
1002
{
1000
HIER
1070
     0
1002
}
1002
{
1000
MANEDIT
1070
     0
1002
}
1002
{
1000
NOSEL
1070
     0
1002
}
1002
{
1000
BEHIND
1070
     0
1002
}
1002
{
1000
OTHER
1070
     0
1002
}
1002
{
1000
REACTOR
1002
}
  0
LINE
  5
B604
330
B5F8
100
AcDbEntity
  8
waku
100
AcDbLine
 10
408.4999999999999
 20
8.5
 30
0.0
 11
408.4999999999999
 21
288.5
 31
0.0
1001
GENIUS_GENREC_14
1002
{
1000
PYDIR
1011
0.0000000000000178
1021
297.0
1031
0.0
1002
}
1002
{
1000
PXDIR
1011
420.0
1021
0.0
1031
0.0
1002
}
1002
{
1000
PORI
1011
0.0
1021
0.0
1031
0.0
1002
}
1002
{
1000
PINS
1011
210.0
1021
148.4999999999999
1031
0.0
1002
}
1002
{
1000
HVAL
1000
297
1002
}
1002
{
1000
H
1070
     2
1002
}
1002
{
1000
WVAL
1000
420
1002
}
1002
{
1000
W
1070
     2
1002
}
1002
{
1000
C
1070
     4
1002
}
1001
GENIUS_GENOBJ-N-REC_13
1002
{
1000
OWNER
1000
GEN
1002
}
1001
GENIUS_GENODEF_13
1002
{
1000
HIER
1070
     0
1002
}
1002
{
1000
MANEDIT
1070
     0
1002
}
1002
{
1000
NOSEL
1070
     0
1002
}
1002
{
1000
BEHIND
1070
     0
1002
}
1002
{
1000
OTHER
1070
     0
1002
}
1002
{
1000
REACTOR
1002
}
  0
LINE
  5
B605
330
B5F8
100
AcDbEntity
  8
waku
100
AcDbLine
 10
11.50000000000002
 20
288.5
 30
0.0
 11
11.5
 21
8.5
 31
0.0
1001
GENIUS_GENREC_14
1002
{
1000
PYDIR
1011
0.0000000000000178
1021
297.0
1031
0.0
1002
}
1002
{
1000
PXDIR
1011
420.0
1021
0.0
1031
0.0
1002
}
1002
{
1000
PORI
1011
0.0
1021
0.0
1031
0.0
1002
}
1002
{
1000
PINS
1011
210.0
1021
148.4999999999999
1031
0.0
1002
}
1002
{
1000
HVAL
1000
297
1002
}
1002
{
1000
H
1070
     2
1002
}
1002
{
1000
WVAL
1000
420
1002
}
1002
{
1000
W
1070
     2
1002
}
1002
{
1000
C
1070
     4
1002
}
1001
GENIUS_GENOBJ-N-REC_13
1002
{
1000
OWNER
1000
GEN
1002
}
1001
GENIUS_GENODEF_13
1002
{
1000
HIER
1070
     0
1002
}
1002
{
1000
MANEDIT
1070
     0
1002
}
1002
{
1000
NOSEL
1070
     0
1002
}
1002
{
1000
BEHIND
1070
     0
1002
}
1002
{
1000
OTHER
1070
     0
1002
}
1002
{
1000
REACTOR
1002
}
  0
LINE
  5
B606
330
B5F8
100
AcDbEntity
  8
waku
100
AcDbLine
 10
408.4999999999999
 20
288.5
 30
0.0
 11
11.50000000000002
 21
288.5
 31
0.0
1001
GENIUS_GENREC_14
1002
{
1000
PYDIR
1011
0.0000000000000178
1021
297.0
1031
0.0
1002
}
1002
{
1000
PXDIR
1011
420.0
1021
0.0
1031
0.0
1002
}
1002
{
1000
PORI
1011
0.0
1021
0.0
1031
0.0
1002
}
1002
{
1000
PINS
1011
210.0
1021
148.4999999999999
1031
0.0
1002
}
1002
{
1000
HVAL
1000
297
1002
}
1002
{
1000
H
1070
     2
1002
}
1002
{
1000
WVAL
1000
420
1002
}
1002
{
1000
W
1070
     2
1002
}
1002
{
1000
C
1070
     4
1002
}
1001
GENIUS_GENOBJ-N-REC_13
1002
{
1000
OWNER
1000
GEN
1002
}
1001
GENIUS_GENODEF_13
1002
{
1000
HIER
1070
     0
1002
}
1002
{
1000
MANEDIT
1070
     0
1002
}
1002
{
1000
NOSEL
1070
     0
1002
}
1002
{
1000
BEHIND
1070
     0
1002
}
1002
{
1000
OTHER
1070
     0
1002
}
1002
{
1000
REACTOR
1002
}
  0
TEXT
  5
B607
330
B5F8
100
AcDbEntity
  8
AM_6
 60
     1
100
AcDbText
 10
0.0
 20
0.0
 30
0.0
 40
2.5
  1
!GENTITLE-LL
100
AcDbText
  0
TEXT
  5
B608
330
B5F8
100
AcDbEntity
  8
AM_6
 60
     1
100
AcDbText
 10
408.4999999999999
 20
288.5
 30
0.0
 40
2.5
  1
!GENTITLE-RU
100
AcDbText
  0
TEXT
  5
B609
330
B5F8
100
AcDbEntity
  8
AM_6
 60
     1
100
AcDbText
 10
420.0
 20
297.0
 30
0.0
 40
2.5
  1
!GENTITLE-MAX
100
AcDbText
  0
TEXT
  5
B60A
330
B5F8
100
AcDbEntity
  8
AM_6
 60
     1
100
AcDbText
 10
408.4999999999999
 20
8.5
 30
0.0
 40
2.5
  1
!GENTITLE-INSERT
100
AcDbText
  0
LINE
  5
B60B
330
B5F8
100
AcDbEntity
  8
waku
100
AcDbLine
 10
11.5
 20
8.5
 30
0.0
 11
408.4999999999999
 21
8.5
 31
0.0
  0
LINE
  5
B60C
330
B5F8
100
AcDbEntity
  8
waku
100
AcDbLine
 10
246.499999999999
 20
33.49999999999332
 30
0.0
 11
408.4999999999999
 21
33.49999999999981
 31
0.0
  0
LINE
  5
B60D
330
B5F8
100
AcDbEntity
  8
waku
100
AcDbLine
 10
246.4999999999983
 20
8.5
 30
0.0
 11
246.4999999999974
 21
33.49999999999332
 31
0.0
  0
MTEXT
  5
B60E
330
B5F8
100
AcDbEntity
  8
AM_6
100
AcDbMText
 10
316.9999999999996
 20
25.74999999999989
 30
0.0
 40
4.0
 41
9.015095283510618
 46
0.0
 71
     5
 72
     5
  1
A3
 73
     1
 44
1.0
  0
ENDBLK
  5
B60F
330
B5F8
100
AcDbEntity
  8
0
100
AcDbBlockEnd
  0
BLOCK
  5
B611
330
B610
100
AcDbEntity
  8
0
100
AcDbBlockBegin
  2
GENDOT
 70
     0
 10
0.0
 20
0.0
 30
0.0
  3
GENDOT
  1

  0
LINE
  5
B612
330
B610
100
AcDbEntity
  8
0
100
AcDbLine
 10
0.0
 20
0.0
 30
0.0
 11
-1.0
 21
0.0
 31
0.0
  0
LWPOLYLINE
  5
B613
330
B610
100
AcDbEntity
  8
0
100
AcDbPolyline
 90
        2
 70
     1
 43
0.25
 10
-0.125
 20
0.0
 42
1.0
 10
0.125
 20
0.0
 42
1.0
  0
ENDBLK
  5
B614
330
B610
100
AcDbEntity
  8
0
100
AcDbBlockEnd
  0
BLOCK
  5
B970
330
B96F
100
AcDbEntity
  8
0
100
AcDbBlockBegin
  2
*D7
 70
     1
 10
0.0
 20
0.0
 30
0.0
  3
*D7
  1

  0
LINE
  5
B972
330
B96F
100
AcDbEntity
  8
AM_5
100
AcDbLine
 10
151.2016172792477
 20
135.5020712158453
 30
0.0
 11
151.2016172792477
 21
109.0020742158454
 31
0.0
  0
LINE
  5
B973
330
B96F
100
AcDbEntity
  8
AM_5
100
AcDbLine
 10
239.2016102792476
 20
135.5020712158453
 30
0.0
 11
239.2016102792476
 21
109.0020742158454
 31
0.0
  0
LINE
  5
B974
330
B96F
100
AcDbEntity
  8
AM_5
100
AcDbLine
 10
152.2016172792477
 20
110.0020742158454
 30
0.0
 11
238.2016102792476
 21
110.0020742158454
 31
0.0
  0
INSERT
  5
B975
330
B96F
100
AcDbEntity
  8
AM_5
100
AcDbBlockReference
  2
_Dot
 10
151.2016172792477
 20
110.0020742158454
 30
0.0
 50
180.0
  0
INSERT
  5
B976
330
B96F
100
AcDbEntity
  8
AM_5
100
AcDbBlockReference
  2
_Dot
 10
239.2016102792476
 20
110.0020742158454
 30
0.0
  0
MTEXT
  5
B977
330
B96F
100
AcDbEntity
  8
AM_5
 62
     2
100
AcDbMText
 10
195.2016137792476
 20
113.1020742158453
 30
0.0
 40
3.200000000000001
 41
0.0
 46
0.0
 71
     5
 72
     1
  1
B
 73
     1
 44
1.0
  0
POINT
  5
B978
330
B96F
100
AcDbEntity
  8
Defpoints
 62
     0
100
AcDbPoint
 10
151.2016172792477
 20
136.5020712158453
 30
0.0
  0
POINT
  5
B979
330
B96F
100
AcDbEntity
  8
Defpoints
 62
     0
100
AcDbPoint
 10
239.2016102792476
 20
136.5020712158453
 30
0.0
  0
POINT
  5
B97A
330
B96F
100
AcDbEntity
  8
Defpoints
 62
     0
100
AcDbPoint
 10
239.2016102792476
 20
110.0020742158454
 30
0.0
  0
ENDBLK
  5
B971
330
B96F
100
AcDbEntity
  8
0
100
AcDbBlockEnd
  0
BLOCK
  5
B97C
330
B97B
100
AcDbEntity
  8
0
100
AcDbBlockBegin
  2
*D8
 70
     1
 10
0.0
 20
0.0
 30
0.0
  3
*D8
  1

  0
LINE
  5
BAB4
330
B97B
100
AcDbEntity
  8
AM_5
100
AcDbLine
 10
239.2016102792476
 20
135.5020712158453
 30
0.0
 11
239.2016102792476
 21
119.0020742158455
 31
0.0
  0
LINE
  5
BAB5
330
B97B
100
AcDbEntity
  8
AM_5
100
AcDbLine
 10
234.2016102792477
 20
135.5020712158453
 30
0.0
 11
234.2016102792477
 21
119.0020742158455
 31
0.0
  0
LINE
  5
BAB6
330
B97B
100
AcDbEntity
  8
AM_5
100
AcDbLine
 10
240.2016102792476
 20
120.0020742158455
 30
0.0
 11
241.2016102792476
 21
120.0020742158455
 31
0.0
  0
LINE
  5
BAB7
330
B97B
100
AcDbEntity
  8
AM_5
100
AcDbLine
 10
233.2016102792477
 20
120.0020742158455
 30
0.0
 11
232.2016102792477
 21
120.0020742158455
 31
0.0
  0
LINE
  5
BAB8
330
B97B
100
AcDbEntity
  8
AM_5
100
AcDbLine
 10
239.2016102792476
 20
120.0020742158455
 30
0.0
 11
234.2016102792477
 21
120.0020742158455
 31
0.0
  0
INSERT
  5
BAB9
330
B97B
100
AcDbEntity
  8
AM_5
100
AcDbBlockReference
  2
_Dot
 10
239.2016102792476
 20
120.0020742158455
 30
0.0
 50
180.0
  0
INSERT
  5
BABA
330
B97B
100
AcDbEntity
  8
AM_5
100
AcDbBlockReference
  2
_Dot
 10
234.2016102792477
 20
120.0020742158455
 30
0.0
  0
MTEXT
  5
BABB
330
B97B
100
AcDbEntity
  8
AM_5
 62
     2
100
AcDbMText
 10
236.7016102792476
 20
123.1020742158454
 30
0.0
 40
3.200000000000001
 41
0.0
 46
0.0
 71
     5
 72
     1
  1
M
 73
     1
 44
1.0
  0
POINT
  5
BABC
330
B97B
100
AcDbEntity
  8
Defpoints
 62
     0
100
AcDbPoint
 10
239.2016102792476
 20
136.5020712158453
 30
0.0
  0
POINT
  5
BABD
330
B97B
100
AcDbEntity
  8
Defpoints
 62
     0
100
AcDbPoint
 10
234.2016102792477
 20
136.5020712158453
 30
0.0
  0
POINT
  5
BABE
330
B97B
100
AcDbEntity
  8
Defpoints
 62
     0
100
AcDbPoint
 10
234.2016102792477
 20
120.0020742158455
 30
0.0
  0
ENDBLK
  5
B97D
330
B97B
100
AcDbEntity
  8
0
100
AcDbBlockEnd
  0
BLOCK
  5
B98A
330
B989
100
AcDbEntity
  8
0
100
AcDbBlockBegin
  2
*D9
 70
     1
 10
0.0
 20
0.0
 30
0.0
  3
*D9
  1

  0
LINE
  5
B98C
330
B989
100
AcDbEntity
  8
AM_5
100
AcDbLine
 10
249.7016102792477
 20
130.5020712158453
 30
0.0
 11
249.7016102792477
 21
99.0020742158454
 31
0.0
  0
LINE
  5
B98D
330
B989
100
AcDbEntity
  8
AM_5
100
AcDbLine
 10
139.7016172792477
 20
130.5020712158453
 30
0.0
 11
139.7016172792477
 21
99.0020742158454
 31
0.0
  0
LINE
  5
B98E
330
B989
100
AcDbEntity
  8
AM_5
100
AcDbLine
 10
248.7016102792477
 20
100.0020742158454
 30
0.0
 11
140.7016172792476
 21
100.0020742158454
 31
0.0
  0
INSERT
  5
B98F
330
B989
100
AcDbEntity
  8
AM_5
100
AcDbBlockReference
  2
_Dot
 10
249.7016102792477
 20
100.0020742158454
 30
0.0
  0
INSERT
  5
B990
330
B989
100
AcDbEntity
  8
AM_5
100
AcDbBlockReference
  2
_Dot
 10
139.7016172792477
 20
100.0020742158454
 30
0.0
 50
180.0
  0
MTEXT
  5
B991
330
B989
100
AcDbEntity
  8
AM_5
 62
     2
100
AcDbMText
 10
194.7016137792477
 20
103.1020742158454
 30
0.0
 40
3.200000000000001
 41
0.0
 46
0.0
 71
     5
 72
     1
  1
A
 73
     1
 44
1.0
  0
POINT
  5
B992
330
B989
100
AcDbEntity
  8
Defpoints
 62
     0
100
AcDbPoint
 10
249.7016102792477
 20
131.5020712158453
 30
0.0
  0
POINT
  5
B993
330
B989
100
AcDbEntity
  8
Defpoints
 62
     0
100
AcDbPoint
 10
139.7016172792477
 20
131.5020712158453
 30
0.0
  0
POINT
  5
B994
330
B989
100
AcDbEntity
  8
Defpoints
 62
     0
100
AcDbPoint
 10
139.7016172792477
 20
100.0020742158454
 30
0.0
  0
ENDBLK
  5
B98B
330
B989
100
AcDbEntity
  8
0
100
AcDbBlockEnd
  0
BLOCK
  5
B996
330
B995
100
AcDbEntity
  8
0
100
AcDbBlockBegin
  2
*D10
 70
     1
 10
0.0
 20
0.0
 30
0.0
  3
*D10
  1

  0
LINE
  5
B998
330
B995
100
AcDbEntity
  8
AM_5
100
AcDbLine
 10
250.7016102792477
 20
157.5020712158453
 30
0.0
 11
262.7016102792477
 21
157.5020712158453
 31
0.0
  0
LINE
  5
B999
330
B995
100
AcDbEntity
  8
AM_5
100
AcDbLine
 10
250.7016102792477
 20
131.5020712158453
 30
0.0
 11
262.7016102792477
 21
131.5020712158453
 31
0.0
  0
LINE
  5
B99A
330
B995
100
AcDbEntity
  8
AM_5
100
AcDbLine
 10
261.7016102792477
 20
156.5020712158453
 30
0.0
 11
261.7016102792477
 21
132.5020712158453
 31
0.0
  0
INSERT
  5
B99B
330
B995
100
AcDbEntity
  8
AM_5
100
AcDbBlockReference
  2
_Dot
 10
261.7016102792477
 20
157.5020712158453
 30
0.0
 50
90.0
  0
INSERT
  5
B99C
330
B995
100
AcDbEntity
  8
AM_5
100
AcDbBlockReference
  2
_Dot
 10
261.7016102792477
 20
131.5020712158453
 30
0.0
 50
270.0
  0
MTEXT
  5
B99D
330
B995
100
AcDbEntity
  8
AM_5
 62
     2
100
AcDbMText
 10
258.6016102792476
 20
144.5020712158453
 30
0.0
 40
3.200000000000001
 41
0.0
 46
0.0
 71
     5
 72
     1
  1
G
 11
1.000000000000000E-16
 21
1.0
 31
0.0
 73
     1
 44
1.0
  0
POINT
  5
B99E
330
B995
100
AcDbEntity
  8
Defpoints
 62
     0
100
AcDbPoint
 10
249.7016102792477
 20
157.5020712158453
 30
0.0
  0
POINT
  5
B99F
330
B995
100
AcDbEntity
  8
Defpoints
 62
     0
100
AcDbPoint
 10
249.7016102792477
 20
131.5020712158453
 30
0.0
  0
POINT
  5
B9A0
330
B995
100
AcDbEntity
  8
Defpoints
 62
     0
100
AcDbPoint
 10
261.7016102792477
 20
131.5020712158453
 30
0.0
  0
ENDBLK
  5
B997
330
B995
100
AcDbEntity
  8
0
100
AcDbBlockEnd
  0
BLOCK
  5
B9A2
330
B9A1
100
AcDbEntity
  8
0
100
AcDbBlockBegin
  2
*D11
 70
     1
 10
0.0
 20
0.0
 30
0.0
  3
*D11
  1

  0
LINE
  5
B9A4
330
B9A1
100
AcDbEntity
  8
AM_5
100
AcDbLine
 10
299.0966462274218
 20
188.437677106909
 30
0.0
 11
299.0966462274218
 21
166.437677106909
 31
0.0
  0
LINE
  5
B9A5
330
B9A1
100
AcDbEntity
  8
AM_5
100
AcDbLine
 10
317.0966462274218
 20
188.437677106909
 30
0.0
 11
317.0966462274218
 21
166.437677106909
 31
0.0
  0
LINE
  5
B9A6
330
B9A1
100
AcDbEntity
  8
AM_5
100
AcDbLine
 10
300.0966462274218
 20
167.437677106909
 30
0.0
 11
316.0966462274218
 21
167.437677106909
 31
0.0
  0
INSERT
  5
B9A7
330
B9A1
100
AcDbEntity
  8
AM_5
100
AcDbBlockReference
  2
_Dot
 10
299.0966462274218
 20
167.437677106909
 30
0.0
 50
180.0
  0
INSERT
  5
B9A8
330
B9A1
100
AcDbEntity
  8
AM_5
100
AcDbBlockReference
  2
_Dot
 10
317.0966462274218
 20
167.437677106909
 30
0.0
  0
MTEXT
  5
B9A9
330
B9A1
100
AcDbEntity
  8
AM_5
 62
     2
100
AcDbMText
 10
308.0966462274218
 20
170.537677106909
 30
0.0
 40
3.200000000000001
 41
0.0
 46
0.0
 71
     5
 72
     1
  1
H
 73
     1
 44
1.0
  0
POINT
  5
B9AA
330
B9A1
100
AcDbEntity
  8
Defpoints
 62
     0
100
AcDbPoint
 10
299.0966462274218
 20
189.437677106909
 30
0.0
  0
POINT
  5
B9AB
330
B9A1
100
AcDbEntity
  8
Defpoints
 62
     0
100
AcDbPoint
 10
317.0966462274218
 20
189.437677106909
 30
0.0
  0
POINT
  5
B9AC
330
B9A1
100
AcDbEntity
  8
Defpoints
 62
     0
100
AcDbPoint
 10
317.0966462274218
 20
167.437677106909
 30
0.0
  0
ENDBLK
  5
B9A3
330
B9A1
100
AcDbEntity
  8
0
100
AcDbBlockEnd
  0
BLOCK
  5
B9AE
330
B9AD
100
AcDbEntity
  8
0
100
AcDbBlockBegin
  2
*D12
 70
     1
 10
0.0
 20
0.0
 30
0.0
  3
*D12
  1

  0
LINE
  5
B9B0
330
B9AD
100
AcDbEntity
  8
AM_5
100
AcDbLine
 10
304.5966462274218
 20
189.937683106909
 30
0.0
 11
304.5966462274218
 21
176.4376771069091
 31
0.0
  0
LINE
  5
B9B1
330
B9AD
100
AcDbEntity
  8
AM_5
100
AcDbLine
 10
311.5966382274217
 20
189.937689106909
 30
0.0
 11
311.5966382274217
 21
176.4376771069091
 31
0.0
  0
LINE
  5
B9B2
330
B9AD
100
AcDbEntity
  8
AM_5
100
AcDbLine
 10
305.5966462274218
 20
177.4376771069091
 30
0.0
 11
310.5966382274218
 21
177.4376771069091
 31
0.0
  0
INSERT
  5
B9B3
330
B9AD
100
AcDbEntity
  8
AM_5
100
AcDbBlockReference
  2
_Dot
 10
304.5966462274218
 20
177.4376771069091
 30
0.0
 50
180.0
  0
INSERT
  5
B9B4
330
B9AD
100
AcDbEntity
  8
AM_5
100
AcDbBlockReference
  2
_Dot
 10
311.5966382274217
 20
177.4376771069091
 30
0.0
  0
MTEXT
  5
B9B5
330
B9AD
100
AcDbEntity
  8
AM_5
 62
     2
100
AcDbMText
 10
308.0966422274217
 20
180.5376771069091
 30
0.0
 40
3.200000000000001
 41
0.0
 46
0.0
 71
     5
 72
     1
  1
I
 73
     1
 44
1.0
  0
POINT
  5
B9B6
330
B9AD
100
AcDbEntity
  8
Defpoints
 62
     0
100
AcDbPoint
 10
304.5966462274218
 20
190.937683106909
 30
0.0
  0
POINT
  5
B9B7
330
B9AD
100
AcDbEntity
  8
Defpoints
 62
     0
100
AcDbPoint
 10
311.5966382274217
 20
190.937689106909
 30
0.0
  0
POINT
  5
B9B8
330
B9AD
100
AcDbEntity
  8
Defpoints
 62
     0
100
AcDbPoint
 10
311.5966382274217
 20
177.4376771069091
 30
0.0
  0
ENDBLK
  5
B9AF
330
B9AD
100
AcDbEntity
  8
0
100
AcDbBlockEnd
  0
BLOCK
  5
B9BA
330
B9B9
100
AcDbEntity
  8
0
100
AcDbBlockBegin
  2
*D13
 70
     1
 10
0.0
 20
0.0
 30
0.0
  3
*D13
  1

  0
LINE
  5
B9BC
330
B9B9
100
AcDbEntity
  8
AM_5
100
AcDbLine
 10
312.0966462274218
 20
198.3967876498241
 30
0.0
 11
311.0966462274218
 21
198.3967876498241
 31
0.0
  0
LINE
  5
B9BD
330
B9B9
100
AcDbEntity
  8
AM_5
100
AcDbLine
 10
318.0966462274218
 20
198.3967876498241
 30
0.0
 11
329.1422717351264
 21
198.3967876498241
 31
0.0
  0
LINE
  5
B9BE
330
B9B9
100
AcDbEntity
  8
AM_5
100
AcDbLine
 10
313.0966462274218
 20
198.3967876498241
 30
0.0
 11
317.0966462274218
 21
198.3967876498241
 31
0.0
  0
INSERT
  5
B9BF
330
B9B9
100
AcDbEntity
  8
AM_5
100
AcDbBlockReference
  2
_Dot
 10
313.0966462274218
 20
198.3967876498241
 30
0.0
  0
INSERT
  5
B9C0
330
B9B9
100
AcDbEntity
  8
AM_5
100
AcDbBlockReference
  2
_Dot
 10
317.0966462274218
 20
198.3967876498241
 30
0.0
 50
180.0
  0
MTEXT
  5
B9C1
330
B9B9
100
AcDbEntity
  8
AM_5
 62
     2
100
AcDbMText
 10
326.8956050684598
 20
201.4967876498241
 30
0.0
 40
3.200000000000001
 41
0.0
 46
0.0
 71
     5
 72
     1
  1
K
 73
     1
 44
1.0
  0
POINT
  5
B9C2
330
B9B9
100
AcDbEntity
  8
Defpoints
 62
     0
100
AcDbPoint
 10
313.0966462274218
 20
189.437677106909
 30
0.0
  0
POINT
  5
B9C3
330
B9B9
100
AcDbEntity
  8
Defpoints
 62
     0
100
AcDbPoint
 10
317.0966462274218
 20
189.437677106909
 30
0.0
  0
POINT
  5
B9C4
330
B9B9
100
AcDbEntity
  8
Defpoints
 62
     0
100
AcDbPoint
 10
317.0966462274218
 20
198.3967876498241
 30
0.0
  0
ENDBLK
  5
B9BB
330
B9B9
100
AcDbEntity
  8
0
100
AcDbBlockEnd
  0
BLOCK
  5
B9C6
330
B9C5
100
AcDbEntity
  8
0
100
AcDbBlockBegin
  2
*D14
 70
     1
 10
0.0
 20
0.0
 30
0.0
  3
*D14
  1

  0
LINE
  5
B9C8
330
B9C5
100
AcDbEntity
  8
AM_5
100
AcDbLine
 10
313.8037530086084
 20
240.1447858880956
 30
0.0
 11
320.3247506016757
 21
246.6657834811629
 31
0.0
  0
LINE
  5
B9C9
330
B9C5
100
AcDbEntity
  8
AM_5
100
AcDbLine
 10
302.3895309748318
 20
240.1447914166919
 30
0.0
 11
295.8685383677815
 21
246.6657753291085
 31
0.0
  0
ARC
  5
B9CA
330
B9C5
100
AcDbEntity
  8
AM_5
100
AcDbCircle
 10
308.0966485607531
 20
234.4376814402404
 30
0.0
 40
16.29314774835481
100
AcDbArc
 50
48.51710898011734
 51
131.4829292169924
  0
INSERT
  5
B9CB
330
B9C5
100
AcDbEntity
  8
AM_5
100
AcDbBlockReference
  2
_Dot
 10
319.6176438204891
 20
245.9586766999763
 30
0.0
 50
316.7585544900587
  0
INSERT
  5
B9CC
330
B9C5
100
AcDbEntity
  8
AM_5
100
AcDbBlockReference
  2
_Dot
 10
296.5756456203715
 20
245.9586690193257
 30
0.0
 50
223.2414837070512
  0
MTEXT
  5
B9CD
330
B9C5
100
AcDbEntity
  8
AM_5
 62
     2
100
AcDbMText
 10
308.0966431297147
 20
253.9808291885943
 30
0.0
 40
3.5
 41
0.0
 46
0.0
 71
     5
 72
     1
  1
90°
 73
     1
 44
1.0
  0
POINT
  5
B9CE
330
B9C5
100
AcDbEntity
  8
Defpoints
 62
     0
100
AcDbPoint
 10
303.8796646241697
 20
250.1756517677101
 30
0.0
  0
POINT
  5
B9CF
330
B9C5
100
AcDbEntity
  8
Defpoints
 62
     0
100
AcDbPoint
 10
303.0966382274217
 20
239.4376851069091
 30
0.0
  0
POINT
  5
B9D0
330
B9C5
100
AcDbEntity
  8
Defpoints
 62
     0
100
AcDbPoint
 10
313.0966462274218
 20
239.437679106909
 30
0.0
  0
POINT
  5
B9D1
330
B9C5
100
AcDbEntity
  8
Defpoints
 62
     0
100
AcDbPoint
 10
311.5966502274218
 20
237.9376831069091
 30
0.0
  0
POINT
  5
B9D2
330
B9C5
100
AcDbEntity
  8
Defpoints
 62
     0
100
AcDbPoint
 10
304.5966422274217
 20
237.9376831069091
 30
0.0
  0
ENDBLK
  5
B9C7
330
B9C5
100
AcDbEntity
  8
0
100
AcDbBlockEnd
  0
BLOCK
  5
B9D4
330
B9D3
100
AcDbEntity
  8
0
100
AcDbBlockBegin
  2
*D15
 70
     1
 10
0.0
 20
0.0
 30
0.0
  3
*D15
  1

  0
LINE
  5
B9D6
330
B9D3
100
AcDbEntity
  8
AM_5
100
AcDbLine
 10
152.7156981283226
 20
141.9121756228793
 30
0.0
 11
149.6875364301724
 21
147.0919668088111
 31
0.0
  0
LINE
  5
B9D7
330
B9D3
100
AcDbEntity
  8
AM_5
100
AcDbLine
 10
148.6781491974557
 20
148.8185638707883
 30
0.0
 11
137.2901379082473
 21
168.2982107262276
 31
0.0
  0
LINE
  5
B9D8
330
B9D3
100
AcDbEntity
  8
AM_5
100
AcDbLine
 10
137.2901379082473
 20
168.2982107262276
 30
0.0
 11
132.5234712415806
 21
168.2982107262276
 31
0.0
  0
INSERT
  5
B9D9
330
B9D3
100
AcDbEntity
  8
AM_5
100
AcDbBlockReference
  2
GENDOT
 10
153.7250853610394
 20
140.1855785609021
 30
0.0
 41
2.0
 42
2.0
 43
2.0
 50
300.3110160476444
  0
INSERT
  5
B9DA
330
B9D3
100
AcDbEntity
  8
AM_5
100
AcDbBlockReference
  2
GENDOT
 10
148.6781491974557
 20
148.8185638707883
 30
0.0
 41
2.0
 42
2.0
 43
2.0
 50
120.3110160476444
  0
MTEXT
  5
B9DB
330
B9D3
100
AcDbEntity
  8
AM_5
 62
     2
100
AcDbMText
 10
134.1568045749139
 20
171.5482107262276
 30
0.0
 40
3.5
 41
0.0
 46
0.0
 71
     5
 72
     1
  1
%%cJ
 73
     1
 44
1.0
  0
POINT
  5
B9DC
330
B9D3
100
AcDbEntity
  8
Defpoints
 62
     0
100
AcDbPoint
 10
148.6781491974557
 20
148.8185638707883
 30
0.0
  0
POINT
  5
B9DD
330
B9D3
100
AcDbEntity
  8
Defpoints
 62
     0
100
AcDbPoint
 10
153.7250853610394
 20
140.1855785609021
 30
0.0
  0
ENDBLK
  5
B9D5
330
B9D3
100
AcDbEntity
  8
0
100
AcDbBlockEnd
  0
BLOCK
  5
B9DF
330
B9DE
100
AcDbEntity
  8
0
100
AcDbBlockBegin
  2
*D16
 70
     1
 10
0.0
 20
0.0
 30
0.0
  3
*D16
  1

  0
LINE
  5
B9E1
330
B9DE
100
AcDbEntity
  8
AM_5
100
AcDbLine
 10
319.5966462274217
 20
243.4376770069091
 30
0.0
 11
341.5966472374218
 21
243.4376770069091
 31
0.0
  0
LINE
  5
B9E2
330
B9DE
100
AcDbEntity
  8
AM_5
100
AcDbLine
 10
312.5966462274217
 20
194.937677106909
 30
0.0
 11
341.5966472374218
 21
194.937677106909
 31
0.0
  0
LINE
  5
B9E3
330
B9DE
100
AcDbEntity
  8
AM_5
100
AcDbLine
 10
340.5966472374217
 20
242.4376770069091
 30
0.0
 11
340.5966472374217
 21
195.937677106909
 31
0.0
  0
INSERT
  5
B9E4
330
B9DE
100
AcDbEntity
  8
AM_5
100
AcDbBlockReference
  2
_Dot
 10
340.5966472374217
 20
243.4376770069091
 30
0.0
 50
90.0
  0
INSERT
  5
B9E5
330
B9DE
100
AcDbEntity
  8
AM_5
100
AcDbBlockReference
  2
_Dot
 10
340.5966472374217
 20
194.937677106909
 30
0.0
 50
270.0
  0
MTEXT
  5
B9E6
330
B9DE
100
AcDbEntity
  8
AM_5
 62
     2
100
AcDbMText
 10
337.4966472374217
 20
219.1876770569091
 30
0.0
 40
3.200000000000001
 41
0.0
 46
0.0
 71
     5
 72
     1
  1
E
 11
1.000000000000000E-16
 21
1.0
 31
0.0
 73
     1
 44
1.0
  0
POINT
  5
B9E7
330
B9DE
100
AcDbEntity
  8
Defpoints
 62
     0
100
AcDbPoint
 10
318.5966462274217
 20
243.4376770069091
 30
0.0
  0
POINT
  5
B9E8
330
B9DE
100
AcDbEntity
  8
Defpoints
 62
     0
100
AcDbPoint
 10
311.5966462274217
 20
194.937677106909
 30
0.0
  0
POINT
  5
B9E9
330
B9DE
100
AcDbEntity
  8
Defpoints
 62
     0
100
AcDbPoint
 10
340.5966472374217
 20
194.937677106909
 30
0.0
  0
ENDBLK
  5
B9E0
330
B9DE
100
AcDbEntity
  8
0
100
AcDbBlockEnd
  0
BLOCK
  5
B9EB
330
B9EA
100
AcDbEntity
  8
0
100
AcDbBlockBegin
  2
*D17
 70
     1
 10
0.0
 20
0.0
 30
0.0
  3
*D17
  1

  0
LINE
  5
B9ED
330
B9EA
100
AcDbEntity
  8
AM_5
100
AcDbLine
 10
319.5966462274217
 20
243.4376770069091
 30
0.0
 11
351.5966472374217
 21
243.4376770069091
 31
0.0
  0
LINE
  5
B9EE
330
B9EA
100
AcDbEntity
  8
AM_5
100
AcDbLine
 10
318.0966462274217
 20
189.437677106909
 30
0.0
 11
351.5966472374217
 21
189.437677106909
 31
0.0
  0
LINE
  5
B9EF
330
B9EA
100
AcDbEntity
  8
AM_5
100
AcDbLine
 10
350.5966472374217
 20
242.4376770069091
 30
0.0
 11
350.5966472374217
 21
190.437677106909
 31
0.0
  0
INSERT
  5
B9F0
330
B9EA
100
AcDbEntity
  8
AM_5
100
AcDbBlockReference
  2
_Dot
 10
350.5966472374217
 20
243.4376770069091
 30
0.0
 50
90.0
  0
INSERT
  5
B9F1
330
B9EA
100
AcDbEntity
  8
AM_5
100
AcDbBlockReference
  2
_Dot
 10
350.5966472374217
 20
189.437677106909
 30
0.0
 50
270.0
  0
MTEXT
  5
B9F2
330
B9EA
100
AcDbEntity
  8
AM_5
 62
     2
100
AcDbMText
 10
347.4966472374216
 20
216.4376770569091
 30
0.0
 40
3.200000000000001
 41
0.0
 46
0.0
 71
     5
 72
     1
  1
F
 11
1.000000000000000E-16
 21
1.0
 31
0.0
 73
     1
 44
1.0
  0
POINT
  5
B9F3
330
B9EA
100
AcDbEntity
  8
Defpoints
 62
     0
100
AcDbPoint
 10
318.5966462274217
 20
243.4376770069091
 30
0.0
  0
POINT
  5
B9F4
330
B9EA
100
AcDbEntity
  8
Defpoints
 62
     0
100
AcDbPoint
 10
317.0966462274217
 20
189.437677106909
 30
0.0
  0
POINT
  5
B9F5
330
B9EA
100
AcDbEntity
  8
Defpoints
 62
     0
100
AcDbPoint
 10
350.5966472374217
 20
189.437677106909
 30
0.0
  0
ENDBLK
  5
B9EC
330
B9EA
100
AcDbEntity
  8
0
100
AcDbBlockEnd
  0
BLOCK
  5
B9F7
330
B9F6
100
AcDbEntity
  8
0
100
AcDbBlockBegin
  2
*D18
 70
     1
 10
0.0
 20
0.0
 30
0.0
  3
*D18
  1

  0
LINE
  5
B9F9
330
B9F6
100
AcDbEntity
  8
AM_5
100
AcDbLine
 10
321.0966462274218
 20
241.9376770069091
 30
0.0
 11
321.0966462274218
 21
262.4376770069091
 31
0.0
  0
LINE
  5
B9FA
330
B9F6
100
AcDbEntity
  8
AM_5
100
AcDbLine
 10
295.0966462274218
 20
241.9376770069091
 30
0.0
 11
295.0966462274218
 21
262.4376770069091
 31
0.0
  0
LINE
  5
B9FB
330
B9F6
100
AcDbEntity
  8
AM_5
100
AcDbLine
 10
320.0966462274217
 20
261.4376770069091
 30
0.0
 11
296.0966462274218
 21
261.4376770069091
 31
0.0
  0
INSERT
  5
B9FC
330
B9F6
100
AcDbEntity
  8
AM_5
100
AcDbBlockReference
  2
_Dot
 10
321.0966462274218
 20
261.4376770069091
 30
0.0
  0
INSERT
  5
B9FD
330
B9F6
100
AcDbEntity
  8
AM_5
100
AcDbBlockReference
  2
_Dot
 10
295.0966462274218
 20
261.4376770069091
 30
0.0
 50
180.0
  0
MTEXT
  5
B9FE
330
B9F6
100
AcDbEntity
  8
AM_5
 62
     2
100
AcDbMText
 10
308.0966462274217
 20
264.5376770069091
 30
0.0
 40
3.200000000000001
 41
0.0
 46
0.0
 71
     5
 72
     1
  1
G
 73
     1
 44
1.0
  0
POINT
  5
B9FF
330
B9F6
100
AcDbEntity
  8
Defpoints
 62
     0
100
AcDbPoint
 10
321.0966462274218
 20
240.9376770069091
 30
0.0
  0
POINT
  5
BA00
330
B9F6
100
AcDbEntity
  8
Defpoints
 62
     0
100
AcDbPoint
 10
295.0966462274218
 20
240.9376770069091
 30
0.0
  0
POINT
  5
BA01
330
B9F6
100
AcDbEntity
  8
Defpoints
 62
     0
100
AcDbPoint
 10
295.0966462274218
 20
261.4376770069091
 30
0.0
  0
ENDBLK
  5
B9F8
330
B9F6
100
AcDbEntity
  8
0
100
AcDbBlockEnd
  0
BLOCK
  5
BA03
330
BA02
100
AcDbEntity
  8
0
100
AcDbBlockBegin
  2
*D19
 70
     1
 10
0.0
 20
0.0
 30
0.0
  3
*D19
  1

  0
LINE
  5
BA05
330
BA02
100
AcDbEntity
  8
AM_5
100
AcDbLine
 10
303.5966462274218
 20
233.937677106909
 30
0.0
 11
277.5966452274218
 21
233.937677106909
 31
0.0
  0
LINE
  5
BA06
330
BA02
100
AcDbEntity
  8
AM_5
100
AcDbLine
 10
303.5966462274218
 20
194.937677106909
 30
0.0
 11
277.5966452274218
 21
194.937677106909
 31
0.0
  0
LINE
  5
BA07
330
BA02
100
AcDbEntity
  8
AM_5
100
AcDbLine
 10
278.5966452274218
 20
232.9376771069091
 30
0.0
 11
278.5966452274218
 21
195.937677106909
 31
0.0
  0
INSERT
  5
BA08
330
BA02
100
AcDbEntity
  8
AM_5
100
AcDbBlockReference
  2
_Dot
 10
278.5966452274218
 20
233.937677106909
 30
0.0
 50
90.0
  0
INSERT
  5
BA09
330
BA02
100
AcDbEntity
  8
AM_5
100
AcDbBlockReference
  2
_Dot
 10
278.5966452274218
 20
194.937677106909
 30
0.0
 50
270.0
  0
MTEXT
  5
BA0A
330
BA02
100
AcDbEntity
  8
AM_5
 62
     2
100
AcDbMText
 10
275.4966452274217
 20
214.4376771069091
 30
0.0
 40
3.200000000000001
 41
0.0
 46
0.0
 71
     5
 72
     1
  1
%%cC
 11
1.000000000000000E-16
 21
1.0
 31
0.0
 73
     1
 44
1.0
  0
POINT
  5
BA0B
330
BA02
100
AcDbEntity
  8
Defpoints
 62
     0
100
AcDbPoint
 10
304.5966462274218
 20
233.937677106909
 30
0.0
  0
POINT
  5
BA0C
330
BA02
100
AcDbEntity
  8
Defpoints
 62
     0
100
AcDbPoint
 10
304.5966462274218
 20
194.937677106909
 30
0.0
  0
POINT
  5
BA0D
330
BA02
100
AcDbEntity
  8
Defpoints
 62
     0
100
AcDbPoint
 10
278.5966452274218
 20
194.937677106909
 30
0.0
  0
ENDBLK
  5
BA04
330
BA02
100
AcDbEntity
  8
0
100
AcDbBlockEnd
  0
BLOCK
  5
BA0F
330
BA0E
100
AcDbEntity
  8
0
100
AcDbBlockBegin
  2
*D20
 70
     1
 10
0.0
 20
0.0
 30
0.0
  3
*D20
  1

  0
LINE
  5
BA11
330
BA0E
100
AcDbEntity
  8
AM_5
100
AcDbLine
 10
298.0966462274218
 20
239.4376771069091
 30
0.0
 11
267.5966452274218
 21
239.4376771069091
 31
0.0
  0
LINE
  5
BA12
330
BA0E
100
AcDbEntity
  8
AM_5
100
AcDbLine
 10
298.0966462274218
 20
189.437677106909
 30
0.0
 11
267.5966452274218
 21
189.437677106909
 31
0.0
  0
LINE
  5
BA13
330
BA0E
100
AcDbEntity
  8
AM_5
100
AcDbLine
 10
268.5966452274218
 20
238.4376771069091
 30
0.0
 11
268.5966452274218
 21
190.437677106909
 31
0.0
  0
INSERT
  5
BA14
330
BA0E
100
AcDbEntity
  8
AM_5
100
AcDbBlockReference
  2
_Dot
 10
268.5966452274218
 20
239.4376771069091
 30
0.0
 50
90.0
  0
INSERT
  5
BA15
330
BA0E
100
AcDbEntity
  8
AM_5
100
AcDbBlockReference
  2
_Dot
 10
268.5966452274218
 20
189.437677106909
 30
0.0
 50
270.0
  0
MTEXT
  5
BA16
330
BA0E
100
AcDbEntity
  8
AM_5
 62
     2
100
AcDbMText
 10
265.4966452274217
 20
214.4376771069091
 30
0.0
 40
3.200000000000001
 41
0.0
 46
0.0
 71
     5
 72
     1
  1
%%cD
 11
1.000000000000000E-16
 21
1.0
 31
0.0
 73
     1
 44
1.0
  0
POINT
  5
BA17
330
BA0E
100
AcDbEntity
  8
Defpoints
 62
     0
100
AcDbPoint
 10
299.0966462274218
 20
239.4376771069091
 30
0.0
  0
POINT
  5
BA18
330
BA0E
100
AcDbEntity
  8
Defpoints
 62
     0
100
AcDbPoint
 10
299.0966462274218
 20
189.437677106909
 30
0.0
  0
POINT
  5
BA19
330
BA0E
100
AcDbEntity
  8
Defpoints
 62
     0
100
AcDbPoint
 10
268.5966452274218
 20
189.437677106909
 30
0.0
  0
ENDBLK
  5
BA10
330
BA0E
100
AcDbEntity
  8
0
100
AcDbBlockEnd
  0
BLOCK
  5
BA1B
330
BA1A
100
AcDbEntity
  8
0
100
AcDbBlockBegin
  2
*D21
 70
     1
 10
0.0
 20
0.0
 30
0.0
  3
*D21
  1

  0
LINE
  5
BA1D
330
BA1A
100
AcDbEntity
  8
AM_5
100
AcDbLine
 10
187.9516112824256
 20
163.0020712158453
 30
0.0
 11
126.7016162792476
 21
163.0020712158453
 31
0.0
  0
LINE
  5
BA1E
330
BA1A
100
AcDbEntity
  8
AM_5
100
AcDbLine
 10
189.7016111792476
 20
122.0020752158453
 30
0.0
 11
126.7016162792476
 21
122.0020752158453
 31
0.0
  0
LINE
  5
BA1F
330
BA1A
100
AcDbEntity
  8
AM_5
100
AcDbLine
 10
127.7016162792476
 20
162.0020712158453
 30
0.0
 11
127.7016162792476
 21
123.0020752158453
 31
0.0
  0
INSERT
  5
BA20
330
BA1A
100
AcDbEntity
  8
AM_5
100
AcDbBlockReference
  2
_Dot
 10
127.7016162792476
 20
163.0020712158453
 30
0.0
 50
90.0
  0
INSERT
  5
BA21
330
BA1A
100
AcDbEntity
  8
AM_5
100
AcDbBlockReference
  2
_Dot
 10
127.7016162792476
 20
122.0020752158453
 30
0.0
 50
270.0
  0
MTEXT
  5
BA22
330
BA1A
100
AcDbEntity
  8
AM_5
 62
     2
100
AcDbMText
 10
124.6016162792476
 20
142.5020732158453
 30
0.0
 40
3.200000000000001
 41
0.0
 46
0.0
 71
     5
 72
     1
  1
L
 11
1.000000000000000E-16
 21
1.0
 31
0.0
 73
     1
 44
1.0
  0
POINT
  5
BA23
330
BA1A
100
AcDbEntity
  8
Defpoints
 62
     0
100
AcDbPoint
 10
188.9516112824256
 20
163.0020712158453
 30
0.0
  0
POINT
  5
BA24
330
BA1A
100
AcDbEntity
  8
Defpoints
 62
     0
100
AcDbPoint
 10
190.7016111792476
 20
122.0020752158453
 30
0.0
  0
POINT
  5
BA25
330
BA1A
100
AcDbEntity
  8
Defpoints
 62
     0
100
AcDbPoint
 10
127.7016162792476
 20
122.0020752158453
 30
0.0
  0
ENDBLK
  5
BA1C
330
BA1A
100
AcDbEntity
  8
0
100
AcDbBlockEnd
  0
BLOCK
  5
BB6E
330
BB6D
100
AcDbEntity
  8
AM_0
100
AcDbBlockBegin
  2
_ACMOPEN30
 70
     0
 10
0.0
 20
0.0
 30
0.0
  3
_ACMOPEN30
  1
Acad:XRef
  0
LINE
  5
BB70
330
BB6D
100
AcDbEntity
  8
AM_0
 62
     0
100
AcDbLine
 10
-1.0
 20
0.0
 30
0.0
 11
0.0
 21
0.0
 31
0.0
  0
LINE
  5
BB71
330
BB6D
100
AcDbEntity
  8
AM_0
 62
     0
100
AcDbLine
 10
-1.0
 20
-0.2679491924311227
 30
0.0
 11
0.0
 21
0.0
 31
0.0
  0
LINE
  5
BB72
330
BB6D
100
AcDbEntity
  8
AM_0
 62
     0
100
AcDbLine
 10
-1.0
 20
0.2679491924311227
 30
0.0
 11
0.0
 21
0.0
 31
0.0
  0
ENDBLK
  5
BB6F
330
BB6D
100
AcDbEntity
  8
AM_0
100
AcDbBlockEnd
  0
ENDSEC
  0
SECTION
  2
ENTITIES
  0
LINE
  5
B822
330
1F
100
AcDbEntity
  8
size
100
AcDbLine
 10
-0.0000004340002988
 20
0.0000002269418928
 30
0.0
 11
419.9999995659997
 21
0.0000002269418928
 31
0.0
1001
GENIUS_GENREC_14
1002
{
1000
PYDIR
1011
-0.000000434000281
1021
297.0000002269419
1031
0.0
1002
}
1002
{
1000
PXDIR
1011
419.9999995659997
1021
0.0000002269418928
1031
0.0
1002
}
1002
{
1000
PORI
1011
-0.0000004340002988
1021
0.0000002269418928
1031
0.0
1002
}
1002
{
1000
PINS
1011
209.9999995659997
1021
148.5000002269418
1031
0.0
1002
}
1002
{
1000
HVAL
1000
297
1002
}
1002
{
1000
H
1070
     2
1002
}
1002
{
1000
WVAL
1000
420
1002
}
1002
{
1000
W
1070
     2
1002
}
1002
{
1000
C
1070
     4
1002
}
1001
GENIUS_GENOBJ-N-REC_13
1002
{
1000
OWNER
1000
GEN
1002
}
1001
GENIUS_GENODEF_13
1002
{
1000
HIER
1070
     0
1002
}
1002
{
1000
MANEDIT
1070
     0
1002
}
1002
{
1000
NOSEL
1070
     0
1002
}
1002
{
1000
BEHIND
1070
     0
1002
}
1002
{
1000
OTHER
1070
     0
1002
}
1002
{
1000
REACTOR
1002
}
  0
LINE
  5
B823
330
1F
100
AcDbEntity
  8
size
100
AcDbLine
 10
419.9999995659997
 20
0.0000002269418928
 30
0.0
 11
419.9999995659997
 21
297.0000002269419
 31
0.0
1001
GENIUS_GENREC_14
1002
{
1000
PYDIR
1011
-0.000000434000281
1021
297.0000002269419
1031
0.0
1002
}
1002
{
1000
PXDIR
1011
419.9999995659997
1021
0.0000002269418928
1031
0.0
1002
}
1002
{
1000
PORI
1011
-0.0000004340002988
1021
0.0000002269418928
1031
0.0
1002
}
1002
{
1000
PINS
1011
209.9999995659997
1021
148.5000002269418
1031
0.0
1002
}
1002
{
1000
HVAL
1000
297
1002
}
1002
{
1000
H
1070
     2
1002
}
1002
{
1000
WVAL
1000
420
1002
}
1002
{
1000
W
1070
     2
1002
}
1002
{
1000
C
1070
     4
1002
}
1001
GENIUS_GENOBJ-N-REC_13
1002
{
1000
OWNER
1000
GEN
1002
}
1001
GENIUS_GENODEF_13
1002
{
1000
HIER
1070
     0
1002
}
1002
{
1000
MANEDIT
1070
     0
1002
}
1002
{
1000
NOSEL
1070
     0
1002
}
1002
{
1000
BEHIND
1070
     0
1002
}
1002
{
1000
OTHER
1070
     0
1002
}
1002
{
1000
REACTOR
1002
}
  0
LINE
  5
B824
330
1F
100
AcDbEntity
  8
size
100
AcDbLine
 10
419.9999995659997
 20
297.0000002269419
 30
0.0
 11
-0.0000004340002713
 21
297.0000002269419
 31
0.0
1001
GENIUS_GENREC_14
1002
{
1000
PYDIR
1011
-0.000000434000281
1021
297.0000002269419
1031
0.0
1002
}
1002
{
1000
PXDIR
1011
419.9999995659997
1021
0.0000002269418928
1031
0.0
1002
}
1002
{
1000
PORI
1011
-0.0000004340002988
1021
0.0000002269418928
1031
0.0
1002
}
1002
{
1000
PINS
1011
209.9999995659997
1021
148.5000002269418
1031
0.0
1002
}
1002
{
1000
HVAL
1000
297
1002
}
1002
{
1000
H
1070
     2
1002
}
1002
{
1000
WVAL
1000
420
1002
}
1002
{
1000
W
1070
     2
1002
}
1002
{
1000
C
1070
     4
1002
}
1001
GENIUS_GENOBJ-N-REC_13
1002
{
1000
OWNER
1000
GEN
1002
}
1001
GENIUS_GENODEF_13
1002
{
1000
HIER
1070
     0
1002
}
1002
{
1000
MANEDIT
1070
     0
1002
}
1002
{
1000
NOSEL
1070
     0
1002
}
1002
{
1000
BEHIND
1070
     0
1002
}
1002
{
1000
OTHER
1070
     0
1002
}
1002
{
1000
REACTOR
1002
}
  0
LINE
  5
B825
330
1F
100
AcDbEntity
  8
size
100
AcDbLine
 10
-0.0000004340002713
 20
297.0000002269419
 30
0.0
 11
-0.0000004340002988
 21
0.0000002269418928
 31
0.0
1001
GENIUS_GENREC_14
1002
{
1000
PYDIR
1011
-0.000000434000281
1021
297.0000002269419
1031
0.0
1002
}
1002
{
1000
PXDIR
1011
419.9999995659997
1021
0.0000002269418928
1031
0.0
1002
}
1002
{
1000
PORI
1011
-0.0000004340002988
1021
0.0000002269418928
1031
0.0
1002
}
1002
{
1000
PINS
1011
209.9999995659997
1021
148.5000002269418
1031
0.0
1002
}
1002
{
1000
HVAL
1000
297
1002
}
1002
{
1000
H
1070
     2
1002
}
1002
{
1000
WVAL
1000
420
1002
}
1002
{
1000
W
1070
     2
1002
}
1002
{
1000
C
1070
     4
1002
}
1001
GENIUS_GENOBJ-N-REC_13
1002
{
1000
OWNER
1000
GEN
1002
}
1001
GENIUS_GENODEF_13
1002
{
1000
HIER
1070
     0
1002
}
1002
{
1000
MANEDIT
1070
     0
1002
}
1002
{
1000
NOSEL
1070
     0
1002
}
1002
{
1000
BEHIND
1070
     0
1002
}
1002
{
1000
OTHER
1070
     0
1002
}
1002
{
1000
REACTOR
1002
}
  0
LINE
  5
B826
330
1F
100
AcDbEntity
  8
waku
100
AcDbLine
 10
408.4999995659996
 20
8.500000226941893
 30
0.0
 11
408.4999995659996
 21
288.5000002269419
 31
0.0
1001
GENIUS_GENREC_14
1002
{
1000
PYDIR
1011
-0.000000434000281
1021
297.0000002269419
1031
0.0
1002
}
1002
{
1000
PXDIR
1011
419.9999995659997
1021
0.0000002269418928
1031
0.0
1002
}
1002
{
1000
PORI
1011
-0.0000004340002988
1021
0.0000002269418928
1031
0.0
1002
}
1002
{
1000
PINS
1011
209.9999995659997
1021
148.5000002269418
1031
0.0
1002
}
1002
{
1000
HVAL
1000
297
1002
}
1002
{
1000
H
1070
     2
1002
}
1002
{
1000
WVAL
1000
420
1002
}
1002
{
1000
W
1070
     2
1002
}
1002
{
1000
C
1070
     4
1002
}
1001
GENIUS_GENOBJ-N-REC_13
1002
{
1000
OWNER
1000
GEN
1002
}
1001
GENIUS_GENODEF_13
1002
{
1000
HIER
1070
     0
1002
}
1002
{
1000
MANEDIT
1070
     0
1002
}
1002
{
1000
NOSEL
1070
     0
1002
}
1002
{
1000
BEHIND
1070
     0
1002
}
1002
{
1000
OTHER
1070
     0
1002
}
1002
{
1000
REACTOR
1002
}
  0
LINE
  5
B827
330
1F
100
AcDbEntity
  8
waku
100
AcDbLine
 10
11.49999956599972
 20
288.5000002269419
 30
0.0
 11
11.4999995659997
 21
8.500000226941893
 31
0.0
1001
GENIUS_GENREC_14
1002
{
1000
PYDIR
1011
-0.000000434000281
1021
297.0000002269419
1031
0.0
1002
}
1002
{
1000
PXDIR
1011
419.9999995659997
1021
0.0000002269418928
1031
0.0
1002
}
1002
{
1000
PORI
1011
-0.0000004340002988
1021
0.0000002269418928
1031
0.0
1002
}
1002
{
1000
PINS
1011
209.9999995659997
1021
148.5000002269418
1031
0.0
1002
}
1002
{
1000
HVAL
1000
297
1002
}
1002
{
1000
H
1070
     2
1002
}
1002
{
1000
WVAL
1000
420
1002
}
1002
{
1000
W
1070
     2
1002
}
1002
{
1000
C
1070
     4
1002
}
1001
GENIUS_GENOBJ-N-REC_13
1002
{
1000
OWNER
1000
GEN
1002
}
1001
GENIUS_GENODEF_13
1002
{
1000
HIER
1070
     0
1002
}
1002
{
1000
MANEDIT
1070
     0
1002
}
1002
{
1000
NOSEL
1070
     0
1002
}
1002
{
1000
BEHIND
1070
     0
1002
}
1002
{
1000
OTHER
1070
     0
1002
}
1002
{
1000
REACTOR
1002
}
  0
LINE
  5
B828
330
1F
100
AcDbEntity
  8
waku
100
AcDbLine
 10
408.4999995659996
 20
288.5000002269419
 30
0.0
 11
11.49999956599972
 21
288.5000002269419
 31
0.0
1001
GENIUS_GENREC_14
1002
{
1000
PYDIR
1011
-0.000000434000281
1021
297.0000002269419
1031
0.0
1002
}
1002
{
1000
PXDIR
1011
419.9999995659997
1021
0.0000002269418928
1031
0.0
1002
}
1002
{
1000
PORI
1011
-0.0000004340002988
1021
0.0000002269418928
1031
0.0
1002
}
1002
{
1000
PINS
1011
209.9999995659997
1021
148.5000002269418
1031
0.0
1002
}
1002
{
1000
HVAL
1000
297
1002
}
1002
{
1000
H
1070
     2
1002
}
1002
{
1000
WVAL
1000
420
1002
}
1002
{
1000
W
1070
     2
1002
}
1002
{
1000
C
1070
     4
1002
}
1001
GENIUS_GENOBJ-N-REC_13
1002
{
1000
OWNER
1000
GEN
1002
}
1001
GENIUS_GENODEF_13
1002
{
1000
HIER
1070
     0
1002
}
1002
{
1000
MANEDIT
1070
     0
1002
}
1002
{
1000
NOSEL
1070
     0
1002
}
1002
{
1000
BEHIND
1070
     0
1002
}
1002
{
1000
OTHER
1070
     0
1002
}
1002
{
1000
REACTOR
1002
}
  0
LINE
  5
B829
330
1F
100
AcDbEntity
  8
waku
100
AcDbLine
 10
11.4999995659997
 20
8.500000226941893
 30
0.0
 11
408.4999995659996
 21
8.500000226941893
 31
0.0
  0
INSERT
  5
B82A
330
1F
100
AcDbEntity
  8
AM_0
100
AcDbBlockReference
  2
SYS図枠A3(AIS2008)
 10
-0.0000004340002988
 20
0.0000002269418928
 30
0.0
 41
0.001
 42
0.001
 43
0.001
  0
LINE
  5
B82B
330
1F
100
AcDbEntity
  8
AM_0
100
AcDbLine
 10
11.4999995659997
 20
288.5000002269419
 30
0.0
 11
101.4999795659996
 21
288.5000002269419
 31
0.0
  0
LINE
  5
B82C
330
1F
100
AcDbEntity
  8
AM_0
100
AcDbLine
 10
11.4999995659997
 20
288.5000002269419
 30
0.0
 11
11.4999995659997
 21
232.5000002269419
 31
0.0
  0
LINE
  5
B82D
330
1F
100
AcDbEntity
  8
AM_2
100
AcDbLine
 10
31.49999956599979
 20
288.5000002269419
 30
0.0
 11
31.49999956599979
 21
232.5000002269419
 31
0.0
  0
LINE
  5
B82E
330
1F
100
AcDbEntity
  8
AM_2
100
AcDbLine
 10
11.4999995659997
 20
280.5000002269419
 30
0.0
 11
101.4999795659996
 21
280.5000002269419
 31
0.0
  0
LINE
  5
B82F
330
1F
100
AcDbEntity
  8
AM_2
100
AcDbLine
 10
11.4999995659997
 20
272.5000002269418
 30
0.0
 11
101.4999795659996
 21
272.5000002269418
 31
0.0
  0
LINE
  5
B830
330
1F
100
AcDbEntity
  8
AM_2
100
AcDbLine
 10
11.4999995659997
 20
264.5000002269418
 30
0.0
 11
101.4999795659996
 21
264.5000002269418
 31
0.0
  0
LINE
  5
B831
330
1F
100
AcDbEntity
  8
AM_2
100
AcDbLine
 10
11.4999995659997
 20
240.5000002269418
 30
0.0
 11
101.4999795659996
 21
240.5000002269418
 31
0.0
  0
LINE
  5
B832
330
1F
100
AcDbEntity
  8
AM_0
100
AcDbLine
 10
11.4999995659997
 20
288.5000002269419
 30
0.0
 11
11.4999995659997
 21
232.5000002269419
 31
0.0
  0
LINE
  5
B833
330
1F
100
AcDbEntity
  8
AM_0
100
AcDbLine
 10
11.4999995659997
 20
288.5000002269419
 30
0.0
 11
101.4999795659996
 21
288.5000002269419
 31
0.0
  0
LINE
  5
B834
330
1F
100
AcDbEntity
  8
AM_0
100
AcDbLine
 10
101.4999795659996
 20
288.5000002269419
 30
0.0
 11
101.4999795659996
 21
232.5000002269419
 31
0.0
  0
LINE
  5
B835
330
1F
100
AcDbEntity
  8
AM_2
100
AcDbLine
 10
11.4999995659997
 20
256.5000002269418
 30
0.0
 11
101.4999795659996
 21
256.5000002269418
 31
0.0
  0
LINE
  5
B836
330
1F
100
AcDbEntity
  8
AM_2
100
AcDbLine
 10
11.4999995659997
 20
248.5000002269418
 30
0.0
 11
101.4999795659996
 21
248.5000002269418
 31
0.0
  0
LINE
  5
B837
330
1F
100
AcDbEntity
  8
AM_2
100
AcDbLine
 10
31.49999956599979
 20
240.5000002269418
 30
0.0
 11
101.4999795659996
 21
240.5000002269418
 31
0.0
  0
LINE
  5
B838
330
1F
100
AcDbEntity
  8
AM_0
100
AcDbLine
 10
11.4999995659997
 20
232.5000002269419
 30
0.0
 11
101.4999795659996
 21
232.5000002269419
 31
0.0
  0
TEXT
  5
B839
330
1F
100
AcDbEntity
  8
AM_6
100
AcDbText
 10
18.49657174854474
 20
283.1368052815512
 30
0.0
 40
3.2
  1
品　名
 41
0.60999997
100
AcDbText
  0
TEXT
  5
B83A
330
1F
100
AcDbEntity
  8
AM_6
100
AcDbText
 10
18.49657174854474
 20
275.1368052815513
 30
0.0
 40
3.2
  1
品　番
 41
0.60999997
100
AcDbText
  0
TEXT
  5
B83B
330
1F
100
AcDbEntity
  8
AM_6
100
AcDbText
 10
18.49657174854474
 20
267.1368052815513
 30
0.0
 40
3.2
  1
材　質
 41
0.60999997
100
AcDbText
  0
TEXT
  5
B83C
330
1F
100
AcDbEntity
  8
AM_6
100
AcDbText
 10
18.49657174854474
 20
259.1368052815513
 30
0.0
 40
3.2
  1
仕上げ
 41
0.60999997
100
AcDbText
  0
TEXT
  5
B83D
330
1F
100
AcDbEntity
  8
AM_6
100
AcDbText
 10
15.29657174854475
 20
243.1368052815514
 30
0.0
 40
3.2
  1
セットビス
 41
0.60999999
100
AcDbText
  0
TEXT
  5
B83E
330
1F
100
AcDbEntity
  8
AM_6
100
AcDbText
 10
20.09658174854473
 20
235.1368052815513
 30
0.0
 40
3.2
  1
備考
 41
0.61
100
AcDbText
  0
TEXT
  5
B83F
330
1F
100
AcDbEntity
  8
AM_6
100
AcDbText
 10
16.89657174854474
 20
251.1368052815513
 30
0.0
 40
3.2
  1
左右勝手
 41
0.60999998
100
AcDbText
  0
TEXT
  5
B840
330
1F
100
AcDbEntity
  8
AM_6
100
AcDbText
 10
34.9284995659998
 20
282.8999702269418
 30
0.0
 40
3.2
  1
重量用戸車（VH型兼用）
 41
0.74054621
100
AcDbText
  0
TEXT
  5
B841
330
1F
100
AcDbEntity
  8
AM_6
100
AcDbText
 10
34.9284995659998
 20
274.8999702269419
 30
0.0
 40
3.2
  1
ST-161
 41
0.8068965099999998
100
AcDbText
  0
TEXT
  5
B842
330
1F
100
AcDbEntity
  8
AM_6
100
AcDbText
 10
34.9284995659998
 20
266.8999702269418
 30
0.0
 40
3.2
  1
枠：スチール　車：スチール
 41
0.7499999600000002
100
AcDbText
  0
TEXT
  5
B843
330
1F
100
AcDbEntity
  8
AM_6
100
AcDbText
 10
34.92848956599968
 20
258.8999702269418
 30
0.0
 40
3.2
  1
枠：三価クロメート　車：黒塗装
 41
0.75000001
100
AcDbText
  0
TEXT
  5
B844
330
1F
100
AcDbEntity
  8
AM_6
100
AcDbText
 10
34.92848956599968
 20
250.8999702269418
 30
0.0
 40
3.2
  1
無し
 41
0.74999999
100
AcDbText
  0
TEXT
  5
B845
330
1F
100
AcDbEntity
  8
AM_6
100
AcDbText
 10
34.92848956599968
 20
234.8999702269418
 30
0.0
 40
3.2
  1
※軸受：ボールベアリング
 41
0.74999997
100
AcDbText
  0
TEXT
  5
B846
330
1F
100
AcDbEntity
  8
AM_6
100
AcDbText
 10
34.92848956599968
 20
242.8999702269418
 30
0.0
 40
3.2
  1
無し
 41
0.74999999
100
AcDbText
  0
LINE
  5
B847
330
1F
100
AcDbEntity
  8
AM_7
 48
1.199999999999999
100
AcDbLine
 10
194.7016111792476
 20
246.4376770069091
 30
0.0
 11
194.7016111792476
 21
186.4376770069091
 31
0.0
  0
LINE
  5
B848
330
1F
100
AcDbEntity
  8
AM_0
100
AcDbLine
 10
139.7016172792477
 20
243.4376770069091
 30
0.0
 11
249.7016102792477
 21
243.4376770069091
 31
0.0
  0
LINE
  5
B849
330
1F
100
AcDbEntity
  8
AM_0
100
AcDbLine
 10
176.5827452792476
 20
202.4376770069091
 30
0.0
 11
212.8204932792476
 21
202.4376770069091
 31
0.0
  0
LINE
  5
B84A
330
1F
100
AcDbEntity
  8
AM_7
100
AcDbLine
 10
164.7016192792476
 20
214.4376770069091
 30
0.0
 11
224.7016102792477
 21
214.4376770069091
 31
0.0
  0
LINE
  5
B84B
330
1F
100
AcDbEntity
  8
AM_0
100
AcDbLine
 10
249.7016102792477
 20
243.4376770069091
 30
0.0
 11
249.7016102792477
 21
236.4376770069091
 31
0.0
  0
LINE
  5
B84C
330
1F
100
AcDbEntity
  8
AM_0
100
AcDbLine
 10
139.7016172792477
 20
243.4376770069091
 30
0.0
 11
139.7016172792477
 21
236.4376770069091
 31
0.0
  0
LINE
  5
B84D
330
1F
100
AcDbEntity
  8
AM_0
100
AcDbLine
 10
142.7016172792477
 20
233.4376770069091
 30
0.0
 11
157.8204932792476
 21
233.4376770069091
 31
0.0
  0
LINE
  5
B84E
330
1F
100
AcDbEntity
  8
AM_0
100
AcDbLine
 10
160.5209612792476
 20
231.7443670069091
 30
0.0
 11
173.8822672792476
 21
204.1310070069091
 31
0.0
  0
LINE
  5
B84F
330
1F
100
AcDbEntity
  8
AM_0
100
AcDbLine
 10
228.8822702792476
 20
231.7443670069091
 30
0.0
 11
215.5209652792477
 21
204.1310070069091
 31
0.0
  0
LINE
  5
B850
330
1F
100
AcDbEntity
  8
AM_0
100
AcDbLine
 10
231.5827442792476
 20
233.4376770069091
 30
0.0
 11
246.7016102792477
 21
233.4376770069091
 31
0.0
  0
LINE
  5
B851
330
1F
100
AcDbEntity
  8
AM_0
100
AcDbLine
 10
194.7016088792476
 20
221.9376970069091
 30
0.0
 11
188.2064184792476
 21
218.1876970069091
 31
0.0
  0
LINE
  5
B852
330
1F
100
AcDbEntity
  8
AM_0
100
AcDbLine
 10
188.2064329792476
 20
218.1876770069091
 30
0.0
 11
188.2064329792476
 21
210.6876770069091
 31
0.0
  0
LINE
  5
B853
330
1F
100
AcDbEntity
  8
AM_0
100
AcDbLine
 10
188.2064345792476
 20
210.6876970069091
 30
0.0
 11
194.7016250792476
 21
206.9376970069091
 31
0.0
  0
LINE
  5
B854
330
1F
100
AcDbEntity
  8
AM_0
100
AcDbLine
 10
194.7016207792476
 20
206.9376970069091
 30
0.0
 11
201.1968112792476
 21
210.6876970069091
 31
0.0
  0
LINE
  5
B855
330
1F
100
AcDbEntity
  8
AM_0
100
AcDbLine
 10
201.1968052792477
 20
210.6876770069091
 30
0.0
 11
201.1968052792477
 21
218.1876770069091
 31
0.0
  0
LINE
  5
B856
330
1F
100
AcDbEntity
  8
AM_0
100
AcDbLine
 10
201.1968052792477
 20
218.1876970069091
 30
0.0
 11
194.7016150792476
 21
221.9376870069091
 31
0.0
  0
LINE
  5
B857
330
1F
100
AcDbEntity
  8
AM_0
100
AcDbLine
 10
139.7016172792477
 20
157.5020712158453
 30
0.0
 11
249.7016102792477
 21
157.5020712158453
 31
0.0
  0
LINE
  5
B858
330
1F
100
AcDbEntity
  8
AM_0
100
AcDbLine
 10
139.7016172792477
 20
131.5020712158453
 30
0.0
 11
249.7016102792477
 21
131.5020712158453
 31
0.0
  0
LINE
  5
B859
330
1F
100
AcDbEntity
  8
AM_0
100
AcDbLine
 10
139.7016172792477
 20
157.5020712158453
 30
0.0
 11
139.7016172792477
 21
131.5020712158453
 31
0.0
  0
LINE
  5
B85A
330
1F
100
AcDbEntity
  8
AM_0
100
AcDbLine
 10
249.7016102792477
 20
157.5020712158453
 30
0.0
 11
249.7016102792477
 21
131.5020712158453
 31
0.0
  0
LINE
  5
B85B
330
1F
100
AcDbEntity
  8
AM_0
100
AcDbLine
 10
139.7016172792477
 20
154.9020732158453
 30
0.0
 11
249.7016102792477
 21
154.9020732158453
 31
0.0
  0
LINE
  5
B85C
330
1F
100
AcDbEntity
  8
AM_0
100
AcDbLine
 10
139.7016172792477
 20
134.1020772158453
 30
0.0
 11
249.7016102792477
 21
134.1020772158453
 31
0.0
  0
LINE
  5
B85D
330
1F
100
AcDbEntity
  8
AM_0
100
AcDbLine
 10
229.7016102792476
 20
157.5020712158453
 30
0.0
 11
229.7016102792476
 21
154.9020732158453
 31
0.0
  0
LINE
  5
B85E
330
1F
100
AcDbEntity
  8
AM_0
100
AcDbLine
 10
159.7016192792476
 20
157.5020712158453
 30
0.0
 11
159.7016192792476
 21
154.9020732158453
 31
0.0
  0
LINE
  5
B85F
330
1F
100
AcDbEntity
  8
AM_0
100
AcDbLine
 10
159.7016192792476
 20
134.1020772158453
 30
0.0
 11
159.7016192792476
 21
131.5020712158453
 31
0.0
  0
LINE
  5
B860
330
1F
100
AcDbEntity
  8
AM_0
100
AcDbLine
 10
229.7016102792476
 20
134.1020772158453
 30
0.0
 11
229.7016102792476
 21
131.5020712158453
 31
0.0
  0
LINE
  5
B861
330
1F
100
AcDbEntity
  8
AM_7
 48
1.1
100
AcDbLine
 10
136.7016172792477
 20
144.5020712158453
 30
0.0
 11
252.7016102792477
 21
144.5020712158453
 31
0.0
  0
LINE
  5
B862
330
1F
100
AcDbEntity
  8
AM_7
100
AcDbLine
 10
194.7016111792476
 20
166.0020712158453
 30
0.0
 11
194.7016111792476
 21
119.0020752158453
 31
0.0
  0
LINE
  5
B863
330
1F
100
AcDbEntity
  8
AM_0
100
AcDbLine
 10
190.7016111792476
 20
162.0020712158453
 30
0.0
 11
190.7016111792476
 21
157.5020712158453
 31
0.0
  0
LINE
  5
B864
330
1F
100
AcDbEntity
  8
AM_0
100
AcDbLine
 10
198.7016116792476
 20
162.0020712158453
 30
0.0
 11
198.7016116792476
 21
157.5020712158453
 31
0.0
  0
LINE
  5
B865
330
1F
100
AcDbEntity
  8
AM_0
100
AcDbLine
 10
187.2016111792476
 20
162.0020712158453
 30
0.0
 11
187.2016111792476
 21
157.5020712158453
 31
0.0
  0
LINE
  5
B866
330
1F
100
AcDbEntity
  8
AM_0
100
AcDbLine
 10
202.2016112792476
 20
162.0020712158453
 30
0.0
 11
202.2016112792476
 21
157.5020712158453
 31
0.0
  0
LINE
  5
B867
330
1F
100
AcDbEntity
  8
AM_0
100
AcDbLine
 10
187.2016111792476
 20
128.5020712158453
 30
0.0
 11
187.2016111792476
 21
125.5020712158453
 31
0.0
  0
LINE
  5
B868
330
1F
100
AcDbEntity
  8
AM_0
100
AcDbLine
 10
202.2016112792476
 20
128.5020712158453
 30
0.0
 11
202.2016112792476
 21
125.5020712158453
 31
0.0
  0
LINE
  5
B869
330
1F
100
AcDbEntity
  8
AM_0
100
AcDbLine
 10
188.9516112292476
 20
163.0020712158453
 30
0.0
 11
200.4516112792476
 21
163.0020712158453
 31
0.0
  0
LINE
  5
B86A
330
1F
100
AcDbEntity
  8
AM_0
100
AcDbLine
 10
187.0016142792476
 20
131.5020712158453
 30
0.0
 11
187.0016142792476
 21
129.5020712158453
 31
0.0
  0
LINE
  5
B86B
330
1F
100
AcDbEntity
  8
AM_0
100
AcDbLine
 10
202.4016242792476
 20
131.5020712158453
 30
0.0
 11
202.4016242792476
 21
129.5020712158453
 31
0.0
  0
LINE
  5
B86C
330
1F
100
AcDbEntity
  8
AM_0
100
AcDbLine
 10
187.0016142792476
 20
129.5020712158453
 30
0.0
 11
202.4016242792476
 21
129.5020712158453
 31
0.0
  0
LINE
  5
B86D
330
1F
100
AcDbEntity
  8
AM_0
100
AcDbLine
 10
190.7016111792476
 20
122.0020752158453
 30
0.0
 11
198.7016116792476
 21
122.0020752158453
 31
0.0
  0
LINE
  5
B86E
330
1F
100
AcDbEntity
  8
AM_0
100
AcDbLine
 10
198.7016116792476
 20
154.9020732158453
 30
0.0
 11
198.7016116792476
 21
153.5020712158453
 31
0.0
  0
LINE
  5
B86F
330
1F
100
AcDbEntity
  8
AM_0
100
AcDbLine
 10
190.7016111792476
 20
154.9020732158453
 30
0.0
 11
190.7016111792476
 21
153.5020712158453
 31
0.0
  0
LINE
  5
B870
330
1F
100
AcDbEntity
  8
AM_0
100
AcDbLine
 10
198.7016116792476
 20
135.5020712158453
 30
0.0
 11
198.7016116792476
 21
134.1020772158453
 31
0.0
  0
LINE
  5
B871
330
1F
100
AcDbEntity
  8
AM_0
100
AcDbLine
 10
190.7016111792476
 20
135.5020712158453
 30
0.0
 11
190.7016111792476
 21
134.1020772158453
 31
0.0
  0
LINE
  5
B872
330
1F
100
AcDbEntity
  8
AM_0
100
AcDbLine
 10
190.7016111792476
 20
125.5020712158453
 30
0.0
 11
190.7016111792476
 21
122.0020752158453
 31
0.0
  0
LINE
  5
B873
330
1F
100
AcDbEntity
  8
AM_0
100
AcDbLine
 10
198.7016116792476
 20
125.5020712158453
 30
0.0
 11
198.7016116792476
 21
122.0020752158453
 31
0.0
  0
LINE
  5
B874
330
1F
100
AcDbEntity
  8
AM_0
100
AcDbLine
 10
190.7016111792476
 20
129.5020712158453
 30
0.0
 11
190.7016111792476
 21
125.5020712158453
 31
0.0
  0
LINE
  5
B875
330
1F
100
AcDbEntity
  8
AM_0
100
AcDbLine
 10
198.7016116792476
 20
129.5020712158453
 30
0.0
 11
198.7016116792476
 21
125.5020712158453
 31
0.0
  0
LINE
  5
B876
330
1F
100
AcDbEntity
  8
AM_7
 48
0.8
100
AcDbLine
 10
151.2016172792477
 20
152.5020712158453
 30
0.0
 11
151.2016172792477
 21
136.5020712158453
 31
0.0
  0
LINE
  5
B877
330
1F
100
AcDbEntity
  8
AM_7
 48
0.8
100
AcDbLine
 10
239.2016102792476
 20
152.5020712158453
 30
0.0
 11
239.2016102792476
 21
136.5020712158453
 31
0.0
  0
LINE
  5
B878
330
1F
100
AcDbEntity
  8
AM_0
100
AcDbLine
 10
234.2016102792477
 20
149.5020712158453
 30
0.0
 11
239.2016102792476
 21
149.5020712158453
 31
0.0
  0
LINE
  5
B879
330
1F
100
AcDbEntity
  8
AM_0
100
AcDbLine
 10
234.2016102792477
 20
139.5020712158453
 30
0.0
 11
239.2016102792476
 21
139.5020712158453
 31
0.0
  0
LINE
  5
B87A
330
1F
100
AcDbEntity
  8
AM_7
 48
0.8
100
AcDbLine
 10
234.2016102792477
 20
152.5020712158453
 30
0.0
 11
234.2016102792477
 21
136.5020712158453
 31
0.0
  0
LINE
  5
B87B
330
1F
100
AcDbEntity
  8
AM_0
100
AcDbLine
 10
219.7016112792477
 20
135.5020712158453
 30
0.0
 11
219.7016112792477
 21
139.5020712158453
 31
0.0
  0
LINE
  5
B87C
330
1F
100
AcDbEntity
  8
AM_0
100
AcDbLine
 10
219.7016112792477
 20
149.5020712158453
 30
0.0
 11
219.7016112792477
 21
153.5020712158453
 31
0.0
  0
LINE
  5
B87D
330
1F
100
AcDbEntity
  8
AM_0
100
AcDbLine
 10
169.7016112792476
 20
135.5020712158453
 30
0.0
 11
169.7016112792476
 21
139.5020712158453
 31
0.0
  0
LINE
  5
B87E
330
1F
100
AcDbEntity
  8
AM_0
100
AcDbLine
 10
169.7016212792476
 20
139.5020792158453
 30
0.0
 11
171.2016232792476
 21
141.0020792158453
 31
0.0
  0
LINE
  5
B87F
330
1F
100
AcDbEntity
  8
AM_0
100
AcDbLine
 10
175.2016112792476
 20
141.0020712158453
 30
0.0
 11
175.2016112792476
 21
148.0020712158453
 31
0.0
  0
LINE
  5
B880
330
1F
100
AcDbEntity
  8
AM_0
100
AcDbLine
 10
171.2016112792476
 20
141.0020712158453
 30
0.0
 11
218.2016112792477
 21
141.0020712158453
 31
0.0
  0
LINE
  5
B881
330
1F
100
AcDbEntity
  8
AM_0
100
AcDbLine
 10
219.7016132792477
 20
139.5020712158453
 30
0.0
 11
218.2016172792476
 21
141.0020672158453
 31
0.0
  0
LINE
  5
B882
330
1F
100
AcDbEntity
  8
AM_0
100
AcDbLine
 10
214.2016112792477
 20
141.0020712158453
 30
0.0
 11
214.2016112792477
 21
148.0020712158453
 31
0.0
  0
LINE
  5
B883
330
1F
100
AcDbEntity
  8
AM_0
100
AcDbLine
 10
171.2016112792476
 20
148.0020712158453
 30
0.0
 11
218.2016112792477
 21
148.0020712158453
 31
0.0
  0
LINE
  5
B884
330
1F
100
AcDbEntity
  8
AM_0
100
AcDbLine
 10
219.7016192792477
 20
149.5020792158453
 30
0.0
 11
218.2016172792476
 21
148.0020752158453
 31
0.0
  0
LINE
  5
B885
330
1F
100
AcDbEntity
  8
AM_0
100
AcDbLine
 10
169.7016112792476
 20
149.5020712158453
 30
0.0
 11
219.7016112792477
 21
149.5020712158453
 31
0.0
  0
LINE
  5
B886
330
1F
100
AcDbEntity
  8
AM_0
100
AcDbLine
 10
169.7016112792476
 20
153.5020712158453
 30
0.0
 11
219.7016112792477
 21
153.5020712158453
 31
0.0
  0
LINE
  5
B887
330
1F
100
AcDbEntity
  8
AM_0
100
AcDbLine
 10
169.7016112792476
 20
139.5020712158453
 30
0.0
 11
219.7016112792477
 21
139.5020712158453
 31
0.0
  0
LINE
  5
B888
330
1F
100
AcDbEntity
  8
AM_0
100
AcDbLine
 10
169.7016112792476
 20
135.5020712158453
 30
0.0
 11
219.7016112792477
 21
135.5020712158453
 31
0.0
  0
LINE
  5
B889
330
1F
100
AcDbEntity
  8
AM_0
100
AcDbLine
 10
169.7016152792476
 20
149.5020712158453
 30
0.0
 11
171.2016172792476
 21
148.0020712158453
 31
0.0
  0
LINE
  5
B88A
330
1F
100
AcDbEntity
  8
AM_0
100
AcDbLine
 10
169.7016112792476
 20
149.5020712158453
 30
0.0
 11
169.7016112792476
 21
153.5020712158453
 31
0.0
  0
LINE
  5
B88B
330
1F
100
AcDbEntity
  8
AM_0
100
AcDbLine
 10
188.9516112292476
 20
124.5020712158453
 30
0.0
 11
200.4516112792476
 21
124.5020712158453
 31
0.0
  0
LINE
  5
B88C
330
1F
100
AcDbEntity
  8
AM_2
100
AcDbLine
 10
62.95255699622021
 20
25.71163421296727
 30
0.0
 11
62.95255699622021
 21
17.71163421296727
 31
0.0
  0
LINE
  5
B88D
330
1F
100
AcDbEntity
  8
AM_2
100
AcDbLine
 10
62.95255699622021
 20
17.71163421296727
 30
0.0
 11
350.9525169962202
 21
17.71163421296727
 31
0.0
  0
LINE
  5
B88E
330
1F
100
AcDbEntity
  8
AM_2
100
AcDbLine
 10
62.95255699622021
 20
25.71163421296727
 30
0.0
 11
350.9525169962202
 21
25.71163421296727
 31
0.0
  0
LINE
  5
B88F
330
1F
100
AcDbEntity
  8
AM_2
100
AcDbLine
 10
62.95255699622021
 20
33.71163421296727
 30
0.0
 11
62.95255699622021
 21
25.71163421296727
 31
0.0
  0
LINE
  5
B890
330
1F
100
AcDbEntity
  8
AM_2
100
AcDbLine
 10
62.95255699622021
 20
41.71163421296727
 30
0.0
 11
62.95255699622021
 21
33.71163421296727
 31
0.0
  0
LINE
  5
B891
330
1F
100
AcDbEntity
  8
AM_2
100
AcDbLine
 10
62.95255699622021
 20
73.71162721296727
 30
0.0
 11
350.9525169962202
 21
73.71162721296727
 31
0.0
  0
LINE
  5
B892
330
1F
100
AcDbEntity
  8
AM_2
100
AcDbLine
 10
156.9525559962202
 20
73.71162721296727
 30
0.0
 11
156.9525559962202
 21
17.71163421296727
 31
0.0
  0
LINE
  5
B893
330
1F
100
AcDbEntity
  8
AM_2
100
AcDbLine
 10
220.9525559962202
 20
73.71162721296727
 30
0.0
 11
220.9525559962202
 21
17.71163421296727
 31
0.0
  0
LINE
  5
B894
330
1F
100
AcDbEntity
  8
AM_2
100
AcDbLine
 10
62.95255699622021
 20
73.71162721296727
 30
0.0
 11
62.95255699622021
 21
17.71163421296727
 31
0.0
  0
LINE
  5
B895
330
1F
100
AcDbEntity
  8
AM_2
100
AcDbLine
 10
108.9525559962202
 20
73.71162721296727
 30
0.0
 11
108.9525559962202
 21
17.71163421296727
 31
0.0
  0
LINE
  5
B896
330
1F
100
AcDbEntity
  8
AM_2
100
AcDbLine
 10
92.95255199622022
 20
73.71162721296727
 30
0.0
 11
92.95255199622022
 21
17.71163421296727
 31
0.0
  0
LINE
  5
B897
330
1F
100
AcDbEntity
  8
AM_2
100
AcDbLine
 10
140.9525559962202
 20
73.71162721296727
 30
0.0
 11
140.9525559962202
 21
17.71163421296727
 31
0.0
  0
LINE
  5
B898
330
1F
100
AcDbEntity
  8
AM_2
100
AcDbLine
 10
124.9525559962202
 20
73.71162721296727
 30
0.0
 11
124.9525559962202
 21
17.71163421296727
 31
0.0
  0
LINE
  5
B899
330
1F
100
AcDbEntity
  8
AM_2
100
AcDbLine
 10
172.9525549962202
 20
73.71162721296727
 30
0.0
 11
172.9525549962202
 21
17.71163421296727
 31
0.0
  0
LINE
  5
B89A
330
1F
100
AcDbEntity
  8
AM_2
100
AcDbLine
 10
252.9525519962202
 20
73.71162721296727
 30
0.0
 11
252.9525519962202
 21
17.71163421296727
 31
0.0
  0
LINE
  5
B89B
330
1F
100
AcDbEntity
  8
AM_2
100
AcDbLine
 10
236.9525519962202
 20
73.71162721296727
 30
0.0
 11
236.9525519962202
 21
17.71163421296727
 31
0.0
  0
LINE
  5
B89C
330
1F
100
AcDbEntity
  8
AM_2
100
AcDbLine
 10
316.9525169962202
 20
73.71162721296727
 30
0.0
 11
316.9525169962202
 21
17.71163421296727
 31
0.0
  0
LINE
  5
B89D
330
1F
100
AcDbEntity
  8
AM_2
100
AcDbLine
 10
204.9525559962202
 20
73.71162721296727
 30
0.0
 11
204.9525559962202
 21
17.71163421296727
 31
0.0
  0
LINE
  5
B89E
330
1F
100
AcDbEntity
  8
AM_2
100
AcDbLine
 10
188.9525559962202
 20
73.71162721296727
 30
0.0
 11
188.9525559962202
 21
17.71163421296727
 31
0.0
  0
LINE
  5
B89F
330
1F
100
AcDbEntity
  8
AM_2
100
AcDbLine
 10
62.95255699622021
 20
65.71163021296726
 30
0.0
 11
350.9525169962202
 21
65.71163021296726
 31
0.0
  0
LINE
  5
B8A0
330
1F
100
AcDbEntity
  8
AM_2
100
AcDbLine
 10
62.95255699622021
 20
49.71163421296727
 30
0.0
 11
350.9525169962202
 21
49.71163421296727
 31
0.0
  0
LINE
  5
B8A1
330
1F
100
AcDbEntity
  8
AM_2
100
AcDbLine
 10
300.9525169962202
 20
73.71162721296727
 30
0.0
 11
300.9525169962202
 21
17.71163421296727
 31
0.0
  0
LINE
  5
B8A2
330
1F
100
AcDbEntity
  8
AM_2
100
AcDbLine
 10
268.9525569962202
 20
73.71162721296727
 30
0.0
 11
268.9525569962202
 21
17.71163421296727
 31
0.0
  0
LINE
  5
B8A3
330
1F
100
AcDbEntity
  8
AM_2
100
AcDbLine
 10
62.95255699622021
 20
57.71163021296727
 30
0.0
 11
350.9525169962202
 21
57.71163021296727
 31
0.0
  0
LINE
  5
B8A4
330
1F
100
AcDbEntity
  8
AM_2
100
AcDbLine
 10
350.9525169962202
 20
73.71162721296727
 30
0.0
 11
350.9525169962202
 21
17.71163421296727
 31
0.0
  0
LINE
  5
B8A5
330
1F
100
AcDbEntity
  8
AM_2
100
AcDbLine
 10
62.95255699622021
 20
41.71163421296727
 30
0.0
 11
350.9525169962202
 21
41.71163421296727
 31
0.0
  0
LINE
  5
B8A6
330
1F
100
AcDbEntity
  8
AM_2
100
AcDbLine
 10
62.95255699622021
 20
33.71163421296727
 30
0.0
 11
350.9525169962202
 21
33.71163421296727
 31
0.0
  0
ARC
  5
B8A7
330
1F
100
AcDbEntity
  8
AM_0
100
AcDbCircle
 10
142.7016172792477
 20
236.4376770069091
 30
0.0
 40
3.0
100
AcDbArc
 50
180.0
 51
270.0
  0
ARC
  5
B8A8
330
1F
100
AcDbEntity
  8
AM_0
100
AcDbCircle
 10
246.7016102792477
 20
236.4376770069091
 30
0.0
 40
3.0
100
AcDbArc
 50
270.0
 51
0.0
  0
ARC
  5
B8A9
330
1F
100
AcDbEntity
  8
AM_0
100
AcDbCircle
 10
194.7016111792476
 20
214.4376770069091
 30
0.0
 40
25.0
100
AcDbArc
 50
184.1309299999996
 51
355.8690700000002
  0
ARC
  5
B8AA
330
1F
100
AcDbEntity
  8
AM_0
100
AcDbCircle
 10
188.9516112292476
 20
160.9708212158453
 30
0.0
 40
2.03125
100
AcDbArc
 50
30.5102369999997
 51
149.4897600000002
  0
ARC
  5
B8AB
330
1F
100
AcDbEntity
  8
AM_0
100
AcDbCircle
 10
194.7016111792476
 20
154.5020712158453
 30
0.0
 40
8.5
100
AcDbArc
 50
61.92751600000026
 51
118.0724800000003
  0
ARC
  5
B8AC
330
1F
100
AcDbEntity
  8
AM_0
100
AcDbCircle
 10
200.4516112792476
 20
160.9708212158453
 30
0.0
 40
2.03125
100
AcDbArc
 50
30.5102369999997
 51
149.4897600000002
  0
ARC
  5
B8AD
330
1F
100
AcDbEntity
  8
AM_0
100
AcDbCircle
 10
188.9516112292476
 20
126.5333212158453
 30
0.0
 40
2.03125
100
AcDbArc
 50
210.5102399999998
 51
329.4897600000003
  0
ARC
  5
B8AE
330
1F
100
AcDbEntity
  8
AM_0
100
AcDbCircle
 10
194.7016111792476
 20
133.0020712158453
 30
0.0
 40
8.5
100
AcDbArc
 50
241.9275199999996
 51
298.0724800000002
  0
ARC
  5
B8AF
330
1F
100
AcDbEntity
  8
AM_0
100
AcDbCircle
 10
200.4516112792476
 20
126.5333212158453
 30
0.0
 40
2.03125
100
AcDbArc
 50
210.5102399999998
 51
329.4897600000003
  0
ARC
  5
B8B0
330
1F
100
AcDbEntity
  8
AM_0
100
AcDbCircle
 10
200.4516112792476
 20
127.4708212158453
 30
0.0
 40
2.03125
100
AcDbArc
 50
30.5102369999997
 51
149.4897600000002
  0
ARC
  5
B8B1
330
1F
100
AcDbEntity
  8
AM_0
100
AcDbCircle
 10
194.7016111792476
 20
121.0020752158453
 30
0.0
 40
8.5
100
AcDbArc
 50
61.92751600000026
 51
118.0724800000003
  0
ARC
  5
B8B2
330
1F
100
AcDbEntity
  8
AM_0
100
AcDbCircle
 10
188.9516112292476
 20
127.4708212158453
 30
0.0
 40
2.03125
100
AcDbArc
 50
30.5102369999997
 51
149.4897600000002
  0
CIRCLE
  5
B8B3
330
1F
100
AcDbEntity
  8
AM_0
100
AcDbCircle
 10
151.2016172792477
 20
144.5020712158453
 30
0.0
 40
5.0
  0
ARC
  5
B8B4
330
1F
100
AcDbEntity
  8
AM_0
100
AcDbCircle
 10
239.2016102792476
 20
144.5020712158453
 30
0.0
 40
5.0
100
AcDbArc
 50
0.0
 51
90.0
  0
ARC
  5
B8B5
330
1F
100
AcDbEntity
  8
AM_0
100
AcDbCircle
 10
234.2016102792477
 20
144.5020712158453
 30
0.0
 40
5.0
100
AcDbArc
 50
90.0
 51
270.0
  0
ARC
  5
B8B6
330
1F
100
AcDbEntity
  8
AM_0
100
AcDbCircle
 10
239.2016102792476
 20
144.5020712158453
 30
0.0
 40
5.0
100
AcDbArc
 50
270.0
 51
0.0
  0
ARC
  5
B8B7
330
1F
100
AcDbEntity
  8
AM_0
100
AcDbCircle
 10
157.8204932792476
 20
230.4376770069091
 30
0.0
 40
3.0
100
AcDbArc
 50
25.82105499999976
 51
90.0
  0
ARC
  5
B8B8
330
1F
100
AcDbEntity
  8
AM_0
100
AcDbCircle
 10
176.5827452792476
 20
205.4376770069091
 30
0.0
 40
3.0
100
AcDbArc
 50
205.8210599999993
 51
270.0
  0
ARC
  5
B8B9
330
1F
100
AcDbEntity
  8
AM_0
100
AcDbCircle
 10
212.8204932792476
 20
205.4376770069091
 30
0.0
 40
3.0
100
AcDbArc
 50
270.0
 51
334.1789400000006
  0
ARC
  5
B8BA
330
1F
100
AcDbEntity
  8
AM_0
100
AcDbCircle
 10
231.5827442792476
 20
230.4376770069091
 30
0.0
 40
3.0
100
AcDbArc
 50
90.0
 51
154.1789400000007
  0
CIRCLE
  5
B8BB
330
1F
100
AcDbEntity
  8
AM_2
100
AcDbCircle
 10
194.7016111792476
 20
214.4376770069091
 30
0.0
 40
6.495191099999999
  0
TEXT
  5
B8BC
330
1F
100
AcDbEntity
  8
AM_6
100
AcDbText
 10
65.55910699622018
 20
51.31163021296727
 30
0.0
 40
4.8000002
  1
ＳＴ－１６１－２
 41
0.5660139600000001
100
AcDbText
  0
TEXT
  5
B8BD
330
1F
100
AcDbEntity
  8
AM_6
100
AcDbText
 10
65.55910699622018
 20
43.31163421296726
 30
0.0
 40
4.8000002
  1
ＳＴ－１６１－３
 41
0.5660139600000001
100
AcDbText
  0
TEXT
  5
B8BE
330
1F
100
AcDbEntity
  8
AM_6
100
AcDbText
 10
319.9525169962202
 20
19.31163421296726
 30
0.0
 40
4.8000002
  1
６００ｋｇ／２コ
 41
0.63938619
100
AcDbText
  0
TEXT
  5
B8BF
330
1F
100
AcDbEntity
  8
AM_6
100
AcDbText
 10
225.3525569962202
 20
19.31163421296726
 30
0.0
 40
4.8000002
  1
１４
 41
0.75630227
100
AcDbText
  0
TEXT
  5
B8C0
330
1F
100
AcDbEntity
  8
AM_6
100
AcDbText
 10
273.9525569962202
 20
19.31163421296726
 30
0.0
 40
4.8000002
  1
６６
 41
0.6302521
100
AcDbText
  0
TEXT
  5
B8C1
330
1F
100
AcDbEntity
  8
AM_6
100
AcDbText
 10
241.9525519962202
 20
19.31163421296726
 30
0.0
 40
4.8000002
  1
１４
 41
0.6302521
100
AcDbText
  0
TEXT
  5
B8C2
330
1F
100
AcDbEntity
  8
AM_6
100
AcDbText
 10
176.1691408649437
 20
19.31163421296726
 30
0.0
 40
4.8000002
  1
１１０
 41
0.5908613100000001
100
AcDbText
  0
TEXT
  5
B8C3
330
1F
100
AcDbEntity
  8
AM_6
100
AcDbText
 10
143.967325198512
 20
19.31163421296726
 30
0.0
 40
4.8000002
  1
１００
 41
0.5908613400000001
100
AcDbText
  0
TEXT
  5
B8C4
330
1F
100
AcDbEntity
  8
AM_6
100
AcDbText
 10
159.9673242985121
 20
19.31163421296726
 30
0.0
 40
4.8000002
  1
１００
 41
0.5908613100000001
100
AcDbText
  0
TEXT
  5
B8C5
330
1F
100
AcDbEntity
  8
AM_6
100
AcDbText
 10
193.9525559962202
 20
19.31163421296726
 30
0.0
 40
4.8000002
  1
４２
 41
0.6302521
100
AcDbText
  0
TEXT
  5
B8C6
330
1F
100
AcDbEntity
  8
AM_6
100
AcDbText
 10
129.9525559962202
 20
19.31163421296726
 30
0.0
 40
4.8000002
  1
８０
 41
0.6302521
100
AcDbText
  0
TEXT
  5
B8C7
330
1F
100
AcDbEntity
  8
AM_6
100
AcDbText
 10
209.9525559962202
 20
19.31163421296726
 30
0.0
 40
4.8000002
  1
３０
 41
0.6302521
100
AcDbText
  0
TEXT
  5
B8C8
330
1F
100
AcDbEntity
  8
AM_6
100
AcDbText
 10
65.55910699622018
 20
35.31163421296727
 30
0.0
 40
4.8000002
  1
ＳＴ－１６１－４
 41
0.5660139600000001
100
AcDbText
  0
TEXT
  5
B8C9
330
1F
100
AcDbEntity
  8
AM_6
100
AcDbText
 10
96.45255199622022
 20
19.31163421296726
 30
0.0
 40
4.8000002
  1
２２０
 41
0.5908613100000001
100
AcDbText
  0
TEXT
  5
B8CA
330
1F
100
AcDbEntity
  8
AM_6
100
AcDbText
 10
112.4525559962202
 20
19.31163421296726
 30
0.0
 40
4.8000002
  1
１７６
 41
0.5908613100000001
100
AcDbText
  0
TEXT
  5
B8CB
330
1F
100
AcDbEntity
  8
AM_6
100
AcDbText
 10
112.4525559962202
 20
27.31163421296726
 30
0.0
 40
4.8000002
  1
１４６
 41
0.5908613100000001
100
AcDbText
  0
TEXT
  5
B8CC
330
1F
100
AcDbEntity
  8
AM_6
100
AcDbText
 10
96.45255199622022
 20
27.31163421296726
 30
0.0
 40
4.8000002
  1
１８０
 41
0.5908613100000001
100
AcDbText
  0
TEXT
  5
B8CD
330
1F
100
AcDbEntity
  8
AM_6
100
AcDbText
 10
65.55910699622018
 20
27.31163421296726
 30
0.0
 40
4.8000002
  1
ＳＴ－１６１－５
 41
0.5660139600000001
100
AcDbText
  0
TEXT
  5
B8CE
330
1F
100
AcDbEntity
  8
AM_6
100
AcDbText
 10
209.9525559962202
 20
27.31163421296726
 30
0.0
 40
4.8000002
  1
２７
 41
0.6302521
100
AcDbText
  0
TEXT
  5
B8CF
330
1F
100
AcDbEntity
  8
AM_6
100
AcDbText
 10
129.9525559962202
 20
27.31163421296726
 30
0.0
 40
4.8000002
  1
７２
 41
0.6302521
100
AcDbText
  0
TEXT
  5
B8D0
330
1F
100
AcDbEntity
  8
AM_6
100
AcDbText
 10
193.9525559962202
 20
27.31163421296726
 30
0.0
 40
4.8000002
  1
３８
 41
0.6302521
100
AcDbText
  0
TEXT
  5
B8D1
330
1F
100
AcDbEntity
  8
AM_6
100
AcDbText
 10
162.1104495962202
 20
27.31163421296726
 30
0.0
 40
4.8000002
  1
９１
 41
0.5970809400000001
100
AcDbText
  0
TEXT
  5
B8D2
330
1F
100
AcDbEntity
  8
AM_6
100
AcDbText
 10
146.1104499962202
 20
27.31163421296726
 30
0.0
 40
4.8000002
  1
９０
 41
0.5970809700000002
100
AcDbText
  0
TEXT
  5
B8D3
330
1F
100
AcDbEntity
  8
AM_6
100
AcDbText
 10
176.1489882495635
 20
27.31163421296726
 30
0.0
 40
4.8000002
  1
１００
 41
0.5908613100000001
100
AcDbText
  0
TEXT
  5
B8D4
330
1F
100
AcDbEntity
  8
AM_6
100
AcDbText
 10
241.9525519962202
 20
27.31163421296726
 30
0.0
 40
4.8000002
  1
１４
 41
0.6302521
100
AcDbText
  0
TEXT
  5
B8D5
330
1F
100
AcDbEntity
  8
AM_6
100
AcDbText
 10
273.9525569962202
 20
27.31163421296726
 30
0.0
 40
4.8000002
  1
５３
 41
0.6302521
100
AcDbText
  0
TEXT
  5
B8D6
330
1F
100
AcDbEntity
  8
AM_6
100
AcDbText
 10
225.3525569962202
 20
27.31163421296726
 30
0.0
 40
4.8000002
  1
１２
 41
0.75630227
100
AcDbText
  0
TEXT
  5
B8D7
330
1F
100
AcDbEntity
  8
AM_6
100
AcDbText
 10
319.9525169962202
 20
27.31163421296726
 30
0.0
 40
4.8000002
  1
５００ｋｇ／２コ
 41
0.63938619
100
AcDbText
  0
TEXT
  5
B8D8
330
1F
100
AcDbEntity
  8
AM_6
100
AcDbText
 10
259.7682329962202
 20
27.31163421296726
 30
0.0
 40
4.8000002
  1
５
 41
0.6220165800000002
100
AcDbText
  0
TEXT
  5
B8D9
330
1F
100
AcDbEntity
  8
AM_6
100
AcDbText
 10
304.8382369962202
 20
67.31162721296727
 30
0.0
 40
4.8000002
  1
枠ｔ
 41
0.8643459000000001
100
AcDbText
  0
TEXT
  5
B8DA
330
1F
100
AcDbEntity
  8
AM_6
100
AcDbText
 10
319.9525169962202
 20
43.31163421296726
 30
0.0
 40
4.8000002
  1
２８０ｋｇ／２コ
 41
0.63938619
100
AcDbText
  0
TEXT
  5
B8DB
330
1F
100
AcDbEntity
  8
AM_6
100
AcDbText
 10
319.9525169962202
 20
51.31163021296727
 30
0.0
 40
4.8000002
  1
２２０ｋｇ／２コ
 41
0.63938619
100
AcDbText
  0
TEXT
  5
B8DC
330
1F
100
AcDbEntity
  8
AM_6
100
AcDbText
 10
319.9525169962202
 20
59.31163021296727
 30
0.0
 40
4.8000002
  1
１８０ｋｇ／２コ
 41
0.63938619
100
AcDbText
  0
TEXT
  5
B8DD
330
1F
100
AcDbEntity
  8
AM_6
100
AcDbText
 10
319.9525169962202
 20
35.31163421296727
 30
0.0
 40
4.8000002
  1
３００ｋｇ／２コ
 41
0.63938619
100
AcDbText
  0
TEXT
  5
B8DE
330
1F
100
AcDbEntity
  8
AM_6
100
AcDbText
 10
322.6382369962202
 20
67.31162721296727
 30
0.0
 40
4.8000002
  1
標準耐荷重
 41
0.84891105
100
AcDbText
  0
TEXT
  5
B8DF
330
1F
100
AcDbEntity
  8
AM_6
100
AcDbText
 10
273.9525569962202
 20
43.31163421296726
 30
0.0
 40
4.8000002
  1
４８
 41
0.6302521
100
AcDbText
  0
TEXT
  5
B8E0
330
1F
100
AcDbEntity
  8
AM_6
100
AcDbText
 10
241.9525519962202
 20
43.31163421296726
 30
0.0
 40
4.8000002
  1
１０
 41
0.6302521
100
AcDbText
  0
TEXT
  5
B8E1
330
1F
100
AcDbEntity
  8
AM_6
100
AcDbText
 10
225.3525569962202
 20
43.31163421296726
 30
0.0
 40
4.8000002
  1
１０
 41
0.75630227
100
AcDbText
  0
TEXT
  5
B8E2
330
1F
100
AcDbEntity
  8
AM_6
100
AcDbText
 10
209.9525559962202
 20
43.31163421296726
 30
0.0
 40
4.8000002
  1
２５
 41
0.6302521
100
AcDbText
  0
TEXT
  5
B8E3
330
1F
100
AcDbEntity
  8
AM_6
100
AcDbText
 10
193.9525559962202
 20
43.31163421296726
 30
0.0
 40
4.8000002
  1
３３
 41
0.6302521
100
AcDbText
  0
TEXT
  5
B8E4
330
1F
100
AcDbEntity
  8
AM_6
100
AcDbText
 10
175.235449174308
 20
43.31163421296726
 30
0.0
 40
4.8000002
  1
７７.５
 41
0.6302521
100
AcDbText
  0
TEXT
  5
B8E5
330
1F
100
AcDbEntity
  8
AM_6
100
AcDbText
 10
161.9525548962202
 20
43.31163421296726
 30
0.0
 40
4.8000002
  1
７０
 41
0.6302521
100
AcDbText
  0
TEXT
  5
B8E6
330
1F
100
AcDbEntity
  8
AM_6
100
AcDbText
 10
145.9525559962202
 20
43.31163421296726
 30
0.0
 40
4.8000002
  1
７０
 41
0.6302521
100
AcDbText
  0
TEXT
  5
B8E7
330
1F
100
AcDbEntity
  8
AM_6
100
AcDbText
 10
129.9525559962202
 20
43.31163421296726
 30
0.0
 40
4.8000002
  1
５５
 41
0.6302521
100
AcDbText
  0
TEXT
  5
B8E8
330
1F
100
AcDbEntity
  8
AM_6
100
AcDbText
 10
112.4525559962202
 20
43.31163421296726
 30
0.0
 40
4.8000002
  1
１２８
 41
0.5908613400000001
100
AcDbText
  0
TEXT
  5
B8E9
330
1F
100
AcDbEntity
  8
AM_6
100
AcDbText
 10
96.45255199622022
 20
43.31163421296726
 30
0.0
 40
4.8000002
  1
１５０
 41
0.5908613100000001
100
AcDbText
  0
TEXT
  5
B8EA
330
1F
100
AcDbEntity
  8
AM_6
100
AcDbText
 10
273.9525569962202
 20
51.31163021296727
 30
0.0
 40
4.8000002
  1
４１
 41
0.6302521
100
AcDbText
  0
TEXT
  5
B8EB
330
1F
100
AcDbEntity
  8
AM_6
100
AcDbText
 10
259.3700735708877
 20
51.31163021296727
 30
0.0
 40
4.8000002
  1
４
 41
0.6220165800000002
100
AcDbText
  0
TEXT
  5
B8EC
330
1F
100
AcDbEntity
  8
AM_6
100
AcDbText
 10
241.9525519962202
 20
51.31163021296727
 30
0.0
 40
4.8000002
  1
１０
 41
0.6302521
100
AcDbText
  0
TEXT
  5
B8ED
330
1F
100
AcDbEntity
  8
AM_6
100
AcDbText
 10
227.7683449962202
 20
51.31163021296727
 30
0.0
 40
4.8000002
  1
８
 41
0.6219594800000001
100
AcDbText
  0
TEXT
  5
B8EE
330
1F
100
AcDbEntity
  8
AM_6
100
AcDbText
 10
209.9525559962202
 20
51.31163021296727
 30
0.0
 40
4.8000002
  1
２０
 41
0.6302521
100
AcDbText
  0
TEXT
  5
B8EF
330
1F
100
AcDbEntity
  8
AM_6
100
AcDbText
 10
193.9525559962202
 20
51.31163021296727
 30
0.0
 40
4.8000002
  1
２８
 41
0.6302521
100
AcDbText
  0
TEXT
  5
B8F0
330
1F
100
AcDbEntity
  8
AM_6
100
AcDbText
 10
177.9525558962202
 20
51.31163021296727
 30
0.0
 40
4.8000002
  1
６５
 41
0.6302521
100
AcDbText
  0
TEXT
  5
B8F1
330
1F
100
AcDbEntity
  8
AM_6
100
AcDbText
 10
161.9525548962202
 20
51.31163021296727
 30
0.0
 40
4.8000002
  1
５９
 41
0.6302521
100
AcDbText
  0
TEXT
  5
B8F2
330
1F
100
AcDbEntity
  8
AM_6
100
AcDbText
 10
145.9525559962202
 20
51.31163021296727
 30
0.0
 40
4.8000002
  1
６０
 41
0.6302521
100
AcDbText
  0
TEXT
  5
B8F3
330
1F
100
AcDbEntity
  8
AM_6
100
AcDbText
 10
129.9525559962202
 20
51.31163021296727
 30
0.0
 40
4.8000002
  1
４８
 41
0.6302521
100
AcDbText
  0
TEXT
  5
B8F4
330
1F
100
AcDbEntity
  8
AM_6
100
AcDbText
 10
113.9525559962202
 20
51.31163021296727
 30
0.0
 40
4.8000002
  1
９８
 41
0.6302521
100
AcDbText
  0
TEXT
  5
B8F5
330
1F
100
AcDbEntity
  8
AM_6
100
AcDbText
 10
96.45255199622022
 20
51.31163021296727
 30
0.0
 40
4.8000002
  1
１２０
 41
0.5908613100000001
100
AcDbText
  0
TEXT
  5
B8F6
330
1F
100
AcDbEntity
  8
AM_6
100
AcDbText
 10
65.55910699622018
 20
59.31163021296727
 30
0.0
 40
4.8000002
  1
ＳＴ－１６１－１
 41
0.5660139600000001
100
AcDbText
  0
TEXT
  5
B8F7
330
1F
100
AcDbEntity
  8
AM_6
100
AcDbText
 10
273.9525569962202
 20
59.31163021296727
 30
0.0
 40
4.8000002
  1
４１
 41
0.6302521
100
AcDbText
  0
TEXT
  5
B8F8
330
1F
100
AcDbEntity
  8
AM_6
100
AcDbText
 10
177.9525558962202
 20
59.31163021296727
 30
0.0
 40
4.8000002
  1
５４
 41
0.63025208
100
AcDbText
  0
TEXT
  5
B8F9
330
1F
100
AcDbEntity
  8
AM_6
100
AcDbText
 10
241.9525519962202
 20
59.31163021296727
 30
0.0
 40
4.8000002
  1
１０
 41
0.6302521
100
AcDbText
  0
TEXT
  5
B8FA
330
1F
100
AcDbEntity
  8
AM_6
100
AcDbText
 10
96.45255199622022
 20
59.31163021296727
 30
0.0
 40
4.8000002
  1
１１０
 41
0.5908613100000001
100
AcDbText
  0
TEXT
  5
B8FB
330
1F
100
AcDbEntity
  8
AM_6
100
AcDbText
 10
159.194778335812
 20
59.31163021296727
 30
0.0
 40
4.8000002
  1
４８.５
 41
0.6302521
100
AcDbText
  0
TEXT
  5
B8FC
330
1F
100
AcDbEntity
  8
AM_6
100
AcDbText
 10
227.7683449962202
 20
59.31163021296727
 30
0.0
 40
4.8000002
  1
７
 41
0.6219594800000001
100
AcDbText
  0
TEXT
  5
B8FD
330
1F
100
AcDbEntity
  8
AM_6
100
AcDbText
 10
209.9525559962202
 20
59.31163021296727
 30
0.0
 40
4.8000002
  1
１８
 41
0.6302521
100
AcDbText
  0
TEXT
  5
B8FE
330
1F
100
AcDbEntity
  8
AM_6
100
AcDbText
 10
193.9525559962202
 20
59.31163021296727
 30
0.0
 40
4.8000002
  1
２６
 41
0.6302521
100
AcDbText
  0
TEXT
  5
B8FF
330
1F
100
AcDbEntity
  8
AM_6
100
AcDbText
 10
129.9525559962202
 20
59.31163021296727
 30
0.0
 40
4.8000002
  1
３９
 41
0.6302521
100
AcDbText
  0
TEXT
  5
B900
330
1F
100
AcDbEntity
  8
AM_6
100
AcDbText
 10
304.4525169962202
 20
59.31163021296727
 30
0.0
 40
4.8000002
  1
２．６
 41
0.5908613100000001
100
AcDbText
  0
TEXT
  5
B901
330
1F
100
AcDbEntity
  8
AM_6
100
AcDbText
 10
145.9525559962202
 20
59.31163021296727
 30
0.0
 40
4.8000002
  1
５０
 41
0.6302521
100
AcDbText
  0
TEXT
  5
B902
330
1F
100
AcDbEntity
  8
AM_6
100
AcDbText
 10
227.2382689962202
 20
67.31162721296727
 30
0.0
 40
4.8000002
  1
Ｉ
 41
0.90036056
100
AcDbText
  0
TEXT
  5
B903
330
1F
100
AcDbEntity
  8
AM_6
100
AcDbText
 10
259.2382659962202
 20
67.31162721296727
 30
0.0
 40
4.8000002
  1
Ｋ
 41
0.90036056
100
AcDbText
  0
TEXT
  5
B904
330
1F
100
AcDbEntity
  8
AM_6
100
AcDbText
 10
243.2382659962202
 20
67.31162721296727
 30
0.0
 40
4.8000002
  1
Ｊ
 41
0.90036056
100
AcDbText
  0
TEXT
  5
B905
330
1F
100
AcDbEntity
  8
AM_6
100
AcDbText
 10
73.83826499622023
 20
67.31162721296727
 30
0.0
 40
4.8000002
  1
品番
 41
0.8643459000000001
100
AcDbText
  0
TEXT
  5
B906
330
1F
100
AcDbEntity
  8
AM_6
100
AcDbText
 10
275.2382669962202
 20
67.31162721296727
 30
0.0
 40
4.8000002
  1
Ｌ
 41
0.90036056
100
AcDbText
  0
TEXT
  5
B907
330
1F
100
AcDbEntity
  8
AM_6
100
AcDbText
 10
147.2382689962202
 20
67.31162721296727
 30
0.0
 40
4.8000002
  1
Ｄ
 41
0.90036056
100
AcDbText
  0
TEXT
  5
B908
330
1F
100
AcDbEntity
  8
AM_6
100
AcDbText
 10
163.2382683962202
 20
67.31162721296727
 30
0.0
 40
4.8000002
  1
Ｅ
 41
0.90036056
100
AcDbText
  0
TEXT
  5
B909
330
1F
100
AcDbEntity
  8
AM_6
100
AcDbText
 10
179.2382689962202
 20
67.31162721296727
 30
0.0
 40
4.8000002
  1
Ｆ
 41
0.90036056
100
AcDbText
  0
TEXT
  5
B90A
330
1F
100
AcDbEntity
  8
AM_6
100
AcDbText
 10
211.2382689962202
 20
67.31162721296727
 30
0.0
 40
4.8000002
  1
Ｈ
 41
0.90036056
100
AcDbText
  0
TEXT
  5
B90B
330
1F
100
AcDbEntity
  8
AM_6
100
AcDbText
 10
195.2382689962202
 20
67.31162721296727
 30
0.0
 40
4.8000002
  1
Ｇ
 41
0.90036056
100
AcDbText
  0
TEXT
  5
B90C
330
1F
100
AcDbEntity
  8
AM_6
100
AcDbText
 10
131.2382689962202
 20
67.31162721296727
 30
0.0
 40
4.8000002
  1
Ｃ
 41
0.90036056
100
AcDbText
  0
TEXT
  5
B90D
330
1F
100
AcDbEntity
  8
AM_6
100
AcDbText
 10
225.3525569962202
 20
35.31163421296727
 30
0.0
 40
4.8000002
  1
１０
 41
0.75630227
100
AcDbText
  0
TEXT
  5
B90E
330
1F
100
AcDbEntity
  8
AM_6
100
AcDbText
 10
273.9525569962202
 20
35.31163421296727
 30
0.0
 40
4.8000002
  1
４８
 41
0.6302521
100
AcDbText
  0
TEXT
  5
B90F
330
1F
100
AcDbEntity
  8
AM_6
100
AcDbText
 10
99.2382659962202
 20
67.31162721296727
 30
0.0
 40
4.8000002
  1
Ａ
 41
0.90036056
100
AcDbText
  0
TEXT
  5
B910
330
1F
100
AcDbEntity
  8
AM_6
100
AcDbText
 10
241.9525519962202
 20
35.31163421296727
 30
0.0
 40
4.8000002
  1
１０
 41
0.6302521
100
AcDbText
  0
TEXT
  5
B911
330
1F
100
AcDbEntity
  8
AM_6
100
AcDbText
 10
115.2382689962202
 20
67.31162721296727
 30
0.0
 40
4.8000002
  1
Ｂ
 41
0.90036056
100
AcDbText
  0
TEXT
  5
B912
330
1F
100
AcDbEntity
  8
AM_6
100
AcDbText
 10
178.1104505962202
 20
35.31163421296727
 30
0.0
 40
4.8000002
  1
８５
 41
0.5970809400000001
100
AcDbText
  0
TEXT
  5
B913
330
1F
100
AcDbEntity
  8
AM_6
100
AcDbText
 10
145.9525559962202
 20
35.31163421296727
 30
0.0
 40
4.8000002
  1
８０
 41
0.6302521
100
AcDbText
  0
TEXT
  5
B914
330
1F
100
AcDbEntity
  8
AM_6
100
AcDbText
 10
159.0754719516779
 20
35.31163421296727
 30
0.0
 40
4.8000002
  1
７７.５
 41
0.6302521
100
AcDbText
  0
TEXT
  5
B915
330
1F
100
AcDbEntity
  8
AM_6
100
AcDbText
 10
193.9525559962202
 20
35.31163421296727
 30
0.0
 40
4.8000002
  1
３５
 41
0.6302521
100
AcDbText
  0
TEXT
  5
B916
330
1F
100
AcDbEntity
  8
AM_6
100
AcDbText
 10
129.9525559962202
 20
35.31163421296727
 30
0.0
 40
4.8000002
  1
６５
 41
0.6302521
100
AcDbText
  0
TEXT
  5
B917
330
1F
100
AcDbEntity
  8
AM_6
100
AcDbText
 10
209.9525559962202
 20
35.31163421296727
 30
0.0
 40
4.8000002
  1
２５
 41
0.6302521
100
AcDbText
  0
TEXT
  5
B918
330
1F
100
AcDbEntity
  8
AM_6
100
AcDbText
 10
65.55910699622018
 20
19.31163421296726
 30
0.0
 40
4.8000002
  1
ＳＴ－１６１－６
 41
0.5660139600000001
100
AcDbText
  0
TEXT
  5
B919
330
1F
100
AcDbEntity
  8
AM_6
100
AcDbText
 10
96.45255199622022
 20
35.31163421296727
 30
0.0
 40
4.8000002
  1
１６０
 41
0.5908613100000001
100
AcDbText
  0
TEXT
  5
B91A
330
1F
100
AcDbEntity
  8
AM_6
100
AcDbText
 10
112.4525559962202
 20
35.31163421296727
 30
0.0
 40
4.8000002
  1
１３８
 41
0.5908613100000001
100
AcDbText
  0
TEXT
  5
B91B
330
1F
100
AcDbEntity
  8
AM_6
100
AcDbText
 10
113.9525559962202
 20
59.31163021296727
 30
0.0
 40
4.8000002
  1
８８
 41
0.6302521
100
AcDbText
  0
TEXT
  5
B91C
330
1F
100
AcDbEntity
  8
AM_6
100
AcDbText
 10
259.7682329962202
 20
35.31163421296727
 30
0.0
 40
4.8000002
  1
５
 41
0.6220165800000002
100
AcDbText
  0
TEXT
  5
B91D
330
1F
100
AcDbEntity
  8
AM_6
100
AcDbText
 10
259.7682329962202
 20
43.31163421296726
 30
0.0
 40
4.8000002
  1
５
 41
0.6220165800000002
100
AcDbText
  0
TEXT
  5
B91E
330
1F
100
AcDbEntity
  8
AM_6
100
AcDbText
 10
259.3700735708877
 20
59.31162671296728
 30
0.0
 40
4.8000002
  1
４
 41
0.6220165800000002
100
AcDbText
  0
TEXT
  5
B91F
330
1F
100
AcDbEntity
  8
AM_6
100
AcDbText
 10
307.3700335708876
 20
35.31163371296727
 30
0.0
 40
4.8000002
  1
４
 41
0.6220165800000002
100
AcDbText
  0
TEXT
  5
B920
330
1F
100
AcDbEntity
  8
AM_6
100
AcDbText
 10
307.3700335708876
 20
27.31163371296727
 30
0.0
 40
4.8000002
  1
４
 41
0.6220165800000002
100
AcDbText
  0
TEXT
  5
B921
330
1F
100
AcDbEntity
  8
AM_6
100
AcDbText
 10
307.3700335708876
 20
19.31163371296727
 30
0.0
 40
4.8000002
  1
４
 41
0.6220165800000002
100
AcDbText
  0
TEXT
  5
B922
330
1F
100
AcDbEntity
  8
AM_6
100
AcDbText
 10
307.6902053366562
 20
43.31163371296727
 30
0.0
 40
4.8000002
  1
３
 41
0.6220165800000002
100
AcDbText
  0
TEXT
  5
B923
330
1F
100
AcDbEntity
  8
AM_6
100
AcDbText
 10
307.6902053366562
 20
51.31162971296728
 30
0.0
 40
4.8000002
  1
３
 41
0.6220165800000002
100
AcDbText
  0
TEXT
  5
B924
330
1F
100
AcDbEntity
  8
AM_6
100
AcDbText
 10
257.3220202253007
 20
19.31163421296726
 30
0.0
 40
4.8000002
  1
５.５
 41
0.6220165800000002
100
AcDbText
  0
DIMENSION
  5
B925
330
1F
100
AcDbEntity
  8
AM_5
100
AcDbDimension
280
     0
  2
*D7
 10
239.2016102792476
 20
110.0020742158454
 30
0.0
 11
195.2016137792476
 21
113.1020742158453
 31
0.0
 70
    32
  1
B
 71
     5
 42
87.99999299999996
 73
     0
 74
     0
 75
     0
  3
SYS$0
100
AcDbAlignedDimension
 13
151.2016172792477
 23
136.5020712158453
 33
0.0
 14
239.2016102792476
 24
136.5020712158453
 34
0.0
 50
0.0000000000001018
100
AcDbRotatedDimension
1001
ACAD
1000
DSTYLE
1002
{
1070
   179
1070
     2
1002
}
1001
ACAD_DSTYLE_DIMINSPECT
1070
   396
1000
100%
1070
   395
1000

1070
   394
1070
    33
1070
   393
1070
     0
  0
DIMENSION
  5
B926
330
1F
100
AcDbEntity
  8
AM_5
100
AcDbDimension
280
     0
  2
*D8
 10
234.2016102792477
 20
120.0020742158455
 30
0.0
 11
236.7016102792476
 21
123.1020742158454
 31
0.0
 70
    32
  1
M
 71
     5
 42
4.999999999999971
 73
     0
 74
     0
 75
     0
  3
SYS$0
100
AcDbAlignedDimension
 13
239.2016102792476
 23
136.5020712158453
 33
0.0
 14
234.2016102792477
 24
136.5020712158453
 34
0.0
 50
0.0000000000001018
100
AcDbRotatedDimension
1001
ACAD
1000
DSTYLE
1002
{
1070
   179
1070
     2
1002
}
1001
ACAD_DSTYLE_DIMINSPECT
1070
   396
1000
100%
1070
   395
1000

1070
   394
1070
    33
1070
   393
1070
     0
  0
DIMENSION
  5
B927
330
1F
100
AcDbEntity
  8
AM_5
100
AcDbDimension
280
     0
  2
*D9
 10
139.7016172792477
 20
100.0020742158454
 30
0.0
 11
194.7016137792477
 21
103.1020742158454
 31
0.0
 70
    32
  1
A
 71
     5
 42
109.999993
 73
     0
 74
     0
 75
     0
  3
SYS$0
100
AcDbAlignedDimension
 13
249.7016102792477
 23
131.5020712158453
 33
0.0
 14
139.7016172792477
 24
131.5020712158453
 34
0.0
 50
0.0000000000001018
100
AcDbRotatedDimension
1001
ACAD
1000
DSTYLE
1002
{
1070
   179
1070
     2
1002
}
1001
ACAD_DSTYLE_DIMINSPECT
1070
   396
1000
100%
1070
   395
1000

1070
   394
1070
    33
1070
   393
1070
     0
  0
DIMENSION
  5
B928
330
1F
100
AcDbEntity
  8
AM_5
100
AcDbDimension
280
     0
  2
*D10
 10
261.7016102792477
 20
131.5020712158453
 30
0.0
 11
258.6016102792476
 21
144.5020712158453
 31
0.0
 70
    32
  1
G
 71
     5
 42
25.99999999999997
 73
     0
 74
     0
 75
     0
  3
SYS$0
100
AcDbAlignedDimension
 13
249.7016102792477
 23
157.5020712158453
 33
0.0
 14
249.7016102792477
 24
131.5020712158453
 34
0.0
 50
90.0
100
AcDbRotatedDimension
1001
ACAD
1000
DSTYLE
1002
{
1070
   179
1070
     2
1002
}
1001
ACAD_DSTYLE_DIMINSPECT
1070
   396
1000
100%
1070
   395
1000

1070
   394
1070
    33
1070
   393
1070
     0
  0
LINE
  5
B929
330
1F
100
AcDbEntity
  8
AM_0
100
AcDbLine
 10
295.0966462274218
 20
202.4376770069091
 30
0.0
 11
295.0966462274218
 21
240.9376770069091
 31
0.0
  0
LINE
  5
B92A
330
1F
100
AcDbEntity
  8
AM_0
100
AcDbLine
 10
321.0966462274218
 20
202.4376770069091
 30
0.0
 11
321.0966462274218
 21
240.9376770069091
 31
0.0
  0
LINE
  5
B92B
330
1F
100
AcDbEntity
  8
AM_0
100
AcDbLine
 10
297.6966442274218
 20
240.8376770069091
 30
0.0
 11
297.6966442274218
 21
202.4376770069091
 31
0.0
  0
LINE
  5
B92C
330
1F
100
AcDbEntity
  8
AM_0
100
AcDbLine
 10
318.4966402274218
 20
240.8376770069091
 30
0.0
 11
318.4966402274218
 21
202.4376770069091
 31
0.0
  0
LINE
  5
B92D
330
1F
100
AcDbEntity
  8
AM_0
100
AcDbLine
 10
297.5966462274218
 20
243.4376770069091
 30
0.0
 11
318.5966462274217
 21
243.4376770069091
 31
0.0
  0
LINE
  5
B92E
330
1F
100
AcDbEntity
  8
AM_0
100
AcDbLine
 10
297.6966442274218
 20
240.8376770069091
 30
0.0
 11
318.4966402274218
 21
240.8376770069091
 31
0.0
  0
LINE
  5
B92F
330
1F
100
AcDbEntity
  8
AM_0
100
AcDbLine
 10
297.6966442274218
 20
233.4376770069091
 30
0.0
 11
295.0966462274218
 21
233.4376770069091
 31
0.0
  0
LINE
  5
B930
330
1F
100
AcDbEntity
  8
AM_0
100
AcDbLine
 10
318.4966402274218
 20
233.4376770069091
 30
0.0
 11
321.0966462274218
 21
233.4376770069091
 31
0.0
  0
LINE
  5
B931
330
1F
100
AcDbEntity
  8
AM_0
100
AcDbLine
 10
295.0966462274218
 20
202.4376770069091
 30
0.0
 11
297.6966442274218
 21
202.4376770069091
 31
0.0
  0
LINE
  5
B932
330
1F
100
AcDbEntity
  8
AM_0
100
AcDbLine
 10
318.4966402274218
 20
202.4376770069091
 30
0.0
 11
321.0966462274218
 21
202.4376770069091
 31
0.0
  0
LINE
  5
B933
330
1F
100
AcDbEntity
  8
AM_7
100
AcDbLine
 10
286.5966462274218
 20
214.4376770069091
 30
0.0
 11
333.5966422274217
 21
214.4376770069091
 31
0.0
  0
LINE
  5
B934
330
1F
100
AcDbEntity
  8
AM_0
100
AcDbLine
 10
290.5966462274218
 20
210.4376770069091
 30
0.0
 11
295.0966462274218
 21
210.4376770069091
 31
0.0
  0
LINE
  5
B935
330
1F
100
AcDbEntity
  8
AM_0
100
AcDbLine
 10
290.5966462274218
 20
218.4376775069091
 30
0.0
 11
295.0966462274218
 21
218.4376775069091
 31
0.0
  0
LINE
  5
B936
330
1F
100
AcDbEntity
  8
AM_0
100
AcDbLine
 10
290.5966462274218
 20
206.9376770069091
 30
0.0
 11
295.0966462274218
 21
206.9376770069091
 31
0.0
  0
LINE
  5
B937
330
1F
100
AcDbEntity
  8
AM_0
100
AcDbLine
 10
290.5966462274218
 20
221.9376771069091
 30
0.0
 11
295.0966462274218
 21
221.9376771069091
 31
0.0
  0
LINE
  5
B938
330
1F
100
AcDbEntity
  8
AM_0
100
AcDbLine
 10
324.0966462274218
 20
206.9376770069091
 30
0.0
 11
327.0966462274218
 21
206.9376770069091
 31
0.0
  0
LINE
  5
B939
330
1F
100
AcDbEntity
  8
AM_0
100
AcDbLine
 10
324.0966462274218
 20
221.9376771069091
 30
0.0
 11
327.0966462274218
 21
221.9376771069091
 31
0.0
  0
LINE
  5
B93A
330
1F
100
AcDbEntity
  8
AM_0
100
AcDbLine
 10
289.5966462274218
 20
208.687677056909
 30
0.0
 11
289.5966462274218
 21
220.1876771069091
 31
0.0
  0
LINE
  5
B93B
330
1F
100
AcDbEntity
  8
AM_0
100
AcDbLine
 10
321.0966462274218
 20
206.737680106909
 30
0.0
 11
323.0966462274218
 21
206.737680106909
 31
0.0
  0
LINE
  5
B93C
330
1F
100
AcDbEntity
  8
AM_0
100
AcDbLine
 10
321.0966462274218
 20
222.1376901069091
 30
0.0
 11
323.0966462274218
 21
222.1376901069091
 31
0.0
  0
LINE
  5
B93D
330
1F
100
AcDbEntity
  8
AM_0
100
AcDbLine
 10
323.0966462274218
 20
206.737680106909
 30
0.0
 11
323.0966462274218
 21
222.1376901069091
 31
0.0
  0
LINE
  5
B93E
330
1F
100
AcDbEntity
  8
AM_0
100
AcDbLine
 10
330.5966422274217
 20
210.4376770069091
 30
0.0
 11
330.5966422274217
 21
218.4376775069091
 31
0.0
  0
LINE
  5
B93F
330
1F
100
AcDbEntity
  8
AM_0
100
AcDbLine
 10
297.6966442274218
 20
218.4376775069091
 30
0.0
 11
299.0966462274218
 21
218.4376775069091
 31
0.0
  0
LINE
  5
B940
330
1F
100
AcDbEntity
  8
AM_0
100
AcDbLine
 10
297.6966442274218
 20
210.4376770069091
 30
0.0
 11
299.0966462274218
 21
210.4376770069091
 31
0.0
  0
LINE
  5
B941
330
1F
100
AcDbEntity
  8
AM_0
100
AcDbLine
 10
317.0966462274218
 20
218.4376775069091
 30
0.0
 11
318.4966402274218
 21
218.4376775069091
 31
0.0
  0
LINE
  5
B942
330
1F
100
AcDbEntity
  8
AM_0
100
AcDbLine
 10
317.0966462274218
 20
210.4376770069091
 30
0.0
 11
318.4966402274218
 21
210.4376770069091
 31
0.0
  0
LINE
  5
B943
330
1F
100
AcDbEntity
  8
AM_0
100
AcDbLine
 10
328.0966462274218
 20
210.4376770069091
 30
0.0
 11
330.5966422274217
 21
210.4376770069091
 31
0.0
  0
LINE
  5
B944
330
1F
100
AcDbEntity
  8
AM_0
100
AcDbLine
 10
328.0966462274218
 20
218.4376775069091
 30
0.0
 11
330.5966422274217
 21
218.4376775069091
 31
0.0
  0
LINE
  5
B945
330
1F
100
AcDbEntity
  8
AM_0
100
AcDbLine
 10
324.0966461425734
 20
210.4376770069091
 30
0.0
 11
327.0966462274218
 21
210.4376770069091
 31
0.0
  0
LINE
  5
B946
330
1F
100
AcDbEntity
  8
AM_0
100
AcDbLine
 10
324.0966455486342
 20
218.4376775069091
 30
0.0
 11
327.0966462274218
 21
218.4376775069091
 31
0.0
  0
LINE
  5
B947
330
1F
100
AcDbEntity
  8
AM_0
100
AcDbLine
 10
317.0966462274218
 20
239.4376771069091
 30
0.0
 11
313.0966462274218
 21
239.4376771069091
 31
0.0
  0
LINE
  5
B948
330
1F
100
AcDbEntity
  8
AM_0
100
AcDbLine
 10
303.0966462274218
 20
239.4376771069091
 30
0.0
 11
299.0966462274218
 21
239.4376771069091
 31
0.0
  0
LINE
  5
B949
330
1F
100
AcDbEntity
  8
AM_0
100
AcDbLine
 10
317.0966462274218
 20
189.437677106909
 30
0.0
 11
313.0966462274218
 21
189.437677106909
 31
0.0
  0
LINE
  5
B94A
330
1F
100
AcDbEntity
  8
AM_0
100
AcDbLine
 10
313.0966382274217
 20
189.437687106909
 30
0.0
 11
311.5966382274217
 21
190.937689106909
 31
0.0
  0
LINE
  5
B94B
330
1F
100
AcDbEntity
  8
AM_0
100
AcDbLine
 10
311.5966462274218
 20
194.937677106909
 30
0.0
 11
304.5966462274218
 21
194.937677106909
 31
0.0
  0
LINE
  5
B94C
330
1F
100
AcDbEntity
  8
AM_0
100
AcDbLine
 10
311.5966462274218
 20
190.9376771069091
 30
0.0
 11
311.5966462274218
 21
237.937677106909
 31
0.0
  0
LINE
  5
B94D
330
1F
100
AcDbEntity
  8
AM_0
100
AcDbLine
 10
313.0966462274218
 20
239.437679106909
 30
0.0
 11
311.5966502274218
 21
237.9376831069091
 31
0.0
  0
LINE
  5
B94E
330
1F
100
AcDbEntity
  8
AM_0
100
AcDbLine
 10
311.5966462274218
 20
233.937677106909
 30
0.0
 11
304.5966462274218
 21
233.937677106909
 31
0.0
  0
LINE
  5
B94F
330
1F
100
AcDbEntity
  8
AM_0
100
AcDbLine
 10
304.5966462274218
 20
190.9376771069091
 30
0.0
 11
304.5966462274218
 21
237.937677106909
 31
0.0
  0
LINE
  5
B950
330
1F
100
AcDbEntity
  8
AM_0
100
AcDbLine
 10
303.0966382274217
 20
239.4376851069091
 30
0.0
 11
304.5966422274217
 21
237.9376831069091
 31
0.0
  0
LINE
  5
B951
330
1F
100
AcDbEntity
  8
AM_0
100
AcDbLine
 10
303.0966462274218
 20
189.437677106909
 30
0.0
 11
303.0966462274218
 21
239.4376771069091
 31
0.0
  0
LINE
  5
B952
330
1F
100
AcDbEntity
  8
AM_0
100
AcDbLine
 10
299.0966462274218
 20
189.437677106909
 30
0.0
 11
299.0966462274218
 21
239.4376771069091
 31
0.0
  0
LINE
  5
B953
330
1F
100
AcDbEntity
  8
AM_0
100
AcDbLine
 10
313.0966462274218
 20
189.437677106909
 30
0.0
 11
313.0966462274218
 21
239.4376771069091
 31
0.0
  0
LINE
  5
B954
330
1F
100
AcDbEntity
  8
AM_0
100
AcDbLine
 10
317.0966462274218
 20
189.437677106909
 30
0.0
 11
317.0966462274218
 21
239.4376771069091
 31
0.0
  0
LINE
  5
B955
330
1F
100
AcDbEntity
  8
AM_0
100
AcDbLine
 10
303.0966462274218
 20
189.437681106909
 30
0.0
 11
304.5966462274218
 21
190.937683106909
 31
0.0
  0
LINE
  5
B956
330
1F
100
AcDbEntity
  8
AM_0
100
AcDbLine
 10
303.0966462274218
 20
189.437677106909
 30
0.0
 11
299.0966462274218
 21
189.437677106909
 31
0.0
  0
LINE
  5
B957
330
1F
100
AcDbEntity
  8
AM_0
100
AcDbLine
 10
328.0966462274218
 20
208.687677056909
 30
0.0
 11
328.0966462274218
 21
220.1876771069091
 31
0.0
  0
ARC
  5
B958
330
1F
100
AcDbEntity
  8
AM_0
100
AcDbCircle
 10
291.6278962274218
 20
208.687677056909
 30
0.0
 40
2.03125
100
AcDbArc
 50
120.5102370000034
 51
239.4897600000016
  0
ARC
  5
B959
330
1F
100
AcDbEntity
  8
AM_0
100
AcDbCircle
 10
298.0966462274218
 20
214.4376770069091
 30
0.0
 40
8.5
100
AcDbArc
 50
151.9275160000046
 51
208.0724800000038
  0
ARC
  5
B95A
330
1F
100
AcDbEntity
  8
AM_0
100
AcDbCircle
 10
291.6278962274218
 20
220.1876771069091
 30
0.0
 40
2.03125
100
AcDbArc
 50
120.5102370000034
 51
239.4897600000016
  0
ARC
  5
B95B
330
1F
100
AcDbEntity
  8
AM_0
100
AcDbCircle
 10
326.0653962274218
 20
208.687677056909
 30
0.0
 40
2.03125
100
AcDbArc
 50
300.5102399999982
 51
59.4897600000017
  0
ARC
  5
B95C
330
1F
100
AcDbEntity
  8
AM_0
100
AcDbCircle
 10
319.5966462274217
 20
214.4376770069091
 30
0.0
 40
8.5
100
AcDbArc
 50
331.9275199999962
 51
28.07248000000382
  0
ARC
  5
B95D
330
1F
100
AcDbEntity
  8
AM_0
100
AcDbCircle
 10
326.0653962274218
 20
220.1876771069091
 30
0.0
 40
2.03125
100
AcDbArc
 50
300.5102399999982
 51
59.4897600000017
  0
ARC
  5
B95E
330
1F
100
AcDbEntity
  8
AM_0
100
AcDbCircle
 10
325.1278962274218
 20
220.1876771069091
 30
0.0
 40
2.03125
100
AcDbArc
 50
120.5102370000034
 51
239.4897600000016
  0
ARC
  5
B95F
330
1F
100
AcDbEntity
  8
AM_0
100
AcDbCircle
 10
331.5966422274217
 20
214.4376770069091
 30
0.0
 40
8.5
100
AcDbArc
 50
151.9275160000046
 51
208.0724800000038
  0
ARC
  5
B960
330
1F
100
AcDbEntity
  8
AM_0
100
AcDbCircle
 10
325.1278962274218
 20
208.687677056909
 30
0.0
 40
2.03125
100
AcDbArc
 50
120.5102370000034
 51
239.4897600000016
  0
ARC
  5
B961
330
1F
100
AcDbEntity
  8
AM_0
100
AcDbCircle
 10
297.5966462274218
 20
240.9376770069092
 30
0.0
 40
2.5
100
AcDbArc
 50
90.0
 51
180.0000000000012
1001
GENIUS_GENODEF_13
1002
{
1000
HIER
1070
     0
1002
}
1002
{
1000
MANEDIT
1070
     0
1002
}
1002
{
1000
NOSEL
1070
     0
1002
}
1002
{
1000
BEHIND
1070
     0
1002
}
1002
{
1000
OTHER
1070
     0
1002
}
1002
{
1000
REACTOR
1002
}
1001
GENIUS_GENOBJ-N-FIL_13
1002
{
1000
OWNER
1000
GEN
1002
}
  0
ARC
  5
B962
330
1F
100
AcDbEntity
  8
AM_0
100
AcDbCircle
 10
318.5966462274217
 20
240.9376770069091
 30
0.0
 40
2.5
100
AcDbArc
 50
0.0
 51
90.0
1001
GENIUS_GENODEF_13
1002
{
1000
HIER
1070
     0
1002
}
1002
{
1000
MANEDIT
1070
     0
1002
}
1002
{
1000
NOSEL
1070
     0
1002
}
1002
{
1000
BEHIND
1070
     0
1002
}
1002
{
1000
OTHER
1070
     0
1002
}
1002
{
1000
REACTOR
1002
}
1001
GENIUS_GENOBJ-N-FIL_13
1002
{
1000
OWNER
1000
GEN
1002
}
  0
LINE
  5
B963
330
1F
100
AcDbEntity
  8
AM_7
 48
1.199999999999999
100
AcDbLine
 10
308.0966462274217
 20
246.4376770069091
 30
0.0
 11
308.0966462274218
 21
186.437687106909
 31
0.0
1001
GENIUS_GENODEF_13
1002
{
1000
HIER
1070
     0
1002
}
1002
{
1000
MANEDIT
1070
     0
1002
}
1002
{
1000
NOSEL
1070
     0
1002
}
1002
{
1000
BEHIND
1070
     0
1002
}
1002
{
1000
OTHER
1070
     0
1002
}
1002
{
1000
REACTOR
1002
}
1001
GENIUS_GENOBJ-N-CEN_13
1002
{
1000
OWNER
1000
GEN
1002
}
1001
GENIUS_GENCEN_19
1002
{
1040
3.0
1002
}
  0
DIMENSION
  5
B964
330
1F
100
AcDbEntity
  8
AM_5
100
AcDbDimension
280
     0
  2
*D11
 10
317.0966462274218
 20
167.437677106909
 30
0.0
 11
308.0966462274218
 21
170.537677106909
 31
0.0
 70
    32
  1
H
 71
     5
 42
18.0
 73
     0
 74
     0
 75
     0
  3
SYS$0
100
AcDbAlignedDimension
 13
299.0966462274218
 23
189.437677106909
 33
0.0
 14
317.0966462274218
 24
189.437677106909
 34
0.0
 50
0.0000000000001018
100
AcDbRotatedDimension
1001
ACAD
1000
DSTYLE
1002
{
1070
   179
1070
     2
1002
}
1001
ACAD_DSTYLE_DIMINSPECT
1070
   396
1000
100%
1070
   395
1000

1070
   394
1070
    33
1070
   393
1070
     0
  0
DIMENSION
  5
B965
330
1F
100
AcDbEntity
  8
AM_5
100
AcDbDimension
280
     0
  2
*D12
 10
311.5966382274217
 20
177.4376771069091
 30
0.0
 11
308.0966422274217
 21
180.5376771069091
 31
0.0
 70
    32
  1
I
 71
     5
 42
6.999991999999963
 73
     0
 74
     0
 75
     0
  3
SYS$0
100
AcDbAlignedDimension
 13
304.5966462274218
 23
190.937683106909
 33
0.0
 14
311.5966382274217
 24
190.937689106909
 34
0.0
 50
0.0000000000001018
100
AcDbRotatedDimension
1001
ACAD
1000
DSTYLE
1002
{
1070
   179
1070
     2
1002
}
1001
ACAD_DSTYLE_DIMINSPECT
1070
   396
1000
100%
1070
   395
1000

1070
   394
1070
    33
1070
   393
1070
     0
  0
DIMENSION
  5
B966
330
1F
100
AcDbEntity
  8
AM_5
100
AcDbDimension
280
     0
  2
*D13
 10
317.0966462274218
 20
198.3967876498241
 30
0.0
 11
326.8956050684598
 21
198.3967876498241
 31
0.0
 70
   160
  1
K
 71
     5
 42
4.0
 73
     0
 74
     0
 75
     0
  3
SYS$0
100
AcDbAlignedDimension
 13
313.0966462274218
 23
189.437677106909
 33
0.0
 14
317.0966462274218
 24
189.437677106909
 34
0.0
100
AcDbRotatedDimension
1001
ACAD_DSTYLE_DIMINSPECT
1070
   396
1000
100%
1070
   395
1000

1070
   394
1070
    33
1070
   393
1070
     0
1001
ACAD
1000
DSTYLE
1002
{
1070
    75
1070
     1
1070
    76
1070
     1
1070
   179
1070
     2
1002
}
  0
DIMENSION
  5
B967
330
1F
100
AcDbEntity
  8
AM_5
100
AcDbDimension
280
     0
  2
*D14
 10
304.5966422274217
 20
237.9376831069091
 30
0.0
 11
308.0966431297147
 21
253.9808291885943
 31
0.0
 70
    34
 71
     5
 42
1.570796993460231
 73
     0
 74
     0
 75
     0
  3
SYS$2
100
AcDb2LineAngularDimension
 13
313.0966462274218
 23
239.437679106909
 33
0.0
 14
311.5966502274218
 24
237.9376831069091
 34
0.0
 15
303.0966382274217
 25
239.4376851069091
 35
0.0
 16
303.8796646241697
 26
250.1756517677101
 36
0.0
1001
ACAD
1000
DSTYLE
1002
{
1070
   179
1070
     2
1002
}
1001
ACAD_DSTYLE_DIMINSPECT
1070
   396
1000
100%
1070
   395
1000

1070
   394
1070
    33
1070
   393
1070
     0
  0
DIMENSION
  5
B968
330
1F
100
AcDbEntity
  8
AM_5
100
AcDbDimension
280
     0
  2
*D15
 10
153.7250853610394
 20
140.1855785609021
 30
0.0
 11
134.1568045749139
 21
168.2982107262276
 31
0.0
 70
   163
  1
%%cJ
 71
     5
 42
10.00000000000005
 73
     0
 74
     0
 75
     0
  3
SYS$3
100
AcDbDiametricDimension
 15
148.6781491974557
 25
148.8185638707883
 35
0.0
 40
0.0
1001
ACAD_DSTYLE_DIMRADIAL_EXTENSION
1070
   387
1070
     1
1070
   388
1040
0.0
1070
   390
1040
0.0
1001
ACAD_DSTYLE_DIMINSPECT
1070
   396
1000
100%
1070
   395
1000

1070
   394
1070
    33
1070
   393
1070
     0
1001
ACAD
1000
DSTYLE
1002
{
1070
   172
1070
     1
1070
   179
1070
     2
1070
   289
1070
     2
1070
   342
1005
B610
1002
}
  0
DIMENSION
  5
B969
330
1F
100
AcDbEntity
  8
AM_5
100
AcDbDimension
280
     0
  2
*D16
 10
340.5966472374217
 20
194.937677106909
 30
0.0
 11
337.4966472374217
 21
219.1876770569091
 31
0.0
 70
    32
  1
E
 71
     5
 42
48.49999990000004
 73
     0
 74
     0
 75
     0
  3
SYS$0
100
AcDbAlignedDimension
 13
318.5966462274217
 23
243.4376770069091
 33
0.0
 14
311.5966462274217
 24
194.937677106909
 34
0.0
 50
90.0
100
AcDbRotatedDimension
1001
ACAD
1000
DSTYLE
1002
{
1070
   179
1070
     2
1002
}
1001
ACAD_DSTYLE_DIMINSPECT
1070
   396
1000
100%
1070
   395
1000

1070
   394
1070
    33
1070
   393
1070
     0
  0
DIMENSION
  5
B96A
330
1F
100
AcDbEntity
  8
AM_5
100
AcDbDimension
280
     0
  2
*D17
 10
350.5966472374217
 20
189.437677106909
 30
0.0
 11
347.4966472374216
 21
216.4376770569091
 31
0.0
 70
    32
  1
F
 71
     5
 42
53.99999990000009
 73
     0
 74
     0
 75
     0
  3
SYS$0
100
AcDbAlignedDimension
 13
318.5966462274217
 23
243.4376770069091
 33
0.0
 14
317.0966462274217
 24
189.437677106909
 34
0.0
 50
90.0
100
AcDbRotatedDimension
1001
ACAD
1000
DSTYLE
1002
{
1070
   179
1070
     2
1002
}
1001
ACAD_DSTYLE_DIMINSPECT
1070
   396
1000
100%
1070
   395
1000

1070
   394
1070
    33
1070
   393
1070
     0
  0
DIMENSION
  5
B96B
330
1F
100
AcDbEntity
  8
AM_5
100
AcDbDimension
280
     0
  2
*D18
 10
295.0966462274218
 20
261.4376770069091
 30
0.0
 11
308.0966462274217
 21
264.5376770069091
 31
0.0
 70
    32
  1
G
 71
     5
 42
25.99999999999994
 73
     0
 74
     0
 75
     0
  3
SYS$0
100
AcDbAlignedDimension
 13
321.0966462274218
 23
240.9376770069091
 33
0.0
 14
295.0966462274218
 24
240.9376770069091
 34
0.0
100
AcDbRotatedDimension
1001
ACAD
1000
DSTYLE
1002
{
1070
   179
1070
     2
1002
}
1001
ACAD_DSTYLE_DIMINSPECT
1070
   396
1000
100%
1070
   395
1000

1070
   394
1070
    33
1070
   393
1070
     0
  0
DIMENSION
  5
B96C
330
1F
100
AcDbEntity
  8
AM_5
100
AcDbDimension
280
     0
  2
*D19
 10
278.5966452274218
 20
194.937677106909
 30
0.0
 11
275.4966452274217
 21
214.4376771069091
 31
0.0
 70
    32
  1
%%cC
 71
     5
 42
39.0
 73
     0
 74
     0
 75
     0
  3
SYS$0
100
AcDbAlignedDimension
 13
304.5966462274218
 23
233.937677106909
 33
0.0
 14
304.5966462274218
 24
194.937677106909
 34
0.0
 50
90.0
100
AcDbRotatedDimension
1001
ACAD
1000
DSTYLE
1002
{
1070
   179
1070
     2
1002
}
1001
ACAD_DSTYLE_DIMINSPECT
1070
   396
1000
100%
1070
   395
1000

1070
   394
1070
    33
1070
   393
1070
     0
  0
DIMENSION
  5
B96D
330
1F
100
AcDbEntity
  8
AM_5
100
AcDbDimension
280
     0
  2
*D20
 10
268.5966452274218
 20
189.437677106909
 30
0.0
 11
265.4966452274217
 21
214.4376771069091
 31
0.0
 70
    32
  1
%%cD
 71
     5
 42
50.0
 73
     0
 74
     0
 75
     0
  3
SYS$0
100
AcDbAlignedDimension
 13
299.0966462274218
 23
239.4376771069091
 33
0.0
 14
299.0966462274218
 24
189.437677106909
 34
0.0
 50
90.0
100
AcDbRotatedDimension
1001
ACAD
1000
DSTYLE
1002
{
1070
   179
1070
     2
1002
}
1001
ACAD_DSTYLE_DIMINSPECT
1070
   396
1000
100%
1070
   395
1000

1070
   394
1070
    33
1070
   393
1070
     0
  0
DIMENSION
  5
B96E
330
1F
100
AcDbEntity
  8
AM_5
100
AcDbDimension
280
     0
  2
*D21
 10
127.7016162792476
 20
122.0020752158453
 30
0.0
 11
124.6016162792476
 21
142.5020732158453
 31
0.0
 70
    32
  1
L
 71
     5
 42
40.99999599999996
 73
     0
 74
     0
 75
     0
  3
SYS$0
100
AcDbAlignedDimension
 13
188.9516112824256
 23
163.0020712158453
 33
0.0
 14
190.7016111792476
 24
122.0020752158453
 34
0.0
 50
90.00000000000001
100
AcDbRotatedDimension
1001
ACAD
1000
DSTYLE
1002
{
1070
   179
1070
     2
1002
}
1001
ACAD_DSTYLE_DIMINSPECT
1070
   396
1000
100%
1070
   395
1000

1070
   394
1070
    33
1070
   393
1070
     0
  0
LINE
  5
BABF
330
1F
100
AcDbEntity
  8
AM_2
100
AcDbLine
 10
284.9525569962202
 20
73.71162721296727
 30
0.0
 11
284.9525569962202
 21
17.71163421296727
 31
0.0
  0
TEXT
  5
BAC0
330
1F
100
AcDbEntity
  8
AM_6
100
AcDbText
 10
289.9525169962202
 20
19.31163421296726
 30
0.0
 40
4.8000002
  1
 ６
 41
0.6302521
100
AcDbText
  0
TEXT
  5
BAC1
330
1F
100
AcDbEntity
  8
AM_6
100
AcDbText
 10
289.9525169962202
 20
27.31163421296726
 30
0.0
 40
4.8000002
  1
 ６
 41
0.6302521
100
AcDbText
  0
TEXT
  5
BAC2
330
1F
100
AcDbEntity
  8
AM_6
100
AcDbText
 10
289.9525169962202
 20
43.31163421296726
 30
0.0
 40
4.8000002
  1
 ５
 41
0.6302521
100
AcDbText
  0
TEXT
  5
BAC3
330
1F
100
AcDbEntity
  8
AM_6
100
AcDbText
 10
289.9525169962202
 20
51.31163021296727
 30
0.0
 40
4.8000002
  1
 ５
 41
0.6302521
100
AcDbText
  0
TEXT
  5
BAC4
330
1F
100
AcDbEntity
  8
AM_6
100
AcDbText
 10
289.9525169962202
 20
59.31163021296727
 30
0.0
 40
4.8000002
  1
 ５
 41
0.6302521
100
AcDbText
  0
TEXT
  5
BAC5
330
1F
100
AcDbEntity
  8
AM_6
100
AcDbText
 10
291.2382269962202
 20
67.31162721296727
 30
0.0
 40
4.8000002
  1
Ｍ
 41
0.90036056
100
AcDbText
  0
TEXT
  5
BAC6
330
1F
100
AcDbEntity
  8
AM_6
100
AcDbText
 10
289.9525169962202
 20
35.31163421296727
 30
0.0
 40
4.8000002
  1
 ５
 41
0.6302521
100
AcDbText
  0
ENDSEC
  0
SECTION
  2
OBJECTS
  0
DICTIONARY
  5
C
330
0
100
AcDbDictionary
281
     1
  3
ACAD_2007HEADERVARS_RT
350
BB0E
  3
ACAD_BGPLOT_KEY
350
AB06
  3
ACAD_CIP_PREVIOUS_PRODUCT_INFO
350
BAA6
  3
ACAD_COLOR
350
A91D
  3
ACAD_DETAILVIEWSTYLE
350
BA9B
  3
ACAD_GROUP
350
D
  3
ACAD_LAYOUT
350
1A
  3
ACAD_MATERIAL
350
A91C
  3
ACAD_MLEADERSTYLE
350
B595
  3
ACAD_MLINESTYLE
350
17
  3
ACAD_PLOTSETTINGS
350
19
  3
ACAD_PLOTSTYLENAME
350
E
  3
ACAD_SCALELIST
350
B573
  3
ACAD_SECTIONVIEWSTYLE
350
BA99
  3
ACAD_TABLESTYLE
350
AAB9
  3
ACAD_VISUALSTYLE
350
B0F1
  3
AcAsAppObject
350
3DA1
  3
ACASGREF_MASTER
350
3DE9
  3
ACDB_RECOMPOSE_DATA
350
BB84
  3
AcDbVariableDictionary
350
34
  3
AD_APPL
350
3E01
  3
AD_GREF_MODULE
350
3DEA
  3
AD_MAPI_MODULE
350
3E06
  3
ASE_INDEX_DICTIONARY
350
B570
  3
ASURF_STATIC_VARS
350
3DA2
  3
AutoSurf_SysVars
350
3DA3
  3
gmRefExt
350
BB79
  3
HCJX_INFO
350
BB7A
  3
MAPISURF_MODULE
350
3DEB
  0
DICTIONARY
  5
3F95
330
2
100
AcDbDictionary
280
     1
281
     1
  3
ACAD_LAYERFILTERS
360
B4F7
  3
ACAD_LAYERSTATES
360
3F96
  3
ACLYDICTIONARY
360
B4F6
  3
AMLAYER_GROUPCOLORS
360
AAB4
  0
DICTIONARY
  5
BA26
330
10
100
AcDbDictionary
280
     1
281
     1
  3
ADSK_XREC_LAYER_RECONCILED
360
BA27
  0
DICTIONARY
  5
BA28
330
5F85
100
AcDbDictionary
280
     1
281
     1
  3
ADSK_XREC_LAYER_RECONCILED
360
BA29
  0
DICTIONARY
  5
BA2A
330
AC9F
100
AcDbDictionary
280
     1
281
     1
  3
ADSK_XREC_LAYER_RECONCILED
360
BA2B
  0
DICTIONARY
  5
BA2C
330
ACA0
100
AcDbDictionary
280
     1
281
     1
  3
ADSK_XREC_LAYER_RECONCILED
360
BA2D
  0
DICTIONARY
  5
BA2E
330
ACA1
100
AcDbDictionary
280
     1
281
     1
  3
ADSK_XREC_LAYER_RECONCILED
360
BA2F
  0
DICTIONARY
  5
BA30
330
ACC8
100
AcDbDictionary
280
     1
281
     1
  3
ADSK_XREC_LAYER_RECONCILED
360
BA31
  0
DICTIONARY
  5
BA32
330
ACC9
100
AcDbDictionary
280
     1
281
     1
  3
ADSK_XREC_LAYER_RECONCILED
360
BA33
  0
DICTIONARY
  5
BA34
330
ACCA
100
AcDbDictionary
280
     1
281
     1
  3
ADSK_XREC_LAYER_RECONCILED
360
BA35
  0
DICTIONARY
  5
BA36
330
AD60
100
AcDbDictionary
280
     1
281
     1
  3
ADSK_XREC_LAYER_RECONCILED
360
BA37
  0
DICTIONARY
  5
BA38
330
AD64
100
AcDbDictionary
280
     1
281
     1
  3
ADSK_XREC_LAYER_RECONCILED
360
BA39
  0
DICTIONARY
  5
BA3A
330
AD67
100
AcDbDictionary
280
     1
281
     1
  3
ADSK_XREC_LAYER_RECONCILED
360
BA3B
  0
DICTIONARY
  5
BA3C
330
AD68
100
AcDbDictionary
280
     1
281
     1
  3
ADSK_XREC_LAYER_RECONCILED
360
BA3D
  0
DICTIONARY
  5
BA3E
330
AD69
100
AcDbDictionary
280
     1
281
     1
  3
ADSK_XREC_LAYER_RECONCILED
360
BA3F
  0
DICTIONARY
  5
BA40
330
AD6A
100
AcDbDictionary
280
     1
281
     1
  3
ADSK_XREC_LAYER_RECONCILED
360
BA41
  0
DICTIONARY
  5
BA42
330
AD6E
100
AcDbDictionary
280
     1
281
     1
  3
ADSK_XREC_LAYER_RECONCILED
360
BA43
  0
DICTIONARY
  5
BA44
330
AD6F
100
AcDbDictionary
280
     1
281
     1
  3
ADSK_XREC_LAYER_RECONCILED
360
BA45
  0
DICTIONARY
  5
BA46
330
B1B6
100
AcDbDictionary
280
     1
281
     1
  3
ADSK_XREC_LAYER_RECONCILED
360
BA47
  0
DICTIONARY
  5
BA48
330
B2EB
100
AcDbDictionary
280
     1
281
     1
  3
ADSK_XREC_LAYER_RECONCILED
360
BA49
  0
DICTIONARY
  5
BA4A
330
B2EC
100
AcDbDictionary
280
     1
281
     1
  3
ADSK_XREC_LAYER_RECONCILED
360
BA4B
  0
DICTIONARY
  5
8A
330
1F
100
AcDbDictionary
280
     1
281
     1
  3
ACAD_SORTENTS
360
B1BA
  0
DICTIONARY
  5
B5F9
330
B5F8
100
AcDbDictionary
280
     1
281
     1
  3
ACAD_SORTENTS
360
B5FA
  0
DICTIONARY
  5
BB0E
102
{ACAD_REACTORS
330
C
102
}
330
C
100
AcDbDictionary
281
     1
  3
DIMARCSYM
350
BB0F
  0
DICTIONARY
  5
AB06
102
{ACAD_REACTORS
330
C
102
}
330
C
100
AcDbDictionary
280
     1
281
     1
  0
XRECORD
  5
BAA6
102
{ACAD_REACTORS
330
C
102
}
330
C
100
AcDbXrecord
280
     1
300
ACDLT
300
2016
300
ACDLT_F_S
  0
DICTIONARY
  5
A91D
102
{ACAD_REACTORS
330
C
102
}
330
C
100
AcDbDictionary
281
     1
  0
DICTIONARY
  5
BA9B
102
{ACAD_REACTORS
330
C
102
}
330
C
100
AcDbDictionary
281
     1
  3
Metric50
350
BA9C
  0
DICTIONARY
  5
D
102
{ACAD_REACTORS
330
C
102
}
330
C
100
AcDbDictionary
281
     1
  0
DICTIONARY
  5
1A
102
{ACAD_REACTORS
330
C
102
}
330
C
100
AcDbDictionary
281
     1
  3
Model
350
22
  3
ﾚｲｱｳﾄ1
350
1E
  3
ﾚｲｱｳﾄ2
350
26
  0
DICTIONARY
  5
A91C
102
{ACAD_REACTORS
330
C
102
}
330
C
100
AcDbDictionary
281
     1
  3
ByBlock
350
B0EF
  3
ByLayer
350
B0EE
  3
Global
350
B0F0
  0
DICTIONARY
  5
B595
102
{ACAD_REACTORS
330
C
102
}
330
C
100
AcDbDictionary
281
     1
  3
Standard
350
B596
  0
DICTIONARY
  5
17
102
{ACAD_REACTORS
330
C
102
}
330
C
100
AcDbDictionary
281
     1
  3
Standard
350
18
  0
DICTIONARY
  5
19
102
{ACAD_REACTORS
330
C
102
}
330
C
100
AcDbDictionary
281
     1
  0
ACDBDICTIONARYWDFLT
  5
E
102
{ACAD_REACTORS
330
C
102
}
330
C
100
AcDbDictionary
281
     1
  3
Normal
350
F
100
AcDbDictionaryWithDefault
340
F
  0
DICTIONARY
  5
B573
102
{ACAD_REACTORS
330
C
102
}
330
C
100
AcDbDictionary
281
     1
  3
A0
350
B574
  3
A1
350
B575
  3
A2
350
B576
  3
A3
350
B577
  3
A4
350
B578
  3
A5
350
B579
  3
A6
350
B57A
  3
A7
350
B57B
  3
A8
350
B57C
  3
A9
350
B57D
  3
B0
350
B57E
  3
B1
350
B57F
  3
B2
350
B580
  3
B3
350
B581
  3
B4
350
B582
  3
B5
350
B583
  3
B6
350
B584
  3
B7
350
B585
  3
B8
350
B586
  3
B9
350
B587
  3
C0
350
B588
  3
C1
350
B589
  3
C2
350
B58A
  3
C3
350
B58B
  3
C4
350
B58C
  3
C5
350
B58D
  3
C6
350
B58E
  3
C7
350
B58F
  3
C8
350
B590
  3
C9
350
B591
  3
D0
350
B592
  3
D1
350
B593
  3
D2
350
B594
  0
DICTIONARY
  5
BA99
102
{ACAD_REACTORS
330
C
102
}
330
C
100
AcDbDictionary
281
     1
  3
Metric50
350
BA9A
  0
DICTIONARY
  5
AAB9
102
{ACAD_REACTORS
330
C
102
}
330
C
100
AcDbDictionary
281
     1
  3
Standard
350
AABA
  0
DICTIONARY
  5
B0F1
102
{ACAD_REACTORS
330
C
102
}
330
C
100
AcDbDictionary
281
     1
  3
2dWireframe
350
B0F7
  3
3D Hidden
350
B0F9
  3
3dWireframe
350
B0F8
  3
Basic
350
B0F6
  3
Brighten
350
B0FD
  3
ColorChange
350
B101
  3
Conceptual
350
B0FA
  3
Dim
350
B0FC
  3
EdgeColorOff
350
BA98
  3
Facepattern
350
B100
  3
Flat
350
B0F2
  3
FlatWithEdges
350
B0F3
  3
Gouraud
350
B0F4
  3
GouraudWithEdges
350
B0F5
  3
Hidden
350
BA90
  3
JitterOff
350
BA96
  3
Linepattern
350
B0FF
  3
OverhangOff
350
BA97
  3
Realistic
350
B0FB
  3
Shaded
350
BA95
  3
Shaded with edges
350
BA94
  3
Shades of Gray
350
BA91
  3
Sketchy
350
BA92
  3
Thicken
350
B0FE
  3
Wireframe
350
BA8F
  3
X-Ray
350
BA93
  0
ACAD_PROXY_OBJECT
  5
3DA1
102
{ACAD_REACTORS
330
C
102
}
330
C
100
AcDbProxyObject
 90
      499
 91
      576
 95
   917527
 70
     0
161
                10
310
404C
1001
ACAD
1000
AcRTDxfName
1000
ASAPP
  0
ACAD_PROXY_OBJECT
  5
3DE9
102
{ACAD_REACTORS
330
C
102
}
330
C
100
AcDbProxyObject
 90
      499
 91
      581
 95
   917527
 70
     0
161
                34
310
010000404C
1001
ACAD
1000
AcRTDxfName
1000
ACASGREFMASTER
  0
XRECORD
  5
BB84
102
{ACAD_REACTORS
330
C
102
}
330
C
100
AcDbXrecord
280
     1
 90
        1
330
AABA
  0
DICTIONARY
  5
34
102
{ACAD_REACTORS
330
C
102
}
330
C
100
AcDbDictionary
281
     1
  3
CANNOSCALE
350
BB7D
  3
CMLEADERSTYLE
350
B5B8
  3
CTABLESTYLE
350
AAF3
  3
CVIEWDETAILSTYLE
350
BB07
  3
CVIEWSECTIONSTYLE
350
BB08
  3
DIMASSOC
350
A10C
  3
FIELDEVAL
350
AB07
  3
INDEXCTL
350
35
  3
LIGHTINGUNITS
350
B5BB
  3
MSLTSCALE
350
B5B9
  3
SOLIDHIST
350
BB0A
  3
SORTENTS
350
194C
  3
XCLIPFRAME
350
BB09
  0
ACAD_PROXY_OBJECT
  5
3E01
102
{ACAD_REACTORS
330
C
102
}
330
C
100
AcDbProxyObject
 90
      499
 91
      590
 95
    65563
 70
     0
161
                34
310
000B00008C
330
3DEF
 94
        0
1001
ACAD
1000
AcRTDxfName
1000
NAMEDAPPL
  0
ACAD_PROXY_OBJECT
  5
3DEA
102
{ACAD_REACTORS
330
C
102
}
330
C
100
AcDbProxyObject
 90
      499
 91
      582
 95
   917527
 70
     0
161
               114
310
00000043800000000000000000000C
1001
ACAD
1000
AcRTDxfName
1000
ACADGREFMODULE
  0
ACAD_PROXY_OBJECT
  5
3E06
102
{ACAD_REACTORS
330
C
102
}
330
C
100
AcDbProxyObject
 90
      499
 91
      594
 95
   917527
 70
     0
161
                34
310
05000044CC
1001
ACAD
1000
AcRTDxfName
1000
MAPIADMODULE
  0
DICTIONARY
  5
B570
102
{ACAD_REACTORS
330
C
102
}
330
C
100
AcDbDictionary
281
     1
  3
ASEBlockHierarchyIndexRecord
350
B571
1001
DCO15
1040
1706332604.97
  0
ACAD_PROXY_OBJECT
  5
3DA2
102
{ACAD_REACTORS
330
C
102
}
330
C
100
AcDbProxyObject
 90
      499
 91
      577
 95
    65563
 70
     0
161
               424
310
585314D600000000000000000000000000000000000000000000000000000000000000000000000000000000000000000000000000
330
3DB5
330
3DB6
330
3DB7
330
3DB8
330
3DB9
330
3DBA
330
3DBB
330
3DBC
330
3DBD
330
3DBE
330
3DBF
330
3DC0
330
3DC1
330
3DC2
330
3DC3
330
3DC4
330
3DC5
330
3DC6
330
3DC7
330
3DC8
330
3DC9
330
3DCA
330
3DCB
330
3DCC
330
3DCD
330
3DCE
330
3DCF
330
3DD0
330
3DD1
330
3DD2
330
3DD3
330
3DD4
330
3DD5
330
3DD6
330
3DD7
330
3DD8
330
3DD9
330
3DDA
330
3DDB
330
3DDC
330
3DDD
330
3DDE
330
3DDF
330
3DE0
330
3DE1
330
3DE2
330
3DE3
330
3DE4
330
3DE5
 94
        0
1001
ACAD
1000
AcRTDxfName
1000
IM_STATIC_MAN
  0
ACIMSYSVARMAN
  5
3DA3
102
{ACAD_REACTORS
330
C
102
}
330
C
1001
ACAD
1000
AcRTDxfName
1000
ACIMSYSVARMAN
  0
XRECORD
  5
BB79
102
{ACAD_REACTORS
330
C
102
}
330
C
100
AcDbXrecord
280
     1
  0
DICTIONARY
  5
BB7A
102
{ACAD_REACTORS
330
C
102
}
330
C
100
AcDbDictionary
281
     1
  3
GmRelease
350
BB7B
  3
GmTimeStamp
350
BB7C
  0
ACAD_PROXY_OBJECT
  5
3DEB
102
{ACAD_REACTORS
330
C
102
}
330
C
100
AcDbProxyObject
 90
      499
 91
      583
 95
   917527
 70
     0
161
                 8
310
04
1001
ACAD
1000
AcRTDxfName
1000
AMDTMAPISURFMOUDULE
  0
DICTIONARY
  5
B4F7
102
{ACAD_REACTORS
330
3F95
102
}
330
3F95
100
AcDbDictionary
281
     1
  0
DICTIONARY
  5
3F96
102
{ACAD_REACTORS
330
3F95
102
}
330
3F95
100
AcDbDictionary
281
     1
  3
20011210
350
3FB7
  0
DICTIONARY
  5
B4F6
102
{ACAD_REACTORS
330
3F95
102
}
330
3F95
100
AcDbDictionary
281
     1
1001
ACAD
1000
<All
  0
DICTIONARY
  5
AAB4
102
{ACAD_REACTORS
330
3F95
102
}
330
3F95
100
AcDbDictionary
280
     1
281
     1
  0
XRECORD
  5
BA27
102
{ACAD_REACTORS
330
BA26
102
}
330
BA26
100
AcDbXrecord
280
     1
290
     1
  0
XRECORD
  5
BA29
102
{ACAD_REACTORS
330
BA28
102
}
330
BA28
100
AcDbXrecord
280
     1
290
     1
  0
XRECORD
  5
BA2B
102
{ACAD_REACTORS
330
BA2A
102
}
330
BA2A
100
AcDbXrecord
280
     1
290
     1
  0
XRECORD
  5
BA2D
102
{ACAD_REACTORS
330
BA2C
102
}
330
BA2C
100
AcDbXrecord
280
     1
290
     1
  0
XRECORD
  5
BA2F
102
{ACAD_REACTORS
330
BA2E
102
}
330
BA2E
100
AcDbXrecord
280
     1
290
     1
  0
XRECORD
  5
BA31
102
{ACAD_REACTORS
330
BA30
102
}
330
BA30
100
AcDbXrecord
280
     1
290
     1
  0
XRECORD
  5
BA33
102
{ACAD_REACTORS
330
BA32
102
}
330
BA32
100
AcDbXrecord
280
     1
290
     1
  0
XRECORD
  5
BA35
102
{ACAD_REACTORS
330
BA34
102
}
330
BA34
100
AcDbXrecord
280
     1
290
     1
  0
XRECORD
  5
BA37
102
{ACAD_REACTORS
330
BA36
102
}
330
BA36
100
AcDbXrecord
280
     1
290
     1
  0
XRECORD
  5
BA39
102
{ACAD_REACTORS
330
BA38
102
}
330
BA38
100
AcDbXrecord
280
     1
290
     1
  0
XRECORD
  5
BA3B
102
{ACAD_REACTORS
330
BA3A
102
}
330
BA3A
100
AcDbXrecord
280
     1
290
     1
  0
XRECORD
  5
BA3D
102
{ACAD_REACTORS
330
BA3C
102
}
330
BA3C
100
AcDbXrecord
280
     1
290
     1
  0
XRECORD
  5
BA3F
102
{ACAD_REACTORS
330
BA3E
102
}
330
BA3E
100
AcDbXrecord
280
     1
290
     1
  0
XRECORD
  5
BA41
102
{ACAD_REACTORS
330
BA40
102
}
330
BA40
100
AcDbXrecord
280
     1
290
     1
  0
XRECORD
  5
BA43
102
{ACAD_REACTORS
330
BA42
102
}
330
BA42
100
AcDbXrecord
280
     1
290
     1
  0
XRECORD
  5
BA45
102
{ACAD_REACTORS
330
BA44
102
}
330
BA44
100
AcDbXrecord
280
     1
290
     1
  0
XRECORD
  5
BA47
102
{ACAD_REACTORS
330
BA46
102
}
330
BA46
100
AcDbXrecord
280
     1
290
     1
  0
XRECORD
  5
BA49
102
{ACAD_REACTORS
330
BA48
102
}
330
BA48
100
AcDbXrecord
280
     1
290
     1
  0
XRECORD
  5
BA4B
102
{ACAD_REACTORS
330
BA4A
102
}
330
BA4A
100
AcDbXrecord
280
     1
290
     1
  0
SORTENTSTABLE
  5
B1BA
102
{ACAD_REACTORS
330
8A
102
}
330
8A
100
AcDbSortentsTable
330
1F
331
B822
  5
B822
331
B823
  5
B823
331
B824
  5
B824
331
B825
  5
B825
331
B826
  5
B826
331
B827
  5
B827
331
B828
  5
B828
331
B829
  5
B829
331
B82A
  5
B82A
331
B82B
  5
B82B
331
B82C
  5
B82C
331
B82D
  5
B82D
331
B82E
  5
B82E
331
B82F
  5
B82F
331
B830
  5
B830
331
B831
  5
B831
331
B832
  5
B832
331
B833
  5
B833
331
B834
  5
B834
331
B835
  5
B835
331
B836
  5
B836
331
B837
  5
B837
331
B838
  5
B838
331
B839
  5
B839
331
B83A
  5
B83A
331
B83B
  5
B83B
331
B83C
  5
B83C
331
B83D
  5
B83D
331
B83E
  5
B83E
331
B83F
  5
B83F
331
B840
  5
B840
331
B841
  5
B841
331
B842
  5
B842
331
B843
  5
B843
331
B844
  5
B844
331
B845
  5
B845
331
B846
  5
B846
331
B847
  5
B847
331
B848
  5
B848
331
B849
  5
B849
331
B84A
  5
B84A
331
B84B
  5
B84B
331
B84C
  5
B84C
331
B84D
  5
B84D
331
B84E
  5
B84E
331
B84F
  5
B84F
331
B850
  5
B850
331
B851
  5
B851
331
B852
  5
B852
331
B853
  5
B853
331
B854
  5
B854
331
B855
  5
B855
331
B856
  5
B856
331
B857
  5
B857
331
B858
  5
B858
331
B859
  5
B859
331
B85A
  5
B85A
331
B85B
  5
B85B
331
B85C
  5
B85C
331
B85D
  5
B85D
331
B85E
  5
B85E
331
B85F
  5
B85F
331
B860
  5
B860
331
B861
  5
B861
331
B862
  5
B862
331
B863
  5
B863
331
B864
  5
B864
331
B865
  5
B865
331
B866
  5
B866
331
B867
  5
B867
331
B868
  5
B868
331
B869
  5
B869
331
B86A
  5
B86A
331
B86B
  5
B86B
331
B86C
  5
B86C
331
B86D
  5
B86D
331
B86E
  5
B86E
331
B86F
  5
B86F
331
B870
  5
B870
331
B871
  5
B871
331
B872
  5
B872
331
B873
  5
B873
331
B874
  5
B874
331
B875
  5
B875
331
B876
  5
B876
331
B877
  5
B877
331
B878
  5
B878
331
B879
  5
B879
331
B87A
  5
B87A
331
B87B
  5
B87B
331
B87C
  5
B87C
331
B87D
  5
B87D
331
B87E
  5
B87E
331
B87F
  5
B87F
331
B880
  5
B880
331
B881
  5
B881
331
B882
  5
B882
331
B883
  5
B883
331
B884
  5
B884
331
B885
  5
B885
331
B886
  5
B886
331
B887
  5
B887
331
B888
  5
B888
331
B889
  5
B889
331
B88A
  5
B88A
331
B88B
  5
B88B
331
B88C
  5
B88C
331
B88D
  5
B88D
331
B88E
  5
B88E
331
B88F
  5
B88F
331
B890
  5
B890
331
B891
  5
B891
331
B892
  5
B892
331
B893
  5
B893
331
B894
  5
B894
331
B895
  5
B895
331
B896
  5
B896
331
B897
  5
B897
331
B898
  5
B898
331
B899
  5
B899
331
B89A
  5
B89A
331
B89B
  5
B89B
331
B89C
  5
B89C
331
B89D
  5
B89D
331
B89E
  5
B89E
331
B89F
  5
B89F
331
B8A0
  5
B8A0
331
B8A1
  5
B8A1
331
B8A2
  5
B8A2
331
B8A3
  5
B8A4
331
B8A4
  5
B8A5
331
B8A5
  5
B8A6
331
B8A6
  5
B8A7
331
B8A7
  5
B8A8
331
B8A8
  5
B8A9
331
B8A9
  5
B8AA
331
B8AA
  5
B8AB
331
B8AB
  5
B8AC
331
B8AC
  5
B8AD
331
B8AD
  5
B8AE
331
B8AE
  5
B8AF
331
B8AF
  5
B8B0
331
B8B0
  5
B8B1
331
B8B1
  5
B8B2
331
B8B2
  5
B8B3
331
B8B3
  5
B8B4
331
B8B4
  5
B8B5
331
B8B5
  5
B8B6
331
B8B6
  5
B8B7
331
B8B7
  5
B8B8
331
B8B8
  5
B8B9
331
B8B9
  5
B8BA
331
B8BA
  5
B8BB
331
B8BB
  5
B8BC
331
B8BC
  5
B8BD
331
B8BD
  5
B8BE
331
B8BE
  5
B8BF
331
B8BF
  5
B8C0
331
B8C0
  5
B8C1
331
B8C1
  5
B8C2
331
B8C2
  5
B8C3
331
B8C3
  5
B8C4
331
B8C4
  5
B8C5
331
B8C5
  5
B8C6
331
B8C6
  5
B8C7
331
B8C7
  5
B8C8
331
B8C8
  5
B8C9
331
B8C9
  5
B8CA
331
B8CA
  5
B8CB
331
B8CB
  5
B8CC
331
B8CC
  5
B8CD
331
B8CD
  5
B8CE
331
B8CE
  5
B8CF
331
B8CF
  5
B8D0
331
B8D0
  5
B8D1
331
B8D1
  5
B8D2
331
B8D2
  5
B8D3
331
B8D3
  5
B8D4
331
B8D4
  5
B8D5
331
B8D5
  5
B8D6
331
B8D6
  5
B8D7
331
B8D7
  5
B8D8
331
B8D8
  5
B8D9
331
B8D9
  5
B8DA
331
B8DA
  5
B8DB
331
B8DB
  5
B8DC
331
B8DC
  5
B8DD
331
B8DD
  5
B8DE
331
B8DE
  5
B8DF
331
B8DF
  5
B8E0
331
B8E0
  5
B8E1
331
B8E1
  5
B8E2
331
B8E2
  5
B8E3
331
B8E3
  5
B8E4
331
B8E4
  5
B8E5
331
B8E5
  5
B8E6
331
B8E6
  5
B8E7
331
B8E7
  5
B8E8
331
B8E8
  5
B8E9
331
B8E9
  5
B8EA
331
B8EA
  5
B8EB
331
B8EB
  5
B8EC
331
B8EC
  5
B8ED
331
B8ED
  5
B8EE
331
B8EE
  5
B8EF
331
B8EF
  5
B8F0
331
B8F0
  5
B8F1
331
B8F1
  5
B8F2
331
B8F2
  5
B8F3
331
B8F3
  5
B8F4
331
B8F4
  5
B8F5
331
B8F5
  5
B8F6
331
B8F6
  5
B8F7
331
B8F7
  5
B8F8
331
B8F8
  5
B8F9
331
B8F9
  5
B8FA
331
B8FA
  5
B8FB
331
B8FB
  5
B8FC
331
B8FC
  5
B8FD
331
B8FD
  5
B8FE
331
B8FE
  5
B8FF
331
B8FF
  5
B900
331
B900
  5
B901
331
B901
  5
B902
331
B902
  5
B903
331
B903
  5
B904
331
B904
  5
B905
331
B905
  5
B906
331
B906
  5
B907
331
B907
  5
B908
331
B908
  5
B909
331
B909
  5
B90A
331
B90A
  5
B90B
331
B90B
  5
B90C
331
B90C
  5
B90D
331
B90D
  5
B90E
331
B90E
  5
B90F
331
B90F
  5
B910
331
B910
  5
B911
331
B911
  5
B912
331
B912
  5
B913
331
B913
  5
B914
331
B914
  5
B915
331
B915
  5
B916
331
B916
  5
B917
331
B917
  5
B918
331
B918
  5
B919
331
B919
  5
B91A
331
B91A
  5
B91B
331
B91B
  5
B91C
331
B91C
  5
B91D
331
B91D
  5
B91E
331
B91E
  5
B91F
331
B91F
  5
B920
331
B920
  5
B921
331
B921
  5
B922
331
B922
  5
B923
331
B923
  5
B924
331
B924
  5
B925
331
B925
  5
B926
331
B926
  5
B927
331
B927
  5
B928
331
B928
  5
B929
331
B929
  5
B92A
331
B92A
  5
B92B
331
B92B
  5
B92C
331
B92C
  5
B92D
331
B92D
  5
B92E
331
B92E
  5
B92F
331
B92F
  5
B930
331
B930
  5
B931
331
B931
  5
B932
331
B932
  5
B933
331
B933
  5
B934
331
B934
  5
B935
331
B935
  5
B936
331
B936
  5
B937
331
B937
  5
B938
331
B938
  5
B939
331
B939
  5
B93A
331
B93A
  5
B93B
331
B93B
  5
B93C
331
B93C
  5
B93D
331
B93D
  5
B93E
331
B93E
  5
B93F
331
B93F
  5
B940
331
B940
  5
B941
331
B941
  5
B942
331
B942
  5
B943
331
B943
  5
B944
331
B944
  5
B945
331
B945
  5
B946
331
B946
  5
B947
331
B947
  5
B948
331
B948
  5
B949
331
B949
  5
B94A
331
B94A
  5
B94B
331
B94B
  5
B94C
331
B94C
  5
B94D
331
B94D
  5
B94E
331
B94E
  5
B94F
331
B94F
  5
B950
331
B950
  5
B951
331
B951
  5
B952
331
B952
  5
B953
331
B953
  5
B954
331
B954
  5
B955
331
B955
  5
B956
331
B956
  5
B957
331
B957
  5
B958
331
B958
  5
B959
331
B959
  5
B95A
331
B95A
  5
B95B
331
B95B
  5
B95C
331
B95C
  5
B95D
331
B95D
  5
B95E
331
B95E
  5
B95F
331
B95F
  5
B960
331
B960
  5
B961
331
B961
  5
B962
331
B962
  5
B963
331
B963
  5
B964
331
B964
  5
B965
331
B965
  5
B966
331
B966
  5
B967
331
B967
  5
B968
331
B968
  5
B969
331
B969
  5
B96A
331
B96A
  5
B96B
331
B96B
  5
B96C
331
B96C
  5
B96D
331
B96D
  5
B96E
331
B96E
  5
BABF
331
BABF
  5
B8A3
  0
SORTENTSTABLE
  5
B5FA
102
{ACAD_REACTORS
330
B5F9
102
}
330
B5F9
100
AcDbSortentsTable
330
B5F8
  0
XRECORD
  5
BB0F
102
{ACAD_REACTORS
330
BB0E
102
}
330
BB0E
100
AcDbXrecord
280
     1
 70
     1
  0
ACDBDETAILVIEWSTYLE
  5
BA9C
102
{ACAD_REACTORS
330
BA9B
102
}
102
{ACAD_XDICTIONARY
360
BB53
102
}
330
BA9B
100
AcDbModelDocViewStyle
 70
     0
  3
Metric50
290
     0
100
AcDbDetailViewStyle
 70
     0
 71
     0
 90
        3
 71
     1
340
11
 62
   256
 40
5.0
340
0
 62
   256
 40
5.0
300

 40
0.0
280
     1
 71
     2
340
16
 90
       25
 62
   256
 71
     3
340
11
 62
   256
 40
5.0
 90
        0
 40
15.0
 90
        1
300
%<\AcVar ViewDetailId>% (%<\AcVar ViewScale \f "%sn">%)
 71
     4
340
16
 90
       25
 62
   256
340
16
 90
       25
 62
   256
280
     0
  0
LAYOUT
  5
22
102
{ACAD_REACTORS
330
1A
102
}
330
1A
100
AcDbPlotSettings
  1

  2
FX DocuWide 2050/2051
  4
A3
  6
AM_VIEW1
 40
3.174999952316284
 41
3.174999952316284
 42
3.17498779296875
 43
3.17498779296875
 44
296.989501953125
 45
419.9889831542968
 46
0.0
 47
1.295841228961961
 48
214.3704939521119
 49
367.5855324241176
140
275.6727856380065
141
407.629191407817
142
1.0
143
0.7225445603030646
 70
  3764
 72
     1
 73
     1
 74
     2
  7
monochrome.ctb
 75
     0
 76
     0
 77
     2
 78
   200
147
1.383997686703999
148
-1700.85588156276
149
-1647.985052086429
100
AcDbLayout
  1
Model
 70
     1
 71
     0
 10
0.0
 20
0.0
 11
12.0
 21
9.0
 12
0.0
 22
0.0
 32
0.0
 14
0.0
 24
0.0
 34
0.0
 15
0.0
 25
0.0
 35
0.0
146
0.0
 13
0.0
 23
0.0
 33
0.0
 16
1.0
 26
0.0
 36
0.0
 17
0.0
 27
1.0
 37
0.0
 76
     0
330
1F
331
B0EC
1001
ACAD_PSEXT
1000
FX DocuWide 2050/2051
1000
FX DocuWide 2050/2051
1000
IP_192.200.15.252
1000

1070
     0
  0
LAYOUT
  5
1E
102
{ACAD_REACTORS
330
1A
102
}
330
1A
100
AcDbPlotSettings
  1

  2
\\ML370\XEROX
  4
A4
  6

 40
3.174999952316284
 41
3.174999952316284
 42
3.175003051757812
 43
3.17498779296875
 44
209.8674926757813
 45
296.6719970703125
 46
0.0
 47
0.0
 48
0.0
 49
0.0
140
0.0
141
0.0
142
1.0
143
1.0
 70
   688
 72
     1
 73
     1
 74
     5
  7
monochrome.ctb
 75
    16
 76
     0
 77
     2
 78
   300
147
1.0
148
0.0
149
0.0
100
AcDbLayout
  1
ﾚｲｱｳﾄ1
 70
     1
 71
     1
 10
-3.17498779296875
 20
-3.174999952316284
 11
293.4970092773438
 21
206.692492723465
 12
0.0
 22
0.0
 32
0.0
 14
1.000000000000000E+20
 24
1.000000000000000E+20
 34
1.000000000000000E+20
 15
-1.000000000000000E+20
 25
-1.000000000000000E+20
 35
-1.000000000000000E+20
146
0.0
 13
0.0
 23
0.0
 33
0.0
 16
1.0
 26
0.0
 36
0.0
 17
0.0
 27
1.0
 37
0.0
 76
     0
330
1B
  0
LAYOUT
  5
26
102
{ACAD_REACTORS
330
1A
102
}
330
1A
100
AcDbPlotSettings
  1

  2
\\ML370\XEROX
  4

  6

 40
0.0
 41
0.0
 42
0.0
 43
0.0
 44
0.0
 45
0.0
 46
0.0
 47
0.0
 48
0.0
 49
0.0
140
0.0
141
0.0
142
1.0
143
1.0
 70
   688
 72
     0
 73
     0
 74
     5
  7
monochrome.ctb
 75
    16
 76
     0
 77
     2
 78
   300
147
1.0
148
0.0
149
0.0
100
AcDbLayout
  1
ﾚｲｱｳﾄ2
 70
     1
 71
     2
 10
0.0
 20
0.0
 11
12.0
 21
9.0
 12
0.0
 22
0.0
 32
0.0
 14
0.0
 24
0.0
 34
0.0
 15
0.0
 25
0.0
 35
0.0
146
0.0
 13
0.0
 23
0.0
 33
0.0
 16
1.0
 26
0.0
 36
0.0
 17
0.0
 27
1.0
 37
0.0
 76
     0
330
23
  0
MATERIAL
  5
B0EF
102
{ACAD_REACTORS
330
A91C
102
}
330
A91C
100
AcDbMaterial
  1
ByBlock
 72
     1
 94
       63
  0
MATERIAL
  5
B0EE
102
{ACAD_REACTORS
330
A91C
102
}
330
A91C
100
AcDbMaterial
  1
ByLayer
 72
     1
 94
       63
  0
MATERIAL
  5
B0F0
102
{ACAD_REACTORS
330
A91C
102
}
330
A91C
100
AcDbMaterial
  1
Global
 72
     1
 94
       63
  0
MLEADERSTYLE
  5
B596
102
{ACAD_REACTORS
330
B595
102
}
330
B595
100
AcDbMLeaderStyle
179
     2
170
     2
171
     1
172
     0
 90
        2
 40
0.0
 41
0.0
173
     1
 91
-1056964608
340
14
 92
       -2
290
     1
 42
2.0
291
     1
 43
0.36
  3
Standard
341
0
 44
4.0
300

342
11
174
     1
178
     6
175
     1
176
     0
 93
-1056964608
 45
4.0
292
     0
297
     0
 46
4.0
343
0
 94
-1056964608
 47
1.0
 49
1.0
140
1.0
293
     1
141
0.0
294
     1
177
     0
142
1.0
295
     0
296
     0
143
0.125
271
     0
272
     9
273
     9
298
     0
1001
ACAD_MLEADERVER
1070
     2
  0
MLINESTYLE
  5
18
102
{ACAD_REACTORS
330
17
102
}
330
17
100
AcDbMlineStyle
  2
STANDARD
 70
     0
  3

 62
   256
 51
90.0
 52
90.0
 71
     2
 49
0.5
 62
   256
  6
BYLAYER
 49
-0.5
 62
   256
  6
BYLAYER
  0
ACDBPLACEHOLDER
  5
F
102
{ACAD_REACTORS
330
E
102
}
330
E
  0
SCALE
  5
B574
102
{ACAD_REACTORS
330
B573
102
}
330
B573
100
AcDbScale
 70
     0
300
1:1
140
1.0
141
1.0
290
     1
  0
SCALE
  5
B575
102
{ACAD_REACTORS
330
B573
102
}
330
B573
100
AcDbScale
 70
     0
300
1:2
140
1.0
141
2.0
290
     0
  0
SCALE
  5
B576
102
{ACAD_REACTORS
330
B573
102
}
330
B573
100
AcDbScale
 70
     0
300
1:4
140
1.0
141
4.0
290
     0
  0
SCALE
  5
B577
102
{ACAD_REACTORS
330
B573
102
}
330
B573
100
AcDbScale
 70
     0
300
1:5
140
1.0
141
5.0
290
     0
  0
SCALE
  5
B578
102
{ACAD_REACTORS
330
B573
102
}
330
B573
100
AcDbScale
 70
     0
300
1:8
140
1.0
141
8.0
290
     0
  0
SCALE
  5
B579
102
{ACAD_REACTORS
330
B573
102
}
330
B573
100
AcDbScale
 70
     0
300
1:10
140
1.0
141
10.0
290
     0
  0
SCALE
  5
B57A
102
{ACAD_REACTORS
330
B573
102
}
330
B573
100
AcDbScale
 70
     0
300
1:16
140
1.0
141
16.0
290
     0
  0
SCALE
  5
B57B
102
{ACAD_REACTORS
330
B573
102
}
330
B573
100
AcDbScale
 70
     0
300
1:20
140
1.0
141
20.0
290
     0
  0
SCALE
  5
B57C
102
{ACAD_REACTORS
330
B573
102
}
330
B573
100
AcDbScale
 70
     0
300
1:30
140
1.0
141
30.0
290
     0
  0
SCALE
  5
B57D
102
{ACAD_REACTORS
330
B573
102
}
330
B573
100
AcDbScale
 70
     0
300
1:40
140
1.0
141
40.0
290
     0
  0
SCALE
  5
B57E
102
{ACAD_REACTORS
330
B573
102
}
330
B573
100
AcDbScale
 70
     0
300
1:50
140
1.0
141
50.0
290
     0
  0
SCALE
  5
B57F
102
{ACAD_REACTORS
330
B573
102
}
330
B573
100
AcDbScale
 70
     0
300
1:100
140
1.0
141
100.0
290
     0
  0
SCALE
  5
B580
102
{ACAD_REACTORS
330
B573
102
}
330
B573
100
AcDbScale
 70
     0
300
2:1
140
2.0
141
1.0
290
     0
  0
SCALE
  5
B581
102
{ACAD_REACTORS
330
B573
102
}
330
B573
100
AcDbScale
 70
     0
300
4:1
140
4.0
141
1.0
290
     0
  0
SCALE
  5
B582
102
{ACAD_REACTORS
330
B573
102
}
330
B573
100
AcDbScale
 70
     0
300
8:1
140
8.0
141
1.0
290
     0
  0
SCALE
  5
B583
102
{ACAD_REACTORS
330
B573
102
}
330
B573
100
AcDbScale
 70
     0
300
10:1
140
10.0
141
1.0
290
     0
  0
SCALE
  5
B584
102
{ACAD_REACTORS
330
B573
102
}
330
B573
100
AcDbScale
 70
     0
300
100:1
140
100.0
141
1.0
290
     0
  0
SCALE
  5
B585
102
{ACAD_REACTORS
330
B573
102
}
330
B573
100
AcDbScale
 70
     0
300
1/128" = 1'-0"
140
0.0078125
141
12.0
290
     0
  0
SCALE
  5
B586
102
{ACAD_REACTORS
330
B573
102
}
330
B573
100
AcDbScale
 70
     0
300
1/64" = 1'-0"
140
0.015625
141
12.0
290
     0
  0
SCALE
  5
B587
102
{ACAD_REACTORS
330
B573
102
}
330
B573
100
AcDbScale
 70
     0
300
1/32" = 1'-0"
140
0.03125
141
12.0
290
     0
  0
SCALE
  5
B588
102
{ACAD_REACTORS
330
B573
102
}
330
B573
100
AcDbScale
 70
     0
300
1/16" = 1'-0"
140
0.0625
141
12.0
290
     0
  0
SCALE
  5
B589
102
{ACAD_REACTORS
330
B573
102
}
330
B573
100
AcDbScale
 70
     0
300
3/32" = 1'-0"
140
0.09375
141
12.0
290
     0
  0
SCALE
  5
B58A
102
{ACAD_REACTORS
330
B573
102
}
330
B573
100
AcDbScale
 70
     0
300
1/8" = 1'-0"
140
0.125
141
12.0
290
     0
  0
SCALE
  5
B58B
102
{ACAD_REACTORS
330
B573
102
}
330
B573
100
AcDbScale
 70
     0
300
3/16" = 1'-0"
140
0.1875
141
12.0
290
     0
  0
SCALE
  5
B58C
102
{ACAD_REACTORS
330
B573
102
}
330
B573
100
AcDbScale
 70
     0
300
1/4" = 1'-0"
140
0.25
141
12.0
290
     0
  0
SCALE
  5
B58D
102
{ACAD_REACTORS
330
B573
102
}
330
B573
100
AcDbScale
 70
     0
300
3/8" = 1'-0"
140
0.375
141
12.0
290
     0
  0
SCALE
  5
B58E
102
{ACAD_REACTORS
330
B573
102
}
330
B573
100
AcDbScale
 70
     0
300
1/2" = 1'-0"
140
0.5
141
12.0
290
     0
  0
SCALE
  5
B58F
102
{ACAD_REACTORS
330
B573
102
}
330
B573
100
AcDbScale
 70
     0
300
3/4" = 1'-0"
140
0.75
141
12.0
290
     0
  0
SCALE
  5
B590
102
{ACAD_REACTORS
330
B573
102
}
330
B573
100
AcDbScale
 70
     0
300
1" = 1'-0"
140
1.0
141
12.0
290
     0
  0
SCALE
  5
B591
102
{ACAD_REACTORS
330
B573
102
}
330
B573
100
AcDbScale
 70
     0
300
1-1/2" = 1'-0"
140
1.5
141
12.0
290
     0
  0
SCALE
  5
B592
102
{ACAD_REACTORS
330
B573
102
}
330
B573
100
AcDbScale
 70
     0
300
3" = 1'-0"
140
3.0
141
12.0
290
     0
  0
SCALE
  5
B593
102
{ACAD_REACTORS
330
B573
102
}
330
B573
100
AcDbScale
 70
     0
300
6" = 1'-0"
140
6.0
141
12.0
290
     0
  0
SCALE
  5
B594
102
{ACAD_REACTORS
330
B573
102
}
330
B573
100
AcDbScale
 70
     0
300
1'-0" = 1'-0"
140
12.0
141
12.0
290
     0
  0
ACDBSECTIONVIEWSTYLE
  5
BA9A
102
{ACAD_REACTORS
330
BA99
102
}
102
{ACAD_XDICTIONARY
360
BB51
102
}
330
BA99
100
AcDbModelDocViewStyle
 70
     0
  3
Metric50
290
     0
100
AcDbSectionViewStyle
 70
     0
 71
     0
 90
      102
 71
     1
340
11
 62
   256
 40
5.0
340
0
340
0
 62
   256
 40
5.0
300
I, O, Q, S, X, Z
 40
10.0
 90
        0
 40
2.5
 90
        0
 71
     2
340
16
 90
       25
 62
   256
340
16
 90
       50
 62
   256
 40
5.0
 40
2.5
 40
5.0
 71
     3
340
11
 62
   256
 40
5.0
 90
        0
 40
15.0
 90
        1
300
%<\AcVar ViewSectionStartId>%-%<\AcVar ViewSectionEndId>% (%<\AcVar ViewScale \f "%sn">%)
 71
     4
 62
   256
 62
   257
300
ANSI31
 40
1.0
 90
        0
290
     0
290
     0
 90
        6
 40
0.0
 40
1.570796326794896
 40
0.2617993877991494
 40
1.308996938995747
 40
-0.2617993877991494
 40
1.832595714594046
  0
TABLESTYLE
  5
AABA
102
{ACAD_REACTORS
330
AAB9
102
}
102
{ACAD_XDICTIONARY
360
BB82
102
}
330
AAB9
100
AcDbTableStyle
  3
Standard
 70
     0
 71
     0
 40
1.5
 41
1.5
280
     0
281
     0
  7
STANDARD
140
4.5
170
     2
 62
     0
 63
   257
283
     0
 90
        4
 91
        0
  1

274
    -2
284
     1
 64
     0
275
    -2
285
     1
 65
     0
276
    -2
286
     1
 66
     0
277
    -2
287
     1
 67
     0
278
    -2
288
     1
 68
     0
279
    -2
289
     1
 69
     0
  7
STANDARD
140
6.0
170
     5
 62
     0
 63
   257
283
     0
 90
        4
 91
        0
  1

274
    -2
284
     1
 64
     0
275
    -2
285
     1
 65
     0
276
    -2
286
     1
 66
     0
277
    -2
287
     1
 67
     0
278
    -2
288
     1
 68
     0
279
    -2
289
     1
 69
     0
  7
STANDARD
140
4.5
170
     5
 62
     0
 63
   257
283
     0
 90
        4
 91
        0
  1

274
    -2
284
     1
 64
     0
275
    -2
285
     1
 65
     0
276
    -2
286
     1
 66
     0
277
    -2
287
     1
 67
     0
278
    -2
288
     1
 68
     0
279
    -2
289
     1
 69
     0
  0
VISUALSTYLE
  5
B0F7
102
{ACAD_REACTORS
330
B0F1
102
}
330
B0F1
100
AcDbVisualStyle
  2
2dWireframe
 70
     4
177
     3
291
     0
 70
    58
 90
        0
176
     1
 90
        2
176
     1
 90
        0
176
     1
 90
        0
176
     1
 40
-0.6
176
     1
 40
-30.0
176
     1
 62
     7
176
     1
 90
        1
176
     1
 90
        4
176
     1
 62
     7
176
     1
 62
   257
176
     1
 90
        1
176
     1
 90
        1
176
     1
 40
1.0
176
     1
 90
        0
176
     1
 62
   257
176
     1
 40
1.0
176
     1
 90
        1
176
     1
 90
        6
176
     1
 90
        2
176
     1
 62
     7
176
     1
 90
        5
176
     1
 90
        0
176
     1
 90
        0
176
     1
290
     0
176
     1
 90
        1
176
     1
 40
0.0
176
     1
 90
        0
176
     1
290
     1
176
     1
290
     1
176
     1
290
     0
176
     1
290
     0
176
     1
290
     0
176
     1
290
     0
176
     1
290
     0
176
     1
290
     0
176
     1
290
     0
176
     1
 90
       50
176
     1
 40
0.0
176
     1
 40
1.0
176
     1
 90
        0
176
     1
 62
    18
420
        0
176
     1
 90
       50
176
     1
 90
        3
176
     1
 62
     5
420
      255
176
     1
290
     0
176
     1
 90
       50
176
     1
 90
       50
176
     1
 90
       50
176
     1
290
     0
176
     1
 90
       50
176
     1
 62
   256
176
     0
 40
1.0
176
     0
 90
        2
176
     1
  1
strokes_ogs.tif
176
     1
290
     0
176
     1
 40
1.0
176
     1
 40
1.0
176
     1
  0
VISUALSTYLE
  5
B0F9
102
{ACAD_REACTORS
330
B0F1
102
}
330
B0F1
100
AcDbVisualStyle
  2
3D Hidden
 70
     6
177
     3
291
     0
 70
    58
 90
        1
176
     1
 90
        2
176
     1
 90
        2
176
     1
 90
        0
176
     1
 40
-0.6
176
     1
 40
-30.0
176
     1
 62
     7
176
     1
 90
        2
176
     1
 90
        2
176
     1
 62
     7
176
     1
 62
   257
176
     1
 90
        2
176
     1
 90
        1
176
     1
 40
40.0
176
     1
 90
        0
176
     1
 62
   257
176
     1
 40
1.0
176
     1
 90
        1
176
     1
 90
        6
176
     1
 90
        2
176
     1
 62
     7
176
     1
 90
        3
176
     1
 90
        0
176
     1
 90
        0
176
     1
290
     0
176
     1
 90
        1
176
     1
 40
0.0
176
     1
 90
        0
176
     1
290
     0
176
     1
290
     1
176
     1
290
     1
176
     1
290
     0
176
     1
290
     0
176
     1
290
     0
176
     1
290
     0
176
     1
290
     0
176
     1
290
     0
176
     1
 90
       50
176
     1
 40
0.0
176
     1
 40
1.0
176
     1
 90
        0
176
     1
 62
    18
420
        0
176
     1
 90
       50
176
     1
 90
        3
176
     1
 62
     5
420
      255
176
     1
290
     0
176
     1
 90
       50
176
     1
 90
       50
176
     1
 90
       50
176
     1
290
     0
176
     1
 90
       50
176
     1
 62
   256
176
     0
 40
1.0
176
     0
 90
        2
176
     1
  1
strokes_ogs.tif
176
     1
290
     0
176
     1
 40
1.0
176
     1
 40
1.0
176
     1
  0
VISUALSTYLE
  5
B0F8
102
{ACAD_REACTORS
330
B0F1
102
}
330
B0F1
100
AcDbVisualStyle
  2
3dWireframe
 70
     5
177
     3
291
     0
 70
    58
 90
        0
176
     1
 90
        2
176
     1
 90
        0
176
     1
 90
        0
176
     1
 40
-0.6
176
     1
 40
-30.0
176
     1
 62
     7
176
     1
 90
        1
176
     1
 90
        4
176
     1
 62
     7
176
     1
 62
   257
176
     1
 90
        1
176
     1
 90
        1
176
     1
 40
1.0
176
     1
 90
        0
176
     1
 62
   257
176
     1
 40
1.0
176
     1
 90
        1
176
     1
 90
        6
176
     1
 90
        2
176
     1
 62
     7
176
     1
 90
        5
176
     1
 90
        0
176
     1
 90
        0
176
     1
290
     0
176
     1
 90
        1
176
     1
 40
0.0
176
     1
 90
        0
176
     1
290
     0
176
     1
290
     1
176
     1
290
     1
176
     1
290
     0
176
     1
290
     0
176
     1
290
     0
176
     1
290
     0
176
     1
290
     0
176
     1
290
     0
176
     1
 90
       50
176
     1
 40
0.0
176
     1
 40
1.0
176
     1
 90
        0
176
     1
 62
    18
420
        0
176
     1
 90
       50
176
     1
 90
        3
176
     1
 62
     5
420
      255
176
     1
290
     0
176
     1
 90
       50
176
     1
 90
       50
176
     1
 90
       50
176
     1
290
     0
176
     1
 90
       50
176
     1
 62
   256
176
     0
 40
1.0
176
     0
 90
        2
176
     1
  1
strokes_ogs.tif
176
     1
290
     0
176
     1
 40
1.0
176
     1
 40
1.0
176
     1
  0
VISUALSTYLE
  5
B0F6
102
{ACAD_REACTORS
330
B0F1
102
}
330
B0F1
100
AcDbVisualStyle
  2
Basic
 70
     7
177
     3
291
     1
 70
    58
 90
        1
176
     1
 90
        0
176
     1
 90
        1
176
     1
 90
        0
176
     1
 40
-0.6
176
     1
 40
-30.0
176
     1
 62
     7
176
     1
 90
        0
176
     1
 90
        4
176
     1
 62
     7
176
     1
 62
   257
176
     1
 90
        1
176
     1
 90
        1
176
     1
 40
1.0
176
     1
 90
        8
176
     1
 62
     7
176
     1
 40
1.0
176
     1
 90
        1
176
     1
 90
        6
176
     1
 90
        2
176
     1
 62
     7
176
     1
 90
        5
176
     1
 90
        0
176
     1
 90
        0
176
     1
290
     0
176
     1
 90
        1
176
     1
 40
0.0
176
     1
 90
        0
176
     1
290
     0
176
     1
290
     1
176
     1
290
     1
176
     1
290
     0
176
     1
290
     0
176
     1
290
     0
176
     1
290
     0
176
     1
290
     0
176
     1
290
     0
176
     1
 90
       50
176
     1
 40
0.0
176
     1
 40
1.0
176
     1
 90
        0
176
     1
 62
    18
420
        0
176
     1
 90
       50
176
     1
 90
        3
176
     1
 62
     5
420
      255
176
     1
290
     0
176
     1
 90
       50
176
     1
 90
       50
176
     1
 90
       50
176
     1
290
     0
176
     1
 90
       50
176
     1
 62
   256
176
     0
 40
1.0
176
     0
 90
        2
176
     1
  1
strokes_ogs.tif
176
     1
290
     0
176
     1
 40
1.0
176
     1
 40
1.0
176
     1
  0
VISUALSTYLE
  5
B0FD
102
{ACAD_REACTORS
330
B0F1
102
}
330
B0F1
100
AcDbVisualStyle
  2
Brighten
 70
    12
177
     3
291
     1
 70
    58
 90
        2
176
     1
 90
        2
176
     1
 90
        0
176
     1
 90
        0
176
     1
 40
-0.6
176
     1
 40
-30.0
176
     1
 62
     7
176
     1
 90
        1
176
     1
 90
        4
176
     1
 62
     7
176
     1
 62
   257
176
     1
 90
        1
176
     1
 90
        1
176
     1
 40
1.0
176
     1
 90
        8
176
     1
 62
     7
176
     1
 40
1.0
176
     1
 90
        1
176
     1
 90
        6
176
     1
 90
        2
176
     1
 62
     7
176
     1
 90
        5
176
     1
 90
        0
176
     1
 90
        0
176
     1
290
     0
176
     1
 90
        1
176
     1
 40
50.0
176
     1
 90
        0
176
     1
290
     0
176
     1
290
     1
176
     1
290
     1
176
     1
290
     0
176
     1
290
     0
176
     1
290
     0
176
     1
290
     0
176
     1
290
     0
176
     1
290
     0
176
     1
 90
       50
176
     1
 40
0.0
176
     1
 40
1.0
176
     1
 90
        0
176
     1
 62
    18
420
        0
176
     1
 90
       50
176
     1
 90
        3
176
     1
 62
     5
420
      255
176
     1
290
     0
176
     1
 90
       50
176
     1
 90
       50
176
     1
 90
       50
176
     1
290
     0
176
     1
 90
       50
176
     1
 62
   256
176
     0
 40
1.0
176
     0
 90
        2
176
     1
  1
strokes_ogs.tif
176
     1
290
     0
176
     1
 40
1.0
176
     1
 40
1.0
176
     1
  0
VISUALSTYLE
  5
B101
102
{ACAD_REACTORS
330
B0F1
102
}
330
B0F1
100
AcDbVisualStyle
  2
ColorChange
 70
    16
177
     3
291
     1
 70
    58
 90
        2
176
     1
 90
        2
176
     1
 90
        3
176
     1
 90
        0
176
     1
 40
-0.6
176
     1
 40
-30.0
176
     1
 62
     8
176
     1
 90
        1
176
     1
 90
        4
176
     1
 62
     7
176
     1
 62
   257
176
     1
 90
        1
176
     1
 90
        1
176
     1
 40
1.0
176
     1
 90
        8
176
     1
 62
     8
176
     1
 40
1.0
176
     1
 90
        1
176
     1
 90
        6
176
     1
 90
        2
176
     1
 62
     7
176
     1
 90
        5
176
     1
 90
        0
176
     1
 90
        0
176
     1
290
     0
176
     1
 90
        1
176
     1
 40
0.0
176
     1
 90
        0
176
     1
290
     0
176
     1
290
     1
176
     1
290
     1
176
     1
290
     0
176
     1
290
     0
176
     1
290
     0
176
     1
290
     0
176
     1
290
     0
176
     1
290
     0
176
     1
 90
       50
176
     1
 40
0.0
176
     1
 40
1.0
176
     1
 90
        0
176
     1
 62
    18
420
        0
176
     1
 90
       50
176
     1
 90
        3
176
     1
 62
     5
420
      255
176
     1
290
     0
176
     1
 90
       50
176
     1
 90
       50
176
     1
 90
       50
176
     1
290
     0
176
     1
 90
       50
176
     1
 62
   256
176
     0
 40
1.0
176
     0
 90
        2
176
     1
  1
strokes_ogs.tif
176
     1
290
     0
176
     1
 40
1.0
176
     1
 40
1.0
176
     1
  0
VISUALSTYLE
  5
B0FA
102
{ACAD_REACTORS
330
B0F1
102
}
330
B0F1
100
AcDbVisualStyle
  2
Conceptual
 70
     9
177
     3
291
     0
 70
    58
 90
        3
176
     1
 90
        2
176
     1
 90
        0
176
     1
 90
        0
176
     1
 40
-0.6
176
     1
 40
-30.0
176
     1
 62
     7
176
     1
 90
        2
176
     1
 90
        2
176
     1
 62
     7
176
     1
 62
   257
176
     1
 90
        1
176
     1
 90
        1
176
     1
 40
40.0
176
     1
 90
        8
176
     1
 62
     7
176
     1
 40
1.0
176
     1
 90
        1
176
     1
 90
        6
176
     1
 90
        2
176
     1
 62
     7
176
     1
 90
        3
176
     1
 90
        0
176
     1
 90
        0
176
     1
290
     0
176
     1
 90
        1
176
     1
 40
0.0
176
     1
 90
        0
176
     1
290
     0
176
     1
290
     1
176
     1
290
     1
176
     1
290
     0
176
     1
290
     0
176
     1
290
     0
176
     1
290
     0
176
     1
290
     0
176
     1
290
     0
176
     1
 90
       50
176
     1
 40
0.0
176
     1
 40
1.0
176
     1
 90
        0
176
     1
 62
    18
420
        0
176
     1
 90
       50
176
     1
 90
        3
176
     1
 62
     5
420
      255
176
     1
290
     0
176
     1
 90
       50
176
     1
 90
       50
176
     1
 90
       50
176
     1
290
     0
176
     1
 90
       50
176
     1
 62
   256
176
     0
 40
1.0
176
     0
 90
        2
176
     1
  1
strokes_ogs.tif
176
     1
290
     0
176
     1
 40
1.0
176
     1
 40
1.0
176
     1
  0
VISUALSTYLE
  5
B0FC
102
{ACAD_REACTORS
330
B0F1
102
}
330
B0F1
100
AcDbVisualStyle
  2
Dim
 70
    11
177
     3
291
     1
 70
    58
 90
        2
176
     1
 90
        2
176
     1
 90
        0
176
     1
 90
        0
176
     1
 40
-0.6
176
     1
 40
-30.0
176
     1
 62
     7
176
     1
 90
        1
176
     1
 90
        4
176
     1
 62
     7
176
     1
 62
   257
176
     1
 90
        1
176
     1
 90
        1
176
     1
 40
1.0
176
     1
 90
        8
176
     1
 62
     7
176
     1
 40
1.0
176
     1
 90
        1
176
     1
 90
        6
176
     1
 90
        2
176
     1
 62
     7
176
     1
 90
        5
176
     1
 90
        0
176
     1
 90
        0
176
     1
290
     0
176
     1
 90
        1
176
     1
 40
-50.0
176
     1
 90
        0
176
     1
290
     0
176
     1
290
     1
176
     1
290
     1
176
     1
290
     0
176
     1
290
     0
176
     1
290
     0
176
     1
290
     0
176
     1
290
     0
176
     1
290
     0
176
     1
 90
       50
176
     1
 40
0.0
176
     1
 40
1.0
176
     1
 90
        0
176
     1
 62
    18
420
        0
176
     1
 90
       50
176
     1
 90
        3
176
     1
 62
     5
420
      255
176
     1
290
     0
176
     1
 90
       50
176
     1
 90
       50
176
     1
 90
       50
176
     1
290
     0
176
     1
 90
       50
176
     1
 62
   256
176
     0
 40
1.0
176
     0
 90
        2
176
     1
  1
strokes_ogs.tif
176
     1
290
     0
176
     1
 40
1.0
176
     1
 40
1.0
176
     1
  0
VISUALSTYLE
  5
BA98
102
{ACAD_REACTORS
330
B0F1
102
}
330
B0F1
100
AcDbVisualStyle
  2
EdgeColorOff
 70
    22
177
     3
291
     1
 70
    58
 90
        2
176
     0
 90
        2
176
     0
 90
        0
176
     0
 90
        0
176
     0
 40
-0.6
176
     0
 40
-30.0
176
     0
 62
     7
176
     0
 90
        1
176
     0
 90
        4
176
     0
 62
     7
176
     0
 62
   257
176
     0
 90
        1
176
     0
 90
        1
176
     0
 40
1.0
176
     0
 90
        8
176
     2
 62
     7
176
     0
 40
1.0
176
     0
 90
        1
176
     0
 90
        6
176
     0
 90
        2
176
     0
 62
     7
176
     0
 90
        5
176
     0
 90
        0
176
     0
 90
        0
176
     0
290
     0
176
     0
 90
        1
176
     0
 40
0.0
176
     0
 90
        0
176
     0
290
     0
176
     0
290
     1
176
     0
290
     1
176
     0
290
     0
176
     0
290
     0
176
     0
290
     0
176
     0
290
     0
176
     0
290
     0
176
     0
290
     0
176
     0
 90
       50
176
     0
 40
0.0
176
     0
 40
1.0
176
     0
 90
        0
176
     0
 62
    18
420
        0
176
     0
 90
       50
176
     0
 90
        3
176
     0
 62
     5
420
      255
176
     0
290
     0
176
     0
 90
       50
176
     0
 90
       50
176
     0
 90
       50
176
     0
290
     0
176
     0
 90
       50
176
     0
 62
   256
176
     0
 40
1.0
176
     0
 90
        2
176
     0
  1
strokes_ogs.tif
176
     0
290
     0
176
     0
 40
1.0
176
     0
 40
1.0
176
     0
  0
VISUALSTYLE
  5
B100
102
{ACAD_REACTORS
330
B0F1
102
}
330
B0F1
100
AcDbVisualStyle
  2
Facepattern
 70
    15
177
     3
291
     1
 70
    58
 90
        2
176
     1
 90
        2
176
     1
 90
        0
176
     1
 90
        0
176
     1
 40
-0.6
176
     1
 40
-30.0
176
     1
 62
     7
176
     1
 90
        1
176
     1
 90
        4
176
     1
 62
     7
176
     1
 62
   257
176
     1
 90
        1
176
     1
 90
        1
176
     1
 40
1.0
176
     1
 90
        8
176
     1
 62
     7
176
     1
 40
1.0
176
     1
 90
        1
176
     1
 90
        6
176
     1
 90
        2
176
     1
 62
     7
176
     1
 90
        5
176
     1
 90
        0
176
     1
 90
        0
176
     1
290
     0
176
     1
 90
        1
176
     1
 40
0.0
176
     1
 90
        0
176
     1
290
     0
176
     1
290
     1
176
     1
290
     1
176
     1
290
     0
176
     1
290
     0
176
     1
290
     0
176
     1
290
     0
176
     1
290
     0
176
     1
290
     0
176
     1
 90
       50
176
     1
 40
0.0
176
     1
 40
1.0
176
     1
 90
        0
176
     1
 62
    18
420
        0
176
     1
 90
       50
176
     1
 90
        3
176
     1
 62
     5
420
      255
176
     1
290
     0
176
     1
 90
       50
176
     1
 90
       50
176
     1
 90
       50
176
     1
290
     0
176
     1
 90
       50
176
     1
 62
   256
176
     0
 40
1.0
176
     0
 90
        2
176
     1
  1
strokes_ogs.tif
176
     1
290
     0
176
     1
 40
1.0
176
     1
 40
1.0
176
     1
  0
VISUALSTYLE
  5
B0F2
102
{ACAD_REACTORS
330
B0F1
102
}
330
B0F1
100
AcDbVisualStyle
  2
Flat
 70
     0
177
     3
291
     1
 70
    58
 90
        2
176
     1
 90
        1
176
     1
 90
        1
176
     1
 90
        2
176
     1
 40
-0.6
176
     1
 40
30.0
176
     1
 62
     7
176
     1
 90
        0
176
     1
 90
        4
176
     1
 62
     7
176
     1
 62
   257
176
     1
 90
        1
176
     1
 90
        1
176
     1
 40
1.0
176
     1
 90
        8
176
     1
 62
     7
176
     1
 40
1.0
176
     1
 90
        1
176
     1
 90
        6
176
     1
 90
        2
176
     1
 62
     7
176
     1
 90
        5
176
     1
 90
        0
176
     1
 90
        0
176
     1
290
     0
176
     1
 90
       13
176
     1
 40
0.0
176
     1
 90
        0
176
     1
290
     0
176
     1
290
     1
176
     1
290
     1
176
     1
290
     0
176
     1
290
     0
176
     1
290
     0
176
     1
290
     0
176
     1
290
     0
176
     1
290
     0
176
     1
 90
       50
176
     1
 40
0.0
176
     1
 40
1.0
176
     1
 90
        0
176
     1
 62
    18
420
        0
176
     1
 90
       50
176
     1
 90
        3
176
     1
 62
     5
420
      255
176
     1
290
     0
176
     1
 90
       50
176
     1
 90
       50
176
     1
 90
       50
176
     1
290
     0
176
     1
 90
       50
176
     1
 62
   256
176
     0
 40
1.0
176
     0
 90
        2
176
     1
  1
strokes_ogs.tif
176
     1
290
     0
176
     1
 40
1.0
176
     1
 40
1.0
176
     1
  0
VISUALSTYLE
  5
B0F3
102
{ACAD_REACTORS
330
B0F1
102
}
330
B0F1
100
AcDbVisualStyle
  2
FlatWithEdges
 70
     1
177
     3
291
     1
 70
    58
 90
        2
176
     1
 90
        1
176
     1
 90
        1
176
     1
 90
        2
176
     1
 40
-0.6
176
     1
 40
30.0
176
     1
 62
     7
176
     1
 90
        1
176
     1
 90
        4
176
     1
 62
     7
176
     1
 62
   257
176
     1
 90
        1
176
     1
 90
        1
176
     1
 40
1.0
176
     1
 90
        0
176
     1
 62
   257
176
     1
 40
1.0
176
     1
 90
        1
176
     1
 90
        6
176
     1
 90
        2
176
     1
 62
     7
176
     1
 90
        5
176
     1
 90
        0
176
     1
 90
        0
176
     1
290
     0
176
     1
 90
       13
176
     1
 40
0.0
176
     1
 90
        0
176
     1
290
     0
176
     1
290
     1
176
     1
290
     1
176
     1
290
     0
176
     1
290
     0
176
     1
290
     0
176
     1
290
     0
176
     1
290
     0
176
     1
290
     0
176
     1
 90
       50
176
     1
 40
0.0
176
     1
 40
1.0
176
     1
 90
        0
176
     1
 62
    18
420
        0
176
     1
 90
       50
176
     1
 90
        3
176
     1
 62
     5
420
      255
176
     1
290
     0
176
     1
 90
       50
176
     1
 90
       50
176
     1
 90
       50
176
     1
290
     0
176
     1
 90
       50
176
     1
 62
   256
176
     0
 40
1.0
176
     0
 90
        2
176
     1
  1
strokes_ogs.tif
176
     1
290
     0
176
     1
 40
1.0
176
     1
 40
1.0
176
     1
  0
VISUALSTYLE
  5
B0F4
102
{ACAD_REACTORS
330
B0F1
102
}
330
B0F1
100
AcDbVisualStyle
  2
Gouraud
 70
     2
177
     3
291
     1
 70
    58
 90
        2
176
     1
 90
        2
176
     1
 90
        1
176
     1
 90
        2
176
     1
 40
-0.6
176
     1
 40
30.0
176
     1
 62
     7
176
     1
 90
        0
176
     1
 90
        4
176
     1
 62
     7
176
     1
 62
   257
176
     1
 90
        1
176
     1
 90
        1
176
     1
 40
1.0
176
     1
 90
        0
176
     1
 62
     7
176
     1
 40
1.0
176
     1
 90
        1
176
     1
 90
        6
176
     1
 90
        2
176
     1
 62
     7
176
     1
 90
        5
176
     1
 90
        0
176
     1
 90
        0
176
     1
290
     0
176
     1
 90
       13
176
     1
 40
0.0
176
     1
 90
        0
176
     1
290
     0
176
     1
290
     1
176
     1
290
     1
176
     1
290
     0
176
     1
290
     0
176
     1
290
     0
176
     1
290
     0
176
     1
290
     0
176
     1
290
     0
176
     1
 90
       50
176
     1
 40
0.0
176
     1
 40
1.0
176
     1
 90
        0
176
     1
 62
    18
420
        0
176
     1
 90
       50
176
     1
 90
        3
176
     1
 62
     5
420
      255
176
     1
290
     0
176
     1
 90
       50
176
     1
 90
       50
176
     1
 90
       50
176
     1
290
     0
176
     1
 90
       50
176
     1
 62
   256
176
     0
 40
1.0
176
     0
 90
        2
176
     1
  1
strokes_ogs.tif
176
     1
290
     0
176
     1
 40
1.0
176
     1
 40
1.0
176
     1
  0
VISUALSTYLE
  5
B0F5
102
{ACAD_REACTORS
330
B0F1
102
}
330
B0F1
100
AcDbVisualStyle
  2
GouraudWithEdges
 70
     3
177
     3
291
     1
 70
    58
 90
        2
176
     1
 90
        2
176
     1
 90
        1
176
     1
 90
        2
176
     1
 40
-0.6
176
     1
 40
30.0
176
     1
 62
     7
176
     1
 90
        1
176
     1
 90
        4
176
     1
 62
     7
176
     1
 62
   257
176
     1
 90
        1
176
     1
 90
        1
176
     1
 40
1.0
176
     1
 90
        0
176
     1
 62
   257
176
     1
 40
1.0
176
     1
 90
        1
176
     1
 90
        6
176
     1
 90
        2
176
     1
 62
     7
176
     1
 90
        5
176
     1
 90
        0
176
     1
 90
        0
176
     1
290
     0
176
     1
 90
       13
176
     1
 40
0.0
176
     1
 90
        0
176
     1
290
     0
176
     1
290
     1
176
     1
290
     1
176
     1
290
     0
176
     1
290
     0
176
     1
290
     0
176
     1
290
     0
176
     1
290
     0
176
     1
290
     0
176
     1
 90
       50
176
     1
 40
0.0
176
     1
 40
1.0
176
     1
 90
        0
176
     1
 62
    18
420
        0
176
     1
 90
       50
176
     1
 90
        3
176
     1
 62
     5
420
      255
176
     1
290
     0
176
     1
 90
       50
176
     1
 90
       50
176
     1
 90
       50
176
     1
290
     0
176
     1
 90
       50
176
     1
 62
   256
176
     0
 40
1.0
176
     0
 90
        2
176
     1
  1
strokes_ogs.tif
176
     1
290
     0
176
     1
 40
1.0
176
     1
 40
1.0
176
     1
  0
VISUALSTYLE
  5
BA90
102
{ACAD_REACTORS
330
B0F1
102
}
330
B0F1
100
AcDbVisualStyle
  2
Hidden
 70
     6
177
     3
291
     0
 70
    58
 90
        1
176
     1
 90
        2
176
     1
 90
        2
176
     1
 90
        0
176
     1
 40
-0.6
176
     1
 40
-30.0
176
     1
 62
     7
176
     1
 90
        2
176
     1
 90
        2
176
     1
 62
     7
176
     1
 62
   257
176
     1
 90
        2
176
     1
 90
        1
176
     1
 40
40.0
176
     1
 90
        0
176
     1
 62
   257
176
     1
 40
1.0
176
     1
 90
        1
176
     1
 90
        6
176
     1
 90
        2
176
     1
 62
     7
176
     1
 90
        3
176
     1
 90
        0
176
     1
 90
        0
176
     1
290
     0
176
     1
 90
        1
176
     1
 40
0.0
176
     1
 90
        0
176
     1
290
     0
176
     1
290
     1
176
     1
290
     1
176
     1
290
     0
176
     1
290
     0
176
     1
290
     0
176
     1
290
     0
176
     1
290
     0
176
     1
290
     0
176
     1
 90
       50
176
     1
 40
0.0
176
     1
 40
1.0
176
     1
 90
        0
176
     1
 62
    18
420
        0
176
     1
 90
       50
176
     1
 90
        3
176
     1
 62
     5
420
      255
176
     1
290
     0
176
     1
 90
       50
176
     1
 90
       50
176
     1
 90
       50
176
     1
290
     0
176
     1
 90
       50
176
     1
 62
   256
176
     0
 40
1.0
176
     0
 90
        2
176
     1
  1
strokes_ogs.tif
176
     1
290
     0
176
     1
 40
1.0
176
     1
 40
1.0
176
     1
  0
VISUALSTYLE
  5
BA96
102
{ACAD_REACTORS
330
B0F1
102
}
330
B0F1
100
AcDbVisualStyle
  2
JitterOff
 70
    20
177
     3
291
     1
 70
    58
 90
        2
176
     0
 90
        2
176
     0
 90
        0
176
     0
 90
        0
176
     0
 40
-0.6
176
     0
 40
-30.0
176
     0
 62
     7
176
     0
 90
        1
176
     0
 90
        4
176
     0
 62
     7
176
     0
 62
   257
176
     0
 90
        1
176
     0
 90
        1
176
     0
 40
1.0
176
     0
 90
       10
176
     2
 62
     7
176
     0
 40
1.0
176
     0
 90
        1
176
     0
 90
        6
176
     0
 90
        2
176
     0
 62
     7
176
     0
 90
        5
176
     0
 90
        0
176
     0
 90
        0
176
     0
290
     0
176
     0
 90
        1
176
     0
 40
0.0
176
     0
 90
        0
176
     0
290
     0
176
     0
290
     1
176
     0
290
     1
176
     0
290
     0
176
     0
290
     0
176
     0
290
     0
176
     0
290
     0
176
     0
290
     0
176
     0
290
     0
176
     0
 90
       50
176
     0
 40
0.0
176
     0
 40
1.0
176
     0
 90
        0
176
     0
 62
    18
420
        0
176
     0
 90
       50
176
     0
 90
        3
176
     0
 62
     5
420
      255
176
     0
290
     0
176
     0
 90
       50
176
     0
 90
       50
176
     0
 90
       50
176
     0
290
     0
176
     0
 90
       50
176
     0
 62
   256
176
     0
 40
1.0
176
     0
 90
        2
176
     0
  1
strokes_ogs.tif
176
     0
290
     0
176
     0
 40
1.0
176
     0
 40
1.0
176
     0
  0
VISUALSTYLE
  5
B0FF
102
{ACAD_REACTORS
330
B0F1
102
}
330
B0F1
100
AcDbVisualStyle
  2
Linepattern
 70
    14
177
     3
291
     1
 70
    58
 90
        2
176
     1
 90
        2
176
     1
 90
        0
176
     1
 90
        0
176
     1
 40
-0.6
176
     1
 40
-30.0
176
     1
 62
     7
176
     1
 90
        1
176
     1
 90
        4
176
     1
 62
     7
176
     1
 62
   257
176
     1
 90
        7
176
     1
 90
        7
176
     1
 40
1.0
176
     1
 90
        8
176
     1
 62
     7
176
     1
 40
1.0
176
     1
 90
        1
176
     1
 90
        6
176
     1
 90
        2
176
     1
 62
     7
176
     1
 90
        5
176
     1
 90
        0
176
     1
 90
        0
176
     1
290
     0
176
     1
 90
        1
176
     1
 40
0.0
176
     1
 90
        0
176
     1
290
     0
176
     1
290
     1
176
     1
290
     1
176
     1
290
     0
176
     1
290
     0
176
     1
290
     0
176
     1
290
     0
176
     1
290
     0
176
     1
290
     0
176
     1
 90
       50
176
     1
 40
0.0
176
     1
 40
1.0
176
     1
 90
        0
176
     1
 62
    18
420
        0
176
     1
 90
       50
176
     1
 90
        3
176
     1
 62
     5
420
      255
176
     1
290
     0
176
     1
 90
       50
176
     1
 90
       50
176
     1
 90
       50
176
     1
290
     0
176
     1
 90
       50
176
     1
 62
   256
176
     0
 40
1.0
176
     0
 90
        2
176
     1
  1
strokes_ogs.tif
176
     1
290
     0
176
     1
 40
1.0
176
     1
 40
1.0
176
     1
  0
VISUALSTYLE
  5
BA97
102
{ACAD_REACTORS
330
B0F1
102
}
330
B0F1
100
AcDbVisualStyle
  2
OverhangOff
 70
    21
177
     3
291
     1
 70
    58
 90
        2
176
     0
 90
        2
176
     0
 90
        0
176
     0
 90
        0
176
     0
 40
-0.6
176
     0
 40
-30.0
176
     0
 62
     7
176
     0
 90
        1
176
     0
 90
        4
176
     0
 62
     7
176
     0
 62
   257
176
     0
 90
        1
176
     0
 90
        1
176
     0
 40
1.0
176
     0
 90
        9
176
     2
 62
     7
176
     0
 40
1.0
176
     0
 90
        1
176
     0
 90
        6
176
     0
 90
        2
176
     0
 62
     7
176
     0
 90
        5
176
     0
 90
        0
176
     0
 90
        0
176
     0
290
     0
176
     0
 90
        1
176
     0
 40
0.0
176
     0
 90
        0
176
     0
290
     0
176
     0
290
     1
176
     0
290
     1
176
     0
290
     0
176
     0
290
     0
176
     0
290
     0
176
     0
290
     0
176
     0
290
     0
176
     0
290
     0
176
     0
 90
       50
176
     0
 40
0.0
176
     0
 40
1.0
176
     0
 90
        0
176
     0
 62
    18
420
        0
176
     0
 90
       50
176
     0
 90
        3
176
     0
 62
     5
420
      255
176
     0
290
     0
176
     0
 90
       50
176
     0
 90
       50
176
     0
 90
       50
176
     0
290
     0
176
     0
 90
       50
176
     0
 62
   256
176
     0
 40
1.0
176
     0
 90
        2
176
     0
  1
strokes_ogs.tif
176
     0
290
     0
176
     0
 40
1.0
176
     0
 40
1.0
176
     0
  0
VISUALSTYLE
  5
B0FB
102
{ACAD_REACTORS
330
B0F1
102
}
330
B0F1
100
AcDbVisualStyle
  2
Realistic
 70
     8
177
     3
291
     0
 70
    58
 90
        2
176
     1
 90
        2
176
     1
 90
        0
176
     1
 90
        0
176
     1
 40
-0.6
176
     1
 40
-30.0
176
     1
 62
     7
176
     1
 90
        1
176
     1
 90
        0
176
     1
 62
     7
176
     1
 62
   257
176
     1
 90
        1
176
     1
 90
        1
176
     1
 40
1.0
176
     1
 90
        8
176
     1
 62
     8
176
     1
 40
1.0
176
     1
 90
        1
176
     1
 90
        6
176
     1
 90
        2
176
     1
 62
     7
176
     1
 90
        5
176
     1
 90
        0
176
     1
 90
        0
176
     1
290
     0
176
     1
 90
       13
176
     1
 40
0.0
176
     1
 90
        0
176
     1
290
     0
176
     1
290
     1
176
     1
290
     1
176
     1
290
     0
176
     1
290
     0
176
     1
290
     0
176
     1
290
     0
176
     1
290
     0
176
     1
290
     0
176
     1
 90
       50
176
     1
 40
0.0
176
     1
 40
1.0
176
     1
 90
        0
176
     1
 62
    18
420
        0
176
     1
 90
       50
176
     1
 90
        3
176
     1
 62
     5
420
      255
176
     1
290
     0
176
     1
 90
       50
176
     1
 90
       50
176
     1
 90
       50
176
     1
290
     0
176
     1
 90
       50
176
     1
 62
   256
176
     0
 40
1.0
176
     0
 90
        2
176
     1
  1
strokes_ogs.tif
176
     1
290
     0
176
     1
 40
1.0
176
     1
 40
1.0
176
     1
  0
VISUALSTYLE
  5
BA95
102
{ACAD_REACTORS
330
B0F1
102
}
330
B0F1
100
AcDbVisualStyle
  2
Shaded
 70
    27
177
     3
291
     0
 70
    58
 90
        2
176
     1
 90
        2
176
     1
 90
        1
176
     1
 90
        2
176
     1
 40
-0.6
176
     1
 40
30.0
176
     1
 62
     7
176
     1
 90
        0
176
     1
 90
        4
176
     1
 62
     7
176
     1
 62
   257
176
     1
 90
        1
176
     1
 90
        1
176
     1
 40
1.0
176
     1
 90
        8
176
     1
 62
   257
176
     1
 40
1.0
176
     1
 90
        1
176
     1
 90
        6
176
     1
 90
        2
176
     1
 62
     8
176
     1
 90
        3
176
     1
 90
        0
176
     1
 90
        0
176
     1
290
     0
176
     1
 90
        5
176
     1
 40
0.0
176
     1
 90
        0
176
     1
290
     0
176
     1
290
     1
176
     1
290
     1
176
     1
290
     0
176
     1
290
     0
176
     1
290
     0
176
     1
290
     0
176
     1
290
     0
176
     1
290
     0
176
     1
 90
       50
176
     1
 40
0.0
176
     1
 40
1.0
176
     1
 90
        0
176
     1
 62
    18
420
        0
176
     1
 90
       50
176
     1
 90
        3
176
     1
 62
     5
420
      255
176
     1
290
     0
176
     1
 90
       50
176
     1
 90
       50
176
     1
 90
       50
176
     1
290
     0
176
     1
 90
       50
176
     1
 62
   256
176
     0
 40
1.0
176
     0
 90
        2
176
     1
  1
strokes_ogs.tif
176
     1
290
     0
176
     1
 40
1.0
176
     1
 40
1.0
176
     1
  0
VISUALSTYLE
  5
BA94
102
{ACAD_REACTORS
330
B0F1
102
}
330
B0F1
100
AcDbVisualStyle
  2
Shaded with edges
 70
    26
177
     3
291
     0
 70
    58
 90
        2
176
     1
 90
        2
176
     1
 90
        1
176
     1
 90
        2
176
     1
 40
-0.6
176
     1
 40
30.0
176
     1
 62
     7
176
     1
 90
        1
176
     1
 90
       10
176
     1
 62
     7
176
     1
 62
   257
176
     1
 90
        2
176
     1
 90
        1
176
     1
 40
1.0
176
     1
 90
        8
176
     1
 62
   257
176
     1
 40
1.0
176
     1
 90
        1
176
     1
 90
        6
176
     1
 90
        2
176
     1
 62
     7
176
     1
 90
        3
176
     1
 90
        0
176
     1
 90
        0
176
     1
290
     0
176
     1
 90
        5
176
     1
 40
0.0
176
     1
 90
        0
176
     1
290
     0
176
     1
290
     1
176
     1
290
     1
176
     1
290
     0
176
     1
290
     0
176
     1
290
     0
176
     1
290
     0
176
     1
290
     0
176
     1
290
     0
176
     1
 90
       50
176
     1
 40
0.0
176
     1
 40
1.0
176
     1
 90
        0
176
     1
 62
    18
420
        0
176
     1
 90
       50
176
     1
 90
        3
176
     1
 62
     5
420
      255
176
     1
290
     0
176
     1
 90
       50
176
     1
 90
       50
176
     1
 90
       50
176
     1
290
     0
176
     1
 90
       50
176
     1
 62
   256
176
     0
 40
1.0
176
     0
 90
        2
176
     1
  1
strokes_ogs.tif
176
     1
290
     0
176
     1
 40
1.0
176
     1
 40
1.0
176
     1
  0
VISUALSTYLE
  5
BA91
102
{ACAD_REACTORS
330
B0F1
102
}
330
B0F1
100
AcDbVisualStyle
  2
Shades of Gray
 70
    23
177
     3
291
     0
 70
    58
 90
        2
176
     1
 90
        2
176
     1
 90
        3
176
     1
 90
        0
176
     1
 40
-0.6
176
     1
 40
-30.0
176
     1
 62
     7
176
     1
 90
        2
176
     1
 90
        2
176
     1
 62
     7
176
     1
 62
     7
176
     1
 90
        1
176
     1
 90
        1
176
     1
 40
40.0
176
     1
 90
        8
176
     1
 62
     7
176
     1
 40
1.0
176
     1
 90
        1
176
     1
 90
        6
176
     1
 90
        2
176
     1
 62
     7
176
     1
 90
        3
176
     1
 90
        0
176
     1
 90
        0
176
     1
290
     0
176
     1
 90
        1
176
     1
 40
0.0
176
     1
 90
        0
176
     1
290
     0
176
     1
290
     1
176
     1
290
     1
176
     1
290
     0
176
     1
290
     0
176
     1
290
     0
176
     1
290
     0
176
     1
290
     0
176
     1
290
     0
176
     1
 90
       50
176
     1
 40
0.0
176
     1
 40
1.0
176
     1
 90
        0
176
     1
 62
    18
420
        0
176
     1
 90
       50
176
     1
 90
        3
176
     1
 62
     5
420
      255
176
     1
290
     0
176
     1
 90
       50
176
     1
 90
       50
176
     1
 90
       50
176
     1
290
     0
176
     1
 90
       50
176
     1
 62
   256
176
     0
 40
1.0
176
     0
 90
        2
176
     1
  1
strokes_ogs.tif
176
     1
290
     0
176
     1
 40
1.0
176
     1
 40
1.0
176
     1
  0
VISUALSTYLE
  5
BA92
102
{ACAD_REACTORS
330
B0F1
102
}
330
B0F1
100
AcDbVisualStyle
  2
Sketchy
 70
    24
177
     3
291
     0
 70
    58
 90
        1
176
     1
 90
        2
176
     1
 90
        2
176
     1
 90
        0
176
     1
 40
-0.6
176
     1
 40
-30.0
176
     1
 62
     7
176
     1
 90
        2
176
     1
 90
        2
176
     1
 62
     7
176
     1
 62
     7
176
     1
 90
        1
176
     1
 90
        1
176
     1
 40
40.0
176
     1
 90
       11
176
     1
 62
     7
176
     1
 40
1.0
176
     1
 90
        1
176
     1
 90
        6
176
     1
 90
        2
176
     1
 62
     7
176
     1
 90
        6
176
     1
 90
        0
176
     1
 90
        0
176
     1
290
     0
176
     1
 90
        1
176
     1
 40
0.0
176
     1
 90
        0
176
     1
290
     0
176
     1
290
     1
176
     1
290
     1
176
     1
290
     0
176
     1
290
     0
176
     1
290
     0
176
     1
290
     0
176
     1
290
     0
176
     1
290
     0
176
     1
 90
       50
176
     1
 40
0.0
176
     1
 40
1.0
176
     1
 90
        0
176
     1
 62
    18
420
        0
176
     1
 90
       50
176
     1
 90
        3
176
     1
 62
     5
420
      255
176
     1
290
     0
176
     1
 90
       50
176
     1
 90
       50
176
     1
 90
       50
176
     1
290
     0
176
     1
 90
       50
176
     1
 62
   256
176
     0
 40
1.0
176
     0
 90
        2
176
     1
  1
strokes_ogs.tif
176
     1
290
     0
176
     1
 40
1.0
176
     1
 40
1.0
176
     1
  0
VISUALSTYLE
  5
B0FE
102
{ACAD_REACTORS
330
B0F1
102
}
330
B0F1
100
AcDbVisualStyle
  2
Thicken
 70
    13
177
     3
291
     1
 70
    58
 90
        2
176
     1
 90
        2
176
     1
 90
        0
176
     1
 90
        0
176
     1
 40
-0.6
176
     1
 40
-30.0
176
     1
 62
     7
176
     1
 90
        1
176
     1
 90
        4
176
     1
 62
     7
176
     1
 62
   257
176
     1
 90
        1
176
     1
 90
        1
176
     1
 40
1.0
176
     1
 90
       12
176
     1
 62
     7
176
     1
 40
1.0
176
     1
 90
        1
176
     1
 90
        6
176
     1
 90
        2
176
     1
 62
     7
176
     1
 90
        5
176
     1
 90
        0
176
     1
 90
        0
176
     1
290
     0
176
     1
 90
        1
176
     1
 40
0.0
176
     1
 90
        0
176
     1
290
     0
176
     1
290
     1
176
     1
290
     1
176
     1
290
     0
176
     1
290
     0
176
     1
290
     0
176
     1
290
     0
176
     1
290
     0
176
     1
290
     0
176
     1
 90
       50
176
     1
 40
0.0
176
     1
 40
1.0
176
     1
 90
        0
176
     1
 62
    18
420
        0
176
     1
 90
       50
176
     1
 90
        3
176
     1
 62
     5
420
      255
176
     1
290
     0
176
     1
 90
       50
176
     1
 90
       50
176
     1
 90
       50
176
     1
290
     0
176
     1
 90
       50
176
     1
 62
   256
176
     0
 40
1.0
176
     0
 90
        2
176
     1
  1
strokes_ogs.tif
176
     1
290
     0
176
     1
 40
1.0
176
     1
 40
1.0
176
     1
  0
VISUALSTYLE
  5
BA8F
102
{ACAD_REACTORS
330
B0F1
102
}
330
B0F1
100
AcDbVisualStyle
  2
Wireframe
 70
     5
177
     3
291
     0
 70
    58
 90
        0
176
     1
 90
        2
176
     1
 90
        0
176
     1
 90
        0
176
     1
 40
-0.6
176
     1
 40
-30.0
176
     1
 62
     7
176
     1
 90
        1
176
     1
 90
        4
176
     1
 62
     7
176
     1
 62
   257
176
     1
 90
        1
176
     1
 90
        1
176
     1
 40
1.0
176
     1
 90
        0
176
     1
 62
   257
176
     1
 40
1.0
176
     1
 90
        1
176
     1
 90
        6
176
     1
 90
        2
176
     1
 62
     7
176
     1
 90
        3
176
     1
 90
        0
176
     1
 90
        0
176
     1
290
     0
176
     1
 90
        1
176
     1
 40
0.0
176
     1
 90
        0
176
     1
290
     0
176
     1
290
     1
176
     1
290
     1
176
     1
290
     0
176
     1
290
     0
176
     1
290
     0
176
     1
290
     0
176
     1
290
     0
176
     1
290
     0
176
     1
 90
       50
176
     1
 40
0.0
176
     1
 40
1.0
176
     1
 90
        0
176
     1
 62
    18
420
        0
176
     1
 90
       50
176
     1
 90
        3
176
     1
 62
     5
420
      255
176
     1
290
     0
176
     1
 90
       50
176
     1
 90
       50
176
     1
 90
       50
176
     1
290
     0
176
     1
 90
       50
176
     1
 62
   256
176
     0
 40
1.0
176
     0
 90
        2
176
     1
  1
strokes_ogs.tif
176
     1
290
     0
176
     1
 40
1.0
176
     1
 40
1.0
176
     1
  0
VISUALSTYLE
  5
BA93
102
{ACAD_REACTORS
330
B0F1
102
}
330
B0F1
100
AcDbVisualStyle
  2
X-Ray
 70
    25
177
     3
291
     0
 70
    58
 90
        2
176
     1
 90
        2
176
     1
 90
        1
176
     1
 90
        1
176
     1
 40
0.5
176
     1
 40
-30.0
176
     1
 62
     7
176
     1
 90
        1
176
     1
 90
        0
176
     1
 62
     7
176
     1
 62
   257
176
     1
 90
        1
176
     1
 90
        1
176
     1
 40
1.0
176
     1
 90
        8
176
     1
 62
     7
176
     1
 40
1.0
176
     1
 90
        1
176
     1
 90
        6
176
     1
 90
        2
176
     1
 62
     7
176
     1
 90
        3
176
     1
 90
        0
176
     1
 90
        0
176
     1
290
     0
176
     1
 90
       13
176
     1
 40
0.0
176
     1
 90
        0
176
     1
290
     0
176
     1
290
     1
176
     1
290
     1
176
     1
290
     0
176
     1
290
     0
176
     1
290
     0
176
     1
290
     0
176
     1
290
     0
176
     1
290
     0
176
     1
 90
       50
176
     1
 40
0.0
176
     1
 40
1.0
176
     1
 90
        0
176
     1
 62
    18
420
        0
176
     1
 90
       50
176
     1
 90
        3
176
     1
 62
     5
420
      255
176
     1
290
     0
176
     1
 90
       50
176
     1
 90
       50
176
     1
 90
       50
176
     1
290
     0
176
     1
 90
       50
176
     1
 62
   256
176
     0
 40
1.0
176
     0
 90
        2
176
     1
  1
strokes_ogs.tif
176
     1
290
     0
176
     1
 40
1.0
176
     1
 40
1.0
176
     1
  0
DICTIONARYVAR
  5
BB7D
102
{ACAD_REACTORS
330
34
102
}
330
34
100
DictionaryVariables
280
     0
  1
1:1
  0
DICTIONARYVAR
  5
B5B8
102
{ACAD_REACTORS
330
34
102
}
330
34
100
DictionaryVariables
280
     0
  1
Standard
  0
DICTIONARYVAR
  5
AAF3
102
{ACAD_REACTORS
330
34
102
}
330
34
100
DictionaryVariables
280
     0
  1
Standard
  0
DICTIONARYVAR
  5
BB07
102
{ACAD_REACTORS
330
34
102
}
330
34
100
DictionaryVariables
280
     0
  1
Metric50
  0
DICTIONARYVAR
  5
BB08
102
{ACAD_REACTORS
330
34
102
}
330
34
100
DictionaryVariables
280
     0
  1
Metric50
  0
DICTIONARYVAR
  5
A10C
102
{ACAD_REACTORS
330
34
102
}
330
34
100
DictionaryVariables
280
     0
  1
1
  0
DICTIONARYVAR
  5
AB07
102
{ACAD_REACTORS
330
34
102
}
330
34
100
DictionaryVariables
280
     0
  1
4
  0
DICTIONARYVAR
  5
35
102
{ACAD_REACTORS
330
34
102
}
330
34
100
DictionaryVariables
280
     0
  1
0
  0
DICTIONARYVAR
  5
B5BB
102
{ACAD_REACTORS
330
34
102
}
330
34
100
DictionaryVariables
280
     0
  1
0
  0
DICTIONARYVAR
  5
B5B9
102
{ACAD_REACTORS
330
34
102
}
330
34
100
DictionaryVariables
280
     0
  1
0
  0
DICTIONARYVAR
  5
BB0A
102
{ACAD_REACTORS
330
34
102
}
330
34
100
DictionaryVariables
280
     0
  1
1
  0
DICTIONARYVAR
  5
194C
102
{ACAD_REACTORS
330
34
102
}
330
34
100
DictionaryVariables
280
     0
  1
96
  0
DICTIONARYVAR
  5
BB09
102
{ACAD_REACTORS
330
34
102
}
330
34
100
DictionaryVariables
280
     0
  1
0
  0
XRECORD
  5
B571
102
{ACAD_REACTORS
330
B570
102
}
330
B570
100
AcDbXrecord
280
     1
  0
AMDTSYSATTR
  5
BB7B
102
{ACAD_REACTORS
330
BB7A
102
}
330
BB7A
  0
AMDTSYSATTR
  5
BB7C
102
{ACAD_REACTORS
330
BB7A
102
}
330
BB7A
  0
XRECORD
  5
3FB7
102
{ACAD_REACTORS
330
3F96
102
}
330
3F96
100
AcDbXrecord
280
     1
 91
        3
330
0
 90
        8
 62
     7
370
    40
331
16
  1
Color_7
330
0
 90
        0
 62
    14
370
    -3
331
16
  1
Color_14
330
0
 90
        8
 62
     7
370
    20
331
16
  1
Color_7
330
6D1
 90
        0
 62
     7
370
    -3
331
16
  1
Color_7
330
0
 90
        8
 62
     7
370
    50
331
16
  1
Color_7
330
0
 90
        8
 62
     2
370
    35
331
16
  1
Color_2
330
0
 90
        8
 62
     7
370
    -3
331
16
  1
Color_7
330
10
 90
        8
 62
     7
370
    -3
331
16
  1
Color_7
  0
DICTIONARY
  5
BB53
330
BA9C
100
AcDbDictionary
280
     1
281
     1
  3
ACAD_XREC_ROUNDTRIP
360
BB80
  0
DICTIONARY
  5
BB51
330
BA9A
100
AcDbDictionary
280
     1
281
     1
  3
ACAD_XREC_ROUNDTRIP
360
BB81
  0
DICTIONARY
  5
BB82
330
AABA
100
AcDbDictionary
280
     1
281
     1
  3
ACAD_ROUNDTRIP_2008_TABLESTYLE_CELLSTYLEMAP
360
BB83
  0
XRECORD
  5
BB80
102
{ACAD_REACTORS
330
BB53
102
}
330
BB53
100
AcDbXrecord
280
     1
102
DISPLAYNAME
  1
Metric50
102
FLAGS
 90
        0
  0
XRECORD
  5
BB81
102
{ACAD_REACTORS
330
BB51
102
}
330
BB51
100
AcDbXrecord
280
     1
102
DISPLAYNAME
  1
Metric50
102
FLAGS
 90
        0
  0
CELLSTYLEMAP
  5
BB83
102
{ACAD_REACTORS
330
BB82
102
}
330
BB82
100
AcDbCellStyleMap
 90
        3
300
CELLSTYLE
  1
TABLEFORMAT_BEGIN
 90
        5
170
     1
 91
        0
 92
    32768
 62
   257
 93
        1
300
CONTENTFORMAT
  1
CONTENTFORMAT_BEGIN
 90
        0
 91
        0
 92
        4
 93
        0
300

 40
0.0
140
1.0
 94
        5
 62
     0
340
11
144
6.0
309
CONTENTFORMAT_END
171
     1
301
MARGIN
  1
CELLMARGIN_BEGIN
 40
1.5
 40
1.5
 40
1.5
 40
1.5
 40
0.18
 40
0.18
309
CELLMARGIN_END
 94
        6
 95
        1
302
GRIDFORMAT
  1
GRIDFORMAT_BEGIN
 90
        0
 91
        1
 62
     0
 92
       -2
340
0
 93
        0
 40
0.045
309
GRIDFORMAT_END
 95
        2
302
GRIDFORMAT
  1
GRIDFORMAT_BEGIN
 90
        0
 91
        1
 62
     0
 92
       -2
340
0
 93
        0
 40
0.045
309
GRIDFORMAT_END
 95
        4
302
GRIDFORMAT
  1
GRIDFORMAT_BEGIN
 90
        0
 91
        1
 62
     0
 92
       -2
340
0
 93
        0
 40
0.045
309
GRIDFORMAT_END
 95
        8
302
GRIDFORMAT
  1
GRIDFORMAT_BEGIN
 90
        0
 91
        1
 62
     0
 92
       -2
340
0
 93
        0
 40
0.045
309
GRIDFORMAT_END
 95
       16
302
GRIDFORMAT
  1
GRIDFORMAT_BEGIN
 90
        0
 91
        1
 62
     0
 92
       -2
340
0
 93
        0
 40
0.045
309
GRIDFORMAT_END
 95
       32
302
GRIDFORMAT
  1
GRIDFORMAT_BEGIN
 90
        0
 91
        1
 62
     0
 92
       -2
340
0
 93
        0
 40
0.045
309
GRIDFORMAT_END
309
TABLEFORMAT_END
  1
CELLSTYLE_BEGIN
 90
        1
 91
        1
300
_TITLE
309
CELLSTYLE_END
300
CELLSTYLE
  1
TABLEFORMAT_BEGIN
 90
        5
170
     1
 91
        0
 92
        0
 62
   257
 93
        1
300
CONTENTFORMAT
  1
CONTENTFORMAT_BEGIN
 90
        0
 91
        0
 92
        4
 93
        0
300

 40
0.0
140
1.0
 94
        5
 62
     0
340
11
144
4.5
309
CONTENTFORMAT_END
171
     1
301
MARGIN
  1
CELLMARGIN_BEGIN
 40
1.5
 40
1.5
 40
1.5
 40
1.5
 40
0.18
 40
0.18
309
CELLMARGIN_END
 94
        6
 95
        1
302
GRIDFORMAT
  1
GRIDFORMAT_BEGIN
 90
        0
 91
        1
 62
     0
 92
       -2
340
0
 93
        0
 40
0.045
309
GRIDFORMAT_END
 95
        2
302
GRIDFORMAT
  1
GRIDFORMAT_BEGIN
 90
        0
 91
        1
 62
     0
 92
       -2
340
0
 93
        0
 40
0.045
309
GRIDFORMAT_END
 95
        4
302
GRIDFORMAT
  1
GRIDFORMAT_BEGIN
 90
        0
 91
        1
 62
     0
 92
       -2
340
0
 93
        0
 40
0.045
309
GRIDFORMAT_END
 95
        8
302
GRIDFORMAT
  1
GRIDFORMAT_BEGIN
 90
        0
 91
        1
 62
     0
 92
       -2
340
0
 93
        0
 40
0.045
309
GRIDFORMAT_END
 95
       16
302
GRIDFORMAT
  1
GRIDFORMAT_BEGIN
 90
        0
 91
        1
 62
     0
 92
       -2
340
0
 93
        0
 40
0.045
309
GRIDFORMAT_END
 95
       32
302
GRIDFORMAT
  1
GRIDFORMAT_BEGIN
 90
        0
 91
        1
 62
     0
 92
       -2
340
0
 93
        0
 40
0.045
309
GRIDFORMAT_END
309
TABLEFORMAT_END
  1
CELLSTYLE_BEGIN
 90
        2
 91
        1
300
_HEADER
309
CELLSTYLE_END
300
CELLSTYLE
  1
TABLEFORMAT_BEGIN
 90
        5
170
     1
 91
        0
 92
        0
 62
   257
 93
        1
300
CONTENTFORMAT
  1
CONTENTFORMAT_BEGIN
 90
        0
 91
        0
 92
        4
 93
        0
300

 40
0.0
140
1.0
 94
        2
 62
     0
340
11
144
4.5
309
CONTENTFORMAT_END
171
     1
301
MARGIN
  1
CELLMARGIN_BEGIN
 40
1.5
 40
1.5
 40
1.5
 40
1.5
 40
0.18
 40
0.18
309
CELLMARGIN_END
 94
        6
 95
        1
302
GRIDFORMAT
  1
GRIDFORMAT_BEGIN
 90
        0
 91
        1
 62
     0
 92
       -2
340
0
 93
        0
 40
0.045
309
GRIDFORMAT_END
 95
        2
302
GRIDFORMAT
  1
GRIDFORMAT_BEGIN
 90
        0
 91
        1
 62
     0
 92
       -2
340
0
 93
        0
 40
0.045
309
GRIDFORMAT_END
 95
        4
302
GRIDFORMAT
  1
GRIDFORMAT_BEGIN
 90
        0
 91
        1
 62
     0
 92
       -2
340
0
 93
        0
 40
0.045
309
GRIDFORMAT_END
 95
        8
302
GRIDFORMAT
  1
GRIDFORMAT_BEGIN
 90
        0
 91
        1
 62
     0
 92
       -2
340
0
 93
        0
 40
0.045
309
GRIDFORMAT_END
 95
       16
302
GRIDFORMAT
  1
GRIDFORMAT_BEGIN
 90
        0
 91
        1
 62
     0
 92
       -2
340
0
 93
        0
 40
0.045
309
GRIDFORMAT_END
 95
       32
302
GRIDFORMAT
  1
GRIDFORMAT_BEGIN
 90
        0
 91
        1
 62
     0
 92
       -2
340
0
 93
        0
 40
0.045
309
GRIDFORMAT_END
309
TABLEFORMAT_END
  1
CELLSTYLE_BEGIN
 90
        3
 91
        2
300
_DATA
309
CELLSTYLE_END
  0
ENDSEC
  0
SECTION
  2
THUMBNAILIMAGE
 90
    16364
310
28000000B4000000550000000100080000000000C43B000000000000000000000001000000010000000000000000FF0000FFFF0000FF0000FFFF0000FF000000FF00FF00FFFFFF0080808000C0C0C0000000FF007F7FFF000000CC006666CC00000099004C4C990000007F003F3F7F0000004C0026264C00003FFF007F9FFF
310
000033CC00667FCC00002699004C5F9900001F7F003F4F7F0000134C00262F4C00007FFF007FBFFF000066CC006699CC00004C99004C729900003F7F003F5F7F0000264C0026394C0000BFFF007FDFFF000099CC0066B2CC00007299004C859900005F7F003F6F7F0000394C0026424C0000FFFF007FFFFF0000CCCC0066CC
310
CC00009999004C999900007F7F003F7F7F00004C4C00264C4C0000FFBF007FFFDF0000CC990066CCB200009972004C998500007F5F003F7F6F00004C3900264C420000FF7F007FFFBF0000CC660066CC990000994C004C997200007F3F003F7F5F00004C2600264C390000FF3F007FFF9F0000CC330066CC7F00009926004C
310
995F00007F1F003F7F4F00004C1300264C2F0000FF00007FFF7F0000CC000066CC6600009900004C994C00007F00003F7F3F00004C0000264C26003FFF00009FFF7F0033CC00007FCC6600269900005F994C001F7F00004F7F3F00134C00002F4C26007FFF0000BFFF7F0066CC000099CC66004C99000072994C003F7F0000
310
5F7F3F00264C0000394C2600BFFF0000DFFF7F0099CC0000B2CC66007299000085994C005F7F00006F7F3F00394C0000424C2600FFFF0000FFFF7F00CCCC0000CCCC66009999000099994C007F7F00007F7F3F004C4C00004C4C2600FFBF0000FFDF7F00CC990000CCB266009972000099854C007F5F00007F6F3F004C3900
310
004C422600FF7F0000FFBF7F00CC660000CC996600994C000099724C007F3F00007F5F3F004C2600004C392600FF3F0000FF9F7F00CC330000CC7F660099260000995F4C007F1F00007F4F3F004C1300004C2F2600FF000000FF7F7F00CC000000CC66660099000000994C4C007F0000007F3F3F004C0000004C262600FF00
310
3F00FF7F9F00CC003300CC667F0099002600994C5F007F001F007F3F4F004C0013004C262F00FF007F00FF7FBF00CC006600CC66990099004C00994C72007F003F007F3F5F004C0026004C263900FF00BF00FF7FDF00CC009900CC66B20099007200994C85007F005F007F3F6F004C0039004C264200FF00FF00FF7FFF00CC
310
00CC00CC66CC0099009900994C99007F007F007F3F7F004C004C004C264C00BF00FF00DF7FFF009900CC00B266CC0072009900854C99005F007F006F3F7F0039004C0042264C007F00FF00BF7FFF006600CC009966CC004C009900724C99003F007F005F3F7F0026004C0039264C003F00FF009F7FFF003300CC007F66CC00
310
260099005F4C99001F007F004F3F7F0013004C002F264C00333333005B5B5B0084848400ADADAD00D6D6D600FFFFFF00FAFAFAFAFAFAFAFAFAFAFAFAFAFAFAFAFAFAFAFAFAFAFAFAFAFAFAFAFAFA070707FAFAFAFAFAFAFAFAFAFAFAFAFAFAFAFAFAFAFAFAFAFAFAFAFAFAFAFAFAFAFAFAFAFAFAFAFAFAFAFAFAFAFAFAFAFA
310
FAFAFAFAFAFAFAFAFAFAFAFAFAFAFAFAFAFAFAFAFAFAFAFAFAFAFAFAFAFAFAFAFAFAFAFAFAFAFAFAFAFAFAFAFAFAFAFAFAFAFAFAFAFAFAFAFAFAFAFAFAFAFAFAFAFAFAFAFAFA05FAFAFAFAFAFAFAFAFAFAFAFAFAFAFAFAFAFAFAFAFAFAFAFAFAFAFAFAFAFAFAFAFAFAFAFAFAFAFAFAFAFAFAFAFAFAFAFAFAFAFAFAFAFAFAFA
310
FAFAFAFAFA07FAFA0707070707070707070707070707070707070707070707070707070707070707070707070707070707070707070707070707070707070707070707070707070707070707070707070707070707070707070707070707070707070707070707070707070707070707070707070707070707FAFA05FAFAFA
310
FAFAFAFAFAFAFAFAFAFAFAFAFAFAFAFAFAFAFAFAFAFAFAFAFAFAFAFAFAFAFAFAFAFAFAFAFAFAFAFAFAFAFAFAFAFAFAFAFAFAFAFAFAFAFAFAFAFA05FA07070707070707070707070707070707070707070707070707070707070707070707070707070707070707070707070707070707070707070707070707070707070707
310
070707070707070707070707070707070707070707070707070707070707070707070707070707070707070707070707FA05FAFAFAFAFAFAFAFAFAFAFAFAFAFAFAFAFAFAFAFAFAFAFAFAFAFAFAFAFAFAFAFAFAFAFAFAFAFAFAFAFAFAFAFAFAFAFAFAFAFAFAFAFAFAFAFAFAFAFAFAFA05FA0707070707070707070707070707
310
0707070707070707070707070707070707070707070707070707070707070707070707070707070707070707070707070707070707070707070707070707070707070707070707070707070707070707070707070707070707070707070707070707070707FA05FAFAFAFAFAFAFAFAFAFAFAFAFAFAFAFAFAFAFAFAFAFAFAFA
310
FAFAFAFAFAFAFAFAFAFAFAFAFAFAFAFAFAFAFAFAFAFAFAFAFAFAFAFAFAFAFAFAFAFAFAFAFA05FA070707FAFAFAFAFAFAFAFAFAFAFAFA01010101010101010101010101010101010101010101010101010101010101010101010101010101010101010101010101010101010101010101010101010101010101010101010101
310
01010101010101010101FAFAFAFAFAFAFAFAFAFAFAFAFAFA070707FA05FAFAFAFAFAFAFAFAFAFAFAFAFAFAFAFAFAFAFAFAFAFAFAFAFAFAFAFAFAFAFAFAFAFAFAFAFAFAFAFAFAFAFAFAFAFAFAFAFAFAFAFAFAFAFAFAFAFAFAFAFA05FA070707FAFAFAFAFAFAFAFAFAFAFAFA010202FA020202FA020102020201FA0202020102
310
020201FA02020201020202FA0102020201FA0202FA0102020201FA0202FA0102020201FA0202FA0102020201FA0202FA01FA02FA0102020202020202020201FAFAFAFAFAFAFAFAFAFAFAFAFAFA070707FA05FAFAFAFAFAFAFAFAFAFAFAFAFAFAFAFAFAFAFAFAFAFAFAFAFAFAFAFAFAFAFAFAFAFAFAFAFAFAFAFAFAFAFAFAFA
310
FAFAFAFAFAFAFAFAFAFAFAFAFAFAFAFA05FA070707FAFAFAFAFAFAFAFAFAFAFAFA0102020202020202020102020201FA0202020102020201FA02020201020202FA0102020201FA0202FA0102020201FA0202FA0102FA0201FA0202FA0102020201FA0202FA01FA02FA0102020202020202020201FAFAFAFAFAFAFAFAFAFAFA
310
FAFAFA070707FA05FAFAFAFAFAFAFAFAFAFAFAFAFAFAFAFAFAFAFAFAFAFAFAFAFAFAFAFAFAFAFAFAFAFAFAFAFAFAFAFAFAFAFAFAFAFAFAFAFAFAFAFAFAFAFAFAFAFAFAFAFA05FA070707FAFAFAFAFAFAFAFAFAFAFAFA0102020102020201020102020201010202020101020201010202010101020201010202020101020201
310
010202010101020201010202020101020201010202020101020201010102010102020202020202020201FAFAFAFAFAFAFAFAFAFAFAFAFAFA070707FA05FAFAFAFAFAFAFAFAFAFAFAFAFAFAFAFAFAFAFAFAFAFAFAFAFAFAFAFAFAFAFAFAFAFAFAFAFAFAFAFAFAFAFAFAFAFAFAFAFAFAFAFAFAFAFAFAFAFAFAFAFA05FA070707
310
FAFAFAFAFAFAFAFAFAFAFAFA0102020202020202020102020201FA0202020102020201FA0202FA01FA0202FA0102020201FA0202FA0102020201FA0202FA0102020201FA0202FA0102020201FA0202FA01FA02FA0102020202020202020201FAFAFAFAFAFAFAFAFAFAFAFAFAFA070707FA05FAFAFAFAFAFAFAFAFAFAFAFAFA
310
FAFAFAFAFAFAFAFAFAFAFAFAFAFAFAFAFAFAFAFAFAFAFAFAFAFAFAFAFAFAFAFAFAFAFAFAFAFAFAFAFAFAFAFAFAFAFAFA05FA070707FAFAFAFAFAFAFAFAFAFAFAFA0101010101010101010101010101010101010101010101010101010101010201010101010101010101010101010101010101010101010101010101010101
310
010101010101010101010101010101010201010101FAFAFAFAFAFAFAFAFAFAFAFAFAFA070707FA05FAFAFAFAFAFAFAFAFAFAFAFAFAFAFAFAFAFAFAFAFAFAFAFAFAFAFAFAFAFAFAFAFAFAFAFAFAFAFAFAFAFAFAFAFAFAFAFAFAFAFAFAFAFAFAFAFAFAFAFAFA05FA070707FAFAFAFAFAFAFAFAFAFAFAFA010202020202020202
310
0102020201FA0202020102020201FA02020201020202020102020201FA0202FA0102020201FA0202FA0102020201FA0202FA0102020201FA0202FA01FA02FA0102020202020202020201FAFAFAFAFAFAFAFAFAFAFAFAFAFA070707FA05FAFAFAFAFAFAFAFAFAFAFAFAFAFAFAFAFAFAFAFAFAFAFAFAFAFAFAFAFAFAFAFAFAFA
310
FAFAFAFAFAFAFAFAFAFAFAFAFAFAFAFAFAFAFAFAFAFAFAFAFAFAFA05FA070707FAFAFAFAFAFAFAFAFAFAFAFA0102020202020201020102020201010202020102020201010202020102020202010202020101020201010202020101020201010202020101020201010102020101020201010102010102020202020102020101
310
FAFAFAFAFAFAFAFAFAFAFAFAFAFA070707FA05FAFAFAFAFAFAFAFAFAFAFAFAFAFAFAFAFAFAFAFAFAFAFAFAFAFAFAFAFAFAFAFAFAFAFAFAFAFAFAFAFAFAFAFAFAFAFAFAFAFAFAFAFAFAFAFAFAFAFAFAFA05FA070707FAFAFAFAFAFAFAFAFAFAFAFA0102020202020202020102020201FA0202020102020201FA02020201FA02
310
02FA0102020201FA0202FA0102020201FA0202FA0102020201FA0202FA0102020201FA0202FA01FA02FA0102020202020202020201FAFAFAFAFAFAFAFAFAFAFAFAFAFA070707FA05FAFAFAFAFAFAFAFAFAFAFAFAFAFAFAFAFAFAFAFAFAFAFAFAFAFAFAFAFAFAFAFAFAFAFAFAFAFAFAFAFAFAFAFAFAFAFAFAFAFAFAFAFAFAFA
310
FAFAFAFAFAFA05FA070707FAFAFAFAFAFAFAFAFAFAFAFA01020202020202FA020102020201FA0202020102020201FA02020201FA0202FA0202020201FA0202FA0102020201FA0202FA0102020201FA0202FA01FA020201FA0202FA01FA02FA0102020202020202020201FAFAFAFAFAFAFAFAFAFAFAFAFAFA070707FA05FAFA
310
FAFAFAFAFAFAFAFAFAFAFAFAFAFAFAFAFAFAFAFAFAFAFAFAFAFAFAFAFAFAFAFAFAFAFAFAFAFAFAFAFAFAFAFAFAFAFAFAFAFAFAFAFAFAFAFAFAFAFA05FA070707FAFAFAFAFAFAFAFAFAFAFAFA010202010202020102010202020101020201010202020101020202010102020101020202010102020101020202010102020101
310
0202020101020201010202020101020201010102010102020202020202020201FAFAFAFAFAFAFAFAFAFAFAFAFAFA070707FA05FAFAFAFAFAFAFAFAFAFAFAFAFAFAFAFAFAFAFAFAFAFAFAFAFAFAFAFAFAFAFAFAFAFAFAFAFAFAFAFAFAFAFAFAFAFAFAFAFAFAFAFAFAFAFAFAFAFAFAFAFA05FA070707FAFAFAFAFAFAFAFAFAFA
310
FAFA0102020202020202020102020201FA0202FA01FA020201FA02020201FA0202FA0102020201FA0202FA0102020201FA0202FA0102020201FAFA02FA01FA020201FA0202FA01FA02FA0102020202020202020201FAFAFAFAFAFAFAFAFAFAFAFAFAFA070707FA05FAFAFAFAFAFAFAFAFAFAFAFAFAFAFAFAFAFAFAFAFAFAFA
310
FAFAFAFAFAFAFAFAFAFAFAFAFAFAFAFAFAFAFAFAFAFAFAFAFAFAFAFAFAFAFAFAFAFAFAFAFAFA05FA070707FAFAFAFAFAFAFAFAFAFAFAFA010202010202020102010202020101020201010202020101020201010202020201020102010102020101020202010102010101020202010101020101010202010102020101020202
310
0102020202020202020201FAFAFAFAFAFAFAFAFAFAFAFAFAFA070707FA05FAFAFAFAFAFAFAFAFAFAFAFAFAFAFAFAFAFAFAFAFAFAFAFAFAFAFAFAFAFAFAFAFAFAFAFAFAFAFAFAFAFAFAFAFAFAFAFAFAFAFAFAFAFAFAFAFAFAFAFAFA05FA070707FAFAFAFAFAFAFAFAFAFAFAFA0102020202020202020102020201FA0202FA01
310
02020201FA02020201020202020102020201FA0202FA0102020201FA0202FA0102020201FA0202FA0102020201FA0202FA0102FA020102020202020202020201FAFAFAFAFAFAFAFAFAFAFAFAFAFA070707FA05FAFAFAFAFAFAFAFAFAFAFAFAFAFAFAFAFAFAFAFAFAFAFAFAFAFAFAFAFAFAFAFAFAFAFAFAFAFAFAFAFAFAFAFA
310
FAFAFAFAFAFAFAFAFAFAFAFAFAFAFAFAFA05FA070707FAFAFAFAFAFAFAFAFAFAFAFA0101010202020201010101010101010101010101010101010101010101010101010101010101010101010101010101010101010101010101010101010101010101010101010202010101020202020202020201FAFAFAFAFAFAFAFAFAFA
310
FAFAFAFA070707FA05FAFAFAFAFAFAFAFAFAFAFAFAFAFAFAFAFAFAFAFAFAFAFAFAFAFAFAFAFAFAFAFAFAFAFAFAFAFAFAFAFAFAFAFAFAFAFAFAFAFAFAFAFAFAFAFAFAFAFAFAFA05FA070707FAFAFAFAFAFAFAFAFAFAFAFA01FAFA02020202FAFA01FA020201FA0202FA01FA020201FA0202FA01FA0202FA010202FA01FA0202
310
FA01FA02FA01FA0202FA01FA02FA01FA0202FA01FA02FA01FA0202FA0102020201FA02020202020202FA01FAFAFAFAFAFAFAFAFAFAFAFAFAFA070707FA05FAFAFAFAFAFAFAFAFAFAFAFAFAFAFAFAFAFAFAFAFAFAFAFAFAFAFAFAFAFAFAFAFAFAFAFAFAFAFAFAFAFAFAFAFAFAFAFAFAFAFAFAFAFAFAFAFAFAFAFAFA05FA0707
310
07FAFAFAFAFAFAFAFAFAFAFAFA0101010102020201010101020101010202010101020201010202010101020201010202010101020201010102010101020201010102010101020201010102010101020201010202020101020202020202020201FAFAFAFAFAFAFAFAFAFAFAFAFAFA070707FA05FAFAFAFAFAFAFAFAFAFAFAFA
310
FAFAFAFAFAFAFAFAFAFAFAFAFAFAFAFAFAFAFAFAFAFAFAFAFAFAFAFAFAFAFAFAFAFAFAFAFAFAFAFAFAFAFAFAFAFAFAFAFA05FA070707FAFAFAFAFAFAFAFAFAFAFAFAFAFAFAFAFAFAFAFAFAFAFAFAFAFAFAFAFAFAFAFAFAFAFAFAFAFAFAFAFAFAFAFAFAFAFAFAFAFAFAFAFAFAFAFAFAFAFAFAFAFAFAFAFAFAFAFAFAFAFAFAFA
310
FAFAFAFAFAFAFAFAFAFAFAFAFAFAFAFAFAFAFAFAFAFAFAFAFAFAFAFAFAFAFAFAFAFAFAFA070707FA05FAFAFAFAFAFAFAFAFAFAFAFAFAFAFAFAFAFAFAFAFAFAFAFAFAFAFAFAFAFAFAFAFAFAFAFAFAFAFAFAFAFAFAFAFAFAFAFAFAFAFAFAFAFAFAFAFAFAFAFAFA05FA070707FAFAFAFAFAFAFAFAFAFAFAFAFAFAFAFAFAFAFAFA
310
FAFAFAFAFAFAFAFAFAFAFAFAFAFAFAFAFAFAFAFAFAFAFAFAFAFAFAFAFAFAFAFAFAFAFAFAFAFAFAFAFAFAFAFAFAFAFAFAFAFAFAFAFAFAFAFAFAFAFAFAFAFAFAFAFAFAFAFAFAFAFAFAFAFAFAFAFAFAFAFAFAFAFAFAFAFAFAFAFA070707FA05FAFAFAFAFAFAFAFAFAFAFAFAFAFAFAFAFAFAFAFAFAFAFAFAFAFAFAFAFAFAFAFAFA
310
FAFAFAFAFAFAFAFAFAFAFAFAFAFAFAFAFAFAFAFAFAFAFAFAFAFAFAFA05FA070707FAFAFAFAFAFAFAFAFAFAFAFAFAFAFAFAFAFAFAFAFAFAFAFAFAFAFAFAFAFAFAFAFAFAFAFAFAFAFAFAFAFAFAFAFAFAFAFAFAFAFAFAFAFAFAFAFAFAFAFAFAFAFAFAFAFAFAFAFAFAFAFAFAFAFAFAFAFAFAFAFAFAFAFAFAFAFAFAFAFAFAFAFAFA
310
FAFAFAFAFAFAFAFAFAFAFAFAFAFAFA070707FA05FAFAFAFAFAFAFAFAFAFAFAFAFAFAFAFAFAFAFAFAFAFAFAFAFAFAFAFAFAFAFAFAFAFAFAFAFAFAFAFAFAFAFAFAFAFAFAFAFAFAFAFAFAFAFAFAFAFAFAFAFA05FA070707FAFAFAFAFAFAFAFAFAFAFAFAFAFAFAFAFAFAFAFAFAFAFAFAFAFAFAFAFAFAFAFAFAFAFAFAFAFAFAFAFA
310
FAFAFAFAFAFAFAFAFAFAFAFAFAFAFAFAFAFAFAFAFAFAFAFAFAFAFAFAFAFAFAFAFAFAFAFAFAFAFAFAFAFAFAFAFAFAFAFAFAFAFAFAFAFAFAFAFAFAFAFAFAFAFAFAFAFAFAFA070707FA05FAFAFAFAFAFAFAFAFAFAFAFAFAFAFAFAFAFAFAFAFAFAFAFAFAFAFAFAFAFAFAFAFAFAFAFAFAFAFAFAFAFAFAFAFAFAFAFAFAFAFAFAFAFA
310
FAFAFAFAFAFAFA05FA070707FAFAFAFAFAFAFAFAFAFAFAFAFAFAFAFAFAFAFAFAFAFAFAFAFAFAFAFAFAFAFAFAFAFAFAFAFAFAFAFAFAFAFAFAFAFAFAFAFAFAFAFAFAFAFAFAFAFAFAFAFAFAFAFAFAFAFAFAFAFAFAFAFAFAFAFAFAFAFAFAFAFAFAFAFAFAFAFAFAFAFAFAFAFAFAFAFAFAFAFAFAFAFAFAFAFAFAFAFA070707FA05FA
310
FAFAFAFAFAFAFAFAFAFAFAFAFAFAFAFAFAFAFAFAFAFAFAFAFAFAFAFAFAFAFAFAFAFAFAFAFAFAFAFAFAFAFAFAFAFAFAFAFAFAFAFAFAFAFAFAFAFAFAFA05FA070707FAFAFAFAFAFAFAFAFAFAFAFAFAFAFAFAFAFAFAFAFAFAFAFAFAFAFAFAFAFAFAFAFAFAFAFAFAFAFAFAFAFAFAFAFAFAFAFAFAFAFAFAFAFAFAFAFAFAFAFAFAFA
310
FAFAFAFAFAFAFAFAFAFAFAFAFAFAFAFAFAFAFAFAFAFAFAFAFAFAFAFAFAFAFAFAFAFAFAFAFAFAFAFAFAFAFAFAFAFAFA070707FA05FAFAFAFAFAFAFAFAFAFAFAFAFAFAFAFAFAFAFAFAFAFAFAFAFAFAFAFAFAFAFAFAFAFAFAFAFAFAFAFAFAFAFAFAFAFAFAFAFAFAFAFAFAFAFAFAFAFAFAFAFA05FA070707FAFAFAFAFAFAFAFAFA
310
FAFAFAFAFAFAFAFAFAFAFAFAFAFAFAFAFAFAFAFAFAFAFAFAFA03FAFAFAFAFAFAFAFAFAFAFAFAFAFAFAFAFAFAFAFAFAFAFAFAFAFAFAFAFAFA03FAFAFAFAFAFAFAFAFAFAFAFAFAFAFAFAFAFAFAFAFAFAFAFAFAFAFAFAFAFAFAFAFAFAFAFAFAFAFAFAFAFAFA070707FA05FAFAFAFAFAFAFAFAFAFAFAFAFAFAFAFAFAFAFAFAFAFA
310
FAFAFAFAFAFAFAFAFAFAFAFAFAFAFAFAFAFAFAFAFAFAFAFAFAFAFAFAFAFAFAFAFAFAFAFAFAFAFA05FA070707FAFAFAFAFAFAFAFAFAFAFAFAFAFAFAFAFAFAFAFAFAFAFAFAFAFAFAFAFAFAFAFAFAFA0303030303030303030303030303030202030303030303030303030303030303FAFAFAFAFAFAFAFAFAFAFAFAFAFAFAFAFA
310
FAFAFAFAFAFAFAFAFAFAFAFAFAFAFAFAFAFAFAFAFAFAFAFAFAFA070707FA05FAFAFAFAFAFAFAFAFAFAFAFAFAFAFAFAFAFAFAFAFAFAFAFAFAFAFAFAFAFAFAFAFAFAFAFAFAFAFAFAFAFAFAFAFAFAFAFAFAFAFAFAFAFAFAFAFAFAFAFAFA05FA070707FAFAFAFAFAFAFAFAFAFAFAFAFAFAFAFAFAFAFAFAFAFAFAFAFAFAFAFAFAFA
310
FAFAFAFA03FAFAFAFAFAFAFAFAFAFAFAFAFAFAFA02FAFAFAFAFAFAFAFAFAFAFAFAFAFA03FAFAFAFAFAFAFAFAFAFAFAFAFAFAFAFAFAFAFAFAFAFAFAFAFAFAFAFAFAFAFAFAFAFAFAFAFAFAFAFAFAFAFA070707FA05FAFAFAFAFAFAFAFAFAFAFAFAFAFAFAFAFAFAFAFAFAFAFAFAFAFAFAFAFAFAFAFAFAFAFAFAFAFAFAFAFAFAFA
310
FAFAFAFAFAFAFAFAFAFAFAFAFAFAFAFAFAFA05FA070707FAFAFAFAFAFAFAFAFAFAFAFAFAFAFAFAFAFAFAFAFAFAFAFAFAFAFAFAFAFAFAFAFAFA03FAFA03FAFAFAFAFAFAFAFAFAFAFAFAFAFAFAFAFAFAFAFAFAFAFAFA03FAFA03FAFAFAFAFAFAFAFAFAFAFAFAFAFAFAFAFAFAFAFAFAFAFAFAFAFAFAFAFAFAFAFAFAFAFAFAFAFA
310
FAFAFAFAFA070707FA05FAFAFAFAFAFAFAFAFAFAFAFAFAFAFAFAFAFAFAFAFAFAFAFAFAFAFAFAFAFAFAFAFAFAFAFAFAFAFAFAFAFAFAFAFAFAFAFAFAFAFAFAFAFAFAFAFAFAFAFAFA05FA070707FAFAFAFAFAFAFAFAFAFAFAFAFAFAFAFAFAFAFAFAFAFAFAFAFAFAFAFAFAFAFAFAFAFA03FAFA0303030303030303030303030302
310
030303030303030303030303FAFA03FAFAFAFAFAFAFAFAFAFAFAFAFAFAFAFAFAFAFAFAFAFAFAFAFAFAFAFAFAFAFAFAFAFAFAFAFAFAFAFAFAFAFA070707FA05FAFAFAFAFAFAFAFAFAFAFAFAFAFAFAFAFAFAFAFAFAFAFAFAFAFAFAFAFAFAFAFAFAFAFAFAFAFAFAFAFAFAFAFAFAFAFAFAFAFAFAFAFAFAFAFAFAFAFAFAFA05FA07
310
0707FAFAFAFAFAFAFAFAFAFAFAFAFAFAFAFAFAFAFAFAFAFAFAFAFAFAFAFAFAFAFAFAFAFA03FAFA03FAFAFAFAFAFAFAFAFAFAFAFA02FAFAFAFAFAFAFAFAFAFAFA03FAFA03FAFAFAFAFAFAFAFAFAFAFAFAFAFAFAFAFAFAFAFAFAFAFAFAFAFAFAFAFAFAFAFAFAFAFAFAFAFAFAFAFAFAFA070707FA05FAFAFAFAFAFAFAFAFAFAFA
310
FAFAFAFAFAFAFAFAFAFAFAFAFAFAFAFAFAFAFAFAFAFAFAFAFAFAFAFAFAFAFAFAFAFAFAFAFAFAFAFAFAFAFAFAFAFAFAFAFAFA05FA070707FAFAFAFAFAFAFAFAFAFAFAFAFAFAFAFAFAFAFAFAFAFAFAFAFAFAFAFAFAFAFAFAFAFA03FAFA03FAFAFAFAFAFAFAFAFAFAFA070707FAFAFAFAFAFAFAFA03030303FA03FAFAFAFAFAFA
310
FAFAFAFAFAFAFAFAFAFAFAFAFAFAFAFAFAFAFAFAFAFAFAFAFAFAFAFAFAFAFAFAFAFAFAFAFA070707FA05FAFAFAFAFAFAFAFAFAFAFAFAFAFAFAFAFAFAFAFAFAFAFAFAFAFAFAFAFAFAFAFAFAFAFAFAFAFAFAFAFAFAFAFAFAFAFAFAFAFAFAFAFAFAFAFAFAFAFAFAFA05FA070707FAFAFAFAFAFAFAFAFAFAFAFAFAFAFAFAFAFAFA
310
FAFAFAFAFAFAFAFAFAFAFA0303030303030303030303030303030303030303070707FAFAFAFAFAFAFAFA0202FAFA03FAFAFAFAFAFAFAFAFAFAFAFAFAFAFAFAFAFAFAFAFAFAFAFAFAFAFAFAFAFAFAFAFAFAFAFAFAFAFAFAFAFAFA070707FA05FAFAFAFAFAFAFAFAFAFAFAFAFAFAFAFAFAFAFAFAFAFAFAFAFAFAFAFAFAFAFAFA
310
FAFAFAFAFAFAFAFAFAFAFAFAFAFAFAFAFAFAFAFAFAFAFAFAFAFAFAFAFA05FA070707FAFAFAFAFAFAFAFAFAFAFAFAFAFAFAFAFAFAFAFAFAFAFAFAFAFAFAFAFAFAFA03FAFA03FAFA03FAFAFAFAFAFAFAFAFA07070707070707FAFAFAFAFAFAFA0202FAFA03FAFAFAFAFAFAFAFAFAFAFAFAFAFAFAFAFAFAFAFAFAFAFAFAFAFAFA
310
FAFAFAFAFAFAFAFAFAFAFAFAFAFAFAFA070707FA05FAFAFAFAFAFAFAFAFAFAFAFAFAFAFAFAFAFAFAFAFAFAFAFAFAFAFAFAFAFAFAFAFAFAFAFAFAFAFAFAFAFAFAFAFAFAFAFAFAFAFAFAFAFAFAFAFAFAFAFAFA05FA070707FAFAFAFAFAFAFAFAFAFAFAFAFAFAFAFAFAFAFAFAFAFAFAFAFAFAFAFAFAFAFA03FAFA030707030707
310
0707070707070707070707070707070707070707070303070703FAFAFAFAFAFAFAFAFAFAFAFAFAFAFAFAFAFAFAFAFAFAFAFAFAFAFAFAFAFAFAFAFAFAFAFAFAFAFAFAFAFAFA070707FA05FAFAFAFAFAFAFAFAFAFAFAFAFAFAFAFAFAFAFAFAFAFAFAFAFAFAFAFAFAFAFAFAFAFAFAFAFAFAFAFAFAFAFAFAFAFAFAFAFAFAFAFAFA
310
FAFAFAFAFAFAFAFA05FA070707FAFAFAFAFAFAFAFAFAFAFAFAFAFAFAFAFAFAFAFAFAFAFAFAFAFAFAFAFAFAFA03FA07030707030707070707070707070707070707070707070707070707030307070303030303FAFAFAFAFAFAFAFAFAFAFAFAFAFAFAFAFAFAFAFAFAFAFAFAFAFAFAFAFAFAFAFAFAFAFAFAFAFAFA070707FA05
310
FAFAFAFAFAFAFAFAFAFAFAFAFAFAFAFAFAFAFAFAFAFAFAFAFAFAFAFAFAFAFAFAFAFAFAFAFAFAFAFAFAFAFAFAFAFAFAFAFAFAFAFAFAFAFAFAFAFAFAFAFA05FA070707FAFAFAFAFAFAFAFAFAFAFAFAFAFAFAFAFAFAFAFAFAFAFAFAFAFAFAFAFAFAFA03FA07070707030707070707070707070707070707070707070707070707
310
030307070707FAFA03FAFAFAFAFAFAFAFAFAFAFAFAFAFAFAFAFAFAFAFAFAFAFAFAFAFAFAFAFAFAFAFAFAFAFAFAFAFAFA070707FA05FAFAFAFAFAFAFAFAFAFAFAFAFAFAFAFAFAFAFAFAFAFAFAFAFAFAFAFAFAFAFAFAFAFAFAFAFAFAFAFAFAFAFAFAFAFAFAFAFAFAFAFAFAFAFAFAFAFAFAFAFA05FA070707FAFAFAFAFAFAFAFA
310
FAFAFAFAFAFAFAFAFAFAFAFAFAFAFAFAFAFAFAFAFAFAFA03FA07070707070307FAFA07070707070707070707070707070707070707070707070707FAFA03FAFAFAFAFAFAFAFAFAFAFAFAFAFAFAFAFAFAFAFAFAFAFAFAFAFAFAFAFAFAFAFAFAFAFAFAFAFAFA070707FA05FAFAFAFAFAFAFAFAFAFAFAFAFAFAFAFAFAFAFAFAFA
310
FAFAFAFAFAFAFAFAFAFAFAFAFAFAFAFAFAFAFAFAFAFAFAFAFAFAFAFAFAFAFAFAFAFAFAFAFAFAFAFA05FA070707FAFAFAFAFAFAFAFAFAFAFAFAFAFAFAFAFAFAFAFAFAFAFAFAFAFAFAFAFA020203FA04040707070307070404070707070707070707070707070707070707070707070704020203FAFAFAFAFAFAFAFAFAFAFAFA
310
FAFAFAFAFAFAFAFAFAFAFAFAFAFAFAFAFAFAFAFAFAFAFAFAFAFAFA070707FA05FAFAFAFAFAFAFAFAFAFAFAFAFAFAFAFAFAFAFAFAFAFAFAFAFAFAFAFAFAFAFAFAFAFAFAFAFAFAFAFAFAFAFAFAFAFAFAFAFAFAFAFAFAFAFAFAFAFAFAFAFA05FA070707FAFAFAFAFAFAFAFAFAFAFAFAFAFAFAFAFAFAFAFAFAFAFAFAFAFAFAFAFA
310
FAFA03FA07070707030707FAFA07070707070707070707070707070707070707070707070707020203FAFAFAFAFAFAFAFAFAFAFAFAFAFAFAFAFAFAFAFAFAFAFAFAFAFAFAFAFAFAFAFAFAFAFAFAFAFAFA070707FA05FAFAFAFAFAFAFAFAFAFAFAFAFAFAFAFAFAFAFAFAFAFAFAFAFAFAFAFAFAFAFAFAFAFAFAFAFAFAFAFAFAFA
310
FAFAFAFAFAFAFAFAFAFAFAFAFAFAFAFAFAFAFA05FA070707FAFAFAFAFAFAFAFAFAFAFAFAFAFAFAFAFAFAFAFAFAFAFAFAFAFAFAFAFAFAFA03FA07070707030707070707070707070707070707070707070707070707070707070707FAFA03FAFAFAFAFAFAFAFAFAFAFAFAFAFAFAFAFAFAFAFAFAFAFAFAFAFAFAFAFAFAFAFAFA
310
FAFAFAFAFAFA070707FA05FAFAFAFAFAFAFAFAFAFAFAFAFAFAFAFAFAFAFAFAFAFAFAFAFAFAFAFAFAFAFAFAFAFAFAFAFAFAFAFAFAFAFAFAFAFAFAFAFAFAFAFAFAFAFAFAFAFAFAFAFA05FA070707FAFAFAFAFAFAFAFAFAFAFAFAFAFAFAFAFAFAFAFAFAFAFAFAFAFAFAFAFAFAFA03FA0707070307070707070707070707070707
310
0707070707070707070707070707070707FAFA03FAFAFAFAFAFAFAFAFAFAFAFAFAFAFAFAFAFAFAFAFAFAFAFAFAFAFAFAFAFAFAFAFAFAFAFAFAFAFA070707FA05FAFAFAFAFAFAFAFAFAFAFAFAFAFAFAFAFAFAFAFAFAFAFAFAFAFAFAFAFAFAFAFAFAFAFAFAFAFAFAFAFAFAFAFAFAFAFAFAFAFAFAFAFAFAFAFAFAFAFAFAFA05FA
310
070707FAFAFAFAFAFAFAFAFAFAFAFAFAFAFAFAFAFAFAFAFAFAFAFAFAFAFAFAFAFAFA03FA07070307070707070707070707070707070707070707070707070707070707070303030303FAFAFAFAFAFAFAFAFAFAFAFAFAFAFAFAFAFAFAFAFAFAFAFAFAFAFAFAFAFAFAFAFAFAFAFAFAFAFA070707FA05FAFAFAFAFAFAFAFAFAFA
310
FAFAFAFAFAFAFAFAFAFAFAFAFAFAFAFAFAFAFAFAFAFAFAFAFAFAFAFAFAFAFAFAFAFAFAFAFAFAFAFAFAFAFAFAFAFAFAFAFAFAFA05FA070707FAFAFAFAFAFAFAFAFAFAFAFAFAFAFAFAFAFAFAFAFAFAFAFAFAFAFAFAFAFAFA03FAFA0703070707070707070707070707070707070707070707070707070707070707FAFAFAFAFA
310
FAFAFAFAFAFAFAFAFAFAFAFAFAFAFAFAFAFAFAFAFAFAFAFAFAFAFAFAFAFAFAFAFAFAFAFAFAFA070707FA05FAFAFAFAFAFAFAFAFAFAFAFAFAFAFAFAFAFAFAFAFAFAFAFAFAFAFAFAFAFAFAFAFAFAFAFAFAFAFAFAFAFAFAFAFAFAFAFAFAFAFAFAFAFAFAFAFAFAFAFAFA05FA070707FAFAFAFAFAFAFAFAFAFAFAFAFAFAFAFAFAFA
310
FAFAFAFAFAFAFAFAFAFAFAFA0303030303030303030303030303030303030307070707FAFAFAFAFAFAFAFAFAFAFAFAFAFAFAFAFAFAFAFAFAFAFAFAFAFAFAFAFAFAFAFAFAFAFAFAFAFAFAFAFAFAFAFAFAFAFAFAFAFAFAFAFAFAFAFA070707FA05FAFAFAFAFAFAFAFAFAFAFAFAFAFAFAFAFAFAFAFAFAFAFAFAFAFAFAFAFAFAFA
310
FAFAFAFAFAFAFAFAFAFAFAFAFAFAFAFAFAFAFAFAFAFAFAFAFAFAFAFAFAFA05FA070707FAFAFAFAFAFAFAFAFAFAFAFAFAFAFAFAFAFAFAFAFAFAFAFAFAFAFAFAFAFAFAFA0303FAFAFAFAFAFAFAFAFAFAFAFAFAFA07070707FAFAFAFAFAFAFAFAFAFAFAFAFAFAFAFAFAFAFAFAFAFAFAFAFAFAFA030303020303FAFAFAFAFAFAFA
310
FAFAFAFAFAFAFAFAFAFAFAFAFAFAFAFAFA070707FA05FAFAFAFAFAFAFAFAFAFAFAFAFAFAFAFAFAFAFAFAFAFAFAFAFAFAFAFAFAFAFAFAFAFAFAFAFAFAFAFAFAFAFAFAFAFAFAFAFAFAFAFAFAFAFAFAFAFAFAFAFA05FA070707FAFAFAFAFAFAFAFAFAFAFAFAFAFAFAFAFAFAFAFAFAFAFAFAFAFAFAFAFAFAFAFA0202FAFAFAFAFA
310
FAFAFAFAFAFAFAFAFAFAFAFAFAFAFAFAFAFAFAFAFAFAFAFAFAFAFAFAFAFAFAFAFAFAFAFAFAFAFAFA03FAFA02FA03FAFAFAFAFAFAFAFAFAFAFAFAFAFAFAFAFAFAFAFAFAFAFAFA070707FA05FAFAFAFAFAFAFAFAFAFAFAFAFAFAFAFAFAFAFAFAFAFAFAFAFAFAFAFAFAFAFAFAFAFAFAFAFAFAFAFAFAFAFAFAFAFAFAFAFAFAFAFA
310
FAFAFAFAFAFAFAFAFA05FA070707FAFAFAFAFAFAFAFAFAFAFAFAFAFAFAFAFAFAFAFAFAFAFAFAFAFAFAFAFAFAFAFAFA02FAFAFAFAFAFAFAFAFAFAFAFAFAFAFAFAFAFAFAFAFAFAFAFAFAFAFAFAFAFAFAFAFAFAFAFAFAFAFAFAFAFAFAFAFA03FA03FA0303FAFAFAFAFAFAFAFAFAFAFAFAFAFAFAFAFAFAFAFAFAFAFAFA070707FA
310
05FAFAFAFAFAFAFAFAFAFAFAFAFAFAFAFAFAFAFAFAFAFAFAFAFAFAFAFAFAFAFAFAFAFAFAFAFAFAFAFAFAFAFAFAFAFAFAFAFAFAFAFAFAFAFAFAFAFAFAFAFA05FA070707FAFAFAFAFAFAFAFAFAFAFAFAFAFAFAFAFAFAFAFAFAFAFAFAFAFAFAFAFAFAFAFAFAFAFAFAFAFAFAFAFAFAFAFAFAFAFAFAFAFAFAFAFAFAFAFAFAFAFAFA
310
FAFAFAFAFAFAFAFAFAFAFAFAFAFAFAFAFAFAFA03FA03020303FAFAFAFAFAFAFAFAFAFAFAFAFAFAFAFAFAFAFAFAFAFAFAFA070707FA05FAFAFAFAFAFAFAFAFAFAFAFAFAFAFAFAFAFAFAFAFAFAFAFAFAFAFAFAFAFAFAFAFAFAFAFAFAFAFAFAFAFAFAFAFAFAFAFAFAFAFAFAFAFAFAFAFAFAFAFAFA05FA070707FAFAFAFAFAFAFA
310
FAFAFAFAFAFAFAFAFAFAFAFAFAFAFAFAFAFAFAFAFAFAFAFAFAFAFAFAFAFAFAFAFAFAFAFAFAFAFAFAFAFAFAFAFAFAFAFAFAFAFAFAFAFAFAFAFAFAFAFAFAFAFAFAFAFAFAFAFAFAFAFA03FA03020303FAFAFAFAFAFAFAFAFAFAFAFAFAFAFAFAFAFAFAFAFAFAFAFA070707FA05FAFAFAFAFAFAFAFAFAFAFAFAFAFAFAFAFAFAFAFA
310
FAFAFAFAFAFAFAFAFAFAFAFAFAFAFAFAFAFAFAFAFAFAFAFAFAFAFAFAFAFAFAFAFAFAFAFAFAFAFAFAFA05FA070707FAFAFAFAFAFAFAFAFAFAFAFAFAFAFAFAFAFAFAFAFAFAFAFAFAFAFAFAFAFAFAFAFAFAFAFAFAFAFAFAFAFAFAFAFAFAFAFA07070707FAFAFAFAFAFAFAFAFAFAFAFAFAFAFAFAFAFAFAFAFAFAFAFAFAFAFA0307
310
03040303FAFAFAFAFAFAFAFAFAFAFAFAFAFAFAFAFAFAFAFAFAFAFAFA070707FA05FAFAFAFAFAFAFAFAFAFAFAFAFAFAFAFAFAFAFAFAFAFAFAFAFAFAFAFAFAFAFAFAFAFAFAFAFAFAFAFAFAFAFAFAFAFAFAFAFAFAFAFAFAFAFAFAFAFAFAFAFA05FA070707FAFAFAFAFAFAFAFAFAFAFAFAFAFAFAFAFAFAFAFAFAFAFAFAFAFAFAFA
310
FAFAFAFAFAFAFAFAFAFAFAFAFAFAFAFAFAFA0707070707070707FAFAFAFAFAFAFAFAFAFAFAFAFAFAFAFA03030303030303030303070304030303030303030303030303FAFAFAFAFAFAFAFAFAFAFAFAFAFA070707FA05FAFAFAFAFAFAFAFAFAFAFAFAFAFAFAFAFAFAFAFAFAFAFAFAFAFAFAFAFAFAFAFAFAFAFAFAFAFAFAFAFA
310
FAFAFAFAFAFAFAFAFAFAFAFAFAFAFAFAFAFAFAFA05FA070707FAFAFAFAFAFAFAFAFAFAFAFAFAFAFAFAFAFAFAFAFAFAFAFAFAFAFAFAFAFAFAFAFAFAFAFAFAFAFAFAFAFAFAFA0707070707070707070707FAFAFAFAFAFAFAFAFAFAFAFAFAFAFAFA03FAFAFAFAFAFA0707070304030707FAFAFAFAFAFAFAFA03FAFAFAFAFAFAFA
310
FAFAFAFAFAFAFA070707FA05FAFAFAFAFAFAFAFAFAFAFAFAFAFAFAFAFAFAFAFAFAFAFAFAFAFAFAFAFAFAFAFAFAFAFAFAFAFAFAFAFAFAFAFAFAFAFAFAFAFAFAFAFAFAFAFAFAFAFAFAFA05FA070707FAFAFAFAFAFAFAFAFAFAFAFAFAFAFAFAFAFAFAFAFAFAFAFAFAFAFAFAFAFAFAFAFAFAFAFAFAFAFAFAFAFAFA070707070707
310
FA040707070707FAFAFAFAFAFAFAFAFAFAFAFAFAFAFA03FA03030303030303030304030303030303030303FAFA03FAFAFAFAFAFAFAFAFAFAFAFAFAFA070707FA05FAFAFAFAFAFAFAFAFAFAFAFAFAFAFAFAFAFAFAFAFAFAFAFAFAFAFAFAFAFAFAFAFAFAFAFAFAFAFAFAFAFAFAFAFAFAFAFAFAFAFAFAFAFAFAFAFAFAFAFAFA05
310
FA070707FAFAFAFAFAFAFAFAFAFAFAFAFAFAFAFAFAFAFAFAFAFAFAFAFAFAFAFAFAFAFAFAFAFAFAFAFAFAFAFAFAFA070707070707070707070707070707FAFAFAFAFAFAFAFAFAFAFAFAFAFA03FA03FAFAFAFA0707070704030303030203FAFA03FAFA03FAFAFAFAFAFAFAFAFAFAFAFAFAFA070707FA05FAFAFAFAFAFAFAFAFA
310
FAFAFAFAFAFAFAFAFAFAFAFAFAFAFAFAFAFAFAFAFAFAFAFAFAFAFAFAFAFAFAFAFAFAFAFAFAFAFAFAFAFAFAFAFAFAFAFAFAFAFAFA05FA070707FAFAFAFAFAFAFAFAFAFAFAFAFAFAFAFAFAFAFAFAFAFAFAFAFAFAFAFAFAFAFAFAFAFAFAFAFAFAFAFAFAFA07070707070707070707070707070707FAFAFAFAFAFAFAFAFAFAFAFA
310
FA03FA03FAFAFA0707070707040707070702FAFAFA03FAFA03FAFAFAFAFAFAFAFAFAFAFAFAFAFA070707FA05FAFAFAFAFAFAFAFAFAFAFAFAFAFAFAFAFAFAFAFAFAFAFAFAFAFAFAFAFAFAFAFAFAFAFAFAFAFAFAFAFAFAFAFAFAFAFAFAFAFAFAFAFAFAFAFAFAFAFAFAFA05FA070707FAFAFAFAFAFAFAFAFAFAFAFAFAFAFAFAFA
310
FAFAFAFAFAFAFAFAFAFAFAFAFAFAFAFAFAFAFAFAFAFAFAFAFA0707070707070701010707070707070707FAFAFAFAFAFAFAFAFAFAFAFA03FA03FAFA07070707070704070707070707FAFA03FAFA03FAFAFAFAFAFAFAFAFAFAFAFAFAFA070707FA05FAFAFAFAFAFAFAFAFAFAFAFAFAFAFAFAFAFAFAFAFAFAFAFAFAFAFAFAFAFA
310
FAFAFAFAFAFAFAFAFAFAFAFAFAFAFAFAFAFAFAFAFAFAFAFAFAFAFAFAFAFAFA05FA070707FAFAFAFAFAFAFAFAFAFAFAFAFAFAFAFAFAFAFAFAFAFAFAFAFAFAFAFAFAFAFAFAFAFAFAFAFAFAFAFAFAFA070707FAFA07010707010707FA07070707FAFAFAFAFAFAFAFAFAFAFAFA03FA03FAFA0707070707070407070707070707FA
310
03FAFA03FAFAFAFAFAFAFAFAFAFAFAFAFAFA070707FA05FAFAFAFAFAFAFAFAFAFAFAFAFAFAFAFAFAFAFAFAFAFAFAFAFAFAFAFAFAFAFAFAFAFAFAFAFAFAFAFAFAFAFAFAFAFAFAFAFAFAFAFAFAFAFAFAFAFAFAFAFA05FA070707FAFAFAFAFAFAFAFAFAFAFAFAFAFAFAFAFAFAFAFAFAFAFAFAFAFAFAFAFAFAFAFAFAFAFAFAFAFA
310
FAFAFA070707070404070107040701070404070707FAFAFAFAFAFAFAFAFAFA0202030202FAFA0707070707070407070707070707FA03FAFA03FAFAFAFAFAFAFAFAFAFAFAFAFAFA070707FA05FAFAFAFAFAFAFAFAFAFAFAFAFAFAFAFAFAFAFAFAFAFAFAFAFAFAFAFAFAFAFAFAFAFAFAFAFAFAFAFAFAFAFAFAFAFAFAFAFAFAFA
310
FAFAFAFAFAFAFAFAFAFA05FA070707FAFAFAFAFAFAFAFAFAFAFAFAFAFAFAFAFAFAFAFAFAFAFAFAFAFAFAFAFAFAFAFAFAFAFAFAFAFAFAFAFA070707FAFAFA07010107010707FAFA07070707FAFAFAFAFAFAFAFAFA0202030202FAFA07070707070704070707070707070202FA0203FAFAFAFAFAFAFAFAFAFAFAFAFAFA070707
310
FA05FAFAFAFAFAFAFAFAFAFAFAFAFAFAFAFAFAFAFAFAFAFAFAFAFAFAFAFAFAFAFAFAFAFAFAFAFAFAFAFAFAFAFAFAFAFAFAFAFAFAFAFAFAFAFAFAFAFAFAFAFA05FA070707FAFAFAFAFAFAFAFAFAFAFAFAFAFAFAFAFAFAFAFAFAFAFAFAFAFAFAFAFAFAFAFAFAFAFAFAFAFAFAFA07070707FAFAFAFA0707010707FAFAFAFA0707
310
07FAFAFAFAFAFAFAFAFAFAFA03FA03FAFA07070707070704070707070707FA0202FAFA03FAFAFAFAFAFAFAFAFAFAFAFAFAFA070707FA05FAFAFAFAFAFAFAFAFAFAFAFAFAFAFAFAFAFAFAFAFAFAFAFAFAFAFAFAFAFAFAFAFAFAFAFAFAFAFAFAFAFAFAFAFAFAFAFAFAFAFAFAFAFAFAFAFAFAFAFAFA05FA070707FAFAFAFAFAFA
310
FAFAFAFAFAFAFAFAFAFAFAFAFAFAFAFAFAFAFAFAFAFAFAFAFAFAFAFAFAFAFAFAFAFA070707FAFAFAFAFAFA070707FAFAFAFAFA070707FAFAFAFAFAFAFAFAFAFAFA03FA03FAFAFA0707070707040707070707FAFAFA03FAFA03FAFAFAFAFAFAFAFAFAFAFAFAFAFA070707FA05FAFAFAFAFAFAFAFAFAFAFAFAFAFAFAFAFAFAFA
310
FAFAFAFAFAFAFAFAFAFAFAFAFAFAFAFAFAFAFAFAFAFAFAFAFAFAFAFAFAFAFAFAFAFAFAFAFAFAFAFAFAFA05FA070707070707070707070707070707070707070707070707070707FAFAFAFAFAFAFAFAFAFAFAFAFAFAFA07070707FAFAFAFAFAFAFA04FAFAFAFAFAFA07070707FAFAFAFAFAFAFAFAFAFA03FA03FAFAFA070707
310
07070407070707FAFAFAFA03FAFA03FAFAFAFAFAFAFAFAFAFAFAFAFAFA070707FA05FAFAFAFAFAFAFAFAFAFAFAFAFAFAFAFAFAFAFAFAFAFAFAFAFAFAFAFAFAFAFAFAFAFAFAFAFAFAFAFAFAFAFAFAFAFAFAFAFAFAFAFAFAFAFAFAFAFAFAFAFA05FA07070707070707070707070707070707070707070707070707070707FAFA
310
FAFAFAFAFAFAFA0707070707070707FAFAFAFAFAFAFAFA04FAFAFAFAFAFAFA0707070707070707FAFAFAFAFA03FA03FAFAFA07070707070407070707FAFAFAFA03FAFA03FAFAFAFAFAFAFAFAFAFAFAFAFAFA070707FA05FAFAFAFAFAFAFAFAFAFAFAFAFAFAFAFAFAFAFAFAFAFAFAFAFAFAFAFAFAFAFAFAFAFAFAFAFAFAFAFA
310
FAFAFAFAFAFAFAFAFAFAFAFAFAFAFAFAFAFAFAFAFA05FA07070702020707070202020202020202020207070707070707070707FAFAFAFAFAFAFAFA0707070707070707FAFAFAFAFAFAFAFAFA04FAFAFAFAFAFAFAFA0707070707070707FAFAFAFA03FA0303030303030303030407070707FAFAFAFA03FAFA03FAFAFAFAFAFA
310
FAFAFAFAFAFAFAFA070707FA05FAFAFAFAFAFAFAFAFAFAFAFAFAFAFAFAFAFAFAFAFAFAFAFAFAFAFAFAFAFAFAFAFAFAFAFAFAFAFAFAFAFAFAFAFAFAFAFAFAFAFAFAFAFAFAFAFAFAFAFAFA05FA0707070202FA01FA02020202020202020202FAFAFAFAFAFAFA070707FAFAFAFAFAFAFAFA070707070707070707070707070707
310
07070707070707070707070707070707070707FAFAFA0303030303030303030303030403070707FAFAFAFA03FAFA03FAFAFAFAFAFAFAFAFAFAFAFAFAFA070707FA05FAFAFAFAFAFAFAFAFAFAFAFAFAFAFAFAFAFAFAFAFAFAFAFAFAFAFAFAFAFAFAFAFAFAFAFAFAFAFAFAFAFAFAFAFAFAFAFAFAFAFAFAFAFAFAFAFAFAFAFAFA
310
05FA07070202020201020202010101010101010101010101010101010107FAFAFAFAFAFAFAFA07070707070707070707070707070707070707070707070707070707070707070707FAFAFAFAFAFAFAFAFAFA070303070704070303030303030303030303FAFAFAFAFAFAFAFAFAFAFAFAFAFA070707FA05FAFAFAFAFAFAFAFA
310
FAFAFAFAFAFAFAFAFAFAFAFAFAFAFAFAFAFAFAFAFAFAFAFAFAFAFAFAFAFAFAFAFAFAFAFAFAFAFAFAFAFAFAFAFAFAFAFAFAFAFAFAFA05FA07070202020201020202FAFAFAFAFAFAFAFAFAFAFAFAFAFAFA070707FAFAFAFAFAFAFAFAFA0707070707070707070707070707070707070707070707070707070707070707FAFAFA
310
FAFAFAFAFAFAFAFAFA0303030704070303FAFAFAFAFA03FAFA03FAFAFAFAFAFAFAFAFAFAFAFAFAFA070707FA05FAFAFAFAFAFAFAFAFAFAFAFAFAFAFAFAFAFAFAFAFAFAFAFAFAFAFAFAFAFAFAFAFAFAFAFAFAFAFAFAFAFAFAFAFAFAFAFAFAFAFAFAFAFAFAFAFAFAFAFAFA05FA07010101010101010101010101010101010101
310
010101010101010107FAFAFAFAFAFAFAFAFAFAFAFAFAFAFAFAFAFAFAFAFAFAFAFAFAFAFAFAFAFAFAFAFAFAFAFAFAFAFAFAFAFAFAFAFAFAFAFAFAFAFAFAFA03FAFA030303FA03FAFAFAFAFAFAFAFAFAFAFAFAFAFAFAFAFAFAFAFAFAFAFA070707FA05FAFAFAFAFAFAFAFAFAFAFAFAFAFAFAFAFAFAFAFAFAFAFAFAFAFAFAFAFA
310
FAFAFAFAFAFAFAFAFAFAFAFAFAFAFAFAFAFAFAFAFAFAFAFAFAFAFAFAFAFAFAFA05FA07070202020201020202FAFAFAFAFAFAFAFAFAFAFAFAFAFAFA070707FAFAFAFAFAFAFAFAFAFAFAFAFAFAFAFAFAFAFAFAFAFAFAFAFAFAFAFAFAFAFAFAFAFAFAFAFAFAFAFAFAFAFAFAFAFAFAFAFAFAFAFAFA03FAFA0202FAFA03FAFAFAFA
310
FAFAFAFAFAFAFAFAFAFAFAFAFAFAFAFAFAFAFA070707FA05FAFAFAFAFAFAFAFAFAFAFAFAFAFAFAFAFAFAFAFAFAFAFAFAFAFAFAFAFAFAFAFAFAFAFAFAFAFAFAFAFAFAFAFAFAFAFAFAFAFAFAFAFAFAFAFAFAFAFAFAFA05FA07010101010101010101010101010101010101010101010101010107FAFAFAFAFAFAFAFAFAFAFAFA
310
FAFAFAFAFAFAFAFAFAFAFAFAFAFAFAFAFAFAFAFAFAFAFAFAFAFAFAFAFAFAFAFAFAFAFAFAFAFAFAFAFA03FAFA0202FAFA03FAFAFAFAFAFAFAFAFAFAFAFAFAFAFAFAFAFAFAFAFAFAFA070707FA05FAFAFAFAFAFAFAFAFAFAFAFAFAFAFAFAFAFAFAFAFAFAFAFAFAFAFAFAFAFAFAFAFAFAFAFAFAFAFAFAFAFAFAFAFAFAFAFAFAFA
310
FAFAFAFAFAFAFAFAFAFAFA05FA070707020202010202020202020202FA02020202FAFAFAFAFA070707FAFAFAFAFAFAFAFAFAFAFAFAFAFAFAFAFAFAFAFAFAFAFAFAFAFAFAFAFAFAFAFAFAFAFAFAFAFAFAFAFAFAFAFAFAFAFAFAFAFAFAFAFA030303030303030303FAFAFAFAFAFAFAFAFAFAFAFAFAFAFAFAFAFAFAFAFAFA0707
310
07FA05FAFAFAFAFAFAFAFAFAFAFAFAFAFAFAFAFAFAFAFAFAFAFAFAFAFAFAFAFAFAFAFAFAFAFAFAFAFAFAFAFAFAFAFAFAFAFAFAFAFAFAFAFAFAFAFAFAFAFAFAFA05FA07070702020201010202020201010201020202020101010101070707FAFAFAFAFAFAFAFAFAFAFAFAFAFAFAFAFAFAFAFAFAFAFAFAFAFAFAFAFAFAFAFAFA
310
FAFAFAFAFAFAFAFAFAFAFAFAFAFAFAFAFAFAFAFA03FAFAFA02FAFA0303FAFAFAFAFAFAFAFAFAFAFAFAFAFAFAFAFAFAFAFAFAFA070707FA05FAFAFAFAFAFAFAFAFAFAFAFAFAFAFAFAFAFAFAFAFAFAFAFAFAFAFAFAFAFAFAFAFAFAFAFAFAFAFAFAFAFAFAFAFAFAFAFAFAFAFAFAFAFAFAFAFAFAFAFAFA05FA0707070202020102
310
020202FA02020202020202FAFAFAFAFAFA070707FAFAFAFAFAFAFAFAFAFAFAFAFAFAFAFAFAFAFAFAFAFAFAFAFAFAFAFAFAFAFAFAFAFAFAFAFAFAFAFAFAFAFAFAFAFAFAFAFAFAFAFAFAFAFAFAFA02FAFAFAFAFAFAFAFAFAFAFAFAFAFAFAFAFAFAFAFAFAFAFAFAFAFA070707FA05FAFAFAFAFAFAFAFAFAFAFAFAFAFAFAFAFAFA
310
FAFAFAFAFAFAFAFAFAFAFAFAFAFAFAFAFAFAFAFAFAFAFAFAFAFAFAFAFAFAFAFAFAFAFAFAFAFAFAFAFAFAFA05FA07070702020201020202020202020202020202FAFAFAFAFAFA070707FAFAFAFAFAFAFAFAFAFAFAFAFAFAFAFAFAFAFAFAFAFAFAFAFAFAFAFAFAFAFAFAFAFAFAFAFAFAFAFAFAFAFAFAFAFAFAFAFAFAFAFAFAFA
310
FAFAFAFAFAFAFAFAFAFAFAFAFAFAFAFAFAFAFAFAFAFAFAFAFAFAFAFAFAFA070707FA05FAFAFAFAFAFAFAFAFAFAFAFAFAFAFAFAFAFAFAFAFAFAFAFAFAFAFAFAFAFAFAFAFAFAFAFAFAFAFAFAFAFAFAFAFAFAFAFAFAFAFAFAFAFAFAFAFAFAFAFAFA05FA07070702020101010201020201010101010101010101010101070707FA
310
FAFAFAFAFAFAFAFAFAFAFAFAFAFAFAFAFAFAFAFAFAFAFAFAFAFAFAFAFAFAFAFAFAFAFAFAFAFAFAFAFAFAFAFAFAFAFAFAFAFAFAFAFAFAFAFAFAFAFAFAFAFAFAFAFAFAFAFAFAFAFAFAFAFAFAFAFAFAFAFAFAFAFA070707FA05FAFAFAFAFAFAFAFAFAFAFAFAFAFAFAFAFAFAFAFAFAFAFAFAFAFAFAFAFAFAFAFAFAFAFAFAFAFAFA
310
FAFAFAFAFAFAFAFAFAFAFAFAFAFAFAFAFAFAFAFAFAFA05FA07070702020201FA02020202FAFAFAFAFAFAFAFAFAFAFAFAFA070707FAFAFAFAFAFAFAFAFAFAFAFAFAFAFAFAFAFAFAFAFAFAFAFAFAFAFAFAFAFAFAFAFAFAFAFAFAFAFAFAFAFAFAFAFAFAFAFAFAFAFAFAFAFAFAFAFAFAFAFAFAFAFAFAFAFAFAFAFAFAFAFAFAFAFA
310
FAFAFAFAFAFAFAFAFA070707FA05FAFAFAFAFAFAFAFAFAFAFAFAFAFAFAFAFAFAFAFAFAFAFAFAFAFAFAFAFAFAFAFAFAFAFAFAFAFAFAFAFAFAFAFAFAFAFAFAFAFAFAFAFAFAFAFAFAFAFAFAFA05FA07070701010101010101010101010101010101010101010101070707FAFAFAFAFAFAFAFAFAFAFAFAFAFAFAFAFAFAFAFAFAFA
310
FAFAFAFAFAFAFAFAFAFAFAFAFAFAFAFAFAFAFAFAFAFAFAFAFAFAFAFAFAFAFAFAFAFAFAFAFAFAFAFAFAFAFAFAFAFAFAFAFAFAFAFAFAFAFAFAFAFAFAFAFAFA070707FA05FAFAFAFAFAFAFAFAFAFAFAFAFAFAFAFAFAFAFAFAFAFAFAFAFAFAFAFAFAFAFAFAFAFAFAFAFAFAFAFAFAFAFAFAFAFAFAFAFAFAFAFAFAFAFAFAFAFAFAFA
310
FA05FA07070702020207020202020202020202020707070707070707070707070707070707070707070707070707070707070707070707070707070707070707070707070707070707070707070707070707070707070707070707070707070707070707070707070707070707070707070707070707FA05FAFAFAFAFAFAFA
310
FAFAFAFAFAFAFAFAFAFAFAFAFAFAFAFAFAFAFAFAFAFAFAFAFAFAFAFAFAFAFAFAFAFAFAFAFAFAFAFAFAFAFAFAFAFAFAFAFAFAFAFAFAFA05FA0707070702070707070707070707070707070707070707070707070707070707070707070707070707070707070707070707070707070707070707070707070707070707070707
310
0707070707070707070707070707070707070707070707070707070707070707070707070707070707070707FA05FAFAFAFAFAFAFAFAFAFAFAFAFAFAFAFAFAFAFAFAFAFAFAFAFAFAFAFAFAFAFAFAFAFAFAFAFAFAFAFAFAFAFAFAFAFAFAFAFAFAFAFAFAFAFAFAFAFAFAFAFA05FAFA0707070707070707070707070707070707
310
070707070707070707070707070707070707070707070707070707070707070707070707070707070707070707070707070707070707070707070707070707070707070707070707070707070707070707070707070707070707070707070707FAFA05FAFAFAFAFAFAFAFAFAFAFAFAFAFAFAFAFAFAFAFAFAFAFAFAFAFAFAFA
310
FAFAFAFAFAFAFAFAFAFAFAFAFAFAFAFAFAFAFAFAFAFAFAFAFAFAFAFAFAFAFAFAFA05FAFAFAFAFAFAFAFAFAFAFAFAFAFAFAFAFAFAFAFAFAFAFAFAFAFAFAFAFAFAFAFAFAFAFAFAFAFAFAFAFAFAFAFAFAFAFAFAFAFAFAFAFAFAFAFAFAFAFAFAFAFAFAFAFAFAFAFAFAFAFAFAFAFAFAFAFAFAFAFAFAFAFAFAFAFAFAFAFAFAFAFAFA
310
FAFAFAFAFAFAFAFAFAFAFAFAFAFAFAFAFAFAFAFAFAFAFAFA05FAFAFAFAFAFAFAFAFAFAFAFAFAFAFAFAFAFAFAFAFAFAFAFAFAFAFAFAFAFAFAFAFAFAFAFAFAFAFAFAFAFAFAFAFAFAFAFAFAFAFAFAFAFAFAFAFAFAFAFAFA0505050505050505050505050505050505050505050505050505050505050505050505050505050505
310
050505050505050505050505050505050505050505050505050505050505050505050505050505050505050505050505050505050505050505050505050505050505050505050505050505050505FAFAFAFAFAFAFAFAFAFAFAFAFAFAFAFAFAFAFAFAFAFAFAFAFAFAFAFAFAFA
  0
ENDSEC
  0
EOF
