  0
SECTION
  2
HEADER
  9
$ACADVER
  1
AC1015
  9
$ACADMAINTVER
 70
    20
  9
$DWGCODEPAGE
  3
ANSI_932
  9
$INSBASE
 10
0.0
 20
0.0
 30
0.0
  9
$EXTMIN
 10
-0.0000003105134283
 20
-0.0000002510046215
 30
0.0
  9
$EXTMAX
 10
419.9999996894865
 20
296.9999997489954
 30
0.0
  9
$LIMMIN
 10
1700.85588156276
 20
1647.985052086429
  9
$LIMMAX
 10
1997.85588156276
 20
1857.985052086429
  9
$ORTHOMODE
 70
     0
  9
$REGENMODE
 70
     1
  9
$FILLMODE
 70
     1
  9
$QTEXTMODE
 70
     0
  9
$MIRRTEXT
 70
     0
  9
$LTSCALE
 40
1.0
  9
$ATTMODE
 70
     1
  9
$TEXTSIZE
 40
3.2
  9
$TRACEWID
 40
1.0
  9
$TEXTSTYLE
  7
STANDARD
  9
$CLAYER
  8
AM_0
  9
$CELTYPE
  6
ByLayer
  9
$CECOLOR
 62
   256
  9
$CELTSCALE
 40
1.0
  9
$DISPSILH
 70
     0
  9
$DIMSCALE
 40
1.0
  9
$DIMASZ
 40
1.0
  9
$DIMEXO
 40
1.0
  9
$DIMDLI
 40
10.0
  9
$DIMRND
 40
0.0
  9
$DIMDLE
 40
0.0
  9
$DIMEXE
 40
1.0
  9
$DIMTP
 40
0.1
  9
$DIMTM
 40
0.1
  9
$DIMTXT
 40
3.5
  9
$DIMCEN
 40
0.0
  9
$DIMTSZ
 40
0.0
  9
$DIMTOL
 70
     0
  9
$DIMLIM
 70
     0
  9
$DIMTIH
 70
     0
  9
$DIMTOH
 70
     0
  9
$DIMSE1
 70
     0
  9
$DIMSE2
 70
     0
  9
$DIMTAD
 70
     1
  9
$DIMZIN
 70
     8
  9
$DIMBLK
  1

  9
$DIMASO
 70
     1
  9
$DIMSHO
 70
     1
  9
$DIMPOST
  1

  9
$DIMAPOST
  1
"
  9
$DIMALT
 70
     0
  9
$DIMALTD
 70
     2
  9
$DIMALTF
 40
0.0393701
  9
$DIMLFAC
 40
1.0
  9
$DIMTOFL
 70
     1
  9
$DIMTVP
 40
0.0
  9
$DIMTIX
 70
     0
  9
$DIMSOXD
 70
     0
  9
$DIMSAH
 70
     0
  9
$DIMBLK1
  1

  9
$DIMBLK2
  1

  9
$DIMSTYLE
  2
SYS
  9
$DIMCLRD
 70
   256
  9
$DIMCLRE
 70
   256
  9
$DIMCLRT
 70
     7
  9
$DIMTFAC
 40
0.71
  9
$DIMGAP
 40
1.5
  9
$DIMJUST
 70
     0
  9
$DIMSD1
 70
     0
  9
$DIMSD2
 70
     0
  9
$DIMTOLJ
 70
     0
  9
$DIMTZIN
 70
     8
  9
$DIMALTZ
 70
     0
  9
$DIMALTTZ
 70
     0
  9
$DIMUPT
 70
     0
  9
$DIMDEC
 70
     2
  9
$DIMTDEC
 70
     2
  9
$DIMALTU
 70
     2
  9
$DIMALTTD
 70
     2
  9
$DIMTXSTY
  7
STANDARD
  9
$DIMAUNIT
 70
     0
  9
$DIMADEC
 70
     0
  9
$DIMALTRND
 40
0.0
  9
$DIMAZIN
 70
     2
  9
$DIMDSEP
 70
    46
  9
$DIMATFIT
 70
     3
  9
$DIMFRAC
 70
     0
  9
$DIMLDRBLK
  1

  9
$DIMLUNIT
 70
     2
  9
$DIMLWD
 70
    -1
  9
$DIMLWE
 70
    -1
  9
$DIMTMOVE
 70
     0
  9
$LUNITS
 70
     2
  9
$LUPREC
 70
     2
  9
$SKETCHINC
 40
1.0
  9
$FILLETRAD
 40
0.0
  9
$AUNITS
 70
     0
  9
$AUPREC
 70
     0
  9
$MENU
  1
.
  9
$ELEVATION
 40
0.0
  9
$PELEVATION
 40
0.0
  9
$THICKNESS
 40
0.0
  9
$LIMCHECK
 70
     0
  9
$CHAMFERA
 40
0.0
  9
$CHAMFERB
 40
0.0
  9
$CHAMFERC
 40
20.0
  9
$CHAMFERD
 40
0.0
  9
$SKPOLY
 70
     0
  9
$TDCREATE
 40
2455883.394713357
  9
$TDUCREATE
 40
2455883.019713357
  9
$TDUPDATE
 40
2456030.686718021
  9
$TDUUPDATE
 40
2456030.311718021
  9
$TDINDWG
 40
0.0004154051
  9
$TDUSRTIMER
 40
0.0004152199
  9
$USRTIMER
 70
     1
  9
$ANGBASE
 50
0.0
  9
$ANGDIR
 70
     0
  9
$PDMODE
 70
     0
  9
$PDSIZE
 40
-3.0
  9
$PLINEWID
 40
0.0
  9
$SPLFRAME
 70
     0
  9
$SPLINETYPE
 70
     6
  9
$SPLINESEGS
 70
     8
  9
$HANDSEED
  5
B95E
  9
$SURFTAB1
 70
     6
  9
$SURFTAB2
 70
     6
  9
$SURFTYPE
 70
     6
  9
$SURFU
 70
     6
  9
$SURFV
 70
     6
  9
$UCSBASE
  2

  9
$UCSNAME
  2

  9
$UCSORG
 10
0.0
 20
0.0
 30
0.0
  9
$UCSXDIR
 10
1.0
 20
0.0
 30
0.0
  9
$UCSYDIR
 10
0.0
 20
1.0
 30
0.0
  9
$UCSORTHOREF
  2

  9
$UCSORTHOVIEW
 70
     0
  9
$UCSORGTOP
 10
0.0
 20
0.0
 30
0.0
  9
$UCSORGBOTTOM
 10
0.0
 20
0.0
 30
0.0
  9
$UCSORGLEFT
 10
0.0
 20
0.0
 30
0.0
  9
$UCSORGRIGHT
 10
0.0
 20
0.0
 30
0.0
  9
$UCSORGFRONT
 10
0.0
 20
0.0
 30
0.0
  9
$UCSORGBACK
 10
0.0
 20
0.0
 30
0.0
  9
$PUCSBASE
  2

  9
$PUCSNAME
  2

  9
$PUCSORG
 10
0.0
 20
0.0
 30
0.0
  9
$PUCSXDIR
 10
1.0
 20
0.0
 30
0.0
  9
$PUCSYDIR
 10
0.0
 20
1.0
 30
0.0
  9
$PUCSORTHOREF
  2

  9
$PUCSORTHOVIEW
 70
     0
  9
$PUCSORGTOP
 10
0.0
 20
0.0
 30
0.0
  9
$PUCSORGBOTTOM
 10
0.0
 20
0.0
 30
0.0
  9
$PUCSORGLEFT
 10
0.0
 20
0.0
 30
0.0
  9
$PUCSORGRIGHT
 10
0.0
 20
0.0
 30
0.0
  9
$PUCSORGFRONT
 10
0.0
 20
0.0
 30
0.0
  9
$PUCSORGBACK
 10
0.0
 20
0.0
 30
0.0
  9
$USERI1
 70
     0
  9
$USERI2
 70
     0
  9
$USERI3
 70
     0
  9
$USERI4
 70
     0
  9
$USERI5
 70
     0
  9
$USERR1
 40
0.0
  9
$USERR2
 40
0.0
  9
$USERR3
 40
0.0
  9
$USERR4
 40
0.0
  9
$USERR5
 40
0.0
  9
$WORLDVIEW
 70
     1
  9
$SHADEDGE
 70
     3
  9
$SHADEDIF
 70
    70
  9
$TILEMODE
 70
     1
  9
$MAXACTVP
 70
    64
  9
$PINSBASE
 10
0.0
 20
0.0
 30
0.0
  9
$PLIMCHECK
 70
     0
  9
$PEXTMIN
 10
1.000000000000000E+20
 20
1.000000000000000E+20
 30
1.000000000000000E+20
  9
$PEXTMAX
 10
-1.000000000000000E+20
 20
-1.000000000000000E+20
 30
-1.000000000000000E+20
  9
$PLIMMIN
 10
-3.17498779296875
 20
-3.174999952316284
  9
$PLIMMAX
 10
293.4970092773438
 20
206.692492723465
  9
$UNITMODE
 70
     0
  9
$VISRETAIN
 70
     1
  9
$PLINEGEN
 70
     0
  9
$PSLTSCALE
 70
     1
  9
$TREEDEPTH
 70
  3020
  9
$CMLSTYLE
  2
Standard
  9
$CMLJUST
 70
     0
  9
$CMLSCALE
 40
20.0
  9
$PROXYGRAPHICS
 70
     1
  9
$MEASUREMENT
 70
     1
  9
$CELWEIGHT
370
    -1
  9
$ENDCAPS
280
     0
  9
$JOINSTYLE
280
     0
  9
$LWDISPLAY
290
     1
  9
$INSUNITS
 70
     4
  9
$HYPERLINKBASE
  1

  9
$STYLESHEET
  1
monochrome.ctb
  9
$XEDIT
290
     1
  9
$CEPSNTYPE
380
     0
  9
$PSTYLEMODE
290
     1
  9
$FINGERPRINTGUID
  2
{B3C92E5C-419F-472B-B270-8E74E12CB155}
  9
$VERSIONGUID
  2
{5B879CDB-75DD-48FC-9543-D886D432A427}
  9
$EXTNAMES
290
     1
  9
$PSVPSCALE
 40
0.0
  9
$OLESTARTUP
290
     0
  0
ENDSEC
  0
SECTION
  2
CLASSES
  0
CLASS
  1
ACDBDICTIONARYWDFLT
  2
AcDbDictionaryWithDefault
  3
ObjectDBX Classes
 90
        0
280
     0
281
     0
  0
CLASS
  1
ACDBPLACEHOLDER
  2
AcDbPlaceHolder
  3
ObjectDBX Classes
 90
        0
280
     0
281
     0
  0
CLASS
  1
LAYOUT
  2
AcDbLayout
  3
ObjectDBX Classes
 90
        0
280
     0
281
     0
  0
CLASS
  1
AMGSETTINGSOBJ
  2
AmgSettingsObj
  3
"AcadM|Product Description: AutoCAD Mechanical|Company: Autodesk"
 90
        0
280
     0
281
     0
  0
CLASS
  1
ACME_DOCUMENT
  2
AcMeDbDoc
  3
AcMeServices
 90
        0
280
     0
281
     0
  0
CLASS
  1
ACMESCOPE
  2
AcMeScope
  3
AcMeServices
 90
        0
280
     0
281
     0
  0
CLASS
  1
ACMECOMMANDHISTORY
  2
AcMeCommandHistory
  3
AcMeServices
 90
        0
280
     0
281
     0
  0
CLASS
  1
DICTIONARYVAR
  2
AcDbDictionaryVar
  3
ObjectDBX Classes
 90
        0
280
     0
281
     0
  0
CLASS
  1
ACIMSYSVARMAN
  2
AcImSysVarManager
  3
AcMeServices
 90
        0
280
     0
281
     0
  0
CLASS
  1
ACIMREALSYSVAR
  2
AcImRealSysVar
  3
AcMeServices
 90
        0
280
     0
281
     0
  0
CLASS
  1
ACIMINTSYSVAR
  2
AcImIntSysVar
  3
AcMeServices
 90
        0
280
     0
281
     0
  0
CLASS
  1
ACMEDRAWINGMAN
  2
AcMeDrawingMan
  3
AcMeServices
 90
        0
280
     0
281
     0
  0
CLASS
  1
ACMEVIEW
  2
AcMeView
  3
AcMeServices
 90
        0
280
     0
281
     0
  0
CLASS
  1
ACDBENTITYCACHE
  2
AcMeEntityCache
  3
AcMeServices
 90
        0
280
     0
281
     0
  0
CLASS
  1
GSMANAGER
  2
AcMeGSManager
  3
AcMeServices
 90
        0
280
     0
281
     0
  0
CLASS
  1
AMDTINTERNALREACTOR
  2
AmdtInternalReactor
  3
AcMeServices
 90
        0
280
     0
281
     0
  0
CLASS
  1
ACMESTATEMGR
  2
AcMeStateMgr
  3
AcMeServices
 90
        0
280
     0
281
     0
  0
CLASS
  1
ACGREFMASTER
  2
AcGrefMaster
  3
AcAttribServices
 90
        0
280
     0
281
     0
  0
CLASS
  1
ACME_DATABASE
  2
AcMeDbDatabase
  3
AcMeServices
 90
        0
280
     0
281
     0
  0
CLASS
  1
ACRFINSADJUSTERMGR
  2
AcRfInsAdjusterMgr
  3
AcMeServices
 90
        0
280
     0
281
     0
  0
CLASS
  1
ACGREFACADMASTER
  2
AcGrefacadMaster
  3
AcGrefServices
 90
        0
280
     0
281
     0
  0
CLASS
  1
AMIMASTER
  2
AmiMaster
  3
AmiServices
 90
        0
280
     0
281
     0
  0
CLASS
  1
ACMDATADICTIONARY
  2
AcmDataDictionary
  3
"AcmSymBB|Product Description: AutoCAD Mechanical|Company: Autodesk"
 90
        0
280
     0
281
     0
  0
CLASS
  1
ACMDATAENTRYBLOCK
  2
AcmDataEntryBlock
  3
"AcmSymBB|Product Description: AutoCAD Mechanical|Company: Autodesk"
 90
        0
280
     0
281
     0
  0
CLASS
  1
ACIMSTRSYSVAR
  2
AcImStrSysVar
  3
AcMeServices
 90
        0
280
     0
281
     0
  0
CLASS
  1
ACMSTANDARDISO
  2
AcmStandardISO
  3
"Amdt_StdImp|Product Description: AutoCAD Mechanical|Company: Autodesk"
 90
        0
280
     0
281
     0
  0
CLASS
  1
AMGOBJPROPCFG
  2
AmgObjPropCfg
  3
"AmgLay|Product Description: AutoCAD Mechanical|Company: Autodesk"
 90
        1
280
     0
281
     0
  0
CLASS
  1
AMDTEDGESTANDARDISO
  2
AmdtEdgeStdISO
  3
"Amdt_StdImp|Product Description: AutoCAD Mechanical|Company: Autodesk"
 90
        0
280
     0
281
     0
  0
CLASS
  1
ACMSURFSTANDARDISO
  2
AcmSurfTextStdISO
  3
"Amdt_StdImp|Product Description: AutoCAD Mechanical|Company: Autodesk"
 90
        0
280
     0
281
     0
  0
CLASS
  1
ACMFCFSTANDARDISO
  2
AcmFCFStdISO
  3
"Amdt_StdImp|Product Description: AutoCAD Mechanical|Company: Autodesk"
 90
        0
280
     0
281
     0
  0
CLASS
  1
ACMWELDSTANDARDISO
  2
AcmWeldingStdISO
  3
"Amdt_StdImp|Product Description: AutoCAD Mechanical|Company: Autodesk"
 90
        0
280
     0
281
     0
  0
CLASS
  1
ACMIDSTANDARDISO
  2
AcmIdStdISO
  3
"Amdt_StdImp|Product Description: AutoCAD Mechanical|Company: Autodesk"
 90
        0
280
     0
281
     0
  0
CLASS
  1
ACMDATUMSTANDARDISO
  2
AcmDatumStdISO
  3
"Amdt_StdImp|Product Description: AutoCAD Mechanical|Company: Autodesk"
 90
        0
280
     0
281
     0
  0
CLASS
  1
ACMBOMSTANDARDISO
  2
AcmBOMStdISO
  3
"Amdt_StdImp|Product Description: AutoCAD Mechanical|Company: Autodesk"
 90
        0
280
     0
281
     0
  0
CLASS
  1
ACMDETAILSTANDARDISO
  2
AmdtDetailSymStdISO
  3
"Amdt_StdImp|Product Description: AutoCAD Mechanical|Company: Autodesk"
 90
        0
280
     0
281
     0
  0
CLASS
  1
ACMSECTIONSTANDARDISO
  2
AmdtSectionSymStdISO
  3
"Amdt_StdImp|Product Description: AutoCAD Mechanical|Company: Autodesk"
 90
        0
280
     0
281
     0
  0
CLASS
  1
ACMCENTERLINESTANDARDISO
  2
AmdtCenterLineStdISO
  3
"Amdt_StdImp|Product Description: AutoCAD Mechanical|Company: Autodesk"
 90
        0
280
     0
281
     0
  0
CLASS
  1
ACAMGLAYSTD
  2
AcAmgLayStd
  3
"AmgLay|Product Description: AutoCAD Mechanical|Company: Autodesk"
 90
        0
280
     0
281
     0
  0
CLASS
  1
ACAMGDIMSTD
  2
AcAmgDimStd
  3
"AmgDim|Product Description: AutoCAD Mechanical|Company: Autodesk"
 90
        0
280
     0
281
     0
  0
CLASS
  1
ACAMGTITLESTD
  2
AcAmgTitleStd
  3
"AmgTitle|Product Description: AutoCAD Mechanical|Company: Autodesk"
 90
        0
280
     0
281
     0
  0
CLASS
  1
ACAMGFILTERDAT
  2
AcAmgFilterDat
  3
"AcadM|Product Description: AutoCAD Mechanical|Company: Autodesk"
 90
        0
280
     0
281
     0
  0
CLASS
  1
LAYER_INDEX
  2
AcDbLayerIndex
  3
ObjectDBX Classes
 90
    32768
280
     0
281
     0
  0
CLASS
  1
IDBUFFER
  2
AcDbIdBuffer
  3
ObjectDBX Classes
 90
    32768
280
     0
281
     0
  0
CLASS
  1
PLOTSETTINGS
  2
AcDbPlotSettings
  3
ObjectDBX Classes
 90
    32768
280
     0
281
     0
  0
CLASS
  1
AMDTFORMULAUPDATEDISPATCHER
  2
AmdtFormulaUpdateDispatcher
  3
AcMeServices
 90
        0
280
     0
281
     0
  0
CLASS
  1
ACMSTANDARDANSI
  2
AcmStandardANSI
  3
"Amdt_StdImp|Product Description: AutoCAD Mechanical|Company: Autodesk"
 90
    32768
280
     0
281
     0
  0
CLASS
  1
ACMSURFSTANDARDANSI
  2
AcmSurfTextStdANSI
  3
"Amdt_StdImp|Product Description: AutoCAD Mechanical|Company: Autodesk"
 90
    32768
280
     0
281
     0
  0
CLASS
  1
ACMFCFSTANDARDANSI
  2
AcmFCFStdANSI
  3
"Amdt_StdImp|Product Description: AutoCAD Mechanical|Company: Autodesk"
 90
    32768
280
     0
281
     0
  0
CLASS
  1
ACMWELDSTANDARDANSI
  2
AcmWeldingStdANSI
  3
"Amdt_StdImp|Product Description: AutoCAD Mechanical|Company: Autodesk"
 90
    32768
280
     0
281
     0
  0
CLASS
  1
ACMIDSTANDARDANSI
  2
AcmIdStdANSI
  3
"Amdt_StdImp|Product Description: AutoCAD Mechanical|Company: Autodesk"
 90
    32768
280
     0
281
     0
  0
CLASS
  1
ACMDATUMSTANDARDANSI
  2
AcmDatumStdANSI
  3
"Amdt_StdImp|Product Description: AutoCAD Mechanical|Company: Autodesk"
 90
    32768
280
     0
281
     0
  0
CLASS
  1
ACMBOMSTANDARDANSI
  2
AcmBOMStdANSI
  3
"Amdt_StdImp|Product Description: AutoCAD Mechanical|Company: Autodesk"
 90
    32768
280
     0
281
     0
  0
CLASS
  1
ACMDETAILSTANDARDANSI
  2
AmdtDetailSymStdANSI
  3
"Amdt_StdImp|Product Description: AutoCAD Mechanical|Company: Autodesk"
 90
    32768
280
     0
281
     0
  0
CLASS
  1
ACMSECTIONSTANDARDANSI
  2
AmdtSectionSymStdANSI
  3
"Amdt_StdImp|Product Description: AutoCAD Mechanical|Company: Autodesk"
 90
    32768
280
     0
281
     0
  0
CLASS
  1
ACMCENTERLINESTANDARDANSI
  2
AmdtCenterLineStdANSI
  3
"Amdt_StdImp|Product Description: AutoCAD Mechanical|Company: Autodesk"
 90
    32768
280
     0
281
     0
  0
CLASS
  1
ACMBOM
  2
AcmBom
  3
"AcmSymBB|Product Description: AutoCAD Mechanical|Company: Autodesk"
 90
        0
280
     0
281
     0
  0
CLASS
  1
ACMDATAENTRYPART
  2
AcmDataEntryPart
  3
"AcmSymBB|Product Description: AutoCAD Mechanical|Company: Autodesk"
 90
    32768
280
     0
281
     0
  0
CLASS
  1
ACMPARTREF
  2
AcmPartRef
  3
"AcmSymBB|Product Description: AutoCAD Mechanical|Company: Autodesk"
 90
    35839
280
     0
281
     1
  0
CLASS
  1
ACDBCIRCARCRES
  2
AcDbCircArcRes
  3
AcGrefServices
 90
    32768
280
     0
281
     0
  0
CLASS
  1
ACMBOMROW
  2
AcmBomRow
  3
"AcmSymBB|Product Description: AutoCAD Mechanical|Company: Autodesk"
 90
    32768
280
     0
281
     0
  0
CLASS
  1
ACMBALLOON
  2
AcmBalloon
  3
"AcmSymBB|Product Description: AutoCAD Mechanical|Company: Autodesk"
 90
    35839
280
     0
281
     1
  0
CLASS
  1
AMDTNOTE
  2
AmdtNote
  3
"AcmSymBB|Product Description: AutoCAD Mechanical|Company: Autodesk"
 90
    35839
280
     0
281
     1
  0
CLASS
  1
STDPART2D
  2
AmgStdPart
  3
"g3vace|Class: AmgStdPart|Product Description: AutoCAD Mechanical|Company: Autodesk"
 90
    35839
280
     0
281
     1
  0
CLASS
  1
ACDBSTDPARTRES_LINE
  2
AcDbStdPartRes_Line
  3
"g3vace|Class: AcDbStdPartRes_Line|Product Description: AutoCAD Mechanical|Company: Autodesk"
 90
    32768
280
     0
281
     0
  0
CLASS
  1
ACMDATAENTRY
  2
AcmDataEntry
  3
"AcmSymBB|Product Description: AutoCAD Mechanical|Company: Autodesk"
 90
        0
280
     0
281
     0
  0
CLASS
  1
ACDBOPPOLYLINERES
  2
AcDbOpPolylineRes
  3
AcGrefServices
 90
    32768
280
     0
281
     0
  0
CLASS
  1
ACMPARTLIST
  2
AcmPartList
  3
"AcmSymBB|Product Description: AutoCAD Mechanical|Company: Autodesk"
 90
    35839
280
     0
281
     1
  0
CLASS
  1
ACDBLINERES
  2
AcDbLineRes
  3
AcGrefServices
 90
    32768
280
     0
281
     0
  0
CLASS
  1
ACRFINSADJ
  2
AcRfInsAdjuster
  3
AcMeServices
 90
    32768
280
     0
281
     0
  0
CLASS
  1
AM_DRAWING_MGR
  2
AcDmDwgMgr
  3
AcMechDwgViewMgmt
 90
        0
280
     0
281
     0
  0
CLASS
  1
AM_DWG_DOCUMENT
  2
AcDmDwgDocument
  3
AcMechDwgViewMgmt
 90
        0
280
     0
281
     0
  0
CLASS
  1
AM_DWG_SHEET
  2
AcDmSheet
  3
AcMechDwgViewMgmt
 90
        0
280
     0
281
     0
  0
CLASS
  1
AM_VIEWDIMPARMAP
  2
AcDmViewDimParMap
  3
AcMechDwgViewMgmt
 90
        0
280
     0
281
     0
  0
CLASS
  1
AM_DWGMGR_NAME
  2
AcDmDwgMgrName
  3
AcMechDwgViewMgmt
 90
        0
280
     0
281
     0
  0
CLASS
  1
AMDTMENUSTATEMGR
  2
AmdtMenuStateMgr
  3
McadcomServices
 90
        0
280
     0
281
     0
  0
CLASS
  1
AMDTMCOMMENUSTATE
  2
AmdtMcomMenuState
  3
McadcomServices
 90
        0
280
     0
281
     0
  0
CLASS
  1
ASAPP
  2
AcAsAppObject
  3
AutoSurfServices
 90
        0
280
     0
281
     0
  0
CLASS
  1
IM_STATIC_MAN
  2
AcImStaticVarManager
  3
AcMeServices
 90
        0
280
     0
281
     0
  0
CLASS
  1
ACIMDBLSTATICVAR
  2
AcImDblStaticVar
  3
AcMeServices
 90
        0
280
     0
281
     0
  0
CLASS
  1
ACIMSTRSTATICVAR
  2
AcImStrStaticVar
  3
AcMeServices
 90
        0
280
     0
281
     0
  0
CLASS
  1
ACIMINTSTATICVAR
  2
AcImIntStaticVar
  3
AcMeServices
 90
        0
280
     0
281
     0
  0
CLASS
  1
ACASGREFMASTER
  2
AcAsGrefMaster
  3
AutoSurfResolverServices
 90
        0
280
     0
281
     0
  0
CLASS
  1
ACADGREFMODULE
  2
AcAdGrefModule
  3
AdGrefServices
 90
        0
280
     0
281
     0
  0
CLASS
  1
AMDTMAPISURFMOUDULE
  2
AmdtMApiSurfModule
  3
MApiSurfServices
 90
        0
280
     0
281
     0
  0
CLASS
  1
MAPIAMMOUDLE
  2
MApiAmModule
  3
MApiAmServices
 90
        0
280
     0
281
     0
  0
CLASS
  1
AMDTADMENUSTATE
  2
AmdtAdMenuState
  3
DesignerServices
 90
        0
280
     0
281
     0
  0
CLASS
  1
ADAPPL
  2
AcAdAppl
  3
DesignerServices
 90
        0
280
     0
281
     0
  0
CLASS
  1
DEPMGR
  2
AcAdDepMgr
  3
DesignerServices
 90
        0
280
     0
281
     0
  0
CLASS
  1
PARAMMGR
  2
AcAdParamMgr
  3
DesignerServices
 90
        0
280
     0
281
     0
  0
CLASS
  1
PARAMSCOPE
  2
AcAdParamScope
  3
DesignerServices
 90
        0
280
     0
281
     0
  0
CLASS
  1
NAMEDAPPL
  2
AcAdNamedAppl
  3
DesignerServices
 90
        0
280
     0
281
     0
  0
CLASS
  1
ADHNTMPLT
  2
AdHoleNoteTemplateMgr
  3
DesignerServices
 90
    32768
280
     0
281
     0
  0
CLASS
  1
AM_HNTEMPLATE_MGR_NAME
  2
AdHoleNoteTemplateMgrName
  3
DesignerServices
 90
    32768
280
     0
281
     0
  0
CLASS
  1
AMDTDMMENUSTATE
  2
AmdtDmMenuState
  3
AcMechDwgViewMgmt
 90
        0
280
     0
281
     0
  0
CLASS
  1
MAPIADMODULE
  2
MApiAdModule
  3
MApiAdServices
 90
        0
280
     0
281
     0
  0
CLASS
  1
AMDTAMMENUSTATE
  2
AmdtAmMenuState
  3
DesignerAssemblies
 90
        0
280
     0
281
     0
  0
CLASS
  1
ACAMPROJECT
  2
AcAmProject
  3
DesignerAssemblies
 90
        0
280
     0
281
     0
  0
CLASS
  1
ACAMGRCOMPDEF
  2
AcAmGrCompDef
  3
DesignerAssemblies
 90
        0
280
     0
281
     0
  0
CLASS
  1
ACCMCONTEXT
  2
AcCmContext
  3
DesignerAssemblies
 90
        0
280
     0
281
     0
  0
CLASS
  1
ACAMCOMPDEF
  2
AcAmCompDef
  3
DesignerAssemblies
 90
        0
280
     0
281
     0
  0
CLASS
  1
ACAMCOMPDEFMGR
  2
AcAmCompDefMgr
  3
DesignerAssemblies
 90
        0
280
     0
281
     0
  0
CLASS
  1
AMCONTEXTMGR
  2
AcAmContextMgr
  3
DesignerAssemblies
 90
        0
280
     0
281
     0
  0
CLASS
  1
ACAMCONTEXTMODELER
  2
AcAmContextModeler
  3
DesignerAssemblies
 90
        0
280
     0
281
     0
  0
CLASS
  1
CATALOGSTATE
  2
AcAmCatalogState
  3
DesignerAssemblies
 90
        0
280
     0
281
     0
  0
CLASS
  1
ACAMGRCOMPDEFSET
  2
AcAmGrCompDefSet
  3
DesignerAssemblies
 90
        0
280
     0
281
     0
  0
CLASS
  1
AMDTBROWSERDBTAB
  2
AmdtBrowserDbTab
  3
McadcomServices
 90
        0
280
     0
281
     0
  0
CLASS
  1
CBROWSERAPPOBJECT
  2
CBrowserAppObject
  3
McadcomServices
 90
        0
280
     0
281
     0
  0
CLASS
  1
DM_PLACEHOLDER
  2
AcDmSelsetPlaceholder
  3
AcMechDwgViewMgmt
 90
        0
280
     0
281
     0
  0
CLASS
  1
ACMPICKOBJ
  2
AcmPickEnt
  3
"AcmSymBB|Product Description: AutoCAD Mechanical|Company: Autodesk"
 90
    32768
280
     0
281
     1
  0
CLASS
  1
ACMNOTESTANDARDISO
  2
AmdtNoteStdISO
  3
"Amdt_StdImp|Product Description: AutoCAD Mechanical|Company: Autodesk"
 90
        0
280
     0
281
     0
  0
CLASS
  1
ACMNOTESTANDARDANSI
  2
AmdtNoteStdANSI
  3
"Amdt_StdImp|Product Description: AutoCAD Mechanical|Company: Autodesk"
 90
    32768
280
     0
281
     0
  0
CLASS
  1
ACMTHREADLINESTANDARDISO
  2
AmdtThreadLineStdISO
  3
"Amdt_StdImp|Product Description: AutoCAD Mechanical|Company: Autodesk"
 90
        0
280
     0
281
     0
  0
CLASS
  1
ACMTHREADLINESTANDARDANSI
  2
AmdtThreadLineStdANSI
  3
"Amdt_StdImp|Product Description: AutoCAD Mechanical|Company: Autodesk"
 90
    32768
280
     0
281
     0
  0
CLASS
  1
TABLESTYLE
  2
AcDbTableStyle
  3
ObjectDBX Classes
 90
     4095
280
     0
281
     0
  0
CLASS
  1
SORTENTSTABLE
  2
AcDbSortentsTable
  3
ObjectDBX Classes
 90
        0
280
     0
281
     0
  0
CLASS
  1
MATERIAL
  2
AcDbMaterial
  3
ObjectDBX Classes
 90
     1024
280
     0
281
     0
  0
CLASS
  1
VISUALSTYLE
  2
AcDbVisualStyle
  3
ObjectDBX Classes
 90
     4095
280
     0
281
     0
  0
CLASS
  1
ACRFATTGENMGR
  2
AcRfAttGeneralMgr
  3
AcAttribServices
 90
        0
280
     0
281
     0
  0
CLASS
  1
ACRFOBJATTMGR
  2
AcRfObjAttGroupMgr
  3
AcAttribServices
 90
        0
280
     0
281
     0
  0
CLASS
  1
ACRFMCADAPIATTHOLDER
  2
AcRfMCADAPIAttHolder
  3
AcAttribServices
 90
        0
280
     0
281
     0
  0
CLASS
  1
AMDTSYSATTR
  2
AmdtSystemAttribute
  3
AcAttribServices
 90
        0
280
     0
281
     0
  0
CLASS
  1
ACMTAPERSTANDARDISO
  2
AcmTaperStdISO
  3
"Amdt_StdImp|Product Description: AutoCAD Mechanical|Company: Autodesk"
 90
        0
280
     0
281
     0
  0
CLASS
  1
CAMSSTRUCTBTNSTATE
  2
StructBtnState
  3
L"DesignerAssemblies"
 90
        0
280
     0
281
     0
  0
CLASS
  1
DIMASSOC
  2
AcDbDimAssoc
  3
"AcDbDimAssoc|Product Desc:     AcDim ARX App For Dimension|Company:          Autodesk, Inc.|WEB Address:      www.autodesk.com"
 90
    32768
280
     0
281
     0
  0
CLASS
  1
AMDTNOTETEMPLATEDB
  2
AmdtNoteTemplateDB
  3
AMDT_STDIMP_MODULE_NAME
 90
        0
280
     0
281
     0
  0
CLASS
  1
SCALE
  2
AcDbScale
  3
ObjectDBX Classes
 90
     1153
280
     0
281
     0
  0
CLASS
  1
MLEADERSTYLE
  2
AcDbMLeaderStyle
  3
ACDB_MLEADERSTYLE_CLASS
 90
     4095
280
     0
281
     0
  0
CLASS
  1
ACMANOOTATIONVIEWSTANDARDISO
  2
AmdtAnViewStdISO
  3
"Amdt_StdImp|Product Description: AutoCAD Mechanical|Company: Autodesk, Inc."
 90
    33792
280
     0
281
     0
  0
CLASS
  1
CELLSTYLEMAP
  2
AcDbCellStyleMap
  3
ObjectDBX Classes
 90
     1152
280
     0
281
     0
  0
ENDSEC
  0
SECTION
  2
TABLES
  0
TABLE
  2
VPORT
  5
8
330
0
100
AcDbSymbolTable
 70
     1
  0
VPORT
  5
B0EC
330
8
100
AcDbSymbolTableRecord
100
AcDbViewportTableRecord
  2
*Active
 70
     0
 10
0.0
 20
0.0
 11
1.0
 21
1.0
 12
212.3514165306125
 22
153.4683778293046
 13
0.0
 23
0.0
 14
2.5
 24
2.5
 15
10.0
 25
10.0
 16
0.0
 26
0.0
 36
1.0
 17
0.0
 27
0.0
 37
0.0
 40
376.8896199680559
 41
2.04325699745547
 42
50.0
 43
-1370.695619172058
 44
-1370.695619172058
 50
0.0
 51
0.0
 71
    16
 72
   100
 73
     1
 74
     3
 75
     0
 76
     0
 77
     0
 78
     0
281
     0
 65
     0
110
0.0
120
0.0
130
0.0
111
1.0
121
0.0
131
0.0
112
0.0
122
1.0
132
0.0
 79
     0
146
0.0
  0
ENDTAB
  0
TABLE
  2
LTYPE
  5
5
330
0
100
AcDbSymbolTable
 70
    27
  0
LTYPE
  5
14
330
5
100
AcDbSymbolTableRecord
100
AcDbLinetypeTableRecord
  2
ByBlock
 70
     0
  3

 72
    65
 73
     0
 40
0.0
  0
LTYPE
  5
15
330
5
100
AcDbSymbolTableRecord
100
AcDbLinetypeTableRecord
  2
ByLayer
 70
     0
  3

 72
    65
 73
     0
 40
0.0
  0
LTYPE
  5
16
330
5
100
AcDbSymbolTableRecord
100
AcDbLinetypeTableRecord
  2
Continuous
 70
     0
  3
Solid line
 72
    65
 73
     0
 40
0.0
  0
LTYPE
  5
4F
330
5
100
AcDbSymbolTableRecord
100
AcDbLinetypeTableRecord
  2
AM_ISO02W050
 70
     0
  3
__ __ __ __ __ __ __ __ __ __ __ __ __ __ __
 72
    65
 73
     2
 40
7.5
 49
6.0
 74
     0
 49
-1.5
 74
     0
  0
LTYPE
  5
52
330
5
100
AcDbSymbolTableRecord
100
AcDbLinetypeTableRecord
  2
Amconstr
 70
     0
  3
_______________________
 72
    65
 73
     2
 40
9999.0
 49
9999.0
 74
     0
 49
0.0
 74
     0
  0
LTYPE
  5
64
330
5
100
AcDbSymbolTableRecord
100
AcDbLinetypeTableRecord
  2
ACISOWELD
 70
     0
  3
_ _ _ _ _
 72
    65
 73
     2
 40
2.0
 49
2.0
 74
     0
 49
-1.0
 74
     0
  0
LTYPE
  5
65
330
5
100
AcDbSymbolTableRecord
100
AcDbLinetypeTableRecord
  2
ACISOTGB
 70
     0
  3
__ . . __ . .
 72
    65
 73
     6
 40
9.0
 49
4.0
 74
     0
 49
-1.0
 74
     0
 49
1.0
 74
     0
 49
-1.0
 74
     0
 49
1.0
 74
     0
 49
-1.0
 74
     0
  0
LTYPE
  5
66
330
5
100
AcDbSymbolTableRecord
100
AcDbLinetypeTableRecord
  2
ACISOTGL
 70
     0
  3
_ _ _ _ _
 72
    65
 73
     2
 40
3.0
 49
2.0
 74
     0
 49
-1.0
 74
     0
  0
LTYPE
  5
69
330
5
100
AcDbSymbolTableRecord
100
AcDbLinetypeTableRecord
  2
CENTER
 70
     0
  3
__ . __
 72
    65
 73
     4
 40
7.0
 49
4.0
 74
     0
 49
-1.0
 74
     0
 49
1.0
 74
     0
 49
-1.0
 74
     0
  0
LTYPE
  5
A6E
330
5
100
AcDbSymbolTableRecord
100
AcDbLinetypeTableRecord
  2
PHANTOM2
 70
     0
  3
Phantom (.5x) ___ _ _ ___ _ _ ___ _ _ ___ _ _
 72
    65
 73
     6
 40
31.75
 49
15.875
 74
     0
 49
-3.174999999999999
 74
     0
 49
3.174999999999999
 74
     0
 49
-3.174999999999999
 74
     0
 49
3.174999999999999
 74
     0
 49
-3.174999999999999
 74
     0
  0
LTYPE
  5
4DED
330
5
100
AcDbSymbolTableRecord
100
AcDbLinetypeTableRecord
  2
中線
 70
     0
  3
___________________
 72
    65
 73
     2
 40
2.0
 49
1.0
 74
     0
 49
1.0
 74
     0
  0
LTYPE
  5
4DF6
330
5
100
AcDbSymbolTableRecord
100
AcDbLinetypeTableRecord
  2
細線
 70
     0
  3
___________________
 72
    65
 73
     2
 40
2.0
 49
1.0
 74
     0
 49
1.0
 74
     0
  0
LTYPE
  5
4DF7
330
5
100
AcDbSymbolTableRecord
100
AcDbLinetypeTableRecord
  2
太線
 70
     0
  3
___________________
 72
    65
 73
     2
 40
2.0
 49
1.0
 74
     0
 49
1.0
 74
     0
  0
LTYPE
  5
4EA7
330
5
100
AcDbSymbolTableRecord
100
AcDbLinetypeTableRecord
  2
文字
 70
     0
  3
_________________
 72
    65
 73
     2
 40
2.0
 49
1.0
 74
     0
 49
1.0
 74
     0
  0
LTYPE
  5
4EA9
330
5
100
AcDbSymbolTableRecord
100
AcDbLinetypeTableRecord
  2
寸法線
 70
     0
  3
________________
 72
    65
 73
     2
 40
2.0
 49
1.0
 74
     0
 49
1.0
 74
     0
  0
LTYPE
  5
4F12
330
5
100
AcDbSymbolTableRecord
100
AcDbLinetypeTableRecord
  2
ハッチング
 70
     0
  3
_________________
 72
    65
 73
     2
 40
2.0
 49
1.0
 74
     0
 49
1.0
 74
     0
  0
LTYPE
  5
5180
330
5
100
AcDbSymbolTableRecord
100
AcDbLinetypeTableRecord
  2
陰線1
 70
     0
  3
__ __ __ __
 72
    65
 73
     2
 40
4.0
 49
2.2
 74
     0
 49
-1.8
 74
     0
  0
LTYPE
  5
5182
330
5
100
AcDbSymbolTableRecord
100
AcDbLinetypeTableRecord
  2
切断線
 70
     0
  3
/\/-/\/-/\/-/\/-/\/-/\/
 72
    65
 73
     2
 40
11.0001
 49
0.0001
 74
     4
 75
   135
340
56
 46
0.04
 50
0.0
 44
0.0
 45
0.0
 49
-11.0
 74
     0
  0
LTYPE
  5
5183
330
5
100
AcDbSymbolTableRecord
100
AcDbLinetypeTableRecord
  2
想像線1
 70
     0
  3
__ __ __ _____ __ __ ____
 72
    65
 73
     6
 40
14.5
 49
6.0
 74
     0
 49
-1.5
 74
     0
 49
2.0
 74
     0
 49
-1.5
 74
     0
 49
2.0
 74
     0
 49
-1.5
 74
     0
  0
LTYPE
  5
5185
330
5
100
AcDbSymbolTableRecord
100
AcDbLinetypeTableRecord
  2
中心線1
 70
     0
  3
___ _ ___ _ ___
 72
    65
 73
     4
 40
18.0
 49
12.0
 74
     0
 49
-2.0
 74
     0
 49
2.0
 74
     0
 49
-2.0
 74
     0
  0
LTYPE
  5
5188
330
5
100
AcDbSymbolTableRecord
100
AcDbLinetypeTableRecord
  2
補助線
 70
     0
  3
______________
 72
    65
 73
     2
 40
2.0
 49
1.0
 74
     0
 49
1.0
 74
     0
  0
LTYPE
  5
6427
330
5
100
AcDbSymbolTableRecord
100
AcDbLinetypeTableRecord
  2
HIDDEN
 70
     0
  3
Hidden __ __ __ __ __ __ __ __ __ __ __ __ __ _
 72
    65
 73
     2
 40
0.375
 49
0.25
 74
     0
 49
-0.125
 74
     0
  0
LTYPE
  5
AC81
330
5
100
AcDbSymbolTableRecord
100
AcDbLinetypeTableRecord
  2
破断線
 70
     0
  3
/\/-/\/-/\/-/\/-/\/-/\/
 72
    65
 73
     2
 40
0.4401
 49
0.0001
 74
     4
 75
   136
340
AC80
 46
0.0016
 50
0.0
 44
0.0
 45
0.0
 49
-0.4400000000000001
 74
     0
  0
LTYPE
  5
AC9E
330
5
100
AcDbSymbolTableRecord
100
AcDbLinetypeTableRecord
  2
Amzigzag
 70
     0
  3
/\/-/\/-/\/-/\/-/\/-/\/
 72
    65
 73
     2
 40
11.0001
 49
0.0001
 74
     4
 75
   135
340
56
 46
0.04
 50
0.0
 44
0.0
 45
0.0
 49
-11.0
 74
     0
  0
LTYPE
  5
AF0F
330
5
100
AcDbSymbolTableRecord
100
AcDbLinetypeTableRecord
  2
genzigzag
 70
     0
  3
/\/-/\/-/\/-/\/-/\/-/\/
 72
    65
 73
     2
 40
12.0001
 49
0.0001
 74
     4
 75
   135
340
AC80
 46
2.0
 50
0.0
 44
0.0
 45
0.0
 49
-12.0
 74
     0
  0
LTYPE
  5
AF95
330
5
100
AcDbSymbolTableRecord
100
AcDbLinetypeTableRecord
  2
AM_ISO08W050
 70
     0
  3
____ . ____ . ____ . ____ . ____ . ____ . ____
 72
    65
 73
     4
 40
18.0
 49
12.0
 74
     0
 49
-1.5
 74
     0
 49
3.0
 74
     0
 49
-1.5
 74
     0
  0
LTYPE
  5
AF96
330
5
100
AcDbSymbolTableRecord
100
AcDbLinetypeTableRecord
  2
AM_ISO09W050
 70
     0
  3
_____ . . _____ . . _____ . . ____ .. ____
 72
    65
 73
     6
 40
22.5
 49
12.0
 74
     0
 49
-1.5
 74
     0
 49
3.0
 74
     0
 49
-1.5
 74
     0
 49
3.0
 74
     0
 49
-1.5
 74
     0
  0
LTYPE
  5
AF97
330
5
100
AcDbSymbolTableRecord
100
AcDbLinetypeTableRecord
  2
AM_ISO08W050x2
 70
     0
  3
__ . __ . __ . __ . __ . __
 72
    65
 73
     4
 40
9.0
 49
6.0
 74
     0
 49
-0.75
 74
     0
 49
1.5
 74
     0
 49
-0.75
 74
     0
  0
LTYPE
  5
AF98
330
5
100
AcDbSymbolTableRecord
100
AcDbLinetypeTableRecord
  2
AM_ISO02W050x2
 70
     0
  3
 _ _ _ _ _ _ _ _ _ _ _ _
 72
    65
 73
     2
 40
3.75
 49
3.0
 74
     0
 49
-0.75
 74
     0
  0
ENDTAB
  0
TABLE
  2
LAYER
  5
2
102
{ACAD_XDICTIONARY
360
3F95
102
}
330
0
100
AcDbSymbolTable
 70
    20
  0
LAYER
  5
10
102
{ACAD_XDICTIONARY
360
B8E6
102
}
330
2
100
AcDbSymbolTableRecord
100
AcDbLayerTableRecord
  2
0
 70
     0
 62
     7
  6
Continuous
370
    -3
390
F
  0
LAYER
  5
6D1
330
2
100
AcDbSymbolTableRecord
100
AcDbLayerTableRecord
  2
Defpoints
 70
     0
 62
     7
  6
Continuous
290
     0
370
    -3
390
F
  0
LAYER
  5
5F85
102
{ACAD_XDICTIONARY
360
B8E8
102
}
330
2
100
AcDbSymbolTableRecord
100
AcDbLayerTableRecord
  2
AM_0
 70
     0
 62
     7
  6
中線
370
    30
390
F
1001
AcAecLayerStandard
1000

1000

  0
LAYER
  5
AC9F
102
{ACAD_XDICTIONARY
360
B8EA
102
}
330
2
100
AcDbSymbolTableRecord
100
AcDbLayerTableRecord
  2
size
 70
     0
 62
     5
  6
Continuous
290
     0
370
    25
390
F
  0
LAYER
  5
ACA0
102
{ACAD_XDICTIONARY
360
B8EC
102
}
330
2
100
AcDbSymbolTableRecord
100
AcDbLayerTableRecord
  2
waku
 70
     0
 62
     7
  6
Continuous
370
    35
390
F
  0
LAYER
  5
ACA1
102
{ACAD_XDICTIONARY
360
B8EE
102
}
330
2
100
AcDbSymbolTableRecord
100
AcDbLayerTableRecord
  2
AM_6
 70
     0
 62
     2
  6
文字
370
    13
390
F
1001
AcAecLayerStandard
1000

1000

  0
LAYER
  5
ACC8
102
{ACAD_XDICTIONARY
360
B8F0
102
}
330
2
100
AcDbSymbolTableRecord
100
AcDbLayerTableRecord
  2
hyomoji
 70
     0
 62
     2
  6
Continuous
370
    13
390
F
  0
LAYER
  5
ACC9
102
{ACAD_XDICTIONARY
360
B8F2
102
}
330
2
100
AcDbSymbolTableRecord
100
AcDbLayerTableRecord
  2
hyosen1
 70
     0
 62
    12
  6
Continuous
370
    25
390
F
  0
LAYER
  5
ACCA
102
{ACAD_XDICTIONARY
360
B8F4
102
}
330
2
100
AcDbSymbolTableRecord
100
AcDbLayerTableRecord
  2
hyosen2
 70
     0
 62
    12
  6
Continuous
370
    13
390
F
  0
LAYER
  5
AD60
102
{ACAD_XDICTIONARY
360
B8F6
102
}
330
2
100
AcDbSymbolTableRecord
100
AcDbLayerTableRecord
  2
AM_1
 70
     0
 62
    30
  6
太線
370
    40
390
F
1001
AcAecLayerStandard
1000

1000

  0
LAYER
  5
AD64
102
{ACAD_XDICTIONARY
360
B8F8
102
}
330
2
100
AcDbSymbolTableRecord
100
AcDbLayerTableRecord
  2
AM_2
 70
     0
 62
     1
  6
細線
370
    13
390
F
1001
AcAecLayerStandard
1000

1000

  0
LAYER
  5
AD67
102
{ACAD_XDICTIONARY
360
B8FA
102
}
330
2
100
AcDbSymbolTableRecord
100
AcDbLayerTableRecord
  2
AM_3
 70
     0
 62
     6
  6
陰線1
370
    13
390
F
1001
AcAecLayerStandard
1000

1000

  0
LAYER
  5
AD68
102
{ACAD_XDICTIONARY
360
B8FC
102
}
330
2
100
AcDbSymbolTableRecord
100
AcDbLayerTableRecord
  2
AM_5
 70
     0
 62
     3
  6
寸法線
370
    13
390
F
1001
AcAecLayerStandard
1000

1000

  0
LAYER
  5
AD69
102
{ACAD_XDICTIONARY
360
B8FE
102
}
330
2
100
AcDbSymbolTableRecord
100
AcDbLayerTableRecord
  2
AM_7
 70
     0
 62
     4
  6
中心線1
370
    13
390
F
1001
AcAecLayerStandard
1000

1000

  0
LAYER
  5
AD6A
102
{ACAD_XDICTIONARY
360
B900
102
}
330
2
100
AcDbSymbolTableRecord
100
AcDbLayerTableRecord
  2
AM_8
 70
     0
 62
     1
  6
ハッチング
370
    13
390
F
1001
AcAecLayerStandard
1000

1000

  0
LAYER
  5
AD6E
102
{ACAD_XDICTIONARY
360
B902
102
}
330
2
100
AcDbSymbolTableRecord
100
AcDbLayerTableRecord
  2
AM_10
 70
     0
 62
     7
  6
切断線
370
    13
390
F
1001
AcAecLayerStandard
1000

1000

  0
LAYER
  5
AD6F
102
{ACAD_XDICTIONARY
360
B904
102
}
330
2
100
AcDbSymbolTableRecord
100
AcDbLayerTableRecord
  2
AM_11
 70
     0
 62
     2
  6
想像線1
370
    13
390
F
1001
AcAecLayerStandard
1000

1000

  0
LAYER
  5
B1B6
102
{ACAD_XDICTIONARY
360
B906
102
}
330
2
100
AcDbSymbolTableRecord
100
AcDbLayerTableRecord
  2
AM_CL
 70
     1
 62
    -1
  6
Amconstr
370
    15
390
F
1001
AcAecLayerStandard
1000

1000

  0
LAYER
  5
B2EB
102
{ACAD_XDICTIONARY
360
B908
102
}
330
2
100
AcDbSymbolTableRecord
100
AcDbLayerTableRecord
  2
AM_14
 70
     0
 62
     5
  6
細線
370
     9
390
F
1001
AcAecLayerStandard
1000

1000

  0
LAYER
  5
B2EC
102
{ACAD_XDICTIONARY
360
B90A
102
}
330
2
100
AcDbSymbolTableRecord
100
AcDbLayerTableRecord
  2
AM_15
 70
     0
 62
     6
  6
陰線1
370
     9
390
F
1001
AcAecLayerStandard
1000

1000

  0
ENDTAB
  0
TABLE
  2
STYLE
  5
3
330
0
100
AcDbSymbolTable
 70
     6
  0
STYLE
  5
11
330
3
100
AcDbSymbolTableRecord
100
AcDbTextStyleTableRecord
  2
STANDARD
 70
     0
 40
0.0
 41
0.7
 50
0.0
 71
     0
 42
3.2
  3
romans.shx
  4
extfont.shx
  0
STYLE
  5
56
330
3
100
AcDbSymbolTableRecord
100
AcDbTextStyleTableRecord
  2

 70
     1
 40
0.0
 41
1.0
 50
0.0
 71
     0
 42
2.5
  3
ltypeshp.shx
  4

  0
STYLE
  5
58
330
3
100
AcDbSymbolTableRecord
100
AcDbTextStyleTableRecord
  2
ACISOTS
 70
     0
 40
1.0
 41
1.0
 50
0.0
 71
     0
 42
2.5
  3
isocp.shx
  4
extfont.shx
  0
STYLE
  5
63
330
3
100
AcDbSymbolTableRecord
100
AcDbTextStyleTableRecord
  2
ACISOGDT
 70
     0
 40
0.0
 41
1.0
 50
0.0
 71
     0
 42
2.5
  3
amgdt.shx
  4

  0
STYLE
  5
A74
330
3
100
AcDbSymbolTableRecord
100
AcDbTextStyleTableRecord
  2
DIM
 70
     0
 40
0.0
 41
1.0
 50
0.0
 71
     0
 42
2.5
  3
monotxt.shx
  4
extfont.shx
  0
STYLE
  5
AC80
330
3
100
AcDbSymbolTableRecord
100
AcDbTextStyleTableRecord
  2

 70
     1
 40
0.0
 41
1.0
 50
0.0
 71
     0
 42
3.2
  3
genltshp.shx
  4

  0
ENDTAB
  0
TABLE
  2
VIEW
  5
6
330
0
100
AcDbSymbolTable
 70
     6
  0
VIEW
  5
AE1
330
6
100
AcDbSymbolTableRecord
100
AcDbViewTableRecord
  2
AM_VIEW1
 70
     0
 40
129.7276464542651
 10
1775.10588156276
 20
1793.121228859297
 41
148.5
 11
0.0
 21
0.0
 31
1.0
 12
0.0
 22
0.0
 32
0.0
 42
50.0
 43
-1370.695619172058
 44
-1370.695619172058
 50
0.0
 71
    16
281
     0
 72
     0
  0
VIEW
  5
AE2
330
6
100
AcDbSymbolTableRecord
100
AcDbViewTableRecord
  2
AM_VIEW2
 70
     0
 40
129.7276464542651
 10
1923.60588156276
 20
1793.121228859297
 41
148.5
 11
0.0
 21
0.0
 31
1.0
 12
0.0
 22
0.0
 32
0.0
 42
50.0
 43
-1370.695619172058
 44
-1370.695619172058
 50
0.0
 71
    16
281
     0
 72
     0
  0
VIEW
  5
AE3
330
6
100
AcDbSymbolTableRecord
100
AcDbViewTableRecord
  2
AM_VIEW3
 70
     0
 40
129.7276464542651
 10
1775.10588156276
 20
1712.848875313562
 41
148.5
 11
0.0
 21
0.0
 31
1.0
 12
0.0
 22
0.0
 32
0.0
 42
50.0
 43
-1370.695619172058
 44
-1370.695619172058
 50
0.0
 71
    16
281
     0
 72
     0
  0
VIEW
  5
AE4
330
6
100
AcDbSymbolTableRecord
100
AcDbViewTableRecord
  2
AM_VIEW4
 70
     0
 40
129.7276464542651
 10
1923.60588156276
 20
1712.848875313562
 41
148.5
 11
0.0
 21
0.0
 31
1.0
 12
0.0
 22
0.0
 32
0.0
 42
50.0
 43
-1370.695619172058
 44
-1370.695619172058
 50
0.0
 71
    16
281
     0
 72
     0
  0
VIEW
  5
AE5
330
6
100
AcDbSymbolTableRecord
100
AcDbViewTableRecord
  2
AM_VIEW5
 70
     0
 40
129.7276464542651
 10
1849.35588156276
 20
1752.985052086429
 41
148.5
 11
0.0
 21
0.0
 31
1.0
 12
0.0
 22
0.0
 32
0.0
 42
50.0
 43
-1370.695619172058
 44
-1370.695619172058
 50
0.0
 71
    16
281
     0
 72
     0
  0
VIEW
  5
AE6
330
6
100
AcDbSymbolTableRecord
100
AcDbViewTableRecord
  2
AM_VIEW6
 70
     0
 40
259.4526983556011
 10
1849.35588156276
 20
1752.985052086429
 41
296.99703
 11
0.0
 21
0.0
 31
1.0
 12
0.0
 22
0.0
 32
0.0
 42
50.0
 43
-1370.695619172058
 44
-1370.695619172058
 50
0.0
 71
    16
281
     0
 72
     0
  0
ENDTAB
  0
TABLE
  2
UCS
  5
7
330
0
100
AcDbSymbolTable
 70
     0
  0
ENDTAB
  0
TABLE
  2
APPID
  5
9
330
0
100
AcDbSymbolTable
 70
    58
  0
APPID
  5
12
330
9
100
AcDbSymbolTableRecord
100
AcDbRegAppTableRecord
  2
ACAD
 70
     0
  0
APPID
  5
30
330
9
100
AcDbSymbolTableRecord
100
AcDbRegAppTableRecord
  2
MCAD_NO_VIS
 70
     0
  0
APPID
  5
31
330
9
100
AcDbSymbolTableRecord
100
AcDbRegAppTableRecord
  2
ACAD_TEMP_GRAPHIC
 70
     0
  0
APPID
  5
44
330
9
100
AcDbSymbolTableRecord
100
AcDbRegAppTableRecord
  2
ACATTRIBSERVICES
 70
     0
  0
APPID
  5
7A1
330
9
100
AcDbSymbolTableRecord
100
AcDbRegAppTableRecord
  2
GENIUS_GENDIMSH_14
 70
     0
  0
APPID
  5
A49
330
9
100
AcDbSymbolTableRecord
100
AcDbRegAppTableRecord
  2
GENIUS_GENREC_14
 70
     0
  0
APPID
  5
A4A
330
9
100
AcDbSymbolTableRecord
100
AcDbRegAppTableRecord
  2
GENIUS_GENOBJ-N-REC_13
 70
     0
  0
APPID
  5
A4B
330
9
100
AcDbSymbolTableRecord
100
AcDbRegAppTableRecord
  2
GENIUS_GENODEF_13
 70
     0
  0
APPID
  5
A4C
330
9
100
AcDbSymbolTableRecord
100
AcDbRegAppTableRecord
  2
DCO15
 70
     0
  0
APPID
  5
ADC
330
9
100
AcDbSymbolTableRecord
100
AcDbRegAppTableRecord
  2
GENIUS_GENOLIS_13
 70
     0
  0
APPID
  5
ADD
330
9
100
AcDbSymbolTableRecord
100
AcDbRegAppTableRecord
  2
GENIUS_GENOENT_13
 70
     0
  0
APPID
  5
ADE
330
9
100
AcDbSymbolTableRecord
100
AcDbRegAppTableRecord
  2
GENIUS_GENOBJ-N-TIT_13
 70
     0
  0
APPID
  5
ADF
330
9
100
AcDbSymbolTableRecord
100
AcDbRegAppTableRecord
  2
GENIUS_GENTITLE_13
 70
     0
  0
APPID
  5
AE0
330
9
100
AcDbSymbolTableRecord
100
AcDbRegAppTableRecord
  2
GENIUS_GENOREF_13
 70
     0
  0
APPID
  5
AE7
330
9
100
AcDbSymbolTableRecord
100
AcDbRegAppTableRecord
  2
GENIUS_GENSCREG_15
 70
     0
  0
APPID
  5
AE8
330
9
100
AcDbSymbolTableRecord
100
AcDbRegAppTableRecord
  2
GENIUS_GENOBJ-N-SDF_13
 70
     0
  0
APPID
  5
FAF
330
9
100
AcDbSymbolTableRecord
100
AcDbRegAppTableRecord
  2
GENIUS_GENBLLY_14
 70
     0
  0
APPID
  5
FB0
330
9
100
AcDbSymbolTableRecord
100
AcDbRegAppTableRecord
  2
GENIUS_GENTRA_14
 70
     0
  0
APPID
  5
1285
330
9
100
AcDbSymbolTableRecord
100
AcDbRegAppTableRecord
  2
GENIUS_GENDTOL_13
 70
     0
  0
APPID
  5
142D
330
9
100
AcDbSymbolTableRecord
100
AcDbRegAppTableRecord
  2
GENIUS_GENOBJ-N-CEN_13
 70
     0
  0
APPID
  5
1AB5
330
9
100
AcDbSymbolTableRecord
100
AcDbRegAppTableRecord
  2
GENIUS_GENOBJ-N-CRS_13
 70
     0
  0
APPID
  5
1B36
330
9
100
AcDbSymbolTableRecord
100
AcDbRegAppTableRecord
  2
GENIUS_GENOBJ-N-HTC_13
 70
     0
  0
APPID
  5
1B37
330
9
100
AcDbSymbolTableRecord
100
AcDbRegAppTableRecord
  2
GENIUS_GENHATCH_13
 70
     0
  0
APPID
  5
216D
330
9
100
AcDbSymbolTableRecord
100
AcDbRegAppTableRecord
  2
GENIUS_GENOBJ-N-FIL_13
 70
     0
  0
APPID
  5
2356
330
9
100
AcDbSymbolTableRecord
100
AcDbRegAppTableRecord
  2
GEVID990412420
 70
     0
  0
APPID
  5
2357
330
9
100
AcDbSymbolTableRecord
100
AcDbRegAppTableRecord
  2
GEVDC
 70
     0
  0
APPID
  5
2358
330
9
100
AcDbSymbolTableRecord
100
AcDbRegAppTableRecord
  2
GEVCON
 70
     0
  0
APPID
  5
235B
330
9
100
AcDbSymbolTableRecord
100
AcDbRegAppTableRecord
  2
GEVRADREF
 70
     0
  0
APPID
  5
2360
330
9
100
AcDbSymbolTableRecord
100
AcDbRegAppTableRecord
  2
GENIUS_GENBH_13
 70
     0
  0
APPID
  5
2362
330
9
100
AcDbSymbolTableRecord
100
AcDbRegAppTableRecord
  2
GENIUS_GENOBJ-NBEHI-BHF_13
 70
     0
  0
APPID
  5
2364
330
9
100
AcDbSymbolTableRecord
100
AcDbRegAppTableRecord
  2
GENIUS_GENOBJ-NBEHI-BHB_13
 70
     0
  0
APPID
  5
2379
330
9
100
AcDbSymbolTableRecord
100
AcDbRegAppTableRecord
  2
GENIUS_GENOBJ-F-SCPASSM_13
 70
     0
  0
APPID
  5
3D74
330
9
100
AcDbSymbolTableRecord
100
AcDbRegAppTableRecord
  2
GENIUS_GENDIM_13
 70
     0
  0
APPID
  5
3D76
330
9
100
AcDbSymbolTableRecord
100
AcDbRegAppTableRecord
  2
GENIUS_GE3DTOL_13
 70
     0
  0
APPID
  5
3D9C
330
9
100
AcDbSymbolTableRecord
100
AcDbRegAppTableRecord
  2
AD_DRAW
 70
     0
  0
APPID
  5
3DE8
330
9
100
AcDbSymbolTableRecord
100
AcDbRegAppTableRecord
  2
ASURF_PCURVE_APPNAME
 70
     0
  0
APPID
  5
3DED
330
9
100
AcDbSymbolTableRecord
100
AcDbRegAppTableRecord
  2
AMG_3D2D_5.0
 70
     0
  0
APPID
  5
3E1B
330
9
100
AcDbSymbolTableRecord
100
AcDbRegAppTableRecord
  2
DESIGNERASSEMBLIES
 70
     0
  0
APPID
  5
3E20
330
9
100
AcDbSymbolTableRecord
100
AcDbRegAppTableRecord
  2
ACADM_DIM_EDIT
 70
     0
  0
APPID
  5
3E21
330
9
100
AcDbSymbolTableRecord
100
AcDbRegAppTableRecord
  2
AMDT_DM_ADJ
 70
     0
  0
APPID
  5
4143
330
9
100
AcDbSymbolTableRecord
100
AcDbRegAppTableRecord
  2
GENIUS_GENFIL_13
 70
     0
  0
APPID
  5
4144
330
9
100
AcDbSymbolTableRecord
100
AcDbRegAppTableRecord
  2
GENIUS_GENOBJ-N-CHA_13
 70
     0
  0
APPID
  5
4E17
330
9
100
AcDbSymbolTableRecord
100
AcDbRegAppTableRecord
  2
GEVID1008153417
 70
     0
  0
APPID
  5
4E58
330
9
100
AcDbSymbolTableRecord
100
AcDbRegAppTableRecord
  2
GEVID1008153418
 70
     0
  0
APPID
  5
4E5E
330
9
100
AcDbSymbolTableRecord
100
AcDbRegAppTableRecord
  2
GEVID1008153419
 70
     0
  0
APPID
  5
4E64
330
9
100
AcDbSymbolTableRecord
100
AcDbRegAppTableRecord
  2
GEVID1008153420
 70
     0
  0
APPID
  5
4E75
330
9
100
AcDbSymbolTableRecord
100
AcDbRegAppTableRecord
  2
GEVID1008153421
 70
     0
  0
APPID
  5
4EB7
330
9
100
AcDbSymbolTableRecord
100
AcDbRegAppTableRecord
  2
GENIUS_AMGTXT_16
 70
     0
  0
APPID
  5
7645
330
9
100
AcDbSymbolTableRecord
100
AcDbRegAppTableRecord
  2
GENIUS_GENOBJ-N-DIM_13
 70
     0
  0
APPID
  5
AAD0
330
9
100
AcDbSymbolTableRecord
100
AcDbRegAppTableRecord
  2
ACAD_DSTYLE_DIMARC_LENGTH_SYMBOL
 70
     0
  0
APPID
  5
AAD1
330
9
100
AcDbSymbolTableRecord
100
AcDbRegAppTableRecord
  2
ACAD_DSTYLE_DIMJOGGED_JOGANGLE_SYMBOL
 70
     0
  0
APPID
  5
AAFD
330
9
100
AcDbSymbolTableRecord
100
AcDbRegAppTableRecord
  2
ACAD_PSEXT
 70
     0
  0
APPID
  5
AD61
330
9
100
AcDbSymbolTableRecord
100
AcDbRegAppTableRecord
  2
AcAecLayerStandard
 70
     0
  0
APPID
  5
AEE3
330
9
100
AcDbSymbolTableRecord
100
AcDbRegAppTableRecord
  2
ACAD_EXEMPT_FROM_CAD_STANDARDS
 70
     0
  0
APPID
  5
B1BE
330
9
100
AcDbSymbolTableRecord
100
AcDbRegAppTableRecord
  2
GENIUS_GENCEN_19
 70
     0
  0
APPID
  5
B597
330
9
100
AcDbSymbolTableRecord
100
AcDbRegAppTableRecord
  2
ACAD_MLEADERVER
 70
     0
  0
APPID
  5
B674
330
9
100
AcDbSymbolTableRecord
100
AcDbRegAppTableRecord
  2
ACAD_DSTYLE_DIMINSPECT
 70
     0
  0
APPID
  5
B675
330
9
100
AcDbSymbolTableRecord
100
AcDbRegAppTableRecord
  2
ACAD_DSTYLE_DIMRADIAL_EXTENSION
 70
     0
  0
ENDTAB
  0
TABLE
  2
DIMSTYLE
  5
A
330
0
100
AcDbSymbolTable
 70
    17
100
AcDbDimStyleTable
 71
     1
340
2515
  0
DIMSTYLE
105
A76
330
A
100
AcDbSymbolTableRecord
100
AcDbDimStyleTableRecord
  2
STANDARD
 70
     0
 41
3.0
 42
1.0
 43
7.0
 44
2.0
 73
     0
 74
     0
 77
     1
140
2.799999999999999
141
0.0
143
0.0394
147
0.7
171
     4
172
     1
173
     1
176
     3
177
     3
178
     2
271
     3
272
     3
273
     8
274
     4
289
     0
340
A74
341
A66
343
A66
344
A66
  0
DIMSTYLE
105
2515
330
A
100
AcDbSymbolTableRecord
100
AcDbDimStyleTableRecord
  2
SYS
 70
     0
  4
"
 41
1.0
 42
1.0
 43
10.0
 44
1.0
 47
0.1
 48
0.1
 73
     0
 74
     0
 77
     1
 78
     8
 79
     2
140
3.5
141
0.0
143
0.0393701
146
0.71
147
1.5
172
     1
176
   256
177
   256
178
     7
271
     2
272
     2
283
     0
284
     8
340
11
371
    -1
372
    -1
1001
ACAD_DSTYLE_DIMJOGGED_JOGANGLE_SYMBOL
1070
   384
1040
0.7853981633974483
1001
ACAD_DSTYLE_DIMARC_LENGTH_SYMBOL
1070
   379
1070
     1
  0
DIMSTYLE
105
2516
102
{ACAD_REACTORS
330
B866
102
}
330
A
100
AcDbSymbolTableRecord
100
AcDbDimStyleTableRecord
  2
SYS$3
 70
     0
  4
"
 41
2.0
 42
1.0
 43
10.0
 44
1.0
 47
0.1
 48
0.1
 73
     0
 77
     1
 78
     8
 79
     2
140
3.5
141
0.0
143
0.0393701
146
0.71
147
1.5
176
   256
177
   256
178
     2
271
     2
272
     2
283
     0
284
     8
288
     1
340
11
342
A66
371
    -1
372
    -1
1001
ACAD_DSTYLE_DIMJOGGED_JOGANGLE_SYMBOL
1070
   384
1040
0.7853981633974483
1001
ACAD_DSTYLE_DIMARC_LENGTH_SYMBOL
1070
   379
1070
     1
  0
DIMSTYLE
105
2517
330
A
100
AcDbSymbolTableRecord
100
AcDbDimStyleTableRecord
  2
SYS$4
 70
     0
  4
"
 41
2.0
 42
1.0
 43
10.0
 44
1.0
 47
0.1
 48
0.1
 73
     0
 77
     1
 78
     8
 79
     2
140
3.5
141
0.0
143
0.0393701
146
0.71
147
1.5
173
     1
176
   256
177
   256
178
     2
271
     2
272
     2
283
     0
284
     8
288
     1
340
11
344
A66
371
    -1
372
    -1
1001
ACAD_DSTYLE_DIMJOGGED_JOGANGLE_SYMBOL
1070
   384
1040
0.7853981633974483
1001
ACAD_DSTYLE_DIMARC_LENGTH_SYMBOL
1070
   379
1070
     1
  0
DIMSTYLE
105
2518
330
A
100
AcDbSymbolTableRecord
100
AcDbDimStyleTableRecord
  2
SYS$6
 70
     0
  4
"
 41
2.0
 42
1.0
 43
10.0
 44
1.0
 47
0.1
 48
0.1
 73
     0
 74
     0
 78
     8
 79
     2
140
3.5
141
0.0
143
0.0393701
146
0.71
147
1.5
172
     1
176
   256
177
   256
178
     2
271
     2
272
     2
283
     0
284
     8
340
11
341
A66
371
    -1
372
    -1
1001
ACAD_DSTYLE_DIMJOGGED_JOGANGLE_SYMBOL
1070
   384
1040
0.7853981633974483
1001
ACAD_DSTYLE_DIMARC_LENGTH_SYMBOL
1070
   379
1070
     1
  0
DIMSTYLE
105
2519
330
A
100
AcDbSymbolTableRecord
100
AcDbDimStyleTableRecord
  2
SYS$7
 70
     0
  4
"
 41
2.0
 42
1.0
 43
10.0
 44
1.0
 47
0.1
 48
0.1
 73
     0
 74
     0
 77
     1
 78
     8
 79
     2
140
5.0
141
0.0
143
0.0393701
146
0.71
147
1.5
172
     1
176
   256
177
   256
178
     2
271
     2
272
     2
283
     0
284
     8
340
11
341
A66
342
A66
371
    -1
372
    -1
1001
ACAD_DSTYLE_DIMJOGGED_JOGANGLE_SYMBOL
1070
   384
1040
0.7853981633974483
1001
ACAD_DSTYLE_DIMARC_LENGTH_SYMBOL
1070
   379
1070
     1
  0
DIMSTYLE
105
251A
330
A
100
AcDbSymbolTableRecord
100
AcDbDimStyleTableRecord
  2
SYS$SF
 70
     0
  4
"
 41
2.5
 42
1.0
 43
10.0
 44
1.0
 47
0.1
 48
0.1
 73
     0
 74
     0
 75
     1
 76
     1
 77
     1
 78
     8
 79
     2
140
3.5
141
0.0
143
0.0393701
146
0.71
147
1.5
172
     1
176
   256
177
   256
178
     2
271
     2
272
     3
283
     0
284
     8
340
11
341
6C4
342
6C4
371
    -1
372
    -1
1001
ACAD_DSTYLE_DIMJOGGED_JOGANGLE_SYMBOL
1070
   384
1040
0.7853981633974483
1001
ACAD_DSTYLE_DIMARC_LENGTH_SYMBOL
1070
   379
1070
     1
  0
DIMSTYLE
105
251B
330
A
100
AcDbSymbolTableRecord
100
AcDbDimStyleTableRecord
  2
SYS$SH
 70
     0
  4
"
 41
2.5
 42
1.0
 43
10.0
 44
1.0
 47
0.1
 48
0.1
 73
     0
 74
     0
 75
     1
 76
     1
 77
     1
 78
     8
 79
     2
140
3.5
141
0.0
143
0.0393701
144
2.0
146
0.71
147
1.5
172
     1
173
     1
176
   256
177
   256
178
     2
271
     2
272
     3
283
     0
284
     8
340
11
341
6C4
343
72
344
6C4
371
    -1
372
    -1
1001
ACAD_DSTYLE_DIMJOGGED_JOGANGLE_SYMBOL
1070
   384
1040
0.7853981633974483
1001
ACAD_DSTYLE_DIMARC_LENGTH_SYMBOL
1070
   379
1070
     1
  0
DIMSTYLE
105
2A59
330
A
100
AcDbSymbolTableRecord
100
AcDbDimStyleTableRecord
  2
SYS$2
 70
     0
  4
"
 41
1.0
 42
1.0
 43
10.0
 44
1.0
 47
0.1
 48
0.1
 73
     0
 74
     0
 77
     1
 78
     8
 79
     2
140
3.5
141
0.0
143
0.0393701
146
0.71
147
1.5
172
     1
176
   256
177
   256
178
     2
271
     2
272
     2
283
     0
284
     8
340
11
342
6C4
371
    -1
372
    -1
1001
ACAD_DSTYLE_DIMJOGGED_JOGANGLE_SYMBOL
1070
   384
1040
0.7853981633974483
1001
ACAD_DSTYLE_DIMARC_LENGTH_SYMBOL
1070
   379
1070
     1
  0
DIMSTYLE
105
2AAB
102
{ACAD_REACTORS
330
B85D
330
B85E
330
B85F
330
B860
330
B861
330
B862
330
B863
330
B864
330
B865
102
}
330
A
100
AcDbSymbolTableRecord
100
AcDbDimStyleTableRecord
  2
SYS$0
 70
     0
  4
"
 41
1.0
 42
1.0
 43
10.0
 44
1.0
 47
0.1
 48
0.1
 73
     0
 74
     0
 77
     1
 78
     8
 79
     2
140
3.200000000000001
141
0.0
143
0.0393701
146
0.71
147
1.5
172
     1
176
   256
177
   256
178
     2
271
     2
272
     2
283
     0
284
     8
340
11
341
A66
342
6C4
371
    -1
372
    -1
1001
ACAD_DSTYLE_DIMJOGGED_JOGANGLE_SYMBOL
1070
   384
1040
0.7853981633974483
1001
ACAD_DSTYLE_DIMARC_LENGTH_SYMBOL
1070
   379
1070
     1
  0
DIMSTYLE
105
AF99
330
A
100
AcDbSymbolTableRecord
100
AcDbDimStyleTableRecord
  2
AM_ISO
 70
     0
  4
"
 41
2.5
 42
1.0
 43
10.0
 44
1.0
 47
0.1
 48
0.1
 73
     0
 74
     0
 77
     1
 78
     8
 79
     2
140
3.5
141
0.0
143
0.0393701
146
0.71
147
1.5
172
     1
176
   256
177
   256
178
     2
271
     2
272
     3
274
     4
283
     0
284
     8
340
11
371
    -1
372
    -1
  0
DIMSTYLE
105
AF9A
330
A
100
AcDbSymbolTableRecord
100
AcDbDimStyleTableRecord
  2
AM_ISO$3
 70
     0
  4
"
 41
2.5
 42
1.0
 43
10.0
 44
1.0
 47
0.1
 48
0.1
 73
     0
 77
     1
 78
     8
 79
     2
140
3.5
141
0.0
143
0.0393701
146
0.71
147
1.5
176
   256
177
   256
178
     2
271
     2
272
     3
274
     4
283
     0
284
     8
288
     1
289
     0
340
11
371
    -1
372
    -1
  0
DIMSTYLE
105
AF9B
330
A
100
AcDbSymbolTableRecord
100
AcDbDimStyleTableRecord
  2
AM_ISO$4
 70
     0
  4
"
 41
2.5
 42
1.0
 43
10.0
 44
1.0
 47
0.1
 48
0.1
 73
     0
 77
     1
 78
     8
 79
     2
140
3.5
141
0.0
143
0.0393701
146
0.71
147
1.5
176
   256
177
   256
178
     2
271
     2
272
     3
274
     4
283
     0
284
     8
288
     1
289
     0
340
11
371
    -1
372
    -1
  0
DIMSTYLE
105
AF9C
330
A
100
AcDbSymbolTableRecord
100
AcDbDimStyleTableRecord
  2
AM_ISO$6
 70
     0
  4
"
 41
2.5
 42
1.0
 43
10.0
 44
1.0
 47
0.1
 48
0.1
 73
     0
 74
     0
 78
     8
 79
     2
140
3.5
141
0.0
143
0.0393701
146
0.71
147
1.5
172
     1
176
   256
177
   256
178
     2
271
     2
272
     3
274
     4
283
     0
284
     8
340
11
371
    -1
372
    -1
  0
DIMSTYLE
105
AF9D
330
A
100
AcDbSymbolTableRecord
100
AcDbDimStyleTableRecord
  2
AM_ISO$7
 70
     0
  4
"
 41
2.5
 42
1.0
 43
10.0
 44
1.0
 47
0.1
 48
0.1
 73
     0
 74
     0
 77
     1
 78
     8
 79
     2
140
5.0
141
0.0
143
0.0393701
146
0.71
147
1.5
172
     1
176
   256
177
   256
178
     2
271
     2
272
     3
274
     4
283
     0
284
     8
340
11
371
    -1
372
    -1
  0
DIMSTYLE
105
AF9E
330
A
100
AcDbSymbolTableRecord
100
AcDbDimStyleTableRecord
  2
AM_ISO$SF
 70
     0
  4
"
 41
2.5
 42
1.0
 43
10.0
 44
1.0
 47
0.1
 48
0.1
 73
     0
 74
     0
 75
     1
 76
     1
 77
     1
 78
     8
 79
     2
140
3.5
141
0.0
143
0.0393701
146
0.71
147
1.5
172
     1
176
   256
177
   256
178
     2
271
     2
272
     3
274
     4
283
     0
284
     8
340
11
371
    -1
372
    -1
  0
DIMSTYLE
105
AF9F
330
A
100
AcDbSymbolTableRecord
100
AcDbDimStyleTableRecord
  2
AM_ISO$SH
 70
     0
  4
"
 41
2.5
 42
1.0
 43
10.0
 44
1.0
 47
0.1
 48
0.1
 73
     0
 74
     0
 75
     1
 76
     1
 77
     1
 78
     8
 79
     2
140
3.5
141
0.0
143
0.0393701
144
2.0
146
0.71
147
1.5
172
     1
173
     1
176
   256
177
   256
178
     2
271
     2
272
     3
274
     4
283
     0
284
     8
340
11
343
72
371
    -1
372
    -1
  0
ENDTAB
  0
TABLE
  2
BLOCK_RECORD
  5
1
330
0
100
AcDbSymbolTable
 70
    26
  0
BLOCK_RECORD
  5
1F
102
{ACAD_XDICTIONARY
360
8A
102
}
330
1
100
AcDbSymbolTableRecord
100
AcDbBlockTableRecord
  2
*Model_Space
340
22
  0
BLOCK_RECORD
  5
1B
330
1
100
AcDbSymbolTableRecord
100
AcDbBlockTableRecord
  2
*Paper_Space
340
1E
  0
BLOCK_RECORD
  5
23
330
1
100
AcDbSymbolTableRecord
100
AcDbBlockTableRecord
  2
*Paper_Space0
340
26
  0
BLOCK_RECORD
  5
72
330
1
100
AcDbSymbolTableRecord
100
AcDbBlockTableRecord
  2
GENAXEH
340
0
  0
BLOCK_RECORD
  5
6C4
330
1
100
AcDbSymbolTableRecord
100
AcDbBlockTableRecord
  2
_Dot
340
0
102
{BLKREFS
331
B602
331
B603
331
B60E
331
B60F
331
B61A
331
B61B
331
B626
331
B627
331
B632
331
B633
331
B63E
331
B63F
331
B64A
331
B64B
331
B656
331
B657
331
B662
331
B663
331
B875
331
B876
331
B881
331
B882
331
B88D
331
B88E
331
B899
331
B89A
331
B8A5
331
B8A6
331
B8B1
331
B8B2
331
B8BD
331
B8BE
331
B8C9
331
B8CA
331
B8D5
331
B8D6
102
}
  0
BLOCK_RECORD
  5
A66
330
1
100
AcDbSymbolTableRecord
100
AcDbBlockTableRecord
  2
_OPEN30
340
0
  0
BLOCK_RECORD
  5
B5F8
330
1
100
AcDbSymbolTableRecord
100
AcDbBlockTableRecord
  2
GENDOT
340
0
102
{BLKREFS
331
B66E
331
B66F
331
B8E1
331
B8E2
102
}
  0
BLOCK_RECORD
  5
B86F
330
1
100
AcDbSymbolTableRecord
100
AcDbBlockTableRecord
  2
*D16
340
0
  0
BLOCK_RECORD
  5
B87B
330
1
100
AcDbSymbolTableRecord
100
AcDbBlockTableRecord
  2
*D17
340
0
  0
BLOCK_RECORD
  5
B887
330
1
100
AcDbSymbolTableRecord
100
AcDbBlockTableRecord
  2
*D18
340
0
  0
BLOCK_RECORD
  5
B893
330
1
100
AcDbSymbolTableRecord
100
AcDbBlockTableRecord
  2
*D19
340
0
  0
BLOCK_RECORD
  5
B89F
330
1
100
AcDbSymbolTableRecord
100
AcDbBlockTableRecord
  2
*D20
340
0
  0
BLOCK_RECORD
  5
B8AB
330
1
100
AcDbSymbolTableRecord
100
AcDbBlockTableRecord
  2
*D21
340
0
  0
BLOCK_RECORD
  5
B8B7
330
1
100
AcDbSymbolTableRecord
100
AcDbBlockTableRecord
  2
*D22
340
0
  0
BLOCK_RECORD
  5
B8C3
330
1
100
AcDbSymbolTableRecord
100
AcDbBlockTableRecord
  2
*D23
340
0
  0
BLOCK_RECORD
  5
B8CF
330
1
100
AcDbSymbolTableRecord
100
AcDbBlockTableRecord
  2
*D24
340
0
  0
BLOCK_RECORD
  5
B8DB
330
1
100
AcDbSymbolTableRecord
100
AcDbBlockTableRecord
  2
*D25
340
0
  0
ENDTAB
  0
ENDSEC
  0
SECTION
  2
BLOCKS
  0
BLOCK
  5
20
330
1F
100
AcDbEntity
  8
0
100
AcDbBlockBegin
  2
*Model_Space
 70
     0
 10
0.0
 20
0.0
 30
0.0
  3
*Model_Space
  1

  0
ENDBLK
  5
21
330
1F
100
AcDbEntity
  8
0
100
AcDbBlockEnd
  0
BLOCK
  5
1C
330
1B
100
AcDbEntity
 67
     1
  8
0
100
AcDbBlockBegin
  2
*Paper_Space
 70
     0
 10
0.0
 20
0.0
 30
0.0
  3
*Paper_Space
  1

  0
ENDBLK
  5
1D
330
1B
100
AcDbEntity
 67
     1
  8
0
100
AcDbBlockEnd
  0
BLOCK
  5
24
330
23
100
AcDbEntity
 67
     1
  8
0
100
AcDbBlockBegin
  2
*Paper_Space0
 70
     0
 10
0.0
 20
0.0
 30
0.0
  3
*Paper_Space0
  1

  0
ENDBLK
  5
25
330
23
100
AcDbEntity
 67
     1
  8
0
100
AcDbBlockEnd
  0
BLOCK
  5
74
330
72
100
AcDbEntity
  8
0
100
AcDbBlockBegin
  2
GENAXEH
 70
     0
 10
0.0
 20
0.0
 30
0.0
  3
GENAXEH
  1

  0
LINE
  5
73
330
72
100
AcDbEntity
  8
0
100
AcDbLine
 10
-1.0
 20
0.0
 30
0.0
 11
1.0
 21
0.0
 31
0.0
  0
ENDBLK
  5
75
330
72
100
AcDbEntity
  8
0
100
AcDbBlockEnd
  0
BLOCK
  5
6C7
330
6C4
100
AcDbEntity
  8
0
100
AcDbBlockBegin
  2
_Dot
 70
     0
 10
0.0
 20
0.0
 30
0.0
  3
_Dot
  1

  0
LWPOLYLINE
  5
6C5
330
6C4
100
AcDbEntity
  8
0
  6
ByBlock
 62
     0
100
AcDbPolyline
 90
        2
 70
     1
 43
0.5
 10
-0.25
 20
0.0
 42
1.0
 10
0.25
 20
0.0
 42
1.0
  0
LINE
  5
6C6
330
6C4
100
AcDbEntity
  8
0
  6
ByBlock
 62
     0
370
    -2
100
AcDbLine
 10
-0.5
 20
0.0
 30
0.0
 11
-1.0
 21
0.0
 31
0.0
  0
ENDBLK
  5
6C8
330
6C4
100
AcDbEntity
  8
0
100
AcDbBlockEnd
  0
BLOCK
  5
A6A
330
A66
100
AcDbEntity
  8
0
100
AcDbBlockBegin
  2
_OPEN30
 70
     0
 10
0.0
 20
0.0
 30
0.0
  3
_OPEN30
  1

  0
LINE
  5
A67
330
A66
100
AcDbEntity
  8
0
  6
ByBlock
 62
     0
100
AcDbLine
 10
-1.0
 20
0.26794919
 30
0.0
 11
0.0
 21
0.0
 31
0.0
  0
LINE
  5
A68
330
A66
100
AcDbEntity
  8
0
  6
ByBlock
 62
     0
100
AcDbLine
 10
0.0
 20
0.0
 30
0.0
 11
-1.0
 21
-0.26794919
 31
0.0
  0
LINE
  5
A69
330
A66
100
AcDbEntity
  8
0
  6
ByBlock
 62
     0
100
AcDbLine
 10
0.0
 20
0.0
 30
0.0
 11
-1.0
 21
0.0
 31
0.0
  0
ENDBLK
  5
A6B
330
A66
100
AcDbEntity
  8
0
100
AcDbBlockEnd
  0
BLOCK
  5
B5F9
330
B5F8
100
AcDbEntity
  8
0
100
AcDbBlockBegin
  2
GENDOT
 70
     0
 10
0.0
 20
0.0
 30
0.0
  3
GENDOT
  1

  0
LINE
  5
B5FA
330
B5F8
100
AcDbEntity
  8
0
100
AcDbLine
 10
0.0
 20
0.0
 30
0.0
 11
-1.0
 21
0.0
 31
0.0
  0
LWPOLYLINE
  5
B5FB
330
B5F8
100
AcDbEntity
  8
0
100
AcDbPolyline
 90
        2
 70
     1
 43
0.25
 10
-0.125
 20
0.0
 42
1.0
 10
0.125
 20
0.0
 42
1.0
  0
ENDBLK
  5
B5FC
330
B5F8
100
AcDbEntity
  8
0
100
AcDbBlockEnd
  0
BLOCK
  5
B870
330
B86F
100
AcDbEntity
  8
0
100
AcDbBlockBegin
  2
*D16
 70
     1
 10
0.0
 20
0.0
 30
0.0
  3
*D16
  1

  0
LINE
  5
B872
330
B86F
100
AcDbEntity
  8
AM_5
100
AcDbLine
 10
282.9832496217655
 20
205.5384321888024
 30
0.0
 11
266.4832486117656
 21
205.5384321888024
 31
0.0
  0
LINE
  5
B873
330
B86F
100
AcDbEntity
  8
AM_5
100
AcDbLine
 10
282.9832596217654
 20
158.5384321888024
 30
0.0
 11
266.4832486117656
 21
158.5384321888024
 31
0.0
  0
LINE
  5
B874
330
B86F
100
AcDbEntity
  8
AM_5
100
AcDbLine
 10
267.4832486117656
 20
204.5384321888024
 30
0.0
 11
267.4832486117656
 21
159.5384321888024
 31
0.0
  0
INSERT
  5
B875
330
B86F
100
AcDbEntity
  8
AM_5
100
AcDbBlockReference
  2
_Dot
 10
267.4832486117656
 20
205.5384321888024
 30
0.0
 50
90.0
  0
INSERT
  5
B876
330
B86F
100
AcDbEntity
  8
AM_5
100
AcDbBlockReference
  2
_Dot
 10
267.4832486117656
 20
158.5384321888024
 30
0.0
 50
270.0
  0
MTEXT
  5
B877
330
B86F
100
AcDbEntity
  8
AM_5
 62
     2
100
AcDbMText
 10
264.3832486117655
 20
182.0384321888024
 30
0.0
 40
3.200000000000001
 41
0.0
 71
     5
 72
     1
  1
A
 11
0.0000000000000001
 21
1.0
 31
0.0
 73
     1
 44
1.0
1001
ACAD
1000
MTEXTBEGIN
1070
    73
1070
     1
1070
    44
1040
1.0
1070
    74
1070
     0
1000
MTEXTEND
  0
POINT
  5
B878
330
B86F
100
AcDbEntity
  8
Defpoints
 62
     0
100
AcDbPoint
 10
283.9832496217655
 20
205.5384321888024
 30
0.0
  0
POINT
  5
B879
330
B86F
100
AcDbEntity
  8
Defpoints
 62
     0
100
AcDbPoint
 10
283.9832596217655
 20
158.5384321888024
 30
0.0
  0
POINT
  5
B87A
330
B86F
100
AcDbEntity
  8
Defpoints
 62
     0
100
AcDbPoint
 10
267.4832486117656
 20
158.5384321888024
 30
0.0
  0
ENDBLK
  5
B871
330
B86F
100
AcDbEntity
  8
0
100
AcDbBlockEnd
  0
BLOCK
  5
B87C
330
B87B
100
AcDbEntity
  8
0
100
AcDbBlockBegin
  2
*D17
 70
     1
 10
0.0
 20
0.0
 30
0.0
  3
*D17
  1

  0
LINE
  5
B87E
330
B87B
100
AcDbEntity
  8
AM_5
100
AcDbLine
 10
283.9832596217655
 20
206.5384421888022
 30
0.0
 11
283.9832596217655
 21
218.5384421888022
 31
0.0
  0
LINE
  5
B87F
330
B87B
100
AcDbEntity
  8
AM_5
100
AcDbLine
 10
292.9832496217655
 20
206.5384321888025
 30
0.0
 11
292.9832496217655
 21
218.5384421888022
 31
0.0
  0
LINE
  5
B880
330
B87B
100
AcDbEntity
  8
AM_5
100
AcDbLine
 10
284.9832596217654
 20
217.5384421888022
 30
0.0
 11
291.9832496217655
 21
217.5384421888022
 31
0.0
  0
INSERT
  5
B881
330
B87B
100
AcDbEntity
  8
AM_5
100
AcDbBlockReference
  2
_Dot
 10
283.9832596217655
 20
217.5384421888022
 30
0.0
 50
180.0
  0
INSERT
  5
B882
330
B87B
100
AcDbEntity
  8
AM_5
100
AcDbBlockReference
  2
_Dot
 10
292.9832496217655
 20
217.5384421888022
 30
0.0
  0
MTEXT
  5
B883
330
B87B
100
AcDbEntity
  8
AM_5
 62
     2
100
AcDbMText
 10
288.4832546217655
 20
220.6384421888022
 30
0.0
 40
3.200000000000001
 41
0.0
 71
     5
 72
     1
  1
B
 73
     1
 44
1.0
1001
ACAD
1000
MTEXTBEGIN
1070
    73
1070
     1
1070
    44
1040
1.0
1070
    74
1070
     0
1000
MTEXTEND
  0
POINT
  5
B884
330
B87B
100
AcDbEntity
  8
Defpoints
 62
     0
100
AcDbPoint
 10
283.9832596217655
 20
205.5384421888022
 30
0.0
  0
POINT
  5
B885
330
B87B
100
AcDbEntity
  8
Defpoints
 62
     0
100
AcDbPoint
 10
292.9832496217655
 20
205.5384321888024
 30
0.0
  0
POINT
  5
B886
330
B87B
100
AcDbEntity
  8
Defpoints
 62
     0
100
AcDbPoint
 10
292.9832496217655
 20
217.5384421888022
 30
0.0
  0
ENDBLK
  5
B87D
330
B87B
100
AcDbEntity
  8
0
100
AcDbBlockEnd
  0
BLOCK
  5
B888
330
B887
100
AcDbEntity
  8
0
100
AcDbBlockBegin
  2
*D18
 70
     1
 10
0.0
 20
0.0
 30
0.0
  3
*D18
  1

  0
LINE
  5
B88A
330
B887
100
AcDbEntity
  8
AM_5
100
AcDbLine
 10
297.4832596217654
 20
189.5384421888022
 30
0.0
 11
297.4832596217654
 21
228.5384421888018
 31
0.0
  0
LINE
  5
B88B
330
B887
100
AcDbEntity
  8
AM_5
100
AcDbLine
 10
279.4832496217656
 20
189.5384421888022
 30
0.0
 11
279.4832496217656
 21
228.5384421888018
 31
0.0
  0
LINE
  5
B88C
330
B887
100
AcDbEntity
  8
AM_5
100
AcDbLine
 10
296.4832596217655
 20
227.5384421888018
 30
0.0
 11
280.4832496217656
 21
227.5384421888018
 31
0.0
  0
INSERT
  5
B88D
330
B887
100
AcDbEntity
  8
AM_5
100
AcDbBlockReference
  2
_Dot
 10
297.4832596217654
 20
227.5384421888018
 30
0.0
  0
INSERT
  5
B88E
330
B887
100
AcDbEntity
  8
AM_5
100
AcDbBlockReference
  2
_Dot
 10
279.4832496217656
 20
227.5384421888018
 30
0.0
 50
180.0
  0
MTEXT
  5
B88F
330
B887
100
AcDbEntity
  8
AM_5
 62
     2
100
AcDbMText
 10
288.4832546217655
 20
230.6384421888018
 30
0.0
 40
3.200000000000001
 41
0.0
 71
     5
 72
     1
  1
C
 73
     1
 44
1.0
1001
ACAD
1000
MTEXTBEGIN
1070
    73
1070
     1
1070
    44
1040
1.0
1070
    74
1070
     0
1000
MTEXTEND
  0
POINT
  5
B890
330
B887
100
AcDbEntity
  8
Defpoints
 62
     0
100
AcDbPoint
 10
297.4832596217654
 20
188.5384421888022
 30
0.0
  0
POINT
  5
B891
330
B887
100
AcDbEntity
  8
Defpoints
 62
     0
100
AcDbPoint
 10
279.4832496217656
 20
188.5384421888022
 30
0.0
  0
POINT
  5
B892
330
B887
100
AcDbEntity
  8
Defpoints
 62
     0
100
AcDbPoint
 10
279.4832496217656
 20
227.5384421888018
 30
0.0
  0
ENDBLK
  5
B889
330
B887
100
AcDbEntity
  8
0
100
AcDbBlockEnd
  0
BLOCK
  5
B894
330
B893
100
AcDbEntity
  8
0
100
AcDbBlockBegin
  2
*D19
 70
     1
 10
0.0
 20
0.0
 30
0.0
  3
*D19
  1

  0
LINE
  5
B896
330
B893
100
AcDbEntity
  8
AM_5
100
AcDbLine
 10
282.4832496217655
 20
151.8403631888024
 30
0.0
 11
282.4832496217655
 21
139.8403631888024
 31
0.0
  0
LINE
  5
B897
330
B893
100
AcDbEntity
  8
AM_5
100
AcDbLine
 10
294.4832496217655
 20
151.8403631888024
 30
0.0
 11
294.4832496217655
 21
139.8403631888024
 31
0.0
  0
LINE
  5
B898
330
B893
100
AcDbEntity
  8
AM_5
100
AcDbLine
 10
283.4832496217655
 20
140.8403631888024
 30
0.0
 11
293.4832496217655
 21
140.8403631888024
 31
0.0
  0
INSERT
  5
B899
330
B893
100
AcDbEntity
  8
AM_5
100
AcDbBlockReference
  2
_Dot
 10
282.4832496217655
 20
140.8403631888024
 30
0.0
 50
180.0
  0
INSERT
  5
B89A
330
B893
100
AcDbEntity
  8
AM_5
100
AcDbBlockReference
  2
_Dot
 10
294.4832496217655
 20
140.8403631888024
 30
0.0
  0
MTEXT
  5
B89B
330
B893
100
AcDbEntity
  8
AM_5
 62
     2
100
AcDbMText
 10
288.4832496217655
 20
143.9403631888024
 30
0.0
 40
3.200000000000001
 41
0.0
 71
     5
 72
     1
  1
D
 73
     1
 44
1.0
1001
ACAD
1000
MTEXTBEGIN
1070
    73
1070
     1
1070
    44
1040
1.0
1070
    74
1070
     0
1000
MTEXTEND
  0
POINT
  5
B89C
330
B893
100
AcDbEntity
  8
Defpoints
 62
     0
100
AcDbPoint
 10
282.4832496217655
 20
152.8403631888024
 30
0.0
  0
POINT
  5
B89D
330
B893
100
AcDbEntity
  8
Defpoints
 62
     0
100
AcDbPoint
 10
294.4832496217655
 20
152.8403631888024
 30
0.0
  0
POINT
  5
B89E
330
B893
100
AcDbEntity
  8
Defpoints
 62
     0
100
AcDbPoint
 10
294.4832496217655
 20
140.8403631888024
 30
0.0
  0
ENDBLK
  5
B895
330
B893
100
AcDbEntity
  8
0
100
AcDbBlockEnd
  0
BLOCK
  5
B8A0
330
B89F
100
AcDbEntity
  8
0
100
AcDbBlockBegin
  2
*D20
 70
     1
 10
0.0
 20
0.0
 30
0.0
  3
*D20
  1

  0
LINE
  5
B8A2
330
B89F
100
AcDbEntity
  8
AM_5
100
AcDbLine
 10
295.4832496217655
 20
169.5384421888022
 30
0.0
 11
310.4832606217655
 21
169.5384421888022
 31
0.0
  0
LINE
  5
B8A3
330
B89F
100
AcDbEntity
  8
AM_5
100
AcDbLine
 10
293.9832496217655
 20
158.5384321888024
 30
0.0
 11
310.4832606217655
 21
158.5384321888024
 31
0.0
  0
LINE
  5
B8A4
330
B89F
100
AcDbEntity
  8
AM_5
100
AcDbLine
 10
309.4832606217654
 20
168.5384421888022
 30
0.0
 11
309.4832606217654
 21
159.5384321888024
 31
0.0
  0
INSERT
  5
B8A5
330
B89F
100
AcDbEntity
  8
AM_5
100
AcDbBlockReference
  2
_Dot
 10
309.4832606217654
 20
169.5384421888022
 30
0.0
 50
90.0
  0
INSERT
  5
B8A6
330
B89F
100
AcDbEntity
  8
AM_5
100
AcDbBlockReference
  2
_Dot
 10
309.4832606217654
 20
158.5384321888024
 30
0.0
 50
270.0
  0
MTEXT
  5
B8A7
330
B89F
100
AcDbEntity
  8
AM_5
 62
     2
100
AcDbMText
 10
306.3832606217654
 20
164.0384371888023
 30
0.0
 40
3.200000000000001
 41
0.0
 71
     5
 72
     1
  1
E
 11
0.0000000000000001
 21
1.0
 31
0.0
 73
     1
 44
1.0
1001
ACAD
1000
MTEXTBEGIN
1070
    73
1070
     1
1070
    44
1040
1.0
1070
    74
1070
     0
1000
MTEXTEND
  0
POINT
  5
B8A8
330
B89F
100
AcDbEntity
  8
Defpoints
 62
     0
100
AcDbPoint
 10
294.4832496217655
 20
169.5384421888022
 30
0.0
  0
POINT
  5
B8A9
330
B89F
100
AcDbEntity
  8
Defpoints
 62
     0
100
AcDbPoint
 10
292.9832496217655
 20
158.5384321888024
 30
0.0
  0
POINT
  5
B8AA
330
B89F
100
AcDbEntity
  8
Defpoints
 62
     0
100
AcDbPoint
 10
309.4832606217654
 20
158.5384321888024
 30
0.0
  0
ENDBLK
  5
B8A1
330
B89F
100
AcDbEntity
  8
0
100
AcDbBlockEnd
  0
BLOCK
  5
B8AC
330
B8AB
100
AcDbEntity
  8
0
100
AcDbBlockBegin
  2
*D21
 70
     1
 10
0.0
 20
0.0
 30
0.0
  3
*D21
  1

  0
LINE
  5
B8AE
330
B8AB
100
AcDbEntity
  8
AM_5
100
AcDbLine
 10
116.3403936217655
 20
107.9984831888024
 30
0.0
 11
116.3403936217655
 21
95.99848318880237
 31
0.0
  0
LINE
  5
B8AF
330
B8AB
100
AcDbEntity
  8
AM_5
100
AcDbLine
 10
210.6261106217655
 20
107.9984831888024
 30
0.0
 11
210.6261106217655
 21
95.99848318880237
 31
0.0
  0
LINE
  5
B8B0
330
B8AB
100
AcDbEntity
  8
AM_5
100
AcDbLine
 10
117.3403936217655
 20
96.99848318880237
 30
0.0
 11
209.6261106217655
 21
96.99848318880237
 31
0.0
  0
INSERT
  5
B8B1
330
B8AB
100
AcDbEntity
  8
AM_5
100
AcDbBlockReference
  2
_Dot
 10
116.3403936217655
 20
96.99848318880237
 30
0.0
 50
180.0
  0
INSERT
  5
B8B2
330
B8AB
100
AcDbEntity
  8
AM_5
100
AcDbBlockReference
  2
_Dot
 10
210.6261106217655
 20
96.99848318880237
 30
0.0
  0
MTEXT
  5
B8B3
330
B8AB
100
AcDbEntity
  8
AM_5
 62
     2
100
AcDbMText
 10
163.4832521217655
 20
100.0984831888023
 30
0.0
 40
3.200000000000001
 41
0.0
 71
     5
 72
     1
  1
F
 73
     1
 44
1.0
1001
ACAD
1000
MTEXTBEGIN
1070
    73
1070
     1
1070
    44
1040
1.0
1070
    74
1070
     0
1000
MTEXTEND
  0
POINT
  5
B8B4
330
B8AB
100
AcDbEntity
  8
Defpoints
 62
     0
100
AcDbPoint
 10
116.3403936217655
 20
108.9984831888024
 30
0.0
  0
POINT
  5
B8B5
330
B8AB
100
AcDbEntity
  8
Defpoints
 62
     0
100
AcDbPoint
 10
210.6261106217655
 20
108.9984831888024
 30
0.0
  0
POINT
  5
B8B6
330
B8AB
100
AcDbEntity
  8
Defpoints
 62
     0
100
AcDbPoint
 10
210.6261106217655
 20
96.99848318880237
 30
0.0
  0
ENDBLK
  5
B8AD
330
B8AB
100
AcDbEntity
  8
0
100
AcDbBlockEnd
  0
BLOCK
  5
B8B8
330
B8B7
100
AcDbEntity
  8
0
100
AcDbBlockBegin
  2
*D22
 70
     1
 10
0.0
 20
0.0
 30
0.0
  3
*D22
  1

  0
LINE
  5
B8BA
330
B8B7
100
AcDbEntity
  8
AM_5
100
AcDbLine
 10
108.4832496217656
 20
111.9270521888024
 30
0.0
 11
108.4832496217656
 21
85.99848318880182
 31
0.0
  0
LINE
  5
B8BB
330
B8B7
100
AcDbEntity
  8
AM_5
100
AcDbLine
 10
218.4832536217656
 20
111.9270521888024
 30
0.0
 11
218.4832536217656
 21
85.99848318880182
 31
0.0
  0
LINE
  5
B8BC
330
B8B7
100
AcDbEntity
  8
AM_5
100
AcDbLine
 10
109.4832496217656
 20
86.99848318880183
 30
0.0
 11
217.4832536217656
 21
86.99848318880183
 31
0.0
  0
INSERT
  5
B8BD
330
B8B7
100
AcDbEntity
  8
AM_5
100
AcDbBlockReference
  2
_Dot
 10
108.4832496217656
 20
86.99848318880183
 30
0.0
 50
180.0
  0
INSERT
  5
B8BE
330
B8B7
100
AcDbEntity
  8
AM_5
100
AcDbBlockReference
  2
_Dot
 10
218.4832536217656
 20
86.99848318880183
 30
0.0
  0
MTEXT
  5
B8BF
330
B8B7
100
AcDbEntity
  8
AM_5
 62
     2
100
AcDbMText
 10
163.4832516217656
 20
90.09848318880182
 30
0.0
 40
3.200000000000001
 41
0.0
 71
     5
 72
     1
  1
G
 73
     1
 44
1.0
1001
ACAD
1000
MTEXTBEGIN
1070
    73
1070
     1
1070
    44
1040
1.0
1070
    74
1070
     0
1000
MTEXTEND
  0
POINT
  5
B8C0
330
B8B7
100
AcDbEntity
  8
Defpoints
 62
     0
100
AcDbPoint
 10
108.4832496217656
 20
112.9270521888024
 30
0.0
  0
POINT
  5
B8C1
330
B8B7
100
AcDbEntity
  8
Defpoints
 62
     0
100
AcDbPoint
 10
218.4832536217656
 20
112.9270521888024
 30
0.0
  0
POINT
  5
B8C2
330
B8B7
100
AcDbEntity
  8
Defpoints
 62
     0
100
AcDbPoint
 10
218.4832536217656
 20
86.99848318880183
 30
0.0
  0
ENDBLK
  5
B8B9
330
B8B7
100
AcDbEntity
  8
0
100
AcDbBlockEnd
  0
BLOCK
  5
B8C4
330
B8C3
100
AcDbEntity
  8
0
100
AcDbBlockBegin
  2
*D23
 70
     1
 10
0.0
 20
0.0
 30
0.0
  3
*D23
  1

  0
LINE
  5
B8C6
330
B8C3
100
AcDbEntity
  8
AM_5
100
AcDbLine
 10
219.4832536217656
 20
169.5384421888022
 30
0.0
 11
231.4832536217656
 21
169.5384421888022
 31
0.0
  0
LINE
  5
B8C7
330
B8C3
100
AcDbEntity
  8
AM_5
100
AcDbLine
 10
182.9832551217655
 20
152.8403631888024
 30
0.0
 11
231.4832536217656
 21
152.8403631888023
 31
0.0
  0
LINE
  5
B8C8
330
B8C3
100
AcDbEntity
  8
AM_5
100
AcDbLine
 10
230.4832536217656
 20
168.5384421888022
 30
0.0
 11
230.4832536217656
 21
153.8403631888023
 31
0.0
  0
INSERT
  5
B8C9
330
B8C3
100
AcDbEntity
  8
AM_5
100
AcDbBlockReference
  2
_Dot
 10
230.4832536217656
 20
169.5384421888022
 30
0.0
 50
90.0
  0
INSERT
  5
B8CA
330
B8C3
100
AcDbEntity
  8
AM_5
100
AcDbBlockReference
  2
_Dot
 10
230.4832536217656
 20
152.8403631888023
 30
0.0
 50
270.0
  0
MTEXT
  5
B8CB
330
B8C3
100
AcDbEntity
  8
AM_5
 62
     2
100
AcDbMText
 10
227.3832536217656
 20
161.1894026888023
 30
0.0
 40
3.200000000000001
 41
0.0
 71
     5
 72
     1
  1
H
 11
0.0000000000000001
 21
1.0
 31
0.0
 73
     1
 44
1.0
1001
ACAD
1000
MTEXTBEGIN
1070
    73
1070
     1
1070
    44
1040
1.0
1070
    74
1070
     0
1000
MTEXTEND
  0
POINT
  5
B8CC
330
B8C3
100
AcDbEntity
  8
Defpoints
 62
     0
100
AcDbPoint
 10
218.4832536217656
 20
169.5384421888022
 30
0.0
  0
POINT
  5
B8CD
330
B8C3
100
AcDbEntity
  8
Defpoints
 62
     0
100
AcDbPoint
 10
181.9832551217655
 20
152.8403631888024
 30
0.0
  0
POINT
  5
B8CE
330
B8C3
100
AcDbEntity
  8
Defpoints
 62
     0
100
AcDbPoint
 10
230.4832536217656
 20
152.8403631888023
 30
0.0
  0
ENDBLK
  5
B8C5
330
B8C3
100
AcDbEntity
  8
0
100
AcDbBlockEnd
  0
BLOCK
  5
B8D0
330
B8CF
100
AcDbEntity
  8
0
100
AcDbBlockBegin
  2
*D24
 70
     1
 10
0.0
 20
0.0
 30
0.0
  3
*D24
  1

  0
LINE
  5
B8D2
330
B8CF
100
AcDbEntity
  8
AM_5
100
AcDbLine
 10
199.4832666217655
 20
170.5384421888022
 30
0.0
 11
199.4832666217655
 21
216.8671012843203
 31
0.0
  0
LINE
  5
B8D3
330
B8CF
100
AcDbEntity
  8
AM_5
100
AcDbLine
 10
127.4832536217656
 20
170.5384421888022
 30
0.0
 11
127.4832536217656
 21
216.8671012843203
 31
0.0
  0
LINE
  5
B8D4
330
B8CF
100
AcDbEntity
  8
AM_5
100
AcDbLine
 10
198.4832666217655
 20
215.8671012843203
 30
0.0
 11
128.4832536217656
 21
215.8671012843203
 31
0.0
  0
INSERT
  5
B8D5
330
B8CF
100
AcDbEntity
  8
AM_5
100
AcDbBlockReference
  2
_Dot
 10
199.4832666217655
 20
215.8671012843203
 30
0.0
  0
INSERT
  5
B8D6
330
B8CF
100
AcDbEntity
  8
AM_5
100
AcDbBlockReference
  2
_Dot
 10
127.4832536217656
 20
215.8671012843203
 30
0.0
 50
180.0
  0
MTEXT
  5
B8D7
330
B8CF
100
AcDbEntity
  8
AM_5
 62
     2
100
AcDbMText
 10
163.4832601217655
 20
218.9671012843203
 30
0.0
 40
3.200000000000001
 41
0.0
 71
     5
 72
     1
  1
I
 73
     1
 44
1.0
1001
ACAD
1000
MTEXTBEGIN
1070
    73
1070
     1
1070
    44
1040
1.0
1070
    74
1070
     0
1000
MTEXTEND
  0
POINT
  5
B8D8
330
B8CF
100
AcDbEntity
  8
Defpoints
 62
     0
100
AcDbPoint
 10
199.4832666217655
 20
169.5384421888022
 30
0.0
  0
POINT
  5
B8D9
330
B8CF
100
AcDbEntity
  8
Defpoints
 62
     0
100
AcDbPoint
 10
127.4832536217656
 20
169.5384421888022
 30
0.0
  0
POINT
  5
B8DA
330
B8CF
100
AcDbEntity
  8
Defpoints
 62
     0
100
AcDbPoint
 10
127.4832536217656
 20
215.8671012843203
 30
0.0
  0
ENDBLK
  5
B8D1
330
B8CF
100
AcDbEntity
  8
0
100
AcDbBlockEnd
  0
BLOCK
  5
B8DC
330
B8DB
100
AcDbEntity
  8
0
100
AcDbBlockBegin
  2
*D25
 70
     1
 10
0.0
 20
0.0
 30
0.0
  3
*D25
  1

  0
LINE
  5
B8DE
330
B8DB
100
AcDbEntity
  8
AM_5
100
AcDbLine
 10
208.6263852128479
 20
118.1191624890566
 30
0.0
 11
212.6258360306837
 21
122.3492238885485
 31
0.0
  0
LINE
  5
B8DF
330
B8DB
100
AcDbEntity
  8
AM_5
100
AcDbLine
 10
213.9998805711062
 20
123.8024966093189
 30
0.0
 11
226.1985676797364
 21
136.7045668717103
 31
0.0
  0
LINE
  5
B8E0
330
B8DB
100
AcDbEntity
  8
AM_5
100
AcDbLine
 10
226.1985676797364
 20
136.7045668717103
 30
0.0
 11
234.1152343464031
 21
136.7045668717103
 31
0.0
  0
INSERT
  5
B8E1
330
B8DB
100
AcDbEntity
  8
AM_5
100
AcDbBlockReference
  2
GENDOT
 10
207.2523406724255
 20
116.6658897682862
 30
0.0
 41
2.0
 42
2.0
 43
2.0
 50
226.6051444842635
  0
INSERT
  5
B8E2
330
B8DB
100
AcDbEntity
  8
AM_5
100
AcDbBlockReference
  2
GENDOT
 10
213.9998805711062
 20
123.8024966093189
 30
0.0
 41
2.0
 42
2.0
 43
2.0
 50
46.6051444842635
  0
MTEXT
  5
B8E3
330
B8DB
100
AcDbEntity
  8
AM_5
 62
     2
100
AcDbMText
 10
230.9069010130698
 20
139.9545668717103
 30
0.0
 40
3.5
 41
0.0
 71
     5
 72
     1
  1
2-J
 73
     1
 44
1.0
1001
ACAD
1000
MTEXTBEGIN
1070
    73
1070
     1
1070
    44
1040
1.0
1070
    74
1070
     0
1000
MTEXTEND
  0
POINT
  5
B8E4
330
B8DB
100
AcDbEntity
  8
Defpoints
 62
     0
100
AcDbPoint
 10
213.9998805711062
 20
123.8024966093189
 30
0.0
  0
POINT
  5
B8E5
330
B8DB
100
AcDbEntity
  8
Defpoints
 62
     0
100
AcDbPoint
 10
207.2523406724255
 20
116.6658897682862
 30
0.0
  0
ENDBLK
  5
B8DD
330
B8DB
100
AcDbEntity
  8
0
100
AcDbBlockEnd
  0
ENDSEC
  0
SECTION
  2
ENTITIES
  0
LINE
  5
B776
330
1F
100
AcDbEntity
  8
AM_2
100
AcDbLine
 10
31.4999996894866
 20
288.4999997489954
 30
0.0
 11
31.49999968948658
 21
240.4999997489954
 31
0.0
  0
LINE
  5
B777
330
1F
100
AcDbEntity
  8
AM_2
100
AcDbLine
 10
11.49999968948659
 20
280.4999997489954
 30
0.0
 11
121.4999996894866
 21
280.4999997489954
 31
0.0
  0
LINE
  5
B778
330
1F
100
AcDbEntity
  8
AM_2
100
AcDbLine
 10
11.49999968948659
 20
272.4999997489954
 30
0.0
 11
121.4999996894866
 21
272.4999997489954
 31
0.0
  0
LINE
  5
B779
330
1F
100
AcDbEntity
  8
AM_2
100
AcDbLine
 10
11.49999968948659
 20
264.4999997489954
 30
0.0
 11
121.4999996894866
 21
264.4999997489954
 31
0.0
  0
LINE
  5
B77A
330
1F
100
AcDbEntity
  8
AM_2
100
AcDbLine
 10
11.49999968948658
 20
248.4999997489954
 30
0.0
 11
121.4999996894866
 21
248.4999997489954
 31
0.0
  0
LINE
  5
B77B
330
1F
100
AcDbEntity
  8
AM_0
100
AcDbLine
 10
11.49999968948658
 20
240.4999997489954
 30
0.0
 11
121.4999996894866
 21
240.4999997489954
 31
0.0
  0
LINE
  5
B77C
330
1F
100
AcDbEntity
  8
0
  6
Continuous
 62
     7
100
AcDbLine
 10
11.49999968948659
 20
288.4999997489954
 30
0.0
 11
11.49999968948658
 21
240.4999997489954
 31
0.0
  0
LINE
  5
B77D
330
1F
100
AcDbEntity
  8
0
  6
Continuous
 62
     7
100
AcDbLine
 10
11.49999968948659
 20
288.4999997489954
 30
0.0
 11
121.4999996894866
 21
288.4999997489954
 31
0.0
  0
LINE
  5
B77E
330
1F
100
AcDbEntity
  8
AM_0
100
AcDbLine
 10
121.4999996894866
 20
288.4999997489954
 30
0.0
 11
121.4999996894866
 21
240.4999997489954
 31
0.0
  0
LINE
  5
B77F
330
1F
100
AcDbEntity
  8
AM_2
100
AcDbLine
 10
11.49999968948658
 20
256.4999997489954
 30
0.0
 11
121.4999996894866
 21
256.4999997489954
 31
0.0
  0
TEXT
  5
B780
330
1F
100
AcDbEntity
  8
AM_6
100
AcDbText
 10
17.1569996894866
 20
282.8999997489952
 30
0.0
 40
3.2
  1
品　名
 41
0.85537027
100
AcDbText
  0
TEXT
  5
B781
330
1F
100
AcDbEntity
  8
AM_6
100
AcDbText
 10
17.1569996894866
 20
274.8999997489954
 30
0.0
 40
3.2
  1
品　番
 41
0.85537027
100
AcDbText
  0
TEXT
  5
B782
330
1F
100
AcDbEntity
  8
AM_6
100
AcDbText
 10
17.1569996894866
 20
266.8999997489954
 30
0.0
 40
3.2
  1
材　質
 41
0.85537027
100
AcDbText
  0
TEXT
  5
B783
330
1F
100
AcDbEntity
  8
AM_6
100
AcDbText
 10
17.1569996894866
 20
258.8999997489953
 30
0.0
 40
3.2
  1
仕上げ
 41
0.85537027
100
AcDbText
  0
TEXT
  5
B784
330
1F
100
AcDbEntity
  8
AM_6
100
AcDbText
 10
13.95699968948657
 20
250.8999997489954
 30
0.0
 40
3.2
  1
セットビス
 41
0.84892707
100
AcDbText
  0
TEXT
  5
B785
330
1F
100
AcDbEntity
  8
AM_6
100
AcDbText
 10
18.75699968948639
 20
242.8999997489954
 30
0.0
 40
3.2
  1
備考
 41
0.8643907499999999
100
AcDbText
  0
TEXT
  5
B786
330
1F
100
AcDbEntity
  8
AM_6
100
AcDbText
 10
34.3569996894866
 20
282.8999997489952
 30
0.0
 40
3.2
  1
戸車
 41
0.84496202
100
AcDbText
  0
TEXT
  5
B787
330
1F
100
AcDbEntity
  8
AM_6
100
AcDbText
 10
34.3569996894866
 20
274.8999997489954
 30
0.0
 40
3.2
  1
ST-149
 41
1.094241999999999
100
AcDbText
  0
TEXT
  5
B788
330
1F
100
AcDbEntity
  8
AM_6
100
AcDbText
 10
34.35699968948659
 20
250.8999997489954
 30
0.0
 40
3.2
  1
無し
100
AcDbText
  0
TEXT
  5
B789
330
1F
100
AcDbEntity
  8
AM_6
100
AcDbText
 10
34.35699968948659
 20
242.8999997489954
 30
0.0
 40
3.2
  1
※軸受：ボールベアリング
 41
0.8440946700000001
100
AcDbText
  0
LINE
  5
B78A
330
1F
100
AcDbEntity
  8
size
100
AcDbLine
 10
-0.0000003105134283
 20
-0.0000002510046215
 30
0.0
 11
419.9999996894865
 21
-0.0000002510046215
 31
0.0
1001
GENIUS_GENREC_14
1002
{
1000
PYDIR
1011
-0.0000003105134105
1021
296.9999997489954
1031
0.0
1002
}
1002
{
1000
PXDIR
1011
419.9999996894865
1021
-0.0000002510046215
1031
0.0
1002
}
1002
{
1000
PORI
1011
-0.0000003105134283
1021
-0.0000002510046215
1031
0.0
1002
}
1002
{
1000
PINS
1011
209.9999996894866
1021
148.4999997489953
1031
0.0
1002
}
1002
{
1000
HVAL
1000
297
1002
}
1002
{
1000
H
1070
     2
1002
}
1002
{
1000
WVAL
1000
420
1002
}
1002
{
1000
W
1070
     2
1002
}
1002
{
1000
C
1070
     4
1002
}
1001
GENIUS_GENOBJ-N-REC_13
1002
{
1000
OWNER
1000
GEN
1002
}
1001
GENIUS_GENODEF_13
1002
{
1000
HIER
1070
     0
1002
}
1002
{
1000
MANEDIT
1070
     0
1002
}
1002
{
1000
NOSEL
1070
     0
1002
}
1002
{
1000
BEHIND
1070
     0
1002
}
1002
{
1000
OTHER
1070
     0
1002
}
1002
{
1000
REACTOR
1002
}
  0
LINE
  5
B78B
330
1F
100
AcDbEntity
  8
size
100
AcDbLine
 10
419.9999996894865
 20
-0.0000002510046215
 30
0.0
 11
419.9999996894865
 21
296.9999997489954
 31
0.0
1001
GENIUS_GENREC_14
1002
{
1000
PYDIR
1011
-0.0000003105134105
1021
296.9999997489954
1031
0.0
1002
}
1002
{
1000
PXDIR
1011
419.9999996894865
1021
-0.0000002510046215
1031
0.0
1002
}
1002
{
1000
PORI
1011
-0.0000003105134283
1021
-0.0000002510046215
1031
0.0
1002
}
1002
{
1000
PINS
1011
209.9999996894866
1021
148.4999997489953
1031
0.0
1002
}
1002
{
1000
HVAL
1000
297
1002
}
1002
{
1000
H
1070
     2
1002
}
1002
{
1000
WVAL
1000
420
1002
}
1002
{
1000
W
1070
     2
1002
}
1002
{
1000
C
1070
     4
1002
}
1001
GENIUS_GENOBJ-N-REC_13
1002
{
1000
OWNER
1000
GEN
1002
}
1001
GENIUS_GENODEF_13
1002
{
1000
HIER
1070
     0
1002
}
1002
{
1000
MANEDIT
1070
     0
1002
}
1002
{
1000
NOSEL
1070
     0
1002
}
1002
{
1000
BEHIND
1070
     0
1002
}
1002
{
1000
OTHER
1070
     0
1002
}
1002
{
1000
REACTOR
1002
}
  0
LINE
  5
B78C
330
1F
100
AcDbEntity
  8
size
100
AcDbLine
 10
419.9999996894865
 20
296.9999997489954
 30
0.0
 11
-0.0000003105134008
 21
296.9999997489954
 31
0.0
1001
GENIUS_GENREC_14
1002
{
1000
PYDIR
1011
-0.0000003105134105
1021
296.9999997489954
1031
0.0
1002
}
1002
{
1000
PXDIR
1011
419.9999996894865
1021
-0.0000002510046215
1031
0.0
1002
}
1002
{
1000
PORI
1011
-0.0000003105134283
1021
-0.0000002510046215
1031
0.0
1002
}
1002
{
1000
PINS
1011
209.9999996894866
1021
148.4999997489953
1031
0.0
1002
}
1002
{
1000
HVAL
1000
297
1002
}
1002
{
1000
H
1070
     2
1002
}
1002
{
1000
WVAL
1000
420
1002
}
1002
{
1000
W
1070
     2
1002
}
1002
{
1000
C
1070
     4
1002
}
1001
GENIUS_GENOBJ-N-REC_13
1002
{
1000
OWNER
1000
GEN
1002
}
1001
GENIUS_GENODEF_13
1002
{
1000
HIER
1070
     0
1002
}
1002
{
1000
MANEDIT
1070
     0
1002
}
1002
{
1000
NOSEL
1070
     0
1002
}
1002
{
1000
BEHIND
1070
     0
1002
}
1002
{
1000
OTHER
1070
     0
1002
}
1002
{
1000
REACTOR
1002
}
  0
LINE
  5
B78D
330
1F
100
AcDbEntity
  8
size
100
AcDbLine
 10
-0.0000003105134008
 20
296.9999997489954
 30
0.0
 11
-0.0000003105134283
 21
-0.0000002510046215
 31
0.0
1001
GENIUS_GENREC_14
1002
{
1000
PYDIR
1011
-0.0000003105134105
1021
296.9999997489954
1031
0.0
1002
}
1002
{
1000
PXDIR
1011
419.9999996894865
1021
-0.0000002510046215
1031
0.0
1002
}
1002
{
1000
PORI
1011
-0.0000003105134283
1021
-0.0000002510046215
1031
0.0
1002
}
1002
{
1000
PINS
1011
209.9999996894866
1021
148.4999997489953
1031
0.0
1002
}
1002
{
1000
HVAL
1000
297
1002
}
1002
{
1000
H
1070
     2
1002
}
1002
{
1000
WVAL
1000
420
1002
}
1002
{
1000
W
1070
     2
1002
}
1002
{
1000
C
1070
     4
1002
}
1001
GENIUS_GENOBJ-N-REC_13
1002
{
1000
OWNER
1000
GEN
1002
}
1001
GENIUS_GENODEF_13
1002
{
1000
HIER
1070
     0
1002
}
1002
{
1000
MANEDIT
1070
     0
1002
}
1002
{
1000
NOSEL
1070
     0
1002
}
1002
{
1000
BEHIND
1070
     0
1002
}
1002
{
1000
OTHER
1070
     0
1002
}
1002
{
1000
REACTOR
1002
}
  0
LINE
  5
B78E
330
1F
100
AcDbEntity
  8
waku
100
AcDbLine
 10
408.4999996894865
 20
8.499999748995378
 30
0.0
 11
408.4999996894866
 21
288.4999997489954
 31
0.0
1001
GENIUS_GENREC_14
1002
{
1000
PYDIR
1011
-0.0000003105134105
1021
296.9999997489954
1031
0.0
1002
}
1002
{
1000
PXDIR
1011
419.9999996894865
1021
-0.0000002510046215
1031
0.0
1002
}
1002
{
1000
PORI
1011
-0.0000003105134283
1021
-0.0000002510046215
1031
0.0
1002
}
1002
{
1000
PINS
1011
209.9999996894866
1021
148.4999997489953
1031
0.0
1002
}
1002
{
1000
HVAL
1000
297
1002
}
1002
{
1000
H
1070
     2
1002
}
1002
{
1000
WVAL
1000
420
1002
}
1002
{
1000
W
1070
     2
1002
}
1002
{
1000
C
1070
     4
1002
}
1001
GENIUS_GENOBJ-N-REC_13
1002
{
1000
OWNER
1000
GEN
1002
}
1001
GENIUS_GENODEF_13
1002
{
1000
HIER
1070
     0
1002
}
1002
{
1000
MANEDIT
1070
     0
1002
}
1002
{
1000
NOSEL
1070
     0
1002
}
1002
{
1000
BEHIND
1070
     0
1002
}
1002
{
1000
OTHER
1070
     0
1002
}
1002
{
1000
REACTOR
1002
}
  0
LINE
  5
B78F
330
1F
100
AcDbEntity
  8
waku
100
AcDbLine
 10
11.49999968948659
 20
288.4999997489954
 30
0.0
 11
11.49999968948657
 21
8.499999748995378
 31
0.0
1001
GENIUS_GENREC_14
1002
{
1000
PYDIR
1011
-0.0000003105134105
1021
296.9999997489954
1031
0.0
1002
}
1002
{
1000
PXDIR
1011
419.9999996894865
1021
-0.0000002510046215
1031
0.0
1002
}
1002
{
1000
PORI
1011
-0.0000003105134283
1021
-0.0000002510046215
1031
0.0
1002
}
1002
{
1000
PINS
1011
209.9999996894866
1021
148.4999997489953
1031
0.0
1002
}
1002
{
1000
HVAL
1000
297
1002
}
1002
{
1000
H
1070
     2
1002
}
1002
{
1000
WVAL
1000
420
1002
}
1002
{
1000
W
1070
     2
1002
}
1002
{
1000
C
1070
     4
1002
}
1001
GENIUS_GENOBJ-N-REC_13
1002
{
1000
OWNER
1000
GEN
1002
}
1001
GENIUS_GENODEF_13
1002
{
1000
HIER
1070
     0
1002
}
1002
{
1000
MANEDIT
1070
     0
1002
}
1002
{
1000
NOSEL
1070
     0
1002
}
1002
{
1000
BEHIND
1070
     0
1002
}
1002
{
1000
OTHER
1070
     0
1002
}
1002
{
1000
REACTOR
1002
}
  0
LINE
  5
B790
330
1F
100
AcDbEntity
  8
waku
100
AcDbLine
 10
408.4999996894866
 20
288.4999997489954
 30
0.0
 11
11.49999968948659
 21
288.4999997489954
 31
0.0
1001
GENIUS_GENREC_14
1002
{
1000
PYDIR
1011
-0.0000003105134105
1021
296.9999997489954
1031
0.0
1002
}
1002
{
1000
PXDIR
1011
419.9999996894865
1021
-0.0000002510046215
1031
0.0
1002
}
1002
{
1000
PORI
1011
-0.0000003105134283
1021
-0.0000002510046215
1031
0.0
1002
}
1002
{
1000
PINS
1011
209.9999996894866
1021
148.4999997489953
1031
0.0
1002
}
1002
{
1000
HVAL
1000
297
1002
}
1002
{
1000
H
1070
     2
1002
}
1002
{
1000
WVAL
1000
420
1002
}
1002
{
1000
W
1070
     2
1002
}
1002
{
1000
C
1070
     4
1002
}
1001
GENIUS_GENOBJ-N-REC_13
1002
{
1000
OWNER
1000
GEN
1002
}
1001
GENIUS_GENODEF_13
1002
{
1000
HIER
1070
     0
1002
}
1002
{
1000
MANEDIT
1070
     0
1002
}
1002
{
1000
NOSEL
1070
     0
1002
}
1002
{
1000
BEHIND
1070
     0
1002
}
1002
{
1000
OTHER
1070
     0
1002
}
1002
{
1000
REACTOR
1002
}
  0
LINE
  5
B791
330
1F
100
AcDbEntity
  8
waku
100
AcDbLine
 10
11.49999968948657
 20
8.499999748995378
 30
0.0
 11
408.4999996894865
 21
8.499999748995378
 31
0.0
  0
POINT
  5
B792
330
1F
100
AcDbEntity
  8
AM_0
100
AcDbPoint
 10
163.4832556217656
 20
120.2341931888024
 30
0.0
  0
POINT
  5
B793
330
1F
100
AcDbEntity
  8
AM_0
100
AcDbPoint
 10
116.3403936217655
 20
112.9270521888024
 30
0.0
  0
POINT
  5
B794
330
1F
100
AcDbEntity
  8
AM_0
100
AcDbPoint
 10
218.4832536217656
 20
169.5384421888022
 30
0.0
  0
POINT
  5
B795
330
1F
100
AcDbEntity
  8
AM_0
100
AcDbPoint
 10
288.4832496217656
 20
205.5384421888022
 30
0.0
  0
POINT
  5
B796
330
1F
100
AcDbEntity
  8
AM_0
100
AcDbPoint
 10
280.4832496217655
 20
152.8403631888024
 30
0.0
  0
POINT
  5
B797
330
1F
100
AcDbEntity
  8
AM_0
100
AcDbPoint
 10
279.4832496217656
 20
182.0384421888022
 30
0.0
  0
POINT
  5
B798
330
1F
100
AcDbEntity
  8
AM_0
100
AcDbPoint
 10
297.4832596217654
 20
182.0384421888022
 30
0.0
  0
POINT
  5
B799
330
1F
100
AcDbEntity
  8
AM_0
100
AcDbPoint
 10
113.3418386217655
 20
116.3452611888024
 30
0.0
  0
POINT
  5
B79A
330
1F
100
AcDbEntity
  8
AM_0
100
AcDbPoint
 10
127.4832116217655
 20
169.5384421888022
 30
0.0
  0
POINT
  5
B79B
330
1F
100
AcDbEntity
  8
AM_0
100
AcDbPoint
 10
199.4832446217655
 20
169.5384421888022
 30
0.0
  0
POINT
  5
B79C
330
1F
100
AcDbEntity
  8
AM_0
100
AcDbPoint
 10
200.4832446217655
 20
169.5384421888022
 30
0.0
  0
POINT
  5
B79D
330
1F
100
AcDbEntity
  8
AM_0
100
AcDbPoint
 10
126.4832116217656
 20
169.5384421888022
 30
0.0
  0
LINE
  5
B79E
330
1F
100
AcDbEntity
  8
AM_0
100
AcDbLine
 10
279.4832496217656
 20
175.5384421888022
 30
0.0
 11
279.4832496217656
 21
175.5384421888022
 31
0.0
  0
LINE
  5
B79F
330
1F
100
AcDbEntity
  8
AM_7
100
AcDbLine
 10
274.4832576217656
 20
182.0384421888022
 30
0.0
 11
302.4832596217655
 21
182.0384421888022
 31
0.0
  0
LINE
  5
B7A0
330
1F
100
AcDbEntity
  8
AM_0
100
AcDbLine
 10
279.4832496217656
 20
188.5384421888022
 30
0.0
 11
279.4832496217656
 21
175.5384421888022
 31
0.0
  0
LINE
  5
B7A1
330
1F
100
AcDbEntity
  8
AM_0
100
AcDbLine
 10
279.4832496217656
 20
188.5384421888022
 30
0.0
 11
279.4832496217656
 21
188.5384421888022
 31
0.0
  0
LINE
  5
B7A2
330
1F
100
AcDbEntity
  8
AM_0
100
AcDbLine
 10
282.4832496217655
 20
167.5384421888023
 30
0.0
 11
294.4832496217655
 21
167.5384421888023
 31
0.0
  0
LINE
  5
B7A3
330
1F
100
AcDbEntity
  8
AM_0
100
AcDbLine
 10
294.4832496217655
 20
160.5384321888024
 30
0.0
 11
296.4832496217655
 21
160.5384321888024
 31
0.0
  0
LINE
  5
B7A4
330
1F
100
AcDbEntity
  8
AM_0
100
AcDbLine
 10
282.4832596217656
 20
174.0384421888023
 30
0.0
 11
283.9832596217655
 21
174.0384421888023
 31
0.0
  0
LINE
  5
B7A5
330
1F
100
AcDbEntity
  8
AM_0
100
AcDbLine
 10
108.4832576217656
 20
169.5384421888022
 30
0.0
 11
127.4832536217656
 21
169.5384421888022
 31
0.0
  0
LINE
  5
B7A6
330
1F
100
AcDbEntity
  8
AM_0
100
AcDbLine
 10
282.4832496217655
 20
169.5384421888022
 30
0.0
 11
282.4832496217655
 21
199.8403521888024
 31
0.0
  0
LINE
  5
B7A7
330
1F
100
AcDbEntity
  8
AM_7
100
AcDbLine
 10
288.4832496217656
 20
149.2980811888024
 30
0.0
 11
288.4832496217656
 21
210.5384321888023
 31
0.0
  0
LINE
  5
B7A8
330
1F
100
AcDbEntity
  8
AM_0
100
AcDbLine
 10
297.4832596217654
 20
188.5384421888022
 30
0.0
 11
297.4832596217654
 21
175.5384421888022
 31
0.0
  0
LINE
  5
B7A9
330
1F
100
AcDbEntity
  8
AM_0
100
AcDbLine
 10
143.3076786217656
 20
154.8138821888024
 30
0.0
 11
110.1588406217655
 21
160.2630021888024
 31
0.0
  0
LINE
  5
B7AA
330
1F
100
AcDbEntity
  8
AM_0
100
AcDbLine
 10
108.4832576217656
 20
169.5384421888022
 30
0.0
 11
108.4832576217656
 21
162.2365121888024
 31
0.0
  0
LINE
  5
B7AB
330
1F
100
AcDbEntity
  8
AM_0
100
AcDbLine
 10
129.4832496217656
 20
183.8403721888024
 30
0.0
 11
161.2936596217655
 21
199.3354421888023
 31
0.0
  0
LINE
  5
B7AC
330
1F
100
AcDbEntity
  8
AM_0
100
AcDbLine
 10
199.4832456217656
 20
169.5384321888024
 30
0.0
 11
197.4832456217656
 21
183.8403621888024
 31
0.0
  0
LINE
  5
B7AD
330
1F
100
AcDbEntity
  8
AM_0
100
AcDbLine
 10
280.4832496217655
 20
160.5384321888024
 30
0.0
 11
282.4832496217655
 21
160.5384321888024
 31
0.0
  0
LINE
  5
B7AE
330
1F
100
AcDbEntity
  8
AM_0
100
AcDbLine
 10
279.4832576217656
 20
176.0384421888023
 30
0.0
 11
279.4832576217656
 21
176.0384421888023
 31
0.0
  0
LINE
  5
B7AF
330
1F
100
AcDbEntity
  8
AM_0
100
AcDbLine
 10
283.9832596217655
 20
205.5384421888022
 30
0.0
 11
292.9832596217656
 21
205.5384421888022
 31
0.0
  0
LINE
  5
B7B0
330
1F
100
AcDbEntity
  8
AM_0
100
AcDbLine
 10
294.4832496217655
 20
183.8403521888024
 30
0.0
 11
296.4832496217655
 21
183.8403521888024
 31
0.0
  0
LINE
  5
B7B1
330
1F
100
AcDbEntity
  8
AM_0
100
AcDbLine
 10
280.4832496217655
 20
183.8403521888024
 30
0.0
 11
282.4832496217655
 21
183.8403521888024
 31
0.0
  0
LINE
  5
B7B2
330
1F
100
AcDbEntity
  8
AM_0
100
AcDbLine
 10
280.4832496217655
 20
152.8403631888024
 30
0.0
 11
282.4832496217655
 21
152.8403631888024
 31
0.0
  0
LINE
  5
B7B3
330
1F
100
AcDbEntity
  8
AM_0
100
AcDbLine
 10
218.4832536217656
 20
169.5384421888022
 30
0.0
 11
218.4832536217656
 21
162.2365121888024
 31
0.0
  0
LINE
  5
B7B4
330
1F
100
AcDbEntity
  8
AM_0
100
AcDbLine
 10
292.9832596217656
 20
174.0384421888023
 30
0.0
 11
294.4832596217655
 21
174.0384421888023
 31
0.0
  0
LINE
  5
B7B5
330
1F
100
AcDbEntity
  8
AM_0
100
AcDbLine
 10
294.4832496217655
 20
169.5384421888022
 30
0.0
 11
294.4832496217655
 21
199.8403521888024
 31
0.0
  0
LINE
  5
B7B6
330
1F
100
AcDbEntity
  8
AM_0
100
AcDbLine
 10
296.4832496217655
 20
165.5384421888023
 30
0.0
 11
296.4832496217655
 21
152.8403631888024
 31
0.0
  0
LINE
  5
B7B7
330
1F
100
AcDbEntity
  8
AM_0
100
AcDbLine
 10
283.9832496217655
 20
158.5384321888024
 30
0.0
 11
283.9832496217655
 21
165.5384421888023
 31
0.0
  0
LINE
  5
B7B8
330
1F
100
AcDbEntity
  8
AM_0
100
AcDbLine
 10
282.4832596217656
 20
190.0384421888024
 30
0.0
 11
283.9832596217655
 21
190.0384421888024
 31
0.0
  0
LINE
  5
B7B9
330
1F
100
AcDbEntity
  8
AM_0
100
AcDbLine
 10
108.4832576217656
 20
167.5384421888023
 30
0.0
 11
218.4832536217656
 21
167.5384421888023
 31
0.0
  0
LINE
  5
B7BA
330
1F
100
AcDbEntity
  8
AM_0
100
AcDbLine
 10
183.6588427217656
 20
154.8138821888024
 30
0.0
 11
216.8076746217656
 21
160.2630121888024
 31
0.0
  0
LINE
  5
B7BB
330
1F
100
AcDbEntity
  8
AM_7
100
AcDbLine
 10
163.4832556217656
 20
208.5384421888022
 30
0.0
 11
163.4832556217655
 21
149.8403631888024
 31
0.0
  0
LINE
  5
B7BC
330
1F
100
AcDbEntity
  8
AM_0
100
AcDbLine
 10
280.4832496217655
 20
199.8403521888024
 30
0.0
 11
282.4832496217655
 21
199.8403521888024
 31
0.0
  0
LINE
  5
B7BD
330
1F
100
AcDbEntity
  8
AM_0
100
AcDbLine
 10
282.4832496217655
 20
169.5384421888022
 30
0.0
 11
294.4832496217655
 21
169.5384421888022
 31
0.0
  0
LINE
  5
B7BE
330
1F
100
AcDbEntity
  8
AM_0
100
AcDbLine
 10
296.4832496217655
 20
169.5384421888022
 30
0.0
 11
296.4832496217655
 21
199.8403521888024
 31
0.0
  0
LINE
  5
B7BF
330
1F
100
AcDbEntity
  8
AM_0
100
AcDbLine
 10
294.4832496217655
 20
165.5384421888023
 30
0.0
 11
294.4832496217655
 21
152.8403631888024
 31
0.0
  0
LINE
  5
B7C0
330
1F
100
AcDbEntity
  8
AM_0
100
AcDbLine
 10
144.9832536217656
 20
152.8403631888024
 30
0.0
 11
181.9832553217656
 21
152.8403631888024
 31
0.0
  0
LINE
  5
B7C1
330
1F
100
AcDbEntity
  8
AM_0
100
AcDbLine
 10
127.4832116217655
 20
169.5384421888022
 30
0.0
 11
129.4832116217655
 21
183.8403721888024
 31
0.0
  0
LINE
  5
B7C2
330
1F
100
AcDbEntity
  8
AM_0
100
AcDbLine
 10
197.4832636217655
 20
183.8403521888024
 30
0.0
 11
165.6728406217655
 21
199.3354321888024
 31
0.0
  0
LINE
  5
B7C3
330
1F
100
AcDbEntity
  8
AM_0
100
AcDbLine
 10
280.4832496217655
 20
165.5384421888023
 30
0.0
 11
280.4832496217655
 21
152.8403631888024
 31
0.0
  0
LINE
  5
B7C4
330
1F
100
AcDbEntity
  8
AM_0
100
AcDbLine
 10
294.4832496217655
 20
199.8403521888024
 30
0.0
 11
296.4832496217655
 21
199.8403521888024
 31
0.0
  0
LINE
  5
B7C5
330
1F
100
AcDbEntity
  8
AM_0
100
AcDbLine
 10
149.7589096217656
 20
187.4003521888023
 30
0.0
 11
141.6335756217655
 21
178.5697821888023
 31
0.0
  0
LINE
  5
B7C6
330
1F
100
AcDbEntity
  8
AM_0
100
AcDbLine
 10
172.7922961217656
 20
183.3376521888023
 30
0.0
 11
180.9176281217655
 21
174.5070821888023
 31
0.0
  0
LINE
  5
B7C7
330
1F
100
AcDbEntity
  8
AM_0
100
AcDbLine
 10
177.2075817217655
 20
187.4003421888023
 30
0.0
 11
185.3329141217656
 21
178.5697621888024
 31
0.0
  0
LINE
  5
B7C8
330
1F
100
AcDbEntity
  8
AM_0
100
AcDbLine
 10
154.1741906217655
 20
183.3376921888023
 30
0.0
 11
146.0488546217656
 21
174.5071221888023
 31
0.0
  0
LINE
  5
B7C9
330
1F
100
AcDbEntity
  8
AM_0
100
AcDbLine
 10
282.4832496217655
 20
165.5384421888023
 30
0.0
 11
282.4832496217655
 21
152.8403631888024
 31
0.0
  0
LINE
  5
B7CA
330
1F
100
AcDbEntity
  8
AM_0
100
AcDbLine
 10
292.9832496217655
 20
169.5384421888022
 30
0.0
 11
292.9832496217655
 21
205.5384321888024
 31
0.0
  0
LINE
  5
B7CB
330
1F
100
AcDbEntity
  8
AM_0
100
AcDbLine
 10
283.9832496217655
 20
169.5384421888022
 30
0.0
 11
283.9832496217655
 21
205.5384321888024
 31
0.0
  0
LINE
  5
B7CC
330
1F
100
AcDbEntity
  8
AM_0
100
AcDbLine
 10
292.9832496217655
 20
158.5384321888024
 30
0.0
 11
292.9832496217655
 21
165.5384421888023
 31
0.0
  0
LINE
  5
B7CD
330
1F
100
AcDbEntity
  8
AM_0
100
AcDbLine
 10
144.9832536217656
 20
153.0384381888024
 30
0.0
 11
144.9832536217656
 21
152.8403631888024
 31
0.0
  0
LINE
  5
B7CE
330
1F
100
AcDbEntity
  8
AM_0
100
AcDbLine
 10
199.4832666217655
 20
169.5384421888022
 30
0.0
 11
218.4832536217656
 21
169.5384421888022
 31
0.0
  0
LINE
  5
B7CF
330
1F
100
AcDbEntity
  8
AM_0
100
AcDbLine
 10
282.4832496217655
 20
165.5384421888023
 30
0.0
 11
294.4832496217655
 21
165.5384421888023
 31
0.0
  0
LINE
  5
B7D0
330
1F
100
AcDbEntity
  8
AM_0
100
AcDbLine
 10
292.9832596217656
 20
190.0384421888024
 30
0.0
 11
294.4832596217655
 21
190.0384421888024
 31
0.0
  0
LINE
  5
B7D1
330
1F
100
AcDbEntity
  8
AM_0
100
AcDbLine
 10
294.4832496217655
 20
152.8403631888024
 30
0.0
 11
296.4832496217655
 21
152.8403631888024
 31
0.0
  0
LINE
  5
B7D2
330
1F
100
AcDbEntity
  8
AM_0
100
AcDbLine
 10
283.9832596217655
 20
158.5384321888024
 30
0.0
 11
292.9832596217656
 21
158.5384321888024
 31
0.0
  0
LINE
  5
B7D3
330
1F
100
AcDbEntity
  8
AM_0
100
AcDbLine
 10
280.4832496217655
 20
169.5384421888022
 30
0.0
 11
280.4832496217655
 21
199.8403521888024
 31
0.0
  0
LINE
  5
B7D4
330
1F
100
AcDbEntity
  8
AM_0
100
AcDbLine
 10
108.4832496217656
 20
114.7341971888024
 30
0.0
 11
218.4832536217656
 21
114.7341971888024
 31
0.0
  0
LINE
  5
B7D5
330
1F
100
AcDbEntity
  8
AM_0
100
AcDbLine
 10
108.4832496217656
 20
125.7341931888024
 30
0.0
 11
218.4832536217656
 21
125.7341931888024
 31
0.0
  0
LINE
  5
B7D6
330
1F
100
AcDbEntity
  8
AM_0
100
AcDbLine
 10
197.2689706217655
 20
125.7341931888024
 30
0.0
 11
197.2689706217655
 21
114.7341971888024
 31
0.0
  0
LINE
  5
B7D7
330
1F
100
AcDbEntity
  8
AM_0
100
AcDbLine
 10
155.6261126217656
 20
115.7163361888024
 30
0.0
 11
155.6261126217656
 21
114.7341971888024
 31
0.0
  0
LINE
  5
B7D8
330
1F
100
AcDbEntity
  8
AM_0
100
AcDbLine
 10
129.6975366217656
 20
125.7341931888024
 30
0.0
 11
129.6975366217656
 21
114.7341971888024
 31
0.0
  0
LINE
  5
B7D9
330
1F
100
AcDbEntity
  8
AM_0
100
AcDbLine
 10
139.9118196217656
 20
124.7520531888024
 30
0.0
 11
187.0546843217655
 21
124.7520531888024
 31
0.0
  0
LINE
  5
B7DA
330
1F
100
AcDbEntity
  8
AM_0
100
AcDbLine
 10
139.9118196217656
 20
115.7163361888024
 30
0.0
 11
187.0546843217655
 21
115.7163361888024
 31
0.0
  0
LINE
  5
B7DB
330
1F
100
AcDbEntity
  8
AM_0
100
AcDbLine
 10
187.0546843217655
 20
124.7520531888024
 30
0.0
 11
187.0546843217655
 21
115.7163361888024
 31
0.0
  0
LINE
  5
B7DC
330
1F
100
AcDbEntity
  8
AM_0
100
AcDbLine
 10
139.9118196217656
 20
124.7520531888024
 30
0.0
 11
139.9118196217656
 21
115.7163361888024
 31
0.0
  0
LINE
  5
B7DD
330
1F
100
AcDbEntity
  8
AM_0
100
AcDbLine
 10
171.3403980217655
 20
115.7163361888024
 30
0.0
 11
171.3403980217655
 21
114.7341971888024
 31
0.0
  0
LINE
  5
B7DE
330
1F
100
AcDbEntity
  8
AM_0
100
AcDbLine
 10
155.6261126217656
 20
125.7341931888024
 30
0.0
 11
155.6261126217656
 21
124.7520531888024
 31
0.0
  0
LINE
  5
B7DF
330
1F
100
AcDbEntity
  8
AM_0
100
AcDbLine
 10
171.3403980217655
 20
125.7341931888024
 30
0.0
 11
171.3403980217655
 21
124.7520531888024
 31
0.0
  0
LINE
  5
B7E0
330
1F
100
AcDbEntity
  8
AM_7
100
AcDbLine
 10
116.3403936217655
 20
131.4699111888024
 30
0.0
 11
116.3403936217655
 21
108.9984831888024
 31
0.0
  0
LINE
  5
B7E1
330
1F
100
AcDbEntity
  8
AM_7
 48
1.05
100
AcDbLine
 10
102.1975366217656
 20
120.2341931888024
 30
0.0
 11
224.7689666217656
 21
120.2341931888024
 31
0.0
  0
LINE
  5
B7E2
330
1F
100
AcDbEntity
  8
AM_0
100
AcDbLine
 10
108.4832496217656
 20
112.9270521888024
 30
0.0
 11
218.4832536217656
 21
112.9270521888024
 31
0.0
  0
LINE
  5
B7E3
330
1F
100
AcDbEntity
  8
AM_0
100
AcDbLine
 10
218.4832536217656
 20
127.5413371888024
 30
0.0
 11
218.4832536217656
 21
112.9270521888024
 31
0.0
  0
LINE
  5
B7E4
330
1F
100
AcDbEntity
  8
AM_0
100
AcDbLine
 10
108.4832496217656
 20
127.5413371888024
 30
0.0
 11
218.4832536217656
 21
127.5413371888024
 31
0.0
  0
LINE
  5
B7E5
330
1F
100
AcDbEntity
  8
AM_0
100
AcDbLine
 10
108.4832496217656
 20
127.5413371888024
 30
0.0
 11
108.4832496217656
 21
112.9270521888024
 31
0.0
  0
LINE
  5
B7E6
330
1F
100
AcDbEntity
  8
AM_7
100
AcDbLine
 10
210.6261106217655
 20
131.4699111888024
 30
0.0
 11
210.6261106217655
 21
108.9984831888024
 31
0.0
  0
LINE
  5
B7E7
330
1F
100
AcDbEntity
  8
AM_7
100
AcDbLine
 10
163.4832556217656
 20
131.4699111888024
 30
0.0
 11
163.4832556217656
 21
108.9984831888024
 31
0.0
  0
LINE
  5
B7E8
330
1F
100
AcDbEntity
  8
AM_0
100
AcDbLine
 10
144.6261066217655
 20
128.3270501888024
 30
0.0
 11
150.9118276217656
 21
128.3270501888024
 31
0.0
  0
LINE
  5
B7E9
330
1F
100
AcDbEntity
  8
AM_0
100
AcDbLine
 10
144.6261066217655
 20
112.1413391888024
 30
0.0
 11
150.9118276217656
 21
112.1413391888024
 31
0.0
  0
LINE
  5
B7EA
330
1F
100
AcDbEntity
  8
AM_0
100
AcDbLine
 10
176.0546841217655
 20
112.1413391888024
 30
0.0
 11
182.3403985217655
 21
112.1413391888024
 31
0.0
  0
LINE
  5
B7EB
330
1F
100
AcDbEntity
  8
AM_0
100
AcDbLine
 10
176.0546841217655
 20
128.3270501888024
 30
0.0
 11
182.3403985217655
 21
128.3270501888024
 31
0.0
  0
ARC
  5
B7EC
330
1F
100
AcDbEntity
  8
AM_0
100
AcDbCircle
 10
294.4832496217655
 20
169.5384421888022
 30
0.0
 40
2.0
100
AcDbArc
 50
270.0
 51
0.0
  0
ARC
  5
B7ED
330
1F
100
AcDbEntity
  8
AM_0
100
AcDbCircle
 10
216.4832536217656
 20
162.2365121888024
 30
0.0
 40
2.0
100
AcDbArc
 50
279.3351199999981
 51
0.0
  0
ARC
  5
B7EE
330
1F
100
AcDbEntity
  8
AM_0
100
AcDbCircle
 10
297.4832596217654
 20
174.5384421888022
 30
0.0
 40
1.0
100
AcDbArc
 50
90.0
 51
180.0
  0
ARC
  5
B7EF
330
1F
100
AcDbEntity
  8
AM_0
100
AcDbCircle
 10
279.4832496217656
 20
189.5384421888022
 30
0.0
 40
1.0
100
AcDbArc
 50
270.0
 51
0.0
  0
ARC
  5
B7F0
330
1F
100
AcDbEntity
  8
AM_0
100
AcDbCircle
 10
294.4832496217655
 20
165.5384421888023
 30
0.0
 40
2.0
100
AcDbArc
 50
0.0
 51
90.0
  0
ARC
  5
B7F1
330
1F
100
AcDbEntity
  8
AM_0
100
AcDbCircle
 10
163.4832556217656
 20
194.8403521888023
 30
0.0
 40
5.0
100
AcDbArc
 50
64.02894099999949
 51
115.9710799999994
  0
ARC
  5
B7F2
330
1F
100
AcDbEntity
  8
AM_0
100
AcDbCircle
 10
282.4832496217655
 20
169.5384421888022
 30
0.0
 40
2.0
100
AcDbArc
 50
180.0
 51
270.0
  0
ARC
  5
B7F3
330
1F
100
AcDbEntity
  8
AM_0
100
AcDbCircle
 10
163.4832556217656
 20
182.0384421888022
 30
0.0
 40
23.5
100
AcDbArc
 50
18.6581496927031
 51
161.3417958759041
  0
ARC
  5
B7F4
330
1F
100
AcDbEntity
  8
AM_0
100
AcDbCircle
 10
183.9832551217655
 20
152.8403631888024
 30
0.0
 40
2.0
100
AcDbArc
 50
99.33487300000072
 51
180.0
  0
ARC
  5
B7F5
330
1F
100
AcDbEntity
  8
AM_0
100
AcDbCircle
 10
297.4832596217654
 20
189.5384421888022
 30
0.0
 40
1.0
100
AcDbArc
 50
180.0
 51
270.0
  0
ARC
  5
B7F6
330
1F
100
AcDbEntity
  8
AM_0
100
AcDbCircle
 10
110.4832576217656
 20
162.2365121888024
 30
0.0
 40
2.0
100
AcDbArc
 50
180.0
 51
260.6648799999987
  0
ARC
  5
B7F7
330
1F
100
AcDbEntity
  8
AM_0
100
AcDbCircle
 10
142.9832536217656
 20
152.8403631888024
 30
0.0
 40
2.0
100
AcDbArc
 50
0.0
 51
80.66509300000092
  0
ARC
  5
B7F8
330
1F
100
AcDbEntity
  8
AM_0
100
AcDbCircle
 10
279.4832496217656
 20
174.5384421888022
 30
0.0
 40
1.0
100
AcDbArc
 50
0.0
 51
90.0
  0
CIRCLE
  5
B7F9
330
1F
100
AcDbEntity
  8
AM_0
100
AcDbCircle
 10
163.4832556217656
 20
182.0384421888022
 30
0.0
 40
4.0
  0
ARC
  5
B7FA
330
1F
100
AcDbEntity
  8
AM_0
100
AcDbCircle
 10
174.9999482217655
 20
185.3690121888023
 30
0.0
 40
3.000003299999998
100
AcDbArc
 50
42.61838199999919
 51
222.6182599999994
  0
ARC
  5
B7FB
330
1F
100
AcDbEntity
  8
AM_0
100
AcDbCircle
 10
151.9665626217655
 20
185.3690121888023
 30
0.0
 40
3.000003299999998
100
AcDbArc
 50
317.3817300000009
 51
137.3815899999981
  0
ARC
  5
B7FC
330
1F
100
AcDbEntity
  8
AM_0
100
AcDbCircle
 10
143.8412326217656
 20
176.5384321888024
 30
0.0
 40
2.999994
100
AcDbArc
 50
137.3817300000009
 51
317.3817300000009
  0
ARC
  5
B7FD
330
1F
100
AcDbEntity
  8
AM_0
100
AcDbCircle
 10
183.1252765217656
 20
176.5384321888024
 30
0.0
 40
2.999994
100
AcDbArc
 50
222.618230000001
 51
42.61822600000026
  0
ARC
  5
B7FE
330
1F
100
AcDbEntity
  8
AM_0
100
AcDbCircle
 10
282.4832496217655
 20
165.5384421888023
 30
0.0
 40
2.0
100
AcDbArc
 50
90.0
 51
180.0
  0
ARC
  5
B7FF
330
1F
100
AcDbEntity
  8
AM_0
100
AcDbCircle
 10
182.3403985217655
 20
122.3556221888024
 30
0.0
 40
10.21428599999999
100
AcDbArc
 50
270.0
 51
292.6198700000004
  0
CIRCLE
  5
B800
330
1F
100
AcDbEntity
  8
AM_0
100
AcDbCircle
 10
210.6261106217655
 20
120.2341931888024
 30
0.0
 40
4.910714099999998
  0
CIRCLE
  5
B801
330
1F
100
AcDbEntity
  8
AM_0
100
AcDbCircle
 10
116.3403936217655
 20
120.2341931888024
 30
0.0
 40
4.910714099999998
  0
CIRCLE
  5
B802
330
1F
100
AcDbEntity
  8
AM_0
100
AcDbCircle
 10
210.6261106217655
 20
120.2341931888024
 30
0.0
 40
2.553571499999998
  0
CIRCLE
  5
B803
330
1F
100
AcDbEntity
  8
AM_0
100
AcDbCircle
 10
116.3403936217655
 20
120.2341931888024
 30
0.0
 40
2.553571499999998
  0
ARC
  5
B804
330
1F
100
AcDbEntity
  8
AM_0
100
AcDbCircle
 10
176.0546841217655
 20
122.3556221888024
 30
0.0
 40
10.21428599999999
100
AcDbArc
 50
247.3801299999995
 51
270.0
  0
ARC
  5
B805
330
1F
100
AcDbEntity
  8
AM_0
100
AcDbCircle
 10
176.0546841217655
 20
118.1127671888024
 30
0.0
 40
10.21428599999999
100
AcDbArc
 50
90.00000299999769
 51
112.6198700000004
  0
ARC
  5
B806
330
1F
100
AcDbEntity
  8
AM_0
100
AcDbCircle
 10
163.4832556217656
 20
122.3556221888024
 30
0.0
 40
10.21428599999999
100
AcDbArc
 50
247.3801299999995
 51
292.6198599999998
  0
ARC
  5
B807
330
1F
100
AcDbEntity
  8
AM_0
100
AcDbCircle
 10
150.9118276217656
 20
118.1127671888024
 30
0.0
 40
10.21428599999999
100
AcDbArc
 50
67.38012999999954
 51
90.0
  0
ARC
  5
B808
330
1F
100
AcDbEntity
  8
AM_0
100
AcDbCircle
 10
150.9118276217656
 20
122.3556221888024
 30
0.0
 40
10.21428599999999
100
AcDbArc
 50
270.0
 51
292.6198700000004
  0
ARC
  5
B809
330
1F
100
AcDbEntity
  8
AM_0
100
AcDbCircle
 10
144.6261066217655
 20
122.3556221888024
 30
0.0
 40
10.21428599999999
100
AcDbArc
 50
247.3801199999984
 51
270.0
  0
ARC
  5
B80A
330
1F
100
AcDbEntity
  8
AM_0
100
AcDbCircle
 10
182.3403985217655
 20
118.1127671888024
 30
0.0
 40
10.21428599999999
100
AcDbArc
 50
67.38013299999998
 51
90.00000299999769
  0
ARC
  5
B80B
330
1F
100
AcDbEntity
  8
AM_0
100
AcDbCircle
 10
144.6261066217655
 20
118.1127671888024
 30
0.0
 40
10.21428599999999
100
AcDbArc
 50
90.0
 51
112.6198800000012
  0
ARC
  5
B80C
330
1F
100
AcDbEntity
  8
AM_0
100
AcDbCircle
 10
163.4832556217656
 20
118.1127671888024
 30
0.0
 40
10.21428599999999
100
AcDbArc
 50
67.380135
 51
112.6198700000004
  0
TEXT
  5
B80D
330
1F
100
AcDbEntity
  8
AM_6
100
AcDbText
 10
34.3569996894868
 20
266.8999997489954
 30
0.0
 40
3.2
  1
枠：スチール・車：スチール
 41
0.84350122
100
AcDbText
  0
TEXT
  5
B80E
330
1F
100
AcDbEntity
  8
AM_6
100
AcDbText
 10
34.3569996894868
 20
258.8999997489954
 30
0.0
 40
3.2
  1
枠：有色クロメート・車：有色クロメート
 41
0.84248387
100
AcDbText
  0
LINE
  5
B80F
330
1F
100
AcDbEntity
  8
AM_7
100
AcDbLine
 10
189.9832556217656
 20
182.0384421888022
 30
0.0
 11
136.9832556217656
 21
182.0384421888022
 31
0.0
  0
LINE
  5
B810
330
1F
100
AcDbEntity
  8
AM_2
100
AcDbLine
 10
83.20943984536791
 20
66.58788741165517
 30
0.0
 11
353.2094418453679
 21
66.58788741165517
 31
0.0
  0
LINE
  5
B811
330
1F
100
AcDbEntity
  8
AM_2
100
AcDbLine
 10
182.2094368453679
 20
66.58788741165517
 30
0.0
 11
182.2094368453679
 21
26.58789141165518
 31
0.0
  0
LINE
  5
B812
330
1F
100
AcDbEntity
  8
AM_2
100
AcDbLine
 10
150.2094398453679
 20
66.58788741165517
 30
0.0
 11
150.2094398453679
 21
26.58789141165518
 31
0.0
  0
LINE
  5
B813
330
1F
100
AcDbEntity
  8
AM_2
100
AcDbLine
 10
83.20943984536791
 20
66.58788741165517
 30
0.0
 11
83.20943984536791
 21
26.58789141165518
 31
0.0
  0
LINE
  5
B814
330
1F
100
AcDbEntity
  8
AM_2
100
AcDbLine
 10
166.2094368453679
 20
66.58788741165517
 30
0.0
 11
166.2094368453679
 21
26.58789141165518
 31
0.0
  0
LINE
  5
B815
330
1F
100
AcDbEntity
  8
AM_2
100
AcDbLine
 10
118.2094398453679
 20
66.58788741165517
 30
0.0
 11
118.2094398453679
 21
26.58789141165518
 31
0.0
  0
LINE
  5
B816
330
1F
100
AcDbEntity
  8
AM_2
100
AcDbLine
 10
134.2094398453679
 20
66.58788741165517
 30
0.0
 11
134.2094398453679
 21
26.58789141165518
 31
0.0
  0
LINE
  5
B817
330
1F
100
AcDbEntity
  8
AM_2
100
AcDbLine
 10
230.209436845368
 20
66.58788741165517
 30
0.0
 11
230.209436845368
 21
26.58789141165518
 31
0.0
  0
LINE
  5
B818
330
1F
100
AcDbEntity
  8
AM_2
100
AcDbLine
 10
262.2094388453683
 20
66.58788741165517
 30
0.0
 11
262.2094388453683
 21
26.58789141165518
 31
0.0
  0
LINE
  5
B819
330
1F
100
AcDbEntity
  8
AM_2
100
AcDbLine
 10
246.2094389453681
 20
66.58788741165517
 30
0.0
 11
246.2094389453681
 21
26.58789141165518
 31
0.0
  0
LINE
  5
B81A
330
1F
100
AcDbEntity
  8
AM_2
100
AcDbLine
 10
198.2094368453679
 20
66.58788741165517
 30
0.0
 11
198.2094368453679
 21
26.58789141165518
 31
0.0
  0
LINE
  5
B81B
330
1F
100
AcDbEntity
  8
AM_2
100
AcDbLine
 10
214.209436845368
 20
66.58788741165517
 30
0.0
 11
214.209436845368
 21
26.58789141165518
 31
0.0
  0
LINE
  5
B81C
330
1F
100
AcDbEntity
  8
AM_2
100
AcDbLine
 10
323.2094418453679
 20
66.58788741165517
 30
0.0
 11
323.2094418453679
 21
26.58789141165518
 31
0.0
  0
LINE
  5
B81D
330
1F
100
AcDbEntity
  8
AM_2
100
AcDbLine
 10
307.2094388453682
 20
66.58788741165517
 30
0.0
 11
307.2094388453682
 21
26.58789141165518
 31
0.0
  0
LINE
  5
B81E
330
1F
100
AcDbEntity
  8
AM_2
100
AcDbLine
 10
83.20943984536791
 20
42.58789141165517
 30
0.0
 11
353.2094418453679
 21
42.58789141165517
 31
0.0
  0
LINE
  5
B81F
330
1F
100
AcDbEntity
  8
AM_2
100
AcDbLine
 10
83.20943984536791
 20
58.58789141165518
 30
0.0
 11
353.2094418453679
 21
58.58789141165518
 31
0.0
  0
LINE
  5
B820
330
1F
100
AcDbEntity
  8
AM_2
100
AcDbLine
 10
83.20943984536791
 20
50.58789141165518
 30
0.0
 11
353.2094418453679
 21
50.58789141165518
 31
0.0
  0
LINE
  5
B821
330
1F
100
AcDbEntity
  8
AM_2
100
AcDbLine
 10
83.20943984536791
 20
34.58789141165518
 30
0.0
 11
353.2094418453679
 21
34.58789141165518
 31
0.0
  0
LINE
  5
B822
330
1F
100
AcDbEntity
  8
AM_2
100
AcDbLine
 10
83.20943984536791
 20
26.58789141165518
 30
0.0
 11
353.2094418453679
 21
26.58789141165518
 31
0.0
  0
LINE
  5
B823
330
1F
100
AcDbEntity
  8
AM_2
100
AcDbLine
 10
353.2094418453679
 20
66.58788741165517
 30
0.0
 11
353.2094418453679
 21
26.58789141165518
 31
0.0
  0
TEXT
  5
B824
330
1F
100
AcDbEntity
  8
AM_6
100
AcDbText
 10
324.2094418453679
 20
36.1878914116552
 30
0.0
 40
4.8000002
  1
１５０ｋｇ／２コ
 41
0.63938619
100
AcDbText
  0
TEXT
  5
B825
330
1F
100
AcDbEntity
  8
AM_6
100
AcDbText
 10
324.2094418453679
 20
44.1878914116552
 30
0.0
 40
4.8000002
  1
１２０ｋｇ／２コ
 41
0.63938619
100
AcDbText
  0
TEXT
  5
B826
330
1F
100
AcDbEntity
  8
AM_6
100
AcDbText
 10
324.2094418453679
 20
52.1878914116552
 30
0.0
 40
4.8000002
  1
１００ｋｇ／２コ
 41
0.63938619
100
AcDbText
  0
TEXT
  5
B827
330
1F
100
AcDbEntity
  8
AM_6
100
AcDbText
 10
324.2094418453679
 20
28.18789141165519
 30
0.0
 40
4.8000002
  1
２００ｋｇ／２コ
 41
0.63938619
100
AcDbText
  0
TEXT
  5
B828
330
1F
100
AcDbEntity
  8
AM_6
100
AcDbText
 10
326.8951518453681
 20
60.18788741165519
 30
0.0
 40
4.8000002
  1
標準耐荷重
 41
0.84891105
100
AcDbText
  0
TEXT
  5
B829
330
1F
100
AcDbEntity
  8
AM_6
100
AcDbText
 10
250.0951518453681
 20
36.1878914116552
 30
0.0
 40
4.8000002
  1
９６
 41
0.8643459000000001
100
AcDbText
  0
TEXT
  5
B82A
330
1F
100
AcDbEntity
  8
AM_6
100
AcDbText
 10
199.6951521453681
 20
36.1878914116552
 30
0.0
 40
4.8000002
  1
１２０
 41
0.85534224
100
AcDbText
  0
TEXT
  5
B82B
330
1F
100
AcDbEntity
  8
AM_6
100
AcDbText
 10
215.6951478453678
 20
36.1878914116552
 30
0.0
 40
4.8000002
  1
１４０
 41
0.85534224
100
AcDbText
  0
TEXT
  5
B82C
330
1F
100
AcDbEntity
  8
AM_6
100
AcDbText
 10
234.0951498453681
 20
36.1878914116552
 30
0.0
 40
4.8000002
  1
２１
 41
0.8643459000000001
100
AcDbText
  0
TEXT
  5
B82D
330
1F
100
AcDbEntity
  8
AM_6
100
AcDbText
 10
154.095149845368
 20
36.1878914116552
 30
0.0
 40
4.8000002
  1
２０
 41
0.8643459000000001
100
AcDbText
  0
TEXT
  5
B82E
330
1F
100
AcDbEntity
  8
AM_6
100
AcDbText
 10
135.2094398453679
 20
36.1878914116552
 30
0.0
 40
4.8000002
  1
１１．５
 41
0.66844916
100
AcDbText
  0
TEXT
  5
B82F
330
1F
100
AcDbEntity
  8
AM_6
100
AcDbText
 10
122.0951198453679
 20
36.1878914116552
 30
0.0
 40
4.8000002
  1
７５
 41
0.8643526099999998
100
AcDbText
  0
TEXT
  5
B830
330
1F
100
AcDbEntity
  8
AM_6
100
AcDbText
 10
250.0951518453681
 20
44.1878914116552
 30
0.0
 40
4.8000002
  1
９６
 41
0.8643459000000001
100
AcDbText
  0
TEXT
  5
B831
330
1F
100
AcDbEntity
  8
AM_6
100
AcDbText
 10
199.6951521453681
 20
44.1878914116552
 30
0.0
 40
4.8000002
  1
１２０
 41
0.85534224
100
AcDbText
  0
TEXT
  5
B832
330
1F
100
AcDbEntity
  8
AM_6
100
AcDbText
 10
215.6951478453678
 20
44.1878914116552
 30
0.0
 40
4.8000002
  1
１４０
 41
0.85534224
100
AcDbText
  0
TEXT
  5
B833
330
1F
100
AcDbEntity
  8
AM_6
100
AcDbText
 10
234.0951498453681
 20
44.1878914116552
 30
0.0
 40
4.8000002
  1
２１
 41
0.8643459000000001
100
AcDbText
  0
TEXT
  5
B834
330
1F
100
AcDbEntity
  8
AM_6
100
AcDbText
 10
186.0951498453679
 20
44.1878914116552
 30
0.0
 40
4.8000002
  1
１７
 41
0.8643459000000001
100
AcDbText
  0
TEXT
  5
B835
330
1F
100
AcDbEntity
  8
AM_6
100
AcDbText
 10
170.6556889149276
 20
44.0065899545972
 30
0.0
 40
4.8000002
  1
１４
 41
0.66844916
100
AcDbText
  0
TEXT
  5
B836
330
1F
100
AcDbEntity
  8
AM_6
100
AcDbText
 10
154.095149845368
 20
44.1878914116552
 30
0.0
 40
4.8000002
  1
２０
 41
0.8643459000000001
100
AcDbText
  0
TEXT
  5
B837
330
1F
100
AcDbEntity
  8
AM_6
100
AcDbText
 10
135.2094398453679
 20
44.1878914116552
 30
0.0
 40
4.8000002
  1
１１．５
 41
0.66844916
100
AcDbText
  0
TEXT
  5
B838
330
1F
100
AcDbEntity
  8
AM_6
100
AcDbText
 10
122.095149845368
 20
44.1878914116552
 30
0.0
 40
4.8000002
  1
６０
 41
0.8643459000000001
100
AcDbText
  0
TEXT
  5
B839
330
1F
100
AcDbEntity
  8
AM_6
100
AcDbText
 10
250.0951518453681
 20
52.1878914116552
 30
0.0
 40
4.8000002
  1
５３
 41
0.8643459000000001
100
AcDbText
  0
TEXT
  5
B83A
330
1F
100
AcDbEntity
  8
AM_6
100
AcDbText
 10
202.0951522453682
 20
52.1878914116552
 30
0.0
 40
4.8000002
  1
６５
 41
0.8643459000000001
100
AcDbText
  0
TEXT
  5
B83B
330
1F
100
AcDbEntity
  8
AM_6
100
AcDbText
 10
218.0951478453679
 20
52.1878914116552
 30
0.0
 40
4.8000002
  1
８０
 41
0.8643459000000001
100
AcDbText
  0
TEXT
  5
B83C
330
1F
100
AcDbEntity
  8
AM_6
100
AcDbText
 10
234.0951498453681
 20
52.1878914116552
 30
0.0
 40
4.8000002
  1
１３
 41
0.8643459000000001
100
AcDbText
  0
TEXT
  5
B83D
330
1F
100
AcDbEntity
  8
AM_6
100
AcDbText
 10
188.4951498453679
 20
52.1878914116552
 30
0.0
 40
4.8000002
  1
９
 41
0.90036056
100
AcDbText
  0
TEXT
  5
B83E
330
1F
100
AcDbEntity
  8
AM_6
100
AcDbText
 10
170.0951498453679
 20
52.1878914116552
 30
0.0
 40
4.8000002
  1
１１
 41
0.8643459000000001
100
AcDbText
  0
TEXT
  5
B83F
330
1F
100
AcDbEntity
  8
AM_6
100
AcDbText
 10
154.095149845368
 20
52.1878914116552
 30
0.0
 40
4.8000002
  1
１７
 41
0.8643459000000001
100
AcDbText
  0
TEXT
  5
B840
330
1F
100
AcDbEntity
  8
AM_6
100
AcDbText
 10
140.4951498453679
 20
52.1878914116552
 30
0.0
 40
4.8000002
  1
９
 41
0.90036056
100
AcDbText
  0
TEXT
  5
B841
330
1F
100
AcDbEntity
  8
AM_6
100
AcDbText
 10
122.095149845368
 20
52.1878914116552
 30
0.0
 40
4.8000002
  1
４５
 41
0.8643459000000001
100
AcDbText
  0
TEXT
  5
B842
330
1F
100
AcDbEntity
  8
AM_6
100
AcDbText
 10
94.09514984536803
 20
60.18788741165519
 30
0.0
 40
4.8000002
  1
品番
 41
0.8643459000000001
100
AcDbText
  0
TEXT
  5
B843
330
1F
100
AcDbEntity
  8
AM_6
100
AcDbText
 10
251.9252050461308
 20
60.18788741165519
 30
0.0
 40
4.8000002
  1
Ｉ
 41
0.90036056
100
AcDbText
  0
TEXT
  5
B844
330
1F
100
AcDbEntity
  8
AM_6
100
AcDbText
 10
236.4951488453679
 20
60.18788741165519
 30
0.0
 40
4.8000002
  1
Ｈ
 41
0.90036056
100
AcDbText
  0
TEXT
  5
B845
330
1F
100
AcDbEntity
  8
AM_6
100
AcDbText
 10
220.495149845368
 20
60.18788741165519
 30
0.0
 40
4.8000002
  1
Ｇ
 41
0.90036056
100
AcDbText
  0
TEXT
  5
B846
330
1F
100
AcDbEntity
  8
AM_6
100
AcDbText
 10
188.4951498453679
 20
60.18788741165519
 30
0.0
 40
4.8000002
  1
Ｅ
 41
0.90036056
100
AcDbText
  0
TEXT
  5
B847
330
1F
100
AcDbEntity
  8
AM_6
100
AcDbText
 10
172.180291513218
 20
60.18788741165519
 30
0.0
 40
4.8000002
  1
Ｄ
 41
0.90036056
100
AcDbText
  0
TEXT
  5
B848
330
1F
100
AcDbEntity
  8
AM_6
100
AcDbText
 10
156.4951498453679
 20
60.18788741165519
 30
0.0
 40
4.8000002
  1
Ｃ
 41
0.90036056
100
AcDbText
  0
TEXT
  5
B849
330
1F
100
AcDbEntity
  8
AM_6
100
AcDbText
 10
140.4951498453679
 20
60.18788741165519
 30
0.0
 40
4.8000002
  1
Ｂ
 41
0.90036056
100
AcDbText
  0
TEXT
  5
B84A
330
1F
100
AcDbEntity
  8
AM_6
100
AcDbText
 10
247.6951518453681
 20
28.18789141165519
 30
0.0
 40
4.8000002
  1
１０８
 41
0.85534224
100
AcDbText
  0
TEXT
  5
B84B
330
1F
100
AcDbEntity
  8
AM_6
100
AcDbText
 10
124.495149845368
 20
60.18788741165519
 30
0.0
 40
4.8000002
  1
Ａ
 41
0.90036056
100
AcDbText
  0
TEXT
  5
B84C
330
1F
100
AcDbEntity
  8
AM_6
100
AcDbText
 10
199.6951521453681
 20
28.18789141165519
 30
0.0
 40
4.8000002
  1
１３０
 41
0.85534224
100
AcDbText
  0
TEXT
  5
B84D
330
1F
100
AcDbEntity
  8
AM_6
100
AcDbText
 10
186.0951498453679
 20
28.18789141165519
 30
0.0
 40
4.8000002
  1
１６
 41
0.8643459000000001
100
AcDbText
  0
TEXT
  5
B84E
330
1F
100
AcDbEntity
  8
AM_6
100
AcDbText
 10
215.6951478453678
 20
28.18789141165519
 30
0.0
 40
4.8000002
  1
１５５
 41
0.85534224
100
AcDbText
  0
TEXT
  5
B84F
330
1F
100
AcDbEntity
  8
AM_6
100
AcDbText
 10
234.0951498453681
 20
28.18789141165519
 30
0.0
 40
4.8000002
  1
２１
 41
0.8643459000000001
100
AcDbText
  0
TEXT
  5
B850
330
1F
100
AcDbEntity
  8
AM_6
100
AcDbText
 10
154.095149845368
 20
28.18789141165519
 30
0.0
 40
4.8000002
  1
２３
 41
0.8643459000000001
100
AcDbText
  0
TEXT
  5
B851
330
1F
100
AcDbEntity
  8
AM_6
100
AcDbText
 10
122.095149845368
 20
28.18789141165519
 30
0.0
 40
4.8000002
  1
９０
 41
0.8643459000000001
100
AcDbText
  0
TEXT
  5
B852
330
1F
100
AcDbEntity
  8
AM_6
100
AcDbText
 10
135.2094398453679
 20
28.18789141165519
 30
0.0
 40
4.8000002
  1
１３．５
 41
0.66844916
100
AcDbText
  0
TEXT
  5
B853
330
1F
100
AcDbEntity
  8
AM_6
100
AcDbText
 10
308.6951518453683
 20
52.1878914116552
 30
0.0
 40
4.8000002
  1
１．６
 41
0.85534224
100
AcDbText
  0
TEXT
  5
B854
330
1F
100
AcDbEntity
  8
AM_6
100
AcDbText
 10
308.6951518453683
 20
44.1878914116552
 30
0.0
 40
4.8000002
  1
２．３
 41
0.85534224
100
AcDbText
  0
TEXT
  5
B855
330
1F
100
AcDbEntity
  8
AM_6
100
AcDbText
 10
308.6951518453683
 20
28.18789141165519
 30
0.0
 40
4.8000002
  1
２．３
 41
0.85534224
100
AcDbText
  0
TEXT
  5
B856
330
1F
100
AcDbEntity
  8
AM_6
100
AcDbText
 10
311.0951518453682
 20
60.18788741165519
 30
0.0
 40
4.8000002
  1
枠ｔ
 41
0.8643459000000001
100
AcDbText
  0
TEXT
  5
B857
330
1F
100
AcDbEntity
  8
AM_6
100
AcDbText
 10
308.6951518453683
 20
36.1878914116552
 30
0.0
 40
4.8000002
  1
２．３
 41
0.85534224
100
AcDbText
  0
TEXT
  5
B858
330
1F
100
AcDbEntity
  8
AM_6
100
AcDbText
 10
170.6556889149276
 20
35.8476760032919
 30
0.0
 40
4.8000002
  1
１４
 41
0.66844916
100
AcDbText
  0
TEXT
  5
B859
330
1F
100
AcDbEntity
  8
AM_6
100
AcDbText
 10
170.0253911851606
 20
28.08220212016399
 30
0.0
 40
4.8000002
  1
１６
 41
0.8643459000000001
100
AcDbText
  0
TEXT
  5
B85A
330
1F
100
AcDbEntity
  8
AM_6
100
AcDbText
 10
186.0951498453679
 20
36.1878914116552
 30
0.0
 40
4.8000002
  1
１７
 41
0.8643459000000001
100
AcDbText
  0
TEXT
  5
B85B
330
1F
100
AcDbEntity
  8
AM_6
100
AcDbText
 10
205.3586059259245
 20
60.18788741165519
 30
0.0
 40
4.8000002
  1
Ｆ
 41
0.90036056
100
AcDbText
  0
TEXT
  5
B85C
330
1F
100
AcDbEntity
  8
AM_6
100
AcDbText
 10
282.2406549644428
 20
60.18788741165519
 30
0.0
 40
4.8000002
  1
Ｊ
 41
0.90036056
100
AcDbText
  0
DIMENSION
  5
B85D
330
1F
100
AcDbEntity
  8
AM_5
100
AcDbDimension
  2
*D16
 10
267.4832486117656
 20
158.5384321888024
 30
0.0
 11
264.3832486117655
 21
182.0384321888024
 31
0.0
 70
    32
  1
A
 71
     5
 42
47.0
  3
SYS$0
100
AcDbAlignedDimension
 13
283.9832496217655
 23
205.5384321888024
 33
0.0
 14
283.9832596217655
 24
158.5384321888024
 34
0.0
 50
90.0
100
AcDbRotatedDimension
1001
ACAD_DSTYLE_DIMINSPECT
1070
   396
1000
100%
1070
   395
1000

1070
   394
1070
    33
1070
   393
1070
     0
  0
DIMENSION
  5
B85E
330
1F
100
AcDbEntity
  8
AM_5
100
AcDbDimension
  2
*D17
 10
292.9832496217655
 20
217.5384421888022
 30
0.0
 11
288.4832546217655
 21
220.6384421888022
 31
0.0
 70
    32
  1
B
 71
     5
 42
8.999990000000025
  3
SYS$0
100
AcDbAlignedDimension
 13
283.9832596217655
 23
205.5384421888022
 33
0.0
 14
292.9832496217655
 24
205.5384321888024
 34
0.0
100
AcDbRotatedDimension
1001
ACAD_DSTYLE_DIMINSPECT
1070
   396
1000
100%
1070
   395
1000

1070
   394
1070
    33
1070
   393
1070
     0
  0
DIMENSION
  5
B85F
330
1F
100
AcDbEntity
  8
AM_5
100
AcDbDimension
  2
*D18
 10
279.4832496217656
 20
227.5384421888018
 30
0.0
 11
288.4832546217655
 21
230.6384421888018
 31
0.0
 70
    32
  1
C
 71
     5
 42
18.00000999999986
  3
SYS$0
100
AcDbAlignedDimension
 13
297.4832596217654
 23
188.5384421888022
 33
0.0
 14
279.4832496217656
 24
188.5384421888022
 34
0.0
100
AcDbRotatedDimension
1001
ACAD_DSTYLE_DIMINSPECT
1070
   396
1000
100%
1070
   395
1000

1070
   394
1070
    33
1070
   393
1070
     0
  0
DIMENSION
  5
B860
330
1F
100
AcDbEntity
  8
AM_5
100
AcDbDimension
  2
*D19
 10
294.4832496217655
 20
140.8403631888024
 30
0.0
 11
288.4832496217655
 21
143.9403631888024
 31
0.0
 70
    32
  1
D
 71
     5
 42
12.0
  3
SYS$0
100
AcDbAlignedDimension
 13
282.4832496217655
 23
152.8403631888024
 33
0.0
 14
294.4832496217655
 24
152.8403631888024
 34
0.0
100
AcDbRotatedDimension
1001
ACAD_DSTYLE_DIMINSPECT
1070
   396
1000
100%
1070
   395
1000

1070
   394
1070
    33
1070
   393
1070
     0
  0
DIMENSION
  5
B861
330
1F
100
AcDbEntity
  8
AM_5
100
AcDbDimension
  2
*D20
 10
309.4832606217654
 20
158.5384321888024
 30
0.0
 11
306.3832606217654
 21
164.0384371888023
 31
0.0
 70
    32
  1
E
 71
     5
 42
11.00000999999974
  3
SYS$0
100
AcDbAlignedDimension
 13
294.4832496217655
 23
169.5384421888022
 33
0.0
 14
292.9832496217655
 24
158.5384321888024
 34
0.0
 50
90.0
100
AcDbRotatedDimension
1001
ACAD_DSTYLE_DIMINSPECT
1070
   396
1000
100%
1070
   395
1000

1070
   394
1070
    33
1070
   393
1070
     0
  0
DIMENSION
  5
B862
330
1F
100
AcDbEntity
  8
AM_5
100
AcDbDimension
  2
*D21
 10
210.6261106217655
 20
96.99848318880237
 30
0.0
 11
163.4832521217655
 21
100.0984831888023
 31
0.0
 70
    32
  1
F
 71
     5
 42
94.28571699999997
  3
SYS$0
100
AcDbAlignedDimension
 13
116.3403936217655
 23
108.9984831888024
 33
0.0
 14
210.6261106217655
 24
108.9984831888024
 34
0.0
100
AcDbRotatedDimension
1001
ACAD_DSTYLE_DIMINSPECT
1070
   396
1000
100%
1070
   395
1000

1070
   394
1070
    33
1070
   393
1070
     0
  0
DIMENSION
  5
B863
330
1F
100
AcDbEntity
  8
AM_5
100
AcDbDimension
  2
*D22
 10
218.4832536217656
 20
86.99848318880183
 30
0.0
 11
163.4832516217656
 21
90.09848318880182
 31
0.0
 70
    32
  1
G
 71
     5
 42
110.000004
  3
SYS$0
100
AcDbAlignedDimension
 13
108.4832496217656
 23
112.9270521888024
 33
0.0
 14
218.4832536217656
 24
112.9270521888024
 34
0.0
100
AcDbRotatedDimension
1001
ACAD_DSTYLE_DIMINSPECT
1070
   396
1000
100%
1070
   395
1000

1070
   394
1070
    33
1070
   393
1070
     0
  0
DIMENSION
  5
B864
330
1F
100
AcDbEntity
  8
AM_5
100
AcDbDimension
  2
*D23
 10
230.4832536217656
 20
152.8403631888023
 30
0.0
 11
227.3832536217656
 21
161.1894026888023
 31
0.0
 70
    32
  1
H
 71
     5
 42
16.6980789999998
  3
SYS$0
100
AcDbAlignedDimension
 13
218.4832536217656
 23
169.5384421888022
 33
0.0
 14
181.9832551217655
 24
152.8403631888024
 34
0.0
 50
90.0
100
AcDbRotatedDimension
1001
ACAD_DSTYLE_DIMINSPECT
1070
   396
1000
100%
1070
   395
1000

1070
   394
1070
    33
1070
   393
1070
     0
  0
DIMENSION
  5
B865
330
1F
100
AcDbEntity
  8
AM_5
100
AcDbDimension
  2
*D24
 10
127.4832536217656
 20
215.8671012843203
 30
0.0
 11
163.4832601217655
 21
218.9671012843203
 31
0.0
 70
    32
  1
I
 71
     5
 42
72.00001299999996
  3
SYS$0
100
AcDbAlignedDimension
 13
199.4832666217655
 23
169.5384421888022
 33
0.0
 14
127.4832536217656
 24
169.5384421888022
 34
0.0
100
AcDbRotatedDimension
1001
ACAD_DSTYLE_DIMINSPECT
1070
   396
1000
100%
1070
   395
1000

1070
   394
1070
    33
1070
   393
1070
     0
  0
DIMENSION
  5
B866
330
1F
100
AcDbEntity
  8
AM_5
100
AcDbDimension
  2
*D25
 10
207.2523406724255
 20
116.6658897682862
 30
0.0
 11
230.9069010130698
 21
136.7045668717103
 31
0.0
 70
   163
  1
2-J
 71
     5
 42
9.821428200000383
  3
SYS$3
100
AcDbDiametricDimension
 15
213.9998805711062
 25
123.8024966093189
 35
0.0
 40
0.0
1001
ACAD_DSTYLE_DIMRADIAL_EXTENSION
1070
   387
1070
     1
1070
   388
1040
0.0
1070
   390
1040
0.0
1001
ACAD_DSTYLE_DIMINSPECT
1070
   396
1000
100%
1070
   395
1000

1070
   394
1070
    33
1070
   393
1070
     0
1001
ACAD
1000
DSTYLE
1002
{
1070
   172
1070
     1
1070
   289
1070
     2
1070
   342
1005
B5F8
1002
}
  0
TEXT
  5
B867
330
1F
100
AcDbEntity
  8
AM_6
100
AcDbText
 10
263.6792998346262
 20
36.1878914116552
 30
0.0
 40
4.8000002
  1
%%C６．５×%%C１２．５サラ
 41
0.63938619
100
AcDbText
  0
TEXT
  5
B868
330
1F
100
AcDbEntity
  8
AM_6
100
AcDbText
 10
263.6792998346262
 20
44.1878914116552
 30
0.0
 40
4.8000002
  1
%%C６．５×%%C１２．５サラ
 41
0.63938619
100
AcDbText
  0
TEXT
  5
B869
330
1F
100
AcDbEntity
  8
AM_6
100
AcDbText
 10
263.6792998346262
 20
52.1878914116552
 30
0.0
 40
4.8000002
  1
%%C４．５×%%C８．５サラ
 41
0.63938619
100
AcDbText
  0
TEXT
  5
B86A
330
1F
100
AcDbEntity
  8
AM_6
100
AcDbText
 10
263.6792998346262
 20
28.18789141165519
 30
0.0
 40
4.8000002
  1
%%C６．５×%%C１２．５サラ
 41
0.63938619
100
AcDbText
  0
TEXT
  5
B86B
330
1F
100
AcDbEntity
  8
AM_6
100
AcDbText
 10
84.45928966318854
 20
36.18789141165523
 30
0.0
 40
4.8000002
  1
ＳＴ－１４９－７５
 41
0.63938619
100
AcDbText
  0
TEXT
  5
B86C
330
1F
100
AcDbEntity
  8
AM_6
100
AcDbText
 10
84.45928966318854
 20
44.18789141165523
 30
0.0
 40
4.8000002
  1
ＳＴ－１４９－６０
 41
0.63938619
100
AcDbText
  0
TEXT
  5
B86D
330
1F
100
AcDbEntity
  8
AM_6
100
AcDbText
 10
84.45928966318854
 20
52.18789141165522
 30
0.0
 40
4.8000002
  1
ＳＴ－１４９－４５
 41
0.63938619
100
AcDbText
  0
TEXT
  5
B86E
330
1F
100
AcDbEntity
  8
AM_6
100
AcDbText
 10
84.45928966318854
 20
28.18789141165522
 30
0.0
 40
4.8000002
  1
ＳＴ－１４９－９０
 41
0.63938619
100
AcDbText
  0
ENDSEC
  0
SECTION
  2
OBJECTS
  0
DICTIONARY
  5
C
330
0
100
AcDbDictionary
281
     1
  3
ACAD_2007HEADERVARS_RT
350
B94F
  3
ACAD_BGPLOT_KEY
350
AB06
  3
ACAD_COLOR
350
A91D
  3
ACAD_GROUP
350
D
  3
ACAD_LAYOUT
350
1A
  3
ACAD_MATERIAL
350
A91C
  3
ACAD_MLEADERSTYLE
350
B595
  3
ACAD_MLINESTYLE
350
17
  3
ACAD_PLOTSETTINGS
350
19
  3
ACAD_PLOTSTYLENAME
350
E
  3
ACAD_SCALELIST
350
B573
  3
ACAD_TABLESTYLE
350
AAB9
  3
ACAD_VISUALSTYLE
350
B0F1
  3
AcAsAppObject
350
3DA1
  3
ACASGREF_MASTER
350
3DE9
  3
ACDB_RECOMPOSE_DATA
350
B5B7
  3
AcDbVariableDictionary
350
34
  3
AcmDictionary
350
47
  3
AD_GREF_MODULE
350
3DEA
  3
AD_MAPI_MODULE
350
3E06
  3
AMG
350
2B
  3
AMGSNAPSETTINGS
350
7D
  3
ASE_INDEX_DICTIONARY
350
B570
  3
DWGPROPS
350
B94E
  3
MAPISURF_MODULE
350
3DEB
  0
DICTIONARY
  5
3F95
330
2
100
AcDbDictionary
280
     1
281
     1
  3
ACAD_LAYERFILTERS
360
B4F7
  3
ACAD_LAYERSTATES
360
3F96
  3
ACLYDICTIONARY
360
B4F6
  3
AMLAYER_GROUPCOLORS
360
AAB4
  0
DICTIONARY
  5
B8E6
330
10
100
AcDbDictionary
280
     1
281
     1
  3
ADSK_XREC_LAYER_RECONCILED
360
B8E7
  0
DICTIONARY
  5
B8E8
330
5F85
100
AcDbDictionary
280
     1
281
     1
  3
ADSK_XREC_LAYER_RECONCILED
360
B8E9
  0
DICTIONARY
  5
B8EA
330
AC9F
100
AcDbDictionary
280
     1
281
     1
  3
ADSK_XREC_LAYER_RECONCILED
360
B8EB
  0
DICTIONARY
  5
B8EC
330
ACA0
100
AcDbDictionary
280
     1
281
     1
  3
ADSK_XREC_LAYER_RECONCILED
360
B8ED
  0
DICTIONARY
  5
B8EE
330
ACA1
100
AcDbDictionary
280
     1
281
     1
  3
ADSK_XREC_LAYER_RECONCILED
360
B8EF
  0
DICTIONARY
  5
B8F0
330
ACC8
100
AcDbDictionary
280
     1
281
     1
  3
ADSK_XREC_LAYER_RECONCILED
360
B8F1
  0
DICTIONARY
  5
B8F2
330
ACC9
100
AcDbDictionary
280
     1
281
     1
  3
ADSK_XREC_LAYER_RECONCILED
360
B8F3
  0
DICTIONARY
  5
B8F4
330
ACCA
100
AcDbDictionary
280
     1
281
     1
  3
ADSK_XREC_LAYER_RECONCILED
360
B8F5
  0
DICTIONARY
  5
B8F6
330
AD60
100
AcDbDictionary
280
     1
281
     1
  3
ADSK_XREC_LAYER_RECONCILED
360
B8F7
  0
DICTIONARY
  5
B8F8
330
AD64
100
AcDbDictionary
280
     1
281
     1
  3
ADSK_XREC_LAYER_RECONCILED
360
B8F9
  0
DICTIONARY
  5
B8FA
330
AD67
100
AcDbDictionary
280
     1
281
     1
  3
ADSK_XREC_LAYER_RECONCILED
360
B8FB
  0
DICTIONARY
  5
B8FC
330
AD68
100
AcDbDictionary
280
     1
281
     1
  3
ADSK_XREC_LAYER_RECONCILED
360
B8FD
  0
DICTIONARY
  5
B8FE
330
AD69
100
AcDbDictionary
280
     1
281
     1
  3
ADSK_XREC_LAYER_RECONCILED
360
B8FF
  0
DICTIONARY
  5
B900
330
AD6A
100
AcDbDictionary
280
     1
281
     1
  3
ADSK_XREC_LAYER_RECONCILED
360
B901
  0
DICTIONARY
  5
B902
330
AD6E
100
AcDbDictionary
280
     1
281
     1
  3
ADSK_XREC_LAYER_RECONCILED
360
B903
  0
DICTIONARY
  5
B904
330
AD6F
100
AcDbDictionary
280
     1
281
     1
  3
ADSK_XREC_LAYER_RECONCILED
360
B905
  0
DICTIONARY
  5
B906
330
B1B6
100
AcDbDictionary
280
     1
281
     1
  3
ADSK_XREC_LAYER_RECONCILED
360
B907
  0
DICTIONARY
  5
B908
330
B2EB
100
AcDbDictionary
280
     1
281
     1
  3
ADSK_XREC_LAYER_RECONCILED
360
B909
  0
DICTIONARY
  5
B90A
330
B2EC
100
AcDbDictionary
280
     1
281
     1
  3
ADSK_XREC_LAYER_RECONCILED
360
B90B
  0
DICTIONARY
  5
8A
330
1F
100
AcDbDictionary
280
     1
281
     1
  3
ACAD_SORTENTS
360
B1BA
  0
DICTIONARY
  5
B94F
102
{ACAD_REACTORS
330
C
102
}
330
C
100
AcDbDictionary
281
     1
  3
DIMARCSYM
350
B950
  0
DICTIONARY
  5
AB06
102
{ACAD_REACTORS
330
C
102
}
330
C
100
AcDbDictionary
280
     1
281
     1
  0
DICTIONARY
  5
A91D
102
{ACAD_REACTORS
330
C
102
}
330
C
100
AcDbDictionary
281
     1
  0
DICTIONARY
  5
D
102
{ACAD_REACTORS
330
C
102
}
330
C
100
AcDbDictionary
281
     1
  0
DICTIONARY
  5
1A
102
{ACAD_REACTORS
330
C
102
}
330
C
100
AcDbDictionary
281
     1
  3
Model
350
22
  3
ﾚｲｱｳﾄ1
350
1E
  3
ﾚｲｱｳﾄ2
350
26
  0
DICTIONARY
  5
A91C
102
{ACAD_REACTORS
330
C
102
}
330
C
100
AcDbDictionary
281
     1
  3
ByBlock
350
B0EF
  3
ByLayer
350
B0EE
  3
Global
350
B0F0
  0
DICTIONARY
  5
B595
102
{ACAD_REACTORS
330
C
102
}
330
C
100
AcDbDictionary
281
     1
  3
Standard
350
B596
  0
DICTIONARY
  5
17
102
{ACAD_REACTORS
330
C
102
}
330
C
100
AcDbDictionary
281
     1
  3
Standard
350
18
  0
DICTIONARY
  5
19
102
{ACAD_REACTORS
330
C
102
}
330
C
100
AcDbDictionary
281
     1
  0
ACDBDICTIONARYWDFLT
  5
E
102
{ACAD_REACTORS
330
C
102
}
330
C
100
AcDbDictionary
281
     1
  3
Normal
350
F
100
AcDbDictionaryWithDefault
340
F
  0
DICTIONARY
  5
B573
102
{ACAD_REACTORS
330
C
102
}
330
C
100
AcDbDictionary
281
     1
  3
A0
350
B574
  3
A1
350
B575
  3
A2
350
B576
  3
A3
350
B577
  3
A4
350
B578
  3
A5
350
B579
  3
A6
350
B57A
  3
A7
350
B57B
  3
A8
350
B57C
  3
A9
350
B57D
  3
B0
350
B57E
  3
B1
350
B57F
  3
B2
350
B580
  3
B3
350
B581
  3
B4
350
B582
  3
B5
350
B583
  3
B6
350
B584
  3
B7
350
B585
  3
B8
350
B586
  3
B9
350
B587
  3
C0
350
B588
  3
C1
350
B589
  3
C2
350
B58A
  3
C3
350
B58B
  3
C4
350
B58C
  3
C5
350
B58D
  3
C6
350
B58E
  3
C7
350
B58F
  3
C8
350
B590
  3
C9
350
B591
  3
D0
350
B592
  3
D1
350
B593
  3
D2
350
B594
  0
DICTIONARY
  5
AAB9
102
{ACAD_REACTORS
330
C
102
}
330
C
100
AcDbDictionary
281
     1
  3
Standard
350
AABA
  0
DICTIONARY
  5
B0F1
102
{ACAD_REACTORS
330
C
102
}
330
C
100
AcDbDictionary
281
     1
  3
2dWireframe
350
B0F7
  3
3D Hidden
350
B0F9
  3
3dWireframe
350
B0F8
  3
Basic
350
B0F6
  3
Brighten
350
B0FD
  3
ColorChange
350
B101
  3
Conceptual
350
B0FA
  3
Dim
350
B0FC
  3
Facepattern
350
B100
  3
Flat
350
B0F2
  3
FlatWithEdges
350
B0F3
  3
Gouraud
350
B0F4
  3
GouraudWithEdges
350
B0F5
  3
Linepattern
350
B0FF
  3
Realistic
350
B0FB
  3
Thicken
350
B0FE
  0
ACAD_PROXY_OBJECT
  5
3DA1
102
{ACAD_REACTORS
330
C
102
}
330
C
100
AcDbProxyObject
 90
      499
 91
      576
 95
   917527
 70
     0
 93
       10
310
407F
 94
        0
1001
ACAD
1000
AcRTDxfName
1000
ASAPP
  0
ACAD_PROXY_OBJECT
  5
3DE9
102
{ACAD_REACTORS
330
C
102
}
330
C
100
AcDbProxyObject
 90
      499
 91
      581
 95
   917527
 70
     0
 93
       34
310
010000407F
 94
        0
1001
ACAD
1000
AcRTDxfName
1000
ACASGREFMASTER
  0
XRECORD
  5
B5B7
102
{ACAD_REACTORS
330
C
102
}
330
C
100
AcDbXrecord
280
     1
 90
        1
330
AABA
  0
DICTIONARY
  5
34
102
{ACAD_REACTORS
330
C
102
}
330
C
100
AcDbDictionary
281
     1
  3
CANNOSCALE
350
B5BA
  3
CMLEADERSTYLE
350
B5B8
  3
CTABLESTYLE
350
AAF3
  3
DIMASSOC
350
A10C
  3
FIELDEVAL
350
AB07
  3
INDEXCTL
350
35
  3
LIGHTINGUNITS
350
B5BB
  3
MSLTSCALE
350
B5B9
  3
SORTENTS
350
194C
  0
DICTIONARY
  5
47
102
{ACAD_REACTORS
330
C
102
}
330
C
100
AcDbDictionary
281
     1
  3
AcmBOM
350
7E8
  3
AcmStdDictionary
350
4C
  3
AMDTSECTSYM_ARROWCOLOR
350
A929
  0
ACAD_PROXY_OBJECT
  5
3DEA
102
{ACAD_REACTORS
330
C
102
}
330
C
100
AcDbProxyObject
 90
      499
 91
      582
 95
   917527
 70
     0
 93
      114
310
00000043800000000000000000003F
 94
        0
1001
ACAD
1000
AcRTDxfName
1000
ACADGREFMODULE
  0
ACAD_PROXY_OBJECT
  5
3E06
102
{ACAD_REACTORS
330
C
102
}
330
C
100
AcDbProxyObject
 90
      499
 91
      594
 95
   917527
 70
     0
 93
       34
310
05000044FF
 94
        0
1001
ACAD
1000
AcRTDxfName
1000
MAPIADMODULE
  0
DICTIONARY
  5
2B
102
{ACAD_REACTORS
330
C
102
}
330
C
100
AcDbDictionary
281
     1
  0
DICTIONARY
  5
7D
102
{ACAD_REACTORS
330
C
102
}
330
C
100
AcDbDictionary
281
     1
  0
DICTIONARY
  5
B570
102
{ACAD_REACTORS
330
C
102
}
330
C
100
AcDbDictionary
281
     1
  3
ASEBlockHierarchyIndexRecord
350
B571
1001
DCO15
1040
1706332604.97
  0
XRECORD
  5
B94E
102
{ACAD_REACTORS
330
C
102
}
330
C
100
AcDbXrecord
280
     1
  1
DWGPROPS COOKIE
  2

  3

  4

  6

  7

  8
Administrator
  9

300
AmdtFileType=84
301
=
302
=
303
=
304
=
305
=
306
=
307
=
308
=
309
=
 40
0.0004154050925926
 41
2455883.394713357
 42
2456030.686718021
  1

 90
        1
  0
ACAD_PROXY_OBJECT
  5
3DEB
102
{ACAD_REACTORS
330
C
102
}
330
C
100
AcDbProxyObject
 90
      499
 91
      583
 95
   917527
 70
     0
 93
        8
310
047E
 94
        0
1001
ACAD
1000
AcRTDxfName
1000
AMDTMAPISURFMOUDULE
  0
DICTIONARY
  5
B4F7
102
{ACAD_REACTORS
330
3F95
102
}
330
3F95
100
AcDbDictionary
281
     1
  0
DICTIONARY
  5
3F96
102
{ACAD_REACTORS
330
3F95
102
}
330
3F95
100
AcDbDictionary
281
     1
  3
20011210
350
3FB7
  0
DICTIONARY
  5
B4F6
102
{ACAD_REACTORS
330
3F95
102
}
330
3F95
100
AcDbDictionary
281
     1
1001
ACAD
1000
<All
  0
DICTIONARY
  5
AAB4
102
{ACAD_REACTORS
330
3F95
102
}
330
3F95
100
AcDbDictionary
280
     1
281
     1
  0
XRECORD
  5
B8E7
102
{ACAD_REACTORS
330
B8E6
102
}
330
B8E6
100
AcDbXrecord
280
     1
290
     1
  0
XRECORD
  5
B8E9
102
{ACAD_REACTORS
330
B8E8
102
}
330
B8E8
100
AcDbXrecord
280
     1
290
     1
  0
XRECORD
  5
B8EB
102
{ACAD_REACTORS
330
B8EA
102
}
330
B8EA
100
AcDbXrecord
280
     1
290
     1
  0
XRECORD
  5
B8ED
102
{ACAD_REACTORS
330
B8EC
102
}
330
B8EC
100
AcDbXrecord
280
     1
290
     1
  0
XRECORD
  5
B8EF
102
{ACAD_REACTORS
330
B8EE
102
}
330
B8EE
100
AcDbXrecord
280
     1
290
     1
  0
XRECORD
  5
B8F1
102
{ACAD_REACTORS
330
B8F0
102
}
330
B8F0
100
AcDbXrecord
280
     1
290
     1
  0
XRECORD
  5
B8F3
102
{ACAD_REACTORS
330
B8F2
102
}
330
B8F2
100
AcDbXrecord
280
     1
290
     1
  0
XRECORD
  5
B8F5
102
{ACAD_REACTORS
330
B8F4
102
}
330
B8F4
100
AcDbXrecord
280
     1
290
     1
  0
XRECORD
  5
B8F7
102
{ACAD_REACTORS
330
B8F6
102
}
330
B8F6
100
AcDbXrecord
280
     1
290
     1
  0
XRECORD
  5
B8F9
102
{ACAD_REACTORS
330
B8F8
102
}
330
B8F8
100
AcDbXrecord
280
     1
290
     1
  0
XRECORD
  5
B8FB
102
{ACAD_REACTORS
330
B8FA
102
}
330
B8FA
100
AcDbXrecord
280
     1
290
     1
  0
XRECORD
  5
B8FD
102
{ACAD_REACTORS
330
B8FC
102
}
330
B8FC
100
AcDbXrecord
280
     1
290
     1
  0
XRECORD
  5
B8FF
102
{ACAD_REACTORS
330
B8FE
102
}
330
B8FE
100
AcDbXrecord
280
     1
290
     1
  0
XRECORD
  5
B901
102
{ACAD_REACTORS
330
B900
102
}
330
B900
100
AcDbXrecord
280
     1
290
     1
  0
XRECORD
  5
B903
102
{ACAD_REACTORS
330
B902
102
}
330
B902
100
AcDbXrecord
280
     1
290
     1
  0
XRECORD
  5
B905
102
{ACAD_REACTORS
330
B904
102
}
330
B904
100
AcDbXrecord
280
     1
290
     1
  0
XRECORD
  5
B907
102
{ACAD_REACTORS
330
B906
102
}
330
B906
100
AcDbXrecord
280
     1
290
     1
  0
XRECORD
  5
B909
102
{ACAD_REACTORS
330
B908
102
}
330
B908
100
AcDbXrecord
280
     1
290
     1
  0
XRECORD
  5
B90B
102
{ACAD_REACTORS
330
B90A
102
}
330
B90A
100
AcDbXrecord
280
     1
290
     1
  0
SORTENTSTABLE
  5
B1BA
102
{ACAD_REACTORS
330
8A
102
}
330
8A
100
AcDbSortentsTable
330
1F
  0
XRECORD
  5
B950
102
{ACAD_REACTORS
330
B94F
102
}
330
B94F
100
AcDbXrecord
280
     1
 70
     1
  0
LAYOUT
  5
22
102
{ACAD_XDICTIONARY
360
B953
102
}
102
{ACAD_REACTORS
330
1A
102
}
330
1A
100
AcDbPlotSettings
  1

  2
FX DocuWide 2050/2051
  4
A3
  6
AM_VIEW1
 40
3.174999952316284
 41
3.174999952316284
 42
3.17498779296875
 43
3.17498779296875
 44
296.989501953125
 45
419.9889831542968
 46
0.0
 47
1.295841228961961
 48
214.3704939521119
 49
367.5855324241176
140
275.6727856380065
141
407.629191407817
142
1.0
143
0.7225445603030646
 70
  3764
 72
     1
 73
     1
 74
     2
  7
monochrome.ctb
 75
     0
147
1.383997686703999
148
-1700.85588156276
149
-1647.985052086429
100
AcDbLayout
  1
Model
 70
     1
 71
     0
 10
0.0
 20
0.0
 11
12.0
 21
9.0
 12
0.0
 22
0.0
 32
0.0
 14
0.0
 24
0.0
 34
0.0
 15
0.0
 25
0.0
 35
0.0
146
0.0
 13
0.0
 23
0.0
 33
0.0
 16
1.0
 26
0.0
 36
0.0
 17
0.0
 27
1.0
 37
0.0
 76
     0
330
1F
331
B0EC
1001
ACAD_PSEXT
1000
FX DocuWide 2050/2051
1000
FX DocuWide 2050/2051
1000
IP_192.200.15.252
1000

1070
     0
  0
LAYOUT
  5
1E
102
{ACAD_XDICTIONARY
360
B951
102
}
102
{ACAD_REACTORS
330
1A
102
}
330
1A
100
AcDbPlotSettings
  1

  2
\\ML370\XEROX
  4
A4
  6

 40
3.174999952316284
 41
3.174999952316284
 42
3.175003051757812
 43
3.17498779296875
 44
209.8674926757813
 45
296.6719970703125
 46
0.0
 47
0.0
 48
0.0
 49
0.0
140
0.0
141
0.0
142
1.0
143
1.0
 70
   688
 72
     1
 73
     1
 74
     5
  7
monochrome.ctb
 75
    16
147
1.0
148
0.0
149
0.0
100
AcDbLayout
  1
ﾚｲｱｳﾄ1
 70
     1
 71
     1
 10
-3.17498779296875
 20
-3.174999952316284
 11
293.4970092773438
 21
206.692492723465
 12
0.0
 22
0.0
 32
0.0
 14
1.000000000000000E+20
 24
1.000000000000000E+20
 34
1.000000000000000E+20
 15
-1.000000000000000E+20
 25
-1.000000000000000E+20
 35
-1.000000000000000E+20
146
0.0
 13
0.0
 23
0.0
 33
0.0
 16
1.0
 26
0.0
 36
0.0
 17
0.0
 27
1.0
 37
0.0
 76
     0
330
1B
  0
LAYOUT
  5
26
102
{ACAD_XDICTIONARY
360
B955
102
}
102
{ACAD_REACTORS
330
1A
102
}
330
1A
100
AcDbPlotSettings
  1

  2
\\ML370\XEROX
  4

  6

 40
0.0
 41
0.0
 42
0.0
 43
0.0
 44
0.0
 45
0.0
 46
0.0
 47
0.0
 48
0.0
 49
0.0
140
0.0
141
0.0
142
1.0
143
1.0
 70
   688
 72
     0
 73
     0
 74
     5
  7
monochrome.ctb
 75
    16
147
1.0
148
0.0
149
0.0
100
AcDbLayout
  1
ﾚｲｱｳﾄ2
 70
     1
 71
     2
 10
0.0
 20
0.0
 11
12.0
 21
9.0
 12
0.0
 22
0.0
 32
0.0
 14
0.0
 24
0.0
 34
0.0
 15
0.0
 25
0.0
 35
0.0
146
0.0
 13
0.0
 23
0.0
 33
0.0
 16
1.0
 26
0.0
 36
0.0
 17
0.0
 27
1.0
 37
0.0
 76
     0
330
23
  0
MATERIAL
  5
B0EF
102
{ACAD_XDICTIONARY
360
B95A
102
}
102
{ACAD_REACTORS
330
A91C
102
}
330
A91C
100
AcDbMaterial
  1
ByBlock
  0
MATERIAL
  5
B0EE
102
{ACAD_XDICTIONARY
360
B958
102
}
102
{ACAD_REACTORS
330
A91C
102
}
330
A91C
100
AcDbMaterial
  1
ByLayer
  0
MATERIAL
  5
B0F0
102
{ACAD_XDICTIONARY
360
B95C
102
}
102
{ACAD_REACTORS
330
A91C
102
}
330
A91C
100
AcDbMaterial
  1
Global
  0
ACAD_PROXY_OBJECT
  5
B596
102
{ACAD_REACTORS
330
B595
102
}
330
B595
100
AcDbProxyObject
 90
      499
 91
      626
 95
  1703963
 70
     0
 93
      817
310
40901902A40600000030400FEFFFFFF8000000000000008102B5E8DC0F42B5CFC0000000000001040405064068000000C1000000000000000410000000000000004102000000304015D94000000000000C03F4214C01D0018401B80190018401C80190028C00CC
340
14
340
0
340
11
340
0
 94
        0
1001
ACAD_MLEADERVER
1070
     2
1001
ACAD
1000
AcRTDxfName
1000
MLEADERSTYLE
  0
MLINESTYLE
  5
18
102
{ACAD_REACTORS
330
17
102
}
330
17
100
AcDbMlineStyle
  2
STANDARD
 70
     0
  3

 62
   256
 51
90.0
 52
90.0
 71
     2
 49
0.5
 62
   256
  6
BYLAYER
 49
-0.5
 62
   256
  6
BYLAYER
  0
ACDBPLACEHOLDER
  5
F
102
{ACAD_REACTORS
330
E
102
}
330
E
  0
ACAD_PROXY_OBJECT
  5
B574
102
{ACAD_REACTORS
330
B573
102
}
330
B573
100
AcDbProxyObject
 90
      499
 91
      625
 95
  1703963
 70
     0
 93
       82
310
968198801D0018801D004C
 94
        0
1001
ACAD
1000
AcRTDxfName
1000
SCALE
  0
ACAD_PROXY_OBJECT
  5
B575
102
{ACAD_REACTORS
330
B573
102
}
330
B573
100
AcDbProxyObject
 90
      499
 91
      625
 95
  1703963
 70
     0
 93
      146
310
9000000000000001008198801D0019001D004C
 94
        0
1001
ACAD
1000
AcRTDxfName
1000
SCALE
  0
ACAD_PROXY_OBJECT
  5
B576
102
{ACAD_REACTORS
330
B573
102
}
330
B573
100
AcDbProxyObject
 90
      499
 91
      625
 95
  1703963
 70
     0
 93
      146
310
9000000000000041008198801D001A001D004C
 94
        0
1001
ACAD
1000
AcRTDxfName
1000
SCALE
  0
ACAD_PROXY_OBJECT
  5
B577
102
{ACAD_REACTORS
330
B573
102
}
330
B573
100
AcDbProxyObject
 90
      499
 91
      625
 95
  1703963
 70
     0
 93
      146
310
9000000000000051008198801D001A801D004C
 94
        0
1001
ACAD
1000
AcRTDxfName
1000
SCALE
  0
ACAD_PROXY_OBJECT
  5
B578
102
{ACAD_REACTORS
330
B573
102
}
330
B573
100
AcDbProxyObject
 90
      499
 91
      625
 95
  1703963
 70
     0
 93
      146
310
9000000000000081008198801D001C001D004C
 94
        0
1001
ACAD
1000
AcRTDxfName
1000
SCALE
  0
ACAD_PROXY_OBJECT
  5
B579
102
{ACAD_REACTORS
330
B573
102
}
330
B573
100
AcDbProxyObject
 90
      499
 91
      625
 95
  1703963
 70
     0
 93
      162
310
9000000000000091008218801D001880180025004C
 94
        0
1001
ACAD
1000
AcRTDxfName
1000
SCALE
  0
ACAD_PROXY_OBJECT
  5
B57A
102
{ACAD_REACTORS
330
B573
102
}
330
B573
100
AcDbProxyObject
 90
      499
 91
      625
 95
  1703963
 70
     0
 93
      162
310
90000000000000C1008218801D0018801B0025004C
 94
        0
1001
ACAD
1000
AcRTDxfName
1000
SCALE
  0
ACAD_PROXY_OBJECT
  5
B57B
102
{ACAD_REACTORS
330
B573
102
}
330
B573
100
AcDbProxyObject
 90
      499
 91
      625
 95
  1703963
 70
     0
 93
      162
310
90000000000000D1008218801D001900180025004C
 94
        0
1001
ACAD
1000
AcRTDxfName
1000
SCALE
  0
ACAD_PROXY_OBJECT
  5
B57C
102
{ACAD_REACTORS
330
B573
102
}
330
B573
100
AcDbProxyObject
 90
      499
 91
      625
 95
  1703963
 70
     0
 93
      162
310
90000000000000F9008218801D001980180025004C
 94
        0
1001
ACAD
1000
AcRTDxfName
1000
SCALE
  0
ACAD_PROXY_OBJECT
  5
B57D
102
{ACAD_REACTORS
330
B573
102
}
330
B573
100
AcDbProxyObject
 90
      499
 91
      625
 95
  1703963
 70
     0
 93
      162
310
9000000000000111008218801D001A00180025004C
 94
        0
1001
ACAD
1000
AcRTDxfName
1000
SCALE
  0
ACAD_PROXY_OBJECT
  5
B57E
102
{ACAD_REACTORS
330
B573
102
}
330
B573
100
AcDbProxyObject
 90
      499
 91
      625
 95
  1703963
 70
     0
 93
      162
310
9000000000000125008218801D001A80180025004C
 94
        0
1001
ACAD
1000
AcRTDxfName
1000
SCALE
  0
ACAD_PROXY_OBJECT
  5
B57F
102
{ACAD_REACTORS
330
B573
102
}
330
B573
100
AcDbProxyObject
 90
      499
 91
      625
 95
  1703963
 70
     0
 93
      178
310
9000000000000165008298801D001880180018002D004C
 94
        0
1001
ACAD
1000
AcRTDxfName
1000
SCALE
  0
ACAD_PROXY_OBJECT
  5
B580
102
{ACAD_REACTORS
330
B573
102
}
330
B573
100
AcDbProxyObject
 90
      499
 91
      625
 95
  1703963
 70
     0
 93
      146
310
8000000000000004048199001D0018801D004C
 94
        0
1001
ACAD
1000
AcRTDxfName
1000
SCALE
  0
ACAD_PROXY_OBJECT
  5
B581
102
{ACAD_REACTORS
330
B573
102
}
330
B573
100
AcDbProxyObject
 90
      499
 91
      625
 95
  1703963
 70
     0
 93
      146
310
800000000000010404819A001D0018801D004C
 94
        0
1001
ACAD
1000
AcRTDxfName
1000
SCALE
  0
ACAD_PROXY_OBJECT
  5
B582
102
{ACAD_REACTORS
330
B573
102
}
330
B573
100
AcDbProxyObject
 90
      499
 91
      625
 95
  1703963
 70
     0
 93
      146
310
800000000000020404819C001D0018801D004C
 94
        0
1001
ACAD
1000
AcRTDxfName
1000
SCALE
  0
ACAD_PROXY_OBJECT
  5
B583
102
{ACAD_REACTORS
330
B573
102
}
330
B573
100
AcDbProxyObject
 90
      499
 91
      625
 95
  1703963
 70
     0
 93
      162
310
80000000000002440482188018001D00188025004C
 94
        0
1001
ACAD
1000
AcRTDxfName
1000
SCALE
  0
ACAD_PROXY_OBJECT
  5
B584
102
{ACAD_REACTORS
330
B573
102
}
330
B573
100
AcDbProxyObject
 90
      499
 91
      625
 95
  1703963
 70
     0
 93
      178
310
800000000000059404829880180018001D0018802D004C
 94
        0
1001
ACAD
1000
AcRTDxfName
1000
SCALE
  0
ACAD_PROXY_OBJECT
  5
B585
102
{ACAD_REACTORS
330
B573
102
}
330
B573
100
AcDbProxyObject
 90
      499
 91
      625
 95
  1703963
 70
     0
 93
      386
310
8000000000000803F0000000000000A1008718801780188019001C00110010001E8010001880138016801800110075004C
 94
        0
1001
ACAD
1000
AcRTDxfName
1000
SCALE
  0
ACAD_PROXY_OBJECT
  5
B586
102
{ACAD_REACTORS
330
B573
102
}
330
B573
100
AcDbProxyObject
 90
      499
 91
      625
 95
  1703963
 70
     0
 93
      370
310
8000000000000903F0000000000000A10086988017801B001A00110010001E801000188013801680180011006D004C
 94
        0
1001
ACAD
1000
AcRTDxfName
1000
SCALE
  0
ACAD_PROXY_OBJECT
  5
B587
102
{ACAD_REACTORS
330
B573
102
}
330
B573
100
AcDbProxyObject
 90
      499
 91
      625
 95
  1703963
 70
     0
 93
      370
310
8000000000000A03F0000000000000A100869880178019801900110010001E801000188013801680180011006D004C
 94
        0
1001
ACAD
1000
AcRTDxfName
1000
SCALE
  0
ACAD_PROXY_OBJECT
  5
B588
102
{ACAD_REACTORS
330
B573
102
}
330
B573
100
AcDbProxyObject
 90
      499
 91
      625
 95
  1703963
 70
     0
 93
      370
310
8000000000000B03F0000000000000A100869880178018801B00110010001E801000188013801680180011006D004C
 94
        0
1001
ACAD
1000
AcRTDxfName
1000
SCALE
  0
ACAD_PROXY_OBJECT
  5
B589
102
{ACAD_REACTORS
330
B573
102
}
330
B573
100
AcDbProxyObject
 90
      499
 91
      625
 95
  1703963
 70
     0
 93
      370
310
8000000000000B83F0000000000000A100869980178019801900110010001E801000188013801680180011006D004C
 94
        0
1001
ACAD
1000
AcRTDxfName
1000
SCALE
  0
ACAD_PROXY_OBJECT
  5
B58A
102
{ACAD_REACTORS
330
B573
102
}
330
B573
100
AcDbProxyObject
 90
      499
 91
      625
 95
  1703963
 70
     0
 93
      354
310
8000000000000C03F0000000000000A10086188017801C00110010001E8010001880138016801800110065004C
 94
        0
1001
ACAD
1000
AcRTDxfName
1000
SCALE
  0
ACAD_PROXY_OBJECT
  5
B58B
102
{ACAD_REACTORS
330
B573
102
}
330
B573
100
AcDbProxyObject
 90
      499
 91
      625
 95
  1703963
 70
     0
 93
      370
310
8000000000000C83F0000000000000A100869980178018801B00110010001E801000188013801680180011006D004C
 94
        0
1001
ACAD
1000
AcRTDxfName
1000
SCALE
  0
ACAD_PROXY_OBJECT
  5
B58C
102
{ACAD_REACTORS
330
B573
102
}
330
B573
100
AcDbProxyObject
 90
      499
 91
      625
 95
  1703963
 70
     0
 93
      354
310
8000000000000D03F0000000000000A10086188017801A00110010001E8010001880138016801800110065004C
 94
        0
1001
ACAD
1000
AcRTDxfName
1000
SCALE
  0
ACAD_PROXY_OBJECT
  5
B58D
102
{ACAD_REACTORS
330
B573
102
}
330
B573
100
AcDbProxyObject
 90
      499
 91
      625
 95
  1703963
 70
     0
 93
      354
310
8000000000000D83F0000000000000A10086198017801C00110010001E8010001880138016801800110065004C
 94
        0
1001
ACAD
1000
AcRTDxfName
1000
SCALE
  0
ACAD_PROXY_OBJECT
  5
B58E
102
{ACAD_REACTORS
330
B573
102
}
330
B573
100
AcDbProxyObject
 90
      499
 91
      625
 95
  1703963
 70
     0
 93
      354
310
8000000000000E03F0000000000000A10086188017801900110010001E8010001880138016801800110065004C
 94
        0
1001
ACAD
1000
AcRTDxfName
1000
SCALE
  0
ACAD_PROXY_OBJECT
  5
B58F
102
{ACAD_REACTORS
330
B573
102
}
330
B573
100
AcDbProxyObject
 90
      499
 91
      625
 95
  1703963
 70
     0
 93
      354
310
8000000000000E83F0000000000000A10086198017801A00110010001E8010001880138016801800110065004C
 94
        0
1001
ACAD
1000
AcRTDxfName
1000
SCALE
  0
ACAD_PROXY_OBJECT
  5
B590
102
{ACAD_REACTORS
330
B573
102
}
330
B573
100
AcDbProxyObject
 90
      499
 91
      625
 95
  1703963
 70
     0
 93
      258
310
90000000000000A100851880110010001E8010001880138016801800110055004C
 94
        0
1001
ACAD
1000
AcRTDxfName
1000
SCALE
  0
ACAD_PROXY_OBJECT
  5
B591
102
{ACAD_REACTORS
330
B573
102
}
330
B573
100
AcDbProxyObject
 90
      499
 91
      625
 95
  1703963
 70
     0
 93
      386
310
8000000000000F83F0000000000000A1008718801680188017801900110010001E8010001880138016801800110075004C
 94
        0
1001
ACAD
1000
AcRTDxfName
1000
SCALE
  0
ACAD_PROXY_OBJECT
  5
B592
102
{ACAD_REACTORS
330
B573
102
}
330
B573
100
AcDbProxyObject
 90
      499
 91
      625
 95
  1703963
 70
     0
 93
      322
310
800000000000008400000000000000A100851980110010001E8010001880138016801800110055004C
 94
        0
1001
ACAD
1000
AcRTDxfName
1000
SCALE
  0
ACAD_PROXY_OBJECT
  5
B593
102
{ACAD_REACTORS
330
B573
102
}
330
B573
100
AcDbProxyObject
 90
      499
 91
      625
 95
  1703963
 70
     0
 93
      322
310
800000000000018400000000000000A100851B00110010001E8010001880138016801800110055004C
 94
        0
1001
ACAD
1000
AcRTDxfName
1000
SCALE
  0
ACAD_PROXY_OBJECT
  5
B594
102
{ACAD_REACTORS
330
B573
102
}
330
B573
100
AcDbProxyObject
 90
      499
 91
      625
 95
  1703963
 70
     0
 93
      370
310
800000000000028400000000000000A100869880138016801800110010001E801000188013801680180011006D004C
 94
        0
1001
ACAD
1000
AcRTDxfName
1000
SCALE
  0
TABLESTYLE
  5
AABA
102
{ACAD_XDICTIONARY
360
B5B5
102
}
102
{ACAD_REACTORS
330
AAB9
102
}
330
AAB9
100
AcDbTableStyle
  3
Standard
 70
     0
 71
     0
 40
1.5
 41
1.5
280
     0
281
     0
  7
STANDARD
140
4.5
170
     2
 62
     0
 63
     7
283
     0
274
    -2
284
     1
 64
     0
275
    -2
285
     1
 65
     0
276
    -2
286
     1
 66
     0
277
    -2
287
     1
 67
     0
278
    -2
288
     1
 68
     0
279
    -2
289
     1
 69
     0
  7
STANDARD
140
6.0
170
     5
 62
     0
 63
     7
283
     0
274
    -2
284
     1
 64
     0
275
    -2
285
     1
 65
     0
276
    -2
286
     1
 66
     0
277
    -2
287
     1
 67
     0
278
    -2
288
     1
 68
     0
279
    -2
289
     1
 69
     0
  7
STANDARD
140
4.5
170
     5
 62
     0
 63
     7
283
     0
274
    -2
284
     1
 64
     0
275
    -2
285
     1
 65
     0
276
    -2
286
     1
 66
     0
277
    -2
287
     1
 67
     0
278
    -2
288
     1
 68
     0
279
    -2
289
     1
 69
     0
  0
VISUALSTYLE
  5
B0F7
102
{ACAD_REACTORS
330
B0F1
102
}
330
B0F1
100
AcDbVisualStyle
  2
2dWireframe
 70
     4
 71
     0
 72
     2
 73
     0
 90
        0
 40
-0.6
 41
-30.0
 62
     5
 63
     7
 74
     1
 91
        4
 64
     7
 65
   257
 75
     1
175
     1
 42
1.0
 92
        0
 66
   257
 43
1.0
 76
     1
 77
     6
 78
     2
 67
     7
 79
     5
170
     0
171
     0
290
     0
174
     0
 93
        1
 44
0.0
173
     0
291
     0
 45
0.0
1001
ACAD
1000
AcDbSavedByObjectVersion
1070
     0
  0
VISUALSTYLE
  5
B0F9
102
{ACAD_REACTORS
330
B0F1
102
}
330
B0F1
100
AcDbVisualStyle
  2
3D Hidden
 70
     6
 71
     1
 72
     2
 73
     2
 90
        0
 40
-0.6
 41
-30.0
 62
     5
 63
     7
 74
     2
 91
        2
 64
     7
 65
   257
 75
     2
175
     1
 42
40.0
 92
        0
 66
   257
 43
1.0
 76
     1
 77
     6
 78
     2
 67
     7
 79
     3
170
     0
171
     0
290
     0
174
     0
 93
        1
 44
0.0
173
     0
291
     0
 45
0.0
1001
ACAD
1000
AcDbSavedByObjectVersion
1070
     0
  0
VISUALSTYLE
  5
B0F8
102
{ACAD_REACTORS
330
B0F1
102
}
330
B0F1
100
AcDbVisualStyle
  2
3dWireframe
 70
     5
 71
     0
 72
     2
 73
     0
 90
        0
 40
-0.6
 41
-30.0
 62
     5
 63
     7
 74
     1
 91
        4
 64
     7
 65
   257
 75
     1
175
     1
 42
1.0
 92
        0
 66
   257
 43
1.0
 76
     1
 77
     6
 78
     2
 67
     7
 79
     5
170
     0
171
     0
290
     0
174
     0
 93
        1
 44
0.0
173
     0
291
     0
 45
0.0
1001
ACAD
1000
AcDbSavedByObjectVersion
1070
     0
  0
VISUALSTYLE
  5
B0F6
102
{ACAD_REACTORS
330
B0F1
102
}
330
B0F1
100
AcDbVisualStyle
  2
Basic
 70
     7
 71
     1
 72
     0
 73
     1
 90
        0
 40
-0.6
 41
-30.0
 62
     5
 63
     7
 74
     0
 91
        4
 64
     7
 65
   257
 75
     1
175
     1
 42
1.0
 92
        8
 66
     7
 43
1.0
 76
     1
 77
     6
 78
     2
 67
     7
 79
     5
170
     0
171
     0
290
     0
174
     0
 93
        1
 44
0.0
173
     0
291
     1
 45
0.0
1001
ACAD
1000
AcDbSavedByObjectVersion
1070
     0
  0
VISUALSTYLE
  5
B0FD
102
{ACAD_REACTORS
330
B0F1
102
}
330
B0F1
100
AcDbVisualStyle
  2
Brighten
 70
    12
 71
     2
 72
     2
 73
     0
 90
        0
 40
-0.6
 41
-30.0
 62
     5
 63
     7
 74
     1
 91
        4
 64
     7
 65
   257
 75
     1
175
     1
 42
1.0
 92
        8
 66
     7
 43
1.0
 76
     1
 77
     6
 78
     2
 67
     7
 79
     5
170
     0
171
     0
290
     0
174
     0
 93
        1
 44
50.0
173
     0
291
     1
 45
0.0
1001
ACAD
1000
AcDbSavedByObjectVersion
1070
     0
  0
VISUALSTYLE
  5
B101
102
{ACAD_REACTORS
330
B0F1
102
}
330
B0F1
100
AcDbVisualStyle
  2
ColorChange
 70
    16
 71
     2
 72
     2
 73
     3
 90
        0
 40
-0.6
 41
-30.0
 62
     5
 63
     8
 74
     1
 91
        4
 64
     7
 65
   257
 75
     1
175
     1
 42
1.0
 92
        8
 66
     8
 43
1.0
 76
     1
 77
     6
 78
     2
 67
     7
 79
     5
170
     0
171
     0
290
     0
174
     0
 93
        1
 44
0.0
173
     0
291
     1
 45
0.0
1001
ACAD
1000
AcDbSavedByObjectVersion
1070
     0
  0
VISUALSTYLE
  5
B0FA
102
{ACAD_REACTORS
330
B0F1
102
}
330
B0F1
100
AcDbVisualStyle
  2
Conceptual
 70
     9
 71
     3
 72
     2
 73
     0
 90
        0
 40
-0.6
 41
-30.0
 62
     5
 63
     7
 74
     2
 91
        2
 64
     7
 65
   257
 75
     1
175
     1
 42
40.0
 92
        8
 66
     7
 43
1.0
 76
     1
 77
     6
 78
     2
 67
     7
 79
     3
170
     0
171
     0
290
     0
174
     0
 93
        1
 44
0.0
173
     0
291
     0
 45
0.0
1001
ACAD
1000
AcDbSavedByObjectVersion
1070
     0
  0
VISUALSTYLE
  5
B0FC
102
{ACAD_REACTORS
330
B0F1
102
}
330
B0F1
100
AcDbVisualStyle
  2
Dim
 70
    11
 71
     2
 72
     2
 73
     0
 90
        0
 40
-0.6
 41
-30.0
 62
     5
 63
     7
 74
     1
 91
        4
 64
     7
 65
   257
 75
     1
175
     1
 42
1.0
 92
        8
 66
     7
 43
1.0
 76
     1
 77
     6
 78
     2
 67
     7
 79
     5
170
     0
171
     0
290
     0
174
     0
 93
        1
 44
-50.0
173
     0
291
     1
 45
0.0
1001
ACAD
1000
AcDbSavedByObjectVersion
1070
     0
  0
VISUALSTYLE
  5
B100
102
{ACAD_REACTORS
330
B0F1
102
}
330
B0F1
100
AcDbVisualStyle
  2
Facepattern
 70
    15
 71
     2
 72
     2
 73
     0
 90
        0
 40
-0.6
 41
-30.0
 62
     5
 63
     7
 74
     1
 91
        4
 64
     7
 65
   257
 75
     1
175
     1
 42
1.0
 92
        8
 66
     7
 43
1.0
 76
     1
 77
     6
 78
     2
 67
     7
 79
     5
170
     0
171
     0
290
     0
174
     0
 93
        1
 44
0.0
173
     0
291
     1
 45
0.0
1001
ACAD
1000
AcDbSavedByObjectVersion
1070
     0
  0
VISUALSTYLE
  5
B0F2
102
{ACAD_REACTORS
330
B0F1
102
}
330
B0F1
100
AcDbVisualStyle
  2
Flat
 70
     0
 71
     2
 72
     1
 73
     1
 90
        2
 40
-0.6
 41
30.0
 62
     5
 63
     7
 74
     0
 91
        4
 64
     7
 65
   257
 75
     1
175
     1
 42
1.0
 92
        8
 66
     7
 43
1.0
 76
     1
 77
     6
 78
     2
 67
     7
 79
     5
170
     0
171
     0
290
     0
174
     0
 93
       13
 44
0.0
173
     0
291
     1
 45
0.0
1001
ACAD
1000
AcDbSavedByObjectVersion
1070
     0
  0
VISUALSTYLE
  5
B0F3
102
{ACAD_REACTORS
330
B0F1
102
}
330
B0F1
100
AcDbVisualStyle
  2
FlatWithEdges
 70
     1
 71
     2
 72
     1
 73
     1
 90
        2
 40
-0.6
 41
30.0
 62
     5
 63
     7
 74
     1
 91
        4
 64
     7
 65
   257
 75
     1
175
     1
 42
1.0
 92
        0
 66
   257
 43
1.0
 76
     1
 77
     6
 78
     2
 67
     7
 79
     5
170
     0
171
     0
290
     0
174
     0
 93
       13
 44
0.0
173
     0
291
     1
 45
0.0
1001
ACAD
1000
AcDbSavedByObjectVersion
1070
     0
  0
VISUALSTYLE
  5
B0F4
102
{ACAD_REACTORS
330
B0F1
102
}
330
B0F1
100
AcDbVisualStyle
  2
Gouraud
 70
     2
 71
     2
 72
     2
 73
     1
 90
        2
 40
-0.6
 41
30.0
 62
     5
 63
     7
 74
     0
 91
        4
 64
     7
 65
   257
 75
     1
175
     1
 42
1.0
 92
        0
 66
     7
 43
1.0
 76
     1
 77
     6
 78
     2
 67
     7
 79
     5
170
     0
171
     0
290
     0
174
     0
 93
       13
 44
0.0
173
     0
291
     1
 45
0.0
1001
ACAD
1000
AcDbSavedByObjectVersion
1070
     0
  0
VISUALSTYLE
  5
B0F5
102
{ACAD_REACTORS
330
B0F1
102
}
330
B0F1
100
AcDbVisualStyle
  2
GouraudWithEdges
 70
     3
 71
     2
 72
     2
 73
     1
 90
        2
 40
-0.6
 41
30.0
 62
     5
 63
     7
 74
     1
 91
        4
 64
     7
 65
   257
 75
     1
175
     1
 42
1.0
 92
        0
 66
   257
 43
1.0
 76
     1
 77
     6
 78
     2
 67
     7
 79
     5
170
     0
171
     0
290
     0
174
     0
 93
       13
 44
0.0
173
     0
291
     1
 45
0.0
1001
ACAD
1000
AcDbSavedByObjectVersion
1070
     0
  0
VISUALSTYLE
  5
B0FF
102
{ACAD_REACTORS
330
B0F1
102
}
330
B0F1
100
AcDbVisualStyle
  2
Linepattern
 70
    14
 71
     2
 72
     2
 73
     0
 90
        0
 40
-0.6
 41
-30.0
 62
     5
 63
     7
 74
     1
 91
        4
 64
     7
 65
   257
 75
     7
175
     7
 42
1.0
 92
        8
 66
     7
 43
1.0
 76
     1
 77
     6
 78
     2
 67
     7
 79
     5
170
     0
171
     0
290
     0
174
     0
 93
        1
 44
0.0
173
     0
291
     1
 45
0.0
1001
ACAD
1000
AcDbSavedByObjectVersion
1070
     0
  0
VISUALSTYLE
  5
B0FB
102
{ACAD_REACTORS
330
B0F1
102
}
330
B0F1
100
AcDbVisualStyle
  2
Realistic
 70
     8
 71
     2
 72
     2
 73
     0
 90
        0
 40
-0.6
 41
-30.0
 62
     5
 63
     7
 74
     1
 91
        0
 64
     7
 65
   257
 75
     1
175
     1
 42
1.0
 92
        8
 66
     8
 43
1.0
 76
     1
 77
     6
 78
     2
 67
     7
 79
     5
170
     0
171
     0
290
     0
174
     0
 93
       13
 44
0.0
173
     0
291
     0
 45
0.0
1001
ACAD
1000
AcDbSavedByObjectVersion
1070
     0
  0
VISUALSTYLE
  5
B0FE
102
{ACAD_REACTORS
330
B0F1
102
}
330
B0F1
100
AcDbVisualStyle
  2
Thicken
 70
    13
 71
     2
 72
     2
 73
     0
 90
        0
 40
-0.6
 41
-30.0
 62
     5
 63
     7
 74
     1
 91
        4
 64
     7
 65
   257
 75
     1
175
     1
 42
1.0
 92
       12
 66
     7
 43
1.0
 76
     1
 77
     6
 78
     2
 67
     7
 79
     5
170
     0
171
     0
290
     0
174
     0
 93
        1
 44
0.0
173
     0
291
     1
 45
0.0
1001
ACAD
1000
AcDbSavedByObjectVersion
1070
     0
  0
DICTIONARYVAR
  5
B5BA
102
{ACAD_REACTORS
330
34
102
}
330
34
100
DictionaryVariables
280
     0
  1
1:1
  0
DICTIONARYVAR
  5
B5B8
102
{ACAD_REACTORS
330
34
102
}
330
34
100
DictionaryVariables
280
     0
  1
STANDARD
  0
DICTIONARYVAR
  5
AAF3
102
{ACAD_REACTORS
330
34
102
}
330
34
100
DictionaryVariables
280
     0
  1
STANDARD
  0
DICTIONARYVAR
  5
A10C
102
{ACAD_REACTORS
330
34
102
}
330
34
100
DictionaryVariables
280
     0
  1
1
  0
DICTIONARYVAR
  5
AB07
102
{ACAD_REACTORS
330
34
102
}
330
34
100
DictionaryVariables
280
     0
  1
4
  0
DICTIONARYVAR
  5
35
102
{ACAD_REACTORS
330
34
102
}
330
34
100
DictionaryVariables
280
     0
  1
0
  0
DICTIONARYVAR
  5
B5BB
102
{ACAD_REACTORS
330
34
102
}
330
34
100
DictionaryVariables
280
     0
  1
0
  0
DICTIONARYVAR
  5
B5B9
102
{ACAD_REACTORS
330
34
102
}
330
34
100
DictionaryVariables
280
     0
  1
0
  0
DICTIONARYVAR
  5
194C
102
{ACAD_REACTORS
330
34
102
}
330
34
100
DictionaryVariables
280
     0
  1
96
  0
DICTIONARY
  5
7E8
102
{ACAD_REACTORS
330
47
102
}
330
47
100
AcDbDictionary
281
     1
  0
DICTIONARY
  5
4C
102
{ACAD_REACTORS
330
47
102
}
330
47
100
AcDbDictionary
281
     1
  0
XRECORD
  5
A929
102
{ACAD_REACTORS
330
47
102
}
330
47
100
AcDbXrecord
280
     1
 90
-1023410169
  0
XRECORD
  5
B571
102
{ACAD_REACTORS
330
B570
102
}
330
B570
100
AcDbXrecord
280
     1
  0
XRECORD
  5
3FB7
102
{ACAD_REACTORS
330
3F96
102
}
330
3F96
100
AcDbXrecord
280
     1
 91
        3
330
0
 90
        8
 62
     7
370
    40
331
16
  1
Color_7
330
0
 90
        0
 62
    14
370
    -3
331
16
  1
Color_14
330
0
 90
        8
 62
     7
370
    20
331
16
  1
Color_7
330
6D1
 90
        0
 62
     7
370
    -3
331
16
  1
Color_7
330
0
 90
        8
 62
     7
370
    50
331
16
  1
Color_7
330
0
 90
        8
 62
     2
370
    35
331
16
  1
Color_2
330
0
 90
        8
 62
     7
370
    -3
331
16
  1
Color_7
330
10
 90
        8
 62
     7
370
    -3
331
16
  1
Color_7
  0
DICTIONARY
  5
B953
330
22
100
AcDbDictionary
280
     1
281
     1
  3
ACAD_XREC_ROUNDTRIP
360
B954
  0
DICTIONARY
  5
B951
330
1E
100
AcDbDictionary
280
     1
281
     1
  3
ACAD_XREC_ROUNDTRIP
360
B952
  0
DICTIONARY
  5
B955
330
26
100
AcDbDictionary
280
     1
281
     1
  3
ACAD_XREC_ROUNDTRIP
360
B956
  0
DICTIONARY
  5
B95A
330
B0EF
100
AcDbDictionary
280
     1
281
     1
  3
ACAD_XREC_ROUNDTRIP
360
B95B
  0
DICTIONARY
  5
B958
330
B0EE
100
AcDbDictionary
280
     1
281
     1
  3
ACAD_XREC_ROUNDTRIP
360
B959
  0
DICTIONARY
  5
B95C
330
B0F0
100
AcDbDictionary
280
     1
281
     1
  3
ACAD_XREC_ROUNDTRIP
360
B95D
  0
DICTIONARY
  5
B5B5
330
AABA
100
AcDbDictionary
280
     1
281
     1
  3
ACAD_ROUNDTRIP_2008_TABLESTYLE_CELLSTYLEMAP
360
B90C
  3
ACAD_XREC_ROUNDTRIP
360
B957
  0
XRECORD
  5
B954
102
{ACAD_REACTORS
330
B953
102
}
330
B953
100
AcDbXrecord
280
     1
102
SHADEPLOT
 70
     0
102
SHADEPLOTRESLEVEL
 70
     2
102
SHADEPLOTCUSTOMDPI
 70
   200
  0
XRECORD
  5
B952
102
{ACAD_REACTORS
330
B951
102
}
330
B951
100
AcDbXrecord
280
     1
102
SHADEPLOT
 70
     0
102
SHADEPLOTRESLEVEL
 70
     2
102
SHADEPLOTCUSTOMDPI
 70
   300
  0
XRECORD
  5
B956
102
{ACAD_REACTORS
330
B955
102
}
330
B955
100
AcDbXrecord
280
     1
102
SHADEPLOT
 70
     0
102
SHADEPLOTRESLEVEL
 70
     2
102
SHADEPLOTCUSTOMDPI
 70
   300
  0
XRECORD
  5
B95B
102
{ACAD_REACTORS
330
B95A
102
}
330
B95A
100
AcDbXrecord
280
     1
102
MATERIAL
148
0.0
149
0.0
149
0.0
 93
        0
 94
       63
282
     0
 72
     1
 77
     1
171
     1
175
     1
179
     1
273
     0
  0
XRECORD
  5
B959
102
{ACAD_REACTORS
330
B958
102
}
330
B958
100
AcDbXrecord
280
     1
102
MATERIAL
148
0.0
149
0.0
149
0.0
 93
        0
 94
       63
282
     0
 72
     1
 77
     1
171
     1
175
     1
179
     1
273
     0
  0
XRECORD
  5
B95D
102
{ACAD_REACTORS
330
B95C
102
}
330
B95C
100
AcDbXrecord
280
     1
102
MATERIAL
148
0.0
149
0.0
149
0.0
 93
        0
 94
       63
282
     0
 72
     1
 77
     1
171
     1
175
     1
179
     1
273
     0
  0
ACAD_PROXY_OBJECT
  5
B90C
102
{ACAD_REACTORS
330
B5B5
102
}
330
B5B5
100
AcDbProxyObject
 90
      499
 91
      628
 95
  1703963
 70
     0
 93
     5369
310
40D054060020000020000003200101A4129416000000304000000000000001840404000000000000F83F0000000000003E0FC000000000000F83F0000000000003E0FC0AD7A3703D0AC73F02B5E8DC0F42B1CFD0640640600000030400FEFFFFFF80AD7A3703D0AA73F40A40600000030400FEFFFFFF80AD7A3703D0AA73F4
310
1240600000030400FEFFFFFF80AD7A3703D0AA73F42240600000030400FEFFFFFF80AD7A3703D0AA73F44240600000030400FEFFFFFF80AD7A3703D0AA73F48240600000030400FEFFFFFF80AD7A3703D0AA73F4050141501A8000000C800406904A5058000000C10000000000000004901010000000000003E0FC00000000
310
0000F83F0000000000003E0FC000000000000F83F02B5E8DC0F42B1CFC0AD7A3703D0AC73F419019018000000C1003FBFFFFFE02B5E8DC0F42A9CFD029018000000C1003FBFFFFFE02B5E8DC0F42A9CFD049018000000C1003FBFFFFFE02B5E8DC0F42A9CFD089018000000C1003FBFFFFFE02B5E8DC0F42A9CFD109018000
310
000C1003FBFFFFFE02B5E8DC0F42A9CFD209018000000C1003FBFFFFFE02B5E8DC0F42A9CFD0240505406A0000003200101A412940A000000304000000000000001240404000000000000F83F0000000000003E0FC000000000000F83F0000000000003E0FC0AD7A3703D0AC73F02B5E8DC0F42B1CFD064064060000003040
310
0FEFFFFFF80AD7A3703D0AA73F40A40600000030400FEFFFFFF80AD7A3703D0AA73F41240600000030400FEFFFFFF80AD7A3703D0AA73F42240600000030400FEFFFFFF80AD7A3703D0AA73F44240600000030400FEFFFFFF80AD7A3703D0AA73F48240600000030400FEFFFFFF80AD7A3703D0AA73F40D029065F00540049
310
0054004C0045009075F004800450041004400450052009055F0044004100540041004401CC
340
11
340
0
340
0
340
0
340
0
340
0
340
0
340
11
340
0
340
0
340
0
340
0
340
0
340
0
340
11
340
0
340
0
340
0
340
0
340
0
340
0
 94
        0
1001
ACAD
1000
AcRTDxfName
1000
CELLSTYLEMAP
  0
XRECORD
  5
B957
102
{ACAD_REACTORS
330
B5B5
102
}
330
B5B5
100
AcDbXrecord
280
     1
102
ACAD_ROUNDTRIP_PRE2007_TABLESTYLE
 90
        4
 91
        0
  1

 92
        4
 93
        0
  2

 94
        4
 95
        0
  3

  0
ENDSEC
  0
EOF
