  0
SECTION
  2
HEADER
  9
$EXTMAX
 10
170
 20
173
 30
0
  9
$EXTMIN
 10
-211
 20
-100
 30
0
  9
$LIMMAX
 10
170
 20
173
  9
$LIMMIN
 10
-211
 20
-100
  9
$PLIMMAX
 10
170
 20
173
  9
$PLIMMIN
 10
-211
 20
-100
  9
$TEXTSIZE
 40
3.2
  9
$DIMSHO
 70
     0
  9
$DIMASZ
 40
1.0
  9
$DIMTAD
 70
     1
  9
$DIMTIH
 70
     0
  9
$DIMTOH
 70
     0
  9
$DIMEXE
 40
2.54
  9
$DIMEXO
 40
2.54
  9
$DIMTVP
 40
1.0
  9
$DIMSAH
 70
     1
  9
$DIMDLE
 40
0.0
  9
$DIMTXT
 40
3.2
  9
$DIMGAP
 40
1.6
  0
ENDSEC
  0
SECTION
  2
TABLES
  0
TABLE
  2
LTYPE
 70
     6
  0
LTYPE
  2
CONTINUOUS
 70
    64
  3
Solid line
 72
    65
 73
     0
 40
0.0
  0
LTYPE
  2
DASHED
 70
    64
  3
__ __ __ __ __ __ __ __ __ __ __ __ __ __ __
 72
    65
 73
     2
 40
3.5
 49
2.0
 49
-1.5
  0
LTYPE
  2
CENTER
 70
    64
  3
____ _ ____ _ ____ _ ____ _ ____ _ ____ _ ____
 72
    65
 73
     4
 40
17.5
 49
13.0
 49
-1.5
 49
1.5
 49
-1.5
  0
LTYPE
  2
PHANTOM
 70
    64
  3
_____ _ _ _____ _ _ _____ _ _ _____ _ _ ____  
 72
    65
 73
     6
 40
15.5
 49
8.0
 49
-1.5
 49
1.5
 49
-1.5
 49
1.5
 49
-1.5
  0
LTYPE
  2
DOT
 70
    64
  3
. . . . . . . . . . . . . . . . . . . . . . . .
 72
    65
 73
     2
 40
0.25
 49
0.0
 49
-0.25
  0
LTYPE
  2
HIDDEN
 70
    64
  3
__ __ __ __ __ __ __ __ __ __ __ __ __ __ __
 72
    65
 73
     2
 40
3.5
 49
2.0
 49
-1.5
  0
ENDTAB
  0
TABLE
  2
LAYER
 70
     4
  0
LAYER
  2
0
 70
     0
 62
     7
  6
CONTINUOUS
  0
LAYER
  2
1
 70
     0
 62
     7
  6
CONTINUOUS
  0
LAYER
  2
2
 70
     0
 62
     7
  6
CONTINUOUS
  0
LAYER
  2
DEFPOINTS
 70
     0
 62
     7
  6
CONTINUOUS
  0
ENDTAB
  0
TABLE
  2
STYLE
 70
     1
  0
STYLE
  2
STANDARD
 70
     0
 40
0.0
 41
1.0
 50
0.0
 71
     0
 42
0.2
  3
txt
  4
BIGFONT
  0
ENDTAB
  0
TABLE
  2
DIMSTYLE
 70
     1
  0
DIMSTYLE
  2
DIMSTYLE
 70
     0
  3

  4

  5
_DOT
  6
_DOT
  7
_DOT
 40
1
 41
1
 42
2.54
 43
0.38
 44
2.54
 45
0
 46
0
 47
0
 48
0
140
3.2
141
0.09
142
0
143
25.4
144
1
145
0
146
1
147
1.6
 71
     0
 72
     0
 73
     0
 74
     0
 75
     0
 76
     0
 78
     0
170
     0
171
     2
 77
     0
172
     0
173
     1
174
     0
175
     0
176
     0
177
     0
178
     0
  0
ENDTAB
  0
ENDSEC
  0
SECTION
  2
BLOCKS
  0
BLOCK
  8
0
  2
_DOT
 70
    64
 10
0
 20
0
  3
_DOT
  0
POLYLINE
  8
0
  6
BYBLOCK
 62
     0
 66
     1
 10
0
 20
0
 70
     1
 40
0.40000001
 41
0.40000001
  0
VERTEX
  8
0
  6
BYBLOCK
 62
     0
 10
-0.2
 20
0
 42
1
  0
VERTEX
  8
0
  6
BYBLOCK
 62
     0
 10
0.2
 20
0
 42
1
  0
SEQEND
  8
0
  6
BYBLOCK
 62
     0
  0
LINE
  8
0
  6
BYBLOCK
 62
     0
 10
-0.40000001
 20
0
 11
-3
 21
0
  0
ENDBLK
  8
0
  0
BLOCK
  8
0
  2
_NONE
 70
    64
 10
0
 20
0
  3
_NONE
  0
CIRCLE
  8
0
  6
BYBLOCK
 62
     0
 10
0
 20
0
 40
0.001
  0
ENDBLK
  8
0
  0
BLOCK
  8
0
  2
*D1
 70
    65
 10
0
 20
0
  0
LINE
  8
0
  6
CONTINUOUS
 62
     7
 10
-72
 20
-43
 11
-65
 21
-43
  0
INSERT
  8
0
  6
CONTINUOUS
 62
     7
  2
_DOT
 10
-72
 20
-43
 50
180
  0
INSERT
  8
0
  6
CONTINUOUS
 62
     7
  2
_DOT
 10
-65
 20
-43
  0
LINE
  8
0
  6
CONTINUOUS
 62
     7
 10
-72
 20
-30.54
 11
-72
 21
-44.200001
  0
LINE
  8
0
  6
CONTINUOUS
 62
     7
 10
-65
 20
-30.54
 11
-65
 21
-44.200001
  0
TEXT
  8
0
  6
CONTINUOUS
 62
     7
 10
-69.643
 20
-42.2
 40
3.2
 41
1
  1
7
  0
POINT
  8
DEFPOINTS
  6
CONTINUOUS
 62
     7
 10
-72
 20
-28
  0
POINT
  8
DEFPOINTS
  6
CONTINUOUS
 62
     7
 10
-65
 20
-28
  0
POINT
  8
DEFPOINTS
  6
CONTINUOUS
 62
     7
 10
-65
 20
-43
  0
ENDBLK
  8
0
  0
BLOCK
  8
0
  2
*D2
 70
    65
 10
0
 20
0
  0
LINE
  8
0
  6
CONTINUOUS
 62
     7
 10
-37
 20
-43
 11
-30
 21
-43
  0
INSERT
  8
0
  6
CONTINUOUS
 62
     7
  2
_DOT
 10
-37
 20
-43
 50
180
  0
INSERT
  8
0
  6
CONTINUOUS
 62
     7
  2
_DOT
 10
-30
 20
-43
  0
LINE
  8
0
  6
CONTINUOUS
 62
     7
 10
-37
 20
-30.54
 11
-37
 21
-44.200001
  0
LINE
  8
0
  6
CONTINUOUS
 62
     7
 10
-30
 20
-30.54
 11
-30
 21
-44.200001
  0
TEXT
  8
0
  6
CONTINUOUS
 62
     7
 10
-34.643
 20
-42.2
 40
3.2
 41
1
  1
7
  0
POINT
  8
DEFPOINTS
  6
CONTINUOUS
 62
     7
 10
-37
 20
-28
  0
POINT
  8
DEFPOINTS
  6
CONTINUOUS
 62
     7
 10
-30
 20
-28
  0
POINT
  8
DEFPOINTS
  6
CONTINUOUS
 62
     7
 10
-30
 20
-43
  0
ENDBLK
  8
0
  0
BLOCK
  8
0
  2
*D3
 70
    65
 10
0
 20
0
  0
LINE
  8
0
  6
CONTINUOUS
 62
     7
 10
-72
 20
-53
 11
-30
 21
-53
  0
INSERT
  8
0
  6
CONTINUOUS
 62
     7
  2
_DOT
 10
-72
 20
-53
 50
180
  0
INSERT
  8
0
  6
CONTINUOUS
 62
     7
  2
_DOT
 10
-30
 20
-53
  0
LINE
  8
0
  6
CONTINUOUS
 62
     7
 10
-72
 20
-30.54
 11
-72
 21
-54.200001
  0
LINE
  8
0
  6
CONTINUOUS
 62
     7
 10
-30
 20
-30.54
 11
-30
 21
-54.200001
  0
TEXT
  8
0
  6
CONTINUOUS
 62
     7
 10
-53.743
 20
-52.2
 40
3.2
 41
1.028625
  1
42
  0
POINT
  8
DEFPOINTS
  6
CONTINUOUS
 62
     7
 10
-72
 20
-28
  0
POINT
  8
DEFPOINTS
  6
CONTINUOUS
 62
     7
 10
-30
 20
-28
  0
POINT
  8
DEFPOINTS
  6
CONTINUOUS
 62
     7
 10
-30
 20
-53
  0
ENDBLK
  8
0
  0
BLOCK
  8
0
  2
*D4
 70
    65
 10
0
 20
0
  0
LINE
  8
0
  6
CONTINUOUS
 62
     7
 10
-68.5
 20
-8
 11
-33.5
 21
-8
  0
INSERT
  8
0
  6
CONTINUOUS
 62
     7
  2
_DOT
 10
-68.5
 20
-8
 50
180
  0
INSERT
  8
0
  6
CONTINUOUS
 62
     7
  2
_DOT
 10
-33.5
 20
-8
  0
LINE
  8
0
  6
CONTINUOUS
 62
     7
 10
-68.5
 20
-11.42
 11
-68.5
 21
-6.8000002
  0
LINE
  8
0
  6
CONTINUOUS
 62
     7
 10
-33.5
 20
-11.42
 11
-33.5
 21
-6.8000002
  0
TEXT
  8
0
  6
CONTINUOUS
 62
     7
 10
-53.743
 20
-7.2
 40
3.2
 41
1.028625
  1
35
  0
POINT
  8
DEFPOINTS
  6
CONTINUOUS
 62
     7
 10
-68.5
 20
-13.96
  0
POINT
  8
DEFPOINTS
  6
CONTINUOUS
 62
     7
 10
-33.5
 20
-13.96
  0
POINT
  8
DEFPOINTS
  6
CONTINUOUS
 62
     7
 10
-33.5
 20
-8
  0
ENDBLK
  8
0
  0
BLOCK
  8
0
  2
*D5
 70
    65
 10
0
 20
0
  0
LINE
  8
0
  6
CONTINUOUS
 62
     7
 10
-70.283173
 20
-17.087469
 11
-77
 21
-7.9999981
  0
INSERT
  8
0
  6
CONTINUOUS
 62
     7
  2
_DOT
 10
-70.283173
 20
-17.087469
 50
306.46924
  0
LINE
  8
0
  6
CONTINUOUS
 62
     7
 10
-77
 20
-8
 11
-84.343002
 21
-8
  0
TEXT
  8
0
  6
CONTINUOUS
 62
     7
 10
-84.343
 20
-7.2
 40
3.2
 41
1.3571875
  1
R 3
  0
POINT
  8
DEFPOINTS
  6
CONTINUOUS
 62
     7
 10
-70.283173
 20
-17.087469
  0
POINT
  8
DEFPOINTS
  6
CONTINUOUS
 62
     7
 10
-77
 20
-7.9999981
  0
ENDBLK
  8
0
  0
BLOCK
  8
0
  2
*D6
 70
    65
 10
0
 20
0
  0
LINE
  8
0
  6
CONTINUOUS
 62
     7
 10
-31.716827
 20
-17.087473
 11
-25
 21
-8.000001
  0
INSERT
  8
0
  6
CONTINUOUS
 62
     7
  2
_DOT
 10
-31.716827
 20
-17.087473
 50
233.53076
  0
LINE
  8
0
  6
CONTINUOUS
 62
     7
 10
-25
 20
-8
 11
-17.657
 21
-8
  0
TEXT
  8
0
  6
CONTINUOUS
 62
     7
 10
-26.343
 20
-7.2
 40
3.2
 41
1.3571875
  1
R 3
  0
POINT
  8
DEFPOINTS
  6
CONTINUOUS
 62
     7
 10
-31.716827
 20
-17.087473
  0
POINT
  8
DEFPOINTS
  6
CONTINUOUS
 62
     7
 10
-25
 20
-8.000001
  0
ENDBLK
  8
0
  0
BLOCK
  8
0
  2
*D7
 70
    65
 10
0
 20
0
  0
LINE
  8
0
  6
CONTINUOUS
 62
     7
 10
-15.006758
 20
-16.5
 11
-15.006758
 21
-28
  0
INSERT
  8
0
  6
CONTINUOUS
 62
     7
  2
_DOT
 10
-15.006758
 20
-16.5
 50
90
  0
INSERT
  8
0
  6
CONTINUOUS
 62
     7
  2
_DOT
 10
-15.006758
 20
-28
 50
270
  0
LINE
  8
0
  6
CONTINUOUS
 62
     7
 10
-30.96
 20
-16.5
 11
-13.806758
 21
-16.5
  0
LINE
  8
0
  6
CONTINUOUS
 62
     7
 10
-28.307935
 20
-28
 11
-13.806758
 21
-28
  0
TEXT
  8
0
  6
CONTINUOUS
 62
     7
 10
-15.806757
 20
-28.193
 40
3.2
 41
1.591875
  1
11.5
 50
90.000003
  0
POINT
  8
DEFPOINTS
  6
CONTINUOUS
 62
     7
 10
-33.5
 20
-16.5
  0
POINT
  8
DEFPOINTS
  6
CONTINUOUS
 62
     7
 10
-30.847935
 20
-28
  0
POINT
  8
DEFPOINTS
  6
CONTINUOUS
 62
     7
 10
-15.006758
 20
-28
  0
ENDBLK
  8
0
  0
ENDSEC
  0
SECTION
  2
ENTITIES
  0
LINE
  8
0
  6
CONTINUOUS
 62
     7
 10
170
 20
173
 11
170
 21
-100
  0
LINE
  8
0
  6
CONTINUOUS
 62
     7
 10
-211
 20
-100
 11
170
 21
-100
  0
LINE
  8
0
  6
CONTINUOUS
 62
     7
 10
-211
 20
173
 11
170
 21
173
  0
LINE
  8
0
  6
CONTINUOUS
 62
     7
 10
-211
 20
173
 11
-211
 21
-100
  0
LINE
  8
0
  6
CONTINUOUS
 62
     7
 10
-191
 20
173
 11
-191
 21
77
  0
LINE
  8
0
  6
CONTINUOUS
 62
     7
 10
-211
 20
165
 11
-101
 21
165
  0
LINE
  8
0
  6
CONTINUOUS
 62
     7
 10
-211
 20
157
 11
-101
 21
157
  0
LINE
  8
0
  6
CONTINUOUS
 62
     7
 10
-211
 20
149
 11
-101
 21
149
  0
LINE
  8
0
  6
CONTINUOUS
 62
     7
 10
-211
 20
141
 11
-101
 21
141
  0
LINE
  8
0
  6
CONTINUOUS
 62
     7
 10
-191
 20
117
 11
-101
 21
117
  0
LINE
  8
0
  6
CONTINUOUS
 62
     7
 10
-191
 20
109
 11
-101
 21
109
  0
LINE
  8
0
  6
CONTINUOUS
 62
     7
 10
-211
 20
101
 11
-101
 21
101
  0
LINE
  8
0
  6
CONTINUOUS
 62
     7
 10
-191
 20
93
 11
-101
 21
93
  0
LINE
  8
0
  6
CONTINUOUS
 62
     7
 10
-191
 20
85
 11
-101
 21
85
  0
LINE
  8
0
  6
CONTINUOUS
 62
     7
 10
-211
 20
77
 11
-101
 21
77
  0
LINE
  8
0
  6
CONTINUOUS
 62
     7
 10
-211
 20
173
 11
-211
 21
77
  0
LINE
  8
0
  6
CONTINUOUS
 62
     7
 10
-211
 20
173
 11
-101
 21
173
  0
LINE
  8
0
  6
CONTINUOUS
 62
     7
 10
-101
 20
173
 11
-101
 21
77
  0
LINE
  8
0
  6
CONTINUOUS
 62
     7
 10
-211
 20
133
 11
-101
 21
133
  0
LINE
  8
0
  6
CONTINUOUS
 62
     7
 10
-211
 20
125
 11
-101
 21
125
  0
LINE
  8
0
  6
CONTINUOUS
 62
     7
 10
-191
 20
117
 11
-101
 21
117
  0
LINE
  8
0
  6
CONTINUOUS
 62
     7
 10
-71.152061
 20
-28
 11
-70
 21
-28
  0
LINE
  8
0
  6
CONTINUOUS
 62
     7
 10
-71.152061
 20
-27.200001
 11
-70
 21
-27.200001
  0
LINE
  8
0
  6
CENTER
 62
     7
 10
-27.959999
 20
-19.5
 11
-39.040001
 21
-19.5
  0
LINE
  8
0
  6
CENTER
 62
     7
 10
-33.5
 20
-13.96
 11
-33.5
 21
-25.040001
  0
LINE
  8
0
  6
CENTER
 62
     7
 10
-62.959999
 20
-19.5
 11
-74.040001
 21
-19.5
  0
LINE
  8
0
  6
CENTER
 62
     7
 10
-68.5
 20
-13.96
 11
-68.5
 21
-25.040001
  0
LINE
  8
0
  6
CONTINUOUS
 62
     7
 10
-71.950706
 20
-27.1535
 11
-71.494926
 21
-19.325619
  0
LINE
  8
0
  6
CONTINUOUS
 62
     7
 10
-65.090042
 20
-25.796005
 11
-65.506149
 21
-19.307989
  0
LINE
  8
0
  6
CONTINUOUS
 62
     7
 10
-36.909954
 20
-25.796005
 11
-36.493851
 21
-19.307991
  0
LINE
  8
0
  6
CONTINUOUS
 62
     7
 10
-30.049288
 20
-27.1535
 11
-30.505072
 21
-19.325619
  0
LINE
  8
0
  6
CONTINUOUS
 62
     7
 10
-71.152069
 20
-27.200001
 11
-70.696281
 21
-19.37212
  0
LINE
  8
0
  6
CONTINUOUS
 62
     7
 10
-65.888405
 20
-25.847208
 11
-66.304512
 21
-19.359192
  0
LINE
  8
0
  6
CONTINUOUS
 62
     7
 10
-36.111595
 20
-25.847206
 11
-35.695492
 21
-19.359194
  0
LINE
  8
0
  6
CONTINUOUS
 62
     7
 10
-30.847935
 20
-27.200001
 11
-31.303719
 21
-19.37212
  0
LINE
  8
0
  6
CONTINUOUS
 62
     7
 10
-70
 20
-27.200001
 11
-70
 21
-28
  0
LINE
  8
0
  6
CONTINUOUS
 62
     7
 10
-32
 20
-27.200001
 11
-32
 21
-28
  0
LINE
  8
0
  6
CONTINUOUS
 62
     7
 10
-32
 20
-27.200001
 11
-30.847935
 21
-27.200001
  0
LINE
  8
0
  6
CONTINUOUS
 62
     7
 10
-32
 20
-28
 11
-30.847935
 21
-28
  0
LINE
  8
0
  6
CONTINUOUS
 62
     7
 10
-63.593121
 20
-27.200001
 11
-38.406879
 21
-27.200001
  0
LINE
  8
0
  6
CONTINUOUS
 62
     7
 10
-63.593121
 20
-28
 11
-38.406879
 21
-28
  0
ARC
  8
0
  6
CONTINUOUS
 62
     7
 10
-68.5
 20
-19.5
 40
3
 50
0
 51
180
  0
ARC
  8
0
  6
CONTINUOUS
 62
     7
 10
-33.5
 20
-19.5
 40
3
 50
0
 51
180
  0
ARC
  8
0
  6
CONTINUOUS
 62
     7
 10
-33.5
 20
-19.5
 40
2.2
 50
0
 51
180
  0
ARC
  8
0
  6
CONTINUOUS
 62
     7
 10
-68.5
 20
-19.5
 40
2.2
 50
0
 51
180
  0
ARC
  8
0
  6
CONTINUOUS
 62
     7
 10
-63.593121
 20
-25.700001
 40
1.5
 50
183.66962
 51
270
  0
ARC
  8
0
  6
CONTINUOUS
 62
     7
 10
-38.406879
 20
-25.700001
 40
1.5
 50
270
 51
356.33039
  0
ARC
  8
0
  6
CONTINUOUS
 62
     7
 10
-63.593121
 20
-25.700001
 40
2.3
 50
183.66962
 51
270
  0
ARC
  8
0
  6
CONTINUOUS
 62
     7
 10
-38.406879
 20
-25.700001
 40
2.3
 50
270
 51
356.33038
  0
ARC
  8
0
  6
CONTINUOUS
 62
     7
 10
-71.152061
 20
-27.200001
 40
0.80000001
 50
176.66771
 51
270
  0
ARC
  8
0
  6
CONTINUOUS
 62
     7
 10
-30.847935
 20
-27.200001
 40
0.80000001
 50
270
 51
3.3322804
  0
TEXT
  8
0
  6
CONTINUOUS
 62
     7
 10
-188.143
 20
95.4
 40
3.2
 41
0.84741102
  1
※　受注生産
  0
TEXT
  8
0
  6
CONTINUOUS
 62
     7
 10
-205.343
 20
167.4
 40
3.2
 41
0.85537027
  1
品　名
  0
TEXT
  8
0
  6
CONTINUOUS
 62
     7
 10
-205.343
 20
159.4
 40
3.2
 41
0.85537027
  1
品　番
  0
TEXT
  8
0
  6
CONTINUOUS
 62
     7
 10
-188.143
 20
87.4
 40
3.2
 41
0.90047268
  1
＊
  0
TEXT
  8
0
  6
CONTINUOUS
 62
     7
 10
-188.143
 20
79.4
 40
3.2
 41
0.90047268
  1
＊
  0
TEXT
  8
0
  6
CONTINUOUS
 62
     7
 10
-205.343
 20
151.4
 40
3.2
 41
0.85537027
  1
材　質
  0
TEXT
  8
0
  6
CONTINUOUS
 62
     7
 10
-205.343
 20
143.4
 40
3.2
 41
0.85537027
  1
仕上げ
  0
TEXT
  8
0
  6
CONTINUOUS
 62
     7
 10
-188.143
 20
103.4
 40
3.2
 41
0.90047268
  1
＊
  0
TEXT
  8
0
  6
CONTINUOUS
 62
     7
 10
-188.143
 20
111.4
 40
3.2
 41
0.90047268
  1
＊
  0
TEXT
  8
0
  6
CONTINUOUS
 62
     7
 10
-208.543
 20
119.4
 40
3.2
 41
0.84892707
  1
セットビス
  0
TEXT
  8
0
  6
CONTINUOUS
 62
     7
 10
-188.143
 20
119.4
 40
3.2
 41
0.90047268
  1
＊
  0
TEXT
  8
0
  6
CONTINUOUS
 62
     7
 10
-203.743
 20
95.4
 40
3.2
 41
0.86439075
  1
備考
  0
TEXT
  8
0
  6
CONTINUOUS
 62
     7
 10
-205.343
 20
135.4
 40
3.2
 41
0.85537027
  1
定　尺
  0
TEXT
  8
0
  6
CONTINUOUS
 62
     7
 10
-206.943
 20
127.4
 40
3.2
 41
0.85127005
  1
左右勝手
  0
TEXT
  8
0
  6
CONTINUOUS
 62
     7
 10
-188.37855
 20
134.96998
 40
3.2
 41
0.84741102
  1
２０００ｍｍ
  0
TEXT
  8
0
  6
CONTINUOUS
 62
     7
 10
-188.143
 20
167.4
 40
3.2
 41
0.8455654
  1
ステンレスレール
  0
TEXT
  8
0
  6
CONTINUOUS
 62
     7
 10
-188.143
 20
159.4
 40
3.2
 41
0.84892707
  1
ＳＲ－１１
  0
TEXT
  8
0
  6
CONTINUOUS
 62
     7
 10
-188.143
 20
151.4
 40
3.2
 41
0.84892707
  1
ステンレス
  0
TEXT
  8
0
  6
CONTINUOUS
 62
     7
 10
-188.143
 20
143.4
 40
3.2
 41
0.84741102
  1
ヘアーライン
  0
TEXT
  8
0
  6
CONTINUOUS
 62
     7
 10
-188.37855
 20
127.36617
 40
3.2
 41
0.90047268
  1
＊
  0
TEXT
  8
0
  6
CONTINUOUS
 62
     7
 10
42.457
 20
-61.6
 40
3.2
 41
0.84892707
  1
ｔ＝０．８
  0
DIMENSION
  8
0
  6
CONTINUOUS
 62
     7
  2
*D1
 70
     0
 10
-65
 20
-43
 11
-68.5
 21
-43
  3
DIMSTYLE
 13
-72
 23
-28
 14
-65
 24
-28
 50
0
1001
ACAD
1000
DSTYLE
1002
{
1070
    77
1070
     1
1070
   172
1070
     1
1002
}
  0
DIMENSION
  8
0
  6
CONTINUOUS
 62
     7
  2
*D2
 70
     0
 10
-30
 20
-43
 11
-33.5
 21
-43
  3
DIMSTYLE
 13
-37
 23
-28
 14
-30
 24
-28
 50
0
1001
ACAD
1000
DSTYLE
1002
{
1070
    77
1070
     1
1070
   172
1070
     1
1002
}
  0
DIMENSION
  8
0
  6
CONTINUOUS
 62
     7
  2
*D3
 70
     0
 10
-30
 20
-53
 11
-51
 21
-53
  3
DIMSTYLE
 13
-72
 23
-28
 14
-30
 24
-28
 50
0
1001
ACAD
1000
DSTYLE
1002
{
1070
    77
1070
     1
1070
   172
1070
     1
1002
}
  0
DIMENSION
  8
0
  6
CONTINUOUS
 62
     7
  2
*D4
 70
     0
 10
-33.5
 20
-8
 11
-51
 21
-8
  3
DIMSTYLE
 13
-68.5
 23
-13.96
 14
-33.5
 24
-13.96
 50
0
1001
ACAD
1000
DSTYLE
1002
{
1070
    77
1070
     1
1070
   172
1070
     1
1002
}
  0
INSERT
  8
0
  6
CONTINUOUS
 62
     7
  2
*D5
 10
0
 20
0
  0
INSERT
  8
0
  6
CONTINUOUS
 62
     7
  2
*D6
 10
0
 20
0
  0
DIMENSION
  8
0
  6
CONTINUOUS
 62
     7
  2
*D7
 70
     0
 10
-15.006758
 20
-28
 11
-15.006758
 21
-22.25
  3
DIMSTYLE
 13
-33.5
 23
-16.5
 14
-30.847935
 24
-28
 50
90
1001
ACAD
1000
DSTYLE
1002
{
1070
    77
1070
     1
1070
   172
1070
     1
1002
}
  0
ENDSEC
  0
EOF
