  0
SECTION
  2
HEADER
  9
$EXTMAX
 10
170
 20
173
 30
0
  9
$EXTMIN
 10
-211
 20
-100
 30
0
  9
$LIMMAX
 10
170
 20
173
  9
$LIMMIN
 10
-211
 20
-100
  9
$PLIMMAX
 10
170
 20
173
  9
$PLIMMIN
 10
-211
 20
-100
  9
$TEXTSIZE
 40
3.2
  9
$DIMSHO
 70
     0
  9
$DIMASZ
 40
1.0
  9
$DIMTAD
 70
     1
  9
$DIMTIH
 70
     0
  9
$DIMTOH
 70
     0
  9
$DIMEXE
 40
2.54
  9
$DIMEXO
 40
2.54
  9
$DIMTVP
 40
1.0
  9
$DIMSAH
 70
     1
  9
$DIMDLE
 40
0.0
  9
$DIMTXT
 40
3.2
  9
$DIMGAP
 40
1.6
  0
ENDSEC
  0
SECTION
  2
TABLES
  0
TABLE
  2
LTYPE
 70
     6
  0
LTYPE
  2
CONTINUOUS
 70
    64
  3
Solid line
 72
    65
 73
     0
 40
0.0
  0
LTYPE
  2
DASHED
 70
    64
  3
__ __ __ __ __ __ __ __ __ __ __ __ __ __ __
 72
    65
 73
     2
 40
3.5
 49
2.0
 49
-1.5
  0
LTYPE
  2
CENTER
 70
    64
  3
____ _ ____ _ ____ _ ____ _ ____ _ ____ _ ____
 72
    65
 73
     4
 40
17.5
 49
13.0
 49
-1.5
 49
1.5
 49
-1.5
  0
LTYPE
  2
PHANTOM
 70
    64
  3
_____ _ _ _____ _ _ _____ _ _ _____ _ _ ____  
 72
    65
 73
     6
 40
15.5
 49
8.0
 49
-1.5
 49
1.5
 49
-1.5
 49
1.5
 49
-1.5
  0
LTYPE
  2
DOT
 70
    64
  3
. . . . . . . . . . . . . . . . . . . . . . . .
 72
    65
 73
     2
 40
0.25
 49
0.0
 49
-0.25
  0
LTYPE
  2
HIDDEN
 70
    64
  3
__ __ __ __ __ __ __ __ __ __ __ __ __ __ __
 72
    65
 73
     2
 40
3.5
 49
2.0
 49
-1.5
  0
ENDTAB
  0
TABLE
  2
LAYER
 70
     4
  0
LAYER
  2
0
 70
     0
 62
     7
  6
CONTINUOUS
  0
LAYER
  2
1
 70
     0
 62
     7
  6
CONTINUOUS
  0
LAYER
  2
2
 70
     0
 62
     7
  6
CONTINUOUS
  0
LAYER
  2
DEFPOINTS
 70
     0
 62
     7
  6
CONTINUOUS
  0
ENDTAB
  0
TABLE
  2
STYLE
 70
     1
  0
STYLE
  2
STANDARD
 70
     0
 40
0.0
 41
1.0
 50
0.0
 71
     0
 42
0.2
  3
txt
  4
BIGFONT
  0
ENDTAB
  0
TABLE
  2
DIMSTYLE
 70
     1
  0
DIMSTYLE
  2
DIMSTYLE
 70
     0
  3

  4

  5
_DOT
  6
_DOT
  7
_DOT
 40
1
 41
1
 42
2.54
 43
0.38
 44
2.54
 45
0
 46
0
 47
0
 48
0
140
3.2
141
0.09
142
0
143
25.4
144
1
145
0
146
1
147
1.6
 71
     0
 72
     0
 73
     0
 74
     0
 75
     0
 76
     0
 78
     0
170
     0
171
     2
 77
     0
172
     0
173
     1
174
     0
175
     0
176
     0
177
     0
178
     0
  0
ENDTAB
  0
ENDSEC
  0
SECTION
  2
BLOCKS
  0
BLOCK
  8
0
  2
_OPEN
 70
    64
 10
0
 20
0
  3
_OPEN
  0
LINE
  8
0
  6
BYBLOCK
 62
     0
 10
0
 20
0
 11
-3.128
 21
-0.56199999
  0
LINE
  8
0
  6
BYBLOCK
 62
     0
 10
0
 20
0
 11
-3.128
 21
0.56199999
  0
LINE
  8
0
  6
BYBLOCK
 62
     0
 10
0
 20
0
 11
-3
 21
0
  0
ENDBLK
  8
0
  0
BLOCK
  8
0
  2
_DOT
 70
    64
 10
0
 20
0
  3
_DOT
  0
POLYLINE
  8
0
  6
BYBLOCK
 62
     0
 66
     1
 10
0
 20
0
 70
     1
 40
0.40000001
 41
0.40000001
  0
VERTEX
  8
0
  6
BYBLOCK
 62
     0
 10
-0.2
 20
0
 42
1
  0
VERTEX
  8
0
  6
BYBLOCK
 62
     0
 10
0.2
 20
0
 42
1
  0
SEQEND
  8
0
  6
BYBLOCK
 62
     0
  0
LINE
  8
0
  6
BYBLOCK
 62
     0
 10
-0.40000001
 20
0
 11
-3
 21
0
  0
ENDBLK
  8
0
  0
BLOCK
  8
0
  2
_NONE
 70
    64
 10
0
 20
0
  3
_NONE
  0
CIRCLE
  8
0
  6
BYBLOCK
 62
     0
 10
0
 20
0
 40
0.001
  0
ENDBLK
  8
0
  0
BLOCK
  8
0
  2
*D1
 70
    65
 10
0
 20
0
  0
LINE
  8
0
  6
CONTINUOUS
 62
     7
 10
-17.597015
 20
-68.838486
 11
-67.597015
 21
-68.838486
  0
INSERT
  8
0
  6
CONTINUOUS
 62
     7
  2
_DOT
 10
-17.597015
 20
-68.838486
  0
INSERT
  8
0
  6
CONTINUOUS
 62
     7
  2
_DOT
 10
-67.597015
 20
-68.838486
 50
180
  0
LINE
  8
0
  6
CONTINUOUS
 62
     7
 10
-67.597015
 20
-21.100852
 11
-67.597015
 21
-70.038483
  0
TEXT
  8
0
  6
CONTINUOUS
 62
     7
 10
-45.339873
 20
-68.038486
 40
3.2
 41
1.102041
  1
50
  0
POINT
  8
DEFPOINTS
  6
CONTINUOUS
 62
     7
 10
-17.597015
 20
-43.927078
  0
POINT
  8
DEFPOINTS
  6
CONTINUOUS
 62
     7
 10
-67.597015
 20
-18.560852
  0
POINT
  8
DEFPOINTS
  6
CONTINUOUS
 62
     7
 10
-67.597015
 20
-68.838486
  0
ENDBLK
  8
0
  0
BLOCK
  8
0
  2
*D2
 70
    65
 10
0
 20
0
  0
LINE
  8
0
  6
CONTINUOUS
 62
     7
 10
-67.597015
 20
-68.838486
 11
-195.59702
 21
-68.838486
  0
INSERT
  8
0
  6
CONTINUOUS
 62
     7
  2
_DOT
 10
-67.597015
 20
-68.838486
  0
INSERT
  8
0
  6
CONTINUOUS
 62
     7
  2
_OPEN
 10
-198.59702
 20
-68.838486
 50
180
  0
TEXT
  8
0
  6
CONTINUOUS
 62
     7
 10
-142.13038
 20
-68.038486
 40
3.2
 41
1.0741411
  1
P=300
  0
POINT
  8
DEFPOINTS
  6
CONTINUOUS
 62
     7
 10
-67.597015
 20
-36.536324
  0
POINT
  8
DEFPOINTS
  6
CONTINUOUS
 62
     7
 10
-367.59702
 20
-36.536324
  0
POINT
  8
DEFPOINTS
  6
CONTINUOUS
 62
     7
 10
-198.59702
 20
-68.838486
  0
ENDBLK
  8
0
  0
BLOCK
  8
0
  2
*D3
 70
    65
 10
0
 20
0
  0
LINE
  8
0
  6
CONTINUOUS
 62
     7
 10
-195.59702
 20
-79.416199
 11
-17.597015
 21
-79.416199
  0
INSERT
  8
0
  6
CONTINUOUS
 62
     7
  2
_OPEN
 10
-198.59702
 20
-79.416199
 50
180
  0
INSERT
  8
0
  6
CONTINUOUS
 62
     7
  2
_DOT
 10
-17.597015
 20
-79.416199
  0
LINE
  8
0
  6
CONTINUOUS
 62
     7
 10
-17.597015
 20
-46.467078
 11
-17.597015
 21
-80.616196
  0
TEXT
  8
0
  6
CONTINUOUS
 62
     7
 10
-127.26261
 20
-78.616199
 40
3.2
 41
1.1215806
  1
L=2500(2800)
  0
POINT
  8
DEFPOINTS
  6
CONTINUOUS
 62
     7
 10
-817.59698
 20
-43.927078
  0
POINT
  8
DEFPOINTS
  6
CONTINUOUS
 62
     7
 10
-17.597015
 20
-43.927078
  0
POINT
  8
DEFPOINTS
  6
CONTINUOUS
 62
     7
 10
-17.597015
 20
-79.416199
  0
ENDBLK
  8
0
  0
BLOCK
  8
0
  2
*D4
 70
    65
 10
0
 20
0
  0
LINE
  8
0
  6
CONTINUOUS
 62
     7
 10
-71.362877
 20
43.084862
 11
-63.831139
 21
53.060982
  0
INSERT
  8
0
  6
CONTINUOUS
 62
     7
  2
_DOT
 10
-71.362877
 20
43.084862
 50
232.94805
  0
INSERT
  8
0
  6
CONTINUOUS
 62
     7
  2
_DOT
 10
-63.831139
 20
53.060982
 50
52.948045
  0
TEXT
  8
0
  6
CONTINUOUS
 62
     7
 10
-38.612681
 20
83.932469
 40
3.2
 41
3.0857149
  1
  
  0
ENDBLK
  8
0
  0
BLOCK
  8
0
  2
*D5
 70
    65
 10
0
 20
0
  0
LINE
  8
0
  6
CONTINUOUS
 62
     7
 10
82.040672
 20
-43.927078
 11
82.040672
 21
-25.427078
  0
INSERT
  8
0
  6
CONTINUOUS
 62
     7
  2
_DOT
 10
82.040672
 20
-43.927078
 50
270
  0
INSERT
  8
0
  6
CONTINUOUS
 62
     7
  2
_DOT
 10
82.040672
 20
-25.427078
 50
90
  0
LINE
  8
0
  6
CONTINUOUS
 62
     7
 10
91.598161
 20
-43.927078
 11
80.840668
 21
-43.927078
  0
LINE
  8
0
  6
CONTINUOUS
 62
     7
 10
93.098161
 20
-25.427078
 11
80.840668
 21
-25.427078
  0
TEXT
  8
0
  6
CONTINUOUS
 62
     7
 10
81.240673
 20
-40.654039
 40
3.2
 41
0.85124966
  1
１８．５
 50
90.000003
  0
POINT
  8
DEFPOINTS
  6
CONTINUOUS
 62
     7
 10
94.138161
 20
-43.927078
  0
POINT
  8
DEFPOINTS
  6
CONTINUOUS
 62
     7
 10
95.638161
 20
-25.427078
  0
POINT
  8
DEFPOINTS
  6
CONTINUOUS
 62
     7
 10
82.040672
 20
-25.427078
  0
ENDBLK
  8
0
  0
BLOCK
  8
0
  2
*D6
 70
    65
 10
0
 20
0
  0
LINE
  8
0
  6
CONTINUOUS
 62
     7
 10
120.6381
 20
-68.838486
 11
92.138161
 21
-68.838486
  0
INSERT
  8
0
  6
CONTINUOUS
 62
     7
  2
_DOT
 10
120.6381
 20
-68.838486
  0
INSERT
  8
0
  6
CONTINUOUS
 62
     7
  2
_DOT
 10
92.138161
 20
-68.838486
 50
180
  0
LINE
  8
0
  6
CONTINUOUS
 62
     7
 10
120.6381
 20
-46.467078
 11
120.6381
 21
-70.038483
  0
LINE
  8
0
  6
CONTINUOUS
 62
     7
 10
92.138161
 20
-44.467078
 11
92.138161
 21
-70.038483
  0
TEXT
  8
0
  6
CONTINUOUS
 62
     7
 10
100.44527
 20
-68.038486
 40
3.2
 41
1.2380953
  1
28.5
  0
POINT
  8
DEFPOINTS
  6
CONTINUOUS
 62
     7
 10
120.6381
 20
-43.927078
  0
POINT
  8
DEFPOINTS
  6
CONTINUOUS
 62
     7
 10
92.138161
 20
-41.927078
  0
POINT
  8
DEFPOINTS
  6
CONTINUOUS
 62
     7
 10
92.138161
 20
-68.838486
  0
ENDBLK
  8
0
  0
BLOCK
  8
0
  2
*D7
 70
    65
 10
0
 20
0
  0
LINE
  8
0
  6
CONTINUOUS
 62
     7
 10
135.74739
 20
-14.927063
 11
135.74739
 21
-19.927078
  0
INSERT
  8
0
  6
CONTINUOUS
 62
     7
  2
_DOT
 10
135.74739
 20
-14.927063
 50
90
  0
INSERT
  8
0
  6
CONTINUOUS
 62
     7
  2
_DOT
 10
135.74739
 20
-19.927078
 50
270
  0
LINE
  8
0
  6
CONTINUOUS
 62
     7
 10
119.17816
 20
-14.927063
 11
136.9474
 21
-14.927063
  0
TEXT
  8
0
  6
CONTINUOUS
 62
     7
 10
134.94739
 20
-18.569921
 40
3.2
 41
1
  1
5
 50
90.000003
  0
POINT
  8
DEFPOINTS
  6
CONTINUOUS
 62
     7
 10
116.63816
 20
-14.927063
  0
POINT
  8
DEFPOINTS
  6
CONTINUOUS
 62
     7
 10
115.63816
 20
-19.927078
  0
POINT
  8
DEFPOINTS
  6
CONTINUOUS
 62
     7
 10
135.74739
 20
-19.927078
  0
ENDBLK
  8
0
  0
BLOCK
  8
0
  2
*D8
 70
    65
 10
0
 20
0
  0
LINE
  8
0
  6
CONTINUOUS
 62
     7
 10
135.74739
 20
15.072936
 11
135.74739
 21
-14.927063
  0
INSERT
  8
0
  6
CONTINUOUS
 62
     7
  2
_DOT
 10
135.74739
 20
15.072936
 50
90
  0
INSERT
  8
0
  6
CONTINUOUS
 62
     7
  2
_DOT
 10
135.74739
 20
-14.927063
 50
270
  0
LINE
  8
0
  6
CONTINUOUS
 62
     7
 10
119.17816
 20
15.072936
 11
136.9474
 21
15.072936
  0
TEXT
  8
0
  6
CONTINUOUS
 62
     7
 10
134.94739
 20
-2.6700632
 40
3.2
 41
1.1020982
  1
30
 50
90.000003
  0
POINT
  8
DEFPOINTS
  6
CONTINUOUS
 62
     7
 10
116.63816
 20
15.072936
  0
POINT
  8
DEFPOINTS
  6
CONTINUOUS
 62
     7
 10
116.63816
 20
-14.927063
  0
POINT
  8
DEFPOINTS
  6
CONTINUOUS
 62
     7
 10
135.74739
 20
-14.927063
  0
ENDBLK
  8
0
  0
BLOCK
  8
0
  2
*D9
 70
    65
 10
0
 20
0
  0
LINE
  8
0
  6
CONTINUOUS
 62
     7
 10
135.74739
 20
-43.927078
 11
135.74739
 21
-19.927078
  0
INSERT
  8
0
  6
CONTINUOUS
 62
     7
  2
_DOT
 10
135.74739
 20
-43.927078
 50
270
  0
INSERT
  8
0
  6
CONTINUOUS
 62
     7
  2
_DOT
 10
135.74739
 20
-19.927078
 50
90
  0
LINE
  8
0
  6
CONTINUOUS
 62
     7
 10
123.17816
 20
-43.927078
 11
136.9474
 21
-43.927078
  0
LINE
  8
0
  6
CONTINUOUS
 62
     7
 10
118.17816
 20
-19.927078
 11
136.9474
 21
-19.927078
  0
TEXT
  8
0
  6
CONTINUOUS
 62
     7
 10
134.94739
 20
-34.670078
 40
3.2
 41
1.028625
  1
24
 50
90.000003
  0
POINT
  8
DEFPOINTS
  6
CONTINUOUS
 62
     7
 10
120.63816
 20
-43.927078
  0
POINT
  8
DEFPOINTS
  6
CONTINUOUS
 62
     7
 10
115.63816
 20
-19.927078
  0
POINT
  8
DEFPOINTS
  6
CONTINUOUS
 62
     7
 10
135.74739
 20
-19.927078
  0
ENDBLK
  8
0
  0
BLOCK
  8
0
  2
*D10
 70
    65
 10
0
 20
0
  0
LINE
  8
0
  6
CONTINUOUS
 62
     7
 10
135.74739
 20
60.572937
 11
135.74739
 21
30.572937
  0
INSERT
  8
0
  6
CONTINUOUS
 62
     7
  2
_DOT
 10
135.74739
 20
60.572937
 50
90
  0
INSERT
  8
0
  6
CONTINUOUS
 62
     7
  2
_DOT
 10
135.74739
 20
30.572937
 50
270
  0
LINE
  8
0
  6
CONTINUOUS
 62
     7
 10
119.17816
 20
60.572937
 11
136.9474
 21
60.572937
  0
TEXT
  8
0
  6
CONTINUOUS
 62
     7
 10
134.94739
 20
42.829937
 40
3.2
 41
1.1020982
  1
30
 50
90.000003
  0
POINT
  8
DEFPOINTS
  6
CONTINUOUS
 62
     7
 10
116.63816
 20
60.572937
  0
POINT
  8
DEFPOINTS
  6
CONTINUOUS
 62
     7
 10
116.63816
 20
30.572937
  0
POINT
  8
DEFPOINTS
  6
CONTINUOUS
 62
     7
 10
135.74739
 20
30.572937
  0
ENDBLK
  8
0
  0
BLOCK
  8
0
  2
*D11
 70
    65
 10
0
 20
0
  0
LINE
  8
0
  6
CONTINUOUS
 62
     7
 10
135.74739
 20
65.572937
 11
135.74739
 21
60.572937
  0
INSERT
  8
0
  6
CONTINUOUS
 62
     7
  2
_DOT
 10
135.74739
 20
65.572937
 50
90
  0
INSERT
  8
0
  6
CONTINUOUS
 62
     7
  2
_DOT
 10
135.74739
 20
60.572937
 50
270
  0
LINE
  8
0
  6
CONTINUOUS
 62
     7
 10
123.1781
 20
65.572937
 11
136.9474
 21
65.572937
  0
TEXT
  8
0
  6
CONTINUOUS
 62
     7
 10
134.94739
 20
61.929937
 40
3.2
 41
1
  1
5
 50
90.000003
  0
POINT
  8
DEFPOINTS
  6
CONTINUOUS
 62
     7
 10
120.6381
 20
65.572937
  0
POINT
  8
DEFPOINTS
  6
CONTINUOUS
 62
     7
 10
116.63816
 20
60.572937
  0
POINT
  8
DEFPOINTS
  6
CONTINUOUS
 62
     7
 10
135.74739
 20
60.572937
  0
ENDBLK
  8
0
  0
BLOCK
  8
0
  2
*D12
 70
    65
 10
0
 20
0
  0
LINE
  8
0
  6
CONTINUOUS
 62
     7
 10
120.6381
 20
-59.032356
 11
95.638161
 21
-59.032356
  0
INSERT
  8
0
  6
CONTINUOUS
 62
     7
  2
_DOT
 10
120.6381
 20
-59.032356
  0
INSERT
  8
0
  6
CONTINUOUS
 62
     7
  2
_DOT
 10
95.638161
 20
-59.032356
 50
180
  0
LINE
  8
0
  6
CONTINUOUS
 62
     7
 10
120.6381
 20
-46.467078
 11
120.6381
 21
-60.232353
  0
LINE
  8
0
  6
CONTINUOUS
 62
     7
 10
95.638161
 20
-37.967078
 11
95.638161
 21
-60.232353
  0
TEXT
  8
0
  6
CONTINUOUS
 62
     7
 10
105.39513
 20
-58.232356
 40
3.2
 41
1.028625
  1
25
  0
POINT
  8
DEFPOINTS
  6
CONTINUOUS
 62
     7
 10
120.6381
 20
-43.927078
  0
POINT
  8
DEFPOINTS
  6
CONTINUOUS
 62
     7
 10
95.638161
 20
-35.427078
  0
POINT
  8
DEFPOINTS
  6
CONTINUOUS
 62
     7
 10
95.638161
 20
-59.032356
  0
ENDBLK
  8
0
  0
BLOCK
  8
0
  2
*D13
 70
    65
 10
0
 20
0
  0
LINE
  8
0
  6
CONTINUOUS
 62
     7
 10
92.138161
 20
-59.032356
 11
77.589546
 21
-59.032356
  0
LINE
  8
0
  6
CONTINUOUS
 62
     7
 10
95.638161
 20
-59.032356
 11
92.138161
 21
-59.032356
  0
INSERT
  8
0
  6
CONTINUOUS
 62
     7
  2
_DOT
 10
95.638161
 20
-59.032356
  0
INSERT
  8
0
  6
CONTINUOUS
 62
     7
  2
_DOT
 10
92.138161
 20
-59.032356
 50
180
  0
LINE
  8
0
  6
CONTINUOUS
 62
     7
 10
92.138161
 20
-44.467078
 11
92.138161
 21
-60.232353
  0
TEXT
  8
0
  6
CONTINUOUS
 62
     7
 10
77.589549
 20
-58.232356
 40
3.2
 41
1.3571875
  1
3.5
  0
POINT
  8
DEFPOINTS
  6
CONTINUOUS
 62
     7
 10
95.638161
 20
-35.427078
  0
POINT
  8
DEFPOINTS
  6
CONTINUOUS
 62
     7
 10
92.138161
 20
-41.927078
  0
POINT
  8
DEFPOINTS
  6
CONTINUOUS
 62
     7
 10
92.138161
 20
-59.032356
  0
ENDBLK
  8
0
  0
BLOCK
  8
0
  2
*D14
 70
    65
 10
0
 20
0
  0
LINE
  8
0
  6
CONTINUOUS
 62
     7
 10
95.638153
 20
-28.927078
 11
86.834305
 21
-16.824789
  0
LINE
  8
0
  6
CONTINUOUS
 62
     7
 10
86.834297
 20
-16.824787
 11
77.391304
 21
-16.824787
  0
TEXT
  8
0
  6
CONTINUOUS
 62
     7
 10
77.391297
 20
-16.024787
 40
3.2
 41
1.238125
  1
R3.5
  0
POINT
  8
DEFPOINTS
  6
CONTINUOUS
 62
     7
 10
95.638153
 20
-28.927078
  0
POINT
  8
DEFPOINTS
  6
CONTINUOUS
 62
     7
 10
86.834305
 20
-16.824789
  0
ENDBLK
  8
0
  0
BLOCK
  8
0
  2
*D15
 70
    65
 10
0
 20
0
  0
LINE
  8
0
  6
CONTINUOUS
 62
     7
 10
135.74739
 20
15.072936
 11
135.74739
 21
30.572935
  0
INSERT
  8
0
  6
CONTINUOUS
 62
     7
  2
_DOT
 10
135.74739
 20
15.072936
 50
270
  0
INSERT
  8
0
  6
CONTINUOUS
 62
     7
  2
_DOT
 10
135.74739
 20
30.572935
 50
90
  0
LINE
  8
0
  6
CONTINUOUS
 62
     7
 10
119.17816
 20
15.072936
 11
136.94739
 21
15.072936
  0
LINE
  8
0
  6
CONTINUOUS
 62
     7
 10
119.17816
 20
30.572935
 11
136.94739
 21
30.572935
  0
TEXT
  8
0
  6
CONTINUOUS
 62
     7
 10
134.94739
 20
16.879935
 40
3.2
 41
1.3928906
  1
15.5
 50
90.000003
  0
POINT
  8
DEFPOINTS
  6
CONTINUOUS
 62
     7
 10
116.63816
 20
15.072936
  0
POINT
  8
DEFPOINTS
  6
CONTINUOUS
 62
     7
 10
116.63816
 20
30.572935
  0
POINT
  8
DEFPOINTS
  6
CONTINUOUS
 62
     7
 10
135.74739
 20
30.572935
  0
ENDBLK
  8
0
  0
BLOCK
  8
0
  2
*D16
 70
    65
 10
0
 20
0
  0
LINE
  8
0
  6
CONTINUOUS
 62
     7
 10
116.63816
 20
75.532227
 11
120.6381
 21
75.532227
  0
INSERT
  8
0
  6
CONTINUOUS
 62
     7
  2
_DOT
 10
116.63816
 20
75.532227
 50
180
  0
INSERT
  8
0
  6
CONTINUOUS
 62
     7
  2
_DOT
 10
120.6381
 20
75.532227
  0
LINE
  8
0
  6
CONTINUOUS
 62
     7
 10
116.63816
 20
63.112922
 11
116.63816
 21
76.732231
  0
LINE
  8
0
  6
CONTINUOUS
 62
     7
 10
120.6381
 20
68.112922
 11
120.6381
 21
76.732231
  0
TEXT
  8
0
  6
CONTINUOUS
 62
     7
 10
117.49513
 20
76.332227
 40
3.2
 41
1
  1
4
  0
POINT
  8
DEFPOINTS
  6
CONTINUOUS
 62
     7
 10
116.63816
 20
60.572922
  0
POINT
  8
DEFPOINTS
  6
CONTINUOUS
 62
     7
 10
120.6381
 20
65.572922
  0
POINT
  8
DEFPOINTS
  6
CONTINUOUS
 62
     7
 10
120.6381
 20
75.532227
  0
ENDBLK
  8
0
  0
BLOCK
  8
0
  2
*D17
 70
    65
 10
0
 20
0
  0
LINE
  8
0
  6
CONTINUOUS
 62
     7
 10
110.13816
 20
75.532227
 11
98.579994
 21
75.532227
  0
LINE
  8
0
  6
CONTINUOUS
 62
     7
 10
110.13816
 20
75.532227
 11
116.63816
 21
75.532227
  0
INSERT
  8
0
  6
CONTINUOUS
 62
     7
  2
_DOT
 10
110.13816
 20
75.532227
 50
180
  0
INSERT
  8
0
  6
CONTINUOUS
 62
     7
  2
_DOT
 10
116.63816
 20
75.532227
  0
LINE
  8
0
  6
CONTINUOUS
 62
     7
 10
110.13816
 20
68.112922
 11
110.13816
 21
76.732231
  0
TEXT
  8
0
  6
CONTINUOUS
 62
     7
 10
98.259997
 20
76.332227
 40
3.2
 41
1.3571875
  1
6.5
  0
POINT
  8
DEFPOINTS
  6
CONTINUOUS
 62
     7
 10
110.13816
 20
65.572922
  0
POINT
  8
DEFPOINTS
  6
CONTINUOUS
 62
     7
 10
116.63816
 20
60.572922
  0
POINT
  8
DEFPOINTS
  6
CONTINUOUS
 62
     7
 10
116.63816
 20
75.532227
  0
ENDBLK
  8
0
  0
BLOCK
  8
0
  2
*D18
 70
    65
 10
0
 20
0
  0
LINE
  8
0
  6
CONTINUOUS
 62
     7
 10
120.6381
 20
85.634453
 11
110.13816
 21
85.634453
  0
INSERT
  8
0
  6
CONTINUOUS
 62
     7
  2
_DOT
 10
120.6381
 20
85.634453
  0
INSERT
  8
0
  6
CONTINUOUS
 62
     7
  2
_DOT
 10
110.13816
 20
85.634453
 50
180
  0
LINE
  8
0
  6
CONTINUOUS
 62
     7
 10
120.6381
 20
68.112922
 11
120.6381
 21
86.83445
  0
LINE
  8
0
  6
CONTINUOUS
 62
     7
 10
110.13816
 20
68.112922
 11
110.13816
 21
86.83445
  0
TEXT
  8
0
  6
CONTINUOUS
 62
     7
 10
109.44513
 20
86.434453
 40
3.2
 41
1.48575
  1
10.5
  0
POINT
  8
DEFPOINTS
  6
CONTINUOUS
 62
     7
 10
120.6381
 20
65.572922
  0
POINT
  8
DEFPOINTS
  6
CONTINUOUS
 62
     7
 10
110.13816
 20
65.572922
  0
POINT
  8
DEFPOINTS
  6
CONTINUOUS
 62
     7
 10
110.13816
 20
85.634453
  0
ENDBLK
  8
0
  0
BLOCK
  8
0
  2
*D19
 70
    65
 10
0
 20
0
  0
LINE
  8
0
  6
CONTINUOUS
 62
     7
 10
7.7949791
 20
-1.9270782
 11
7.7949791
 21
-43.927078
  0
INSERT
  8
0
  6
CONTINUOUS
 62
     7
  2
_DOT
 10
7.7949791
 20
-1.9270782
 50
90
  0
INSERT
  8
0
  6
CONTINUOUS
 62
     7
  2
_DOT
 10
7.7949791
 20
-43.927078
 50
270
  0
LINE
  8
0
  6
CONTINUOUS
 62
     7
 10
-15.057015
 20
-1.9270782
 11
8.9949789
 21
-1.9270782
  0
LINE
  8
0
  6
CONTINUOUS
 62
     7
 10
-15.057015
 20
-43.927078
 11
8.9949789
 21
-43.927078
  0
TEXT
  8
0
  6
CONTINUOUS
 62
     7
 10
6.9949792
 20
-25.83444
 40
3.2
 41
1.028625
  1
42
 50
90.000003
  0
POINT
  8
DEFPOINTS
  6
CONTINUOUS
 62
     7
 10
-17.597015
 20
-1.9270782
  0
POINT
  8
DEFPOINTS
  6
CONTINUOUS
 62
     7
 10
-17.597015
 20
-43.927078
  0
POINT
  8
DEFPOINTS
  6
CONTINUOUS
 62
     7
 10
7.7949791
 20
-43.927078
  0
ENDBLK
  8
0
  0
BLOCK
  8
0
  2
*D20
 70
    65
 10
0
 20
0
  0
LINE
  8
0
  6
CONTINUOUS
 62
     7
 10
7.7949791
 20
-1.9270782
 11
7.7949791
 21
48.072922
  0
INSERT
  8
0
  6
CONTINUOUS
 62
     7
  2
_DOT
 10
7.7949791
 20
-1.9270782
 50
270
  0
INSERT
  8
0
  6
CONTINUOUS
 62
     7
  2
_DOT
 10
7.7949791
 20
48.072922
 50
90
  0
LINE
  8
0
  6
CONTINUOUS
 62
     7
 10
-15.057015
 20
48.072922
 11
8.9949789
 21
48.072922
  0
TEXT
  8
0
  6
CONTINUOUS
 62
     7
 10
6.9949792
 20
21.297895
 40
3.2
 41
1.1020982
  1
50
 50
90.000003
  0
POINT
  8
DEFPOINTS
  6
CONTINUOUS
 62
     7
 10
-17.597015
 20
-1.9270782
  0
POINT
  8
DEFPOINTS
  6
CONTINUOUS
 62
     7
 10
-17.597015
 20
48.072922
  0
POINT
  8
DEFPOINTS
  6
CONTINUOUS
 62
     7
 10
7.7949791
 20
48.072922
  0
ENDBLK
  8
0
  0
BLOCK
  8
0
  2
*D21
 70
    65
 10
0
 20
0
  0
LINE
  8
0
  6
CONTINUOUS
 62
     7
 10
7.7949791
 20
48.072922
 11
7.7949791
 21
65.572922
  0
INSERT
  8
0
  6
CONTINUOUS
 62
     7
  2
_DOT
 10
7.7949791
 20
48.072922
 50
270
  0
INSERT
  8
0
  6
CONTINUOUS
 62
     7
  2
_DOT
 10
7.7949791
 20
65.572922
 50
90
  0
LINE
  8
0
  6
CONTINUOUS
 62
     7
 10
-15.057015
 20
65.572922
 11
8.9949789
 21
65.572922
  0
TEXT
  8
0
  6
CONTINUOUS
 62
     7
 10
6.9949793
 20
50.879922
 40
3.2
 41
1.3928906
  1
17.5
 50
90.000003
  0
POINT
  8
DEFPOINTS
  6
CONTINUOUS
 62
     7
 10
-17.597015
 20
48.072922
  0
POINT
  8
DEFPOINTS
  6
CONTINUOUS
 62
     7
 10
-17.597015
 20
65.572922
  0
POINT
  8
DEFPOINTS
  6
CONTINUOUS
 62
     7
 10
7.7949791
 20
65.572922
  0
ENDBLK
  8
0
  0
BLOCK
  8
0
  2
*D22
 70
    65
 10
0
 20
0
  0
LINE
  8
0
  6
CONTINUOUS
 62
     7
 10
18.458811
 20
65.572922
 11
18.458811
 21
-43.927078
  0
INSERT
  8
0
  6
CONTINUOUS
 62
     7
  2
_DOT
 10
18.458811
 20
65.572922
 50
90
  0
INSERT
  8
0
  6
CONTINUOUS
 62
     7
  2
_DOT
 10
18.458811
 20
-43.927078
 50
270
  0
LINE
  8
0
  6
CONTINUOUS
 62
     7
 10
-15.057015
 20
65.572922
 11
19.65881
 21
65.572922
  0
LINE
  8
0
  6
CONTINUOUS
 62
     7
 10
-15.057015
 20
-43.927078
 11
19.65881
 21
-43.927078
  0
TEXT
  8
0
  6
CONTINUOUS
 62
     7
 10
17.658811
 20
2.9071791
 40
3.2
 41
1.3469643
  1
109.5
 50
90.000003
  0
POINT
  8
DEFPOINTS
  6
CONTINUOUS
 62
     7
 10
-17.597015
 20
65.572922
  0
POINT
  8
DEFPOINTS
  6
CONTINUOUS
 62
     7
 10
-17.597015
 20
-43.927078
  0
POINT
  8
DEFPOINTS
  6
CONTINUOUS
 62
     7
 10
18.458811
 20
-43.927078
  0
ENDBLK
  8
0
  0
BLOCK
  8
0
  2
*D23
 70
    65
 10
0
 20
0
  0
LINE
  8
0
  6
CONTINUOUS
 62
     7
 10
-2.6591241
 20
-43.927078
 11
-2.6591241
 21
-25.427078
  0
INSERT
  8
0
  6
CONTINUOUS
 62
     7
  2
_DOT
 10
-2.6591241
 20
-43.927078
 50
270
  0
INSERT
  8
0
  6
CONTINUOUS
 62
     7
  2
_DOT
 10
-2.6591241
 20
-25.427078
 50
90
  0
LINE
  8
0
  6
CONTINUOUS
 62
     7
 10
-15.057015
 20
-43.927078
 11
-1.4591241
 21
-43.927078
  0
LINE
  8
0
  6
CONTINUOUS
 62
     7
 10
-141.92275
 20
-25.427078
 11
-1.4591241
 21
-25.427078
  0
TEXT
  8
0
  6
CONTINUOUS
 62
     7
 10
-3.4591239
 20
-40.620078
 40
3.2
 41
1.3928906
  1
18.5
 50
90.000003
  0
POINT
  8
DEFPOINTS
  6
CONTINUOUS
 62
     7
 10
-17.597015
 20
-43.927078
  0
POINT
  8
DEFPOINTS
  6
CONTINUOUS
 62
     7
 10
-144.46275
 20
-25.427078
  0
POINT
  8
DEFPOINTS
  6
CONTINUOUS
 62
     7
 10
-2.6591241
 20
-25.427078
  0
ENDBLK
  8
0
  0
BLOCK
  8
0
  2
*D24
 70
    65
 10
0
 20
0
  0
LINE
  8
0
  6
CONTINUOUS
 62
     7
 10
-147.59702
 20
-59.032356
 11
-17.597015
 21
-59.032356
  0
INSERT
  8
0
  6
CONTINUOUS
 62
     7
  2
_DOT
 10
-147.59702
 20
-59.032356
 50
180
  0
INSERT
  8
0
  6
CONTINUOUS
 62
     7
  2
_DOT
 10
-17.597015
 20
-59.032356
  0
LINE
  8
0
  6
CONTINUOUS
 62
     7
 10
-147.59702
 20
-48.181594
 11
-147.59702
 21
-60.232357
  0
LINE
  8
0
  6
CONTINUOUS
 62
     7
 10
-17.597015
 20
-46.467078
 11
-17.597015
 21
-60.232357
  0
TEXT
  8
0
  6
CONTINUOUS
 62
     7
 10
-104.21325
 20
-58.232356
 40
3.2
 41
0.84634979
  1
１３０（両端）
  0
POINT
  8
DEFPOINTS
  6
CONTINUOUS
 62
     7
 10
-147.59702
 20
-45.641594
  0
POINT
  8
DEFPOINTS
  6
CONTINUOUS
 62
     7
 10
-17.597015
 20
-43.927078
  0
POINT
  8
DEFPOINTS
  6
CONTINUOUS
 62
     7
 10
-17.597015
 20
-59.032356
  0
ENDBLK
  8
0
  0
ENDSEC
  0
SECTION
  2
ENTITIES
  0
POINT
  8
0
  6
CONTINUOUS
 62
     7
 10
93.570877
 20
-26.092865
  0
LINE
  8
0
  6
CONTINUOUS
 62
     7
 10
170
 20
173
 11
170
 21
-100
  0
LINE
  8
0
  6
CONTINUOUS
 62
     7
 10
-211
 20
-100
 11
170
 21
-100
  0
LINE
  8
0
  6
CONTINUOUS
 62
     7
 10
-211
 20
173
 11
170
 21
173
  0
LINE
  8
0
  6
CONTINUOUS
 62
     7
 10
-211
 20
173
 11
-211
 21
-100
  0
LINE
  8
0
  6
CONTINUOUS
 62
     7
 10
-191
 20
173
 11
-191
 21
77
  0
LINE
  8
0
  6
CONTINUOUS
 62
     7
 10
-211
 20
165
 11
-101.00001
 21
165
  0
LINE
  8
0
  6
CONTINUOUS
 62
     7
 10
-211
 20
157
 11
-101.00001
 21
157
  0
LINE
  8
0
  6
CONTINUOUS
 62
     7
 10
-211
 20
149
 11
-101.00001
 21
149
  0
LINE
  8
0
  6
CONTINUOUS
 62
     7
 10
-211
 20
141
 11
-101.00001
 21
141
  0
LINE
  8
0
  6
CONTINUOUS
 62
     7
 10
-191
 20
117
 11
-101.00001
 21
117
  0
LINE
  8
0
  6
CONTINUOUS
 62
     7
 10
-191
 20
109
 11
-101.00001
 21
109
  0
LINE
  8
0
  6
CONTINUOUS
 62
     7
 10
-211
 20
101
 11
-101.00001
 21
101
  0
LINE
  8
0
  6
CONTINUOUS
 62
     7
 10
-191
 20
93
 11
-101.00001
 21
93
  0
LINE
  8
0
  6
CONTINUOUS
 62
     7
 10
-211
 20
85
 11
-101.00001
 21
85
  0
LINE
  8
0
  6
CONTINUOUS
 62
     7
 10
-211
 20
77
 11
-101.00001
 21
77
  0
LINE
  8
0
  6
CONTINUOUS
 62
     7
 10
-211
 20
173
 11
-211
 21
77
  0
LINE
  8
0
  6
CONTINUOUS
 62
     7
 10
-211
 20
173
 11
-101.00001
 21
173
  0
LINE
  8
0
  6
CONTINUOUS
 62
     7
 10
-101.00001
 20
173
 11
-101.00001
 21
77
  0
LINE
  8
0
  6
CONTINUOUS
 62
     7
 10
-211
 20
133
 11
-101.00001
 21
133
  0
LINE
  8
0
  6
CONTINUOUS
 62
     7
 10
-211
 20
125
 11
-101.00001
 21
125
  0
LINE
  8
0
  6
CONTINUOUS
 62
     7
 10
-191
 20
117
 11
-101.00001
 21
117
  0
POLYLINE
  8
0
  6
CONTINUOUS
 62
     7
 66
     1
 10
0
 20
0
  0
VERTEX
  8
0
  6
CONTINUOUS
 62
     7
 10
-198.59702
 20
73.58683
  0
VERTEX
  8
0
  6
CONTINUOUS
 62
     7
 10
-198.59702
 20
59.081001
  0
VERTEX
  8
0
  6
CONTINUOUS
 62
     7
 10
-201.09702
 20
58.481001
  0
VERTEX
  8
0
  6
CONTINUOUS
 62
     7
 10
-196.09702
 20
57.281001
  0
VERTEX
  8
0
  6
CONTINUOUS
 62
     7
 10
-198.59702
 20
56.681001
  0
VERTEX
  8
0
  6
CONTINUOUS
 62
     7
 10
-198.59702
 20
27.669341
  0
VERTEX
  8
0
  6
CONTINUOUS
 62
     7
 10
-201.09702
 20
27.069341
  0
VERTEX
  8
0
  6
CONTINUOUS
 62
     7
 10
-196.09702
 20
25.869341
  0
VERTEX
  8
0
  6
CONTINUOUS
 62
     7
 10
-198.59702
 20
25.269341
  0
VERTEX
  8
0
  6
CONTINUOUS
 62
     7
 10
-198.59702
 20
-3.742318
  0
VERTEX
  8
0
  6
CONTINUOUS
 62
     7
 10
-201.09702
 20
-4.342318
  0
VERTEX
  8
0
  6
CONTINUOUS
 62
     7
 10
-196.09702
 20
-5.542318
  0
VERTEX
  8
0
  6
CONTINUOUS
 62
     7
 10
-198.59702
 20
-6.142318
  0
VERTEX
  8
0
  6
CONTINUOUS
 62
     7
 10
-198.59702
 20
-35.153977
  0
VERTEX
  8
0
  6
CONTINUOUS
 62
     7
 10
-201.09702
 20
-35.753977
  0
VERTEX
  8
0
  6
CONTINUOUS
 62
     7
 10
-196.09702
 20
-36.953977
  0
VERTEX
  8
0
  6
CONTINUOUS
 62
     7
 10
-198.59702
 20
-37.553977
  0
VERTEX
  8
0
  6
CONTINUOUS
 62
     7
 10
-198.59702
 20
-52.059807
  0
SEQEND
  8
0
  6
CONTINUOUS
 62
     7
  0
LINE
  8
0
  6
CENTER
 62
     7
 10
-67.597015
 20
62.617298
 11
-67.597015
 21
-18.382549
  0
LINE
  8
0
  6
CONTINUOUS
 62
     7
 10
-17.597015
 20
65.572922
 11
-17.597015
 21
-43.927078
  0
LINE
  8
0
  6
CONTINUOUS
 62
     7
 10
-198.59702
 20
-25.427078
 11
-147.59702
 21
-25.427078
  0
LINE
  8
0
  6
CONTINUOUS
 62
     7
 10
-198.59702
 20
-14.927078
 11
-17.597015
 21
-14.927078
  0
LINE
  8
0
  6
CENTER
 62
     7
 10
-198.59702
 20
-1.9270782
 11
-17.597015
 21
-1.9270782
  0
LINE
  8
0
  6
CONTINUOUS
 62
     7
 10
-198.59702
 20
15.072921
 11
-17.597015
 21
15.072921
  0
LINE
  8
0
  6
CONTINUOUS
 62
     7
 10
-198.59702
 20
58.572922
 11
-17.597015
 21
58.572922
  0
LINE
  8
0
  6
CENTER
 62
     7
 10
-198.59702
 20
48.072922
 11
-17.597015
 21
48.072922
  0
LINE
  8
0
  6
CONTINUOUS
 62
     7
 10
-198.59702
 20
-43.927078
 11
-17.597015
 21
-43.927078
  0
LINE
  8
0
  6
CONTINUOUS
 62
     7
 10
111.63816
 20
30.572935
 11
111.63816
 21
27.572935
  0
LINE
  8
0
  6
CONTINUOUS
 62
     7
 10
113.63816
 20
-39.927078
 11
99.138161
 21
-39.927078
  0
LINE
  8
0
  6
CONTINUOUS
 62
     7
 10
120.63816
 20
-43.927078
 11
94.138161
 21
-43.927078
  0
LINE
  8
0
  6
CONTINUOUS
 62
     7
 10
115.63816
 20
-19.927078
 11
110.13816
 21
-19.927078
  0
LINE
  8
0
  6
CONTINUOUS
 62
     7
 10
116.63816
 20
-14.927063
 11
114.23814
 21
-14.927063
  0
LINE
  8
0
  6
CONTINUOUS
 62
     7
 10
111.63816
 20
18.072937
 11
111.63816
 21
15.072936
  0
LINE
  8
0
  6
CONTINUOUS
 62
     7
 10
116.63816
 20
30.572935
 11
114.23814
 21
30.572935
  0
LINE
  8
0
  6
CONTINUOUS
 62
     7
 10
116.63816
 20
60.572922
 11
114.23814
 21
60.572922
  0
LINE
  8
0
  6
CONTINUOUS
 62
     7
 10
116.63816
 20
-20.927078
 11
116.63816
 21
-43.927078
  0
LINE
  8
0
  6
CONTINUOUS
 62
     7
 10
116.63816
 20
60.572922
 11
116.63816
 21
30.572935
  0
LINE
  8
0
  6
CONTINUOUS
 62
     7
 10
114.23814
 20
-14.927063
 11
114.23814
 21
-17.927078
  0
LINE
  8
0
  6
CONTINUOUS
 62
     7
 10
116.63816
 20
15.072936
 11
116.63816
 21
-14.927063
  0
LINE
  8
0
  6
CONTINUOUS
 62
     7
 10
120.6381
 20
65.572922
 11
110.13816
 21
65.572922
  0
LINE
  8
0
  6
CONTINUOUS
 62
     7
 10
114.23814
 20
-17.927078
 11
111.63816
 21
-17.927078
  0
LINE
  8
0
  6
CONTINUOUS
 62
     7
 10
114.23814
 20
63.572922
 11
111.63816
 21
63.572922
  0
LINE
  8
0
  6
CONTINUOUS
 62
     7
 10
111.63816
 20
60.572922
 11
110.13816
 21
60.572922
  0
LINE
  8
0
  6
CONTINUOUS
 62
     7
 10
116.63816
 20
15.072936
 11
114.23814
 21
15.072936
  0
LINE
  8
0
  6
CONTINUOUS
 62
     7
 10
114.23814
 20
18.072937
 11
111.63816
 21
18.072937
  0
LINE
  8
0
  6
CONTINUOUS
 62
     7
 10
111.63816
 20
30.572935
 11
110.13816
 21
30.572935
  0
LINE
  8
0
  6
CONTINUOUS
 62
     7
 10
114.23814
 20
27.572935
 11
111.63816
 21
27.572935
  0
LINE
  8
0
  6
CONTINUOUS
 62
     7
 10
111.63816
 20
-14.927063
 11
110.13816
 21
-14.927063
  0
LINE
  8
0
  6
CONTINUOUS
 62
     7
 10
111.63816
 20
15.072936
 11
110.13816
 21
15.072936
  0
LINE
  8
0
  6
CONTINUOUS
 62
     7
 10
96.138161
 20
-33.826065
 11
96.138161
 21
-36.927078
  0
LINE
  8
0
  6
CONTINUOUS
 62
     7
 10
110.13816
 20
30.572935
 11
110.13816
 21
15.072936
  0
LINE
  8
0
  6
CONTINUOUS
 62
     7
 10
114.23814
 20
30.572935
 11
114.23814
 21
27.572935
  0
LINE
  8
0
  6
CONTINUOUS
 62
     7
 10
114.23814
 20
18.072937
 11
114.23814
 21
15.072936
  0
LINE
  8
0
  6
CONTINUOUS
 62
     7
 10
111.63816
 20
-14.927063
 11
111.63816
 21
-17.927078
  0
LINE
  8
0
  6
CONTINUOUS
 62
     7
 10
110.13816
 20
-14.927063
 11
110.13816
 21
-19.927078
  0
LINE
  8
0
  6
CONTINUOUS
 62
     7
 10
110.13816
 20
65.572922
 11
110.13816
 21
60.572922
  0
LINE
  8
0
  6
CONTINUOUS
 62
     7
 10
111.63816
 20
63.572922
 11
111.63816
 21
60.572922
  0
LINE
  8
0
  6
CONTINUOUS
 62
     7
 10
114.23814
 20
63.572922
 11
114.23814
 21
60.572922
  0
LINE
  8
0
  6
CONTINUOUS
 62
     7
 10
92.138161
 20
-28.927078
 11
92.138161
 21
-41.927078
  0
LINE
  8
0
  6
CONTINUOUS
 62
     7
 10
120.6381
 20
65.572922
 11
120.6381
 21
-43.927078
  0
LINE
  8
0
  6
CENTER
 62
     7
 10
89.138161
 20
-28.927078
 11
102.13816
 21
-28.927078
  0
LINE
  8
0
  6
CENTER
 62
     7
 10
95.638161
 20
-22.427078
 11
95.638161
 21
-35.427078
  0
LINE
  8
0
  6
CONTINUOUS
 62
     7
 10
-198.59702
 20
30.572935
 11
-17.597015
 21
30.572935
  0
LINE
  8
0
  6
CONTINUOUS
 62
     7
 10
-198.59702
 20
65.572922
 11
-17.597015
 21
65.572922
  0
LINE
  8
0
  6
CONTINUOUS
 62
     7
 10
-147.59702
 20
-25.427078
 11
-147.59702
 21
-43.927078
  0
CIRCLE
  8
0
  6
CONTINUOUS
 62
     7
 10
-67.597015
 20
-1.9270782
 40
6.25
  0
CIRCLE
  8
0
  6
CONTINUOUS
 62
     7
 10
-67.597015
 20
48.072922
 40
6.25
  0
CIRCLE
  8
0
  6
CONTINUOUS
 62
     7
 10
-67.597015
 20
48.072922
 40
3.25
  0
CIRCLE
  8
0
  6
CONTINUOUS
 62
     7
 10
-67.597015
 20
-1.9270782
 40
3.25
  0
ARC
  8
0
  6
CONTINUOUS
 62
     7
 10
95.638161
 20
-28.927078
 40
3.5
 50
297.03574
 51
180
  0
ARC
  8
0
  6
CONTINUOUS
 62
     7
 10
99.138161
 20
-36.927078
 40
3
 50
180
 51
270
  0
ARC
  8
0
  6
CONTINUOUS
 62
     7
 10
115.63816
 20
-20.927078
 40
1
 50
0
 51
90
  0
ARC
  8
0
  6
CONTINUOUS
 62
     7
 10
94.138161
 20
-41.927078
 40
2
 50
180
 51
270
  0
ARC
  8
0
  6
CONTINUOUS
 62
     7
 10
98.138161
 20
-33.826065
 40
2
 50
117.0356
 51
180
  0
ARC
  8
0
  6
CONTINUOUS
 62
     7
 10
113.63816
 20
-36.927078
 40
3
 50
270
 51
360
  0
CIRCLE
  8
0
  6
CONTINUOUS
 62
     7
 10
93.570877
 20
-26.092865
 40
0.30000001
  0
TEXT
  8
0
  6
CONTINUOUS
 62
     7
 10
-205.343
 20
167.4
 40
3.2
 41
0.85537027
  1
品　名
  0
TEXT
  8
0
  6
CONTINUOUS
 62
     7
 10
-205.343
 20
159.4
 40
3.2
 41
0.85537027
  1
品　番
  0
TEXT
  8
0
  6
CONTINUOUS
 62
     7
 10
-188.143
 20
167.4
 40
3.2
 41
0.84634979
  1
上吊引戸レール
  0
TEXT
  8
0
  6
CONTINUOUS
 62
     7
 10
-205.343
 20
151.4
 40
3.2
 41
0.85537027
  1
材　質
  0
TEXT
  8
0
  6
CONTINUOUS
 62
     7
 10
-205.343
 20
143.4
 40
3.2
 41
0.85537027
  1
仕上げ
  0
TEXT
  8
0
  6
CONTINUOUS
 62
     7
 10
-208.543
 20
119.4
 40
3.2
 41
0.84892707
  1
セットビス
  0
TEXT
  8
0
  6
CONTINUOUS
 62
     7
 10
-188.143
 20
143.4
 40
3.2
 41
0.84892707
  1
アルマイト
  0
TEXT
  8
0
  6
CONTINUOUS
 62
     7
 10
-203.743
 20
95.4
 40
3.2
 41
0.86439075
  1
備考
  0
TEXT
  8
0
  6
CONTINUOUS
 62
     7
 10
-188.143
 20
151.4
 40
3.2
 41
0.85537027
  1
アルミ
  0
TEXT
  8
0
  6
CONTINUOUS
 62
     7
 10
-188.143
 20
159.4
 40
3.2
 41
0.84326962
  1
ＳＬＭＲ－２５００／２８００
  0
TEXT
  8
0
  6
CONTINUOUS
 62
     7
 10
-205.343
 20
135.4
 40
3.2
 41
0.85537027
  1
定　尺
  0
TEXT
  8
0
  6
CONTINUOUS
 62
     7
 10
-206.943
 20
127.4
 40
3.2
 41
0.85127005
  1
左右勝手
  0
TEXT
  8
0
  6
CONTINUOUS
 62
     7
 10
-188.37855
 20
134.96998
 40
3.2
 41
0.84306961
  1
２，５００ｍｍ、２，８００ｍｍ
  0
TEXT
  8
0
  6
CONTINUOUS
 62
     7
 10
-208.5
 20
79.4
 40
3.2
 41
0.51379248
  1
使用可能シリーズ
  0
TEXT
  8
0
  6
CONTINUOUS
 62
     7
 10
-188.37855
 20
78.969977
 40
3.2
 41
0.85537027
  1
スリム
  0
TEXT
  8
0
  6
CONTINUOUS
 62
     7
 10
-188.143
 20
95.4
 40
3.2
 41
0.84210486
  1
図中（　）内寸法は、定尺２８００の寸法とする。
  0
DIMENSION
  8
0
  6
CONTINUOUS
 62
     7
  2
*D1
 70
     0
 10
-67.597015
 20
-68.838486
 11
-42.597015
 21
-68.838486
  3
DIMSTYLE
 13
-17.597015
 23
-43.927078
 14
-67.597015
 24
-18.560852
 50
0
1001
ACAD
1000
DSTYLE
1002
{
1070
    77
1070
     1
1070
   172
1070
     1
1070
    75
1070
     1
1002
}
  0
DIMENSION
  8
0
  6
CONTINUOUS
 62
     7
  2
*D2
 70
     0
 10
-198.59702
 20
-68.838486
 11
-134.58752
 21
-68.838486
 52
349.17917
  3
DIMSTYLE
 13
-67.597015
 23
-36.536324
 14
-367.59702
 24
-36.536324
 50
0
1001
ACAD
1000
DSTYLE
1002
{
1070
     7
1000
_OPEN
1070
    77
1070
     1
1070
   172
1070
     1
1070
    75
1070
     1
1070
    76
1070
     1
1002
}
  0
DIMENSION
  8
0
  6
CONTINUOUS
 62
     7
  2
*D3
 70
     0
 10
-17.597015
 20
-79.416199
 11
-108.51975
 21
-79.416199
  3
DIMSTYLE
 13
-817.59698
 23
-43.927078
 14
-17.597015
 24
-43.927078
 50
0
1001
ACAD
1000
DSTYLE
1002
{
1070
     6
1000
_OPEN
1070
    77
1070
     1
1070
   172
1070
     1
1070
    75
1070
     1
1002
}
  0
POLYLINE
  8
0
  6
CONTINUOUS
 62
     7
 66
     1
 10
0
 20
0
 40
0
 41
0
  0
VERTEX
  8
0
  6
CONTINUOUS
 62
     7
 10
-63.831139
 20
53.060982
  0
VERTEX
  8
0
  6
CONTINUOUS
 62
     7
 10
-41.127861
 20
83.132469
  0
VERTEX
  8
0
  6
CONTINUOUS
 62
     7
 10
21.273035
 20
83.132469
  0
SEQEND
  8
0
  6
CONTINUOUS
 62
     7
  0
TEXT
  8
0
  6
CONTINUOUS
 62
     7
 10
-38.612681
 20
83.932469
 40
3.2
 41
0.84247986
  1
１８（２０）－%%C６．５×%%C１２．５サラ
  0
INSERT
  8
0
  6
CONTINUOUS
 62
     7
  2
*D4
 10
0
 20
0
  0
DIMENSION
  8
0
  6
CONTINUOUS
 62
     7
  2
*D5
 70
     0
 10
82.040672
 20
-25.427078
 11
82.040672
 21
-34.711182
  3
DIMSTYLE
 13
94.138161
 23
-43.927078
 14
95.638161
 24
-25.427078
 50
90
1001
ACAD
1000
DSTYLE
1002
{
1070
    77
1070
     1
1070
   172
1070
     1
1002
}
  0
DIMENSION
  8
0
  6
CONTINUOUS
 62
     7
  2
*D6
 70
     0
 10
92.138161
 20
-68.838486
 11
106.38813
 21
-68.838486
  3
DIMSTYLE
 13
120.6381
 23
-43.927078
 14
92.138161
 24
-41.927078
 50
0
1001
ACAD
1000
DSTYLE
1002
{
1070
    77
1070
     1
1070
   172
1070
     1
1002
}
  0
DIMENSION
  8
0
  6
CONTINUOUS
 62
     7
  2
*D7
 70
     0
 10
135.74739
 20
-19.927078
 11
135.74739
 21
-17.427063
  3
DIMSTYLE
 13
116.63816
 23
-14.927063
 14
115.63816
 24
-19.927078
 50
90
1001
ACAD
1000
DSTYLE
1002
{
1070
    77
1070
     1
1070
   172
1070
     1
1070
    76
1070
     1
1002
}
  0
DIMENSION
  8
0
  6
CONTINUOUS
 62
     7
  2
*D8
 70
     0
 10
135.74739
 20
-14.927063
 11
135.74739
 21
0.072936788
  3
DIMSTYLE
 13
116.63816
 23
15.072936
 14
116.63816
 24
-14.927063
 50
90
1001
ACAD
1000
DSTYLE
1002
{
1070
    77
1070
     1
1070
   172
1070
     1
1070
    76
1070
     1
1002
}
  0
DIMENSION
  8
0
  6
CONTINUOUS
 62
     7
  2
*D9
 70
     0
 10
135.74739
 20
-19.927078
 11
135.74739
 21
-31.927078
  3
DIMSTYLE
 13
120.63816
 23
-43.927078
 14
115.63816
 24
-19.927078
 50
90
1001
ACAD
1000
DSTYLE
1002
{
1070
    77
1070
     1
1070
   172
1070
     1
1002
}
  0
DIMENSION
  8
0
  6
CONTINUOUS
 62
     7
  2
*D10
 70
     0
 10
135.74739
 20
30.572937
 11
135.74739
 21
45.572937
  3
DIMSTYLE
 13
116.63816
 23
60.572937
 14
116.63816
 24
30.572937
 50
90
1001
ACAD
1000
DSTYLE
1002
{
1070
    77
1070
     1
1070
   172
1070
     1
1070
    76
1070
     1
1002
}
  0
DIMENSION
  8
0
  6
CONTINUOUS
 62
     7
  2
*D11
 70
     0
 10
135.74739
 20
60.572937
 11
135.74739
 21
63.072937
  3
DIMSTYLE
 13
120.6381
 23
65.572937
 14
116.63816
 24
60.572937
 50
90
1001
ACAD
1000
DSTYLE
1002
{
1070
    77
1070
     1
1070
   172
1070
     1
1070
    76
1070
     1
1002
}
  0
DIMENSION
  8
0
  6
CONTINUOUS
 62
     7
  2
*D12
 70
     0
 10
95.638161
 20
-59.032356
 11
108.13813
 21
-59.032356
  3
DIMSTYLE
 13
120.6381
 23
-43.927078
 14
95.638161
 24
-35.427078
 50
0
1001
ACAD
1000
DSTYLE
1002
{
1070
    77
1070
     1
1070
   172
1070
     1
1002
}
  0
DIMENSION
  8
0
  6
CONTINUOUS
 62
     7
  2
*D13
 70
     0
 10
92.138161
 20
-59.032356
 11
81.932549
 21
-59.032356
  3
DIMSTYLE
 13
95.638161
 23
-35.427078
 14
92.138161
 24
-41.927078
 50
0
1001
ACAD
1000
DSTYLE
1002
{
1070
    77
1070
     1
1070
   172
1070
     1
1070
    75
1070
     1
1002
}
  0
INSERT
  8
0
  6
CONTINUOUS
 62
     7
  2
*D14
 10
0
 20
0
  0
DIMENSION
  8
0
  6
CONTINUOUS
 62
     7
  2
*D15
 70
     0
 10
135.74739
 20
30.572935
 11
135.74739
 21
22.822935
  3
DIMSTYLE
 13
116.63816
 23
15.072936
 14
116.63816
 24
30.572935
 50
90
1001
ACAD
1000
DSTYLE
1002
{
1070
    77
1070
     1
1070
   172
1070
     1
1002
}
  0
DIMENSION
  8
0
  6
CONTINUOUS
 62
     7
  2
*D16
 70
     0
 10
120.6381
 20
75.532227
 11
118.63813
 21
75.532227
  3
DIMSTYLE
 13
116.63816
 23
60.572922
 14
120.6381
 24
65.572922
 50
0
1001
ACAD
1000
DSTYLE
1002
{
1070
    77
1070
     1
1070
   172
1070
     1
1002
}
  0
DIMENSION
  8
0
  6
CONTINUOUS
 62
     7
  2
*D17
 70
     0
 10
116.63816
 20
75.532227
 11
102.603
 21
75.532227
  3
DIMSTYLE
 13
110.13816
 23
65.572922
 14
116.63816
 24
60.572922
 50
0
1001
ACAD
1000
DSTYLE
1002
{
1070
    77
1070
     1
1070
   172
1070
     1
1070
    76
1070
     1
1002
}
  0
DIMENSION
  8
0
  6
CONTINUOUS
 62
     7
  2
*D18
 70
     0
 10
110.13816
 20
85.634453
 11
115.38813
 21
85.634453
  3
DIMSTYLE
 13
120.6381
 23
65.572922
 14
110.13816
 24
65.572922
 50
0
1001
ACAD
1000
DSTYLE
1002
{
1070
    77
1070
     1
1070
   172
1070
     1
1002
}
  0
DIMENSION
  8
0
  6
CONTINUOUS
 62
     7
  2
*D19
 70
     0
 10
7.7949791
 20
-43.927078
 11
7.7949791
 21
-23.09144
  3
DIMSTYLE
 13
-17.597015
 23
-1.9270782
 14
-17.597015
 24
-43.927078
 50
90
1001
ACAD
1000
DSTYLE
1002
{
1070
    77
1070
     1
1070
   172
1070
     1
1002
}
  0
DIMENSION
  8
0
  6
CONTINUOUS
 62
     7
  2
*D20
 70
     0
 10
7.7949791
 20
48.072922
 11
7.7949791
 21
24.040895
  3
DIMSTYLE
 13
-17.597015
 23
-1.9270782
 14
-17.597015
 24
48.072922
 50
90
1001
ACAD
1000
DSTYLE
1002
{
1070
    77
1070
     1
1070
   172
1070
     1
1070
    75
1070
     1
1002
}
  0
DIMENSION
  8
0
  6
CONTINUOUS
 62
     7
  2
*D21
 70
     0
 10
7.7949791
 20
65.572922
 11
7.7949791
 21
56.822922
  3
DIMSTYLE
 13
-17.597015
 23
48.072922
 14
-17.597015
 24
65.572922
 50
90
1001
ACAD
1000
DSTYLE
1002
{
1070
    77
1070
     1
1070
   172
1070
     1
1070
    75
1070
     1
1002
}
  0
DIMENSION
  8
0
  6
CONTINUOUS
 62
     7
  2
*D22
 70
     0
 10
18.458811
 20
-43.927078
 11
18.458811
 21
10.450179
  3
DIMSTYLE
 13
-17.597015
 23
65.572922
 14
-17.597015
 24
-43.927078
 50
90
1001
ACAD
1000
DSTYLE
1002
{
1070
    77
1070
     1
1070
   172
1070
     1
1002
}
  0
DIMENSION
  8
0
  6
CONTINUOUS
 62
     7
  2
*D23
 70
     0
 10
-2.6591241
 20
-25.427078
 11
-2.6591241
 21
-34.677078
  3
DIMSTYLE
 13
-17.597015
 23
-43.927078
 14
-144.46275
 24
-25.427078
 50
90
1001
ACAD
1000
DSTYLE
1002
{
1070
    77
1070
     1
1070
   172
1070
     1
1002
}
  0
DIMENSION
  8
0
  6
CONTINUOUS
 62
     7
  2
*D24
 70
     0
 10
-17.597015
 20
-59.032356
 11
-93.470245
 21
-59.032356
  3
DIMSTYLE
 13
-147.59702
 23
-45.641594
 14
-17.597015
 24
-43.927078
 50
0
1001
ACAD
1000
DSTYLE
1002
{
1070
    77
1070
     1
1070
   172
1070
     1
1002
}
  0
ENDSEC
  0
EOF
