  0
SECTION
  2
HEADER
  9
$ACADVER
  1
AC1015
  9
$ACADMAINTVER
 70
    20
  9
$DWGCODEPAGE
  3
ANSI_932
  9
$INSBASE
 10
0.0
 20
0.0
 30
0.0
  9
$EXTMIN
 10
-0.1219308726590498
 20
-0.1133963807287728
 30
-0.0000000349181948
  9
$EXTMAX
 10
420.1247060124374
 20
297.0099773288794
 30
0.0000000814935747
  9
$LIMMIN
 10
1700.85588156276
 20
1647.985052086429
  9
$LIMMAX
 10
1997.85588156276
 20
1857.985052086429
  9
$ORTHOMODE
 70
     0
  9
$REGENMODE
 70
     1
  9
$FILLMODE
 70
     1
  9
$QTEXTMODE
 70
     0
  9
$MIRRTEXT
 70
     0
  9
$LTSCALE
 40
1.0
  9
$ATTMODE
 70
     1
  9
$TEXTSIZE
 40
3.2
  9
$TRACEWID
 40
1.0
  9
$TEXTSTYLE
  7
STANDARD
  9
$CLAYER
  8
AM_2
  9
$CELTYPE
  6
ByLayer
  9
$CECOLOR
 62
   256
  9
$CELTSCALE
 40
1.0
  9
$DISPSILH
 70
     0
  9
$DIMSCALE
 40
1.0
  9
$DIMASZ
 40
1.0
  9
$DIMEXO
 40
1.0
  9
$DIMDLI
 40
10.0
  9
$DIMRND
 40
0.0
  9
$DIMDLE
 40
0.0
  9
$DIMEXE
 40
1.0
  9
$DIMTP
 40
0.1
  9
$DIMTM
 40
0.1
  9
$DIMTXT
 40
3.5
  9
$DIMCEN
 40
0.0
  9
$DIMTSZ
 40
0.0
  9
$DIMTOL
 70
     0
  9
$DIMLIM
 70
     0
  9
$DIMTIH
 70
     0
  9
$DIMTOH
 70
     0
  9
$DIMSE1
 70
     0
  9
$DIMSE2
 70
     0
  9
$DIMTAD
 70
     1
  9
$DIMZIN
 70
     8
  9
$DIMBLK
  1

  9
$DIMASO
 70
     1
  9
$DIMSHO
 70
     1
  9
$DIMPOST
  1

  9
$DIMAPOST
  1
"
  9
$DIMALT
 70
     0
  9
$DIMALTD
 70
     2
  9
$DIMALTF
 40
0.0393701
  9
$DIMLFAC
 40
1.0
  9
$DIMTOFL
 70
     1
  9
$DIMTVP
 40
0.0
  9
$DIMTIX
 70
     0
  9
$DIMSOXD
 70
     0
  9
$DIMSAH
 70
     0
  9
$DIMBLK1
  1

  9
$DIMBLK2
  1

  9
$DIMSTYLE
  2
SYS
  9
$DIMCLRD
 70
   256
  9
$DIMCLRE
 70
   256
  9
$DIMCLRT
 70
     7
  9
$DIMTFAC
 40
0.71
  9
$DIMGAP
 40
1.5
  9
$DIMJUST
 70
     0
  9
$DIMSD1
 70
     0
  9
$DIMSD2
 70
     0
  9
$DIMTOLJ
 70
     0
  9
$DIMTZIN
 70
     8
  9
$DIMALTZ
 70
     0
  9
$DIMALTTZ
 70
     0
  9
$DIMUPT
 70
     0
  9
$DIMDEC
 70
     2
  9
$DIMTDEC
 70
     2
  9
$DIMALTU
 70
     2
  9
$DIMALTTD
 70
     2
  9
$DIMTXSTY
  7
STANDARD
  9
$DIMAUNIT
 70
     0
  9
$DIMADEC
 70
     0
  9
$DIMALTRND
 40
0.0
  9
$DIMAZIN
 70
     2
  9
$DIMDSEP
 70
    46
  9
$DIMATFIT
 70
     3
  9
$DIMFRAC
 70
     0
  9
$DIMLDRBLK
  1

  9
$DIMLUNIT
 70
     2
  9
$DIMLWD
 70
    -1
  9
$DIMLWE
 70
    -1
  9
$DIMTMOVE
 70
     0
  9
$LUNITS
 70
     2
  9
$LUPREC
 70
     2
  9
$SKETCHINC
 40
1.0
  9
$FILLETRAD
 40
1.0
  9
$AUNITS
 70
     0
  9
$AUPREC
 70
     0
  9
$MENU
  1
.
  9
$ELEVATION
 40
0.0
  9
$PELEVATION
 40
0.0
  9
$THICKNESS
 40
0.0
  9
$LIMCHECK
 70
     0
  9
$CHAMFERA
 40
0.0
  9
$CHAMFERB
 40
0.0
  9
$CHAMFERC
 40
20.0
  9
$CHAMFERD
 40
0.0
  9
$SKPOLY
 70
     0
  9
$TDCREATE
 40
2453866.668752350
  9
$TDUCREATE
 40
2453866.293752350
  9
$TDUPDATE
 40
2454358.581034063
  9
$TDUUPDATE
 40
2454358.206034063
  9
$TDINDWG
 40
0.1692010301
  9
$TDUSRTIMER
 40
0.1691999421
  9
$USRTIMER
 70
     1
  9
$ANGBASE
 50
0.0
  9
$ANGDIR
 70
     0
  9
$PDMODE
 70
     0
  9
$PDSIZE
 40
-3.0
  9
$PLINEWID
 40
0.0
  9
$SPLFRAME
 70
     0
  9
$SPLINETYPE
 70
     6
  9
$SPLINESEGS
 70
     8
  9
$HANDSEED
  5
CB85
  9
$SURFTAB1
 70
     6
  9
$SURFTAB2
 70
     6
  9
$SURFTYPE
 70
     6
  9
$SURFU
 70
     6
  9
$SURFV
 70
     6
  9
$UCSBASE
  2

  9
$UCSNAME
  2

  9
$UCSORG
 10
0.0
 20
0.0
 30
0.0
  9
$UCSXDIR
 10
1.0
 20
0.0
 30
0.0
  9
$UCSYDIR
 10
0.0
 20
1.0
 30
0.0
  9
$UCSORTHOREF
  2

  9
$UCSORTHOVIEW
 70
     0
  9
$UCSORGTOP
 10
0.0
 20
0.0
 30
0.0
  9
$UCSORGBOTTOM
 10
0.0
 20
0.0
 30
0.0
  9
$UCSORGLEFT
 10
0.0
 20
0.0
 30
0.0
  9
$UCSORGRIGHT
 10
0.0
 20
0.0
 30
0.0
  9
$UCSORGFRONT
 10
0.0
 20
0.0
 30
0.0
  9
$UCSORGBACK
 10
0.0
 20
0.0
 30
0.0
  9
$PUCSBASE
  2

  9
$PUCSNAME
  2

  9
$PUCSORG
 10
0.0
 20
0.0
 30
0.0
  9
$PUCSXDIR
 10
1.0
 20
0.0
 30
0.0
  9
$PUCSYDIR
 10
0.0
 20
1.0
 30
0.0
  9
$PUCSORTHOREF
  2

  9
$PUCSORTHOVIEW
 70
     0
  9
$PUCSORGTOP
 10
0.0
 20
0.0
 30
0.0
  9
$PUCSORGBOTTOM
 10
0.0
 20
0.0
 30
0.0
  9
$PUCSORGLEFT
 10
0.0
 20
0.0
 30
0.0
  9
$PUCSORGRIGHT
 10
0.0
 20
0.0
 30
0.0
  9
$PUCSORGFRONT
 10
0.0
 20
0.0
 30
0.0
  9
$PUCSORGBACK
 10
0.0
 20
0.0
 30
0.0
  9
$USERI1
 70
     0
  9
$USERI2
 70
     0
  9
$USERI3
 70
     0
  9
$USERI4
 70
     0
  9
$USERI5
 70
     0
  9
$USERR1
 40
0.0
  9
$USERR2
 40
0.0
  9
$USERR3
 40
0.0
  9
$USERR4
 40
0.0
  9
$USERR5
 40
0.0
  9
$WORLDVIEW
 70
     1
  9
$SHADEDGE
 70
     3
  9
$SHADEDIF
 70
    70
  9
$TILEMODE
 70
     1
  9
$MAXACTVP
 70
    64
  9
$PINSBASE
 10
0.0
 20
0.0
 30
0.0
  9
$PLIMCHECK
 70
     0
  9
$PEXTMIN
 10
1.000000000000000E+20
 20
1.000000000000000E+20
 30
1.000000000000000E+20
  9
$PEXTMAX
 10
-1.000000000000000E+20
 20
-1.000000000000000E+20
 30
-1.000000000000000E+20
  9
$PLIMMIN
 10
-3.17498779296875
 20
-3.174999952316281
  9
$PLIMMAX
 10
293.4970092773438
 20
206.692492723465
  9
$UNITMODE
 70
     0
  9
$VISRETAIN
 70
     1
  9
$PLINEGEN
 70
     0
  9
$PSLTSCALE
 70
     1
  9
$TREEDEPTH
 70
  3020
  9
$CMLSTYLE
  2
Standard
  9
$CMLJUST
 70
     0
  9
$CMLSCALE
 40
20.0
  9
$PROXYGRAPHICS
 70
     1
  9
$MEASUREMENT
 70
     1
  9
$CELWEIGHT
370
    -1
  9
$ENDCAPS
280
     0
  9
$JOINSTYLE
280
     0
  9
$LWDISPLAY
290
     0
  9
$INSUNITS
 70
     4
  9
$HYPERLINKBASE
  1

  9
$STYLESHEET
  1
MONOCHROME.CTB
  9
$XEDIT
290
     1
  9
$CEPSNTYPE
380
     0
  9
$PSTYLEMODE
290
     1
  9
$FINGERPRINTGUID
  2
{56442CBE-9EA3-4A27-AE5B-8B13144189BD}
  9
$VERSIONGUID
  2
{8C2BE619-4F53-4762-8FF7-3DD8F6B1F078}
  9
$EXTNAMES
290
     1
  9
$PSVPSCALE
 40
0.0
  9
$OLESTARTUP
290
     0
  0
ENDSEC
  0
SECTION
  2
CLASSES
  0
CLASS
  1
ACDBDICTIONARYWDFLT
  2
AcDbDictionaryWithDefault
  3
ObjectDBX Classes
 90
        0
280
     0
281
     0
  0
CLASS
  1
ACDBPLACEHOLDER
  2
AcDbPlaceHolder
  3
ObjectDBX Classes
 90
        0
280
     0
281
     0
  0
CLASS
  1
LAYOUT
  2
AcDbLayout
  3
ObjectDBX Classes
 90
        0
280
     0
281
     0
  0
CLASS
  1
AMGSETTINGSOBJ
  2
AmgSettingsObj
  3
"AcadM|Product Description: AutoCAD Mechanical|Company: Autodesk"
 90
        0
280
     0
281
     0
  0
CLASS
  1
ACME_DOCUMENT
  2
AcMeDbDoc
  3
AcMeServices
 90
        0
280
     0
281
     0
  0
CLASS
  1
ACMESCOPE
  2
AcMeScope
  3
AcMeServices
 90
        0
280
     0
281
     0
  0
CLASS
  1
ACMECOMMANDHISTORY
  2
AcMeCommandHistory
  3
AcMeServices
 90
        0
280
     0
281
     0
  0
CLASS
  1
DICTIONARYVAR
  2
AcDbDictionaryVar
  3
ObjectDBX Classes
 90
        0
280
     0
281
     0
  0
CLASS
  1
ACIMSYSVARMAN
  2
AcImSysVarManager
  3
AcMeServices
 90
        0
280
     0
281
     0
  0
CLASS
  1
ACIMREALSYSVAR
  2
AcImRealSysVar
  3
AcMeServices
 90
        0
280
     0
281
     0
  0
CLASS
  1
ACIMINTSYSVAR
  2
AcImIntSysVar
  3
AcMeServices
 90
        0
280
     0
281
     0
  0
CLASS
  1
ACMEDRAWINGMAN
  2
AcMeDrawingMan
  3
AcMeServices
 90
        0
280
     0
281
     0
  0
CLASS
  1
ACMEVIEW
  2
AcMeView
  3
AcMeServices
 90
        0
280
     0
281
     0
  0
CLASS
  1
ACDBENTITYCACHE
  2
AcMeEntityCache
  3
AcMeServices
 90
        0
280
     0
281
     0
  0
CLASS
  1
GSMANAGER
  2
AcMeGSManager
  3
AcMeServices
 90
        0
280
     0
281
     0
  0
CLASS
  1
AMDTINTERNALREACTOR
  2
AmdtInternalReactor
  3
AcMeServices
 90
        0
280
     0
281
     0
  0
CLASS
  1
ACMESTATEMGR
  2
AcMeStateMgr
  3
AcMeServices
 90
        0
280
     0
281
     0
  0
CLASS
  1
ACGREFMASTER
  2
AcGrefMaster
  3
AcAttribServices
 90
        0
280
     0
281
     0
  0
CLASS
  1
ACME_DATABASE
  2
AcMeDbDatabase
  3
AcMeServices
 90
        0
280
     0
281
     0
  0
CLASS
  1
ACRFINSADJUSTERMGR
  2
AcRfInsAdjusterMgr
  3
AcMeServices
 90
        0
280
     0
281
     0
  0
CLASS
  1
ACGREFACADMASTER
  2
AcGrefacadMaster
  3
AcGrefServices
 90
        0
280
     0
281
     0
  0
CLASS
  1
AMIMASTER
  2
AmiMaster
  3
AmiServices
 90
        0
280
     0
281
     0
  0
CLASS
  1
ACMDATADICTIONARY
  2
AcmDataDictionary
  3
"AcmSymBB|Product Description: AutoCAD Mechanical|Company: Autodesk"
 90
        0
280
     0
281
     0
  0
CLASS
  1
ACMDATAENTRYBLOCK
  2
AcmDataEntryBlock
  3
"AcmSymBB|Product Description: AutoCAD Mechanical|Company: Autodesk"
 90
    32768
280
     0
281
     0
  0
CLASS
  1
ACIMSTRSYSVAR
  2
AcImStrSysVar
  3
AcMeServices
 90
        0
280
     0
281
     0
  0
CLASS
  1
ACMSTANDARDISO
  2
AcmStandardISO
  3
"Amdt_StdImp|Product Description: AutoCAD Mechanical|Company: Autodesk"
 90
        0
280
     0
281
     0
  0
CLASS
  1
AMGOBJPROPCFG
  2
AmgObjPropCfg
  3
"AmgLay|Product Description: AutoCAD Mechanical|Company: Autodesk"
 90
        1
280
     0
281
     0
  0
CLASS
  1
AMDTEDGESTANDARDISO
  2
AmdtEdgeStdISO
  3
"Amdt_StdImp|Product Description: AutoCAD Mechanical|Company: Autodesk"
 90
    32768
280
     0
281
     0
  0
CLASS
  1
ACMSURFSTANDARDISO
  2
AcmSurfTextStdISO
  3
"Amdt_StdImp|Product Description: AutoCAD Mechanical|Company: Autodesk"
 90
        0
280
     0
281
     0
  0
CLASS
  1
ACMFCFSTANDARDISO
  2
AcmFCFStdISO
  3
"Amdt_StdImp|Product Description: AutoCAD Mechanical|Company: Autodesk"
 90
        0
280
     0
281
     0
  0
CLASS
  1
ACMWELDSTANDARDISO
  2
AcmWeldingStdISO
  3
"Amdt_StdImp|Product Description: AutoCAD Mechanical|Company: Autodesk"
 90
        0
280
     0
281
     0
  0
CLASS
  1
ACMIDSTANDARDISO
  2
AcmIdStdISO
  3
"Amdt_StdImp|Product Description: AutoCAD Mechanical|Company: Autodesk"
 90
        0
280
     0
281
     0
  0
CLASS
  1
ACMDATUMSTANDARDISO
  2
AcmDatumStdISO
  3
"Amdt_StdImp|Product Description: AutoCAD Mechanical|Company: Autodesk"
 90
        0
280
     0
281
     0
  0
CLASS
  1
ACMBOMSTANDARDISO
  2
AcmBOMStdISO
  3
"Amdt_StdImp|Product Description: AutoCAD Mechanical|Company: Autodesk"
 90
        0
280
     0
281
     0
  0
CLASS
  1
ACMDETAILSTANDARDISO
  2
AmdtDetailSymStdISO
  3
"Amdt_StdImp|Product Description: AutoCAD Mechanical|Company: Autodesk"
 90
        0
280
     0
281
     0
  0
CLASS
  1
ACMSECTIONSTANDARDISO
  2
AmdtSectionSymStdISO
  3
"Amdt_StdImp|Product Description: AutoCAD Mechanical|Company: Autodesk"
 90
        0
280
     0
281
     0
  0
CLASS
  1
ACMCENTERLINESTANDARDISO
  2
AmdtCenterLineStdISO
  3
"Amdt_StdImp|Product Description: AutoCAD Mechanical|Company: Autodesk"
 90
        0
280
     0
281
     0
  0
CLASS
  1
ACAMGLAYSTD
  2
AcAmgLayStd
  3
"AmgLay|Product Description: AutoCAD Mechanical|Company: Autodesk"
 90
        0
280
     0
281
     0
  0
CLASS
  1
ACAMGDIMSTD
  2
AcAmgDimStd
  3
"AmgDim|Product Description: AutoCAD Mechanical|Company: Autodesk"
 90
        0
280
     0
281
     0
  0
CLASS
  1
ACAMGTITLESTD
  2
AcAmgTitleStd
  3
"AmgTitle|Product Description: AutoCAD Mechanical|Company: Autodesk"
 90
        0
280
     0
281
     0
  0
CLASS
  1
ACAMGFILTERDAT
  2
AcAmgFilterDat
  3
"AcadM|Product Description: AutoCAD Mechanical|Company: Autodesk"
 90
    32768
280
     0
281
     0
  0
CLASS
  1
LAYER_INDEX
  2
AcDbLayerIndex
  3
ObjectDBX Classes
 90
    32768
280
     0
281
     0
  0
CLASS
  1
IDBUFFER
  2
AcDbIdBuffer
  3
ObjectDBX Classes
 90
    32768
280
     0
281
     0
  0
CLASS
  1
PLOTSETTINGS
  2
AcDbPlotSettings
  3
ObjectDBX Classes
 90
    32768
280
     0
281
     0
  0
CLASS
  1
AMDTFORMULAUPDATEDISPATCHER
  2
AmdtFormulaUpdateDispatcher
  3
AcMeServices
 90
    32768
280
     0
281
     0
  0
CLASS
  1
ACMSTANDARDANSI
  2
AcmStandardANSI
  3
"Amdt_StdImp|Product Description: AutoCAD Mechanical|Company: Autodesk"
 90
    32768
280
     0
281
     0
  0
CLASS
  1
ACMSURFSTANDARDANSI
  2
AcmSurfTextStdANSI
  3
"Amdt_StdImp|Product Description: AutoCAD Mechanical|Company: Autodesk"
 90
    32768
280
     0
281
     0
  0
CLASS
  1
ACMFCFSTANDARDANSI
  2
AcmFCFStdANSI
  3
"Amdt_StdImp|Product Description: AutoCAD Mechanical|Company: Autodesk"
 90
    32768
280
     0
281
     0
  0
CLASS
  1
ACMWELDSTANDARDANSI
  2
AcmWeldingStdANSI
  3
"Amdt_StdImp|Product Description: AutoCAD Mechanical|Company: Autodesk"
 90
    32768
280
     0
281
     0
  0
CLASS
  1
ACMIDSTANDARDANSI
  2
AcmIdStdANSI
  3
"Amdt_StdImp|Product Description: AutoCAD Mechanical|Company: Autodesk"
 90
    32768
280
     0
281
     0
  0
CLASS
  1
ACMDATUMSTANDARDANSI
  2
AcmDatumStdANSI
  3
"Amdt_StdImp|Product Description: AutoCAD Mechanical|Company: Autodesk"
 90
    32768
280
     0
281
     0
  0
CLASS
  1
ACMBOMSTANDARDANSI
  2
AcmBOMStdANSI
  3
"Amdt_StdImp|Product Description: AutoCAD Mechanical|Company: Autodesk"
 90
    32768
280
     0
281
     0
  0
CLASS
  1
ACMDETAILSTANDARDANSI
  2
AmdtDetailSymStdANSI
  3
"Amdt_StdImp|Product Description: AutoCAD Mechanical|Company: Autodesk"
 90
    32768
280
     0
281
     0
  0
CLASS
  1
ACMSECTIONSTANDARDANSI
  2
AmdtSectionSymStdANSI
  3
"Amdt_StdImp|Product Description: AutoCAD Mechanical|Company: Autodesk"
 90
    32768
280
     0
281
     0
  0
CLASS
  1
ACMCENTERLINESTANDARDANSI
  2
AmdtCenterLineStdANSI
  3
"Amdt_StdImp|Product Description: AutoCAD Mechanical|Company: Autodesk"
 90
    32768
280
     0
281
     0
  0
CLASS
  1
ACMBOM
  2
AcmBom
  3
"AcmSymBB|Product Description: AutoCAD Mechanical|Company: Autodesk"
 90
    32768
280
     0
281
     0
  0
CLASS
  1
ACMDATAENTRYPART
  2
AcmDataEntryPart
  3
"AcmSymBB|Product Description: AutoCAD Mechanical|Company: Autodesk"
 90
    32768
280
     0
281
     0
  0
CLASS
  1
ACMPARTREF
  2
AcmPartRef
  3
"AcmSymBB|Product Description: AutoCAD Mechanical|Company: Autodesk"
 90
    35839
280
     0
281
     1
  0
CLASS
  1
ACDBCIRCARCRES
  2
AcDbCircArcRes
  3
AcGrefServices
 90
    32768
280
     0
281
     0
  0
CLASS
  1
ACMBOMROW
  2
AcmBomRow
  3
"AcmSymBB|Product Description: AutoCAD Mechanical|Company: Autodesk"
 90
    32768
280
     0
281
     0
  0
CLASS
  1
ACMBALLOON
  2
AcmBalloon
  3
"AcmSymBB|Product Description: AutoCAD Mechanical|Company: Autodesk"
 90
    35839
280
     0
281
     1
  0
CLASS
  1
AMDTNOTE
  2
AmdtNote
  3
"AcmSymBB|Product Description: AutoCAD Mechanical|Company: Autodesk"
 90
    35839
280
     0
281
     1
  0
CLASS
  1
STDPART2D
  2
AmgStdPart
  3
"g3vace|Class: AmgStdPart|Product Description: AutoCAD Mechanical|Company: Autodesk"
 90
    35839
280
     0
281
     1
  0
CLASS
  1
ACDBSTDPARTRES_LINE
  2
AcDbStdPartRes_Line
  3
"g3vace|Class: AcDbStdPartRes_Line|Product Description: AutoCAD Mechanical|Company: Autodesk"
 90
    32768
280
     0
281
     0
  0
CLASS
  1
ACMDATAENTRY
  2
AcmDataEntry
  3
"AcmSymBB|Product Description: AutoCAD Mechanical|Company: Autodesk"
 90
    32768
280
     0
281
     0
  0
CLASS
  1
ACDBOPPOLYLINERES
  2
AcDbOpPolylineRes
  3
AcGrefServices
 90
    32768
280
     0
281
     0
  0
CLASS
  1
ACMPARTLIST
  2
AcmPartList
  3
"AcmSymBB|Product Description: AutoCAD Mechanical|Company: Autodesk"
 90
    35839
280
     0
281
     1
  0
CLASS
  1
ACDBLINERES
  2
AcDbLineRes
  3
AcGrefServices
 90
    32768
280
     0
281
     0
  0
CLASS
  1
ACRFINSADJ
  2
AcRfInsAdjuster
  3
AcMeServices
 90
    32768
280
     0
281
     0
  0
CLASS
  1
AM_DRAWING_MGR
  2
AcDmDwgMgr
  3
AcMechDwgViewMgmt
 90
        0
280
     0
281
     0
  0
CLASS
  1
AM_DWG_DOCUMENT
  2
AcDmDwgDocument
  3
AcMechDwgViewMgmt
 90
        0
280
     0
281
     0
  0
CLASS
  1
AM_DWG_SHEET
  2
AcDmSheet
  3
AcMechDwgViewMgmt
 90
        0
280
     0
281
     0
  0
CLASS
  1
AM_VIEWDIMPARMAP
  2
AcDmViewDimParMap
  3
AcMechDwgViewMgmt
 90
        0
280
     0
281
     0
  0
CLASS
  1
AM_DWGMGR_NAME
  2
AcDmDwgMgrName
  3
AcMechDwgViewMgmt
 90
        0
280
     0
281
     0
  0
CLASS
  1
AMDTMENUSTATEMGR
  2
AmdtMenuStateMgr
  3
McadcomServices
 90
        0
280
     0
281
     0
  0
CLASS
  1
AMDTMCOMMENUSTATE
  2
AmdtMcomMenuState
  3
McadcomServices
 90
        0
280
     0
281
     0
  0
CLASS
  1
ASAPP
  2
AcAsAppObject
  3
AutoSurfServices
 90
        0
280
     0
281
     0
  0
CLASS
  1
IM_STATIC_MAN
  2
AcImStaticVarManager
  3
AcMeServices
 90
    32768
280
     0
281
     0
  0
CLASS
  1
ACIMDBLSTATICVAR
  2
AcImDblStaticVar
  3
AcMeServices
 90
    32768
280
     0
281
     0
  0
CLASS
  1
ACIMSTRSTATICVAR
  2
AcImStrStaticVar
  3
AcMeServices
 90
    32768
280
     0
281
     0
  0
CLASS
  1
ACIMINTSTATICVAR
  2
AcImIntStaticVar
  3
AcMeServices
 90
    32768
280
     0
281
     0
  0
CLASS
  1
ACASGREFMASTER
  2
AcAsGrefMaster
  3
AutoSurfResolverServices
 90
        0
280
     0
281
     0
  0
CLASS
  1
ACADGREFMODULE
  2
AcAdGrefModule
  3
AdGrefServices
 90
        0
280
     0
281
     0
  0
CLASS
  1
AMDTMAPISURFMOUDULE
  2
AmdtMApiSurfModule
  3
MApiSurfServices
 90
        0
280
     0
281
     0
  0
CLASS
  1
MAPIAMMOUDLE
  2
MApiAmModule
  3
MApiAmServices
 90
        0
280
     0
281
     0
  0
CLASS
  1
AMDTADMENUSTATE
  2
AmdtAdMenuState
  3
DesignerServices
 90
        0
280
     0
281
     0
  0
CLASS
  1
ADAPPL
  2
AcAdAppl
  3
DesignerServices
 90
        0
280
     0
281
     0
  0
CLASS
  1
DEPMGR
  2
AcAdDepMgr
  3
DesignerServices
 90
        0
280
     0
281
     0
  0
CLASS
  1
PARAMMGR
  2
AcAdParamMgr
  3
DesignerServices
 90
        0
280
     0
281
     0
  0
CLASS
  1
PARAMSCOPE
  2
AcAdParamScope
  3
DesignerServices
 90
        0
280
     0
281
     0
  0
CLASS
  1
NAMEDAPPL
  2
AcAdNamedAppl
  3
DesignerServices
 90
        0
280
     0
281
     0
  0
CLASS
  1
ADHNTMPLT
  2
AdHoleNoteTemplateMgr
  3
DesignerServices
 90
    32768
280
     0
281
     0
  0
CLASS
  1
AM_HNTEMPLATE_MGR_NAME
  2
AdHoleNoteTemplateMgrName
  3
DesignerServices
 90
    32768
280
     0
281
     0
  0
CLASS
  1
AMDTDMMENUSTATE
  2
AmdtDmMenuState
  3
AcMechDwgViewMgmt
 90
        0
280
     0
281
     0
  0
CLASS
  1
MAPIADMODULE
  2
MApiAdModule
  3
MApiAdServices
 90
        0
280
     0
281
     0
  0
CLASS
  1
AMDTAMMENUSTATE
  2
AmdtAmMenuState
  3
DesignerAssemblies
 90
        0
280
     0
281
     0
  0
CLASS
  1
ACAMPROJECT
  2
AcAmProject
  3
DesignerAssemblies
 90
        0
280
     0
281
     0
  0
CLASS
  1
ACAMGRCOMPDEF
  2
AcAmGrCompDef
  3
DesignerAssemblies
 90
        0
280
     0
281
     0
  0
CLASS
  1
ACCMCONTEXT
  2
AcCmContext
  3
DesignerAssemblies
 90
        0
280
     0
281
     0
  0
CLASS
  1
ACAMCOMPDEF
  2
AcAmCompDef
  3
DesignerAssemblies
 90
        0
280
     0
281
     0
  0
CLASS
  1
ACAMCOMPDEFMGR
  2
AcAmCompDefMgr
  3
DesignerAssemblies
 90
        0
280
     0
281
     0
  0
CLASS
  1
AMCONTEXTMGR
  2
AcAmContextMgr
  3
DesignerAssemblies
 90
        0
280
     0
281
     0
  0
CLASS
  1
ACAMCONTEXTMODELER
  2
AcAmContextModeler
  3
DesignerAssemblies
 90
        0
280
     0
281
     0
  0
CLASS
  1
CATALOGSTATE
  2
AcAmCatalogState
  3
DesignerAssemblies
 90
        0
280
     0
281
     0
  0
CLASS
  1
ACAMGRCOMPDEFSET
  2
AcAmGrCompDefSet
  3
DesignerAssemblies
 90
        0
280
     0
281
     0
  0
CLASS
  1
AMDTBROWSERDBTAB
  2
AmdtBrowserDbTab
  3
McadcomServices
 90
        0
280
     0
281
     0
  0
CLASS
  1
CBROWSERAPPOBJECT
  2
CBrowserAppObject
  3
McadcomServices
 90
        0
280
     0
281
     0
  0
CLASS
  1
DM_PLACEHOLDER
  2
AcDmSelsetPlaceholder
  3
AcMechDwgViewMgmt
 90
        0
280
     0
281
     0
  0
CLASS
  1
ACMPICKOBJ
  2
AcmPickEnt
  3
"AcmSymBB|Product Description: AutoCAD Mechanical|Company: Autodesk"
 90
    32768
280
     0
281
     1
  0
CLASS
  1
ACMNOTESTANDARDISO
  2
AmdtNoteStdISO
  3
"Amdt_StdImp|Product Description: AutoCAD Mechanical|Company: Autodesk"
 90
        0
280
     0
281
     0
  0
CLASS
  1
ACMNOTESTANDARDANSI
  2
AmdtNoteStdANSI
  3
"Amdt_StdImp|Product Description: AutoCAD Mechanical|Company: Autodesk"
 90
    32768
280
     0
281
     0
  0
CLASS
  1
ACMTHREADLINESTANDARDISO
  2
AmdtThreadLineStdISO
  3
"Amdt_StdImp|Product Description: AutoCAD Mechanical|Company: Autodesk"
 90
        0
280
     0
281
     0
  0
CLASS
  1
ACMTHREADLINESTANDARDANSI
  2
AmdtThreadLineStdANSI
  3
"Amdt_StdImp|Product Description: AutoCAD Mechanical|Company: Autodesk"
 90
    32768
280
     0
281
     0
  0
CLASS
  1
TABLESTYLE
  2
AcDbTableStyle
  3
ObjectDBX Classes
 90
     4095
280
     0
281
     0
  0
CLASS
  1
SORTENTSTABLE
  2
AcDbSortentsTable
  3
ObjectDBX Classes
 90
        0
280
     0
281
     0
  0
CLASS
  1
DIMASSOC
  2
AcDbDimAssoc
  3
"AcDbDimAssoc|Product Desc:     AcDim ARX App For Dimension|Company:          Autodesk, Inc.|WEB Address:      www.autodesk.com"
 90
    32768
280
     0
281
     0
  0
CLASS
  1
AMDTEDGESTANDARDISO13715
  2
AmdtEdgeStdISO13715
  3
"Amdt_StdImp|Product Description: AutoCAD Mechanical|Company: Autodesk"
 90
        0
280
     0
281
     0
  0
CLASS
  1
AMDTNOTETEMPLATEDB
  2
AmdtNoteTemplateDB
  3
AMDT_STDIMP_MODULE_NAME
 90
        0
280
     0
281
     0
  0
CLASS
  1
ACAMGHOLECHARTSTDISO
  2
AcAmgHoleChartStdISO
  3
ACMSYMBB_MODULE_NAME
 90
        0
280
     0
281
     0
  0
CLASS
  1
MATERIAL
  2
AcDbMaterial
  3
ObjectDBX Classes
 90
     1024
280
     0
281
     0
  0
CLASS
  1
VISUALSTYLE
  2
AcDbVisualStyle
  3
ObjectDBX Classes
 90
     4095
280
     0
281
     0
  0
CLASS
  1
ACMTAPERSTANDARDISO
  2
AcmTaperStdISO
  3
"Amdt_StdImp|Product Description: AutoCAD Mechanical|Company: Autodesk"
 90
        0
280
     0
281
     0
  0
CLASS
  1
CAMSSTRUCTBTNSTATE
  2
StructBtnState
  3
L"DesignerAssemblies"
 90
        0
280
     0
281
     0
  0
ENDSEC
  0
SECTION
  2
TABLES
  0
TABLE
  2
VPORT
  5
8
330
0
100
AcDbSymbolTable
 70
     1
  0
VPORT
  5
CAC6
330
8
100
AcDbSymbolTableRecord
100
AcDbViewportTableRecord
  2
*Active
 70
     0
 10
0.0
 20
0.0
 11
1.0
 21
1.0
 12
210.0013875698892
 22
148.4482904740753
 13
0.0
 23
0.0
 14
2.5
 24
2.5
 15
10.0
 25
10.0
 16
0.0
 26
0.0
 36
1.0
 17
0.0
 27
0.0
 37
0.0
 40
299.7566680113181
 41
1.65680473372781
 42
50.0
 43
-1370.695619172058
 44
-1370.695619172058
 50
0.0
 51
0.0
 71
    16
 72
   100
 73
     1
 74
     3
 75
     0
 76
     0
 77
     0
 78
     0
281
     0
 65
     0
110
0.0
120
0.0
130
0.0
111
1.0
121
0.0
131
0.0
112
0.0
122
1.0
132
0.0
 79
     0
146
0.0
  0
ENDTAB
  0
TABLE
  2
LTYPE
  5
5
330
0
100
AcDbSymbolTable
 70
    27
  0
LTYPE
  5
14
330
5
100
AcDbSymbolTableRecord
100
AcDbLinetypeTableRecord
  2
ByBlock
 70
     0
  3

 72
    65
 73
     0
 40
0.0
  0
LTYPE
  5
15
330
5
100
AcDbSymbolTableRecord
100
AcDbLinetypeTableRecord
  2
ByLayer
 70
     0
  3

 72
    65
 73
     0
 40
0.0
  0
LTYPE
  5
16
330
5
100
AcDbSymbolTableRecord
100
AcDbLinetypeTableRecord
  2
Continuous
 70
     0
  3
Solid line
 72
    65
 73
     0
 40
0.0
  0
LTYPE
  5
4F
330
5
100
AcDbSymbolTableRecord
100
AcDbLinetypeTableRecord
  2
AM_ISO02W050
 70
     0
  3
__ __ __ __ __ __ __ __ __ __ __ __ __ __ __
 72
    65
 73
     2
 40
7.5
 49
6.0
 74
     0
 49
-1.5
 74
     0
  0
LTYPE
  5
52
330
5
100
AcDbSymbolTableRecord
100
AcDbLinetypeTableRecord
  2
Amconstr
 70
     0
  3
_______________________
 72
    65
 73
     2
 40
9999.0
 49
9999.0
 74
     0
 49
0.0
 74
     0
  0
LTYPE
  5
64
330
5
100
AcDbSymbolTableRecord
100
AcDbLinetypeTableRecord
  2
ACISOWELD
 70
     0
  3
_ _ _ _ _
 72
    65
 73
     2
 40
2.0
 49
2.0
 74
     0
 49
-1.0
 74
     0
  0
LTYPE
  5
65
330
5
100
AcDbSymbolTableRecord
100
AcDbLinetypeTableRecord
  2
ACISOTGB
 70
     0
  3
__ . . __ . .
 72
    65
 73
     6
 40
9.0
 49
4.0
 74
     0
 49
-1.0
 74
     0
 49
1.0
 74
     0
 49
-1.0
 74
     0
 49
1.0
 74
     0
 49
-1.0
 74
     0
  0
LTYPE
  5
66
330
5
100
AcDbSymbolTableRecord
100
AcDbLinetypeTableRecord
  2
ACISOTGL
 70
     0
  3
_ _ _ _ _
 72
    65
 73
     2
 40
3.0
 49
2.0
 74
     0
 49
-1.0
 74
     0
  0
LTYPE
  5
69
330
5
100
AcDbSymbolTableRecord
100
AcDbLinetypeTableRecord
  2
CENTER
 70
     0
  3
__ . __
 72
    65
 73
     4
 40
7.0
 49
4.0
 74
     0
 49
-1.0
 74
     0
 49
1.0
 74
     0
 49
-1.0
 74
     0
  0
LTYPE
  5
A6E
330
5
100
AcDbSymbolTableRecord
100
AcDbLinetypeTableRecord
  2
PHANTOM2
 70
     0
  3
Phantom (.5x) ___ _ _ ___ _ _ ___ _ _ ___ _ _
 72
    65
 73
     6
 40
31.75
 49
15.875
 74
     0
 49
-3.174999999999998
 74
     0
 49
3.174999999999998
 74
     0
 49
-3.174999999999998
 74
     0
 49
3.174999999999998
 74
     0
 49
-3.174999999999998
 74
     0
  0
LTYPE
  5
4DED
330
5
100
AcDbSymbolTableRecord
100
AcDbLinetypeTableRecord
  2
中線
 70
     0
  3
___________________
 72
    65
 73
     2
 40
2.0
 49
1.0
 74
     0
 49
1.0
 74
     0
  0
LTYPE
  5
4DF6
330
5
100
AcDbSymbolTableRecord
100
AcDbLinetypeTableRecord
  2
細線
 70
     0
  3
___________________
 72
    65
 73
     2
 40
2.0
 49
1.0
 74
     0
 49
1.0
 74
     0
  0
LTYPE
  5
4DF7
330
5
100
AcDbSymbolTableRecord
100
AcDbLinetypeTableRecord
  2
太線
 70
     0
  3
___________________
 72
    65
 73
     2
 40
2.0
 49
1.0
 74
     0
 49
1.0
 74
     0
  0
LTYPE
  5
4EA7
330
5
100
AcDbSymbolTableRecord
100
AcDbLinetypeTableRecord
  2
文字
 70
     0
  3
_________________
 72
    65
 73
     2
 40
2.0
 49
1.0
 74
     0
 49
1.0
 74
     0
  0
LTYPE
  5
4EA9
330
5
100
AcDbSymbolTableRecord
100
AcDbLinetypeTableRecord
  2
寸法線
 70
     0
  3
________________
 72
    65
 73
     2
 40
2.0
 49
1.0
 74
     0
 49
1.0
 74
     0
  0
LTYPE
  5
4F12
330
5
100
AcDbSymbolTableRecord
100
AcDbLinetypeTableRecord
  2
ハッチング
 70
     0
  3
_________________
 72
    65
 73
     2
 40
2.0
 49
1.0
 74
     0
 49
1.0
 74
     0
  0
LTYPE
  5
5180
330
5
100
AcDbSymbolTableRecord
100
AcDbLinetypeTableRecord
  2
陰線1
 70
     0
  3
__ __ __ __
 72
    65
 73
     2
 40
4.0
 49
2.2
 74
     0
 49
-1.8
 74
     0
  0
LTYPE
  5
5182
330
5
100
AcDbSymbolTableRecord
100
AcDbLinetypeTableRecord
  2
切断線
 70
     0
  3
/\/-/\/-/\/-/\/-/\/-/\/
 72
    65
 73
     2
 40
11.0001
 49
0.0001
 74
     4
 75
   135
340
56
 46
0.04
 50
0.0
 44
0.0
 45
0.0
 49
-11.0
 74
     0
  0
LTYPE
  5
5183
330
5
100
AcDbSymbolTableRecord
100
AcDbLinetypeTableRecord
  2
想像線1
 70
     0
  3
__ __ __ _____ __ __ ____
 72
    65
 73
     6
 40
14.5
 49
6.0
 74
     0
 49
-1.5
 74
     0
 49
2.0
 74
     0
 49
-1.5
 74
     0
 49
2.0
 74
     0
 49
-1.5
 74
     0
  0
LTYPE
  5
5185
330
5
100
AcDbSymbolTableRecord
100
AcDbLinetypeTableRecord
  2
中心線1
 70
     0
  3
___ _ ___ _ ___
 72
    65
 73
     4
 40
18.0
 49
12.0
 74
     0
 49
-2.0
 74
     0
 49
2.0
 74
     0
 49
-2.0
 74
     0
  0
LTYPE
  5
5188
330
5
100
AcDbSymbolTableRecord
100
AcDbLinetypeTableRecord
  2
補助線
 70
     0
  3
______________
 72
    65
 73
     2
 40
2.0
 49
1.0
 74
     0
 49
1.0
 74
     0
  0
LTYPE
  5
6427
330
5
100
AcDbSymbolTableRecord
100
AcDbLinetypeTableRecord
  2
HIDDEN
 70
     0
  3
Hidden __ __ __ __ __ __ __ __ __ __ __ __ __ _
 72
    65
 73
     2
 40
0.375
 49
0.25
 74
     0
 49
-0.125
 74
     0
  0
LTYPE
  5
AC81
330
5
100
AcDbSymbolTableRecord
100
AcDbLinetypeTableRecord
  2
破断線
 70
     0
  3
/\/-/\/-/\/-/\/-/\/-/\/
 72
    65
 73
     2
 40
0.4401
 49
0.0001
 74
     4
 75
   136
340
AC80
 46
0.0016
 50
0.0
 44
0.0
 45
0.0
 49
-0.4400000000000003
 74
     0
  0
LTYPE
  5
AC9E
330
5
100
AcDbSymbolTableRecord
100
AcDbLinetypeTableRecord
  2
Amzigzag
 70
     0
  3
/\/-/\/-/\/-/\/-/\/-/\/
 72
    65
 73
     2
 40
11.0001
 49
0.0001
 74
     4
 75
   135
340
56
 46
0.04
 50
0.0
 44
0.0
 45
0.0
 49
-11.0
 74
     0
  0
LTYPE
  5
AF0F
330
5
100
AcDbSymbolTableRecord
100
AcDbLinetypeTableRecord
  2
genzigzag
 70
     0
  3
/\/-/\/-/\/-/\/-/\/-/\/
 72
    65
 73
     2
 40
12.0001
 49
0.0001
 74
     4
 75
   135
340
AC80
 46
2.0
 50
0.0
 44
0.0
 45
0.0
 49
-12.0
 74
     0
  0
LTYPE
  5
AF95
330
5
100
AcDbSymbolTableRecord
100
AcDbLinetypeTableRecord
  2
AM_ISO08W050
 70
     0
  3
____ . ____ . ____ . ____ . ____ . ____ . ____
 72
    65
 73
     4
 40
18.0
 49
12.0
 74
     0
 49
-1.5
 74
     0
 49
3.0
 74
     0
 49
-1.5
 74
     0
  0
LTYPE
  5
AF96
330
5
100
AcDbSymbolTableRecord
100
AcDbLinetypeTableRecord
  2
AM_ISO09W050
 70
     0
  3
_____ . . _____ . . _____ . . ____ .. ____
 72
    65
 73
     6
 40
22.5
 49
12.0
 74
     0
 49
-1.5
 74
     0
 49
3.0
 74
     0
 49
-1.5
 74
     0
 49
3.0
 74
     0
 49
-1.5
 74
     0
  0
LTYPE
  5
AF97
330
5
100
AcDbSymbolTableRecord
100
AcDbLinetypeTableRecord
  2
AM_ISO08W050x2
 70
     0
  3
__ . __ . __ . __ . __ . __
 72
    65
 73
     4
 40
9.0
 49
6.0
 74
     0
 49
-0.75
 74
     0
 49
1.5
 74
     0
 49
-0.75
 74
     0
  0
LTYPE
  5
AF98
330
5
100
AcDbSymbolTableRecord
100
AcDbLinetypeTableRecord
  2
AM_ISO02W050x2
 70
     0
  3
 _ _ _ _ _ _ _ _ _ _ _ _
 72
    65
 73
     2
 40
3.75
 49
3.0
 74
     0
 49
-0.75
 74
     0
  0
ENDTAB
  0
TABLE
  2
LAYER
  5
2
102
{ACAD_XDICTIONARY
360
3F95
102
}
330
0
100
AcDbSymbolTable
 70
    18
  0
LAYER
  5
10
330
2
100
AcDbSymbolTableRecord
100
AcDbLayerTableRecord
  2
0
 70
     0
 62
     7
  6
Continuous
370
    -3
390
F
  0
LAYER
  5
6D1
330
2
100
AcDbSymbolTableRecord
100
AcDbLayerTableRecord
  2
Defpoints
 70
     0
 62
     7
  6
Continuous
290
     0
370
    -3
390
F
  0
LAYER
  5
5F85
330
2
100
AcDbSymbolTableRecord
100
AcDbLayerTableRecord
  2
AM_0
 70
     0
 62
     7
  6
中線
370
    25
390
F
1001
AcAecLayerStandard
1000

1000

  0
LAYER
  5
AC9F
330
2
100
AcDbSymbolTableRecord
100
AcDbLayerTableRecord
  2
size
 70
     0
 62
     5
  6
Continuous
290
     0
370
    25
390
F
  0
LAYER
  5
ACA0
330
2
100
AcDbSymbolTableRecord
100
AcDbLayerTableRecord
  2
waku
 70
     0
 62
     7
  6
Continuous
370
    35
390
F
  0
LAYER
  5
ACA1
330
2
100
AcDbSymbolTableRecord
100
AcDbLayerTableRecord
  2
AM_6
 70
     0
 62
     2
  6
文字
370
    15
390
F
1001
AcAecLayerStandard
1000

1000

  0
LAYER
  5
ACC8
330
2
100
AcDbSymbolTableRecord
100
AcDbLayerTableRecord
  2
hyomoji
 70
     0
 62
     2
  6
Continuous
370
    15
390
F
  0
LAYER
  5
ACC9
330
2
100
AcDbSymbolTableRecord
100
AcDbLayerTableRecord
  2
hyosen1
 70
     0
 62
     1
  6
Continuous
370
    25
390
F
  0
LAYER
  5
ACCA
330
2
100
AcDbSymbolTableRecord
100
AcDbLayerTableRecord
  2
hyosen2
 70
     0
 62
     1
  6
Continuous
370
    15
390
F
  0
LAYER
  5
AD60
330
2
100
AcDbSymbolTableRecord
100
AcDbLayerTableRecord
  2
AM_1
 70
     0
 62
    30
  6
太線
370
    25
390
F
1001
AcAecLayerStandard
1000

1000

  0
LAYER
  5
AD64
330
2
100
AcDbSymbolTableRecord
100
AcDbLayerTableRecord
  2
AM_2
 70
     0
 62
     1
  6
細線
370
    15
390
F
1001
AcAecLayerStandard
1000

1000

  0
LAYER
  5
AD67
330
2
100
AcDbSymbolTableRecord
100
AcDbLayerTableRecord
  2
AM_3
 70
     0
 62
     6
  6
陰線1
370
    15
390
F
1001
AcAecLayerStandard
1000

1000

  0
LAYER
  5
AD68
330
2
100
AcDbSymbolTableRecord
100
AcDbLayerTableRecord
  2
AM_5
 70
     0
 62
     3
  6
寸法線
370
    15
390
F
1001
AcAecLayerStandard
1000

1000

  0
LAYER
  5
AD69
330
2
100
AcDbSymbolTableRecord
100
AcDbLayerTableRecord
  2
AM_7
 70
     0
 62
     4
  6
中心線1
370
    15
390
F
1001
AcAecLayerStandard
1000

1000

  0
LAYER
  5
AD6A
330
2
100
AcDbSymbolTableRecord
100
AcDbLayerTableRecord
  2
AM_8
 70
     0
 62
     1
  6
ハッチング
370
    15
390
F
1001
AcAecLayerStandard
1000

1000

  0
LAYER
  5
AD6E
330
2
100
AcDbSymbolTableRecord
100
AcDbLayerTableRecord
  2
AM_10
 70
     0
 62
     7
  6
genzigzag
370
    25
390
F
1001
AcAecLayerStandard
1000

1000

  0
LAYER
  5
AD6F
330
2
100
AcDbSymbolTableRecord
100
AcDbLayerTableRecord
  2
AM_11
 70
     0
 62
     2
  6
想像線1
370
    15
390
F
1001
AcAecLayerStandard
1000

1000

  0
LAYER
  5
B1F2
330
2
100
AcDbSymbolTableRecord
100
AcDbLayerTableRecord
  2
AM_CL
 70
     0
 62
     1
  6
Amconstr
370
    15
390
F
  0
ENDTAB
  0
TABLE
  2
STYLE
  5
3
330
0
100
AcDbSymbolTable
 70
     6
  0
STYLE
  5
11
330
3
100
AcDbSymbolTableRecord
100
AcDbTextStyleTableRecord
  2
STANDARD
 70
     0
 40
0.0
 41
0.7
 50
0.0
 71
     0
 42
3.2
  3
romans.shx
  4
extfont.shx
  0
STYLE
  5
56
330
3
100
AcDbSymbolTableRecord
100
AcDbTextStyleTableRecord
  2

 70
     1
 40
0.0
 41
1.0
 50
0.0
 71
     0
 42
2.5
  3
ltypeshp.shx
  4

  0
STYLE
  5
58
330
3
100
AcDbSymbolTableRecord
100
AcDbTextStyleTableRecord
  2
ACISOTS
 70
     0
 40
1.0
 41
1.0
 50
0.0
 71
     0
 42
2.5
  3
isocp.shx
  4
extfont.shx
  0
STYLE
  5
63
330
3
100
AcDbSymbolTableRecord
100
AcDbTextStyleTableRecord
  2
ACISOGDT
 70
     0
 40
0.0
 41
1.0
 50
0.0
 71
     0
 42
2.5
  3
amgdt.shx
  4

  0
STYLE
  5
A74
330
3
100
AcDbSymbolTableRecord
100
AcDbTextStyleTableRecord
  2
DIM
 70
     0
 40
0.0
 41
1.0
 50
0.0
 71
     0
 42
2.5
  3
monotxt.shx
  4
extfont.shx
  0
STYLE
  5
AC80
330
3
100
AcDbSymbolTableRecord
100
AcDbTextStyleTableRecord
  2

 70
     1
 40
0.0
 41
1.0
 50
0.0
 71
     0
 42
3.2
  3
genltshp.shx
  4

  0
ENDTAB
  0
TABLE
  2
VIEW
  5
6
330
0
100
AcDbSymbolTable
 70
     6
  0
VIEW
  5
AE1
330
6
100
AcDbSymbolTableRecord
100
AcDbViewTableRecord
  2
AM_VIEW1
 70
     0
 40
129.7276464542651
 10
1775.10588156276
 20
1793.121228859297
 41
148.5
 11
0.0
 21
0.0
 31
1.0
 12
0.0
 22
0.0
 32
0.0
 42
50.0
 43
-1370.695619172058
 44
-1370.695619172058
 50
0.0
 71
    16
281
     0
 72
     0
  0
VIEW
  5
AE2
330
6
100
AcDbSymbolTableRecord
100
AcDbViewTableRecord
  2
AM_VIEW2
 70
     0
 40
129.7276464542651
 10
1923.60588156276
 20
1793.121228859297
 41
148.5
 11
0.0
 21
0.0
 31
1.0
 12
0.0
 22
0.0
 32
0.0
 42
50.0
 43
-1370.695619172058
 44
-1370.695619172058
 50
0.0
 71
    16
281
     0
 72
     0
  0
VIEW
  5
AE3
330
6
100
AcDbSymbolTableRecord
100
AcDbViewTableRecord
  2
AM_VIEW3
 70
     0
 40
129.7276464542651
 10
1775.10588156276
 20
1712.848875313562
 41
148.5
 11
0.0
 21
0.0
 31
1.0
 12
0.0
 22
0.0
 32
0.0
 42
50.0
 43
-1370.695619172058
 44
-1370.695619172058
 50
0.0
 71
    16
281
     0
 72
     0
  0
VIEW
  5
AE4
330
6
100
AcDbSymbolTableRecord
100
AcDbViewTableRecord
  2
AM_VIEW4
 70
     0
 40
129.7276464542651
 10
1923.60588156276
 20
1712.848875313562
 41
148.5
 11
0.0
 21
0.0
 31
1.0
 12
0.0
 22
0.0
 32
0.0
 42
50.0
 43
-1370.695619172058
 44
-1370.695619172058
 50
0.0
 71
    16
281
     0
 72
     0
  0
VIEW
  5
AE5
330
6
100
AcDbSymbolTableRecord
100
AcDbViewTableRecord
  2
AM_VIEW5
 70
     0
 40
129.7276464542651
 10
1849.35588156276
 20
1752.985052086429
 41
148.5
 11
0.0
 21
0.0
 31
1.0
 12
0.0
 22
0.0
 32
0.0
 42
50.0
 43
-1370.695619172058
 44
-1370.695619172058
 50
0.0
 71
    16
281
     0
 72
     0
  0
VIEW
  5
AE6
330
6
100
AcDbSymbolTableRecord
100
AcDbViewTableRecord
  2
AM_VIEW6
 70
     0
 40
259.452698355601
 10
1849.35588156276
 20
1752.985052086429
 41
296.99703
 11
0.0
 21
0.0
 31
1.0
 12
0.0
 22
0.0
 32
0.0
 42
50.0
 43
-1370.695619172058
 44
-1370.695619172058
 50
0.0
 71
    16
281
     0
 72
     0
  0
ENDTAB
  0
TABLE
  2
UCS
  5
7
330
0
100
AcDbSymbolTable
 70
     0
  0
ENDTAB
  0
TABLE
  2
APPID
  5
9
330
0
100
AcDbSymbolTable
 70
    55
  0
APPID
  5
12
330
9
100
AcDbSymbolTableRecord
100
AcDbRegAppTableRecord
  2
ACAD
 70
     0
  0
APPID
  5
30
330
9
100
AcDbSymbolTableRecord
100
AcDbRegAppTableRecord
  2
MCAD_NO_VIS
 70
     0
  0
APPID
  5
31
330
9
100
AcDbSymbolTableRecord
100
AcDbRegAppTableRecord
  2
ACAD_TEMP_GRAPHIC
 70
     0
  0
APPID
  5
44
330
9
100
AcDbSymbolTableRecord
100
AcDbRegAppTableRecord
  2
ACATTRIBSERVICES
 70
     0
  0
APPID
  5
7A1
330
9
100
AcDbSymbolTableRecord
100
AcDbRegAppTableRecord
  2
GENIUS_GENDIMSH_14
 70
     0
  0
APPID
  5
A49
330
9
100
AcDbSymbolTableRecord
100
AcDbRegAppTableRecord
  2
GENIUS_GENREC_14
 70
     0
  0
APPID
  5
A4A
330
9
100
AcDbSymbolTableRecord
100
AcDbRegAppTableRecord
  2
GENIUS_GENOBJ-N-REC_13
 70
     0
  0
APPID
  5
A4B
330
9
100
AcDbSymbolTableRecord
100
AcDbRegAppTableRecord
  2
GENIUS_GENODEF_13
 70
     0
  0
APPID
  5
A4C
330
9
100
AcDbSymbolTableRecord
100
AcDbRegAppTableRecord
  2
DCO15
 70
     0
  0
APPID
  5
ADC
330
9
100
AcDbSymbolTableRecord
100
AcDbRegAppTableRecord
  2
GENIUS_GENOLIS_13
 70
     0
  0
APPID
  5
ADD
330
9
100
AcDbSymbolTableRecord
100
AcDbRegAppTableRecord
  2
GENIUS_GENOENT_13
 70
     0
  0
APPID
  5
ADE
330
9
100
AcDbSymbolTableRecord
100
AcDbRegAppTableRecord
  2
GENIUS_GENOBJ-N-TIT_13
 70
     0
  0
APPID
  5
ADF
330
9
100
AcDbSymbolTableRecord
100
AcDbRegAppTableRecord
  2
GENIUS_GENTITLE_13
 70
     0
  0
APPID
  5
AE0
330
9
100
AcDbSymbolTableRecord
100
AcDbRegAppTableRecord
  2
GENIUS_GENOREF_13
 70
     0
  0
APPID
  5
AE7
330
9
100
AcDbSymbolTableRecord
100
AcDbRegAppTableRecord
  2
GENIUS_GENSCREG_15
 70
     0
  0
APPID
  5
AE8
330
9
100
AcDbSymbolTableRecord
100
AcDbRegAppTableRecord
  2
GENIUS_GENOBJ-N-SDF_13
 70
     0
  0
APPID
  5
FAF
330
9
100
AcDbSymbolTableRecord
100
AcDbRegAppTableRecord
  2
GENIUS_GENBLLY_14
 70
     0
  0
APPID
  5
FB0
330
9
100
AcDbSymbolTableRecord
100
AcDbRegAppTableRecord
  2
GENIUS_GENTRA_14
 70
     0
  0
APPID
  5
1285
330
9
100
AcDbSymbolTableRecord
100
AcDbRegAppTableRecord
  2
GENIUS_GENDTOL_13
 70
     0
  0
APPID
  5
142D
330
9
100
AcDbSymbolTableRecord
100
AcDbRegAppTableRecord
  2
GENIUS_GENOBJ-N-CEN_13
 70
     0
  0
APPID
  5
1AB5
330
9
100
AcDbSymbolTableRecord
100
AcDbRegAppTableRecord
  2
GENIUS_GENOBJ-N-CRS_13
 70
     0
  0
APPID
  5
1B36
330
9
100
AcDbSymbolTableRecord
100
AcDbRegAppTableRecord
  2
GENIUS_GENOBJ-N-HTC_13
 70
     0
  0
APPID
  5
1B37
330
9
100
AcDbSymbolTableRecord
100
AcDbRegAppTableRecord
  2
GENIUS_GENHATCH_13
 70
     0
  0
APPID
  5
216D
330
9
100
AcDbSymbolTableRecord
100
AcDbRegAppTableRecord
  2
GENIUS_GENOBJ-N-FIL_13
 70
     0
  0
APPID
  5
2356
330
9
100
AcDbSymbolTableRecord
100
AcDbRegAppTableRecord
  2
GEVID990412420
 70
     0
  0
APPID
  5
2357
330
9
100
AcDbSymbolTableRecord
100
AcDbRegAppTableRecord
  2
GEVDC
 70
     0
  0
APPID
  5
2358
330
9
100
AcDbSymbolTableRecord
100
AcDbRegAppTableRecord
  2
GEVCON
 70
     0
  0
APPID
  5
235B
330
9
100
AcDbSymbolTableRecord
100
AcDbRegAppTableRecord
  2
GEVRADREF
 70
     0
  0
APPID
  5
2360
330
9
100
AcDbSymbolTableRecord
100
AcDbRegAppTableRecord
  2
GENIUS_GENBH_13
 70
     0
  0
APPID
  5
2362
330
9
100
AcDbSymbolTableRecord
100
AcDbRegAppTableRecord
  2
GENIUS_GENOBJ-NBEHI-BHF_13
 70
     0
  0
APPID
  5
2364
330
9
100
AcDbSymbolTableRecord
100
AcDbRegAppTableRecord
  2
GENIUS_GENOBJ-NBEHI-BHB_13
 70
     0
  0
APPID
  5
2379
330
9
100
AcDbSymbolTableRecord
100
AcDbRegAppTableRecord
  2
GENIUS_GENOBJ-F-SCPASSM_13
 70
     0
  0
APPID
  5
3D74
330
9
100
AcDbSymbolTableRecord
100
AcDbRegAppTableRecord
  2
GENIUS_GENDIM_13
 70
     0
  0
APPID
  5
3D76
330
9
100
AcDbSymbolTableRecord
100
AcDbRegAppTableRecord
  2
GENIUS_GE3DTOL_13
 70
     0
  0
APPID
  5
3D9C
330
9
100
AcDbSymbolTableRecord
100
AcDbRegAppTableRecord
  2
AD_DRAW
 70
     0
  0
APPID
  5
3DE8
330
9
100
AcDbSymbolTableRecord
100
AcDbRegAppTableRecord
  2
ASURF_PCURVE_APPNAME
 70
     0
  0
APPID
  5
3DED
330
9
100
AcDbSymbolTableRecord
100
AcDbRegAppTableRecord
  2
AMG_3D2D_5.0
 70
     0
  0
APPID
  5
3E1B
330
9
100
AcDbSymbolTableRecord
100
AcDbRegAppTableRecord
  2
DESIGNERASSEMBLIES
 70
     0
  0
APPID
  5
3E20
330
9
100
AcDbSymbolTableRecord
100
AcDbRegAppTableRecord
  2
ACADM_DIM_EDIT
 70
     0
  0
APPID
  5
3E21
330
9
100
AcDbSymbolTableRecord
100
AcDbRegAppTableRecord
  2
AMDT_DM_ADJ
 70
     0
  0
APPID
  5
4143
330
9
100
AcDbSymbolTableRecord
100
AcDbRegAppTableRecord
  2
GENIUS_GENFIL_13
 70
     0
  0
APPID
  5
4144
330
9
100
AcDbSymbolTableRecord
100
AcDbRegAppTableRecord
  2
GENIUS_GENOBJ-N-CHA_13
 70
     0
  0
APPID
  5
4E17
330
9
100
AcDbSymbolTableRecord
100
AcDbRegAppTableRecord
  2
GEVID1008153417
 70
     0
  0
APPID
  5
4E58
330
9
100
AcDbSymbolTableRecord
100
AcDbRegAppTableRecord
  2
GEVID1008153418
 70
     0
  0
APPID
  5
4E5E
330
9
100
AcDbSymbolTableRecord
100
AcDbRegAppTableRecord
  2
GEVID1008153419
 70
     0
  0
APPID
  5
4E64
330
9
100
AcDbSymbolTableRecord
100
AcDbRegAppTableRecord
  2
GEVID1008153420
 70
     0
  0
APPID
  5
4E75
330
9
100
AcDbSymbolTableRecord
100
AcDbRegAppTableRecord
  2
GEVID1008153421
 70
     0
  0
APPID
  5
4EB7
330
9
100
AcDbSymbolTableRecord
100
AcDbRegAppTableRecord
  2
GENIUS_AMGTXT_16
 70
     0
  0
APPID
  5
7645
330
9
100
AcDbSymbolTableRecord
100
AcDbRegAppTableRecord
  2
GENIUS_GENOBJ-N-DIM_13
 70
     0
  0
APPID
  5
AAD0
330
9
100
AcDbSymbolTableRecord
100
AcDbRegAppTableRecord
  2
ACAD_DSTYLE_DIMARC_LENGTH_SYMBOL
 70
     0
  0
APPID
  5
AAD1
330
9
100
AcDbSymbolTableRecord
100
AcDbRegAppTableRecord
  2
ACAD_DSTYLE_DIMJOGGED_JOGANGLE_SYMBOL
 70
     0
  0
APPID
  5
AAFD
330
9
100
AcDbSymbolTableRecord
100
AcDbRegAppTableRecord
  2
ACAD_PSEXT
 70
     0
  0
APPID
  5
AD61
330
9
100
AcDbSymbolTableRecord
100
AcDbRegAppTableRecord
  2
AcAecLayerStandard
 70
     0
  0
APPID
  5
AEE3
330
9
100
AcDbSymbolTableRecord
100
AcDbRegAppTableRecord
  2
ACAD_EXEMPT_FROM_CAD_STANDARDS
 70
     0
  0
APPID
  5
B1F4
330
9
100
AcDbSymbolTableRecord
100
AcDbRegAppTableRecord
  2
GENIUS_GENCEN_19
 70
     0
  0
ENDTAB
  0
TABLE
  2
DIMSTYLE
  5
A
330
0
100
AcDbSymbolTable
 70
    18
100
AcDbDimStyleTable
 71
     1
340
2515
  0
DIMSTYLE
105
A76
330
A
100
AcDbSymbolTableRecord
100
AcDbDimStyleTableRecord
  2
STANDARD
 70
     0
 41
3.0
 42
1.0
 43
7.0
 44
2.0
 73
     0
 74
     0
 77
     1
140
2.799999999999998
141
0.0
143
0.0394
147
0.7
171
     4
172
     1
173
     1
176
     3
177
     3
178
     2
271
     3
272
     3
273
     8
274
     4
289
     0
340
A74
341
A66
343
A66
344
A66
  0
DIMSTYLE
105
2515
330
A
100
AcDbSymbolTableRecord
100
AcDbDimStyleTableRecord
  2
SYS
 70
     0
  4
"
 41
1.0
 42
1.0
 43
10.0
 44
1.0
 47
0.1
 48
0.1
 73
     0
 74
     0
 77
     1
 78
     8
 79
     2
140
3.5
141
0.0
143
0.0393701
146
0.71
147
1.5
172
     1
176
   256
177
   256
178
     7
271
     2
272
     2
283
     0
284
     8
340
11
371
    -1
372
    -1
1001
ACAD_DSTYLE_DIMJOGGED_JOGANGLE_SYMBOL
1070
   384
1040
0.7853981633974483
1001
ACAD_DSTYLE_DIMARC_LENGTH_SYMBOL
1070
   379
1070
     1
  0
DIMSTYLE
105
2516
330
A
100
AcDbSymbolTableRecord
100
AcDbDimStyleTableRecord
  2
SYS$3
 70
     0
  4
"
 41
2.0
 42
1.0
 43
10.0
 44
1.0
 47
0.1
 48
0.1
 73
     0
 77
     1
 78
     8
 79
     2
140
3.5
141
0.0
143
0.0393701
146
0.71
147
1.5
176
   256
177
   256
178
     2
271
     2
272
     2
283
     0
284
     8
288
     1
340
11
342
A66
371
    -1
372
    -1
1001
ACAD_DSTYLE_DIMJOGGED_JOGANGLE_SYMBOL
1070
   384
1040
0.7853981633974483
1001
ACAD_DSTYLE_DIMARC_LENGTH_SYMBOL
1070
   379
1070
     1
  0
DIMSTYLE
105
2517
330
A
100
AcDbSymbolTableRecord
100
AcDbDimStyleTableRecord
  2
SYS$4
 70
     0
  4
"
 41
2.0
 42
1.0
 43
10.0
 44
1.0
 47
0.1
 48
0.1
 73
     0
 77
     1
 78
     8
 79
     2
140
3.5
141
0.0
143
0.0393701
146
0.71
147
1.5
173
     1
176
   256
177
   256
178
     2
271
     2
272
     2
283
     0
284
     8
288
     1
340
11
344
A66
371
    -1
372
    -1
1001
ACAD_DSTYLE_DIMJOGGED_JOGANGLE_SYMBOL
1070
   384
1040
0.7853981633974483
1001
ACAD_DSTYLE_DIMARC_LENGTH_SYMBOL
1070
   379
1070
     1
  0
DIMSTYLE
105
2518
330
A
100
AcDbSymbolTableRecord
100
AcDbDimStyleTableRecord
  2
SYS$6
 70
     0
  4
"
 41
2.0
 42
1.0
 43
10.0
 44
1.0
 47
0.1
 48
0.1
 73
     0
 74
     0
 78
     8
 79
     2
140
3.5
141
0.0
143
0.0393701
146
0.71
147
1.5
172
     1
176
   256
177
   256
178
     2
271
     2
272
     2
283
     0
284
     8
340
11
341
A66
371
    -1
372
    -1
1001
ACAD_DSTYLE_DIMJOGGED_JOGANGLE_SYMBOL
1070
   384
1040
0.7853981633974483
1001
ACAD_DSTYLE_DIMARC_LENGTH_SYMBOL
1070
   379
1070
     1
  0
DIMSTYLE
105
2519
330
A
100
AcDbSymbolTableRecord
100
AcDbDimStyleTableRecord
  2
SYS$7
 70
     0
  4
"
 41
2.0
 42
1.0
 43
10.0
 44
1.0
 47
0.1
 48
0.1
 73
     0
 74
     0
 77
     1
 78
     8
 79
     2
140
5.0
141
0.0
143
0.0393701
146
0.71
147
1.5
172
     1
176
   256
177
   256
178
     2
271
     2
272
     2
283
     0
284
     8
340
11
341
A66
342
A66
371
    -1
372
    -1
1001
ACAD_DSTYLE_DIMJOGGED_JOGANGLE_SYMBOL
1070
   384
1040
0.7853981633974483
1001
ACAD_DSTYLE_DIMARC_LENGTH_SYMBOL
1070
   379
1070
     1
  0
DIMSTYLE
105
251A
330
A
100
AcDbSymbolTableRecord
100
AcDbDimStyleTableRecord
  2
SYS$SF
 70
     0
  4
"
 41
2.5
 42
1.0
 43
10.0
 44
1.0
 47
0.1
 48
0.1
 73
     0
 74
     0
 75
     1
 76
     1
 77
     1
 78
     8
 79
     2
140
3.5
141
0.0
143
0.0393701
146
0.71
147
1.5
172
     1
176
   256
177
   256
178
     2
271
     2
272
     3
283
     0
284
     8
340
11
341
6C4
342
6C4
371
    -1
372
    -1
1001
ACAD_DSTYLE_DIMJOGGED_JOGANGLE_SYMBOL
1070
   384
1040
0.7853981633974483
1001
ACAD_DSTYLE_DIMARC_LENGTH_SYMBOL
1070
   379
1070
     1
  0
DIMSTYLE
105
251B
330
A
100
AcDbSymbolTableRecord
100
AcDbDimStyleTableRecord
  2
SYS$SH
 70
     0
  4
"
 41
2.5
 42
1.0
 43
10.0
 44
1.0
 47
0.1
 48
0.1
 73
     0
 74
     0
 75
     1
 76
     1
 77
     1
 78
     8
 79
     2
140
3.5
141
0.0
143
0.0393701
144
2.0
146
0.71
147
1.5
172
     1
173
     1
176
   256
177
   256
178
     2
271
     2
272
     3
283
     0
284
     8
340
11
341
6C4
343
72
344
6C4
371
    -1
372
    -1
1001
ACAD_DSTYLE_DIMJOGGED_JOGANGLE_SYMBOL
1070
   384
1040
0.7853981633974483
1001
ACAD_DSTYLE_DIMARC_LENGTH_SYMBOL
1070
   379
1070
     1
  0
DIMSTYLE
105
2A59
330
A
100
AcDbSymbolTableRecord
100
AcDbDimStyleTableRecord
  2
SYS$2
 70
     0
  4
"
 41
1.0
 42
1.0
 43
10.0
 44
1.0
 47
0.1
 48
0.1
 73
     0
 74
     0
 77
     1
 78
     8
 79
     2
140
3.5
141
0.0
143
0.0393701
146
0.71
147
1.5
172
     1
176
   256
177
   256
178
     2
271
     2
272
     2
283
     0
284
     8
340
11
342
6C4
371
    -1
372
    -1
1001
ACAD_DSTYLE_DIMJOGGED_JOGANGLE_SYMBOL
1070
   384
1040
0.7853981633974483
1001
ACAD_DSTYLE_DIMARC_LENGTH_SYMBOL
1070
   379
1070
     1
  0
DIMSTYLE
105
2AAB
102
{ACAD_REACTORS
330
C687
330
C689
330
C68A
330
C68B
330
C68D
330
C68E
330
C68F
330
C690
102
}
330
A
100
AcDbSymbolTableRecord
100
AcDbDimStyleTableRecord
  2
SYS$0
 70
     0
  4
"
 41
1.0
 42
1.0
 43
10.0
 44
1.0
 47
0.1
 48
0.1
 73
     0
 74
     0
 77
     1
 78
     8
 79
     2
140
3.200000000000001
141
0.0
143
0.0393701
146
0.71
147
1.5
172
     1
176
   256
177
   256
178
     2
271
     2
272
     2
283
     0
284
     8
340
11
341
A66
342
6C4
371
    -1
372
    -1
1001
ACAD_DSTYLE_DIMJOGGED_JOGANGLE_SYMBOL
1070
   384
1040
0.7853981633974483
1001
ACAD_DSTYLE_DIMARC_LENGTH_SYMBOL
1070
   379
1070
     1
  0
DIMSTYLE
105
AF99
330
A
100
AcDbSymbolTableRecord
100
AcDbDimStyleTableRecord
  2
AM_ISO
 70
     0
  4
"
 41
2.5
 42
1.0
 43
10.0
 44
1.0
 47
0.1
 48
0.1
 73
     0
 74
     0
 77
     1
 78
     8
 79
     2
140
3.5
141
0.0
143
0.0393701
146
0.71
147
1.5
172
     1
176
   256
177
   256
178
     2
271
     2
272
     3
274
     4
283
     0
284
     8
340
11
371
    -1
372
    -1
  0
DIMSTYLE
105
AF9A
330
A
100
AcDbSymbolTableRecord
100
AcDbDimStyleTableRecord
  2
AM_ISO$3
 70
     0
  4
"
 41
2.5
 42
1.0
 43
10.0
 44
1.0
 47
0.1
 48
0.1
 73
     0
 77
     1
 78
     8
 79
     2
140
3.5
141
0.0
143
0.0393701
146
0.71
147
1.5
176
   256
177
   256
178
     2
271
     2
272
     3
274
     4
283
     0
284
     8
288
     1
289
     0
340
11
371
    -1
372
    -1
  0
DIMSTYLE
105
AF9B
330
A
100
AcDbSymbolTableRecord
100
AcDbDimStyleTableRecord
  2
AM_ISO$4
 70
     0
  4
"
 41
2.5
 42
1.0
 43
10.0
 44
1.0
 47
0.1
 48
0.1
 73
     0
 77
     1
 78
     8
 79
     2
140
3.5
141
0.0
143
0.0393701
146
0.71
147
1.5
176
   256
177
   256
178
     2
271
     2
272
     3
274
     4
283
     0
284
     8
288
     1
289
     0
340
11
371
    -1
372
    -1
  0
DIMSTYLE
105
AF9C
330
A
100
AcDbSymbolTableRecord
100
AcDbDimStyleTableRecord
  2
AM_ISO$6
 70
     0
  4
"
 41
2.5
 42
1.0
 43
10.0
 44
1.0
 47
0.1
 48
0.1
 73
     0
 74
     0
 78
     8
 79
     2
140
3.5
141
0.0
143
0.0393701
146
0.71
147
1.5
172
     1
176
   256
177
   256
178
     2
271
     2
272
     3
274
     4
283
     0
284
     8
340
11
371
    -1
372
    -1
  0
DIMSTYLE
105
AF9D
330
A
100
AcDbSymbolTableRecord
100
AcDbDimStyleTableRecord
  2
AM_ISO$7
 70
     0
  4
"
 41
2.5
 42
1.0
 43
10.0
 44
1.0
 47
0.1
 48
0.1
 73
     0
 74
     0
 77
     1
 78
     8
 79
     2
140
5.0
141
0.0
143
0.0393701
146
0.71
147
1.5
172
     1
176
   256
177
   256
178
     2
271
     2
272
     3
274
     4
283
     0
284
     8
340
11
371
    -1
372
    -1
  0
DIMSTYLE
105
AF9E
330
A
100
AcDbSymbolTableRecord
100
AcDbDimStyleTableRecord
  2
AM_ISO$SF
 70
     0
  4
"
 41
2.5
 42
1.0
 43
10.0
 44
1.0
 47
0.1
 48
0.1
 73
     0
 74
     0
 75
     1
 76
     1
 77
     1
 78
     8
 79
     2
140
3.5
141
0.0
143
0.0393701
146
0.71
147
1.5
172
     1
176
   256
177
   256
178
     2
271
     2
272
     3
274
     4
283
     0
284
     8
340
11
371
    -1
372
    -1
  0
DIMSTYLE
105
AF9F
330
A
100
AcDbSymbolTableRecord
100
AcDbDimStyleTableRecord
  2
AM_ISO$SH
 70
     0
  4
"
 41
2.5
 42
1.0
 43
10.0
 44
1.0
 47
0.1
 48
0.1
 73
     0
 74
     0
 75
     1
 76
     1
 77
     1
 78
     8
 79
     2
140
3.5
141
0.0
143
0.0393701
144
2.0
146
0.71
147
1.5
172
     1
173
     1
176
   256
177
   256
178
     2
271
     2
272
     3
274
     4
283
     0
284
     8
340
11
343
72
371
    -1
372
    -1
  0
DIMSTYLE
105
B1F3
330
A
100
AcDbSymbolTableRecord
100
AcDbDimStyleTableRecord
  2
AM_ANSI
 70
     0
  4
mm
 41
0.1
 42
0.05
 43
0.5
 44
0.1
 47
0.1
 48
0.1
 78
     7
 79
     2
140
0.12
141
0.0
146
0.71
147
0.06
176
   256
177
   256
178
     2
274
     4
284
     7
340
11
371
    -1
372
    -1
1001
ACAD_DSTYLE_DIMJOGGED_JOGANGLE_SYMBOL
1070
   384
1040
0.7853981633974483
1001
ACAD_DSTYLE_DIMARC_LENGTH_SYMBOL
1070
   379
1070
     1
  0
ENDTAB
  0
TABLE
  2
BLOCK_RECORD
  5
1
330
0
100
AcDbSymbolTable
 70
    35
  0
BLOCK_RECORD
  5
1F
102
{ACAD_XDICTIONARY
360
8A
102
}
330
1
100
AcDbSymbolTableRecord
100
AcDbBlockTableRecord
  2
*Model_Space
340
22
  0
BLOCK_RECORD
  5
1B
330
1
100
AcDbSymbolTableRecord
100
AcDbBlockTableRecord
  2
*Paper_Space
340
1E
  0
BLOCK_RECORD
  5
23
330
1
100
AcDbSymbolTableRecord
100
AcDbBlockTableRecord
  2
*Paper_Space0
340
26
  0
BLOCK_RECORD
  5
72
330
1
100
AcDbSymbolTableRecord
100
AcDbBlockTableRecord
  2
GENAXEH
340
0
  0
BLOCK_RECORD
  5
6C4
330
1
100
AcDbSymbolTableRecord
100
AcDbBlockTableRecord
  2
_Dot
340
0
102
{BLKREFS
331
C59A
331
C59B
331
C5A3
331
C5A4
331
C5AD
331
C5AE
331
C5B6
331
C5B7
331
C5BF
331
C5C0
331
C5C9
331
C5CA
331
C5D3
331
C5D4
331
C5DC
331
C5DD
331
C5E5
331
C5E6
331
C5EE
331
C5EF
331
C5F7
331
C5FC
331
C5FD
331
C604
331
C605
331
C60C
331
C60D
331
C615
331
C616
331
C61E
331
C61F
331
C627
331
C628
331
C631
331
C632
331
C639
331
C63A
331
C642
331
C643
331
C64B
331
C64C
331
C655
331
C656
331
C9BC
331
C9BD
331
C9CF
331
C9D0
331
C9D8
331
C9D9
331
C9E0
331
C9E1
331
C9F1
331
C9F2
331
C9FA
331
C9FB
331
CA03
331
CA04
331
CA0D
331
CA0E
102
}
  0
BLOCK_RECORD
  5
A66
330
1
100
AcDbSymbolTableRecord
100
AcDbBlockTableRecord
  2
_OPEN30
340
0
  0
BLOCK_RECORD
  5
C4BE
330
1
100
AcDbSymbolTableRecord
100
AcDbBlockTableRecord
  2
*D4
340
0
  0
BLOCK_RECORD
  5
C4C8
330
1
100
AcDbSymbolTableRecord
100
AcDbBlockTableRecord
  2
*D5
340
0
  0
BLOCK_RECORD
  5
C4D2
330
1
100
AcDbSymbolTableRecord
100
AcDbBlockTableRecord
  2
*D6
340
0
  0
BLOCK_RECORD
  5
C4DD
330
1
100
AcDbSymbolTableRecord
100
AcDbBlockTableRecord
  2
*D7
340
0
  0
BLOCK_RECORD
  5
C4E7
330
1
100
AcDbSymbolTableRecord
100
AcDbBlockTableRecord
  2
*D8
340
0
  0
BLOCK_RECORD
  5
C4F1
330
1
100
AcDbSymbolTableRecord
100
AcDbBlockTableRecord
  2
*D9
340
0
  0
BLOCK_RECORD
  5
C4FC
330
1
100
AcDbSymbolTableRecord
100
AcDbBlockTableRecord
  2
*D10
340
0
  0
BLOCK_RECORD
  5
C507
330
1
100
AcDbSymbolTableRecord
100
AcDbBlockTableRecord
  2
*D11
340
0
  0
BLOCK_RECORD
  5
C511
330
1
100
AcDbSymbolTableRecord
100
AcDbBlockTableRecord
  2
*D12
340
0
  0
BLOCK_RECORD
  5
C51B
330
1
100
AcDbSymbolTableRecord
100
AcDbBlockTableRecord
  2
*D13
340
0
  0
BLOCK_RECORD
  5
C525
330
1
100
AcDbSymbolTableRecord
100
AcDbBlockTableRecord
  2
*D14
340
0
  0
BLOCK_RECORD
  5
C52C
330
1
100
AcDbSymbolTableRecord
100
AcDbBlockTableRecord
  2
*D15
340
0
  0
BLOCK_RECORD
  5
C535
330
1
100
AcDbSymbolTableRecord
100
AcDbBlockTableRecord
  2
*D16
340
0
  0
BLOCK_RECORD
  5
C53E
330
1
100
AcDbSymbolTableRecord
100
AcDbBlockTableRecord
  2
*D17
340
0
  0
BLOCK_RECORD
  5
C547
330
1
100
AcDbSymbolTableRecord
100
AcDbBlockTableRecord
  2
*D18
340
0
  0
BLOCK_RECORD
  5
C551
330
1
100
AcDbSymbolTableRecord
100
AcDbBlockTableRecord
  2
*D19
340
0
  0
BLOCK_RECORD
  5
C55B
330
1
100
AcDbSymbolTableRecord
100
AcDbBlockTableRecord
  2
*D20
340
0
  0
BLOCK_RECORD
  5
C565
330
1
100
AcDbSymbolTableRecord
100
AcDbBlockTableRecord
  2
*D21
340
0
  0
BLOCK_RECORD
  5
C56F
330
1
100
AcDbSymbolTableRecord
100
AcDbBlockTableRecord
  2
*D22
340
0
  0
BLOCK_RECORD
  5
C579
330
1
100
AcDbSymbolTableRecord
100
AcDbBlockTableRecord
  2
*D23
340
0
  0
BLOCK_RECORD
  5
C583
330
1
100
AcDbSymbolTableRecord
100
AcDbBlockTableRecord
  2
*D24
340
0
  0
BLOCK_RECORD
  5
C58D
330
1
100
AcDbSymbolTableRecord
100
AcDbBlockTableRecord
  2
*D25
340
0
  0
BLOCK_RECORD
  5
C714
330
1
100
AcDbSymbolTableRecord
100
AcDbBlockTableRecord
  2
*D26
340
0
  0
BLOCK_RECORD
  5
C728
330
1
100
AcDbSymbolTableRecord
100
AcDbBlockTableRecord
  2
*D27
340
0
  0
BLOCK_RECORD
  5
C733
330
1
100
AcDbSymbolTableRecord
100
AcDbBlockTableRecord
  2
*D28
340
0
  0
BLOCK_RECORD
  5
C73D
330
1
100
AcDbSymbolTableRecord
100
AcDbBlockTableRecord
  2
*D29
340
0
  0
BLOCK_RECORD
  5
C74F
330
1
100
AcDbSymbolTableRecord
100
AcDbBlockTableRecord
  2
*D30
340
0
  0
BLOCK_RECORD
  5
C759
330
1
100
AcDbSymbolTableRecord
100
AcDbBlockTableRecord
  2
*D31
340
0
  0
BLOCK_RECORD
  5
C763
330
1
100
AcDbSymbolTableRecord
100
AcDbBlockTableRecord
  2
*D32
340
0
  0
BLOCK_RECORD
  5
C76D
330
1
100
AcDbSymbolTableRecord
100
AcDbBlockTableRecord
  2
*D33
340
0
  0
ENDTAB
  0
ENDSEC
  0
SECTION
  2
BLOCKS
  0
BLOCK
  5
20
330
1F
100
AcDbEntity
  8
0
100
AcDbBlockBegin
  2
*Model_Space
 70
     0
 10
0.0
 20
0.0
 30
0.0
  3
*Model_Space
  1

  0
ENDBLK
  5
21
330
1F
100
AcDbEntity
  8
0
100
AcDbBlockEnd
  0
BLOCK
  5
1C
330
1B
100
AcDbEntity
 67
     1
  8
0
100
AcDbBlockBegin
  2
*Paper_Space
 70
     0
 10
0.0
 20
0.0
 30
0.0
  3
*Paper_Space
  1

  0
ENDBLK
  5
1D
330
1B
100
AcDbEntity
 67
     1
  8
0
100
AcDbBlockEnd
  0
BLOCK
  5
24
330
23
100
AcDbEntity
 67
     1
  8
0
100
AcDbBlockBegin
  2
*Paper_Space0
 70
     0
 10
0.0
 20
0.0
 30
0.0
  3
*Paper_Space0
  1

  0
ENDBLK
  5
25
330
23
100
AcDbEntity
 67
     1
  8
0
100
AcDbBlockEnd
  0
BLOCK
  5
74
330
72
100
AcDbEntity
  8
0
100
AcDbBlockBegin
  2
GENAXEH
 70
     0
 10
0.0
 20
0.0
 30
0.0
  3
GENAXEH
  1

  0
LINE
  5
73
330
72
100
AcDbEntity
  8
0
100
AcDbLine
 10
-1.0
 20
0.0
 30
0.0
 11
1.0
 21
0.0
 31
0.0
  0
ENDBLK
  5
75
330
72
100
AcDbEntity
  8
0
100
AcDbBlockEnd
  0
BLOCK
  5
6C7
330
6C4
100
AcDbEntity
  8
0
100
AcDbBlockBegin
  2
_Dot
 70
     0
 10
0.0
 20
0.0
 30
0.0
  3
_Dot
  1

  0
LWPOLYLINE
  5
6C5
330
6C4
100
AcDbEntity
  8
0
  6
ByBlock
 62
     0
100
AcDbPolyline
 90
        2
 70
     1
 43
0.5
 10
-0.25
 20
0.0
 42
1.0
 10
0.25
 20
0.0
 42
1.0
  0
LINE
  5
6C6
330
6C4
100
AcDbEntity
  8
0
  6
ByBlock
 62
     0
370
    -2
100
AcDbLine
 10
-0.5
 20
0.0
 30
0.0
 11
-1.0
 21
0.0
 31
0.0
  0
ENDBLK
  5
6C8
330
6C4
100
AcDbEntity
  8
0
100
AcDbBlockEnd
  0
BLOCK
  5
A6A
330
A66
100
AcDbEntity
  8
0
100
AcDbBlockBegin
  2
_OPEN30
 70
     0
 10
0.0
 20
0.0
 30
0.0
  3
_OPEN30
  1

  0
LINE
  5
A67
330
A66
100
AcDbEntity
  8
0
  6
ByBlock
 62
     0
100
AcDbLine
 10
-1.0
 20
0.26794919
 30
0.0
 11
0.0
 21
0.0
 31
0.0
  0
LINE
  5
A68
330
A66
100
AcDbEntity
  8
0
  6
ByBlock
 62
     0
100
AcDbLine
 10
0.0
 20
0.0
 30
0.0
 11
-1.0
 21
-0.26794919
 31
0.0
  0
LINE
  5
A69
330
A66
100
AcDbEntity
  8
0
  6
ByBlock
 62
     0
100
AcDbLine
 10
0.0
 20
0.0
 30
0.0
 11
-1.0
 21
0.0
 31
0.0
  0
ENDBLK
  5
A6B
330
A66
100
AcDbEntity
  8
0
100
AcDbBlockEnd
  0
BLOCK
  5
C65A
330
C4BE
100
AcDbEntity
  8
0
100
AcDbBlockBegin
  2
*D4
 70
     1
 10
0.0
 20
0.0
 30
0.0
  3
*D4
  1

  0
LINE
  5
C597
330
C4BE
100
AcDbEntity
  8
AM_5
100
AcDbLine
 10
65.8798992017237
 20
545.4202339636508
 30
0.0
 11
65.8798992017237
 21
516.9636528479311
 31
0.0
  0
LINE
  5
C598
330
C4BE
100
AcDbEntity
  8
AM_5
100
AcDbLine
 10
230.8799068311166
 20
546.9202492224411
 30
0.0
 11
230.8799068311166
 21
516.9636528479311
 31
0.0
  0
LINE
  5
C599
330
C4BE
100
AcDbEntity
  8
AM_5
100
AcDbLine
 10
66.8798992017237
 20
517.9636528479311
 30
0.0
 11
229.8799068311167
 21
517.9636528479311
 31
0.0
  0
INSERT
  5
C59A
330
C4BE
100
AcDbEntity
  8
AM_5
100
AcDbBlockReference
  2
_Dot
 10
65.8798992017237
 20
517.9636528479311
 30
0.0
 50
180.0
  0
INSERT
  5
C59B
330
C4BE
100
AcDbEntity
  8
AM_5
100
AcDbBlockReference
  2
_Dot
 10
230.8799068311166
 20
517.9636528479311
 30
0.0
  0
MTEXT
  5
C59C
330
C4BE
100
AcDbEntity
  8
AM_5
 62
     2
100
AcDbMText
 10
148.6678287366355
 20
521.0636528479311
 30
0.0
 40
3.2
 41
0.0
 71
     5
 72
     1
  1
定尺Ｌ＝620
 73
     1
 44
1.0
1001
ACAD
1000
MTEXTBEGIN
1070
    73
1070
     1
1070
    44
1040
1.0
1070
    74
1070
     0
1000
MTEXTEND
  0
POINT
  5
C59D
330
C4BE
100
AcDbEntity
  8
Defpoints
 62
     0
100
AcDbPoint
 10
65.8798992017237
 20
546.4202339636511
 30
0.0
  0
POINT
  5
C59E
330
C4BE
100
AcDbEntity
  8
Defpoints
 62
     0
100
AcDbPoint
 10
230.8799068311166
 20
547.9202492224414
 30
0.0
  0
POINT
  5
C59F
330
C4BE
100
AcDbEntity
  8
Defpoints
 62
     0
100
AcDbPoint
 10
230.8799068311166
 20
517.9636528479311
 30
0.0
  0
ENDBLK
  5
C65B
330
C4BE
100
AcDbEntity
  8
0
100
AcDbBlockEnd
  0
BLOCK
  5
C65C
330
C4C8
100
AcDbEntity
  8
0
100
AcDbBlockBegin
  2
*D5
 70
     1
 10
0.0
 20
0.0
 30
0.0
  3
*D5
  1

  0
LINE
  5
C5A0
330
C4C8
100
AcDbEntity
  8
AM_5
100
AcDbLine
 10
105.8799068311237
 20
547.7202370154111
 30
0.0
 11
105.8799068311237
 21
534.3866264807411
 31
0.0
  0
LINE
  5
C5A1
330
C4C8
100
AcDbEntity
  8
AM_5
100
AcDbLine
 10
125.8799068311177
 20
543.9202339636508
 30
0.0
 11
125.8799068311177
 21
534.3866264807411
 31
0.0
  0
LINE
  5
C5A2
330
C4C8
100
AcDbEntity
  8
AM_5
100
AcDbLine
 10
106.8799068311237
 20
535.3866264807411
 30
0.0
 11
124.8799068311177
 21
535.3866264807411
 31
0.0
  0
INSERT
  5
C5A3
330
C4C8
100
AcDbEntity
  8
AM_5
100
AcDbBlockReference
  2
_Dot
 10
105.8799068311237
 20
535.3866264807411
 30
0.0
 50
180.0
  0
INSERT
  5
C5A4
330
C4C8
100
AcDbEntity
  8
AM_5
100
AcDbBlockReference
  2
_Dot
 10
125.8799068311177
 20
535.3866264807411
 30
0.0
  0
MTEXT
  5
C5A5
330
C4C8
100
AcDbEntity
  8
AM_5
 62
     2
100
AcDbMText
 10
116.0095989087547
 20
538.4866264807412
 30
0.0
 40
3.2
 41
0.0
 71
     5
 72
     1
  1
20
 73
     1
 44
1.0
1001
ACAD
1000
MTEXTBEGIN
1070
    73
1070
     1
1070
    44
1040
1.0
1070
    74
1070
     0
1000
MTEXTEND
  0
POINT
  5
C5A6
330
C4C8
100
AcDbEntity
  8
Defpoints
 62
     0
100
AcDbPoint
 10
105.8799068311237
 20
548.7202370154111
 30
0.0
  0
POINT
  5
C5A7
330
C4C8
100
AcDbEntity
  8
Defpoints
 62
     0
100
AcDbPoint
 10
125.8799068311177
 20
544.9202339636508
 30
0.0
  0
POINT
  5
C5A8
330
C4C8
100
AcDbEntity
  8
Defpoints
 62
     0
100
AcDbPoint
 10
125.8799068311177
 20
535.3866264807411
 30
0.0
  0
ENDBLK
  5
C65D
330
C4C8
100
AcDbEntity
  8
0
100
AcDbBlockEnd
  0
BLOCK
  5
C65E
330
C4D2
100
AcDbEntity
  8
0
100
AcDbBlockBegin
  2
*D6
 70
     1
 10
0.0
 20
0.0
 30
0.0
  3
*D6
  1

  0
LINE
  5
C5A9
330
C4D2
100
AcDbEntity
  8
AM_5
100
AcDbLine
 10
231.8799068311167
 20
547.9202492224414
 30
0.0
 11
244.7187511304338
 21
547.9202492224414
 31
0.0
  0
LINE
  5
C5AA
330
C4D2
100
AcDbEntity
  8
AM_5
100
AcDbLine
 10
231.8799068311167
 20
553.9202492224411
 30
0.0
 11
244.7187511304338
 21
553.9202492224411
 31
0.0
  0
LINE
  5
C5AB
330
C4D2
100
AcDbEntity
  8
AM_5
100
AcDbLine
 10
243.7187511304338
 20
548.9202492224412
 30
0.0
 11
243.7187511304338
 21
552.9202492224412
 31
0.0
  0
LINE
  5
C5AC
330
C4D2
100
AcDbEntity
  8
AM_5
100
AcDbLine
 10
243.7187511304338
 20
553.9202492224411
 30
0.0
 11
243.7187511304338
 21
566.1802797400213
 31
0.0
  0
INSERT
  5
C5AD
330
C4D2
100
AcDbEntity
  8
AM_5
100
AcDbBlockReference
  2
_Dot
 10
243.7187511304338
 20
547.9202492224414
 30
0.0
 50
270.0
  0
INSERT
  5
C5AE
330
C4D2
100
AcDbEntity
  8
AM_5
100
AcDbBlockReference
  2
_Dot
 10
243.7187511304338
 20
553.9202492224411
 30
0.0
 50
90.0
  0
MTEXT
  5
C5AF
330
C4D2
100
AcDbEntity
  8
AM_5
 62
     2
100
AcDbMText
 10
240.6187511304337
 20
562.9202797400211
 30
0.0
 40
3.2
 41
0.0
 71
     5
 72
     1
  1
\U+22056
 11
0.0000000000000001
 21
1.0
 31
0.0
 73
     1
 44
1.0
1001
ACAD
1000
MTEXTBEGIN
1070
    73
1070
     1
1070
    44
1040
1.0
1070
    74
1070
     0
1000
MTEXTEND
  0
POINT
  5
C5B0
330
C4D2
100
AcDbEntity
  8
Defpoints
 62
     0
100
AcDbPoint
 10
230.8799068311166
 20
547.9202492224414
 30
0.0
  0
POINT
  5
C5B1
330
C4D2
100
AcDbEntity
  8
Defpoints
 62
     0
100
AcDbPoint
 10
230.8799068311166
 20
553.9202492224411
 30
0.0
  0
POINT
  5
C5B2
330
C4D2
100
AcDbEntity
  8
Defpoints
 62
     0
100
AcDbPoint
 10
243.7187511304338
 20
553.9202492224411
 30
0.0
  0
ENDBLK
  5
C65F
330
C4D2
100
AcDbEntity
  8
0
100
AcDbBlockEnd
  0
BLOCK
  5
C660
330
C4DD
100
AcDbEntity
  8
0
100
AcDbBlockBegin
  2
*D7
 70
     1
 10
0.0
 20
0.0
 30
0.0
  3
*D7
  1

  0
LINE
  5
C5B3
330
C4DD
100
AcDbEntity
  8
AM_5
100
AcDbLine
 10
85.87990683112371
 20
442.7288582312311
 30
0.0
 11
85.87990683112371
 21
417.2621915327763
 31
0.0
  0
LINE
  5
C5B4
330
C4DD
100
AcDbEntity
  8
AM_5
100
AcDbLine
 10
210.8799068311173
 20
441.9288551794742
 30
0.0
 11
210.8799068311173
 21
417.2621915327763
 31
0.0
  0
LINE
  5
C5B5
330
C4DD
100
AcDbEntity
  8
AM_5
100
AcDbLine
 10
86.87990683112372
 20
418.2621915327763
 30
0.0
 11
209.8799068311173
 21
418.2621915327763
 31
0.0
  0
INSERT
  5
C5B6
330
C4DD
100
AcDbEntity
  8
AM_5
100
AcDbBlockReference
  2
_Dot
 10
85.87990683112371
 20
418.2621915327763
 30
0.0
 50
180.0
  0
INSERT
  5
C5B7
330
C4DD
100
AcDbEntity
  8
AM_5
100
AcDbBlockReference
  2
_Dot
 10
210.8799068311173
 20
418.2621915327763
 30
0.0
  0
MTEXT
  5
C5B8
330
C4DD
100
AcDbEntity
  8
AM_5
 62
     2
100
AcDbMText
 10
147.8995105603656
 20
421.362191532776
 30
0.0
 40
3.2
 41
0.0
 71
     5
 72
     1
  1
定尺Ｌ＝580
 73
     1
 44
1.0
1001
ACAD
1000
MTEXTBEGIN
1070
    73
1070
     1
1070
    44
1040
1.0
1070
    74
1070
     0
1000
MTEXTEND
  0
POINT
  5
C5B9
330
C4DD
100
AcDbEntity
  8
Defpoints
 62
     0
100
AcDbPoint
 10
85.87990683112371
 20
443.7288582312311
 30
0.0
  0
POINT
  5
C5BA
330
C4DD
100
AcDbEntity
  8
Defpoints
 62
     0
100
AcDbPoint
 10
210.8799068311173
 20
442.9288551794742
 30
0.0
  0
POINT
  5
C5BB
330
C4DD
100
AcDbEntity
  8
Defpoints
 62
     0
100
AcDbPoint
 10
210.8799068311173
 20
418.2621915327763
 30
0.0
  0
ENDBLK
  5
C661
330
C4DD
100
AcDbEntity
  8
0
100
AcDbBlockEnd
  0
BLOCK
  5
C662
330
C4E7
100
AcDbEntity
  8
0
100
AcDbBlockBegin
  2
*D8
 70
     1
 10
0.0
 20
0.0
 30
0.0
  3
*D8
  1

  0
LINE
  5
C5BC
330
C4E7
100
AcDbEntity
  8
AM_5
100
AcDbLine
 10
85.87990683112371
 20
442.7288582312311
 30
0.0
 11
85.87990683112371
 21
427.2952797400211
 31
0.0
  0
LINE
  5
C5BD
330
C4E7
100
AcDbEntity
  8
AM_5
100
AcDbLine
 10
115.8799068311177
 20
441.9288551794742
 30
0.0
 11
115.8799068311177
 21
427.2952797400211
 31
0.0
  0
LINE
  5
C5BE
330
C4E7
100
AcDbEntity
  8
AM_5
100
AcDbLine
 10
86.87990683112372
 20
428.2952797400211
 30
0.0
 11
114.8799068311177
 21
428.2952797400211
 31
0.0
  0
INSERT
  5
C5BF
330
C4E7
100
AcDbEntity
  8
AM_5
100
AcDbBlockReference
  2
_Dot
 10
85.87990683112371
 20
428.2952797400211
 30
0.0
 50
180.0
  0
INSERT
  5
C5C0
330
C4E7
100
AcDbEntity
  8
AM_5
100
AcDbBlockReference
  2
_Dot
 10
115.8799068311177
 20
428.2952797400211
 30
0.0
  0
MTEXT
  5
C5C1
330
C4E7
100
AcDbEntity
  8
AM_5
 62
     2
100
AcDbMText
 10
101.1562511304337
 20
431.3952797400212
 30
0.0
 40
3.2
 41
0.0
 71
     5
 72
     1
  1
30
 73
     1
 44
1.0
1001
ACAD
1000
MTEXTBEGIN
1070
    73
1070
     1
1070
    44
1040
1.0
1070
    74
1070
     0
1000
MTEXTEND
  0
POINT
  5
C5C2
330
C4E7
100
AcDbEntity
  8
Defpoints
 62
     0
100
AcDbPoint
 10
85.87990683112371
 20
443.7288582312311
 30
0.0
  0
POINT
  5
C5C3
330
C4E7
100
AcDbEntity
  8
Defpoints
 62
     0
100
AcDbPoint
 10
115.8799068311177
 20
442.9288551794742
 30
0.0
  0
POINT
  5
C5C4
330
C4E7
100
AcDbEntity
  8
Defpoints
 62
     0
100
AcDbPoint
 10
115.8799068311177
 20
428.2952797400211
 30
0.0
  0
ENDBLK
  5
C663
330
C4E7
100
AcDbEntity
  8
0
100
AcDbBlockEnd
  0
BLOCK
  5
C664
330
C4F1
100
AcDbEntity
  8
0
100
AcDbBlockBegin
  2
*D9
 70
     1
 10
0.0
 20
0.0
 30
0.0
  3
*D9
  1

  0
LINE
  5
C5C5
330
C4F1
100
AcDbEntity
  8
AM_5
100
AcDbLine
 10
85.87990683112371
 20
442.9288551794742
 30
0.0
 11
74.98504751715377
 21
442.9288551794742
 31
0.0
  0
LINE
  5
C5C6
330
C4F1
100
AcDbEntity
  8
AM_5
100
AcDbLine
 10
85.87990683112371
 20
448.9288551794741
 30
0.0
 11
74.98504751715377
 21
448.9288551794741
 31
0.0
  0
LINE
  5
C5C7
330
C4F1
100
AcDbEntity
  8
AM_5
100
AcDbLine
 10
75.98504751715378
 20
443.928855179474
 30
0.0
 11
75.98504751715378
 21
447.928855179474
 31
0.0
  0
LINE
  5
C5C8
330
C4F1
100
AcDbEntity
  8
AM_5
100
AcDbLine
 10
75.98504751715378
 20
448.9288551794741
 30
0.0
 11
75.98504751715378
 21
457.8678791256002
 31
0.0
  0
INSERT
  5
C5C9
330
C4F1
100
AcDbEntity
  8
AM_5
100
AcDbBlockReference
  2
_Dot
 10
75.98504751715378
 20
442.9288551794742
 30
0.0
 50
270.0
  0
INSERT
  5
C5CA
330
C4F1
100
AcDbEntity
  8
AM_5
100
AcDbBlockReference
  2
_Dot
 10
75.98504751715378
 20
448.9288551794741
 30
0.0
 50
90.0
  0
MTEXT
  5
C5CB
330
C4F1
100
AcDbEntity
  8
AM_5
 62
     2
100
AcDbMText
 10
72.88504751715371
 20
454.3945457922671
 30
0.0
 40
3.2
 41
0.0
 71
     5
 72
     1
  1
M6
 11
0.0000000000000001
 21
1.0
 31
0.0
 73
     1
 44
1.0
1001
ACAD
1000
MTEXTBEGIN
1070
    73
1070
     1
1070
    44
1040
1.0
1070
    74
1070
     0
1000
MTEXTEND
  0
POINT
  5
C5CC
330
C4F1
100
AcDbEntity
  8
Defpoints
 62
     0
100
AcDbPoint
 10
86.87990683112372
 20
442.9288551794742
 30
0.0
  0
POINT
  5
C5CD
330
C4F1
100
AcDbEntity
  8
Defpoints
 62
     0
100
AcDbPoint
 10
86.87990683112372
 20
448.9288551794741
 30
0.0
  0
POINT
  5
C5CE
330
C4F1
100
AcDbEntity
  8
Defpoints
 62
     0
100
AcDbPoint
 10
75.98504751715378
 20
448.9288551794741
 30
0.0
  0
ENDBLK
  5
C665
330
C4F1
100
AcDbEntity
  8
0
100
AcDbBlockEnd
  0
BLOCK
  5
C666
330
C4FC
100
AcDbEntity
  8
0
100
AcDbBlockBegin
  2
*D10
 70
     1
 10
0.0
 20
0.0
 30
0.0
  3
*D10
  1

  0
LINE
  5
C5CF
330
C4FC
100
AcDbEntity
  8
AM_5
100
AcDbLine
 10
211.8799068311173
 20
442.9288551794742
 30
0.0
 11
222.3428489545298
 21
442.9288551794742
 31
0.0
  0
LINE
  5
C5D0
330
C4FC
100
AcDbEntity
  8
AM_5
100
AcDbLine
 10
211.8799068311173
 20
448.9288551794741
 30
0.0
 11
222.3428489545298
 21
448.9288551794741
 31
0.0
  0
LINE
  5
C5D1
330
C4FC
100
AcDbEntity
  8
AM_5
100
AcDbLine
 10
221.3428489545298
 20
443.928855179474
 30
0.0
 11
221.3428489545298
 21
447.928855179474
 31
0.0
  0
LINE
  5
C5D2
330
C4FC
100
AcDbEntity
  8
AM_5
100
AcDbLine
 10
221.3428489545298
 20
448.9288551794741
 30
0.0
 11
221.3428489545298
 21
457.5467386328431
 31
0.0
  0
INSERT
  5
C5D3
330
C4FC
100
AcDbEntity
  8
AM_5
100
AcDbBlockReference
  2
_Dot
 10
221.3428489545298
 20
442.9288551794742
 30
0.0
 50
270.0
  0
INSERT
  5
C5D4
330
C4FC
100
AcDbEntity
  8
AM_5
100
AcDbBlockReference
  2
_Dot
 10
221.3428489545298
 20
448.9288551794741
 30
0.0
 50
90.0
  0
MTEXT
  5
C5D5
330
C4FC
100
AcDbEntity
  8
AM_5
 62
     2
100
AcDbMText
 10
218.2428489545297
 20
454.286738632843
 30
0.0
 40
3.2
 41
0.0
 71
     5
 72
     1
  1
\U+22056
 11
0.0000000000000001
 21
1.0
 31
0.0
 73
     1
 44
1.0
1001
ACAD
1000
MTEXTBEGIN
1070
    73
1070
     1
1070
    44
1040
1.0
1070
    74
1070
     0
1000
MTEXTEND
  0
POINT
  5
C5D6
330
C4FC
100
AcDbEntity
  8
Defpoints
 62
     0
100
AcDbPoint
 10
210.8799068311173
 20
442.9288551794742
 30
0.0
  0
POINT
  5
C5D7
330
C4FC
100
AcDbEntity
  8
Defpoints
 62
     0
100
AcDbPoint
 10
210.8799068311173
 20
448.9288551794741
 30
0.0
  0
POINT
  5
C5D8
330
C4FC
100
AcDbEntity
  8
Defpoints
 62
     0
100
AcDbPoint
 10
221.3428489545298
 20
448.9288551794741
 30
0.0
  0
ENDBLK
  5
C667
330
C4FC
100
AcDbEntity
  8
0
100
AcDbBlockEnd
  0
BLOCK
  5
C668
330
C507
100
AcDbEntity
  8
0
100
AcDbBlockBegin
  2
*D11
 70
     1
 10
0.0
 20
0.0
 30
0.0
  3
*D11
  1

  0
LINE
  5
C5D9
330
C507
100
AcDbEntity
  8
AM_5
100
AcDbLine
 10
65.8798992017237
 20
545.4202339636508
 30
0.0
 11
65.8798992017237
 21
526.1335289465612
 31
0.0
  0
LINE
  5
C5DA
330
C507
100
AcDbEntity
  8
AM_5
100
AcDbLine
 10
125.8799068311177
 20
543.9202339636508
 30
0.0
 11
125.8799068311177
 21
526.1335289465612
 31
0.0
  0
LINE
  5
C5DB
330
C507
100
AcDbEntity
  8
AM_5
100
AcDbLine
 10
66.8798992017237
 20
527.1335289465612
 30
0.0
 11
124.8799068311177
 21
527.1335289465612
 31
0.0
  0
INSERT
  5
C5DC
330
C507
100
AcDbEntity
  8
AM_5
100
AcDbBlockReference
  2
_Dot
 10
65.8798992017237
 20
527.1335289465612
 30
0.0
 50
180.0
  0
INSERT
  5
C5DD
330
C507
100
AcDbEntity
  8
AM_5
100
AcDbBlockReference
  2
_Dot
 10
125.8799068311177
 20
527.1335289465612
 30
0.0
  0
MTEXT
  5
C5DE
330
C507
100
AcDbEntity
  8
AM_5
 62
     2
100
AcDbMText
 10
95.73468130622371
 20
530.2335289465612
 30
0.0
 40
3.2
 41
0.0
 71
     5
 72
     1
  1
60
 73
     1
 44
1.0
1001
ACAD
1000
MTEXTBEGIN
1070
    73
1070
     1
1070
    44
1040
1.0
1070
    74
1070
     0
1000
MTEXTEND
  0
POINT
  5
C5DF
330
C507
100
AcDbEntity
  8
Defpoints
 62
     0
100
AcDbPoint
 10
65.8798992017237
 20
546.4202339636511
 30
0.0
  0
POINT
  5
C5E0
330
C507
100
AcDbEntity
  8
Defpoints
 62
     0
100
AcDbPoint
 10
125.8799068311177
 20
544.9202339636508
 30
0.0
  0
POINT
  5
C5E1
330
C507
100
AcDbEntity
  8
Defpoints
 62
     0
100
AcDbPoint
 10
125.8799068311177
 20
527.1335289465612
 30
0.0
  0
ENDBLK
  5
C669
330
C507
100
AcDbEntity
  8
0
100
AcDbBlockEnd
  0
BLOCK
  5
C66A
330
C511
100
AcDbEntity
  8
0
100
AcDbBlockBegin
  2
*D12
 70
     1
 10
0.0
 20
0.0
 30
0.0
  3
*D12
  1

  0
LINE
  5
C5E2
330
C511
100
AcDbEntity
  8
AM_5
100
AcDbLine
 10
124.0312511304337
 20
354.0991737829902
 30
0.0
 11
124.0312511304337
 21
332.8577797400212
 31
0.0
  0
LINE
  5
C5E3
330
C511
100
AcDbEntity
  8
AM_5
100
AcDbLine
 10
184.0312511304337
 20
352.5991737829901
 30
0.0
 11
184.0312511304337
 21
332.8577797400212
 31
0.0
  0
LINE
  5
C5E4
330
C511
100
AcDbEntity
  8
AM_5
100
AcDbLine
 10
125.0312511304337
 20
333.8577797400211
 30
0.0
 11
183.0312511304337
 21
333.8577797400211
 31
0.0
  0
INSERT
  5
C5E5
330
C511
100
AcDbEntity
  8
AM_5
100
AcDbBlockReference
  2
_Dot
 10
124.0312511304337
 20
333.8577797400211
 30
0.0
 50
180.0
  0
INSERT
  5
C5E6
330
C511
100
AcDbEntity
  8
AM_5
100
AcDbBlockReference
  2
_Dot
 10
184.0312511304337
 20
333.8577797400211
 30
0.0
  0
MTEXT
  5
C5E7
330
C511
100
AcDbEntity
  8
AM_5
 62
     2
100
AcDbMText
 10
155.2812511304337
 20
336.9577797400212
 30
0.0
 40
3.2
 41
0.0
 71
     5
 72
     1
  1
60
 73
     1
 44
1.0
1001
ACAD
1000
MTEXTBEGIN
1070
    73
1070
     1
1070
    44
1040
1.0
1070
    74
1070
     0
1000
MTEXTEND
  0
POINT
  5
C5E8
330
C511
100
AcDbEntity
  8
Defpoints
 62
     0
100
AcDbPoint
 10
124.0312511304337
 20
355.0991737829901
 30
0.0
  0
POINT
  5
C5E9
330
C511
100
AcDbEntity
  8
Defpoints
 62
     0
100
AcDbPoint
 10
184.0312511304337
 20
353.5991737829901
 30
0.0
  0
POINT
  5
C5EA
330
C511
100
AcDbEntity
  8
Defpoints
 62
     0
100
AcDbPoint
 10
184.0312511304337
 20
333.8577797400211
 30
0.0
  0
ENDBLK
  5
C66B
330
C511
100
AcDbEntity
  8
0
100
AcDbBlockEnd
  0
BLOCK
  5
C66C
330
C51B
100
AcDbEntity
  8
0
100
AcDbBlockBegin
  2
*D13
 70
     1
 10
0.0
 20
0.0
 30
0.0
  3
*D13
  1

  0
LINE
  5
C5EB
330
C51B
100
AcDbEntity
  8
AM_5
100
AcDbLine
 10
157.0312511304337
 20
355.5952827917792
 30
0.0
 11
157.0312511304337
 21
342.9754478918771
 31
0.0
  0
LINE
  5
C5EC
330
C51B
100
AcDbEntity
  8
AM_5
100
AcDbLine
 10
184.0312511304337
 20
352.5991737829901
 30
0.0
 11
184.0312511304337
 21
342.9754478918771
 31
0.0
  0
LINE
  5
C5ED
330
C51B
100
AcDbEntity
  8
AM_5
100
AcDbLine
 10
158.0312511304337
 20
343.9754478918771
 30
0.0
 11
183.0312511304337
 21
343.9754478918771
 31
0.0
  0
INSERT
  5
C5EE
330
C51B
100
AcDbEntity
  8
AM_5
100
AcDbBlockReference
  2
_Dot
 10
157.0312511304337
 20
343.9754478918771
 30
0.0
 50
180.0
  0
INSERT
  5
C5EF
330
C51B
100
AcDbEntity
  8
AM_5
100
AcDbBlockReference
  2
_Dot
 10
184.0312511304337
 20
343.9754478918771
 30
0.0
  0
MTEXT
  5
C5F0
330
C51B
100
AcDbEntity
  8
AM_5
 62
     2
100
AcDbMText
 10
171.0982219556297
 20
347.0754478918772
 30
0.0
 40
3.2
 41
0.0
 71
     5
 72
     1
  1
有効タップ27
 73
     1
 44
1.0
1001
ACAD
1000
MTEXTBEGIN
1070
    73
1070
     1
1070
    44
1040
1.0
1070
    74
1070
     0
1000
MTEXTEND
  0
POINT
  5
C5F1
330
C51B
100
AcDbEntity
  8
Defpoints
 62
     0
100
AcDbPoint
 10
157.0312511304337
 20
356.5952827917792
 30
0.0
  0
POINT
  5
C5F2
330
C51B
100
AcDbEntity
  8
Defpoints
 62
     0
100
AcDbPoint
 10
184.0312511304337
 20
353.5991737829901
 30
0.0
  0
POINT
  5
C5F3
330
C51B
100
AcDbEntity
  8
Defpoints
 62
     0
100
AcDbPoint
 10
184.0312511304337
 20
343.9754478918771
 30
0.0
  0
ENDBLK
  5
C66D
330
C51B
100
AcDbEntity
  8
0
100
AcDbBlockEnd
  0
BLOCK
  5
C66E
330
C525
100
AcDbEntity
  8
0
100
AcDbBlockBegin
  2
*D14
 70
     1
 10
0.0
 20
0.0
 30
0.0
  3
*D14
  1

  0
LINE
  5
C5F4
330
C525
100
AcDbEntity
  8
AM_5
100
AcDbLine
 10
243.769007315552
 20
365.8064262854323
 30
0.0
 11
226.653007315552
 21
365.8064262854323
 31
0.0
  0
LINE
  5
C5F5
330
C525
100
AcDbEntity
  8
AM_5
100
AcDbLine
 10
226.653007315552
 20
365.8064262854323
 30
0.0
 11
216.1587227068182
 21
357.5595571069106
 31
0.0
  0
MTEXT
  5
C5F6
330
C525
100
AcDbEntity
  8
AM_5
 62
     2
100
AcDbMText
 10
235.961007315552
 20
368.9064262854323
 30
0.0
 40
3.2
 41
0.0
 71
     5
 72
     1
  1
Ｍ６タップ孔
 73
     1
 44
1.0
1001
ACAD
1000
MTEXTBEGIN
1070
    73
1070
     1
1070
    44
1040
1.0
1070
    74
1070
     0
1000
MTEXTEND
  0
INSERT
  5
C5F7
330
C525
100
AcDbEntity
  8
AM_5
100
AcDbBlockReference
  2
_Dot
 10
215.3724538663346
 20
356.9416725622871
 30
0.0
 50
218.1618167498881
  0
POINT
  5
C5F8
330
C525
100
AcDbEntity
  8
Defpoints
 62
     0
100
AcDbPoint
 10
215.3724538663346
 20
356.9416725622871
 30
0.0
  0
POINT
  5
C5F9
330
C525
100
AcDbEntity
  8
Defpoints
 62
     0
100
AcDbPoint
 10
220.0900651792009
 20
360.6489784704901
 30
0.0
  0
ENDBLK
  5
C66F
330
C525
100
AcDbEntity
  8
0
100
AcDbBlockEnd
  0
BLOCK
  5
C670
330
C52C
100
AcDbEntity
  8
0
100
AcDbBlockBegin
  2
*D15
 70
     1
 10
0.0
 20
0.0
 30
0.0
  3
*D15
  1

  0
LINE
  5
C5FA
330
C52C
100
AcDbEntity
  8
AM_5
100
AcDbLine
 10
230.8799068311166
 20
546.9202492224411
 30
0.0
 11
230.8799068311166
 21
526.1335289465612
 31
0.0
  0
LINE
  5
C5FB
330
C52C
100
AcDbEntity
  8
AM_5
100
AcDbLine
 10
126.8799068311177
 20
527.1335289465612
 30
0.0
 11
229.8799068311167
 21
527.1335289465612
 31
0.0
  0
INSERT
  5
C5FC
330
C52C
100
AcDbEntity
  8
AM_5
100
AcDbBlockReference
  2
_Dot
 10
125.8799068311177
 20
527.1335289465612
 30
0.0
 50
180.0
  0
INSERT
  5
C5FD
330
C52C
100
AcDbEntity
  8
AM_5
100
AcDbBlockReference
  2
_Dot
 10
230.8799068311166
 20
527.1335289465612
 30
0.0
  0
MTEXT
  5
C5FE
330
C52C
100
AcDbEntity
  8
AM_5
 62
     2
100
AcDbMText
 10
178.3799068311177
 20
530.2335289465612
 30
0.0
 40
3.2
 41
0.0
 71
     5
 72
     1
  1
560
 73
     1
 44
1.0
1001
ACAD
1000
MTEXTBEGIN
1070
    73
1070
     1
1070
    44
1040
1.0
1070
    74
1070
     0
1000
MTEXTEND
  0
POINT
  5
C5FF
330
C52C
100
AcDbEntity
  8
Defpoints
 62
     0
100
AcDbPoint
 10
125.8799068311177
 20
544.9202339636508
 30
0.0
  0
POINT
  5
C600
330
C52C
100
AcDbEntity
  8
Defpoints
 62
     0
100
AcDbPoint
 10
230.8799068311166
 20
547.9202492224414
 30
0.0
  0
POINT
  5
C601
330
C52C
100
AcDbEntity
  8
Defpoints
 62
     0
100
AcDbPoint
 10
230.8799068311166
 20
527.1335289465612
 30
0.0
  0
ENDBLK
  5
C671
330
C52C
100
AcDbEntity
  8
0
100
AcDbBlockEnd
  0
BLOCK
  5
C672
330
C535
100
AcDbEntity
  8
0
100
AcDbBlockBegin
  2
*D16
 70
     1
 10
0.0
 20
0.0
 30
0.0
  3
*D16
  1

  0
LINE
  5
C602
330
C535
100
AcDbEntity
  8
AM_5
100
AcDbLine
 10
210.8799068311173
 20
441.9288551794742
 30
0.0
 11
210.8799068311173
 21
427.2952797400211
 31
0.0
  0
LINE
  5
C603
330
C535
100
AcDbEntity
  8
AM_5
100
AcDbLine
 10
116.8799068311177
 20
428.2952797400211
 30
0.0
 11
209.8799068311173
 21
428.2952797400211
 31
0.0
  0
INSERT
  5
C604
330
C535
100
AcDbEntity
  8
AM_5
100
AcDbBlockReference
  2
_Dot
 10
115.8799068311177
 20
428.2952797400211
 30
0.0
 50
180.0
  0
INSERT
  5
C605
330
C535
100
AcDbEntity
  8
AM_5
100
AcDbBlockReference
  2
_Dot
 10
210.8799068311173
 20
428.2952797400211
 30
0.0
  0
MTEXT
  5
C606
330
C535
100
AcDbEntity
  8
AM_5
 62
     2
100
AcDbMText
 10
163.3799068311177
 20
431.3952797400212
 30
0.0
 40
3.2
 41
0.0
 71
     5
 72
     1
  1
550
 73
     1
 44
1.0
1001
ACAD
1000
MTEXTBEGIN
1070
    73
1070
     1
1070
    44
1040
1.0
1070
    74
1070
     0
1000
MTEXTEND
  0
POINT
  5
C607
330
C535
100
AcDbEntity
  8
Defpoints
 62
     0
100
AcDbPoint
 10
115.8799068311177
 20
442.9288551794742
 30
0.0
  0
POINT
  5
C608
330
C535
100
AcDbEntity
  8
Defpoints
 62
     0
100
AcDbPoint
 10
210.8799068311173
 20
442.9288551794742
 30
0.0
  0
POINT
  5
C609
330
C535
100
AcDbEntity
  8
Defpoints
 62
     0
100
AcDbPoint
 10
210.8799068311173
 20
428.2952797400211
 30
0.0
  0
ENDBLK
  5
C673
330
C535
100
AcDbEntity
  8
0
100
AcDbBlockEnd
  0
BLOCK
  5
C674
330
C53E
100
AcDbEntity
  8
0
100
AcDbBlockBegin
  2
*D17
 70
     1
 10
0.0
 20
0.0
 30
0.0
  3
*D17
  1

  0
LINE
  5
C60A
330
C53E
100
AcDbEntity
  8
AM_5
100
AcDbLine
 10
135.8799068311177
 20
546.9202339636511
 30
0.0
 11
135.8799068311177
 21
534.3866264807411
 31
0.0
  0
LINE
  5
C60B
330
C53E
100
AcDbEntity
  8
AM_5
100
AcDbLine
 10
126.8799068311177
 20
535.3866264807411
 30
0.0
 11
134.8799068311177
 21
535.3866264807411
 31
0.0
  0
INSERT
  5
C60C
330
C53E
100
AcDbEntity
  8
AM_5
100
AcDbBlockReference
  2
_Dot
 10
125.8799068311177
 20
535.3866264807411
 30
0.0
 50
180.0
  0
INSERT
  5
C60D
330
C53E
100
AcDbEntity
  8
AM_5
100
AcDbBlockReference
  2
_Dot
 10
135.8799068311177
 20
535.3866264807411
 30
0.0
  0
MTEXT
  5
C60E
330
C53E
100
AcDbEntity
  8
AM_5
 62
     2
100
AcDbMText
 10
130.8799068311177
 20
538.4866264807412
 30
0.0
 40
3.2
 41
0.0
 71
     5
 72
     1
  1
10
 73
     1
 44
1.0
1001
ACAD
1000
MTEXTBEGIN
1070
    73
1070
     1
1070
    44
1040
1.0
1070
    74
1070
     0
1000
MTEXTEND
  0
POINT
  5
C60F
330
C53E
100
AcDbEntity
  8
Defpoints
 62
     0
100
AcDbPoint
 10
125.8799068311177
 20
544.9202339636508
 30
0.0
  0
POINT
  5
C610
330
C53E
100
AcDbEntity
  8
Defpoints
 62
     0
100
AcDbPoint
 10
135.8799068311177
 20
547.9202339636508
 30
0.0
  0
POINT
  5
C611
330
C53E
100
AcDbEntity
  8
Defpoints
 62
     0
100
AcDbPoint
 10
135.8799068311177
 20
535.3866264807411
 30
0.0
  0
ENDBLK
  5
C675
330
C53E
100
AcDbEntity
  8
0
100
AcDbBlockEnd
  0
BLOCK
  5
C676
330
C547
100
AcDbEntity
  8
0
100
AcDbBlockBegin
  2
*D18
 70
     1
 10
0.0
 20
0.0
 30
0.0
  3
*D18
  1

  0
LINE
  5
C612
330
C547
100
AcDbEntity
  8
AM_5
100
AcDbLine
 10
85.44446676764369
 20
353.7953255163892
 30
0.0
 11
66.21272390876376
 21
353.7953255163892
 31
0.0
  0
LINE
  5
C613
330
C547
100
AcDbEntity
  8
AM_5
100
AcDbLine
 10
85.4444896558337
 20
363.7953255163891
 30
0.0
 11
66.21272390876376
 21
363.7953255163891
 31
0.0
  0
LINE
  5
C614
330
C547
100
AcDbEntity
  8
AM_5
100
AcDbLine
 10
67.21272390876376
 20
354.7953255163891
 30
0.0
 11
67.21272390876376
 21
362.7953255163891
 31
0.0
  0
INSERT
  5
C615
330
C547
100
AcDbEntity
  8
AM_5
100
AcDbBlockReference
  2
_Dot
 10
67.21272390876376
 20
353.7953255163892
 30
0.0
 50
270.0
  0
INSERT
  5
C616
330
C547
100
AcDbEntity
  8
AM_5
100
AcDbBlockReference
  2
_Dot
 10
67.21272390876376
 20
363.7953255163891
 30
0.0
 50
90.0
  0
MTEXT
  5
C617
330
C547
100
AcDbEntity
  8
AM_5
 62
     2
100
AcDbMText
 10
64.11272390876371
 20
358.6319572912911
 30
0.0
 40
3.2
 41
0.0
 71
     5
 72
     1
  1
10
 11
0.0000000000000001
 21
1.0
 31
0.0
 73
     1
 44
1.0
1001
ACAD
1000
MTEXTBEGIN
1070
    73
1070
     1
1070
    44
1040
1.0
1070
    74
1070
     0
1000
MTEXTEND
  0
POINT
  5
C618
330
C547
100
AcDbEntity
  8
Defpoints
 62
     0
100
AcDbPoint
 10
86.44446676764367
 20
353.7953255163892
 30
0.0
  0
POINT
  5
C619
330
C547
100
AcDbEntity
  8
Defpoints
 62
     0
100
AcDbPoint
 10
86.4444896558337
 20
363.7953255163891
 30
0.0
  0
POINT
  5
C61A
330
C547
100
AcDbEntity
  8
Defpoints
 62
     0
100
AcDbPoint
 10
67.21272390876376
 20
363.7953255163891
 30
0.0
  0
ENDBLK
  5
C677
330
C547
100
AcDbEntity
  8
0
100
AcDbBlockEnd
  0
BLOCK
  5
C678
330
C551
100
AcDbEntity
  8
0
100
AcDbBlockBegin
  2
*D19
 70
     1
 10
0.0
 20
0.0
 30
0.0
  3
*D19
  1

  0
LINE
  5
C61B
330
C551
100
AcDbEntity
  8
AM_5
100
AcDbLine
 10
85.44446676764369
 20
353.7953255163892
 30
0.0
 11
73.12114065680377
 21
353.7953255163892
 31
0.0
  0
LINE
  5
C61C
330
C551
100
AcDbEntity
  8
AM_5
100
AcDbLine
 10
80.0316631177437
 20
358.7953255163891
 30
0.0
 11
73.12114065680377
 21
358.7953255163891
 31
0.0
  0
LINE
  5
C61D
330
C551
100
AcDbEntity
  8
AM_5
100
AcDbLine
 10
74.12114065680377
 20
354.7953255163891
 30
0.0
 11
74.12114065680377
 21
357.7953255163891
 31
0.0
  0
INSERT
  5
C61E
330
C551
100
AcDbEntity
  8
AM_5
100
AcDbBlockReference
  2
_Dot
 10
74.12114065680377
 20
353.7953255163892
 30
0.0
 50
270.0
  0
INSERT
  5
C61F
330
C551
100
AcDbEntity
  8
AM_5
100
AcDbBlockReference
  2
_Dot
 10
74.12114065680377
 20
358.7953255163891
 30
0.0
 50
90.0
  0
MTEXT
  5
C620
330
C551
100
AcDbEntity
  8
AM_5
 62
     2
100
AcDbMText
 10
71.02114065680371
 20
356.2953255163892
 30
0.0
 40
3.2
 41
0.0
 71
     5
 72
     1
  1
〃
 11
0.0000000000000001
 21
1.0
 31
0.0
 73
     1
 44
1.0
1001
ACAD
1000
MTEXTBEGIN
1070
    73
1070
     1
1070
    44
1040
1.0
1070
    74
1070
     0
1000
MTEXTEND
  0
POINT
  5
C621
330
C551
100
AcDbEntity
  8
Defpoints
 62
     0
100
AcDbPoint
 10
86.44446676764367
 20
353.7953255163892
 30
0.0
  0
POINT
  5
C622
330
C551
100
AcDbEntity
  8
Defpoints
 62
     0
100
AcDbPoint
 10
81.03166311774371
 20
358.7953255163891
 30
0.0
  0
POINT
  5
C623
330
C551
100
AcDbEntity
  8
Defpoints
 62
     0
100
AcDbPoint
 10
74.12114065680377
 20
358.7953255163891
 30
0.0
  0
ENDBLK
  5
C679
330
C551
100
AcDbEntity
  8
0
100
AcDbBlockEnd
  0
BLOCK
  5
C67A
330
C55B
100
AcDbEntity
  8
0
100
AcDbBlockBegin
  2
*D20
 70
     1
 10
0.0
 20
0.0
 30
0.0
  3
*D20
  1

  0
LINE
  5
C624
330
C55B
100
AcDbEntity
  8
AM_5
100
AcDbLine
 10
85.44446676764369
 20
363.7953255163891
 30
0.0
 11
73.12114065680377
 21
363.7953255163891
 31
0.0
  0
LINE
  5
C625
330
C55B
100
AcDbEntity
  8
AM_5
100
AcDbLine
 10
80.0316631177437
 20
358.7953255163891
 30
0.0
 11
73.12114065680377
 21
358.7953255163891
 31
0.0
  0
LINE
  5
C626
330
C55B
100
AcDbEntity
  8
AM_5
100
AcDbLine
 10
74.12114065680377
 20
362.7953255163891
 30
0.0
 11
74.12114065680377
 21
359.7953255163891
 31
0.0
  0
INSERT
  5
C627
330
C55B
100
AcDbEntity
  8
AM_5
100
AcDbBlockReference
  2
_Dot
 10
74.12114065680377
 20
363.7953255163891
 30
0.0
 50
90.0
  0
INSERT
  5
C628
330
C55B
100
AcDbEntity
  8
AM_5
100
AcDbBlockReference
  2
_Dot
 10
74.12114065680377
 20
358.7953255163891
 30
0.0
 50
270.0
  0
MTEXT
  5
C629
330
C55B
100
AcDbEntity
  8
AM_5
 62
     2
100
AcDbMText
 10
71.02114065680371
 20
361.2953255163891
 30
0.0
 40
3.2
 41
0.0
 71
     5
 72
     1
  1
〃
 11
0.0000000000000001
 21
1.0
 31
0.0
 73
     1
 44
1.0
1001
ACAD
1000
MTEXTBEGIN
1070
    73
1070
     1
1070
    44
1040
1.0
1070
    74
1070
     0
1000
MTEXTEND
  0
POINT
  5
C62A
330
C55B
100
AcDbEntity
  8
Defpoints
 62
     0
100
AcDbPoint
 10
86.44446676764367
 20
363.7953255163891
 30
0.0
  0
POINT
  5
C62B
330
C55B
100
AcDbEntity
  8
Defpoints
 62
     0
100
AcDbPoint
 10
81.03166311774371
 20
358.7953255163891
 30
0.0
  0
POINT
  5
C62C
330
C55B
100
AcDbEntity
  8
Defpoints
 62
     0
100
AcDbPoint
 10
74.12114065680377
 20
358.7953255163891
 30
0.0
  0
ENDBLK
  5
C67B
330
C55B
100
AcDbEntity
  8
0
100
AcDbBlockEnd
  0
BLOCK
  5
C67C
330
C565
100
AcDbEntity
  8
0
100
AcDbBlockBegin
  2
*D21
 70
     1
 10
0.0
 20
0.0
 30
0.0
  3
*D21
  1

  0
LINE
  5
C62D
330
C565
100
AcDbEntity
  8
AM_5
100
AcDbLine
 10
83.55773275885372
 20
359.7953026282052
 30
0.0
 11
83.55773275885372
 21
373.7094986426092
 31
0.0
  0
LINE
  5
C62E
330
C565
100
AcDbEntity
  8
AM_5
100
AcDbLine
 10
95.10473745856371
 20
359.7953026282052
 30
0.0
 11
95.10473745856371
 21
373.7094986426092
 31
0.0
  0
LINE
  5
C62F
330
C565
100
AcDbEntity
  8
AM_5
100
AcDbLine
 10
84.55773275885372
 20
372.7094986426092
 30
0.0
 11
94.1047374585637
 21
372.7094986426092
 31
0.0
  0
MTEXT
  5
C630
330
C565
100
AcDbEntity
  8
AM_5
 62
     2
100
AcDbMText
 10
89.11111563239371
 20
376.6475938807043
 30
0.0
 40
3.2
 41
0.0
 71
     5
 72
     1
  1
(11.6)
 73
     1
 44
1.0
1001
ACAD
1000
MTEXTBEGIN
1070
    73
1070
     1
1070
    44
1040
1.0
1070
    74
1070
     0
1000
MTEXTEND
  0
INSERT
  5
C631
330
C565
100
AcDbEntity
  8
AM_5
100
AcDbBlockReference
  2
_Dot
 10
83.55773275885372
 20
372.7094986426092
 30
0.0
 50
180.0
  0
INSERT
  5
C632
330
C565
100
AcDbEntity
  8
AM_5
100
AcDbBlockReference
  2
_Dot
 10
95.10473745856371
 20
372.7094986426092
 30
0.0
  0
POINT
  5
C633
330
C565
100
AcDbEntity
  8
Defpoints
 62
     0
100
AcDbPoint
 10
83.55773275885372
 20
358.7953026282052
 30
0.0
  0
POINT
  5
C634
330
C565
100
AcDbEntity
  8
Defpoints
 62
     0
100
AcDbPoint
 10
95.10473745856371
 20
358.7953026282052
 30
0.0
  0
POINT
  5
C635
330
C565
100
AcDbEntity
  8
Defpoints
 62
     0
100
AcDbPoint
 10
95.10473745856371
 20
372.7094986426092
 30
0.0
  0
ENDBLK
  5
C67D
330
C565
100
AcDbEntity
  8
0
100
AcDbBlockEnd
  0
BLOCK
  5
C67E
330
C56F
100
AcDbEntity
  8
0
100
AcDbBlockBegin
  2
*D22
 70
     1
 10
0.0
 20
0.0
 30
0.0
  3
*D22
  1

  0
LINE
  5
C636
330
C56F
100
AcDbEntity
  8
AM_5
100
AcDbLine
 10
30.29313772711371
 20
491.928900955841
 30
0.0
 11
11.06138723883378
 21
491.928900955841
 31
0.0
  0
LINE
  5
C637
330
C56F
100
AcDbEntity
  8
AM_5
100
AcDbLine
 10
30.29315298590371
 20
501.9289009558411
 30
0.0
 11
11.06138723883378
 21
501.9289009558411
 31
0.0
  0
LINE
  5
C638
330
C56F
100
AcDbEntity
  8
AM_5
100
AcDbLine
 10
12.06138723883378
 20
492.9289009558411
 30
0.0
 11
12.06138723883378
 21
500.9289009558411
 31
0.0
  0
INSERT
  5
C639
330
C56F
100
AcDbEntity
  8
AM_5
100
AcDbBlockReference
  2
_Dot
 10
12.06138723883378
 20
491.928900955841
 30
0.0
 50
270.0
  0
INSERT
  5
C63A
330
C56F
100
AcDbEntity
  8
AM_5
100
AcDbBlockReference
  2
_Dot
 10
12.06138723883378
 20
501.9289009558411
 30
0.0
 50
90.0
  0
MTEXT
  5
C63B
330
C56F
100
AcDbEntity
  8
AM_5
 62
     2
100
AcDbMText
 10
8.961387238833703
 20
496.765532730743
 30
0.0
 40
3.2
 41
0.0
 71
     5
 72
     1
  1
10
 11
0.0000000000000001
 21
1.0
 31
0.0
 73
     1
 44
1.0
1001
ACAD
1000
MTEXTBEGIN
1070
    73
1070
     1
1070
    44
1040
1.0
1070
    74
1070
     0
1000
MTEXTEND
  0
POINT
  5
C63C
330
C56F
100
AcDbEntity
  8
Defpoints
 62
     0
100
AcDbPoint
 10
31.2931377271137
 20
491.928900955841
 30
0.0
  0
POINT
  5
C63D
330
C56F
100
AcDbEntity
  8
Defpoints
 62
     0
100
AcDbPoint
 10
31.2931529859037
 20
501.9289009558411
 30
0.0
  0
POINT
  5
C63E
330
C56F
100
AcDbEntity
  8
Defpoints
 62
     0
100
AcDbPoint
 10
12.06138723883378
 20
501.9289009558411
 30
0.0
  0
ENDBLK
  5
C67F
330
C56F
100
AcDbEntity
  8
0
100
AcDbBlockEnd
  0
BLOCK
  5
C680
330
C579
100
AcDbEntity
  8
0
100
AcDbBlockBegin
  2
*D23
 70
     1
 10
0.0
 20
0.0
 30
0.0
  3
*D23
  1

  0
LINE
  5
C63F
330
C579
100
AcDbEntity
  8
AM_5
100
AcDbLine
 10
30.29313772711371
 20
491.928900955841
 30
0.0
 11
17.96980398688378
 21
491.928900955841
 31
0.0
  0
LINE
  5
C640
330
C579
100
AcDbEntity
  8
AM_5
100
AcDbLine
 10
24.88032644782371
 20
496.9289009558411
 30
0.0
 11
17.96980398688378
 21
496.9289009558411
 31
0.0
  0
LINE
  5
C641
330
C579
100
AcDbEntity
  8
AM_5
100
AcDbLine
 10
18.96980398688378
 20
492.9289009558411
 30
0.0
 11
18.96980398688378
 21
495.9289009558411
 31
0.0
  0
INSERT
  5
C642
330
C579
100
AcDbEntity
  8
AM_5
100
AcDbBlockReference
  2
_Dot
 10
18.96980398688378
 20
491.928900955841
 30
0.0
 50
270.0
  0
INSERT
  5
C643
330
C579
100
AcDbEntity
  8
AM_5
100
AcDbBlockReference
  2
_Dot
 10
18.96980398688378
 20
496.9289009558411
 30
0.0
 50
90.0
  0
MTEXT
  5
C644
330
C579
100
AcDbEntity
  8
AM_5
 62
     2
100
AcDbMText
 10
15.8698039868837
 20
494.4289009558411
 30
0.0
 40
3.2
 41
0.0
 71
     5
 72
     1
  1
〃
 11
0.0000000000000001
 21
1.0
 31
0.0
 73
     1
 44
1.0
1001
ACAD
1000
MTEXTBEGIN
1070
    73
1070
     1
1070
    44
1040
1.0
1070
    74
1070
     0
1000
MTEXTEND
  0
POINT
  5
C645
330
C579
100
AcDbEntity
  8
Defpoints
 62
     0
100
AcDbPoint
 10
31.2931377271137
 20
491.928900955841
 30
0.0
  0
POINT
  5
C646
330
C579
100
AcDbEntity
  8
Defpoints
 62
     0
100
AcDbPoint
 10
25.88032644782371
 20
496.9289009558411
 30
0.0
  0
POINT
  5
C647
330
C579
100
AcDbEntity
  8
Defpoints
 62
     0
100
AcDbPoint
 10
18.96980398688378
 20
496.9289009558411
 30
0.0
  0
ENDBLK
  5
C681
330
C579
100
AcDbEntity
  8
0
100
AcDbBlockEnd
  0
BLOCK
  5
C682
330
C583
100
AcDbEntity
  8
0
100
AcDbBlockBegin
  2
*D24
 70
     1
 10
0.0
 20
0.0
 30
0.0
  3
*D24
  1

  0
LINE
  5
C648
330
C583
100
AcDbEntity
  8
AM_5
100
AcDbLine
 10
30.29313772711371
 20
501.9289009558411
 30
0.0
 11
17.96980398688378
 21
501.9289009558411
 31
0.0
  0
LINE
  5
C649
330
C583
100
AcDbEntity
  8
AM_5
100
AcDbLine
 10
24.88032644782371
 20
496.9289009558411
 30
0.0
 11
17.96980398688378
 21
496.9289009558411
 31
0.0
  0
LINE
  5
C64A
330
C583
100
AcDbEntity
  8
AM_5
100
AcDbLine
 10
18.96980398688378
 20
500.9289009558411
 30
0.0
 11
18.96980398688378
 21
497.9289009558411
 31
0.0
  0
INSERT
  5
C64B
330
C583
100
AcDbEntity
  8
AM_5
100
AcDbBlockReference
  2
_Dot
 10
18.96980398688378
 20
501.9289009558411
 30
0.0
 50
90.0
  0
INSERT
  5
C64C
330
C583
100
AcDbEntity
  8
AM_5
100
AcDbBlockReference
  2
_Dot
 10
18.96980398688378
 20
496.9289009558411
 30
0.0
 50
270.0
  0
MTEXT
  5
C64D
330
C583
100
AcDbEntity
  8
AM_5
 62
     2
100
AcDbMText
 10
15.8698039868837
 20
499.4289009558411
 30
0.0
 40
3.2
 41
0.0
 71
     5
 72
     1
  1
〃
 11
0.0000000000000001
 21
1.0
 31
0.0
 73
     1
 44
1.0
1001
ACAD
1000
MTEXTBEGIN
1070
    73
1070
     1
1070
    44
1040
1.0
1070
    74
1070
     0
1000
MTEXTEND
  0
POINT
  5
C64E
330
C583
100
AcDbEntity
  8
Defpoints
 62
     0
100
AcDbPoint
 10
31.2931377271137
 20
501.9289009558411
 30
0.0
  0
POINT
  5
C64F
330
C583
100
AcDbEntity
  8
Defpoints
 62
     0
100
AcDbPoint
 10
25.88032644782371
 20
496.9289009558411
 30
0.0
  0
POINT
  5
C650
330
C583
100
AcDbEntity
  8
Defpoints
 62
     0
100
AcDbPoint
 10
18.96980398688378
 20
496.9289009558411
 30
0.0
  0
ENDBLK
  5
C683
330
C583
100
AcDbEntity
  8
0
100
AcDbBlockEnd
  0
BLOCK
  5
C684
330
C58D
100
AcDbEntity
  8
0
100
AcDbBlockBegin
  2
*D25
 70
     1
 10
0.0
 20
0.0
 30
0.0
  3
*D25
  1

  0
LINE
  5
C651
330
C58D
100
AcDbEntity
  8
AM_5
100
AcDbLine
 10
28.40638845954371
 20
497.9288780676569
 30
0.0
 11
28.40638845954371
 21
511.8430702673641
 31
0.0
  0
LINE
  5
C652
330
C58D
100
AcDbEntity
  8
AM_5
100
AcDbLine
 10
39.95340078864371
 20
497.9288780676569
 30
0.0
 11
39.95340078864371
 21
511.8430702673641
 31
0.0
  0
LINE
  5
C653
330
C58D
100
AcDbEntity
  8
AM_5
100
AcDbLine
 10
29.40638845954371
 20
510.8430702673642
 30
0.0
 11
38.95340078864371
 21
510.8430702673642
 31
0.0
  0
MTEXT
  5
C654
330
C58D
100
AcDbEntity
  8
AM_5
 62
     2
100
AcDbMText
 10
33.95977896247372
 20
514.7811655054595
 30
0.0
 40
3.2
 41
0.0
 71
     5
 72
     1
  1
(11.6)
 73
     1
 44
1.0
1001
ACAD
1000
MTEXTBEGIN
1070
    73
1070
     1
1070
    44
1040
1.0
1070
    74
1070
     0
1000
MTEXTEND
  0
INSERT
  5
C655
330
C58D
100
AcDbEntity
  8
AM_5
100
AcDbBlockReference
  2
_Dot
 10
28.40638845954371
 20
510.8430702673642
 30
0.0
 50
180.0
  0
INSERT
  5
C656
330
C58D
100
AcDbEntity
  8
AM_5
100
AcDbBlockReference
  2
_Dot
 10
39.95340078864371
 20
510.8430702673642
 30
0.0
  0
POINT
  5
C657
330
C58D
100
AcDbEntity
  8
Defpoints
 62
     0
100
AcDbPoint
 10
28.40638845954371
 20
496.9288780676571
 30
0.0
  0
POINT
  5
C658
330
C58D
100
AcDbEntity
  8
Defpoints
 62
     0
100
AcDbPoint
 10
39.95340078864371
 20
496.9288780676571
 30
0.0
  0
POINT
  5
C659
330
C58D
100
AcDbEntity
  8
Defpoints
 62
     0
100
AcDbPoint
 10
39.95340078864371
 20
510.8430702673642
 30
0.0
  0
ENDBLK
  5
C685
330
C58D
100
AcDbEntity
  8
0
100
AcDbBlockEnd
  0
BLOCK
  5
C7D0
330
C714
100
AcDbEntity
  8
0
100
AcDbBlockBegin
  2
*D26
 70
     1
 10
0.0
 20
0.0
 30
0.0
  3
*D26
  1

  0
LINE
  5
C9B9
330
C714
100
AcDbEntity
  8
AM_5
100
AcDbLine
 10
238.7822850063461
 20
212.7919096587616
 30
0.0
 11
210.3257038906262
 21
212.7919096587616
 31
0.0
  0
LINE
  5
C9BA
330
C714
100
AcDbEntity
  8
AM_5
100
AcDbLine
 10
240.2823002651363
 20
47.79190202936866
 30
0.0
 11
210.3257038906262
 21
47.79190202936866
 31
0.0
  0
LINE
  5
C9BB
330
C714
100
AcDbEntity
  8
AM_5
100
AcDbLine
 10
211.3257038906263
 20
211.7919096587617
 30
0.0
 11
211.3257038906262
 21
48.79190202936865
 31
0.0
  0
INSERT
  5
C9BC
330
C714
100
AcDbEntity
  8
AM_5
100
AcDbBlockReference
  2
_Dot
 10
211.3257038906263
 20
212.7919096587616
 30
0.0
 50
90.0
  0
INSERT
  5
C9BD
330
C714
100
AcDbEntity
  8
AM_5
100
AcDbBlockReference
  2
_Dot
 10
211.3257038906262
 20
47.79190202936866
 30
0.0
 50
270.0
  0
MTEXT
  5
C9BE
330
C714
100
AcDbEntity
  8
AM_5
 62
     2
100
AcDbMText
 10
208.2257038906262
 20
130.0039801238497
 30
0.0
 40
3.2
 41
0.0
 71
     5
 72
     1
  1
定尺Ｌ＝620
 11
0.0000000000000001
 21
1.0
 31
0.0
 73
     1
 44
1.0
1001
ACAD
1000
MTEXTBEGIN
1070
    73
1070
     1
1070
    44
1040
1.0
1070
    74
1070
     0
1000
MTEXTEND
  0
POINT
  5
C9BF
330
C714
100
AcDbEntity
  8
Defpoints
 62
     0
100
AcDbPoint
 10
239.7822850063461
 20
212.7919096587616
 30
0.0
  0
POINT
  5
C9C0
330
C714
100
AcDbEntity
  8
Defpoints
 62
     0
100
AcDbPoint
 10
241.2823002651363
 20
47.79190202936866
 30
0.0
  0
POINT
  5
C9C1
330
C714
100
AcDbEntity
  8
Defpoints
 62
     0
100
AcDbPoint
 10
211.3257038906262
 20
47.79190202936866
 30
0.0
  0
ENDBLK
  5
C7D1
330
C714
100
AcDbEntity
  8
0
100
AcDbBlockEnd
  0
BLOCK
  5
C7D4
330
C728
100
AcDbEntity
  8
0
100
AcDbBlockBegin
  2
*D27
 70
     1
 10
0.0
 20
0.0
 30
0.0
  3
*D27
  1

  0
LINE
  5
C9CB
330
C728
100
AcDbEntity
  8
AM_5
100
AcDbLine
 10
241.2823002651363
 20
46.79190202936863
 30
0.0
 11
241.2823002651363
 21
33.95305773005163
 31
0.0
  0
LINE
  5
C9CC
330
C728
100
AcDbEntity
  8
AM_5
100
AcDbLine
 10
247.2823002651363
 20
46.79190202936863
 30
0.0
 11
247.2823002651363
 21
33.95305773005163
 31
0.0
  0
LINE
  5
C9CD
330
C728
100
AcDbEntity
  8
AM_5
100
AcDbLine
 10
242.2823002651363
 20
34.95305773005163
 30
0.0
 11
246.2823002651363
 21
34.95305773005163
 31
0.0
  0
LINE
  5
C9CE
330
C728
100
AcDbEntity
  8
AM_5
100
AcDbLine
 10
247.2823002651363
 20
34.95305773005163
 30
0.0
 11
259.5423307827163
 21
34.95305773005163
 31
0.0
  0
INSERT
  5
C9CF
330
C728
100
AcDbEntity
  8
AM_5
100
AcDbBlockReference
  2
_Dot
 10
241.2823002651363
 20
34.95305773005163
 30
0.0
 50
180.0
  0
INSERT
  5
C9D0
330
C728
100
AcDbEntity
  8
AM_5
100
AcDbBlockReference
  2
_Dot
 10
247.2823002651363
 20
34.95305773005163
 30
0.0
  0
MTEXT
  5
C9D1
330
C728
100
AcDbEntity
  8
AM_5
 62
     2
100
AcDbMText
 10
256.2823307827163
 20
38.05305773005164
 30
0.0
 40
3.2
 41
0.0
 71
     5
 72
     1
  1
\U+22056
 73
     1
 44
1.0
1001
ACAD
1000
MTEXTBEGIN
1070
    73
1070
     1
1070
    44
1040
1.0
1070
    74
1070
     0
1000
MTEXTEND
  0
POINT
  5
C9D2
330
C728
100
AcDbEntity
  8
Defpoints
 62
     0
100
AcDbPoint
 10
241.2823002651363
 20
47.79190202936866
 30
0.0
  0
POINT
  5
C9D3
330
C728
100
AcDbEntity
  8
Defpoints
 62
     0
100
AcDbPoint
 10
247.2823002651363
 20
47.79190202936866
 30
0.0
  0
POINT
  5
C9D4
330
C728
100
AcDbEntity
  8
Defpoints
 62
     0
100
AcDbPoint
 10
247.2823002651363
 20
34.95305773005163
 30
0.0
  0
ENDBLK
  5
C7D5
330
C728
100
AcDbEntity
  8
0
100
AcDbBlockEnd
  0
BLOCK
  5
C7D6
330
C733
100
AcDbEntity
  8
0
100
AcDbBlockBegin
  2
*D28
 70
     1
 10
0.0
 20
0.0
 30
0.0
  3
*D28
  1

  0
LINE
  5
C9D5
330
C733
100
AcDbEntity
  8
AM_5
100
AcDbLine
 10
238.7822850063461
 20
212.7919096587616
 30
0.0
 11
219.4955799892563
 21
212.7919096587616
 31
0.0
  0
LINE
  5
C9D6
330
C733
100
AcDbEntity
  8
AM_5
100
AcDbLine
 10
237.2822850063461
 20
152.7919020293676
 30
0.0
 11
219.4955799892563
 21
152.7919020293676
 31
0.0
  0
LINE
  5
C9D7
330
C733
100
AcDbEntity
  8
AM_5
100
AcDbLine
 10
220.4955799892563
 20
211.7919096587617
 30
0.0
 11
220.4955799892563
 21
153.7919020293676
 31
0.0
  0
INSERT
  5
C9D8
330
C733
100
AcDbEntity
  8
AM_5
100
AcDbBlockReference
  2
_Dot
 10
220.4955799892563
 20
212.7919096587616
 30
0.0
 50
90.0
  0
INSERT
  5
C9D9
330
C733
100
AcDbEntity
  8
AM_5
100
AcDbBlockReference
  2
_Dot
 10
220.4955799892563
 20
152.7919020293676
 30
0.0
 50
270.0
  0
MTEXT
  5
C9DA
330
C733
100
AcDbEntity
  8
AM_5
 62
     2
100
AcDbMText
 10
217.3955799892564
 20
182.9371275542616
 30
0.0
 40
3.2
 41
0.0
 71
     5
 72
     1
  1
60
 11
0.0000000000000001
 21
1.0
 31
0.0
 73
     1
 44
1.0
1001
ACAD
1000
MTEXTBEGIN
1070
    73
1070
     1
1070
    44
1040
1.0
1070
    74
1070
     0
1000
MTEXTEND
  0
POINT
  5
C9DB
330
C733
100
AcDbEntity
  8
Defpoints
 62
     0
100
AcDbPoint
 10
239.7822850063461
 20
212.7919096587616
 30
0.0
  0
POINT
  5
C9DC
330
C733
100
AcDbEntity
  8
Defpoints
 62
     0
100
AcDbPoint
 10
238.2822850063461
 20
152.7919020293676
 30
0.0
  0
POINT
  5
C9DD
330
C733
100
AcDbEntity
  8
Defpoints
 62
     0
100
AcDbPoint
 10
220.4955799892563
 20
152.7919020293676
 30
0.0
  0
ENDBLK
  5
C7D7
330
C733
100
AcDbEntity
  8
0
100
AcDbBlockEnd
  0
BLOCK
  5
C7D8
330
C73D
100
AcDbEntity
  8
0
100
AcDbBlockBegin
  2
*D29
 70
     1
 10
0.0
 20
0.0
 30
0.0
  3
*D29
  1

  0
LINE
  5
C9DE
330
C73D
100
AcDbEntity
  8
AM_5
100
AcDbLine
 10
240.2823002651363
 20
47.79190202936866
 30
0.0
 11
219.4955799892563
 21
47.79190202936866
 31
0.0
  0
LINE
  5
C9DF
330
C73D
100
AcDbEntity
  8
AM_5
100
AcDbLine
 10
220.4955799892563
 20
151.7919020293676
 30
0.0
 11
220.4955799892563
 21
48.79190202936865
 31
0.0
  0
INSERT
  5
C9E0
330
C73D
100
AcDbEntity
  8
AM_5
100
AcDbBlockReference
  2
_Dot
 10
220.4955799892563
 20
152.7919020293676
 30
0.0
 50
90.0
  0
INSERT
  5
C9E1
330
C73D
100
AcDbEntity
  8
AM_5
100
AcDbBlockReference
  2
_Dot
 10
220.4955799892563
 20
47.79190202936866
 30
0.0
 50
270.0
  0
MTEXT
  5
C9E2
330
C73D
100
AcDbEntity
  8
AM_5
 62
     2
100
AcDbMText
 10
217.3955799892564
 20
100.2919020293676
 30
0.0
 40
3.2
 41
0.0
 71
     5
 72
     1
  1
560
 11
0.0000000000000001
 21
1.0
 31
0.0
 73
     1
 44
1.0
1001
ACAD
1000
MTEXTBEGIN
1070
    73
1070
     1
1070
    44
1040
1.0
1070
    74
1070
     0
1000
MTEXTEND
  0
POINT
  5
C9E3
330
C73D
100
AcDbEntity
  8
Defpoints
 62
     0
100
AcDbPoint
 10
238.2822850063461
 20
152.7919020293676
 30
0.0
  0
POINT
  5
C9E4
330
C73D
100
AcDbEntity
  8
Defpoints
 62
     0
100
AcDbPoint
 10
241.2823002651363
 20
47.79190202936866
 30
0.0
  0
POINT
  5
C9E5
330
C73D
100
AcDbEntity
  8
Defpoints
 62
     0
100
AcDbPoint
 10
220.4955799892563
 20
47.79190202936866
 30
0.0
  0
ENDBLK
  5
C7D9
330
C73D
100
AcDbEntity
  8
0
100
AcDbBlockEnd
  0
BLOCK
  5
C7DC
330
C74F
100
AcDbEntity
  8
0
100
AcDbBlockBegin
  2
*D30
 70
     1
 10
0.0
 20
0.0
 30
0.0
  3
*D30
  1

  0
LINE
  5
C9EE
330
C74F
100
AcDbEntity
  8
AM_5
100
AcDbLine
 10
240.3955357387661
 20
239.4919066070016
 30
0.0
 11
221.1637852504861
 21
239.4919066070016
 31
0.0
  0
LINE
  5
C9EF
330
C74F
100
AcDbEntity
  8
AM_5
100
AcDbLine
 10
240.395550997556
 20
249.4919066070016
 30
0.0
 11
221.1637852504861
 21
249.4919066070016
 31
0.0
  0
LINE
  5
C9F0
330
C74F
100
AcDbEntity
  8
AM_5
100
AcDbLine
 10
222.1637852504861
 20
240.4919066070017
 30
0.0
 11
222.1637852504861
 21
248.4919066070017
 31
0.0
  0
INSERT
  5
C9F1
330
C74F
100
AcDbEntity
  8
AM_5
100
AcDbBlockReference
  2
_Dot
 10
222.1637852504861
 20
239.4919066070016
 30
0.0
 50
270.0
  0
INSERT
  5
C9F2
330
C74F
100
AcDbEntity
  8
AM_5
100
AcDbBlockReference
  2
_Dot
 10
222.1637852504861
 20
249.4919066070016
 30
0.0
 50
90.0
  0
MTEXT
  5
C9F3
330
C74F
100
AcDbEntity
  8
AM_5
 62
     2
100
AcDbMText
 10
219.0637852504861
 20
244.3285383819036
 30
0.0
 40
3.2
 41
0.0
 71
     5
 72
     1
  1
10
 11
0.0000000000000001
 21
1.0
 31
0.0
 73
     1
 44
1.0
1001
ACAD
1000
MTEXTBEGIN
1070
    73
1070
     1
1070
    44
1040
1.0
1070
    74
1070
     0
1000
MTEXTEND
  0
POINT
  5
C9F4
330
C74F
100
AcDbEntity
  8
Defpoints
 62
     0
100
AcDbPoint
 10
241.395535738766
 20
239.4919066070016
 30
0.0
  0
POINT
  5
C9F5
330
C74F
100
AcDbEntity
  8
Defpoints
 62
     0
100
AcDbPoint
 10
241.395550997556
 20
249.4919066070016
 30
0.0
  0
POINT
  5
C9F6
330
C74F
100
AcDbEntity
  8
Defpoints
 62
     0
100
AcDbPoint
 10
222.1637852504861
 20
249.4919066070016
 30
0.0
  0
ENDBLK
  5
C7DD
330
C74F
100
AcDbEntity
  8
0
100
AcDbBlockEnd
  0
BLOCK
  5
C7DE
330
C759
100
AcDbEntity
  8
0
100
AcDbBlockBegin
  2
*D31
 70
     1
 10
0.0
 20
0.0
 30
0.0
  3
*D31
  1

  0
LINE
  5
C9F7
330
C759
100
AcDbEntity
  8
AM_5
100
AcDbLine
 10
240.3955357387661
 20
239.4919066070016
 30
0.0
 11
228.0722019985361
 21
239.4919066070016
 31
0.0
  0
LINE
  5
C9F8
330
C759
100
AcDbEntity
  8
AM_5
100
AcDbLine
 10
234.9827244594761
 20
244.4919066070017
 30
0.0
 11
228.0722019985361
 21
244.4919066070017
 31
0.0
  0
LINE
  5
C9F9
330
C759
100
AcDbEntity
  8
AM_5
100
AcDbLine
 10
229.0722019985361
 20
240.4919066070017
 30
0.0
 11
229.0722019985361
 21
243.4919066070016
 31
0.0
  0
INSERT
  5
C9FA
330
C759
100
AcDbEntity
  8
AM_5
100
AcDbBlockReference
  2
_Dot
 10
229.0722019985361
 20
239.4919066070016
 30
0.0
 50
270.0
  0
INSERT
  5
C9FB
330
C759
100
AcDbEntity
  8
AM_5
100
AcDbBlockReference
  2
_Dot
 10
229.0722019985361
 20
244.4919066070017
 30
0.0
 50
90.0
  0
MTEXT
  5
C9FC
330
C759
100
AcDbEntity
  8
AM_5
 62
     2
100
AcDbMText
 10
225.972201998536
 20
241.9919066070017
 30
0.0
 40
3.2
 41
0.0
 71
     5
 72
     1
  1
〃
 11
0.0000000000000001
 21
1.0
 31
0.0
 73
     1
 44
1.0
1001
ACAD
1000
MTEXTBEGIN
1070
    73
1070
     1
1070
    44
1040
1.0
1070
    74
1070
     0
1000
MTEXTEND
  0
POINT
  5
C9FD
330
C759
100
AcDbEntity
  8
Defpoints
 62
     0
100
AcDbPoint
 10
241.395535738766
 20
239.4919066070016
 30
0.0
  0
POINT
  5
C9FE
330
C759
100
AcDbEntity
  8
Defpoints
 62
     0
100
AcDbPoint
 10
235.9827244594761
 20
244.4919066070017
 30
0.0
  0
POINT
  5
C9FF
330
C759
100
AcDbEntity
  8
Defpoints
 62
     0
100
AcDbPoint
 10
229.0722019985361
 20
244.4919066070017
 30
0.0
  0
ENDBLK
  5
C7DF
330
C759
100
AcDbEntity
  8
0
100
AcDbBlockEnd
  0
BLOCK
  5
C7E0
330
C763
100
AcDbEntity
  8
0
100
AcDbBlockBegin
  2
*D32
 70
     1
 10
0.0
 20
0.0
 30
0.0
  3
*D32
  1

  0
LINE
  5
CA00
330
C763
100
AcDbEntity
  8
AM_5
100
AcDbLine
 10
240.3955357387661
 20
249.4919066070016
 30
0.0
 11
228.0722019985361
 21
249.4919066070016
 31
0.0
  0
LINE
  5
CA01
330
C763
100
AcDbEntity
  8
AM_5
100
AcDbLine
 10
234.9827244594761
 20
244.4919066070017
 30
0.0
 11
228.0722019985361
 21
244.4919066070017
 31
0.0
  0
LINE
  5
CA02
330
C763
100
AcDbEntity
  8
AM_5
100
AcDbLine
 10
229.0722019985361
 20
248.4919066070017
 30
0.0
 11
229.0722019985361
 21
245.4919066070016
 31
0.0
  0
INSERT
  5
CA03
330
C763
100
AcDbEntity
  8
AM_5
100
AcDbBlockReference
  2
_Dot
 10
229.0722019985361
 20
249.4919066070016
 30
0.0
 50
90.0
  0
INSERT
  5
CA04
330
C763
100
AcDbEntity
  8
AM_5
100
AcDbBlockReference
  2
_Dot
 10
229.0722019985361
 20
244.4919066070017
 30
0.0
 50
270.0
  0
MTEXT
  5
CA05
330
C763
100
AcDbEntity
  8
AM_5
 62
     2
100
AcDbMText
 10
225.972201998536
 20
246.9919066070016
 30
0.0
 40
3.2
 41
0.0
 71
     5
 72
     1
  1
〃
 11
0.0000000000000001
 21
1.0
 31
0.0
 73
     1
 44
1.0
1001
ACAD
1000
MTEXTBEGIN
1070
    73
1070
     1
1070
    44
1040
1.0
1070
    74
1070
     0
1000
MTEXTEND
  0
POINT
  5
CA06
330
C763
100
AcDbEntity
  8
Defpoints
 62
     0
100
AcDbPoint
 10
241.395535738766
 20
249.4919066070016
 30
0.0
  0
POINT
  5
CA07
330
C763
100
AcDbEntity
  8
Defpoints
 62
     0
100
AcDbPoint
 10
235.9827244594761
 20
244.4919066070017
 30
0.0
  0
POINT
  5
CA08
330
C763
100
AcDbEntity
  8
Defpoints
 62
     0
100
AcDbPoint
 10
229.0722019985361
 20
244.4919066070017
 30
0.0
  0
ENDBLK
  5
C7E1
330
C763
100
AcDbEntity
  8
0
100
AcDbBlockEnd
  0
BLOCK
  5
C7E2
330
C76D
100
AcDbEntity
  8
0
100
AcDbBlockBegin
  2
*D33
 70
     1
 10
0.0
 20
0.0
 30
0.0
  3
*D33
  1

  0
LINE
  5
CA09
330
C76D
100
AcDbEntity
  8
AM_5
100
AcDbLine
 10
238.5087864711961
 20
245.4918837188177
 30
0.0
 11
238.5087864711961
 21
259.4060759185247
 31
0.0
  0
LINE
  5
CA0A
330
C76D
100
AcDbEntity
  8
AM_5
100
AcDbLine
 10
250.0557988002961
 20
245.4918837188177
 30
0.0
 11
250.0557988002961
 21
259.4060759185247
 31
0.0
  0
LINE
  5
CA0B
330
C76D
100
AcDbEntity
  8
AM_5
100
AcDbLine
 10
239.5087864711961
 20
258.4060759185247
 30
0.0
 11
249.0557988002961
 21
258.4060759185247
 31
0.0
  0
MTEXT
  5
CA0C
330
C76D
100
AcDbEntity
  8
AM_5
 62
     2
100
AcDbMText
 10
244.062176974126
 20
262.3441711566199
 30
0.0
 40
3.2
 41
0.0
 71
     5
 72
     1
  1
(11.6)
 73
     1
 44
1.0
1001
ACAD
1000
MTEXTBEGIN
1070
    73
1070
     1
1070
    44
1040
1.0
1070
    74
1070
     0
1000
MTEXTEND
  0
INSERT
  5
CA0D
330
C76D
100
AcDbEntity
  8
AM_5
100
AcDbBlockReference
  2
_Dot
 10
238.5087864711961
 20
258.4060759185247
 30
0.0
 50
180.0
  0
INSERT
  5
CA0E
330
C76D
100
AcDbEntity
  8
AM_5
100
AcDbBlockReference
  2
_Dot
 10
250.0557988002961
 20
258.4060759185247
 30
0.0
  0
POINT
  5
CA0F
330
C76D
100
AcDbEntity
  8
Defpoints
 62
     0
100
AcDbPoint
 10
238.5087864711961
 20
244.4918837188176
 30
0.0
  0
POINT
  5
CA10
330
C76D
100
AcDbEntity
  8
Defpoints
 62
     0
100
AcDbPoint
 10
250.0557988002961
 20
244.4918837188176
 30
0.0
  0
POINT
  5
CA11
330
C76D
100
AcDbEntity
  8
Defpoints
 62
     0
100
AcDbPoint
 10
250.0557988002961
 20
258.4060759185247
 30
0.0
  0
ENDBLK
  5
C7E3
330
C76D
100
AcDbEntity
  8
0
100
AcDbBlockEnd
  0
ENDSEC
  0
SECTION
  2
ENTITIES
  0
LINE
  5
B370
330
1F
100
AcDbEntity
  8
size
100
AcDbLine
 10
0.0000017428819774
 20
-0.0000008943752619
 30
0.0
 11
420.0000017428816
 21
-0.0000008943752619
 31
0.0
1001
GENIUS_GENREC_14
1002
{
1000
PYDIR
1011
0.0000017428819774
1021
296.9999991056247
1031
0.0
1002
}
1002
{
1000
PXDIR
1011
420.0000017428816
1021
-0.0000008943752619
1031
0.0
1002
}
1002
{
1000
PORI
1011
0.0000017428819774
1021
-0.0000008943752619
1031
0.0
1002
}
1002
{
1000
PINS
1011
210.000001742882
1021
148.4999991056247
1031
0.0
1002
}
1002
{
1000
HVAL
1000
297
1002
}
1002
{
1000
H
1070
     2
1002
}
1002
{
1000
WVAL
1000
420
1002
}
1002
{
1000
W
1070
     2
1002
}
1002
{
1000
C
1070
     4
1002
}
1001
GENIUS_GENOBJ-N-REC_13
1002
{
1000
OWNER
1000
GEN
1002
}
1001
GENIUS_GENODEF_13
1002
{
1000
HIER
1070
     0
1002
}
1002
{
1000
MANEDIT
1070
     0
1002
}
1002
{
1000
NOSEL
1070
     0
1002
}
1002
{
1000
BEHIND
1070
     0
1002
}
1002
{
1000
OTHER
1070
     0
1002
}
1002
{
1000
REACTOR
1002
}
  0
LINE
  5
B371
330
1F
100
AcDbEntity
  8
size
100
AcDbLine
 10
420.0000017428816
 20
-0.0000008943752619
 30
0.0
 11
420.0000017428816
 21
296.9999991056247
 31
0.0
1001
GENIUS_GENREC_14
1002
{
1000
PYDIR
1011
0.0000017428819774
1021
296.9999991056247
1031
0.0
1002
}
1002
{
1000
PXDIR
1011
420.0000017428816
1021
-0.0000008943752619
1031
0.0
1002
}
1002
{
1000
PORI
1011
0.0000017428819774
1021
-0.0000008943752619
1031
0.0
1002
}
1002
{
1000
PINS
1011
210.000001742882
1021
148.4999991056247
1031
0.0
1002
}
1002
{
1000
HVAL
1000
297
1002
}
1002
{
1000
H
1070
     2
1002
}
1002
{
1000
WVAL
1000
420
1002
}
1002
{
1000
W
1070
     2
1002
}
1002
{
1000
C
1070
     4
1002
}
1001
GENIUS_GENOBJ-N-REC_13
1002
{
1000
OWNER
1000
GEN
1002
}
1001
GENIUS_GENODEF_13
1002
{
1000
HIER
1070
     0
1002
}
1002
{
1000
MANEDIT
1070
     0
1002
}
1002
{
1000
NOSEL
1070
     0
1002
}
1002
{
1000
BEHIND
1070
     0
1002
}
1002
{
1000
OTHER
1070
     0
1002
}
1002
{
1000
REACTOR
1002
}
  0
LINE
  5
B372
330
1F
100
AcDbEntity
  8
size
100
AcDbLine
 10
420.0000017428816
 20
296.9999991056247
 30
0.0
 11
0.0000017428819774
 21
296.9999991056247
 31
0.0
1001
GENIUS_GENREC_14
1002
{
1000
PYDIR
1011
0.0000017428819774
1021
296.9999991056247
1031
0.0
1002
}
1002
{
1000
PXDIR
1011
420.0000017428816
1021
-0.0000008943752619
1031
0.0
1002
}
1002
{
1000
PORI
1011
0.0000017428819774
1021
-0.0000008943752619
1031
0.0
1002
}
1002
{
1000
PINS
1011
210.000001742882
1021
148.4999991056247
1031
0.0
1002
}
1002
{
1000
HVAL
1000
297
1002
}
1002
{
1000
H
1070
     2
1002
}
1002
{
1000
WVAL
1000
420
1002
}
1002
{
1000
W
1070
     2
1002
}
1002
{
1000
C
1070
     4
1002
}
1001
GENIUS_GENOBJ-N-REC_13
1002
{
1000
OWNER
1000
GEN
1002
}
1001
GENIUS_GENODEF_13
1002
{
1000
HIER
1070
     0
1002
}
1002
{
1000
MANEDIT
1070
     0
1002
}
1002
{
1000
NOSEL
1070
     0
1002
}
1002
{
1000
BEHIND
1070
     0
1002
}
1002
{
1000
OTHER
1070
     0
1002
}
1002
{
1000
REACTOR
1002
}
  0
LINE
  5
B373
330
1F
100
AcDbEntity
  8
size
100
AcDbLine
 10
0.0000017428819774
 20
296.9999991056247
 30
0.0
 11
0.0000017428819774
 21
-0.0000008943752619
 31
0.0
1001
GENIUS_GENREC_14
1002
{
1000
PYDIR
1011
0.0000017428819774
1021
296.9999991056247
1031
0.0
1002
}
1002
{
1000
PXDIR
1011
420.0000017428816
1021
-0.0000008943752619
1031
0.0
1002
}
1002
{
1000
PORI
1011
0.0000017428819774
1021
-0.0000008943752619
1031
0.0
1002
}
1002
{
1000
PINS
1011
210.000001742882
1021
148.4999991056247
1031
0.0
1002
}
1002
{
1000
HVAL
1000
297
1002
}
1002
{
1000
H
1070
     2
1002
}
1002
{
1000
WVAL
1000
420
1002
}
1002
{
1000
W
1070
     2
1002
}
1002
{
1000
C
1070
     4
1002
}
1001
GENIUS_GENOBJ-N-REC_13
1002
{
1000
OWNER
1000
GEN
1002
}
1001
GENIUS_GENODEF_13
1002
{
1000
HIER
1070
     0
1002
}
1002
{
1000
MANEDIT
1070
     0
1002
}
1002
{
1000
NOSEL
1070
     0
1002
}
1002
{
1000
BEHIND
1070
     0
1002
}
1002
{
1000
OTHER
1070
     0
1002
}
1002
{
1000
REACTOR
1002
}
  0
LINE
  5
B374
330
1F
100
AcDbEntity
  8
waku
100
AcDbLine
 10
408.500001742882
 20
8.499999105624738
 30
0.0
 11
408.500001742882
 21
288.4999991056247
 31
0.0
1001
GENIUS_GENREC_14
1002
{
1000
PYDIR
1011
0.0000017428819774
1021
296.9999991056247
1031
0.0
1002
}
1002
{
1000
PXDIR
1011
420.0000017428816
1021
-0.0000008943752619
1031
0.0
1002
}
1002
{
1000
PORI
1011
0.0000017428819774
1021
-0.0000008943752619
1031
0.0
1002
}
1002
{
1000
PINS
1011
210.000001742882
1021
148.4999991056247
1031
0.0
1002
}
1002
{
1000
HVAL
1000
297
1002
}
1002
{
1000
H
1070
     2
1002
}
1002
{
1000
WVAL
1000
420
1002
}
1002
{
1000
W
1070
     2
1002
}
1002
{
1000
C
1070
     4
1002
}
1001
GENIUS_GENOBJ-N-REC_13
1002
{
1000
OWNER
1000
GEN
1002
}
1001
GENIUS_GENODEF_13
1002
{
1000
HIER
1070
     0
1002
}
1002
{
1000
MANEDIT
1070
     0
1002
}
1002
{
1000
NOSEL
1070
     0
1002
}
1002
{
1000
BEHIND
1070
     0
1002
}
1002
{
1000
OTHER
1070
     0
1002
}
1002
{
1000
REACTOR
1002
}
  0
LINE
  5
B375
330
1F
100
AcDbEntity
  8
waku
100
AcDbLine
 10
11.50000174288198
 20
288.4999991056247
 30
0.0
 11
11.50000174288198
 21
8.499999105624738
 31
0.0
1001
GENIUS_GENREC_14
1002
{
1000
PYDIR
1011
0.0000017428819774
1021
296.9999991056247
1031
0.0
1002
}
1002
{
1000
PXDIR
1011
420.0000017428816
1021
-0.0000008943752619
1031
0.0
1002
}
1002
{
1000
PORI
1011
0.0000017428819774
1021
-0.0000008943752619
1031
0.0
1002
}
1002
{
1000
PINS
1011
210.000001742882
1021
148.4999991056247
1031
0.0
1002
}
1002
{
1000
HVAL
1000
297
1002
}
1002
{
1000
H
1070
     2
1002
}
1002
{
1000
WVAL
1000
420
1002
}
1002
{
1000
W
1070
     2
1002
}
1002
{
1000
C
1070
     4
1002
}
1001
GENIUS_GENOBJ-N-REC_13
1002
{
1000
OWNER
1000
GEN
1002
}
1001
GENIUS_GENODEF_13
1002
{
1000
HIER
1070
     0
1002
}
1002
{
1000
MANEDIT
1070
     0
1002
}
1002
{
1000
NOSEL
1070
     0
1002
}
1002
{
1000
BEHIND
1070
     0
1002
}
1002
{
1000
OTHER
1070
     0
1002
}
1002
{
1000
REACTOR
1002
}
  0
LINE
  5
B376
330
1F
100
AcDbEntity
  8
waku
100
AcDbLine
 10
408.500001742882
 20
288.4999991056247
 30
0.0
 11
11.50000174288198
 21
288.4999991056247
 31
0.0
1001
GENIUS_GENREC_14
1002
{
1000
PYDIR
1011
0.0000017428819774
1021
296.9999991056247
1031
0.0
1002
}
1002
{
1000
PXDIR
1011
420.0000017428816
1021
-0.0000008943752619
1031
0.0
1002
}
1002
{
1000
PORI
1011
0.0000017428819774
1021
-0.0000008943752619
1031
0.0
1002
}
1002
{
1000
PINS
1011
210.000001742882
1021
148.4999991056247
1031
0.0
1002
}
1002
{
1000
HVAL
1000
297
1002
}
1002
{
1000
H
1070
     2
1002
}
1002
{
1000
WVAL
1000
420
1002
}
1002
{
1000
W
1070
     2
1002
}
1002
{
1000
C
1070
     4
1002
}
1001
GENIUS_GENOBJ-N-REC_13
1002
{
1000
OWNER
1000
GEN
1002
}
1001
GENIUS_GENODEF_13
1002
{
1000
HIER
1070
     0
1002
}
1002
{
1000
MANEDIT
1070
     0
1002
}
1002
{
1000
NOSEL
1070
     0
1002
}
1002
{
1000
BEHIND
1070
     0
1002
}
1002
{
1000
OTHER
1070
     0
1002
}
1002
{
1000
REACTOR
1002
}
  0
LINE
  5
B377
330
1F
100
AcDbEntity
  8
waku
100
AcDbLine
 10
11.50000174288198
 20
8.499999105624738
 30
0.0
 11
408.500001742882
 21
8.499999105624738
 31
0.0
  0
LINE
  5
B378
330
1F
100
AcDbEntity
  8
AM_0
100
AcDbLine
 10
11.50000174288198
 20
288.4999991056247
 30
0.0
 11
121.500001742882
 21
288.4999991056247
 31
0.0
  0
LINE
  5
B379
330
1F
100
AcDbEntity
  8
AM_0
100
AcDbLine
 10
11.50000174288197
 20
208.4999991056246
 30
0.0
 11
121.500001742882
 21
208.4999991056246
 31
0.0
  0
LINE
  5
B37A
330
1F
100
AcDbEntity
  8
AM_2
100
AcDbLine
 10
31.50000174288198
 20
216.4999991056246
 30
0.0
 11
121.500001742882
 21
216.4999991056246
 31
0.0
  0
LINE
  5
B37B
330
1F
100
AcDbEntity
  8
AM_2
100
AcDbLine
 10
31.50000174288198
 20
224.4999991056246
 30
0.0
 11
121.500001742882
 21
224.4999991056246
 31
0.0
  0
LINE
  5
B37C
330
1F
100
AcDbEntity
  8
AM_2
100
AcDbLine
 10
11.50000174288197
 20
232.4999991056245
 30
0.0
 11
121.500001742882
 21
232.4999991056245
 31
0.0
  0
LINE
  5
B37D
330
1F
100
AcDbEntity
  8
AM_2
100
AcDbLine
 10
31.50000174288198
 20
232.4999991056245
 30
0.0
 11
121.500001742882
 21
232.4999991056245
 31
0.0
  0
LINE
  5
B37E
330
1F
100
AcDbEntity
  8
AM_2
100
AcDbLine
 10
31.50000174288198
 20
232.4999991056245
 30
0.0
 11
121.500001742882
 21
232.4999991056245
 31
0.0
  0
LINE
  5
B37F
330
1F
100
AcDbEntity
  8
AM_2
100
AcDbLine
 10
11.50000174288197
 20
240.4999991056246
 30
0.0
 11
121.500001742882
 21
240.4999991056246
 31
0.0
  0
LINE
  5
B380
330
1F
100
AcDbEntity
  8
AM_2
100
AcDbLine
 10
11.50000174288197
 20
256.4999991056247
 30
0.0
 11
121.500001742882
 21
256.4999991056247
 31
0.0
  0
LINE
  5
B381
330
1F
100
AcDbEntity
  8
AM_2
100
AcDbLine
 10
11.50000174288198
 20
272.4999991056247
 30
0.0
 11
121.500001742882
 21
272.4999991056247
 31
0.0
  0
LINE
  5
B382
330
1F
100
AcDbEntity
  8
AM_2
100
AcDbLine
 10
11.50000174288198
 20
280.4999991056247
 30
0.0
 11
121.500001742882
 21
280.4999991056247
 31
0.0
  0
LINE
  5
B383
330
1F
100
AcDbEntity
  8
AM_0
100
AcDbLine
 10
11.50000174288198
 20
288.4999991056247
 30
0.0
 11
11.50000174288197
 21
208.4999991056246
 31
0.0
  0
LINE
  5
B384
330
1F
100
AcDbEntity
  8
AM_2
100
AcDbLine
 10
31.50000174288198
 20
288.4999991056247
 30
0.0
 11
31.50000174288198
 21
208.4999991056246
 31
0.0
  0
MTEXT
  5
B385
330
1F
100
AcDbEntity
  8
AM_6
100
AcDbMText
 10
21.50000174288198
 20
228.4999991056245
 30
0.0
 40
3.2
 41
20.0
 71
     5
 72
     5
  1
備　考
 73
     1
 44
1.0
1001
ACAD
1000
MTEXTBEGIN
1070
    73
1070
     1
1070
    44
1040
1.0
1070
    74
1070
     0
1000
MTEXTEND
  0
MTEXT
  5
B386
330
1F
100
AcDbEntity
  8
AM_6
100
AcDbMText
 10
31.50000174288198
 20
212.4999991056246
 30
0.0
 40
3.2
 41
90.0
 71
     4
 72
     5
  1
　※
 73
     1
 44
1.0
1001
ACAD
1000
MTEXTBEGIN
1070
    73
1070
     1
1070
    44
1040
1.0
1070
    74
1070
     0
1000
MTEXTEND
  0
MTEXT
  5
B388
330
1F
100
AcDbEntity
  8
AM_6
100
AcDbMText
 10
31.50000174288198
 20
228.4999991056245
 30
0.0
 40
3.2
 41
90.0
 71
     4
 72
     5
  1
　※
 73
     1
 44
1.0
1001
ACAD
1000
MTEXTBEGIN
1070
    73
1070
     1
1070
    44
1040
1.0
1070
    74
1070
     0
1000
MTEXTEND
  0
MTEXT
  5
B38A
330
1F
100
AcDbEntity
  8
AM_6
100
AcDbMText
 10
21.50000174288198
 20
252.4999991056247
 30
0.0
 40
3.2
 41
20.0
 71
     5
 72
     5
  1
仕上げ
 73
     1
 44
1.0
1001
ACAD
1000
MTEXTBEGIN
1070
    73
1070
     1
1070
    44
1040
1.0
1070
    74
1070
     0
1000
MTEXTEND
  0
MTEXT
  5
B38B
330
1F
100
AcDbEntity
  8
AM_6
100
AcDbMText
 10
21.50000174288198
 20
236.4999991056246
 30
0.0
 40
3.2
 41
20.0
 71
     5
 72
     5
  1
左右勝手
 73
     1
 44
1.0
1001
ACAD
1000
MTEXTBEGIN
1070
    73
1070
     1
1070
    44
1040
1.0
1070
    74
1070
     0
1000
MTEXTEND
  0
MTEXT
  5
B38C
330
1F
100
AcDbEntity
  8
AM_6
100
AcDbMText
 10
21.50000174288198
 20
268.4999991056248
 30
0.0
 40
3.2
 41
20.0
 71
     5
 72
     5
  1
材　質
 73
     1
 44
1.0
1001
ACAD
1000
MTEXTBEGIN
1070
    73
1070
     1
1070
    44
1040
1.0
1070
    74
1070
     0
1000
MTEXTEND
  0
MTEXT
  5
B38D
330
1F
100
AcDbEntity
  8
AM_6
100
AcDbMText
 10
21.50000174288198
 20
284.4999991056247
 30
0.0
 40
3.2
 41
20.0
 71
     5
 72
     5
  1
品　名
 73
     1
 44
1.0
1001
ACAD
1000
MTEXTBEGIN
1070
    73
1070
     1
1070
    44
1040
1.0
1070
    74
1070
     0
1000
MTEXTEND
  0
MTEXT
  5
B38E
330
1F
100
AcDbEntity
  8
AM_6
100
AcDbMText
 10
21.50000174288198
 20
276.4999991056247
 30
0.0
 40
3.2
 41
20.0
 71
     5
 72
     5
  1
品　番
 73
     1
 44
1.0
1001
ACAD
1000
MTEXTBEGIN
1070
    73
1070
     1
1070
    44
1040
1.0
1070
    74
1070
     0
1000
MTEXTEND
  0
MTEXT
  5
B38F
330
1F
100
AcDbEntity
  8
AM_6
100
AcDbMText
 10
31.50000174288198
 20
252.4999991056247
 30
0.0
 40
3.2
 41
90.0
 71
     4
 72
     5
  1
　ロット棒：有色クロメート
 73
     1
 44
1.0
1001
ACAD
1000
MTEXTBEGIN
1070
    73
1070
     1
1070
    44
1040
1.0
1070
    74
1070
     0
1000
MTEXTEND
  0
MTEXT
  5
B390
330
1F
100
AcDbEntity
  8
AM_6
100
AcDbMText
 10
31.50000174288198
 20
268.4999991056248
 30
0.0
 40
3.2
 41
90.0
 71
     4
 72
     5
  1
　ロット棒：スチール
 73
     1
 44
1.0
1001
ACAD
1000
MTEXTBEGIN
1070
    73
1070
     1
1070
    44
1040
1.0
1070
    74
1070
     0
1000
MTEXTEND
  0
MTEXT
  5
B391
330
1F
100
AcDbEntity
  8
AM_6
100
AcDbMText
 10
31.50000174288198
 20
276.4999991056247
 30
0.0
 40
3.2
 41
90.0
 71
     4
 72
     5
  1
　SLB-13
 73
     1
 44
1.0
1001
ACAD
1000
MTEXTBEGIN
1070
    73
1070
     1
1070
    44
1040
1.0
1070
    74
1070
     0
1000
MTEXTEND
  0
MTEXT
  5
B392
330
1F
100
AcDbEntity
  8
AM_6
100
AcDbMText
 10
31.50000174288198
 20
284.4999991056247
 30
0.0
 40
3.2
 41
90.0
 71
     4
 72
     5
  1
　引戸錠用ロット棒
 73
     1
 44
1.0
1001
ACAD
1000
MTEXTBEGIN
1070
    73
1070
     1
1070
    44
1040
1.0
1070
    74
1070
     0
1000
MTEXTEND
  0
LINE
  5
B393
330
1F
100
AcDbEntity
  8
AM_0
100
AcDbLine
 10
121.500001742882
 20
288.4999991056247
 30
0.0
 11
121.500001742882
 21
208.4999991056246
 31
0.0
  0
LINE
  5
B394
330
1F
100
AcDbEntity
  8
AM_2
100
AcDbLine
 10
31.50000174288198
 20
256.4999991056247
 30
0.0
 11
121.500001742882
 21
256.4999991056247
 31
0.0
  0
LINE
  5
B395
330
1F
100
AcDbEntity
  8
AM_2
100
AcDbLine
 10
31.50000174288198
 20
240.4999991056246
 30
0.0
 11
121.500001742882
 21
240.4999991056246
 31
0.0
  0
LINE
  5
B396
330
1F
100
AcDbEntity
  8
AM_2
100
AcDbLine
 10
31.50000174288198
 20
240.4999991056246
 30
0.0
 11
121.500001742882
 21
240.4999991056246
 31
0.0
  0
MTEXT
  5
B4D3
330
1F
100
AcDbEntity
  8
AM_6
100
AcDbMText
 10
31.50000174288198
 20
220.4999991056246
 30
0.0
 40
3.2
 41
90.0
 71
     4
 72
     5
  1
　※
 73
     1
 44
1.0
1001
ACAD
1000
MTEXTBEGIN
1070
    73
1070
     1
1070
    44
1040
1.0
1070
    74
1070
     0
1000
MTEXTEND
  0
MTEXT
  5
B6AB
330
1F
100
AcDbEntity
  8
AM_6
100
AcDbMText
 10
31.50000174288198
 20
236.4999991056246
 30
0.0
 40
3.2
 41
90.0
 71
     4
 72
     5
  1
　※
 73
     1
 44
1.0
1001
ACAD
1000
MTEXTBEGIN
1070
    73
1070
     1
1070
    44
1040
1.0
1070
    74
1070
     0
1000
MTEXTEND
  0
DIMENSION
  5
C687
330
1F
100
AcDbEntity
  8
AM_5
100
AcDbDimension
  2
*D26
 10
211.3257038906262
 20
47.79190202936866
 30
0.0
 11
211.3257038906262
 21
130.0039801238497
 31
0.0
 70
   160
  1
定尺Ｌ＝620
 71
     5
 42
165.000007629393
  3
SYS$0
100
AcDbAlignedDimension
 13
239.7822850063461
 23
212.7919096587616
 33
0.0
 14
241.2823002651363
 24
47.79190202936866
 34
0.0
 50
270.0
100
AcDbRotatedDimension
1001
ACAD
1000
DSTYLE
1002
{
1070
    40
1040
1.0
1070
    41
1040
1.0
1070
    45
1040
1.0
1070
   140
1040
3.2
1070
   173
1070
     1
1070
   271
1070
     0
1070
   284
1070
     8
1070
   341
1005
A66
1070
   343
1005
6C4
1070
   344
1005
6C4
1002
}
  0
DIMENSION
  5
C689
330
1F
100
AcDbEntity
  8
AM_5
100
AcDbDimension
  2
*D27
 10
247.2823002651363
 20
34.95305773005163
 30
0.0
 11
256.2823307827163
 21
34.95305773005163
 31
0.0
 70
   160
  1
\U+22056
 71
     5
 42
6.0
  3
SYS$0
100
AcDbAlignedDimension
 13
241.2823002651363
 23
47.79190202936866
 33
0.0
 14
247.2823002651363
 24
47.79190202936866
 34
0.0
100
AcDbRotatedDimension
1001
ACAD
1000
DSTYLE
1002
{
1070
    40
1040
1.0
1070
    41
1040
1.0
1070
    45
1040
1.0
1070
   140
1040
3.2
1070
   173
1070
     1
1070
   271
1070
     0
1070
   284
1070
     8
1070
   341
1005
A66
1070
   343
1005
6C4
1070
   344
1005
6C4
1002
}
  0
DIMENSION
  5
C68A
330
1F
100
AcDbEntity
  8
AM_5
100
AcDbDimension
  2
*D28
 10
220.4955799892563
 20
152.7919020293676
 30
0.0
 11
220.4955799892563
 21
182.9371275542616
 31
0.0
 70
   160
  1
<>
 71
     5
 42
60.00000762939397
  3
SYS$0
100
AcDbAlignedDimension
 13
239.7822850063461
 23
212.7919096587616
 33
0.0
 14
238.2822850063461
 24
152.7919020293676
 34
0.0
 50
270.0
100
AcDbRotatedDimension
1001
ACAD
1000
DSTYLE
1002
{
1070
    40
1040
1.0
1070
    41
1040
1.0
1070
    45
1040
1.0
1070
   140
1040
3.2
1070
   173
1070
     1
1070
   271
1070
     0
1070
   284
1070
     8
1070
   341
1005
A66
1070
   343
1005
6C4
1070
   344
1005
6C4
1002
}
  0
DIMENSION
  5
C68B
330
1F
100
AcDbEntity
  8
AM_5
100
AcDbDimension
  2
*D29
 10
220.4955799892563
 20
47.79190202936866
 30
0.0
 11
220.4955799892563
 21
100.2919020293676
 31
0.0
 70
   160
  1
560
 71
     5
 42
104.999999999999
  3
SYS$0
100
AcDbAlignedDimension
 13
238.2822850063461
 23
152.7919020293676
 33
0.0
 14
241.2823002651363
 24
47.79190202936866
 34
0.0
 50
270.0
100
AcDbRotatedDimension
1001
ACAD
1000
DSTYLE
1002
{
1070
    40
1040
1.0
1070
    41
1040
1.0
1070
    45
1040
1.0
1070
    75
1070
     1
1070
   140
1040
3.2
1070
   173
1070
     1
1070
   271
1070
     0
1070
   284
1070
     8
1070
   341
1005
A66
1070
   343
1005
6C4
1070
   344
1005
6C4
1002
}
  0
DIMENSION
  5
C68D
330
1F
100
AcDbEntity
  8
AM_5
100
AcDbDimension
  2
*D30
 10
222.1637852504861
 20
249.4919066070016
 30
0.0
 11
222.1637852504861
 21
244.3285383819036
 31
0.0
 70
   160
  1
<>
 71
     5
 42
10.0
  3
SYS$0
100
AcDbAlignedDimension
 13
241.395535738766
 23
239.4919066070016
 33
0.0
 14
241.395550997556
 24
249.4919066070016
 34
0.0
 50
90.0
100
AcDbRotatedDimension
1001
ACAD
1000
DSTYLE
1002
{
1070
    40
1040
1.0
1070
    41
1040
1.0
1070
    45
1040
1.0
1070
   140
1040
3.2
1070
   173
1070
     1
1070
   271
1070
     0
1070
   284
1070
     8
1070
   341
1005
A66
1070
   343
1005
6C4
1070
   344
1005
6C4
1002
}
  0
DIMENSION
  5
C68E
330
1F
100
AcDbEntity
  8
AM_5
100
AcDbDimension
  2
*D31
 10
229.0722019985361
 20
244.4919066070017
 30
0.0
 11
229.0722019985361
 21
241.9919066070017
 31
0.0
 70
   160
  1
〃
 71
     5
 42
5.0
  3
SYS$0
100
AcDbAlignedDimension
 13
241.395535738766
 23
239.4919066070016
 33
0.0
 14
235.9827244594761
 24
244.4919066070017
 34
0.0
 50
90.0
100
AcDbRotatedDimension
1001
ACAD
1000
DSTYLE
1002
{
1070
    40
1040
1.0
1070
    41
1040
1.0
1070
    45
1040
1.0
1070
   140
1040
3.2
1070
   173
1070
     1
1070
   271
1070
     0
1070
   284
1070
     8
1070
   341
1005
A66
1070
   343
1005
6C4
1070
   344
1005
6C4
1002
}
  0
DIMENSION
  5
C68F
330
1F
100
AcDbEntity
  8
AM_5
100
AcDbDimension
  2
*D32
 10
229.0722019985361
 20
244.4919066070017
 30
0.0
 11
229.0722019985361
 21
246.9919066070016
 31
0.0
 70
   160
  1
〃
 71
     5
 42
5.0
  3
SYS$0
100
AcDbAlignedDimension
 13
241.395535738766
 23
249.4919066070016
 33
0.0
 14
235.9827244594761
 24
244.4919066070017
 34
0.0
 50
90.0
100
AcDbRotatedDimension
1001
ACAD
1000
DSTYLE
1002
{
1070
    40
1040
1.0
1070
    41
1040
1.0
1070
    45
1040
1.0
1070
   140
1040
3.2
1070
   173
1070
     1
1070
   271
1070
     0
1070
   284
1070
     8
1070
   341
1005
A66
1070
   343
1005
6C4
1070
   344
1005
6C4
1002
}
  0
DIMENSION
  5
C690
330
1F
100
AcDbEntity
  8
AM_5
100
AcDbDimension
  2
*D33
 10
250.0557988002961
 20
258.4060759185247
 30
0.0
 11
244.062176974126
 21
258.4060759185247
 31
0.0
 70
   160
  1
(11.6)
 71
     5
 42
11.54701232909997
  3
SYS$0
100
AcDbAlignedDimension
 13
238.5087864711961
 23
244.4918837188176
 33
0.0
 14
250.0557988002961
 24
244.4918837188176
 34
0.0
100
AcDbRotatedDimension
1001
ACAD
1000
DSTYLE
1002
{
1070
    40
1040
1.0
1070
    41
1040
1.0
1070
    45
1040
1.0
1070
   140
1040
3.2
1070
   173
1070
     1
1070
   271
1070
     0
1070
   279
1070
     1
1070
   284
1070
     8
1070
   341
1005
A66
1070
   343
1005
6C4
1070
   344
1005
6C4
1002
}
  0
LINE
  5
C691
330
1F
100
AcDbEntity
  8
AM_0
100
AcDbLine
 10
247.2822850063461
 20
152.7919020293676
 30
0.0
 11
247.2822850063461
 21
116.7919020293676
 31
0.0
  0
LINE
  5
C692
330
1F
100
AcDbEntity
  8
AM_0
100
AcDbLine
 10
241.2822850063461
 20
152.7919020293676
 30
0.0
 11
241.2822850063461
 21
116.7919020293676
 31
0.0
  0
LINE
  5
C693
330
1F
100
AcDbEntity
  8
AM_0
100
AcDbLine
 10
241.2823002651363
 20
114.7919020293676
 30
0.0
 11
241.2823002651363
 21
47.79190202936866
 31
0.0
  0
LINE
  5
C694
330
1F
100
AcDbEntity
  8
AM_0
100
AcDbLine
 10
247.2823002651363
 20
114.7919020293676
 30
0.0
 11
247.2823002651363
 21
47.79190202936866
 31
0.0
  0
LINE
  5
C695
330
1F
100
AcDbEntity
  8
AM_0
 48
0.5
100
AcDbLine
 10
247.2823002651363
 20
47.79190202936866
 30
0.0
 11
241.2823002651363
 21
47.79190202936866
 31
0.0
  0
LINE
  5
C696
330
1F
100
AcDbEntity
  8
AM_10
 48
0.5
100
AcDbLine
 10
234.2822850063461
 20
116.7919020293676
 30
0.0
 11
254.2822850063461
 21
116.7919020293676
 31
0.0
  0
LINE
  5
C697
330
1F
100
AcDbEntity
  8
AM_10
 48
0.5
100
AcDbLine
 10
234.2822850063461
 20
114.7919020293676
 30
0.0
 11
254.2822850063461
 21
114.7919020293676
 31
0.0
  0
LINE
  5
C698
330
1F
100
AcDbEntity
  8
AM_2
 48
0.5
100
AcDbLine
 10
247.2822850063461
 20
142.7919020293676
 30
0.0
 11
246.4822819545863
 21
143.5918974517306
 31
0.0
  0
LINE
  5
C699
330
1F
100
AcDbEntity
  8
AM_2
 48
0.5
100
AcDbLine
 10
246.4822819545863
 20
152.7919020293676
 30
0.0
 11
246.4822819545863
 21
143.5919050811255
 31
0.0
  0
LINE
  5
C69A
330
1F
100
AcDbEntity
  8
AM_2
 48
0.5
100
AcDbLine
 10
241.2822850063461
 20
142.7919020293676
 30
0.0
 11
247.2822850063461
 21
142.7919020293676
 31
0.0
  0
LINE
  5
C69B
330
1F
100
AcDbEntity
  8
AM_2
 48
0.5
100
AcDbLine
 10
242.0822880581062
 20
152.7919020293676
 30
0.0
 11
242.0822880581062
 21
143.5919050811255
 31
0.0
  0
LINE
  5
C69C
330
1F
100
AcDbEntity
  8
AM_2
 48
0.5
100
AcDbLine
 10
242.0822804287062
 20
143.5918974517306
 30
0.0
 11
241.2822773769461
 21
142.7918943999726
 31
0.0
  0
LINE
  5
C6A9
330
1F
100
AcDbEntity
  8
AM_7
100
AcDbLine
 10
244.2822850063461
 20
212.7919096587616
 30
0.0
 11
244.2822850063461
 21
42.08228059992467
 31
0.0
  0
LINE
  5
C6AD
330
1F
100
AcDbEntity
  8
AM_7
 48
0.5
100
AcDbLine
 10
235.9827244594761
 20
244.4919066070017
 30
0.0
 11
253.191754610836
 21
244.4919066070017
 31
0.0
  0
LINE
  5
C6AE
330
1F
100
AcDbEntity
  8
AM_7
 48
0.5
100
AcDbLine
 10
244.2822850063461
 20
252.4756178496776
 30
0.0
 11
244.2822850063461
 21
236.0716795562208
 31
0.0
  0
LINE
  5
C6AF
330
1F
100
AcDbEntity
  8
AM_0
 48
0.5
100
AcDbLine
 10
241.395535738766
 20
239.4919066070016
 30
0.0
 11
247.169049532716
 21
239.4919066070016
 31
0.0
  0
LINE
  5
C6B0
330
1F
100
AcDbEntity
  8
AM_0
 48
0.5
100
AcDbLine
 10
241.395550997556
 20
249.4919066070016
 30
0.0
 11
247.1690342739261
 21
249.4919066070016
 31
0.0
  0
LINE
  5
C6B1
330
1F
100
AcDbEntity
  8
AM_0
 48
0.5
100
AcDbLine
 10
247.1690342739261
 20
249.4918913482127
 30
0.0
 11
250.0557988002961
 21
244.4918684600287
 31
0.0
  0
LINE
  5
C6B2
330
1F
100
AcDbEntity
  8
AM_0
 48
0.5
100
AcDbLine
 10
238.5088017299861
 20
244.4918760894236
 30
0.0
 11
241.395535738766
 21
239.4918913482127
 31
0.0
  0
LINE
  5
C6B3
330
1F
100
AcDbEntity
  8
AM_0
 48
0.5
100
AcDbLine
 10
247.169049532716
 20
239.4919142363956
 30
0.0
 11
250.0557988002961
 21
244.4918913482127
 31
0.0
  0
LINE
  5
C6B4
330
1F
100
AcDbEntity
  8
AM_0
 48
0.5
100
AcDbLine
 10
238.5087864711961
 20
244.4918913482127
 30
0.0
 11
241.395550997556
 21
249.4919142363956
 31
0.0
  0
LINE
  5
C6D4
330
1F
100
AcDbEntity
  8
AM_0
 48
0.5
100
AcDbLine
 10
240.0087635830063
 20
212.7918943999716
 30
0.0
 11
238.5087712123962
 21
211.2919096587617
 31
0.0
  0
LINE
  5
C6D5
330
1F
100
AcDbEntity
  8
AM_0
100
AcDbLine
 10
250.0557835414962
 20
211.2919096587617
 30
0.0
 11
250.0557835414962
 21
152.7919020293676
 31
0.0
  0
LINE
  5
C6D6
330
1F
100
AcDbEntity
  8
AM_0
100
AcDbLine
 10
241.3955204799762
 20
211.2919096587617
 30
0.0
 11
241.3955204799762
 21
152.7919020293676
 31
0.0
  0
LINE
  5
C6D7
330
1F
100
AcDbEntity
  8
AM_0
 48
0.5
100
AcDbLine
 10
250.0557835414962
 20
211.2919096587617
 30
0.0
 11
248.5557835414962
 21
212.7919096587616
 31
0.0
  0
LINE
  5
C6D8
330
1F
100
AcDbEntity
  8
AM_0
 48
0.5
100
AcDbLine
 10
238.5087712123962
 20
152.7919020293676
 30
0.0
 11
250.0557835414962
 21
152.7919020293676
 31
0.0
  0
LINE
  5
C6E7
330
1F
100
AcDbEntity
  8
AM_7
 48
0.5
100
AcDbLine
 10
244.2822850063461
 20
218.8961882232117
 30
0.0
 11
244.2822850063461
 21
212.7919096587616
 31
0.0
  0
LINE
  5
C6E8
330
1F
100
AcDbEntity
  8
AM_0
 48
0.5
100
AcDbLine
 10
238.5087712123962
 20
211.2919096587617
 30
0.0
 11
250.0557835414962
 21
211.2919096587617
 31
0.0
  0
LINE
  5
C6E9
330
1F
100
AcDbEntity
  8
AM_0
 48
0.5
100
AcDbLine
 10
240.0087712123962
 20
212.7919096587616
 30
0.0
 11
248.5557835414962
 21
212.7919096587616
 31
0.0
  0
LINE
  5
C6EA
330
1F
100
AcDbEntity
  8
AM_0
100
AcDbLine
 10
238.5087712123962
 20
211.2919096587617
 30
0.0
 11
238.5087712123962
 21
152.7919020293676
 31
0.0
  0
LINE
  5
C6EB
330
1F
100
AcDbEntity
  8
AM_0
100
AcDbLine
 10
247.1690342739263
 20
211.2919096587617
 30
0.0
 11
247.1690342739263
 21
152.7919020293676
 31
0.0
  0
ARC
  5
C6ED
330
1F
100
AcDbEntity
  8
AM_0
 48
0.5
100
AcDbCircle
 10
250.368573458496
 20
248.0058149932317
 30
0.0
 40
3.527825117111198
100
AcDbArc
 50
155.0865894830112
 51
264.913422204554
  0
ARC
  5
C6EE
330
1F
100
AcDbEntity
  8
AM_0
 48
0.5
100
AcDbCircle
 10
250.3684971645561
 20
240.9780211089547
 30
0.0
 40
3.527747154235798
100
AcDbArc
 50
95.08549498309021
 51
204.9145133651684
  0
ARC
  5
C6EF
330
1F
100
AcDbEntity
  8
AM_0
 48
0.5
100
AcDbCircle
 10
244.282300265136
 20
237.4641050933297
 30
0.0
 40
3.527801990508998
100
AcDbArc
 50
35.08605338894787
 51
144.9139516200002
  0
ARC
  5
C6F0
330
1F
100
AcDbEntity
  8
AM_0
 48
0.5
100
AcDbCircle
 10
238.1961033657261
 20
240.9780363677437
 30
0.0
 40
3.527730464935298
100
AcDbArc
 50
335.0851091531926
 51
84.91489251645878
  0
CIRCLE
  5
C6F3
330
1F
100
AcDbEntity
  8
AM_0
 48
0.5
100
AcDbCircle
 10
244.2823002651361
 20
244.4919066070017
 30
0.0
 40
3.5
  0
ARC
  5
C6F4
330
1F
100
AcDbEntity
  8
AM_0
 48
0.5
100
AcDbCircle
 10
244.2823002651361
 20
251.5196623443067
 30
0.0
 40
3.5277535915375
100
AcDbArc
 50
215.0856522290247
 51
324.9143666676823
  0
ARC
  5
C6F5
330
1F
100
AcDbEntity
  8
AM_0
 48
0.5
100
AcDbCircle
 10
238.196027071776
 20
248.0057997344427
 30
0.0
 40
3.5278084278107
100
AcDbArc
 50
275.0862003138051
 51
24.91379801653613
  0
ARC
  5
C701
330
1F
100
AcDbEntity
  8
AM_0
 48
0.5
100
AcDbCircle
 10
244.2822850063461
 20
209.2641081450817
 30
0.0
 40
3.527801990508998
100
AcDbArc
 50
35.08604906323997
 51
144.9139472942896
  0
ELLIPSE
  5
C702
330
1F
100
AcDbEntity
  8
AM_0
 48
0.5
100
AcDbEllipse
 10
248.6124089077164
 20
211.2919096587617
 30
0.0
 11
2.024307272630009
 21
-1.293548728670004
 31
0.0
210
0.0
220
0.0
230
1.0
 40
0.3751574035129001
 41
1.039529045292243
 42
3.857183758866416
  0
ELLIPSE
  5
C703
330
1F
100
AcDbEntity
  8
AM_0
 48
0.5
100
AcDbEllipse
 10
239.9521458461862
 20
211.2919096587617
 30
0.0
 11
2.02430731375
 21
1.293548664320012
 31
0.0
210
0.0
220
0.0
230
1.0
 40
0.3751574035129
 41
5.567570320558949
 42
8.384932421279433
  0
LINE
  5
CA12
330
1F
100
AcDbEntity
  8
AM_2
100
AcDbLine
 10
242.0822804287062
 20
143.5918974517306
 30
0.0
 11
246.4822819545863
 21
143.5919050811255
 31
0.0
  0
LINE
  5
CA15
330
1F
100
AcDbEntity
  8
AM_2
100
AcDbLine
 10
31.50000174288198
 20
264.4999991056247
 30
0.0
 11
121.500001742882
 21
264.4999991056247
 31
0.0
  0
MTEXT
  5
CA16
330
1F
100
AcDbEntity
  8
AM_6
100
AcDbMText
 10
31.50000174288198
 20
260.4999991056247
 30
0.0
 40
3.2
 41
90.0
 71
     4
 72
     5
  1
　ロットキャップ：真鍮
 73
     1
 44
1.0
1001
ACAD
1000
MTEXTBEGIN
1070
    73
1070
     1
1070
    44
1040
1.0
1070
    74
1070
     0
1000
MTEXTEND
  0
LINE
  5
CA1A
330
1F
100
AcDbEntity
  8
AM_2
100
AcDbLine
 10
31.50000174288198
 20
248.4999991056246
 30
0.0
 11
121.500001742882
 21
248.4999991056246
 31
0.0
  0
MTEXT
  5
CA1B
330
1F
100
AcDbEntity
  8
AM_6
100
AcDbMText
 10
31.50000174288198
 20
244.4999991056246
 30
0.0
 40
3.2
 41
90.0
 71
     4
 72
     5
  1
　ロットキャップ：ニッケルメッキ
 73
     1
 44
1.0
1001
ACAD
1000
MTEXTBEGIN
1070
    73
1070
     1
1070
    44
1040
1.0
1070
    74
1070
     0
1000
MTEXTEND
  0
ENDSEC
  0
SECTION
  2
OBJECTS
  0
DICTIONARY
  5
C
330
0
100
AcDbDictionary
281
     1
  3
ACAD_2007HEADERVARS_RT
350
CB75
  3
ACAD_BGPLOT_KEY
350
AB06
  3
ACAD_COLOR
350
A91D
  3
ACAD_GROUP
350
D
  3
ACAD_LAYOUT
350
1A
  3
ACAD_MATERIAL
350
A91C
  3
ACAD_MLINESTYLE
350
17
  3
ACAD_PLOTSETTINGS
350
19
  3
ACAD_PLOTSTYLENAME
350
E
  3
ACAD_TABLESTYLE
350
AAB9
  3
ACAD_VISUALSTYLE
350
CAD4
  3
AcAsAppObject
350
3DA1
  3
ACASGREF_MASTER
350
3DE9
  3
AcDbVariableDictionary
350
34
  3
AcmDictionary
350
47
  3
AD_GREF_MODULE
350
3DEA
  3
AD_MAPI_MODULE
350
3E06
  3
AMG
350
2B
  3
AMGSNAPSETTINGS
350
7D
  3
ASE_INDEX_DICTIONARY
350
9F48
  3
DWGPROPS
350
CB74
  3
MAPISURF_MODULE
350
3DEB
  0
DICTIONARY
  5
3F95
330
2
100
AcDbDictionary
280
     1
281
     1
  3
ACAD_LAYERFILTERS
360
AF79
  3
ACAD_LAYERSTATES
360
3F96
  3
ACLYDICTIONARY
360
AF78
  3
AMLAYER_GROUPCOLORS
360
AAB4
  0
DICTIONARY
  5
8A
330
1F
100
AcDbDictionary
280
     1
281
     1
  3
ACAD_SORTENTS
360
BADB
  0
DICTIONARY
  5
CB75
102
{ACAD_REACTORS
330
C
102
}
330
C
100
AcDbDictionary
281
     1
  3
DIMARCSYM
350
CB76
  0
DICTIONARY
  5
AB06
102
{ACAD_REACTORS
330
C
102
}
330
C
100
AcDbDictionary
280
     1
281
     1
  0
DICTIONARY
  5
A91D
102
{ACAD_REACTORS
330
C
102
}
330
C
100
AcDbDictionary
281
     1
  0
DICTIONARY
  5
D
102
{ACAD_REACTORS
330
C
102
}
330
C
100
AcDbDictionary
281
     1
  0
DICTIONARY
  5
1A
102
{ACAD_REACTORS
330
C
102
}
330
C
100
AcDbDictionary
281
     1
  3
Model
350
22
  3
ﾚｲｱｳﾄ1
350
1E
  3
ﾚｲｱｳﾄ2
350
26
  0
DICTIONARY
  5
A91C
102
{ACAD_REACTORS
330
C
102
}
330
C
100
AcDbDictionary
281
     1
  3
ByBlock
350
CAD2
  3
ByLayer
350
CAD1
  3
Global
350
CAD3
  0
DICTIONARY
  5
17
102
{ACAD_REACTORS
330
C
102
}
330
C
100
AcDbDictionary
281
     1
  3
Standard
350
18
  0
DICTIONARY
  5
19
102
{ACAD_REACTORS
330
C
102
}
330
C
100
AcDbDictionary
281
     1
  0
ACDBDICTIONARYWDFLT
  5
E
102
{ACAD_REACTORS
330
C
102
}
330
C
100
AcDbDictionary
281
     1
  3
Normal
350
F
100
AcDbDictionaryWithDefault
340
F
  0
DICTIONARY
  5
AAB9
102
{ACAD_REACTORS
330
C
102
}
330
C
100
AcDbDictionary
281
     1
  3
Standard
350
AABA
  0
DICTIONARY
  5
CAD4
102
{ACAD_REACTORS
330
C
102
}
330
C
100
AcDbDictionary
281
     1
  3
2dWireframe
350
CADA
  3
3D Hidden
350
CADC
  3
3dWireframe
350
CADB
  3
Basic
350
CAD9
  3
Brighten
350
CAE0
  3
ColorChange
350
CAE4
  3
Conceptual
350
CADD
  3
Dim
350
CADF
  3
Facepattern
350
CAE3
  3
Flat
350
CAD5
  3
FlatWithEdges
350
CAD6
  3
Gouraud
350
CAD7
  3
GouraudWithEdges
350
CAD8
  3
Linepattern
350
CAE2
  3
Realistic
350
CADE
  3
Thicken
350
CAE1
  0
ACAD_PROXY_OBJECT
  5
3DA1
102
{ACAD_REACTORS
330
C
102
}
330
C
100
AcDbProxyObject
 90
      499
 91
      576
 95
       23
 70
     0
 93
       10
310
407F
 94
        0
1001
ACAD
1000
AcRTDxfName
1000
ASAPP
1000
AcRTDxfName
1000
ASAPP
1000
AcRTDxfName
1000
ASAPP
1000
AcRTDxfName
1000
ASAPP
  0
ACAD_PROXY_OBJECT
  5
3DE9
102
{ACAD_REACTORS
330
C
102
}
330
C
100
AcDbProxyObject
 90
      499
 91
      581
 95
       23
 70
     0
 93
       34
310
010000407F
 94
        0
1001
ACAD
1000
AcRTDxfName
1000
ACASGREFMASTER
1000
AcRTDxfName
1000
ACASGREFMASTER
1000
AcRTDxfName
1000
ACASGREFMASTER
1000
AcRTDxfName
1000
ACASGREFMASTER
  0
DICTIONARY
  5
34
102
{ACAD_REACTORS
330
C
102
}
330
C
100
AcDbDictionary
281
     1
  3
CTABLESTYLE
350
AAF3
  3
DIMASSOC
350
A10C
  3
FIELDEVAL
350
AB07
  3
INDEXCTL
350
35
  3
PROJECTNAME
350
BC9F
  3
SORTENTS
350
194C
  0
DICTIONARY
  5
47
102
{ACAD_REACTORS
330
C
102
}
330
C
100
AcDbDictionary
281
     1
  3
AcmBOM
350
7E8
  3
AcmStdDictionary
350
4C
  3
AMDTSECTSYM_ARROWCOLOR
350
A929
  0
ACAD_PROXY_OBJECT
  5
3DEA
102
{ACAD_REACTORS
330
C
102
}
330
C
100
AcDbProxyObject
 90
      499
 91
      582
 95
       23
 70
     0
 93
      114
310
00000043800000000000000000003F
 94
        0
1001
ACAD
1000
AcRTDxfName
1000
ACADGREFMODULE
1000
AcRTDxfName
1000
ACADGREFMODULE
1000
AcRTDxfName
1000
ACADGREFMODULE
1000
AcRTDxfName
1000
ACADGREFMODULE
  0
ACAD_PROXY_OBJECT
  5
3E06
102
{ACAD_REACTORS
330
C
102
}
330
C
100
AcDbProxyObject
 90
      499
 91
      594
 95
       23
 70
     0
 93
       34
310
05000044FF
 94
        0
1001
ACAD
1000
AcRTDxfName
1000
MAPIADMODULE
1000
AcRTDxfName
1000
MAPIADMODULE
1000
AcRTDxfName
1000
MAPIADMODULE
1000
AcRTDxfName
1000
MAPIADMODULE
  0
DICTIONARY
  5
2B
102
{ACAD_REACTORS
330
C
102
}
330
C
100
AcDbDictionary
281
     1
  0
DICTIONARY
  5
7D
102
{ACAD_REACTORS
330
C
102
}
330
C
100
AcDbDictionary
281
     1
  0
DICTIONARY
  5
9F48
102
{ACAD_REACTORS
330
C
102
}
330
C
100
AcDbDictionary
281
     1
  3
ASEBlockHierarchyIndexRecord
350
9F49
1001
DCO15
1040
1425739953.442
  0
XRECORD
  5
CB74
102
{ACAD_REACTORS
330
C
102
}
330
C
100
AcDbXrecord
280
     1
  1
DWGPROPS COOKIE
  2

  3

  4

  6

  7

  8
OSK-CAD18
  9

300
AmdtFileType=84
301
=
302
=
303
=
304
=
305
=
306
=
307
=
308
=
309
=
 40
0.1692004976851852
 41
2453866.66875235
 42
2454358.581034063
  1

 90
        1
  0
ACAD_PROXY_OBJECT
  5
3DEB
102
{ACAD_REACTORS
330
C
102
}
330
C
100
AcDbProxyObject
 90
      499
 91
      583
 95
       23
 70
     0
 93
        8
310
047E
 94
        0
1001
ACAD
1000
AcRTDxfName
1000
AMDTMAPISURFMOUDULE
1000
AcRTDxfName
1000
AMDTMAPISURFMOUDULE
1000
AcRTDxfName
1000
AMDTMAPISURFMOUDULE
1000
AcRTDxfName
1000
AMDTMAPISURFMOUDULE
  0
DICTIONARY
  5
AF79
102
{ACAD_REACTORS
330
3F95
102
}
330
3F95
100
AcDbDictionary
281
     1
  0
DICTIONARY
  5
3F96
102
{ACAD_REACTORS
330
3F95
102
}
330
3F95
100
AcDbDictionary
281
     1
  3
20011210
350
3FB7
  0
DICTIONARY
  5
AF78
102
{ACAD_REACTORS
330
3F95
102
}
330
3F95
100
AcDbDictionary
281
     1
1001
ACAD
1000
<All
  0
DICTIONARY
  5
AAB4
102
{ACAD_REACTORS
330
3F95
102
}
330
3F95
100
AcDbDictionary
280
     1
281
     1
  0
SORTENTSTABLE
  5
BADB
102
{ACAD_REACTORS
330
8A
102
}
330
8A
100
AcDbSortentsTable
330
1F
331
B38E
  5
B38E
331
B370
  5
B370
331
B375
  5
B375
331
B394
  5
B394
331
B37B
  5
B37B
331
B380
  5
B380
331
B6AB
  5
B6AB
331
B385
  5
B385
331
B38A
  5
B38A
331
B371
  5
B371
331
B38F
  5
B38F
331
B376
  5
B376
331
B390
  5
B390
331
B395
  5
B395
331
B37C
  5
B37C
331
B381
  5
B381
331
B386
  5
B386
331
B38B
  5
B38B
331
B372
  5
B372
331
B377
  5
B377
331
B391
  5
B391
331
B396
  5
B396
331
B378
  5
B378
331
B4D3
  5
B4D3
331
B37D
  5
B37D
331
B382
  5
B382
331
B38C
  5
B38C
331
B373
  5
B373
331
B392
  5
B392
331
B379
  5
B379
331
B37E
  5
B37E
331
B383
  5
B383
331
B388
  5
B388
331
B38D
  5
B38D
331
B374
  5
B374
331
B393
  5
B393
331
B37A
  5
B37A
331
B37F
  5
B37F
331
B384
  5
B384
  0
XRECORD
  5
CB76
102
{ACAD_REACTORS
330
CB75
102
}
330
CB75
100
AcDbXrecord
280
     1
 70
     1
  0
LAYOUT
  5
22
102
{ACAD_XDICTIONARY
360
CB79
102
}
102
{ACAD_REACTORS
330
1A
102
}
330
1A
100
AcDbPlotSettings
  1

  2
FX DocuWide 2050/2051
  4
A4
  6
AM_VIEW1
 40
3.174999952316281
 41
3.174999952316281
 42
3.175003051757812
 43
3.17498779296875
 44
209.9944915771484
 45
296.989501953125
 46
0.0
 47
1.328704577503771
 48
0.0000017428819774
 49
-0.0000008943752619
140
420.0000017428816
141
296.9999991056247
142
1.0
143
1.458423952845778
 70
  3764
 72
     1
 73
     1
 74
     4
  7
monochrome.ctb
 75
     0
147
0.6856716786972199
148
-0.0000017428819774
149
0.0000008943752619
100
AcDbLayout
  1
Model
 70
     1
 71
     0
 10
0.0
 20
0.0
 11
12.0
 21
9.0
 12
0.0
 22
0.0
 32
0.0
 14
0.0
 24
0.0
 34
0.0
 15
0.0
 25
0.0
 35
0.0
146
0.0
 13
0.0
 23
0.0
 33
0.0
 16
1.0
 26
0.0
 36
0.0
 17
0.0
 27
1.0
 37
0.0
 76
     0
330
1F
331
CAC6
1001
ACAD_PSEXT
1000
FX DocuWide 2050/2051
1000
FX DocuWide 2050/2051
1000
IP_192.168.2.203
1000

1070
     0
  0
LAYOUT
  5
1E
102
{ACAD_XDICTIONARY
360
CB77
102
}
102
{ACAD_REACTORS
330
1A
102
}
330
1A
100
AcDbPlotSettings
  1

  2
\\ML370\XEROX
  4
A4
  6

 40
3.174999952316281
 41
3.174999952316281
 42
3.175003051757812
 43
3.17498779296875
 44
209.8674926757813
 45
296.6719970703125
 46
0.0
 47
0.0
 48
0.0
 49
0.0
140
0.0
141
0.0
142
1.0
143
1.0
 70
   688
 72
     1
 73
     1
 74
     5
  7
monochrome.ctb
 75
    16
147
1.0
148
0.0
149
0.0
100
AcDbLayout
  1
ﾚｲｱｳﾄ1
 70
     1
 71
     1
 10
-3.17498779296875
 20
-3.174999952316281
 11
293.4970092773438
 21
206.692492723465
 12
0.0
 22
0.0
 32
0.0
 14
1.000000000000000E+20
 24
1.000000000000000E+20
 34
1.000000000000000E+20
 15
-1.000000000000000E+20
 25
-1.000000000000000E+20
 35
-1.000000000000000E+20
146
0.0
 13
0.0
 23
0.0
 33
0.0
 16
1.0
 26
0.0
 36
0.0
 17
0.0
 27
1.0
 37
0.0
 76
     0
330
1B
  0
LAYOUT
  5
26
102
{ACAD_XDICTIONARY
360
CB7B
102
}
102
{ACAD_REACTORS
330
1A
102
}
330
1A
100
AcDbPlotSettings
  1

  2
\\ML370\XEROX
  4

  6

 40
0.0
 41
0.0
 42
0.0
 43
0.0
 44
0.0
 45
0.0
 46
0.0
 47
0.0
 48
0.0
 49
0.0
140
0.0
141
0.0
142
1.0
143
1.0
 70
   688
 72
     0
 73
     0
 74
     5
  7
monochrome.ctb
 75
    16
147
1.0
148
0.0
149
0.0
100
AcDbLayout
  1
ﾚｲｱｳﾄ2
 70
     1
 71
     2
 10
0.0
 20
0.0
 11
12.0
 21
9.0
 12
0.0
 22
0.0
 32
0.0
 14
0.0
 24
0.0
 34
0.0
 15
0.0
 25
0.0
 35
0.0
146
0.0
 13
0.0
 23
0.0
 33
0.0
 16
1.0
 26
0.0
 36
0.0
 17
0.0
 27
1.0
 37
0.0
 76
     0
330
23
  0
MATERIAL
  5
CAD2
102
{ACAD_XDICTIONARY
360
CB81
102
}
102
{ACAD_REACTORS
330
A91C
102
}
330
A91C
100
AcDbMaterial
  1
ByBlock
  0
MATERIAL
  5
CAD1
102
{ACAD_XDICTIONARY
360
CB7F
102
}
102
{ACAD_REACTORS
330
A91C
102
}
330
A91C
100
AcDbMaterial
  1
ByLayer
  0
MATERIAL
  5
CAD3
102
{ACAD_XDICTIONARY
360
CB83
102
}
102
{ACAD_REACTORS
330
A91C
102
}
330
A91C
100
AcDbMaterial
  1
Global
  0
MLINESTYLE
  5
18
102
{ACAD_REACTORS
330
17
102
}
330
17
100
AcDbMlineStyle
  2
STANDARD
 70
     0
  3

 62
   256
 51
90.0
 52
90.0
 71
     2
 49
0.5
 62
   256
  6
BYLAYER
 49
-0.5
 62
   256
  6
BYLAYER
  0
ACDBPLACEHOLDER
  5
F
102
{ACAD_REACTORS
330
E
102
}
330
E
  0
TABLESTYLE
  5
AABA
102
{ACAD_XDICTIONARY
360
CB7D
102
}
102
{ACAD_REACTORS
330
AAB9
102
}
330
AAB9
100
AcDbTableStyle
  3
Standard
 70
     0
 71
     0
 40
1.5
 41
1.5
280
     0
281
     0
  7
STANDARD
140
4.5
170
     2
 62
     0
 63
     7
283
     0
274
    -2
284
     1
 64
     0
275
    -2
285
     1
 65
     0
276
    -2
286
     1
 66
     0
277
    -2
287
     1
 67
     0
278
    -2
288
     1
 68
     0
279
    -2
289
     1
 69
     0
  7
STANDARD
140
6.0
170
     5
 62
     0
 63
     7
283
     0
274
    -2
284
     1
 64
     0
275
    -2
285
     1
 65
     0
276
    -2
286
     1
 66
     0
277
    -2
287
     1
 67
     0
278
    -2
288
     1
 68
     0
279
    -2
289
     1
 69
     0
  7
STANDARD
140
4.5
170
     5
 62
     0
 63
     7
283
     0
274
    -2
284
     1
 64
     0
275
    -2
285
     1
 65
     0
276
    -2
286
     1
 66
     0
277
    -2
287
     1
 67
     0
278
    -2
288
     1
 68
     0
279
    -2
289
     1
 69
     0
  0
VISUALSTYLE
  5
CADA
102
{ACAD_REACTORS
330
CAD4
102
}
330
CAD4
100
AcDbVisualStyle
  2
2dWireframe
 70
     4
 71
     0
 72
     2
 73
     0
 90
        0
 40
-0.6
 41
-30.0
 62
     5
 63
     7
 74
     1
 91
        4
 64
     7
 65
   257
 75
     1
175
     1
 42
1.0
 92
        0
 66
   257
 43
1.0
 76
     1
 77
     6
 78
     2
 67
     7
 79
     5
170
     0
171
     0
290
     0
174
     0
 93
        1
 44
0.0
173
     0
291
     0
 45
0.0
1001
ACAD
1000
AcDbSavedByObjectVersion
1070
     0
  0
VISUALSTYLE
  5
CADC
102
{ACAD_REACTORS
330
CAD4
102
}
330
CAD4
100
AcDbVisualStyle
  2
3D Hidden
 70
     6
 71
     1
 72
     2
 73
     2
 90
        0
 40
-0.6
 41
-30.0
 62
     5
 63
     7
 74
     2
 91
        2
 64
     7
 65
   257
 75
     2
175
     1
 42
40.0
 92
        0
 66
   257
 43
1.0
 76
     1
 77
     6
 78
     2
 67
     7
 79
     3
170
     0
171
     0
290
     0
174
     0
 93
        1
 44
0.0
173
     0
291
     0
 45
0.0
1001
ACAD
1000
AcDbSavedByObjectVersion
1070
     0
  0
VISUALSTYLE
  5
CADB
102
{ACAD_REACTORS
330
CAD4
102
}
330
CAD4
100
AcDbVisualStyle
  2
3dWireframe
 70
     5
 71
     0
 72
     2
 73
     0
 90
        0
 40
-0.6
 41
-30.0
 62
     5
 63
     7
 74
     1
 91
        4
 64
     7
 65
   257
 75
     1
175
     1
 42
1.0
 92
        0
 66
   257
 43
1.0
 76
     1
 77
     6
 78
     2
 67
     7
 79
     5
170
     0
171
     0
290
     0
174
     0
 93
        1
 44
0.0
173
     0
291
     0
 45
0.0
1001
ACAD
1000
AcDbSavedByObjectVersion
1070
     0
  0
VISUALSTYLE
  5
CAD9
102
{ACAD_REACTORS
330
CAD4
102
}
330
CAD4
100
AcDbVisualStyle
  2
Basic
 70
     7
 71
     1
 72
     0
 73
     1
 90
        0
 40
-0.6
 41
-30.0
 62
     5
 63
     7
 74
     0
 91
        4
 64
     7
 65
   257
 75
     1
175
     1
 42
1.0
 92
        8
 66
     7
 43
1.0
 76
     1
 77
     6
 78
     2
 67
     7
 79
     5
170
     0
171
     0
290
     0
174
     0
 93
        1
 44
0.0
173
     0
291
     1
 45
0.0
1001
ACAD
1000
AcDbSavedByObjectVersion
1070
     0
  0
VISUALSTYLE
  5
CAE0
102
{ACAD_REACTORS
330
CAD4
102
}
330
CAD4
100
AcDbVisualStyle
  2
Brighten
 70
    12
 71
     2
 72
     2
 73
     0
 90
        0
 40
-0.6
 41
-30.0
 62
     5
 63
     7
 74
     1
 91
        4
 64
     7
 65
   257
 75
     1
175
     1
 42
1.0
 92
        8
 66
     7
 43
1.0
 76
     1
 77
     6
 78
     2
 67
     7
 79
     5
170
     0
171
     0
290
     0
174
     0
 93
        1
 44
50.0
173
     0
291
     1
 45
0.0
1001
ACAD
1000
AcDbSavedByObjectVersion
1070
     0
  0
VISUALSTYLE
  5
CAE4
102
{ACAD_REACTORS
330
CAD4
102
}
330
CAD4
100
AcDbVisualStyle
  2
ColorChange
 70
    16
 71
     2
 72
     2
 73
     3
 90
        0
 40
-0.6
 41
-30.0
 62
     5
 63
     8
 74
     1
 91
        4
 64
     7
 65
   257
 75
     1
175
     1
 42
1.0
 92
        8
 66
     8
 43
1.0
 76
     1
 77
     6
 78
     2
 67
     7
 79
     5
170
     0
171
     0
290
     0
174
     0
 93
        1
 44
0.0
173
     0
291
     1
 45
0.0
1001
ACAD
1000
AcDbSavedByObjectVersion
1070
     0
  0
VISUALSTYLE
  5
CADD
102
{ACAD_REACTORS
330
CAD4
102
}
330
CAD4
100
AcDbVisualStyle
  2
Conceptual
 70
     9
 71
     3
 72
     2
 73
     0
 90
        0
 40
-0.6
 41
-30.0
 62
     5
 63
     7
 74
     2
 91
        2
 64
     7
 65
   257
 75
     1
175
     1
 42
40.0
 92
        8
 66
     7
 43
1.0
 76
     1
 77
     6
 78
     2
 67
     7
 79
     3
170
     0
171
     0
290
     0
174
     0
 93
        1
 44
0.0
173
     0
291
     0
 45
0.0
1001
ACAD
1000
AcDbSavedByObjectVersion
1070
     0
  0
VISUALSTYLE
  5
CADF
102
{ACAD_REACTORS
330
CAD4
102
}
330
CAD4
100
AcDbVisualStyle
  2
Dim
 70
    11
 71
     2
 72
     2
 73
     0
 90
        0
 40
-0.6
 41
-30.0
 62
     5
 63
     7
 74
     1
 91
        4
 64
     7
 65
   257
 75
     1
175
     1
 42
1.0
 92
        8
 66
     7
 43
1.0
 76
     1
 77
     6
 78
     2
 67
     7
 79
     5
170
     0
171
     0
290
     0
174
     0
 93
        1
 44
-50.0
173
     0
291
     1
 45
0.0
1001
ACAD
1000
AcDbSavedByObjectVersion
1070
     0
  0
VISUALSTYLE
  5
CAE3
102
{ACAD_REACTORS
330
CAD4
102
}
330
CAD4
100
AcDbVisualStyle
  2
Facepattern
 70
    15
 71
     2
 72
     2
 73
     0
 90
        0
 40
-0.6
 41
-30.0
 62
     5
 63
     7
 74
     1
 91
        4
 64
     7
 65
   257
 75
     1
175
     1
 42
1.0
 92
        8
 66
     7
 43
1.0
 76
     1
 77
     6
 78
     2
 67
     7
 79
     5
170
     0
171
     0
290
     0
174
     0
 93
        1
 44
0.0
173
     0
291
     1
 45
0.0
1001
ACAD
1000
AcDbSavedByObjectVersion
1070
     0
  0
VISUALSTYLE
  5
CAD5
102
{ACAD_REACTORS
330
CAD4
102
}
330
CAD4
100
AcDbVisualStyle
  2
Flat
 70
     0
 71
     2
 72
     1
 73
     1
 90
        2
 40
-0.6
 41
30.0
 62
     5
 63
     7
 74
     0
 91
        4
 64
     7
 65
   257
 75
     1
175
     1
 42
1.0
 92
        8
 66
     7
 43
1.0
 76
     1
 77
     6
 78
     2
 67
     7
 79
     5
170
     0
171
     0
290
     0
174
     0
 93
       13
 44
0.0
173
     0
291
     1
 45
0.0
1001
ACAD
1000
AcDbSavedByObjectVersion
1070
     0
  0
VISUALSTYLE
  5
CAD6
102
{ACAD_REACTORS
330
CAD4
102
}
330
CAD4
100
AcDbVisualStyle
  2
FlatWithEdges
 70
     1
 71
     2
 72
     1
 73
     1
 90
        2
 40
-0.6
 41
30.0
 62
     5
 63
     7
 74
     1
 91
        4
 64
     7
 65
   257
 75
     1
175
     1
 42
1.0
 92
        0
 66
   257
 43
1.0
 76
     1
 77
     6
 78
     2
 67
     7
 79
     5
170
     0
171
     0
290
     0
174
     0
 93
       13
 44
0.0
173
     0
291
     1
 45
0.0
1001
ACAD
1000
AcDbSavedByObjectVersion
1070
     0
  0
VISUALSTYLE
  5
CAD7
102
{ACAD_REACTORS
330
CAD4
102
}
330
CAD4
100
AcDbVisualStyle
  2
Gouraud
 70
     2
 71
     2
 72
     2
 73
     1
 90
        2
 40
-0.6
 41
30.0
 62
     5
 63
     7
 74
     0
 91
        4
 64
     7
 65
   257
 75
     1
175
     1
 42
1.0
 92
        0
 66
     7
 43
1.0
 76
     1
 77
     6
 78
     2
 67
     7
 79
     5
170
     0
171
     0
290
     0
174
     0
 93
       13
 44
0.0
173
     0
291
     1
 45
0.0
1001
ACAD
1000
AcDbSavedByObjectVersion
1070
     0
  0
VISUALSTYLE
  5
CAD8
102
{ACAD_REACTORS
330
CAD4
102
}
330
CAD4
100
AcDbVisualStyle
  2
GouraudWithEdges
 70
     3
 71
     2
 72
     2
 73
     1
 90
        2
 40
-0.6
 41
30.0
 62
     5
 63
     7
 74
     1
 91
        4
 64
     7
 65
   257
 75
     1
175
     1
 42
1.0
 92
        0
 66
   257
 43
1.0
 76
     1
 77
     6
 78
     2
 67
     7
 79
     5
170
     0
171
     0
290
     0
174
     0
 93
       13
 44
0.0
173
     0
291
     1
 45
0.0
1001
ACAD
1000
AcDbSavedByObjectVersion
1070
     0
  0
VISUALSTYLE
  5
CAE2
102
{ACAD_REACTORS
330
CAD4
102
}
330
CAD4
100
AcDbVisualStyle
  2
Linepattern
 70
    14
 71
     2
 72
     2
 73
     0
 90
        0
 40
-0.6
 41
-30.0
 62
     5
 63
     7
 74
     1
 91
        4
 64
     7
 65
   257
 75
     7
175
     7
 42
1.0
 92
        8
 66
     7
 43
1.0
 76
     1
 77
     6
 78
     2
 67
     7
 79
     5
170
     0
171
     0
290
     0
174
     0
 93
        1
 44
0.0
173
     0
291
     1
 45
0.0
1001
ACAD
1000
AcDbSavedByObjectVersion
1070
     0
  0
VISUALSTYLE
  5
CADE
102
{ACAD_REACTORS
330
CAD4
102
}
330
CAD4
100
AcDbVisualStyle
  2
Realistic
 70
     8
 71
     2
 72
     2
 73
     0
 90
        0
 40
-0.6
 41
-30.0
 62
     5
 63
     7
 74
     1
 91
        0
 64
     7
 65
   257
 75
     1
175
     1
 42
1.0
 92
        8
 66
     8
 43
1.0
 76
     1
 77
     6
 78
     2
 67
     7
 79
     5
170
     0
171
     0
290
     0
174
     0
 93
       13
 44
0.0
173
     0
291
     0
 45
0.0
1001
ACAD
1000
AcDbSavedByObjectVersion
1070
     0
  0
VISUALSTYLE
  5
CAE1
102
{ACAD_REACTORS
330
CAD4
102
}
330
CAD4
100
AcDbVisualStyle
  2
Thicken
 70
    13
 71
     2
 72
     2
 73
     0
 90
        0
 40
-0.6
 41
-30.0
 62
     5
 63
     7
 74
     1
 91
        4
 64
     7
 65
   257
 75
     1
175
     1
 42
1.0
 92
       12
 66
     7
 43
1.0
 76
     1
 77
     6
 78
     2
 67
     7
 79
     5
170
     0
171
     0
290
     0
174
     0
 93
        1
 44
0.0
173
     0
291
     1
 45
0.0
1001
ACAD
1000
AcDbSavedByObjectVersion
1070
     0
  0
DICTIONARYVAR
  5
AAF3
102
{ACAD_REACTORS
330
34
102
}
330
34
100
DictionaryVariables
280
     0
  1
STANDARD
  0
DICTIONARYVAR
  5
A10C
102
{ACAD_REACTORS
330
34
102
}
330
34
100
DictionaryVariables
280
     0
  1
2
  0
DICTIONARYVAR
  5
AB07
102
{ACAD_REACTORS
330
34
102
}
330
34
100
DictionaryVariables
280
     0
  1
4
  0
DICTIONARYVAR
  5
35
102
{ACAD_REACTORS
330
34
102
}
330
34
100
DictionaryVariables
280
     0
  1
0
  0
DICTIONARYVAR
  5
BC9F
102
{ACAD_REACTORS
330
34
102
}
330
34
100
DictionaryVariables
280
     0
  1

  0
DICTIONARYVAR
  5
194C
102
{ACAD_REACTORS
330
34
102
}
330
34
100
DictionaryVariables
280
     0
  1
96
  0
DICTIONARY
  5
7E8
102
{ACAD_REACTORS
330
47
102
}
330
47
100
AcDbDictionary
281
     1
  0
DICTIONARY
  5
4C
102
{ACAD_REACTORS
330
47
102
}
330
47
100
AcDbDictionary
281
     1
  0
XRECORD
  5
A929
102
{ACAD_REACTORS
330
47
102
}
330
47
100
AcDbXrecord
280
     1
 90
-1023410169
  0
XRECORD
  5
9F49
102
{ACAD_REACTORS
330
9F48
102
}
330
9F48
100
AcDbXrecord
280
     1
330
0
330
0
330
0
330
0
330
0
330
0
330
0
330
0
  0
XRECORD
  5
3FB7
102
{ACAD_REACTORS
330
3F96
102
}
330
3F96
100
AcDbXrecord
280
     1
 91
        3
330
0
 90
        8
 62
     7
370
    40
331
16
  1
Color_7
330
0
 90
        0
 62
    14
370
    -3
331
16
  1
Color_14
330
0
 90
        8
 62
     7
370
    20
331
16
  1
Color_7
330
6D1
 90
        0
 62
     7
370
    -3
331
16
  1
Color_7
330
0
 90
        8
 62
     7
370
    50
331
16
  1
Color_7
330
0
 90
        8
 62
     2
370
    35
331
16
  1
Color_2
330
0
 90
        8
 62
     7
370
    -3
331
16
  1
Color_7
330
10
 90
        8
 62
     7
370
    -3
331
16
  1
Color_7
  0
DICTIONARY
  5
CB79
330
22
100
AcDbDictionary
280
     1
281
     1
  3
ACAD_XREC_ROUNDTRIP
360
CB7A
  0
DICTIONARY
  5
CB77
330
1E
100
AcDbDictionary
280
     1
281
     1
  3
ACAD_XREC_ROUNDTRIP
360
CB78
  0
DICTIONARY
  5
CB7B
330
26
100
AcDbDictionary
280
     1
281
     1
  3
ACAD_XREC_ROUNDTRIP
360
CB7C
  0
DICTIONARY
  5
CB81
330
CAD2
100
AcDbDictionary
280
     1
281
     1
  3
ACAD_XREC_ROUNDTRIP
360
CB82
  0
DICTIONARY
  5
CB7F
330
CAD1
100
AcDbDictionary
280
     1
281
     1
  3
ACAD_XREC_ROUNDTRIP
360
CB80
  0
DICTIONARY
  5
CB83
330
CAD3
100
AcDbDictionary
280
     1
281
     1
  3
ACAD_XREC_ROUNDTRIP
360
CB84
  0
DICTIONARY
  5
CB7D
330
AABA
100
AcDbDictionary
280
     1
281
     1
  3
ACAD_XREC_ROUNDTRIP
360
CB7E
  0
XRECORD
  5
CB7A
102
{ACAD_REACTORS
330
CB79
102
}
330
CB79
100
AcDbXrecord
280
     1
102
SHADEPLOT
 70
     0
102
SHADEPLOTRESLEVEL
 70
     2
102
SHADEPLOTCUSTOMDPI
 70
   200
  0
XRECORD
  5
CB78
102
{ACAD_REACTORS
330
CB77
102
}
330
CB77
100
AcDbXrecord
280
     1
102
SHADEPLOT
 70
     0
102
SHADEPLOTRESLEVEL
 70
     2
102
SHADEPLOTCUSTOMDPI
 70
   300
  0
XRECORD
  5
CB7C
102
{ACAD_REACTORS
330
CB7B
102
}
330
CB7B
100
AcDbXrecord
280
     1
102
SHADEPLOT
 70
     0
102
SHADEPLOTRESLEVEL
 70
     2
102
SHADEPLOTCUSTOMDPI
 70
   300
  0
XRECORD
  5
CB82
102
{ACAD_REACTORS
330
CB81
102
}
330
CB81
100
AcDbXrecord
280
     1
102
MATERIAL
148
0.0
149
0.0
149
0.0
 93
        0
 94
       63
282
     0
 72
     1
 77
     1
171
     1
175
     1
179
     1
273
     0
  0
XRECORD
  5
CB80
102
{ACAD_REACTORS
330
CB7F
102
}
330
CB7F
100
AcDbXrecord
280
     1
102
MATERIAL
148
0.0
149
0.0
149
0.0
 93
        0
 94
       63
282
     0
 72
     1
 77
     1
171
     1
175
     1
179
     1
273
     0
  0
XRECORD
  5
CB84
102
{ACAD_REACTORS
330
CB83
102
}
330
CB83
100
AcDbXrecord
280
     1
102
MATERIAL
148
0.0
149
0.0
149
0.0
 93
        0
 94
       63
282
     0
 72
     1
 77
     1
171
     1
175
     1
179
     1
273
     0
  0
XRECORD
  5
CB7E
102
{ACAD_REACTORS
330
CB7D
102
}
330
CB7D
100
AcDbXrecord
280
     1
102
ACAD_ROUNDTRIP_PRE2007_TABLESTYLE
 90
        4
 91
        0
  1

 92
        4
 93
        0
  2

 94
        4
 95
        0
  3

  0
ENDSEC
  0
EOF
