  0
SECTION
  2
HEADER
  9
$ACADVER
  1
AC1015
  9
$ACADMAINTVER
 70
    20
  9
$DWGCODEPAGE
  3
ANSI_932
  9
$INSBASE
 10
0.0
 20
0.0
 30
0.0
  9
$EXTMIN
 10
1540.017319213633
 20
1698.358829750836
 30
0.0
  9
$EXTMAX
 10
1960.017319213633
 20
1995.358829750836
 30
0.0
  9
$LIMMIN
 10
1700.85588156276
 20
1647.985052086429
  9
$LIMMAX
 10
1997.85588156276
 20
1857.985052086429
  9
$ORTHOMODE
 70
     0
  9
$REGENMODE
 70
     1
  9
$FILLMODE
 70
     1
  9
$QTEXTMODE
 70
     0
  9
$MIRRTEXT
 70
     0
  9
$LTSCALE
 40
1.0
  9
$ATTMODE
 70
     1
  9
$TEXTSIZE
 40
3.2
  9
$TRACEWID
 40
1.0
  9
$TEXTSTYLE
  7
STANDARD
  9
$CLAYER
  8
AM_0
  9
$CELTYPE
  6
ByLayer
  9
$CECOLOR
 62
   256
  9
$CELTSCALE
 40
1.0
  9
$DISPSILH
 70
     0
  9
$DIMSCALE
 40
1.0
  9
$DIMASZ
 40
1.0
  9
$DIMEXO
 40
1.0
  9
$DIMDLI
 40
10.0
  9
$DIMRND
 40
0.0
  9
$DIMDLE
 40
0.0
  9
$DIMEXE
 40
1.0
  9
$DIMTP
 40
0.1
  9
$DIMTM
 40
0.1
  9
$DIMTXT
 40
3.000000000000001
  9
$DIMCEN
 40
0.0
  9
$DIMTSZ
 40
0.0
  9
$DIMTOL
 70
     0
  9
$DIMLIM
 70
     0
  9
$DIMTIH
 70
     0
  9
$DIMTOH
 70
     0
  9
$DIMSE1
 70
     0
  9
$DIMSE2
 70
     0
  9
$DIMTAD
 70
     1
  9
$DIMZIN
 70
     8
  9
$DIMBLK
  1

  9
$DIMASO
 70
     1
  9
$DIMSHO
 70
     1
  9
$DIMPOST
  1

  9
$DIMAPOST
  1
"
  9
$DIMALT
 70
     0
  9
$DIMALTD
 70
     2
  9
$DIMALTF
 40
0.0393701
  9
$DIMLFAC
 40
1.0
  9
$DIMTOFL
 70
     1
  9
$DIMTVP
 40
0.0
  9
$DIMTIX
 70
     0
  9
$DIMSOXD
 70
     0
  9
$DIMSAH
 70
     0
  9
$DIMBLK1
  1

  9
$DIMBLK2
  1

  9
$DIMSTYLE
  2
SYS
  9
$DIMCLRD
 70
   256
  9
$DIMCLRE
 70
   256
  9
$DIMCLRT
 70
     7
  9
$DIMTFAC
 40
0.71
  9
$DIMGAP
 40
1.299999999999999
  9
$DIMJUST
 70
     0
  9
$DIMSD1
 70
     0
  9
$DIMSD2
 70
     0
  9
$DIMTOLJ
 70
     0
  9
$DIMTZIN
 70
     8
  9
$DIMALTZ
 70
     0
  9
$DIMALTTZ
 70
     0
  9
$DIMUPT
 70
     0
  9
$DIMDEC
 70
     2
  9
$DIMTDEC
 70
     2
  9
$DIMALTU
 70
     2
  9
$DIMALTTD
 70
     2
  9
$DIMTXSTY
  7
STANDARD
  9
$DIMAUNIT
 70
     0
  9
$DIMADEC
 70
     0
  9
$DIMALTRND
 40
0.0
  9
$DIMAZIN
 70
     2
  9
$DIMDSEP
 70
    46
  9
$DIMATFIT
 70
     3
  9
$DIMFRAC
 70
     0
  9
$DIMLDRBLK
  1

  9
$DIMLUNIT
 70
     2
  9
$DIMLWD
 70
    -1
  9
$DIMLWE
 70
    -1
  9
$DIMTMOVE
 70
     0
  9
$LUNITS
 70
     2
  9
$LUPREC
 70
     2
  9
$SKETCHINC
 40
1.0
  9
$FILLETRAD
 40
0.0
  9
$AUNITS
 70
     0
  9
$AUPREC
 70
     0
  9
$MENU
  1
.
  9
$ELEVATION
 40
0.0
  9
$PELEVATION
 40
0.0
  9
$THICKNESS
 40
0.0
  9
$LIMCHECK
 70
     0
  9
$CHAMFERA
 40
0.0
  9
$CHAMFERB
 40
0.0
  9
$CHAMFERC
 40
20.0
  9
$CHAMFERD
 40
0.0
  9
$SKPOLY
 70
     0
  9
$TDCREATE
 40
2456280.500856840
  9
$TDUCREATE
 40
2456280.125856840
  9
$TDUPDATE
 40
2456280.605429861
  9
$TDUUPDATE
 40
2456280.230429861
  9
$TDINDWG
 40
0.1036206944
  9
$TDUSRTIMER
 40
0.1036206944
  9
$USRTIMER
 70
     1
  9
$ANGBASE
 50
0.0
  9
$ANGDIR
 70
     0
  9
$PDMODE
 70
     0
  9
$PDSIZE
 40
-3.0
  9
$PLINEWID
 40
0.0
  9
$SPLFRAME
 70
     0
  9
$SPLINETYPE
 70
     6
  9
$SPLINESEGS
 70
     8
  9
$HANDSEED
  5
F15C
  9
$SURFTAB1
 70
     6
  9
$SURFTAB2
 70
     6
  9
$SURFTYPE
 70
     6
  9
$SURFU
 70
     6
  9
$SURFV
 70
     6
  9
$UCSBASE
  2

  9
$UCSNAME
  2

  9
$UCSORG
 10
0.0
 20
0.0
 30
0.0
  9
$UCSXDIR
 10
1.0
 20
0.0
 30
0.0
  9
$UCSYDIR
 10
0.0
 20
1.0
 30
0.0
  9
$UCSORTHOREF
  2

  9
$UCSORTHOVIEW
 70
     0
  9
$UCSORGTOP
 10
0.0
 20
0.0
 30
0.0
  9
$UCSORGBOTTOM
 10
0.0
 20
0.0
 30
0.0
  9
$UCSORGLEFT
 10
0.0
 20
0.0
 30
0.0
  9
$UCSORGRIGHT
 10
0.0
 20
0.0
 30
0.0
  9
$UCSORGFRONT
 10
0.0
 20
0.0
 30
0.0
  9
$UCSORGBACK
 10
0.0
 20
0.0
 30
0.0
  9
$PUCSBASE
  2

  9
$PUCSNAME
  2

  9
$PUCSORG
 10
0.0
 20
0.0
 30
0.0
  9
$PUCSXDIR
 10
1.0
 20
0.0
 30
0.0
  9
$PUCSYDIR
 10
0.0
 20
1.0
 30
0.0
  9
$PUCSORTHOREF
  2

  9
$PUCSORTHOVIEW
 70
     0
  9
$PUCSORGTOP
 10
0.0
 20
0.0
 30
0.0
  9
$PUCSORGBOTTOM
 10
0.0
 20
0.0
 30
0.0
  9
$PUCSORGLEFT
 10
0.0
 20
0.0
 30
0.0
  9
$PUCSORGRIGHT
 10
0.0
 20
0.0
 30
0.0
  9
$PUCSORGFRONT
 10
0.0
 20
0.0
 30
0.0
  9
$PUCSORGBACK
 10
0.0
 20
0.0
 30
0.0
  9
$USERI1
 70
     0
  9
$USERI2
 70
     0
  9
$USERI3
 70
     0
  9
$USERI4
 70
     0
  9
$USERI5
 70
     0
  9
$USERR1
 40
0.0
  9
$USERR2
 40
0.0
  9
$USERR3
 40
0.0
  9
$USERR4
 40
0.0
  9
$USERR5
 40
0.0
  9
$WORLDVIEW
 70
     1
  9
$SHADEDGE
 70
     3
  9
$SHADEDIF
 70
    70
  9
$TILEMODE
 70
     1
  9
$MAXACTVP
 70
    64
  9
$PINSBASE
 10
0.0
 20
0.0
 30
0.0
  9
$PLIMCHECK
 70
     0
  9
$PEXTMIN
 10
1.000000000000000E+20
 20
1.000000000000000E+20
 30
1.000000000000000E+20
  9
$PEXTMAX
 10
-1.000000000000000E+20
 20
-1.000000000000000E+20
 30
-1.000000000000000E+20
  9
$PLIMMIN
 10
-3.17498779296875
 20
-3.174999952316284
  9
$PLIMMAX
 10
293.4970092773438
 20
206.692492723465
  9
$UNITMODE
 70
     0
  9
$VISRETAIN
 70
     1
  9
$PLINEGEN
 70
     0
  9
$PSLTSCALE
 70
     1
  9
$TREEDEPTH
 70
  3020
  9
$CMLSTYLE
  2
Standard
  9
$CMLJUST
 70
     0
  9
$CMLSCALE
 40
20.0
  9
$PROXYGRAPHICS
 70
     1
  9
$MEASUREMENT
 70
     1
  9
$CELWEIGHT
370
    -1
  9
$ENDCAPS
280
     0
  9
$JOINSTYLE
280
     0
  9
$LWDISPLAY
290
     1
  9
$INSUNITS
 70
     4
  9
$HYPERLINKBASE
  1

  9
$STYLESHEET
  1
monochrome.ctb
  9
$XEDIT
290
     1
  9
$CEPSNTYPE
380
     0
  9
$PSTYLEMODE
290
     1
  9
$FINGERPRINTGUID
  2
{F586FFD1-E139-4376-8BD8-7B6AEA670C9C}
  9
$VERSIONGUID
  2
{5A5C5CAF-8F8B-43F8-9C33-735513A6CBC1}
  9
$EXTNAMES
290
     1
  9
$PSVPSCALE
 40
0.0
  9
$OLESTARTUP
290
     0
  0
ENDSEC
  0
SECTION
  2
CLASSES
  0
CLASS
  1
ACDBDICTIONARYWDFLT
  2
AcDbDictionaryWithDefault
  3
ObjectDBX Classes
 90
        0
280
     0
281
     0
  0
CLASS
  1
ACDBPLACEHOLDER
  2
AcDbPlaceHolder
  3
ObjectDBX Classes
 90
        0
280
     0
281
     0
  0
CLASS
  1
LAYOUT
  2
AcDbLayout
  3
ObjectDBX Classes
 90
        0
280
     0
281
     0
  0
CLASS
  1
AMGSETTINGSOBJ
  2
AmgSettingsObj
  3
"AcadM|Product Description: AutoCAD Mechanical|Company: Autodesk"
 90
        0
280
     0
281
     0
  0
CLASS
  1
ACME_DOCUMENT
  2
AcMeDbDoc
  3
AcMeServices
 90
        0
280
     0
281
     0
  0
CLASS
  1
ACMESCOPE
  2
AcMeScope
  3
AcMeServices
 90
        0
280
     0
281
     0
  0
CLASS
  1
ACMECOMMANDHISTORY
  2
AcMeCommandHistory
  3
AcMeServices
 90
        0
280
     0
281
     0
  0
CLASS
  1
DICTIONARYVAR
  2
AcDbDictionaryVar
  3
ObjectDBX Classes
 90
        0
280
     0
281
     0
  0
CLASS
  1
ACIMSYSVARMAN
  2
AcImSysVarManager
  3
AcMeServices
 90
        0
280
     0
281
     0
  0
CLASS
  1
ACIMREALSYSVAR
  2
AcImRealSysVar
  3
AcMeServices
 90
        0
280
     0
281
     0
  0
CLASS
  1
ACIMINTSYSVAR
  2
AcImIntSysVar
  3
AcMeServices
 90
        0
280
     0
281
     0
  0
CLASS
  1
ACMEDRAWINGMAN
  2
AcMeDrawingMan
  3
AcMeServices
 90
        0
280
     0
281
     0
  0
CLASS
  1
ACMEVIEW
  2
AcMeView
  3
AcMeServices
 90
        0
280
     0
281
     0
  0
CLASS
  1
ACDBENTITYCACHE
  2
AcMeEntityCache
  3
AcMeServices
 90
        0
280
     0
281
     0
  0
CLASS
  1
GSMANAGER
  2
AcMeGSManager
  3
AcMeServices
 90
        0
280
     0
281
     0
  0
CLASS
  1
AMDTINTERNALREACTOR
  2
AmdtInternalReactor
  3
AcMeServices
 90
        0
280
     0
281
     0
  0
CLASS
  1
ACMESTATEMGR
  2
AcMeStateMgr
  3
AcMeServices
 90
        0
280
     0
281
     0
  0
CLASS
  1
ACGREFMASTER
  2
AcGrefMaster
  3
AcAttribServices
 90
        0
280
     0
281
     0
  0
CLASS
  1
ACME_DATABASE
  2
AcMeDbDatabase
  3
AcMeServices
 90
        0
280
     0
281
     0
  0
CLASS
  1
ACRFINSADJUSTERMGR
  2
AcRfInsAdjusterMgr
  3
AcMeServices
 90
        0
280
     0
281
     0
  0
CLASS
  1
ACGREFACADMASTER
  2
AcGrefacadMaster
  3
AcGrefServices
 90
        0
280
     0
281
     0
  0
CLASS
  1
AMIMASTER
  2
AmiMaster
  3
AmiServices
 90
        0
280
     0
281
     0
  0
CLASS
  1
ACMDATADICTIONARY
  2
AcmDataDictionary
  3
"AcmSymBB|Product Description: AutoCAD Mechanical|Company: Autodesk"
 90
        0
280
     0
281
     0
  0
CLASS
  1
ACMDATAENTRYBLOCK
  2
AcmDataEntryBlock
  3
"AcmSymBB|Product Description: AutoCAD Mechanical|Company: Autodesk"
 90
        0
280
     0
281
     0
  0
CLASS
  1
ACIMSTRSYSVAR
  2
AcImStrSysVar
  3
AcMeServices
 90
        0
280
     0
281
     0
  0
CLASS
  1
ACMSTANDARDISO
  2
AcmStandardISO
  3
"Amdt_StdImp|Product Description: AutoCAD Mechanical|Company: Autodesk"
 90
        0
280
     0
281
     0
  0
CLASS
  1
AMGOBJPROPCFG
  2
AmgObjPropCfg
  3
"AmgLay|Product Description: AutoCAD Mechanical|Company: Autodesk"
 90
        1
280
     0
281
     0
  0
CLASS
  1
AMDTEDGESTANDARDISO
  2
AmdtEdgeStdISO
  3
"Amdt_StdImp|Product Description: AutoCAD Mechanical|Company: Autodesk"
 90
        0
280
     0
281
     0
  0
CLASS
  1
ACMSURFSTANDARDISO
  2
AcmSurfTextStdISO
  3
"Amdt_StdImp|Product Description: AutoCAD Mechanical|Company: Autodesk"
 90
        0
280
     0
281
     0
  0
CLASS
  1
ACMFCFSTANDARDISO
  2
AcmFCFStdISO
  3
"Amdt_StdImp|Product Description: AutoCAD Mechanical|Company: Autodesk"
 90
        0
280
     0
281
     0
  0
CLASS
  1
ACMWELDSTANDARDISO
  2
AcmWeldingStdISO
  3
"Amdt_StdImp|Product Description: AutoCAD Mechanical|Company: Autodesk"
 90
        0
280
     0
281
     0
  0
CLASS
  1
ACMIDSTANDARDISO
  2
AcmIdStdISO
  3
"Amdt_StdImp|Product Description: AutoCAD Mechanical|Company: Autodesk"
 90
        0
280
     0
281
     0
  0
CLASS
  1
ACMDATUMSTANDARDISO
  2
AcmDatumStdISO
  3
"Amdt_StdImp|Product Description: AutoCAD Mechanical|Company: Autodesk"
 90
        0
280
     0
281
     0
  0
CLASS
  1
ACMBOMSTANDARDISO
  2
AcmBOMStdISO
  3
"Amdt_StdImp|Product Description: AutoCAD Mechanical|Company: Autodesk"
 90
        0
280
     0
281
     0
  0
CLASS
  1
ACMDETAILSTANDARDISO
  2
AmdtDetailSymStdISO
  3
"Amdt_StdImp|Product Description: AutoCAD Mechanical|Company: Autodesk"
 90
        0
280
     0
281
     0
  0
CLASS
  1
ACMSECTIONSTANDARDISO
  2
AmdtSectionSymStdISO
  3
"Amdt_StdImp|Product Description: AutoCAD Mechanical|Company: Autodesk"
 90
        0
280
     0
281
     0
  0
CLASS
  1
ACMCENTERLINESTANDARDISO
  2
AmdtCenterLineStdISO
  3
"Amdt_StdImp|Product Description: AutoCAD Mechanical|Company: Autodesk"
 90
        0
280
     0
281
     0
  0
CLASS
  1
ACAMGLAYSTD
  2
AcAmgLayStd
  3
"AmgLay|Product Description: AutoCAD Mechanical|Company: Autodesk"
 90
        0
280
     0
281
     0
  0
CLASS
  1
ACAMGDIMSTD
  2
AcAmgDimStd
  3
"AmgDim|Product Description: AutoCAD Mechanical|Company: Autodesk"
 90
        0
280
     0
281
     0
  0
CLASS
  1
ACAMGTITLESTD
  2
AcAmgTitleStd
  3
"AmgTitle|Product Description: AutoCAD Mechanical|Company: Autodesk"
 90
        0
280
     0
281
     0
  0
CLASS
  1
ACAMGFILTERDAT
  2
AcAmgFilterDat
  3
"AcadM|Product Description: AutoCAD Mechanical|Company: Autodesk"
 90
        0
280
     0
281
     0
  0
CLASS
  1
LAYER_INDEX
  2
AcDbLayerIndex
  3
ObjectDBX Classes
 90
    32768
280
     0
281
     0
  0
CLASS
  1
IDBUFFER
  2
AcDbIdBuffer
  3
ObjectDBX Classes
 90
    32768
280
     0
281
     0
  0
CLASS
  1
PLOTSETTINGS
  2
AcDbPlotSettings
  3
ObjectDBX Classes
 90
    32768
280
     0
281
     0
  0
CLASS
  1
AMDTFORMULAUPDATEDISPATCHER
  2
AmdtFormulaUpdateDispatcher
  3
AcMeServices
 90
        0
280
     0
281
     0
  0
CLASS
  1
ACMSTANDARDANSI
  2
AcmStandardANSI
  3
"Amdt_StdImp|Product Description: AutoCAD Mechanical|Company: Autodesk"
 90
    32768
280
     0
281
     0
  0
CLASS
  1
ACMSURFSTANDARDANSI
  2
AcmSurfTextStdANSI
  3
"Amdt_StdImp|Product Description: AutoCAD Mechanical|Company: Autodesk"
 90
    32768
280
     0
281
     0
  0
CLASS
  1
ACMFCFSTANDARDANSI
  2
AcmFCFStdANSI
  3
"Amdt_StdImp|Product Description: AutoCAD Mechanical|Company: Autodesk"
 90
    32768
280
     0
281
     0
  0
CLASS
  1
ACMWELDSTANDARDANSI
  2
AcmWeldingStdANSI
  3
"Amdt_StdImp|Product Description: AutoCAD Mechanical|Company: Autodesk"
 90
    32768
280
     0
281
     0
  0
CLASS
  1
ACMIDSTANDARDANSI
  2
AcmIdStdANSI
  3
"Amdt_StdImp|Product Description: AutoCAD Mechanical|Company: Autodesk"
 90
    32768
280
     0
281
     0
  0
CLASS
  1
ACMDATUMSTANDARDANSI
  2
AcmDatumStdANSI
  3
"Amdt_StdImp|Product Description: AutoCAD Mechanical|Company: Autodesk"
 90
    32768
280
     0
281
     0
  0
CLASS
  1
ACMBOMSTANDARDANSI
  2
AcmBOMStdANSI
  3
"Amdt_StdImp|Product Description: AutoCAD Mechanical|Company: Autodesk"
 90
    32768
280
     0
281
     0
  0
CLASS
  1
ACMDETAILSTANDARDANSI
  2
AmdtDetailSymStdANSI
  3
"Amdt_StdImp|Product Description: AutoCAD Mechanical|Company: Autodesk"
 90
    32768
280
     0
281
     0
  0
CLASS
  1
ACMSECTIONSTANDARDANSI
  2
AmdtSectionSymStdANSI
  3
"Amdt_StdImp|Product Description: AutoCAD Mechanical|Company: Autodesk"
 90
    32768
280
     0
281
     0
  0
CLASS
  1
ACMCENTERLINESTANDARDANSI
  2
AmdtCenterLineStdANSI
  3
"Amdt_StdImp|Product Description: AutoCAD Mechanical|Company: Autodesk"
 90
    32768
280
     0
281
     0
  0
CLASS
  1
ACMBOM
  2
AcmBom
  3
"AcmSymBB|Product Description: AutoCAD Mechanical|Company: Autodesk"
 90
        0
280
     0
281
     0
  0
CLASS
  1
ACMDATAENTRYPART
  2
AcmDataEntryPart
  3
"AcmSymBB|Product Description: AutoCAD Mechanical|Company: Autodesk"
 90
    32768
280
     0
281
     0
  0
CLASS
  1
ACMPARTREF
  2
AcmPartRef
  3
"AcmSymBB|Product Description: AutoCAD Mechanical|Company: Autodesk"
 90
    35839
280
     0
281
     1
  0
CLASS
  1
ACDBCIRCARCRES
  2
AcDbCircArcRes
  3
AcGrefServices
 90
    32768
280
     0
281
     0
  0
CLASS
  1
ACMBOMROW
  2
AcmBomRow
  3
"AcmSymBB|Product Description: AutoCAD Mechanical|Company: Autodesk"
 90
    32768
280
     0
281
     0
  0
CLASS
  1
ACMBALLOON
  2
AcmBalloon
  3
"AcmSymBB|Product Description: AutoCAD Mechanical|Company: Autodesk"
 90
    35839
280
     0
281
     1
  0
CLASS
  1
AMDTNOTE
  2
AmdtNote
  3
"AcmSymBB|Product Description: AutoCAD Mechanical|Company: Autodesk"
 90
     3071
280
     0
281
     1
  0
CLASS
  1
STDPART2D
  2
AmgStdPart
  3
"AmgStdPart|Product Description: AutoCAD Mechanical|Company: Autodesk"
 90
    35839
280
     0
281
     1
  0
CLASS
  1
ACDBSTDPARTRES_LINE
  2
AcDbStdPartRes_Line
  3
"AmgStdPart|Product Description: AutoCAD Mechanical|Company: Autodesk"
 90
    32768
280
     0
281
     0
  0
CLASS
  1
ACMDATAENTRY
  2
AcmDataEntry
  3
"AcmSymBB|Product Description: AutoCAD Mechanical|Company: Autodesk"
 90
        0
280
     0
281
     0
  0
CLASS
  1
ACDBOPPOLYLINERES
  2
AcDbOpPolylineRes
  3
AcGrefServices
 90
        0
280
     0
281
     0
  0
CLASS
  1
ACMPARTLIST
  2
AcmPartList
  3
"AcmSymBB|Product Description: AutoCAD Mechanical|Company: Autodesk"
 90
    35839
280
     0
281
     1
  0
CLASS
  1
ACDBLINERES
  2
AcDbLineRes
  3
AcGrefServices
 90
    32768
280
     0
281
     0
  0
CLASS
  1
ACRFINSADJ
  2
AcRfInsAdjuster
  3
AcMeServices
 90
    32768
280
     0
281
     0
  0
CLASS
  1
AM_DRAWING_MGR
  2
AcDmDwgMgr
  3
AcMechDwgViewMgmt
 90
        0
280
     0
281
     0
  0
CLASS
  1
AM_DWG_DOCUMENT
  2
AcDmDwgDocument
  3
AcMechDwgViewMgmt
 90
        0
280
     0
281
     0
  0
CLASS
  1
AM_DWG_SHEET
  2
AcDmSheet
  3
AcMechDwgViewMgmt
 90
        0
280
     0
281
     0
  0
CLASS
  1
AM_VIEWDIMPARMAP
  2
AcDmViewDimParMap
  3
AcMechDwgViewMgmt
 90
        0
280
     0
281
     0
  0
CLASS
  1
AM_DWGMGR_NAME
  2
AcDmDwgMgrName
  3
AcMechDwgViewMgmt
 90
        0
280
     0
281
     0
  0
CLASS
  1
AMDTMENUSTATEMGR
  2
AmdtMenuStateMgr
  3
McadcomServices
 90
        0
280
     0
281
     0
  0
CLASS
  1
AMDTMCOMMENUSTATE
  2
AmdtMcomMenuState
  3
McadcomServices
 90
        0
280
     0
281
     0
  0
CLASS
  1
ASAPP
  2
AcAsAppObject
  3
AutoSurfServices
 90
        0
280
     0
281
     0
  0
CLASS
  1
IM_STATIC_MAN
  2
AcImStaticVarManager
  3
AcMeServices
 90
        0
280
     0
281
     0
  0
CLASS
  1
ACIMDBLSTATICVAR
  2
AcImDblStaticVar
  3
AcMeServices
 90
        0
280
     0
281
     0
  0
CLASS
  1
ACIMSTRSTATICVAR
  2
AcImStrStaticVar
  3
AcMeServices
 90
        0
280
     0
281
     0
  0
CLASS
  1
ACIMINTSTATICVAR
  2
AcImIntStaticVar
  3
AcMeServices
 90
        0
280
     0
281
     0
  0
CLASS
  1
ACASGREFMASTER
  2
AcAsGrefMaster
  3
AutoSurfResolverServices
 90
        0
280
     0
281
     0
  0
CLASS
  1
ACADGREFMODULE
  2
AcAdGrefModule
  3
AdGrefServices
 90
        0
280
     0
281
     0
  0
CLASS
  1
AMDTMAPISURFMOUDULE
  2
AmdtMApiSurfModule
  3
MApiSurfServices
 90
        0
280
     0
281
     0
  0
CLASS
  1
MAPIAMMOUDLE
  2
MApiAmModule
  3
MApiAmServices
 90
        0
280
     0
281
     0
  0
CLASS
  1
AMDTADMENUSTATE
  2
AmdtAdMenuState
  3
DesignerServices
 90
        0
280
     0
281
     0
  0
CLASS
  1
ADAPPL
  2
AcAdAppl
  3
DesignerServices
 90
        0
280
     0
281
     0
  0
CLASS
  1
DEPMGR
  2
AcAdDepMgr
  3
DesignerServices
 90
        0
280
     0
281
     0
  0
CLASS
  1
PARAMMGR
  2
AcAdParamMgr
  3
DesignerServices
 90
        0
280
     0
281
     0
  0
CLASS
  1
PARAMSCOPE
  2
AcAdParamScope
  3
DesignerServices
 90
        0
280
     0
281
     0
  0
CLASS
  1
NAMEDAPPL
  2
AcAdNamedAppl
  3
DesignerServices
 90
        0
280
     0
281
     0
  0
CLASS
  1
ADHNTMPLT
  2
AdHoleNoteTemplateMgr
  3
DesignerServices
 90
    32768
280
     0
281
     0
  0
CLASS
  1
AM_HNTEMPLATE_MGR_NAME
  2
AdHoleNoteTemplateMgrName
  3
DesignerServices
 90
    32768
280
     0
281
     0
  0
CLASS
  1
AMDTDMMENUSTATE
  2
AmdtDmMenuState
  3
AcMechDwgViewMgmt
 90
        0
280
     0
281
     0
  0
CLASS
  1
MAPIADMODULE
  2
MApiAdModule
  3
MApiAdServices
 90
        0
280
     0
281
     0
  0
CLASS
  1
AMDTAMMENUSTATE
  2
AmdtAmMenuState
  3
DesignerAssemblies
 90
        0
280
     0
281
     0
  0
CLASS
  1
ACAMPROJECT
  2
AcAmProject
  3
DesignerAssemblies
 90
        0
280
     0
281
     0
  0
CLASS
  1
ACAMGRCOMPDEF
  2
AcAmGrCompDef
  3
DesignerAssemblies
 90
        0
280
     0
281
     0
  0
CLASS
  1
ACCMCONTEXT
  2
AcCmContext
  3
DesignerAssemblies
 90
        0
280
     0
281
     0
  0
CLASS
  1
ACAMCOMPDEF
  2
AcAmCompDef
  3
DesignerAssemblies
 90
        0
280
     0
281
     0
  0
CLASS
  1
ACAMCOMPDEFMGR
  2
AcAmCompDefMgr
  3
DesignerAssemblies
 90
        0
280
     0
281
     0
  0
CLASS
  1
AMCONTEXTMGR
  2
AcAmContextMgr
  3
DesignerAssemblies
 90
        0
280
     0
281
     0
  0
CLASS
  1
ACAMCONTEXTMODELER
  2
AcAmContextModeler
  3
DesignerAssemblies
 90
        0
280
     0
281
     0
  0
CLASS
  1
CATALOGSTATE
  2
AcAmCatalogState
  3
DesignerAssemblies
 90
        0
280
     0
281
     0
  0
CLASS
  1
ACAMGRCOMPDEFSET
  2
AcAmGrCompDefSet
  3
DesignerAssemblies
 90
        0
280
     0
281
     0
  0
CLASS
  1
AMDTBROWSERDBTAB
  2
AmdtBrowserDbTab
  3
McadcomServices
 90
        0
280
     0
281
     0
  0
CLASS
  1
CBROWSERAPPOBJECT
  2
CBrowserAppObject
  3
McadcomServices
 90
        0
280
     0
281
     0
  0
CLASS
  1
DM_PLACEHOLDER
  2
AcDmSelsetPlaceholder
  3
AcMechDwgViewMgmt
 90
        0
280
     0
281
     0
  0
CLASS
  1
ACMPICKOBJ
  2
AcmPickEnt
  3
"AcmSymBB|Product Description: AutoCAD Mechanical|Company: Autodesk"
 90
    32768
280
     0
281
     1
  0
CLASS
  1
ACMNOTESTANDARDISO
  2
AmdtNoteStdISO
  3
"Amdt_StdImp|Product Description: AutoCAD Mechanical|Company: Autodesk"
 90
        0
280
     0
281
     0
  0
CLASS
  1
ACMNOTESTANDARDANSI
  2
AmdtNoteStdANSI
  3
"Amdt_StdImp|Product Description: AutoCAD Mechanical|Company: Autodesk"
 90
    32768
280
     0
281
     0
  0
CLASS
  1
ACMTHREADLINESTANDARDISO
  2
AmdtThreadLineStdISO
  3
"Amdt_StdImp|Product Description: AutoCAD Mechanical|Company: Autodesk"
 90
        0
280
     0
281
     0
  0
CLASS
  1
ACMTHREADLINESTANDARDANSI
  2
AmdtThreadLineStdANSI
  3
"Amdt_StdImp|Product Description: AutoCAD Mechanical|Company: Autodesk"
 90
    32768
280
     0
281
     0
  0
CLASS
  1
TABLESTYLE
  2
AcDbTableStyle
  3
ObjectDBX Classes
 90
     4095
280
     0
281
     0
  0
CLASS
  1
SORTENTSTABLE
  2
AcDbSortentsTable
  3
ObjectDBX Classes
 90
        0
280
     0
281
     0
  0
CLASS
  1
MATERIAL
  2
AcDbMaterial
  3
ObjectDBX Classes
 90
     1153
280
     0
281
     0
  0
CLASS
  1
VISUALSTYLE
  2
AcDbVisualStyle
  3
ObjectDBX Classes
 90
     4095
280
     0
281
     0
  0
CLASS
  1
ACRFATTGENMGR
  2
AcRfAttGeneralMgr
  3
AcAttribServices
 90
        0
280
     0
281
     0
  0
CLASS
  1
ACRFOBJATTMGR
  2
AcRfObjAttGroupMgr
  3
AcAttribServices
 90
        0
280
     0
281
     0
  0
CLASS
  1
ACRFMCADAPIATTHOLDER
  2
AcRfMCADAPIAttHolder
  3
AcAttribServices
 90
        0
280
     0
281
     0
  0
CLASS
  1
AMDTSYSATTR
  2
AmdtSystemAttribute
  3
AcAttribServices
 90
        0
280
     0
281
     0
  0
CLASS
  1
ACMTAPERSTANDARDISO
  2
AcmTaperStdISO
  3
"Amdt_StdImp|Product Description: AutoCAD Mechanical|Company: Autodesk"
 90
        0
280
     0
281
     0
  0
CLASS
  1
CAMSSTRUCTBTNSTATE
  2
StructBtnState
  3
L"DesignerAssemblies"
 90
        0
280
     0
281
     0
  0
CLASS
  1
DIMASSOC
  2
AcDbDimAssoc
  3
"AcDbDimAssoc|Product Desc:     AcDim ARX App For Dimension|Company:          Autodesk, Inc.|WEB Address:      www.autodesk.com"
 90
    32768
280
     0
281
     0
  0
CLASS
  1
AMDTNOTETEMPLATEDB
  2
AmdtNoteTemplateDB
  3
AMDT_STDIMP_MODULE_NAME
 90
        0
280
     0
281
     0
  0
ENDSEC
  0
SECTION
  2
TABLES
  0
TABLE
  2
VPORT
  5
8
330
0
100
AcDbSymbolTable
 70
     1
  0
VPORT
  5
B0EC
330
8
100
AcDbSymbolTableRecord
100
AcDbViewportTableRecord
  2
*Active
 70
     0
 10
0.0
 20
0.0
 11
1.0
 21
1.0
 12
1749.996523444627
 22
1846.861043443439
 13
0.0
 23
0.0
 14
2.5
 24
2.5
 15
10.0
 25
10.0
 16
0.0
 26
0.0
 36
1.0
 17
0.0
 27
0.0
 37
0.0
 40
288.6719555064065
 41
1.079905992949471
 42
50.0
 43
-1370.695619172058
 44
-1370.695619172058
 50
0.0
 51
0.0
 71
    16
 72
   100
 73
     1
 74
     3
 75
     0
 76
     0
 77
     0
 78
     0
281
     0
 65
     0
110
0.0
120
0.0
130
0.0
111
1.0
121
0.0
131
0.0
112
0.0
122
1.0
132
0.0
 79
     0
146
0.0
  0
ENDTAB
  0
TABLE
  2
LTYPE
  5
5
330
0
100
AcDbSymbolTable
 70
    27
  0
LTYPE
  5
14
330
5
100
AcDbSymbolTableRecord
100
AcDbLinetypeTableRecord
  2
ByBlock
 70
     0
  3

 72
    65
 73
     0
 40
0.0
  0
LTYPE
  5
15
330
5
100
AcDbSymbolTableRecord
100
AcDbLinetypeTableRecord
  2
ByLayer
 70
     0
  3

 72
    65
 73
     0
 40
0.0
  0
LTYPE
  5
16
330
5
100
AcDbSymbolTableRecord
100
AcDbLinetypeTableRecord
  2
Continuous
 70
     0
  3
Solid line
 72
    65
 73
     0
 40
0.0
  0
LTYPE
  5
4F
330
5
100
AcDbSymbolTableRecord
100
AcDbLinetypeTableRecord
  2
AM_ISO02W050
 70
     0
  3
__ __ __ __ __ __ __ __ __ __ __ __ __ __ __
 72
    65
 73
     2
 40
7.5
 49
6.0
 74
     0
 49
-1.5
 74
     0
  0
LTYPE
  5
52
330
5
100
AcDbSymbolTableRecord
100
AcDbLinetypeTableRecord
  2
Amconstr
 70
     0
  3
_______________________
 72
    65
 73
     2
 40
9999.0
 49
9999.0
 74
     0
 49
0.0
 74
     0
  0
LTYPE
  5
64
330
5
100
AcDbSymbolTableRecord
100
AcDbLinetypeTableRecord
  2
ACISOWELD
 70
     0
  3
_ _ _ _ _
 72
    65
 73
     2
 40
2.0
 49
2.0
 74
     0
 49
-1.0
 74
     0
  0
LTYPE
  5
65
330
5
100
AcDbSymbolTableRecord
100
AcDbLinetypeTableRecord
  2
ACISOTGB
 70
     0
  3
__ . . __ . .
 72
    65
 73
     6
 40
9.0
 49
4.0
 74
     0
 49
-1.0
 74
     0
 49
1.0
 74
     0
 49
-1.0
 74
     0
 49
1.0
 74
     0
 49
-1.0
 74
     0
  0
LTYPE
  5
66
330
5
100
AcDbSymbolTableRecord
100
AcDbLinetypeTableRecord
  2
ACISOTGL
 70
     0
  3
_ _ _ _ _
 72
    65
 73
     2
 40
3.0
 49
2.0
 74
     0
 49
-1.0
 74
     0
  0
LTYPE
  5
69
330
5
100
AcDbSymbolTableRecord
100
AcDbLinetypeTableRecord
  2
CENTER
 70
     0
  3
__ . __
 72
    65
 73
     4
 40
7.0
 49
4.0
 74
     0
 49
-1.0
 74
     0
 49
1.0
 74
     0
 49
-1.0
 74
     0
  0
LTYPE
  5
A6E
330
5
100
AcDbSymbolTableRecord
100
AcDbLinetypeTableRecord
  2
PHANTOM2
 70
     0
  3
Phantom (.5x) ___ _ _ ___ _ _ ___ _ _ ___ _ _
 72
    65
 73
     6
 40
31.75
 49
15.875
 74
     0
 49
-3.174999999999999
 74
     0
 49
3.174999999999999
 74
     0
 49
-3.174999999999999
 74
     0
 49
3.174999999999999
 74
     0
 49
-3.174999999999999
 74
     0
  0
LTYPE
  5
4DED
330
5
100
AcDbSymbolTableRecord
100
AcDbLinetypeTableRecord
  2
中線
 70
     0
  3
___________________
 72
    65
 73
     2
 40
2.0
 49
1.0
 74
     0
 49
1.0
 74
     0
  0
LTYPE
  5
4DF6
330
5
100
AcDbSymbolTableRecord
100
AcDbLinetypeTableRecord
  2
細線
 70
     0
  3
___________________
 72
    65
 73
     2
 40
2.0
 49
1.0
 74
     0
 49
1.0
 74
     0
  0
LTYPE
  5
4DF7
330
5
100
AcDbSymbolTableRecord
100
AcDbLinetypeTableRecord
  2
太線
 70
     0
  3
___________________
 72
    65
 73
     2
 40
2.0
 49
1.0
 74
     0
 49
1.0
 74
     0
  0
LTYPE
  5
4EA7
330
5
100
AcDbSymbolTableRecord
100
AcDbLinetypeTableRecord
  2
文字
 70
     0
  3
_________________
 72
    65
 73
     2
 40
2.0
 49
1.0
 74
     0
 49
1.0
 74
     0
  0
LTYPE
  5
4EA9
330
5
100
AcDbSymbolTableRecord
100
AcDbLinetypeTableRecord
  2
寸法線
 70
     0
  3
________________
 72
    65
 73
     2
 40
2.0
 49
1.0
 74
     0
 49
1.0
 74
     0
  0
LTYPE
  5
4F12
330
5
100
AcDbSymbolTableRecord
100
AcDbLinetypeTableRecord
  2
ハッチング
 70
     0
  3
_________________
 72
    65
 73
     2
 40
2.0
 49
1.0
 74
     0
 49
1.0
 74
     0
  0
LTYPE
  5
5180
330
5
100
AcDbSymbolTableRecord
100
AcDbLinetypeTableRecord
  2
陰線1
 70
     0
  3
__ __ __ __
 72
    65
 73
     2
 40
4.0
 49
2.2
 74
     0
 49
-1.8
 74
     0
  0
LTYPE
  5
5182
330
5
100
AcDbSymbolTableRecord
100
AcDbLinetypeTableRecord
  2
切断線
 70
     0
  3
/\/-/\/-/\/-/\/-/\/-/\/
 72
    65
 73
     2
 40
11.0001
 49
0.0001
 74
     4
 75
   135
340
56
 46
0.04
 50
0.0
 44
0.0
 45
0.0
 49
-11.0
 74
     0
  0
LTYPE
  5
5183
330
5
100
AcDbSymbolTableRecord
100
AcDbLinetypeTableRecord
  2
想像線1
 70
     0
  3
__ __ __ _____ __ __ ____
 72
    65
 73
     6
 40
14.5
 49
6.0
 74
     0
 49
-1.5
 74
     0
 49
2.0
 74
     0
 49
-1.5
 74
     0
 49
2.0
 74
     0
 49
-1.5
 74
     0
  0
LTYPE
  5
5185
330
5
100
AcDbSymbolTableRecord
100
AcDbLinetypeTableRecord
  2
中心線1
 70
     0
  3
___ _ ___ _ ___
 72
    65
 73
     4
 40
18.0
 49
12.0
 74
     0
 49
-2.0
 74
     0
 49
2.0
 74
     0
 49
-2.0
 74
     0
  0
LTYPE
  5
5188
330
5
100
AcDbSymbolTableRecord
100
AcDbLinetypeTableRecord
  2
補助線
 70
     0
  3
______________
 72
    65
 73
     2
 40
2.0
 49
1.0
 74
     0
 49
1.0
 74
     0
  0
LTYPE
  5
6427
330
5
100
AcDbSymbolTableRecord
100
AcDbLinetypeTableRecord
  2
HIDDEN
 70
     0
  3
Hidden __ __ __ __ __ __ __ __ __ __ __ __ __ _
 72
    65
 73
     2
 40
0.375
 49
0.25
 74
     0
 49
-0.125
 74
     0
  0
LTYPE
  5
AC81
330
5
100
AcDbSymbolTableRecord
100
AcDbLinetypeTableRecord
  2
破断線
 70
     0
  3
/\/-/\/-/\/-/\/-/\/-/\/
 72
    65
 73
     2
 40
0.4401
 49
0.0001
 74
     4
 75
   136
340
AC80
 46
0.0016
 50
0.0
 44
0.0
 45
0.0
 49
-0.4400000000000001
 74
     0
  0
LTYPE
  5
AC9E
330
5
100
AcDbSymbolTableRecord
100
AcDbLinetypeTableRecord
  2
Amzigzag
 70
     0
  3
/\/-/\/-/\/-/\/-/\/-/\/
 72
    65
 73
     2
 40
11.0001
 49
0.0001
 74
     4
 75
   135
340
56
 46
0.04
 50
0.0
 44
0.0
 45
0.0
 49
-11.0
 74
     0
  0
LTYPE
  5
AF0F
330
5
100
AcDbSymbolTableRecord
100
AcDbLinetypeTableRecord
  2
genzigzag
 70
     0
  3
/\/-/\/-/\/-/\/-/\/-/\/
 72
    65
 73
     2
 40
12.0001
 49
0.0001
 74
     4
 75
   135
340
AC80
 46
2.0
 50
0.0
 44
0.0
 45
0.0
 49
-12.0
 74
     0
  0
LTYPE
  5
AF95
330
5
100
AcDbSymbolTableRecord
100
AcDbLinetypeTableRecord
  2
AM_ISO08W050
 70
     0
  3
____ . ____ . ____ . ____ . ____ . ____ . ____
 72
    65
 73
     4
 40
18.0
 49
12.0
 74
     0
 49
-1.5
 74
     0
 49
3.0
 74
     0
 49
-1.5
 74
     0
  0
LTYPE
  5
AF96
330
5
100
AcDbSymbolTableRecord
100
AcDbLinetypeTableRecord
  2
AM_ISO09W050
 70
     0
  3
_____ . . _____ . . _____ . . ____ .. ____
 72
    65
 73
     6
 40
22.5
 49
12.0
 74
     0
 49
-1.5
 74
     0
 49
3.0
 74
     0
 49
-1.5
 74
     0
 49
3.0
 74
     0
 49
-1.5
 74
     0
  0
LTYPE
  5
AF97
330
5
100
AcDbSymbolTableRecord
100
AcDbLinetypeTableRecord
  2
AM_ISO08W050x2
 70
     0
  3
__ . __ . __ . __ . __ . __
 72
    65
 73
     4
 40
9.0
 49
6.0
 74
     0
 49
-0.75
 74
     0
 49
1.5
 74
     0
 49
-0.75
 74
     0
  0
LTYPE
  5
AF98
330
5
100
AcDbSymbolTableRecord
100
AcDbLinetypeTableRecord
  2
AM_ISO02W050x2
 70
     0
  3
 _ _ _ _ _ _ _ _ _ _ _ _
 72
    65
 73
     2
 40
3.75
 49
3.0
 74
     0
 49
-0.75
 74
     0
  0
ENDTAB
  0
TABLE
  2
LAYER
  5
2
102
{ACAD_XDICTIONARY
360
3F95
102
}
330
0
100
AcDbSymbolTable
 70
    35
  0
LAYER
  5
10
330
2
100
AcDbSymbolTableRecord
100
AcDbLayerTableRecord
  2
0
 70
     0
 62
     7
  6
Continuous
370
    -3
390
F
  0
LAYER
  5
6D1
330
2
100
AcDbSymbolTableRecord
100
AcDbLayerTableRecord
  2
Defpoints
 70
     0
 62
     7
  6
Continuous
290
     0
370
    -3
390
F
  0
LAYER
  5
5F85
330
2
100
AcDbSymbolTableRecord
100
AcDbLayerTableRecord
  2
AM_0
 70
     0
 62
     7
  6
中線
370
    30
390
F
1001
AcAecLayerStandard
1000

1000

  0
LAYER
  5
AC9F
330
2
100
AcDbSymbolTableRecord
100
AcDbLayerTableRecord
  2
size
 70
     0
 62
     5
  6
Continuous
290
     0
370
    25
390
F
  0
LAYER
  5
ACA0
330
2
100
AcDbSymbolTableRecord
100
AcDbLayerTableRecord
  2
waku
 70
     0
 62
     7
  6
Continuous
370
    35
390
F
  0
LAYER
  5
ACA1
330
2
100
AcDbSymbolTableRecord
100
AcDbLayerTableRecord
  2
AM_6
 70
     0
 62
     2
  6
文字
370
    13
390
F
1001
AcAecLayerStandard
1000

1000

  0
LAYER
  5
ACC8
330
2
100
AcDbSymbolTableRecord
100
AcDbLayerTableRecord
  2
hyomoji
 70
     0
 62
     2
  6
Continuous
370
    13
390
F
  0
LAYER
  5
ACC9
330
2
100
AcDbSymbolTableRecord
100
AcDbLayerTableRecord
  2
hyosen1
 70
     0
 62
     1
  6
Continuous
370
    25
390
F
  0
LAYER
  5
ACCA
330
2
100
AcDbSymbolTableRecord
100
AcDbLayerTableRecord
  2
hyosen2
 70
     0
 62
     1
  6
Continuous
370
    13
390
F
  0
LAYER
  5
AD60
330
2
100
AcDbSymbolTableRecord
100
AcDbLayerTableRecord
  2
AM_1
 70
     0
 62
    30
  6
太線
370
    40
390
F
1001
AcAecLayerStandard
1000

1000

  0
LAYER
  5
AD64
330
2
100
AcDbSymbolTableRecord
100
AcDbLayerTableRecord
  2
AM_2
 70
     0
 62
     1
  6
細線
370
    13
390
F
1001
AcAecLayerStandard
1000

1000

  0
LAYER
  5
AD67
330
2
100
AcDbSymbolTableRecord
100
AcDbLayerTableRecord
  2
AM_3
 70
     0
 62
     6
  6
陰線1
370
    13
390
F
1001
AcAecLayerStandard
1000

1000

  0
LAYER
  5
AD68
330
2
100
AcDbSymbolTableRecord
100
AcDbLayerTableRecord
  2
AM_5
 70
     0
 62
     3
  6
寸法線
370
    13
390
F
1001
AcAecLayerStandard
1000

1000

  0
LAYER
  5
AD69
330
2
100
AcDbSymbolTableRecord
100
AcDbLayerTableRecord
  2
AM_7
 70
     0
 62
     4
  6
中心線1
370
    13
390
F
1001
AcAecLayerStandard
1000

1000

  0
LAYER
  5
AD6A
330
2
100
AcDbSymbolTableRecord
100
AcDbLayerTableRecord
  2
AM_8
 70
     0
 62
     1
  6
ハッチング
370
    13
390
F
1001
AcAecLayerStandard
1000

1000

  0
LAYER
  5
AD6E
330
2
100
AcDbSymbolTableRecord
100
AcDbLayerTableRecord
  2
AM_10
 70
     0
 62
     7
  6
切断線
370
    13
390
F
1001
AcAecLayerStandard
1000

1000

  0
LAYER
  5
AD6F
330
2
100
AcDbSymbolTableRecord
100
AcDbLayerTableRecord
  2
AM_11
 70
     0
 62
     2
  6
想像線1
370
    13
390
F
1001
AcAecLayerStandard
1000

1000

  0
LAYER
  5
B1B6
330
2
100
AcDbSymbolTableRecord
100
AcDbLayerTableRecord
  2
AM_CL
 70
     0
 62
     1
  6
Amconstr
370
     9
390
F
1001
AcAecLayerStandard
1000

1000

  0
LAYER
  5
B2EB
330
2
100
AcDbSymbolTableRecord
100
AcDbLayerTableRecord
  2
AM_14
 70
     0
 62
     5
  6
細線
370
     9
390
F
1001
AcAecLayerStandard
1000

1000

  0
LAYER
  5
B2EC
330
2
100
AcDbSymbolTableRecord
100
AcDbLayerTableRecord
  2
AM_15
 70
     0
 62
     6
  6
陰線1
370
     9
390
F
1001
AcAecLayerStandard
1000

1000

  0
LAYER
  5
BAB0
330
2
100
AcDbSymbolTableRecord
100
AcDbLayerTableRecord
  2
P020
 70
     0
 62
     7
  6
Continuous
370
    -3
390
F
  0
LAYER
  5
BAB1
330
2
100
AcDbSymbolTableRecord
100
AcDbLayerTableRecord
  2
P0215
 70
     0
 62
     7
  6
Continuous
370
    -3
390
F
  0
LAYER
  5
BAB2
102
{ACAD_XDICTIONARY
360
BAB3
102
}
330
2
100
AcDbSymbolTableRecord
100
AcDbLayerTableRecord
  2
寸法線
 70
     0
 62
     3
  6
Continuous
370
    -3
390
F
  0
LAYER
  5
BAB5
102
{ACAD_XDICTIONARY
360
BAB6
102
}
330
2
100
AcDbSymbolTableRecord
100
AcDbLayerTableRecord
  2
実線
 70
     0
 62
     7
  6
Continuous
370
    -3
390
F
  0
LAYER
  5
BAB8
102
{ACAD_XDICTIONARY
360
BAB9
102
}
330
2
100
AcDbSymbolTableRecord
100
AcDbLayerTableRecord
  2
図枠文字
 70
     0
 62
     3
  6
Continuous
370
    -3
390
F
  0
LAYER
  5
BABB
102
{ACAD_XDICTIONARY
360
BABC
102
}
330
2
100
AcDbSymbolTableRecord
100
AcDbLayerTableRecord
  2
図枠
 70
     0
 62
     5
  6
Continuous
370
    -3
390
F
  0
LAYER
  5
BABE
102
{ACAD_XDICTIONARY
360
BABF
102
}
330
2
100
AcDbSymbolTableRecord
100
AcDbLayerTableRecord
  2
ハッチング
 70
     0
 62
     4
  6
Continuous
370
    -3
390
F
  0
LAYER
  5
BAC1
102
{ACAD_XDICTIONARY
360
BAC2
102
}
330
2
100
AcDbSymbolTableRecord
100
AcDbLayerTableRecord
  2
構築線
 70
     0
 62
     6
  6
Continuous
290
     0
370
    -3
390
F
  0
LAYER
  5
BAC4
102
{ACAD_XDICTIONARY
360
BAC5
102
}
330
2
100
AcDbSymbolTableRecord
100
AcDbLayerTableRecord
  2
細線
 70
     0
 62
     5
  6
Continuous
370
    -3
390
F
  0
LAYER
  5
BAC7
102
{ACAD_XDICTIONARY
360
BAC8
102
}
330
2
100
AcDbSymbolTableRecord
100
AcDbLayerTableRecord
  2
点線
 70
     0
 62
     2
  6
AM_ISO02W050x2
370
    -3
390
F
  0
LAYER
  5
BACA
102
{ACAD_XDICTIONARY
360
BACB
102
}
330
2
100
AcDbSymbolTableRecord
100
AcDbLayerTableRecord
  2
太線
 70
     0
 62
     8
  6
Continuous
370
    -3
390
F
  0
LAYER
  5
BACD
330
2
100
AcDbSymbolTableRecord
100
AcDbLayerTableRecord
  2
P0210
 70
     0
 62
     7
  6
Continuous
370
    -3
390
F
  0
LAYER
  5
BACE
330
2
100
AcDbSymbolTableRecord
100
AcDbLayerTableRecord
  2
P0222
 70
     0
 62
     7
  6
Continuous
370
    -3
390
F
  0
LAYER
  5
BACF
330
2
100
AcDbSymbolTableRecord
100
AcDbLayerTableRecord
  2
P0223
 70
     0
 62
     7
  6
Continuous
370
    -3
390
F
  0
LAYER
  5
BAD0
330
2
100
AcDbSymbolTableRecord
100
AcDbLayerTableRecord
  2
極細線
 70
     0
 62
     9
  6
Continuous
370
    -3
390
F
1001
AcAecLayerStandard
1000

1000

  0
ENDTAB
  0
TABLE
  2
STYLE
  5
3
330
0
100
AcDbSymbolTable
 70
     9
  0
STYLE
  5
11
330
3
100
AcDbSymbolTableRecord
100
AcDbTextStyleTableRecord
  2
STANDARD
 70
     0
 40
0.0
 41
0.7
 50
0.0
 71
     0
 42
3.2
  3
romans.shx
  4
extfont.shx
  0
STYLE
  5
56
330
3
100
AcDbSymbolTableRecord
100
AcDbTextStyleTableRecord
  2

 70
     1
 40
0.0
 41
1.0
 50
0.0
 71
     0
 42
2.5
  3
ltypeshp.shx
  4

  0
STYLE
  5
58
330
3
100
AcDbSymbolTableRecord
100
AcDbTextStyleTableRecord
  2
ACISOTS
 70
     0
 40
1.0
 41
1.0
 50
0.0
 71
     0
 42
2.5
  3
isocp.shx
  4
extfont.shx
  0
STYLE
  5
63
330
3
100
AcDbSymbolTableRecord
100
AcDbTextStyleTableRecord
  2
ACISOGDT
 70
     0
 40
0.0
 41
1.0
 50
0.0
 71
     0
 42
2.5
  3
amgdt.shx
  4

  0
STYLE
  5
A74
330
3
100
AcDbSymbolTableRecord
100
AcDbTextStyleTableRecord
  2
DIM
 70
     0
 40
0.0
 41
1.0
 50
0.0
 71
     0
 42
2.5
  3
monotxt.shx
  4
extfont.shx
  0
STYLE
  5
AC80
330
3
100
AcDbSymbolTableRecord
100
AcDbTextStyleTableRecord
  2

 70
     1
 40
0.0
 41
1.0
 50
0.0
 71
     0
 42
3.2
  3
genltshp.shx
  4

  0
STYLE
  5
BAD1
330
3
100
AcDbSymbolTableRecord
100
AcDbTextStyleTableRecord
  2
TEXT
 70
     0
 40
0.0
 41
1.0
 50
0.0
 71
     0
 42
2.5
  3
romans.shx
  4
extfont2.shx
  0
STYLE
  5
BAD2
330
3
100
AcDbSymbolTableRecord
100
AcDbTextStyleTableRecord
  2
MSPｺﾞｼｯｸ
 70
     0
 40
0.0
 41
1.0
 50
0.0
 71
     0
 42
3.5
  3
MS PGothic.ttf
  4

1001
ACAD
1000
MS PGothic
1071
    32818
  0
STYLE
  5
BAD3
330
3
100
AcDbSymbolTableRecord
100
AcDbTextStyleTableRecord
  2
ゴシック
 70
     0
 40
0.0
 41
1.0
 50
0.0
 71
     0
 42
3.5
  3
MS Gothic.ttf
  4

1001
ACAD
1000
MS Gothic
1071
    32817
  0
ENDTAB
  0
TABLE
  2
VIEW
  5
6
330
0
100
AcDbSymbolTable
 70
     6
  0
VIEW
  5
AE1
330
6
100
AcDbSymbolTableRecord
100
AcDbViewTableRecord
  2
AM_VIEW1
 70
     0
 40
129.7276464542651
 10
1775.10588156276
 20
1793.121228859297
 41
148.5
 11
0.0
 21
0.0
 31
1.0
 12
0.0
 22
0.0
 32
0.0
 42
50.0
 43
-1370.695619172058
 44
-1370.695619172058
 50
0.0
 71
    16
281
     0
 72
     0
  0
VIEW
  5
AE2
330
6
100
AcDbSymbolTableRecord
100
AcDbViewTableRecord
  2
AM_VIEW2
 70
     0
 40
129.7276464542651
 10
1923.60588156276
 20
1793.121228859297
 41
148.5
 11
0.0
 21
0.0
 31
1.0
 12
0.0
 22
0.0
 32
0.0
 42
50.0
 43
-1370.695619172058
 44
-1370.695619172058
 50
0.0
 71
    16
281
     0
 72
     0
  0
VIEW
  5
AE3
330
6
100
AcDbSymbolTableRecord
100
AcDbViewTableRecord
  2
AM_VIEW3
 70
     0
 40
129.7276464542651
 10
1775.10588156276
 20
1712.848875313562
 41
148.5
 11
0.0
 21
0.0
 31
1.0
 12
0.0
 22
0.0
 32
0.0
 42
50.0
 43
-1370.695619172058
 44
-1370.695619172058
 50
0.0
 71
    16
281
     0
 72
     0
  0
VIEW
  5
AE4
330
6
100
AcDbSymbolTableRecord
100
AcDbViewTableRecord
  2
AM_VIEW4
 70
     0
 40
129.7276464542651
 10
1923.60588156276
 20
1712.848875313562
 41
148.5
 11
0.0
 21
0.0
 31
1.0
 12
0.0
 22
0.0
 32
0.0
 42
50.0
 43
-1370.695619172058
 44
-1370.695619172058
 50
0.0
 71
    16
281
     0
 72
     0
  0
VIEW
  5
AE5
330
6
100
AcDbSymbolTableRecord
100
AcDbViewTableRecord
  2
AM_VIEW5
 70
     0
 40
129.7276464542651
 10
1849.35588156276
 20
1752.985052086429
 41
148.5
 11
0.0
 21
0.0
 31
1.0
 12
0.0
 22
0.0
 32
0.0
 42
50.0
 43
-1370.695619172058
 44
-1370.695619172058
 50
0.0
 71
    16
281
     0
 72
     0
  0
VIEW
  5
AE6
330
6
100
AcDbSymbolTableRecord
100
AcDbViewTableRecord
  2
AM_VIEW6
 70
     0
 40
259.4526983556011
 10
1849.35588156276
 20
1752.985052086429
 41
296.99703
 11
0.0
 21
0.0
 31
1.0
 12
0.0
 22
0.0
 32
0.0
 42
50.0
 43
-1370.695619172058
 44
-1370.695619172058
 50
0.0
 71
    16
281
     0
 72
     0
  0
ENDTAB
  0
TABLE
  2
UCS
  5
7
330
0
100
AcDbSymbolTable
 70
     0
  0
ENDTAB
  0
TABLE
  2
APPID
  5
9
330
0
100
AcDbSymbolTable
 70
    63
  0
APPID
  5
12
330
9
100
AcDbSymbolTableRecord
100
AcDbRegAppTableRecord
  2
ACAD
 70
     0
  0
APPID
  5
30
330
9
100
AcDbSymbolTableRecord
100
AcDbRegAppTableRecord
  2
MCAD_NO_VIS
 70
     0
  0
APPID
  5
31
330
9
100
AcDbSymbolTableRecord
100
AcDbRegAppTableRecord
  2
ACAD_TEMP_GRAPHIC
 70
     0
  0
APPID
  5
44
330
9
100
AcDbSymbolTableRecord
100
AcDbRegAppTableRecord
  2
ACATTRIBSERVICES
 70
     0
  0
APPID
  5
7A1
330
9
100
AcDbSymbolTableRecord
100
AcDbRegAppTableRecord
  2
GENIUS_GENDIMSH_14
 70
     0
  0
APPID
  5
A49
330
9
100
AcDbSymbolTableRecord
100
AcDbRegAppTableRecord
  2
GENIUS_GENREC_14
 70
     0
  0
APPID
  5
A4A
330
9
100
AcDbSymbolTableRecord
100
AcDbRegAppTableRecord
  2
GENIUS_GENOBJ-N-REC_13
 70
     0
  0
APPID
  5
A4B
330
9
100
AcDbSymbolTableRecord
100
AcDbRegAppTableRecord
  2
GENIUS_GENODEF_13
 70
     0
  0
APPID
  5
A4C
330
9
100
AcDbSymbolTableRecord
100
AcDbRegAppTableRecord
  2
DCO15
 70
     0
  0
APPID
  5
ADC
330
9
100
AcDbSymbolTableRecord
100
AcDbRegAppTableRecord
  2
GENIUS_GENOLIS_13
 70
     0
  0
APPID
  5
ADD
330
9
100
AcDbSymbolTableRecord
100
AcDbRegAppTableRecord
  2
GENIUS_GENOENT_13
 70
     0
  0
APPID
  5
ADE
330
9
100
AcDbSymbolTableRecord
100
AcDbRegAppTableRecord
  2
GENIUS_GENOBJ-N-TIT_13
 70
     0
  0
APPID
  5
ADF
330
9
100
AcDbSymbolTableRecord
100
AcDbRegAppTableRecord
  2
GENIUS_GENTITLE_13
 70
     0
  0
APPID
  5
AE0
330
9
100
AcDbSymbolTableRecord
100
AcDbRegAppTableRecord
  2
GENIUS_GENOREF_13
 70
     0
  0
APPID
  5
AE7
330
9
100
AcDbSymbolTableRecord
100
AcDbRegAppTableRecord
  2
GENIUS_GENSCREG_15
 70
     0
  0
APPID
  5
AE8
330
9
100
AcDbSymbolTableRecord
100
AcDbRegAppTableRecord
  2
GENIUS_GENOBJ-N-SDF_13
 70
     0
  0
APPID
  5
FAF
330
9
100
AcDbSymbolTableRecord
100
AcDbRegAppTableRecord
  2
GENIUS_GENBLLY_14
 70
     0
  0
APPID
  5
FB0
330
9
100
AcDbSymbolTableRecord
100
AcDbRegAppTableRecord
  2
GENIUS_GENTRA_14
 70
     0
  0
APPID
  5
1285
330
9
100
AcDbSymbolTableRecord
100
AcDbRegAppTableRecord
  2
GENIUS_GENDTOL_13
 70
     0
  0
APPID
  5
142D
330
9
100
AcDbSymbolTableRecord
100
AcDbRegAppTableRecord
  2
GENIUS_GENOBJ-N-CEN_13
 70
     0
  0
APPID
  5
1AB5
330
9
100
AcDbSymbolTableRecord
100
AcDbRegAppTableRecord
  2
GENIUS_GENOBJ-N-CRS_13
 70
     0
  0
APPID
  5
1B36
330
9
100
AcDbSymbolTableRecord
100
AcDbRegAppTableRecord
  2
GENIUS_GENOBJ-N-HTC_13
 70
     0
  0
APPID
  5
1B37
330
9
100
AcDbSymbolTableRecord
100
AcDbRegAppTableRecord
  2
GENIUS_GENHATCH_13
 70
     0
  0
APPID
  5
216D
330
9
100
AcDbSymbolTableRecord
100
AcDbRegAppTableRecord
  2
GENIUS_GENOBJ-N-FIL_13
 70
     0
  0
APPID
  5
2356
330
9
100
AcDbSymbolTableRecord
100
AcDbRegAppTableRecord
  2
GEVID990412420
 70
     0
  0
APPID
  5
2357
330
9
100
AcDbSymbolTableRecord
100
AcDbRegAppTableRecord
  2
GEVDC
 70
     0
  0
APPID
  5
2358
330
9
100
AcDbSymbolTableRecord
100
AcDbRegAppTableRecord
  2
GEVCON
 70
     0
  0
APPID
  5
235B
330
9
100
AcDbSymbolTableRecord
100
AcDbRegAppTableRecord
  2
GEVRADREF
 70
     0
  0
APPID
  5
2360
330
9
100
AcDbSymbolTableRecord
100
AcDbRegAppTableRecord
  2
GENIUS_GENBH_13
 70
     0
  0
APPID
  5
2362
330
9
100
AcDbSymbolTableRecord
100
AcDbRegAppTableRecord
  2
GENIUS_GENOBJ-NBEHI-BHF_13
 70
     0
  0
APPID
  5
2364
330
9
100
AcDbSymbolTableRecord
100
AcDbRegAppTableRecord
  2
GENIUS_GENOBJ-NBEHI-BHB_13
 70
     0
  0
APPID
  5
2379
330
9
100
AcDbSymbolTableRecord
100
AcDbRegAppTableRecord
  2
GENIUS_GENOBJ-F-SCPASSM_13
 70
     0
  0
APPID
  5
3D74
330
9
100
AcDbSymbolTableRecord
100
AcDbRegAppTableRecord
  2
GENIUS_GENDIM_13
 70
     0
  0
APPID
  5
3D76
330
9
100
AcDbSymbolTableRecord
100
AcDbRegAppTableRecord
  2
GENIUS_GE3DTOL_13
 70
     0
  0
APPID
  5
3D9C
330
9
100
AcDbSymbolTableRecord
100
AcDbRegAppTableRecord
  2
AD_DRAW
 70
     0
  0
APPID
  5
3DE8
330
9
100
AcDbSymbolTableRecord
100
AcDbRegAppTableRecord
  2
ASURF_PCURVE_APPNAME
 70
     0
  0
APPID
  5
3DED
330
9
100
AcDbSymbolTableRecord
100
AcDbRegAppTableRecord
  2
AMG_3D2D_5.0
 70
     0
  0
APPID
  5
3E1B
330
9
100
AcDbSymbolTableRecord
100
AcDbRegAppTableRecord
  2
DESIGNERASSEMBLIES
 70
     0
  0
APPID
  5
3E20
330
9
100
AcDbSymbolTableRecord
100
AcDbRegAppTableRecord
  2
ACADM_DIM_EDIT
 70
     0
  0
APPID
  5
3E21
330
9
100
AcDbSymbolTableRecord
100
AcDbRegAppTableRecord
  2
AMDT_DM_ADJ
 70
     0
  0
APPID
  5
4143
330
9
100
AcDbSymbolTableRecord
100
AcDbRegAppTableRecord
  2
GENIUS_GENFIL_13
 70
     0
  0
APPID
  5
4144
330
9
100
AcDbSymbolTableRecord
100
AcDbRegAppTableRecord
  2
GENIUS_GENOBJ-N-CHA_13
 70
     0
  0
APPID
  5
4E17
330
9
100
AcDbSymbolTableRecord
100
AcDbRegAppTableRecord
  2
GEVID1008153417
 70
     0
  0
APPID
  5
4E58
330
9
100
AcDbSymbolTableRecord
100
AcDbRegAppTableRecord
  2
GEVID1008153418
 70
     0
  0
APPID
  5
4E5E
330
9
100
AcDbSymbolTableRecord
100
AcDbRegAppTableRecord
  2
GEVID1008153419
 70
     0
  0
APPID
  5
4E64
330
9
100
AcDbSymbolTableRecord
100
AcDbRegAppTableRecord
  2
GEVID1008153420
 70
     0
  0
APPID
  5
4E75
330
9
100
AcDbSymbolTableRecord
100
AcDbRegAppTableRecord
  2
GEVID1008153421
 70
     0
  0
APPID
  5
4EB7
330
9
100
AcDbSymbolTableRecord
100
AcDbRegAppTableRecord
  2
GENIUS_AMGTXT_16
 70
     0
  0
APPID
  5
7645
330
9
100
AcDbSymbolTableRecord
100
AcDbRegAppTableRecord
  2
GENIUS_GENOBJ-N-DIM_13
 70
     0
  0
APPID
  5
AAD0
330
9
100
AcDbSymbolTableRecord
100
AcDbRegAppTableRecord
  2
ACAD_DSTYLE_DIMARC_LENGTH_SYMBOL
 70
     0
  0
APPID
  5
AAD1
330
9
100
AcDbSymbolTableRecord
100
AcDbRegAppTableRecord
  2
ACAD_DSTYLE_DIMJOGGED_JOGANGLE_SYMBOL
 70
     0
  0
APPID
  5
AAFD
330
9
100
AcDbSymbolTableRecord
100
AcDbRegAppTableRecord
  2
ACAD_PSEXT
 70
     0
  0
APPID
  5
AD61
330
9
100
AcDbSymbolTableRecord
100
AcDbRegAppTableRecord
  2
AcAecLayerStandard
 70
     0
  0
APPID
  5
AEE3
330
9
100
AcDbSymbolTableRecord
100
AcDbRegAppTableRecord
  2
ACAD_EXEMPT_FROM_CAD_STANDARDS
 70
     0
  0
APPID
  5
B1BE
330
9
100
AcDbSymbolTableRecord
100
AcDbRegAppTableRecord
  2
GENIUS_GENCEN_19
 70
     0
  0
APPID
  5
BAD8
330
9
100
AcDbSymbolTableRecord
100
AcDbRegAppTableRecord
  2
ACAD_DSTYLE_DIMJAG
 70
     0
  0
APPID
  5
BAD9
330
9
100
AcDbSymbolTableRecord
100
AcDbRegAppTableRecord
  2
ACAD_DSTYLE_DIMTALN
 70
     0
  0
APPID
  5
BADA
330
9
100
AcDbSymbolTableRecord
100
AcDbRegAppTableRecord
  2
ACAD_DSTYLE_DIMRADIAL_EXTENSION
 70
     0
  0
APPID
  5
BADB
330
9
100
AcDbSymbolTableRecord
100
AcDbRegAppTableRecord
  2
ACAD_DSTYLE_DIMBREAK
 70
     0
  0
APPID
  5
BADC
330
9
100
AcDbSymbolTableRecord
100
AcDbRegAppTableRecord
  2
ACAD_DSTYLE_DIMINSPECT
 70
     0
  0
APPID
  5
F159
330
9
100
AcDbSymbolTableRecord
100
AcDbRegAppTableRecord
  2
ACAD_DSTYLE_DIM_LINETYPE
 70
     0
  0
APPID
  5
F15A
330
9
100
AcDbSymbolTableRecord
100
AcDbRegAppTableRecord
  2
ACAD_DSTYLE_DIM_EXT1_LINETYPE
 70
     0
  0
APPID
  5
F15B
330
9
100
AcDbSymbolTableRecord
100
AcDbRegAppTableRecord
  2
ACAD_DSTYLE_DIM_EXT2_LINETYPE
 70
     0
  0
ENDTAB
  0
TABLE
  2
DIMSTYLE
  5
A
330
0
100
AcDbSymbolTable
 70
    21
100
AcDbDimStyleTable
 71
     3
340
2515
340
251A
340
251B
  0
DIMSTYLE
105
A76
330
A
100
AcDbSymbolTableRecord
100
AcDbDimStyleTableRecord
  2
STANDARD
 70
     0
 41
3.0
 42
1.0
 43
7.0
 44
2.0
 73
     0
 74
     0
 77
     1
140
2.799999999999999
141
0.0
143
0.0394
147
0.7
171
     4
172
     1
173
     1
176
     3
177
     3
178
     2
271
     3
272
     3
273
     8
274
     4
289
     0
340
A74
341
A66
343
A66
344
A66
  0
DIMSTYLE
105
2515
330
A
100
AcDbSymbolTableRecord
100
AcDbDimStyleTableRecord
  2
SYS
 70
     0
  4
"
 41
1.0
 42
1.0
 43
10.0
 44
1.0
 47
0.1
 48
0.1
 73
     0
 74
     0
 77
     1
 78
     8
 79
     2
140
3.000000000000001
141
0.0
143
0.0393701
146
0.71
147
1.299999999999999
172
     1
176
   256
177
   256
178
     7
271
     2
272
     2
283
     0
284
     8
340
11
371
    -1
372
    -1
1001
ACAD_DSTYLE_DIMJOGGED_JOGANGLE_SYMBOL
1070
   384
1040
0.7853981633974483
1001
ACAD_DSTYLE_DIMARC_LENGTH_SYMBOL
1070
   379
1070
     1
  0
DIMSTYLE
105
2516
102
{ACAD_REACTORS
330
EF1E
102
}
330
A
100
AcDbSymbolTableRecord
100
AcDbDimStyleTableRecord
  2
SYS$3
 70
     0
  4
"
 41
2.0
 42
1.0
 43
10.0
 44
1.0
 47
0.1
 48
0.1
 73
     0
 77
     1
 78
     8
 79
     2
140
3.000000000000001
141
0.0
143
0.0393701
146
0.71
147
1.299999999999999
176
   256
177
   256
178
     2
271
     2
272
     2
283
     0
284
     8
288
     1
340
11
342
A66
371
    -1
372
    -1
1001
ACAD_DSTYLE_DIMJOGGED_JOGANGLE_SYMBOL
1070
   384
1040
0.7853981633974483
1001
ACAD_DSTYLE_DIMARC_LENGTH_SYMBOL
1070
   379
1070
     1
  0
DIMSTYLE
105
2517
102
{ACAD_REACTORS
330
EEF4
102
}
330
A
100
AcDbSymbolTableRecord
100
AcDbDimStyleTableRecord
  2
SYS$4
 70
     0
  4
"
 41
2.0
 42
1.0
 43
10.0
 44
1.0
 47
0.1
 48
0.1
 73
     0
 77
     1
 78
     8
 79
     2
140
3.000000000000001
141
0.0
143
0.0393701
146
0.71
147
1.299999999999999
173
     1
176
   256
177
   256
178
     2
271
     2
272
     2
283
     0
284
     8
288
     1
340
11
344
A66
371
    -1
372
    -1
1001
ACAD_DSTYLE_DIMJOGGED_JOGANGLE_SYMBOL
1070
   384
1040
0.7853981633974483
1001
ACAD_DSTYLE_DIMARC_LENGTH_SYMBOL
1070
   379
1070
     1
  0
DIMSTYLE
105
2518
330
A
100
AcDbSymbolTableRecord
100
AcDbDimStyleTableRecord
  2
SYS$6
 70
     0
  4
"
 41
2.0
 42
1.0
 43
10.0
 44
1.0
 47
0.1
 48
0.1
 73
     0
 74
     0
 78
     8
 79
     2
140
3.000000000000001
141
0.0
143
0.0393701
146
0.71
147
1.299999999999999
172
     1
176
   256
177
   256
178
     2
271
     2
272
     2
283
     0
284
     8
340
11
341
A66
371
    -1
372
    -1
1001
ACAD_DSTYLE_DIMJOGGED_JOGANGLE_SYMBOL
1070
   384
1040
0.7853981633974483
1001
ACAD_DSTYLE_DIMARC_LENGTH_SYMBOL
1070
   379
1070
     1
  0
DIMSTYLE
105
2519
330
A
100
AcDbSymbolTableRecord
100
AcDbDimStyleTableRecord
  2
SYS$7
 70
     0
  4
"
 41
2.0
 42
1.0
 43
10.0
 44
1.0
 47
0.1
 48
0.1
 73
     0
 74
     0
 77
     1
 78
     8
 79
     2
140
3.0
141
0.0
143
0.0393701
146
0.71
147
1.299999999999999
172
     1
176
   256
177
   256
178
     2
271
     2
272
     2
283
     0
284
     8
340
11
341
A66
342
A66
371
    -1
372
    -1
1001
ACAD_DSTYLE_DIMJOGGED_JOGANGLE_SYMBOL
1070
   384
1040
0.7853981633974483
1001
ACAD_DSTYLE_DIMARC_LENGTH_SYMBOL
1070
   379
1070
     1
  0
DIMSTYLE
105
251A
330
A
100
AcDbSymbolTableRecord
100
AcDbDimStyleTableRecord
  2
SYS$SF
 70
     0
  4
"
 41
2.5
 42
1.0
 43
10.0
 44
1.0
 47
0.1
 48
0.1
 73
     0
 74
     0
 75
     1
 76
     1
 77
     1
 78
     8
 79
     2
140
3.5
141
0.0
143
0.0393701
146
0.71
147
1.5
172
     1
176
   256
177
   256
178
     2
271
     2
272
     3
283
     0
284
     8
340
11
341
6C4
342
6C4
371
    -1
372
    -1
1001
ACAD_DSTYLE_DIMJOGGED_JOGANGLE_SYMBOL
1070
   384
1040
0.7853981633974483
1001
ACAD_DSTYLE_DIMARC_LENGTH_SYMBOL
1070
   379
1070
     1
  0
DIMSTYLE
105
251B
330
A
100
AcDbSymbolTableRecord
100
AcDbDimStyleTableRecord
  2
SYS$SH
 70
     0
  4
"
 41
2.5
 42
1.0
 43
10.0
 44
1.0
 47
0.1
 48
0.1
 73
     0
 74
     0
 75
     1
 76
     1
 77
     1
 78
     8
 79
     2
140
3.5
141
0.0
143
0.0393701
144
2.0
146
0.71
147
1.5
172
     1
173
     1
176
   256
177
   256
178
     2
271
     2
272
     3
283
     0
284
     8
340
11
341
6C4
343
72
344
6C4
371
    -1
372
    -1
1001
ACAD_DSTYLE_DIMJOGGED_JOGANGLE_SYMBOL
1070
   384
1040
0.7853981633974483
1001
ACAD_DSTYLE_DIMARC_LENGTH_SYMBOL
1070
   379
1070
     1
  0
DIMSTYLE
105
2A59
102
{ACAD_REACTORS
330
EE0A
330
EE5A
102
}
330
A
100
AcDbSymbolTableRecord
100
AcDbDimStyleTableRecord
  2
SYS$2
 70
     0
  4
"
 41
1.0
 42
1.0
 43
10.0
 44
1.0
 47
0.1
 48
0.1
 73
     0
 74
     0
 77
     1
 78
     8
 79
     2
140
3.000000000000001
141
0.0
143
0.0393701
146
0.71
147
1.299999999999999
172
     1
176
   256
177
   256
178
     2
271
     2
272
     2
283
     0
284
     8
340
11
342
6C4
371
    -1
372
    -1
1001
ACAD_DSTYLE_DIMJOGGED_JOGANGLE_SYMBOL
1070
   384
1040
0.7853981633974483
1001
ACAD_DSTYLE_DIMARC_LENGTH_SYMBOL
1070
   379
1070
     1
  0
DIMSTYLE
105
2AAB
102
{ACAD_REACTORS
330
E3CF
330
E3E5
330
E3FB
330
E411
330
EE74
330
EE93
330
EEBC
330
E3B0
330
EF55
102
}
330
A
100
AcDbSymbolTableRecord
100
AcDbDimStyleTableRecord
  2
SYS$0
 70
     0
  4
"
 41
1.0
 42
1.0
 43
10.0
 44
1.0
 47
0.1
 48
0.1
 73
     0
 74
     0
 77
     1
 78
     8
 79
     2
140
3.000000000000001
141
0.0
143
0.0393701
146
0.71
147
1.299999999999999
172
     1
176
   256
177
   256
178
     2
271
     2
272
     2
283
     0
284
     8
340
11
341
A66
342
6C4
371
    -1
372
    -1
1001
ACAD_DSTYLE_DIMJOGGED_JOGANGLE_SYMBOL
1070
   384
1040
0.7853981633974483
1001
ACAD_DSTYLE_DIMARC_LENGTH_SYMBOL
1070
   379
1070
     1
  0
DIMSTYLE
105
AF99
330
A
100
AcDbSymbolTableRecord
100
AcDbDimStyleTableRecord
  2
AM_ISO
 70
     0
  4
"
 41
2.5
 42
1.0
 43
10.0
 44
1.0
 47
0.1
 48
0.1
 73
     0
 74
     0
 77
     1
 78
     8
 79
     2
140
3.5
141
0.0
143
0.0393701
146
0.71
147
1.5
172
     1
176
   256
177
   256
178
     2
271
     2
272
     3
274
     4
283
     0
284
     8
340
11
371
    -1
372
    -1
  0
DIMSTYLE
105
AF9A
330
A
100
AcDbSymbolTableRecord
100
AcDbDimStyleTableRecord
  2
AM_ISO$3
 70
     0
  4
"
 41
2.5
 42
1.0
 43
10.0
 44
1.0
 47
0.1
 48
0.1
 73
     0
 77
     1
 78
     8
 79
     2
140
3.5
141
0.0
143
0.0393701
146
0.71
147
1.5
176
   256
177
   256
178
     2
271
     2
272
     3
274
     4
283
     0
284
     8
288
     1
289
     0
340
11
371
    -1
372
    -1
  0
DIMSTYLE
105
AF9B
330
A
100
AcDbSymbolTableRecord
100
AcDbDimStyleTableRecord
  2
AM_ISO$4
 70
     0
  4
"
 41
2.5
 42
1.0
 43
10.0
 44
1.0
 47
0.1
 48
0.1
 73
     0
 77
     1
 78
     8
 79
     2
140
3.5
141
0.0
143
0.0393701
146
0.71
147
1.5
176
   256
177
   256
178
     2
271
     2
272
     3
274
     4
283
     0
284
     8
288
     1
289
     0
340
11
371
    -1
372
    -1
  0
DIMSTYLE
105
AF9C
330
A
100
AcDbSymbolTableRecord
100
AcDbDimStyleTableRecord
  2
AM_ISO$6
 70
     0
  4
"
 41
2.5
 42
1.0
 43
10.0
 44
1.0
 47
0.1
 48
0.1
 73
     0
 74
     0
 78
     8
 79
     2
140
3.5
141
0.0
143
0.0393701
146
0.71
147
1.5
172
     1
176
   256
177
   256
178
     2
271
     2
272
     3
274
     4
283
     0
284
     8
340
11
371
    -1
372
    -1
  0
DIMSTYLE
105
AF9D
330
A
100
AcDbSymbolTableRecord
100
AcDbDimStyleTableRecord
  2
AM_ISO$7
 70
     0
  4
"
 41
2.5
 42
1.0
 43
10.0
 44
1.0
 47
0.1
 48
0.1
 73
     0
 74
     0
 77
     1
 78
     8
 79
     2
140
5.0
141
0.0
143
0.0393701
146
0.71
147
1.5
172
     1
176
   256
177
   256
178
     2
271
     2
272
     3
274
     4
283
     0
284
     8
340
11
371
    -1
372
    -1
  0
DIMSTYLE
105
AF9E
330
A
100
AcDbSymbolTableRecord
100
AcDbDimStyleTableRecord
  2
AM_ISO$SF
 70
     0
  4
"
 41
2.5
 42
1.0
 43
10.0
 44
1.0
 47
0.1
 48
0.1
 73
     0
 74
     0
 75
     1
 76
     1
 77
     1
 78
     8
 79
     2
140
3.5
141
0.0
143
0.0393701
146
0.71
147
1.5
172
     1
176
   256
177
   256
178
     2
271
     2
272
     3
274
     4
283
     0
284
     8
340
11
371
    -1
372
    -1
  0
DIMSTYLE
105
AF9F
330
A
100
AcDbSymbolTableRecord
100
AcDbDimStyleTableRecord
  2
AM_ISO$SH
 70
     0
  4
"
 41
2.5
 42
1.0
 43
10.0
 44
1.0
 47
0.1
 48
0.1
 73
     0
 74
     0
 75
     1
 76
     1
 77
     1
 78
     8
 79
     2
140
3.5
141
0.0
143
0.0393701
144
2.0
146
0.71
147
1.5
172
     1
173
     1
176
   256
177
   256
178
     2
271
     2
272
     3
274
     4
283
     0
284
     8
340
11
343
72
371
    -1
372
    -1
  0
DIMSTYLE
105
BAD4
330
A
100
AcDbSymbolTableRecord
100
AcDbDimStyleTableRecord
  2
AM_JIS
 70
     0
  4
"
 41
2.0
 42
1.0
 43
8.0
 44
1.0
 47
0.1
 48
0.1000000001
 73
     0
 74
     0
 77
     3
 78
     8
 79
     2
140
3.5
141
0.0
143
0.0393701
146
0.6
147
0.5
172
     1
176
   256
177
   256
178
   256
271
     2
272
     2
283
     0
284
     8
289
     0
340
A74
341
A66
342
A66
371
    -1
372
    -1
1001
ACAD_DSTYLE_DIMBREAK
1070
   391
1040
2.0
1001
ACAD_DSTYLE_DIMJAG
1070
   388
1040
1.5
1001
ACAD_DSTYLE_DIMTALN
1070
   392
1070
     0
1001
ACAD_DSTYLE_DIMARC_LENGTH_SYMBOL
1070
   379
1070
     1
1001
ACAD_DSTYLE_DIM_LINETYPE
1070
   380
1005
14
1001
ACAD_DSTYLE_DIM_EXT1_LINETYPE
1070
   381
1005
14
1001
ACAD_DSTYLE_DIM_EXT2_LINETYPE
1070
   382
1005
14
  0
DIMSTYLE
105
BAD5
330
A
100
AcDbSymbolTableRecord
100
AcDbDimStyleTableRecord
  2
AM_JIS$3
 70
     0
  4
"
 41
2.0
 42
1.0
 43
8.0
 44
1.0
 47
0.1
 48
0.1000000001
 73
     0
 77
     3
 78
     8
 79
     2
140
3.5
141
0.0
143
0.0393701
146
0.6
147
0.5
176
   256
177
   256
178
   256
271
     2
272
     2
283
     0
284
     8
288
     1
289
     0
340
A74
341
A66
342
A66
371
    -1
372
    -1
1001
ACAD_DSTYLE_DIMBREAK
1070
   391
1040
2.0
1001
ACAD_DSTYLE_DIMJAG
1070
   388
1040
1.5
1001
ACAD_DSTYLE_DIMTALN
1070
   392
1070
     0
1001
ACAD_DSTYLE_DIMARC_LENGTH_SYMBOL
1070
   379
1070
     1
1001
ACAD_DSTYLE_DIM_LINETYPE
1070
   380
1005
14
1001
ACAD_DSTYLE_DIM_EXT1_LINETYPE
1070
   381
1005
14
1001
ACAD_DSTYLE_DIM_EXT2_LINETYPE
1070
   382
1005
14
  0
DIMSTYLE
105
BAD6
330
A
100
AcDbSymbolTableRecord
100
AcDbDimStyleTableRecord
  2
AM_JIS$4
 70
     0
  4
"
 41
2.0
 42
1.0
 43
8.0
 44
1.0
 47
0.1
 48
0.1000000001
 73
     0
 74
     0
 77
     3
 78
     8
 79
     2
140
3.5
141
0.0
143
0.0393701
146
0.6
147
0.5
176
   256
177
   256
178
   256
271
     2
272
     2
283
     0
284
     8
289
     0
340
A74
341
A66
342
A66
371
    -1
372
    -1
1001
ACAD_DSTYLE_DIMBREAK
1070
   391
1040
2.0
1001
ACAD_DSTYLE_DIMJAG
1070
   388
1040
1.5
1001
ACAD_DSTYLE_DIMTALN
1070
   392
1070
     0
1001
ACAD_DSTYLE_DIMARC_LENGTH_SYMBOL
1070
   379
1070
     1
1001
ACAD_DSTYLE_DIM_LINETYPE
1070
   380
1005
14
1001
ACAD_DSTYLE_DIM_EXT1_LINETYPE
1070
   381
1005
14
1001
ACAD_DSTYLE_DIM_EXT2_LINETYPE
1070
   382
1005
14
  0
DIMSTYLE
105
BAD7
330
A
100
AcDbSymbolTableRecord
100
AcDbDimStyleTableRecord
  2
AM_JIS$0
 70
     0
  4
"
 41
2.0
 42
1.0
 43
8.0
 44
1.0
 47
0.1
 48
0.1000000001
 73
     0
 74
     0
 77
     3
 78
     8
 79
     2
140
3.5
141
0.0
143
0.0393701
146
0.6
147
0.5
172
     1
176
   256
177
   256
178
   256
271
     2
272
     2
283
     0
284
     8
340
A74
341
A66
342
A66
371
    -1
372
    -1
1001
ACAD_DSTYLE_DIMBREAK
1070
   391
1040
2.0
1001
ACAD_DSTYLE_DIMJAG
1070
   388
1040
1.5
1001
ACAD_DSTYLE_DIMTALN
1070
   392
1070
     0
1001
ACAD_DSTYLE_DIMARC_LENGTH_SYMBOL
1070
   379
1070
     1
1001
ACAD_DSTYLE_DIM_LINETYPE
1070
   380
1005
14
1001
ACAD_DSTYLE_DIM_EXT1_LINETYPE
1070
   381
1005
14
1001
ACAD_DSTYLE_DIM_EXT2_LINETYPE
1070
   382
1005
14
  0
ENDTAB
  0
TABLE
  2
BLOCK_RECORD
  5
1
330
0
100
AcDbSymbolTable
 70
    48
  0
BLOCK_RECORD
  5
1F
102
{ACAD_XDICTIONARY
360
8A
102
}
330
1
100
AcDbSymbolTableRecord
100
AcDbBlockTableRecord
  2
*Model_Space
340
22
  0
BLOCK_RECORD
  5
1B
330
1
100
AcDbSymbolTableRecord
100
AcDbBlockTableRecord
  2
*Paper_Space
340
1E
  0
BLOCK_RECORD
  5
23
330
1
100
AcDbSymbolTableRecord
100
AcDbBlockTableRecord
  2
*Paper_Space0
340
26
  0
BLOCK_RECORD
  5
72
330
1
100
AcDbSymbolTableRecord
100
AcDbBlockTableRecord
  2
GENAXEH
340
0
  0
BLOCK_RECORD
  5
6C4
330
1
100
AcDbSymbolTableRecord
100
AcDbBlockTableRecord
  2
_Dot
340
0
102
{BLKREFS
331
E95A
331
E95B
331
E965
331
E966
331
E96E
331
E96F
331
E9A2
331
E9A3
331
E9B4
331
E9B5
331
E9BF
331
E9C0
331
E9C8
331
E9C9
331
E9D1
331
E9D2
331
E9E3
331
E9E4
331
ED60
331
ED61
331
ED69
331
ED6A
331
ED72
331
ED73
331
ED7B
331
ED7C
331
ED84
331
ED85
331
ED96
331
ED97
331
ED9F
331
EDA0
331
EDA8
331
EDA9
331
EDB1
331
EDB2
331
EDBA
331
EDBB
331
EDD9
331
EDDA
331
EDE6
331
EDE7
331
EDEF
331
EDF0
331
EDF8
331
EDF9
331
EF82
331
EF83
331
EF8B
331
EF8C
331
EF94
331
EF95
331
EF9D
331
EF9E
331
EFA6
331
EFA7
331
EFAF
331
EFB0
331
EFBA
331
EFBB
331
EFC5
331
EFC6
331
EFCE
331
EFCF
331
EFD7
331
EFD8
331
EFEE
331
EFEF
102
}
  0
BLOCK_RECORD
  5
A66
330
1
100
AcDbSymbolTableRecord
100
AcDbBlockTableRecord
  2
_OPEN30
340
0
102
{BLKREFS
331
EFDE
102
}
  0
BLOCK_RECORD
  5
B5ED
330
1
100
AcDbSymbolTableRecord
100
AcDbBlockTableRecord
  2
_None
340
0
  0
BLOCK_RECORD
  5
E3B1
330
1
100
AcDbSymbolTableRecord
100
AcDbBlockTableRecord
  2
*D6
340
0
  0
BLOCK_RECORD
  5
E3D0
330
1
100
AcDbSymbolTableRecord
100
AcDbBlockTableRecord
  2
*D7
340
0
  0
BLOCK_RECORD
  5
E3E6
330
1
100
AcDbSymbolTableRecord
100
AcDbBlockTableRecord
  2
*D8
340
0
  0
BLOCK_RECORD
  5
E3FC
330
1
100
AcDbSymbolTableRecord
100
AcDbBlockTableRecord
  2
*D9
340
0
  0
BLOCK_RECORD
  5
E412
330
1
100
AcDbSymbolTableRecord
100
AcDbBlockTableRecord
  2
*D10
340
0
  0
BLOCK_RECORD
  5
E726
330
1
100
AcDbSymbolTableRecord
100
AcDbBlockTableRecord
  2
GENDOT
340
0
102
{BLKREFS
331
E9DC
331
E9DD
331
ED8F
331
ED90
331
EDC5
331
EDC6
331
EE00
331
EE01
331
EFE7
331
EFE8
102
}
  0
BLOCK_RECORD
  5
EE0B
330
1
100
AcDbSymbolTableRecord
100
AcDbBlockTableRecord
  2
*D39
340
0
  0
BLOCK_RECORD
  5
EE5B
330
1
100
AcDbSymbolTableRecord
100
AcDbBlockTableRecord
  2
*D40
340
0
  0
BLOCK_RECORD
  5
EE75
330
1
100
AcDbSymbolTableRecord
100
AcDbBlockTableRecord
  2
*D41
340
0
  0
BLOCK_RECORD
  5
EE94
330
1
100
AcDbSymbolTableRecord
100
AcDbBlockTableRecord
  2
*D42
340
0
  0
BLOCK_RECORD
  5
EEBD
330
1
100
AcDbSymbolTableRecord
100
AcDbBlockTableRecord
  2
*D43
340
0
  0
BLOCK_RECORD
  5
EEF5
330
1
100
AcDbSymbolTableRecord
100
AcDbBlockTableRecord
  2
*D44
340
0
  0
BLOCK_RECORD
  5
EF1F
330
1
100
AcDbSymbolTableRecord
100
AcDbBlockTableRecord
  2
*D45
340
0
  0
BLOCK_RECORD
  5
EF56
330
1
100
AcDbSymbolTableRecord
100
AcDbBlockTableRecord
  2
*D46
340
0
  0
BLOCK_RECORD
  5
F13E
330
1
100
AcDbSymbolTableRecord
100
AcDbBlockTableRecord
  2
*S47
340
0
  0
ENDTAB
  0
ENDSEC
  0
SECTION
  2
BLOCKS
  0
BLOCK
  5
20
330
1F
100
AcDbEntity
  8
0
100
AcDbBlockBegin
  2
*Model_Space
 70
     0
 10
0.0
 20
0.0
 30
0.0
  3
*Model_Space
  1

  0
ENDBLK
  5
21
330
1F
100
AcDbEntity
  8
0
100
AcDbBlockEnd
  0
BLOCK
  5
1C
330
1B
100
AcDbEntity
 67
     1
  8
0
100
AcDbBlockBegin
  2
*Paper_Space
 70
     0
 10
0.0
 20
0.0
 30
0.0
  3
*Paper_Space
  1

  0
ENDBLK
  5
1D
330
1B
100
AcDbEntity
 67
     1
  8
0
100
AcDbBlockEnd
  0
BLOCK
  5
24
330
23
100
AcDbEntity
 67
     1
  8
0
100
AcDbBlockBegin
  2
*Paper_Space0
 70
     0
 10
0.0
 20
0.0
 30
0.0
  3
*Paper_Space0
  1

  0
ENDBLK
  5
25
330
23
100
AcDbEntity
 67
     1
  8
0
100
AcDbBlockEnd
  0
BLOCK
  5
74
330
72
100
AcDbEntity
  8
0
100
AcDbBlockBegin
  2
GENAXEH
 70
     0
 10
0.0
 20
0.0
 30
0.0
  3
GENAXEH
  1

  0
LINE
  5
73
330
72
100
AcDbEntity
  8
0
100
AcDbLine
 10
-1.0
 20
0.0
 30
0.0
 11
1.0
 21
0.0
 31
0.0
  0
ENDBLK
  5
75
330
72
100
AcDbEntity
  8
0
100
AcDbBlockEnd
  0
BLOCK
  5
6C7
330
6C4
100
AcDbEntity
  8
0
100
AcDbBlockBegin
  2
_Dot
 70
     0
 10
0.0
 20
0.0
 30
0.0
  3
_Dot
  1

  0
LWPOLYLINE
  5
6C5
330
6C4
100
AcDbEntity
  8
0
  6
ByBlock
 62
     0
100
AcDbPolyline
 90
        2
 70
     1
 43
0.5
 10
-0.25
 20
0.0
 42
1.0
 10
0.25
 20
0.0
 42
1.0
  0
LINE
  5
6C6
330
6C4
100
AcDbEntity
  8
0
  6
ByBlock
 62
     0
370
    -2
100
AcDbLine
 10
-0.5
 20
0.0
 30
0.0
 11
-1.0
 21
0.0
 31
0.0
  0
ENDBLK
  5
6C8
330
6C4
100
AcDbEntity
  8
0
100
AcDbBlockEnd
  0
BLOCK
  5
A6A
330
A66
100
AcDbEntity
  8
0
100
AcDbBlockBegin
  2
_OPEN30
 70
     0
 10
0.0
 20
0.0
 30
0.0
  3
_OPEN30
  1

  0
LINE
  5
A67
330
A66
100
AcDbEntity
  8
0
  6
ByBlock
 62
     0
100
AcDbLine
 10
-1.0
 20
0.26794919
 30
0.0
 11
0.0
 21
0.0
 31
0.0
  0
LINE
  5
A68
330
A66
100
AcDbEntity
  8
0
  6
ByBlock
 62
     0
100
AcDbLine
 10
0.0
 20
0.0
 30
0.0
 11
-1.0
 21
-0.26794919
 31
0.0
  0
LINE
  5
A69
330
A66
100
AcDbEntity
  8
0
  6
ByBlock
 62
     0
100
AcDbLine
 10
0.0
 20
0.0
 30
0.0
 11
-1.0
 21
0.0
 31
0.0
  0
ENDBLK
  5
A6B
330
A66
100
AcDbEntity
  8
0
100
AcDbBlockEnd
  0
BLOCK
  5
B5EE
330
B5ED
100
AcDbEntity
  8
0
100
AcDbBlockBegin
  2
_None
 70
     0
 10
0.0
 20
0.0
 30
0.0
  3
_None
  1

  0
ENDBLK
  5
B5EF
330
B5ED
100
AcDbEntity
  8
0
100
AcDbBlockEnd
  0
BLOCK
  5
E3BB
330
E3B1
100
AcDbEntity
  8
0
100
AcDbBlockBegin
  2
*D6
 70
     1
 10
0.0
 20
0.0
 30
0.0
  3
*D6
  1

  0
LINE
  5
EF7F
330
E3B1
100
AcDbEntity
  8
AM_5
100
AcDbLine
 10
1733.017982774528
 20
1872.982352601271
 30
0.0
 11
1719.017981774568
 21
1872.982352601271
 31
0.0
  0
LINE
  5
EF80
330
E3B1
100
AcDbEntity
  8
AM_5
100
AcDbLine
 10
1733.017982774528
 20
1821.782352601271
 30
0.0
 11
1719.017981774568
 21
1821.782352601271
 31
0.0
  0
LINE
  5
EF81
330
E3B1
100
AcDbEntity
  8
AM_5
100
AcDbLine
 10
1720.017981774568
 20
1871.982352601271
 30
0.0
 11
1720.017981774568
 21
1822.782352601271
 31
0.0
  0
INSERT
  5
EF82
330
E3B1
100
AcDbEntity
  8
AM_5
100
AcDbBlockReference
  2
_Dot
 10
1720.017981774568
 20
1872.982352601271
 30
0.0
 50
90.0
  0
INSERT
  5
EF83
330
E3B1
100
AcDbEntity
  8
AM_5
100
AcDbBlockReference
  2
_Dot
 10
1720.017981774568
 20
1821.782352601271
 30
0.0
 50
270.0
  0
MTEXT
  5
EF84
330
E3B1
100
AcDbEntity
  8
AM_5
 62
     2
100
AcDbMText
 10
1717.217981774568
 20
1847.382352601271
 30
0.0
 40
3.000000000000001
 41
0.0
 71
     5
 72
     1
  1
%%c51.2
 11
0.0000000000000001
 21
1.0
 31
0.0
 73
     1
 44
1.0
1001
ACAD
1000
MTEXTBEGIN
1070
    73
1070
     1
1070
    44
1040
1.0
1070
    74
1070
     0
1000
MTEXTEND
  0
POINT
  5
EF85
330
E3B1
100
AcDbEntity
  8
Defpoints
 62
     0
100
AcDbPoint
 10
1734.017982774529
 20
1872.982352601271
 30
0.0
  0
POINT
  5
EF86
330
E3B1
100
AcDbEntity
  8
Defpoints
 62
     0
100
AcDbPoint
 10
1734.017982774529
 20
1821.782352601271
 30
0.0
  0
POINT
  5
EF87
330
E3B1
100
AcDbEntity
  8
Defpoints
 62
     0
100
AcDbPoint
 10
1720.017981774568
 20
1821.782352601271
 30
0.0
  0
ENDBLK
  5
E3BC
330
E3B1
100
AcDbEntity
  8
0
100
AcDbBlockEnd
  0
BLOCK
  5
E3DA
330
E3D0
100
AcDbEntity
  8
0
100
AcDbBlockBegin
  2
*D7
 70
     1
 10
0.0
 20
0.0
 30
0.0
  3
*D7
  1

  0
LINE
  5
EF88
330
E3D0
100
AcDbEntity
  8
AM_5
100
AcDbLine
 10
1742.517982774568
 20
1820.782352601277
 30
0.0
 11
1742.517982774568
 21
1789.382352602662
 31
0.0
  0
LINE
  5
EF89
330
E3D0
100
AcDbEntity
  8
AM_5
100
AcDbLine
 10
1734.017982774568
 20
1820.782352601271
 30
0.0
 11
1734.017982774568
 21
1789.382352602662
 31
0.0
  0
LINE
  5
EF8A
330
E3D0
100
AcDbEntity
  8
AM_5
100
AcDbLine
 10
1741.517982774568
 20
1790.382352602662
 30
0.0
 11
1735.017982774568
 21
1790.382352602662
 31
0.0
  0
INSERT
  5
EF8B
330
E3D0
100
AcDbEntity
  8
AM_5
100
AcDbBlockReference
  2
_Dot
 10
1742.517982774568
 20
1790.382352602662
 30
0.0
  0
INSERT
  5
EF8C
330
E3D0
100
AcDbEntity
  8
AM_5
100
AcDbBlockReference
  2
_Dot
 10
1734.017982774568
 20
1790.382352602662
 30
0.0
 50
180.0
  0
MTEXT
  5
EF8D
330
E3D0
100
AcDbEntity
  8
AM_5
 62
     2
100
AcDbMText
 10
1738.267982774569
 20
1793.182352602662
 30
0.0
 40
3.000000000000001
 41
0.0
 71
     5
 72
     1
  1
8.5
 73
     1
 44
1.0
1001
ACAD
1000
MTEXTBEGIN
1070
    73
1070
     1
1070
    44
1040
1.0
1070
    74
1070
     0
1000
MTEXTEND
  0
POINT
  5
EF8E
330
E3D0
100
AcDbEntity
  8
Defpoints
 62
     0
100
AcDbPoint
 10
1742.517982774568
 20
1821.782352601277
 30
0.0
  0
POINT
  5
EF8F
330
E3D0
100
AcDbEntity
  8
Defpoints
 62
     0
100
AcDbPoint
 10
1734.017982774568
 20
1821.782352601271
 30
0.0
  0
POINT
  5
EF90
330
E3D0
100
AcDbEntity
  8
Defpoints
 62
     0
100
AcDbPoint
 10
1734.017982774568
 20
1790.382352602662
 30
0.0
  0
ENDBLK
  5
E3DB
330
E3D0
100
AcDbEntity
  8
0
100
AcDbBlockEnd
  0
BLOCK
  5
E3F0
330
E3E6
100
AcDbEntity
  8
0
100
AcDbBlockBegin
  2
*D8
 70
     1
 10
0.0
 20
0.0
 30
0.0
  3
*D8
  1

  0
LINE
  5
EF91
330
E3E6
100
AcDbEntity
  8
AM_5
100
AcDbLine
 10
1742.517982774568
 20
1820.782352601277
 30
0.0
 11
1742.517982774568
 21
1789.382352602661
 31
0.0
  0
LINE
  5
EF92
330
E3E6
100
AcDbEntity
  8
AM_5
100
AcDbLine
 10
1763.017982774584
 20
1809.38235260129
 30
0.0
 11
1763.017982774584
 21
1789.382352602661
 31
0.0
  0
LINE
  5
EF93
330
E3E6
100
AcDbEntity
  8
AM_5
100
AcDbLine
 10
1743.517982774568
 20
1790.382352602661
 30
0.0
 11
1762.017982774583
 21
1790.382352602661
 31
0.0
  0
INSERT
  5
EF94
330
E3E6
100
AcDbEntity
  8
AM_5
100
AcDbBlockReference
  2
_Dot
 10
1742.517982774568
 20
1790.382352602661
 30
0.0
 50
180.0
  0
INSERT
  5
EF95
330
E3E6
100
AcDbEntity
  8
AM_5
100
AcDbBlockReference
  2
_Dot
 10
1763.017982774584
 20
1790.382352602661
 30
0.0
  0
MTEXT
  5
EF96
330
E3E6
100
AcDbEntity
  8
AM_5
 62
     2
100
AcDbMText
 10
1752.767982774576
 20
1793.182352602661
 30
0.0
 40
3.000000000000001
 41
0.0
 71
     5
 72
     1
  1
20.5
 73
     1
 44
1.0
1001
ACAD
1000
MTEXTBEGIN
1070
    73
1070
     1
1070
    44
1040
1.0
1070
    74
1070
     0
1000
MTEXTEND
  0
POINT
  5
EF97
330
E3E6
100
AcDbEntity
  8
Defpoints
 62
     0
100
AcDbPoint
 10
1742.517982774568
 20
1821.782352601277
 30
0.0
  0
POINT
  5
EF98
330
E3E6
100
AcDbEntity
  8
Defpoints
 62
     0
100
AcDbPoint
 10
1763.017982774584
 20
1810.38235260129
 30
0.0
  0
POINT
  5
EF99
330
E3E6
100
AcDbEntity
  8
Defpoints
 62
     0
100
AcDbPoint
 10
1763.017982774584
 20
1790.382352602661
 30
0.0
  0
ENDBLK
  5
E3F1
330
E3E6
100
AcDbEntity
  8
0
100
AcDbBlockEnd
  0
BLOCK
  5
E406
330
E3FC
100
AcDbEntity
  8
0
100
AcDbBlockBegin
  2
*D9
 70
     1
 10
0.0
 20
0.0
 30
0.0
  3
*D9
  1

  0
LINE
  5
EF9A
330
E3FC
100
AcDbEntity
  8
AM_5
100
AcDbLine
 10
1768.017982774597
 20
1809.382352601294
 30
0.0
 11
1768.017982774597
 21
1799.382352602656
 31
0.0
  0
LINE
  5
EF9B
330
E3FC
100
AcDbEntity
  8
AM_5
100
AcDbLine
 10
1763.017982774584
 20
1809.38235260129
 30
0.0
 11
1763.017982774584
 21
1799.382352602656
 31
0.0
  0
LINE
  5
EF9C
330
E3FC
100
AcDbEntity
  8
AM_5
100
AcDbLine
 10
1767.017982774597
 20
1800.382352602656
 30
0.0
 11
1764.017982774583
 21
1800.382352602656
 31
0.0
  0
INSERT
  5
EF9D
330
E3FC
100
AcDbEntity
  8
AM_5
100
AcDbBlockReference
  2
_Dot
 10
1768.017982774597
 20
1800.382352602656
 30
0.0
  0
INSERT
  5
EF9E
330
E3FC
100
AcDbEntity
  8
AM_5
100
AcDbBlockReference
  2
_Dot
 10
1763.017982774584
 20
1800.382352602656
 30
0.0
 50
180.0
  0
MTEXT
  5
EF9F
330
E3FC
100
AcDbEntity
  8
AM_5
 62
     2
100
AcDbMText
 10
1765.51798277459
 20
1803.182352602656
 30
0.0
 40
3.000000000000001
 41
0.0
 71
     5
 72
     1
  1
5
 73
     1
 44
1.0
1001
ACAD
1000
MTEXTBEGIN
1070
    73
1070
     1
1070
    44
1040
1.0
1070
    74
1070
     0
1000
MTEXTEND
  0
POINT
  5
EFA0
330
E3FC
100
AcDbEntity
  8
Defpoints
 62
     0
100
AcDbPoint
 10
1768.017982774597
 20
1810.382352601294
 30
0.0
  0
POINT
  5
EFA1
330
E3FC
100
AcDbEntity
  8
Defpoints
 62
     0
100
AcDbPoint
 10
1763.017982774584
 20
1810.38235260129
 30
0.0
  0
POINT
  5
EFA2
330
E3FC
100
AcDbEntity
  8
Defpoints
 62
     0
100
AcDbPoint
 10
1763.017982774584
 20
1800.382352602656
 30
0.0
  0
ENDBLK
  5
E407
330
E3FC
100
AcDbEntity
  8
0
100
AcDbBlockEnd
  0
BLOCK
  5
E41C
330
E412
100
AcDbEntity
  8
0
100
AcDbBlockBegin
  2
*D10
 70
     1
 10
0.0
 20
0.0
 30
0.0
  3
*D10
  1

  0
LINE
  5
EFA3
330
E412
100
AcDbEntity
  8
AM_5
100
AcDbLine
 10
1763.017982774584
 20
1809.382352601291
 30
0.0
 11
1763.017982774584
 21
1789.382352602668
 31
0.0
  0
LINE
  5
EFA4
330
E412
100
AcDbEntity
  8
AM_5
100
AcDbLine
 10
1772.017982774589
 20
1824.882352601301
 30
0.0
 11
1772.017982774589
 21
1789.382352602668
 31
0.0
  0
LINE
  5
EFA5
330
E412
100
AcDbEntity
  8
AM_5
100
AcDbLine
 10
1764.017982774583
 20
1790.382352602668
 30
0.0
 11
1771.017982774589
 21
1790.382352602668
 31
0.0
  0
INSERT
  5
EFA6
330
E412
100
AcDbEntity
  8
AM_5
100
AcDbBlockReference
  2
_Dot
 10
1763.017982774584
 20
1790.382352602668
 30
0.0
 50
180.0
  0
INSERT
  5
EFA7
330
E412
100
AcDbEntity
  8
AM_5
100
AcDbBlockReference
  2
_Dot
 10
1772.017982774589
 20
1790.382352602668
 30
0.0
  0
MTEXT
  5
EFA8
330
E412
100
AcDbEntity
  8
AM_5
 62
     2
100
AcDbMText
 10
1767.517982774586
 20
1793.182352602668
 30
0.0
 40
3.000000000000001
 41
0.0
 71
     5
 72
     1
  1
9
 73
     1
 44
1.0
1001
ACAD
1000
MTEXTBEGIN
1070
    73
1070
     1
1070
    44
1040
1.0
1070
    74
1070
     0
1000
MTEXTEND
  0
POINT
  5
EFA9
330
E412
100
AcDbEntity
  8
Defpoints
 62
     0
100
AcDbPoint
 10
1763.017982774584
 20
1810.38235260129
 30
0.0
  0
POINT
  5
EFAA
330
E412
100
AcDbEntity
  8
Defpoints
 62
     0
100
AcDbPoint
 10
1772.017982774589
 20
1825.882352601301
 30
0.0
  0
POINT
  5
EFAB
330
E412
100
AcDbEntity
  8
Defpoints
 62
     0
100
AcDbPoint
 10
1772.017982774589
 20
1790.382352602668
 30
0.0
  0
ENDBLK
  5
E41D
330
E412
100
AcDbEntity
  8
0
100
AcDbBlockEnd
  0
BLOCK
  5
E729
330
E726
100
AcDbEntity
  8
0
100
AcDbBlockBegin
  2
GENDOT
 70
     0
 10
0.0
 20
0.0
 30
0.0
  3
GENDOT
  1

  0
LINE
  5
E727
330
E726
100
AcDbEntity
  8
0
100
AcDbLine
 10
0.0
 20
0.0
 30
0.0
 11
-1.0
 21
0.0
 31
0.0
  0
LWPOLYLINE
  5
E728
330
E726
100
AcDbEntity
  8
0
100
AcDbPolyline
 90
        2
 70
     1
 43
0.25
 10
-0.125
 20
0.0
 42
1.0
 10
0.125
 20
0.0
 42
1.0
  0
ENDBLK
  5
E72A
330
E726
100
AcDbEntity
  8
0
100
AcDbBlockEnd
  0
BLOCK
  5
EE1A
330
EE0B
100
AcDbEntity
  8
0
100
AcDbBlockBegin
  2
*D39
 70
     1
 10
0.0
 20
0.0
 30
0.0
  3
*D39
  1

  0
LINE
  5
EFAC
330
EE0B
100
AcDbEntity
  8
AM_5
100
AcDbLine
 10
1824.383760215062
 20
1813.015447845473
 30
0.0
 11
1817.736956471916
 21
1806.368644102312
 31
0.0
  0
LINE
  5
EFAD
330
EE0B
100
AcDbEntity
  8
AM_5
100
AcDbLine
 10
1858.750664970901
 20
1801.648261074796
 30
0.0
 11
1858.750664970911
 21
1789.380209798857
 31
0.0
  0
ARC
  5
EFAE
330
EE0B
100
AcDbEntity
  8
AM_5
100
AcDbCircle
 10
1858.750664970865
 20
1847.382352601353
 30
0.0
 40
57.00214280249615
100
AcDbArc
 50
226.0051642176475
 51
268.9948357824615
  0
INSERT
  5
EFAF
330
EE0B
100
AcDbEntity
  8
AM_5
100
AcDbBlockReference
  2
_Dot
 10
1818.444063253101
 20
1807.075750883499
 30
0.0
 50
135.5025821088559
  0
INSERT
  5
EFB0
330
EE0B
100
AcDbEntity
  8
AM_5
100
AcDbBlockReference
  2
_Dot
 10
1858.75066497091
 20
1790.380209798857
 30
0.0
 50
359.4974178912532
  0
MTEXT
  5
EFB1
330
EE0B
100
AcDbEntity
  8
AM_5
 62
     2
100
AcDbMText
 10
1838.008402921711
 20
1797.306102247853
 30
0.0
 40
3.000000000000001
 41
0.0
 71
     5
 72
     1
  1
45\U+00B0
 11
0.9238795325116509
 21
-0.3826834323642105
 31
0.0
 73
     1
 44
1.0
1001
ACAD
1000
MTEXTBEGIN
1070
    73
1070
     1
1070
    44
1040
1.0
1070
    74
1070
     0
1000
MTEXTEND
  0
POINT
  5
EFB2
330
EE0B
100
AcDbEntity
  8
Defpoints
 62
     0
100
AcDbPoint
 10
1830.249593569667
 20
1798.017048864214
 30
0.0
  0
POINT
  5
EFB3
330
EE0B
100
AcDbEntity
  8
Defpoints
 62
     0
100
AcDbPoint
 10
1858.750664970844
 20
1874.280793745518
 30
0.0
  0
POINT
  5
EFB4
330
EE0B
100
AcDbEntity
  8
Defpoints
 62
     0
100
AcDbPoint
 10
1825.090866996248
 20
1813.72255462666
 30
0.0
  0
POINT
  5
EFB5
330
EE0B
100
AcDbEntity
  8
Defpoints
 62
     0
100
AcDbPoint
 10
1833.010462945528
 20
1821.642150575959
 30
0.0
  0
POINT
  5
EFB6
330
EE0B
100
AcDbEntity
  8
Defpoints
 62
     0
100
AcDbPoint
 10
1858.7506649709
 20
1802.648261074796
 30
0.0
  0
ENDBLK
  5
EE1B
330
EE0B
100
AcDbEntity
  8
0
100
AcDbBlockEnd
  0
BLOCK
  5
EE67
330
EE5B
100
AcDbEntity
  8
0
100
AcDbBlockBegin
  2
*D40
 70
     1
 10
0.0
 20
0.0
 30
0.0
  3
*D40
  1

  0
LINE
  5
EFB7
330
EE5B
100
AcDbEntity
  8
AM_5
100
AcDbLine
 10
1858.750664970901
 20
1801.648261074796
 30
0.0
 11
1858.750664970911
 21
1789.380209798857
 31
0.0
  0
LINE
  5
EFB8
330
EE5B
100
AcDbEntity
  8
AM_5
100
AcDbLine
 10
1893.117569726722
 20
1813.015447845527
 30
0.0
 11
1899.764373469879
 21
1806.368644102377
 31
0.0
  0
ARC
  5
EFB9
330
EE5B
100
AcDbEntity
  8
AM_5
100
AcDbCircle
 10
1858.750664970864
 20
1847.382352601352
 30
0.0
 40
57.00214280249507
100
AcDbArc
 50
271.005164217629
 51
313.9948357824442
  0
INSERT
  5
EFBA
330
EE5B
100
AcDbEntity
  8
AM_5
100
AcDbBlockReference
  2
_Dot
 10
1858.75066497091
 20
1790.380209798857
 30
0.0
 50
180.5025821088374
  0
INSERT
  5
EFBB
330
EE5B
100
AcDbEntity
  8
AM_5
100
AcDbBlockReference
  2
_Dot
 10
1899.057266688692
 20
1807.075750883563
 30
0.0
 50
44.49741789123583
  0
MTEXT
  5
EFBC
330
EE5B
100
AcDbEntity
  8
AM_5
 62
     2
100
AcDbMText
 10
1879.492927020098
 20
1797.306102247886
 30
0.0
 40
3.000000000000001
 41
0.0
 71
     5
 72
     1
  1
45\U+00B0
 11
0.9238795325110499
 21
0.3826834323656612
 31
0.0
 73
     1
 44
1.0
1001
ACAD
1000
MTEXTBEGIN
1070
    73
1070
     1
1070
    44
1040
1.0
1070
    74
1070
     0
1000
MTEXTEND
  0
POINT
  5
EFBD
330
EE5B
100
AcDbEntity
  8
Defpoints
 62
     0
100
AcDbPoint
 10
1873.503905139842
 20
1792.322510714615
 30
0.0
  0
POINT
  5
EFBE
330
EE5B
100
AcDbEntity
  8
Defpoints
 62
     0
100
AcDbPoint
 10
1858.750664970843
 20
1874.280793745519
 30
0.0
  0
POINT
  5
EFBF
330
EE5B
100
AcDbEntity
  8
Defpoints
 62
     0
100
AcDbPoint
 10
1892.410462945535
 20
1813.722554626714
 30
0.0
  0
POINT
  5
EFC0
330
EE5B
100
AcDbEntity
  8
Defpoints
 62
     0
100
AcDbPoint
 10
1884.490866996242
 20
1821.642150575999
 30
0.0
  0
POINT
  5
EFC1
330
EE5B
100
AcDbEntity
  8
Defpoints
 62
     0
100
AcDbPoint
 10
1858.7506649709
 20
1802.648261074796
 30
0.0
  0
ENDBLK
  5
EE68
330
EE5B
100
AcDbEntity
  8
0
100
AcDbBlockEnd
  0
BLOCK
  5
EE7F
330
EE75
100
AcDbEntity
  8
0
100
AcDbBlockBegin
  2
*D41
 70
     1
 10
0.0
 20
0.0
 30
0.0
  3
*D41
  1

  0
LINE
  5
EFC2
330
EE75
100
AcDbEntity
  8
AM_5
100
AcDbLine
 10
1823.750664970891
 20
1812.382352601324
 30
0.0
 11
1823.750664970891
 21
1779.172112607074
 31
0.0
  0
LINE
  5
EFC3
330
EE75
100
AcDbEntity
  8
AM_5
100
AcDbLine
 10
1893.750664970897
 20
1812.382352601324
 30
0.0
 11
1893.750664970897
 21
1779.172112607074
 31
0.0
  0
LINE
  5
EFC4
330
EE75
100
AcDbEntity
  8
AM_5
100
AcDbLine
 10
1824.750664970891
 20
1780.172112607074
 30
0.0
 11
1892.750664970897
 21
1780.172112607074
 31
0.0
  0
INSERT
  5
EFC5
330
EE75
100
AcDbEntity
  8
AM_5
100
AcDbBlockReference
  2
_Dot
 10
1823.750664970891
 20
1780.172112607074
 30
0.0
 50
180.0
  0
INSERT
  5
EFC6
330
EE75
100
AcDbEntity
  8
AM_5
100
AcDbBlockReference
  2
_Dot
 10
1893.750664970897
 20
1780.172112607074
 30
0.0
  0
MTEXT
  5
EFC7
330
EE75
100
AcDbEntity
  8
AM_5
 62
     2
100
AcDbMText
 10
1858.750664970894
 20
1782.972112607074
 30
0.0
 40
3.000000000000001
 41
0.0
 71
     5
 72
     1
  1
70
 73
     1
 44
1.0
1001
ACAD
1000
MTEXTBEGIN
1070
    73
1070
     1
1070
    44
1040
1.0
1070
    74
1070
     0
1000
MTEXTEND
  0
POINT
  5
EFC8
330
EE75
100
AcDbEntity
  8
Defpoints
 62
     0
100
AcDbPoint
 10
1823.750664970891
 20
1813.382352601324
 30
0.0
  0
POINT
  5
EFC9
330
EE75
100
AcDbEntity
  8
Defpoints
 62
     0
100
AcDbPoint
 10
1893.750664970897
 20
1813.382352601324
 30
0.0
  0
POINT
  5
EFCA
330
EE75
100
AcDbEntity
  8
Defpoints
 62
     0
100
AcDbPoint
 10
1893.750664970897
 20
1780.172112607074
 30
0.0
  0
ENDBLK
  5
EE80
330
EE75
100
AcDbEntity
  8
0
100
AcDbBlockEnd
  0
BLOCK
  5
EE9E
330
EE94
100
AcDbEntity
  8
0
100
AcDbBlockBegin
  2
*D42
 70
     1
 10
0.0
 20
0.0
 30
0.0
  3
*D42
  1

  0
LINE
  5
EFCB
330
EE94
100
AcDbEntity
  8
AM_5
100
AcDbLine
 10
1773.017982774557
 20
1868.882352601296
 30
0.0
 11
1788.017982774556
 21
1868.882352601296
 31
0.0
  0
LINE
  5
EFCC
330
EE94
100
AcDbEntity
  8
AM_5
100
AcDbLine
 10
1773.017982774557
 20
1825.882352601301
 30
0.0
 11
1788.017982774556
 21
1825.882352601301
 31
0.0
  0
LINE
  5
EFCD
330
EE94
100
AcDbEntity
  8
AM_5
100
AcDbLine
 10
1787.017982774557
 20
1867.882352601296
 30
0.0
 11
1787.017982774557
 21
1826.882352601301
 31
0.0
  0
INSERT
  5
EFCE
330
EE94
100
AcDbEntity
  8
AM_5
100
AcDbBlockReference
  2
_Dot
 10
1787.017982774557
 20
1868.882352601296
 30
0.0
 50
90.0
  0
INSERT
  5
EFCF
330
EE94
100
AcDbEntity
  8
AM_5
100
AcDbBlockReference
  2
_Dot
 10
1787.017982774557
 20
1825.882352601301
 30
0.0
 50
270.0
  0
MTEXT
  5
EFD0
330
EE94
100
AcDbEntity
  8
AM_5
 62
     2
100
AcDbMText
 10
1784.217982774556
 20
1847.382352601299
 30
0.0
 40
3.000000000000001
 41
0.0
 71
     5
 72
     1
  1
%%c43
 11
0.0000000000000001
 21
1.0
 31
0.0
 73
     1
 44
1.0
1001
ACAD
1000
MTEXTBEGIN
1070
    73
1070
     1
1070
    44
1040
1.0
1070
    74
1070
     0
1000
MTEXTEND
  0
POINT
  5
EFD1
330
EE94
100
AcDbEntity
  8
Defpoints
 62
     0
100
AcDbPoint
 10
1772.017982774556
 20
1868.882352601296
 30
0.0
  0
POINT
  5
EFD2
330
EE94
100
AcDbEntity
  8
Defpoints
 62
     0
100
AcDbPoint
 10
1772.017982774556
 20
1825.882352601301
 30
0.0
  0
POINT
  5
EFD3
330
EE94
100
AcDbEntity
  8
Defpoints
 62
     0
100
AcDbPoint
 10
1787.017982774557
 20
1825.882352601301
 30
0.0
  0
ENDBLK
  5
EE9F
330
EE94
100
AcDbEntity
  8
0
100
AcDbBlockEnd
  0
BLOCK
  5
EEC7
330
EEBD
100
AcDbEntity
  8
0
100
AcDbBlockBegin
  2
*D43
 70
     1
 10
0.0
 20
0.0
 30
0.0
  3
*D43
  1

  0
LINE
  5
EFD4
330
EEBD
100
AcDbEntity
  8
AM_5
100
AcDbLine
 10
1891.750664970899
 20
1810.382352601376
 30
0.0
 11
1909.709204703099
 21
1810.382352601376
 31
0.0
  0
LINE
  5
EFD5
330
EEBD
100
AcDbEntity
  8
AM_5
100
AcDbLine
 10
1889.163819305152
 20
1847.382352601378
 30
0.0
 11
1909.709204703099
 21
1847.382352601378
 31
0.0
  0
LINE
  5
EFD6
330
EEBD
100
AcDbEntity
  8
AM_5
100
AcDbLine
 10
1908.709204703098
 20
1811.382352601376
 30
0.0
 11
1908.709204703098
 21
1846.382352601378
 31
0.0
  0
INSERT
  5
EFD7
330
EEBD
100
AcDbEntity
  8
AM_5
100
AcDbBlockReference
  2
_Dot
 10
1908.709204703098
 20
1810.382352601376
 30
0.0
 50
270.0
  0
INSERT
  5
EFD8
330
EEBD
100
AcDbEntity
  8
AM_5
100
AcDbBlockReference
  2
_Dot
 10
1908.709204703098
 20
1847.382352601378
 30
0.0
 50
90.0
  0
MTEXT
  5
EFD9
330
EEBD
100
AcDbEntity
  8
AM_5
 62
     2
100
AcDbMText
 10
1905.909204703098
 20
1828.882352601377
 30
0.0
 40
3.000000000000001
 41
0.0
 71
     5
 72
     1
  1
37
 11
0.0000000000000001
 21
1.0
 31
0.0
 73
     1
 44
1.0
1001
ACAD
1000
MTEXTBEGIN
1070
    73
1070
     1
1070
    44
1040
1.0
1070
    74
1070
     0
1000
MTEXTEND
  0
POINT
  5
EFDA
330
EEBD
100
AcDbEntity
  8
Defpoints
 62
     0
100
AcDbPoint
 10
1890.750664970899
 20
1810.382352601376
 30
0.0
  0
POINT
  5
EFDB
330
EEBD
100
AcDbEntity
  8
Defpoints
 62
     0
100
AcDbPoint
 10
1888.163819305152
 20
1847.382352601378
 30
0.0
  0
POINT
  5
EFDC
330
EEBD
100
AcDbEntity
  8
Defpoints
 62
     0
100
AcDbPoint
 10
1908.709204703098
 20
1847.382352601378
 30
0.0
  0
ENDBLK
  5
EEC8
330
EEBD
100
AcDbEntity
  8
0
100
AcDbBlockEnd
  0
BLOCK
  5
EEFC
330
EEF5
100
AcDbEntity
  8
0
100
AcDbBlockBegin
  2
*D44
 70
     1
 10
0.0
 20
0.0
 30
0.0
  3
*D44
  1

  0
LINE
  5
EFDD
330
EEF5
100
AcDbEntity
  8
AM_5
100
AcDbLine
 10
1858.750664970866
 20
1847.382352601352
 30
0.0
 11
1871.513028380098
 21
1809.470698601535
 31
0.0
  0
INSERT
  5
EFDE
330
EEF5
100
AcDbEntity
  8
AM_5
100
AcDbBlockReference
  2
_OPEN30
 10
1872.151112368361
 20
1807.575217442588
 30
0.0
 41
2.0
 42
2.0
 43
2.0
 50
288.604998648908
  0
MTEXT
  5
EFDF
330
EEF5
100
AcDbEntity
  8
AM_5
 62
     2
100
AcDbMText
 10
1871.067836125126
 20
1819.569453075776
 30
0.0
 40
3.000000000000001
 41
0.0
 71
     5
 72
     1
  1
R42
 11
0.319041994131289
 21
-0.9477405794734815
 31
0.0
 73
     1
 44
1.0
1001
ACAD
1000
MTEXTBEGIN
1070
    73
1070
     1
1070
    44
1040
1.0
1070
    74
1070
     0
1000
MTEXTEND
  0
POINT
  5
EFE0
330
EEF5
100
AcDbEntity
  8
Defpoints
 62
     0
100
AcDbPoint
 10
1872.151112368361
 20
1807.575217442588
 30
0.0
  0
POINT
  5
EFE1
330
EEF5
100
AcDbEntity
  8
Defpoints
 62
     0
100
AcDbPoint
 10
1858.750664970866
 20
1847.382352601352
 30
0.0
  0
ENDBLK
  5
EEFD
330
EEF5
100
AcDbEntity
  8
0
100
AcDbBlockEnd
  0
BLOCK
  5
EF25
330
EF1F
100
AcDbEntity
  8
0
100
AcDbBlockBegin
  2
*D45
 70
     1
 10
0.0
 20
0.0
 30
0.0
  3
*D45
  1

  0
LINE
  5
EFE2
330
EF1F
100
AcDbEntity
  8
AM_5
100
AcDbLine
 10
1811.523917283729
 20
1835.009772821495
 30
0.0
 11
1823.723917283731
 21
1835.009772821495
 31
0.0
  0
LINE
  5
EFE3
330
EF1F
100
AcDbEntity
  8
AM_5
100
AcDbLine
 10
1823.723917283731
 20
1835.009772821495
 30
0.0
 11
1827.698974962343
 21
1822.079275857498
 31
0.0
  0
LINE
  5
EFE4
330
EF1F
100
AcDbEntity
  8
AM_5
100
AcDbLine
 10
1830.402354979436
 20
1813.285429345124
 30
0.0
 11
1830.9900462875
 21
1811.373723581565
 31
0.0
  0
MTEXT
  5
EFE5
330
EF1F
100
AcDbEntity
  8
AM_5
 62
     2
100
AcDbMText
 10
1816.973917283729
 20
1837.809772821495
 30
0.0
 40
3.000000000000001
 41
0.0
 71
     5
 72
     1
  1
2-\U+22055.2
 73
     1
 44
1.0
1001
ACAD
1000
MTEXTBEGIN
1070
    73
1070
     1
1070
    44
1040
1.0
1070
    74
1070
     0
1000
MTEXTEND
  0
LINE
  5
EFE6
330
EF1F
100
AcDbEntity
  8
AM_5
100
AcDbLine
 10
1829.814663671372
 20
1815.197135108683
 30
0.0
 11
1828.286666270407
 21
1820.167570093938
 31
0.0
  0
INSERT
  5
EFE7
330
EF1F
100
AcDbEntity
  8
AM_5
100
AcDbBlockReference
  2
GENDOT
 10
1829.814663671372
 20
1815.197135108683
 30
0.0
 41
2.0
 42
2.0
 43
2.0
 50
107.0883306441206
  0
INSERT
  5
EFE8
330
EF1F
100
AcDbEntity
  8
AM_5
100
AcDbBlockReference
  2
GENDOT
 10
1828.286666270407
 20
1820.167570093938
 30
0.0
 41
2.0
 42
2.0
 43
2.0
 50
287.0883306441207
  0
POINT
  5
EFE9
330
EF1F
100
AcDbEntity
  8
Defpoints
 62
     0
100
AcDbPoint
 10
1828.286666270407
 20
1820.167570093938
 30
0.0
  0
POINT
  5
EFEA
330
EF1F
100
AcDbEntity
  8
Defpoints
 62
     0
100
AcDbPoint
 10
1829.814663671372
 20
1815.197135108683
 30
0.0
  0
ENDBLK
  5
EF26
330
EF1F
100
AcDbEntity
  8
0
100
AcDbBlockEnd
  0
BLOCK
  5
EF60
330
EF56
100
AcDbEntity
  8
0
100
AcDbBlockBegin
  2
*D46
 70
     1
 10
0.0
 20
0.0
 30
0.0
  3
*D46
  1

  0
LINE
  5
EFEB
330
EF56
100
AcDbEntity
  8
AM_5
100
AcDbLine
 10
1772.017982774589
 20
1824.882352601301
 30
0.0
 11
1772.017982774589
 21
1779.382352601297
 31
0.0
  0
LINE
  5
EFEC
330
EF56
100
AcDbEntity
  8
AM_5
100
AcDbLine
 10
1732.017982774573
 20
1843.382352601242
 30
0.0
 11
1732.017982774573
 21
1779.382352601297
 31
0.0
  0
LINE
  5
EFED
330
EF56
100
AcDbEntity
  8
AM_5
100
AcDbLine
 10
1771.017982774589
 20
1780.382352601297
 30
0.0
 11
1733.017982774573
 21
1780.382352601297
 31
0.0
  0
INSERT
  5
EFEE
330
EF56
100
AcDbEntity
  8
AM_5
100
AcDbBlockReference
  2
_Dot
 10
1772.017982774589
 20
1780.382352601297
 30
0.0
  0
INSERT
  5
EFEF
330
EF56
100
AcDbEntity
  8
AM_5
100
AcDbBlockReference
  2
_Dot
 10
1732.017982774573
 20
1780.382352601297
 30
0.0
 50
180.0
  0
MTEXT
  5
EFF0
330
EF56
100
AcDbEntity
  8
AM_5
 62
     2
100
AcDbMText
 10
1752.017982774581
 20
1783.182352601297
 30
0.0
 40
3.000000000000001
 41
0.0
 71
     5
 72
     1
  1
40
 73
     1
 44
1.0
1001
ACAD
1000
MTEXTBEGIN
1070
    73
1070
     1
1070
    44
1040
1.0
1070
    74
1070
     0
1000
MTEXTEND
  0
POINT
  5
EFF1
330
EF56
100
AcDbEntity
  8
Defpoints
 62
     0
100
AcDbPoint
 10
1772.017982774589
 20
1825.882352601301
 30
0.0
  0
POINT
  5
EFF2
330
EF56
100
AcDbEntity
  8
Defpoints
 62
     0
100
AcDbPoint
 10
1732.017982774573
 20
1844.382352601242
 30
0.0
  0
POINT
  5
EFF3
330
EF56
100
AcDbEntity
  8
Defpoints
 62
     0
100
AcDbPoint
 10
1732.017982774573
 20
1780.382352601297
 30
0.0
  0
ENDBLK
  5
EF61
330
EF56
100
AcDbEntity
  8
0
100
AcDbBlockEnd
  0
BLOCK
  5
F145
330
F13E
100
AcDbEntity
  8
0
100
AcDbBlockBegin
  2
*S47
 70
     1
 10
0.0
 20
0.0
 30
0.0
  3
*S47
  1

  0
LINE
  5
F13F
330
F13E
100
AcDbEntity
  8
AM_5
 62
     3
100
AcDbLine
 10
1630.522276932128
 20
1790.158228890273
 30
0.0
 11
1680.978566119286
 21
1790.158228890273
 31
0.0
  0
LINE
  5
F140
330
F13E
100
AcDbEntity
  8
AM_5
 62
     3
100
AcDbLine
 10
1680.978566119286
 20
1790.158228890273
 30
0.0
 11
1664.254786834204
 21
1822.540539329597
 31
0.0
  0
LINE
  5
F141
330
F13E
100
AcDbEntity
  8
AM_5
  6
Continuous
 62
     3
100
AcDbLine
 10
1664.254786834204
 20
1822.540539329597
 30
0.0
 11
1663.337053452608
 21
1824.317549582889
 31
0.0
  0
LINE
  5
F142
330
F13E
100
AcDbEntity
  8
AM_5
  6
Continuous
 62
     3
100
AcDbLine
 10
1664.730935292196
 20
1822.786445245832
 30
0.0
 11
1663.337053452608
 21
1824.317549582889
 31
0.0
  0
LINE
  5
F143
330
F13E
100
AcDbEntity
  8
AM_5
  6
Continuous
 62
     3
100
AcDbLine
 10
1663.337053452608
 20
1824.317549582889
 30
0.0
 11
1663.778638376213
 21
1822.294633413363
 31
0.0
  0
MTEXT
  5
F144
330
F13E
100
AcDbEntity
  8
AM_5
 62
     2
100
AcDbMText
 10
1630.522276932128
 20
1791.758228890273
 30
0.0
 40
3.2
 41
0.0
 71
     7
 72
     5
  1
クラッチギア（m=3.0、d=%%c42）
 73
     1
 44
1.0
1001
ACAD
1000
MTEXTBEGIN
1070
    73
1070
     1
1070
    44
1040
1.0
1070
    74
1070
     0
1000
MTEXTEND
  0
ENDBLK
  5
F146
330
F13E
100
AcDbEntity
  8
0
100
AcDbBlockEnd
  0
ENDSEC
  0
SECTION
  2
ENTITIES
  0
LINE
  5
CBC8
330
1F
100
AcDbEntity
  8
size
100
AcDbLine
 10
1540.017319213633
 20
1698.358829750836
 30
0.0
 11
1960.017319213633
 21
1698.358829750836
 31
0.0
1001
GENIUS_GENREC_14
1002
{
1000
PYDIR
1011
1540.017319213633
1021
1995.358829750836
1031
0.0
1002
}
1002
{
1000
PXDIR
1011
1960.017319213633
1021
1698.358829750836
1031
0.0
1002
}
1002
{
1000
PORI
1011
1540.017319213633
1021
1698.358829750836
1031
0.0
1002
}
1002
{
1000
PINS
1011
1750.017319213634
1021
1846.858829750836
1031
0.0
1002
}
1002
{
1000
HVAL
1000
297
1002
}
1002
{
1000
H
1070
     2
1002
}
1002
{
1000
WVAL
1000
420
1002
}
1002
{
1000
W
1070
     2
1002
}
1002
{
1000
C
1070
     4
1002
}
1001
GENIUS_GENOBJ-N-REC_13
1002
{
1000
OWNER
1000
GEN
1002
}
1001
GENIUS_GENODEF_13
1002
{
1000
HIER
1070
     0
1002
}
1002
{
1000
MANEDIT
1070
     0
1002
}
1002
{
1000
NOSEL
1070
     0
1002
}
1002
{
1000
BEHIND
1070
     0
1002
}
1002
{
1000
OTHER
1070
     0
1002
}
1002
{
1000
REACTOR
1002
}
  0
LINE
  5
CBCA
330
1F
100
AcDbEntity
  8
size
100
AcDbLine
 10
1960.017319213633
 20
1995.358829750836
 30
0.0
 11
1540.017319213633
 21
1995.358829750836
 31
0.0
1001
GENIUS_GENREC_14
1002
{
1000
PYDIR
1011
1540.017319213633
1021
1995.358829750836
1031
0.0
1002
}
1002
{
1000
PXDIR
1011
1960.017319213633
1021
1698.358829750836
1031
0.0
1002
}
1002
{
1000
PORI
1011
1540.017319213633
1021
1698.358829750836
1031
0.0
1002
}
1002
{
1000
PINS
1011
1750.017319213634
1021
1846.858829750836
1031
0.0
1002
}
1002
{
1000
HVAL
1000
297
1002
}
1002
{
1000
H
1070
     2
1002
}
1002
{
1000
WVAL
1000
420
1002
}
1002
{
1000
W
1070
     2
1002
}
1002
{
1000
C
1070
     4
1002
}
1001
GENIUS_GENOBJ-N-REC_13
1002
{
1000
OWNER
1000
GEN
1002
}
1001
GENIUS_GENODEF_13
1002
{
1000
HIER
1070
     0
1002
}
1002
{
1000
MANEDIT
1070
     0
1002
}
1002
{
1000
NOSEL
1070
     0
1002
}
1002
{
1000
BEHIND
1070
     0
1002
}
1002
{
1000
OTHER
1070
     0
1002
}
1002
{
1000
REACTOR
1002
}
  0
LINE
  5
CBCB
330
1F
100
AcDbEntity
  8
size
100
AcDbLine
 10
1540.017319213633
 20
1995.358829750836
 30
0.0
 11
1540.017319213633
 21
1698.358829750836
 31
0.0
1001
GENIUS_GENREC_14
1002
{
1000
PYDIR
1011
1540.017319213633
1021
1995.358829750836
1031
0.0
1002
}
1002
{
1000
PXDIR
1011
1960.017319213633
1021
1698.358829750836
1031
0.0
1002
}
1002
{
1000
PORI
1011
1540.017319213633
1021
1698.358829750836
1031
0.0
1002
}
1002
{
1000
PINS
1011
1750.017319213634
1021
1846.858829750836
1031
0.0
1002
}
1002
{
1000
HVAL
1000
297
1002
}
1002
{
1000
H
1070
     2
1002
}
1002
{
1000
WVAL
1000
420
1002
}
1002
{
1000
W
1070
     2
1002
}
1002
{
1000
C
1070
     4
1002
}
1001
GENIUS_GENOBJ-N-REC_13
1002
{
1000
OWNER
1000
GEN
1002
}
1001
GENIUS_GENODEF_13
1002
{
1000
HIER
1070
     0
1002
}
1002
{
1000
MANEDIT
1070
     0
1002
}
1002
{
1000
NOSEL
1070
     0
1002
}
1002
{
1000
BEHIND
1070
     0
1002
}
1002
{
1000
OTHER
1070
     0
1002
}
1002
{
1000
REACTOR
1002
}
  0
LINE
  5
CBCC
330
1F
100
AcDbEntity
  8
waku
100
AcDbLine
 10
1948.517319213634
 20
1706.858829750836
 30
0.0
 11
1948.517319213634
 21
1986.858829750836
 31
0.0
1001
GENIUS_GENREC_14
1002
{
1000
PYDIR
1011
1540.017319213633
1021
1995.358829750836
1031
0.0
1002
}
1002
{
1000
PXDIR
1011
1960.017319213633
1021
1698.358829750836
1031
0.0
1002
}
1002
{
1000
PORI
1011
1540.017319213633
1021
1698.358829750836
1031
0.0
1002
}
1002
{
1000
PINS
1011
1750.017319213634
1021
1846.858829750836
1031
0.0
1002
}
1002
{
1000
HVAL
1000
297
1002
}
1002
{
1000
H
1070
     2
1002
}
1002
{
1000
WVAL
1000
420
1002
}
1002
{
1000
W
1070
     2
1002
}
1002
{
1000
C
1070
     4
1002
}
1001
GENIUS_GENOBJ-N-REC_13
1002
{
1000
OWNER
1000
GEN
1002
}
1001
GENIUS_GENODEF_13
1002
{
1000
HIER
1070
     0
1002
}
1002
{
1000
MANEDIT
1070
     0
1002
}
1002
{
1000
NOSEL
1070
     0
1002
}
1002
{
1000
BEHIND
1070
     0
1002
}
1002
{
1000
OTHER
1070
     0
1002
}
1002
{
1000
REACTOR
1002
}
  0
LINE
  5
CBCD
330
1F
100
AcDbEntity
  8
waku
100
AcDbLine
 10
1551.517319213633
 20
1986.858829750836
 30
0.0
 11
1551.517319213633
 21
1706.858829750836
 31
0.0
1001
GENIUS_GENREC_14
1002
{
1000
PYDIR
1011
1540.017319213633
1021
1995.358829750836
1031
0.0
1002
}
1002
{
1000
PXDIR
1011
1960.017319213633
1021
1698.358829750836
1031
0.0
1002
}
1002
{
1000
PORI
1011
1540.017319213633
1021
1698.358829750836
1031
0.0
1002
}
1002
{
1000
PINS
1011
1750.017319213634
1021
1846.858829750836
1031
0.0
1002
}
1002
{
1000
HVAL
1000
297
1002
}
1002
{
1000
H
1070
     2
1002
}
1002
{
1000
WVAL
1000
420
1002
}
1002
{
1000
W
1070
     2
1002
}
1002
{
1000
C
1070
     4
1002
}
1001
GENIUS_GENOBJ-N-REC_13
1002
{
1000
OWNER
1000
GEN
1002
}
1001
GENIUS_GENODEF_13
1002
{
1000
HIER
1070
     0
1002
}
1002
{
1000
MANEDIT
1070
     0
1002
}
1002
{
1000
NOSEL
1070
     0
1002
}
1002
{
1000
BEHIND
1070
     0
1002
}
1002
{
1000
OTHER
1070
     0
1002
}
1002
{
1000
REACTOR
1002
}
  0
LINE
  5
CBCE
330
1F
100
AcDbEntity
  8
waku
100
AcDbLine
 10
1948.517319213634
 20
1986.858829750836
 30
0.0
 11
1551.517319213633
 21
1986.858829750836
 31
0.0
1001
GENIUS_GENREC_14
1002
{
1000
PYDIR
1011
1540.017319213633
1021
1995.358829750836
1031
0.0
1002
}
1002
{
1000
PXDIR
1011
1960.017319213633
1021
1698.358829750836
1031
0.0
1002
}
1002
{
1000
PORI
1011
1540.017319213633
1021
1698.358829750836
1031
0.0
1002
}
1002
{
1000
PINS
1011
1750.017319213634
1021
1846.858829750836
1031
0.0
1002
}
1002
{
1000
HVAL
1000
297
1002
}
1002
{
1000
H
1070
     2
1002
}
1002
{
1000
WVAL
1000
420
1002
}
1002
{
1000
W
1070
     2
1002
}
1002
{
1000
C
1070
     4
1002
}
1001
GENIUS_GENOBJ-N-REC_13
1002
{
1000
OWNER
1000
GEN
1002
}
1001
GENIUS_GENODEF_13
1002
{
1000
HIER
1070
     0
1002
}
1002
{
1000
MANEDIT
1070
     0
1002
}
1002
{
1000
NOSEL
1070
     0
1002
}
1002
{
1000
BEHIND
1070
     0
1002
}
1002
{
1000
OTHER
1070
     0
1002
}
1002
{
1000
REACTOR
1002
}
  0
LINE
  5
CBCF
330
1F
100
AcDbEntity
  8
waku
100
AcDbLine
 10
1551.517319213633
 20
1706.858829750836
 30
0.0
 11
1948.517319213634
 21
1706.858829750836
 31
0.0
  0
LINE
  5
CBD0
330
1F
100
AcDbEntity
  8
AM_0
100
AcDbLine
 10
1551.517319213633
 20
1986.858829750836
 30
0.0
 11
1661.517319213633
 21
1986.858829750836
 31
0.0
  0
LINE
  5
CBD1
330
1F
100
AcDbEntity
  8
AM_0
100
AcDbLine
 10
1551.517319213633
 20
1922.858829750836
 30
0.0
 11
1661.517319213633
 21
1922.858829750836
 31
0.0
  0
LINE
  5
CBD2
330
1F
100
AcDbEntity
  8
AM_2
100
AcDbLine
 10
1571.517319213633
 20
1930.858829750836
 30
0.0
 11
1661.517319213633
 21
1930.858829750836
 31
0.0
  0
LINE
  5
CBD3
330
1F
100
AcDbEntity
  8
AM_2
100
AcDbLine
 10
1571.517319213633
 20
1938.858829750836
 30
0.0
 11
1661.517319213633
 21
1938.858829750836
 31
0.0
  0
LINE
  5
CBD4
330
1F
100
AcDbEntity
  8
AM_2
100
AcDbLine
 10
1551.517319213633
 20
1946.858829750836
 30
0.0
 11
1661.517319213633
 21
1946.858829750836
 31
0.0
  0
LINE
  5
CBD5
330
1F
100
AcDbEntity
  8
AM_2
100
AcDbLine
 10
1571.517319213633
 20
1938.858829750836
 30
0.0
 11
1661.517319213633
 21
1938.858829750836
 31
0.0
  0
LINE
  5
CBD6
330
1F
100
AcDbEntity
  8
AM_2
100
AcDbLine
 10
1571.517319213633
 20
1946.858829750836
 30
0.0
 11
1661.517319213633
 21
1946.858829750836
 31
0.0
  0
LINE
  5
CBD7
330
1F
100
AcDbEntity
  8
AM_2
100
AcDbLine
 10
1551.517319213633
 20
1954.858829750836
 30
0.0
 11
1661.517319213633
 21
1954.858829750836
 31
0.0
  0
LINE
  5
CBD8
330
1F
100
AcDbEntity
  8
AM_2
100
AcDbLine
 10
1551.517319213633
 20
1962.858829750836
 30
0.0
 11
1661.517319213633
 21
1962.858829750836
 31
0.0
  0
LINE
  5
CBD9
330
1F
100
AcDbEntity
  8
AM_2
100
AcDbLine
 10
1551.517319213633
 20
1970.858829750836
 30
0.0
 11
1661.517319213633
 21
1970.858829750836
 31
0.0
  0
LINE
  5
CBDA
330
1F
100
AcDbEntity
  8
AM_2
100
AcDbLine
 10
1551.517319213633
 20
1978.858829750836
 30
0.0
 11
1661.517319213633
 21
1978.858829750836
 31
0.0
  0
LINE
  5
CBDB
330
1F
100
AcDbEntity
  8
AM_0
100
AcDbLine
 10
1551.517319213633
 20
1986.858829750836
 30
0.0
 11
1551.517319213633
 21
1922.858829750836
 31
0.0
  0
LINE
  5
CBDC
330
1F
100
AcDbEntity
  8
AM_2
100
AcDbLine
 10
1571.517319213633
 20
1986.858829750836
 30
0.0
 11
1571.517319213633
 21
1922.858829750836
 31
0.0
  0
MTEXT
  5
CBDD
330
1F
100
AcDbEntity
  8
AM_6
100
AcDbMText
 10
1561.517319213633
 20
1942.858829750836
 30
0.0
 40
3.2
 41
20.0
 71
     5
 72
     5
  1
備　考
 73
     1
 44
1.0
1001
ACAD
1000
MTEXTBEGIN
1070
    73
1070
     1
1070
    44
1040
1.0
1070
    74
1070
     0
1000
MTEXTEND
  0
MTEXT
  5
CBE0
330
1F
100
AcDbEntity
  8
AM_6
100
AcDbMText
 10
1561.517319213633
 20
1958.858829750836
 30
0.0
 40
3.2
 41
20.0
 71
     5
 72
     5
  1
仕上げ
 73
     1
 44
1.0
1001
ACAD
1000
MTEXTBEGIN
1070
    73
1070
     1
1070
    44
1040
1.0
1070
    74
1070
     0
1000
MTEXTEND
  0
MTEXT
  5
CBE1
330
1F
100
AcDbEntity
  8
AM_6
100
AcDbMText
 10
1561.517319213633
 20
1950.858829750836
 30
0.0
 40
3.2
 41
20.0
 71
     5
 72
     5
  1
左右勝手
 73
     1
 44
1.0
1001
ACAD
1000
MTEXTBEGIN
1070
    73
1070
     1
1070
    44
1040
1.0
1070
    74
1070
     0
1000
MTEXTEND
  0
MTEXT
  5
CBE2
330
1F
100
AcDbEntity
  8
AM_6
100
AcDbMText
 10
1561.517319213633
 20
1966.858829750836
 30
0.0
 40
3.2
 41
20.0
 71
     5
 72
     5
  1
材　質
 73
     1
 44
1.0
1001
ACAD
1000
MTEXTBEGIN
1070
    73
1070
     1
1070
    44
1040
1.0
1070
    74
1070
     0
1000
MTEXTEND
  0
MTEXT
  5
CBE3
330
1F
100
AcDbEntity
  8
AM_6
100
AcDbMText
 10
1561.517319213633
 20
1982.858829750836
 30
0.0
 40
3.2
 41
20.0
 71
     5
 72
     5
  1
品　名
 73
     1
 44
1.0
1001
ACAD
1000
MTEXTBEGIN
1070
    73
1070
     1
1070
    44
1040
1.0
1070
    74
1070
     0
1000
MTEXTEND
  0
MTEXT
  5
CBE4
330
1F
100
AcDbEntity
  8
AM_6
100
AcDbMText
 10
1561.517319213633
 20
1974.858829750836
 30
0.0
 40
3.2
 41
20.0
 71
     5
 72
     5
  1
品　番
 73
     1
 44
1.0
1001
ACAD
1000
MTEXTBEGIN
1070
    73
1070
     1
1070
    44
1040
1.0
1070
    74
1070
     0
1000
MTEXTEND
  0
MTEXT
  5
CBE5
330
1F
100
AcDbEntity
  8
AM_6
100
AcDbMText
 10
1571.517319213633
 20
1958.858829750836
 30
0.0
 40
3.2
 41
90.0
 71
     4
 72
     5
  1
　ケース：生地、クラッチギア：生地
 73
     1
 44
1.0
1001
ACAD
1000
MTEXTBEGIN
1070
    73
1070
     1
1070
    44
1040
1.0
1070
    74
1070
     0
1000
MTEXTEND
  0
MTEXT
  5
CBE6
330
1F
100
AcDbEntity
  8
AM_6
100
AcDbMText
 10
1571.517319213633
 20
1950.858829750836
 30
0.0
 40
3.2
 41
90.0
 71
     4
 72
     5
  1
　左右兼用
 73
     1
 44
1.0
1001
ACAD
1000
MTEXTBEGIN
1070
    73
1070
     1
1070
    44
1040
1.0
1070
    74
1070
     0
1000
MTEXTEND
  0
MTEXT
  5
CBE7
330
1F
100
AcDbEntity
  8
AM_6
100
AcDbMText
 10
1571.517319213633
 20
1966.858829750836
 30
0.0
 40
3.2
 41
90.0
 71
     4
 72
     5
  1
　ケース：ポリアセタール樹脂、クラッチギア：ポリアセタール樹脂
 73
     1
 44
1.0
1001
ACAD
1000
MTEXTBEGIN
1070
    73
1070
     1
1070
    44
1040
1.0
1070
    74
1070
     0
1000
MTEXTEND
  0
MTEXT
  5
CBE8
330
1F
100
AcDbEntity
  8
AM_6
100
AcDbMText
 10
1571.517319213633
 20
1974.858829750836
 30
0.0
 40
3.2
 41
90.0
 71
     4
 72
     5
  1
　SC-C08
 73
     1
 44
1.0
1001
ACAD
1000
MTEXTBEGIN
1070
    73
1070
     1
1070
    44
1040
1.0
1070
    74
1070
     0
1000
MTEXTEND
  0
MTEXT
  5
CBE9
330
1F
100
AcDbEntity
  8
AM_6
100
AcDbMText
 10
1571.517319213633
 20
1982.858829750836
 30
0.0
 40
3.2
 41
90.0
 71
     4
 72
     5
  1
　制動装置
 73
     1
 44
1.0
1001
ACAD
1000
MTEXTBEGIN
1070
    73
1070
     1
1070
    44
1040
1.0
1070
    74
1070
     0
1000
MTEXTEND
  0
LINE
  5
CBEA
330
1F
100
AcDbEntity
  8
AM_0
100
AcDbLine
 10
1661.517319213633
 20
1986.858829750836
 30
0.0
 11
1661.517319213633
 21
1922.858829750836
 31
0.0
  0
LINE
  5
CBEB
330
1F
100
AcDbEntity
  8
AM_2
100
AcDbLine
 10
1571.517319213633
 20
1962.858829750836
 30
0.0
 11
1661.517319213633
 21
1962.858829750836
 31
0.0
  0
LINE
  5
CBEC
330
1F
100
AcDbEntity
  8
AM_2
100
AcDbLine
 10
1571.517319213633
 20
1954.858829750836
 30
0.0
 11
1661.517319213633
 21
1954.858829750836
 31
0.0
  0
LINE
  5
CBED
330
1F
100
AcDbEntity
  8
AM_2
100
AcDbLine
 10
1571.517319213633
 20
1954.858829750836
 30
0.0
 11
1661.517319213633
 21
1954.858829750836
 31
0.0
  0
LINE
  5
CED4
330
1F
100
AcDbEntity
  8
size
100
AcDbLine
 10
1960.017319213633
 20
1995.358829750836
 30
0.0
 11
1960.017319213633
 21
1698.358829750836
 31
0.0
1001
GENIUS_GENREC_14
1002
{
1000
PYDIR
1011
1960.017319213633
1021
1995.358829750836
1031
0.0
1002
}
1002
{
1000
PXDIR
1011
2380.017319213633
1021
1698.358829750836
1031
0.0
1002
}
1002
{
1000
PORI
1011
1960.017319213633
1021
1698.358829750836
1031
0.0
1002
}
1002
{
1000
PINS
1011
2170.017319213634
1021
1846.858829750836
1031
0.0
1002
}
1002
{
1000
HVAL
1000
297
1002
}
1002
{
1000
H
1070
     2
1002
}
1002
{
1000
WVAL
1000
420
1002
}
1002
{
1000
W
1070
     2
1002
}
1002
{
1000
C
1070
     4
1002
}
1001
GENIUS_GENOBJ-N-REC_13
1002
{
1000
OWNER
1000
GEN
1002
}
1001
GENIUS_GENODEF_13
1002
{
1000
HIER
1070
     0
1002
}
1002
{
1000
MANEDIT
1070
     0
1002
}
1002
{
1000
NOSEL
1070
     0
1002
}
1002
{
1000
BEHIND
1070
     0
1002
}
1002
{
1000
OTHER
1070
     0
1002
}
1002
{
1000
REACTOR
1002
}
  0
LINE
  5
D22C
330
1F
100
AcDbEntity
  8
AM_0
100
AcDbLine
 10
1772.017982774556
 20
1868.882352601296
 30
0.0
 11
1772.017982774587
 21
1825.882352601301
 31
0.0
  0
LINE
  5
D22D
330
1F
100
AcDbEntity
  8
AM_0
100
AcDbLine
 10
1748.017982774579
 20
1822.3823526011
 30
0.0
 11
1748.017982774559
 21
1872.382352601459
 31
0.0
  0
LINE
  5
D22E
330
1F
100
AcDbEntity
  8
AM_0
100
AcDbLine
 10
1768.017982774583
 20
1810.382352601294
 30
0.0
 11
1768.017982774569
 21
1847.382352601296
 31
0.0
  0
LINE
  5
D22F
330
1F
100
AcDbEntity
  8
AM_0
100
AcDbLine
 10
1763.017982774584
 20
1810.38235260129
 30
0.0
 11
1763.017982774567
 21
1851.669395718388
 31
0.0
  0
LINE
  5
D230
330
1F
100
AcDbEntity
  8
AM_0
100
AcDbLine
 10
1763.017982774582
 20
1810.38235260129
 30
0.0
 11
1768.017982774597
 21
1810.382352601294
 31
0.0
  0
LINE
  5
D231
330
1F
100
AcDbEntity
  8
AM_0
100
AcDbLine
 10
1768.017982774577
 20
1825.882352601298
 30
0.0
 11
1772.017982774589
 21
1825.882352601301
 31
0.0
  0
LINE
  5
D232
330
1F
100
AcDbEntity
  8
AM_0
100
AcDbLine
 10
1763.017982774678
 20
1868.882352601289
 30
0.0
 11
1772.017982774556
 21
1868.882352601296
 31
0.0
  0
LINE
  5
D233
330
1F
100
AcDbEntity
  8
AM_7
100
AcDbLine
 10
1774.02159460753
 20
1847.3823526013
 30
0.0
 11
1730.282500074919
 21
1847.382352601266
 31
0.0
  0
LINE
  5
D234
330
1F
100
AcDbEntity
  8
AM_0
100
AcDbLine
 10
1763.017982774675
 20
1872.382352601456
 30
0.0
 11
1763.017982774678
 21
1868.450605051773
 31
0.0
  0
LINE
  5
D235
330
1F
100
AcDbEntity
  8
AM_0
100
AcDbLine
 10
1743.017982774579
 20
1826.219431252973
 30
0.0
 11
1743.017982774562
 21
1868.545273949578
 31
0.0
  0
LINE
  5
D236
330
1F
100
AcDbEntity
  8
AM_0
100
AcDbLine
 10
1826.750664970893
 20
1810.382352601326
 30
0.0
 11
1890.750664970899
 21
1810.382352601376
 31
0.0
  0
CIRCLE
  5
D237
330
1F
100
AcDbEntity
  8
AM_0
100
AcDbCircle
 10
1888.450664970888
 20
1817.682352601356
 30
0.0
 40
2.6
  0
CIRCLE
  5
D238
330
1F
100
AcDbEntity
  8
AM_0
100
AcDbCircle
 10
1829.050664970889
 20
1817.68235260131
 30
0.0
 40
2.6
  0
ARC
  5
D239
330
1F
100
AcDbEntity
  8
AM_0
100
AcDbCircle
 10
1858.750664970847
 20
1869.632352601351
 30
0.0
 40
2.750000000083759
100
AcDbArc
 50
9.428018850643862
 51
170.5719811494485
  0
ARC
  5
D23A
330
1F
100
AcDbEntity
  8
AM_0
100
AcDbCircle
 10
1854.064827145273
 20
1870.41044248897
 30
0.0
 40
2.0
100
AcDbArc
 50
281.5017201721172
 51
350.5719811494486
  0
ARC
  5
D23B
330
1F
100
AcDbEntity
  8
AM_0
100
AcDbCircle
 10
1863.43650279642
 20
1870.410442488977
 30
0.0
 40
2.0
100
AcDbArc
 50
189.4280188506438
 51
258.4982798279775
  0
LINE
  5
D23C
330
1F
100
AcDbEntity
  8
AM_0
100
AcDbLine
 10
1893.750664970875
 20
1824.03515440845
 30
0.0
 11
1893.750664970895
 21
1813.382352601382
 31
0.0
  0
LINE
  5
D23D
330
1F
100
AcDbEntity
  8
AM_0
100
AcDbLine
 10
1823.750664970887
 20
1824.035154408389
 30
0.0
 11
1823.750664970891
 21
1813.382352601325
 31
0.0
  0
ARC
  5
D23E
330
1F
100
AcDbEntity
  8
AM_0
100
AcDbCircle
 10
1890.750664970897
 20
1813.382352601376
 30
0.0
 40
3.0
100
AcDbArc
 50
270.0000000000391
 51
0.0000000000521102
  0
ARC
  5
D23F
330
1F
100
AcDbEntity
  8
AM_0
100
AcDbCircle
 10
1826.750664970891
 20
1813.382352601326
 30
0.0
 40
3.0
100
AcDbArc
 50
180.0000000000391
 51
270.0000000000391
  0
CIRCLE
  5
D240
330
1F
100
AcDbEntity
  8
AM_0
100
AcDbCircle
 10
1858.750664970865
 20
1847.382352601352
 30
0.0
 40
21.5
  0
LINE
  5
D241
330
1F
100
AcDbEntity
  8
AM_0
100
AcDbLine
 10
1862.042855119519
 20
1844.938690590127
 30
0.0
 11
1856.307002959634
 21
1850.674542750002
 31
0.0
  0
LINE
  5
D242
330
1F
100
AcDbEntity
  8
AM_0
100
AcDbLine
 10
1861.194326982096
 20
1844.090162452702
 30
0.0
 11
1855.458474822211
 21
1849.826014612578
 31
0.0
  0
CIRCLE
  5
D243
330
1F
100
AcDbEntity
  8
AM_0
100
AcDbCircle
 10
1858.750664970865
 20
1847.382352601352
 30
0.0
 40
4.100000000000001
  0
LINE
  5
D244
330
1F
100
AcDbEntity
  8
AM_0
100
AcDbLine
 10
1746.517982774549
 20
1872.382352601459
 30
0.0
 11
1746.517982774555
 21
1868.450605051781
 31
0.0
  0
LINE
  5
D245
330
1F
100
AcDbEntity
  8
AM_0
100
AcDbLine
 10
1742.517982774529
 20
1872.982352601279
 30
0.0
 11
1742.517982774568
 21
1821.782352601279
 31
0.0
  0
LINE
  5
D246
330
1F
100
AcDbEntity
  8
AM_0
100
AcDbLine
 10
1734.017982774568
 20
1821.782352601271
 30
0.0
 11
1742.517982774568
 21
1821.782352601277
 31
0.0
  0
LINE
  5
D247
330
1F
100
AcDbEntity
  8
AM_0
100
AcDbLine
 10
1734.017982774529
 20
1872.982352601271
 30
0.0
 11
1742.517982774529
 21
1872.982352601277
 31
0.0
  0
LINE
  5
D248
330
1F
100
AcDbEntity
  8
AM_0
100
AcDbLine
 10
1734.017982774568
 20
1821.782352601271
 30
0.0
 11
1734.017982774529
 21
1872.982352601271
 31
0.0
  0
LINE
  5
D249
330
1F
100
AcDbEntity
  8
AM_0
100
AcDbLine
 10
1732.017982774573
 20
1844.382352601242
 30
0.0
 11
1732.017982774568
 21
1850.382352601242
 31
0.0
  0
LINE
  5
D24A
330
1F
100
AcDbEntity
  8
AM_7
 48
2.0
100
AcDbLine
 10
1829.337510636578
 20
1847.382352601332
 30
0.0
 11
1888.163819305152
 21
1847.382352601378
 31
0.0
  0
LINE
  5
D24B
330
1F
100
AcDbEntity
  8
AM_7
  6
AM_ISO08W050x2
 48
2.0
100
AcDbLine
 10
1858.750664970844
 20
1874.280793745519
 30
0.0
 11
1858.7506649709
 21
1802.648261074796
 31
0.0
  0
ARC
  5
D256
330
1F
100
AcDbEntity
  8
AM_0
100
AcDbCircle
 10
1835.72257508324
 20
1852.068190426906
 30
0.0
 40
2.0
100
AcDbArc
 50
279.4280188506439
 51
348.4982798279767
  0
ARC
  5
D257
330
1F
100
AcDbEntity
  8
AM_0
100
AcDbCircle
 10
1836.500664970867
 20
1847.382352601334
 30
0.0
 40
2.750000000083759
100
AcDbArc
 50
99.4280188506439
 51
260.5719811494478
  0
ARC
  5
D258
330
1F
100
AcDbEntity
  8
AM_0
100
AcDbCircle
 10
1835.722575083248
 20
1842.696514775759
 30
0.0
 40
2.0
100
AcDbArc
 50
40.17789933326225
 51
80.57198114944782
  0
ARC
  5
D259
330
1F
100
AcDbEntity
  8
AM_0
100
AcDbCircle
 10
1881.000664970864
 20
1847.382352601371
 30
0.0
 40
2.750000000083759
100
AcDbArc
 50
279.428018850657
 51
80.57198114944782
  0
ARC
  5
D25A
330
1F
100
AcDbEntity
  8
AM_0
100
AcDbCircle
 10
1881.778754858483
 20
1852.068190426944
 30
0.0
 40
2.0
100
AcDbArc
 50
191.5017201721164
 51
260.5719811494478
  0
POINT
  5
D25B
330
1F
100
AcDbEntity
  8
AM_0
100
AcDbPoint
 10
1893.750664970873
 20
1825.382352601378
 30
0.0
  0
ARC
  5
D25C
330
1F
100
AcDbEntity
  8
AM_0
100
AcDbCircle
 10
1881.778754858492
 20
1842.696514775798
 30
0.0
 40
2.0
100
AcDbArc
 50
99.42801885065696
 51
139.8221006668866
  0
LINE
  5
D25D
330
1F
100
AcDbEntity
  8
AM_0
100
AcDbLine
 10
1880.250664970865
 20
1847.382352601369
 30
0.0
 11
1880.250664970851
 21
1838.729550794314
 31
0.0
  0
POINT
  5
D25E
330
1F
100
AcDbEntity
  8
AM_0
100
AcDbPoint
 10
1880.250664970848
 20
1837.382352601378
 30
0.0
  0
LINE
  5
D25F
330
1F
100
AcDbEntity
  8
AM_0
100
AcDbLine
 10
1881.257573454363
 20
1836.487322838256
 30
0.0
 11
1892.743756487363
 21
1826.277382364497
 31
0.0
  0
ARC
  5
D260
330
1F
100
AcDbEntity
  8
AM_0
100
AcDbCircle
 10
1890.750664970875
 20
1824.035154408444
 30
0.0
 40
3.0
100
AcDbArc
 50
0.0
 51
48.36646066347831
  0
ARC
  5
D261
330
1F
100
AcDbEntity
  8
AM_0
100
AcDbCircle
 10
1883.25066497085
 20
1838.729550794309
 30
0.0
 40
3.0
100
AcDbArc
 50
180.0
 51
228.3664606634783
  0
LINE
  5
D263
330
1F
100
AcDbEntity
  8
AM_0
100
AcDbLine
 10
1837.250664970865
 20
1847.382352601335
 30
0.0
 11
1837.250664970893
 21
1838.72955079428
 31
0.0
  0
ARC
  5
D264
330
1F
100
AcDbEntity
  8
AM_0
100
AcDbCircle
 10
1834.250664970893
 20
1838.729550794271
 30
0.0
 40
3.0
100
AcDbArc
 50
311.6335393366142
 51
0.0000000000911929
  0
LINE
  5
D265
330
1F
100
AcDbEntity
  8
AM_0
100
AcDbLine
 10
1836.243756487385
 20
1836.487322838221
 30
0.0
 11
1824.7575734544
 21
1826.277382364444
 31
0.0
  0
ARC
  5
D266
330
1F
100
AcDbEntity
  8
AM_0
100
AcDbCircle
 10
1826.750664970887
 20
1824.03515440839
 30
0.0
 40
3.0
100
AcDbArc
 50
131.6335393366141
 51
180.0
  0
LINE
  5
D267
330
1F
100
AcDbEntity
  8
AM_0
100
AcDbLine
 10
1763.017982774675
 20
1872.382352601456
 30
0.0
 11
1748.01798277489
 21
1872.382352601459
 31
0.0
  0
LINE
  5
D268
330
1F
100
AcDbEntity
  8
AM_0
100
AcDbLine
 10
1748.01798277489
 20
1872.382352601459
 30
0.0
 11
1746.517982774555
 21
1872.382352601459
 31
0.0
  0
LINE
  5
D269
330
1F
100
AcDbEntity
  8
AM_0
100
AcDbLine
 10
1743.017982774562
 20
1868.545273949578
 30
0.0
 11
1746.517982774424
 21
1868.545273949581
 31
0.0
  0
LINE
  5
D26A
330
1F
100
AcDbEntity
  8
AM_0
100
AcDbLine
 10
1746.517982774551
 20
1871.882352601351
 30
0.0
 11
1746.517982774554
 21
1868.545273949581
 31
0.0
  0
LINE
  5
D26B
330
1F
100
AcDbEntity
  8
AM_0
100
AcDbLine
 10
1746.517982774551
 20
1871.882352601351
 30
0.0
 11
1746.062147889067
 21
1871.842472216431
 31
0.0
  0
ARC
  5
D26C
330
1F
100
AcDbEntity
  8
AM_0
100
AcDbCircle
 10
1746.131872483266
 20
1871.045516457957
 30
0.0
 40
0.8
100
AcDbArc
 50
95.00000000003945
 51
140.0329316426786
  0
ARC
  5
D26D
330
1F
100
AcDbEntity
  8
AM_0
100
AcDbCircle
 10
1747.817982774553
 20
1869.632352601352
 30
0.0
 40
3.0
100
AcDbArc
 50
140.0329316426786
 51
201.24517499789
  0
LINE
  5
D26E
330
1F
100
AcDbEntity
  8
AM_0
100
AcDbLine
 10
1763.017982774714
 20
1822.382352601127
 30
0.0
 11
1763.017982774711
 21
1826.31410015081
 31
0.0
  0
LINE
  5
D26F
330
1F
100
AcDbEntity
  8
AM_0
100
AcDbLine
 10
1746.517982774588
 20
1822.382352601098
 30
0.0
 11
1746.517982774587
 21
1826.314100150776
 31
0.0
  0
LINE
  5
D270
330
1F
100
AcDbEntity
  8
AM_0
100
AcDbLine
 10
1763.017982774714
 20
1822.382352601127
 30
0.0
 11
1748.017982774928
 21
1822.3823526011
 31
0.0
  0
LINE
  5
D271
330
1F
100
AcDbEntity
  8
AM_0
100
AcDbLine
 10
1748.017982774928
 20
1822.3823526011
 30
0.0
 11
1746.517982774594
 21
1822.382352601098
 31
0.0
  0
LINE
  5
D272
330
1F
100
AcDbEntity
  8
AM_0
100
AcDbLine
 10
1743.017982774595
 20
1826.219431252973
 30
0.0
 11
1746.517982774457
 21
1826.219431252977
 31
0.0
  0
LINE
  5
D273
330
1F
100
AcDbEntity
  8
AM_0
100
AcDbLine
 10
1746.517982774589
 20
1822.882352601206
 30
0.0
 11
1746.517982774587
 21
1826.219431252977
 31
0.0
  0
LINE
  5
D274
330
1F
100
AcDbEntity
  8
AM_0
100
AcDbLine
 10
1746.517982774589
 20
1822.882352601206
 30
0.0
 11
1746.062147889105
 21
1822.922232986126
 31
0.0
  0
ARC
  5
D275
330
1F
100
AcDbEntity
  8
AM_0
100
AcDbCircle
 10
1746.131872483303
 20
1823.719188744599
 30
0.0
 40
0.8
100
AcDbArc
 50
219.9670683574148
 51
265.0000000000395
  0
ARC
  5
D276
330
1F
100
AcDbEntity
  8
AM_0
100
AcDbCircle
 10
1747.817982774588
 20
1825.132352601207
 30
0.0
 40
3.0
100
AcDbArc
 50
158.7548250021906
 51
219.9670683574148
  0
LINE
  5
D277
330
1F
100
AcDbEntity
  8
AM_0
100
AcDbLine
 10
1746.517982774567
 20
1851.669395718349
 30
0.0
 11
1743.017982774568
 21
1851.669395718347
 31
0.0
  0
LINE
  5
D278
330
1F
100
AcDbEntity
  8
AM_0
100
AcDbLine
 10
1746.517982774567
 20
1843.095309484211
 30
0.0
 11
1743.017982774575
 21
1843.095309484204
 31
0.0
  0
LINE
  5
D279
330
1F
100
AcDbEntity
  8
AM_0
100
AcDbLine
 10
1746.517982774567
 20
1851.669395718349
 30
0.0
 11
1746.517982774567
 21
1843.095309484209
 31
0.0
  0
LINE
  5
D27A
330
1F
100
AcDbEntity
  8
AM_2
100
AcDbLine
 10
1746.517982774567
 20
1851.669395718344
 30
0.0
 11
1763.01798277454
 21
1851.669395718388
 31
0.0
  0
LINE
  5
D27B
330
1F
100
AcDbEntity
  8
AM_2
100
AcDbLine
 10
1746.517982774567
 20
1843.095309484208
 30
0.0
 11
1763.01798277454
 21
1843.09530948424
 31
0.0
  0
LINE
  5
D27C
330
1F
100
AcDbEntity
  8
AM_2
100
AcDbLine
 10
1746.517982774555
 20
1868.450605051781
 30
0.0
 11
1763.017982774657
 21
1868.45060505178
 31
0.0
  0
LINE
  5
D27D
330
1F
100
AcDbEntity
  8
AM_2
100
AcDbLine
 10
1746.517982774587
 20
1826.314100150776
 30
0.0
 11
1763.017982774599
 21
1826.31410015079
 31
0.0
  0
LINE
  5
D280
330
1F
100
AcDbEntity
  8
AM_2
100
AcDbLine
 10
1867.950664970697
 20
1858.88235260135
 30
0.0
 11
1867.550664971028
 21
1858.882352601349
 31
0.0
  0
LINE
  5
D281
330
1F
100
AcDbEntity
  8
AM_0
100
AcDbLine
 10
1743.017982774573
 20
1840.382352601276
 30
0.0
 11
1742.517982774554
 21
1840.382352601276
 31
0.0
  0
LINE
  5
D282
330
1F
100
AcDbEntity
  8
AM_0
100
AcDbLine
 10
1743.017982774568
 20
1854.382352601276
 30
0.0
 11
1742.517982774543
 21
1854.382352601276
 31
0.0
  0
LINE
  5
D283
330
1F
100
AcDbEntity
  8
AM_2
100
AcDbLine
 10
1848.358360125452
 20
1853.382352601352
 30
0.0
 11
1847.492334721668
 21
1853.882352601352
 31
0.0
  0
LINE
  5
D284
330
1F
100
AcDbEntity
  8
AM_2
100
AcDbLine
 10
1847.907672269691
 20
1845.404317908905
 30
0.0
 11
1846.979163874254
 21
1845.051738533667
 31
0.0
  0
LINE
  5
D285
330
1F
100
AcDbEntity
  8
AM_2
100
AcDbLine
 10
1846.032073916938
 20
1844.692103244329
 30
0.0
 11
1845.103067036912
 21
1844.339334581211
 31
0.0
  0
ARC
  5
D286
330
1F
100
AcDbEntity
  8
AM_2
100
AcDbCircle
 10
1858.750664970865
 20
1847.382352601352
 30
0.0
 40
13.0
100
AcDbArc
 50
150.0000000000035
 51
191.9432206802302
  0
ARC
  5
D287
330
1F
100
AcDbEntity
  8
AM_2
100
AcDbCircle
 10
1858.750664970865
 20
1847.382352601352
 30
0.0
 40
12.0
100
AcDbArc
 50
150.0000000000035
 51
191.199035551796
  0
LINE
  5
D288
330
1F
100
AcDbEntity
  8
AM_2
100
AcDbLine
 10
1847.907672269691
 20
1845.404317908905
 30
0.0
 11
1847.92534742356
 21
1841.132352601352
 31
0.0
  0
LINE
  5
D289
330
1F
100
AcDbEntity
  8
AM_2
100
AcDbLine
 10
1845.103067036912
 20
1844.339334581211
 30
0.0
 11
1847.92534742356
 21
1841.132352601352
 31
0.0
  0
LINE
  5
D28A
330
1F
100
AcDbEntity
  8
AM_2
100
AcDbLine
 10
1869.142969816279
 20
1853.382352601352
 30
0.0
 11
1870.008995220063
 21
1853.882352601352
 31
0.0
  0
ARC
  5
D28B
330
1F
100
AcDbEntity
  8
AM_2
100
AcDbCircle
 10
1858.750664970865
 20
1847.382352601352
 30
0.0
 40
12.0
100
AcDbArc
 50
348.800964448204
 51
29.9999999999965
  0
ARC
  5
D28C
330
1F
100
AcDbEntity
  8
AM_2
100
AcDbCircle
 10
1858.750664970865
 20
1847.382352601352
 30
0.0
 40
13.0
100
AcDbArc
 50
348.0567793197697
 51
29.9999999999965
  0
LINE
  5
D28D
330
1F
100
AcDbEntity
  8
AM_2
100
AcDbLine
 10
1871.469256024792
 20
1844.692103244329
 30
0.0
 11
1872.398262904819
 21
1844.339334581211
 31
0.0
  0
LINE
  5
D28E
330
1F
100
AcDbEntity
  8
AM_2
100
AcDbLine
 10
1869.593657672039
 20
1845.404317908905
 30
0.0
 11
1870.522166067476
 21
1845.051738533667
 31
0.0
  0
LINE
  5
D28F
330
1F
100
AcDbEntity
  8
AM_2
100
AcDbLine
 10
1869.593657672039
 20
1845.404317908905
 30
0.0
 11
1869.575982518171
 21
1841.132352601352
 31
0.0
  0
LINE
  5
D290
330
1F
100
AcDbEntity
  8
AM_2
100
AcDbLine
 10
1872.398262904819
 20
1844.339334581211
 30
0.0
 11
1869.575982518171
 21
1841.132352601352
 31
0.0
  0
LINE
  5
D291
330
1F
100
AcDbEntity
  8
AM_2
100
AcDbLine
 10
1848.250664970865
 20
1858.882352601352
 30
0.0
 11
1851.250664970865
 21
1858.882352601352
 31
0.0
  0
LINE
  5
D292
330
1F
100
AcDbEntity
  8
AM_2
100
AcDbLine
 10
1851.250664970865
 20
1858.882352601352
 30
0.0
 11
1851.250664970865
 21
1858.382352601352
 31
0.0
  0
LINE
  5
D293
330
1F
100
AcDbEntity
  8
AM_2
100
AcDbLine
 10
1848.750664970865
 20
1858.382352601352
 30
0.0
 11
1851.250664970865
 21
1858.382352601352
 31
0.0
  0
LINE
  5
D294
330
1F
100
AcDbEntity
  8
AM_2
100
AcDbLine
 10
1848.750664970865
 20
1858.382352601352
 30
0.0
 11
1848.750664970865
 21
1857.132352601341
 31
0.0
  0
LINE
  5
D295
330
1F
100
AcDbEntity
  8
AM_2
100
AcDbLine
 10
1848.750664970865
 20
1857.132352601341
 30
0.0
 11
1850.650664970865
 21
1857.132352601344
 31
0.0
  0
LINE
  5
D296
330
1F
100
AcDbEntity
  8
AM_2
100
AcDbLine
 10
1850.650664970865
 20
1857.132352601344
 30
0.0
 11
1850.650664970865
 21
1856.632352601344
 31
0.0
  0
LINE
  5
D297
330
1F
100
AcDbEntity
  8
AM_2
100
AcDbLine
 10
1848.750664970865
 20
1856.632352601341
 30
0.0
 11
1850.650664970865
 21
1856.632352601344
 31
0.0
  0
LINE
  5
D298
330
1F
100
AcDbEntity
  8
AM_2
100
AcDbLine
 10
1848.750664970865
 20
1856.632352601341
 30
0.0
 11
1848.750664970865
 21
1854.882352601352
 31
0.0
  0
LINE
  5
D299
330
1F
100
AcDbEntity
  8
AM_2
100
AcDbLine
 10
1848.250664970865
 20
1854.882352601352
 30
0.0
 11
1848.750664970865
 21
1854.882352601352
 31
0.0
  0
LINE
  5
D29A
330
1F
100
AcDbEntity
  8
AM_2
100
AcDbLine
 10
1848.250664970865
 20
1858.882352601352
 30
0.0
 11
1848.250664970865
 21
1854.882352601352
 31
0.0
  0
LINE
  5
D29B
330
1F
100
AcDbEntity
  8
AM_2
100
AcDbLine
 10
1869.250664970865
 20
1857.757352601266
 30
0.0
 11
1869.250664970865
 21
1857.482352601184
 31
0.0
  0
LINE
  5
D29C
330
1F
100
AcDbEntity
  8
AM_2
100
AcDbLine
 10
1866.250664970865
 20
1856.007352601102
 30
0.0
 11
1866.250664970865
 21
1856.282352601185
 31
0.0
  0
LINE
  5
D29D
330
1F
100
AcDbEntity
  8
AM_2
100
AcDbLine
 10
1867.950664970697
 20
1858.88235260135
 30
0.0
 11
1867.550664971028
 21
1858.882352601349
 31
0.0
  0
LINE
  5
D29E
330
1F
100
AcDbEntity
  8
AM_2
100
AcDbLine
 10
1867.375664970947
 20
1858.382352601349
 30
0.0
 11
1868.125664970783
 21
1858.382352601349
 31
0.0
  0
LINE
  5
D29F
330
1F
100
AcDbEntity
  8
AM_2
100
AcDbLine
 10
1868.125664970779
 20
1854.882352601018
 30
0.0
 11
1867.375664970944
 21
1854.88235260102
 31
0.0
  0
LINE
  5
D2A0
330
1F
100
AcDbEntity
  8
AM_2
100
AcDbLine
 10
1867.375664970947
 20
1858.882352601352
 30
0.0
 11
1868.125664970783
 21
1858.882352601352
 31
0.0
  0
LINE
  5
D2A1
330
1F
100
AcDbEntity
  8
AM_2
100
AcDbLine
 10
1866.750664970865
 20
1856.007352601102
 30
0.0
 11
1866.750664970865
 21
1856.282352601185
 31
0.0
  0
ARC
  5
D2A2
330
1F
100
AcDbEntity
  8
AM_2
100
AcDbCircle
 10
1867.375664970947
 20
1857.757352601267
 30
0.0
 40
0.6250000000822526
100
AcDbArc
 50
90.0
 51
270.0
  0
LINE
  5
D2A3
330
1F
100
AcDbEntity
  8
AM_2
100
AcDbLine
 10
1868.750664970865
 20
1857.757352601266
 30
0.0
 11
1868.750664970865
 21
1857.482352601184
 31
0.0
  0
ARC
  5
D2A4
330
1F
100
AcDbEntity
  8
AM_2
100
AcDbCircle
 10
1868.125664970783
 20
1857.757352601266
 30
0.0
 40
0.6250000000827926
100
AcDbArc
 50
0.0
 51
90.0
  0
ARC
  5
D2A5
330
1F
100
AcDbEntity
  8
AM_2
100
AcDbCircle
 10
1868.125664970781
 20
1856.007352601102
 30
0.0
 40
0.6250000000827926
100
AcDbArc
 50
270.0
 51
90.0
  0
ARC
  5
D2A6
330
1F
100
AcDbEntity
  8
AM_2
100
AcDbCircle
 10
1867.375664970946
 20
1856.007352601102
 30
0.0
 40
0.6250000000822526
100
AcDbArc
 50
180.0
 51
270.0
  0
LINE
  5
D2A7
330
1F
100
AcDbEntity
  8
AM_2
100
AcDbLine
 10
1867.375664970946
 20
1855.38235260102
 30
0.0
 11
1868.125664970781
 21
1855.382352601019
 31
0.0
  0
ARC
  5
D2A8
330
1F
100
AcDbEntity
  8
AM_2
100
AcDbCircle
 10
1868.125664970783
 20
1857.757352601266
 30
0.0
 40
1.125000000082791
100
AcDbArc
 50
0.0
 51
90.0
  0
ARC
  5
D2A9
330
1F
100
AcDbEntity
  8
AM_2
100
AcDbCircle
 10
1867.375664970947
 20
1857.757352601267
 30
0.0
 40
1.12500000008225
100
AcDbArc
 50
90.0
 51
270.0
  0
LINE
  5
D2AA
330
1F
100
AcDbEntity
  8
AM_2
100
AcDbLine
 10
1867.375664970947
 20
1857.132352601185
 30
0.0
 11
1868.125664970783
 21
1857.132352601185
 31
0.0
  0
LINE
  5
D2AB
330
1F
100
AcDbEntity
  8
AM_2
100
AcDbLine
 10
1867.375664970946
 20
1856.632352601184
 30
0.0
 11
1868.125664970781
 21
1856.632352601184
 31
0.0
  0
LINE
  5
D2AC
330
1F
100
AcDbEntity
  8
AM_2
100
AcDbLine
 10
1866.250664970865
 20
1856.282352601185
 30
0.0
 11
1866.750664970865
 21
1856.282352601185
 31
0.0
  0
LINE
  5
D2AD
330
1F
100
AcDbEntity
  8
AM_2
100
AcDbLine
 10
1868.750664970865
 20
1857.482352601184
 30
0.0
 11
1869.250664970865
 21
1857.482352601184
 31
0.0
  0
ARC
  5
D2AE
330
1F
100
AcDbEntity
  8
AM_2
100
AcDbCircle
 10
1868.125664970781
 20
1856.007352601102
 30
0.0
 40
1.125000000082791
100
AcDbArc
 50
270.0
 51
90.0
  0
ARC
  5
D2AF
330
1F
100
AcDbEntity
  8
AM_2
100
AcDbCircle
 10
1867.375664970946
 20
1856.007352601102
 30
0.0
 40
1.12500000008225
100
AcDbArc
 50
180.0
 51
270.0
  0
CIRCLE
  5
D2B0
330
1F
100
AcDbEntity
  8
AM_0
100
AcDbCircle
 10
1858.750664970865
 20
1847.382352601352
 30
0.0
 40
19.5
  0
CIRCLE
  5
D2B1
330
1F
100
AcDbEntity
  8
AM_0
100
AcDbCircle
 10
1858.750664970865
 20
1847.382352601352
 30
0.0
 40
8.0
  0
LINE
  5
D327
330
1F
100
AcDbEntity
  8
AM_7
 48
0.5
100
AcDbLine
 10
1892.410462945535
 20
1813.722554626713
 30
0.0
 11
1884.490866996242
 21
1821.642150575999
 31
0.0
  0
LINE
  5
D328
330
1F
100
AcDbEntity
  8
AM_7
 48
0.5
100
AcDbLine
 10
1825.090866996248
 20
1813.72255462666
 30
0.0
 11
1833.010462945529
 21
1821.642150575959
 31
0.0
  0
ARC
  5
D329
330
1F
100
AcDbEntity
  8
AM_7
  6
AM_ISO08W050x2
 48
2.0
100
AcDbCircle
 10
1858.750664970865
 20
1847.382352601352
 30
0.0
 40
42.00214280249459
100
AcDbArc
 50
217.3603859632218
 51
322.6396140368722
  0
ARC
  5
D337
330
1F
100
AcDbEntity
  8
AM_5
100
AcDbCircle
 10
1652.229629731199
 20
1847.382352601191
 30
0.0
 40
31.80392375766695
100
AcDbArc
 50
130.0000000000017
 51
190.0000000000052
  0
LINE
  5
D338
330
1F
100
AcDbEntity
  8
AM_5
100
AcDbLine
 10
1621.152467358392
 20
1843.933463614779
 30
0.0
 11
1620.908879038439
 21
1841.859659198014
 31
0.0
  0
LINE
  5
D339
330
1F
100
AcDbEntity
  8
AM_5
100
AcDbLine
 10
1620.908879038439
 20
1841.859659198014
 30
0.0
 11
1619.970698007819
 21
1843.725085793298
 31
0.0
  0
TEXT
  5
D33A
330
1F
100
AcDbEntity
  8
AM_6
100
AcDbText
 10
1679.224609213821
 20
1869.126512659277
 30
0.0
 40
4.0
  1
Ｌ用制動方向
 50
290.0000000000891
 41
0.8
  7
DIM
 72
     4
 11
1684.934620060655
 21
1859.285995593135
 31
0.0
100
AcDbText
  0
TEXT
  5
D33B
330
1F
100
AcDbEntity
  8
AM_6
100
AcDbText
 10
1617.536916889444
 20
1847.977164074077
 30
0.0
 40
4.0
  1
Ｒ用制動方向
 50
70.00000000008917
 41
0.8
  7
DIM
 72
     4
 11
1619.524639401724
 21
1859.285995593084
 31
0.0
100
AcDbText
  0
ARC
  5
D33C
330
1F
100
AcDbEntity
  8
AM_5
100
AcDbCircle
 10
1652.229629731199
 20
1847.382352601191
 30
0.0
 40
31.80392375766695
100
AcDbArc
 50
350.0000000000875
 51
50.00000000009983
  0
LINE
  5
D33D
330
1F
100
AcDbEntity
  8
AM_5
100
AcDbLine
 10
1683.30679210401
 20
1843.933463614828
 30
0.0
 11
1683.550380423967
 21
1841.859659198063
 31
0.0
  0
LINE
  5
D33E
330
1F
100
AcDbEntity
  8
AM_5
100
AcDbLine
 10
1683.550380423967
 20
1841.859659198063
 30
0.0
 11
1684.488561454585
 21
1843.725085793349
 31
0.0
  0
ARC
  5
D378
330
1F
100
AcDbEntity
  8
AM_0
100
AcDbCircle
 10
1656.91546755653
 20
1870.410442488856
 30
0.0
 40
2.0
100
AcDbArc
 50
189.428018850076
 51
258.4982798284422
  0
ARC
  5
D379
330
1F
100
AcDbEntity
  8
AM_0
100
AcDbCircle
 10
1655.839677569717
 20
1866.545273949549
 30
0.0
 40
2.0
100
AcDbArc
 50
79.33124984059912
 51
112.4983231487351
  0
LINE
  5
D37A
330
1F
100
AcDbEntity
  8
AM_0
100
AcDbLine
 10
1617.229629731125
 20
1824.035154408681
 30
0.0
 11
1617.229629731138
 21
1813.382352600948
 31
0.0
  0
LINE
  5
D37B
330
1F
100
AcDbEntity
  8
AM_0
100
AcDbLine
 10
1684.229629731149
 20
1810.382352601103
 30
0.0
 11
1620.229629731143
 21
1810.382352600952
 31
0.0
  0
CIRCLE
  5
D37C
330
1F
100
AcDbEntity
  8
AM_0
100
AcDbCircle
 10
1681.929629731131
 20
1817.682352601079
 30
0.0
 40
2.6
  0
CIRCLE
  5
D37D
330
1F
100
AcDbEntity
  8
AM_0
100
AcDbCircle
 10
1622.529629731132
 20
1817.682352600939
 30
0.0
 40
2.6
  0
LINE
  5
D37E
330
1F
100
AcDbEntity
  8
AM_0
100
AcDbLine
 10
1687.229629731113
 20
1824.035154408804
 30
0.0
 11
1687.229629731143
 21
1813.382352601111
 31
0.0
  0
ARC
  5
D37F
330
1F
100
AcDbEntity
  8
AM_0
100
AcDbCircle
 10
1684.229629731143
 20
1813.382352601102
 30
0.0
 40
3.0
100
AcDbArc
 50
270.0
 51
0.0
  0
ARC
  5
D380
330
1F
100
AcDbEntity
  8
AM_0
100
AcDbCircle
 10
1620.229629731138
 20
1813.382352600952
 30
0.0
 40
3.0
100
AcDbArc
 50
180.0
 51
270.0
  0
LINE
  5
D381
330
1F
100
AcDbEntity
  8
AM_0
100
AcDbLine
 10
1673.729629731179
 20
1838.729550794665
 30
0.0
 11
1673.729629731176
 21
1840.113225975143
 31
0.0
  0
LINE
  5
D382
330
1F
100
AcDbEntity
  8
AM_0
100
AcDbLine
 10
1630.729629731165
 20
1838.729550794496
 30
0.0
 11
1630.729629731165
 21
1840.113225975114
 31
0.0
  0
LINE
  5
D383
330
1F
100
AcDbEntity
  8
AM_0
100
AcDbLine
 10
1618.23653821485
 20
1826.277382364927
 30
0.0
 11
1629.722721247877
 21
1836.487322838641
 31
0.0
  0
LINE
  5
D384
330
1F
100
AcDbEntity
  8
AM_0
100
AcDbLine
 10
1686.22272124781
 20
1826.277382364661
 30
0.0
 11
1674.736538214863
 21
1836.487322838465
 31
0.0
  0
ARC
  5
D385
330
1F
100
AcDbEntity
  8
AM_0
100
AcDbCircle
 10
1684.229629731112
 20
1824.035154408795
 30
0.0
 40
3.0
100
AcDbArc
 50
0.0
 51
48.36646066322895
  0
ARC
  5
D386
330
1F
100
AcDbEntity
  8
AM_0
100
AcDbCircle
 10
1676.729629731179
 20
1838.729550794671
 30
0.0
 40
3.0
100
AcDbArc
 50
180.0
 51
228.3664606632289
  0
ARC
  5
D387
330
1F
100
AcDbEntity
  8
AM_0
100
AcDbCircle
 10
1627.729629731165
 20
1838.729550794495
 30
0.0
 40
3.0
100
AcDbArc
 50
311.6335393363269
 51
0.0
  0
ARC
  5
D388
330
1F
100
AcDbEntity
  8
AM_0
100
AcDbCircle
 10
1620.229629731124
 20
1824.035154408685
 30
0.0
 40
3.0
100
AcDbArc
 50
131.6335393363269
 51
180.0
  0
ARC
  5
D389
330
1F
100
AcDbEntity
  8
AM_0
100
AcDbCircle
 10
1647.543791905759
 20
1870.410442488848
 30
0.0
 40
2.0
100
AcDbArc
 50
281.5017201716518
 51
350.5719811500032
  0
ARC
  5
D38A
330
1F
100
AcDbEntity
  8
AM_0
100
AcDbCircle
 10
1648.619581892579
 20
1866.545273949544
 30
0.0
 40
2.0
100
AcDbArc
 50
67.5016704007735
 51
100.6687501594927
  0
ARC
  5
D38B
330
1F
100
AcDbEntity
  8
AM_0
100
AcDbCircle
 10
1629.201539843498
 20
1852.068190426559
 30
0.0
 40
2.0
100
AcDbArc
 50
279.4280188500766
 51
285.4288073206553
  0
ARC
  5
D38C
330
1F
100
AcDbEntity
  8
AM_0
100
AcDbCircle
 10
1629.979629731046
 20
1847.382352601174
 30
0.0
 40
2.749999999885944
100
AcDbArc
 50
99.42801885007668
 51
260.5719811500026
  0
ARC
  5
D38D
330
1F
100
AcDbEntity
  8
AM_0
100
AcDbCircle
 10
1629.201539843505
 20
1842.696514775787
 30
0.0
 40
2.0
100
AcDbArc
 50
74.5712223777591
 51
80.57198115000259
  0
ARC
  5
D38E
330
1F
100
AcDbEntity
  8
AM_0
100
AcDbCircle
 10
1629.979629731046
 20
1847.382352601174
 30
0.0
 40
2.749999999885919
100
AcDbArc
 50
328.2854490928038
 51
31.71536835843844
  0
ARC
  5
D38F
330
1F
100
AcDbEntity
  8
AM_0
100
AcDbCircle
 10
1675.257719618827
 20
1842.696514775823
 30
0.0
 40
2.0
100
AcDbArc
 50
99.42801885007668
 51
105.4288073206428
  0
ARC
  5
D390
330
1F
100
AcDbEntity
  8
AM_0
100
AcDbCircle
 10
1674.479629731279
 20
1847.382352601209
 30
0.0
 40
2.749999999885944
100
AcDbArc
 50
279.4280188500766
 51
80.57198115000259
  0
ARC
  5
D391
330
1F
100
AcDbEntity
  8
AM_0
100
AcDbCircle
 10
1675.25771961882
 20
1852.068190426595
 30
0.0
 40
2.0
100
AcDbArc
 50
254.5712223777591
 51
260.5719811500026
  0
ARC
  5
D392
330
1F
100
AcDbEntity
  8
AM_0
100
AcDbCircle
 10
1674.479629731279
 20
1847.382352601209
 30
0.0
 40
2.749999999885919
100
AcDbArc
 50
148.2854490928199
 51
211.7153683584384
  0
ARC
  5
D393
330
1F
100
AcDbEntity
  8
AM_0
100
AcDbCircle
 10
1648.619581892608
 20
1828.219431252833
 30
0.0
 40
2.0
100
AcDbArc
 50
259.3312498405991
 51
292.4983231487522
  0
ARC
  5
D394
330
1F
100
AcDbEntity
  8
AM_0
100
AcDbCircle
 10
1647.543791905794
 20
1824.354262713527
 30
0.0
 40
2.0
100
AcDbArc
 50
9.428018850076014
 51
78.49827982844219
  0
ARC
  5
D395
330
1F
100
AcDbEntity
  8
AM_0
100
AcDbCircle
 10
1656.915467556566
 20
1824.354262713534
 30
0.0
 40
2.0
100
AcDbArc
 50
101.5017201716518
 51
170.5719811500032
  0
ARC
  5
D396
330
1F
100
AcDbEntity
  8
AM_0
100
AcDbCircle
 10
1655.839677569746
 20
1828.219431252839
 30
0.0
 40
2.0
100
AcDbArc
 50
247.5016704007906
 51
280.6687501594927
  0
ARC
  5
D397
330
1F
100
AcDbEntity
  8
AM_0
100
AcDbCircle
 10
1629.979629731046
 20
1847.382352601174
 30
0.0
 40
1.3
100
AcDbArc
 50
162.0797868606035
 51
197.9202131393965
  0
ARC
  5
D398
330
1F
100
AcDbEntity
  8
AM_0
100
AcDbCircle
 10
1629.979629731046
 20
1847.382352601174
 30
0.0
 40
1.3
100
AcDbArc
 50
252.0797868606042
 51
287.9202131393958
  0
ARC
  5
D399
330
1F
100
AcDbEntity
  8
AM_0
100
AcDbCircle
 10
1629.979629731046
 20
1847.382352601174
 30
0.0
 40
1.3
100
AcDbArc
 50
342.0797868606036
 51
17.92021313939646
  0
ARC
  5
D39A
330
1F
100
AcDbEntity
  8
AM_0
100
AcDbCircle
 10
1629.979629731046
 20
1847.382352601174
 30
0.0
 40
1.3
100
AcDbArc
 50
72.0797868606042
 51
107.9202131393958
  0
LINE
  5
D39B
330
1F
100
AcDbEntity
  8
AM_0
100
AcDbLine
 10
1630.679629731046
 20
1847.782352601174
 30
0.0
 11
1631.216561418731
 21
1847.782352601174
 31
0.0
  0
LINE
  5
D39C
330
1F
100
AcDbEntity
  8
AM_0
100
AcDbLine
 10
1628.74269804336
 20
1847.782352601174
 30
0.0
 11
1629.279629731046
 21
1847.782352601174
 31
0.0
  0
LINE
  5
D39D
330
1F
100
AcDbEntity
  8
AM_0
100
AcDbLine
 10
1630.679629731046
 20
1846.982352601174
 30
0.0
 11
1631.216561418731
 21
1846.982352601174
 31
0.0
  0
LINE
  5
D39E
330
1F
100
AcDbEntity
  8
AM_0
100
AcDbLine
 10
1628.74269804336
 20
1846.982352601174
 30
0.0
 11
1629.279629731046
 21
1846.982352601174
 31
0.0
  0
LINE
  5
D39F
330
1F
100
AcDbEntity
  8
AM_0
100
AcDbLine
 10
1629.579629731046
 20
1846.145420913489
 30
0.0
 11
1629.579629731046
 21
1846.682352601174
 31
0.0
  0
LINE
  5
D3A0
330
1F
100
AcDbEntity
  8
AM_0
100
AcDbLine
 10
1629.579629731046
 20
1848.082352601174
 30
0.0
 11
1629.579629731046
 21
1848.619284288859
 31
0.0
  0
LINE
  5
D3A1
330
1F
100
AcDbEntity
  8
AM_0
100
AcDbLine
 10
1630.379629731046
 20
1846.145420913489
 30
0.0
 11
1630.379629731046
 21
1846.682352601174
 31
0.0
  0
LINE
  5
D3A2
330
1F
100
AcDbEntity
  8
AM_0
100
AcDbLine
 10
1630.379629731046
 20
1848.082352601174
 30
0.0
 11
1630.379629731046
 21
1848.619284288859
 31
0.0
  0
ARC
  5
D3A3
330
1F
100
AcDbEntity
  8
AM_0
100
AcDbCircle
 10
1629.279629731046
 20
1846.682352601174
 30
0.0
 40
0.3
100
AcDbArc
 50
0.0
 51
90.0
  0
ARC
  5
D3A4
330
1F
100
AcDbEntity
  8
AM_0
100
AcDbCircle
 10
1630.679629731046
 20
1846.682352601174
 30
0.0
 40
0.3
100
AcDbArc
 50
90.0
 51
180.0
  0
ARC
  5
D3A5
330
1F
100
AcDbEntity
  8
AM_0
100
AcDbCircle
 10
1630.679629731046
 20
1848.082352601174
 30
0.0
 40
0.3
100
AcDbArc
 50
180.0
 51
270.0
  0
ARC
  5
D3A6
330
1F
100
AcDbEntity
  8
AM_0
100
AcDbCircle
 10
1629.279629731046
 20
1848.082352601174
 30
0.0
 40
0.3
100
AcDbArc
 50
270.0
 51
0.0
  0
ARC
  5
D3A7
330
1F
100
AcDbEntity
  8
AM_0
100
AcDbCircle
 10
1674.479629731279
 20
1847.382352601209
 30
0.0
 40
1.3
100
AcDbArc
 50
342.0797868606036
 51
17.92021313939646
  0
ARC
  5
D3A8
330
1F
100
AcDbEntity
  8
AM_0
100
AcDbCircle
 10
1674.479629731279
 20
1847.382352601209
 30
0.0
 40
1.3
100
AcDbArc
 50
72.0797868606042
 51
107.9202131393958
  0
ARC
  5
D3A9
330
1F
100
AcDbEntity
  8
AM_0
100
AcDbCircle
 10
1674.479629731279
 20
1847.382352601209
 30
0.0
 40
1.3
100
AcDbArc
 50
162.0797868606035
 51
197.9202131393965
  0
ARC
  5
D3AA
330
1F
100
AcDbEntity
  8
AM_0
100
AcDbCircle
 10
1674.479629731279
 20
1847.382352601209
 30
0.0
 40
1.3
100
AcDbArc
 50
252.0797868606042
 51
287.9202131393958
  0
LINE
  5
D3AB
330
1F
100
AcDbEntity
  8
AM_0
100
AcDbLine
 10
1673.779629731279
 20
1846.982352601209
 30
0.0
 11
1673.242698043594
 21
1846.982352601209
 31
0.0
  0
LINE
  5
D3AC
330
1F
100
AcDbEntity
  8
AM_0
100
AcDbLine
 10
1675.716561418964
 20
1846.982352601209
 30
0.0
 11
1675.179629731279
 21
1846.982352601209
 31
0.0
  0
LINE
  5
D3AD
330
1F
100
AcDbEntity
  8
AM_0
100
AcDbLine
 10
1673.779629731279
 20
1847.782352601209
 30
0.0
 11
1673.242698043594
 21
1847.782352601209
 31
0.0
  0
LINE
  5
D3AE
330
1F
100
AcDbEntity
  8
AM_0
100
AcDbLine
 10
1675.716561418964
 20
1847.782352601209
 30
0.0
 11
1675.179629731279
 21
1847.782352601209
 31
0.0
  0
LINE
  5
D3AF
330
1F
100
AcDbEntity
  8
AM_0
100
AcDbLine
 10
1674.879629731279
 20
1848.619284288894
 30
0.0
 11
1674.879629731279
 21
1848.082352601209
 31
0.0
  0
LINE
  5
D3B0
330
1F
100
AcDbEntity
  8
AM_0
100
AcDbLine
 10
1674.879629731279
 20
1846.682352601208
 30
0.0
 11
1674.879629731279
 21
1846.145420913523
 31
0.0
  0
LINE
  5
D3B1
330
1F
100
AcDbEntity
  8
AM_0
100
AcDbLine
 10
1674.079629731279
 20
1848.619284288894
 30
0.0
 11
1674.079629731279
 21
1848.082352601209
 31
0.0
  0
LINE
  5
D3B2
330
1F
100
AcDbEntity
  8
AM_0
100
AcDbLine
 10
1674.079629731279
 20
1846.682352601208
 30
0.0
 11
1674.079629731279
 21
1846.145420913523
 31
0.0
  0
ARC
  5
D3B3
330
1F
100
AcDbEntity
  8
AM_0
100
AcDbCircle
 10
1675.179629731279
 20
1848.082352601209
 30
0.0
 40
0.3
100
AcDbArc
 50
180.0
 51
270.0
  0
ARC
  5
D3B4
330
1F
100
AcDbEntity
  8
AM_0
100
AcDbCircle
 10
1673.779629731279
 20
1848.082352601209
 30
0.0
 40
0.3
100
AcDbArc
 50
270.0
 51
0.0
  0
ARC
  5
D3B5
330
1F
100
AcDbEntity
  8
AM_0
100
AcDbCircle
 10
1673.779629731279
 20
1846.682352601209
 30
0.0
 40
0.3
100
AcDbArc
 50
0.0
 51
90.0
  0
ARC
  5
D3B6
330
1F
100
AcDbEntity
  8
AM_0
100
AcDbCircle
 10
1675.179629731279
 20
1846.682352601209
 30
0.0
 40
0.3
100
AcDbArc
 50
90.0
 51
180.0
  0
ARC
  5
D3B7
330
1F
100
AcDbEntity
  8
AM_0
100
AcDbCircle
 10
1652.229629731145
 20
1869.632352601308
 30
0.0
 40
2.749999999885944
100
AcDbArc
 50
9.428018850076014
 51
67.7053033571533
  0
ARC
  5
D3B8
330
1F
100
AcDbEntity
  8
AM_0
100
AcDbCircle
 10
1652.229629731145
 20
1869.632352601308
 30
0.0
 40
2.749999999885944
100
AcDbArc
 50
112.2946966391476
 51
170.5719811500032
  0
ARC
  5
D3B9
330
1F
100
AcDbEntity
  8
AM_0
100
AcDbCircle
 10
1652.229629731162
 20
1847.382352601191
 30
0.0
 40
21.5
100
AcDbArc
 50
71.66485733910985
 51
78.49827982844219
  0
ARC
  5
D3BA
330
1F
100
AcDbEntity
  8
AM_0
100
AcDbCircle
 10
1652.229629731162
 20
1847.382352601191
 30
0.0
 40
21.5
100
AcDbArc
 50
20.23628656660934
 51
31.19228556741411
  0
ARC
  5
D3BB
330
1F
100
AcDbEntity
  8
AM_0
100
AcDbCircle
 10
1652.229629731162
 20
1847.382352601191
 30
0.0
 40
21.5
100
AcDbArc
 50
45.9505732178384
 51
56.90657122454691
  0
ARC
  5
D3BC
330
1F
100
AcDbEntity
  8
AM_0
100
AcDbCircle
 10
1674.479629731279
 20
1847.382352601209
 30
0.0
 40
2.25
100
AcDbArc
 50
127.0468148613995
 51
232.9532334237066
  0
ARC
  5
D3BD
330
1F
100
AcDbEntity
  8
AM_0
100
AcDbCircle
 10
1674.479629731279
 20
1847.382352601209
 30
0.0
 40
2.25
100
AcDbArc
 50
252.1285709759936
 51
107.8707063401156
  0
ARC
  5
D3BE
330
1F
100
AcDbEntity
  8
AM_0
100
AcDbCircle
 10
1652.229629731162
 20
1847.382352601191
 30
0.0
 40
21.5
100
AcDbArc
 50
328.8065998705042
 51
339.7637140525461
  0
ARC
  5
D3BF
330
1F
100
AcDbEntity
  8
AM_0
100
AcDbCircle
 10
1652.229629731162
 20
1847.382352601191
 30
0.0
 40
21.5
100
AcDbArc
 50
281.5017201716518
 51
288.3351425277087
  0
ARC
  5
D3C0
330
1F
100
AcDbEntity
  8
AM_0
100
AcDbCircle
 10
1652.229629731162
 20
1847.382352601191
 30
0.0
 40
21.5
100
AcDbArc
 50
303.0934298242
 51
314.0494283505768
  0
ARC
  5
D3C1
330
1F
100
AcDbEntity
  8
AM_0
100
AcDbCircle
 10
1652.22962973118
 20
1825.132352601075
 30
0.0
 40
2.749999999885944
100
AcDbArc
 50
189.428018850076
 51
247.7053033571533
  0
ARC
  5
D3C2
330
1F
100
AcDbEntity
  8
AM_0
100
AcDbCircle
 10
1652.22962973118
 20
1825.132352601075
 30
0.0
 40
2.749999999885944
100
AcDbArc
 50
292.294696639172
 51
350.5719811500032
  0
ARC
  5
D3C3
330
1F
100
AcDbEntity
  8
AM_0
100
AcDbCircle
 10
1652.229629731162
 20
1847.382352601191
 30
0.0
 40
21.5
100
AcDbArc
 50
251.6648573391099
 51
258.4982798284422
  0
ARC
  5
D3C4
330
1F
100
AcDbEntity
  8
AM_0
100
AcDbCircle
 10
1652.229629731162
 20
1847.382352601191
 30
0.0
 40
21.5
100
AcDbArc
 50
200.2362865666093
 51
211.1922855674141
  0
ARC
  5
D3C5
330
1F
100
AcDbEntity
  8
AM_0
100
AcDbCircle
 10
1652.229629731162
 20
1847.382352601191
 30
0.0
 40
21.5
100
AcDbArc
 50
225.9505732178384
 51
236.9065712245564
  0
ARC
  5
D3C6
330
1F
100
AcDbEntity
  8
AM_0
100
AcDbCircle
 10
1629.979629731046
 20
1847.382352601174
 30
0.0
 40
2.25
100
AcDbArc
 50
307.046814861389
 51
52.95323342373468
  0
ARC
  5
D3C7
330
1F
100
AcDbEntity
  8
AM_0
100
AcDbCircle
 10
1629.979629731046
 20
1847.382352601174
 30
0.0
 40
2.25
100
AcDbArc
 50
72.12857097596449
 51
287.8707063401447
  0
ARC
  5
D3C8
330
1F
100
AcDbEntity
  8
AM_0
100
AcDbCircle
 10
1652.229629731162
 20
1847.382352601191
 30
0.0
 40
21.5
100
AcDbArc
 50
148.8065998705041
 51
159.7637140525461
  0
ARC
  5
D3C9
330
1F
100
AcDbEntity
  8
AM_0
100
AcDbCircle
 10
1652.229629731162
 20
1847.382352601191
 30
0.0
 40
21.5
100
AcDbArc
 50
101.5017201716518
 51
108.3351425277087
  0
ARC
  5
D3CA
330
1F
100
AcDbEntity
  8
AM_0
100
AcDbCircle
 10
1652.229629731162
 20
1847.382352601191
 30
0.0
 40
21.5
100
AcDbArc
 50
123.0934298242
 51
134.0494283505768
  0
CIRCLE
  5
D3D1
330
1F
100
AcDbEntity
  8
AM_0
100
AcDbCircle
 10
1652.229629731199
 20
1847.382352601191
 30
0.0
 40
16.75
  0
CIRCLE
  5
D3D2
330
1F
100
AcDbEntity
  8
AM_0
100
AcDbCircle
 10
1652.229629731199
 20
1847.382352601191
 30
0.0
 40
10.0
  0
CIRCLE
  5
D3D5
330
1F
100
AcDbEntity
  8
AM_0
100
AcDbCircle
 10
1652.229629731214
 20
1847.382352601191
 30
0.0
 40
16.75
  0
ARC
  5
D41E
330
1F
100
AcDbEntity
  8
AM_0
100
AcDbCircle
 10
1652.229629731199
 20
1847.382352601191
 30
0.0
 40
18.75
100
AcDbArc
 50
358.4390121066699
 51
1.560990852516348
  0
LWPOLYLINE
  5
D41F
330
1F
100
AcDbEntity
  8
AM_0
100
AcDbPolyline
 90
       21
 70
     0
 43
0.0
 10
1677.012866788794
 20
1852.316040227452
 10
1676.321203336224
 20
1851.548336630827
 10
1675.971414641091
 20
1851.197615486077
 10
1675.494629731197
 20
1850.760352601188
 10
1674.979629731202
 20
1850.333352601196
 10
1674.453629731205
 20
1849.945352601167
 10
1673.919629731199
 20
1849.600352601195
 10
1673.376629731236
 20
1849.299352601135
 10
1672.827629731234
 20
1849.049352601246
 10
1672.271629730684
 20
1848.860352601648
 10
1671.990629730397
 20
1848.798352607101
 10
1671.82762973276
 20
1848.764352603934
 10
1671.676629736754
 20
1848.72335261827
 10
1671.5366297303
 20
1848.670352599444
 10
1671.409629724851
 20
1848.606352585754
 10
1671.295629727822
 20
1848.530352593925
 10
1671.195629734236
 20
1848.441352606579
 10
1671.109629731912
 20
1848.339352609677
 10
1671.041629730548
 20
1848.221352597554
 10
1670.993629742347
 20
1848.083352599742
 10
1670.972629731199
 20
1847.892352601191
  0
ARC
  5
D420
330
1F
100
AcDbEntity
  8
AM_0
100
AcDbCircle
 10
1676.31034916209
 20
1852.878619669913
 30
0.0
 40
0.9
100
AcDbArc
 50
321.3121062574621
 51
64.40217945681921
  0
LWPOLYLINE
  5
D421
330
1F
100
AcDbEntity
  8
AM_0
100
AcDbPolyline
 90
       21
 70
     0
 43
0.0
 10
1676.699201600857
 20
1853.690297207961
 10
1675.74294025599
 20
1854.081872723283
 10
1675.275619329657
 20
1854.246093929063
 10
1674.656329713692
 20
1854.433184955989
 10
1674.007062390123
 20
1854.594448536941
 10
1673.364805874825
 20
1854.715801610912
 10
1672.733998609365
 20
1854.794941953633
 10
1672.114173508645
 20
1854.830534712527
 10
1671.511070665506
 20
1854.817574756905
 10
1670.928127948303
 20
1854.746618514077
 10
1670.648054902213
 20
1854.680557253441
 10
1670.486444934294
 20
1854.640467156883
 10
1670.332609403232
 20
1854.611890442747
 10
1670.183477913396
 20
1854.598898046054
 10
1670.04128630346
 20
1854.601456811828
 10
1669.905600698724
 20
1854.620467715562
 10
1669.776888152507
 20
1854.657265562344
 10
1669.655148696193
 20
1854.711850395587
 10
1669.542684531642
 20
1854.788660617108
 10
1669.439562075765
 20
1854.892167899691
 10
1669.337769929244
 20
1855.055141400842
  0
LWPOLYLINE
  5
D422
330
1F
100
AcDbEntity
  8
AM_0
100
AcDbPolyline
 90
       21
 70
     0
 43
0.0
 10
1671.53903760453
 20
1863.682563649757
 10
1670.507577654491
 20
1863.620454750609
 10
1670.015283137735
 20
1863.565649993588
 10
1669.376146719228
 20
1863.465513490138
 10
1668.721207428252
 20
1863.329100422048
 10
1668.089901177261
 20
1863.159771105395
 10
1667.487225761655
 20
1862.957377075415
 10
1666.913339523014
 20
1862.7205130108
 10
1666.375585751296
 20
1862.447159977605
 10
1665.881159271657
 20
1862.130301246397
 10
1665.657485084792
 20
1861.949262966041
 10
1665.529273977405
 20
1861.843023086294
 10
1665.403071931121
 20
1861.75052963584
 10
1665.274346284877
 20
1861.674118163418
 10
1665.145125856652
 20
1861.614728912517
 10
1665.014628835386
 20
1861.572985342277
 10
1664.882696858826
 20
1861.550292785784
 10
1664.749329919389
 20
1861.546651260343
 10
1664.614676496979
 20
1861.56705849968
 10
1664.476856234104
 20
1861.615572183177
 10
1664.314433143496
 20
1861.718240278142
  0
ARC
  5
D423
330
1F
100
AcDbEntity
  8
AM_0
100
AcDbCircle
 10
1671.540867348159
 20
1862.782550707102
 30
0.0
 40
0.9
100
AcDbArc
 50
347.0263919717551
 51
90.11646517110598
  0
LWPOLYLINE
  5
D424
330
1F
100
AcDbEntity
  8
AM_0
100
AcDbPolyline
 90
       21
 70
     0
 43
0.0
 10
1672.417907931017
 20
1862.580495118393
 10
1672.127834800223
 20
1861.588716553048
 10
1671.964858277231
 20
1861.120960093369
 10
1671.725011172206
 20
1860.520130627537
 10
1671.446280561851
 20
1859.911966795319
 10
1671.140717828108
 20
1859.334168027769
 10
1670.809290342613
 20
1858.79163985167
 10
1670.450663252854
 20
1858.284849352093
 10
1670.064502279268
 20
1857.821404962607
 10
1669.645567615622
 20
1857.409882487246
 10
1669.419296155291
 20
1857.232101088205
 10
1669.287190276795
 20
1857.130745091421
 10
1669.168933225121
 20
1857.028288948659
 10
1669.065793405063
 20
1856.919793839288
 10
1668.979138919118
 20
1856.807028588175
 10
1668.909403622807
 20
1856.689092218035
 10
1668.857922398712
 20
1856.565517628939
 10
1668.824695225745
 20
1856.436304831328
 10
1668.814627616135
 20
1856.300486380928
 10
1668.831257066541
 20
1856.155326254647
 10
1668.895208515344
 20
1855.974129646102
  0
ARC
  5
D425
330
1F
100
AcDbEntity
  8
AM_0
100
AcDbCircle
 10
1652.229629731199
 20
1847.382352601191
 30
0.0
 40
18.75
100
AcDbArc
 50
24.153297820955
 51
27.27527656679579
  0
LWPOLYLINE
  5
D426
330
1F
100
AcDbEntity
  8
AM_0
100
AcDbPolyline
 90
       21
 70
     0
 43
0.0
 10
1662.554408564543
 20
1870.446373384415
 10
1661.652043302464
 20
1869.94288149999
 10
1661.232280161925
 20
1869.679905534424
 10
1660.699885747042
 20
1869.312374763197
 10
1660.168993247557
 20
1868.905303327244
 10
1659.673675206361
 20
1868.478829367792
 10
1659.218498897928
 20
1868.034987584877
 10
1658.804216729272
 20
1867.572580529711
 10
1658.438320758461
 20
1867.092975339438
 10
1658.130337743927
 20
1866.592971876215
 10
1658.007363830166
 20
1866.332813432333
 10
1657.937945365231
 20
1866.181465903792
 10
1657.864372674367
 20
1866.043375155581
 10
1657.781548556875
 20
1865.918678837325
 10
1657.690892990819
 20
1865.809104321184
 10
1657.591431096256
 20
1865.714874127815
 10
1657.482410434278
 20
1865.637185710913
 10
1657.363830975179
 20
1865.576039081608
 10
1657.233658060732
 20
1865.536001418895
 10
1657.088437004397
 20
1865.519912784424
 10
1656.897552831555
 20
1865.541940782897
  0
ARC
  5
D427
330
1F
100
AcDbEntity
  8
AM_0
100
AcDbCircle
 10
1662.946558087403
 20
1869.636283638381
 30
0.0
 40
0.9
100
AcDbArc
 50
12.74067768604839
 51
115.8307508853907
  0
LWPOLYLINE
  5
D428
330
1F
100
AcDbEntity
  8
AM_0
100
AcDbPolyline
 90
       21
 70
     0
 43
0.0
 10
1663.824412982783
 20
1869.834771490818
 10
1663.993382714831
 20
1868.815351864979
 10
1664.049497863141
 20
1868.32320499386
 10
1664.094093223659
 20
1867.677810591487
 10
1664.106838018724
 20
1867.008937232628
 10
1664.082232998127
 20
1866.355779829756
 10
1664.019021305378
 20
1865.72317783646
 10
1663.915797619223
 20
1865.110972911152
 10
1663.768959588617
 20
1864.525874976877
 10
1663.570065409038
 20
1863.973337099993
 10
1663.443338325585
 20
1863.714986087592
 10
1663.368291759944
 20
1863.566348903807
 10
1663.306199897543
 20
1863.422729283835
 10
1663.26034838424
 20
1863.280227891642
 10
1663.231202385764
 20
1863.141031935246
 10
1663.21954374419
 20
1863.004517939171
 10
1663.226777768731
 20
1862.87084420166
 10
1663.252904453315
 20
1862.740010739741
 10
1663.302763274758
 20
1862.613274378187
 10
1663.38072850256
 20
1862.489704895802
 10
1663.516965031378
 20
1862.354199876038
  0
ARC
  5
D429
330
1F
100
AcDbEntity
  8
AM_0
100
AcDbCircle
 10
1652.229629731199
 20
1847.382352601191
 30
0.0
 40
18.75
100
AcDbArc
 50
49.86758353523579
 51
52.98956228108927
  0
LWPOLYLINE
  5
D42A
330
1F
100
AcDbEntity
  8
AM_0
100
AcDbPolyline
 90
       21
 70
     0
 43
0.0
 10
1651.524830451509
 20
1872.642070941304
 10
1650.930284384328
 20
1871.796918814234
 10
1650.666191858049
 20
1871.377857255293
 10
1650.345986690057
 20
1870.815726193008
 10
1650.044290752542
 20
1870.218621879436
 10
1649.783064733871
 20
1869.619471675248
 10
1649.56554078288
 20
1869.022090447949
 10
1649.392916348469
 20
1868.425725790479
 10
1649.271348363248
 20
1867.834860133219
 10
1649.210808627068
 20
1867.25074375729
 10
1649.212891478694
 20
1866.962992717569
 10
1649.216014847359
 20
1866.796513760515
 10
1649.209643462992
 20
1866.640176293561
 10
1649.189125207324
 20
1866.491892781951
 10
1649.154989971185
 20
1866.353835549471
 10
1649.106262848227
 20
1866.225782200192
 10
1649.041746353716
 20
1866.10848505134
 10
1648.961440514005
 20
1866.001944124207
 10
1648.8615304387
 20
1865.909391549332
 10
1648.737671388548
 20
1865.831887126409
 10
1648.556133101268
 20
1865.768912135533
  0
ARC
  5
D42B
330
1F
100
AcDbEntity
  8
AM_0
100
AcDbCircle
 10
1652.229629731199
 20
1872.082352601191
 30
0.0
 40
0.9
100
AcDbArc
 50
38.45496340032719
 51
141.5450365996728
  0
LWPOLYLINE
  5
D42C
330
1F
100
AcDbEntity
  8
AM_0
100
AcDbPolyline
 90
       21
 70
     0
 43
0.0
 10
1652.934429010888
 20
1872.642070941304
 10
1653.528975078068
 20
1871.796918814235
 10
1653.793067604347
 20
1871.377857255293
 10
1654.113272772341
 20
1870.815726193017
 10
1654.414968709862
 20
1870.218621879422
 10
1654.676194728526
 20
1869.619471675261
 10
1654.893718679491
 20
1869.022090447956
 10
1655.066343113917
 20
1868.425725790479
 10
1655.187911099271
 20
1867.834860133219
 10
1655.248450835467
 20
1867.25074375729
 10
1655.246367984642
 20
1866.962992717569
 10
1655.243244621353
 20
1866.796513760515
 10
1655.249616014282
 20
1866.640176293561
 10
1655.27013425026
 20
1866.491892781951
 10
1655.30426947265
 20
1866.353835549471
 10
1655.352996607395
 20
1866.225782185223
 10
1655.417513110831
 20
1866.10848505134
 10
1655.497818954561
 20
1866.001944116766
 10
1655.59772901554
 20
1865.909391549331
 10
1655.721588068993
 20
1865.831887125277
 10
1655.903126361129
 20
1865.768912135533
  0
ARC
  5
D42D
330
1F
100
AcDbEntity
  8
AM_0
100
AcDbCircle
 10
1652.229629731199
 20
1847.382352601191
 30
0.0
 40
18.75
100
AcDbArc
 50
75.58186924953355
 51
78.7038479953768
  0
LWPOLYLINE
  5
D42E
330
1F
100
AcDbEntity
  8
AM_0
100
AcDbPolyline
 90
       21
 70
     0
 43
0.0
 10
1640.634846479614
 20
1869.834771490818
 10
1640.465876747566
 20
1868.81535186498
 10
1640.409761599255
 20
1868.32320499386
 10
1640.365166238731
 20
1867.677810591487
 10
1640.352421443674
 20
1867.008937232628
 10
1640.377026464256
 20
1866.355779829763
 10
1640.440238156994
 20
1865.723177836441
 10
1640.543461843235
 20
1865.110972911123
 10
1640.690299873847
 20
1864.525874976858
 10
1640.889194053638
 20
1863.973337099993
 10
1641.015921134689
 20
1863.714986087592
 10
1641.090967701102
 20
1863.566348904677
 10
1641.153059581638
 20
1863.422729287362
 10
1641.19891107253
 20
1863.280227895127
 10
1641.228057055671
 20
1863.141031942535
 10
1641.239715710481
 20
1863.004517939171
 10
1641.232481692803
 20
1862.87084420166
 10
1641.206355004078
 20
1862.740010738705
 10
1641.156496193995
 20
1862.613274382327
 10
1641.078530955019
 20
1862.489704900671
 10
1640.942294431019
 20
1862.354199876038
  0
ARC
  5
D42F
330
1F
100
AcDbEntity
  8
AM_0
100
AcDbCircle
 10
1641.512701374995
 20
1869.636283638381
 30
0.0
 40
0.9
100
AcDbArc
 50
64.1692491146093
 51
167.2593223139516
  0
LWPOLYLINE
  5
D430
330
1F
100
AcDbEntity
  8
AM_0
100
AcDbPolyline
 90
       21
 70
     0
 43
0.0
 10
1641.904850897855
 20
1870.446373384415
 10
1642.807216159933
 20
1869.94288149999
 10
1643.22697930047
 20
1869.679905534423
 10
1643.759373715354
 20
1869.312374763198
 10
1644.29026621485
 20
1868.905303327244
 10
1644.785584256031
 20
1868.478829367792
 10
1645.240760564458
 20
1868.034987584877
 10
1645.655042733182
 20
1867.572580529711
 10
1646.020938703952
 20
1867.092975339438
 10
1646.328921718905
 20
1866.592971876215
 10
1646.451895629784
 20
1866.332813432333
 10
1646.521314099533
 20
1866.181465903792
 10
1646.594886803416
 20
1866.043375155581
 10
1646.677710904777
 20
1865.918678837325
 10
1646.768366445581
 20
1865.809104321184
 10
1646.86782835188
 20
1865.714874127815
 10
1646.976849040674
 20
1865.637185710913
 10
1647.095428495966
 20
1865.576039080712
 10
1647.225601402902
 20
1865.536001418686
 10
1647.370822461429
 20
1865.519912780988
 10
1647.561706630843
 20
1865.541940782897
  0
ARC
  5
D431
330
1F
100
AcDbEntity
  8
AM_0
100
AcDbCircle
 10
1652.229629731199
 20
1847.382352601191
 30
0.0
 40
18.75
100
AcDbArc
 50
101.2961549638107
 51
104.4181337096535
  0
LWPOLYLINE
  5
D432
330
1F
100
AcDbEntity
  8
AM_0
100
AcDbPolyline
 90
       21
 70
     0
 43
0.0
 10
1632.04135153138
 20
1862.580495118393
 10
1632.331424662174
 20
1861.588716553048
 10
1632.494401185164
 20
1861.120960093369
 10
1632.734248290186
 20
1860.520130627537
 10
1633.012978900556
 20
1859.911966795319
 10
1633.318541634284
 20
1859.334168027785
 10
1633.649969119762
 20
1858.791639851636
 10
1634.008596209537
 20
1858.284849352148
 10
1634.394757183322
 20
1857.821404962543
 10
1634.813691847195
 20
1857.409882487045
 10
1635.039963307316
 20
1857.232101086811
 10
1635.172069184595
 20
1857.130745100954
 10
1635.290326255593
 20
1857.028288950865
 10
1635.393466054642
 20
1856.919793835795
 10
1635.480120534174
 20
1856.807028595464
 10
1635.549855824866
 20
1856.689092218035
 10
1635.601337056512
 20
1856.565517625213
 10
1635.634564243505
 20
1856.436304823779
 10
1635.64463184639
 20
1856.300486376796
 10
1635.628002389447
 20
1856.155326258939
 10
1635.564050947054
 20
1855.974129646102
  0
ARC
  5
D433
330
1F
100
AcDbEntity
  8
AM_0
100
AcDbCircle
 10
1632.918392114239
 20
1862.782550707102
 30
0.0
 40
0.9
100
AcDbArc
 50
89.88353482889399
 51
192.9736080282449
  0
LWPOLYLINE
  5
D434
330
1F
100
AcDbEntity
  8
AM_0
100
AcDbPolyline
 90
       21
 70
     0
 43
0.0
 10
1632.920221857868
 20
1863.682563649757
 10
1633.951681807906
 20
1863.620454750609
 10
1634.443976324661
 20
1863.565649993587
 10
1635.08311274318
 20
1863.465513490127
 10
1635.738052034152
 20
1863.329100422048
 10
1636.369358285129
 20
1863.159771105401
 10
1636.972033700746
 20
1862.957377075367
 10
1637.54591993941
 20
1862.720513010772
 10
1638.083673711294
 20
1862.447159977542
 10
1638.57810019148
 20
1862.130301246397
 10
1638.801774377198
 20
1861.949262966041
 10
1638.929985489162
 20
1861.843023086294
 10
1639.056187544474
 20
1861.75052963584
 10
1639.184913176951
 20
1861.674118163418
 10
1639.314133588912
 20
1861.614728912517
 10
1639.444630630979
 20
1861.572985342277
 10
1639.576562606233
 20
1861.550292785784
 10
1639.709929549759
 20
1861.546651259308
 10
1639.844582969324
 20
1861.56705850382
 10
1639.982403216589
 20
1861.615572183466
 10
1640.144826318902
 20
1861.718240278142
  0
ARC
  5
D435
330
1F
100
AcDbEntity
  8
AM_0
100
AcDbCircle
 10
1652.229629731199
 20
1847.382352601191
 30
0.0
 40
18.75
100
AcDbArc
 50
127.0104406780964
 51
130.1324194239364
  0
LWPOLYLINE
  5
D436
330
1F
100
AcDbEntity
  8
AM_0
100
AcDbPolyline
 90
       21
 70
     0
 43
0.0
 10
1627.446392673604
 20
1852.316040227452
 10
1628.138056126173
 20
1851.548336630828
 10
1628.487844821307
 20
1851.197615486073
 10
1628.964629731199
 20
1850.760352601198
 10
1629.479629731204
 20
1850.333352601186
 10
1630.0056297312
 20
1849.945352601181
 10
1630.539629731194
 20
1849.600352601199
 10
1631.082629731175
 20
1849.299352601174
 10
1631.631629731288
 20
1849.049352601283
 10
1632.187629731276
 20
1848.860352601458
 10
1632.468629730877
 20
1848.798352601314
 10
1632.631629733246
 20
1848.764352606663
 10
1632.782629739307
 20
1848.723352620866
 10
1632.922629727265
 20
1848.670352595718
 10
1633.049629723966
 20
1848.606352591127
 10
1633.163629730131
 20
1848.53035260512
 10
1633.263629726374
 20
1848.441352587444
 10
1633.349629729685
 20
1848.339352609851
 10
1633.41762972878
 20
1848.22135259364
 10
1633.465629732271
 20
1848.083352610848
 10
1633.486629731199
 20
1847.892352601191
  0
ARC
  5
D437
330
1F
100
AcDbEntity
  8
AM_0
100
AcDbCircle
 10
1628.148910300308
 20
1852.878619669913
 30
0.0
 40
0.9
100
AcDbArc
 50
115.5978205431808
 51
218.6878937425379
  0
LWPOLYLINE
  5
D438
330
1F
100
AcDbEntity
  8
AM_0
100
AcDbPolyline
 90
       21
 70
     0
 43
0.0
 10
1627.76005786154
 20
1853.690297207961
 10
1628.716319206407
 20
1854.081872723282
 10
1629.183640132741
 20
1854.246093929067
 10
1629.80292974871
 20
1854.433184955987
 10
1630.452197072281
 20
1854.594448536941
 10
1631.094453587587
 20
1854.715801610914
 10
1631.725260853007
 20
1854.794941953629
 10
1632.345085953776
 20
1854.83053471253
 10
1632.948188797069
 20
1854.817574756905
 10
1633.531131514687
 20
1854.746618514026
 10
1633.811204559319
 20
1854.680557250828
 10
1633.972814533114
 20
1854.640467148466
 10
1634.12665006491
 20
1854.611890436036
 10
1634.275781540668
 20
1854.598898053381
 10
1634.417973148443
 20
1854.601456811828
 10
1634.553658763893
 20
1854.620467700612
 10
1634.682371295522
 20
1854.657265585278
 10
1634.804110769399
 20
1854.711850387729
 10
1634.916574928441
 20
1854.788660617108
 10
1635.019697387507
 20
1854.892167899691
 10
1635.121489533154
 20
1855.055141400842
  0
ARC
  5
D439
330
1F
100
AcDbEntity
  8
AM_0
100
AcDbCircle
 10
1652.229629731199
 20
1847.382352601191
 30
0.0
 40
18.75
100
AcDbArc
 50
152.7247263923924
 51
155.8467051382229
  0
LWPOLYLINE
  5
D43A
330
1F
100
AcDbEntity
  8
AM_0
100
AcDbPolyline
 90
       21
 70
     0
 43
0.0
 10
1627.76005786154
 20
1841.074407994421
 10
1628.716319206407
 20
1840.682832479098
 10
1629.183640132739
 20
1840.518611273307
 10
1629.802929748712
 20
1840.331520246394
 10
1630.452197072279
 20
1840.170256665435
 10
1631.094453587592
 20
1840.048903591472
 10
1631.725260853032
 20
1839.969763248673
 10
1632.345085953789
 20
1839.934170489816
 10
1632.94818879707
 20
1839.947130445695
 10
1633.531131514899
 20
1840.018086688936
 10
1633.811204559353
 20
1840.084147949737
 10
1633.972814532992
 20
1840.124238059548
 10
1634.12665006449
 20
1840.152814792057
 10
1634.275781539797
 20
1840.165807150203
 10
1634.417973141154
 20
1840.163248359847
 10
1634.553658760153
 20
1840.144237487336
 10
1634.682371297513
 20
1840.107439629853
 10
1634.804110773329
 20
1840.052854817504
 10
1634.916574928441
 20
1839.976044591183
 10
1635.019697384515
 20
1839.872537309698
 10
1635.121489533154
 20
1839.709563801541
  0
ARC
  5
D43B
330
1F
100
AcDbEntity
  8
AM_0
100
AcDbCircle
 10
1628.148910300308
 20
1841.88608553247
 30
0.0
 40
0.9
100
AcDbArc
 50
141.3121062574621
 51
244.4021794568192
  0
LWPOLYLINE
  5
D43C
330
1F
100
AcDbEntity
  8
AM_0
100
AcDbPolyline
 90
       21
 70
     0
 43
0.0
 10
1627.446392673604
 20
1842.448664974931
 10
1628.138056126173
 20
1843.216368571552
 10
1628.487844821307
 20
1843.567089716304
 10
1628.964629731201
 20
1844.004352601184
 10
1629.479629731205
 20
1844.431352601199
 10
1630.005629731203
 20
1844.819352601193
 10
1630.539629731194
 20
1845.164352601125
 10
1631.082629731175
 20
1845.465352601201
 10
1631.631629731287
 20
1845.71535260154
 10
1632.187629731482
 20
1845.904352600759
 10
1632.468629730186
 20
1845.966352604787
 10
1632.631629732041
 20
1846.000352605627
 10
1632.782629738048
 20
1846.041352615781
 10
1632.922629728138
 20
1846.094352596115
 10
1633.049629723993
 20
1846.158352584669
 10
1633.163629729194
 20
1846.234352602432
 10
1633.263629726867
 20
1846.323352593836
 10
1633.349629727618
 20
1846.425352598519
 10
1633.417629727797
 20
1846.543352598336
 10
1633.465629729283
 20
1846.681352603133
 10
1633.486629731199
 20
1846.872352601191
  0
ARC
  5
D43D
330
1F
100
AcDbEntity
  8
AM_0
100
AcDbCircle
 10
1652.229629731199
 20
1847.382352601191
 30
0.0
 40
18.75
100
AcDbArc
 50
178.4390121066699
 51
181.5609908525163
  0
LWPOLYLINE
  5
D43E
330
1F
100
AcDbEntity
  8
AM_0
100
AcDbPolyline
 90
       21
 70
     0
 43
0.0
 10
1632.920221857868
 20
1831.082141552625
 10
1633.951681807906
 20
1831.144250451771
 10
1634.443976324658
 20
1831.199055208786
 10
1635.08311274318
 20
1831.29919171225
 10
1635.738052034142
 20
1831.435604780321
 10
1636.369358285125
 20
1831.604934096991
 10
1636.972033700748
 20
1831.807328126911
 10
1637.545919939411
 20
1832.044192191659
 10
1638.083673711319
 20
1832.317545225093
 10
1638.578100191877
 20
1832.634403957137
 10
1638.801774378659
 20
1832.815442234621
 10
1638.929985488262
 20
1832.921682120503
 10
1639.056187545315
 20
1833.014175600371
 10
1639.184913171614
 20
1833.090587029459
 10
1639.314133592583
 20
1833.149976273591
 10
1639.444630627239
 20
1833.191719843811
 10
1639.576562608104
 20
1833.214412391823
 10
1639.709929550277
 20
1833.21805395958
 10
1639.844582963433
 20
1833.197646699409
 10
1639.982403219861
 20
1833.149133026817
 10
1640.144826318902
 20
1833.046464924241
  0
ARC
  5
D43F
330
1F
100
AcDbEntity
  8
AM_0
100
AcDbCircle
 10
1632.918392114238
 20
1831.982154495281
 30
0.0
 40
0.9
100
AcDbArc
 50
167.026391971755
 51
270.116465171106
  0
LWPOLYLINE
  5
D440
330
1F
100
AcDbEntity
  8
AM_0
100
AcDbPolyline
 90
       21
 70
     0
 43
0.0
 10
1632.04135153138
 20
1832.184210083989
 10
1632.331424662174
 20
1833.175988649332
 10
1632.494401185164
 20
1833.643745109013
 10
1632.734248290187
 20
1834.244574574852
 10
1633.012978900552
 20
1834.852738407105
 10
1633.318541634291
 20
1835.43053717462
 10
1633.64996911975
 20
1835.973065350684
 10
1634.008596209579
 20
1836.47985585036
 10
1634.39475718333
 20
1836.94330024018
 10
1634.813691847543
 20
1837.354822715039
 10
1635.039963307599
 20
1837.532604112218
 10
1635.172069189717
 20
1837.633960102232
 10
1635.290326255966
 20
1837.736416295826
 10
1635.393466048534
 20
1837.844911342841
 10
1635.480120532311
 20
1837.957676581303
 10
1635.549855823924
 20
1838.075612955847
 10
1635.601337054723
 20
1838.199187578211
 10
1635.634564240438
 20
1838.328400422088
 10
1635.644631848352
 20
1838.464218827671
 10
1635.628002389447
 20
1838.609378932197
 10
1635.564050947054
 20
1838.790575556281
  0
ARC
  5
D441
330
1F
100
AcDbEntity
  8
AM_0
100
AcDbCircle
 10
1652.229629731199
 20
1847.382352601191
 30
0.0
 40
18.75
100
AcDbArc
 50
204.153297820955
 51
207.2752765667958
  0
LWPOLYLINE
  5
D442
330
1F
100
AcDbEntity
  8
AM_0
100
AcDbPolyline
 90
       21
 70
     0
 43
0.0
 10
1641.904850897855
 20
1824.318331817968
 10
1642.807216159933
 20
1824.82182370239
 10
1643.226979300469
 20
1825.084799667953
 10
1643.759373715355
 20
1825.452330439185
 10
1644.290266214853
 20
1825.859401875169
 10
1644.785584256029
 20
1826.285875834581
 10
1645.240760564447
 20
1826.729717617469
 10
1645.655042733183
 20
1827.192124672662
 10
1646.02093870399
 20
1827.671729863055
 10
1646.32892171835
 20
1828.171733326018
 10
1646.451895633363
 20
1828.431891771309
 10
1646.521314095549
 20
1828.583239316225
 10
1646.594886805277
 20
1828.721330083149
 10
1646.677710904719
 20
1828.846026363403
 10
1646.768366444689
 20
1828.955600833092
 10
1646.867828350013
 20
1829.049831056369
 10
1646.976849031043
 20
1829.127519489645
 10
1647.09542849004
 20
1829.188666167889
 10
1647.225601404759
 20
1829.228703780928
 10
1647.370822459141
 20
1829.244792441814
 10
1647.561706630843
 20
1829.222764419485
  0
ARC
  5
D443
330
1F
100
AcDbEntity
  8
AM_0
100
AcDbCircle
 10
1641.512701374995
 20
1825.128421564001
 30
0.0
 40
0.9
100
AcDbArc
 50
192.7406776860484
 51
295.8307508853907
  0
LWPOLYLINE
  5
D444
330
1F
100
AcDbEntity
  8
AM_0
100
AcDbPolyline
 90
       21
 70
     0
 43
0.0
 10
1640.634846479614
 20
1824.929933711565
 10
1640.465876747566
 20
1825.949353337399
 10
1640.409761599255
 20
1826.441500208511
 10
1640.365166238733
 20
1827.086894610886
 10
1640.352421443673
 20
1827.755767969766
 10
1640.377026464256
 20
1828.40892537265
 10
1640.440238156993
 20
1829.041527365946
 10
1640.543461843229
 20
1829.653732291313
 10
1640.690299873858
 20
1830.238830225659
 10
1640.889194053696
 20
1830.791368102573
 10
1641.015921137636
 20
1831.049719116907
 10
1641.090967702571
 20
1831.198356303042
 10
1641.153059581593
 20
1831.341975946986
 10
1641.198911069797
 20
1831.484477299497
 10
1641.228057055644
 20
1831.62367323261
 10
1641.23971570815
 20
1831.76018725065
 10
1641.232481685098
 20
1831.893861009947
 10
1641.206355004937
 20
1832.024694490449
 10
1641.156496191926
 20
1832.151430803905
 10
1641.07853095602
 20
1832.275000307899
 10
1640.942294431019
 20
1832.410505326345
  0
ARC
  5
D445
330
1F
100
AcDbEntity
  8
AM_0
100
AcDbCircle
 10
1652.229629731199
 20
1847.382352601191
 30
0.0
 40
18.75
100
AcDbArc
 50
229.8675835352358
 51
232.9895622810893
  0
LWPOLYLINE
  5
D446
330
1F
100
AcDbEntity
  8
AM_0
100
AcDbPolyline
 90
       21
 70
     0
 43
0.0
 10
1652.934429010888
 20
1822.122634261079
 10
1653.528975078068
 20
1822.967786388146
 10
1653.793067604348
 20
1823.386847947085
 10
1654.113272772345
 20
1823.948979009372
 10
1654.414968709862
 20
1824.546083322952
 10
1654.676194728531
 20
1825.145233527127
 10
1654.893718679469
 20
1825.742614754402
 10
1655.066343113922
 20
1826.338979411913
 10
1655.18791109929
 20
1826.929845069404
 10
1655.248450835626
 20
1827.513961444201
 10
1655.246367983801
 20
1827.801712483386
 10
1655.243244621167
 20
1827.968191444467
 10
1655.249616012608
 20
1828.124528937852
 10
1655.270134250202
 20
1828.272812447246
 10
1655.304269473582
 20
1828.410869597408
 10
1655.352996607395
 20
1828.538922987739
 10
1655.417513111296
 20
1828.656220144288
 10
1655.497818950335
 20
1828.762761083989
 10
1655.597729019568
 20
1828.855313648837
 10
1655.721588067863
 20
1828.932818085549
 10
1655.903126361129
 20
1828.995793066849
  0
ARC
  5
D447
330
1F
100
AcDbEntity
  8
AM_0
100
AcDbCircle
 10
1652.229629731199
 20
1822.682352601191
 30
0.0
 40
0.9
100
AcDbArc
 50
218.4549634003272
 51
321.5450365996728
  0
LWPOLYLINE
  5
D448
330
1F
100
AcDbEntity
  8
AM_0
100
AcDbPolyline
 90
       21
 70
     0
 43
0.0
 10
1651.524830451509
 20
1822.122634261079
 10
1650.930284384328
 20
1822.967786388145
 10
1650.666191858049
 20
1823.386847947082
 10
1650.345986690057
 20
1823.948979009372
 10
1650.044290752539
 20
1824.546083322952
 10
1649.783064733873
 20
1825.145233527134
 10
1649.565540782886
 20
1825.742614754408
 10
1649.392916348465
 20
1826.338979411906
 10
1649.271348363231
 20
1826.929845069478
 10
1649.210808627341
 20
1827.513961444201
 10
1649.212891479119
 20
1827.801712483386
 10
1649.216014846174
 20
1827.968191444467
 10
1649.209643466321
 20
1828.124528937852
 10
1649.189125207265
 20
1828.272812447246
 10
1649.154989971158
 20
1828.410869597408
 10
1649.106262845417
 20
1828.538922987739
 10
1649.041746351633
 20
1828.656220144288
 10
1648.961440515005
 20
1828.762761086952
 10
1648.861530441535
 20
1828.855313648627
 10
1648.737671390693
 20
1828.932818089239
 10
1648.556133101268
 20
1828.995793066849
  0
ARC
  5
D449
330
1F
100
AcDbEntity
  8
AM_0
100
AcDbCircle
 10
1652.229629731199
 20
1847.382352601191
 30
0.0
 40
18.75
100
AcDbArc
 50
255.5818692495336
 51
258.7038479953768
  0
LWPOLYLINE
  5
D44A
330
1F
100
AcDbEntity
  8
AM_0
100
AcDbPolyline
 90
       21
 70
     0
 43
0.0
 10
1663.824412982783
 20
1824.929933711565
 10
1663.993382714831
 20
1825.949353337399
 10
1664.049497863141
 20
1826.441500208511
 10
1664.094093223659
 20
1827.086894610886
 10
1664.106838018724
 20
1827.755767969766
 10
1664.082232998132
 20
1828.40892537265
 10
1664.019021305387
 20
1829.041527365946
 10
1663.915797619237
 20
1829.653732291313
 10
1663.768959588617
 20
1830.238830225659
 10
1663.570065409252
 20
1830.791368102573
 10
1663.44333832659
 20
1831.049719116907
 10
1663.368291759076
 20
1831.198356303042
 10
1663.306199899224
 20
1831.341975946986
 10
1663.26034838424
 20
1831.484477299497
 10
1663.231202385764
 20
1831.62367323261
 10
1663.219543736706
 20
1831.76018725065
 10
1663.226777766869
 20
1831.893861009947
 10
1663.252904459107
 20
1832.024694490449
 10
1663.302763274758
 20
1832.151430803905
 10
1663.38072850256
 20
1832.275000307899
 10
1663.516965031378
 20
1832.410505326345
  0
ARC
  5
D44B
330
1F
100
AcDbEntity
  8
AM_0
100
AcDbCircle
 10
1662.946558087402
 20
1825.128421564001
 30
0.0
 40
0.9
100
AcDbArc
 50
244.1692491146093
 51
347.2593223139516
  0
LWPOLYLINE
  5
D44C
330
1F
100
AcDbEntity
  8
AM_0
100
AcDbPolyline
 90
       21
 70
     0
 43
0.0
 10
1662.554408564543
 20
1824.318331817968
 10
1661.652043302464
 20
1824.821823702391
 10
1661.232280161925
 20
1825.084799667952
 10
1660.699885747042
 20
1825.45233043919
 10
1660.168993247557
 20
1825.859401875169
 10
1659.673675206358
 20
1826.285875834581
 10
1659.218498897916
 20
1826.729717617469
 10
1658.804216729258
 20
1827.192124672672
 10
1658.43832075852
 20
1827.671729863147
 10
1658.130337744175
 20
1828.171733326477
 10
1658.00736383275
 20
1828.431891770082
 10
1657.937945374143
 20
1828.583239314928
 10
1657.864372667851
 20
1828.721330079803
 10
1657.781548554143
 20
1828.84602635631
 10
1657.690892993572
 20
1828.955600833092
 10
1657.591431096252
 20
1829.049831056369
 10
1657.48241043331
 20
1829.127519489645
 10
1657.363830983037
 20
1829.188666167889
 10
1657.233658050721
 20
1829.228703780928
 10
1657.088437001965
 20
1829.244792437522
 10
1656.897552831555
 20
1829.222764419485
  0
ARC
  5
D44D
330
1F
100
AcDbEntity
  8
AM_0
100
AcDbCircle
 10
1652.229629731199
 20
1847.382352601191
 30
0.0
 40
18.75
100
AcDbArc
 50
281.2961549638108
 51
284.4181337096535
  0
LWPOLYLINE
  5
D44E
330
1F
100
AcDbEntity
  8
AM_0
100
AcDbPolyline
 90
       21
 70
     0
 43
0.0
 10
1672.417907931017
 20
1832.184210083989
 10
1672.127834800223
 20
1833.175988649332
 10
1671.964858277231
 20
1833.643745109013
 10
1671.725011172204
 20
1834.244574574852
 10
1671.446280561853
 20
1834.852738407105
 10
1671.140717828108
 20
1835.43053717462
 10
1670.809290342613
 20
1835.973065350679
 10
1670.450663252851
 20
1836.479855850392
 10
1670.06450227927
 20
1836.943300240132
 10
1669.645567615811
 20
1837.354822715129
 10
1669.419296153986
 20
1837.532604112218
 10
1669.287190276795
 20
1837.633960102232
 10
1669.168933225121
 20
1837.73641629154
 10
1669.065793405063
 20
1837.844911342724
 10
1668.979138911856
 20
1837.957676581357
 10
1668.909403628414
 20
1838.075612967071
 10
1668.857922393015
 20
1838.199187578505
 10
1668.824695223798
 20
1838.328400406511
 10
1668.814627616032
 20
1838.464218825601
 10
1668.831257068542
 20
1838.609378932197
 10
1668.895208515344
 20
1838.790575556281
  0
ARC
  5
D44F
330
1F
100
AcDbEntity
  8
AM_0
100
AcDbCircle
 10
1671.540867348159
 20
1831.982154495281
 30
0.0
 40
0.9
100
AcDbArc
 50
269.883534828894
 51
12.97360802824494
  0
LWPOLYLINE
  5
D450
330
1F
100
AcDbEntity
  8
AM_0
100
AcDbPolyline
 90
       21
 70
     0
 43
0.0
 10
1671.53903760453
 20
1831.082141552625
 10
1670.507577654491
 20
1831.144250451771
 10
1670.015283137735
 20
1831.199055208787
 10
1669.376146719228
 20
1831.299191712255
 10
1668.721207428252
 20
1831.435604780321
 10
1668.089901177263
 20
1831.604934096988
 10
1667.487225761649
 20
1831.807328126911
 10
1666.913339522999
 20
1832.044192191659
 10
1666.375585751317
 20
1832.317545225093
 10
1665.881159271552
 20
1832.634403957137
 10
1665.657485084339
 20
1832.815442234621
 10
1665.529273976475
 20
1832.921682120503
 10
1665.40307193534
 20
1833.014175600371
 10
1665.274346286681
 20
1833.090587029459
 10
1665.145125858461
 20
1833.14997628088
 10
1665.014628835389
 20
1833.191719828842
 10
1664.88269685689
 20
1833.214412395622
 10
1664.749329919319
 20
1833.21805395958
 10
1664.614676500902
 20
1833.197646699409
 10
1664.476856234104
 20
1833.149133026817
 10
1664.314433143496
 20
1833.046464924241
  0
ARC
  5
D451
330
1F
100
AcDbEntity
  8
AM_0
100
AcDbCircle
 10
1652.229629731199
 20
1847.382352601191
 30
0.0
 40
18.75
100
AcDbArc
 50
307.0104406780964
 51
310.1324194239364
  0
LWPOLYLINE
  5
D452
330
1F
100
AcDbEntity
  8
AM_0
100
AcDbPolyline
 90
       21
 70
     0
 43
0.0
 10
1677.012866788794
 20
1842.448664974931
 10
1676.321203336224
 20
1843.216368571552
 10
1675.97141464109
 20
1843.5670897163
 10
1675.494629731199
 20
1844.004352601189
 10
1674.979629731205
 20
1844.431352601191
 10
1674.453629731211
 20
1844.819352601193
 10
1673.919629731189
 20
1845.164352601133
 10
1673.376629731219
 20
1845.465352601218
 10
1672.827629731234
 20
1845.715352601298
 10
1672.271629730684
 20
1845.904352601546
 10
1671.990629730397
 20
1845.9663525998
 10
1671.827629731891
 20
1846.000352610832
 10
1671.676629736483
 20
1846.041352617823
 10
1671.536629726753
 20
1846.094352599608
 10
1671.409629724851
 20
1846.158352584722
 10
1671.295629727822
 20
1846.234352602418
 10
1671.195629734236
 20
1846.323352609319
 10
1671.109629731912
 20
1846.425352618099
 10
1671.041629730548
 20
1846.543352598544
 10
1670.993629742347
 20
1846.681352603133
 10
1670.972629731199
 20
1846.872352601191
  0
ARC
  5
D453
330
1F
100
AcDbEntity
  8
AM_0
100
AcDbCircle
 10
1676.31034916209
 20
1841.88608553247
 30
0.0
 40
0.9
100
AcDbArc
 50
295.5978205431808
 51
38.68789374253788
  0
LWPOLYLINE
  5
D454
330
1F
100
AcDbEntity
  8
AM_0
100
AcDbPolyline
 90
       21
 70
     0
 43
0.0
 10
1676.699201600857
 20
1841.074407994421
 10
1675.74294025599
 20
1840.682832479099
 10
1675.275619329656
 20
1840.518611273307
 10
1674.656329713691
 20
1840.331520246393
 10
1674.007062390121
 20
1840.170256665435
 10
1673.364805874829
 20
1840.048903591473
 10
1672.733998609358
 20
1839.969763248691
 10
1672.114173508658
 20
1839.934170489842
 10
1671.511070665491
 20
1839.947130445769
 10
1670.92812794829
 20
1840.018086688736
 10
1670.648054903065
 20
1840.084147947425
 10
1670.486444933364
 20
1840.124238059669
 10
1670.332609407165
 20
1840.152814792057
 10
1670.183477913454
 20
1840.165807150203
 10
1670.041286309817
 20
1840.163248359847
 10
1669.905600702479
 20
1840.144237492052
 10
1669.776888156343
 20
1840.107439629853
 10
1669.655148696267
 20
1840.052854817226
 10
1669.542684530919
 20
1839.976044589113
 10
1669.439562075765
 20
1839.872537309698
 10
1669.337769929244
 20
1839.709563801541
  0
ARC
  5
D455
330
1F
100
AcDbEntity
  8
AM_0
100
AcDbCircle
 10
1652.229629731199
 20
1847.382352601191
 30
0.0
 40
18.75
100
AcDbArc
 50
332.7247263923924
 51
335.8467051382229
  0
ARC
  5
D456
330
1F
100
AcDbEntity
  8
AM_0
100
AcDbCircle
 10
1652.229629731199
 20
1851.882352601191
 30
0.0
 40
1.1
100
AcDbArc
 50
338.899803975899
 51
201.1001960240902
  0
ARC
  5
D457
330
1F
100
AcDbEntity
  8
AM_0
100
AcDbCircle
 10
1652.229629731199
 20
1851.882352601191
 30
0.0
 40
1.9
100
AcDbArc
 50
338.899803975899
 51
201.1001960240902
  0
ARC
  5
D458
330
1F
100
AcDbEntity
  8
AM_0
100
AcDbCircle
 10
1648.964296670085
 20
1850.622352601191
 30
0.0
 40
1.6
100
AcDbArc
 50
315.2231200360199
 51
21.10019602409022
  0
ARC
  5
D459
330
1F
100
AcDbEntity
  8
AM_0
100
AcDbCircle
 10
1648.964296670085
 20
1850.622352601191
 30
0.0
 40
2.399999999999999
100
AcDbArc
 50
350.9711369762608
 51
21.10019602409022
  0
ARC
  5
D45A
330
1F
100
AcDbEntity
  8
AM_0
100
AcDbCircle
 10
1656.179629731199
 20
1845.024917554366
 30
0.0
 40
2.399999999999999
100
AcDbArc
 50
184.9184616757992
 51
210.0000000000449
  0
LINE
  5
D45B
330
1F
100
AcDbEntity
  8
AM_0
100
AcDbLine
 10
1654.101168762117
 20
1843.824917554364
 30
0.0
 11
1655.280444187672
 21
1841.782352601188
 31
0.0
  0
ARC
  5
D45C
330
1F
100
AcDbEntity
  8
AM_0
100
AcDbCircle
 10
1656.179629731199
 20
1845.024917554366
 30
0.0
 40
1.6
100
AcDbArc
 50
149.1704447355661
 51
210.0000000000449
  0
LINE
  5
D45D
330
1F
100
AcDbEntity
  8
AM_0
100
AcDbLine
 10
1654.793989085144
 20
1844.224917554365
 30
0.0
 11
1655.9732645107
 21
1842.182352601189
 31
0.0
  0
LINE
  5
D45E
330
1F
100
AcDbEntity
  8
AM_0
100
AcDbLine
 10
1655.280444187672
 20
1841.782352601188
 30
0.0
 11
1655.9732645107
 21
1842.182352601189
 31
0.0
  0
ARC
  5
D45F
330
1F
100
AcDbEntity
  8
AM_0
100
AcDbCircle
 10
1648.279629731199
 20
1845.024917554366
 30
0.0
 40
1.6
100
AcDbArc
 50
329.9999999999551
 51
30.8295552644339
  0
ARC
  5
D460
330
1F
100
AcDbEntity
  8
AM_0
100
AcDbCircle
 10
1648.279629731199
 20
1845.024917554366
 30
0.0
 40
2.399999999999999
100
AcDbArc
 50
329.9999999999551
 51
355.0815383242008
  0
LINE
  5
D461
330
1F
100
AcDbEntity
  8
AM_0
100
AcDbLine
 10
1650.35809070028
 20
1843.824917554364
 30
0.0
 11
1649.178815274725
 21
1841.782352601188
 31
0.0
  0
LINE
  5
D462
330
1F
100
AcDbEntity
  8
AM_0
100
AcDbLine
 10
1649.665270377253
 20
1844.224917554365
 30
0.0
 11
1648.485994951698
 21
1842.182352601189
 31
0.0
  0
LINE
  5
D463
330
1F
100
AcDbEntity
  8
AM_0
100
AcDbLine
 10
1649.178815274725
 20
1841.782352601188
 30
0.0
 11
1648.485994951698
 21
1842.182352601189
 31
0.0
  0
ARC
  5
D464
330
1F
100
AcDbEntity
  8
AM_0
100
AcDbCircle
 10
1655.494962792312
 20
1850.622352601191
 30
0.0
 40
2.399999999999999
100
AcDbArc
 50
158.8998039758991
 51
189.0288630237392
  0
ARC
  5
D465
330
1F
100
AcDbEntity
  8
AM_0
100
AcDbCircle
 10
1655.494962792312
 20
1850.622352601191
 30
0.0
 40
1.6
100
AcDbArc
 50
158.8998039758991
 51
224.7768799639801
  0
CIRCLE
  5
D466
330
1F
100
AcDbEntity
  8
AM_0
100
AcDbCircle
 10
1652.229629731199
 20
1847.382352601191
 30
0.0
 40
3.0
  0
ARC
  5
D467
330
1F
100
AcDbEntity
  8
AM_0
100
AcDbCircle
 10
1652.229629731199
 20
1847.382352601191
 30
0.0
 40
4.0
100
AcDbArc
 50
242.2614242912284
 51
297.7385757087716
  0
ARC
  5
D468
330
1F
100
AcDbEntity
  8
AM_0
100
AcDbCircle
 10
1652.229629731199
 20
1847.382352601191
 30
0.0
 40
4.0
100
AcDbArc
 50
309.2585412743215
 51
64.68878342522119
  0
ARC
  5
D469
330
1F
100
AcDbEntity
  8
AM_0
100
AcDbCircle
 10
1652.229629731199
 20
1847.382352601191
 30
0.0
 40
4.0
100
AcDbArc
 50
76.20874899077318
 51
103.7912510092268
  0
ARC
  5
D46A
330
1F
100
AcDbEntity
  8
AM_0
100
AcDbCircle
 10
1652.229629731199
 20
1847.382352601191
 30
0.0
 40
4.0
100
AcDbArc
 50
115.3112165747788
 51
230.7414587256785
  0
LINE
  5
D46B
330
1F
100
AcDbEntity
  8
AM_7
100
AcDbLine
 10
1685.8894277058
 20
1813.722554626422
 30
0.0
 11
1677.969831756535
 21
1821.642150575735
 31
0.0
  0
ARC
  5
D46C
330
1F
100
AcDbEntity
  8
AM_7
100
AcDbCircle
 10
1652.229629731235
 20
1847.382352601191
 30
0.0
 40
42.00214280251268
100
AcDbArc
 50
307.3603859629898
 51
322.639614036667
  0
LINE
  5
D46D
330
1F
100
AcDbEntity
  8
AM_7
  6
AM_ISO08W050x2
100
AcDbLine
 10
1652.229629731178
 20
1874.235204630601
 30
0.0
 11
1652.22962973123
 21
1807.15040941775
 31
0.0
  0
LINE
  5
D46E
330
1F
100
AcDbEntity
  8
AM_7
100
AcDbLine
 10
1626.729629731199
 20
1847.382352601172
 30
0.0
 11
1677.729629731199
 21
1847.382352601211
 31
0.0
  0
ARC
  5
D46F
330
1F
100
AcDbEntity
  8
AM_7
100
AcDbCircle
 10
1652.229629731235
 20
1847.382352601191
 30
0.0
 40
42.00214280270702
100
AcDbArc
 50
217.3603859633697
 51
232.6396140369928
  0
LINE
  5
D470
330
1F
100
AcDbEntity
  8
AM_7
100
AcDbLine
 10
1618.569831756535
 20
1813.722554626282
 30
0.0
 11
1626.4894277058
 21
1821.642150575596
 31
0.0
  0
LINE
  5
D471
330
1F
100
AcDbEntity
  8
AM_0
100
AcDbLine
 10
1733.117982774573
 20
1844.382352601243
 30
0.0
 11
1733.117982774568
 21
1850.382352601243
 31
0.0
  0
LINE
  5
D472
330
1F
100
AcDbEntity
  8
AM_0
100
AcDbLine
 10
1733.11798277459
 20
1841.782352601228
 30
0.0
 11
1733.117982774566
 21
1853.38235260123
 31
0.0
  0
LINE
  5
D473
330
1F
100
AcDbEntity
  8
AM_0
100
AcDbLine
 10
1733.91798277459
 20
1841.782352601228
 30
0.0
 11
1733.917982774566
 21
1853.382352601232
 31
0.0
  0
LINE
  5
D474
330
1F
100
AcDbEntity
  8
AM_0
100
AcDbLine
 10
1733.11798277459
 20
1841.782352601228
 30
0.0
 11
1733.91798277459
 21
1841.782352601228
 31
0.0
  0
ARC
  5
D475
330
1F
100
AcDbEntity
  8
AM_0
100
AcDbCircle
 10
1733.517982774566
 20
1853.382352601231
 30
0.0
 40
0.4000000000000119
100
AcDbArc
 50
0.0
 51
180.0
  0
LINE
  5
D476
330
1F
100
AcDbEntity
  8
AM_0
100
AcDbLine
 10
1734.01798277455
 20
1845.032352601269
 30
0.0
 11
1733.917982774583
 21
1845.032352601269
 31
0.0
  0
LINE
  5
D477
330
1F
100
AcDbEntity
  8
AM_0
100
AcDbLine
 10
1734.017982774546
 20
1849.732352601269
 30
0.0
 11
1733.917982774573
 21
1849.732352601269
 31
0.0
  0
LINE
  5
D478
330
1F
100
AcDbEntity
  8
AM_0
100
AcDbLine
 10
1733.117982774573
 20
1844.382352601243
 30
0.0
 11
1732.017982774573
 21
1844.382352601242
 31
0.0
  0
LINE
  5
D479
330
1F
100
AcDbEntity
  8
AM_0
100
AcDbLine
 10
1733.117982774568
 20
1850.382352601242
 30
0.0
 11
1732.017982774568
 21
1850.382352601242
 31
0.0
  0
LINE
  5
D47A
330
1F
100
AcDbEntity
  8
AM_0
100
AcDbLine
 10
1746.517982774565
 20
1849.632352601279
 30
0.0
 11
1746.517982774568
 21
1845.132352601279
 31
0.0
  0
LINE
  5
D47B
330
1F
100
AcDbEntity
  8
AM_0
100
AcDbLine
 10
1746.517982774565
 20
1849.632352601279
 30
0.0
 11
1746.062147889081
 21
1849.592472216359
 31
0.0
  0
ARC
  5
D47C
330
1F
100
AcDbEntity
  8
AM_0
100
AcDbCircle
 10
1746.13187248328
 20
1848.795516457886
 30
0.0
 40
0.8
100
AcDbArc
 50
95.00000000003945
 51
140.0329316426786
  0
LINE
  5
D47D
330
1F
100
AcDbEntity
  8
AM_0
100
AcDbLine
 10
1746.517982774568
 20
1845.132352601278
 30
0.0
 11
1746.062147889085
 21
1845.172232986197
 31
0.0
  0
ARC
  5
D47E
330
1F
100
AcDbEntity
  8
AM_0
100
AcDbCircle
 10
1746.131872483282
 20
1845.969188744671
 30
0.0
 40
0.8
100
AcDbArc
 50
219.9670683574148
 51
265.0000000000395
  0
ARC
  5
D47F
330
1F
100
AcDbEntity
  8
AM_0
100
AcDbCircle
 10
1747.817982774567
 20
1847.38235260128
 30
0.0
 40
3.0
100
AcDbArc
 50
140.0329316426786
 51
219.9670683574148
  0
DIMENSION
  5
E3B0
330
1F
100
AcDbEntity
  8
AM_5
100
AcDbDimension
  2
*D6
 10
1720.017981774568
 20
1821.782352601271
 30
0.0
 11
1717.217981774568
 21
1847.382352601271
 31
0.0
 70
    32
  1
%%c<>
 71
     5
 42
51.20000000000004
  3
SYS$0
100
AcDbAlignedDimension
 13
1734.017982774529
 23
1872.982352601271
 33
0.0
 14
1734.017982774529
 24
1821.782352601271
 34
0.0
 50
90.0
100
AcDbRotatedDimension
  0
DIMENSION
  5
E3CF
330
1F
100
AcDbEntity
  8
AM_5
100
AcDbDimension
  2
*D7
 10
1734.017982774568
 20
1790.382352602662
 30
0.0
 11
1738.267982774569
 21
1793.182352602662
 31
0.0
 70
    32
 71
     5
 42
8.5
  3
SYS$0
100
AcDbAlignedDimension
 13
1742.517982774568
 23
1821.782352601277
 33
0.0
 14
1734.017982774568
 24
1821.782352601271
 34
0.0
100
AcDbRotatedDimension
  0
DIMENSION
  5
E3E5
330
1F
100
AcDbEntity
  8
AM_5
100
AcDbDimension
  2
*D8
 10
1763.017982774584
 20
1790.382352602661
 30
0.0
 11
1752.767982774576
 21
1793.182352602661
 31
0.0
 70
    32
 71
     5
 42
20.50000000001523
  3
SYS$0
100
AcDbAlignedDimension
 13
1742.517982774568
 23
1821.782352601277
 33
0.0
 14
1763.017982774584
 24
1810.38235260129
 34
0.0
100
AcDbRotatedDimension
  0
DIMENSION
  5
E3FB
330
1F
100
AcDbEntity
  8
AM_5
100
AcDbDimension
  2
*D9
 10
1763.017982774584
 20
1800.382352602656
 30
0.0
 11
1765.51798277459
 21
1803.182352602656
 31
0.0
 70
    32
 71
     5
 42
5.000000000013187
  3
SYS$0
100
AcDbAlignedDimension
 13
1768.017982774597
 23
1810.382352601294
 33
0.0
 14
1763.017982774584
 24
1810.38235260129
 34
0.0
 50
0.0000000000455964
100
AcDbRotatedDimension
  0
DIMENSION
  5
E411
330
1F
100
AcDbEntity
  8
AM_5
100
AcDbDimension
  2
*D10
 10
1772.017982774589
 20
1790.382352602668
 30
0.0
 11
1767.517982774586
 21
1793.182352602668
 31
0.0
 70
    32
 71
     5
 42
9.000000000005456
  3
SYS$0
100
AcDbAlignedDimension
 13
1763.017982774584
 23
1810.38235260129
 33
0.0
 14
1772.017982774589
 24
1825.882352601301
 34
0.0
 50
0.0000000000455964
100
AcDbRotatedDimension
  0
DIMENSION
  5
EE0A
330
1F
100
AcDbEntity
  8
AM_5
100
AcDbDimension
  2
*D39
 10
1858.7506649709
 20
1802.648261074796
 30
0.0
 11
1838.008402921711
 21
1797.306102247853
 31
0.0
 70
    34
 71
     5
 42
0.7853981633971099
  3
SYS$2
100
AcDb2LineAngularDimension
 13
1825.090866996248
 23
1813.72255462666
 33
0.0
 14
1833.010462945529
 24
1821.642150575959
 34
0.0
 15
1858.750664970844
 25
1874.280793745519
 35
0.0
 16
1830.249593569667
 26
1798.017048864214
 36
0.0
  0
DIMENSION
  5
EE5A
330
1F
100
AcDbEntity
  8
AM_5
100
AcDbDimension
  2
*D40
 10
1858.7506649709
 20
1802.648261074796
 30
0.0
 11
1879.492927020098
 21
1797.306102247886
 31
0.0
 70
    34
 71
     5
 42
0.7853981633971303
  3
SYS$2
100
AcDb2LineAngularDimension
 13
1892.410462945534
 23
1813.722554626714
 33
0.0
 14
1884.490866996242
 24
1821.642150575999
 34
0.0
 15
1858.750664970843
 25
1874.280793745519
 35
0.0
 16
1873.503905139842
 26
1792.322510714615
 36
0.0
  0
DIMENSION
  5
EE74
330
1F
100
AcDbEntity
  8
AM_5
100
AcDbDimension
  2
*D41
 10
1893.750664970897
 20
1780.172112607074
 30
0.0
 11
1858.750664970894
 21
1782.972112607074
 31
0.0
 70
    32
 71
     5
 42
70.00000000000591
  3
SYS$0
100
AcDbAlignedDimension
 13
1823.750664970891
 23
1813.382352601324
 33
0.0
 14
1893.750664970897
 24
1813.382352601324
 34
0.0
100
AcDbRotatedDimension
  0
DIMENSION
  5
EE93
330
1F
100
AcDbEntity
  8
AM_5
100
AcDbDimension
  2
*D42
 10
1787.017982774557
 20
1825.882352601301
 30
0.0
 11
1784.217982774556
 21
1847.382352601299
 31
0.0
 70
    32
  1
%%c<>
 71
     5
 42
42.99999999999499
  3
SYS$0
100
AcDbAlignedDimension
 13
1772.017982774556
 23
1868.882352601296
 33
0.0
 14
1772.017982774556
 24
1825.882352601301
 34
0.0
 50
90.0
100
AcDbRotatedDimension
  0
DIMENSION
  5
EEBC
330
1F
100
AcDbEntity
  8
AM_5
100
AcDbDimension
  2
*D43
 10
1908.709204703098
 20
1847.382352601378
 30
0.0
 11
1905.909204703098
 21
1828.882352601377
 31
0.0
 70
    32
 71
     5
 42
37.00000000000182
  3
SYS$0
100
AcDbAlignedDimension
 13
1890.750664970899
 23
1810.382352601376
 33
0.0
 14
1888.163819305152
 24
1847.382352601378
 34
0.0
 50
90.00000000004456
100
AcDbRotatedDimension
  0
DIMENSION
  5
EEF4
330
1F
100
AcDbEntity
  8
AM_5
100
AcDbDimension
  2
*D44
 10
1858.750664970866
 20
1847.382352601352
 30
0.0
 11
1868.4141625026
 21
1818.676135492208
 31
0.0
 70
   164
 71
     5
 42
42.00214280249475
  3
SYS$4
100
AcDbRadialDimension
 15
1872.151112368361
 25
1807.575217442588
 35
0.0
 40
0.0
1001
ACAD
1000
DSTYLE
1002
{
1070
   172
1070
     1
1070
   289
1070
     2
1002
}
  0
INSERT
  5
EF0F
330
1F
100
AcDbEntity
  8
AM_5
100
AcDbBlockReference
  2
*S47
 10
0.0
 20
0.0
 30
0.0
  0
DIMENSION
  5
EF1E
330
1F
100
AcDbEntity
  8
AM_5
100
AcDbDimension
  2
*D45
 10
1829.814663671372
 20
1815.197135108683
 30
0.0
 11
1816.973917283729
 21
1835.009772821495
 31
0.0
 70
   163
  1
2-<>
 71
     5
 42
5.200000000000272
  3
SYS$3
100
AcDbDiametricDimension
 15
1828.286666270407
 25
1820.167570093938
 35
0.0
 40
0.0
1001
ACAD
1000
DSTYLE
1002
{
1070
   172
1070
     1
1070
   342
1005
E726
1002
}
  0
DIMENSION
  5
EF55
330
1F
100
AcDbEntity
  8
AM_5
100
AcDbDimension
  2
*D46
 10
1732.017982774573
 20
1780.382352601297
 30
0.0
 11
1752.017982774581
 21
1783.182352601297
 31
0.0
 70
    32
 71
     5
 42
40.00000000001636
  3
SYS$0
100
AcDbAlignedDimension
 13
1772.017982774589
 23
1825.882352601301
 33
0.0
 14
1732.017982774573
 24
1844.382352601242
 34
0.0
100
AcDbRotatedDimension
  0
MTEXT
  5
EF7D
330
1F
100
AcDbEntity
  8
AM_6
100
AcDbMText
 10
1571.517319213633
 20
1942.858829750836
 30
0.0
 40
3.2
 41
90.0
 71
     4
 72
     5
  1
　M5×12ナベ小ネジ（バネ＋平座金組込） ＋ Fe：2本付
 73
     1
 44
1.0
1001
ACAD
1000
MTEXTBEGIN
1070
    73
1070
     1
1070
    44
1040
1.0
1070
    74
1070
     0
1000
MTEXTEND
  0
CIRCLE
  5
EF7E
330
1F
100
AcDbEntity
  8
AM_2
100
AcDbCircle
 10
1628.662717246741
 20
1942.812471817388
 30
0.0
 40
1.5
  0
ENDSEC
  0
SECTION
  2
OBJECTS
  0
DICTIONARY
  5
C
330
0
100
AcDbDictionary
281
     1
  3
ACAD_2007HEADERVARS_RT
350
F149
  3
ACAD_BGPLOT_KEY
350
AB06
  3
ACAD_COLOR
350
A91D
  3
ACAD_GROUP
350
D
  3
ACAD_LAYOUT
350
1A
  3
ACAD_MATERIAL
350
A91C
  3
ACAD_MLINESTYLE
350
17
  3
ACAD_PLOTSETTINGS
350
19
  3
ACAD_PLOTSTYLENAME
350
E
  3
ACAD_TABLESTYLE
350
AAB9
  3
ACAD_VISUALSTYLE
350
B0F1
  3
AcAsAppObject
350
3DA1
  3
ACASGREF_MASTER
350
3DE9
  3
AcDbVariableDictionary
350
34
  3
AcmDictionary
350
47
  3
AD_GREF_MODULE
350
3DEA
  3
AD_MAPI_MODULE
350
3E06
  3
AMG
350
2B
  3
AMGSNAPSETTINGS
350
7D
  3
ASE_INDEX_DICTIONARY
350
B331
  3
DWGPROPS
350
F148
  3
MAPISURF_MODULE
350
3DEB
  0
DICTIONARY
  5
3F95
330
2
100
AcDbDictionary
280
     1
281
     1
  3
ACAD_LAYERFILTERS
360
B519
  3
ACAD_LAYERSTATES
360
3F96
  3
ACLYDICTIONARY
360
B518
  3
AMLAYER_GROUPCOLORS
360
AAB4
  0
DICTIONARY
  5
BAB3
330
BAB2
100
AcDbDictionary
280
     1
281
     1
  3
ADSK_XREC_LAYER_RECONCILED
360
BAB4
  0
DICTIONARY
  5
BAB6
330
BAB5
100
AcDbDictionary
280
     1
281
     1
  3
ADSK_XREC_LAYER_RECONCILED
360
BAB7
  0
DICTIONARY
  5
BAB9
330
BAB8
100
AcDbDictionary
280
     1
281
     1
  3
ADSK_XREC_LAYER_RECONCILED
360
BABA
  0
DICTIONARY
  5
BABC
330
BABB
100
AcDbDictionary
280
     1
281
     1
  3
ADSK_XREC_LAYER_RECONCILED
360
BABD
  0
DICTIONARY
  5
BABF
330
BABE
100
AcDbDictionary
280
     1
281
     1
  3
ADSK_XREC_LAYER_RECONCILED
360
BAC0
  0
DICTIONARY
  5
BAC2
330
BAC1
100
AcDbDictionary
280
     1
281
     1
  3
ADSK_XREC_LAYER_RECONCILED
360
BAC3
  0
DICTIONARY
  5
BAC5
330
BAC4
100
AcDbDictionary
280
     1
281
     1
  3
ADSK_XREC_LAYER_RECONCILED
360
BAC6
  0
DICTIONARY
  5
BAC8
330
BAC7
100
AcDbDictionary
280
     1
281
     1
  3
ADSK_XREC_LAYER_RECONCILED
360
BAC9
  0
DICTIONARY
  5
BACB
330
BACA
100
AcDbDictionary
280
     1
281
     1
  3
ADSK_XREC_LAYER_RECONCILED
360
BACC
  0
DICTIONARY
  5
8A
330
1F
100
AcDbDictionary
280
     1
281
     1
  3
ACAD_SORTENTS
360
B1BA
  0
DICTIONARY
  5
F149
102
{ACAD_REACTORS
330
C
102
}
330
C
100
AcDbDictionary
281
     1
  3
DIMARCSYM
350
F14A
  0
DICTIONARY
  5
AB06
102
{ACAD_REACTORS
330
C
102
}
330
C
100
AcDbDictionary
280
     1
281
     1
  0
DICTIONARY
  5
A91D
102
{ACAD_REACTORS
330
C
102
}
330
C
100
AcDbDictionary
281
     1
  0
DICTIONARY
  5
D
102
{ACAD_REACTORS
330
C
102
}
330
C
100
AcDbDictionary
281
     1
  0
DICTIONARY
  5
1A
102
{ACAD_REACTORS
330
C
102
}
330
C
100
AcDbDictionary
281
     1
  3
Model
350
22
  3
ﾚｲｱｳﾄ1
350
1E
  3
ﾚｲｱｳﾄ2
350
26
  0
DICTIONARY
  5
A91C
102
{ACAD_REACTORS
330
C
102
}
330
C
100
AcDbDictionary
281
     1
  3
ByBlock
350
B0EF
  3
ByLayer
350
B0EE
  3
Global
350
B0F0
  0
DICTIONARY
  5
17
102
{ACAD_REACTORS
330
C
102
}
330
C
100
AcDbDictionary
281
     1
  3
Standard
350
18
  0
DICTIONARY
  5
19
102
{ACAD_REACTORS
330
C
102
}
330
C
100
AcDbDictionary
281
     1
  0
ACDBDICTIONARYWDFLT
  5
E
102
{ACAD_REACTORS
330
C
102
}
330
C
100
AcDbDictionary
281
     1
  3
Normal
350
F
100
AcDbDictionaryWithDefault
340
F
  0
DICTIONARY
  5
AAB9
102
{ACAD_REACTORS
330
C
102
}
330
C
100
AcDbDictionary
281
     1
  3
Standard
350
AABA
  0
DICTIONARY
  5
B0F1
102
{ACAD_REACTORS
330
C
102
}
330
C
100
AcDbDictionary
281
     1
  3
2dWireframe
350
B0F7
  3
3D Hidden
350
B0F9
  3
3dWireframe
350
B0F8
  3
Basic
350
B0F6
  3
Brighten
350
B0FD
  3
ColorChange
350
B101
  3
Conceptual
350
B0FA
  3
Dim
350
B0FC
  3
Facepattern
350
B100
  3
Flat
350
B0F2
  3
FlatWithEdges
350
B0F3
  3
Gouraud
350
B0F4
  3
GouraudWithEdges
350
B0F5
  3
Linepattern
350
B0FF
  3
Realistic
350
B0FB
  3
Thicken
350
B0FE
  0
ACAD_PROXY_OBJECT
  5
3DA1
102
{ACAD_REACTORS
330
C
102
}
330
C
100
AcDbProxyObject
 90
      499
 91
      576
 95
   917527
 70
     0
 93
       10
310
407F
 94
        0
1001
ACAD
1000
AcRTDxfName
1000
ASAPP
  0
ACAD_PROXY_OBJECT
  5
3DE9
102
{ACAD_REACTORS
330
C
102
}
330
C
100
AcDbProxyObject
 90
      499
 91
      581
 95
   917527
 70
     0
 93
       34
310
010000407F
 94
        0
1001
ACAD
1000
AcRTDxfName
1000
ACASGREFMASTER
  0
DICTIONARY
  5
34
102
{ACAD_REACTORS
330
C
102
}
330
C
100
AcDbDictionary
281
     1
  3
CTABLESTYLE
350
AAF3
  3
DIMASSOC
350
A10C
  3
FIELDEVAL
350
AB07
  3
INDEXCTL
350
35
  3
SORTENTS
350
194C
  0
DICTIONARY
  5
47
102
{ACAD_REACTORS
330
C
102
}
330
C
100
AcDbDictionary
281
     1
  3
AcmBOM
350
7E8
  3
AcmStdDictionary
350
4C
  3
AMDTSECTSYM_ARROWCOLOR
350
A929
  0
ACAD_PROXY_OBJECT
  5
3DEA
102
{ACAD_REACTORS
330
C
102
}
330
C
100
AcDbProxyObject
 90
      499
 91
      582
 95
   917527
 70
     0
 93
      114
310
00000043800000000000000000003F
 94
        0
1001
ACAD
1000
AcRTDxfName
1000
ACADGREFMODULE
  0
ACAD_PROXY_OBJECT
  5
3E06
102
{ACAD_REACTORS
330
C
102
}
330
C
100
AcDbProxyObject
 90
      499
 91
      594
 95
   917527
 70
     0
 93
       34
310
05000044FF
 94
        0
1001
ACAD
1000
AcRTDxfName
1000
MAPIADMODULE
  0
DICTIONARY
  5
2B
102
{ACAD_REACTORS
330
C
102
}
330
C
100
AcDbDictionary
281
     1
  0
DICTIONARY
  5
7D
102
{ACAD_REACTORS
330
C
102
}
330
C
100
AcDbDictionary
281
     1
  0
DICTIONARY
  5
B331
102
{ACAD_REACTORS
330
C
102
}
330
C
100
AcDbDictionary
281
     1
  3
ASEBlockHierarchyIndexRecord
350
B332
1001
DCO15
1040
1594111214.218
  0
XRECORD
  5
F148
102
{ACAD_REACTORS
330
C
102
}
330
C
100
AcDbXrecord
280
     1
  1
DWGPROPS COOKIE
  2

  3

  4

  6

  7

  8
Administrator
  9

300
AmdtFileType=84
301
=
302
=
303
=
304
=
305
=
306
=
307
=
308
=
309
=
 40
0.103620150462963
 41
2456280.50085684
 42
2456280.605429861
  1

 90
        1
  0
ACAD_PROXY_OBJECT
  5
3DEB
102
{ACAD_REACTORS
330
C
102
}
330
C
100
AcDbProxyObject
 90
      499
 91
      583
 95
   917527
 70
     0
 93
        8
310
047E
 94
        0
1001
ACAD
1000
AcRTDxfName
1000
AMDTMAPISURFMOUDULE
  0
DICTIONARY
  5
B519
102
{ACAD_REACTORS
330
3F95
102
}
330
3F95
100
AcDbDictionary
281
     1
  0
DICTIONARY
  5
3F96
102
{ACAD_REACTORS
330
3F95
102
}
330
3F95
100
AcDbDictionary
281
     1
  3
20011210
350
3FB7
  0
DICTIONARY
  5
B518
102
{ACAD_REACTORS
330
3F95
102
}
330
3F95
100
AcDbDictionary
281
     1
1001
ACAD
1000
<All
  0
DICTIONARY
  5
AAB4
102
{ACAD_REACTORS
330
3F95
102
}
330
3F95
100
AcDbDictionary
280
     1
281
     1
  0
XRECORD
  5
BAB4
102
{ACAD_REACTORS
330
BAB3
102
}
330
BAB3
100
AcDbXrecord
280
     1
290
     1
  0
XRECORD
  5
BAB7
102
{ACAD_REACTORS
330
BAB6
102
}
330
BAB6
100
AcDbXrecord
280
     1
290
     1
  0
XRECORD
  5
BABA
102
{ACAD_REACTORS
330
BAB9
102
}
330
BAB9
100
AcDbXrecord
280
     1
290
     1
  0
XRECORD
  5
BABD
102
{ACAD_REACTORS
330
BABC
102
}
330
BABC
100
AcDbXrecord
280
     1
290
     1
  0
XRECORD
  5
BAC0
102
{ACAD_REACTORS
330
BABF
102
}
330
BABF
100
AcDbXrecord
280
     1
290
     1
  0
XRECORD
  5
BAC3
102
{ACAD_REACTORS
330
BAC2
102
}
330
BAC2
100
AcDbXrecord
280
     1
290
     1
  0
XRECORD
  5
BAC6
102
{ACAD_REACTORS
330
BAC5
102
}
330
BAC5
100
AcDbXrecord
280
     1
290
     1
  0
XRECORD
  5
BAC9
102
{ACAD_REACTORS
330
BAC8
102
}
330
BAC8
100
AcDbXrecord
280
     1
290
     1
  0
XRECORD
  5
BACC
102
{ACAD_REACTORS
330
BACB
102
}
330
BACB
100
AcDbXrecord
280
     1
290
     1
  0
SORTENTSTABLE
  5
B1BA
102
{ACAD_REACTORS
330
8A
102
}
330
8A
100
AcDbSortentsTable
330
1F
331
D471
  5
D475
331
D479
  5
D47D
331
D43A
  5
D43E
331
D3BB
  5
D3BF
331
D384
  5
D388
331
D26E
  5
D270
331
D22F
  5
D22F
331
CBC8
  5
CBC8
331
D2A5
  5
D2A7
331
D3C3
  5
D3C7
331
D442
  5
D446
331
D2AD
  5
D2AF
331
D38C
  5
D390
331
D276
  5
D278
331
CBD0
  5
CBD0
331
D237
  5
D238
331
D44A
  5
D44E
331
D23F
  5
D240
331
CBD8
  5
CBD8
331
D394
  5
D398
331
D452
  5
D456
331
D39C
  5
D3A0
331
D247
  5
D249
331
D286
  5
D288
331
CBE0
  5
CBE0
331
D45A
  5
D45E
331
D3A4
  5
D3A8
331
CBE8
  5
CBE8
331
D28E
  5
D290
331
D423
  5
D427
331
D462
  5
D466
331
D3AC
  5
D3B0
331
D296
  5
D298
331
D257
  5
D259
331
D46A
  5
D46E
331
D3B4
  5
D3B8
331
D42B
  5
D42F
331
D25F
  5
D261
331
D29E
  5
D2A0
331
D33D
  5
D37A
331
D433
  5
D437
331
D267
  5
D269
331
D37D
  5
D381
331
D472
  5
D476
331
D47A
  5
D47E
331
E411
  5
E4CC
331
D43B
  5
D43F
331
D3BC
  5
D3C0
331
D385
  5
D389
331
D26F
  5
D271
331
D230
  5
D230
331
D2A6
  5
D2A8
331
D3C4
  5
D3C8
331
D443
  5
D447
331
D2AE
  5
D2B0
331
D38D
  5
D391
331
D238
  5
D239
331
CBD1
  5
CBD1
331
EE0A
  5
EE4E
331
D277
  5
D279
331
D44B
  5
D44F
331
D240
  5
D242
331
CBD9
  5
CBD9
331
D395
  5
D399
331
D453
  5
D457
331
D39D
  5
D3A1
331
D287
  5
D289
331
D248
  5
D24A
331
CBE1
  5
CBE1
331
D45B
  5
D45F
331
D3A5
  5
D3A9
331
CBE9
  5
CBE9
331
D28F
  5
D291
331
D424
  5
D428
331
D463
  5
D467
331
D3AD
  5
D3B1
331
D258
  5
D25A
331
D297
  5
D299
331
D46B
  5
D46F
331
D3B5
  5
D3B9
331
D42C
  5
D430
331
D260
  5
D262
331
D29F
  5
D2A1
331
D33E
  5
D37B
331
D434
  5
D438
331
D37E
  5
D382
331
D473
  5
D477
331
D47B
  5
D47F
331
D268
  5
D26A
331
D43C
  5
D440
331
D3BD
  5
D3C1
331
D386
  5
D38A
331
D270
  5
D272
331
D231
  5
D231
331
CBCA
  5
CBCA
331
D2A7
  5
D2A9
331
D3C5
  5
D3C9
331
D444
  5
D448
331
D2AF
  5
D2B1
331
D38E
  5
D392
331
D239
  5
D23A
331
CBD2
  5
CBD2
331
D278
  5
D27A
331
D44C
  5
D450
331
D396
  5
D39A
331
D241
  5
D243
331
CBDA
  5
CBDA
331
D280
  5
D282
331
D454
  5
D458
331
D39E
  5
D3A2
331
D3D5
  5
D421
331
D327
  5
D329
331
D249
  5
D24B
331
CBE2
  5
CBE2
331
D288
  5
D28A
331
D45C
  5
D460
331
D290
  5
D292
331
CBEA
  5
CBEA
331
D3A6
  5
D3AA
331
D425
  5
D429
331
D464
  5
D468
331
D337
  5
D33B
331
D3AE
  5
D3B2
331
D259
  5
D25B
331
D298
  5
D29A
331
D46C
  5
D470
331
D261
  5
D263
331
D3B6
  5
D3BA
331
D42D
  5
D431
331
D435
  5
D439
331
D37F
  5
D383
331
D474
  5
D478
331
E3FB
  5
E49C
331
D47C
  5
D4A9
331
D269
  5
D26B
331
D2A0
  5
D2A2
331
D43D
  5
D441
331
D3BE
  5
D3C2
331
D387
  5
D38B
331
D271
  5
D273
331
D232
  5
D232
331
CBCB
  5
CBCB
331
D2A8
  5
D2AA
331
D3C6
  5
D3CA
331
D445
  5
D449
331
D2B0
  5
D327
331
D38F
  5
D393
331
D23A
  5
D23B
331
CBD3
  5
CBD3
331
D279
  5
D27B
331
D44D
  5
D451
331
D397
  5
D39B
331
D242
  5
D244
331
CBDB
  5
CBDB
331
D281
  5
D283
331
D455
  5
D459
331
D39F
  5
D3A3
331
D24A
  5
D24F
331
CBE3
  5
CBE3
331
D289
  5
D28B
331
D328
  5
D332
331
D45D
  5
D461
331
D291
  5
D293
331
CBEB
  5
CBEB
331
D3A7
  5
D3AB
331
D41E
  5
D422
331
D426
  5
D42A
331
D465
  5
D469
331
D338
  5
D33C
331
D3AF
  5
D3B3
331
D25A
  5
D25C
331
D299
  5
D29B
331
D46D
  5
D471
331
D3B7
  5
D3BB
331
D42E
  5
D432
331
D378
  5
D37C
331
D436
  5
D43A
331
D475
  5
D479
331
D47D
  5
D4AA
331
D380
  5
D384
331
D26A
  5
D26C
331
D2A1
  5
D2A3
331
D43E
  5
D442
331
D3BF
  5
D3C3
331
D272
  5
D274
331
D233
  5
D233
331
CBCC
  5
CBCC
331
D2A9
  5
D2AB
331
D388
  5
D38C
331
D3C7
  5
D3D1
331
D446
  5
D44A
331
D2B1
  5
D328
331
D390
  5
D394
331
D23B
  5
D23C
331
CBD4
  5
CBD4
331
D27A
  5
D27C
331
D44E
  5
D452
331
D398
  5
D39C
331
D243
  5
D245
331
CBDC
  5
CBDC
331
D282
  5
D284
331
D456
  5
D45A
331
D3A0
  5
D3A4
331
D24B
  5
D250
331
CBE4
  5
CBE4
331
D28A
  5
D28C
331
D329
  5
D337
331
E3E5
  5
E44D
331
D45E
  5
D462
331
D41F
  5
D423
331
D292
  5
D294
331
CBEC
  5
CBEC
331
D3A8
  5
D3AC
331
D427
  5
D42B
331
D466
  5
D46A
331
D3B0
  5
D3B4
331
CED4
  5
CED4
331
D25B
  5
D25D
331
D29A
  5
D29C
331
D339
  5
D33D
331
D46E
  5
D472
331
D42F
  5
D433
331
D263
  5
D265
331
D379
  5
D37D
331
D437
  5
D43B
331
D476
  5
D47A
331
D47E
  5
D4AB
331
D3B8
  5
D3BC
331
D381
  5
D385
331
D26B
  5
D26D
331
D22C
  5
D22C
331
D2A2
  5
D2A4
331
D43F
  5
D443
331
D3C0
  5
D3C4
331
D273
  5
D275
331
D234
  5
D234
331
CBCD
  5
CBCD
331
D2AA
  5
D2AC
331
D389
  5
D38D
331
D447
  5
D44B
331
D391
  5
D395
331
D23C
  5
D23D
331
CBD5
  5
CBD5
331
D27B
  5
D27D
331
D3C8
  5
D3D2
331
D44F
  5
D453
331
D399
  5
D39D
331
D244
  5
D246
331
CBDD
  5
CBDD
331
D283
  5
D285
331
D457
  5
D45B
331
D3A1
  5
D3A5
331
CBE5
  5
CBE5
331
D28B
  5
D28D
331
D45F
  5
D463
331
D420
  5
D424
331
D3A9
  5
D3AD
331
CBED
  5
CBED
331
D293
  5
D295
331
D467
  5
D46B
331
D3B1
  5
D3B5
331
D428
  5
D42C
331
D25C
  5
D25E
331
D29B
  5
D29D
331
D33A
  5
D33E
331
D46F
  5
D473
331
D430
  5
D434
331
D264
  5
D266
331
D37A
  5
D37E
331
D477
  5
D47B
331
D47F
  5
D4AC
331
D438
  5
D43C
331
D3B9
  5
D3BD
331
D382
  5
D386
331
D26C
  5
D26E
331
D22D
  5
D22D
331
D2A3
  5
D2A5
331
D3C1
  5
D3C5
331
D440
  5
D444
331
D2AB
  5
D2AD
331
D38A
  5
D38E
331
D235
  5
D235
331
CBCE
  5
CBCE
331
D274
  5
D276
331
D448
  5
D44C
331
D392
  5
D396
331
D23D
  5
D23E
331
CBD6
  5
CBD6
331
D27C
  5
D280
331
D3C9
  5
D3D5
331
D450
  5
D454
331
D39A
  5
D39E
331
D245
  5
D247
331
D284
  5
D286
331
D3D1
  5
D41F
331
E3CF
  5
E430
331
D458
  5
D45C
331
D3A2
  5
D3A6
331
CBE6
  5
CBE6
331
D28C
  5
D28E
331
D421
  5
D425
331
D460
  5
D464
331
D3AA
  5
D3AE
331
D294
  5
D296
331
D468
  5
D46C
331
D3B2
  5
D3B6
331
D429
  5
D42D
331
D25D
  5
D25F
331
D29C
  5
D29E
331
D33B
  5
D378
331
D431
  5
D435
331
D265
  5
D267
331
D37B
  5
D37F
331
D470
  5
D474
331
D478
  5
D47C
331
E3B0
  5
E411
331
D439
  5
D43D
331
D3BA
  5
D3BE
331
D383
  5
D387
331
D26D
  5
D26F
331
D22E
  5
D22E
331
D2A4
  5
D2A6
331
D3C2
  5
D3C6
331
D441
  5
D445
331
D2AC
  5
D2AE
331
D38B
  5
D38F
331
D236
  5
D236
331
CBCF
  5
CBCF
331
D275
  5
D277
331
D449
  5
D44D
331
D393
  5
D397
331
D23E
  5
D23F
331
CBD7
  5
CBD7
331
D27D
  5
D281
331
D3CA
  5
D41E
331
D451
  5
D455
331
D39B
  5
D39F
331
D246
  5
D248
331
D285
  5
D287
331
D3D2
  5
D420
331
D459
  5
D45D
331
D3A3
  5
D3A7
331
CBE7
  5
CBE7
331
D28D
  5
D28F
331
D422
  5
D426
331
D461
  5
D465
331
D3AB
  5
D3AF
331
D295
  5
D297
331
D256
  5
D258
331
D469
  5
D46D
331
D3B3
  5
D3B7
331
D42A
  5
D42E
331
D25E
  5
D260
331
D29D
  5
D29F
331
D33C
  5
D379
331
D432
  5
D436
331
D266
  5
D268
331
D37C
  5
D380
  0
XRECORD
  5
F14A
102
{ACAD_REACTORS
330
F149
102
}
330
F149
100
AcDbXrecord
280
     1
 70
     1
  0
LAYOUT
  5
22
102
{ACAD_XDICTIONARY
360
F14D
102
}
102
{ACAD_REACTORS
330
1A
102
}
330
1A
100
AcDbPlotSettings
  1

  2
DocuCentre-II C5400
  4
A3
  6

 40
4.857749938964843
 41
4.942420959472656
 42
4.9423828125
 43
4.857757568359375
 44
297.0106506347656
 45
420.0313415527343
 46
-4.894741058349609
 47
-4.884418487548828
 48
1960.017319213633
 49
1698.358829750836
140
2380.017319213633
141
1995.358829750836
142
1.0
143
1.0
 70
  3748
 72
     1
 73
     1
 74
     4
  7
monochrome.ctb
 75
     0
147
0.9670387807518544
148
-1960.017319213633
149
-1698.358829750836
100
AcDbLayout
  1
Model
 70
     1
 71
     0
 10
0.0
 20
0.0
 11
12.0
 21
9.0
 12
0.0
 22
0.0
 32
0.0
 14
0.0
 24
0.0
 34
0.0
 15
0.0
 25
0.0
 35
0.0
146
0.0
 13
0.0
 23
0.0
 33
0.0
 16
1.0
 26
0.0
 36
0.0
 17
0.0
 27
1.0
 37
0.0
 76
     0
330
1F
331
B0EC
1001
ACAD_PSEXT
1000
DocuCentre-II C5400
1000
FX DocuCentre-II C5400
1000
192.168.2.200
1000

1070
     0
  0
LAYOUT
  5
1E
102
{ACAD_XDICTIONARY
360
F14B
102
}
102
{ACAD_REACTORS
330
1A
102
}
330
1A
100
AcDbPlotSettings
  1

  2
\\ML370\XEROX
  4
A4
  6

 40
3.174999952316284
 41
3.174999952316284
 42
3.175003051757812
 43
3.17498779296875
 44
209.8674926757813
 45
296.6719970703125
 46
0.0
 47
0.0
 48
0.0
 49
0.0
140
0.0
141
0.0
142
1.0
143
1.0
 70
   688
 72
     1
 73
     1
 74
     5
  7
monochrome.ctb
 75
    16
147
1.0
148
0.0
149
0.0
100
AcDbLayout
  1
ﾚｲｱｳﾄ1
 70
     1
 71
     1
 10
-3.17498779296875
 20
-3.174999952316284
 11
293.4970092773438
 21
206.692492723465
 12
0.0
 22
0.0
 32
0.0
 14
1.000000000000000E+20
 24
1.000000000000000E+20
 34
1.000000000000000E+20
 15
-1.000000000000000E+20
 25
-1.000000000000000E+20
 35
-1.000000000000000E+20
146
0.0
 13
0.0
 23
0.0
 33
0.0
 16
1.0
 26
0.0
 36
0.0
 17
0.0
 27
1.0
 37
0.0
 76
     0
330
1B
  0
LAYOUT
  5
26
102
{ACAD_XDICTIONARY
360
F14F
102
}
102
{ACAD_REACTORS
330
1A
102
}
330
1A
100
AcDbPlotSettings
  1

  2
\\ML370\XEROX
  4

  6

 40
0.0
 41
0.0
 42
0.0
 43
0.0
 44
0.0
 45
0.0
 46
0.0
 47
0.0
 48
0.0
 49
0.0
140
0.0
141
0.0
142
1.0
143
1.0
 70
   688
 72
     0
 73
     0
 74
     5
  7
monochrome.ctb
 75
    16
147
1.0
148
0.0
149
0.0
100
AcDbLayout
  1
ﾚｲｱｳﾄ2
 70
     1
 71
     2
 10
0.0
 20
0.0
 11
12.0
 21
9.0
 12
0.0
 22
0.0
 32
0.0
 14
0.0
 24
0.0
 34
0.0
 15
0.0
 25
0.0
 35
0.0
146
0.0
 13
0.0
 23
0.0
 33
0.0
 16
1.0
 26
0.0
 36
0.0
 17
0.0
 27
1.0
 37
0.0
 76
     0
330
23
  0
MATERIAL
  5
B0EF
102
{ACAD_XDICTIONARY
360
F155
102
}
102
{ACAD_REACTORS
330
A91C
102
}
330
A91C
100
AcDbMaterial
  1
ByBlock
  0
MATERIAL
  5
B0EE
102
{ACAD_XDICTIONARY
360
F153
102
}
102
{ACAD_REACTORS
330
A91C
102
}
330
A91C
100
AcDbMaterial
  1
ByLayer
  0
MATERIAL
  5
B0F0
102
{ACAD_XDICTIONARY
360
F157
102
}
102
{ACAD_REACTORS
330
A91C
102
}
330
A91C
100
AcDbMaterial
  1
Global
  0
MLINESTYLE
  5
18
102
{ACAD_REACTORS
330
17
102
}
330
17
100
AcDbMlineStyle
  2
STANDARD
 70
     0
  3

 62
   256
 51
90.0
 52
90.0
 71
     2
 49
0.5
 62
   256
  6
BYLAYER
 49
-0.5
 62
   256
  6
BYLAYER
  0
ACDBPLACEHOLDER
  5
F
102
{ACAD_REACTORS
330
E
102
}
330
E
  0
TABLESTYLE
  5
AABA
102
{ACAD_XDICTIONARY
360
F151
102
}
102
{ACAD_REACTORS
330
AAB9
102
}
330
AAB9
100
AcDbTableStyle
  3
Standard
 70
     0
 71
     0
 40
1.5
 41
1.5
280
     0
281
     0
  7
STANDARD
140
4.5
170
     2
 62
     0
 63
     7
283
     0
274
    -2
284
     1
 64
     0
275
    -2
285
     1
 65
     0
276
    -2
286
     1
 66
     0
277
    -2
287
     1
 67
     0
278
    -2
288
     1
 68
     0
279
    -2
289
     1
 69
     0
  7
STANDARD
140
6.0
170
     5
 62
     0
 63
     7
283
     0
274
    -2
284
     1
 64
     0
275
    -2
285
     1
 65
     0
276
    -2
286
     1
 66
     0
277
    -2
287
     1
 67
     0
278
    -2
288
     1
 68
     0
279
    -2
289
     1
 69
     0
  7
STANDARD
140
4.5
170
     5
 62
     0
 63
     7
283
     0
274
    -2
284
     1
 64
     0
275
    -2
285
     1
 65
     0
276
    -2
286
     1
 66
     0
277
    -2
287
     1
 67
     0
278
    -2
288
     1
 68
     0
279
    -2
289
     1
 69
     0
  0
VISUALSTYLE
  5
B0F7
102
{ACAD_REACTORS
330
B0F1
102
}
330
B0F1
100
AcDbVisualStyle
  2
2dWireframe
 70
     4
 71
     0
 72
     2
 73
     0
 90
        0
 40
-0.6
 41
-30.0
 62
     5
 63
     7
 74
     1
 91
        4
 64
     7
 65
   257
 75
     1
175
     1
 42
1.0
 92
        0
 66
   257
 43
1.0
 76
     1
 77
     6
 78
     2
 67
     7
 79
     5
170
     0
171
     0
290
     0
174
     0
 93
        1
 44
0.0
173
     0
291
     0
 45
0.0
1001
ACAD
1000
AcDbSavedByObjectVersion
1070
     0
  0
VISUALSTYLE
  5
B0F9
102
{ACAD_REACTORS
330
B0F1
102
}
330
B0F1
100
AcDbVisualStyle
  2
3D Hidden
 70
     6
 71
     1
 72
     2
 73
     2
 90
        0
 40
-0.6
 41
-30.0
 62
     5
 63
     7
 74
     2
 91
        2
 64
     7
 65
   257
 75
     2
175
     1
 42
40.0
 92
        0
 66
   257
 43
1.0
 76
     1
 77
     6
 78
     2
 67
     7
 79
     3
170
     0
171
     0
290
     0
174
     0
 93
        1
 44
0.0
173
     0
291
     0
 45
0.0
1001
ACAD
1000
AcDbSavedByObjectVersion
1070
     0
  0
VISUALSTYLE
  5
B0F8
102
{ACAD_REACTORS
330
B0F1
102
}
330
B0F1
100
AcDbVisualStyle
  2
3dWireframe
 70
     5
 71
     0
 72
     2
 73
     0
 90
        0
 40
-0.6
 41
-30.0
 62
     5
 63
     7
 74
     1
 91
        4
 64
     7
 65
   257
 75
     1
175
     1
 42
1.0
 92
        0
 66
   257
 43
1.0
 76
     1
 77
     6
 78
     2
 67
     7
 79
     5
170
     0
171
     0
290
     0
174
     0
 93
        1
 44
0.0
173
     0
291
     0
 45
0.0
1001
ACAD
1000
AcDbSavedByObjectVersion
1070
     0
  0
VISUALSTYLE
  5
B0F6
102
{ACAD_REACTORS
330
B0F1
102
}
330
B0F1
100
AcDbVisualStyle
  2
Basic
 70
     7
 71
     1
 72
     0
 73
     1
 90
        0
 40
-0.6
 41
-30.0
 62
     5
 63
     7
 74
     0
 91
        4
 64
     7
 65
   257
 75
     1
175
     1
 42
1.0
 92
        8
 66
     7
 43
1.0
 76
     1
 77
     6
 78
     2
 67
     7
 79
     5
170
     0
171
     0
290
     0
174
     0
 93
        1
 44
0.0
173
     0
291
     1
 45
0.0
1001
ACAD
1000
AcDbSavedByObjectVersion
1070
     0
  0
VISUALSTYLE
  5
B0FD
102
{ACAD_REACTORS
330
B0F1
102
}
330
B0F1
100
AcDbVisualStyle
  2
Brighten
 70
    12
 71
     2
 72
     2
 73
     0
 90
        0
 40
-0.6
 41
-30.0
 62
     5
 63
     7
 74
     1
 91
        4
 64
     7
 65
   257
 75
     1
175
     1
 42
1.0
 92
        8
 66
     7
 43
1.0
 76
     1
 77
     6
 78
     2
 67
     7
 79
     5
170
     0
171
     0
290
     0
174
     0
 93
        1
 44
50.0
173
     0
291
     1
 45
0.0
1001
ACAD
1000
AcDbSavedByObjectVersion
1070
     0
  0
VISUALSTYLE
  5
B101
102
{ACAD_REACTORS
330
B0F1
102
}
330
B0F1
100
AcDbVisualStyle
  2
ColorChange
 70
    16
 71
     2
 72
     2
 73
     3
 90
        0
 40
-0.6
 41
-30.0
 62
     5
 63
     8
 74
     1
 91
        4
 64
     7
 65
   257
 75
     1
175
     1
 42
1.0
 92
        8
 66
     8
 43
1.0
 76
     1
 77
     6
 78
     2
 67
     7
 79
     5
170
     0
171
     0
290
     0
174
     0
 93
        1
 44
0.0
173
     0
291
     1
 45
0.0
1001
ACAD
1000
AcDbSavedByObjectVersion
1070
     0
  0
VISUALSTYLE
  5
B0FA
102
{ACAD_REACTORS
330
B0F1
102
}
330
B0F1
100
AcDbVisualStyle
  2
Conceptual
 70
     9
 71
     3
 72
     2
 73
     0
 90
        0
 40
-0.6
 41
-30.0
 62
     5
 63
     7
 74
     2
 91
        2
 64
     7
 65
   257
 75
     1
175
     1
 42
40.0
 92
        8
 66
     7
 43
1.0
 76
     1
 77
     6
 78
     2
 67
     7
 79
     3
170
     0
171
     0
290
     0
174
     0
 93
        1
 44
0.0
173
     0
291
     0
 45
0.0
1001
ACAD
1000
AcDbSavedByObjectVersion
1070
     0
  0
VISUALSTYLE
  5
B0FC
102
{ACAD_REACTORS
330
B0F1
102
}
330
B0F1
100
AcDbVisualStyle
  2
Dim
 70
    11
 71
     2
 72
     2
 73
     0
 90
        0
 40
-0.6
 41
-30.0
 62
     5
 63
     7
 74
     1
 91
        4
 64
     7
 65
   257
 75
     1
175
     1
 42
1.0
 92
        8
 66
     7
 43
1.0
 76
     1
 77
     6
 78
     2
 67
     7
 79
     5
170
     0
171
     0
290
     0
174
     0
 93
        1
 44
-50.0
173
     0
291
     1
 45
0.0
1001
ACAD
1000
AcDbSavedByObjectVersion
1070
     0
  0
VISUALSTYLE
  5
B100
102
{ACAD_REACTORS
330
B0F1
102
}
330
B0F1
100
AcDbVisualStyle
  2
Facepattern
 70
    15
 71
     2
 72
     2
 73
     0
 90
        0
 40
-0.6
 41
-30.0
 62
     5
 63
     7
 74
     1
 91
        4
 64
     7
 65
   257
 75
     1
175
     1
 42
1.0
 92
        8
 66
     7
 43
1.0
 76
     1
 77
     6
 78
     2
 67
     7
 79
     5
170
     0
171
     0
290
     0
174
     0
 93
        1
 44
0.0
173
     0
291
     1
 45
0.0
1001
ACAD
1000
AcDbSavedByObjectVersion
1070
     0
  0
VISUALSTYLE
  5
B0F2
102
{ACAD_REACTORS
330
B0F1
102
}
330
B0F1
100
AcDbVisualStyle
  2
Flat
 70
     0
 71
     2
 72
     1
 73
     1
 90
        2
 40
-0.6
 41
30.0
 62
     5
 63
     7
 74
     0
 91
        4
 64
     7
 65
   257
 75
     1
175
     1
 42
1.0
 92
        8
 66
     7
 43
1.0
 76
     1
 77
     6
 78
     2
 67
     7
 79
     5
170
     0
171
     0
290
     0
174
     0
 93
       13
 44
0.0
173
     0
291
     1
 45
0.0
1001
ACAD
1000
AcDbSavedByObjectVersion
1070
     0
  0
VISUALSTYLE
  5
B0F3
102
{ACAD_REACTORS
330
B0F1
102
}
330
B0F1
100
AcDbVisualStyle
  2
FlatWithEdges
 70
     1
 71
     2
 72
     1
 73
     1
 90
        2
 40
-0.6
 41
30.0
 62
     5
 63
     7
 74
     1
 91
        4
 64
     7
 65
   257
 75
     1
175
     1
 42
1.0
 92
        0
 66
   257
 43
1.0
 76
     1
 77
     6
 78
     2
 67
     7
 79
     5
170
     0
171
     0
290
     0
174
     0
 93
       13
 44
0.0
173
     0
291
     1
 45
0.0
1001
ACAD
1000
AcDbSavedByObjectVersion
1070
     0
  0
VISUALSTYLE
  5
B0F4
102
{ACAD_REACTORS
330
B0F1
102
}
330
B0F1
100
AcDbVisualStyle
  2
Gouraud
 70
     2
 71
     2
 72
     2
 73
     1
 90
        2
 40
-0.6
 41
30.0
 62
     5
 63
     7
 74
     0
 91
        4
 64
     7
 65
   257
 75
     1
175
     1
 42
1.0
 92
        0
 66
     7
 43
1.0
 76
     1
 77
     6
 78
     2
 67
     7
 79
     5
170
     0
171
     0
290
     0
174
     0
 93
       13
 44
0.0
173
     0
291
     1
 45
0.0
1001
ACAD
1000
AcDbSavedByObjectVersion
1070
     0
  0
VISUALSTYLE
  5
B0F5
102
{ACAD_REACTORS
330
B0F1
102
}
330
B0F1
100
AcDbVisualStyle
  2
GouraudWithEdges
 70
     3
 71
     2
 72
     2
 73
     1
 90
        2
 40
-0.6
 41
30.0
 62
     5
 63
     7
 74
     1
 91
        4
 64
     7
 65
   257
 75
     1
175
     1
 42
1.0
 92
        0
 66
   257
 43
1.0
 76
     1
 77
     6
 78
     2
 67
     7
 79
     5
170
     0
171
     0
290
     0
174
     0
 93
       13
 44
0.0
173
     0
291
     1
 45
0.0
1001
ACAD
1000
AcDbSavedByObjectVersion
1070
     0
  0
VISUALSTYLE
  5
B0FF
102
{ACAD_REACTORS
330
B0F1
102
}
330
B0F1
100
AcDbVisualStyle
  2
Linepattern
 70
    14
 71
     2
 72
     2
 73
     0
 90
        0
 40
-0.6
 41
-30.0
 62
     5
 63
     7
 74
     1
 91
        4
 64
     7
 65
   257
 75
     7
175
     7
 42
1.0
 92
        8
 66
     7
 43
1.0
 76
     1
 77
     6
 78
     2
 67
     7
 79
     5
170
     0
171
     0
290
     0
174
     0
 93
        1
 44
0.0
173
     0
291
     1
 45
0.0
1001
ACAD
1000
AcDbSavedByObjectVersion
1070
     0
  0
VISUALSTYLE
  5
B0FB
102
{ACAD_REACTORS
330
B0F1
102
}
330
B0F1
100
AcDbVisualStyle
  2
Realistic
 70
     8
 71
     2
 72
     2
 73
     0
 90
        0
 40
-0.6
 41
-30.0
 62
     5
 63
     7
 74
     1
 91
        0
 64
     7
 65
   257
 75
     1
175
     1
 42
1.0
 92
        8
 66
     8
 43
1.0
 76
     1
 77
     6
 78
     2
 67
     7
 79
     5
170
     0
171
     0
290
     0
174
     0
 93
       13
 44
0.0
173
     0
291
     0
 45
0.0
1001
ACAD
1000
AcDbSavedByObjectVersion
1070
     0
  0
VISUALSTYLE
  5
B0FE
102
{ACAD_REACTORS
330
B0F1
102
}
330
B0F1
100
AcDbVisualStyle
  2
Thicken
 70
    13
 71
     2
 72
     2
 73
     0
 90
        0
 40
-0.6
 41
-30.0
 62
     5
 63
     7
 74
     1
 91
        4
 64
     7
 65
   257
 75
     1
175
     1
 42
1.0
 92
       12
 66
     7
 43
1.0
 76
     1
 77
     6
 78
     2
 67
     7
 79
     5
170
     0
171
     0
290
     0
174
     0
 93
        1
 44
0.0
173
     0
291
     1
 45
0.0
1001
ACAD
1000
AcDbSavedByObjectVersion
1070
     0
  0
DICTIONARYVAR
  5
AAF3
102
{ACAD_REACTORS
330
34
102
}
330
34
100
DictionaryVariables
280
     0
  1
STANDARD
  0
DICTIONARYVAR
  5
A10C
102
{ACAD_REACTORS
330
34
102
}
330
34
100
DictionaryVariables
280
     0
  1
1
  0
DICTIONARYVAR
  5
AB07
102
{ACAD_REACTORS
330
34
102
}
330
34
100
DictionaryVariables
280
     0
  1
4
  0
DICTIONARYVAR
  5
35
102
{ACAD_REACTORS
330
34
102
}
330
34
100
DictionaryVariables
280
     0
  1
0
  0
DICTIONARYVAR
  5
194C
102
{ACAD_REACTORS
330
34
102
}
330
34
100
DictionaryVariables
280
     0
  1
96
  0
DICTIONARY
  5
7E8
102
{ACAD_REACTORS
330
47
102
}
330
47
100
AcDbDictionary
281
     1
  0
DICTIONARY
  5
4C
102
{ACAD_REACTORS
330
47
102
}
330
47
100
AcDbDictionary
281
     1
  0
XRECORD
  5
A929
102
{ACAD_REACTORS
330
47
102
}
330
47
100
AcDbXrecord
280
     1
 90
-1023410169
  0
XRECORD
  5
B332
102
{ACAD_REACTORS
330
B331
102
}
330
B331
100
AcDbXrecord
280
     1
  0
XRECORD
  5
3FB7
102
{ACAD_REACTORS
330
3F96
102
}
330
3F96
100
AcDbXrecord
280
     1
 91
        3
330
0
 90
        8
 62
     7
370
    40
331
16
  1
Color_7
330
0
 90
        0
 62
    14
370
    -3
331
16
  1
Color_14
330
0
 90
        8
 62
     7
370
    20
331
16
  1
Color_7
330
6D1
 90
        0
 62
     7
370
    -3
331
16
  1
Color_7
330
0
 90
        8
 62
     7
370
    50
331
16
  1
Color_7
330
0
 90
        8
 62
     2
370
    35
331
16
  1
Color_2
330
0
 90
        8
 62
     7
370
    -3
331
16
  1
Color_7
330
10
 90
        8
 62
     7
370
    -3
331
16
  1
Color_7
  0
DICTIONARY
  5
F14D
330
22
100
AcDbDictionary
280
     1
281
     1
  3
ACAD_XREC_ROUNDTRIP
360
F14E
  0
DICTIONARY
  5
F14B
330
1E
100
AcDbDictionary
280
     1
281
     1
  3
ACAD_XREC_ROUNDTRIP
360
F14C
  0
DICTIONARY
  5
F14F
330
26
100
AcDbDictionary
280
     1
281
     1
  3
ACAD_XREC_ROUNDTRIP
360
F150
  0
DICTIONARY
  5
F155
330
B0EF
100
AcDbDictionary
280
     1
281
     1
  3
ACAD_XREC_ROUNDTRIP
360
F156
  0
DICTIONARY
  5
F153
330
B0EE
100
AcDbDictionary
280
     1
281
     1
  3
ACAD_XREC_ROUNDTRIP
360
F154
  0
DICTIONARY
  5
F157
330
B0F0
100
AcDbDictionary
280
     1
281
     1
  3
ACAD_XREC_ROUNDTRIP
360
F158
  0
DICTIONARY
  5
F151
330
AABA
100
AcDbDictionary
280
     1
281
     1
  3
ACAD_XREC_ROUNDTRIP
360
F152
  0
XRECORD
  5
F14E
102
{ACAD_REACTORS
330
F14D
102
}
330
F14D
100
AcDbXrecord
280
     1
102
SHADEPLOT
 70
     1
102
SHADEPLOTRESLEVEL
 70
     2
102
SHADEPLOTCUSTOMDPI
 70
   300
  0
XRECORD
  5
F14C
102
{ACAD_REACTORS
330
F14B
102
}
330
F14B
100
AcDbXrecord
280
     1
102
SHADEPLOT
 70
     0
102
SHADEPLOTRESLEVEL
 70
     2
102
SHADEPLOTCUSTOMDPI
 70
   300
  0
XRECORD
  5
F150
102
{ACAD_REACTORS
330
F14F
102
}
330
F14F
100
AcDbXrecord
280
     1
102
SHADEPLOT
 70
     0
102
SHADEPLOTRESLEVEL
 70
     2
102
SHADEPLOTCUSTOMDPI
 70
   300
  0
XRECORD
  5
F156
102
{ACAD_REACTORS
330
F155
102
}
330
F155
100
AcDbXrecord
280
     1
102
MATERIAL
148
0.0
149
0.0
149
0.0
 93
        0
 94
       63
282
     0
 72
     1
 77
     1
171
     1
175
     1
179
     1
273
     0
  0
XRECORD
  5
F154
102
{ACAD_REACTORS
330
F153
102
}
330
F153
100
AcDbXrecord
280
     1
102
MATERIAL
148
0.0
149
0.0
149
0.0
 93
        0
 94
       63
282
     0
 72
     1
 77
     1
171
     1
175
     1
179
     1
273
     0
  0
XRECORD
  5
F158
102
{ACAD_REACTORS
330
F157
102
}
330
F157
100
AcDbXrecord
280
     1
102
MATERIAL
148
0.0
149
0.0
149
0.0
 93
        0
 94
       63
282
     0
 72
     1
 77
     1
171
     1
175
     1
179
     1
273
     0
  0
XRECORD
  5
F152
102
{ACAD_REACTORS
330
F151
102
}
330
F151
100
AcDbXrecord
280
     1
102
ACAD_ROUNDTRIP_PRE2007_TABLESTYLE
 90
        4
 91
        0
  1

 92
        4
 93
        0
  2

 94
        4
 95
        0
  3

  0
ENDSEC
  0
EOF
