  0
SECTION
  2
HEADER
  9
$ACADVER
  1
AC1015
  9
$ACADMAINTVER
 70
    20
  9
$DWGCODEPAGE
  3
ANSI_932
  9
$INSBASE
 10
0.0
 20
0.0
 30
0.0
  9
$EXTMIN
 10
-0.1523993047258045
 20
-0.1417304895226152
 30
-0.000000000000013
  9
$EXTMAX
 10
420.1006461881275
 20
297.1279335463751
 30
0.0000000000000023
  9
$LIMMIN
 10
1700.85588156276
 20
1647.985052086429
  9
$LIMMAX
 10
1997.85588156276
 20
1857.985052086429
  9
$ORTHOMODE
 70
     0
  9
$REGENMODE
 70
     1
  9
$FILLMODE
 70
     1
  9
$QTEXTMODE
 70
     0
  9
$MIRRTEXT
 70
     0
  9
$LTSCALE
 40
1.0
  9
$ATTMODE
 70
     1
  9
$TEXTSIZE
 40
3.2
  9
$TRACEWID
 40
1.0
  9
$TEXTSTYLE
  7
STANDARD
  9
$CLAYER
  8
AM_0
  9
$CELTYPE
  6
ByLayer
  9
$CECOLOR
 62
   256
  9
$CELTSCALE
 40
1.0
  9
$DISPSILH
 70
     0
  9
$DIMSCALE
 40
1.0
  9
$DIMASZ
 40
1.0
  9
$DIMEXO
 40
1.0
  9
$DIMDLI
 40
10.0
  9
$DIMRND
 40
0.0
  9
$DIMDLE
 40
0.0
  9
$DIMEXE
 40
1.0
  9
$DIMTP
 40
0.1
  9
$DIMTM
 40
0.1
  9
$DIMTXT
 40
3.5
  9
$DIMCEN
 40
0.0
  9
$DIMTSZ
 40
0.0
  9
$DIMTOL
 70
     0
  9
$DIMLIM
 70
     0
  9
$DIMTIH
 70
     0
  9
$DIMTOH
 70
     0
  9
$DIMSE1
 70
     0
  9
$DIMSE2
 70
     0
  9
$DIMTAD
 70
     1
  9
$DIMZIN
 70
     8
  9
$DIMBLK
  1

  9
$DIMASO
 70
     1
  9
$DIMSHO
 70
     1
  9
$DIMPOST
  1

  9
$DIMAPOST
  1
"
  9
$DIMALT
 70
     0
  9
$DIMALTD
 70
     2
  9
$DIMALTF
 40
0.0393701
  9
$DIMLFAC
 40
1.0
  9
$DIMTOFL
 70
     1
  9
$DIMTVP
 40
0.0
  9
$DIMTIX
 70
     0
  9
$DIMSOXD
 70
     0
  9
$DIMSAH
 70
     0
  9
$DIMBLK1
  1

  9
$DIMBLK2
  1

  9
$DIMSTYLE
  2
SYS
  9
$DIMCLRD
 70
   256
  9
$DIMCLRE
 70
   256
  9
$DIMCLRT
 70
     7
  9
$DIMTFAC
 40
0.71
  9
$DIMGAP
 40
1.5
  9
$DIMJUST
 70
     0
  9
$DIMSD1
 70
     0
  9
$DIMSD2
 70
     0
  9
$DIMTOLJ
 70
     0
  9
$DIMTZIN
 70
     8
  9
$DIMALTZ
 70
     0
  9
$DIMALTTZ
 70
     0
  9
$DIMUPT
 70
     0
  9
$DIMDEC
 70
     2
  9
$DIMTDEC
 70
     2
  9
$DIMALTU
 70
     2
  9
$DIMALTTD
 70
     2
  9
$DIMTXSTY
  7
STANDARD
  9
$DIMAUNIT
 70
     0
  9
$DIMADEC
 70
     0
  9
$DIMALTRND
 40
0.0
  9
$DIMAZIN
 70
     2
  9
$DIMDSEP
 70
    46
  9
$DIMATFIT
 70
     3
  9
$DIMFRAC
 70
     0
  9
$DIMLDRBLK
  1

  9
$DIMLUNIT
 70
     2
  9
$DIMLWD
 70
    -1
  9
$DIMLWE
 70
    -1
  9
$DIMTMOVE
 70
     0
  9
$LUNITS
 70
     2
  9
$LUPREC
 70
     2
  9
$SKETCHINC
 40
1.0
  9
$FILLETRAD
 40
1.0
  9
$AUNITS
 70
     0
  9
$AUPREC
 70
     0
  9
$MENU
  1
.
  9
$ELEVATION
 40
0.0
  9
$PELEVATION
 40
0.0
  9
$THICKNESS
 40
0.0
  9
$LIMCHECK
 70
     0
  9
$CHAMFERA
 40
0.0
  9
$CHAMFERB
 40
0.0
  9
$CHAMFERC
 40
20.0
  9
$CHAMFERD
 40
0.0
  9
$SKPOLY
 70
     0
  9
$TDCREATE
 40
2453866.669155810
  9
$TDUCREATE
 40
2453866.294155810
  9
$TDUPDATE
 40
2453868.725960104
  9
$TDUUPDATE
 40
2453868.350960104
  9
$TDINDWG
 40
0.1774647338
  9
$TDUSRTIMER
 40
0.1774645486
  9
$USRTIMER
 70
     1
  9
$ANGBASE
 50
0.0
  9
$ANGDIR
 70
     0
  9
$PDMODE
 70
     0
  9
$PDSIZE
 40
-3.0
  9
$PLINEWID
 40
0.0
  9
$SPLFRAME
 70
     0
  9
$SPLINETYPE
 70
     6
  9
$SPLINESEGS
 70
     8
  9
$HANDSEED
  5
B89A
  9
$SURFTAB1
 70
     6
  9
$SURFTAB2
 70
     6
  9
$SURFTYPE
 70
     6
  9
$SURFU
 70
     6
  9
$SURFV
 70
     6
  9
$UCSBASE
  2

  9
$UCSNAME
  2

  9
$UCSORG
 10
0.0
 20
0.0
 30
0.0
  9
$UCSXDIR
 10
1.0
 20
0.0
 30
0.0
  9
$UCSYDIR
 10
0.0
 20
1.0
 30
0.0
  9
$UCSORTHOREF
  2

  9
$UCSORTHOVIEW
 70
     0
  9
$UCSORGTOP
 10
0.0
 20
0.0
 30
0.0
  9
$UCSORGBOTTOM
 10
0.0
 20
0.0
 30
0.0
  9
$UCSORGLEFT
 10
0.0
 20
0.0
 30
0.0
  9
$UCSORGRIGHT
 10
0.0
 20
0.0
 30
0.0
  9
$UCSORGFRONT
 10
0.0
 20
0.0
 30
0.0
  9
$UCSORGBACK
 10
0.0
 20
0.0
 30
0.0
  9
$PUCSBASE
  2

  9
$PUCSNAME
  2

  9
$PUCSORG
 10
0.0
 20
0.0
 30
0.0
  9
$PUCSXDIR
 10
1.0
 20
0.0
 30
0.0
  9
$PUCSYDIR
 10
0.0
 20
1.0
 30
0.0
  9
$PUCSORTHOREF
  2

  9
$PUCSORTHOVIEW
 70
     0
  9
$PUCSORGTOP
 10
0.0
 20
0.0
 30
0.0
  9
$PUCSORGBOTTOM
 10
0.0
 20
0.0
 30
0.0
  9
$PUCSORGLEFT
 10
0.0
 20
0.0
 30
0.0
  9
$PUCSORGRIGHT
 10
0.0
 20
0.0
 30
0.0
  9
$PUCSORGFRONT
 10
0.0
 20
0.0
 30
0.0
  9
$PUCSORGBACK
 10
0.0
 20
0.0
 30
0.0
  9
$USERI1
 70
     0
  9
$USERI2
 70
     0
  9
$USERI3
 70
     0
  9
$USERI4
 70
     0
  9
$USERI5
 70
     0
  9
$USERR1
 40
0.0
  9
$USERR2
 40
0.0
  9
$USERR3
 40
0.0
  9
$USERR4
 40
0.0
  9
$USERR5
 40
0.0
  9
$WORLDVIEW
 70
     1
  9
$SHADEDGE
 70
     3
  9
$SHADEDIF
 70
    70
  9
$TILEMODE
 70
     1
  9
$MAXACTVP
 70
    64
  9
$PINSBASE
 10
0.0
 20
0.0
 30
0.0
  9
$PLIMCHECK
 70
     0
  9
$PEXTMIN
 10
1.000000000000000E+20
 20
1.000000000000000E+20
 30
1.000000000000000E+20
  9
$PEXTMAX
 10
-1.000000000000000E+20
 20
-1.000000000000000E+20
 30
-1.000000000000000E+20
  9
$PLIMMIN
 10
-3.17498779296875
 20
-3.174999952316282
  9
$PLIMMAX
 10
293.4970092773438
 20
206.692492723465
  9
$UNITMODE
 70
     0
  9
$VISRETAIN
 70
     1
  9
$PLINEGEN
 70
     0
  9
$PSLTSCALE
 70
     1
  9
$TREEDEPTH
 70
  3020
  9
$CMLSTYLE
  2
Standard
  9
$CMLJUST
 70
     0
  9
$CMLSCALE
 40
20.0
  9
$PROXYGRAPHICS
 70
     1
  9
$MEASUREMENT
 70
     1
  9
$CELWEIGHT
370
    -1
  9
$ENDCAPS
280
     0
  9
$JOINSTYLE
280
     0
  9
$LWDISPLAY
290
     0
  9
$INSUNITS
 70
     4
  9
$HYPERLINKBASE
  1

  9
$STYLESHEET
  1
MONOCHROME.CTB
  9
$XEDIT
290
     1
  9
$CEPSNTYPE
380
     0
  9
$PSTYLEMODE
290
     1
  9
$FINGERPRINTGUID
  2
{06C2E817-3219-4B18-B285-465EE3E6C077}
  9
$VERSIONGUID
  2
{2DE27ED8-E131-4B96-9CFC-8CEDFE471A37}
  9
$EXTNAMES
290
     1
  9
$PSVPSCALE
 40
0.0
  9
$OLESTARTUP
290
     0
  0
ENDSEC
  0
SECTION
  2
CLASSES
  0
CLASS
  1
ACDBDICTIONARYWDFLT
  2
AcDbDictionaryWithDefault
  3
ObjectDBX Classes
 90
        0
280
     0
281
     0
  0
CLASS
  1
ACDBPLACEHOLDER
  2
AcDbPlaceHolder
  3
ObjectDBX Classes
 90
        0
280
     0
281
     0
  0
CLASS
  1
LAYOUT
  2
AcDbLayout
  3
ObjectDBX Classes
 90
        0
280
     0
281
     0
  0
CLASS
  1
AMGSETTINGSOBJ
  2
AmgSettingsObj
  3
"AcadM|Product Description: AutoCAD Mechanical 2000|Company: Autodesk"
 90
        0
280
     0
281
     0
  0
CLASS
  1
ACME_DOCUMENT
  2
AcMeDbDoc
  3
AcMeServices
 90
        0
280
     0
281
     0
  0
CLASS
  1
ACMESCOPE
  2
AcMeScope
  3
AcMeServices
 90
        0
280
     0
281
     0
  0
CLASS
  1
ACMECOMMANDHISTORY
  2
AcMeCommandHistory
  3
AcMeServices
 90
        0
280
     0
281
     0
  0
CLASS
  1
DICTIONARYVAR
  2
AcDbDictionaryVar
  3
ObjectDBX Classes
 90
        0
280
     0
281
     0
  0
CLASS
  1
ACIMSYSVARMAN
  2
AcImSysVarManager
  3
AcMeServices
 90
        0
280
     0
281
     0
  0
CLASS
  1
ACIMREALSYSVAR
  2
AcImRealSysVar
  3
AcMeServices
 90
        0
280
     0
281
     0
  0
CLASS
  1
ACIMINTSYSVAR
  2
AcImIntSysVar
  3
AcMeServices
 90
        0
280
     0
281
     0
  0
CLASS
  1
ACMEDRAWINGMAN
  2
AcMeDrawingMan
  3
AcMeServices
 90
        0
280
     0
281
     0
  0
CLASS
  1
ACMEVIEW
  2
AcMeView
  3
AcMeServices
 90
        0
280
     0
281
     0
  0
CLASS
  1
ACDBENTITYCACHE
  2
AcMeEntityCache
  3
AcMeServices
 90
        0
280
     0
281
     0
  0
CLASS
  1
GSMANAGER
  2
AcMeGSManager
  3
AcMeServices
 90
        0
280
     0
281
     0
  0
CLASS
  1
AMDTINTERNALREACTOR
  2
AmdtInternalReactor
  3
AcMeServices
 90
        0
280
     0
281
     0
  0
CLASS
  1
ACMESTATEMGR
  2
AcMeStateMgr
  3
AcMeServices
 90
        0
280
     0
281
     0
  0
CLASS
  1
ACGREFMASTER
  2
AcGrefMaster
  3
AcAttribServices
 90
        0
280
     0
281
     0
  0
CLASS
  1
ACME_DATABASE
  2
AcMeDbDatabase
  3
AcMeServices
 90
        0
280
     0
281
     0
  0
CLASS
  1
ACRFINSADJUSTERMGR
  2
AcRfInsAdjusterMgr
  3
AcMeServices
 90
        0
280
     0
281
     0
  0
CLASS
  1
ACGREFACADMASTER
  2
AcGrefacadMaster
  3
AcGrefServices
 90
        0
280
     0
281
     0
  0
CLASS
  1
AMIMASTER
  2
AmiMaster
  3
AmiServices
 90
        0
280
     0
281
     0
  0
CLASS
  1
ACMDATADICTIONARY
  2
AcmDataDictionary
  3
"AcmSymBB|Product Description: AutoCAD Mechanical 2004 DX|Company: Autodesk"
 90
        0
280
     0
281
     0
  0
CLASS
  1
ACMDATAENTRYBLOCK
  2
AcmDataEntryBlock
  3
"AcmSymBB|Product Description: AutoCAD Mechanical 2004 DX|Company: Autodesk"
 90
    32768
280
     0
281
     0
  0
CLASS
  1
ACIMSTRSYSVAR
  2
AcImStrSysVar
  3
AcMeServices
 90
        0
280
     0
281
     0
  0
CLASS
  1
ACMSTANDARDISO
  2
AcmStandardISO
  3
"Amdt_StdImp|Product Description: AutoCAD Mechanical 2004 DX|Company: Autodesk"
 90
        0
280
     0
281
     0
  0
CLASS
  1
AMGOBJPROPCFG
  2
AmgObjPropCfg
  3
"AmgLay|Product Description: AutoCAD Mechanical 2000|Company: Autodesk"
 90
        1
280
     0
281
     0
  0
CLASS
  1
AMDTEDGESTANDARDISO
  2
AmdtEdgeStdISO
  3
"Amdt_StdImp|Product Description: AutoCAD Mechanical 2004 DX|Company: Autodesk"
 90
    32768
280
     0
281
     0
  0
CLASS
  1
ACMSURFSTANDARDISO
  2
AcmSurfTextStdISO
  3
"Amdt_StdImp|Product Description: AutoCAD Mechanical 2004 DX|Company: Autodesk"
 90
        0
280
     0
281
     0
  0
CLASS
  1
ACMFCFSTANDARDISO
  2
AcmFCFStdISO
  3
"Amdt_StdImp|Product Description: AutoCAD Mechanical 2004 DX|Company: Autodesk"
 90
        0
280
     0
281
     0
  0
CLASS
  1
ACMWELDSTANDARDISO
  2
AcmWeldingStdISO
  3
"Amdt_StdImp|Product Description: AutoCAD Mechanical 2004 DX|Company: Autodesk"
 90
        0
280
     0
281
     0
  0
CLASS
  1
ACMIDSTANDARDISO
  2
AcmIdStdISO
  3
"Amdt_StdImp|Product Description: AutoCAD Mechanical 2004 DX|Company: Autodesk"
 90
        0
280
     0
281
     0
  0
CLASS
  1
ACMDATUMSTANDARDISO
  2
AcmDatumStdISO
  3
"Amdt_StdImp|Product Description: AutoCAD Mechanical 2004 DX|Company: Autodesk"
 90
        0
280
     0
281
     0
  0
CLASS
  1
ACMBOMSTANDARDISO
  2
AcmBOMStdISO
  3
"Amdt_StdImp|Product Description: AutoCAD Mechanical 2004 DX|Company: Autodesk"
 90
        0
280
     0
281
     0
  0
CLASS
  1
ACMDETAILSTANDARDISO
  2
AmdtDetailSymStdISO
  3
"Amdt_StdImp|Product Description: AutoCAD Mechanical 2004 DX|Company: Autodesk"
 90
        0
280
     0
281
     0
  0
CLASS
  1
ACMSECTIONSTANDARDISO
  2
AmdtSectionSymStdISO
  3
"Amdt_StdImp|Product Description: AutoCAD Mechanical 2004 DX|Company: Autodesk"
 90
        0
280
     0
281
     0
  0
CLASS
  1
ACMCENTERLINESTANDARDISO
  2
AmdtCenterLineStdISO
  3
"Amdt_StdImp|Product Description: AutoCAD Mechanical 2004 DX|Company: Autodesk"
 90
        0
280
     0
281
     0
  0
CLASS
  1
ACAMGLAYSTD
  2
AcAmgLayStd
  3
"AcAmgLayStd|Product Description: AutoCAD Mechanical 2000|Company: Autodesk"
 90
        0
280
     0
281
     0
  0
CLASS
  1
ACAMGDIMSTD
  2
AcAmgDimStd
  3
"AcAmgDimStd|Product Description: AutoCAD Mechanical 2000|Company: Autodesk"
 90
        0
280
     0
281
     0
  0
CLASS
  1
ACAMGTITLESTD
  2
AcAmgTitleStd
  3
"TITLEAPP"
 90
        0
280
     0
281
     0
  0
CLASS
  1
ACAMGFILTERDAT
  2
AcAmgFilterDat
  3
"AcadM|Product Description: AutoCAD Mechanical 2000|Company: Autodesk"
 90
    32768
280
     0
281
     0
  0
CLASS
  1
LAYER_INDEX
  2
AcDbLayerIndex
  3
ObjectDBX Classes
 90
    32768
280
     0
281
     0
  0
CLASS
  1
IDBUFFER
  2
AcDbIdBuffer
  3
ObjectDBX Classes
 90
    32768
280
     0
281
     0
  0
CLASS
  1
PLOTSETTINGS
  2
AcDbPlotSettings
  3
ObjectDBX Classes
 90
    32768
280
     0
281
     0
  0
CLASS
  1
AMDTFORMULAUPDATEDISPATCHER
  2
AmdtFormulaUpdateDispatcher
  3
AcMeServices
 90
    32768
280
     0
281
     0
  0
CLASS
  1
ACMSTANDARDANSI
  2
AcmStandardANSI
  3
"Amdt_StdImp|Product Description: AutoCAD Mechanical 2004 DX|Company: Autodesk"
 90
    32768
280
     0
281
     0
  0
CLASS
  1
ACMSURFSTANDARDANSI
  2
AcmSurfTextStdANSI
  3
"Amdt_StdImp|Product Description: AutoCAD Mechanical 2004 DX|Company: Autodesk"
 90
    32768
280
     0
281
     0
  0
CLASS
  1
ACMFCFSTANDARDANSI
  2
AcmFCFStdANSI
  3
"Amdt_StdImp|Product Description: AutoCAD Mechanical 2004 DX|Company: Autodesk"
 90
    32768
280
     0
281
     0
  0
CLASS
  1
ACMWELDSTANDARDANSI
  2
AcmWeldingStdANSI
  3
"Amdt_StdImp|Product Description: AutoCAD Mechanical 2004 DX|Company: Autodesk"
 90
    32768
280
     0
281
     0
  0
CLASS
  1
ACMIDSTANDARDANSI
  2
AcmIdStdANSI
  3
"Amdt_StdImp|Product Description: AutoCAD Mechanical 2004 DX|Company: Autodesk"
 90
    32768
280
     0
281
     0
  0
CLASS
  1
ACMDATUMSTANDARDANSI
  2
AcmDatumStdANSI
  3
"Amdt_StdImp|Product Description: AutoCAD Mechanical 2004 DX|Company: Autodesk"
 90
    32768
280
     0
281
     0
  0
CLASS
  1
ACMBOMSTANDARDANSI
  2
AcmBOMStdANSI
  3
"Amdt_StdImp|Product Description: AutoCAD Mechanical 2004 DX|Company: Autodesk"
 90
    32768
280
     0
281
     0
  0
CLASS
  1
ACMDETAILSTANDARDANSI
  2
AmdtDetailSymStdANSI
  3
"Amdt_StdImp|Product Description: AutoCAD Mechanical 2004 DX|Company: Autodesk"
 90
    32768
280
     0
281
     0
  0
CLASS
  1
ACMSECTIONSTANDARDANSI
  2
AmdtSectionSymStdANSI
  3
"Amdt_StdImp|Product Description: AutoCAD Mechanical 2004 DX|Company: Autodesk"
 90
    32768
280
     0
281
     0
  0
CLASS
  1
ACMCENTERLINESTANDARDANSI
  2
AmdtCenterLineStdANSI
  3
"Amdt_StdImp|Product Description: AutoCAD Mechanical 2004 DX|Company: Autodesk"
 90
    32768
280
     0
281
     0
  0
CLASS
  1
ACMBOM
  2
AcmBom
  3
"AcmSymBB|Product Description: AutoCAD Mechanical 2004 DX|Company: Autodesk"
 90
    32768
280
     0
281
     0
  0
CLASS
  1
ACMDATAENTRYPART
  2
AcmDataEntryPart
  3
"AcmSymBB|Product Description: AutoCAD Mechanical 2004 DX|Company: Autodesk"
 90
    32768
280
     0
281
     0
  0
CLASS
  1
ACMPARTREF
  2
AcmPartRef
  3
"AcmSymBB|Product Description: AutoCAD Mechanical 2004 DX|Company: Autodesk"
 90
    33791
280
     0
281
     1
  0
CLASS
  1
ACDBCIRCARCRES
  2
AcDbCircArcRes
  3
AcGrefServices
 90
    32768
280
     0
281
     0
  0
CLASS
  1
ACMBOMROW
  2
AcmBomRow
  3
"AcmSymBB|Product Description: AutoCAD Mechanical 2004 DX|Company: Autodesk"
 90
    32768
280
     0
281
     0
  0
CLASS
  1
ACMBALLOON
  2
AcmBalloon
  3
"AcmSymBB|Product Description: AutoCAD Mechanical 2004 DX|Company: Autodesk"
 90
    33791
280
     0
281
     1
  0
CLASS
  1
AMDTNOTE
  2
AmdtNote
  3
"AcmSymBB|Product Description: AutoCAD Mechanical 2004 DX|Company: Autodesk"
 90
    33791
280
     0
281
     1
  0
CLASS
  1
STDPART2D
  2
AmgStdPart
  3
"AmgStdPart|Product Description: AutoCAD Mechanical 2000|Company: Autodesk"
 90
    33791
280
     0
281
     1
  0
CLASS
  1
ACDBSTDPARTRES_LINE
  2
AcDbStdPartRes_Line
  3
"AcDbStdPartRes_Line|Product Description: AutoCAD Mechanical 2000|Company: Autodesk"
 90
    32768
280
     0
281
     0
  0
CLASS
  1
ACMDATAENTRY
  2
AcmDataEntry
  3
"AcmSymBB|Product Description: AutoCAD Mechanical 2004 DX|Company: Autodesk"
 90
    32768
280
     0
281
     0
  0
CLASS
  1
ACDBOPPOLYLINERES
  2
AcDbOpPolylineRes
  3
AcGrefServices
 90
    32768
280
     0
281
     0
  0
CLASS
  1
ACMPARTLIST
  2
AcmPartList
  3
"AcmSymBB|Product Description: AutoCAD Mechanical 2004 DX|Company: Autodesk"
 90
    33791
280
     0
281
     1
  0
CLASS
  1
ACDBLINERES
  2
AcDbLineRes
  3
AcGrefServices
 90
    32768
280
     0
281
     0
  0
CLASS
  1
ACRFINSADJ
  2
AcRfInsAdjuster
  3
AcMeServices
 90
    32768
280
     0
281
     0
  0
CLASS
  1
AM_DRAWING_MGR
  2
AcDmDwgMgr
  3
AcMechDwgViewMgmt
 90
        0
280
     0
281
     0
  0
CLASS
  1
AM_DWG_DOCUMENT
  2
AcDmDwgDocument
  3
AcMechDwgViewMgmt
 90
        0
280
     0
281
     0
  0
CLASS
  1
AM_DWG_SHEET
  2
AcDmSheet
  3
AcMechDwgViewMgmt
 90
        0
280
     0
281
     0
  0
CLASS
  1
AM_VIEWDIMPARMAP
  2
AcDmViewDimParMap
  3
AcMechDwgViewMgmt
 90
        0
280
     0
281
     0
  0
CLASS
  1
AM_DWGMGR_NAME
  2
AcDmDwgMgrName
  3
AcMechDwgViewMgmt
 90
        0
280
     0
281
     0
  0
CLASS
  1
AMDTMENUSTATEMGR
  2
AmdtMenuStateMgr
  3
McadcomServices
 90
        0
280
     0
281
     0
  0
CLASS
  1
AMDTMCOMMENUSTATE
  2
AmdtMcomMenuState
  3
McadcomServices
 90
        0
280
     0
281
     0
  0
CLASS
  1
ASAPP
  2
AcAsAppObject
  3
AutoSurfServices
 90
        0
280
     0
281
     0
  0
CLASS
  1
IM_STATIC_MAN
  2
AcImStaticVarManager
  3
AcMeServices
 90
    32768
280
     0
281
     0
  0
CLASS
  1
ACIMDBLSTATICVAR
  2
AcImDblStaticVar
  3
AcMeServices
 90
    32768
280
     0
281
     0
  0
CLASS
  1
ACIMSTRSTATICVAR
  2
AcImStrStaticVar
  3
AcMeServices
 90
    32768
280
     0
281
     0
  0
CLASS
  1
ACIMINTSTATICVAR
  2
AcImIntStaticVar
  3
AcMeServices
 90
    32768
280
     0
281
     0
  0
CLASS
  1
ACASGREFMASTER
  2
AcAsGrefMaster
  3
AutoSurfResolverServices
 90
        0
280
     0
281
     0
  0
CLASS
  1
ACADGREFMODULE
  2
AcAdGrefModule
  3
AdGrefServices
 90
        0
280
     0
281
     0
  0
CLASS
  1
AMDTMAPISURFMOUDULE
  2
AmdtMApiSurfModule
  3
MApiSurfServices
 90
        0
280
     0
281
     0
  0
CLASS
  1
MAPIAMMOUDLE
  2
MApiAmModule
  3
MApiAmServices
 90
        0
280
     0
281
     0
  0
CLASS
  1
AMDTADMENUSTATE
  2
AmdtAdMenuState
  3
DesignerServices
 90
        0
280
     0
281
     0
  0
CLASS
  1
ADAPPL
  2
AcAdAppl
  3
DesignerServices
 90
        0
280
     0
281
     0
  0
CLASS
  1
DEPMGR
  2
AcAdDepMgr
  3
DesignerServices
 90
        0
280
     0
281
     0
  0
CLASS
  1
PARAMMGR
  2
AcAdParamMgr
  3
DesignerServices
 90
        0
280
     0
281
     0
  0
CLASS
  1
PARAMSCOPE
  2
AcAdParamScope
  3
DesignerServices
 90
        0
280
     0
281
     0
  0
CLASS
  1
NAMEDAPPL
  2
AcAdNamedAppl
  3
DesignerServices
 90
        0
280
     0
281
     0
  0
CLASS
  1
ADHNTMPLT
  2
AdHoleNoteTemplateMgr
  3
DesignerServices
 90
    32768
280
     0
281
     0
  0
CLASS
  1
AM_HNTEMPLATE_MGR_NAME
  2
AdHoleNoteTemplateMgrName
  3
DesignerServices
 90
    32768
280
     0
281
     0
  0
CLASS
  1
AMDTDMMENUSTATE
  2
AmdtDmMenuState
  3
AcMechDwgViewMgmt
 90
        0
280
     0
281
     0
  0
CLASS
  1
MAPIADMODULE
  2
MApiAdModule
  3
MApiAdServices
 90
        0
280
     0
281
     0
  0
CLASS
  1
AMDTAMMENUSTATE
  2
AmdtAmMenuState
  3
DesignerAssemblies
 90
        0
280
     0
281
     0
  0
CLASS
  1
ACAMPROJECT
  2
AcAmProject
  3
DesignerAssemblies
 90
        0
280
     0
281
     0
  0
CLASS
  1
ACAMGRCOMPDEF
  2
AcAmGrCompDef
  3
DesignerAssemblies
 90
        0
280
     0
281
     0
  0
CLASS
  1
ACCMCONTEXT
  2
AcCmContext
  3
DesignerAssemblies
 90
        0
280
     0
281
     0
  0
CLASS
  1
ACAMCOMPDEF
  2
AcAmCompDef
  3
DesignerAssemblies
 90
        0
280
     0
281
     0
  0
CLASS
  1
ACAMCOMPDEFMGR
  2
AcAmCompDefMgr
  3
DesignerAssemblies
 90
        0
280
     0
281
     0
  0
CLASS
  1
AMCONTEXTMGR
  2
AcAmContextMgr
  3
DesignerAssemblies
 90
        0
280
     0
281
     0
  0
CLASS
  1
ACAMCONTEXTMODELER
  2
AcAmContextModeler
  3
DesignerAssemblies
 90
        0
280
     0
281
     0
  0
CLASS
  1
CATALOGSTATE
  2
AcAmCatalogState
  3
DesignerAssemblies
 90
        0
280
     0
281
     0
  0
CLASS
  1
ACAMGRCOMPDEFSET
  2
AcAmGrCompDefSet
  3
DesignerAssemblies
 90
        0
280
     0
281
     0
  0
CLASS
  1
AMDTBROWSERDBTAB
  2
AmdtBrowserDbTab
  3
McadcomServices
 90
        0
280
     0
281
     0
  0
CLASS
  1
CBROWSERAPPOBJECT
  2
CBrowserAppObject
  3
McadcomServices
 90
        0
280
     0
281
     0
  0
CLASS
  1
DM_PLACEHOLDER
  2
AcDmSelsetPlaceholder
  3
AcMechDwgViewMgmt
 90
        0
280
     0
281
     0
  0
CLASS
  1
ACMPICKOBJ
  2
AcmPickEnt
  3
"AcmSymBB|Product Description: AutoCAD Mechanical 2004 DX|Company: Autodesk"
 90
    32768
280
     0
281
     1
  0
CLASS
  1
ACMNOTESTANDARDISO
  2
AmdtNoteStdISO
  3
"Amdt_StdImp|Product Description: AutoCAD Mechanical 2004 DX|Company: Autodesk"
 90
        0
280
     0
281
     0
  0
CLASS
  1
ACMNOTESTANDARDANSI
  2
AmdtNoteStdANSI
  3
"Amdt_StdImp|Product Description: AutoCAD Mechanical 2004 DX|Company: Autodesk"
 90
    32768
280
     0
281
     0
  0
CLASS
  1
ACMTHREADLINESTANDARDISO
  2
AmdtThreadLineStdISO
  3
"Amdt_StdImp|Product Description: AutoCAD Mechanical 2004 DX|Company: Autodesk"
 90
        0
280
     0
281
     0
  0
CLASS
  1
ACMTHREADLINESTANDARDANSI
  2
AmdtThreadLineStdANSI
  3
"Amdt_StdImp|Product Description: AutoCAD Mechanical 2004 DX|Company: Autodesk"
 90
    32768
280
     0
281
     0
  0
CLASS
  1
TABLESTYLE
  2
AcDbTableStyle
  3
ObjectDBX Classes
 90
     2047
280
     0
281
     0
  0
CLASS
  1
SORTENTSTABLE
  2
AcDbSortentsTable
  3
ObjectDBX Classes
 90
    32768
280
     0
281
     0
  0
CLASS
  1
DIMASSOC
  2
AcDbDimAssoc
  3
"AcDbDimAssoc|Product Desc:     AcDim ARX App For Dimension|Company:          Autodesk, Inc.|WEB Address:      www.autodesk.com"
 90
        0
280
     0
281
     0
  0
CLASS
  1
AMDTEDGESTANDARDISO13715
  2
AmdtEdgeStdISO13715
  3
"Amdt_StdImp|Product Description: AutoCAD Mechanical 2004 DX|Company: Autodesk"
 90
        0
280
     0
281
     0
  0
CLASS
  1
AMDTNOTETEMPLATEDB
  2
AmdtNoteTemplateDB
  3
AMDT_STDIMP_MODULE_NAME
 90
        0
280
     0
281
     0
  0
CLASS
  1
ACAMGHOLECHARTSTDISO
  2
AcAmgHoleChartStdISO
  3
ACMSYMBB_MODULE_NAME
 90
        0
280
     0
281
     0
  0
ENDSEC
  0
SECTION
  2
TABLES
  0
TABLE
  2
VPORT
  5
8
330
0
100
AcDbSymbolTable
 70
     5
  0
VPORT
  5
B891
330
8
100
AcDbSymbolTableRecord
100
AcDbViewportTableRecord
  2
*Active
 70
     0
 10
0.0
 20
0.0
 11
1.0
 21
1.0
 12
209.9741234417008
 22
148.4931015284262
 13
0.0
 23
0.0
 14
2.5
 24
2.5
 15
10.0
 25
10.0
 16
0.0
 26
0.0
 36
1.0
 17
0.0
 27
0.0
 37
0.0
 40
339.1810952722294
 41
1.246323529411764
 42
50.0
 43
-1370.695619172058
 44
-1370.695619172058
 50
0.0
 51
0.0
 71
    16
 72
   100
 73
     1
 74
     3
 75
     0
 76
     0
 77
     0
 78
     0
281
     0
 65
     0
110
0.0
120
0.0
130
0.0
111
1.0
121
0.0
131
0.0
112
0.0
122
1.0
132
0.0
 79
     0
146
0.0
  0
ENDTAB
  0
TABLE
  2
LTYPE
  5
5
330
0
100
AcDbSymbolTable
 70
    27
  0
LTYPE
  5
14
330
5
100
AcDbSymbolTableRecord
100
AcDbLinetypeTableRecord
  2
ByBlock
 70
     0
  3

 72
    65
 73
     0
 40
0.0
  0
LTYPE
  5
15
330
5
100
AcDbSymbolTableRecord
100
AcDbLinetypeTableRecord
  2
ByLayer
 70
     0
  3

 72
    65
 73
     0
 40
0.0
  0
LTYPE
  5
16
330
5
100
AcDbSymbolTableRecord
100
AcDbLinetypeTableRecord
  2
Continuous
 70
     0
  3
Solid line
 72
    65
 73
     0
 40
0.0
  0
LTYPE
  5
4F
330
5
100
AcDbSymbolTableRecord
100
AcDbLinetypeTableRecord
  2
AM_ISO02W050
 70
     0
  3
__ __ __ __ __ __ __ __ __ __ __ __ __ __ __
 72
    65
 73
     2
 40
7.5
 49
6.0
 74
     0
 49
-1.5
 74
     0
  0
LTYPE
  5
52
330
5
100
AcDbSymbolTableRecord
100
AcDbLinetypeTableRecord
  2
Amconstr
 70
     0
  3
_______________________
 72
    65
 73
     2
 40
9999.0
 49
9999.0
 74
     0
 49
0.0
 74
     0
  0
LTYPE
  5
64
330
5
100
AcDbSymbolTableRecord
100
AcDbLinetypeTableRecord
  2
ACISOWELD
 70
     0
  3
_ _ _ _ _
 72
    65
 73
     2
 40
2.0
 49
2.0
 74
     0
 49
-1.0
 74
     0
  0
LTYPE
  5
65
330
5
100
AcDbSymbolTableRecord
100
AcDbLinetypeTableRecord
  2
ACISOTGB
 70
     0
  3
__ . . __ . .
 72
    65
 73
     6
 40
9.0
 49
4.0
 74
     0
 49
-1.0
 74
     0
 49
1.0
 74
     0
 49
-1.0
 74
     0
 49
1.0
 74
     0
 49
-1.0
 74
     0
  0
LTYPE
  5
66
330
5
100
AcDbSymbolTableRecord
100
AcDbLinetypeTableRecord
  2
ACISOTGL
 70
     0
  3
_ _ _ _ _
 72
    65
 73
     2
 40
3.0
 49
2.0
 74
     0
 49
-1.0
 74
     0
  0
LTYPE
  5
69
330
5
100
AcDbSymbolTableRecord
100
AcDbLinetypeTableRecord
  2
CENTER
 70
     0
  3
__ . __
 72
    65
 73
     4
 40
7.0
 49
4.0
 74
     0
 49
-1.0
 74
     0
 49
1.0
 74
     0
 49
-1.0
 74
     0
  0
LTYPE
  5
A6E
330
5
100
AcDbSymbolTableRecord
100
AcDbLinetypeTableRecord
  2
PHANTOM2
 70
     0
  3
Phantom (.5x) ___ _ _ ___ _ _ ___ _ _ ___ _ _
 72
    65
 73
     6
 40
31.75
 49
15.875
 74
     0
 49
-3.174999999999998
 74
     0
 49
3.174999999999998
 74
     0
 49
-3.174999999999998
 74
     0
 49
3.174999999999998
 74
     0
 49
-3.174999999999998
 74
     0
  0
LTYPE
  5
4DED
330
5
100
AcDbSymbolTableRecord
100
AcDbLinetypeTableRecord
  2
中線
 70
     0
  3
___________________
 72
    65
 73
     2
 40
2.0
 49
1.0
 74
     0
 49
1.0
 74
     0
  0
LTYPE
  5
4DF6
330
5
100
AcDbSymbolTableRecord
100
AcDbLinetypeTableRecord
  2
細線
 70
     0
  3
___________________
 72
    65
 73
     2
 40
2.0
 49
1.0
 74
     0
 49
1.0
 74
     0
  0
LTYPE
  5
4DF7
330
5
100
AcDbSymbolTableRecord
100
AcDbLinetypeTableRecord
  2
太線
 70
     0
  3
___________________
 72
    65
 73
     2
 40
2.0
 49
1.0
 74
     0
 49
1.0
 74
     0
  0
LTYPE
  5
4EA7
330
5
100
AcDbSymbolTableRecord
100
AcDbLinetypeTableRecord
  2
文字
 70
     0
  3
_________________
 72
    65
 73
     2
 40
2.0
 49
1.0
 74
     0
 49
1.0
 74
     0
  0
LTYPE
  5
4EA9
330
5
100
AcDbSymbolTableRecord
100
AcDbLinetypeTableRecord
  2
寸法線
 70
     0
  3
________________
 72
    65
 73
     2
 40
2.0
 49
1.0
 74
     0
 49
1.0
 74
     0
  0
LTYPE
  5
4F12
330
5
100
AcDbSymbolTableRecord
100
AcDbLinetypeTableRecord
  2
ハッチング
 70
     0
  3
_________________
 72
    65
 73
     2
 40
2.0
 49
1.0
 74
     0
 49
1.0
 74
     0
  0
LTYPE
  5
5180
330
5
100
AcDbSymbolTableRecord
100
AcDbLinetypeTableRecord
  2
陰線1
 70
     0
  3
__ __ __ __
 72
    65
 73
     2
 40
4.0
 49
2.2
 74
     0
 49
-1.8
 74
     0
  0
LTYPE
  5
5182
330
5
100
AcDbSymbolTableRecord
100
AcDbLinetypeTableRecord
  2
切断線
 70
     0
  3
/\/-/\/-/\/-/\/-/\/-/\/
 72
    65
 73
     2
 40
11.0001
 49
0.0001
 74
     4
 75
   135
340
56
 46
0.04
 50
0.0
 44
0.0
 45
0.0
 49
-11.0
 74
     0
  0
LTYPE
  5
5183
330
5
100
AcDbSymbolTableRecord
100
AcDbLinetypeTableRecord
  2
想像線1
 70
     0
  3
__ __ __ _____ __ __ ____
 72
    65
 73
     6
 40
14.5
 49
6.0
 74
     0
 49
-1.5
 74
     0
 49
2.0
 74
     0
 49
-1.5
 74
     0
 49
2.0
 74
     0
 49
-1.5
 74
     0
  0
LTYPE
  5
5185
330
5
100
AcDbSymbolTableRecord
100
AcDbLinetypeTableRecord
  2
中心線1
 70
     0
  3
___ _ ___ _ ___
 72
    65
 73
     4
 40
18.0
 49
12.0
 74
     0
 49
-2.0
 74
     0
 49
2.0
 74
     0
 49
-2.0
 74
     0
  0
LTYPE
  5
5188
330
5
100
AcDbSymbolTableRecord
100
AcDbLinetypeTableRecord
  2
補助線
 70
     0
  3
______________
 72
    65
 73
     2
 40
2.0
 49
1.0
 74
     0
 49
1.0
 74
     0
  0
LTYPE
  5
6427
330
5
100
AcDbSymbolTableRecord
100
AcDbLinetypeTableRecord
  2
HIDDEN
 70
     0
  3
Hidden __ __ __ __ __ __ __ __ __ __ __ __ __ _
 72
    65
 73
     2
 40
0.375
 49
0.25
 74
     0
 49
-0.125
 74
     0
  0
LTYPE
  5
AC81
330
5
100
AcDbSymbolTableRecord
100
AcDbLinetypeTableRecord
  2
破断線
 70
     0
  3
/\/-/\/-/\/-/\/-/\/-/\/
 72
    65
 73
     2
 40
0.4401
 49
0.0001
 74
     4
 75
   136
340
AC80
 46
0.0016
 50
0.0
 44
0.0
 45
0.0
 49
-0.4400000000000003
 74
     0
  0
LTYPE
  5
AC9E
330
5
100
AcDbSymbolTableRecord
100
AcDbLinetypeTableRecord
  2
Amzigzag
 70
     0
  3
/\/-/\/-/\/-/\/-/\/-/\/
 72
    65
 73
     2
 40
11.0001
 49
0.0001
 74
     4
 75
   135
340
56
 46
0.04
 50
0.0
 44
0.0
 45
0.0
 49
-11.0
 74
     0
  0
LTYPE
  5
AF0F
330
5
100
AcDbSymbolTableRecord
100
AcDbLinetypeTableRecord
  2
genzigzag
 70
     0
  3
/\/-/\/-/\/-/\/-/\/-/\/
 72
    65
 73
     2
 40
12.0001
 49
0.0001
 74
     4
 75
   135
340
AC80
 46
2.0
 50
0.0
 44
0.0
 45
0.0
 49
-12.0
 74
     0
  0
LTYPE
  5
AF95
330
5
100
AcDbSymbolTableRecord
100
AcDbLinetypeTableRecord
  2
AM_ISO08W050
 70
     0
  3
____ . ____ . ____ . ____ . ____ . ____ . ____
 72
    65
 73
     4
 40
18.0
 49
12.0
 74
     0
 49
-1.5
 74
     0
 49
3.0
 74
     0
 49
-1.5
 74
     0
  0
LTYPE
  5
AF96
330
5
100
AcDbSymbolTableRecord
100
AcDbLinetypeTableRecord
  2
AM_ISO09W050
 70
     0
  3
_____ . . _____ . . _____ . . ____ .. ____
 72
    65
 73
     6
 40
22.5
 49
12.0
 74
     0
 49
-1.5
 74
     0
 49
3.0
 74
     0
 49
-1.5
 74
     0
 49
3.0
 74
     0
 49
-1.5
 74
     0
  0
LTYPE
  5
AF97
330
5
100
AcDbSymbolTableRecord
100
AcDbLinetypeTableRecord
  2
AM_ISO08W050x2
 70
     0
  3
__ . __ . __ . __ . __ . __
 72
    65
 73
     4
 40
9.0
 49
6.0
 74
     0
 49
-0.75
 74
     0
 49
1.5
 74
     0
 49
-0.75
 74
     0
  0
LTYPE
  5
AF98
330
5
100
AcDbSymbolTableRecord
100
AcDbLinetypeTableRecord
  2
AM_ISO02W050x2
 70
     0
  3
 _ _ _ _ _ _ _ _ _ _ _ _
 72
    65
 73
     2
 40
3.75
 49
3.0
 74
     0
 49
-0.75
 74
     0
  0
ENDTAB
  0
TABLE
  2
LAYER
  5
2
102
{ACAD_XDICTIONARY
360
3F95
102
}
330
0
100
AcDbSymbolTable
 70
    18
  0
LAYER
  5
10
330
2
100
AcDbSymbolTableRecord
100
AcDbLayerTableRecord
  2
0
 70
     0
 62
     7
  6
Continuous
370
    -3
390
F
  0
LAYER
  5
6D1
330
2
100
AcDbSymbolTableRecord
100
AcDbLayerTableRecord
  2
Defpoints
 70
     0
 62
     7
  6
Continuous
290
     0
370
    -3
390
F
  0
LAYER
  5
5F85
330
2
100
AcDbSymbolTableRecord
100
AcDbLayerTableRecord
  2
AM_0
 70
     0
 62
     7
  6
中線
370
    25
390
F
1001
AcAecLayerStandard
1000

1000

  0
LAYER
  5
AC9F
330
2
100
AcDbSymbolTableRecord
100
AcDbLayerTableRecord
  2
size
 70
     0
 62
     5
  6
Continuous
290
     0
370
    25
390
F
  0
LAYER
  5
ACA0
330
2
100
AcDbSymbolTableRecord
100
AcDbLayerTableRecord
  2
waku
 70
     0
 62
     7
  6
Continuous
370
    35
390
F
  0
LAYER
  5
ACA1
330
2
100
AcDbSymbolTableRecord
100
AcDbLayerTableRecord
  2
AM_6
 70
     0
 62
     2
  6
文字
370
    15
390
F
1001
AcAecLayerStandard
1000

1000

  0
LAYER
  5
ACC8
330
2
100
AcDbSymbolTableRecord
100
AcDbLayerTableRecord
  2
hyomoji
 70
     0
 62
     2
  6
Continuous
370
    15
390
F
  0
LAYER
  5
ACC9
330
2
100
AcDbSymbolTableRecord
100
AcDbLayerTableRecord
  2
hyosen1
 70
     0
 62
     1
  6
Continuous
370
    25
390
F
  0
LAYER
  5
ACCA
330
2
100
AcDbSymbolTableRecord
100
AcDbLayerTableRecord
  2
hyosen2
 70
     0
 62
     1
  6
Continuous
370
    15
390
F
  0
LAYER
  5
AD60
330
2
100
AcDbSymbolTableRecord
100
AcDbLayerTableRecord
  2
AM_1
 70
     0
 62
    30
  6
太線
370
    25
390
F
1001
AcAecLayerStandard
1000

1000

  0
LAYER
  5
AD64
330
2
100
AcDbSymbolTableRecord
100
AcDbLayerTableRecord
  2
AM_2
 70
     0
 62
     1
  6
細線
370
    15
390
F
1001
AcAecLayerStandard
1000

1000

  0
LAYER
  5
AD67
330
2
100
AcDbSymbolTableRecord
100
AcDbLayerTableRecord
  2
AM_3
 70
     0
 62
     6
  6
陰線1
370
    15
390
F
1001
AcAecLayerStandard
1000

1000

  0
LAYER
  5
AD68
330
2
100
AcDbSymbolTableRecord
100
AcDbLayerTableRecord
  2
AM_5
 70
     0
 62
     3
  6
寸法線
370
    15
390
F
1001
AcAecLayerStandard
1000

1000

  0
LAYER
  5
AD69
330
2
100
AcDbSymbolTableRecord
100
AcDbLayerTableRecord
  2
AM_7
 70
     0
 62
     4
  6
中心線1
370
    15
390
F
1001
AcAecLayerStandard
1000

1000

  0
LAYER
  5
AD6A
330
2
100
AcDbSymbolTableRecord
100
AcDbLayerTableRecord
  2
AM_8
 70
     0
 62
     1
  6
ハッチング
370
    15
390
F
1001
AcAecLayerStandard
1000

1000

  0
LAYER
  5
AD6E
330
2
100
AcDbSymbolTableRecord
100
AcDbLayerTableRecord
  2
AM_10
 70
     0
 62
     7
  6
genzigzag
370
    25
390
F
1001
AcAecLayerStandard
1000

1000

  0
LAYER
  5
AD6F
330
2
100
AcDbSymbolTableRecord
100
AcDbLayerTableRecord
  2
AM_11
 70
     0
 62
     2
  6
想像線1
370
    15
390
F
1001
AcAecLayerStandard
1000

1000

  0
LAYER
  5
B17C
330
2
100
AcDbSymbolTableRecord
100
AcDbLayerTableRecord
  2
AM_CL
 70
     0
 62
     1
  6
Amconstr
370
    15
390
F
  0
ENDTAB
  0
TABLE
  2
STYLE
  5
3
330
0
100
AcDbSymbolTable
 70
     6
  0
STYLE
  5
11
330
3
100
AcDbSymbolTableRecord
100
AcDbTextStyleTableRecord
  2
STANDARD
 70
     0
 40
0.0
 41
0.7
 50
0.0
 71
     0
 42
3.2
  3
romans.shx
  4
extfont.shx
  0
STYLE
  5
56
330
3
100
AcDbSymbolTableRecord
100
AcDbTextStyleTableRecord
  2

 70
     1
 40
0.0
 41
1.0
 50
0.0
 71
     0
 42
2.5
  3
ltypeshp.shx
  4

  0
STYLE
  5
58
330
3
100
AcDbSymbolTableRecord
100
AcDbTextStyleTableRecord
  2
ACISOTS
 70
     0
 40
1.0
 41
1.0
 50
0.0
 71
     0
 42
2.5
  3
isocp.shx
  4
extfont.shx
  0
STYLE
  5
63
330
3
100
AcDbSymbolTableRecord
100
AcDbTextStyleTableRecord
  2
ACISOGDT
 70
     0
 40
0.0
 41
1.0
 50
0.0
 71
     0
 42
2.5
  3
AMGDT
  4

  0
STYLE
  5
A74
330
3
100
AcDbSymbolTableRecord
100
AcDbTextStyleTableRecord
  2
DIM
 70
     0
 40
0.0
 41
1.0
 50
0.0
 71
     0
 42
2.5
  3
monotxt.shx
  4
extfont.shx
  0
STYLE
  5
AC80
330
3
100
AcDbSymbolTableRecord
100
AcDbTextStyleTableRecord
  2

 70
     1
 40
0.0
 41
1.0
 50
0.0
 71
     0
 42
3.2
  3
genltshp.shx
  4

  0
ENDTAB
  0
TABLE
  2
VIEW
  5
6
330
0
100
AcDbSymbolTable
 70
     6
  0
VIEW
  5
AE1
330
6
100
AcDbSymbolTableRecord
100
AcDbViewTableRecord
  2
AM_VIEW1
 70
     0
 40
129.7276464542651
 10
1775.10588156276
 20
1793.121228859297
 41
148.5
 11
0.0
 21
0.0
 31
1.0
 12
0.0
 22
0.0
 32
0.0
 42
50.0
 43
-1370.695619172058
 44
-1370.695619172058
 50
0.0
 71
    16
281
     0
 72
     0
  0
VIEW
  5
AE2
330
6
100
AcDbSymbolTableRecord
100
AcDbViewTableRecord
  2
AM_VIEW2
 70
     0
 40
129.7276464542651
 10
1923.60588156276
 20
1793.121228859297
 41
148.5
 11
0.0
 21
0.0
 31
1.0
 12
0.0
 22
0.0
 32
0.0
 42
50.0
 43
-1370.695619172058
 44
-1370.695619172058
 50
0.0
 71
    16
281
     0
 72
     0
  0
VIEW
  5
AE3
330
6
100
AcDbSymbolTableRecord
100
AcDbViewTableRecord
  2
AM_VIEW3
 70
     0
 40
129.7276464542651
 10
1775.10588156276
 20
1712.848875313562
 41
148.5
 11
0.0
 21
0.0
 31
1.0
 12
0.0
 22
0.0
 32
0.0
 42
50.0
 43
-1370.695619172058
 44
-1370.695619172058
 50
0.0
 71
    16
281
     0
 72
     0
  0
VIEW
  5
AE4
330
6
100
AcDbSymbolTableRecord
100
AcDbViewTableRecord
  2
AM_VIEW4
 70
     0
 40
129.7276464542651
 10
1923.60588156276
 20
1712.848875313562
 41
148.5
 11
0.0
 21
0.0
 31
1.0
 12
0.0
 22
0.0
 32
0.0
 42
50.0
 43
-1370.695619172058
 44
-1370.695619172058
 50
0.0
 71
    16
281
     0
 72
     0
  0
VIEW
  5
AE5
330
6
100
AcDbSymbolTableRecord
100
AcDbViewTableRecord
  2
AM_VIEW5
 70
     0
 40
129.7276464542651
 10
1849.35588156276
 20
1752.985052086429
 41
148.5
 11
0.0
 21
0.0
 31
1.0
 12
0.0
 22
0.0
 32
0.0
 42
50.0
 43
-1370.695619172058
 44
-1370.695619172058
 50
0.0
 71
    16
281
     0
 72
     0
  0
VIEW
  5
AE6
330
6
100
AcDbSymbolTableRecord
100
AcDbViewTableRecord
  2
AM_VIEW6
 70
     0
 40
259.452698355601
 10
1849.35588156276
 20
1752.985052086429
 41
296.99703
 11
0.0
 21
0.0
 31
1.0
 12
0.0
 22
0.0
 32
0.0
 42
50.0
 43
-1370.695619172058
 44
-1370.695619172058
 50
0.0
 71
    16
281
     0
 72
     0
  0
ENDTAB
  0
TABLE
  2
UCS
  5
7
330
0
100
AcDbSymbolTable
 70
     0
  0
ENDTAB
  0
TABLE
  2
APPID
  5
9
330
0
100
AcDbSymbolTable
 70
    54
  0
APPID
  5
12
330
9
100
AcDbSymbolTableRecord
100
AcDbRegAppTableRecord
  2
ACAD
 70
     0
  0
APPID
  5
30
330
9
100
AcDbSymbolTableRecord
100
AcDbRegAppTableRecord
  2
MCAD_NO_VIS
 70
     0
  0
APPID
  5
31
330
9
100
AcDbSymbolTableRecord
100
AcDbRegAppTableRecord
  2
ACAD_TEMP_GRAPHIC
 70
     0
  0
APPID
  5
44
330
9
100
AcDbSymbolTableRecord
100
AcDbRegAppTableRecord
  2
ACATTRIBSERVICES
 70
     0
  0
APPID
  5
7A1
330
9
100
AcDbSymbolTableRecord
100
AcDbRegAppTableRecord
  2
GENIUS_GENDIMSH_14
 70
     0
  0
APPID
  5
A49
330
9
100
AcDbSymbolTableRecord
100
AcDbRegAppTableRecord
  2
GENIUS_GENREC_14
 70
     0
  0
APPID
  5
A4A
330
9
100
AcDbSymbolTableRecord
100
AcDbRegAppTableRecord
  2
GENIUS_GENOBJ-N-REC_13
 70
     0
  0
APPID
  5
A4B
330
9
100
AcDbSymbolTableRecord
100
AcDbRegAppTableRecord
  2
GENIUS_GENODEF_13
 70
     0
  0
APPID
  5
A4C
330
9
100
AcDbSymbolTableRecord
100
AcDbRegAppTableRecord
  2
DCO15
 70
     0
  0
APPID
  5
ADC
330
9
100
AcDbSymbolTableRecord
100
AcDbRegAppTableRecord
  2
GENIUS_GENOLIS_13
 70
     0
  0
APPID
  5
ADD
330
9
100
AcDbSymbolTableRecord
100
AcDbRegAppTableRecord
  2
GENIUS_GENOENT_13
 70
     0
  0
APPID
  5
ADE
330
9
100
AcDbSymbolTableRecord
100
AcDbRegAppTableRecord
  2
GENIUS_GENOBJ-N-TIT_13
 70
     0
  0
APPID
  5
ADF
330
9
100
AcDbSymbolTableRecord
100
AcDbRegAppTableRecord
  2
GENIUS_GENTITLE_13
 70
     0
  0
APPID
  5
AE0
330
9
100
AcDbSymbolTableRecord
100
AcDbRegAppTableRecord
  2
GENIUS_GENOREF_13
 70
     0
  0
APPID
  5
AE7
330
9
100
AcDbSymbolTableRecord
100
AcDbRegAppTableRecord
  2
GENIUS_GENSCREG_15
 70
     0
  0
APPID
  5
AE8
330
9
100
AcDbSymbolTableRecord
100
AcDbRegAppTableRecord
  2
GENIUS_GENOBJ-N-SDF_13
 70
     0
  0
APPID
  5
FAF
330
9
100
AcDbSymbolTableRecord
100
AcDbRegAppTableRecord
  2
GENIUS_GENBLLY_14
 70
     0
  0
APPID
  5
FB0
330
9
100
AcDbSymbolTableRecord
100
AcDbRegAppTableRecord
  2
GENIUS_GENTRA_14
 70
     0
  0
APPID
  5
1285
330
9
100
AcDbSymbolTableRecord
100
AcDbRegAppTableRecord
  2
GENIUS_GENDTOL_13
 70
     0
  0
APPID
  5
142D
330
9
100
AcDbSymbolTableRecord
100
AcDbRegAppTableRecord
  2
GENIUS_GENOBJ-N-CEN_13
 70
     0
  0
APPID
  5
1AB5
330
9
100
AcDbSymbolTableRecord
100
AcDbRegAppTableRecord
  2
GENIUS_GENOBJ-N-CRS_13
 70
     0
  0
APPID
  5
1B36
330
9
100
AcDbSymbolTableRecord
100
AcDbRegAppTableRecord
  2
GENIUS_GENOBJ-N-HTC_13
 70
     0
  0
APPID
  5
1B37
330
9
100
AcDbSymbolTableRecord
100
AcDbRegAppTableRecord
  2
GENIUS_GENHATCH_13
 70
     0
  0
APPID
  5
216D
330
9
100
AcDbSymbolTableRecord
100
AcDbRegAppTableRecord
  2
GENIUS_GENOBJ-N-FIL_13
 70
     0
  0
APPID
  5
2356
330
9
100
AcDbSymbolTableRecord
100
AcDbRegAppTableRecord
  2
GEVID990412420
 70
     0
  0
APPID
  5
2357
330
9
100
AcDbSymbolTableRecord
100
AcDbRegAppTableRecord
  2
GEVDC
 70
     0
  0
APPID
  5
2358
330
9
100
AcDbSymbolTableRecord
100
AcDbRegAppTableRecord
  2
GEVCON
 70
     0
  0
APPID
  5
235B
330
9
100
AcDbSymbolTableRecord
100
AcDbRegAppTableRecord
  2
GEVRADREF
 70
     0
  0
APPID
  5
2360
330
9
100
AcDbSymbolTableRecord
100
AcDbRegAppTableRecord
  2
GENIUS_GENBH_13
 70
     0
  0
APPID
  5
2362
330
9
100
AcDbSymbolTableRecord
100
AcDbRegAppTableRecord
  2
GENIUS_GENOBJ-NBEHI-BHF_13
 70
     0
  0
APPID
  5
2364
330
9
100
AcDbSymbolTableRecord
100
AcDbRegAppTableRecord
  2
GENIUS_GENOBJ-NBEHI-BHB_13
 70
     0
  0
APPID
  5
2379
330
9
100
AcDbSymbolTableRecord
100
AcDbRegAppTableRecord
  2
GENIUS_GENOBJ-F-SCPASSM_13
 70
     0
  0
APPID
  5
3D74
330
9
100
AcDbSymbolTableRecord
100
AcDbRegAppTableRecord
  2
GENIUS_GENDIM_13
 70
     0
  0
APPID
  5
3D76
330
9
100
AcDbSymbolTableRecord
100
AcDbRegAppTableRecord
  2
GENIUS_GE3DTOL_13
 70
     0
  0
APPID
  5
3D9C
330
9
100
AcDbSymbolTableRecord
100
AcDbRegAppTableRecord
  2
AD_DRAW
 70
     0
  0
APPID
  5
3DE8
330
9
100
AcDbSymbolTableRecord
100
AcDbRegAppTableRecord
  2
ASURF_PCURVE_APPNAME
 70
     0
  0
APPID
  5
3DED
330
9
100
AcDbSymbolTableRecord
100
AcDbRegAppTableRecord
  2
AMG_3D2D_5.0
 70
     0
  0
APPID
  5
3E1B
330
9
100
AcDbSymbolTableRecord
100
AcDbRegAppTableRecord
  2
DESIGNERASSEMBLIES
 70
     0
  0
APPID
  5
3E20
330
9
100
AcDbSymbolTableRecord
100
AcDbRegAppTableRecord
  2
ACADM_DIM_EDIT
 70
     0
  0
APPID
  5
3E21
330
9
100
AcDbSymbolTableRecord
100
AcDbRegAppTableRecord
  2
AMDT_DM_ADJ
 70
     0
  0
APPID
  5
4143
330
9
100
AcDbSymbolTableRecord
100
AcDbRegAppTableRecord
  2
GENIUS_GENFIL_13
 70
     0
  0
APPID
  5
4144
330
9
100
AcDbSymbolTableRecord
100
AcDbRegAppTableRecord
  2
GENIUS_GENOBJ-N-CHA_13
 70
     0
  0
APPID
  5
4E17
330
9
100
AcDbSymbolTableRecord
100
AcDbRegAppTableRecord
  2
GEVID1008153417
 70
     0
  0
APPID
  5
4E58
330
9
100
AcDbSymbolTableRecord
100
AcDbRegAppTableRecord
  2
GEVID1008153418
 70
     0
  0
APPID
  5
4E5E
330
9
100
AcDbSymbolTableRecord
100
AcDbRegAppTableRecord
  2
GEVID1008153419
 70
     0
  0
APPID
  5
4E64
330
9
100
AcDbSymbolTableRecord
100
AcDbRegAppTableRecord
  2
GEVID1008153420
 70
     0
  0
APPID
  5
4E75
330
9
100
AcDbSymbolTableRecord
100
AcDbRegAppTableRecord
  2
GEVID1008153421
 70
     0
  0
APPID
  5
4EB7
330
9
100
AcDbSymbolTableRecord
100
AcDbRegAppTableRecord
  2
GENIUS_AMGTXT_16
 70
     0
  0
APPID
  5
7645
330
9
100
AcDbSymbolTableRecord
100
AcDbRegAppTableRecord
  2
GENIUS_GENOBJ-N-DIM_13
 70
     0
  0
APPID
  5
AAD0
330
9
100
AcDbSymbolTableRecord
100
AcDbRegAppTableRecord
  2
ACAD_DSTYLE_DIMARC_LENGTH_SYMBOL
 70
     0
  0
APPID
  5
AAD1
330
9
100
AcDbSymbolTableRecord
100
AcDbRegAppTableRecord
  2
ACAD_DSTYLE_DIMJOGGED_JOGANGLE_SYMBOL
 70
     0
  0
APPID
  5
AAFD
330
9
100
AcDbSymbolTableRecord
100
AcDbRegAppTableRecord
  2
ACAD_PSEXT
 70
     0
  0
APPID
  5
AD61
330
9
100
AcDbSymbolTableRecord
100
AcDbRegAppTableRecord
  2
AcAecLayerStandard
 70
     0
  0
APPID
  5
AEE3
330
9
100
AcDbSymbolTableRecord
100
AcDbRegAppTableRecord
  2
ACAD_EXEMPT_FROM_CAD_STANDARDS
 70
     0
  0
ENDTAB
  0
TABLE
  2
DIMSTYLE
  5
A
330
0
100
AcDbSymbolTable
 70
    18
100
AcDbDimStyleTable
 71
     1
340
2515
  0
DIMSTYLE
105
A76
330
A
100
AcDbSymbolTableRecord
100
AcDbDimStyleTableRecord
  2
STANDARD
 70
     0
 41
3.0
 42
1.0
 43
7.0
 44
2.0
 73
     0
 74
     0
 77
     1
140
2.799999999999998
141
0.0
143
0.0394
147
0.7
171
     4
172
     1
173
     1
176
     3
177
     3
178
     2
271
     3
272
     3
273
     8
274
     4
289
     0
340
A74
341
A66
343
A66
344
A66
  0
DIMSTYLE
105
2515
330
A
100
AcDbSymbolTableRecord
100
AcDbDimStyleTableRecord
  2
SYS
 70
     0
  4
"
 41
1.0
 42
1.0
 43
10.0
 44
1.0
 47
0.1
 48
0.1
 73
     0
 74
     0
 77
     1
 78
     8
 79
     2
140
3.5
141
0.0
143
0.0393701
146
0.71
147
1.5
172
     1
176
   256
177
   256
178
     7
271
     2
272
     2
283
     0
284
     8
340
11
371
    -1
372
    -1
1001
ACAD_DSTYLE_DIMARC_LENGTH_SYMBOL
1070
   379
1070
     1
1001
ACAD_DSTYLE_DIMJOGGED_JOGANGLE_SYMBOL
1070
   384
1040
0.7853981633974483
  0
DIMSTYLE
105
2516
102
{ACAD_REACTORS
330
B309
102
}
330
A
100
AcDbSymbolTableRecord
100
AcDbDimStyleTableRecord
  2
SYS$3
 70
     0
  4
"
 41
2.0
 42
1.0
 43
10.0
 44
1.0
 47
0.1
 48
0.1
 73
     0
 77
     1
 78
     8
 79
     2
140
3.5
141
0.0
143
0.0393701
146
0.71
147
1.5
176
   256
177
   256
178
     2
271
     2
272
     2
283
     0
284
     8
288
     1
340
11
342
A66
371
    -1
372
    -1
1001
ACAD_DSTYLE_DIMARC_LENGTH_SYMBOL
1070
   379
1070
     1
1001
ACAD_DSTYLE_DIMJOGGED_JOGANGLE_SYMBOL
1070
   384
1040
0.7853981633974483
  0
DIMSTYLE
105
2517
102
{ACAD_REACTORS
330
B275
102
}
330
A
100
AcDbSymbolTableRecord
100
AcDbDimStyleTableRecord
  2
SYS$4
 70
     0
  4
"
 41
2.0
 42
1.0
 43
10.0
 44
1.0
 47
0.1
 48
0.1
 73
     0
 77
     1
 78
     8
 79
     2
140
3.5
141
0.0
143
0.0393701
146
0.71
147
1.5
173
     1
176
   256
177
   256
178
     2
271
     2
272
     2
283
     0
284
     8
288
     1
340
11
344
A66
371
    -1
372
    -1
1001
ACAD_DSTYLE_DIMARC_LENGTH_SYMBOL
1070
   379
1070
     1
1001
ACAD_DSTYLE_DIMJOGGED_JOGANGLE_SYMBOL
1070
   384
1040
0.7853981633974483
  0
DIMSTYLE
105
2518
330
A
100
AcDbSymbolTableRecord
100
AcDbDimStyleTableRecord
  2
SYS$6
 70
     0
  4
"
 41
2.0
 42
1.0
 43
10.0
 44
1.0
 47
0.1
 48
0.1
 73
     0
 74
     0
 78
     8
 79
     2
140
3.5
141
0.0
143
0.0393701
146
0.71
147
1.5
172
     1
176
   256
177
   256
178
     2
271
     2
272
     2
283
     0
284
     8
340
11
341
A66
371
    -1
372
    -1
1001
ACAD_DSTYLE_DIMARC_LENGTH_SYMBOL
1070
   379
1070
     1
1001
ACAD_DSTYLE_DIMJOGGED_JOGANGLE_SYMBOL
1070
   384
1040
0.7853981633974483
  0
DIMSTYLE
105
2519
330
A
100
AcDbSymbolTableRecord
100
AcDbDimStyleTableRecord
  2
SYS$7
 70
     0
  4
"
 41
2.0
 42
1.0
 43
10.0
 44
1.0
 47
0.1
 48
0.1
 73
     0
 74
     0
 77
     1
 78
     8
 79
     2
140
5.0
141
0.0
143
0.0393701
146
0.71
147
1.5
172
     1
176
   256
177
   256
178
     2
271
     2
272
     2
283
     0
284
     8
340
11
341
A66
342
A66
371
    -1
372
    -1
1001
ACAD_DSTYLE_DIMARC_LENGTH_SYMBOL
1070
   379
1070
     1
1001
ACAD_DSTYLE_DIMJOGGED_JOGANGLE_SYMBOL
1070
   384
1040
0.7853981633974483
  0
DIMSTYLE
105
251A
330
A
100
AcDbSymbolTableRecord
100
AcDbDimStyleTableRecord
  2
SYS$SF
 70
     0
  4
"
 41
2.5
 42
1.0
 43
10.0
 44
1.0
 47
0.1
 48
0.1
 73
     0
 74
     0
 75
     1
 76
     1
 77
     1
 78
     8
 79
     2
140
3.5
141
0.0
143
0.0393701
146
0.71
147
1.5
172
     1
176
   256
177
   256
178
     2
271
     2
272
     3
283
     0
284
     8
340
11
341
6C4
342
6C4
371
    -1
372
    -1
1001
ACAD_DSTYLE_DIMARC_LENGTH_SYMBOL
1070
   379
1070
     1
1001
ACAD_DSTYLE_DIMJOGGED_JOGANGLE_SYMBOL
1070
   384
1040
0.7853981633974483
  0
DIMSTYLE
105
251B
330
A
100
AcDbSymbolTableRecord
100
AcDbDimStyleTableRecord
  2
SYS$SH
 70
     0
  4
"
 41
2.5
 42
1.0
 43
10.0
 44
1.0
 47
0.1
 48
0.1
 73
     0
 74
     0
 75
     1
 76
     1
 77
     1
 78
     8
 79
     2
140
3.5
141
0.0
143
0.0393701
144
2.0
146
0.71
147
1.5
172
     1
173
     1
176
   256
177
   256
178
     2
271
     2
272
     3
283
     0
284
     8
340
11
341
6C4
343
72
344
6C4
371
    -1
372
    -1
1001
ACAD_DSTYLE_DIMARC_LENGTH_SYMBOL
1070
   379
1070
     1
1001
ACAD_DSTYLE_DIMJOGGED_JOGANGLE_SYMBOL
1070
   384
1040
0.7853981633974483
  0
DIMSTYLE
105
2A59
330
A
100
AcDbSymbolTableRecord
100
AcDbDimStyleTableRecord
  2
SYS$2
 70
     0
  4
"
 41
1.0
 42
1.0
 43
10.0
 44
1.0
 47
0.1
 48
0.1
 73
     0
 74
     0
 77
     1
 78
     8
 79
     2
140
3.5
141
0.0
143
0.0393701
146
0.71
147
1.5
172
     1
176
   256
177
   256
178
     2
271
     2
272
     2
283
     0
284
     8
340
11
342
6C4
371
    -1
372
    -1
1001
ACAD_DSTYLE_DIMARC_LENGTH_SYMBOL
1070
   379
1070
     1
1001
ACAD_DSTYLE_DIMJOGGED_JOGANGLE_SYMBOL
1070
   384
1040
0.7853981633974483
  0
DIMSTYLE
105
2AAB
102
{ACAD_REACTORS
330
B274
330
B276
330
B277
330
B278
330
B279
330
B2FF
330
B304
330
B30E
330
B484
330
B4B3
330
B4D9
330
B508
330
B536
330
B55D
330
B59D
330
B5C3
330
B69A
330
B6C4
102
}
330
A
100
AcDbSymbolTableRecord
100
AcDbDimStyleTableRecord
  2
SYS$0
 70
     0
  4
"
 41
1.0
 42
1.0
 43
10.0
 44
1.0
 47
0.1
 48
0.1
 73
     0
 74
     0
 77
     1
 78
     8
 79
     2
140
3.200000000000001
141
0.0
143
0.0393701
146
0.71
147
1.5
172
     1
176
   256
177
   256
178
     2
271
     2
272
     2
283
     0
284
     8
340
11
341
A66
342
6C4
371
    -1
372
    -1
1001
ACAD_DSTYLE_DIMARC_LENGTH_SYMBOL
1070
   379
1070
     1
1001
ACAD_DSTYLE_DIMJOGGED_JOGANGLE_SYMBOL
1070
   384
1040
0.7853981633974483
  0
DIMSTYLE
105
AF99
330
A
100
AcDbSymbolTableRecord
100
AcDbDimStyleTableRecord
  2
AM_ISO
 70
     0
  4
"
 41
2.5
 42
1.0
 43
10.0
 44
1.0
 47
0.1
 48
0.1
 73
     0
 74
     0
 77
     1
 78
     8
 79
     2
140
3.5
141
0.0
143
0.0393701
146
0.71
147
1.5
172
     1
176
   256
177
   256
178
     2
271
     2
272
     3
274
     4
283
     0
284
     8
340
11
371
    -1
372
    -1
  0
DIMSTYLE
105
AF9A
330
A
100
AcDbSymbolTableRecord
100
AcDbDimStyleTableRecord
  2
AM_ISO$3
 70
     0
  4
"
 41
2.5
 42
1.0
 43
10.0
 44
1.0
 47
0.1
 48
0.1
 73
     0
 77
     1
 78
     8
 79
     2
140
3.5
141
0.0
143
0.0393701
146
0.71
147
1.5
176
   256
177
   256
178
     2
271
     2
272
     3
274
     4
283
     0
284
     8
288
     1
289
     0
340
11
371
    -1
372
    -1
  0
DIMSTYLE
105
AF9B
330
A
100
AcDbSymbolTableRecord
100
AcDbDimStyleTableRecord
  2
AM_ISO$4
 70
     0
  4
"
 41
2.5
 42
1.0
 43
10.0
 44
1.0
 47
0.1
 48
0.1
 73
     0
 77
     1
 78
     8
 79
     2
140
3.5
141
0.0
143
0.0393701
146
0.71
147
1.5
176
   256
177
   256
178
     2
271
     2
272
     3
274
     4
283
     0
284
     8
288
     1
289
     0
340
11
371
    -1
372
    -1
  0
DIMSTYLE
105
AF9C
330
A
100
AcDbSymbolTableRecord
100
AcDbDimStyleTableRecord
  2
AM_ISO$6
 70
     0
  4
"
 41
2.5
 42
1.0
 43
10.0
 44
1.0
 47
0.1
 48
0.1
 73
     0
 74
     0
 78
     8
 79
     2
140
3.5
141
0.0
143
0.0393701
146
0.71
147
1.5
172
     1
176
   256
177
   256
178
     2
271
     2
272
     3
274
     4
283
     0
284
     8
340
11
371
    -1
372
    -1
  0
DIMSTYLE
105
AF9D
330
A
100
AcDbSymbolTableRecord
100
AcDbDimStyleTableRecord
  2
AM_ISO$7
 70
     0
  4
"
 41
2.5
 42
1.0
 43
10.0
 44
1.0
 47
0.1
 48
0.1
 73
     0
 74
     0
 77
     1
 78
     8
 79
     2
140
5.0
141
0.0
143
0.0393701
146
0.71
147
1.5
172
     1
176
   256
177
   256
178
     2
271
     2
272
     3
274
     4
283
     0
284
     8
340
11
371
    -1
372
    -1
  0
DIMSTYLE
105
AF9E
330
A
100
AcDbSymbolTableRecord
100
AcDbDimStyleTableRecord
  2
AM_ISO$SF
 70
     0
  4
"
 41
2.5
 42
1.0
 43
10.0
 44
1.0
 47
0.1
 48
0.1
 73
     0
 74
     0
 75
     1
 76
     1
 77
     1
 78
     8
 79
     2
140
3.5
141
0.0
143
0.0393701
146
0.71
147
1.5
172
     1
176
   256
177
   256
178
     2
271
     2
272
     3
274
     4
283
     0
284
     8
340
11
371
    -1
372
    -1
  0
DIMSTYLE
105
AF9F
330
A
100
AcDbSymbolTableRecord
100
AcDbDimStyleTableRecord
  2
AM_ISO$SH
 70
     0
  4
"
 41
2.5
 42
1.0
 43
10.0
 44
1.0
 47
0.1
 48
0.1
 73
     0
 74
     0
 75
     1
 76
     1
 77
     1
 78
     8
 79
     2
140
3.5
141
0.0
143
0.0393701
144
2.0
146
0.71
147
1.5
172
     1
173
     1
176
   256
177
   256
178
     2
271
     2
272
     3
274
     4
283
     0
284
     8
340
11
343
72
371
    -1
372
    -1
  0
DIMSTYLE
105
B17D
330
A
100
AcDbSymbolTableRecord
100
AcDbDimStyleTableRecord
  2
AM_ANSI
 70
     0
  4
mm
 41
0.1
 42
0.05
 43
0.5
 44
0.1
 47
0.1
 48
0.1
 78
     7
 79
     2
140
0.12
141
0.0
146
0.71
147
0.06
176
   256
177
   256
178
     2
274
     4
284
     7
340
11
371
    -1
372
    -1
1001
ACAD_DSTYLE_DIMARC_LENGTH_SYMBOL
1070
   379
1070
     1
1001
ACAD_DSTYLE_DIMJOGGED_JOGANGLE_SYMBOL
1070
   384
1040
0.7853981633974483
  0
ENDTAB
  0
TABLE
  2
BLOCK_RECORD
  5
1
330
0
100
AcDbSymbolTable
 70
    25
  0
BLOCK_RECORD
  5
1F
102
{ACAD_XDICTIONARY
360
8A
102
}
330
1
100
AcDbSymbolTableRecord
100
AcDbBlockTableRecord
  2
*Model_Space
340
22
  0
BLOCK_RECORD
  5
1B
330
1
100
AcDbSymbolTableRecord
100
AcDbBlockTableRecord
  2
*Paper_Space
340
1E
  0
BLOCK_RECORD
  5
23
330
1
100
AcDbSymbolTableRecord
100
AcDbBlockTableRecord
  2
*Paper_Space0
340
26
  0
BLOCK_RECORD
  5
72
330
1
100
AcDbSymbolTableRecord
100
AcDbBlockTableRecord
  2
GENAXEH
340
0
  0
BLOCK_RECORD
  5
6C4
330
1
100
AcDbSymbolTableRecord
100
AcDbBlockTableRecord
  2
_Dot
340
0
102
{BLKREFS
331
B3B9
331
B3C1
331
B3E3
331
B3E4
331
B605
331
B606
331
B615
331
B616
331
B61E
331
B61F
331
B627
331
B628
331
B630
331
B631
331
B64B
331
B64C
331
B656
331
B657
331
B65F
331
B660
331
B66A
331
B66B
331
B673
331
B674
331
B67C
331
B67D
331
B6B0
331
B6B1
331
B6D6
331
B6D7
331
B7EC
331
B7ED
331
B7F6
331
B7F7
102
}
  0
BLOCK_RECORD
  5
A66
330
1
100
AcDbSymbolTableRecord
100
AcDbBlockTableRecord
  2
_OPEN30
340
0
102
{BLKREFS
331
B3B8
331
B3C0
331
B60E
331
B88D
102
}
  0
BLOCK_RECORD
  5
B30F
330
1
100
AcDbSymbolTableRecord
100
AcDbBlockTableRecord
  2
*D4
340
0
  0
BLOCK_RECORD
  5
B319
330
1
100
AcDbSymbolTableRecord
100
AcDbBlockTableRecord
  2
*D5
340
0
  0
BLOCK_RECORD
  5
B321
330
1
100
AcDbSymbolTableRecord
100
AcDbBlockTableRecord
  2
*D6
340
0
  0
BLOCK_RECORD
  5
B32B
330
1
100
AcDbSymbolTableRecord
100
AcDbBlockTableRecord
  2
*D7
340
0
  0
BLOCK_RECORD
  5
B335
330
1
100
AcDbSymbolTableRecord
100
AcDbBlockTableRecord
  2
*D8
340
0
  0
BLOCK_RECORD
  5
B33F
330
1
100
AcDbSymbolTableRecord
100
AcDbBlockTableRecord
  2
*D9
340
0
  0
BLOCK_RECORD
  5
B349
330
1
100
AcDbSymbolTableRecord
100
AcDbBlockTableRecord
  2
*D10
340
0
  0
BLOCK_RECORD
  5
B352
330
1
100
AcDbSymbolTableRecord
100
AcDbBlockTableRecord
  2
*D11
340
0
  0
BLOCK_RECORD
  5
B371
330
1
100
AcDbSymbolTableRecord
100
AcDbBlockTableRecord
  2
*D12
340
0
  0
BLOCK_RECORD
  5
B378
330
1
100
AcDbSymbolTableRecord
100
AcDbBlockTableRecord
  2
*D13
340
0
  0
BLOCK_RECORD
  5
B485
330
1
100
AcDbSymbolTableRecord
100
AcDbBlockTableRecord
  2
*D14
340
0
  0
BLOCK_RECORD
  5
B4B4
330
1
100
AcDbSymbolTableRecord
100
AcDbBlockTableRecord
  2
*D15
340
0
  0
BLOCK_RECORD
  5
B4DA
330
1
100
AcDbSymbolTableRecord
100
AcDbBlockTableRecord
  2
*D16
340
0
  0
BLOCK_RECORD
  5
B509
330
1
100
AcDbSymbolTableRecord
100
AcDbBlockTableRecord
  2
*D17
340
0
  0
BLOCK_RECORD
  5
B537
330
1
100
AcDbSymbolTableRecord
100
AcDbBlockTableRecord
  2
*D18
340
0
  0
BLOCK_RECORD
  5
B55E
330
1
100
AcDbSymbolTableRecord
100
AcDbBlockTableRecord
  2
*D19
340
0
  0
BLOCK_RECORD
  5
B59E
330
1
100
AcDbSymbolTableRecord
100
AcDbBlockTableRecord
  2
*D20
340
0
  0
BLOCK_RECORD
  5
B5C4
330
1
100
AcDbSymbolTableRecord
100
AcDbBlockTableRecord
  2
*D21
340
0
  0
BLOCK_RECORD
  5
B69B
330
1
100
AcDbSymbolTableRecord
100
AcDbBlockTableRecord
  2
*D22
340
0
  0
BLOCK_RECORD
  5
B6C5
330
1
100
AcDbSymbolTableRecord
100
AcDbBlockTableRecord
  2
*D23
340
0
  0
ENDTAB
  0
ENDSEC
  0
SECTION
  2
BLOCKS
  0
BLOCK
  5
20
330
1F
100
AcDbEntity
  8
0
100
AcDbBlockBegin
  2
*Model_Space
 70
     0
 10
0.0
 20
0.0
 30
0.0
  3
*Model_Space
  1

  0
ENDBLK
  5
21
330
1F
100
AcDbEntity
  8
0
100
AcDbBlockEnd
  0
BLOCK
  5
1C
330
1B
100
AcDbEntity
 67
     1
  8
0
100
AcDbBlockBegin
  2
*Paper_Space
 70
     0
 10
0.0
 20
0.0
 30
0.0
  3
*Paper_Space
  1

  0
ENDBLK
  5
1D
330
1B
100
AcDbEntity
 67
     1
  8
0
100
AcDbBlockEnd
  0
BLOCK
  5
24
330
23
100
AcDbEntity
 67
     1
  8
0
100
AcDbBlockBegin
  2
*Paper_Space0
 70
     0
 10
0.0
 20
0.0
 30
0.0
  3
*Paper_Space0
  1

  0
ENDBLK
  5
25
330
23
100
AcDbEntity
 67
     1
  8
0
100
AcDbBlockEnd
  0
BLOCK
  5
74
330
72
100
AcDbEntity
  8
0
100
AcDbBlockBegin
  2
GENAXEH
 70
     0
 10
0.0
 20
0.0
 30
0.0
  3
GENAXEH
  1

  0
LINE
  5
73
330
72
100
AcDbEntity
  8
0
100
AcDbLine
 10
-1.0
 20
0.0
 30
0.0
 11
1.0
 21
0.0
 31
0.0
  0
ENDBLK
  5
75
330
72
100
AcDbEntity
  8
0
100
AcDbBlockEnd
  0
BLOCK
  5
6C7
330
6C4
100
AcDbEntity
  8
0
100
AcDbBlockBegin
  2
_Dot
 70
     0
 10
0.0
 20
0.0
 30
0.0
  3
_Dot
  1

  0
LWPOLYLINE
  5
6C5
330
6C4
100
AcDbEntity
  8
0
  6
ByBlock
 62
     0
100
AcDbPolyline
 90
        2
 70
     1
 43
0.5
 10
-0.25
 20
0.0
 42
1.0
 10
0.25
 20
0.0
 42
1.0
  0
LINE
  5
6C6
330
6C4
100
AcDbEntity
  8
0
  6
ByBlock
 62
     0
370
    -2
100
AcDbLine
 10
-0.5
 20
0.0
 30
0.0
 11
-1.0
 21
0.0
 31
0.0
  0
ENDBLK
  5
6C8
330
6C4
100
AcDbEntity
  8
0
100
AcDbBlockEnd
  0
BLOCK
  5
A6A
330
A66
100
AcDbEntity
  8
0
100
AcDbBlockBegin
  2
_OPEN30
 70
     0
 10
0.0
 20
0.0
 30
0.0
  3
_OPEN30
  1

  0
LINE
  5
A67
330
A66
100
AcDbEntity
  8
0
  6
ByBlock
 62
     0
100
AcDbLine
 10
-1.0
 20
0.26794919
 30
0.0
 11
0.0
 21
0.0
 31
0.0
  0
LINE
  5
A68
330
A66
100
AcDbEntity
  8
0
  6
ByBlock
 62
     0
100
AcDbLine
 10
0.0
 20
0.0
 30
0.0
 11
-1.0
 21
-0.26794919
 31
0.0
  0
LINE
  5
A69
330
A66
100
AcDbEntity
  8
0
  6
ByBlock
 62
     0
100
AcDbLine
 10
0.0
 20
0.0
 30
0.0
 11
-1.0
 21
0.0
 31
0.0
  0
ENDBLK
  5
A6B
330
A66
100
AcDbEntity
  8
0
100
AcDbBlockEnd
  0
BLOCK
  5
B3E9
330
B30F
100
AcDbEntity
  8
0
100
AcDbBlockBegin
  2
*D4
 70
     1
 10
0.0
 20
0.0
 30
0.0
  3
*D4
  1

  0
LINE
  5
B602
330
B30F
100
AcDbEntity
  8
AM_5
 48
1.01
100
AcDbLine
 10
346.3439295331363
 20
165.3061892076457
 30
0.0
 11
368.5132572802896
 21
165.3061892076457
 31
0.0
  0
LINE
  5
B603
330
B30F
100
AcDbEntity
  8
AM_5
 48
1.01
100
AcDbLine
 10
346.3439295330627
 20
103.3070422553774
 30
0.0
 11
368.5132572802895
 21
103.3070422553773
 31
0.0
  0
LINE
  5
B604
330
B30F
100
AcDbEntity
  8
AM_5
 48
1.01
100
AcDbLine
 10
367.5132572802896
 20
164.3061892076457
 30
0.0
 11
367.5132572802895
 21
104.3070422553773
 31
0.0
  0
INSERT
  5
B605
330
B30F
100
AcDbEntity
  8
AM_5
 48
1.01
100
AcDbBlockReference
  2
_Dot
 10
367.5132572802896
 20
165.3061892076457
 30
0.0
 50
90.0
  0
INSERT
  5
B606
330
B30F
100
AcDbEntity
  8
AM_5
 48
1.01
100
AcDbBlockReference
  2
_Dot
 10
367.5132572802895
 20
103.3070422553773
 30
0.0
 50
270.0
  0
MTEXT
  5
B607
330
B30F
100
AcDbEntity
  8
AM_5
 62
     2
 48
1.01
100
AcDbMText
 10
364.4132572802896
 20
134.3066157315116
 30
0.0
 40
3.200000000000001
 41
0.0
 71
     5
 72
     1
  1
62
 11
0.0000000000000001
 21
1.0
 31
0.0
 73
     1
 44
1.0
1001
ACAD
1000
MTEXTBEGIN
1070
    73
1070
     1
1070
    44
1040
1.0
1070
    74
1070
     0
1000
MTEXTEND
  0
POINT
  5
B608
330
B30F
100
AcDbEntity
  8
Defpoints
 62
     0
 48
1.01
100
AcDbPoint
 10
345.3439295331364
 20
165.3061892076457
 30
0.0
  0
POINT
  5
B609
330
B30F
100
AcDbEntity
  8
Defpoints
 62
     0
 48
1.01
100
AcDbPoint
 10
345.3439295330627
 20
103.3070422553774
 30
0.0
  0
POINT
  5
B60A
330
B30F
100
AcDbEntity
  8
Defpoints
 62
     0
 48
1.01
100
AcDbPoint
 10
367.5132572802895
 20
103.3070422553773
 30
0.0
  0
ENDBLK
  5
B3EA
330
B30F
100
AcDbEntity
  8
0
100
AcDbBlockEnd
  0
BLOCK
  5
B3EB
330
B319
100
AcDbEntity
  8
0
100
AcDbBlockBegin
  2
*D5
 70
     1
 10
0.0
 20
0.0
 30
0.0
  3
*D5
  1

  0
LINE
  5
B60B
330
B319
100
AcDbEntity
  8
AM_5
 48
1.01
100
AcDbLine
 10
312.7255561358385
 20
117.8374021238397
 30
0.0
 11
309.6528385139641
 21
122.3011523627681
 31
0.0
  0
LINE
  5
B60C
330
B319
100
AcDbEntity
  8
AM_5
 48
1.01
100
AcDbLine
 10
309.6528385139641
 20
122.3011523627681
 30
0.0
 11
300.6861718472974
 21
122.3011523627681
 31
0.0
  0
LINE
  5
B60D
330
B319
100
AcDbEntity
  8
AM_5
 48
1.01
100
AcDbLine
 10
315.8439295330567
 20
113.3073275417146
 30
0.0
 11
313.8595882956928
 21
116.1899886783391
 31
0.0
  0
INSERT
  5
B60E
330
B319
100
AcDbEntity
  8
AM_5
 48
1.01
100
AcDbBlockReference
  2
_OPEN30
 10
313.8595882956928
 20
116.1899886783391
 30
0.0
 41
2.0
 42
2.0
 43
2.0
 50
304.5424089461531
  0
MTEXT
  5
B60F
330
B319
100
AcDbEntity
  8
AM_5
 62
     2
 48
1.01
100
AcDbMText
 10
304.4195051806308
 20
125.5511523627682
 30
0.0
 40
3.5
 41
0.0
 71
     5
 72
     1
  1
R3.5
 73
     1
 44
1.0
1001
ACAD
1000
MTEXTBEGIN
1070
    73
1070
     1
1070
    44
1040
1.0
1070
    74
1070
     0
1000
MTEXTEND
  0
POINT
  5
B610
330
B319
100
AcDbEntity
  8
Defpoints
 62
     0
 48
1.01
100
AcDbPoint
 10
313.8595882956928
 20
116.1899886783391
 30
0.0
  0
POINT
  5
B611
330
B319
100
AcDbEntity
  8
Defpoints
 62
     0
 48
1.01
100
AcDbPoint
 10
315.8439295330567
 20
113.3073275417146
 30
0.0
  0
ENDBLK
  5
B3EC
330
B319
100
AcDbEntity
  8
0
100
AcDbBlockEnd
  0
BLOCK
  5
B3ED
330
B321
100
AcDbEntity
  8
0
100
AcDbBlockBegin
  2
*D6
 70
     1
 10
0.0
 20
0.0
 30
0.0
  3
*D6
  1

  0
LINE
  5
B612
330
B321
100
AcDbEntity
  8
AM_5
 48
1.01
100
AcDbLine
 10
308.3443087857486
 20
113.3073275416945
 30
0.0
 11
298.2664755897167
 21
113.3073275416945
 31
0.0
  0
LINE
  5
B613
330
B321
100
AcDbEntity
  8
AM_5
 48
1.01
100
AcDbLine
 10
311.8443087857495
 20
103.307327543177
 30
0.0
 11
298.2664755897167
 21
103.307327543177
 31
0.0
  0
LINE
  5
B614
330
B321
100
AcDbEntity
  8
AM_5
 48
1.01
100
AcDbLine
 10
299.2664755897166
 20
112.3073275416945
 30
0.0
 11
299.2664755897166
 21
104.307327543177
 31
0.0
  0
INSERT
  5
B615
330
B321
100
AcDbEntity
  8
AM_5
 48
1.01
100
AcDbBlockReference
  2
_Dot
 10
299.2664755897166
 20
113.3073275416945
 30
0.0
 50
90.0
  0
INSERT
  5
B616
330
B321
100
AcDbEntity
  8
AM_5
 48
1.01
100
AcDbBlockReference
  2
_Dot
 10
299.2664755897166
 20
103.307327543177
 30
0.0
 50
270.0
  0
MTEXT
  5
B617
330
B321
100
AcDbEntity
  8
AM_5
 62
     2
 48
1.01
100
AcDbMText
 10
296.1664755897167
 20
108.3073275424359
 30
0.0
 40
3.200000000000001
 41
0.0
 71
     5
 72
     1
  1
10
 11
0.0000000000000001
 21
1.0
 31
0.0
 73
     1
 44
1.0
1001
ACAD
1000
MTEXTBEGIN
1070
    73
1070
     1
1070
    44
1040
1.0
1070
    74
1070
     0
1000
MTEXTEND
  0
POINT
  5
B618
330
B321
100
AcDbEntity
  8
Defpoints
 62
     0
 48
1.01
100
AcDbPoint
 10
309.3443087857486
 20
113.3073275416945
 30
0.0
  0
POINT
  5
B619
330
B321
100
AcDbEntity
  8
Defpoints
 62
     0
 48
1.01
100
AcDbPoint
 10
312.8443087857495
 20
103.307327543177
 30
0.0
  0
POINT
  5
B61A
330
B321
100
AcDbEntity
  8
Defpoints
 62
     0
 48
1.01
100
AcDbPoint
 10
299.2664755897166
 20
103.307327543177
 30
0.0
  0
ENDBLK
  5
B3EE
330
B321
100
AcDbEntity
  8
0
100
AcDbBlockEnd
  0
BLOCK
  5
B3EF
330
B32B
100
AcDbEntity
  8
0
100
AcDbBlockBegin
  2
*D7
 70
     1
 10
0.0
 20
0.0
 30
0.0
  3
*D7
  1

  0
LINE
  5
B61B
330
B32B
100
AcDbEntity
  8
AM_5
 48
1.01
100
AcDbLine
 10
319.3435502803732
 20
114.3073275416945
 30
0.0
 11
319.3435502803732
 21
126.3073275416946
 31
0.0
  0
LINE
  5
B61C
330
B32B
100
AcDbEntity
  8
AM_5
 48
1.01
100
AcDbLine
 10
312.3443087857487
 20
114.3073275416945
 30
0.0
 11
312.3443087857487
 21
126.3073275416946
 31
0.0
  0
LINE
  5
B61D
330
B32B
100
AcDbEntity
  8
AM_5
 48
1.01
100
AcDbLine
 10
318.3435502803732
 20
125.3073275416946
 30
0.0
 11
313.3443087857486
 21
125.3073275416946
 31
0.0
  0
INSERT
  5
B61E
330
B32B
100
AcDbEntity
  8
AM_5
 48
1.01
100
AcDbBlockReference
  2
_Dot
 10
319.3435502803732
 20
125.3073275416946
 30
0.0
  0
INSERT
  5
B61F
330
B32B
100
AcDbEntity
  8
AM_5
 48
1.01
100
AcDbBlockReference
  2
_Dot
 10
312.3443087857487
 20
125.3073275416946
 30
0.0
 50
180.0
  0
MTEXT
  5
B620
330
B32B
100
AcDbEntity
  8
AM_5
 62
     2
 48
1.01
100
AcDbMText
 10
315.8439295330609
 20
128.4073275416945
 30
0.0
 40
3.200000000000001
 41
0.0
 71
     5
 72
     1
  1
7
 73
     1
 44
1.0
1001
ACAD
1000
MTEXTBEGIN
1070
    73
1070
     1
1070
    44
1040
1.0
1070
    74
1070
     0
1000
MTEXTEND
  0
POINT
  5
B621
330
B32B
100
AcDbEntity
  8
Defpoints
 62
     0
 48
1.01
100
AcDbPoint
 10
319.3435502803732
 20
113.3073275416945
 30
0.0
  0
POINT
  5
B622
330
B32B
100
AcDbEntity
  8
Defpoints
 62
     0
 48
1.01
100
AcDbPoint
 10
312.3443087857487
 20
113.3073275416945
 30
0.0
  0
POINT
  5
B623
330
B32B
100
AcDbEntity
  8
Defpoints
 62
     0
 48
1.01
100
AcDbPoint
 10
312.3443087857487
 20
125.3073275416946
 30
0.0
  0
ENDBLK
  5
B3F0
330
B32B
100
AcDbEntity
  8
0
100
AcDbBlockEnd
  0
BLOCK
  5
B3F1
330
B335
100
AcDbEntity
  8
0
100
AcDbBlockBegin
  2
*D8
 70
     1
 10
0.0
 20
0.0
 30
0.0
  3
*D8
  1

  0
LINE
  5
B624
330
B335
100
AcDbEntity
  8
AM_5
100
AcDbLine
 10
345.8439295330955
 20
102.8070422553774
 30
0.0
 11
345.8439295330955
 21
65.16889363589871
 31
0.0
  0
LINE
  5
B625
330
B335
100
AcDbEntity
  8
AM_5
100
AcDbLine
 10
312.3443087857487
 20
102.8073275431779
 30
0.0
 11
312.3443087857487
 21
65.16889363589871
 31
0.0
  0
LINE
  5
B626
330
B335
100
AcDbEntity
  8
AM_5
100
AcDbLine
 10
344.8439295330954
 20
66.16889363589871
 30
0.0
 11
313.3443087857486
 21
66.16889363589871
 31
0.0
  0
INSERT
  5
B627
330
B335
100
AcDbEntity
  8
AM_5
100
AcDbBlockReference
  2
_Dot
 10
345.8439295330955
 20
66.16889363589871
 30
0.0
  0
INSERT
  5
B628
330
B335
100
AcDbEntity
  8
AM_5
100
AcDbBlockReference
  2
_Dot
 10
312.3443087857487
 20
66.16889363589871
 30
0.0
 50
180.0
  0
MTEXT
  5
B629
330
B335
100
AcDbEntity
  8
AM_5
 62
     2
100
AcDbMText
 10
329.094119159422
 20
69.26889363589872
 30
0.0
 40
3.200000000000001
 41
0.0
 71
     5
 72
     1
  1
33.5
 73
     1
 44
1.0
1001
ACAD
1000
MTEXTBEGIN
1070
    73
1070
     1
1070
    44
1040
1.0
1070
    74
1070
     0
1000
MTEXTEND
  0
POINT
  5
B62A
330
B335
100
AcDbEntity
  8
Defpoints
 62
     0
100
AcDbPoint
 10
345.8439295330955
 20
103.8070422553774
 30
0.0
  0
POINT
  5
B62B
330
B335
100
AcDbEntity
  8
Defpoints
 62
     0
100
AcDbPoint
 10
312.3443087857487
 20
103.8073275431779
 30
0.0
  0
POINT
  5
B62C
330
B335
100
AcDbEntity
  8
Defpoints
 62
     0
100
AcDbPoint
 10
312.3443087857487
 20
66.16889363589871
 30
0.0
  0
ENDBLK
  5
B3F2
330
B335
100
AcDbEntity
  8
0
100
AcDbBlockEnd
  0
BLOCK
  5
B3F3
330
B33F
100
AcDbEntity
  8
0
100
AcDbBlockBegin
  2
*D9
 70
     1
 10
0.0
 20
0.0
 30
0.0
  3
*D9
  1

  0
LINE
  5
B62D
330
B33F
100
AcDbEntity
  8
AM_5
100
AcDbLine
 10
345.8439295331373
 20
165.8061892076448
 30
0.0
 11
345.8439295331373
 21
175.8710402698716
 31
0.0
  0
LINE
  5
B62E
330
B33F
100
AcDbEntity
  8
AM_5
100
AcDbLine
 10
337.8439295331364
 20
165.8061892076548
 30
0.0
 11
337.8439295331364
 21
175.8710402698716
 31
0.0
  0
LINE
  5
B62F
330
B33F
100
AcDbEntity
  8
AM_5
100
AcDbLine
 10
344.8439295331373
 20
174.8710402698716
 30
0.0
 11
338.8439295331364
 21
174.8710402698716
 31
0.0
  0
INSERT
  5
B630
330
B33F
100
AcDbEntity
  8
AM_5
100
AcDbBlockReference
  2
_Dot
 10
345.8439295331373
 20
174.8710402698716
 30
0.0
  0
INSERT
  5
B631
330
B33F
100
AcDbEntity
  8
AM_5
100
AcDbBlockReference
  2
_Dot
 10
337.8439295331364
 20
174.8710402698716
 30
0.0
 50
180.0
  0
MTEXT
  5
B632
330
B33F
100
AcDbEntity
  8
AM_5
 62
     2
100
AcDbMText
 10
341.8439295331368
 20
177.9710402698716
 30
0.0
 40
3.200000000000001
 41
0.0
 71
     5
 72
     1
  1
8
 73
     1
 44
1.0
1001
ACAD
1000
MTEXTBEGIN
1070
    73
1070
     1
1070
    44
1040
1.0
1070
    74
1070
     0
1000
MTEXTEND
  0
POINT
  5
B633
330
B33F
100
AcDbEntity
  8
Defpoints
 62
     0
100
AcDbPoint
 10
345.8439295331373
 20
164.8061892076448
 30
0.0
  0
POINT
  5
B634
330
B33F
100
AcDbEntity
  8
Defpoints
 62
     0
100
AcDbPoint
 10
337.8439295331364
 20
164.8061892076548
 30
0.0
  0
POINT
  5
B635
330
B33F
100
AcDbEntity
  8
Defpoints
 62
     0
100
AcDbPoint
 10
337.8439295331364
 20
174.8710402698716
 30
0.0
  0
ENDBLK
  5
B3F4
330
B33F
100
AcDbEntity
  8
0
100
AcDbBlockEnd
  0
BLOCK
  5
B3F5
330
B349
100
AcDbEntity
  8
0
100
AcDbBlockBegin
  2
*D10
 70
     1
 10
0.0
 20
0.0
 30
0.0
  3
*D10
  1

  0
LINE
  5
B3B6
330
B349
100
AcDbEntity
  8
AM_5
 48
1.01
100
AcDbLine
 10
263.8474096618984
 20
98.80732754320431
 30
0.0
 11
263.8474096618984
 21
66.13721945476754
 31
0.0
  0
LINE
  5
B3B7
330
B349
100
AcDbEntity
  8
AM_5
 48
1.01
100
AcDbLine
 10
83.69254454093425
 20
67.13721945476755
 30
0.0
 11
262.8474096618985
 21
67.13721945476755
 31
0.0
  0
INSERT
  5
B3B8
330
B349
100
AcDbEntity
  8
AM_5
 48
1.01
100
AcDbBlockReference
  2
_OPEN30
 10
82.69254454093426
 20
67.13721945476755
 30
0.0
 50
180.0
  0
INSERT
  5
B3B9
330
B349
100
AcDbEntity
  8
AM_5
 48
1.01
100
AcDbBlockReference
  2
_Dot
 10
263.8474096618984
 20
67.13721945476755
 30
0.0
  0
MTEXT
  5
B3BA
330
B349
100
AcDbEntity
  8
AM_5
 62
     2
 48
1.01
100
AcDbMText
 10
173.2699771014163
 20
71.07531469286278
 30
0.0
 40
3.200000000000001
 41
0.0
 71
     5
 72
     1
  1
レールL=2200/2800
 73
     1
 44
1.0
1001
ACAD
1000
MTEXTBEGIN
1070
    73
1070
     1
1070
    44
1040
1.0
1070
    74
1070
     0
1000
MTEXTEND
  0
POINT
  5
B3BB
330
B349
100
AcDbEntity
  8
Defpoints
 62
     0
 48
1.01
100
AcDbPoint
 10
82.69254454093426
 20
94.80732754320795
 30
0.0
  0
POINT
  5
B3BC
330
B349
100
AcDbEntity
  8
Defpoints
 62
     0
 48
1.01
100
AcDbPoint
 10
263.8474096618984
 20
99.80732754320436
 30
0.0
  0
POINT
  5
B3BD
330
B349
100
AcDbEntity
  8
Defpoints
 62
     0
 48
1.01
100
AcDbPoint
 10
263.8474096618984
 20
67.13721945476755
 30
0.0
  0
ENDBLK
  5
B3F6
330
B349
100
AcDbEntity
  8
0
100
AcDbBlockEnd
  0
BLOCK
  5
B3F7
330
B352
100
AcDbEntity
  8
0
100
AcDbBlockBegin
  2
*D11
 70
     1
 10
0.0
 20
0.0
 30
0.0
  3
*D11
  1

  0
LINE
  5
B3BE
330
B352
100
AcDbEntity
  8
AM_5
100
AcDbLine
 10
213.8474096618993
 20
124.7576610704636
 30
0.0
 11
213.8474096618993
 21
77.78503713127429
 31
0.0
  0
LINE
  5
B3BF
330
B352
100
AcDbEntity
  8
AM_5
100
AcDbLine
 10
83.69254454093425
 20
78.78503713127429
 30
0.0
 11
212.8474096618993
 21
78.78503713127429
 31
0.0
  0
INSERT
  5
B3C0
330
B352
100
AcDbEntity
  8
AM_5
100
AcDbBlockReference
  2
_OPEN30
 10
82.69254454093426
 20
78.78503713127429
 30
0.0
 50
180.0
  0
INSERT
  5
B3C1
330
B352
100
AcDbEntity
  8
AM_5
100
AcDbBlockReference
  2
_Dot
 10
213.8474096618993
 20
78.78503713127429
 30
0.0
  0
MTEXT
  5
B3C2
330
B352
100
AcDbEntity
  8
AM_5
 62
     2
100
AcDbMText
 10
148.2699771014168
 20
84.55170379794095
 30
0.0
 40
3.200000000000001
 41
0.0
 71
     5
 72
     1
  1
P=300×7 （L=2200）\PP=300×9 （L=2800）　
 73
     1
 44
1.0
1001
ACAD
1000
MTEXTBEGIN
1070
    73
1070
     1
1070
    44
1040
1.0
1070
    74
1070
     0
1000
MTEXTEND
  0
POINT
  5
B3C3
330
B352
100
AcDbEntity
  8
Defpoints
 62
     0
100
AcDbPoint
 10
82.69254454093426
 20
94.80732754320795
 30
0.0
  0
POINT
  5
B3C4
330
B352
100
AcDbEntity
  8
Defpoints
 62
     0
100
AcDbPoint
 10
213.8474096618993
 20
125.7576610704636
 30
0.0
  0
POINT
  5
B3C5
330
B352
100
AcDbEntity
  8
Defpoints
 62
     0
100
AcDbPoint
 10
213.8474096618993
 20
78.78503713127429
 30
0.0
  0
ENDBLK
  5
B3F8
330
B352
100
AcDbEntity
  8
0
100
AcDbBlockEnd
  0
BLOCK
  5
B3FD
330
B371
100
AcDbEntity
  8
0
100
AcDbBlockBegin
  2
*D12
 70
     1
 10
0.0
 20
0.0
 30
0.0
  3
*D12
  1

  0
LINE
  5
B88A
330
B371
100
AcDbEntity
  8
AM_5
100
AcDbLine
 10
126.4122209387526
 20
175.8440945995817
 30
0.0
 11
166.9488876054622
 21
175.8440945995817
 31
0.0
  0
LINE
  5
B88B
330
B371
100
AcDbEntity
  8
AM_5
100
AcDbLine
 10
166.9488876054622
 20
175.8440945995817
 30
0.0
 11
208.092308982917
 21
137.0641956943133
 31
0.0
  0
MTEXT
  5
B88C
330
B371
100
AcDbEntity
  8
AM_5
 62
     2
100
AcDbMText
 10
145.1372209387526
 20
179.0940945995817
 30
0.0
 40
3.5
 41
0.0
 71
     5
 72
     1
  1
N+1-\U+22055.5×10スロット
 73
     1
 44
1.0
1001
ACAD
1000
MTEXTBEGIN
1070
    73
1070
     1
1070
    44
1040
1.0
1070
    74
1070
     0
1000
MTEXTEND
  0
INSERT
  5
B88D
330
B371
100
AcDbEntity
  8
AM_5
100
AcDbBlockReference
  2
_OPEN30
 10
209.5477079477686
 20
135.6924034895283
 30
0.0
 41
2.0
 42
2.0
 43
2.0
 50
316.693878665516
  0
POINT
  5
B88E
330
B371
100
AcDbEntity
  8
Defpoints
 62
     0
100
AcDbPoint
 10
209.5477079477686
 20
135.6924034895283
 30
0.0
  0
POINT
  5
B88F
330
B371
100
AcDbEntity
  8
Defpoints
 62
     0
100
AcDbPoint
 10
213.5500551011082
 20
131.9199749263717
 30
0.0
  0
ENDBLK
  5
B3FE
330
B371
100
AcDbEntity
  8
0
100
AcDbBlockEnd
  0
BLOCK
  5
B3FF
330
B378
100
AcDbEntity
  8
0
100
AcDbBlockBegin
  2
*D13
 70
     1
 10
0.0
 20
0.0
 30
0.0
  3
*D13
  1

  0
LINE
  5
B3E0
330
B378
100
AcDbEntity
  8
AM_5
100
AcDbLine
 10
263.8474096618993
 20
98.80732754320431
 30
0.0
 11
263.8474096618993
 21
77.78503713057216
 31
0.0
  0
LINE
  5
B3E1
330
B378
100
AcDbEntity
  8
AM_5
100
AcDbLine
 10
213.8474096618993
 20
124.7576610704636
 30
0.0
 11
213.8474096618993
 21
77.78503713057216
 31
0.0
  0
LINE
  5
B3E2
330
B378
100
AcDbEntity
  8
AM_5
100
AcDbLine
 10
262.8474096618993
 20
78.78503713057217
 30
0.0
 11
214.8474096618993
 21
78.78503713057217
 31
0.0
  0
INSERT
  5
B3E3
330
B378
100
AcDbEntity
  8
AM_5
100
AcDbBlockReference
  2
_Dot
 10
263.8474096618993
 20
78.78503713057217
 30
0.0
  0
INSERT
  5
B3E4
330
B378
100
AcDbEntity
  8
AM_5
100
AcDbBlockReference
  2
_Dot
 10
213.8474096618993
 20
78.78503713057217
 30
0.0
 50
180.0
  0
MTEXT
  5
B3E5
330
B378
100
AcDbEntity
  8
AM_5
 62
     2
100
AcDbMText
 10
238.8474096618993
 20
81.88503713057215
 30
0.0
 40
3.200000000000001
 41
0.0
 71
     5
 72
     1
  1
50
 73
     1
 44
1.0
1001
ACAD
1000
MTEXTBEGIN
1070
    73
1070
     1
1070
    44
1040
1.0
1070
    74
1070
     0
1000
MTEXTEND
  0
POINT
  5
B3E6
330
B378
100
AcDbEntity
  8
Defpoints
 62
     0
100
AcDbPoint
 10
263.8474096618993
 20
99.80732754320436
 30
0.0
  0
POINT
  5
B3E7
330
B378
100
AcDbEntity
  8
Defpoints
 62
     0
100
AcDbPoint
 10
213.8474096618993
 20
125.7576610704636
 30
0.0
  0
POINT
  5
B3E8
330
B378
100
AcDbEntity
  8
Defpoints
 62
     0
100
AcDbPoint
 10
213.8474096618993
 20
78.78503713057217
 30
0.0
  0
ENDBLK
  5
B400
330
B378
100
AcDbEntity
  8
0
100
AcDbBlockEnd
  0
BLOCK
  5
B48F
330
B485
100
AcDbEntity
  8
0
100
AcDbBlockBegin
  2
*D14
 70
     1
 10
0.0
 20
0.0
 30
0.0
  3
*D14
  1

  0
LINE
  5
B7F3
330
B485
100
AcDbEntity
  8
AM_5
100
AcDbLine
 10
312.3443087857487
 20
102.807327543178
 30
0.0
 11
312.3443087857487
 21
75.16889363589925
 31
0.0
  0
LINE
  5
B7F4
330
B485
100
AcDbEntity
  8
AM_5
100
AcDbLine
 10
327.7962286704787
 20
94.75139168221355
 30
0.0
 11
327.7962286704787
 21
75.16889363589925
 31
0.0
  0
LINE
  5
B7F5
330
B485
100
AcDbEntity
  8
AM_5
100
AcDbLine
 10
313.3443087857486
 20
76.16889363589925
 30
0.0
 11
326.7962286704787
 21
76.16889363589925
 31
0.0
  0
INSERT
  5
B7F6
330
B485
100
AcDbEntity
  8
AM_5
100
AcDbBlockReference
  2
_Dot
 10
312.3443087857487
 20
76.16889363589925
 30
0.0
 50
180.0
  0
INSERT
  5
B7F7
330
B485
100
AcDbEntity
  8
AM_5
100
AcDbBlockReference
  2
_Dot
 10
327.7962286704787
 20
76.16889363589925
 30
0.0
  0
MTEXT
  5
B7F8
330
B485
100
AcDbEntity
  8
AM_5
 62
     2
100
AcDbMText
 10
320.0702687281137
 20
79.26889363589925
 30
0.0
 40
3.200000000000001
 41
0.0
 71
     5
 72
     1
  1
15.5
 73
     1
 44
1.0
1001
ACAD
1000
MTEXTBEGIN
1070
    73
1070
     1
1070
    44
1040
1.0
1070
    74
1070
     0
1000
MTEXTEND
  0
POINT
  5
B7F9
330
B485
100
AcDbEntity
  8
Defpoints
 62
     0
100
AcDbPoint
 10
312.3443087857487
 20
103.807327543178
 30
0.0
  0
POINT
  5
B7FA
330
B485
100
AcDbEntity
  8
Defpoints
 62
     0
100
AcDbPoint
 10
327.7962286704787
 20
95.75139168221355
 30
0.0
  0
POINT
  5
B7FB
330
B485
100
AcDbEntity
  8
Defpoints
 62
     0
100
AcDbPoint
 10
327.7962286704787
 20
76.16889363589925
 30
0.0
  0
ENDBLK
  5
B490
330
B485
100
AcDbEntity
  8
0
100
AcDbBlockEnd
  0
BLOCK
  5
B4BE
330
B4B4
100
AcDbEntity
  8
0
100
AcDbBlockBegin
  2
*D15
 70
     1
 10
0.0
 20
0.0
 30
0.0
  3
*D15
  1

  0
LINE
  5
B7E9
330
B4B4
100
AcDbEntity
  8
AM_5
100
AcDbLine
 10
327.7962286704787
 20
94.75139168221359
 30
0.0
 11
327.7962286704787
 21
75.16889363589929
 31
0.0
  0
LINE
  5
B7EA
330
B4B4
100
AcDbEntity
  8
AM_5
100
AcDbLine
 10
345.8439295330945
 20
102.8070422553774
 30
0.0
 11
345.8439295330945
 21
75.16889363589929
 31
0.0
  0
LINE
  5
B7EB
330
B4B4
100
AcDbEntity
  8
AM_5
100
AcDbLine
 10
328.7962286704787
 20
76.1688936358993
 30
0.0
 11
344.8439295330945
 21
76.1688936358993
 31
0.0
  0
INSERT
  5
B7EC
330
B4B4
100
AcDbEntity
  8
AM_5
100
AcDbBlockReference
  2
_Dot
 10
327.7962286704787
 20
76.1688936358993
 30
0.0
 50
180.0
  0
INSERT
  5
B7ED
330
B4B4
100
AcDbEntity
  8
AM_5
100
AcDbBlockReference
  2
_Dot
 10
345.8439295330945
 20
76.1688936358993
 30
0.0
  0
MTEXT
  5
B7EE
330
B4B4
100
AcDbEntity
  8
AM_5
 62
     2
100
AcDbMText
 10
336.8200791017866
 20
79.26889363589928
 30
0.0
 40
3.200000000000001
 41
0.0
 71
     5
 72
     1
  1
18
 73
     1
 44
1.0
1001
ACAD
1000
MTEXTBEGIN
1070
    73
1070
     1
1070
    44
1040
1.0
1070
    74
1070
     0
1000
MTEXTEND
  0
POINT
  5
B7EF
330
B4B4
100
AcDbEntity
  8
Defpoints
 62
     0
100
AcDbPoint
 10
327.7962286704787
 20
95.75139168221358
 30
0.0
  0
POINT
  5
B7F0
330
B4B4
100
AcDbEntity
  8
Defpoints
 62
     0
100
AcDbPoint
 10
345.8439295330945
 20
103.8070422553774
 30
0.0
  0
POINT
  5
B7F1
330
B4B4
100
AcDbEntity
  8
Defpoints
 62
     0
100
AcDbPoint
 10
345.8439295330945
 20
76.1688936358993
 30
0.0
  0
ENDBLK
  5
B4BF
330
B4B4
100
AcDbEntity
  8
0
100
AcDbBlockEnd
  0
BLOCK
  5
B4E4
330
B4DA
100
AcDbEntity
  8
0
100
AcDbBlockBegin
  2
*D16
 70
     1
 10
0.0
 20
0.0
 30
0.0
  3
*D16
  1

  0
LINE
  5
B648
330
B4DA
100
AcDbEntity
  8
AM_5
100
AcDbLine
 10
346.3439295330636
 20
103.3070422553774
 30
0.0
 11
358.5132572800803
 21
103.3070422553773
 31
0.0
  0
LINE
  5
B649
330
B4DA
100
AcDbEntity
  8
AM_5
100
AcDbLine
 10
349.8439295330927
 20
126.3061892078758
 30
0.0
 11
358.5132572800803
 21
126.3061892078758
 31
0.0
  0
LINE
  5
B64A
330
B4DA
100
AcDbEntity
  8
AM_5
100
AcDbLine
 10
357.5132572800803
 20
104.3070422553773
 30
0.0
 11
357.5132572800803
 21
125.3061892078758
 31
0.0
  0
INSERT
  5
B64B
330
B4DA
100
AcDbEntity
  8
AM_5
100
AcDbBlockReference
  2
_Dot
 10
357.5132572800803
 20
103.3070422553773
 30
0.0
 50
270.0
  0
INSERT
  5
B64C
330
B4DA
100
AcDbEntity
  8
AM_5
100
AcDbBlockReference
  2
_Dot
 10
357.5132572800803
 20
126.3061892078758
 30
0.0
 50
90.0
  0
MTEXT
  5
B64D
330
B4DA
100
AcDbEntity
  8
AM_5
 62
     2
100
AcDbMText
 10
354.4132572800803
 20
114.8066157316266
 30
0.0
 40
3.200000000000001
 41
0.0
 71
     5
 72
     1
  1
23
 11
0.0000000000000001
 21
1.0
 31
0.0
 73
     1
 44
1.0
1001
ACAD
1000
MTEXTBEGIN
1070
    73
1070
     1
1070
    44
1040
1.0
1070
    74
1070
     0
1000
MTEXTEND
  0
POINT
  5
B64E
330
B4DA
100
AcDbEntity
  8
Defpoints
 62
     0
100
AcDbPoint
 10
345.3439295330637
 20
103.3070422553774
 30
0.0
  0
POINT
  5
B64F
330
B4DA
100
AcDbEntity
  8
Defpoints
 62
     0
100
AcDbPoint
 10
348.8439295330926
 20
126.3061892078758
 30
0.0
  0
POINT
  5
B650
330
B4DA
100
AcDbEntity
  8
Defpoints
 62
     0
100
AcDbPoint
 10
357.5132572800803
 20
126.3061892078758
 30
0.0
  0
ENDBLK
  5
B4E5
330
B4DA
100
AcDbEntity
  8
0
100
AcDbBlockEnd
  0
BLOCK
  5
B514
330
B509
100
AcDbEntity
  8
0
100
AcDbBlockBegin
  2
*D17
 70
     1
 10
0.0
 20
0.0
 30
0.0
  3
*D17
  1

  0
LINE
  5
B651
330
B509
100
AcDbEntity
  8
AM_5
100
AcDbLine
 10
349.8439295330927
 20
126.3061892078758
 30
0.0
 11
358.5132572800806
 21
126.3061892078758
 31
0.0
  0
LINE
  5
B652
330
B509
100
AcDbEntity
  8
AM_5
100
AcDbLine
 10
349.8439295331027
 20
133.806189207934
 30
0.0
 11
358.5132572800806
 21
133.806189207934
 31
0.0
  0
LINE
  5
B653
330
B509
100
AcDbEntity
  8
AM_5
100
AcDbLine
 10
357.5132572800807
 20
125.3061892078758
 30
0.0
 11
357.5132572800807
 21
124.3061892078758
 31
0.0
  0
LINE
  5
B654
330
B509
100
AcDbEntity
  8
AM_5
100
AcDbLine
 10
357.5132572800807
 20
134.806189207934
 30
0.0
 11
357.5132572800807
 21
135.806189207934
 31
0.0
  0
LINE
  5
B655
330
B509
100
AcDbEntity
  8
AM_5
100
AcDbLine
 10
357.5132572800807
 20
126.3061892078758
 30
0.0
 11
357.5132572800807
 21
133.806189207934
 31
0.0
  0
INSERT
  5
B656
330
B509
100
AcDbEntity
  8
AM_5
100
AcDbBlockReference
  2
_Dot
 10
357.5132572800807
 20
126.3061892078758
 30
0.0
 50
90.0
  0
INSERT
  5
B657
330
B509
100
AcDbEntity
  8
AM_5
100
AcDbBlockReference
  2
_Dot
 10
357.5132572800807
 20
133.806189207934
 30
0.0
 50
270.0
  0
MTEXT
  5
B658
330
B509
100
AcDbEntity
  8
AM_5
 62
     2
100
AcDbMText
 10
354.4132572800807
 20
130.056189207905
 30
0.0
 40
3.200000000000001
 41
0.0
 71
     5
 72
     1
  1
7.5
 11
0.0000000000000001
 21
1.0
 31
0.0
 73
     1
 44
1.0
1001
ACAD
1000
MTEXTBEGIN
1070
    73
1070
     1
1070
    44
1040
1.0
1070
    74
1070
     0
1000
MTEXTEND
  0
POINT
  5
B659
330
B509
100
AcDbEntity
  8
Defpoints
 62
     0
100
AcDbPoint
 10
348.8439295330926
 20
126.3061892078758
 30
0.0
  0
POINT
  5
B65A
330
B509
100
AcDbEntity
  8
Defpoints
 62
     0
100
AcDbPoint
 10
348.8439295331027
 20
133.806189207934
 30
0.0
  0
POINT
  5
B65B
330
B509
100
AcDbEntity
  8
Defpoints
 62
     0
100
AcDbPoint
 10
357.5132572800807
 20
133.806189207934
 30
0.0
  0
ENDBLK
  5
B515
330
B509
100
AcDbEntity
  8
0
100
AcDbBlockEnd
  0
BLOCK
  5
B541
330
B537
100
AcDbEntity
  8
0
100
AcDbBlockBegin
  2
*D18
 70
     1
 10
0.0
 20
0.0
 30
0.0
  3
*D18
  1

  0
LINE
  5
B65C
330
B537
100
AcDbEntity
  8
AM_5
100
AcDbLine
 10
349.8439295331027
 20
133.806189207934
 30
0.0
 11
358.5132572800783
 21
133.806189207934
 31
0.0
  0
LINE
  5
B65D
330
B537
100
AcDbEntity
  8
AM_5
100
AcDbLine
 10
349.8439295331264
 20
157.8061892076594
 30
0.0
 11
358.5132572800783
 21
157.8061892076594
 31
0.0
  0
LINE
  5
B65E
330
B537
100
AcDbEntity
  8
AM_5
100
AcDbLine
 10
357.5132572800785
 20
134.806189207934
 30
0.0
 11
357.5132572800785
 21
156.8061892076594
 31
0.0
  0
INSERT
  5
B65F
330
B537
100
AcDbEntity
  8
AM_5
100
AcDbBlockReference
  2
_Dot
 10
357.5132572800785
 20
133.806189207934
 30
0.0
 50
270.0
  0
INSERT
  5
B660
330
B537
100
AcDbEntity
  8
AM_5
100
AcDbBlockReference
  2
_Dot
 10
357.5132572800785
 20
157.8061892076594
 30
0.0
 50
90.0
  0
MTEXT
  5
B661
330
B537
100
AcDbEntity
  8
AM_5
 62
     2
100
AcDbMText
 10
354.4132572800784
 20
145.8061892077967
 30
0.0
 40
3.200000000000001
 41
0.0
 71
     5
 72
     1
  1
24
 11
0.0000000000000001
 21
1.0
 31
0.0
 73
     1
 44
1.0
1001
ACAD
1000
MTEXTBEGIN
1070
    73
1070
     1
1070
    44
1040
1.0
1070
    74
1070
     0
1000
MTEXTEND
  0
POINT
  5
B662
330
B537
100
AcDbEntity
  8
Defpoints
 62
     0
100
AcDbPoint
 10
348.8439295331027
 20
133.806189207934
 30
0.0
  0
POINT
  5
B663
330
B537
100
AcDbEntity
  8
Defpoints
 62
     0
100
AcDbPoint
 10
348.8439295331263
 20
157.8061892076594
 30
0.0
  0
POINT
  5
B664
330
B537
100
AcDbEntity
  8
Defpoints
 62
     0
100
AcDbPoint
 10
357.5132572800785
 20
157.8061892076594
 30
0.0
  0
ENDBLK
  5
B542
330
B537
100
AcDbEntity
  8
0
100
AcDbBlockEnd
  0
BLOCK
  5
B569
330
B55E
100
AcDbEntity
  8
0
100
AcDbBlockBegin
  2
*D19
 70
     1
 10
0.0
 20
0.0
 30
0.0
  3
*D19
  1

  0
LINE
  5
B665
330
B55E
100
AcDbEntity
  8
AM_5
100
AcDbLine
 10
349.8439295331264
 20
157.8061892076594
 30
0.0
 11
358.5132572800756
 21
157.8061892076594
 31
0.0
  0
LINE
  5
B666
330
B55E
100
AcDbEntity
  8
AM_5
100
AcDbLine
 10
346.3439295331363
 20
165.3061892076457
 30
0.0
 11
358.5132572800756
 21
165.3061892076457
 31
0.0
  0
LINE
  5
B667
330
B55E
100
AcDbEntity
  8
AM_5
100
AcDbLine
 10
357.5132572800756
 20
156.8061892076594
 30
0.0
 11
357.5132572800756
 21
155.8061892076594
 31
0.0
  0
LINE
  5
B668
330
B55E
100
AcDbEntity
  8
AM_5
100
AcDbLine
 10
357.5132572800756
 20
166.3061892076457
 30
0.0
 11
357.5132572800756
 21
167.3061892076457
 31
0.0
  0
LINE
  5
B669
330
B55E
100
AcDbEntity
  8
AM_5
100
AcDbLine
 10
357.5132572800756
 20
157.8061892076594
 30
0.0
 11
357.5132572800756
 21
165.3061892076457
 31
0.0
  0
INSERT
  5
B66A
330
B55E
100
AcDbEntity
  8
AM_5
100
AcDbBlockReference
  2
_Dot
 10
357.5132572800756
 20
157.8061892076594
 30
0.0
 50
90.0
  0
INSERT
  5
B66B
330
B55E
100
AcDbEntity
  8
AM_5
100
AcDbBlockReference
  2
_Dot
 10
357.5132572800756
 20
165.3061892076457
 30
0.0
 50
270.0
  0
MTEXT
  5
B66C
330
B55E
100
AcDbEntity
  8
AM_5
 62
     2
100
AcDbMText
 10
354.4132572800755
 20
161.5561892076526
 30
0.0
 40
3.200000000000001
 41
0.0
 71
     5
 72
     1
  1
7.5
 11
0.0000000000000001
 21
1.0
 31
0.0
 73
     1
 44
1.0
1001
ACAD
1000
MTEXTBEGIN
1070
    73
1070
     1
1070
    44
1040
1.0
1070
    74
1070
     0
1000
MTEXTEND
  0
POINT
  5
B66D
330
B55E
100
AcDbEntity
  8
Defpoints
 62
     0
100
AcDbPoint
 10
348.8439295331263
 20
157.8061892076594
 30
0.0
  0
POINT
  5
B66E
330
B55E
100
AcDbEntity
  8
Defpoints
 62
     0
100
AcDbPoint
 10
345.3439295331364
 20
165.3061892076457
 30
0.0
  0
POINT
  5
B66F
330
B55E
100
AcDbEntity
  8
Defpoints
 62
     0
100
AcDbPoint
 10
357.5132572800756
 20
165.3061892076457
 30
0.0
  0
ENDBLK
  5
B56A
330
B55E
100
AcDbEntity
  8
0
100
AcDbBlockEnd
  0
BLOCK
  5
B5A8
330
B59E
100
AcDbEntity
  8
0
100
AcDbBlockBegin
  2
*D20
 70
     1
 10
0.0
 20
0.0
 30
0.0
  3
*D20
  1

  0
LINE
  5
B670
330
B59E
100
AcDbEntity
  8
AM_5
100
AcDbLine
 10
338.9439295331204
 20
151.8061892071018
 30
0.0
 11
326.9439295330995
 21
151.8061892071018
 31
0.0
  0
LINE
  5
B671
330
B59E
100
AcDbEntity
  8
AM_5
100
AcDbLine
 10
338.9439295331359
 20
163.8061892070991
 30
0.0
 11
326.9439295330995
 21
163.8061892070991
 31
0.0
  0
LINE
  5
B672
330
B59E
100
AcDbEntity
  8
AM_5
100
AcDbLine
 10
327.9439295330995
 20
152.8061892071018
 30
0.0
 11
327.9439295330995
 21
162.8061892070991
 31
0.0
  0
INSERT
  5
B673
330
B59E
100
AcDbEntity
  8
AM_5
100
AcDbBlockReference
  2
_Dot
 10
327.9439295330995
 20
151.8061892071018
 30
0.0
 50
270.0
  0
INSERT
  5
B674
330
B59E
100
AcDbEntity
  8
AM_5
100
AcDbBlockReference
  2
_Dot
 10
327.9439295330995
 20
163.8061892070991
 30
0.0
 50
90.0
  0
MTEXT
  5
B675
330
B59E
100
AcDbEntity
  8
AM_5
 62
     2
100
AcDbMText
 10
324.8439295330994
 20
157.8061892071005
 30
0.0
 40
3.200000000000001
 41
0.0
 71
     5
 72
     1
  1
12
 11
0.0000000000000001
 21
1.0
 31
0.0
 73
     1
 44
1.0
1001
ACAD
1000
MTEXTBEGIN
1070
    73
1070
     1
1070
    44
1040
1.0
1070
    74
1070
     0
1000
MTEXTEND
  0
POINT
  5
B676
330
B59E
100
AcDbEntity
  8
Defpoints
 62
     0
100
AcDbPoint
 10
339.9439295331204
 20
151.8061892071018
 30
0.0
  0
POINT
  5
B677
330
B59E
100
AcDbEntity
  8
Defpoints
 62
     0
100
AcDbPoint
 10
339.9439295331359
 20
163.8061892070991
 30
0.0
  0
POINT
  5
B678
330
B59E
100
AcDbEntity
  8
Defpoints
 62
     0
100
AcDbPoint
 10
327.9439295330995
 20
163.8061892070991
 30
0.0
  0
ENDBLK
  5
B5A9
330
B59E
100
AcDbEntity
  8
0
100
AcDbBlockEnd
  0
BLOCK
  5
B5CE
330
B5C4
100
AcDbEntity
  8
0
100
AcDbBlockBegin
  2
*D21
 70
     1
 10
0.0
 20
0.0
 30
0.0
  3
*D21
  1

  0
LINE
  5
B679
330
B5C4
100
AcDbEntity
  8
AM_5
100
AcDbLine
 10
321.8435502803733
 20
100.1073275432063
 30
0.0
 11
321.8435502803733
 21
85.24700391634267
 31
0.0
  0
LINE
  5
B67A
330
B5C4
100
AcDbEntity
  8
AM_5
100
AcDbLine
 10
333.8435502803741
 20
100.1073275432063
 30
0.0
 11
333.8435502803741
 21
85.24700391634267
 31
0.0
  0
LINE
  5
B67B
330
B5C4
100
AcDbEntity
  8
AM_5
100
AcDbLine
 10
322.8435502803733
 20
86.24700391634268
 30
0.0
 11
332.8435502803742
 21
86.24700391634268
 31
0.0
  0
INSERT
  5
B67C
330
B5C4
100
AcDbEntity
  8
AM_5
100
AcDbBlockReference
  2
_Dot
 10
321.8435502803733
 20
86.24700391634268
 30
0.0
 50
180.0
  0
INSERT
  5
B67D
330
B5C4
100
AcDbEntity
  8
AM_5
100
AcDbBlockReference
  2
_Dot
 10
333.8435502803741
 20
86.24700391634268
 30
0.0
  0
MTEXT
  5
B67E
330
B5C4
100
AcDbEntity
  8
AM_5
 62
     2
100
AcDbMText
 10
330.86543999993
 20
89.34700391634265
 30
0.0
 40
3.200000000000001
 41
0.0
 71
     5
 72
     1
  1
12
 73
     1
 44
1.0
1001
ACAD
1000
MTEXTBEGIN
1070
    73
1070
     1
1070
    44
1040
1.0
1070
    74
1070
     0
1000
MTEXTEND
  0
POINT
  5
B67F
330
B5C4
100
AcDbEntity
  8
Defpoints
 62
     0
100
AcDbPoint
 10
321.8435502803733
 20
101.1073275432063
 30
0.0
  0
POINT
  5
B680
330
B5C4
100
AcDbEntity
  8
Defpoints
 62
     0
100
AcDbPoint
 10
333.8435502803741
 20
101.1073275432063
 30
0.0
  0
POINT
  5
B681
330
B5C4
100
AcDbEntity
  8
Defpoints
 62
     0
100
AcDbPoint
 10
333.8435502803741
 20
86.24700391634268
 30
0.0
  0
ENDBLK
  5
B5CF
330
B5C4
100
AcDbEntity
  8
0
100
AcDbBlockEnd
  0
BLOCK
  5
B6A7
330
B69B
100
AcDbEntity
  8
0
100
AcDbBlockBegin
  2
*D22
 70
     1
 10
0.0
 20
0.0
 30
0.0
  3
*D22
  1

  0
LINE
  5
B6AB
330
B69B
100
AcDbEntity
  8
AM_5
100
AcDbLine
 10
264.8474096618993
 20
103.3073275431797
 30
0.0
 11
276.8474096618992
 21
103.3073275431797
 31
0.0
  0
LINE
  5
B6AC
330
B69B
100
AcDbEntity
  8
AM_5
100
AcDbLine
 10
264.8474096618993
 20
99.80732754320436
 30
0.0
 11
276.8474096618992
 21
99.80732754320436
 31
0.0
  0
LINE
  5
B6AD
330
B69B
100
AcDbEntity
  8
AM_5
100
AcDbLine
 10
275.8474096618992
 20
104.3073275431797
 30
0.0
 11
275.8474096618992
 21
105.3073275431797
 31
0.0
  0
LINE
  5
B6AE
330
B69B
100
AcDbEntity
  8
AM_5
100
AcDbLine
 10
275.8474096618992
 20
98.80732754320431
 30
0.0
 11
275.8474096618992
 21
90.11399420987102
 31
0.0
  0
LINE
  5
B6AF
330
B69B
100
AcDbEntity
  8
AM_5
100
AcDbLine
 10
275.8474096618992
 20
103.3073275431797
 30
0.0
 11
275.8474096618992
 21
99.80732754320436
 31
0.0
  0
INSERT
  5
B6B0
330
B69B
100
AcDbEntity
  8
AM_5
100
AcDbBlockReference
  2
_Dot
 10
275.8474096618992
 20
103.3073275431797
 30
0.0
 50
270.0
  0
INSERT
  5
B6B1
330
B69B
100
AcDbEntity
  8
AM_5
100
AcDbBlockReference
  2
_Dot
 10
275.8474096618992
 20
99.80732754320436
 30
0.0
 50
90.0
  0
MTEXT
  5
B6B2
330
B69B
100
AcDbEntity
  8
AM_5
 62
     2
100
AcDbMText
 10
272.7474096618992
 20
93.96066087653773
 30
0.0
 40
3.200000000000001
 41
0.0
 71
     5
 72
     1
  1
3.5
 11
0.0000000000000001
 21
1.0
 31
0.0
 73
     1
 44
1.0
1001
ACAD
1000
MTEXTBEGIN
1070
    73
1070
     1
1070
    44
1040
1.0
1070
    74
1070
     0
1000
MTEXTEND
  0
POINT
  5
B6B3
330
B69B
100
AcDbEntity
  8
Defpoints
 62
     0
100
AcDbPoint
 10
263.8474096618993
 20
103.3073275431797
 30
0.0
  0
POINT
  5
B6B4
330
B69B
100
AcDbEntity
  8
Defpoints
 62
     0
100
AcDbPoint
 10
263.8474096618993
 20
99.80732754320436
 30
0.0
  0
POINT
  5
B6B5
330
B69B
100
AcDbEntity
  8
Defpoints
 62
     0
100
AcDbPoint
 10
275.8474096618992
 20
99.80732754320436
 30
0.0
  0
ENDBLK
  5
B6A8
330
B69B
100
AcDbEntity
  8
0
100
AcDbBlockEnd
  0
BLOCK
  5
B6CF
330
B6C5
100
AcDbEntity
  8
0
100
AcDbBlockBegin
  2
*D23
 70
     1
 10
0.0
 20
0.0
 30
0.0
  3
*D23
  1

  0
LINE
  5
B6D3
330
B6C5
100
AcDbEntity
  8
AM_5
100
AcDbLine
 10
264.8474096618993
 20
103.3073275431797
 30
0.0
 11
276.8474096618996
 21
103.3073275431797
 31
0.0
  0
LINE
  5
B6D4
330
B6C5
100
AcDbEntity
  8
AM_5
100
AcDbLine
 10
264.8474096618993
 20
133.8061892079386
 30
0.0
 11
276.8474096618997
 21
133.8061892079386
 31
0.0
  0
LINE
  5
B6D5
330
B6C5
100
AcDbEntity
  8
AM_5
100
AcDbLine
 10
275.8474096618996
 20
104.3073275431797
 30
0.0
 11
275.8474096618997
 21
132.8061892079386
 31
0.0
  0
INSERT
  5
B6D6
330
B6C5
100
AcDbEntity
  8
AM_5
100
AcDbBlockReference
  2
_Dot
 10
275.8474096618996
 20
103.3073275431797
 30
0.0
 50
270.0
  0
INSERT
  5
B6D7
330
B6C5
100
AcDbEntity
  8
AM_5
100
AcDbBlockReference
  2
_Dot
 10
275.8474096618997
 20
133.8061892079386
 30
0.0
 50
90.0
  0
MTEXT
  5
B6D8
330
B6C5
100
AcDbEntity
  8
AM_5
 62
     2
100
AcDbMText
 10
272.7474096618996
 20
118.5567583755592
 30
0.0
 40
3.200000000000001
 41
0.0
 71
     5
 72
     1
  1
30.5
 11
0.0000000000000001
 21
1.0
 31
0.0
 73
     1
 44
1.0
1001
ACAD
1000
MTEXTBEGIN
1070
    73
1070
     1
1070
    44
1040
1.0
1070
    74
1070
     0
1000
MTEXTEND
  0
POINT
  5
B6D9
330
B6C5
100
AcDbEntity
  8
Defpoints
 62
     0
100
AcDbPoint
 10
263.8474096618993
 20
103.3073275431797
 30
0.0
  0
POINT
  5
B6DA
330
B6C5
100
AcDbEntity
  8
Defpoints
 62
     0
100
AcDbPoint
 10
263.8474096618993
 20
133.8061892079386
 30
0.0
  0
POINT
  5
B6DB
330
B6C5
100
AcDbEntity
  8
Defpoints
 62
     0
100
AcDbPoint
 10
275.8474096618997
 20
133.8061892079386
 30
0.0
  0
ENDBLK
  5
B6D0
330
B6C5
100
AcDbEntity
  8
0
100
AcDbBlockEnd
  0
ENDSEC
  0
SECTION
  2
ENTITIES
  0
LINE
  5
B24A
330
1F
100
AcDbEntity
  8
size
100
AcDbLine
 10
0.0000017428819774
 20
0.0000008891529433
 30
0.0
 11
420.0000017428817
 21
0.0000008891529433
 31
0.0
1001
GENIUS_GENREC_14
1002
{
1000
PYDIR
1011
0.0000017428819774
1021
297.0000008891529
1031
0.0
1002
}
1002
{
1000
PXDIR
1011
420.0000017428817
1021
0.0000008891529433
1031
0.0
1002
}
1002
{
1000
PORI
1011
0.0000017428819774
1021
0.0000008891529433
1031
0.0
1002
}
1002
{
1000
PINS
1011
210.000001742882
1021
148.5000008891529
1031
0.0
1002
}
1002
{
1000
HVAL
1000
297
1002
}
1002
{
1000
H
1070
     2
1002
}
1002
{
1000
WVAL
1000
420
1002
}
1002
{
1000
W
1070
     2
1002
}
1002
{
1000
C
1070
     4
1002
}
1001
GENIUS_GENOBJ-N-REC_13
1002
{
1000
OWNER
1000
GEN
1002
}
1001
GENIUS_GENODEF_13
1002
{
1000
HIER
1070
     0
1002
}
1002
{
1000
MANEDIT
1070
     0
1002
}
1002
{
1000
NOSEL
1070
     0
1002
}
1002
{
1000
BEHIND
1070
     0
1002
}
1002
{
1000
OTHER
1070
     0
1002
}
1002
{
1000
REACTOR
1002
}
  0
LINE
  5
B24B
330
1F
100
AcDbEntity
  8
size
100
AcDbLine
 10
420.0000017428817
 20
0.0000008891529433
 30
0.0
 11
420.0000017428817
 21
297.0000008891529
 31
0.0
1001
GENIUS_GENREC_14
1002
{
1000
PYDIR
1011
0.0000017428819774
1021
297.0000008891529
1031
0.0
1002
}
1002
{
1000
PXDIR
1011
420.0000017428817
1021
0.0000008891529433
1031
0.0
1002
}
1002
{
1000
PORI
1011
0.0000017428819774
1021
0.0000008891529433
1031
0.0
1002
}
1002
{
1000
PINS
1011
210.000001742882
1021
148.5000008891529
1031
0.0
1002
}
1002
{
1000
HVAL
1000
297
1002
}
1002
{
1000
H
1070
     2
1002
}
1002
{
1000
WVAL
1000
420
1002
}
1002
{
1000
W
1070
     2
1002
}
1002
{
1000
C
1070
     4
1002
}
1001
GENIUS_GENOBJ-N-REC_13
1002
{
1000
OWNER
1000
GEN
1002
}
1001
GENIUS_GENODEF_13
1002
{
1000
HIER
1070
     0
1002
}
1002
{
1000
MANEDIT
1070
     0
1002
}
1002
{
1000
NOSEL
1070
     0
1002
}
1002
{
1000
BEHIND
1070
     0
1002
}
1002
{
1000
OTHER
1070
     0
1002
}
1002
{
1000
REACTOR
1002
}
  0
LINE
  5
B24C
330
1F
100
AcDbEntity
  8
size
100
AcDbLine
 10
420.0000017428817
 20
297.0000008891529
 30
0.0
 11
0.0000017428819774
 21
297.0000008891529
 31
0.0
1001
GENIUS_GENREC_14
1002
{
1000
PYDIR
1011
0.0000017428819774
1021
297.0000008891529
1031
0.0
1002
}
1002
{
1000
PXDIR
1011
420.0000017428817
1021
0.0000008891529433
1031
0.0
1002
}
1002
{
1000
PORI
1011
0.0000017428819774
1021
0.0000008891529433
1031
0.0
1002
}
1002
{
1000
PINS
1011
210.000001742882
1021
148.5000008891529
1031
0.0
1002
}
1002
{
1000
HVAL
1000
297
1002
}
1002
{
1000
H
1070
     2
1002
}
1002
{
1000
WVAL
1000
420
1002
}
1002
{
1000
W
1070
     2
1002
}
1002
{
1000
C
1070
     4
1002
}
1001
GENIUS_GENOBJ-N-REC_13
1002
{
1000
OWNER
1000
GEN
1002
}
1001
GENIUS_GENODEF_13
1002
{
1000
HIER
1070
     0
1002
}
1002
{
1000
MANEDIT
1070
     0
1002
}
1002
{
1000
NOSEL
1070
     0
1002
}
1002
{
1000
BEHIND
1070
     0
1002
}
1002
{
1000
OTHER
1070
     0
1002
}
1002
{
1000
REACTOR
1002
}
  0
LINE
  5
B24D
330
1F
100
AcDbEntity
  8
size
100
AcDbLine
 10
0.0000017428819774
 20
297.0000008891529
 30
0.0
 11
0.0000017428819774
 21
0.0000008891529433
 31
0.0
1001
GENIUS_GENREC_14
1002
{
1000
PYDIR
1011
0.0000017428819774
1021
297.0000008891529
1031
0.0
1002
}
1002
{
1000
PXDIR
1011
420.0000017428817
1021
0.0000008891529433
1031
0.0
1002
}
1002
{
1000
PORI
1011
0.0000017428819774
1021
0.0000008891529433
1031
0.0
1002
}
1002
{
1000
PINS
1011
210.000001742882
1021
148.5000008891529
1031
0.0
1002
}
1002
{
1000
HVAL
1000
297
1002
}
1002
{
1000
H
1070
     2
1002
}
1002
{
1000
WVAL
1000
420
1002
}
1002
{
1000
W
1070
     2
1002
}
1002
{
1000
C
1070
     4
1002
}
1001
GENIUS_GENOBJ-N-REC_13
1002
{
1000
OWNER
1000
GEN
1002
}
1001
GENIUS_GENODEF_13
1002
{
1000
HIER
1070
     0
1002
}
1002
{
1000
MANEDIT
1070
     0
1002
}
1002
{
1000
NOSEL
1070
     0
1002
}
1002
{
1000
BEHIND
1070
     0
1002
}
1002
{
1000
OTHER
1070
     0
1002
}
1002
{
1000
REACTOR
1002
}
  0
LINE
  5
B24E
330
1F
100
AcDbEntity
  8
waku
100
AcDbLine
 10
408.500001742882
 20
8.500000889152943
 30
0.0
 11
408.500001742882
 21
288.5000008891529
 31
0.0
1001
GENIUS_GENREC_14
1002
{
1000
PYDIR
1011
0.0000017428819774
1021
297.0000008891529
1031
0.0
1002
}
1002
{
1000
PXDIR
1011
420.0000017428817
1021
0.0000008891529433
1031
0.0
1002
}
1002
{
1000
PORI
1011
0.0000017428819774
1021
0.0000008891529433
1031
0.0
1002
}
1002
{
1000
PINS
1011
210.000001742882
1021
148.5000008891529
1031
0.0
1002
}
1002
{
1000
HVAL
1000
297
1002
}
1002
{
1000
H
1070
     2
1002
}
1002
{
1000
WVAL
1000
420
1002
}
1002
{
1000
W
1070
     2
1002
}
1002
{
1000
C
1070
     4
1002
}
1001
GENIUS_GENOBJ-N-REC_13
1002
{
1000
OWNER
1000
GEN
1002
}
1001
GENIUS_GENODEF_13
1002
{
1000
HIER
1070
     0
1002
}
1002
{
1000
MANEDIT
1070
     0
1002
}
1002
{
1000
NOSEL
1070
     0
1002
}
1002
{
1000
BEHIND
1070
     0
1002
}
1002
{
1000
OTHER
1070
     0
1002
}
1002
{
1000
REACTOR
1002
}
  0
LINE
  5
B24F
330
1F
100
AcDbEntity
  8
waku
100
AcDbLine
 10
11.50000174288198
 20
288.5000008891529
 30
0.0
 11
11.50000174288198
 21
8.500000889152943
 31
0.0
1001
GENIUS_GENREC_14
1002
{
1000
PYDIR
1011
0.0000017428819774
1021
297.0000008891529
1031
0.0
1002
}
1002
{
1000
PXDIR
1011
420.0000017428817
1021
0.0000008891529433
1031
0.0
1002
}
1002
{
1000
PORI
1011
0.0000017428819774
1021
0.0000008891529433
1031
0.0
1002
}
1002
{
1000
PINS
1011
210.000001742882
1021
148.5000008891529
1031
0.0
1002
}
1002
{
1000
HVAL
1000
297
1002
}
1002
{
1000
H
1070
     2
1002
}
1002
{
1000
WVAL
1000
420
1002
}
1002
{
1000
W
1070
     2
1002
}
1002
{
1000
C
1070
     4
1002
}
1001
GENIUS_GENOBJ-N-REC_13
1002
{
1000
OWNER
1000
GEN
1002
}
1001
GENIUS_GENODEF_13
1002
{
1000
HIER
1070
     0
1002
}
1002
{
1000
MANEDIT
1070
     0
1002
}
1002
{
1000
NOSEL
1070
     0
1002
}
1002
{
1000
BEHIND
1070
     0
1002
}
1002
{
1000
OTHER
1070
     0
1002
}
1002
{
1000
REACTOR
1002
}
  0
LINE
  5
B250
330
1F
100
AcDbEntity
  8
waku
100
AcDbLine
 10
408.500001742882
 20
288.5000008891529
 30
0.0
 11
11.50000174288198
 21
288.5000008891529
 31
0.0
1001
GENIUS_GENREC_14
1002
{
1000
PYDIR
1011
0.0000017428819774
1021
297.0000008891529
1031
0.0
1002
}
1002
{
1000
PXDIR
1011
420.0000017428817
1021
0.0000008891529433
1031
0.0
1002
}
1002
{
1000
PORI
1011
0.0000017428819774
1021
0.0000008891529433
1031
0.0
1002
}
1002
{
1000
PINS
1011
210.000001742882
1021
148.5000008891529
1031
0.0
1002
}
1002
{
1000
HVAL
1000
297
1002
}
1002
{
1000
H
1070
     2
1002
}
1002
{
1000
WVAL
1000
420
1002
}
1002
{
1000
W
1070
     2
1002
}
1002
{
1000
C
1070
     4
1002
}
1001
GENIUS_GENOBJ-N-REC_13
1002
{
1000
OWNER
1000
GEN
1002
}
1001
GENIUS_GENODEF_13
1002
{
1000
HIER
1070
     0
1002
}
1002
{
1000
MANEDIT
1070
     0
1002
}
1002
{
1000
NOSEL
1070
     0
1002
}
1002
{
1000
BEHIND
1070
     0
1002
}
1002
{
1000
OTHER
1070
     0
1002
}
1002
{
1000
REACTOR
1002
}
  0
LINE
  5
B251
330
1F
100
AcDbEntity
  8
waku
100
AcDbLine
 10
11.50000174288198
 20
8.500000889152943
 30
0.0
 11
408.500001742882
 21
8.500000889152943
 31
0.0
  0
LINE
  5
B252
330
1F
100
AcDbEntity
  8
AM_0
100
AcDbLine
 10
11.50000174288198
 20
288.5000008891529
 30
0.0
 11
121.500001742882
 21
288.5000008891529
 31
0.0
  0
LINE
  5
B253
330
1F
100
AcDbEntity
  8
AM_0
100
AcDbLine
 10
11.50000174288198
 20
224.5000008891529
 30
0.0
 11
121.500001742882
 21
224.5000008891529
 31
0.0
  0
LINE
  5
B254
330
1F
100
AcDbEntity
  8
AM_2
100
AcDbLine
 10
31.50000174288198
 20
232.5000008891529
 30
0.0
 11
121.500001742882
 21
232.5000008891529
 31
0.0
  0
LINE
  5
B255
330
1F
100
AcDbEntity
  8
AM_2
100
AcDbLine
 10
31.50000174288198
 20
240.5000008891529
 30
0.0
 11
121.500001742882
 21
240.5000008891529
 31
0.0
  0
LINE
  5
B256
330
1F
100
AcDbEntity
  8
AM_2
100
AcDbLine
 10
11.50000174288198
 20
248.500000889153
 30
0.0
 11
121.500001742882
 21
248.500000889153
 31
0.0
  0
LINE
  5
B257
330
1F
100
AcDbEntity
  8
AM_2
100
AcDbLine
 10
31.50000174288198
 20
248.500000889153
 30
0.0
 11
121.500001742882
 21
248.500000889153
 31
0.0
  0
LINE
  5
B258
330
1F
100
AcDbEntity
  8
AM_2
100
AcDbLine
 10
31.50000174288198
 20
248.500000889153
 30
0.0
 11
121.500001742882
 21
248.500000889153
 31
0.0
  0
LINE
  5
B259
330
1F
100
AcDbEntity
  8
AM_2
100
AcDbLine
 10
11.50000174288198
 20
256.500000889153
 30
0.0
 11
121.500001742882
 21
256.500000889153
 31
0.0
  0
LINE
  5
B25A
330
1F
100
AcDbEntity
  8
AM_2
100
AcDbLine
 10
11.50000174288198
 20
264.5000008891529
 30
0.0
 11
121.500001742882
 21
264.5000008891529
 31
0.0
  0
LINE
  5
B25B
330
1F
100
AcDbEntity
  8
AM_2
100
AcDbLine
 10
11.50000174288198
 20
272.5000008891529
 30
0.0
 11
121.500001742882
 21
272.5000008891529
 31
0.0
  0
LINE
  5
B25C
330
1F
100
AcDbEntity
  8
AM_2
100
AcDbLine
 10
11.50000174288198
 20
280.5000008891529
 30
0.0
 11
121.500001742882
 21
280.5000008891529
 31
0.0
  0
LINE
  5
B25D
330
1F
100
AcDbEntity
  8
AM_0
100
AcDbLine
 10
11.50000174288198
 20
288.5000008891529
 30
0.0
 11
11.50000174288198
 21
224.5000008891529
 31
0.0
  0
LINE
  5
B25E
330
1F
100
AcDbEntity
  8
AM_2
100
AcDbLine
 10
31.50000174288198
 20
288.5000008891529
 30
0.0
 11
31.50000174288198
 21
224.5000008891529
 31
0.0
  0
MTEXT
  5
B25F
330
1F
100
AcDbEntity
  8
AM_6
100
AcDbMText
 10
21.50000174288198
 20
244.500000889153
 30
0.0
 40
3.2
 41
20.0
 71
     5
 72
     5
  1
備　考
 73
     1
 44
1.0
1001
ACAD
1000
MTEXTBEGIN
1070
    73
1070
     1
1070
    44
1040
1.0
1070
    74
1070
     0
1000
MTEXTEND
  0
MTEXT
  5
B260
330
1F
100
AcDbEntity
  8
AM_6
100
AcDbMText
 10
31.50000174288198
 20
228.5000008891529
 30
0.0
 40
3.2
 41
90.0
 71
     4
 72
     5
  1
　※
 73
     1
 44
1.0
1001
ACAD
1000
MTEXTBEGIN
1070
    73
1070
     1
1070
    44
1040
1.0
1070
    74
1070
     0
1000
MTEXTEND
  0
MTEXT
  5
B264
330
1F
100
AcDbEntity
  8
AM_6
100
AcDbMText
 10
21.50000174288198
 20
260.5000008891529
 30
0.0
 40
3.2
 41
20.0
 71
     5
 72
     5
  1
仕上げ
 73
     1
 44
1.0
1001
ACAD
1000
MTEXTBEGIN
1070
    73
1070
     1
1070
    44
1040
1.0
1070
    74
1070
     0
1000
MTEXTEND
  0
MTEXT
  5
B266
330
1F
100
AcDbEntity
  8
AM_6
100
AcDbMText
 10
21.50000174288198
 20
268.5000008891529
 30
0.0
 40
3.2
 41
20.0
 71
     5
 72
     5
  1
材　質
 73
     1
 44
1.0
1001
ACAD
1000
MTEXTBEGIN
1070
    73
1070
     1
1070
    44
1040
1.0
1070
    74
1070
     0
1000
MTEXTEND
  0
MTEXT
  5
B267
330
1F
100
AcDbEntity
  8
AM_6
100
AcDbMText
 10
21.50000174288198
 20
284.5000008891529
 30
0.0
 40
3.2
 41
20.0
 71
     5
 72
     5
  1
品　名
 73
     1
 44
1.0
1001
ACAD
1000
MTEXTBEGIN
1070
    73
1070
     1
1070
    44
1040
1.0
1070
    74
1070
     0
1000
MTEXTEND
  0
MTEXT
  5
B268
330
1F
100
AcDbEntity
  8
AM_6
100
AcDbMText
 10
21.50000174288198
 20
276.5000008891529
 30
0.0
 40
3.2
 41
20.0
 71
     5
 72
     5
  1
品　番
 73
     1
 44
1.0
1001
ACAD
1000
MTEXTBEGIN
1070
    73
1070
     1
1070
    44
1040
1.0
1070
    74
1070
     0
1000
MTEXTEND
  0
MTEXT
  5
B269
330
1F
100
AcDbEntity
  8
AM_6
100
AcDbMText
 10
31.50000174288198
 20
260.5000008891529
 30
0.0
 40
3.2
 41
90.0
 71
     4
 72
     5
  1
　アルマイト
 73
     1
 44
1.0
1001
ACAD
1000
ACAD_MTEXT_DEFINED_HEIGHT_BEGIN
1070
    46
1040
0.0
1000
ACAD_MTEXT_DEFINED_HEIGHT_END
1000
MTEXTBEGIN
1070
    73
1070
     1
1070
    44
1040
1.0
1070
    74
1070
     0
1000
MTEXTEND
  0
MTEXT
  5
B26A
330
1F
100
AcDbEntity
  8
AM_6
100
AcDbMText
 10
31.50000174288198
 20
268.5000008891529
 30
0.0
 40
3.2
 41
90.0
 71
     4
 72
     5
  1
　アルミ
 73
     1
 44
1.0
1001
ACAD
1000
ACAD_MTEXT_DEFINED_HEIGHT_BEGIN
1070
    46
1040
0.0
1000
ACAD_MTEXT_DEFINED_HEIGHT_END
1000
MTEXTBEGIN
1070
    73
1070
     1
1070
    44
1040
1.0
1070
    74
1070
     0
1000
MTEXTEND
  0
MTEXT
  5
B26B
330
1F
100
AcDbEntity
  8
AM_6
100
AcDbMText
 10
31.50000174288198
 20
276.5000008891529
 30
0.0
 40
3.2
 41
90.0
 71
     4
 72
     5
  1
　SC-05
 73
     1
 44
1.0
1001
ACAD
1000
ACAD_MTEXT_DEFINED_HEIGHT_BEGIN
1070
    46
1040
0.0
1000
ACAD_MTEXT_DEFINED_HEIGHT_END
1000
MTEXTBEGIN
1070
    73
1070
     1
1070
    44
1040
1.0
1070
    74
1070
     0
1000
MTEXTEND
  0
MTEXT
  5
B26C
330
1F
100
AcDbEntity
  8
AM_6
100
AcDbMText
 10
31.50000174288198
 20
284.5000008891529
 30
0.0
 40
3.2
 41
90.0
 71
     4
 72
     5
  1
　上吊引戸レール
 73
     1
 44
1.0
1001
ACAD
1000
ACAD_MTEXT_DEFINED_HEIGHT_BEGIN
1070
    46
1040
0.0
1000
ACAD_MTEXT_DEFINED_HEIGHT_END
1000
MTEXTBEGIN
1070
    73
1070
     1
1070
    44
1040
1.0
1070
    74
1070
     0
1000
MTEXTEND
  0
LINE
  5
B26D
330
1F
100
AcDbEntity
  8
AM_0
100
AcDbLine
 10
121.500001742882
 20
288.5000008891529
 30
0.0
 11
121.500001742882
 21
224.5000008891529
 31
0.0
  0
LINE
  5
B26E
330
1F
100
AcDbEntity
  8
AM_2
100
AcDbLine
 10
31.50000174288198
 20
264.5000008891529
 30
0.0
 11
121.500001742882
 21
264.5000008891529
 31
0.0
  0
LINE
  5
B26F
330
1F
100
AcDbEntity
  8
AM_2
100
AcDbLine
 10
31.50000174288198
 20
256.500000889153
 30
0.0
 11
121.500001742882
 21
256.500000889153
 31
0.0
  0
LINE
  5
B270
330
1F
100
AcDbEntity
  8
AM_2
100
AcDbLine
 10
31.50000174288198
 20
256.500000889153
 30
0.0
 11
121.500001742882
 21
256.500000889153
 31
0.0
  0
MTEXT
  5
B271
330
1F
100
AcDbEntity
  8
AM_6
100
AcDbMText
 10
31.50000174288198
 20
244.500000889153
 30
0.0
 40
3.2
 41
90.0
 71
     4
 72
     5
  1
　定尺：2200ｍｍ、2800ｍｍ
 73
     1
 44
1.0
1001
ACAD
1000
ACAD_MTEXT_DEFINED_HEIGHT_BEGIN
1070
    46
1040
0.0
1000
ACAD_MTEXT_DEFINED_HEIGHT_END
1000
MTEXTBEGIN
1070
    73
1070
     1
1070
    44
1040
1.0
1070
    74
1070
     0
1000
MTEXTEND
  0
LINE
  5
B273
330
1F
100
AcDbEntity
  8
AM_0
 48
0.710209800542225
100
AcDbLine
 10
345.8439295331364
 20
164.8061892076448
 30
0.0
 11
345.8439295331182
 21
150.6019931968003
 31
0.0
  0
DIMENSION
  5
B274
330
1F
100
AcDbEntity
  8
AM_5
 48
1.01
100
AcDbDimension
  2
*D4
 10
367.5132572802895
 20
103.3070422553773
 30
0.0
 11
364.4132572802896
 21
134.3066157315116
 31
0.0
 70
    32
 71
     5
 42
61.99914695226836
  3
SYS$0
100
AcDbAlignedDimension
 13
345.3439295331364
 23
165.3061892076457
 33
0.0
 14
345.3439295330627
 24
103.3070422553774
 34
0.0
 50
89.99999999989578
100
AcDbRotatedDimension
  0
DIMENSION
  5
B275
330
1F
100
AcDbEntity
  8
AM_5
 48
1.01
100
AcDbDimension
  2
*D5
 10
315.8439295330567
 20
113.3073275417146
 30
0.0
 11
304.4195051806308
 21
122.3011523627682
 31
0.0
 70
   164
  1
<>
 71
     5
 42
3.499620747296361
  3
SYS$4
100
AcDbRadialDimension
 15
313.8595882956928
 25
116.1899886783391
 35
0.0
 40
0.0
1001
ACAD
1000
DSTYLE
1002
{
1070
   172
1070
     1
1070
   289
1070
     2
1002
}
  0
DIMENSION
  5
B276
330
1F
100
AcDbEntity
  8
AM_5
 48
1.01
100
AcDbDimension
  2
*D6
 10
299.2664755897166
 20
103.307327543177
 30
0.0
 11
296.1664755897167
 21
108.3073275424359
 31
0.0
 70
    32
 71
     5
 42
9.999999998517523
  3
SYS$0
100
AcDbAlignedDimension
 13
309.3443087857486
 23
113.3073275416945
 33
0.0
 14
312.8443087857495
 24
103.307327543177
 34
0.0
 50
90.0
100
AcDbRotatedDimension
1001
ACAD
1000
DSTYLE
1002
{
1070
    47
1040
0.2
1070
    48
1040
0.0
1002
}
  0
DIMENSION
  5
B277
330
1F
100
AcDbEntity
  8
AM_5
 48
1.01
100
AcDbDimension
  2
*D7
 10
312.3443087857487
 20
125.3073275416946
 30
0.0
 11
315.8439295330609
 21
128.4073275416945
 31
0.0
 70
    32
 71
     5
 42
6.999241494624582
  3
SYS$0
100
AcDbAlignedDimension
 13
319.3435502803732
 23
113.3073275416945
 33
0.0
 14
312.3443087857487
 24
113.3073275416945
 34
0.0
 50
180.0
100
AcDbRotatedDimension
1001
ACAD
1000
DSTYLE
1002
{
1070
    47
1040
0.2
1070
    48
1040
0.0
1002
}
  0
DIMENSION
  5
B278
330
1F
100
AcDbEntity
  8
AM_5
100
AcDbDimension
  2
*D8
 10
312.3443087857487
 20
66.16889363589871
 30
0.0
 11
329.094119159422
 21
66.16889363589871
 31
0.0
 70
   160
 71
     5
 42
33.49962074734686
  3
SYS$0
100
AcDbAlignedDimension
 13
345.8439295330955
 23
103.8070422553774
 33
0.0
 14
312.3443087857487
 24
103.8073275431779
 34
0.0
 50
180.0
100
AcDbRotatedDimension
1001
ACAD
1000
DSTYLE
1002
{
1070
    47
1040
0.2
1070
    48
1040
0.0
1002
}
  0
DIMENSION
  5
B279
330
1F
100
AcDbEntity
  8
AM_5
100
AcDbDimension
  2
*D9
 10
337.8439295331364
 20
174.8710402698716
 30
0.0
 11
341.8439295331368
 21
177.9710402698716
 31
0.0
 70
    32
 71
     5
 42
8.000000000000909
  3
SYS$0
100
AcDbAlignedDimension
 13
345.8439295331373
 23
164.8061892076448
 33
0.0
 14
337.8439295331364
 24
164.8061892076548
 34
0.0
 50
180.0
100
AcDbRotatedDimension
1001
ACAD
1000
DSTYLE
1002
{
1070
    47
1040
0.2
1070
    48
1040
0.0
1002
}
  0
LINE
  5
B27A
102
{ACAD_REACTORS
330
B56C
102
}
330
1F
100
AcDbEntity
  8
AM_0
 48
0.35
100
AcDbLine
 10
345.3439295331364
 20
165.3061892076457
 30
0.0
 11
338.3439295331364
 21
165.3061892076548
 31
0.0
  0
LINE
  5
B27B
330
1F
100
AcDbEntity
  8
AM_0
 48
0.1599999999998545
100
AcDbLine
 10
338.3439295331218
 20
150.3061892076548
 30
0.0
 11
341.5439295331188
 21
150.3061892076456
 31
0.0
  0
LINE
  5
B27C
330
1F
100
AcDbEntity
  8
AM_0
 48
0.15
100
AcDbLine
 10
338.3439295331255
 20
153.8061892076539
 30
0.0
 11
339.3439295331254
 21
153.8061892076512
 31
0.0
  0
LINE
  5
B27D
330
1F
100
AcDbEntity
  8
AM_0
 48
0.15
100
AcDbLine
 10
338.3439295331308
 20
161.806189207653
 30
0.0
 11
339.3439295331327
 21
161.8061892076493
 31
0.0
  0
LINE
  5
B27E
330
1F
100
AcDbEntity
  8
AM_0
 48
0.7825735931149667
100
AcDbLine
 10
341.84392953312
 20
150.0061892076455
 30
0.0
 11
341.8439295331063
 21
134.3547173453462
 31
0.0
  0
LINE
  5
B27F
330
1F
100
AcDbEntity
  8
AM_0
 48
0.3699999999999818
100
AcDbLine
 10
344.3439295331327
 20
161.5061892076455
 30
0.0
 11
344.3439295331236
 21
154.1061892076459
 31
0.0
  0
LINE
  5
B280
330
1F
100
AcDbEntity
  8
AM_0
 48
0.710209800542225
100
AcDbLine
 10
345.8439295331364
 20
164.8061892076448
 30
0.0
 11
345.8439295331182
 21
150.6019931968003
 31
0.0
  0
ARC
  5
B281
330
1F
100
AcDbEntity
  8
AM_0
 48
0.3
100
AcDbCircle
 10
341.6439295331211
 20
152.1061892070956
 30
0.0
 40
0.3
100
AcDbArc
 50
270.0
 51
0.0
  0
ARC
  5
B282
330
1F
100
AcDbEntity
  8
AM_0
 48
0.3
100
AcDbCircle
 10
341.5439295331188
 20
150.0061892076455
 30
0.0
 40
0.3
100
AcDbArc
 50
0.0
 51
90.0
  0
LINE
  5
B283
330
1F
100
AcDbEntity
  8
AM_0
 48
0.15
100
AcDbLine
 10
341.943929533124
 20
153.5061892076537
 30
0.0
 11
341.9439295331222
 21
152.1061892070947
 31
0.0
  0
ARC
  5
B284
330
1F
100
AcDbEntity
  8
AM_0
 48
0.3
100
AcDbCircle
 10
345.5439295330771
 20
150.6019931968003
 30
0.0
 40
0.3
100
AcDbArc
 50
279.5940682270383
 51
0.0
  0
ARC
  5
B285
330
1F
100
AcDbEntity
  8
AM_0
 48
0.3
100
AcDbCircle
 10
345.6439295330774
 20
150.0103852184911
 30
0.0
 40
0.3
100
AcDbArc
 50
99.59406822703829
 51
180.0
  0
LINE
  5
B286
330
1F
100
AcDbEntity
  8
AM_0
 48
0.2954196010730357
100
AcDbLine
 10
345.3439295331109
 20
144.1019931970304
 30
0.0
 11
345.3439295331182
 21
150.0103852184911
 31
0.0
  0
ARC
  5
B287
330
1F
100
AcDbEntity
  8
AM_0
 48
0.3
100
AcDbCircle
 10
344.0439295331225
 20
154.1061892076468
 30
0.0
 40
0.3
100
AcDbArc
 50
270.0
 51
0.0
  0
ARC
  5
B288
330
1F
100
AcDbEntity
  8
AM_0
 48
0.3
100
AcDbCircle
 10
342.2439295331233
 20
153.5061892076528
 30
0.0
 40
0.3
100
AcDbArc
 50
90.0
 51
180.0
  0
LINE
  5
B289
330
1F
100
AcDbEntity
  8
AM_0
 48
0.15
100
AcDbLine
 10
342.2439295331233
 20
153.806189207653
 30
0.0
 11
344.0439295331225
 21
153.8061892076466
 31
0.0
  0
LINE
  5
B28A
102
{ACAD_REACTORS
330
B5AB
102
}
330
1F
100
AcDbEntity
  8
AM_0
 48
0.15
100
AcDbLine
 10
339.9439295331204
 20
151.8061892071018
 30
0.0
 11
341.6439295331211
 21
151.8061892070955
 31
0.0
  0
LINE
  5
B28B
330
1F
100
AcDbEntity
  8
AM_0
 48
0.15
100
AcDbLine
 10
339.6439295331247
 20
153.506189207651
 30
0.0
 11
339.6439295331211
 21
152.106189207102
 31
0.0
  0
ARC
  5
B28C
330
1F
100
AcDbEntity
  8
AM_0
 48
0.3
100
AcDbCircle
 10
339.9439295331204
 20
152.106189207102
 30
0.0
 40
0.3
100
AcDbArc
 50
180.0
 51
270.0
  0
ARC
  5
B28D
330
1F
100
AcDbEntity
  8
AM_0
 48
0.3
100
AcDbCircle
 10
339.3439295331236
 20
153.5061892076519
 30
0.0
 40
0.3
100
AcDbArc
 50
0.0
 51
90.0
  0
ARC
  5
B28E
330
1F
100
AcDbEntity
  8
AM_0
 48
0.3
100
AcDbCircle
 10
345.3439295331364
 20
164.8061892076456
 30
0.0
 40
0.5
100
AcDbArc
 50
0.0
 51
90.0
  0
ARC
  5
B28F
330
1F
100
AcDbEntity
  8
AM_0
 48
0.3
100
AcDbCircle
 10
341.6439295331356
 20
163.5061892070934
 30
0.0
 40
0.3
100
AcDbArc
 50
0.0
 51
90.0
  0
ARC
  5
B290
330
1F
100
AcDbEntity
  8
AM_0
 48
0.3
100
AcDbCircle
 10
344.0439295331334
 20
161.5061892076464
 30
0.0
 40
0.3
100
AcDbArc
 50
0.0
 51
90.0
  0
ARC
  5
B291
330
1F
100
AcDbEntity
  8
AM_0
 48
0.3
100
AcDbCircle
 10
342.2439295331342
 20
162.1061892076513
 30
0.0
 40
0.3
100
AcDbArc
 50
180.0
 51
270.0
  0
LINE
  5
B292
330
1F
100
AcDbEntity
  8
AM_0
 48
0.15
100
AcDbLine
 10
342.2439295331342
 20
161.8061892076512
 30
0.0
 11
344.0439295331334
 21
161.8061892076456
 31
0.0
  0
LINE
  5
B293
330
1F
100
AcDbEntity
  8
AM_0
 48
0.15
100
AcDbLine
 10
341.9439295331349
 20
163.5061892070926
 30
0.0
 11
341.9439295331349
 21
162.1061892076513
 31
0.0
  0
LINE
  5
B294
330
1F
100
AcDbEntity
  8
AM_0
 48
0.15
100
AcDbLine
 10
339.6439295331247
 20
163.5061892070989
 30
0.0
 11
339.6439295331247
 21
162.1061892076486
 31
0.0
  0
ARC
  5
B295
330
1F
100
AcDbEntity
  8
AM_0
 48
0.3
100
AcDbCircle
 10
339.3439295331327
 20
162.1061892076486
 30
0.0
 40
0.3
100
AcDbArc
 50
270.0
 51
0.0
  0
ARC
  5
B296
102
{ACAD_REACTORS
330
B5AB
102
}
330
1F
100
AcDbEntity
  8
AM_0
 48
0.3
100
AcDbCircle
 10
339.9439295331349
 20
163.5061892070989
 30
0.0
 40
0.3
100
AcDbArc
 50
90.0
 51
180.0
  0
LINE
  5
B297
102
{ACAD_REACTORS
330
B5AB
102
}
330
1F
100
AcDbEntity
  8
AM_0
 48
0.15
100
AcDbLine
 10
339.9439295331349
 20
163.8061892070991
 30
0.0
 11
341.6439295331356
 21
163.8061892070936
 31
0.0
  0
ARC
  5
B298
330
1F
100
AcDbEntity
  8
AM_0
 48
0.3
100
AcDbCircle
 10
338.3439295331236
 20
153.3061892076539
 30
0.0
 40
0.5
100
AcDbArc
 50
90.0
 51
180.0
  0
ARC
  5
B299
330
1F
100
AcDbEntity
  8
AM_0
 48
0.3
100
AcDbCircle
 10
338.3439295331218
 20
150.8061892076548
 30
0.0
 40
0.5
100
AcDbArc
 50
180.0
 51
270.0
  0
LINE
  5
B29A
330
1F
100
AcDbEntity
  8
AM_0
 48
0.15
100
AcDbLine
 10
337.8439295331236
 20
153.3061892076548
 30
0.0
 11
337.8439295331218
 21
150.8061892076557
 31
0.0
  0
ARC
  5
B29B
330
1F
100
AcDbEntity
  8
AM_0
 48
0.3
100
AcDbCircle
 10
338.3439295331364
 20
164.8061892076548
 30
0.0
 40
0.5
100
AcDbArc
 50
90.0
 51
180.0
  0
ARC
  5
B29C
330
1F
100
AcDbEntity
  8
AM_0
 48
0.3
100
AcDbCircle
 10
338.3439295331327
 20
162.306189207653
 30
0.0
 40
0.5
100
AcDbArc
 50
180.0
 51
270.0
  0
LINE
  5
B29D
330
1F
100
AcDbEntity
  8
AM_0
 48
0.15
100
AcDbLine
 10
337.8439295331364
 20
164.8061892076548
 30
0.0
 11
337.8439295331327
 21
162.3061892076539
 31
0.0
  0
ARC
  5
B29E
330
1F
100
AcDbEntity
  8
AM_0
 48
0.5
100
AcDbCircle
 10
336.8439295330745
 20
113.5073275432014
 30
0.0
 40
5.0
100
AcDbArc
 50
270.0
 51
359.9999999998958
1001
GENIUS_GENOBJ-N-FIL_13
1002
{
1000
OWNER
1000
GEN
1002
}
1001
GENIUS_GENODEF_13
1002
{
1000
HIER
1070
     0
1002
}
1002
{
1000
MANEDIT
1070
     0
1002
}
1002
{
1000
NOSEL
1070
     0
1002
}
1002
{
1000
BEHIND
1070
     0
1002
}
1002
{
1000
OTHER
1070
     0
1002
}
1002
{
1000
REACTOR
1002
}
  0
ARC
  5
B29F
330
1F
100
AcDbEntity
  8
AM_0
 48
0.3
100
AcDbCircle
 10
345.543929533068
 20
108.01152355254
 30
0.0
 40
0.3
100
AcDbArc
 50
0.0
 51
80.40593177296171
  0
LINE
  5
B2A0
330
1F
100
AcDbEntity
  8
AM_0
 48
0.5008633654321785
100
AcDbLine
 10
336.6435502803743
 20
103.3073275432052
 30
0.0
 11
345.3608175890177
 21
103.3073275432007
 31
0.0
  0
ARC
  5
B2A1
102
{ACAD_REACTORS
330
B4E7
102
}
330
1F
100
AcDbEntity
  8
AM_0
 48
0.3
100
AcDbCircle
 10
345.3439295330637
 20
103.8070422553774
 30
0.0
 40
0.5
100
AcDbArc
 50
270.0
 51
0.0
  0
LINE
  5
B2A2
102
{ACAD_REACTORS
330
B4C1
102
}
330
1F
100
AcDbEntity
  8
AM_0
 48
0.2102240648581301
100
AcDbLine
 10
345.8439295330945
 20
103.8070422553774
 30
0.0
 11
345.8439295330945
 21
108.01152355254
 31
0.0
  0
ARC
  5
B2A3
330
1F
100
AcDbEntity
  8
AM_0
 48
0.3
100
AcDbCircle
 10
336.0435502803739
 20
100.1073275432063
 30
0.0
 40
0.3
100
AcDbArc
 50
270.0
 51
0.0
  0
ARC
  5
B2A4
330
1F
100
AcDbEntity
  8
AM_0
 48
0.3
100
AcDbCircle
 10
333.543550280373
 20
101.1073275432063
 30
0.0
 40
0.3
100
AcDbArc
 50
270.0
 51
0.0
  0
ARC
  5
B2A5
330
1F
100
AcDbEntity
  8
AM_0
 48
0.3
100
AcDbCircle
 10
336.6435502803724
 20
103.007327543205
 30
0.0
 40
0.3
100
AcDbArc
 50
90.0
 51
180.0
  0
ARC
  5
B2A6
330
1F
100
AcDbEntity
  8
AM_0
 48
0.3
100
AcDbCircle
 10
333.543550280373
 20
103.0073275432069
 30
0.0
 40
0.3
100
AcDbArc
 50
0.0
 51
90.0
  0
LINE
  5
B2A7
102
{ACAD_REACTORS
330
B5D1
102
}
330
1F
100
AcDbEntity
  8
AM_0
 48
0.15
100
AcDbLine
 10
333.8435502803741
 20
101.1073275432063
 30
0.0
 11
333.8435502803741
 21
103.0073275432069
 31
0.0
  0
LINE
  5
B2A8
330
1F
100
AcDbEntity
  8
AM_0
 48
0.15
100
AcDbLine
 10
336.3435502803732
 20
100.1073275432063
 30
0.0
 11
336.3435502803732
 21
103.007327543205
 31
0.0
  0
LINE
  5
B2A9
330
1F
100
AcDbEntity
  8
AM_0
 48
0.1800000000000182
100
AcDbLine
 10
336.0435502803739
 20
99.80732754320616
 30
0.0
 11
331.4935502803737
 21
99.80732754320616
 31
0.0
  0
LINE
  5
B2AA
330
1F
100
AcDbEntity
  8
AM_0
 48
0.15
100
AcDbLine
 10
331.4935502803737
 20
100.807327543207
 30
0.0
 11
333.543550280373
 21
100.807327543207
 31
0.0
  0
LINE
  5
B2AB
330
1F
100
AcDbEntity
  8
AM_0
 48
0.15
100
AcDbLine
 10
333.543550280373
 20
103.307327543207
 30
0.0
 11
331.3462286704789
 21
103.307327543207
 31
0.0
  0
LINE
  5
B2AC
102
{ACAD_REACTORS
330
B517
330
B544
102
}
330
1F
100
AcDbEntity
  8
AM_7
 48
0.4999999999999547
100
AcDbLine
 10
348.8439295331027
 20
133.806189207934
 30
0.0
 11
338.8439295331036
 21
133.8061892079331
 31
0.0
  0
LINE
  5
B2AD
330
1F
100
AcDbEntity
  8
AM_0
100
AcDbLine
 10
345.8439295330818
 20
119.1031315310783
 30
0.0
 11
345.8439295331146
 21
143.5103852187203
 31
0.0
  0
LINE
  5
B2AE
330
1F
100
AcDbEntity
  8
AM_0
 48
0.6125166763632933
100
AcDbLine
 10
341.8439295330927
 20
125.75766107046
 30
0.0
 11
341.8439295330745
 21
113.5073275431941
 31
0.0
  0
ARC
  5
B2AF
330
1F
100
AcDbEntity
  8
AM_0
 48
0.3
100
AcDbCircle
 10
345.5439295330462
 20
119.1031315310783
 30
0.0
 40
0.3
100
AcDbArc
 50
279.5940682270383
 51
0.0
  0
ARC
  5
B2B0
330
1F
100
AcDbEntity
  8
AM_0
 48
0.3
100
AcDbCircle
 10
345.6439295330483
 20
118.5115235527691
 30
0.0
 40
0.3
100
AcDbArc
 50
99.59406822703829
 51
180.0
  0
ARC
  5
B2B1
330
1F
100
AcDbEntity
  8
AM_0
 48
0.3
100
AcDbCircle
 10
345.6439295330683
 20
108.6031315308491
 30
0.0
 40
0.3
100
AcDbArc
 50
180.0
 51
260.4059317729617
  0
LINE
  5
B2B2
330
1F
100
AcDbEntity
  8
AM_0
 48
0.4954196010959551
100
AcDbLine
 10
345.3439295330672
 20
108.6031315308501
 30
0.0
 11
345.3439295330891
 21
118.5115235527691
 31
0.0
  0
ARC
  5
B2B3
330
1F
100
AcDbEntity
  8
AM_0
 48
0.3
100
AcDbCircle
 10
342.1439295331029
 20
125.75766107046
 30
0.0
 40
0.3
100
AcDbArc
 50
135.0
 51
180.0
  0
ARC
  5
B2B4
330
1F
100
AcDbEntity
  8
AM_0
 48
0.3
100
AcDbCircle
 10
342.1439295331029
 20
126.854717345288
 30
0.0
 40
0.3
100
AcDbArc
 50
180.0
 51
224.9999999999631
  0
ARC
  5
B2B5
330
1F
100
AcDbEntity
  8
AM_0
 48
0.3
100
AcDbCircle
 10
341.8439295330927
 20
126.3061892078749
 30
0.0
 40
0.3
100
AcDbArc
 50
314.9999999999999
 51
44.99999999996322
  0
LINE
  5
B2B6
330
1F
100
AcDbEntity
  8
AM_0
 48
0.15
100
AcDbLine
 10
342.0560615674503
 20
126.0940571735191
 30
0.0
 11
341.9317974987452
 21
125.9697931048158
 31
0.0
  0
LINE
  5
B2B7
330
1F
100
AcDbEntity
  8
AM_0
 48
0.15
100
AcDbLine
 10
342.0560615674503
 20
126.5183212422307
 30
0.0
 11
341.9317974987489
 21
126.6425853109322
 31
0.0
  0
LINE
  5
B2B8
330
1F
100
AcDbEntity
  8
AM_0
 48
0.3201471862615563
100
AcDbLine
 10
341.8439295331036
 20
133.2576610705191
 30
0.0
 11
341.8439295330945
 21
126.854717345288
 31
0.0
  0
ARC
  5
B2B9
330
1F
100
AcDbEntity
  8
AM_0
 48
0.3
100
AcDbCircle
 10
345.543929533068
 20
143.5103852187203
 30
0.0
 40
0.3
100
AcDbArc
 50
0.0
 51
80.40593177296171
  0
ARC
  5
B2BA
330
1F
100
AcDbEntity
  8
AM_0
 48
0.3
100
AcDbCircle
 10
345.6439295330683
 20
144.1019931970295
 30
0.0
 40
0.3
100
AcDbArc
 50
180.0
 51
260.4059317729617
  0
LINE
  5
B2BB
330
1F
100
AcDbEntity
  8
AM_0
 48
0.8250189626350675
100
AcDbLine
 10
320.3435502803732
 20
108.5073275432014
 30
0.0
 11
336.8439295330745
 21
108.5073275432014
 31
0.0
  0
ARC
  5
B2BC
330
1F
100
AcDbEntity
  8
AM_0
 48
0.3
100
AcDbCircle
 10
331.4935502803737
 20
100.1073275432063
 30
0.0
 40
0.3
100
AcDbArc
 50
180.0
 51
270.0
  0
ARC
  5
B2BD
330
1F
100
AcDbEntity
  8
AM_0
 48
0.3
100
AcDbCircle
 10
331.4935502803737
 20
100.5073275432069
 30
0.0
 40
0.3
100
AcDbArc
 50
90.0
 51
180.0
  0
LINE
  5
B2BE
330
1F
100
AcDbEntity
  8
AM_0
 48
0.15
100
AcDbLine
 10
331.1935502803744
 20
100.1073275432063
 30
0.0
 11
331.1935502803744
 21
100.5073275432069
 31
0.0
  0
LINE
  5
B2BF
330
1F
100
AcDbEntity
  8
AM_0
 48
0.3099620747311746
100
AcDbLine
 10
319.043550280373
 20
103.307327543187
 30
0.0
 11
312.8443087857495
 21
103.307327543177
 31
0.0
  0
LINE
  5
B2C0
330
1F
100
AcDbEntity
  8
AM_0
 48
0.2704196010906344
100
AcDbLine
 10
324.8378366482848
 20
103.8073275432052
 30
0.0
 11
330.7546206926772
 21
103.8073275432052
 31
0.0
  0
ARC
  5
B2C1
330
1F
100
AcDbEntity
  8
AM_0
 48
0.3
100
AcDbCircle
 10
319.043550280373
 20
103.0073275431868
 30
0.0
 40
0.3
100
AcDbArc
 50
0.0
 51
90.0
  0
ARC
  5
B2C2
330
1F
100
AcDbEntity
  8
AM_0
 48
0.3
100
AcDbCircle
 10
319.6435502803733
 20
100.1073275432045
 30
0.0
 40
0.3
100
AcDbArc
 50
180.0
 51
270.0
  0
ARC
  5
B2C3
102
{ACAD_REACTORS
330
B5D1
102
}
330
1F
100
AcDbEntity
  8
AM_0
 48
0.3
100
AcDbCircle
 10
322.1435502803733
 20
101.1073275432063
 30
0.0
 40
0.3
100
AcDbArc
 50
180.0
 51
270.0
  0
ARC
  5
B2C4
330
1F
100
AcDbEntity
  8
AM_0
 48
0.3
100
AcDbCircle
 10
322.1435502803733
 20
103.0073275432069
 30
0.0
 40
0.3
100
AcDbArc
 50
90.0
 51
180.0
  0
LINE
  5
B2C5
330
1F
100
AcDbEntity
  8
AM_0
 48
0.15
100
AcDbLine
 10
321.8435502803741
 20
101.1073275432063
 30
0.0
 11
321.8435502803741
 21
103.0073275432069
 31
0.0
  0
LINE
  5
B2C6
330
1F
100
AcDbEntity
  8
AM_0
 48
0.15
100
AcDbLine
 10
319.3435502803741
 20
100.1073275432045
 30
0.0
 11
319.3435502803741
 21
103.0073275431868
 31
0.0
  0
ARC
  5
B2C7
330
1F
100
AcDbEntity
  8
AM_0
 48
0.3
100
AcDbCircle
 10
324.1935502803726
 20
100.1073275432063
 30
0.0
 40
0.3
100
AcDbArc
 50
270.0
 51
0.0
  0
ARC
  5
B2C8
330
1F
100
AcDbEntity
  8
AM_0
 48
0.3
100
AcDbCircle
 10
324.1935502803726
 20
100.5073275432069
 30
0.0
 40
0.3
100
AcDbArc
 50
0.0
 51
90.0
  0
LINE
  5
B2C9
330
1F
100
AcDbEntity
  8
AM_0
 48
0.15
100
AcDbLine
 10
324.4935502803737
 20
100.1073275432063
 30
0.0
 11
324.4935502803737
 21
100.5073275432069
 31
0.0
  0
LINE
  5
B2CA
330
1F
100
AcDbEntity
  8
AM_0
 48
0.15
100
AcDbLine
 10
322.1435502803733
 20
100.8073275432061
 30
0.0
 11
324.1935502803726
 21
100.8073275432061
 31
0.0
  0
LINE
  5
B2CB
330
1F
100
AcDbEntity
  8
AM_0
 48
0.2449999999999818
100
AcDbLine
 10
324.1935502803726
 20
99.80732754320616
 30
0.0
 11
319.6435502803733
 21
99.80732754320436
 31
0.0
  0
LINE
  5
B2CC
330
1F
100
AcDbEntity
  8
AM_0
 48
0.15
100
AcDbLine
 10
324.2462286704786
 20
103.307327543207
 30
0.0
 11
322.1435502803733
 21
103.307327543207
 31
0.0
  0
ARC
  5
B2CD
102
{ACAD_REACTORS
330
B492
102
}
330
1F
100
AcDbEntity
  8
AM_0
 48
0.3
100
AcDbCircle
 10
312.8443087857486
 20
103.8073275431779
 30
0.0
 40
0.5
100
AcDbArc
 50
180.0
 51
270.0
  0
LINE
  5
B2CE
102
{ACAD_REACTORS
330
B492
102
}
330
1F
100
AcDbEntity
  8
AM_0
 48
0.3725735931303916
100
AcDbLine
 10
312.3443087857487
 20
103.8073275431779
 30
0.0
 11
312.3443087857504
 21
111.2587994057858
 31
0.0
  0
LINE
  5
B2CF
330
1F
100
AcDbEntity
  8
AM_0
 48
0.15
100
AcDbLine
 10
312.5564408201043
 20
111.5951955088449
 30
0.0
 11
312.4321767514002
 21
111.4709314401425
 31
0.0
  0
ARC
  5
B2D0
330
1F
100
AcDbEntity
  8
AM_0
 48
0.3
100
AcDbCircle
 10
312.644308785757
 20
111.2587994057858
 30
0.0
 40
0.3
100
AcDbArc
 50
135.0
 51
180.0
  0
ARC
  5
B2D1
330
1F
100
AcDbEntity
  8
AM_0
 48
0.3
100
AcDbCircle
 10
312.3443087857467
 20
111.8073275432007
 30
0.0
 40
0.3
100
AcDbArc
 50
314.9999999999999
 51
44.99999999996322
  0
LINE
  5
B2D2
330
1F
100
AcDbEntity
  8
AM_0
 48
0.15
100
AcDbLine
 10
312.5564408201035
 20
112.0194595775574
 30
0.0
 11
312.4321767513911
 21
112.1437236462689
 31
0.0
  0
LINE
  5
B2D3
330
1F
100
AcDbEntity
  8
AM_7
 48
0.6499620747312293
100
AcDbLine
 10
309.3443087857486
 20
113.3073275416945
 30
0.0
 11
322.3435502803732
 21
113.3073275416945
 31
0.0
  0
LINE
  5
B2D4
330
1F
100
AcDbEntity
  8
AM_7
100
AcDbLine
 10
315.8439295330609
 20
99.40097086714105
 30
0.0
 11
315.8439295330609
 21
119.8069482890068
 31
0.0
  0
LINE
  5
B2D5
102
{ACAD_REACTORS
330
B4E7
330
B517
102
}
330
1F
100
AcDbEntity
  8
AM_7
 48
0.5000000000000455
100
AcDbLine
 10
348.8439295330926
 20
126.3061892078758
 30
0.0
 11
338.8439295330918
 21
126.306189207874
 31
0.0
  0
LINE
  5
B2D6
102
{ACAD_REACTORS
330
B544
330
B56C
102
}
330
1F
100
AcDbEntity
  8
AM_7
 48
0.7256105702589141
100
AcDbLine
 10
348.8439295331263
 20
157.8061892076594
 30
0.0
 11
334.3317181279481
 21
157.8061892076594
 31
0.0
  0
LINE
  5
B2D7
102
{ACAD_REACTORS
330
B492
330
B4C1
102
}
330
1F
100
AcDbEntity
  8
AM_7
 48
0.7692651060179287
100
AcDbLine
 10
327.7962286704787
 20
95.75139168221358
 30
0.0
 11
327.7962286704787
 21
111.1366938025721
 31
0.0
  0
ARC
  5
B2D8
330
1F
100
AcDbEntity
  8
AM_0
 48
0.3
100
AcDbCircle
 10
342.1439295331029
 20
133.2576610705191
 30
0.0
 40
0.3
100
AcDbArc
 50
135.0
 51
180.0
  0
ARC
  5
B2D9
330
1F
100
AcDbEntity
  8
AM_0
 48
0.3
100
AcDbCircle
 10
342.1439295331029
 20
134.3547173453471
 30
0.0
 40
0.3
100
AcDbArc
 50
180.0
 51
224.9999999999631
  0
ARC
  5
B2DA
330
1F
100
AcDbEntity
  8
AM_0
 48
0.3
100
AcDbCircle
 10
341.8439295330927
 20
133.806189207934
 30
0.0
 40
0.3
100
AcDbArc
 50
314.9999999999999
 51
44.99999999996322
  0
LINE
  5
B2DB
330
1F
100
AcDbEntity
  8
AM_0
 48
0.15
100
AcDbLine
 10
342.0560615674485
 20
133.5940571735755
 30
0.0
 11
341.931797498748
 21
133.4697931048776
 31
0.0
  0
LINE
  5
B2DC
330
1F
100
AcDbEntity
  8
AM_0
 48
0.15
100
AcDbLine
 10
342.0560615674494
 20
134.0183212422907
 30
0.0
 11
341.931797498748
 21
134.1425853109922
 31
0.0
  0
ARC
  5
B2DD
330
1F
100
AcDbEntity
  8
AM_0
 48
0.3499620747312293
100
AcDbCircle
 10
315.8439295330609
 20
113.3073275416945
 30
0.0
 40
3.499620747312291
100
AcDbArc
 50
0.0
 51
180.0
  0
LINE
  5
B2DE
330
1F
100
AcDbEntity
  8
AM_7
 48
0.4323500167447037
100
AcDbLine
 10
309.3443087857486
 20
111.8073275432007
 30
0.0
 11
317.9913091206426
 21
111.8073275432007
 31
0.0
  0
LINE
  5
B2DF
330
1F
100
AcDbEntity
  8
AM_0
 48
0.15
100
AcDbLine
 10
312.3443087857487
 20
113.3073275416945
 30
0.0
 11
312.3443087857477
 21
112.3558556806247
 31
0.0
  0
ARC
  5
B2E0
330
1F
100
AcDbEntity
  8
AM_0
 48
0.3
100
AcDbCircle
 10
312.6443087857479
 20
112.3558556806247
 30
0.0
 40
0.3
100
AcDbArc
 50
180.0
 51
224.9999999998526
1001
GENIUS_GENOBJ-N-FIL_13
1002
{
1000
OWNER
1000
GEN
1002
}
1001
GENIUS_GENODEF_13
1002
{
1000
HIER
1070
     0
1002
}
1002
{
1000
MANEDIT
1070
     0
1002
}
1002
{
1000
NOSEL
1070
     0
1002
}
1002
{
1000
BEHIND
1070
     0
1002
}
1002
{
1000
OTHER
1070
     0
1002
}
1002
{
1000
REACTOR
1002
}
  0
LINE
  5
B2E1
330
1F
100
AcDbEntity
  8
AM_0
 48
0.1899999999246574
100
AcDbLine
 10
319.3435502803732
 20
113.3073275416945
 30
0.0
 11
319.3435502803732
 21
109.5073275432014
 31
0.0
  0
ARC
  5
B2E2
330
1F
100
AcDbEntity
  8
AM_0
 48
0.3
100
AcDbCircle
 10
320.3435502803714
 20
109.5073275431996
 30
0.0
 40
1.0
100
AcDbArc
 50
179.9999999998957
 51
270.0000000001042
1001
GENIUS_GENODEF_13
1002
{
1000
HIER
1070
     0
1002
}
1002
{
1000
MANEDIT
1070
     0
1002
}
1002
{
1000
NOSEL
1070
     0
1002
}
1002
{
1000
BEHIND
1070
     0
1002
}
1002
{
1000
OTHER
1070
     0
1002
}
1002
{
1000
REACTOR
1002
}
1001
GENIUS_GENOBJ-N-FIL_13
1002
{
1000
OWNER
1000
GEN
1002
}
  0
ARC
  5
B2E3
330
1F
100
AcDbEntity
  8
AM_0
100
AcDbCircle
 10
324.2462286704795
 20
103.6073275432081
 30
0.0
 40
0.3
100
AcDbArc
 50
269.9999999998958
 51
350.4059317648231
1001
GENIUS_GENOBJ-N-FIL_13
1002
{
1000
OWNER
1000
GEN
1002
}
1001
GENIUS_GENODEF_13
1002
{
1000
HIER
1070
     0
1002
}
1002
{
1000
MANEDIT
1070
     0
1002
}
1002
{
1000
NOSEL
1070
     0
1002
}
1002
{
1000
BEHIND
1070
     0
1002
}
1002
{
1000
OTHER
1070
     0
1002
}
1002
{
1000
REACTOR
1002
}
  0
ARC
  5
B2E4
330
1F
100
AcDbEntity
  8
AM_0
100
AcDbCircle
 10
324.8378366482848
 20
103.507327543205
 30
0.0
 40
0.3
100
AcDbArc
 50
90.0
 51
170.4059317648231
1001
GENIUS_GENODEF_13
1002
{
1000
HIER
1070
     0
1002
}
1002
{
1000
MANEDIT
1070
     0
1002
}
1002
{
1000
NOSEL
1070
     0
1002
}
1002
{
1000
BEHIND
1070
     0
1002
}
1002
{
1000
OTHER
1070
     0
1002
}
1002
{
1000
REACTOR
1002
}
1001
GENIUS_GENOBJ-N-FIL_13
1002
{
1000
OWNER
1000
GEN
1002
}
  0
ARC
  5
B2E5
330
1F
100
AcDbEntity
  8
AM_0
100
AcDbCircle
 10
331.3462286704826
 20
103.6073275432081
 30
0.0
 40
0.3
100
AcDbArc
 50
189.594068235331
 51
269.9999999993746
1001
GENIUS_GENOBJ-N-FIL_13
1002
{
1000
OWNER
1000
GEN
1002
}
1001
GENIUS_GENODEF_13
1002
{
1000
HIER
1070
     0
1002
}
1002
{
1000
MANEDIT
1070
     0
1002
}
1002
{
1000
NOSEL
1070
     0
1002
}
1002
{
1000
BEHIND
1070
     0
1002
}
1002
{
1000
OTHER
1070
     0
1002
}
1002
{
1000
REACTOR
1002
}
  0
ARC
  5
B2E6
330
1F
100
AcDbEntity
  8
AM_0
100
AcDbCircle
 10
330.7546206926772
 20
103.5073275432041
 30
0.0
 40
0.3
100
AcDbArc
 50
9.594068235176836
 51
90.0
1001
GENIUS_GENODEF_13
1002
{
1000
HIER
1070
     0
1002
}
1002
{
1000
MANEDIT
1070
     0
1002
}
1002
{
1000
NOSEL
1070
     0
1002
}
1002
{
1000
BEHIND
1070
     0
1002
}
1002
{
1000
OTHER
1070
     0
1002
}
1002
{
1000
REACTOR
1002
}
1001
GENIUS_GENOBJ-N-FIL_13
1002
{
1000
OWNER
1000
GEN
1002
}
  0
LINE
  5
B2E7
102
{ACAD_REACTORS
330
B6AA
330
B6D2
102
}
330
1F
100
AcDbEntity
  8
AM_0
100
AcDbLine
 10
263.8474096618993
 20
165.3061892076512
 30
0.0
 11
263.8474096618993
 21
99.80732754320705
 31
0.0
  0
LINE
  5
B2E8
330
1F
100
AcDbEntity
  8
AM_0
100
AcDbLine
 10
82.69254454093605
 20
165.3061892076503
 30
0.0
 11
263.8474096618984
 21
165.3061892076503
 31
0.0
  0
LINE
  5
B2E9
330
1F
100
AcDbEntity
  8
AM_0
100
AcDbLine
 10
82.69254454093426
 20
150.3061892076612
 30
0.0
 11
263.8474096618975
 21
150.3061892076584
 31
0.0
  0
LINE
  5
B2EA
330
1F
100
AcDbEntity
  8
AM_0
100
AcDbLine
 10
82.69254454093605
 20
161.8061892076557
 30
0.0
 11
263.8474096618984
 21
161.8061892076621
 31
0.0
  0
LINE
  5
B2EB
330
1F
100
AcDbEntity
  8
AM_0
100
AcDbLine
 10
82.69254454093426
 20
153.8061892076594
 30
0.0
 11
263.8474096618975
 21
153.8061892076584
 31
0.0
  0
LINE
  5
B2EC
330
1F
100
AcDbEntity
  8
AM_CL
  6
Continuous
100
AcDbLine
 10
82.69254454093333
 20
133.8061892079386
 30
0.0
 11
127.3593433244869
 21
133.8061892079395
 31
0.0
  0
LINE
  5
B2ED
330
1F
100
AcDbEntity
  8
AM_CL
  6
Continuous
100
AcDbLine
 10
82.69254454093516
 20
133.806189207944
 30
0.0
 11
208.8474096618993
 21
133.8304532766779
 31
0.0
  0
LINE
  5
B2EE
330
1F
100
AcDbEntity
  8
AM_CL
  6
Continuous
100
AcDbLine
 10
216.5974096618993
 20
133.8061892079349
 30
0.0
 11
263.8474096618993
 21
133.8061892079413
 31
0.0
  0
LINE
  5
B2EF
330
1F
100
AcDbEntity
  8
AM_CL
  6
Continuous
100
AcDbLine
 10
82.69254454093605
 20
125.8061892079395
 30
0.0
 11
263.8474096618984
 21
125.8061892079395
 31
0.0
  0
LINE
  5
B2F0
330
1F
100
AcDbEntity
  8
AM_CL
  6
Continuous
100
AcDbLine
 10
82.69254454093605
 20
126.306189207884
 30
0.0
 11
263.8474096618984
 21
126.3061892078767
 31
0.0
  0
LINE
  5
B2F1
102
{ACAD_REACTORS
330
B6AA
102
}
330
1F
100
AcDbEntity
  8
AM_0
100
AcDbLine
 10
82.69254454093605
 20
99.80732754320888
 30
0.0
 11
263.8474096618984
 21
99.80732754320436
 31
0.0
  0
LINE
  5
B2F2
102
{ACAD_REACTORS
330
B6AA
330
B6D2
102
}
330
1F
100
AcDbEntity
  8
AM_0
100
AcDbLine
 10
82.69254454093605
 20
103.3073275431825
 30
0.0
 11
263.8474096618984
 21
103.3073275431797
 31
0.0
  0
LINE
  5
B2F3
330
1F
100
AcDbEntity
  8
AM_CL
  6
Continuous
100
AcDbLine
 10
263.8474096618993
 20
134.3547173452916
 30
0.0
 11
218.7969739205082
 21
134.3547173452944
 31
0.0
  0
LINE
  5
B2F4
330
1F
100
AcDbEntity
  8
AM_CL
  6
Continuous
100
AcDbLine
 10
208.8978454032904
 20
134.3547173452925
 30
0.0
 11
82.69254454093333
 21
134.3547173452944
 31
0.0
  0
LINE
  5
B2F5
330
1F
100
AcDbEntity
  8
AM_CL
  6
Continuous
100
AcDbLine
 10
130.3855149971405
 20
134.3547173452934
 30
0.0
 11
82.69254454093426
 21
134.3547173452934
 31
0.0
  0
LINE
  5
B2F6
330
1F
100
AcDbEntity
  8
AM_CL
  6
Continuous
100
AcDbLine
 10
263.8474096618984
 20
125.7576610704645
 30
0.0
 11
82.69254454093516
 21
125.7576610704691
 31
0.0
  0
LINE
  5
B2F7
330
1F
100
AcDbEntity
  8
AM_CL
  6
Continuous
100
AcDbLine
 10
263.8474096618984
 20
126.8547173452962
 30
0.0
 11
82.69254454093516
 21
126.8547173452898
 31
0.0
  0
LINE
  5
B2F8
330
1F
100
AcDbEntity
  8
AM_CL
  6
Continuous
100
AcDbLine
 10
263.8474096618993
 20
133.2576610704682
 30
0.0
 11
218.7870953477195
 21
133.2576610704682
 31
0.0
  0
LINE
  5
B2F9
330
1F
100
AcDbEntity
  8
AM_CL
  6
Continuous
100
AcDbLine
 10
208.90772397608
 20
133.2576610704664
 30
0.0
 11
82.69254454093516
 21
133.2576610704664
 31
0.0
  0
LINE
  5
B2FA
330
1F
100
AcDbEntity
  8
AM_CL
  6
Continuous
100
AcDbLine
 10
130.3953935699301
 20
133.2576610704664
 30
0.0
 11
82.69254454093333
 21
133.2576610704664
 31
0.0
  0
LINE
  5
B2FB
330
1F
100
AcDbEntity
  8
AM_CL
  6
Continuous
100
AcDbLine
 10
82.69254454093605
 20
111.8073275432061
 30
0.0
 11
263.8474096618984
 21
111.8073275432025
 31
0.0
  0
LINE
  5
B2FC
330
1F
100
AcDbEntity
  8
AM_CL
  6
Continuous
100
AcDbLine
 10
82.69254454093605
 20
112.7094958879834
 30
0.0
 11
263.8474096618984
 21
112.7094958879861
 31
0.0
  0
LINE
  5
B2FD
330
1F
100
AcDbEntity
  8
AM_CL
  6
Continuous
100
AcDbLine
 10
263.8474096618984
 20
111.2587994057894
 30
0.0
 11
82.69254454093605
 21
111.2587994057912
 31
0.0
  0
LINE
  5
B2FE
330
1F
100
AcDbEntity
  8
AM_0
100
AcDbLine
 10
263.8474096618984
 20
116.8069482890114
 30
0.0
 11
82.69254454093605
 21
116.8069482890123
 31
0.0
  0
DIMENSION
  5
B2FF
330
1F
100
AcDbEntity
  8
AM_5
 48
1.01
100
AcDbDimension
  2
*D10
 10
263.8474096618984
 20
67.13721945476755
 30
0.0
 11
173.2699771014163
 21
71.07531469286278
 31
0.0
 70
    32
  1
レールL=2200/2800
 71
     5
 42
181.1548651209641
  3
SYS$0
100
AcDbAlignedDimension
 13
82.69254454093426
 23
94.80732754320795
 33
0.0
 14
263.8474096618984
 24
99.80732754320436
 34
0.0
100
AcDbRotatedDimension
1001
ACAD
1000
DSTYLE
1002
{
1070
    47
1040
0.2
1070
    48
1040
0.0
1070
    75
1070
     1
1070
   173
1070
     1
1070
   342
1005
0
1070
   343
1005
A66
1070
   344
1005
6C4
1002
}
  0
LINE
  5
B300
330
1F
100
AcDbEntity
  8
AM_7
 48
0.8024264068737466
100
AcDbLine
 10
213.8474096618993
 20
125.7576610704636
 30
0.0
 11
213.8474096618993
 21
141.8061892079386
 31
0.0
  0
LINE
  5
B301
102
{ACAD_REACTORS
330
B6D2
102
}
330
1F
100
AcDbEntity
  8
AM_CL
  6
Continuous
100
AcDbLine
 10
263.8474096618993
 20
133.8061892079386
 30
0.0
 11
216.5974096618993
 21
133.8061892079395
 31
0.0
  0
LINE
  5
B302
330
1F
100
AcDbEntity
  8
AM_CL
  6
Continuous
100
AcDbLine
 10
218.7969739205082
 20
134.3547173452925
 30
0.0
 11
263.8474096618993
 21
134.3547173453007
 31
0.0
  0
LINE
  5
B303
330
1F
100
AcDbEntity
  8
AM_CL
  6
Continuous
100
AcDbLine
 10
218.7870953477186
 20
133.2576610704655
 30
0.0
 11
263.8474096619002
 21
133.2576610704727
 31
0.0
  0
DIMENSION
  5
B304
330
1F
100
AcDbEntity
  8
AM_5
100
AcDbDimension
  2
*D11
 10
213.8474096618993
 20
78.78503713127429
 30
0.0
 11
148.2699771014168
 21
84.55170379794095
 31
0.0
 70
    32
  1
P=300×7 （L=2200）\PP=300×9 （L=2800）　
 71
     5
 42
131.154865120965
  3
SYS$0
100
AcDbAlignedDimension
 13
82.69254454093426
 23
94.80732754320795
 33
0.0
 14
213.8474096618993
 24
125.7576610704636
 34
0.0
100
AcDbRotatedDimension
1001
ACAD
1000
DSTYLE
1002
{
1070
    47
1040
0.2
1070
    48
1040
0.0
1070
    75
1070
     1
1070
   173
1070
     1
1070
   342
1005
0
1070
   343
1005
A66
1070
   344
1005
6C4
1002
}
  0
LINE
  5
B305
330
1F
100
AcDbEntity
  8
AM_10
100
AcDbLine
 10
82.69254454093426
 20
94.80732754320795
 30
0.0
 11
82.69254454093426
 21
170.3061892076512
 31
0.0
  0
LINE
  5
B306
330
1F
100
AcDbEntity
  8
AM_7
 48
0.8024264068737466
100
AcDbLine
 10
221.8959377993742
 20
133.8061892079395
 30
0.0
 11
205.8474096618993
 21
133.8061892079395
 31
0.0
  0
DIMENSION
  5
B309
330
1F
100
AcDbEntity
  8
AM_5
100
AcDbDimension
  2
*D12
 10
213.5500551011082
 20
131.9199749263717
 30
0.0
 11
145.1372209387526
 21
175.8440945995817
 31
0.0
 70
   163
  1
N+1-<>×10スロット
 71
     5
 42
5.499999999996816
  3
SYS$3
100
AcDbDiametricDimension
 15
209.5477079477686
 25
135.6924034895283
 35
0.0
 40
0.0
  0
ARC
  5
B30A
330
1F
100
AcDbEntity
  8
AM_0
100
AcDbCircle
 10
211.5974096618993
 20
133.8304532766779
 30
0.0
 40
2.75
100
AcDbArc
 50
90.0
 51
270.0
  0
ARC
  5
B30B
330
1F
100
AcDbEntity
  8
AM_0
100
AcDbCircle
 10
216.0974096618993
 20
133.8304532766779
 30
0.0
 40
2.75
100
AcDbArc
 50
270.0
 51
90.0
  0
LINE
  5
B30C
330
1F
100
AcDbEntity
  8
AM_0
100
AcDbLine
 10
211.5974096618993
 20
136.5804532766778
 30
0.0
 11
216.0974096618993
 21
136.5804532766778
 31
0.0
  0
LINE
  5
B30D
330
1F
100
AcDbEntity
  8
AM_0
100
AcDbLine
 10
211.5974096618993
 20
131.0804532766778
 30
0.0
 11
216.0974096618993
 21
131.0804532766778
 31
0.0
  0
DIMENSION
  5
B30E
330
1F
100
AcDbEntity
  8
AM_5
100
AcDbDimension
  2
*D13
 10
213.8474096618993
 20
78.78503713057217
 30
0.0
 11
238.8474096618993
 21
81.88503713057215
 31
0.0
 70
    32
 71
     5
 42
50.0
  3
SYS$0
100
AcDbAlignedDimension
 13
263.8474096618993
 23
99.80732754320436
 33
0.0
 14
213.8474096618993
 24
125.7576610704636
 34
0.0
100
AcDbRotatedDimension
1001
ACAD
1000
DSTYLE
1002
{
1070
    47
1040
0.2
1070
    48
1040
0.0
1002
}
  0
DIMENSION
  5
B484
102
{ACAD_XDICTIONARY
360
B491
102
}
102
{ACAD_REACTORS
330
B492
102
}
330
1F
100
AcDbEntity
  8
AM_5
100
AcDbDimension
  2
*D14
 10
327.7962286704787
 20
76.16889363589925
 30
0.0
 11
320.0702687281137
 21
79.26889363589925
 31
0.0
 70
    32
 71
     5
 42
15.45191988473004
  3
SYS$0
100
AcDbAlignedDimension
 13
312.3443087857487
 23
103.807327543178
 33
0.0
 14
327.7962286704787
 24
95.75139168221355
 34
0.0
 50
0.0000000000001132
100
AcDbRotatedDimension
1001
ACAD
1000
DSTYLE
1002
{
1070
   271
1070
     1
1002
}
  0
DIMENSION
  5
B4B3
102
{ACAD_XDICTIONARY
360
B4C0
102
}
102
{ACAD_REACTORS
330
B4C1
102
}
330
1F
100
AcDbEntity
  8
AM_5
100
AcDbDimension
  2
*D15
 10
345.8439295330945
 20
76.1688936358993
 30
0.0
 11
336.8200791017866
 21
79.26889363589928
 31
0.0
 70
    32
 71
     5
 42
18.04770086261578
  3
SYS$0
100
AcDbAlignedDimension
 13
327.7962286704787
 23
95.75139168221358
 33
0.0
 14
345.8439295330945
 24
103.8070422553774
 34
0.0
 50
0.0000000000001132
100
AcDbRotatedDimension
1001
ACAD
1000
DSTYLE
1002
{
1070
   271
1070
     1
1002
}
  0
DIMENSION
  5
B4D9
102
{ACAD_XDICTIONARY
360
B4E6
102
}
102
{ACAD_REACTORS
330
B4E7
102
}
330
1F
100
AcDbEntity
  8
AM_5
100
AcDbDimension
  2
*D16
 10
357.5132572800803
 20
126.3061892078758
 30
0.0
 11
354.4132572800803
 21
114.8066157316266
 31
0.0
 70
    32
 71
     5
 42
22.99914695249845
  3
SYS$0
100
AcDbAlignedDimension
 13
345.3439295330637
 23
103.3070422553774
 33
0.0
 14
348.8439295330926
 24
126.3061892078758
 34
0.0
 50
90.00000000001049
100
AcDbRotatedDimension
  0
DIMENSION
  5
B508
102
{ACAD_XDICTIONARY
360
B516
102
}
102
{ACAD_REACTORS
330
B517
102
}
330
1F
100
AcDbEntity
  8
AM_5
100
AcDbDimension
  2
*D17
 10
357.5132572800807
 20
133.806189207934
 30
0.0
 11
354.4132572800807
 21
130.056189207905
 31
0.0
 70
    32
 71
     5
 42
7.500000000058221
  3
SYS$0
100
AcDbAlignedDimension
 13
348.8439295330926
 23
126.3061892078758
 33
0.0
 14
348.8439295331027
 24
133.806189207934
 34
0.0
 50
90.00000000001049
100
AcDbRotatedDimension
1001
ACAD
1000
DSTYLE
1002
{
1070
   174
1070
     1
1002
}
  0
DIMENSION
  5
B536
102
{ACAD_XDICTIONARY
360
B543
102
}
102
{ACAD_REACTORS
330
B544
102
}
330
1F
100
AcDbEntity
  8
AM_5
100
AcDbDimension
  2
*D18
 10
357.5132572800785
 20
157.8061892076594
 30
0.0
 11
354.4132572800784
 21
145.8061892077967
 31
0.0
 70
    32
 71
     5
 42
23.99999999972533
  3
SYS$0
100
AcDbAlignedDimension
 13
348.8439295331027
 23
133.806189207934
 33
0.0
 14
348.8439295331263
 24
157.8061892076594
 34
0.0
 50
90.00000000000978
100
AcDbRotatedDimension
1001
ACAD
1000
DSTYLE
1002
{
1070
   174
1070
     1
1002
}
  0
DIMENSION
  5
B55D
102
{ACAD_XDICTIONARY
360
B56B
102
}
102
{ACAD_REACTORS
330
B56C
102
}
330
1F
100
AcDbEntity
  8
AM_5
100
AcDbDimension
  2
*D19
 10
357.5132572800756
 20
165.3061892076457
 30
0.0
 11
354.4132572800755
 21
161.5561892076526
 31
0.0
 70
    32
 71
     5
 42
7.499999999986357
  3
SYS$0
100
AcDbAlignedDimension
 13
348.8439295331263
 23
157.8061892076594
 33
0.0
 14
345.3439295331364
 24
165.3061892076457
 34
0.0
 50
90.00000000000978
100
AcDbRotatedDimension
1001
ACAD
1000
DSTYLE
1002
{
1070
   174
1070
     1
1002
}
  0
DIMENSION
  5
B59D
102
{ACAD_XDICTIONARY
360
B5AA
102
}
102
{ACAD_REACTORS
330
B5AB
102
}
330
1F
100
AcDbEntity
  8
AM_5
100
AcDbDimension
  2
*D20
 10
327.9439295330995
 20
163.8061892070991
 30
0.0
 11
324.8439295330994
 21
157.8061892071005
 31
0.0
 70
    32
 71
     5
 42
11.9999999999973
  3
SYS$0
100
AcDbAlignedDimension
 13
339.9439295331204
 23
151.8061892071018
 33
0.0
 14
339.9439295331359
 24
163.8061892070991
 34
0.0
 50
89.99999999978546
100
AcDbRotatedDimension
  0
DIMENSION
  5
B5C3
102
{ACAD_XDICTIONARY
360
B5D0
102
}
102
{ACAD_REACTORS
330
B5D1
102
}
330
1F
100
AcDbEntity
  8
AM_5
100
AcDbDimension
  2
*D21
 10
333.8435502803741
 20
86.24700391634268
 30
0.0
 11
330.86543999993
 21
86.24700391634268
 31
0.0
 70
   160
 71
     5
 42
12.00000000000074
  3
SYS$0
100
AcDbAlignedDimension
 13
321.8435502803733
 23
101.1073275432063
 33
0.0
 14
333.8435502803741
 24
101.1073275432063
 34
0.0
 50
0.0000000000001132
100
AcDbRotatedDimension
  0
DIMENSION
  5
B69A
102
{ACAD_XDICTIONARY
360
B6A9
102
}
102
{ACAD_REACTORS
330
B6AA
330
B6D2
102
}
330
1F
100
AcDbEntity
  8
AM_5
100
AcDbDimension
  2
*D22
 10
275.8474096618992
 20
99.80732754320436
 30
0.0
 11
272.7474096618992
 21
93.96066087653773
 31
0.0
 70
    32
 71
     5
 42
3.499999999975443
  3
SYS$0
100
AcDbAlignedDimension
 13
263.8474096618993
 23
103.3073275431797
 33
0.0
 14
263.8474096618993
 24
99.80732754320436
 34
0.0
 50
89.99999999999911
100
AcDbRotatedDimension
  0
DIMENSION
  5
B6C4
102
{ACAD_XDICTIONARY
360
B6D1
102
}
102
{ACAD_REACTORS
330
B6D2
102
}
330
1F
100
AcDbEntity
  8
AM_5
100
AcDbDimension
  2
*D23
 10
275.8474096618997
 20
133.8061892079386
 30
0.0
 11
272.7474096618996
 21
118.5567583755592
 31
0.0
 70
    32
 71
     5
 42
30.49886166475881
  3
SYS$0
100
AcDbAlignedDimension
 13
263.8474096618993
 23
103.3073275431797
 33
0.0
 14
263.8474096618993
 24
133.8061892079386
 34
0.0
 50
89.99999999999911
100
AcDbRotatedDimension
  0
MTEXT
  5
B6E7
330
1F
100
AcDbEntity
  8
AM_6
100
AcDbMText
 10
21.50000174288198
 20
252.500000889153
 30
0.0
 40
3.2
 41
20.0
 71
     5
 72
     5
  1
左右勝手
 73
     1
 44
1.0
1001
ACAD
1000
ACAD_MTEXT_DEFINED_HEIGHT_BEGIN
1070
    46
1040
0.0
1000
ACAD_MTEXT_DEFINED_HEIGHT_END
1000
MTEXTBEGIN
1070
    73
1070
     1
1070
    44
1040
1.0
1070
    74
1070
     0
1000
MTEXTEND
  0
MTEXT
  5
B6E8
330
1F
100
AcDbEntity
  8
AM_6
100
AcDbMText
 10
31.50000174288198
 20
236.5000008891529
 30
0.0
 40
3.2
 41
90.0
 71
     4
 72
     5
  1
　※
 73
     1
 44
1.0
1001
ACAD
1000
MTEXTBEGIN
1070
    73
1070
     1
1070
    44
1040
1.0
1070
    74
1070
     0
1000
MTEXTEND
  0
MTEXT
  5
B730
330
1F
100
AcDbEntity
  8
AM_6
100
AcDbMText
 10
31.50000174288198
 20
252.500000889153
 30
0.0
 40
3.2
 41
90.0
 71
     4
 72
     5
  1
　※
 73
     1
 44
1.0
1001
ACAD
1000
MTEXTBEGIN
1070
    73
1070
     1
1070
    44
1040
1.0
1070
    74
1070
     0
1000
MTEXTEND
  0
ENDSEC
  0
SECTION
  2
OBJECTS
  0
DICTIONARY
  5
C
330
0
100
AcDbDictionary
281
     1
  3
ACAD_BGPLOT_KEY
350
AB06
  3
ACAD_COLOR
350
A91D
  3
ACAD_GROUP
350
D
  3
ACAD_LAYOUT
350
1A
  3
ACAD_MATERIAL
350
A91C
  3
ACAD_MLINESTYLE
350
17
  3
ACAD_PLOTSETTINGS
350
19
  3
ACAD_PLOTSTYLENAME
350
E
  3
ACAD_TABLESTYLE
350
AAB9
  3
AcAsAppObject
350
3DA1
  3
ACASGREF_MASTER
350
3DE9
  3
ACDBHEADERROUNDTRIPXREC
350
B893
  3
AcDbVariableDictionary
350
34
  3
AcmDictionary
350
47
  3
AD_GREF_MODULE
350
3DEA
  3
AD_MAPI_MODULE
350
3E06
  3
AMG
350
2B
  3
AMGSNAPSETTINGS
350
7D
  3
ASE_INDEX_DICTIONARY
350
9F48
  3
DWGPROPS
350
B892
  3
MAPISURF_MODULE
350
3DEB
  0
DICTIONARY
  5
3F95
330
2
100
AcDbDictionary
280
     1
281
     1
  3
ACAD_LAYERFILTERS
360
AF79
  3
ACAD_LAYERSTATES
360
3F96
  3
ACLYDICTIONARY
360
AF78
  3
AMLAYER_GROUPCOLORS
360
AAB4
  0
DICTIONARY
  5
8A
330
1F
100
AcDbDictionary
280
     1
281
     1
  0
DICTIONARY
  5
B491
330
B484
100
AcDbDictionary
280
     1
281
     1
  3
ACAD_DIMASSOC
360
B492
  0
DICTIONARY
  5
B4C0
330
B4B3
100
AcDbDictionary
280
     1
281
     1
  3
ACAD_DIMASSOC
360
B4C1
  0
DICTIONARY
  5
B4E6
330
B4D9
100
AcDbDictionary
280
     1
281
     1
  3
ACAD_DIMASSOC
360
B4E7
  0
DICTIONARY
  5
B516
330
B508
100
AcDbDictionary
280
     1
281
     1
  3
ACAD_DIMASSOC
360
B517
  0
DICTIONARY
  5
B543
330
B536
100
AcDbDictionary
280
     1
281
     1
  3
ACAD_DIMASSOC
360
B544
  0
DICTIONARY
  5
B56B
330
B55D
100
AcDbDictionary
280
     1
281
     1
  3
ACAD_DIMASSOC
360
B56C
  0
DICTIONARY
  5
B5AA
330
B59D
100
AcDbDictionary
280
     1
281
     1
  3
ACAD_DIMASSOC
360
B5AB
  0
DICTIONARY
  5
B5D0
330
B5C3
100
AcDbDictionary
280
     1
281
     1
  3
ACAD_DIMASSOC
360
B5D1
  0
DICTIONARY
  5
B6A9
330
B69A
100
AcDbDictionary
280
     1
281
     1
  3
ACAD_DIMASSOC
360
B6AA
  0
DICTIONARY
  5
B6D1
330
B6C4
100
AcDbDictionary
280
     1
281
     1
  3
ACAD_DIMASSOC
360
B6D2
  0
DICTIONARY
  5
AB06
102
{ACAD_REACTORS
330
C
102
}
330
C
100
AcDbDictionary
280
     1
281
     1
  0
DICTIONARY
  5
A91D
102
{ACAD_REACTORS
330
C
102
}
330
C
100
AcDbDictionary
281
     1
  0
DICTIONARY
  5
D
102
{ACAD_REACTORS
330
C
102
}
330
C
100
AcDbDictionary
281
     1
  0
DICTIONARY
  5
1A
102
{ACAD_REACTORS
330
C
102
}
330
C
100
AcDbDictionary
281
     1
  3
Model
350
22
  3
ﾚｲｱｳﾄ1
350
1E
  3
ﾚｲｱｳﾄ2
350
26
  0
DICTIONARY
  5
A91C
102
{ACAD_REACTORS
330
C
102
}
330
C
100
AcDbDictionary
281
     1
  0
DICTIONARY
  5
17
102
{ACAD_REACTORS
330
C
102
}
330
C
100
AcDbDictionary
281
     1
  3
Standard
350
18
  0
DICTIONARY
  5
19
102
{ACAD_REACTORS
330
C
102
}
330
C
100
AcDbDictionary
281
     1
  0
ACDBDICTIONARYWDFLT
  5
E
102
{ACAD_REACTORS
330
C
102
}
330
C
100
AcDbDictionary
281
     1
  3
Normal
350
F
100
AcDbDictionaryWithDefault
340
F
  0
DICTIONARY
  5
AAB9
102
{ACAD_REACTORS
330
C
102
}
330
C
100
AcDbDictionary
281
     1
  3
Standard
350
AABA
  0
ACAD_PROXY_OBJECT
  5
3DA1
102
{ACAD_REACTORS
330
C
102
}
330
C
100
AcDbProxyObject
 90
      499
 91
      576
 95
   917527
 70
     0
 93
       10
310
4040
 94
        0
1001
ACAD
1000
AcRTDxfName
1000
ASAPP
1000
AcRTDxfName
1000
ASAPP
1000
AcRTDxfName
1000
ASAPP
  0
ACAD_PROXY_OBJECT
  5
3DE9
102
{ACAD_REACTORS
330
C
102
}
330
C
100
AcDbProxyObject
 90
      499
 91
      581
 95
   917527
 70
     0
 93
       34
310
0100004060
 94
        0
1001
ACAD
1000
AcRTDxfName
1000
ACASGREFMASTER
1000
AcRTDxfName
1000
ACASGREFMASTER
1000
AcRTDxfName
1000
ACASGREFMASTER
  0
DICTIONARY
  5
B893
102
{ACAD_REACTORS
330
C
102
}
330
C
100
AcDbDictionary
281
     1
  0
DICTIONARY
  5
34
102
{ACAD_REACTORS
330
C
102
}
330
C
100
AcDbDictionary
281
     1
  3
CTABLESTYLE
350
AAF3
  3
DIMASSOC
350
A10C
  3
FIELDEVAL
350
AB07
  3
INDEXCTL
350
35
  3
PROJECTNAME
350
B75A
  3
SORTENTS
350
194C
  0
DICTIONARY
  5
47
102
{ACAD_REACTORS
330
C
102
}
330
C
100
AcDbDictionary
281
     1
  3
AcmBOM
350
7E8
  3
AcmStdDictionary
350
4C
  3
AMDTSECTSYM_ARROWCOLOR
350
A929
  0
ACAD_PROXY_OBJECT
  5
3DEA
102
{ACAD_REACTORS
330
C
102
}
330
C
100
AcDbProxyObject
 90
      499
 91
      582
 95
   917527
 70
     0
 93
      114
310
000000438000000000000000000000
 94
        0
1001
ACAD
1000
AcRTDxfName
1000
ACADGREFMODULE
1000
AcRTDxfName
1000
ACADGREFMODULE
1000
AcRTDxfName
1000
ACADGREFMODULE
  0
ACAD_PROXY_OBJECT
  5
3E06
102
{ACAD_REACTORS
330
C
102
}
330
C
100
AcDbProxyObject
 90
      499
 91
      594
 95
   917527
 70
     0
 93
       34
310
05000044E0
 94
        0
1001
ACAD
1000
AcRTDxfName
1000
MAPIADMODULE
1000
AcRTDxfName
1000
MAPIADMODULE
1000
AcRTDxfName
1000
MAPIADMODULE
  0
DICTIONARY
  5
2B
102
{ACAD_REACTORS
330
C
102
}
330
C
100
AcDbDictionary
281
     1
  0
DICTIONARY
  5
7D
102
{ACAD_REACTORS
330
C
102
}
330
C
100
AcDbDictionary
281
     1
  0
DICTIONARY
  5
9F48
102
{ACAD_REACTORS
330
C
102
}
330
C
100
AcDbDictionary
281
     1
  3
ASEBlockHierarchyIndexRecord
350
9F49
1001
DCO15
1040
1425739953.442
  0
XRECORD
  5
B892
102
{ACAD_REACTORS
330
C
102
}
330
C
100
AcDbXrecord
280
     1
  1
DWGPROPS COOKIE
  2

  3

  4

  6

  7

  8
OSK-CAD10
  9

300
AmdtFileType=84
301
=
302
=
303
=
304
=
305
=
306
=
307
=
308
=
309
=
 40
0.177464375
 41
2453866.66915581
 42
2453868.725960104
  1

 90
        1
  0
ACAD_PROXY_OBJECT
  5
3DEB
102
{ACAD_REACTORS
330
C
102
}
330
C
100
AcDbProxyObject
 90
      499
 91
      583
 95
   917527
 70
     0
 93
        8
310
047E
 94
        0
1001
ACAD
1000
AcRTDxfName
1000
AMDTMAPISURFMOUDULE
1000
AcRTDxfName
1000
AMDTMAPISURFMOUDULE
1000
AcRTDxfName
1000
AMDTMAPISURFMOUDULE
  0
DICTIONARY
  5
AF79
102
{ACAD_REACTORS
330
3F95
102
}
330
3F95
100
AcDbDictionary
281
     1
  0
DICTIONARY
  5
3F96
102
{ACAD_REACTORS
330
3F95
102
}
330
3F95
100
AcDbDictionary
281
     1
  3
20011210
350
3FB7
  0
DICTIONARY
  5
AF78
102
{ACAD_REACTORS
330
3F95
102
}
330
3F95
100
AcDbDictionary
281
     1
1001
ACAD
1000
<All
  0
DICTIONARY
  5
AAB4
102
{ACAD_REACTORS
330
3F95
102
}
330
3F95
100
AcDbDictionary
280
     1
281
     1
  0
DIMASSOC
  5
B492
102
{ACAD_REACTORS
330
B491
102
}
330
B491
100
AcDbDimAssoc
330
B484
 90
        3
 70
     0
 71
     0
  1
AcDbOsnapPointRef
 72
     6
331
B2CE
 73
     0
 91
        0
 40
0.0
 10
0.0
 20
0.0
 30
0.0
332
B2CD
 74
     0
 92
        0
 75
     0
  1
AcDbOsnapPointRef
 72
    13
331
B2D7
 73
     0
 91
        0
 40
0.0
 10
0.0
 20
0.0
 30
2.000000000000000E+50
 75
     0
  0
DIMASSOC
  5
B4C1
102
{ACAD_REACTORS
330
B4C0
102
}
330
B4C0
100
AcDbDimAssoc
330
B4B3
 90
        3
 70
     0
 71
     0
  1
AcDbOsnapPointRef
 72
    13
331
B2D7
 73
     0
 91
        0
 40
0.0
 10
0.0
 20
0.0
 30
2.000000000000000E+50
 75
     0
  1
AcDbOsnapPointRef
 72
    13
331
B2A2
 73
     0
 91
        0
 40
0.0
 10
0.0
 20
0.0
 30
2.000000000000000E+50
 75
     0
  0
DIMASSOC
  5
B4E7
102
{ACAD_REACTORS
330
B4E6
102
}
330
B4E6
100
AcDbDimAssoc
330
B4D9
 90
        3
 70
     0
 71
     0
  1
AcDbOsnapPointRef
 72
    13
331
B2A1
 73
     0
 91
        0
 40
0.0
 10
0.0
 20
0.0
 30
2.000000000000000E+50
 75
     0
  1
AcDbOsnapPointRef
 72
    13
331
B2D5
 73
     0
 91
        0
 40
0.0
 10
0.0
 20
0.0
 30
2.000000000000000E+50
 75
     0
  0
DIMASSOC
  5
B517
102
{ACAD_REACTORS
330
B516
102
}
330
B516
100
AcDbDimAssoc
330
B508
 90
        3
 70
     0
 71
     0
  1
AcDbOsnapPointRef
 72
    13
331
B2D5
 73
     0
 91
        0
 40
0.0
 10
0.0
 20
0.0
 30
2.000000000000000E+50
 75
     0
  1
AcDbOsnapPointRef
 72
    13
331
B2AC
 73
     0
 91
        0
 40
0.0
 10
0.0
 20
0.0
 30
2.000000000000000E+50
 75
     0
  0
DIMASSOC
  5
B544
102
{ACAD_REACTORS
330
B543
102
}
330
B543
100
AcDbDimAssoc
330
B536
 90
        3
 70
     0
 71
     0
  1
AcDbOsnapPointRef
 72
    13
331
B2AC
 73
     0
 91
        0
 40
0.0
 10
0.0
 20
0.0
 30
2.000000000000000E+50
 75
     0
  1
AcDbOsnapPointRef
 72
    13
331
B2D6
 73
     0
 91
        0
 40
0.0
 10
0.0
 20
0.0
 30
2.000000000000000E+50
 75
     0
  0
DIMASSOC
  5
B56C
102
{ACAD_REACTORS
330
B56B
102
}
330
B56B
100
AcDbDimAssoc
330
B55D
 90
        3
 70
     0
 71
     0
  1
AcDbOsnapPointRef
 72
    13
331
B2D6
 73
     0
 91
        0
 40
0.0
 10
0.0
 20
0.0
 30
2.000000000000000E+50
 75
     0
  1
AcDbOsnapPointRef
 72
    13
331
B27A
 73
     0
 91
        0
 40
0.0
 10
0.0
 20
0.0
 30
2.000000000000000E+50
 75
     0
  0
DIMASSOC
  5
B5AB
102
{ACAD_REACTORS
330
B5AA
102
}
330
B5AA
100
AcDbDimAssoc
330
B59D
 90
        3
 70
     0
 71
     0
  1
AcDbOsnapPointRef
 72
    13
331
B28A
 73
     0
 91
        0
 40
0.0
 10
0.0
 20
0.0
 30
2.000000000000000E+50
 75
     0
  1
AcDbOsnapPointRef
 72
     6
331
B297
 73
     0
 91
        0
 40
0.0
 10
0.0
 20
0.0
 30
0.0
332
B296
 74
     0
 92
        0
 75
     0
  0
DIMASSOC
  5
B5D1
102
{ACAD_REACTORS
330
B5D0
102
}
330
B5D0
100
AcDbDimAssoc
330
B5C3
 90
        3
 70
     0
 71
     0
  1
AcDbOsnapPointRef
 72
    13
331
B2C3
 73
     0
 91
        0
 40
0.0
 10
0.0
 20
0.0
 30
2.000000000000000E+50
 75
     0
  1
AcDbOsnapPointRef
 72
    13
331
B2A7
 73
     0
 91
        0
 40
0.0
 10
0.0
 20
0.0
 30
2.000000000000000E+50
 75
     0
  0
DIMASSOC
  5
B6AA
102
{ACAD_REACTORS
330
B6A9
102
}
330
B6A9
100
AcDbDimAssoc
330
B69A
 90
        3
 70
     0
 71
     0
  1
AcDbOsnapPointRef
 72
     6
331
B2E7
 73
     0
 91
        0
 40
0.9465639568225856
 10
0.0
 20
0.0
 30
0.0
332
B2F2
 74
     0
 92
        0
 75
     0
  1
AcDbOsnapPointRef
 72
     6
331
B2E7
 73
     0
 91
        0
 40
1.0
 10
0.0
 20
0.0
 30
0.0
332
B2F1
 74
     0
 92
        0
 75
     0
  0
DIMASSOC
  5
B6D2
102
{ACAD_REACTORS
330
B6D1
102
}
330
B6D1
100
AcDbDimAssoc
330
B6C4
 90
        3
 70
     0
 71
     0
  1
AcDbOsnapPointRef
 72
     6
331
B69A
331
B2E7
 73
     0
 91
        0
 40
0.9465639568225856
 10
0.0
 20
0.0
 30
0.0
332
B2F2
 74
     0
 92
        0
 75
     0
  1
AcDbOsnapPointRef
 72
    13
331
B301
 73
     0
 91
        0
 40
0.0
 10
0.0
 20
0.0
 30
2.000000000000000E+50
 75
     0
  0
LAYOUT
  5
22
102
{ACAD_XDICTIONARY
360
B896
102
}
102
{ACAD_REACTORS
330
1A
102
}
330
1A
100
AcDbPlotSettings
  1

  2
FX DocuWide 2050/2051
  4
A4
  6
AM_VIEW1
 40
3.174999952316282
 41
3.174999952316282
 42
3.175003051757812
 43
3.17498779296875
 44
209.9944915771484
 45
296.989501953125
 46
0.0
 47
1.328704577503771
 48
0.0000017428819774
 49
0.0000008891529433
140
420.0000017428817
141
297.0000008891529
142
1.0
143
1.458423952845778
 70
  3764
 72
     1
 73
     1
 74
     4
  7
monochrome.ctb
 75
     0
147
0.6856716786972199
148
-0.0000017428819774
149
-0.0000008891529433
100
AcDbLayout
  1
Model
 70
     1
 71
     0
 10
0.0
 20
0.0
 11
12.0
 21
9.0
 12
0.0
 22
0.0
 32
0.0
 14
0.0
 24
0.0
 34
0.0
 15
0.0
 25
0.0
 35
0.0
146
0.0
 13
0.0
 23
0.0
 33
0.0
 16
1.0
 26
0.0
 36
0.0
 17
0.0
 27
1.0
 37
0.0
 76
     0
330
1F
1001
ACAD_PSEXT
1000
FX DocuWide 2050/2051
1000
FX DocuWide 2050/2051
1000
IP_192.168.2.203
1000

1070
     0
  0
LAYOUT
  5
1E
102
{ACAD_XDICTIONARY
360
B894
102
}
102
{ACAD_REACTORS
330
1A
102
}
330
1A
100
AcDbPlotSettings
  1

  2
\\ML370\XEROX
  4
A4
  6

 40
3.174999952316282
 41
3.174999952316282
 42
3.175003051757812
 43
3.17498779296875
 44
209.8674926757813
 45
296.6719970703125
 46
0.0
 47
0.0
 48
0.0
 49
0.0
140
0.0
141
0.0
142
1.0
143
1.0
 70
   688
 72
     1
 73
     1
 74
     5
  7
monochrome.ctb
 75
    16
147
1.0
148
0.0
149
0.0
100
AcDbLayout
  1
ﾚｲｱｳﾄ1
 70
     1
 71
     1
 10
-3.17498779296875
 20
-3.174999952316282
 11
293.4970092773438
 21
206.692492723465
 12
0.0
 22
0.0
 32
0.0
 14
1.000000000000000E+20
 24
1.000000000000000E+20
 34
1.000000000000000E+20
 15
-1.000000000000000E+20
 25
-1.000000000000000E+20
 35
-1.000000000000000E+20
146
0.0
 13
0.0
 23
0.0
 33
0.0
 16
1.0
 26
0.0
 36
0.0
 17
0.0
 27
1.0
 37
0.0
 76
     0
330
1B
  0
LAYOUT
  5
26
102
{ACAD_XDICTIONARY
360
B898
102
}
102
{ACAD_REACTORS
330
1A
102
}
330
1A
100
AcDbPlotSettings
  1

  2
\\ML370\XEROX
  4

  6

 40
0.0
 41
0.0
 42
0.0
 43
0.0
 44
0.0
 45
0.0
 46
0.0
 47
0.0
 48
0.0
 49
0.0
140
0.0
141
0.0
142
1.0
143
1.0
 70
   688
 72
     0
 73
     0
 74
     5
  7
monochrome.ctb
 75
    16
147
1.0
148
0.0
149
0.0
100
AcDbLayout
  1
ﾚｲｱｳﾄ2
 70
     1
 71
     2
 10
0.0
 20
0.0
 11
12.0
 21
9.0
 12
0.0
 22
0.0
 32
0.0
 14
0.0
 24
0.0
 34
0.0
 15
0.0
 25
0.0
 35
0.0
146
0.0
 13
0.0
 23
0.0
 33
0.0
 16
1.0
 26
0.0
 36
0.0
 17
0.0
 27
1.0
 37
0.0
 76
     0
330
23
  0
MLINESTYLE
  5
18
102
{ACAD_REACTORS
330
17
102
}
330
17
100
AcDbMlineStyle
  2
STANDARD
 70
     0
  3

 62
   256
 51
90.0
 52
90.0
 71
     2
 49
0.5
 62
   256
  6
BYLAYER
 49
-0.5
 62
   256
  6
BYLAYER
  0
ACDBPLACEHOLDER
  5
F
102
{ACAD_REACTORS
330
E
102
}
330
E
  0
TABLESTYLE
  5
AABA
102
{ACAD_REACTORS
330
AAB9
102
}
330
AAB9
100
AcDbTableStyle
  3
Standard
 70
     0
 71
     0
 40
1.5
 41
1.5
280
     0
281
     0
  7
STANDARD
140
4.5
170
     2
 62
     0
 63
     7
283
     0
274
    -2
284
     1
 64
     0
275
    -2
285
     1
 65
     0
276
    -2
286
     1
 66
     0
277
    -2
287
     1
 67
     0
278
    -2
288
     1
 68
     0
279
    -2
289
     1
 69
     0
  7
STANDARD
140
6.0
170
     5
 62
     0
 63
     7
283
     0
274
    -2
284
     1
 64
     0
275
    -2
285
     1
 65
     0
276
    -2
286
     1
 66
     0
277
    -2
287
     1
 67
     0
278
    -2
288
     1
 68
     0
279
    -2
289
     1
 69
     0
  7
STANDARD
140
4.5
170
     5
 62
     0
 63
     7
283
     0
274
    -2
284
     1
 64
     0
275
    -2
285
     1
 65
     0
276
    -2
286
     1
 66
     0
277
    -2
287
     1
 67
     0
278
    -2
288
     1
 68
     0
279
    -2
289
     1
 69
     0
  0
DICTIONARYVAR
  5
AAF3
102
{ACAD_REACTORS
330
34
102
}
330
34
100
DictionaryVariables
280
     0
  1
STANDARD
  0
DICTIONARYVAR
  5
A10C
102
{ACAD_REACTORS
330
34
102
}
330
34
100
DictionaryVariables
280
     0
  1
2
  0
DICTIONARYVAR
  5
AB07
102
{ACAD_REACTORS
330
34
102
}
330
34
100
DictionaryVariables
280
     0
  1
4
  0
DICTIONARYVAR
  5
35
102
{ACAD_REACTORS
330
34
102
}
330
34
100
DictionaryVariables
280
     0
  1
0
  0
DICTIONARYVAR
  5
B75A
102
{ACAD_REACTORS
330
34
102
}
330
34
100
DictionaryVariables
280
     0
  1

  0
DICTIONARYVAR
  5
194C
102
{ACAD_REACTORS
330
34
102
}
330
34
100
DictionaryVariables
280
     0
  1
96
  0
DICTIONARY
  5
7E8
102
{ACAD_REACTORS
330
47
102
}
330
47
100
AcDbDictionary
281
     1
  0
DICTIONARY
  5
4C
102
{ACAD_REACTORS
330
47
102
}
330
47
100
AcDbDictionary
281
     1
  0
XRECORD
  5
A929
102
{ACAD_REACTORS
330
47
102
}
330
47
100
AcDbXrecord
280
     1
 90
-1023410169
  0
XRECORD
  5
9F49
102
{ACAD_REACTORS
330
9F48
102
}
330
9F48
100
AcDbXrecord
280
     1
330
0
330
0
330
0
330
0
330
0
330
0
330
0
330
0
  0
XRECORD
  5
3FB7
102
{ACAD_REACTORS
330
3F96
102
}
330
3F96
100
AcDbXrecord
280
     1
 91
        3
330
0
 90
        8
 62
     7
370
    40
331
16
  1
Color_7
330
0
 90
        0
 62
    14
370
    -3
331
16
  1
Color_14
330
0
 90
        8
 62
     7
370
    20
331
16
  1
Color_7
330
6D1
 90
        0
 62
     7
370
    -3
331
16
  1
Color_7
330
0
 90
        8
 62
     7
370
    50
331
16
  1
Color_7
330
0
 90
        8
 62
     2
370
    35
331
16
  1
Color_2
330
0
 90
        8
 62
     7
370
    -3
331
16
  1
Color_7
330
10
 90
        8
 62
     7
370
    -3
331
16
  1
Color_7
  0
DICTIONARY
  5
B896
330
22
100
AcDbDictionary
280
     1
281
     1
  3
ACAD_XREC_ROUNDTRIP
360
B897
  0
DICTIONARY
  5
B894
330
1E
100
AcDbDictionary
280
     1
281
     1
  3
ACAD_XREC_ROUNDTRIP
360
B895
  0
DICTIONARY
  5
B898
330
26
100
AcDbDictionary
280
     1
281
     1
  3
ACAD_XREC_ROUNDTRIP
360
B899
  0
XRECORD
  5
B897
102
{ACAD_REACTORS
330
B896
102
}
330
B896
100
AcDbXrecord
280
     1
102
SHADEPLOT
 70
     0
102
SHADEPLOTRESLEVEL
 70
     2
102
SHADEPLOTCUSTOMDPI
 70
   200
  0
XRECORD
  5
B895
102
{ACAD_REACTORS
330
B894
102
}
330
B894
100
AcDbXrecord
280
     1
102
SHADEPLOT
 70
     0
102
SHADEPLOTRESLEVEL
 70
     2
102
SHADEPLOTCUSTOMDPI
 70
   300
  0
XRECORD
  5
B899
102
{ACAD_REACTORS
330
B898
102
}
330
B898
100
AcDbXrecord
280
     1
102
SHADEPLOT
 70
     0
102
SHADEPLOTRESLEVEL
 70
     2
102
SHADEPLOTCUSTOMDPI
 70
   300
  0
ENDSEC
  0
EOF
