  0
SECTION
  2
HEADER
  9
$ACADVER
  1
AC1009
  9
$INSBASE
 10
0.0
 20
0.0
 30
0.0
  9
$EXTMIN
 10
-211.01162631019429
 20
-100.0083306632102
 30
-0.0015258207003583
  9
$EXTMAX
 10
170.01162808436399
 20
173.00833193446539
 30
0.0000000349246037
  9
$LIMMIN
 10
-211.0
 20
-100.0
  9
$LIMMAX
 10
170.0
 20
173.0
  9
$ORTHOMODE
 70
     0
  9
$REGENMODE
 70
     1
  9
$FILLMODE
 70
     1
  9
$QTEXTMODE
 70
     0
  9
$MIRRTEXT
 70
     1
  9
$DRAGMODE
 70
     2
  9
$LTSCALE
 40
1.0
  9
$OSMODE
 70
    37
  9
$ATTMODE
 70
     1
  9
$TEXTSIZE
 40
0.2
  9
$TRACEWID
 40
0.05
  9
$TEXTSTYLE
  7
STANDARD
  9
$CLAYER
  8
0
  9
$CELTYPE
  6
CONTINUOUS
  9
$CECOLOR
 62
   256
  9
$DIMSCALE
 40
1.0
  9
$DIMASZ
 40
1.0
  9
$DIMEXO
 40
2.54
  9
$DIMDLI
 40
0.38
  9
$DIMRND
 40
0.0
  9
$DIMDLE
 40
0.0
  9
$DIMEXE
 40
2.54
  9
$DIMTP
 40
0.0
  9
$DIMTM
 40
0.0
  9
$DIMTXT
 40
3.2000000000000002
  9
$DIMCEN
 40
0.09
  9
$DIMTSZ
 40
0.0
  9
$DIMTOL
 70
     0
  9
$DIMLIM
 70
     0
  9
$DIMTIH
 70
     0
  9
$DIMTOH
 70
     0
  9
$DIMSE1
 70
     0
  9
$DIMSE2
 70
     0
  9
$DIMTAD
 70
     1
  9
$DIMZIN
 70
     0
  9
$DIMBLK
  1

  9
$DIMASO
 70
     1
  9
$DIMSHO
 70
     0
  9
$DIMPOST
  1

  9
$DIMAPOST
  1

  9
$DIMALT
 70
     0
  9
$DIMALTD
 70
     2
  9
$DIMALTF
 40
25.399999999999999
  9
$DIMLFAC
 40
1.0
  9
$DIMTOFL
 70
     0
  9
$DIMTVP
 40
1.0
  9
$DIMTIX
 70
     0
  9
$DIMSOXD
 70
     0
  9
$DIMSAH
 70
     1
  9
$DIMBLK1
  1

  9
$DIMBLK2
  1

  9
$DIMSTYLE
  2
DIMSTYLE
  9
$DIMCLRD
 70
     0
  9
$DIMCLRE
 70
     0
  9
$DIMCLRT
 70
     0
  9
$DIMTFAC
 40
1.0
  9
$DIMGAP
 40
1.6000000000000001
  9
$LUNITS
 70
     2
  9
$LUPREC
 70
     4
  9
$SKETCHINC
 40
0.1
  9
$FILLETRAD
 40
0.0
  9
$AUNITS
 70
     0
  9
$AUPREC
 70
     0
  9
$MENU
  1
.
  9
$ELEVATION
 40
0.0
  9
$PELEVATION
 40
0.0
  9
$THICKNESS
 40
0.0
  9
$LIMCHECK
 70
     0
  9
$BLIPMODE
 70
     0
  9
$CHAMFERA
 40
0.0
  9
$CHAMFERB
 40
0.0
  9
$SKPOLY
 70
     0
  9
$TDCREATE
 40
2452816.707589977
  9
$TDUPDATE
 40
2452816.7094356818
  9
$TDINDWG
 40
0.001846169
  9
$TDUSRTIMER
 40
0.001846169
  9
$USRTIMER
 70
     1
  9
$ANGBASE
 50
0.0
  9
$ANGDIR
 70
     0
  9
$PDMODE
 70
     0
  9
$PDSIZE
 40
0.0
  9
$PLINEWID
 40
0.0
  9
$COORDS
 70
     1
  9
$SPLFRAME
 70
     0
  9
$SPLINETYPE
 70
     6
  9
$SPLINESEGS
 70
     8
  9
$ATTDIA
 70
     0
  9
$ATTREQ
 70
     1
  9
$HANDLING
 70
 22529
  9
$HANDSEED
  5
1F9
  9
$SURFTAB1
 70
     6
  9
$SURFTAB2
 70
     6
  9
$SURFTYPE
 70
     6
  9
$SURFU
 70
     6
  9
$SURFV
 70
     6
  9
$UCSNAME
  2

  9
$UCSORG
 10
0.0
 20
0.0
 30
0.0
  9
$UCSXDIR
 10
1.0
 20
0.0
 30
0.0
  9
$UCSYDIR
 10
0.0
 20
1.0
 30
0.0
  9
$PUCSNAME
  2

  9
$PUCSORG
 10
0.0
 20
0.0
 30
0.0
  9
$PUCSXDIR
 10
1.0
 20
0.0
 30
0.0
  9
$PUCSYDIR
 10
0.0
 20
1.0
 30
0.0
  9
$USERI1
 70
     0
  9
$USERI2
 70
     0
  9
$USERI3
 70
     0
  9
$USERI4
 70
     0
  9
$USERI5
 70
     0
  9
$USERR1
 40
0.0
  9
$USERR2
 40
0.0
  9
$USERR3
 40
0.0
  9
$USERR4
 40
0.0
  9
$USERR5
 40
0.0
  9
$WORLDVIEW
 70
     1
  9
$SHADEDGE
 70
     3
  9
$SHADEDIF
 70
    70
  9
$TILEMODE
 70
     1
  9
$MAXACTVP
 70
    64
  9
$PLIMCHECK
 70
     0
  9
$PEXTMIN
 10
1.0000000000000000E+020
 20
1.0000000000000000E+020
 30
1.0000000000000000E+020
  9
$PEXTMAX
 10
-1.0000000000000000E+020
 20
-1.0000000000000000E+020
 30
-1.0000000000000000E+020
  9
$PLIMMIN
 10
-211.0
 20
-100.0
  9
$PLIMMAX
 10
170.0
 20
173.0
  9
$UNITMODE
 70
     0
  9
$VISRETAIN
 70
     1
  9
$PLINEGEN
 70
     0
  9
$PSLTSCALE
 70
     1
  0
ENDSEC
  0
SECTION
  2
TABLES
  0
TABLE
  2
VPORT
 70
     2
  0
VPORT
  2
*ACTIVE
 70
     0
 10
0.0
 20
0.0
 11
1.0
 21
1.0
 12
-20.499999112915201
 22
36.5000006356276
 13
0.0
 23
0.0
 14
1.0
 24
1.0
 15
0.0
 25
0.0
 16
0.0
 26
0.0
 36
1.0
 17
0.0
 27
0.0
 37
0.0
 40
275.16077251336418
 41
1.55832241153342
 42
50.0
 43
0.0
 44
0.0
 50
0.0
 51
0.0
 71
     0
 72
   100
 73
     1
 74
     1
 75
     0
 76
     0
 77
     0
 78
     0
  0
ENDTAB
  0
TABLE
  2
LTYPE
 70
     6
  0
LTYPE
  2
CONTINUOUS
 70
     0
  3
Solid line
 72
    65
 73
     0
 40
0.0
  0
LTYPE
  2
DASHED
 70
     0
  3
__ __ __ __ __ __ __ __ __ __ __ __ __ __ __
 72
    65
 73
     2
 40
3.5
 49
2.0
 49
-1.5
  0
LTYPE
  2
CENTER
 70
     0
  3
____ _ ____ _ ____ _ ____ _ ____ _ ____ _ ____
 72
    65
 73
     4
 40
17.5
 49
13.0
 49
-1.5
 49
1.5
 49
-1.5
  0
LTYPE
  2
PHANTOM
 70
     0
  3
_____ _ _ _____ _ _ _____ _ _ _____ _ _ ____  
 72
    65
 73
     6
 40
15.5
 49
8.0
 49
-1.5
 49
1.5
 49
-1.5
 49
1.5
 49
-1.5
  0
LTYPE
  2
DOT
 70
     0
  3
. . . . . . . . . . . . . . . . . . . . . . . .
 72
    65
 73
     2
 40
0.25
 49
0.0
 49
-0.25
  0
LTYPE
  2
HIDDEN
 70
     0
  3
__ __ __ __ __ __ __ __ __ __ __ __ __ __ __
 72
    65
 73
     2
 40
3.5
 49
2.0
 49
-1.5
  0
ENDTAB
  0
TABLE
  2
LAYER
 70
     4
  0
LAYER
  2
0
 70
     0
 62
     7
  6
CONTINUOUS
  0
LAYER
  2
1
 70
     0
 62
     7
  6
CONTINUOUS
  0
LAYER
  2
2
 70
     0
 62
     7
  6
CONTINUOUS
  0
LAYER
  2
DEFPOINTS
 70
     0
 62
     7
  6
CONTINUOUS
  0
ENDTAB
  0
TABLE
  2
STYLE
 70
     1
  0
STYLE
  2
STANDARD
 70
     0
 40
0.0
 41
1.0
 50
0.0
 71
     0
 42
0.2
  3
txt
  4
BIGFONT
  0
ENDTAB
  0
TABLE
  2
VIEW
 70
     0
  0
ENDTAB
  0
TABLE
  2
UCS
 70
     0
  0
ENDTAB
  0
TABLE
  2
APPID
 70
     1
  0
APPID
  2
ACAD
 70
     0
  0
ENDTAB
  0
TABLE
  2
DIMSTYLE
 70
     1
  0
DIMSTYLE
  2
DIMSTYLE
 70
     0
  3

  4

  5

  6

  7

 40
1.0
 41
1.0
 42
2.54
 43
0.38
 44
2.54
 45
0.0
 46
0.0
 47
0.0
 48
0.0
140
3.2000000000000002
141
0.09
142
0.0
143
25.399999999999999
144
1.0
145
0.0
146
1.0
147
1.6000000000000001
 71
     0
 72
     0
 73
     0
 74
     0
 75
     0
 76
     0
 77
     0
 78
     0
170
     0
171
     2
172
     0
173
     1
174
     0
175
     0
176
     0
177
     0
178
     0
  0
ENDTAB
  0
ENDSEC
  0
SECTION
  2
BLOCKS
  0
BLOCK
  8
0
  2
$MODEL_SPACE
 70
     0
 10
0.0
 20
0.0
 30
0.0
  3
$MODEL_SPACE
  1

  0
ENDBLK
  5
20
  8
0
  0
BLOCK
 67
     1
  8
0
  2
$PAPER_SPACE
 70
     0
 10
0.0
 20
0.0
 30
0.0
  3
$PAPER_SPACE
  1

  0
ENDBLK
  5
1C
 67
     1
  8
0
  0
BLOCK
  8
0
  2
_DOT
 70
     0
 10
0.0
 20
0.0
 30
0.0
  3
_DOT
  1

  0
POLYLINE
  5
30
  8
0
  6
BYBLOCK
 62
     0
 66
     1
 10
0.0
 20
0.0
 30
0.0
 70
     1
 40
0.4000000100000001
 41
0.4000000100000001
  0
VERTEX
  5
1F6
  8
0
  6
BYBLOCK
 62
     0
 10
-0.2
 20
0.0
 30
0.0
 42
1.0
  0
VERTEX
  5
1F7
  8
0
  6
BYBLOCK
 62
     0
 10
0.2
 20
0.0
 30
0.0
 42
1.0
  0
SEQEND
  5
1F8
  8
0
  6
BYBLOCK
 62
     0
  0
LINE
  5
34
  8
0
  6
BYBLOCK
 62
     0
 10
-0.4000000100000001
 20
0.0
 30
0.0
 11
-3.0
 21
0.0
 31
0.0
  0
ENDBLK
  5
35
  8
0
  0
BLOCK
  8
0
  2
_NONE
 70
     0
 10
0.0
 20
0.0
 30
0.0
  3
_NONE
  1

  0
CIRCLE
  5
38
  8
0
  6
BYBLOCK
 62
     0
 10
0.0
 20
0.0
 30
0.0
 40
0.001
  0
ENDBLK
  5
39
  8
0
  0
BLOCK
  8
0
  2
*D2
 70
     1
 10
0.0
 20
0.0
 30
0.0
  3
*D2
  1

  0
LINE
  5
3C
  8
0
  6
CONTINUOUS
 62
     7
 10
-49.44776199999999
 20
-52.542290000000001
 30
0.0
 11
-19.447762000000001
 21
-52.542290000000001
 31
0.0
  0
INSERT
  5
3D
  8
0
  6
CONTINUOUS
 62
     7
  2
_DOT
 10
-49.44776199999999
 20
-52.542290000000001
 30
0.0
 50
180.0
  0
INSERT
  5
3E
  8
0
  6
CONTINUOUS
 62
     7
  2
_DOT
 10
-19.447762000000001
 20
-52.542290000000001
 30
0.0
  0
LINE
  5
3F
  8
0
  6
CONTINUOUS
 62
     7
 10
-49.44776199999999
 20
-14.242024999999989
 30
0.0
 11
-49.44776199999999
 21
-53.74228699999999
 31
0.0
  0
LINE
  5
40
  8
0
  6
CONTINUOUS
 62
     7
 10
-19.447762000000001
 20
-30.082287999999998
 30
0.0
 11
-19.447762000000001
 21
-53.74228699999999
 31
0.0
  0
TEXT
  5
41
  8
0
  6
CONTINUOUS
 62
     7
 10
-37.190761999999992
 20
-51.742289999999997
 30
0.0
 40
3.2000000000000002
  1
30
 41
1.102098199999999
  0
POINT
  5
42
  8
DEFPOINTS
  6
CONTINUOUS
 62
     7
 10
-49.44776199999999
 20
-11.702025000000001
 30
0.0
  0
POINT
  5
43
  8
DEFPOINTS
  6
CONTINUOUS
 62
     7
 10
-19.447762000000001
 20
-27.542287999999989
 30
0.0
  0
POINT
  5
44
  8
DEFPOINTS
  6
CONTINUOUS
 62
     7
 10
-19.447762000000001
 20
-52.542290000000001
 30
0.0
  0
ENDBLK
  5
45
  8
0
  0
BLOCK
  8
0
  2
*D3
 70
     1
 10
0.0
 20
0.0
 30
0.0
  3
*D3
  1

  0
LINE
  5
48
  8
0
  6
CONTINUOUS
 62
     7
 10
-19.447762000000001
 20
-52.542290000000001
 30
0.0
 11
50.552238000000003
 21
-52.542290000000001
 31
0.0
  0
INSERT
  5
49
  8
0
  6
CONTINUOUS
 62
     7
  2
_DOT
 10
-19.447762000000001
 20
-52.542290000000001
 30
0.0
 50
180.0
  0
INSERT
  5
4A
  8
0
  6
CONTINUOUS
 62
     7
  2
_DOT
 10
50.552238000000003
 20
-52.542290000000001
 30
0.0
  0
LINE
  5
4B
  8
0
  6
CONTINUOUS
 62
     7
 10
50.552238000000003
 20
-30.082287999999998
 30
0.0
 11
50.552238000000003
 21
-53.74228699999999
 31
0.0
  0
TEXT
  5
4C
  8
0
  6
CONTINUOUS
 62
     7
 10
12.809238000000001
 20
-51.742289999999997
 30
0.0
 40
3.2000000000000002
  1
70
 41
1.102098199999999
  0
POINT
  5
4D
  8
DEFPOINTS
  6
CONTINUOUS
 62
     7
 10
-19.447762000000001
 20
-27.542287999999989
 30
0.0
  0
POINT
  5
4E
  8
DEFPOINTS
  6
CONTINUOUS
 62
     7
 10
50.552238000000003
 20
-27.542287999999989
 30
0.0
  0
POINT
  5
4F
  8
DEFPOINTS
  6
CONTINUOUS
 62
     7
 10
50.552238000000003
 20
-52.542290000000001
 30
0.0
  0
ENDBLK
  5
50
  8
0
  0
BLOCK
  8
0
  2
*D4
 70
     1
 10
0.0
 20
0.0
 30
0.0
  3
*D4
  1

  0
LINE
  5
53
  8
0
  6
CONTINUOUS
 62
     7
 10
-19.447762000000001
 20
-42.542290000000001
 30
0.0
 11
0.55223882
 21
-42.542290000000001
 31
0.0
  0
INSERT
  5
54
  8
0
  6
CONTINUOUS
 62
     7
  2
_DOT
 10
-19.447762000000001
 20
-42.542290000000001
 30
0.0
 50
180.0
  0
INSERT
  5
55
  8
0
  6
CONTINUOUS
 62
     7
  2
_DOT
 10
0.55223882
 20
-42.542290000000001
 30
0.0
  0
LINE
  5
56
  8
0
  6
CONTINUOUS
 62
     7
 10
-19.447762000000001
 20
-30.082287999999998
 30
0.0
 11
-19.447762000000001
 21
-43.74228699999999
 31
0.0
  0
LINE
  5
57
  8
0
  6
CONTINUOUS
 62
     7
 10
0.55223882
 20
-15.832288999999999
 30
0.0
 11
0.55223882
 21
-43.74228699999999
 31
0.0
  0
TEXT
  5
58
  8
0
  6
CONTINUOUS
 62
     7
 10
-12.190761999999991
 20
-41.742289999999997
 30
0.0
 40
3.2000000000000002
  1
20
 41
1.102098199999999
  0
POINT
  5
59
  8
DEFPOINTS
  6
CONTINUOUS
 62
     7
 10
-19.447762000000001
 20
-27.542287999999989
 30
0.0
  0
POINT
  5
5A
  8
DEFPOINTS
  6
CONTINUOUS
 62
     7
 10
0.55223882
 20
-13.292289
 30
0.0
  0
POINT
  5
5B
  8
DEFPOINTS
  6
CONTINUOUS
 62
     7
 10
0.55223882
 20
-42.542290000000001
 30
0.0
  0
ENDBLK
  5
5C
  8
0
  0
BLOCK
  8
0
  2
*D5
 70
     1
 10
0.0
 20
0.0
 30
0.0
  3
*D5
  1

  0
LINE
  5
5F
  8
0
  6
CONTINUOUS
 62
     7
 10
0.55223882
 20
-42.542290000000001
 30
0.0
 11
30.552237999999999
 21
-42.542290000000001
 31
0.0
  0
INSERT
  5
60
  8
0
  6
CONTINUOUS
 62
     7
  2
_DOT
 10
0.55223882
 20
-42.542290000000001
 30
0.0
 50
180.0
  0
INSERT
  5
61
  8
0
  6
CONTINUOUS
 62
     7
  2
_DOT
 10
30.552237999999999
 20
-42.542290000000001
 30
0.0
  0
LINE
  5
62
  8
0
  6
CONTINUOUS
 62
     7
 10
30.552237999999999
 20
-15.832288999999999
 30
0.0
 11
30.552237999999999
 21
-43.74228699999999
 31
0.0
  0
TEXT
  5
63
  8
0
  6
CONTINUOUS
 62
     7
 10
12.809238000000001
 20
-41.742289999999997
 30
0.0
 40
3.2000000000000002
  1
30
 41
1.102098199999999
  0
POINT
  5
64
  8
DEFPOINTS
  6
CONTINUOUS
 62
     7
 10
0.55223882
 20
-13.292289
 30
0.0
  0
POINT
  5
65
  8
DEFPOINTS
  6
CONTINUOUS
 62
     7
 10
30.552237999999999
 20
-13.292289
 30
0.0
  0
POINT
  5
66
  8
DEFPOINTS
  6
CONTINUOUS
 62
     7
 10
30.552237999999999
 20
-42.542290000000001
 30
0.0
  0
ENDBLK
  5
67
  8
0
  0
BLOCK
  8
0
  2
*D6
 70
     1
 10
0.0
 20
0.0
 30
0.0
  3
*D6
  1

  0
LINE
  5
6A
  8
0
  6
CONTINUOUS
 62
     7
 10
30.552237999999999
 20
-42.542290000000001
 30
0.0
 11
50.552238000000003
 21
-42.542290000000001
 31
0.0
  0
INSERT
  5
6B
  8
0
  6
CONTINUOUS
 62
     7
  2
_DOT
 10
30.552237999999999
 20
-42.542290000000001
 30
0.0
 50
180.0
  0
INSERT
  5
6C
  8
0
  6
CONTINUOUS
 62
     7
  2
_DOT
 10
50.552238000000003
 20
-42.542290000000001
 30
0.0
  0
LINE
  5
6D
  8
0
  6
CONTINUOUS
 62
     7
 10
50.552238000000003
 20
-30.082287999999998
 30
0.0
 11
50.552238000000003
 21
-43.74228699999999
 31
0.0
  0
TEXT
  5
6E
  8
0
  6
CONTINUOUS
 62
     7
 10
37.809238000000001
 20
-41.742289999999997
 30
0.0
 40
3.2000000000000002
  1
20
 41
1.102098199999999
  0
POINT
  5
6F
  8
DEFPOINTS
  6
CONTINUOUS
 62
     7
 10
30.552237999999999
 20
-13.292289
 30
0.0
  0
POINT
  5
70
  8
DEFPOINTS
  6
CONTINUOUS
 62
     7
 10
50.552238000000003
 20
-27.542287999999989
 30
0.0
  0
POINT
  5
71
  8
DEFPOINTS
  6
CONTINUOUS
 62
     7
 10
50.552238000000003
 20
-42.542290000000001
 30
0.0
  0
ENDBLK
  5
72
  8
0
  0
BLOCK
  8
0
  2
*D7
 70
     1
 10
0.0
 20
0.0
 30
0.0
  3
*D7
  1

  0
LINE
  5
75
  8
0
  6
CONTINUOUS
 62
     7
 10
-0.9817118
 20
-9.8247204000000004
 30
0.0
 11
16.701767
 21
16.487304999999999
 31
0.0
  0
INSERT
  5
76
  8
0
  6
CONTINUOUS
 62
     7
  2
_DOT
 10
-0.9817118
 20
-9.8247204000000004
 30
0.0
 50
236.09620000000001
  0
LINE
  5
77
  8
0
  6
CONTINUOUS
 62
     7
 10
16.701767
 20
16.487304999999999
 30
0.0
 11
36.613997999999988
 21
16.487304999999999
 31
0.0
  0
TEXT
  5
78
  8
0
  6
CONTINUOUS
 62
     7
 10
18.327998999999991
 20
17.287305
 30
0.0
 40
3.2000000000000002
  1
2-%%C5.5
 41
1.1010355999999999
  0
POINT
  5
79
  8
DEFPOINTS
  6
CONTINUOUS
 62
     7
 10
-0.9817118
 20
-9.8247204000000004
 30
0.0
  0
POINT
  5
7A
  8
DEFPOINTS
  6
CONTINUOUS
 62
     7
 10
16.701767
 20
16.487304999999999
 30
0.0
  0
ENDBLK
  5
7B
  8
0
  0
BLOCK
  8
0
  2
*D8
 70
     1
 10
0.0
 20
0.0
 30
0.0
  3
*D8
  1

  0
LINE
  5
7E
  8
0
  6
CONTINUOUS
 62
     7
 10
-69.447761999999983
 20
12.457711
 30
0.0
 11
-69.447761999999983
 21
-3.5422885000000002
 31
0.0
  0
INSERT
  5
7F
  8
0
  6
CONTINUOUS
 62
     7
  2
_DOT
 10
-69.447761999999983
 20
12.457711
 30
0.0
 50
90.0
  0
INSERT
  5
80
  8
0
  6
CONTINUOUS
 62
     7
  2
_DOT
 10
-69.447761999999983
 20
-3.5422885000000002
 30
0.0
 50
270.0
  0
LINE
  5
81
  8
0
  6
CONTINUOUS
 62
     7
 10
-21.987760999999988
 20
12.457711
 30
0.0
 11
-70.647757999999996
 21
12.457711
 31
0.0
  0
LINE
  5
82
  8
0
  6
CONTINUOUS
 62
     7
 10
-54.987760999999999
 20
-3.5422885000000002
 30
0.0
 11
-70.647757999999996
 21
-3.5422885000000002
 31
0.0
  0
TEXT
  5
83
  8
0
  6
CONTINUOUS
 62
     7
 10
-70.247760999999997
 20
1.7147111999999991
 30
0.0
 40
3.2000000000000002
  1
16
 50
90.000003000000007
 41
1.2857811999999991
  0
POINT
  5
84
  8
DEFPOINTS
  6
CONTINUOUS
 62
     7
 10
-19.447762000000001
 20
12.457711
 30
0.0
  0
POINT
  5
85
  8
DEFPOINTS
  6
CONTINUOUS
 62
     7
 10
-52.447761999999997
 20
-3.5422885000000002
 30
0.0
  0
POINT
  5
86
  8
DEFPOINTS
  6
CONTINUOUS
 62
     7
 10
-69.447761999999983
 20
-3.5422885000000002
 30
0.0
  0
ENDBLK
  5
87
  8
0
  0
BLOCK
  8
0
  2
*D9
 70
     1
 10
0.0
 20
0.0
 30
0.0
  3
*D9
  1

  0
LINE
  5
8A
  8
0
  6
CONTINUOUS
 62
     7
 10
-69.447761999999983
 20
-3.5422885000000002
 30
0.0
 11
-69.447761999999983
 21
-27.542287999999989
 31
0.0
  0
INSERT
  5
8B
  8
0
  6
CONTINUOUS
 62
     7
  2
_DOT
 10
-69.447761999999983
 20
-3.5422885000000002
 30
0.0
 50
90.0
  0
INSERT
  5
8C
  8
0
  6
CONTINUOUS
 62
     7
  2
_DOT
 10
-69.447761999999983
 20
-27.542287999999989
 30
0.0
 50
270.0
  0
LINE
  5
8D
  8
0
  6
CONTINUOUS
 62
     7
 10
-21.987760999999988
 20
-27.542287999999989
 30
0.0
 11
-70.647757999999996
 21
-27.542287999999989
 31
0.0
  0
TEXT
  5
8E
  8
0
  6
CONTINUOUS
 62
     7
 10
-70.247760999999997
 20
-18.285288999999999
 30
0.0
 40
3.2000000000000002
  1
24
 50
90.000003000000007
 41
1.028624999999999
  0
POINT
  5
8F
  8
DEFPOINTS
  6
CONTINUOUS
 62
     7
 10
-52.447761999999997
 20
-3.5422885000000002
 30
0.0
  0
POINT
  5
90
  8
DEFPOINTS
  6
CONTINUOUS
 62
     7
 10
-19.447762000000001
 20
-27.542287999999989
 30
0.0
  0
POINT
  5
91
  8
DEFPOINTS
  6
CONTINUOUS
 62
     7
 10
-69.447761999999983
 20
-27.542287999999989
 30
0.0
  0
ENDBLK
  5
92
  8
0
  0
BLOCK
  8
0
  2
*D10
 70
     1
 10
0.0
 20
0.0
 30
0.0
  3
*D10
  1

  0
LINE
  5
95
  8
0
  6
CONTINUOUS
 62
     7
 10
-79.447761999999983
 20
12.457711
 30
0.0
 11
-79.447761999999983
 21
-27.542287999999989
 31
0.0
  0
INSERT
  5
96
  8
0
  6
CONTINUOUS
 62
     7
  2
_DOT
 10
-79.447761999999983
 20
12.457711
 30
0.0
 50
90.0
  0
INSERT
  5
97
  8
0
  6
CONTINUOUS
 62
     7
  2
_DOT
 10
-79.447761999999983
 20
-27.542287999999989
 30
0.0
 50
270.0
  0
LINE
  5
98
  8
0
  6
CONTINUOUS
 62
     7
 10
-21.987760999999988
 20
12.457711
 30
0.0
 11
-80.647757999999996
 21
12.457711
 31
0.0
  0
LINE
  5
99
  8
0
  6
CONTINUOUS
 62
     7
 10
-21.987760999999988
 20
-27.542287999999989
 30
0.0
 11
-80.647757999999996
 21
-27.542287999999989
 31
0.0
  0
TEXT
  5
9A
  8
0
  6
CONTINUOUS
 62
     7
 10
-80.247760999999997
 20
-10.285289000000001
 30
0.0
 40
3.2000000000000002
  1
40
 50
90.000003000000007
 41
1.102098199999999
  0
POINT
  5
9B
  8
DEFPOINTS
  6
CONTINUOUS
 62
     7
 10
-19.447762000000001
 20
12.457711
 30
0.0
  0
POINT
  5
9C
  8
DEFPOINTS
  6
CONTINUOUS
 62
     7
 10
-19.447762000000001
 20
-27.542287999999989
 30
0.0
  0
POINT
  5
9D
  8
DEFPOINTS
  6
CONTINUOUS
 62
     7
 10
-79.447761999999983
 20
-27.542287999999989
 30
0.0
  0
ENDBLK
  5
9E
  8
0
  0
BLOCK
  8
0
  2
*D11
 70
     1
 10
0.0
 20
0.0
 30
0.0
  3
*D11
  1

  0
LINE
  5
A1
  8
0
  6
CONTINUOUS
 62
     7
 10
-135.25763000000001
 20
-42.542290000000001
 30
0.0
 11
-150.25763000000001
 21
-42.542290000000001
 31
0.0
  0
INSERT
  5
A2
  8
0
  6
CONTINUOUS
 62
     7
  2
_DOT
 10
-135.25763000000001
 20
-42.542290000000001
 30
0.0
  0
INSERT
  5
A3
  8
0
  6
CONTINUOUS
 62
     7
  2
_DOT
 10
-150.25763000000001
 20
-42.542290000000001
 30
0.0
 50
180.0
  0
LINE
  5
A4
  8
0
  6
CONTINUOUS
 62
     7
 10
-135.25763000000001
 20
-22.352762999999999
 30
0.0
 11
-135.25763000000001
 21
-43.74228699999999
 31
0.0
  0
LINE
  5
A5
  8
0
  6
CONTINUOUS
 62
     7
 10
-150.25763000000001
 20
-30.082287999999998
 30
0.0
 11
-150.25763000000001
 21
-43.74228699999999
 31
0.0
  0
TEXT
  5
A6
  8
0
  6
CONTINUOUS
 62
     7
 10
-143.90063000000001
 20
-41.742289999999997
 30
0.0
 40
3.2000000000000002
  1
〃
 41
0.90047268
  0
POINT
  5
A7
  8
DEFPOINTS
  6
CONTINUOUS
 62
     7
 10
-135.25763000000001
 20
-19.812763
 30
0.0
  0
POINT
  5
A8
  8
DEFPOINTS
  6
CONTINUOUS
 62
     7
 10
-150.25763000000001
 20
-27.542287999999989
 30
0.0
  0
POINT
  5
A9
  8
DEFPOINTS
  6
CONTINUOUS
 62
     7
 10
-150.25763000000001
 20
-42.542290000000001
 30
0.0
  0
ENDBLK
  5
AA
  8
0
  0
BLOCK
  8
0
  2
*D12
 70
     1
 10
0.0
 20
0.0
 30
0.0
  3
*D12
  1

  0
LINE
  5
AD
  8
0
  6
CONTINUOUS
 62
     7
 10
-135.25763000000001
 20
-42.542290000000001
 30
0.0
 11
-120.2576199999999
 21
-42.542290000000001
 31
0.0
  0
INSERT
  5
AE
  8
0
  6
CONTINUOUS
 62
     7
  2
_DOT
 10
-135.25763000000001
 20
-42.542290000000001
 30
0.0
 50
180.0
  0
INSERT
  5
AF
  8
0
  6
CONTINUOUS
 62
     7
  2
_DOT
 10
-120.2576199999999
 20
-42.542290000000001
 30
0.0
  0
LINE
  5
B0
  8
0
  6
CONTINUOUS
 62
     7
 10
-135.25763000000001
 20
-22.352762999999999
 30
0.0
 11
-135.25763000000001
 21
-43.74228699999999
 31
0.0
  0
LINE
  5
B1
  8
0
  6
CONTINUOUS
 62
     7
 10
-120.2576199999999
 20
-30.082287999999998
 30
0.0
 11
-120.2576199999999
 21
-43.74228699999999
 31
0.0
  0
TEXT
  5
B2
  8
0
  6
CONTINUOUS
 62
     7
 10
-128.90061999999989
 20
-41.742289999999997
 30
0.0
 40
3.2000000000000002
  1
〃
 41
0.90047268
  0
POINT
  5
B3
  8
DEFPOINTS
  6
CONTINUOUS
 62
     7
 10
-135.25763000000001
 20
-19.812763
 30
0.0
  0
POINT
  5
B4
  8
DEFPOINTS
  6
CONTINUOUS
 62
     7
 10
-120.2576199999999
 20
-27.542287999999989
 30
0.0
  0
POINT
  5
B5
  8
DEFPOINTS
  6
CONTINUOUS
 62
     7
 10
-120.2576199999999
 20
-42.542290000000001
 30
0.0
  0
ENDBLK
  5
B6
  8
0
  0
BLOCK
  8
0
  2
*D13
 70
     1
 10
0.0
 20
0.0
 30
0.0
  3
*D13
  1

  0
LINE
  5
B9
  8
0
  6
CONTINUOUS
 62
     7
 10
-150.25763000000001
 20
-52.542290000000001
 30
0.0
 11
-120.2576199999999
 21
-52.542290000000001
 31
0.0
  0
INSERT
  5
BA
  8
0
  6
CONTINUOUS
 62
     7
  2
_DOT
 10
-150.25763000000001
 20
-52.542290000000001
 30
0.0
 50
180.0
  0
INSERT
  5
BB
  8
0
  6
CONTINUOUS
 62
     7
  2
_DOT
 10
-120.2576199999999
 20
-52.542290000000001
 30
0.0
  0
LINE
  5
BC
  8
0
  6
CONTINUOUS
 62
     7
 10
-150.25763000000001
 20
-30.082287999999998
 30
0.0
 11
-150.25763000000001
 21
-53.74228699999999
 31
0.0
  0
LINE
  5
BD
  8
0
  6
CONTINUOUS
 62
     7
 10
-120.2576199999999
 20
-30.082287999999998
 30
0.0
 11
-120.2576199999999
 21
-53.74228699999999
 31
0.0
  0
TEXT
  5
BE
  8
0
  6
CONTINUOUS
 62
     7
 10
-138.00063
 20
-51.742289999999997
 30
0.0
 40
3.2000000000000002
  1
30
 41
1.102098199999999
  0
POINT
  5
BF
  8
DEFPOINTS
  6
CONTINUOUS
 62
     7
 10
-150.25763000000001
 20
-27.542287999999989
 30
0.0
  0
POINT
  5
C0
  8
DEFPOINTS
  6
CONTINUOUS
 62
     7
 10
-120.2576199999999
 20
-27.542287999999989
 30
0.0
  0
POINT
  5
C1
  8
DEFPOINTS
  6
CONTINUOUS
 62
     7
 10
-120.2576199999999
 20
-52.542290000000001
 30
0.0
  0
ENDBLK
  5
C2
  8
0
  0
BLOCK
  8
0
  2
*D14
 70
     1
 10
0.0
 20
0.0
 30
0.0
  3
*D14
  1

  0
LINE
  5
C5
  8
0
  6
CONTINUOUS
 62
     7
 10
-59.44776199999999
 20
8.9577121999999996
 30
0.0
 11
-59.44776199999999
 21
26.458656000000001
 31
0.0
  0
LINE
  5
C6
  8
0
  6
CONTINUOUS
 62
     7
 10
-59.44776199999999
 20
8.9577121999999996
 30
0.0
 11
-59.44776199999999
 21
-16.042289999999991
 31
0.0
  0
INSERT
  5
C7
  8
0
  6
CONTINUOUS
 62
     7
  2
_DOT
 10
-59.44776199999999
 20
8.9577121999999996
 30
0.0
 50
90.0
  0
INSERT
  5
C8
  8
0
  6
CONTINUOUS
 62
     7
  2
_DOT
 10
-59.44776199999999
 20
-16.042289999999991
 30
0.0
 50
270.0
  0
LINE
  5
C9
  8
0
  6
CONTINUOUS
 62
     7
 10
-21.987760999999988
 20
8.9577121999999996
 30
0.0
 11
-60.647762
 21
8.9577121999999996
 31
0.0
  0
LINE
  5
CA
  8
0
  6
CONTINUOUS
 62
     7
 10
-21.987760999999988
 20
-16.042289999999991
 30
0.0
 11
-60.647762
 21
-16.042289999999991
 31
0.0
  0
TEXT
  5
CB
  8
0
  6
CONTINUOUS
 62
     7
 10
-60.247760999999997
 20
17.772656000000001
 30
0.0
 40
3.2000000000000002
  1
%%C25
 50
90.000003000000007
 41
0.9501896099999999
  0
POINT
  5
CC
  8
DEFPOINTS
  6
CONTINUOUS
 62
     7
 10
-19.447762000000001
 20
8.9577121999999996
 30
0.0
  0
POINT
  5
CD
  8
DEFPOINTS
  6
CONTINUOUS
 62
     7
 10
-19.447762000000001
 20
-16.042289999999991
 30
0.0
  0
POINT
  5
CE
  8
DEFPOINTS
  6
CONTINUOUS
 62
     7
 10
-59.44776199999999
 20
-16.042289999999991
 30
0.0
  0
ENDBLK
  5
CF
  8
0
  0
BLOCK
  8
0
  2
*D15
 70
     1
 10
0.0
 20
0.0
 30
0.0
  3
*D15
  1

  0
LINE
  5
D2
  8
0
  6
CONTINUOUS
 62
     7
 10
-97.232613000000001
 20
24.661691999999999
 30
0.0
 11
-107.23260999999999
 21
24.661691999999999
 31
0.0
  0
INSERT
  5
D3
  8
0
  6
CONTINUOUS
 62
     7
  2
_DOT
 10
-97.232613000000001
 20
24.661691999999999
 30
0.0
  0
INSERT
  5
D4
  8
0
  6
CONTINUOUS
 62
     7
  2
_DOT
 10
-107.23260999999999
 20
24.661691999999999
 30
0.0
 50
180.0
  0
LINE
  5
D5
  8
0
  6
CONTINUOUS
 62
     7
 10
-97.232613000000001
 20
17.201692000000001
 30
0.0
 11
-97.232613000000001
 21
25.861692000000001
 31
0.0
  0
LINE
  5
D6
  8
0
  6
CONTINUOUS
 62
     7
 10
-107.23260999999999
 20
14.943870999999991
 30
0.0
 11
-107.23260999999999
 21
25.861692000000001
 31
0.0
  0
TEXT
  5
D7
  8
0
  6
CONTINUOUS
 62
     7
 10
-104.80410999999999
 20
25.411691999999999
 30
0.0
 40
3.0
  1
10
 41
1.4026364
  0
POINT
  5
D8
  8
DEFPOINTS
  6
CONTINUOUS
 62
     7
 10
-97.232613000000001
 20
14.661692
 30
0.0
  0
POINT
  5
D9
  8
DEFPOINTS
  6
CONTINUOUS
 62
     7
 10
-107.23260999999999
 20
12.403872
 30
0.0
  0
POINT
  5
DA
  8
DEFPOINTS
  6
CONTINUOUS
 62
     7
 10
-107.23260999999999
 20
24.661691999999999
 30
0.0
  0
ENDBLK
  5
DB
  8
0
  0
BLOCK
  8
0
  2
*D16
 70
     1
 10
0.0
 20
0.0
 30
0.0
  3
*D16
  1

  0
LINE
  5
DE
  8
0
  6
CONTINUOUS
 62
     7
 10
-142.23259999999991
 20
24.661691999999999
 30
0.0
 11
-107.23260999999999
 21
24.661691999999999
 31
0.0
  0
INSERT
  5
DF
  8
0
  6
CONTINUOUS
 62
     7
  2
_DOT
 10
-142.23259999999991
 20
24.661691999999999
 30
0.0
 50
180.0
  0
INSERT
  5
E0
  8
0
  6
CONTINUOUS
 62
     7
  2
_DOT
 10
-107.23260999999999
 20
24.661691999999999
 30
0.0
  0
LINE
  5
E1
  8
0
  6
CONTINUOUS
 62
     7
 10
-142.23259999999991
 20
17.201692000000001
 30
0.0
 11
-142.23259999999991
 21
25.861692000000001
 31
0.0
  0
TEXT
  5
E2
  8
0
  6
CONTINUOUS
 62
     7
 10
-127.30410999999999
 20
25.411691999999999
 30
0.0
 40
3.0
  1
35
 41
1.0285999999999991
  0
POINT
  5
E3
  8
DEFPOINTS
  6
CONTINUOUS
 62
     7
 10
-142.23259999999991
 20
14.661692
 30
0.0
  0
POINT
  5
E4
  8
DEFPOINTS
  6
CONTINUOUS
 62
     7
 10
-107.23260999999999
 20
12.403872
 30
0.0
  0
POINT
  5
E5
  8
DEFPOINTS
  6
CONTINUOUS
 62
     7
 10
-107.23260999999999
 20
24.661691999999999
 30
0.0
  0
ENDBLK
  5
E6
  8
0
  0
BLOCK
  8
0
  2
*D17
 70
     1
 10
0.0
 20
0.0
 30
0.0
  3
*D17
  1

  0
LINE
  5
E9
  8
0
  6
CONTINUOUS
 62
     7
 10
-97.232613000000001
 20
34.66169
 30
0.0
 11
-142.23259999999991
 21
34.66169
 31
0.0
  0
INSERT
  5
EA
  8
0
  6
CONTINUOUS
 62
     7
  2
_DOT
 10
-97.232613000000001
 20
34.66169
 30
0.0
  0
INSERT
  5
EB
  8
0
  6
CONTINUOUS
 62
     7
  2
_DOT
 10
-142.23259999999991
 20
34.66169
 30
0.0
 50
180.0
  0
LINE
  5
EC
  8
0
  6
CONTINUOUS
 62
     7
 10
-97.232613000000001
 20
17.201692000000001
 30
0.0
 11
-97.232613000000001
 21
35.861691
 31
0.0
  0
LINE
  5
ED
  8
0
  6
CONTINUOUS
 62
     7
 10
-142.23259999999991
 20
17.201692000000001
 30
0.0
 11
-142.23259999999991
 21
35.861691
 31
0.0
  0
TEXT
  5
EE
  8
0
  6
CONTINUOUS
 62
     7
 10
-122.30410999999999
 20
35.41169
 30
0.0
 40
3.0
  1
45
 41
1.0285999999999991
  0
POINT
  5
EF
  8
DEFPOINTS
  6
CONTINUOUS
 62
     7
 10
-97.232613000000001
 20
14.661692
 30
0.0
  0
POINT
  5
F0
  8
DEFPOINTS
  6
CONTINUOUS
 62
     7
 10
-142.23259999999991
 20
14.661692
 30
0.0
  0
POINT
  5
F1
  8
DEFPOINTS
  6
CONTINUOUS
 62
     7
 10
-142.23259999999991
 20
34.66169
 30
0.0
  0
ENDBLK
  5
F2
  8
0
  0
BLOCK
  8
0
  2
*D18
 70
     1
 10
0.0
 20
0.0
 30
0.0
  3
*D18
  1

  0
LINE
  5
F5
  8
0
  6
CONTINUOUS
 62
     7
 10
-157.23259999999991
 20
-15.338307999999991
 30
0.0
 11
-157.23259999999991
 21
-5.3383082999999987
 31
0.0
  0
INSERT
  5
F6
  8
0
  6
CONTINUOUS
 62
     7
  2
_DOT
 10
-157.23259999999991
 20
-15.338307999999991
 30
0.0
 50
270.0
  0
INSERT
  5
F7
  8
0
  6
CONTINUOUS
 62
     7
  2
_DOT
 10
-157.23259999999991
 20
-5.3383082999999987
 30
0.0
 50
90.0
  0
LINE
  5
F8
  8
0
  6
CONTINUOUS
 62
     7
 10
-144.77260000000001
 20
-15.338307999999991
 30
0.0
 11
-158.43260000000001
 21
-15.338307999999991
 31
0.0
  0
LINE
  5
F9
  8
0
  6
CONTINUOUS
 62
     7
 10
-126.03140999999999
 20
-5.3383082999999987
 30
0.0
 11
-158.43260000000001
 21
-5.3383082999999987
 31
0.0
  0
TEXT
  5
FA
  8
0
  6
CONTINUOUS
 62
     7
 10
-158.0326
 20
-13.081308
 30
0.0
 40
3.2000000000000002
  1
10
 50
90.000003000000007
 41
1.402670399999999
  0
POINT
  5
FB
  8
DEFPOINTS
  6
CONTINUOUS
 62
     7
 10
-142.23259999999991
 20
-15.338307999999991
 30
0.0
  0
POINT
  5
FC
  8
DEFPOINTS
  6
CONTINUOUS
 62
     7
 10
-123.49141
 20
-5.3383082999999987
 30
0.0
  0
POINT
  5
FD
  8
DEFPOINTS
  6
CONTINUOUS
 62
     7
 10
-157.23259999999991
 20
-5.3383082999999987
 30
0.0
  0
ENDBLK
  5
FE
  8
0
  0
BLOCK
  8
0
  2
*D19
 70
     1
 10
0.0
 20
0.0
 30
0.0
  3
*D19
  1

  0
LINE
  5
101
  8
0
  6
CONTINUOUS
 62
     7
 10
-157.23259999999991
 20
-5.3383082999999987
 30
0.0
 11
-157.23259999999991
 21
14.661692
 31
0.0
  0
INSERT
  5
102
  8
0
  6
CONTINUOUS
 62
     7
  2
_DOT
 10
-157.23259999999991
 20
-5.3383082999999987
 30
0.0
 50
270.0
  0
INSERT
  5
103
  8
0
  6
CONTINUOUS
 62
     7
  2
_DOT
 10
-157.23259999999991
 20
14.661692
 30
0.0
 50
90.0
  0
LINE
  5
104
  8
0
  6
CONTINUOUS
 62
     7
 10
-144.77260000000001
 20
14.661692
 30
0.0
 11
-158.43260000000001
 21
14.661692
 31
0.0
  0
TEXT
  5
105
  8
0
  6
CONTINUOUS
 62
     7
 10
-158.0326
 20
1.9186916000000001
 30
0.0
 40
3.2000000000000002
  1
20
 50
90.000003000000007
 41
1.102098199999999
  0
POINT
  5
106
  8
DEFPOINTS
  6
CONTINUOUS
 62
     7
 10
-123.49141
 20
-5.3383082999999987
 30
0.0
  0
POINT
  5
107
  8
DEFPOINTS
  6
CONTINUOUS
 62
     7
 10
-142.23259999999991
 20
14.661692
 30
0.0
  0
POINT
  5
108
  8
DEFPOINTS
  6
CONTINUOUS
 62
     7
 10
-157.23259999999991
 20
14.661692
 30
0.0
  0
ENDBLK
  5
109
  8
0
  0
BLOCK
  8
0
  2
KOZU0001
 70
     0
 10
0.0
 20
0.0
 30
0.0
  3
KOZU0001
  1

  0
LINE
  5
10C
  8
0
  6
CENTER
 62
     7
 10
-91.160697999999996
 20
-5.3383082999999987
 30
0.0
 11
-123.49141
 21
-5.3383082999999987
 31
0.0
  0
LINE
  5
10D
  8
0
  6
CENTER
 62
     7
 10
-107.23260999999999
 20
12.403872
 30
0.0
 11
-107.23260999999999
 21
-21.608784
 31
0.0
  0
LINE
  5
10E
  8
0
  6
CONTINUOUS
 62
     3
 10
-97.232613000000001
 20
14.661692
 30
0.0
 11
-97.232613000000001
 21
2.1616918999999988
 31
0.0
  0
LINE
  5
10F
  8
0
  6
CONTINUOUS
 62
     3
 10
-142.23259999999991
 20
14.661692
 30
0.0
 11
-142.23259999999991
 21
-15.338307999999991
 31
0.0
  0
LINE
  5
110
  8
0
  6
CONTINUOUS
 62
     3
 10
-97.232613000000001
 20
14.661692
 30
0.0
 11
-142.23259999999991
 21
14.661692
 31
0.0
  0
LINE
  5
111
  8
0
  6
CONTINUOUS
 62
     3
 10
-97.232613000000001
 20
-15.338307999999991
 30
0.0
 11
-99.732613000000001
 21
-15.338307999999991
 31
0.0
  0
LINE
  5
112
  8
0
  6
CONTINUOUS
 62
     3
 10
-114.73260999999999
 20
-15.338307999999991
 30
0.0
 11
-142.23259999999991
 21
-15.338307999999991
 31
0.0
  0
LINE
  5
113
  8
0
  6
CONTINUOUS
 62
     3
 10
-97.232613000000001
 20
-12.838308
 30
0.0
 11
-97.232613000000001
 21
-15.338307999999991
 31
0.0
  0
LINE
  5
114
  8
0
  6
CENTER
 62
     2
 10
-107.23260999999999
 20
-10.138304
 30
0.0
 11
-107.23260999999999
 21
-0.5383054
 31
0.0
  0
LINE
  5
115
  8
0
  6
CENTER
 62
     2
 10
-102.4326099999999
 20
-5.3383082999999987
 30
0.0
 11
-112.03261999999999
 21
-5.3383082999999987
 31
0.0
  0
LINE
  5
116
  8
0
  6
CONTINUOUS
 62
     7
 10
-106.73260999999999
 20
-4.3383082999999987
 30
0.0
 11
-106.73260999999999
 21
-3.1383040000000002
 31
0.0
  0
LINE
  5
117
  8
0
  6
CONTINUOUS
 62
     7
 10
-105.03261999999989
 20
-4.8383082999999987
 30
0.0
 11
-106.23260999999999
 21
-4.8383082999999987
 31
0.0
  0
LINE
  5
118
  8
0
  6
CONTINUOUS
 62
     7
 10
-105.03261999999989
 20
-5.8383082999999987
 30
0.0
 11
-105.03261999999989
 21
-4.8383082999999987
 31
0.0
  0
LINE
  5
119
  8
0
  6
CONTINUOUS
 62
     7
 10
-106.23260999999999
 20
-5.8383082999999987
 30
0.0
 11
-105.03261999999989
 21
-5.8383082999999987
 31
0.0
  0
LINE
  5
11A
  8
0
  6
CONTINUOUS
 62
     7
 10
-106.73260999999999
 20
-7.5383053000000002
 30
0.0
 11
-106.73260999999999
 21
-6.3383082999999987
 31
0.0
  0
LINE
  5
11B
  8
0
  6
CONTINUOUS
 62
     7
 10
-107.73260999999999
 20
-7.5383053000000002
 30
0.0
 11
-106.73260999999999
 21
-7.5383053000000002
 31
0.0
  0
LINE
  5
11C
  8
0
  6
CONTINUOUS
 62
     7
 10
-107.73260999999999
 20
-6.3383082999999987
 30
0.0
 11
-107.73260999999999
 21
-7.5383053000000002
 31
0.0
  0
LINE
  5
11D
  8
0
  6
CONTINUOUS
 62
     7
 10
-109.43261
 20
-5.8383082999999987
 30
0.0
 11
-108.23260999999999
 21
-5.8383082999999987
 31
0.0
  0
LINE
  5
11E
  8
0
  6
CONTINUOUS
 62
     7
 10
-109.43261
 20
-4.8383082999999987
 30
0.0
 11
-109.43261
 21
-5.8383082999999987
 31
0.0
  0
LINE
  5
11F
  8
0
  6
CONTINUOUS
 62
     7
 10
-108.23260999999999
 20
-4.8383082999999987
 30
0.0
 11
-109.43261
 21
-4.8383082999999987
 31
0.0
  0
LINE
  5
120
  8
0
  6
CONTINUOUS
 62
     7
 10
-107.73260999999999
 20
-3.1383040000000002
 30
0.0
 11
-107.73260999999999
 21
-4.3383082999999987
 31
0.0
  0
LINE
  5
121
  8
0
  6
CONTINUOUS
 62
     7
 10
-106.73260999999999
 20
-3.1383040000000002
 30
0.0
 11
-107.73260999999999
 21
-3.1383040000000002
 31
0.0
  0
CIRCLE
  5
122
  8
0
  6
CONTINUOUS
 62
     7
 10
-107.23260999999999
 20
-5.3383082999999987
 30
0.0
 40
10.0
  0
CIRCLE
  5
123
  8
0
  6
CONTINUOUS
 62
     7
 10
-107.23260999999999
 20
-5.3383082999999987
 30
0.0
 40
12.5
  0
ARC
  5
124
  8
0
  6
CONTINUOUS
 62
     7
 10
-108.23260999999999
 20
-4.3383082999999987
 30
0.0
 40
0.5
 50
270.0
 51
0.0
  0
CIRCLE
  5
125
  8
0
  6
CONTINUOUS
 62
     7
 10
-107.23260999999999
 20
-5.3383082999999987
 30
0.0
 40
4.0
  0
ARC
  5
126
  8
0
  6
CONTINUOUS
 62
     7
 10
-108.23260999999999
 20
-6.3383082999999987
 30
0.0
 40
0.5
 50
0.0
 51
90.0
  0
ARC
  5
127
  8
0
  6
CONTINUOUS
 62
     7
 10
-106.23260999999999
 20
-6.3383082999999987
 30
0.0
 40
0.5
 50
90.0
 51
180.0
  0
ARC
  5
128
  8
0
  6
CONTINUOUS
 62
     7
 10
-106.23260999999999
 20
-4.3383082999999987
 30
0.0
 40
0.5
 50
180.0
 51
270.0
  0
DIMENSION
  5
129
  8
0
  6
CONTINUOUS
 62
     7
  2
*D15
 10
-107.23260999999999
 20
24.661691999999999
 30
0.0
 11
-102.23260999999989
 21
24.661691999999999
 31
0.0
  3
DIMSTYLE
 13
-97.232613000000001
 23
14.661692
 33
0.0
 14
-107.23260999999999
 24
12.403872
 34
0.0
1001
ACAD
1000
DSTYLE
1002
{
1070
    77
1070
     1
1070
   172
1070
     1
1002
}
  0
DIMENSION
  5
12A
  8
0
  6
CONTINUOUS
 62
     7
  2
*D16
 10
-107.23260999999999
 20
24.661691999999999
 30
0.0
 11
-124.73260999999999
 21
24.661691999999999
 31
0.0
  3
DIMSTYLE
 13
-142.23259999999991
 23
14.661692
 33
0.0
 14
-107.23260999999999
 24
12.403872
 34
0.0
1001
ACAD
1000
DSTYLE
1002
{
1070
    77
1070
     1
1070
   172
1070
     1
1070
    76
1070
     1
1002
}
  0
DIMENSION
  5
12B
  8
0
  6
CONTINUOUS
 62
     7
  2
*D17
 10
-142.23259999999991
 20
34.66169
 30
0.0
 11
-119.73260999999999
 21
34.66169
 31
0.0
  3
DIMSTYLE
 13
-97.232613000000001
 23
14.661692
 33
0.0
 14
-142.23259999999991
 24
14.661692
 34
0.0
1001
ACAD
1000
DSTYLE
1002
{
1070
    77
1070
     1
1070
   172
1070
     1
1002
}
  0
DIMENSION
  5
12C
  8
0
  6
CONTINUOUS
 62
     7
  2
*D18
 10
-157.23259999999991
 20
-5.3383082999999987
 30
0.0
 11
-157.23259999999991
 21
-10.338308
 31
0.0
  3
DIMSTYLE
 13
-142.23259999999991
 23
-15.338307999999991
 33
0.0
 14
-123.49141
 24
-5.3383082999999987
 34
0.0
 50
90.0
1001
ACAD
1000
DSTYLE
1002
{
1070
    77
1070
     1
1070
   172
1070
     1
1002
}
  0
DIMENSION
  5
12D
  8
0
  6
CONTINUOUS
 62
     7
  2
*D19
 10
-157.23259999999991
 20
14.661692
 30
0.0
 11
-157.23259999999991
 21
4.6616917000000004
 31
0.0
  3
DIMSTYLE
 13
-123.49141
 23
-5.3383082999999987
 33
0.0
 14
-142.23259999999991
 24
14.661692
 34
0.0
 50
90.0
1001
ACAD
1000
DSTYLE
1002
{
1070
    77
1070
     1
1070
   172
1070
     1
1070
    75
1070
     1
1002
}
  0
ENDBLK
  5
12E
  8
0
  0
BLOCK
  8
0
  2
KOZU0002
 70
     0
 10
0.0
 20
0.0
 30
0.0
  3
KOZU0002
  1

  0
POINT
  5
131
  8
0
  6
CONTINUOUS
 62
     7
 10
0.0
 20
0.0
 30
0.0
  0
POINT
  5
132
  8
0
  6
CONTINUOUS
 62
     7
 10
15.0
 20
0.0
 30
0.0
  0
POINT
  5
133
  8
0
  6
CONTINUOUS
 62
     7
 10
25.0
 20
0.0
 30
0.0
  0
POINT
  5
134
  8
0
  6
CONTINUOUS
 62
     7
 10
35.0
 20
0.0
 30
0.0
  0
POINT
  5
135
  8
0
  6
CONTINUOUS
 62
     7
 10
45.0
 20
0.0
 30
0.0
  0
POINT
  5
136
  8
0
  6
CONTINUOUS
 62
     7
 10
55.0
 20
0.0
 30
0.0
  0
POINT
  5
137
  8
0
  6
CONTINUOUS
 62
     7
 10
65.0
 20
0.0
 30
0.0
  0
POINT
  5
138
  8
0
  6
CONTINUOUS
 62
     7
 10
0.0
 20
10.0
 30
0.0
  0
POINT
  5
139
  8
0
  6
CONTINUOUS
 62
     7
 10
0.0
 20
20.0
 30
0.0
  0
POINT
  5
13A
  8
0
  6
CONTINUOUS
 62
     7
 10
0.0
 20
30.0
 30
0.0
  0
POINT
  5
13B
  8
0
  6
CONTINUOUS
 62
     7
 10
0.0
 20
40.0
 30
0.0
  0
POINT
  5
13C
  8
0
  6
CONTINUOUS
 62
     7
 10
0.0
 20
50.0
 30
0.0
  0
POINT
  5
13D
  8
0
  6
CONTINUOUS
 62
     7
 10
0.0
 20
60.0
 30
0.0
  0
POINT
  5
13E
  8
0
  6
CONTINUOUS
 62
     7
 10
0.0
 20
-15.0
 30
0.0
  0
POINT
  5
13F
  8
0
  6
CONTINUOUS
 62
     7
 10
0.0
 20
-25.0
 30
0.0
  0
POINT
  5
140
  8
0
  6
CONTINUOUS
 62
     7
 10
0.0
 20
-35.0
 30
0.0
  0
POINT
  5
141
  8
0
  6
CONTINUOUS
 62
     7
 10
0.0
 20
-45.0
 30
0.0
  0
POINT
  5
142
  8
0
  6
CONTINUOUS
 62
     7
 10
0.0
 20
-55.0
 30
0.0
  0
POINT
  5
143
  8
0
  6
CONTINUOUS
 62
     7
 10
-10.0
 20
0.0
 30
0.0
  0
POINT
  5
144
  8
0
  6
CONTINUOUS
 62
     7
 10
-20.0
 20
0.0
 30
0.0
  0
POINT
  5
145
  8
0
  6
CONTINUOUS
 62
     7
 10
-30.0
 20
0.0
 30
0.0
  0
POINT
  5
146
  8
0
  6
CONTINUOUS
 62
     7
 10
-40.0
 20
0.0
 30
0.0
  0
POINT
  5
147
  8
0
  6
CONTINUOUS
 62
     7
 10
-50.0
 20
0.0
 30
0.0
  0
POINT
  5
148
  8
0
  6
CONTINUOUS
 62
     7
 10
-60.0
 20
0.0
 30
0.0
  0
POINT
  5
149
  8
0
  6
CONTINUOUS
 62
     7
 10
0.0
 20
-65.0
 30
0.0
  0
ENDBLK
  5
14A
  8
0
  0
ENDSEC
  0
SECTION
  2
ENTITIES
  0
LINE
  5
14B
  8
0
  6
CONTINUOUS
 62
     7
 10
170.0
 20
173.0
 30
0.0
 11
170.0
 21
-100.0
 31
0.0
  0
LINE
  5
14C
  8
0
  6
CONTINUOUS
 62
     7
 10
-211.0
 20
-100.0
 30
0.0
 11
170.0
 21
-100.0
 31
0.0
  0
LINE
  5
14D
  8
0
  6
CONTINUOUS
 62
     7
 10
-211.0
 20
173.0
 30
0.0
 11
-211.0
 21
-100.0
 31
0.0
  0
LINE
  5
14E
  8
0
  6
CONTINUOUS
 62
     7
 10
-190.91968
 20
173.0
 30
0.0
 11
-190.91968
 21
77.0
 31
0.0
  0
LINE
  5
14F
  8
0
  6
CONTINUOUS
 62
     7
 10
-210.91967999999989
 20
165.0
 30
0.0
 11
-100.91969
 21
165.0
 31
0.0
  0
LINE
  5
150
  8
0
  6
CONTINUOUS
 62
     7
 10
-210.91967999999989
 20
157.0
 30
0.0
 11
-100.91969
 21
157.0
 31
0.0
  0
LINE
  5
151
  8
0
  6
CONTINUOUS
 62
     7
 10
-210.91967999999989
 20
149.0
 30
0.0
 11
-100.91969
 21
149.0
 31
0.0
  0
LINE
  5
152
  8
0
  6
CONTINUOUS
 62
     7
 10
-210.91967999999989
 20
141.0
 30
0.0
 11
-100.91969
 21
141.0
 31
0.0
  0
LINE
  5
153
  8
0
  6
CONTINUOUS
 62
     7
 10
-190.91968
 20
117.0
 30
0.0
 11
-100.91969
 21
117.0
 31
0.0
  0
LINE
  5
154
  8
0
  6
CONTINUOUS
 62
     7
 10
-190.91968
 20
109.0
 30
0.0
 11
-100.91969
 21
109.0
 31
0.0
  0
LINE
  5
155
  8
0
  6
CONTINUOUS
 62
     7
 10
-210.91967999999989
 20
101.0
 30
0.0
 11
-100.91969
 21
101.0
 31
0.0
  0
LINE
  5
156
  8
0
  6
CONTINUOUS
 62
     7
 10
-190.91968
 20
93.0
 30
0.0
 11
-100.91969
 21
93.0
 31
0.0
  0
LINE
  5
157
  8
0
  6
CONTINUOUS
 62
     7
 10
-190.91968
 20
85.0
 30
0.0
 11
-100.91969
 21
85.0
 31
0.0
  0
LINE
  5
158
  8
0
  6
CONTINUOUS
 62
     7
 10
-210.91967999999989
 20
77.0
 30
0.0
 11
-100.91969
 21
77.0
 31
0.0
  0
LINE
  5
159
  8
0
  6
CONTINUOUS
 62
     7
 10
-100.91969
 20
173.0
 30
0.0
 11
-100.91969
 21
77.0
 31
0.0
  0
LINE
  5
15A
  8
0
  6
CONTINUOUS
 62
     7
 10
-210.91967999999989
 20
133.0
 30
0.0
 11
-100.91969
 21
133.0
 31
0.0
  0
LINE
  5
15B
  8
0
  6
CONTINUOUS
 62
     7
 10
-210.91967999999989
 20
125.0
 30
0.0
 11
-100.91969
 21
125.0
 31
0.0
  0
LINE
  5
15C
  8
0
  6
CONTINUOUS
 62
     7
 10
-190.91968
 20
117.0
 30
0.0
 11
-100.91969
 21
117.0
 31
0.0
  0
LINE
  5
15D
  8
0
  6
CONTINUOUS
 62
     7
 10
-211.0
 20
173.0
 30
0.0
 11
170.0
 21
173.0
 31
0.0
  0
LINE
  5
15E
  8
0
  6
CONTINUOUS
 62
     7
 10
-19.447762000000001
 20
99.162719999999993
 30
0.0
 11
-19.447762000000001
 21
71.662711999999999
 31
0.0
  0
LINE
  5
15F
  8
0
  6
CONTINUOUS
 62
     7
 10
50.552238000000003
 20
98.462715000000003
 30
0.0
 11
50.552238000000003
 21
71.662711999999999
 31
0.0
  0
LINE
  5
160
  8
0
  6
DASHED
 62
     7
 10
50.552238000000003
 20
84.662711999999985
 30
0.0
 11
47.352226000000002
 21
84.662711999999985
 31
0.0
  0
LINE
  5
161
  8
0
  6
DASHED
 62
     7
 10
50.552238000000003
 20
85.362708999999995
 30
0.0
 11
47.352226000000002
 21
85.362708999999995
 31
0.0
  0
LINE
  5
162
  8
0
  6
DASHED
 62
     7
 10
50.552238000000003
 20
87.962708000000006
 30
0.0
 11
47.352226000000002
 21
87.962708000000006
 31
0.0
  0
LINE
  5
163
  8
0
  6
DASHED
 62
     7
 10
33.302238000000003
 20
101.66271
 30
0.0
 11
33.302238000000003
 21
98.462715000000003
 31
0.0
  0
LINE
  5
164
  8
0
  6
DASHED
 62
     7
 10
50.552238000000003
 20
88.662711999999985
 30
0.0
 11
47.352226000000002
 21
88.662711999999985
 31
0.0
  0
LINE
  5
165
  8
0
  6
DASHED
 62
     7
 10
3.3022387000000002
 20
101.66271
 30
0.0
 11
3.3022387000000002
 21
98.462715000000003
 31
0.0
  0
LINE
  5
166
  8
0
  6
DASHED
 62
     7
 10
-2.1977612999999989
 20
101.66271
 30
0.0
 11
-2.1977612999999989
 21
98.462715000000003
 31
0.0
  0
LINE
  5
167
  8
0
  6
DASHED
 62
     7
 10
27.802237999999988
 20
101.66271
 30
0.0
 11
27.802237999999988
 21
98.462715000000003
 31
0.0
  0
LINE
  5
168
  8
0
  6
CENTER
 62
     7
 10
0.55223882
 20
104.66271
 30
0.0
 11
0.55223882
 21
95.462715000000017
 31
0.0
  0
LINE
  5
169
  8
0
  6
CONTINUOUS
 62
     7
 10
-9.4477615000000004
 20
88.662711999999985
 30
0.0
 11
-9.4477615000000004
 21
84.662711999999985
 31
0.0
  0
LINE
  5
16A
  8
0
  6
CONTINUOUS
 62
     7
 10
-13.047767999999991
 20
83.612708999999995
 30
0.0
 11
-13.047767999999991
 21
83.612708999999995
 31
0.0
  0
LINE
  5
16B
  8
0
  6
CONTINUOUS
 62
     7
 10
-14.047768
 20
82.612708999999995
 30
0.0
 11
-16.247779999999999
 21
82.612708999999995
 31
0.0
  0
LINE
  5
16C
  8
0
  6
CONTINUOUS
 62
     7
 10
-14.047768
 20
88.712707999999992
 30
0.0
 11
-16.247779999999999
 21
88.712707999999992
 31
0.0
  0
LINE
  5
16D
  8
0
  6
CONTINUOUS
 62
     7
 10
-14.047768
 20
84.612708999999995
 30
0.0
 11
-16.247779999999999
 21
84.612708999999995
 31
0.0
  0
LINE
  5
16E
  8
0
  6
CONTINUOUS
 62
     7
 10
-13.047767999999991
 20
89.712707999999992
 30
0.0
 11
-13.047767999999991
 21
83.612708999999995
 31
0.0
  0
LINE
  5
16F
  8
0
  6
CONTINUOUS
 62
     7
 10
-13.047767999999991
 20
89.712707999999992
 30
0.0
 11
-13.047767999999991
 21
89.712707999999992
 31
0.0
  0
LINE
  5
170
  8
0
  6
CONTINUOUS
 62
     7
 10
-9.4477615000000004
 20
85.362708999999995
 30
0.0
 11
-13.047767999999991
 21
85.362708999999995
 31
0.0
  0
LINE
  5
171
  8
0
  6
CONTINUOUS
 62
     7
 10
-14.047768
 20
90.712707999999978
 30
0.0
 11
-16.247779999999999
 21
90.712707999999978
 31
0.0
  0
LINE
  5
172
  8
0
  6
CONTINUOUS
 62
     7
 10
-49.44776199999999
 20
94.822440999999998
 30
0.0
 11
-49.44776199999999
 21
78.502975000000006
 31
0.0
  0
LINE
  5
173
  8
0
  6
CENTER
 62
     7
 10
30.552237999999999
 20
104.66271
 30
0.0
 11
30.552237999999999
 21
95.462715000000017
 31
0.0
  0
LINE
  5
174
  8
0
  6
CONTINUOUS
 62
     7
 10
-19.447762000000001
 20
99.162719999999993
 30
0.0
 11
-47.613875999999991
 21
96.815543999999989
 31
0.0
  0
LINE
  5
175
  8
0
  6
CONTINUOUS
 62
     7
 10
-19.447789999999991
 20
74.162696999999994
 30
0.0
 11
-47.613861
 21
76.509872000000001
 31
0.0
  0
LINE
  5
176
  8
0
  6
CONTINUOUS
 62
     7
 10
-9.4477615000000004
 20
84.662711999999985
 30
0.0
 11
-13.047767999999991
 21
84.662711999999985
 31
0.0
  0
LINE
  5
177
  8
0
  6
CONTINUOUS
 62
     7
 10
-9.4477615000000004
 20
87.962708000000006
 30
0.0
 11
-13.047767999999991
 21
87.962708000000006
 31
0.0
  0
LINE
  5
178
  8
0
  6
CENTER
 62
     7
 10
-6.4477611000000001
 20
86.662711999999999
 30
0.0
 11
-52.447761999999997
 21
86.662711999999999
 31
0.0
  0
LINE
  5
179
  8
0
  6
CONTINUOUS
 62
     7
 10
-9.4477615000000004
 20
88.662711999999985
 30
0.0
 11
-13.047767999999991
 21
88.662711999999985
 31
0.0
  0
LINE
  5
17A
  8
0
  6
CENTER
 62
     7
 10
53.552238000000003
 20
86.662711999999999
 30
0.0
 11
44.352226000000002
 21
86.662711999999999
 31
0.0
  0
LINE
  5
17B
  8
0
  6
CONTINUOUS
 62
     7
 10
47.352226000000002
 20
98.462715000000003
 30
0.0
 11
47.352226000000002
 21
71.662711999999999
 31
0.0
  0
LINE
  5
17C
  8
0
  6
CONTINUOUS
 62
     7
 10
47.352226000000002
 20
101.66271
 30
0.0
 11
-16.247779999999999
 21
101.66271
 31
0.0
  0
LINE
  5
17D
  8
0
  6
CONTINUOUS
 62
     7
 10
-16.247779999999999
 20
98.462715000000003
 30
0.0
 11
-16.247779999999999
 21
71.662711999999999
 31
0.0
  0
LINE
  5
17E
  8
0
  6
CONTINUOUS
 62
     7
 10
-16.247779999999999
 20
71.662711999999999
 30
0.0
 11
-19.447762000000001
 21
71.662711999999999
 31
0.0
  0
LINE
  5
17F
  8
0
  6
CONTINUOUS
 62
     7
 10
-9.4477615000000004
 20
-1.5422884999999991
 30
0.0
 11
-9.4477615000000004
 21
-5.5422887999999988
 31
0.0
  0
LINE
  5
180
  8
0
  6
CONTINUOUS
 62
     7
 10
47.352226000000002
 20
98.462715000000003
 30
0.0
 11
-16.247779999999999
 21
98.462715000000003
 31
0.0
  0
LINE
  5
181
  8
0
  6
CONTINUOUS
 62
     7
 10
50.552238000000003
 20
71.662711999999999
 30
0.0
 11
47.352226000000002
 21
71.662711999999999
 31
0.0
  0
LINE
  5
182
  8
0
  6
CONTINUOUS
 62
     7
 10
-13.047767999999991
 20
-6.5922917999999999
 30
0.0
 11
-13.047767999999991
 21
-6.5922917999999999
 31
0.0
  0
LINE
  5
183
  8
0
  6
CONTINUOUS
 62
     7
 10
-14.047768
 20
-1.4922930999999999
 30
0.0
 11
-16.247779999999999
 21
-1.4922930999999999
 31
0.0
  0
LINE
  5
184
  8
0
  6
CENTER
 62
     7
 10
53.552238000000003
 20
-3.5422885000000002
 30
0.0
 11
44.352226000000002
 21
-3.5422885000000002
 31
0.0
  0
LINE
  5
185
  8
0
  6
DASHED
 62
     7
 10
50.552238000000003
 20
-1.5422884999999991
 30
0.0
 11
47.352226000000002
 21
-1.5422884999999991
 31
0.0
  0
LINE
  5
186
  8
0
  6
CONTINUOUS
 62
     7
 10
-9.4477615000000004
 20
-5.5422887999999988
 30
0.0
 11
-13.047767999999991
 21
-5.5422887999999988
 31
0.0
  0
LINE
  5
187
  8
0
  6
CONTINUOUS
 62
     7
 10
-14.047768
 20
-5.592291799999999
 30
0.0
 11
-16.247779999999999
 21
-5.592291799999999
 31
0.0
  0
LINE
  5
188
  8
0
  6
CONTINUOUS
 62
     7
 10
-13.047767999999991
 20
-0.49229315
 30
0.0
 11
-13.047767999999991
 21
-6.5922917999999999
 31
0.0
  0
LINE
  5
189
  8
0
  6
CONTINUOUS
 62
     7
 10
-13.047767999999991
 20
-0.49229315
 30
0.0
 11
-13.047767999999991
 21
-0.49229315
 31
0.0
  0
LINE
  5
18A
  8
0
  6
CONTINUOUS
 62
     7
 10
-14.047768
 20
-7.5922917999999999
 30
0.0
 11
-16.247779999999999
 21
-7.5922917999999999
 31
0.0
  0
LINE
  5
18B
  8
0
  6
CONTINUOUS
 62
     7
 10
-19.447779000000001
 20
8.9577111999999985
 30
0.0
 11
-47.613849999999992
 21
6.6105384999999988
 31
0.0
  0
LINE
  5
18C
  8
0
  6
CONTINUOUS
 62
     7
 10
-14.047768
 20
0.50770688
 30
0.0
 11
-16.247779999999999
 21
0.50770688
 31
0.0
  0
LINE
  5
18D
  8
0
  6
CONTINUOUS
 62
     7
 10
-9.4477615000000004
 20
-4.842291799999999
 30
0.0
 11
-13.047767999999991
 21
-4.842291799999999
 31
0.0
  0
LINE
  5
18E
  8
0
  6
CONTINUOUS
 62
     7
 10
-49.44776199999999
 20
4.617447900000001
 30
0.0
 11
-49.44776199999999
 21
-11.702025000000001
 31
0.0
  0
LINE
  5
18F
  8
0
  6
CONTINUOUS
 62
     7
 10
-19.447783999999992
 20
-16.042287999999999
 30
0.0
 11
-47.613857000000003
 21
-13.695114999999991
 31
0.0
  0
LINE
  5
190
  8
0
  6
CONTINUOUS
 62
     7
 10
-9.4477615000000004
 20
-1.5422884999999991
 30
0.0
 11
-13.047767999999991
 21
-1.5422884999999991
 31
0.0
  0
LINE
  5
191
  8
0
  6
CONTINUOUS
 62
     7
 10
-9.4477615000000004
 20
-2.242293099999999
 30
0.0
 11
-13.047767999999991
 21
-2.242293099999999
 31
0.0
  0
LINE
  5
192
  8
0
  6
DASHED
 62
     7
 10
50.552238000000003
 20
-4.842291799999999
 30
0.0
 11
47.352226000000002
 21
-4.842291799999999
 31
0.0
  0
LINE
  5
193
  8
0
  6
CONTINUOUS
 62
     7
 10
-16.247779999999999
 20
12.457711
 30
0.0
 11
-16.247779999999999
 21
-27.542287999999989
 31
0.0
  0
LINE
  5
194
  8
0
  6
CONTINUOUS
 62
     7
 10
50.552238000000003
 20
-27.542287999999989
 30
0.0
 11
-19.447762000000001
 21
-27.542287999999989
 31
0.0
  0
LINE
  5
195
  8
0
  6
CONTINUOUS
 62
     7
 10
-19.447762000000001
 20
12.457711
 30
0.0
 11
-19.447762000000001
 21
-27.542287999999989
 31
0.0
  0
LINE
  5
196
  8
0
  6
CONTINUOUS
 62
     7
 10
50.552238000000003
 20
12.457711
 30
0.0
 11
50.552238000000003
 21
-27.542287999999989
 31
0.0
  0
LINE
  5
197
  8
0
  6
CONTINUOUS
 62
     7
 10
47.352226000000002
 20
12.457711
 30
0.0
 11
47.352226000000002
 21
-27.542287999999989
 31
0.0
  0
LINE
  5
198
  8
0
  6
CONTINUOUS
 62
     7
 10
50.552238000000003
 20
12.457711
 30
0.0
 11
-19.447762000000001
 21
12.457711
 31
0.0
  0
LINE
  5
199
  8
0
  6
DASHED
 62
     7
 10
50.552238000000003
 20
-2.242293099999999
 30
0.0
 11
47.352226000000002
 21
-2.242293099999999
 31
0.0
  0
LINE
  5
19A
  8
0
  6
DASHED
 62
     7
 10
50.552238000000003
 20
-5.5422887999999988
 30
0.0
 11
47.352226000000002
 21
-5.5422887999999988
 31
0.0
  0
LINE
  5
19B
  8
0
  6
CENTER
 62
     7
 10
-6.4477611000000001
 20
-3.5422885000000002
 30
0.0
 11
-52.447761999999997
 21
-3.5422885000000002
 31
0.0
  0
LINE
  5
19C
  8
0
  6
CENTER
 62
     7
 10
-151.32953999999989
 20
-3.5422885000000002
 30
0.0
 11
-118.9988299999999
 21
-3.5422885000000002
 31
0.0
  0
LINE
  5
19D
  8
0
  6
CENTER
 62
     7
 10
-135.25763000000001
 20
14.199890999999999
 30
0.0
 11
-135.25763000000001
 21
-19.812763
 31
0.0
  0
LINE
  5
19E
  8
0
  6
CENTER
 62
     2
 10
-135.25763000000001
 20
-8.3422841999999982
 30
0.0
 11
-135.25763000000001
 21
1.2577143999999989
 31
0.0
  0
LINE
  5
19F
  8
0
  6
CENTER
 62
     2
 10
-140.05762999999999
 20
-3.5422885000000002
 30
0.0
 11
-130.45762999999991
 21
-3.5422885000000002
 31
0.0
  0
LINE
  5
1A0
  8
0
  6
CONTINUOUS
 62
     7
 10
-135.75763000000001
 20
-2.5422884999999988
 30
0.0
 11
-135.75763000000001
 21
-1.342284199999999
 31
0.0
  0
LINE
  5
1A1
  8
0
  6
CONTINUOUS
 62
     7
 10
-137.45762999999991
 20
-3.0422884999999988
 30
0.0
 11
-136.25763000000001
 21
-3.0422884999999988
 31
0.0
  0
LINE
  5
1A2
  8
0
  6
CONTINUOUS
 62
     7
 10
-137.45762999999991
 20
-4.0422887999999988
 30
0.0
 11
-137.45762999999991
 21
-3.0422884999999988
 31
0.0
  0
LINE
  5
1A3
  8
0
  6
CONTINUOUS
 62
     7
 10
-136.25763000000001
 20
-4.0422887999999988
 30
0.0
 11
-137.45762999999991
 21
-4.0422887999999988
 31
0.0
  0
LINE
  5
1A4
  8
0
  6
CONTINUOUS
 62
     7
 10
-135.75763000000001
 20
-5.7422857
 30
0.0
 11
-135.75763000000001
 21
-4.5422887999999988
 31
0.0
  0
LINE
  5
1A5
  8
0
  6
CONTINUOUS
 62
     7
 10
-134.75763000000001
 20
-5.7422857
 30
0.0
 11
-135.75763000000001
 21
-5.7422857
 31
0.0
  0
LINE
  5
1A6
  8
0
  6
CONTINUOUS
 62
     7
 10
-134.75763000000001
 20
-4.5422887999999988
 30
0.0
 11
-134.75763000000001
 21
-5.7422857
 31
0.0
  0
LINE
  5
1A7
  8
0
  6
CONTINUOUS
 62
     7
 10
-133.05762999999999
 20
-4.0422887999999988
 30
0.0
 11
-134.25763000000001
 21
-4.0422887999999988
 31
0.0
  0
LINE
  5
1A8
  8
0
  6
CONTINUOUS
 62
     7
 10
-133.05762999999999
 20
-3.0422884999999988
 30
0.0
 11
-133.05762999999999
 21
-4.0422887999999988
 31
0.0
  0
LINE
  5
1A9
  8
0
  6
CONTINUOUS
 62
     7
 10
-134.25763000000001
 20
-3.0422884999999988
 30
0.0
 11
-133.05762999999999
 21
-3.0422884999999988
 31
0.0
  0
LINE
  5
1AA
  8
0
  6
CONTINUOUS
 62
     7
 10
-134.75763000000001
 20
-1.342284199999999
 30
0.0
 11
-134.75763000000001
 21
-2.5422884999999988
 31
0.0
  0
LINE
  5
1AB
  8
0
  6
CONTINUOUS
 62
     7
 10
-135.75763000000001
 20
-1.342284199999999
 30
0.0
 11
-134.75763000000001
 21
-1.342284199999999
 31
0.0
  0
LINE
  5
1AC
  8
0
  6
CENTER
 62
     7
 10
24.802237999999999
 20
-7.5422887999999979
 30
0.0
 11
36.302238000000003
 21
-7.5422887999999979
 31
0.0
  0
LINE
  5
1AD
  8
0
  6
CENTER
 62
     7
 10
30.552237999999999
 20
-1.7922884999999991
 30
0.0
 11
30.552237999999999
 21
-13.292289
 31
0.0
  0
LINE
  5
1AE
  8
0
  6
CENTER
 62
     7
 10
-5.1977611000000001
 20
-7.5422887999999979
 30
0.0
 11
6.302238899999999
 21
-7.5422887999999979
 31
0.0
  0
LINE
  5
1AF
  8
0
  6
CENTER
 62
     7
 10
0.55223882
 20
-1.7922884999999991
 30
0.0
 11
0.55223882
 21
-13.292289
 31
0.0
  0
LINE
  5
1B0
  8
0
  6
CONTINUOUS
 62
     7
 10
-120.2576199999999
 20
12.457711
 30
0.0
 11
-120.2576199999999
 21
-27.542287999999989
 31
0.0
  0
LINE
  5
1B1
  8
0
  6
CONTINUOUS
 62
     7
 10
-150.25763000000001
 20
12.457711
 30
0.0
 11
-150.25763000000001
 21
-27.542287999999989
 31
0.0
  0
LINE
  5
1B2
  8
0
  6
CONTINUOUS
 62
     7
 10
-120.2576199999999
 20
12.457711
 30
0.0
 11
-150.25763000000001
 21
12.457711
 31
0.0
  0
LINE
  5
1B3
  8
0
  6
CONTINUOUS
 62
     7
 10
-120.2576199999999
 20
-27.542287999999989
 30
0.0
 11
-150.25763000000001
 21
-27.542287999999989
 31
0.0
  0
CIRCLE
  5
1B4
  8
0
  6
CONTINUOUS
 62
     7
 10
30.552237999999999
 20
-7.5422887999999979
 30
0.0
 40
2.75
  0
CIRCLE
  5
1B5
  8
0
  6
CONTINUOUS
 62
     7
 10
0.55223882
 20
-7.5422887999999979
 30
0.0
 40
2.75
  0
ARC
  5
1B6
  8
0
  6
CONTINUOUS
 62
     7
 10
-14.047768
 20
87.712707999999992
 30
0.0
 40
1.0
 50
0.0
 51
90.0
  0
ARC
  5
1B7
  8
0
  6
CONTINUOUS
 62
     7
 10
-14.047768
 20
89.712707999999992
 30
0.0
 40
1.0
 50
0.0
 51
90.0
  0
ARC
  5
1B8
  8
0
  6
CONTINUOUS
 62
     7
 10
-14.047768
 20
85.612708999999995
 30
0.0
 40
1.0
 50
270.0
 51
0.0
  0
ARC
  5
1B9
  8
0
  6
CONTINUOUS
 62
     7
 10
-14.047768
 20
83.612708999999995
 30
0.0
 40
1.0
 50
0.0
 51
90.0
  0
ARC
  5
1BA
  8
0
  6
CONTINUOUS
 62
     7
 10
-14.047768
 20
89.712707999999992
 30
0.0
 40
1.0
 50
270.0
 51
0.0
  0
ARC
  5
1BB
  8
0
  6
CONTINUOUS
 62
     7
 10
-14.047768
 20
83.612708999999995
 30
0.0
 40
1.0
 50
270.0
 51
0.0
  0
ARC
  5
1BC
  8
0
  6
CONTINUOUS
 62
     7
 10
47.352226000000002
 20
98.462715000000003
 30
0.0
 40
3.2000000000000002
 50
0.0
 51
90.0
  0
ARC
  5
1BD
  8
0
  6
CONTINUOUS
 62
     7
 10
-47.44776199999999
 20
78.502975000000006
 30
0.0
 40
2.0
 50
180.0
 51
265.23631999999998
  0
ARC
  5
1BE
  8
0
  6
CONTINUOUS
 62
     7
 10
-47.44776199999999
 20
94.822440999999998
 30
0.0
 40
2.0
 50
94.763677999999985
 51
180.0
  0
ARC
  5
1BF
  8
0
  6
CONTINUOUS
 62
     7
 10
-16.247779999999999
 20
98.462715000000003
 30
0.0
 40
3.2000000000000002
 50
90.0
 51
180.0
  0
ARC
  5
1C0
  8
0
  6
CONTINUOUS
 62
     7
 10
-14.047768
 20
-2.492293099999999
 30
0.0
 40
1.0
 50
0.0
 51
90.0
  0
ARC
  5
1C1
  8
0
  6
CONTINUOUS
 62
     7
 10
-14.047768
 20
-0.49229315
 30
0.0
 40
1.0
 50
359.99998999999991
 51
90.0
  0
ARC
  5
1C2
  8
0
  6
CONTINUOUS
 62
     7
 10
-14.047768
 20
-4.592291799999999
 30
0.0
 40
1.0
 50
270.0
 51
0.0
  0
ARC
  5
1C3
  8
0
  6
CONTINUOUS
 62
     7
 10
-14.047768
 20
-6.5922917999999999
 30
0.0
 40
1.0
 50
0.0
 51
90.0
  0
ARC
  5
1C4
  8
0
  6
CONTINUOUS
 62
     7
 10
-14.047768
 20
-0.49229315
 30
0.0
 40
1.0
 50
270.0
 51
0.0000085377365
  0
ARC
  5
1C5
  8
0
  6
CONTINUOUS
 62
     7
 10
-14.047768
 20
-6.5922917999999999
 30
0.0
 40
1.0
 50
270.0
 51
0.0
  0
ARC
  5
1C6
  8
0
  6
CONTINUOUS
 62
     7
 10
-47.44776199999999
 20
-11.702025000000001
 30
0.0
 40
2.0
 50
180.0
 51
265.23633000000001
  0
ARC
  5
1C7
  8
0
  6
CONTINUOUS
 62
     7
 10
-47.44776199999999
 20
4.617447900000001
 30
0.0
 40
2.0
 50
94.763668999999993
 51
180.0
  0
CIRCLE
  5
1C8
  8
0
  6
CONTINUOUS
 62
     7
 10
-135.25763000000001
 20
-3.5422885000000002
 30
0.0
 40
10.0
  0
CIRCLE
  5
1C9
  8
0
  6
CONTINUOUS
 62
     7
 10
-135.25763000000001
 20
-3.5422885000000002
 30
0.0
 40
12.5
  0
ARC
  5
1CA
  8
0
  6
CONTINUOUS
 62
     7
 10
-134.25763000000001
 20
-2.5422884999999988
 30
0.0
 40
0.5
 50
180.0
 51
270.0
  0
CIRCLE
  5
1CB
  8
0
  6
CONTINUOUS
 62
     7
 10
-135.25763000000001
 20
-3.5422885000000002
 30
0.0
 40
4.0
  0
ARC
  5
1CC
  8
0
  6
CONTINUOUS
 62
     7
 10
-134.25763000000001
 20
-4.5422887999999988
 30
0.0
 40
0.5
 50
90.0
 51
180.0
  0
ARC
  5
1CD
  8
0
  6
CONTINUOUS
 62
     7
 10
-136.25763000000001
 20
-4.5422887999999988
 30
0.0
 40
0.5
 50
0.0
 51
90.0
  0
ARC
  5
1CE
  8
0
  6
CONTINUOUS
 62
     7
 10
-136.25763000000001
 20
-2.5422884999999988
 30
0.0
 40
0.5
 50
270.0
 51
0.0
  0
CIRCLE
  5
1CF
  8
0
  6
CONTINUOUS
 62
     7
 10
2.0861890000000001
 20
-5.2598561999999998
 30
0.0
 40
0.5
  0
TEXT
  5
1D0
  8
0
  6
CONTINUOUS
 62
     7
 10
-205.26267999999999
 20
167.40000000000001
 30
0.0
 40
3.2000000000000002
  1
品　名
 41
0.85537027
  0
TEXT
  5
1D1
  8
0
  6
CONTINUOUS
 62
     7
 10
-205.26267999999999
 20
159.40000000000001
 30
0.0
 40
3.2000000000000002
  1
品　番
 41
0.85537027
  0
TEXT
  5
1D2
  8
0
  6
CONTINUOUS
 62
     7
 10
-188.06267999999989
 20
167.40000000000001
 30
0.0
 40
3.2000000000000002
  1
上吊引戸ストッパー
 41
0.84496202
  0
TEXT
  5
1D3
  8
0
  6
CONTINUOUS
 62
     7
 10
-205.26267999999999
 20
151.40000000000001
 30
0.0
 40
3.2000000000000002
  1
材　質
 41
0.85537027
  0
TEXT
  5
1D4
  8
0
  6
CONTINUOUS
 62
     7
 10
-205.26267999999999
 20
143.40000000000001
 30
0.0
 40
3.2000000000000002
  1
仕上げ
 41
0.85537027
  0
TEXT
  5
1D5
  8
0
  6
CONTINUOUS
 62
     7
 10
-208.46268000000001
 20
119.40000000000001
 30
0.0
 40
3.2000000000000002
  1
セットビス
 41
0.84892707
  0
TEXT
  5
1D6
  8
0
  6
CONTINUOUS
 62
     7
 10
-188.06267999999989
 20
143.40000000000001
 30
0.0
 40
3.2000000000000002
  1
（ストッパー）有色クロメート（戸当りゴム）生地
 41
0.8421048599999998
  0
TEXT
  5
1D7
  8
0
  6
CONTINUOUS
 62
     7
 10
-203.66267999999999
 20
95.400000000000006
 30
0.0
 40
3.2000000000000002
  1
備考
 41
0.8643907499999999
  0
TEXT
  5
1D8
  8
0
  6
CONTINUOUS
 62
     7
 10
-188.06267999999989
 20
151.40000000000001
 30
0.0
 40
3.2000000000000002
  1
（ストッパー）スチール（戸当りゴム）ゴム
 41
0.8423746600000001
  0
TEXT
  5
1D9
  8
0
  6
CONTINUOUS
 62
     7
 10
-188.06267999999989
 20
159.40000000000001
 30
0.0
 40
3.2000000000000002
  1
ＳＢ－３００
 41
0.84741102
  0
TEXT
  5
1DA
  8
0
  6
CONTINUOUS
 62
     7
 10
-205.26267999999999
 20
135.40000000000001
 30
0.0
 40
3.2000000000000002
  1
定　尺
 41
0.85537027
  0
TEXT
  5
1DB
  8
0
  6
CONTINUOUS
 62
     7
 10
-206.86268000000001
 20
127.40000000000001
 30
0.0
 40
3.2000000000000002
  1
左右勝手
 41
0.8512700499999999
  0
TEXT
  5
1DC
  8
0
  6
CONTINUOUS
 62
     7
 10
-188.29822999999999
 20
127.3661699999999
 30
0.0
 40
3.2000000000000002
  1
左勝手
 41
0.85537027
  0
DIMENSION
  5
1DF
  8
0
  6
CONTINUOUS
 62
     7
  2
*D2
 10
-19.447762000000001
 20
-52.542290000000001
 30
0.0
 11
-34.44776199999999
 21
-52.542290000000001
 31
0.0
 13
-49.44776199999999
 23
-11.702025000000001
 33
0.0
 14
-19.447762000000001
 24
-27.542287999999989
 34
0.0
1001
ACAD
1000
DSTYLE
1002
{
1070
    77
1070
     1
1070
   172
1070
     1
1002
}
  0
DIMENSION
  5
1E0
  8
0
  6
CONTINUOUS
 62
     7
  2
*D3
 10
50.552238000000003
 20
-52.542290000000001
 30
0.0
 11
15.552237999999999
 21
-52.542290000000001
 31
0.0
 13
-19.447762000000001
 23
-27.542287999999989
 33
0.0
 14
50.552238000000003
 24
-27.542287999999989
 34
0.0
1001
ACAD
1000
DSTYLE
1002
{
1070
    77
1070
     1
1070
   172
1070
     1
1070
    75
1070
     1
1002
}
  0
DIMENSION
  5
1E1
  8
0
  6
CONTINUOUS
 62
     7
  2
*D4
 10
0.55223882
 20
-42.542290000000001
 30
0.0
 11
-9.4477615000000004
 21
-42.542290000000001
 31
0.0
 13
-19.447762000000001
 23
-27.542287999999989
 33
0.0
 14
0.55223882
 24
-13.292289
 34
0.0
1001
ACAD
1000
DSTYLE
1002
{
1070
    77
1070
     1
1070
   172
1070
     1
1002
}
  0
DIMENSION
  5
1E2
  8
0
  6
CONTINUOUS
 62
     7
  2
*D5
 10
30.552237999999999
 20
-42.542290000000001
 30
0.0
 11
15.552237999999999
 21
-42.542290000000001
 31
0.0
 13
0.55223882
 23
-13.292289
 33
0.0
 14
30.552237999999999
 24
-13.292289
 34
0.0
1001
ACAD
1000
DSTYLE
1002
{
1070
    77
1070
     1
1070
   172
1070
     1
1070
    75
1070
     1
1002
}
  0
DIMENSION
  5
1E3
  8
0
  6
CONTINUOUS
 62
     7
  2
*D6
 10
50.552238000000003
 20
-42.542290000000001
 30
0.0
 11
40.552238000000003
 21
-42.542290000000001
 31
0.0
 13
30.552237999999999
 23
-13.292289
 33
0.0
 14
50.552238000000003
 24
-27.542287999999989
 34
0.0
1001
ACAD
1000
DSTYLE
1002
{
1070
    77
1070
     1
1070
   172
1070
     1
1070
    75
1070
     1
1002
}
  0
INSERT
  5
1E4
  8
0
  6
CONTINUOUS
 62
     7
  2
*D7
 10
0.0
 20
0.0
 30
0.0
  0
DIMENSION
  5
1E5
  8
0
  6
CONTINUOUS
 62
     7
  2
*D8
 10
-69.447761999999983
 20
-3.5422885000000002
 30
0.0
 11
-69.447761999999983
 21
4.4577112000000003
 31
0.0
 13
-19.447762000000001
 23
12.457711
 33
0.0
 14
-52.447761999999997
 24
-3.5422885000000002
 34
0.0
 50
90.0
1001
ACAD
1000
DSTYLE
1002
{
1070
    77
1070
     1
1070
   172
1070
     1
1002
}
  0
DIMENSION
  5
1E6
  8
0
  6
CONTINUOUS
 62
     7
  2
*D9
 10
-69.447761999999983
 20
-27.542287999999989
 30
0.0
 11
-69.447761999999983
 21
-15.542289
 31
0.0
 13
-52.447761999999997
 23
-3.5422885000000002
 33
0.0
 14
-19.447762000000001
 24
-27.542287999999989
 34
0.0
 50
90.0
1001
ACAD
1000
DSTYLE
1002
{
1070
    77
1070
     1
1070
   172
1070
     1
1070
    75
1070
     1
1002
}
  0
DIMENSION
  5
1E7
  8
0
  6
CONTINUOUS
 62
     7
  2
*D10
 10
-79.447761999999983
 20
-27.542287999999989
 30
0.0
 11
-79.447761999999983
 21
-7.5422887999999979
 31
0.0
 13
-19.447762000000001
 23
12.457711
 33
0.0
 14
-19.447762000000001
 24
-27.542287999999989
 34
0.0
 50
90.0
1001
ACAD
1000
DSTYLE
1002
{
1070
    77
1070
     1
1070
   172
1070
     1
1002
}
  0
DIMENSION
  5
1E8
  8
0
  6
CONTINUOUS
 62
     7
  2
*D11
 10
-150.25763000000001
 20
-42.542290000000001
 30
0.0
 11
-142.75763000000001
 21
-42.542290000000001
 31
0.0
 13
-135.25763000000001
 23
-19.812763
 33
0.0
 14
-150.25763000000001
 24
-27.542287999999989
 34
0.0
1001
ACAD
1000
DSTYLE
1002
{
1070
    77
1070
     1
1070
   172
1070
     1
1002
}
  0
DIMENSION
  5
1E9
  8
0
  6
CONTINUOUS
 62
     7
  2
*D12
 10
-120.2576199999999
 20
-42.542290000000001
 30
0.0
 11
-127.7576199999999
 21
-42.542290000000001
 31
0.0
 13
-135.25763000000001
 23
-19.812763
 33
0.0
 14
-120.2576199999999
 24
-27.542287999999989
 34
0.0
1001
ACAD
1000
DSTYLE
1002
{
1070
    77
1070
     1
1070
   172
1070
     1
1002
}
  0
DIMENSION
  5
1EA
  8
0
  6
CONTINUOUS
 62
     7
  2
*D13
 10
-120.2576199999999
 20
-52.542290000000001
 30
0.0
 11
-135.25763000000001
 21
-52.542290000000001
 31
0.0
 13
-150.25763000000001
 23
-27.542287999999989
 33
0.0
 14
-120.2576199999999
 24
-27.542287999999989
 34
0.0
1001
ACAD
1000
DSTYLE
1002
{
1070
    77
1070
     1
1070
   172
1070
     1
1002
}
  0
DIMENSION
  5
1EB
  8
0
  6
CONTINUOUS
 62
     7
  2
*D14
 10
-59.44776199999999
 20
-16.042289999999991
 30
0.0
 11
-59.44776199999999
 21
22.115656000000001
 31
0.0
 13
-19.447762000000001
 23
8.9577121999999996
 33
0.0
 14
-19.447762000000001
 24
-16.042289999999991
 34
0.0
 50
90.0
1001
ACAD
1000
DSTYLE
1002
{
1070
    77
1070
     1
1070
   172
1070
     1
1002
}
  0
TEXT
  5
1ED
  8
0
  6
CONTINUOUS
 62
     7
 10
-188.29822999999999
 20
95.366169999999997
 30
0.0
 40
3.2000000000000002
  1
RZM-６０／８０　セット販売品
 41
0.85537027
  0
TEXT
  5
1EE
  8
0
  6
CONTINUOUS
 62
     7
 10
-188.29822999999999
 20
87.366169999999997
 30
0.0
 40
3.2000000000000002
  1
SLM-６０　セット販売品
 41
0.85537027
  0
ENDSEC
  0
EOF
