  0
SECTION
  2
HEADER
  9
$EXTMAX
 10
170
 20
173
 30
0
  9
$EXTMIN
 10
-211
 20
-100
 30
0
  9
$LIMMAX
 10
170
 20
173
  9
$LIMMIN
 10
-211
 20
-100
  9
$PLIMMAX
 10
170
 20
173
  9
$PLIMMIN
 10
-211
 20
-100
  9
$TEXTSIZE
 40
3.2
  9
$DIMSHO
 70
     0
  9
$DIMASZ
 40
1.0
  9
$DIMTAD
 70
     1
  9
$DIMTIH
 70
     0
  9
$DIMTOH
 70
     0
  9
$DIMEXE
 40
2.54
  9
$DIMEXO
 40
2.54
  9
$DIMTVP
 40
1.0
  9
$DIMSAH
 70
     1
  9
$DIMDLE
 40
0.0
  9
$DIMTXT
 40
3.2
  9
$DIMGAP
 40
1.6
  0
ENDSEC
  0
SECTION
  2
TABLES
  0
TABLE
  2
LTYPE
 70
     6
  0
LTYPE
  2
CONTINUOUS
 70
    64
  3
Solid line
 72
    65
 73
     0
 40
0.0
  0
LTYPE
  2
DASHED
 70
    64
  3
__ __ __ __ __ __ __ __ __ __ __ __ __ __ __
 72
    65
 73
     2
 40
3.5
 49
2.0
 49
-1.5
  0
LTYPE
  2
CENTER
 70
    64
  3
____ _ ____ _ ____ _ ____ _ ____ _ ____ _ ____
 72
    65
 73
     4
 40
17.5
 49
13.0
 49
-1.5
 49
1.5
 49
-1.5
  0
LTYPE
  2
PHANTOM
 70
    64
  3
_____ _ _ _____ _ _ _____ _ _ _____ _ _ ____  
 72
    65
 73
     6
 40
15.5
 49
8.0
 49
-1.5
 49
1.5
 49
-1.5
 49
1.5
 49
-1.5
  0
LTYPE
  2
DOT
 70
    64
  3
. . . . . . . . . . . . . . . . . . . . . . . .
 72
    65
 73
     2
 40
0.25
 49
0.0
 49
-0.25
  0
LTYPE
  2
HIDDEN
 70
    64
  3
__ __ __ __ __ __ __ __ __ __ __ __ __ __ __
 72
    65
 73
     2
 40
3.5
 49
2.0
 49
-1.5
  0
ENDTAB
  0
TABLE
  2
LAYER
 70
     4
  0
LAYER
  2
0
 70
     0
 62
     7
  6
CONTINUOUS
  0
LAYER
  2
1
 70
     0
 62
     7
  6
CONTINUOUS
  0
LAYER
  2
2
 70
     0
 62
     7
  6
CONTINUOUS
  0
LAYER
  2
DEFPOINTS
 70
     0
 62
     7
  6
CONTINUOUS
  0
ENDTAB
  0
TABLE
  2
STYLE
 70
     1
  0
STYLE
  2
STANDARD
 70
     0
 40
0.0
 41
1.0
 50
0.0
 71
     0
 42
0.2
  3
txt
  4
BIGFONT
  0
ENDTAB
  0
TABLE
  2
DIMSTYLE
 70
     1
  0
DIMSTYLE
  2
DIMSTYLE
 70
     0
  3

  4

  5
_DOT
  6
_DOT
  7
_DOT
 40
1
 41
1
 42
2.54
 43
0.38
 44
2.54
 45
0
 46
0
 47
0
 48
0
140
3.2
141
0.09
142
0
143
25.4
144
1
145
0
146
1
147
1.6
 71
     0
 72
     0
 73
     0
 74
     0
 75
     0
 76
     0
 78
     0
170
     0
171
     2
 77
     0
172
     0
173
     1
174
     0
175
     0
176
     0
177
     0
178
     0
  0
ENDTAB
  0
ENDSEC
  0
SECTION
  2
BLOCKS
  0
BLOCK
  8
0
  2
_DOT
 70
    64
 10
0
 20
0
  3
_DOT
  0
POLYLINE
  8
0
  6
BYBLOCK
 62
     0
 66
     1
 10
0
 20
0
 70
     1
 40
0.40000001
 41
0.40000001
  0
VERTEX
  8
0
  6
BYBLOCK
 62
     0
 10
-0.2
 20
0
 42
1
  0
VERTEX
  8
0
  6
BYBLOCK
 62
     0
 10
0.2
 20
0
 42
1
  0
SEQEND
  8
0
  6
BYBLOCK
 62
     0
  0
LINE
  8
0
  6
BYBLOCK
 62
     0
 10
-0.40000001
 20
0
 11
-3
 21
0
  0
ENDBLK
  8
0
  0
BLOCK
  8
0
  2
*D1
 70
    65
 10
0
 20
0
  0
LINE
  8
0
  6
CONTINUOUS
 62
     7
 10
14.7
 20
-25
 11
40
 21
-25
  0
INSERT
  8
0
  6
CONTINUOUS
 62
     7
  2
_DOT
 10
14.7
 20
-25
 50
180
  0
INSERT
  8
0
  6
CONTINUOUS
 62
     7
  2
_DOT
 10
40
 20
-25
  0
LINE
  8
0
  6
CONTINUOUS
 62
     7
 10
14.7
 20
1.6599999
 11
14.7
 21
-26.200001
  0
LINE
  8
0
  6
CONTINUOUS
 62
     7
 10
40
 20
1.6599999
 11
40
 21
-26.200001
  0
TEXT
  8
0
  6
CONTINUOUS
 62
     7
 10
21.407
 20
-24.2
 40
3.2
 41
1.238125
  1
25.3
  0
POINT
  8
DEFPOINTS
  6
CONTINUOUS
 62
     7
 10
14.7
 20
4.1999998
  0
POINT
  8
DEFPOINTS
  6
CONTINUOUS
 62
     7
 10
40
 20
4.1999998
  0
POINT
  8
DEFPOINTS
  6
CONTINUOUS
 62
     7
 10
40
 20
-25
  0
ENDBLK
  8
0
  0
BLOCK
  8
0
  2
*D2
 70
    65
 10
0
 20
0
  0
LINE
  8
0
  6
CONTINUOUS
 62
     7
 10
6.7043424
 20
-25
 11
-4.3429999
 21
-25
  0
LINE
  8
0
  6
CONTINUOUS
 62
     7
 10
6.7043424
 20
-25
 11
14.7
 21
-25
  0
INSERT
  8
0
  6
CONTINUOUS
 62
     7
  2
_DOT
 10
6.7043424
 20
-25
 50
180
  0
INSERT
  8
0
  6
CONTINUOUS
 62
     7
  2
_DOT
 10
14.7
 20
-25
  0
LINE
  8
0
  6
CONTINUOUS
 62
     7
 10
6.7043424
 20
-2.1481306
 11
6.7043424
 21
-26.200001
  0
TEXT
  8
0
  6
CONTINUOUS
 62
     7
 10
-4.343
 20
-24.2
 40
3.2
 41
1.2857566
  1
(8)
  0
POINT
  8
DEFPOINTS
  6
CONTINUOUS
 62
     7
 10
6.7043424
 20
0.39186937
  0
POINT
  8
DEFPOINTS
  6
CONTINUOUS
 62
     7
 10
14.7
 20
4.1999998
  0
POINT
  8
DEFPOINTS
  6
CONTINUOUS
 62
     7
 10
14.7
 20
-25
  0
ENDBLK
  8
0
  0
BLOCK
  8
0
  2
*D3
 70
    65
 10
0
 20
0
  0
LINE
  8
0
  6
CONTINUOUS
 62
     7
 10
6.7043424
 20
-35
 11
40
 21
-35
  0
INSERT
  8
0
  6
CONTINUOUS
 62
     7
  2
_DOT
 10
6.7043424
 20
-35
 50
180
  0
INSERT
  8
0
  6
CONTINUOUS
 62
     7
  2
_DOT
 10
40
 20
-35
  0
LINE
  8
0
  6
CONTINUOUS
 62
     7
 10
6.7043424
 20
-2.1481306
 11
6.7043424
 21
-36.200001
  0
LINE
  8
0
  6
CONTINUOUS
 62
     7
 10
40
 20
1.6599999
 11
40
 21
-36.200001
  0
TEXT
  8
0
  6
CONTINUOUS
 62
     7
 10
14.209171
 20
-34.2
 40
3.2
 41
1.2857344
  1
(33.3)
  0
POINT
  8
DEFPOINTS
  6
CONTINUOUS
 62
     7
 10
6.7043424
 20
0.39186937
  0
POINT
  8
DEFPOINTS
  6
CONTINUOUS
 62
     7
 10
40
 20
4.1999998
  0
POINT
  8
DEFPOINTS
  6
CONTINUOUS
 62
     7
 10
40
 20
-35
  0
ENDBLK
  8
0
  0
BLOCK
  8
0
  2
*D4
 70
    65
 10
0
 20
0
  0
LINE
  8
0
  6
CONTINUOUS
 62
     7
 10
55
 20
100
 11
55
 21
70
  0
INSERT
  8
0
  6
CONTINUOUS
 62
     7
  2
_DOT
 10
55
 20
100
 50
90
  0
INSERT
  8
0
  6
CONTINUOUS
 62
     7
  2
_DOT
 10
55
 20
70
 50
270
  0
LINE
  8
0
  6
CONTINUOUS
 62
     7
 10
42.54
 20
100
 11
56.200001
 21
100
  0
LINE
  8
0
  6
CONTINUOUS
 62
     7
 10
42.54
 20
70
 11
56.200001
 21
70
  0
TEXT
  8
0
  6
CONTINUOUS
 62
     7
 10
54.2
 20
82.257
 40
3.2
 41
1.1020982
  1
30
 50
90.000003
  0
POINT
  8
DEFPOINTS
  6
CONTINUOUS
 62
     7
 10
40
 20
100
  0
POINT
  8
DEFPOINTS
  6
CONTINUOUS
 62
     7
 10
40
 20
70
  0
POINT
  8
DEFPOINTS
  6
CONTINUOUS
 62
     7
 10
55
 20
70
  0
ENDBLK
  8
0
  0
BLOCK
  8
0
  2
*D5
 70
    65
 10
0
 20
0
  0
LINE
  8
0
  6
CONTINUOUS
 62
     7
 10
-5
 20
100
 11
-5
 21
113.41523
  0
LINE
  8
0
  6
CONTINUOUS
 62
     7
 10
-5
 20
100
 11
-5
 21
90.25
  0
INSERT
  8
0
  6
CONTINUOUS
 62
     7
  2
_DOT
 10
-5
 20
100
 50
90
  0
INSERT
  8
0
  6
CONTINUOUS
 62
     7
  2
_DOT
 10
-5
 20
90.25
 50
270
  0
LINE
  8
0
  6
CONTINUOUS
 62
     7
 10
13.702125
 20
100
 11
-6.1999998
 21
100
  0
LINE
  8
0
  6
CONTINUOUS
 62
     7
 10
5.1643424
 20
90.25
 11
-6.1999998
 21
90.25
  0
TEXT
  8
0
  6
CONTINUOUS
 62
     7
 10
-5.7999998
 20
101.84923
 40
3.2
 41
1.238125
  1
9.75
 50
90.000003
  0
POINT
  8
DEFPOINTS
  6
CONTINUOUS
 62
     7
 10
16.242125
 20
100
  0
POINT
  8
DEFPOINTS
  6
CONTINUOUS
 62
     7
 10
7.7043424
 20
90.25
  0
POINT
  8
DEFPOINTS
  6
CONTINUOUS
 62
     7
 10
-5
 20
90.25
  0
ENDBLK
  8
0
  0
BLOCK
  8
0
  2
*D6
 70
    65
 10
0
 20
0
  0
LINE
  8
0
  6
CONTINUOUS
 62
     7
 10
-5
 20
79.75
 11
-5
 21
90.25
  0
INSERT
  8
0
  6
CONTINUOUS
 62
     7
  2
_DOT
 10
-5
 20
79.75
 50
270
  0
INSERT
  8
0
  6
CONTINUOUS
 62
     7
  2
_DOT
 10
-5
 20
90.25
 50
90
  0
LINE
  8
0
  6
CONTINUOUS
 62
     7
 10
5.1643424
 20
79.75
 11
-6.1999998
 21
79.75
  0
TEXT
  8
0
  6
CONTINUOUS
 62
     7
 10
-5.7999998
 20
79.057
 40
3.2
 41
1.48575
  1
10.5
 50
90.000003
  0
POINT
  8
DEFPOINTS
  6
CONTINUOUS
 62
     7
 10
7.7043424
 20
79.75
  0
POINT
  8
DEFPOINTS
  6
CONTINUOUS
 62
     7
 10
7.7043424
 20
90.25
  0
POINT
  8
DEFPOINTS
  6
CONTINUOUS
 62
     7
 10
-5
 20
90.25
  0
ENDBLK
  8
0
  0
BLOCK
  8
0
  2
*D7
 70
    65
 10
0
 20
0
  0
LINE
  8
0
  6
CONTINUOUS
 62
     7
 10
-5
 20
70
 11
-5
 21
56.761169
  0
LINE
  8
0
  6
CONTINUOUS
 62
     7
 10
-5
 20
79.75
 11
-5
 21
70
  0
INSERT
  8
0
  6
CONTINUOUS
 62
     7
  2
_DOT
 10
-5
 20
79.75
 50
90
  0
INSERT
  8
0
  6
CONTINUOUS
 62
     7
  2
_DOT
 10
-5
 20
70
 50
270
  0
LINE
  8
0
  6
CONTINUOUS
 62
     7
 10
13.702125
 20
70
 11
-6.1999998
 21
70
  0
TEXT
  8
0
  6
CONTINUOUS
 62
     7
 10
-5.7999998
 20
56.441171
 40
3.2
 41
1.238125
  1
9.75
 50
90.000003
  0
POINT
  8
DEFPOINTS
  6
CONTINUOUS
 62
     7
 10
7.7043424
 20
79.75
  0
POINT
  8
DEFPOINTS
  6
CONTINUOUS
 62
     7
 10
16.242125
 20
70
  0
POINT
  8
DEFPOINTS
  6
CONTINUOUS
 62
     7
 10
-5
 20
70
  0
ENDBLK
  8
0
  0
BLOCK
  8
0
  2
KOZU0001
 70
    64
 10
0
 20
0
  0
LINE
  8
0
  6
CONTINUOUS
 62
     7
 10
0
 20
0
 11
30
 21
-29.2
  0
LINE
  8
0
  6
CONTINUOUS
 62
     7
 10
30
 20
-29.2
 11
60.848938
 21
-29.2
  0
LINE
  8
0
  6
CONTINUOUS
 62
     7
 10
0
 20
0
 11
2.6335029
 21
-1.7790138
  0
LINE
  8
0
  6
CONTINUOUS
 62
     7
 10
0
 20
0
 11
1.8495269
 21
-2.5844686
  0
TEXT
  8
0
  6
CONTINUOUS
 62
     7
 10
32.048937
 20
-28.4
 40
3.2
 41
0.84496202
  1
現場にて接着のこと
  0
ENDBLK
  8
0
  0
ENDSEC
  0
SECTION
  2
ENTITIES
  0
LINE
  8
0
  6
CONTINUOUS
 62
     7
 10
170
 20
173
 11
170
 21
-100
  0
LINE
  8
0
  6
CONTINUOUS
 62
     7
 10
-211
 20
-100
 11
170
 21
-100
  0
LINE
  8
0
  6
CONTINUOUS
 62
     7
 10
-211
 20
173
 11
170
 21
173
  0
LINE
  8
0
  6
CONTINUOUS
 62
     7
 10
-211
 20
173
 11
-211
 21
-100
  0
LINE
  8
0
  6
CONTINUOUS
 62
     7
 10
-191
 20
173
 11
-191
 21
77
  0
LINE
  8
0
  6
CONTINUOUS
 62
     7
 10
-211
 20
165
 11
-101
 21
165
  0
LINE
  8
0
  6
CONTINUOUS
 62
     7
 10
-211
 20
157
 11
-101
 21
157
  0
LINE
  8
0
  6
CONTINUOUS
 62
     7
 10
-211
 20
149
 11
-101
 21
149
  0
LINE
  8
0
  6
CONTINUOUS
 62
     7
 10
-211
 20
141
 11
-101
 21
141
  0
LINE
  8
0
  6
CONTINUOUS
 62
     7
 10
-191
 20
117
 11
-101
 21
117
  0
LINE
  8
0
  6
CONTINUOUS
 62
     7
 10
-191
 20
109
 11
-101
 21
109
  0
LINE
  8
0
  6
CONTINUOUS
 62
     7
 10
-211
 20
101
 11
-101
 21
101
  0
LINE
  8
0
  6
CONTINUOUS
 62
     7
 10
-191
 20
93
 11
-101
 21
93
  0
LINE
  8
0
  6
CONTINUOUS
 62
     7
 10
-191
 20
85
 11
-101
 21
85
  0
LINE
  8
0
  6
CONTINUOUS
 62
     7
 10
-211
 20
77
 11
-101
 21
77
  0
LINE
  8
0
  6
CONTINUOUS
 62
     7
 10
-211
 20
173
 11
-211
 21
77
  0
LINE
  8
0
  6
CONTINUOUS
 62
     7
 10
-211
 20
173
 11
-101
 21
173
  0
LINE
  8
0
  6
CONTINUOUS
 62
     7
 10
-101
 20
173
 11
-101
 21
77
  0
LINE
  8
0
  6
CONTINUOUS
 62
     7
 10
-211
 20
133
 11
-101
 21
133
  0
LINE
  8
0
  6
CONTINUOUS
 62
     7
 10
-211
 20
125
 11
-101
 21
125
  0
LINE
  8
0
  6
CONTINUOUS
 62
     7
 10
-191
 20
117
 11
-101
 21
117
  0
LINE
  8
0
  6
CONTINUOUS
 62
     7
 10
6.7043424
 20
0.3918694
 11
14.292166
 21
4.888238
  0
LINE
  8
0
  6
CONTINUOUS
 62
     7
 10
7.1121759
 20
-0.29636854
 11
14.7
 21
4.1999998
  0
LINE
  8
0
  6
CONTINUOUS
 62
     7
 10
40
 20
5
 11
40
 21
4.1999998
  0
LINE
  8
0
  6
CONTINUOUS
 62
     7
 10
14.7
 20
5
 11
40
 21
5
  0
LINE
  8
0
  6
CONTINUOUS
 62
     7
 10
14.7
 20
4.1999998
 11
40
 21
4.1999998
  0
LINE
  8
0
  6
CONTINUOUS
 62
     7
 10
6.7043424
 20
0.3918694
 11
7.1121759
 21
-0.29636854
  0
LINE
  8
0
  6
CONTINUOUS
 62
     7
 10
40
 20
100
 11
40
 21
70
  0
LINE
  8
0
  6
CONTINUOUS
 62
     7
 10
16.242125
 20
70
 11
40
 21
70
  0
LINE
  8
0
  6
CONTINUOUS
 62
     7
 10
16.242125
 20
100
 11
40
 21
100
  0
LINE
  8
0
  6
CONTINUOUS
 62
     7
 10
11.993184
 20
75.113762
 11
7.0870485
 21
78.963264
  0
LINE
  8
0
  6
CONTINUOUS
 62
     7
 10
7.3670568
 20
80.691406
 11
12.823977
 21
82.646492
  0
LINE
  8
0
  6
CONTINUOUS
 62
     7
 10
11.993183
 20
94.886238
 11
7.0870471
 21
91.036728
  0
LINE
  8
0
  6
CONTINUOUS
 62
     7
 10
7.3670611
 20
89.308601
 11
12.823979
 21
87.353508
  0
LINE
  8
0
  6
CONTINUOUS
 62
     7
 10
14.7
 20
98
 11
14.7
 21
87.353508
  0
LINE
  8
0
  6
CONTINUOUS
 62
     7
 10
14.7
 20
82.646492
 11
14.7
 21
72
  0
LINE
  8
0
  6
CONTINUOUS
 62
     7
 10
-49
 20
5
 11
-79
 21
5
  0
LINE
  8
0
  6
PHANTOM
 62
     7
 10
-49.5
 20
-15.8
 11
-55
 21
-15.8
  0
LINE
  8
0
  6
PHANTOM
 62
     7
 10
-49.5
 20
4.1999998
 11
-51.641842
 21
4.1999998
  0
LINE
  8
0
  6
PHANTOM
 62
     7
 10
-47
 20
1.7
 11
-47
 21
-13.3
  0
LINE
  8
0
  6
PHANTOM
 62
     7
 10
-49.5
 20
-14.3
 11
-55
 21
-14.3
  0
LINE
  8
0
  6
PHANTOM
 62
     7
 10
-48.5
 20
1.7
 11
-48.5
 21
-13.3
  0
LINE
  8
0
  6
PHANTOM
 62
     7
 10
-49.5
 20
2.7
 11
-51.641842
 21
2.7
  0
LINE
  8
0
  6
PHANTOM
 62
     7
 10
-55
 20
-14.3
 11
-55
 21
-15.8
  0
LINE
  8
0
  6
PHANTOM
 62
     7
 10
-64.877922
 20
2.1787999
 11
-66.396751
 21
-0.60610259
  0
LINE
  8
0
  6
PHANTOM
 62
     7
 10
-63.122074
 20
2.1787999
 11
-61.603252
 21
-0.60610092
  0
LINE
  8
0
  6
PHANTOM
 62
     7
 10
-61.805191
 20
2.8970003
 11
-60.286366
 21
0.11209954
  0
LINE
  8
0
  6
PHANTOM
 62
     7
 10
-56.353458
 20
1.5373727
 11
-57.250851
 21
0.04719932
  0
LINE
  8
0
  6
PHANTOM
 62
     7
 10
-72.931534
 20
0.7635439
 11
-72.034134
 21
-0.7266295
  0
LINE
  8
0
  6
PHANTOM
 62
     7
 10
-71.646545
 20
1.5373727
 11
-70.749153
 21
0.04719932
  0
LINE
  8
0
  6
PHANTOM
 62
     7
 10
-66.194809
 20
2.8970003
 11
-67.713638
 21
0.11209786
  0
LINE
  8
0
  6
PHANTOM
 62
     7
 10
-55.06847
 20
0.7635439
 11
-55.965866
 21
-0.7266295
  0
LINE
  8
0
  6
PHANTOM
 62
     7
 10
-76.358154
 20
4.1999998
 11
-85.641846
 21
4.1999998
  0
LINE
  8
0
  6
PHANTOM
 62
     7
 10
-76.358154
 20
2.7
 11
-85.641846
 21
2.7
  0
LINE
  8
0
  6
CONTINUOUS
 62
     7
 10
-49
 20
5
 11
-49
 21
4.1999998
  0
LINE
  8
0
  6
CONTINUOUS
 62
     7
 10
-79
 20
5
 11
-79
 21
4.1999998
  0
LINE
  8
0
  6
DASHED
 62
     7
 10
-49
 20
4.1999998
 11
-79
 21
4.1999998
  0
LINE
  8
0
  6
CONTINUOUS
 62
     7
 10
-56.853458
 20
1.5373738
 11
-57.617783
 21
0.26817009
  0
LINE
  8
0
  6
CONTINUOUS
 62
     7
 10
-61.305191
 20
2.897001
 11
-59.820885
 21
0.17539316
  0
LINE
  8
0
  6
CONTINUOUS
 62
     7
 10
-63.5
 20
4.1999998
 11
-64.5
 21
4.1999998
  0
LINE
  8
0
  6
CONTINUOUS
 62
     7
 10
-71.146545
 20
1.5373738
 11
-70.382217
 21
0.26816845
  0
LINE
  8
0
  6
CONTINUOUS
 62
     7
 10
-66.694809
 20
2.897001
 11
-68.179115
 21
0.17539483
  0
LINE
  8
0
  6
CONTINUOUS
 62
     7
 10
-49
 20
4.1999998
 11
-52.141842
 21
4.1999998
  0
LINE
  8
0
  6
CONTINUOUS
 62
     7
 10
-75.858162
 20
4.1999998
 11
-79
 21
4.1999998
  0
LINE
  8
0
  6
CONTINUOUS
 62
     7
 10
24.455416
 20
86.07415
 11
26.611017
 21
85.196648
  0
LINE
  8
0
  6
CONTINUOUS
 62
     7
 10
24.44824
 20
84.561974
 11
30.041836
 21
82.284935
  0
LINE
  8
0
  6
CONTINUOUS
 62
     7
 10
27.878258
 20
86.195801
 11
30.268429
 21
85.222816
  0
LINE
  8
0
  6
CONTINUOUS
 62
     7
 10
28.366463
 20
90.542282
 11
29.257277
 21
90.179649
  0
LINE
  8
0
  6
CONTINUOUS
 62
     7
 10
27.387877
 20
84.880402
 11
30.184731
 21
83.741859
  0
LINE
  8
0
  6
CONTINUOUS
 62
     7
 10
25.43856
 20
90.219078
 11
25.993423
 21
89.99321
  0
LINE
  8
0
  6
CONTINUOUS
 62
     7
 10
27.893641
 20
90.541969
 11
26.544889
 21
89.99292
  0
LINE
  8
0
  6
CONTINUOUS
 62
     7
 10
28.024494
 20
87.651352
 11
30.156284
 21
86.783539
  0
LINE
  8
0
  6
CONTINUOUS
 62
     7
 10
25.427746
 20
79.852478
 11
26.238438
 21
79.522461
  0
LINE
  8
0
  6
CONTINUOUS
 62
     7
 10
28.099264
 20
80.055237
 11
26.789936
 21
79.52224
  0
LINE
  8
0
  6
CONTINUOUS
 62
     7
 10
28.650915
 20
80.055481
 11
29.272083
 21
79.80262
  0
LINE
  8
0
  6
CONTINUOUS
 62
     7
 10
24.952486
 20
88.901901
 11
25.993456
 21
88.478142
  0
LINE
  8
0
  6
CONTINUOUS
 62
     7
 10
27.854233
 20
89.010933
 11
26.544867
 21
88.477921
  0
LINE
  8
0
  6
CONTINUOUS
 62
     7
 10
28.405863
 20
89.011154
 11
29.911301
 21
88.398315
  0
LINE
  8
0
  6
CONTINUOUS
 62
     7
 10
24.782427
 20
81.630264
 11
26.238518
 21
81.037521
  0
LINE
  8
0
  6
CONTINUOUS
 62
     7
 10
28.099297
 20
81.570213
 11
26.789902
 21
81.037186
  0
LINE
  8
0
  6
CONTINUOUS
 62
     7
 10
28.650942
 20
81.570488
 11
29.762098
 21
81.118156
  0
LINE
  8
0
  6
CONTINUOUS
 62
     7
 10
23.397528
 20
91.505226
 11
22.946161
 21
91.505226
  0
LINE
  8
0
  6
CONTINUOUS
 62
     7
 10
20.901655
 20
91.505226
 11
20.901655
 21
89.805901
  0
LINE
  8
0
  6
CONTINUOUS
 62
     7
 10
21.326488
 20
91.505226
 11
21.326488
 21
90.204185
  0
LINE
  8
0
  6
CONTINUOUS
 62
     7
 10
23.397528
 20
91.505226
 11
23.397528
 21
89.699684
  0
LINE
  8
0
  6
CONTINUOUS
 62
     7
 10
22.654085
 20
88.531418
 11
22.176157
 21
88.531418
  0
LINE
  8
0
  6
CONTINUOUS
 62
     7
 10
22.946161
 20
91.505226
 11
22.946161
 21
89.540375
  0
LINE
  8
0
  6
CONTINUOUS
 62
     7
 10
22.627523
 20
91.505226
 11
22.627523
 21
89.540375
  0
LINE
  8
0
  6
CONTINUOUS
 62
     7
 10
22.176157
 20
91.505226
 11
22.176157
 21
89.540375
  0
LINE
  8
0
  6
CONTINUOUS
 62
     7
 10
23.29133
 20
89.540375
 11
22.946161
 21
89.540375
  0
LINE
  8
0
  6
CONTINUOUS
 62
     7
 10
22.627523
 20
89.540375
 11
22.176157
 21
89.540375
  0
LINE
  8
0
  6
CONTINUOUS
 62
     7
 10
21.326488
 20
91.505226
 11
20.901655
 21
91.505226
  0
LINE
  8
0
  6
CONTINUOUS
 62
     7
 10
22.627523
 20
91.505226
 11
22.176157
 21
91.505226
  0
LINE
  8
0
  6
CONTINUOUS
 62
     7
 10
22.813395
 20
89.354515
 11
22.176157
 21
89.354515
  0
LINE
  8
0
  6
CONTINUOUS
 62
     7
 10
22.813395
 20
89.354515
 11
22.813395
 21
88.637611
  0
LINE
  8
0
  6
CONTINUOUS
 62
     7
 10
20.901655
 20
88.212799
 11
20.901655
 21
86.67276
  0
LINE
  8
0
  6
CONTINUOUS
 62
     7
 10
23.397528
 20
88.372108
 11
23.397528
 21
85.929321
  0
LINE
  8
0
  6
CONTINUOUS
 62
     7
 10
23.397528
 20
88.372108
 11
22.972712
 21
88.372108
  0
LINE
  8
0
  6
CONTINUOUS
 62
     7
 10
21.326488
 20
88.212799
 11
20.901655
 21
88.212799
  0
LINE
  8
0
  6
CONTINUOUS
 62
     7
 10
22.972712
 20
88.372108
 11
22.972712
 21
86.407257
  0
LINE
  8
0
  6
CONTINUOUS
 62
     7
 10
21.326488
 20
88.212799
 11
21.326488
 21
86.991402
  0
LINE
  8
0
  6
CONTINUOUS
 62
     7
 10
23.503752
 20
85.345177
 11
23.158573
 21
85.345177
  0
LINE
  8
0
  6
CONTINUOUS
 62
     7
 10
22.707178
 20
86.141731
 11
22.176157
 21
86.141731
  0
LINE
  8
0
  6
CONTINUOUS
 62
     7
 10
23.397528
 20
85.929321
 11
23.132021
 21
85.929321
  0
LINE
  8
0
  6
CONTINUOUS
 62
     7
 10
22.972712
 20
85.823112
 11
22.972712
 21
85.451401
  0
LINE
  8
0
  6
CONTINUOUS
 62
     7
 10
23.105471
 20
85.743469
 11
23.105471
 21
85.398285
  0
LINE
  8
0
  6
CONTINUOUS
 62
     7
 10
23.503752
 20
85.796562
 11
23.158573
 21
85.796562
  0
LINE
  8
0
  6
CONTINUOUS
 62
     7
 10
23.556864
 20
85.743469
 11
23.556864
 21
85.398285
  0
LINE
  8
0
  6
CONTINUOUS
 62
     7
 10
22.866497
 20
85.345177
 11
22.600973
 21
85.345177
  0
LINE
  8
0
  6
CONTINUOUS
 62
     7
 10
23.503752
 20
85.185867
 11
23.158573
 21
85.185867
  0
LINE
  8
0
  6
CONTINUOUS
 62
     7
 10
23.503752
 20
84.734489
 11
23.158573
 21
84.734489
  0
LINE
  8
0
  6
CONTINUOUS
 62
     7
 10
23.556864
 20
85.132751
 11
23.556864
 21
84.787582
  0
LINE
  8
0
  6
CONTINUOUS
 62
     7
 10
23.105471
 20
85.132751
 11
23.105471
 21
84.787582
  0
LINE
  8
0
  6
CONTINUOUS
 62
     7
 10
20.901655
 20
84.814133
 11
20.901655
 21
83.167923
  0
LINE
  8
0
  6
CONTINUOUS
 62
     7
 10
23.397528
 20
84.096169
 11
23.397528
 21
82.10585
  0
LINE
  8
0
  6
CONTINUOUS
 62
     7
 10
22.760283
 20
84.920349
 11
22.335447
 21
84.920349
  0
LINE
  8
0
  6
CONTINUOUS
 62
     7
 10
21.326488
 20
84.814133
 11
20.901655
 21
84.814133
  0
LINE
  8
0
  6
CONTINUOUS
 62
     7
 10
21.326488
 20
84.814133
 11
21.326488
 21
83.592743
  0
LINE
  8
0
  6
CONTINUOUS
 62
     7
 10
21.804426
 20
81.787224
 11
21.379591
 21
81.787224
  0
LINE
  8
0
  6
CONTINUOUS
 62
     7
 10
22.760283
 20
84.920349
 11
22.760283
 21
84.666519
  0
LINE
  8
0
  6
CONTINUOUS
 62
     7
 10
22.335447
 20
84.920349
 11
22.335447
 21
84.369255
  0
LINE
  8
0
  6
CONTINUOUS
 62
     7
 10
22.804115
 20
84.580482
 11
23.353626
 21
84.182083
  0
LINE
  8
0
  6
CONTINUOUS
 62
     7
 10
22.404821
 20
83.964478
 11
22.016848
 21
83.964478
  0
LINE
  8
0
  6
CONTINUOUS
 62
     7
 10
22.441664
 20
83.873009
 11
22.441664
 21
83.197807
  0
LINE
  8
0
  6
CONTINUOUS
 62
     7
 10
22.016848
 20
83.964478
 11
22.016848
 21
83.317322
  0
LINE
  8
0
  6
CONTINUOUS
 62
     7
 10
22.483782
 20
83.894432
 11
22.928816
 21
83.571785
  0
LINE
  8
0
  6
CONTINUOUS
 62
     7
 10
22.429909
 20
83.999397
 11
22.362606
 21
84.201302
  0
LINE
  8
0
  6
CONTINUOUS
 62
     7
 10
22.866497
 20
82.689995
 11
22.388559
 21
82.689995
  0
LINE
  8
0
  6
CONTINUOUS
 62
     7
 10
22.182835
 20
82.744141
 11
22.426186
 21
83.142349
  0
LINE
  8
0
  6
CONTINUOUS
 62
     7
 10
21.787922
 20
82.912567
 11
22.001389
 21
83.261879
  0
LINE
  8
0
  6
CONTINUOUS
 62
     7
 10
23.132021
 20
81.840324
 11
22.22925
 21
81.840324
  0
LINE
  8
0
  6
CONTINUOUS
 62
     7
 10
21.379591
 20
82.13546
 11
21.379591
 21
81.787224
  0
LINE
  8
0
  6
CONTINUOUS
 62
     7
 10
21.804426
 20
81.87365
 11
21.804426
 21
81.787224
  0
LINE
  8
0
  6
CONTINUOUS
 62
     7
 10
21.5389
 20
81.468605
 11
20.954748
 21
81.468605
  0
LINE
  8
0
  6
CONTINUOUS
 62
     7
 10
20.954748
 20
81.468605
 11
20.954748
 21
78.494774
  0
LINE
  8
0
  6
CONTINUOUS
 62
     7
 10
21.538893
 20
81.468605
 11
21.538893
 21
78.627541
  0
LINE
  8
0
  6
CONTINUOUS
 62
     7
 10
23.397528
 20
81.25618
 11
22.946161
 21
81.25618
  0
LINE
  8
0
  6
CONTINUOUS
 62
     7
 10
23.397528
 20
81.25618
 11
23.397528
 21
78.893059
  0
LINE
  8
0
  6
CONTINUOUS
 62
     7
 10
22.946161
 20
81.25618
 11
22.946161
 21
78.7603
  0
LINE
  8
0
  6
CONTINUOUS
 62
     7
 10
21.379591
 20
78.494774
 11
20.954748
 21
78.494774
  0
LINE
  8
0
  6
CONTINUOUS
 62
     7
 10
23.238218
 20
78.7603
 11
22.946161
 21
78.7603
  0
LINE
  8
0
  6
CONTINUOUS
 62
     7
 10
22.972712
 20
83.48587
 11
22.972712
 21
82.796196
  0
LINE
  8
0
  6
PHANTOM
 62
     7
 10
40
 20
34.200001
 11
40
 21
-15.8
  0
LINE
  8
0
  6
PHANTOM
 62
     7
 10
41.5
 20
68
 11
68.5
 21
68
  0
LINE
  8
0
  6
PHANTOM
 62
     7
 10
-20
 20
4.1999998
 11
40
 21
4.1999998
  0
LINE
  8
0
  6
PHANTOM
 62
     7
 10
-20
 20
-0.80000001
 11
40
 21
-0.80000001
  0
LINE
  8
0
  6
PHANTOM
 62
     7
 10
-20
 20
-2.3
 11
40
 21
-2.3
  0
LINE
  8
0
  6
PHANTOM
 62
     7
 10
-20
 20
-14.3
 11
40
 21
-14.3
  0
LINE
  8
0
  6
PHANTOM
 62
     7
 10
-20
 20
-15.8
 11
70
 21
-15.8
  0
LINE
  8
0
  6
PHANTOM
 62
     7
 10
70
 20
34.200001
 11
70
 21
-15.8
  0
LINE
  8
0
  6
PHANTOM
 62
     7
 10
40
 20
118
 11
40
 21
69.5
  0
LINE
  8
0
  6
PHANTOM
 62
     7
 10
70
 20
76
 11
70
 21
69.5
  0
LINE
  8
0
  6
PHANTOM
 62
     7
 10
-20
 20
69.5
 11
40
 21
69.5
  0
LINE
  8
0
  6
PHANTOM
 62
     7
 10
41.5
 20
118
 11
41.5
 21
69.5
  0
LINE
  8
0
  6
PHANTOM
 62
     7
 10
68.5
 20
76
 11
68.5
 21
69.5
  0
LINE
  8
0
  6
PHANTOM
 62
     7
 10
68.5
 20
76
 11
70
 21
76
  0
LINE
  8
0
  6
PHANTOM
 62
     7
 10
41.5
 20
69.5
 11
68.5
 21
69.5
  0
ARC
  8
0
  6
CONTINUOUS
 62
     7
 10
14.7
 20
4.1999998
 40
0.80000001
 50
90
 51
120.65
  0
ARC
  8
0
  6
CONTINUOUS
 62
     7
 10
7.7043424
 20
79.75
 40
1
 50
109.71138
 51
231.88127
  0
ARC
  8
0
  6
CONTINUOUS
 62
     7
 10
7.9807696
 20
70
 40
6.5
 50
13.608957
 51
51.881175
  0
ARC
  8
0
  6
CONTINUOUS
 62
     7
 10
11.980769
 20
85
 40
2.5
 50
289.71145
 51
70.288555
  0
ARC
  8
0
  6
CONTINUOUS
 62
     7
 10
7.7043424
 20
90.25
 40
1
 50
128.11873
 51
250.28862
  0
ARC
  8
0
  6
CONTINUOUS
 62
     7
 10
7.9807696
 20
100
 40
6.5
 50
308.11883
 51
346.39104
  0
ARC
  8
0
  6
CONTINUOUS
 62
     7
 10
16.242125
 20
72
 40
2
 50
193.60897
 51
270
  0
ARC
  8
0
  6
CONTINUOUS
 62
     7
 10
16.242125
 20
98
 40
2
 50
90
 51
166.39103
  0
ARC
  8
0
  6
PHANTOM
 62
     7
 10
-49.5
 20
-13.3
 40
2.5
 50
270
 51
360
  0
ARC
  8
0
  6
PHANTOM
 62
     7
 10
-49.5
 20
1.7
 40
2.5
 50
359.99999
 51
90
  0
ARC
  8
0
  6
PHANTOM
 62
     7
 10
-49.5
 20
1.7
 40
1
 50
359.99999
 51
90
  0
ARC
  8
0
  6
PHANTOM
 62
     7
 10
-49.5
 20
-13.3
 40
1
 50
270
 51
360
  0
ARC
  8
0
  6
PHANTOM
 62
     7
 10
-58.75
 20
0.94999999
 40
3.25
 50
208.60708
 51
328.94332
  0
ARC
  8
0
  6
PHANTOM
 62
     7
 10
-64
 20
1.7
 40
1
 50
28.607126
 51
151.39289
  0
ARC
  8
0
  6
PHANTOM
 62
     7
 10
-64
 20
1.7
 40
2.5
 50
28.607089
 51
151.39292
  0
ARC
  8
0
  6
PHANTOM
 62
     7
 10
-58.75
 20
0.94999999
 40
1.75
 50
208.6071
 51
328.94329
  0
ARC
  8
0
  6
PHANTOM
 62
     7
 10
-69.25
 20
0.94999999
 40
3.25
 50
211.05671
 51
331.39289
  0
ARC
  8
0
  6
PHANTOM
 62
     7
 10
-51.641842
 20
-1.3
 40
5.5
 50
90
 51
148.94332
  0
ARC
  8
0
  6
PHANTOM
 62
     7
 10
-51.641842
 20
-1.3
 40
4
 50
90
 51
148.9433
  0
ARC
  8
0
  6
PHANTOM
 62
     7
 10
-76.358154
 20
-1.3
 40
5.5
 50
31.056682
 51
90
  0
ARC
  8
0
  6
PHANTOM
 62
     7
 10
-76.358154
 20
-1.3
 40
4
 50
31.056697
 51
90
  0
ARC
  8
0
  6
PHANTOM
 62
     7
 10
-69.25
 20
0.94999999
 40
1.75
 50
211.05664
 51
331.39296
  0
ARC
  8
0
  6
CONTINUOUS
 62
     7
 10
-52.141842
 20
-1.3
 40
5.5
 50
90
 51
148.94332
  0
ARC
  8
0
  6
CONTINUOUS
 62
     7
 10
-58.75
 20
0.94999999
 40
1.3216704
 50
215.87947
 51
328.94329
  0
ARC
  8
0
  6
CONTINUOUS
 62
     7
 10
-63.5
 20
1.7
 40
2.5
 50
28.607089
 51
90
  0
ARC
  8
0
  6
CONTINUOUS
 62
     7
 10
-64.5
 20
1.7
 40
2.5
 50
90
 51
151.39291
  0
ARC
  8
0
  6
CONTINUOUS
 62
     7
 10
-75.858162
 20
-1.3
 40
5.5
 50
31.056682
 51
90
  0
ARC
  8
0
  6
CONTINUOUS
 62
     7
 10
-69.25
 20
0.94999999
 40
1.3216704
 50
211.05671
 51
324.12053
  0
ARC
  8
0
  6
CONTINUOUS
 62
     7
 10
27.681126
 20
85.711708
 40
0.52243388
 50
67.849927
 51
159.8622
  0
ARC
  8
0
  6
CONTINUOUS
 62
     7
 10
27.630404
 20
86.683357
 40
1.0448678
 50
67.84983
 51
157.84985
  0
ARC
  8
0
  6
CONTINUOUS
 62
     7
 10
30.780085
 20
86.133835
 40
4.2241893
 50
167.09411
 51
192.32551
  0
ARC
  8
0
  6
CONTINUOUS
 62
     7
 10
28.91617
 20
85.656891
 40
1.7414594
 50
172.25522
 51
204.54349
  0
ARC
  8
0
  6
CONTINUOUS
 62
     7
 10
30.20425
 20
83.789993
 40
0.052243382
 50
247.84937
 51
355.68681
  0
ARC
  8
0
  6
CONTINUOUS
 62
     7
 10
30.248569
 20
85.174194
 40
0.052243382
 50
0.61081945
 51
67.849368
  0
ARC
  8
0
  6
CONTINUOUS
 62
     7
 10
27.427126
 20
84.976906
 40
0.10448676
 50
204.54402
 51
247.84998
  0
ARC
  8
0
  6
CONTINUOUS
 62
     7
 10
26.622637
 20
85.225441
 40
0.031346031
 50
247.84896
 51
12.324613
  0
ARC
  8
0
  6
CONTINUOUS
 62
     7
 10
30.168024
 20
86.81237
 40
0.031346031
 50
247.84896
 51
6.5546375
  0
ARC
  8
0
  6
CONTINUOUS
 62
     7
 10
29.899347
 20
88.369072
 40
0.031346031
 50
13.297213
 51
67.845733
  0
ARC
  8
0
  6
CONTINUOUS
 62
     7
 10
29.268948
 20
90.208412
 40
0.031346031
 50
247.84573
 51
25.827572
  0
ARC
  8
0
  6
CONTINUOUS
 62
     7
 10
24.932722
 20
88.875824
 40
0.031346031
 50
67.848962
 51
164.02108
  0
ARC
  8
0
  6
CONTINUOUS
 62
     7
 10
25.45027
 20
90.247871
 40
0.031346031
 50
153.78419
 51
247.84896
  0
ARC
  8
0
  6
CONTINUOUS
 62
     7
 10
26.269087
 20
90.670387
 40
0.73140734
 50
247.84972
 51
292.15028
  0
ARC
  8
0
  6
CONTINUOUS
 62
     7
 10
26.514114
 20
80.199623
 40
0.73140734
 50
247.84972
 51
292.15028
  0
ARC
  8
0
  6
CONTINUOUS
 62
     7
 10
28.375017
 20
79.377769
 40
0.73140734
 50
67.849854
 51
112.15015
  0
ARC
  8
0
  6
CONTINUOUS
 62
     7
 10
26.269087
 20
89.155327
 40
0.73140734
 50
247.84972
 51
292.15028
  0
ARC
  8
0
  6
CONTINUOUS
 62
     7
 10
28.129974
 20
88.333488
 40
0.73140734
 50
67.849854
 51
112.15015
  0
ARC
  8
0
  6
CONTINUOUS
 62
     7
 10
26.514114
 20
81.714699
 40
0.73140734
 50
247.84972
 51
292.15028
  0
ARC
  8
0
  6
CONTINUOUS
 62
     7
 10
28.375017
 20
80.892853
 40
0.73140734
 50
67.849854
 51
112.15015
  0
ARC
  8
0
  6
CONTINUOUS
 62
     7
 10
24.467091
 20
86.102928
 40
0.031346031
 50
176.09223
 51
247.84896
  0
ARC
  8
0
  6
CONTINUOUS
 62
     7
 10
30.029903
 20
82.255661
 40
0.031346031
 50
349.62406
 51
67.848962
  0
ARC
  8
0
  6
CONTINUOUS
 62
     7
 10
29.773754
 20
81.14695
 40
0.031346031
 50
247.84896
 51
344.13793
  0
ARC
  8
0
  6
CONTINUOUS
 62
     7
 10
24.436283
 20
84.532715
 40
0.031346031
 50
67.845733
 51
181.64574
  0
ARC
  8
0
  6
CONTINUOUS
 62
     7
 10
24.794025
 20
81.659035
 40
0.031346031
 50
193.15349
 51
247.84573
  0
ARC
  8
0
  6
CONTINUOUS
 62
     7
 10
25.415813
 20
79.823189
 40
0.031346031
 50
67.848962
 51
205.5173
  0
ARC
  8
0
  6
CONTINUOUS
 62
     7
 10
29.260126
 20
79.773315
 40
0.031346031
 50
333.98687
 51
67.845733
  0
ARC
  8
0
  6
CONTINUOUS
 62
     7
 10
28.129974
 20
89.961349
 40
0.62692064
 50
67.849672
 51
112.15033
  0
ARC
  8
0
  6
CONTINUOUS
 62
     7
 10
22.176157
 20
89.805901
 40
1.2744927
 50
180
 51
270
  0
ARC
  8
0
  6
CONTINUOUS
 62
     7
 10
22.176157
 20
90.204185
 40
0.84966183
 50
180
 51
270
  0
ARC
  8
0
  6
CONTINUOUS
 62
     7
 10
22.707178
 20
86.407257
 40
0.26551929
 50
270
 51
360
  0
ARC
  8
0
  6
CONTINUOUS
 62
     7
 10
22.866497
 20
85.451401
 40
0.10620773
 50
270
 51
360
  0
ARC
  8
0
  6
CONTINUOUS
 62
     7
 10
22.176157
 20
86.991402
 40
0.84966183
 50
180
 51
270
  0
ARC
  8
0
  6
CONTINUOUS
 62
     7
 10
23.503752
 20
85.743469
 40
0.053103864
 50
0
 51
90
  0
ARC
  8
0
  6
CONTINUOUS
 62
     7
 10
23.503752
 20
85.398285
 40
0.053103864
 50
270
 51
360
  0
ARC
  8
0
  6
CONTINUOUS
 62
     7
 10
23.158573
 20
85.743469
 40
0.053103864
 50
90
 51
180
  0
ARC
  8
0
  6
CONTINUOUS
 62
     7
 10
23.158573
 20
85.398285
 40
0.053103864
 50
180
 51
270
  0
ARC
  8
0
  6
CONTINUOUS
 62
     7
 10
23.503752
 20
85.132751
 40
0.053103864
 50
0
 51
90
  0
ARC
  8
0
  6
CONTINUOUS
 62
     7
 10
23.503752
 20
84.787582
 40
0.053103864
 50
270
 51
360
  0
ARC
  8
0
  6
CONTINUOUS
 62
     7
 10
23.158573
 20
85.132751
 40
0.053103864
 50
90
 51
180
  0
ARC
  8
0
  6
CONTINUOUS
 62
     7
 10
23.158573
 20
84.787582
 40
0.053103864
 50
180
 51
270
  0
ARC
  8
0
  6
CONTINUOUS
 62
     7
 10
22.468206
 20
83.873009
 40
0.026551932
 50
54.061886
 51
180
  0
ARC
  8
0
  6
CONTINUOUS
 62
     7
 10
22.404821
 20
83.991028
 40
0.026551932
 50
270
 51
18.442758
  0
ARC
  8
0
  6
CONTINUOUS
 62
     7
 10
22.22925
 20
83.167923
 40
1.3275965
 50
180
 51
229.67982
  0
ARC
  8
0
  6
CONTINUOUS
 62
     7
 10
22.22925
 20
83.167923
 40
1.3275965
 50
252.89539
 51
270
  0
ARC
  8
0
  6
CONTINUOUS
 62
     7
 10
23.132021
 20
82.10585
 40
0.26551929
 50
270
 51
360
  0
ARC
  8
0
  6
CONTINUOUS
 62
     7
 10
21.74251
 20
82.940315
 40
0.053103864
 50
234.91492
 51
328.57424
  0
ARC
  8
0
  6
CONTINUOUS
 62
     7
 10
22.205378
 20
82.73037
 40
0.026551932
 50
148.56614
 51
261.34958
  0
ARC
  8
0
  6
CONTINUOUS
 62
     7
 10
21.830976
 20
81.873665
 40
0.026551932
 50
72.891521
 51
180
  0
ARC
  8
0
  6
CONTINUOUS
 62
     7
 10
21.353041
 20
82.13546
 40
0.026551932
 50
0
 51
49.673726
  0
ARC
  8
0
  6
CONTINUOUS
 62
     7
 10
22.335447
 20
83.197807
 40
0.10620773
 50
328.57073
 51
360
  0
ARC
  8
0
  6
CONTINUOUS
 62
     7
 10
21.910641
 20
83.317322
 40
0.10620773
 50
328.57073
 51
360
  0
ARC
  8
0
  6
CONTINUOUS
 62
     7
 10
23.29133
 20
84.096169
 40
0.10620773
 50
0
 51
54.057055
  0
ARC
  8
0
  6
CONTINUOUS
 62
     7
 10
22.866497
 20
84.666519
 40
0.10620773
 50
180
 51
234.05706
  0
ARC
  8
0
  6
CONTINUOUS
 62
     7
 10
22.866497
 20
83.48587
 40
0.10620773
 50
0
 51
54.057055
  0
ARC
  8
0
  6
CONTINUOUS
 62
     7
 10
22.866497
 20
82.796196
 40
0.10620773
 50
270
 51
360
  0
ARC
  8
0
  6
CONTINUOUS
 62
     7
 10
22.866497
 20
84.369255
 40
0.53103858
 50
180
 51
198.43508
  0
ARC
  8
0
  6
PHANTOM
 62
     7
 10
41.5
 20
69.5
 40
1.5
 50
180
 51
270
  0
ARC
  8
0
  6
PHANTOM
 62
     7
 10
68.5
 20
69.5
 40
1.5
 50
270
 51
360
  0
POLYLINE
  8
0
  6
CONTINUOUS
 62
     7
 66
     1
 10
0
 20
0
  0
VERTEX
  8
0
  6
CONTINUOUS
 62
     7
 10
22.201391
 20
82.703952
 42
0.0027680509
  0
VERTEX
  8
0
  6
CONTINUOUS
 62
     7
 10
22.212978
 20
82.702255
 42
0.0027680509
  0
VERTEX
  8
0
  6
CONTINUOUS
 62
     7
 10
22.224586
 20
82.700666
 42
0.0027680509
  0
VERTEX
  8
0
  6
CONTINUOUS
 62
     7
 10
22.236214
 20
82.699187
 42
0.0027680509
  0
VERTEX
  8
0
  6
CONTINUOUS
 62
     7
 10
22.247861
 20
82.697818
 42
0.0027680509
  0
VERTEX
  8
0
  6
CONTINUOUS
 62
     7
 10
22.259525
 20
82.696558
 42
0.0027680509
  0
VERTEX
  8
0
  6
CONTINUOUS
 62
     7
 10
22.271206
 20
82.695408
 42
0.0027680509
  0
VERTEX
  8
0
  6
CONTINUOUS
 62
     7
 10
22.2829
 20
82.694368
 42
0.0027680509
  0
VERTEX
  8
0
  6
CONTINUOUS
 62
     7
 10
22.294607
 20
82.693438
 42
0.0027680509
  0
VERTEX
  8
0
  6
CONTINUOUS
 62
     7
 10
22.306326
 20
82.692619
 42
0.0027680509
  0
VERTEX
  8
0
  6
CONTINUOUS
 62
     7
 10
22.318055
 20
82.69191
 42
0.0027680509
  0
VERTEX
  8
0
  6
CONTINUOUS
 62
     7
 10
22.329793
 20
82.691311
 42
0.0027680509
  0
VERTEX
  8
0
  6
CONTINUOUS
 62
     7
 10
22.341538
 20
82.690823
 42
0.0027680509
  0
VERTEX
  8
0
  6
CONTINUOUS
 62
     7
 10
22.353288
 20
82.690445
 42
0.0027680509
  0
VERTEX
  8
0
  6
CONTINUOUS
 62
     7
 10
22.365043
 20
82.690178
 42
0.0027680509
  0
VERTEX
  8
0
  6
CONTINUOUS
 62
     7
 10
22.376801
 20
82.690022
 42
0.0027680509
  0
VERTEX
  8
0
  6
CONTINUOUS
 62
     7
 10
22.38856
 20
82.689976
 42
-1
  0
SEQEND
  8
0
  6
CONTINUOUS
 62
     7
  0
POLYLINE
  8
0
  6
CONTINUOUS
 62
     7
 66
     1
 10
0
 20
0
  0
VERTEX
  8
0
  6
CONTINUOUS
 62
     7
 10
23.238218
 20
78.760298
 42
0.024503076
  0
VERTEX
  8
0
  6
CONTINUOUS
 62
     7
 10
23.253805
 20
78.760973
 42
0.024503076
  0
VERTEX
  8
0
  6
CONTINUOUS
 62
     7
 10
23.269241
 20
78.762915
 42
0.024503076
  0
VERTEX
  8
0
  6
CONTINUOUS
 62
     7
 10
23.28438
 20
78.766105
 42
0.024503076
  0
VERTEX
  8
0
  6
CONTINUOUS
 62
     7
 10
23.299076
 20
78.770514
 42
0.024503076
  0
VERTEX
  8
0
  6
CONTINUOUS
 62
     7
 10
23.313189
 20
78.776099
 42
0.024503076
  0
VERTEX
  8
0
  6
CONTINUOUS
 62
     7
 10
23.326581
 20
78.782806
 42
0.024503076
  0
VERTEX
  8
0
  6
CONTINUOUS
 62
     7
 10
23.339127
 20
78.790571
 42
0.024503076
  0
VERTEX
  8
0
  6
CONTINUOUS
 62
     7
 10
23.350703
 20
78.799319
 42
0.024503076
  0
VERTEX
  8
0
  6
CONTINUOUS
 62
     7
 10
23.361201
 20
78.808967
 42
0.024503076
  0
VERTEX
  8
0
  6
CONTINUOUS
 62
     7
 10
23.370518
 20
78.819421
 42
0.024503076
  0
VERTEX
  8
0
  6
CONTINUOUS
 62
     7
 10
23.378567
 20
78.830582
 42
0.024503076
  0
VERTEX
  8
0
  6
CONTINUOUS
 62
     7
 10
23.385268
 20
78.842342
 42
0.024503076
  0
VERTEX
  8
0
  6
CONTINUOUS
 62
     7
 10
23.390559
 20
78.85459
 42
0.024503076
  0
VERTEX
  8
0
  6
CONTINUOUS
 62
     7
 10
23.394388
 20
78.867206
 42
0.024503076
  0
VERTEX
  8
0
  6
CONTINUOUS
 62
     7
 10
23.396718
 20
78.88007
 42
0.024503076
  0
VERTEX
  8
0
  6
CONTINUOUS
 62
     7
 10
23.397528
 20
78.893059
 42
-1
  0
SEQEND
  8
0
  6
CONTINUOUS
 62
     7
  0
POLYLINE
  8
0
  6
CONTINUOUS
 62
     7
 66
     1
 10
0
 20
0
  0
VERTEX
  8
0
  6
CONTINUOUS
 62
     7
 10
21.379591
 20
78.49478
 42
0.024502327
  0
VERTEX
  8
0
  6
CONTINUOUS
 62
     7
 10
21.395177
 20
78.495455
 42
0.024502327
  0
VERTEX
  8
0
  6
CONTINUOUS
 62
     7
 10
21.410613
 20
78.497398
 42
0.024502327
  0
VERTEX
  8
0
  6
CONTINUOUS
 62
     7
 10
21.425751
 20
78.500589
 42
0.024502327
  0
VERTEX
  8
0
  6
CONTINUOUS
 62
     7
 10
21.440447
 20
78.504998
 42
0.024502327
  0
VERTEX
  8
0
  6
CONTINUOUS
 62
     7
 10
21.454558
 20
78.510583
 42
0.024502327
  0
VERTEX
  8
0
  6
CONTINUOUS
 62
     7
 10
21.46795
 20
78.51729
 42
0.024502327
  0
VERTEX
  8
0
  6
CONTINUOUS
 62
     7
 10
21.480495
 20
78.525055
 42
0.024502327
  0
VERTEX
  8
0
  6
CONTINUOUS
 62
     7
 10
21.492071
 20
78.533803
 42
0.024502327
  0
VERTEX
  8
0
  6
CONTINUOUS
 62
     7
 10
21.502568
 20
78.543451
 42
0.024502327
  0
VERTEX
  8
0
  6
CONTINUOUS
 62
     7
 10
21.511885
 20
78.553905
 42
0.024502327
  0
VERTEX
  8
0
  6
CONTINUOUS
 62
     7
 10
21.519933
 20
78.565066
 42
0.024502327
  0
VERTEX
  8
0
  6
CONTINUOUS
 62
     7
 10
21.526634
 20
78.576826
 42
0.024502327
  0
VERTEX
  8
0
  6
CONTINUOUS
 62
     7
 10
21.531924
 20
78.589072
 42
0.024502327
  0
VERTEX
  8
0
  6
CONTINUOUS
 62
     7
 10
21.535753
 20
78.601688
 42
0.024502327
  0
VERTEX
  8
0
  6
CONTINUOUS
 62
     7
 10
21.538083
 20
78.614552
 42
0.024502327
  0
VERTEX
  8
0
  6
CONTINUOUS
 62
     7
 10
21.538893
 20
78.627541
 42
-1
  0
SEQEND
  8
0
  6
CONTINUOUS
 62
     7
  0
POLYLINE
  8
0
  6
CONTINUOUS
 62
     7
 66
     1
 10
0
 20
0
  0
VERTEX
  8
0
  6
CONTINUOUS
 62
     7
 10
29.803953
 20
81.138499
 42
0.0028494049
  0
VERTEX
  8
0
  6
CONTINUOUS
 62
     7
 10
29.82249
 20
81.204587
 42
0.0028494049
  0
VERTEX
  8
0
  6
CONTINUOUS
 62
     7
 10
29.840706
 20
81.271168
 42
0.0028494049
  0
VERTEX
  8
0
  6
CONTINUOUS
 62
     7
 10
29.858598
 20
81.338234
 42
0.0028494049
  0
VERTEX
  8
0
  6
CONTINUOUS
 62
     7
 10
29.876164
 20
81.405775
 42
0.0028494049
  0
VERTEX
  8
0
  6
CONTINUOUS
 62
     7
 10
29.893402
 20
81.473783
 42
0.0028494049
  0
VERTEX
  8
0
  6
CONTINUOUS
 62
     7
 10
29.91031
 20
81.54225
 42
0.0028494049
  0
VERTEX
  8
0
  6
CONTINUOUS
 62
     7
 10
29.926885
 20
81.611165
 42
0.0028494049
  0
VERTEX
  8
0
  6
CONTINUOUS
 62
     7
 10
29.943126
 20
81.680521
 42
0.0028494049
  0
VERTEX
  8
0
  6
CONTINUOUS
 62
     7
 10
29.959029
 20
81.750308
 42
0.0028494049
  0
VERTEX
  8
0
  6
CONTINUOUS
 62
     7
 10
29.974594
 20
81.820517
 42
0.0028494049
  0
VERTEX
  8
0
  6
CONTINUOUS
 62
     7
 10
29.989818
 20
81.891139
 42
0.0028494049
  0
VERTEX
  8
0
  6
CONTINUOUS
 62
     7
 10
30.004698
 20
81.962165
 42
0.0028494049
  0
VERTEX
  8
0
  6
CONTINUOUS
 62
     7
 10
30.019234
 20
82.033586
 42
0.0028494049
  0
VERTEX
  8
0
  6
CONTINUOUS
 62
     7
 10
30.033424
 20
82.105391
 42
0.0028494049
  0
VERTEX
  8
0
  6
CONTINUOUS
 62
     7
 10
30.047264
 20
82.177573
 42
0.0028494049
  0
VERTEX
  8
0
  6
CONTINUOUS
 62
     7
 10
30.060754
 20
82.250122
 42
-1
  0
SEQEND
  8
0
  6
CONTINUOUS
 62
     7
  0
POLYLINE
  8
0
  6
CONTINUOUS
 62
     7
 66
     1
 10
0
 20
0
  0
VERTEX
  8
0
  6
CONTINUOUS
 62
     7
 10
25.387532
 20
79.809721
 42
0.022561017
  0
VERTEX
  8
0
  6
CONTINUOUS
 62
     7
 10
25.59419
 20
79.414578
 42
0.022561017
  0
VERTEX
  8
0
  6
CONTINUOUS
 62
     7
 10
25.815133
 20
79.064875
 42
0.022561017
  0
VERTEX
  8
0
  6
CONTINUOUS
 62
     7
 10
26.048563
 20
78.76346
 42
0.022561017
  0
VERTEX
  8
0
  6
CONTINUOUS
 62
     7
 10
26.292581
 20
78.512783
 42
0.022561017
  0
VERTEX
  8
0
  6
CONTINUOUS
 62
     7
 10
26.545202
 20
78.314884
 42
0.022561017
  0
VERTEX
  8
0
  6
CONTINUOUS
 62
     7
 10
26.80437
 20
78.171373
 42
0.022561017
  0
VERTEX
  8
0
  6
CONTINUOUS
 62
     7
 10
27.067978
 20
78.083418
 42
0.022561017
  0
VERTEX
  8
0
  6
CONTINUOUS
 62
     7
 10
27.33388
 20
78.051734
 42
0.022561017
  0
VERTEX
  8
0
  6
CONTINUOUS
 62
     7
 10
27.599913
 20
78.076579
 42
0.022561017
  0
VERTEX
  8
0
  6
CONTINUOUS
 62
     7
 10
27.863913
 20
78.157751
 42
0.022561017
  0
VERTEX
  8
0
  6
CONTINUOUS
 62
     7
 10
28.123732
 20
78.29459
 42
0.022561017
  0
VERTEX
  8
0
  6
CONTINUOUS
 62
     7
 10
28.377256
 20
78.485982
 42
0.022561017
  0
VERTEX
  8
0
  6
CONTINUOUS
 62
     7
 10
28.622423
 20
78.73037
 42
0.022561017
  0
VERTEX
  8
0
  6
CONTINUOUS
 62
     7
 10
28.857237
 20
79.025766
 42
0.022561017
  0
VERTEX
  8
0
  6
CONTINUOUS
 62
     7
 10
29.07979
 20
79.369766
 42
0.022561017
  0
VERTEX
  8
0
  6
CONTINUOUS
 62
     7
 10
29.288269
 20
79.759573
 42
-1
  0
SEQEND
  8
0
  6
CONTINUOUS
 62
     7
  0
POLYLINE
  8
0
  6
CONTINUOUS
 62
     7
 66
     1
 10
0
 20
0
  0
VERTEX
  8
0
  6
CONTINUOUS
 62
     7
 10
30.256352
 20
83.786037
 42
0.0031368478
  0
VERTEX
  8
0
  6
CONTINUOUS
 62
     7
 10
30.262594
 20
83.871973
 42
0.0031368478
  0
VERTEX
  8
0
  6
CONTINUOUS
 62
     7
 10
30.268377
 20
83.958086
 42
0.0031368478
  0
VERTEX
  8
0
  6
CONTINUOUS
 62
     7
 10
30.273701
 20
84.044364
 42
0.0031368478
  0
VERTEX
  8
0
  6
CONTINUOUS
 62
     7
 10
30.278565
 20
84.130792
 42
0.0031368478
  0
VERTEX
  8
0
  6
CONTINUOUS
 62
     7
 10
30.282967
 20
84.217357
 42
0.0031368478
  0
VERTEX
  8
0
  6
CONTINUOUS
 62
     7
 10
30.286908
 20
84.304045
 42
0.0031368478
  0
VERTEX
  8
0
  6
CONTINUOUS
 62
     7
 10
30.290386
 20
84.390843
 42
0.0031368478
  0
VERTEX
  8
0
  6
CONTINUOUS
 62
     7
 10
30.293402
 20
84.477737
 42
0.0031368478
  0
VERTEX
  8
0
  6
CONTINUOUS
 62
     7
 10
30.295954
 20
84.564712
 42
0.0031368478
  0
VERTEX
  8
0
  6
CONTINUOUS
 62
     7
 10
30.298042
 20
84.651757
 42
0.0031368478
  0
VERTEX
  8
0
  6
CONTINUOUS
 62
     7
 10
30.299666
 20
84.738856
 42
0.0031368478
  0
VERTEX
  8
0
  6
CONTINUOUS
 62
     7
 10
30.300826
 20
84.825996
 42
0.0031368478
  0
VERTEX
  8
0
  6
CONTINUOUS
 62
     7
 10
30.301521
 20
84.913164
 42
0.0031368478
  0
VERTEX
  8
0
  6
CONTINUOUS
 62
     7
 10
30.301752
 20
85.000345
 42
0.0031368478
  0
VERTEX
  8
0
  6
CONTINUOUS
 62
     7
 10
30.301517
 20
85.087527
 42
0.0031368478
  0
VERTEX
  8
0
  6
CONTINUOUS
 62
     7
 10
30.300818
 20
85.174694
 42
-1
  0
SEQEND
  8
0
  6
CONTINUOUS
 62
     7
  0
POLYLINE
  8
0
  6
CONTINUOUS
 62
     7
 66
     1
 10
0
 20
0
  0
VERTEX
  8
0
  6
CONTINUOUS
 62
     7
 10
24.404958
 20
84.531801
 42
0.0068022031
  0
VERTEX
  8
0
  6
CONTINUOUS
 62
     7
 10
24.411459
 20
84.343373
 42
0.0068022031
  0
VERTEX
  8
0
  6
CONTINUOUS
 62
     7
 10
24.420135
 20
84.155431
 42
0.0068022031
  0
VERTEX
  8
0
  6
CONTINUOUS
 62
     7
 10
24.43098
 20
83.968115
 42
0.0068022031
  0
VERTEX
  8
0
  6
CONTINUOUS
 62
     7
 10
24.443986
 20
83.781562
 42
0.0068022031
  0
VERTEX
  8
0
  6
CONTINUOUS
 62
     7
 10
24.459143
 20
83.595912
 42
0.0068022031
  0
VERTEX
  8
0
  6
CONTINUOUS
 62
     7
 10
24.47644
 20
83.4113
 42
0.0068022031
  0
VERTEX
  8
0
  6
CONTINUOUS
 62
     7
 10
24.495865
 20
83.227865
 42
0.0068022031
  0
VERTEX
  8
0
  6
CONTINUOUS
 62
     7
 10
24.517402
 20
83.045742
 42
0.0068022031
  0
VERTEX
  8
0
  6
CONTINUOUS
 62
     7
 10
24.541036
 20
82.865065
 42
0.0068022031
  0
VERTEX
  8
0
  6
CONTINUOUS
 62
     7
 10
24.566749
 20
82.685969
 42
0.0068022031
  0
VERTEX
  8
0
  6
CONTINUOUS
 62
     7
 10
24.594522
 20
82.508585
 42
0.0068022031
  0
VERTEX
  8
0
  6
CONTINUOUS
 62
     7
 10
24.624335
 20
82.333046
 42
0.0068022031
  0
VERTEX
  8
0
  6
CONTINUOUS
 62
     7
 10
24.656166
 20
82.159481
 42
0.0068022031
  0
VERTEX
  8
0
  6
CONTINUOUS
 62
     7
 10
24.689991
 20
81.988019
 42
0.0068022031
  0
VERTEX
  8
0
  6
CONTINUOUS
 62
     7
 10
24.725785
 20
81.818786
 42
0.0068022031
  0
VERTEX
  8
0
  6
CONTINUOUS
 62
     7
 10
24.763522
 20
81.651908
 42
-1
  0
SEQEND
  8
0
  6
CONTINUOUS
 62
     7
  0
POLYLINE
  8
0
  6
CONTINUOUS
 62
     7
 66
     1
 10
0
 20
0
  0
VERTEX
  8
0
  6
CONTINUOUS
 62
     7
 10
30.199167
 20
86.815898
 42
0.0037967457
  0
VERTEX
  8
0
  6
CONTINUOUS
 62
     7
 10
30.187124
 20
86.917542
 42
0.0037967457
  0
VERTEX
  8
0
  6
CONTINUOUS
 62
     7
 10
30.174426
 20
87.018743
 42
0.0037967457
  0
VERTEX
  8
0
  6
CONTINUOUS
 62
     7
 10
30.161077
 20
87.119479
 42
0.0037967457
  0
VERTEX
  8
0
  6
CONTINUOUS
 62
     7
 10
30.147079
 20
87.219726
 42
0.0037967457
  0
VERTEX
  8
0
  6
CONTINUOUS
 62
     7
 10
30.132436
 20
87.319461
 42
0.0037967457
  0
VERTEX
  8
0
  6
CONTINUOUS
 62
     7
 10
30.117152
 20
87.418661
 42
0.0037967457
  0
VERTEX
  8
0
  6
CONTINUOUS
 62
     7
 10
30.101229
 20
87.517303
 42
0.0037967457
  0
VERTEX
  8
0
  6
CONTINUOUS
 62
     7
 10
30.084672
 20
87.615365
 42
0.0037967457
  0
VERTEX
  8
0
  6
CONTINUOUS
 62
     7
 10
30.067484
 20
87.712823
 42
0.0037967457
  0
VERTEX
  8
0
  6
CONTINUOUS
 62
     7
 10
30.049669
 20
87.809656
 42
0.0037967457
  0
VERTEX
  8
0
  6
CONTINUOUS
 62
     7
 10
30.031232
 20
87.90584
 42
0.0037967457
  0
VERTEX
  8
0
  6
CONTINUOUS
 62
     7
 10
30.012176
 20
88.001355
 42
0.0037967457
  0
VERTEX
  8
0
  6
CONTINUOUS
 62
     7
 10
29.992506
 20
88.096177
 42
0.0037967457
  0
VERTEX
  8
0
  6
CONTINUOUS
 62
     7
 10
29.972227
 20
88.190285
 42
0.0037967457
  0
VERTEX
  8
0
  6
CONTINUOUS
 62
     7
 10
29.951343
 20
88.283658
 42
0.0037967457
  0
VERTEX
  8
0
  6
CONTINUOUS
 62
     7
 10
29.929859
 20
88.376273
 42
-1
  0
SEQEND
  8
0
  6
CONTINUOUS
 62
     7
  0
POLYLINE
  8
0
  6
CONTINUOUS
 62
     7
 66
     1
 10
0
 20
0
  0
VERTEX
  8
0
  6
CONTINUOUS
 62
     7
 10
29.297187
 20
90.222074
 42
0.022398619
  0
VERTEX
  8
0
  6
CONTINUOUS
 62
     7
 10
29.090922
 20
90.611188
 42
0.022398619
  0
VERTEX
  8
0
  6
CONTINUOUS
 62
     7
 10
28.870697
 20
90.955304
 42
0.022398619
  0
VERTEX
  8
0
  6
CONTINUOUS
 62
     7
 10
28.638277
 20
91.251664
 42
0.022398619
  0
VERTEX
  8
0
  6
CONTINUOUS
 62
     7
 10
28.395526
 20
91.497892
 42
0.022398619
  0
VERTEX
  8
0
  6
CONTINUOUS
 62
     7
 10
28.14439
 20
91.692012
 42
0.022398619
  0
VERTEX
  8
0
  6
CONTINUOUS
 62
     7
 10
27.886885
 20
91.832468
 42
0.022398619
  0
VERTEX
  8
0
  6
CONTINUOUS
 62
     7
 10
27.625074
 20
91.918133
 42
0.022398619
  0
VERTEX
  8
0
  6
CONTINUOUS
 62
     7
 10
27.361057
 20
91.948321
 42
0.022398619
  0
VERTEX
  8
0
  6
CONTINUOUS
 62
     7
 10
27.096952
 20
91.92279
 42
0.022398619
  0
VERTEX
  8
0
  6
CONTINUOUS
 62
     7
 10
26.834876
 20
91.841744
 42
0.022398619
  0
VERTEX
  8
0
  6
CONTINUOUS
 62
     7
 10
26.57693
 20
91.705833
 42
0.022398619
  0
VERTEX
  8
0
  6
CONTINUOUS
 62
     7
 10
26.325184
 20
91.516147
 42
0.022398619
  0
VERTEX
  8
0
  6
CONTINUOUS
 62
     7
 10
26.081657
 20
91.274208
 42
0.022398619
  0
VERTEX
  8
0
  6
CONTINUOUS
 62
     7
 10
25.8483
 20
90.981955
 42
0.022398619
  0
VERTEX
  8
0
  6
CONTINUOUS
 62
     7
 10
25.626985
 20
90.641732
 42
0.022398619
  0
VERTEX
  8
0
  6
CONTINUOUS
 62
     7
 10
25.419488
 20
90.256267
 42
-1
  0
SEQEND
  8
0
  6
CONTINUOUS
 62
     7
  0
POLYLINE
  8
0
  6
CONTINUOUS
 62
     7
 66
     1
 10
0
 20
0
  0
VERTEX
  8
0
  6
CONTINUOUS
 62
     7
 10
24.902632
 20
88.884586
 42
0.0067740728
  0
VERTEX
  8
0
  6
CONTINUOUS
 62
     7
 10
24.858821
 20
88.727078
 42
0.0067740728
  0
VERTEX
  8
0
  6
CONTINUOUS
 62
     7
 10
24.81684
 20
88.566834
 42
0.0067740728
  0
VERTEX
  8
0
  6
CONTINUOUS
 62
     7
 10
24.776718
 20
88.403971
 42
0.0067740728
  0
VERTEX
  8
0
  6
CONTINUOUS
 62
     7
 10
24.738486
 20
88.23861
 42
0.0067740728
  0
VERTEX
  8
0
  6
CONTINUOUS
 62
     7
 10
24.70217
 20
88.07087
 42
0.0067740728
  0
VERTEX
  8
0
  6
CONTINUOUS
 62
     7
 10
24.667799
 20
87.900877
 42
0.0067740728
  0
VERTEX
  8
0
  6
CONTINUOUS
 62
     7
 10
24.635397
 20
87.728753
 42
0.0067740728
  0
VERTEX
  8
0
  6
CONTINUOUS
 62
     7
 10
24.604987
 20
87.554627
 42
0.0067740728
  0
VERTEX
  8
0
  6
CONTINUOUS
 62
     7
 10
24.576593
 20
87.378625
 42
0.0067740728
  0
VERTEX
  8
0
  6
CONTINUOUS
 62
     7
 10
24.550235
 20
87.200876
 42
0.0067740728
  0
VERTEX
  8
0
  6
CONTINUOUS
 62
     7
 10
24.525932
 20
87.021512
 42
0.0067740728
  0
VERTEX
  8
0
  6
CONTINUOUS
 62
     7
 10
24.503703
 20
86.840664
 42
0.0067740728
  0
VERTEX
  8
0
  6
CONTINUOUS
 62
     7
 10
24.483563
 20
86.658465
 42
0.0067740728
  0
VERTEX
  8
0
  6
CONTINUOUS
 62
     7
 10
24.465527
 20
86.475048
 42
0.0067740728
  0
VERTEX
  8
0
  6
CONTINUOUS
 62
     7
 10
24.449609
 20
86.290548
 42
0.0067740728
  0
VERTEX
  8
0
  6
CONTINUOUS
 62
     7
 10
24.435821
 20
86.1051
 42
-1
  0
SEQEND
  8
0
  6
CONTINUOUS
 62
     7
  0
POLYLINE
  8
0
  6
CONTINUOUS
 62
     7
 66
     1
 10
0
 20
0
  0
VERTEX
  8
0
  6
CONTINUOUS
 62
     7
 10
22.654085
 20
88.531403
 42
0.024487207
  0
VERTEX
  8
0
  6
CONTINUOUS
 62
     7
 10
22.669661
 20
88.531953
 42
0.024487207
  0
VERTEX
  8
0
  6
CONTINUOUS
 62
     7
 10
22.685088
 20
88.533515
 42
0.024487207
  0
VERTEX
  8
0
  6
CONTINUOUS
 62
     7
 10
22.700218
 20
88.536074
 42
0.024487207
  0
VERTEX
  8
0
  6
CONTINUOUS
 62
     7
 10
22.714906
 20
88.539607
 42
0.024487207
  0
VERTEX
  8
0
  6
CONTINUOUS
 62
     7
 10
22.729011
 20
88.544079
 42
0.024487207
  0
VERTEX
  8
0
  6
CONTINUOUS
 62
     7
 10
22.742398
 20
88.549447
 42
0.024487207
  0
VERTEX
  8
0
  6
CONTINUOUS
 62
     7
 10
22.754939
 20
88.55566
 42
0.024487207
  0
VERTEX
  8
0
  6
CONTINUOUS
 62
     7
 10
22.766513
 20
88.562658
 42
0.024487207
  0
VERTEX
  8
0
  6
CONTINUOUS
 62
     7
 10
22.77701
 20
88.570374
 42
0.024487207
  0
VERTEX
  8
0
  6
CONTINUOUS
 62
     7
 10
22.786329
 20
88.578735
 42
0.024487207
  0
VERTEX
  8
0
  6
CONTINUOUS
 62
     7
 10
22.794381
 20
88.58766
 42
0.024487207
  0
VERTEX
  8
0
  6
CONTINUOUS
 62
     7
 10
22.801089
 20
88.597063
 42
0.024487207
  0
VERTEX
  8
0
  6
CONTINUOUS
 62
     7
 10
22.806388
 20
88.606855
 42
0.024487207
  0
VERTEX
  8
0
  6
CONTINUOUS
 62
     7
 10
22.810227
 20
88.616942
 42
0.024487207
  0
VERTEX
  8
0
  6
CONTINUOUS
 62
     7
 10
22.81257
 20
88.627227
 42
0.024487207
  0
VERTEX
  8
0
  6
CONTINUOUS
 62
     7
 10
22.813395
 20
88.637611
 42
-1
  0
SEQEND
  8
0
  6
CONTINUOUS
 62
     7
  0
POLYLINE
  8
0
  6
CONTINUOUS
 62
     7
 66
     1
 10
0
 20
0
  0
VERTEX
  8
0
  6
CONTINUOUS
 62
     7
 10
23.29133
 20
89.54038
 42
0.024548248
  0
VERTEX
  8
0
  6
CONTINUOUS
 62
     7
 10
23.30174
 20
89.541147
 42
0.024548248
  0
VERTEX
  8
0
  6
CONTINUOUS
 62
     7
 10
23.31205
 20
89.543441
 42
0.024548248
  0
VERTEX
  8
0
  6
CONTINUOUS
 62
     7
 10
23.32216
 20
89.54724
 42
0.024548248
  0
VERTEX
  8
0
  6
CONTINUOUS
 62
     7
 10
23.331974
 20
89.552507
 42
0.024548248
  0
VERTEX
  8
0
  6
CONTINUOUS
 62
     7
 10
23.341396
 20
89.559191
 42
0.024548248
  0
VERTEX
  8
0
  6
CONTINUOUS
 62
     7
 10
23.350335
 20
89.567228
 42
0.024548248
  0
VERTEX
  8
0
  6
CONTINUOUS
 62
     7
 10
23.358707
 20
89.576541
 42
0.024548248
  0
VERTEX
  8
0
  6
CONTINUOUS
 62
     7
 10
23.36643
 20
89.58704
 42
0.024548248
  0
VERTEX
  8
0
  6
CONTINUOUS
 62
     7
 10
23.373429
 20
89.598624
 42
0.024548248
  0
VERTEX
  8
0
  6
CONTINUOUS
 62
     7
 10
23.379638
 20
89.611181
 42
0.024548248
  0
VERTEX
  8
0
  6
CONTINUOUS
 62
     7
 10
23.384996
 20
89.62459
 42
0.024548248
  0
VERTEX
  8
0
  6
CONTINUOUS
 62
     7
 10
23.389453
 20
89.638723
 42
0.024548248
  0
VERTEX
  8
0
  6
CONTINUOUS
 62
     7
 10
23.392964
 20
89.653443
 42
0.024548248
  0
VERTEX
  8
0
  6
CONTINUOUS
 62
     7
 10
23.395497
 20
89.668608
 42
0.024548248
  0
VERTEX
  8
0
  6
CONTINUOUS
 62
     7
 10
23.397026
 20
89.684073
 42
0.024548248
  0
VERTEX
  8
0
  6
CONTINUOUS
 62
     7
 10
23.397538
 20
89.699688
 42
-1
  0
SEQEND
  8
0
  6
CONTINUOUS
 62
     7
  0
POLYLINE
  8
0
  6
CONTINUOUS
 62
     7
 66
     1
 10
0
 20
0
  0
VERTEX
  8
0
  6
CONTINUOUS
 62
     7
 10
23.132021
 20
85.929321
 42
0.024487207
  0
VERTEX
  8
0
  6
CONTINUOUS
 62
     7
 10
23.116445
 20
85.928771
 42
0.024487207
  0
VERTEX
  8
0
  6
CONTINUOUS
 62
     7
 10
23.101018
 20
85.927209
 42
0.024487207
  0
VERTEX
  8
0
  6
CONTINUOUS
 62
     7
 10
23.085888
 20
85.924649
 42
0.024487207
  0
VERTEX
  8
0
  6
CONTINUOUS
 62
     7
 10
23.0712
 20
85.921117
 42
0.024487207
  0
VERTEX
  8
0
  6
CONTINUOUS
 62
     7
 10
23.057095
 20
85.916645
 42
0.024487207
  0
VERTEX
  8
0
  6
CONTINUOUS
 62
     7
 10
23.043708
 20
85.911277
 42
0.024487207
  0
VERTEX
  8
0
  6
CONTINUOUS
 62
     7
 10
23.031167
 20
85.905064
 42
0.024487207
  0
VERTEX
  8
0
  6
CONTINUOUS
 62
     7
 10
23.019593
 20
85.898066
 42
0.024487207
  0
VERTEX
  8
0
  6
CONTINUOUS
 62
     7
 10
23.009096
 20
85.89035
 42
0.024487207
  0
VERTEX
  8
0
  6
CONTINUOUS
 62
     7
 10
22.999777
 20
85.881989
 42
0.024487207
  0
VERTEX
  8
0
  6
CONTINUOUS
 62
     7
 10
22.991725
 20
85.873064
 42
0.024487207
  0
VERTEX
  8
0
  6
CONTINUOUS
 62
     7
 10
22.985017
 20
85.863661
 42
0.024487207
  0
VERTEX
  8
0
  6
CONTINUOUS
 62
     7
 10
22.979719
 20
85.853869
 42
0.024487207
  0
VERTEX
  8
0
  6
CONTINUOUS
 62
     7
 10
22.975879
 20
85.843782
 42
0.024487207
  0
VERTEX
  8
0
  6
CONTINUOUS
 62
     7
 10
22.973536
 20
85.833497
 42
0.024487207
  0
VERTEX
  8
0
  6
CONTINUOUS
 62
     7
 10
22.972712
 20
85.823112
 42
-1
  0
SEQEND
  8
0
  6
CONTINUOUS
 62
     7
  0
POLYLINE
  8
0
  6
CONTINUOUS
 62
     7
 66
     1
 10
0
 20
0
  0
VERTEX
  8
0
  6
CONTINUOUS
 62
     7
 10
20.901655
 20
86.67276
 42
0.024563915
  0
VERTEX
  8
0
  6
CONTINUOUS
 62
     7
 10
20.909685
 20
86.542552
 42
0.024563915
  0
VERTEX
  8
0
  6
CONTINUOUS
 62
     7
 10
20.934023
 20
86.413599
 42
0.024563915
  0
VERTEX
  8
0
  6
CONTINUOUS
 62
     7
 10
20.974434
 20
86.287146
 42
0.024563915
  0
VERTEX
  8
0
  6
CONTINUOUS
 62
     7
 10
21.03053
 20
86.16441
 42
0.024563915
  0
VERTEX
  8
0
  6
CONTINUOUS
 62
     7
 10
21.101768
 20
86.046577
 42
0.024563915
  0
VERTEX
  8
0
  6
CONTINUOUS
 62
     7
 10
21.187463
 20
85.934781
 42
0.024563915
  0
VERTEX
  8
0
  6
CONTINUOUS
 62
     7
 10
21.286787
 20
85.830101
 42
0.024563915
  0
VERTEX
  8
0
  6
CONTINUOUS
 62
     7
 10
21.398784
 20
85.733547
 42
0.024563915
  0
VERTEX
  8
0
  6
CONTINUOUS
 62
     7
 10
21.522373
 20
85.646049
 42
0.024563915
  0
VERTEX
  8
0
  6
CONTINUOUS
 62
     7
 10
21.656363
 20
85.568452
 42
0.024563915
  0
VERTEX
  8
0
  6
CONTINUOUS
 62
     7
 10
21.79946
 20
85.501502
 42
0.024563915
  0
VERTEX
  8
0
  6
CONTINUOUS
 62
     7
 10
21.950287
 20
85.445847
 42
0.024563915
  0
VERTEX
  8
0
  6
CONTINUOUS
 62
     7
 10
22.107388
 20
85.402022
 42
0.024563915
  0
VERTEX
  8
0
  6
CONTINUOUS
 62
     7
 10
22.269248
 20
85.37045
 42
0.024563915
  0
VERTEX
  8
0
  6
CONTINUOUS
 62
     7
 10
22.434307
 20
85.351436
 42
0.024563915
  0
VERTEX
  8
0
  6
CONTINUOUS
 62
     7
 10
22.600973
 20
85.345162
 42
-1
  0
SEQEND
  8
0
  6
CONTINUOUS
 62
     7
  0
POLYLINE
  8
0
  6
CONTINUOUS
 62
     7
 66
     1
 10
0
 20
0
  0
VERTEX
  8
0
  6
CONTINUOUS
 62
     7
 10
21.326489
 20
83.592743
 42
0.013761305
  0
VERTEX
  8
0
  6
CONTINUOUS
 62
     7
 10
21.328041
 20
83.543078
 42
0.013761305
  0
VERTEX
  8
0
  6
CONTINUOUS
 62
     7
 10
21.332806
 20
83.493564
 42
0.013761305
  0
VERTEX
  8
0
  6
CONTINUOUS
 62
     7
 10
21.340767
 20
83.44435
 42
0.013761305
  0
VERTEX
  8
0
  6
CONTINUOUS
 62
     7
 10
21.351903
 20
83.395585
 42
0.013761305
  0
VERTEX
  8
0
  6
CONTINUOUS
 62
     7
 10
21.366178
 20
83.347418
 42
0.013761305
  0
VERTEX
  8
0
  6
CONTINUOUS
 62
     7
 10
21.38355
 20
83.299994
 42
0.013761305
  0
VERTEX
  8
0
  6
CONTINUOUS
 62
     7
 10
21.403966
 20
83.253456
 42
0.013761305
  0
VERTEX
  8
0
  6
CONTINUOUS
 62
     7
 10
21.427364
 20
83.207946
 42
0.013761305
  0
VERTEX
  8
0
  6
CONTINUOUS
 62
     7
 10
21.453674
 20
83.163601
 42
0.013761305
  0
VERTEX
  8
0
  6
CONTINUOUS
 62
     7
 10
21.482815
 20
83.120557
 42
0.013761305
  0
VERTEX
  8
0
  6
CONTINUOUS
 62
     7
 10
21.514699
 20
83.078942
 42
0.013761305
  0
VERTEX
  8
0
  6
CONTINUOUS
 62
     7
 10
21.54923
 20
83.038884
 42
0.013761305
  0
VERTEX
  8
0
  6
CONTINUOUS
 62
     7
 10
21.586304
 20
83.000503
 42
0.013761305
  0
VERTEX
  8
0
  6
CONTINUOUS
 62
     7
 10
21.625807
 20
82.963916
 42
0.013761305
  0
VERTEX
  8
0
  6
CONTINUOUS
 62
     7
 10
21.667621
 20
82.929234
 42
0.013761305
  0
VERTEX
  8
0
  6
CONTINUOUS
 62
     7
 10
21.711618
 20
82.896561
 42
-1
  0
SEQEND
  8
0
  6
CONTINUOUS
 62
     7
  0
TEXT
  8
0
  6
CONTINUOUS
 62
     7
 10
-188.143
 20
95.4
 40
3.2
 41
0.90047268
  1
＊
  0
TEXT
  8
0
  6
CONTINUOUS
 62
     7
 10
-205.343
 20
167.4
 40
3.2
 41
0.85537027
  1
品　名
  0
TEXT
  8
0
  6
CONTINUOUS
 62
     7
 10
-205.343
 20
159.4
 40
3.2
 41
0.85537027
  1
品　番
  0
TEXT
  8
0
  6
CONTINUOUS
 62
     7
 10
-188.143
 20
87.4
 40
3.2
 41
0.90047268
  1
＊
  0
TEXT
  8
0
  6
CONTINUOUS
 62
     7
 10
-188.143
 20
79.4
 40
3.2
 41
0.90047268
  1
＊
  0
TEXT
  8
0
  6
CONTINUOUS
 62
     7
 10
-205.343
 20
151.4
 40
3.2
 41
0.85537027
  1
材　質
  0
TEXT
  8
0
  6
CONTINUOUS
 62
     7
 10
-205.343
 20
143.4
 40
3.2
 41
0.85537027
  1
仕上げ
  0
TEXT
  8
0
  6
CONTINUOUS
 62
     7
 10
-188.143
 20
103.4
 40
3.2
 41
0.90047268
  1
＊
  0
TEXT
  8
0
  6
CONTINUOUS
 62
     7
 10
-188.143
 20
111.4
 40
3.2
 41
0.90047268
  1
＊
  0
TEXT
  8
0
  6
CONTINUOUS
 62
     7
 10
-208.543
 20
119.4
 40
3.2
 41
0.84892707
  1
セットビス
  0
TEXT
  8
0
  6
CONTINUOUS
 62
     7
 10
-188.143
 20
119.4
 40
3.2
 41
0.90047268
  1
＊
  0
TEXT
  8
0
  6
CONTINUOUS
 62
     7
 10
-203.743
 20
95.4
 40
3.2
 41
0.86439075
  1
備考
  0
TEXT
  8
0
  6
CONTINUOUS
 62
     7
 10
-205.343
 20
135.4
 40
3.2
 41
0.85537027
  1
定　尺
  0
TEXT
  8
0
  6
CONTINUOUS
 62
     7
 10
-206.943
 20
127.4
 40
3.2
 41
0.85127005
  1
左右勝手
  0
TEXT
  8
0
  6
CONTINUOUS
 62
     7
 10
-188.37855
 20
134.96998
 40
3.2
 41
0.90047268
  1
＊
  0
TEXT
  8
0
  6
CONTINUOUS
 62
     7
 10
-188.143
 20
167.4
 40
3.2
 41
0.84741102
  1
掃出しピース
  0
TEXT
  8
0
  6
CONTINUOUS
 62
     7
 10
-188.143
 20
159.4
 40
3.2
 41
0.84892707
  1
ＳＢ－２６
  0
TEXT
  8
0
  6
CONTINUOUS
 62
     7
 10
-188.143
 20
151.4
 40
3.2
 41
0.84892707
  1
ステンレス
  0
TEXT
  8
0
  6
CONTINUOUS
 62
     7
 10
-188.143
 20
143.4
 40
3.2
 41
0.84741102
  1
ヘアーライン
  0
TEXT
  8
0
  6
CONTINUOUS
 62
     7
 10
-188.37855
 20
127.36617
 40
3.2
 41
0.90047268
  1
＊
  0
DIMENSION
  8
0
  6
CONTINUOUS
 62
     7
  2
*D1
 70
     0
 10
40
 20
-25
 11
27.35
 21
-25
  3
DIMSTYLE
 13
14.7
 23
4.1999998
 14
40
 24
4.1999998
 50
0
1001
ACAD
1000
DSTYLE
1002
{
1070
    77
1070
     1
1070
   172
1070
     1
1002
}
  0
DIMENSION
  8
0
  6
CONTINUOUS
 62
     7
  2
*D2
 70
     0
 10
14.7
 20
-25
 11
0
 21
-25
  3
DIMSTYLE
 13
6.7043424
 23
0.39186937
 14
14.7
 24
4.1999998
 50
0
1001
ACAD
1000
DSTYLE
1002
{
1070
    77
1070
     1
1070
   172
1070
     1
1070
    76
1070
     1
1002
}
  0
DIMENSION
  8
0
  6
CONTINUOUS
 62
     7
  2
*D3
 70
     0
 10
40
 20
-35
 11
23.352171
 21
-35
  3
DIMSTYLE
 13
6.7043424
 23
0.39186937
 14
40
 24
4.1999998
 50
0
1001
ACAD
1000
DSTYLE
1002
{
1070
    77
1070
     1
1070
   172
1070
     1
1002
}
  0
DIMENSION
  8
0
  6
CONTINUOUS
 62
     7
  2
*D4
 70
     0
 10
55
 20
70
 11
55
 21
85
  3
DIMSTYLE
 13
40
 23
100
 14
40
 24
70
 50
90
1001
ACAD
1000
DSTYLE
1002
{
1070
    77
1070
     1
1070
   172
1070
     1
1002
}
  0
DIMENSION
  8
0
  6
CONTINUOUS
 62
     7
  2
*D5
 70
     0
 10
-5
 20
90.25
 11
-5
 21
107.79223
  3
DIMSTYLE
 13
16.242125
 23
100
 14
7.7043424
 24
90.25
 50
90
1001
ACAD
1000
DSTYLE
1002
{
1070
    77
1070
     1
1070
   172
1070
     1
1002
}
  0
DIMENSION
  8
0
  6
CONTINUOUS
 62
     7
  2
*D6
 70
     0
 10
-5
 20
90.25
 11
-5
 21
85
  3
DIMSTYLE
 13
7.7043424
 23
79.75
 14
7.7043424
 24
90.25
 50
90
1001
ACAD
1000
DSTYLE
1002
{
1070
    77
1070
     1
1070
   172
1070
     1
1070
    76
1070
     1
1002
}
  0
DIMENSION
  8
0
  6
CONTINUOUS
 62
     7
  2
*D7
 70
     0
 10
-5
 20
70
 11
-5
 21
62.384171
  3
DIMSTYLE
 13
7.7043424
 23
79.75
 14
16.242125
 24
70
 50
90
1001
ACAD
1000
DSTYLE
1002
{
1070
    77
1070
     1
1070
   172
1070
     1
1070
    75
1070
     1
1002
}
  0
INSERT
  8
0
  6
CONTINUOUS
 62
     7
  2
KOZU0001
 10
25
 20
4.2000003
  0
ENDSEC
  0
EOF
