  0
SECTION
  2
HEADER
  9
$ACADVER
  1
AC1009
  9
$INSBASE
 10
0.0
 20
0.0
 30
0.0
  9
$EXTMIN
 10
-211.01162631019429
 20
-100.0083306632102
 30
-0.0015258207003583
  9
$EXTMAX
 10
170.01162808436399
 20
173.00833193446539
 30
0.0000000349246037
  9
$LIMMIN
 10
-211.0
 20
-100.0
  9
$LIMMAX
 10
170.0
 20
173.0
  9
$ORTHOMODE
 70
     0
  9
$REGENMODE
 70
     1
  9
$FILLMODE
 70
     1
  9
$QTEXTMODE
 70
     0
  9
$MIRRTEXT
 70
     1
  9
$DRAGMODE
 70
     2
  9
$LTSCALE
 40
1.0
  9
$OSMODE
 70
    37
  9
$ATTMODE
 70
     1
  9
$TEXTSIZE
 40
0.2
  9
$TRACEWID
 40
0.05
  9
$TEXTSTYLE
  7
STANDARD
  9
$CLAYER
  8
0
  9
$CELTYPE
  6
CONTINUOUS
  9
$CECOLOR
 62
   256
  9
$DIMSCALE
 40
1.0
  9
$DIMASZ
 40
1.0
  9
$DIMEXO
 40
2.54
  9
$DIMDLI
 40
0.38
  9
$DIMRND
 40
0.0
  9
$DIMDLE
 40
0.0
  9
$DIMEXE
 40
2.54
  9
$DIMTP
 40
0.0
  9
$DIMTM
 40
0.0
  9
$DIMTXT
 40
3.2000000000000002
  9
$DIMCEN
 40
0.09
  9
$DIMTSZ
 40
0.0
  9
$DIMTOL
 70
     0
  9
$DIMLIM
 70
     0
  9
$DIMTIH
 70
     0
  9
$DIMTOH
 70
     0
  9
$DIMSE1
 70
     0
  9
$DIMSE2
 70
     0
  9
$DIMTAD
 70
     1
  9
$DIMZIN
 70
     0
  9
$DIMBLK
  1

  9
$DIMASO
 70
     1
  9
$DIMSHO
 70
     0
  9
$DIMPOST
  1

  9
$DIMAPOST
  1

  9
$DIMALT
 70
     0
  9
$DIMALTD
 70
     2
  9
$DIMALTF
 40
25.399999999999999
  9
$DIMLFAC
 40
1.0
  9
$DIMTOFL
 70
     0
  9
$DIMTVP
 40
1.0
  9
$DIMTIX
 70
     0
  9
$DIMSOXD
 70
     0
  9
$DIMSAH
 70
     1
  9
$DIMBLK1
  1

  9
$DIMBLK2
  1

  9
$DIMSTYLE
  2
DIMSTYLE
  9
$DIMCLRD
 70
     0
  9
$DIMCLRE
 70
     0
  9
$DIMCLRT
 70
     0
  9
$DIMTFAC
 40
1.0
  9
$DIMGAP
 40
1.6000000000000001
  9
$LUNITS
 70
     2
  9
$LUPREC
 70
     4
  9
$SKETCHINC
 40
0.1
  9
$FILLETRAD
 40
0.0
  9
$AUNITS
 70
     0
  9
$AUPREC
 70
     0
  9
$MENU
  1
.
  9
$ELEVATION
 40
0.0
  9
$PELEVATION
 40
0.0
  9
$THICKNESS
 40
0.0
  9
$LIMCHECK
 70
     0
  9
$BLIPMODE
 70
     0
  9
$CHAMFERA
 40
0.0
  9
$CHAMFERB
 40
0.0
  9
$SKPOLY
 70
     0
  9
$TDCREATE
 40
2452816.68903552
  9
$TDUPDATE
 40
2452816.6900410182
  9
$TDINDWG
 40
0.0010059606
  9
$TDUSRTIMER
 40
0.0010059606
  9
$USRTIMER
 70
     1
  9
$ANGBASE
 50
0.0
  9
$ANGDIR
 70
     0
  9
$PDMODE
 70
     0
  9
$PDSIZE
 40
0.0
  9
$PLINEWID
 40
0.0
  9
$COORDS
 70
     1
  9
$SPLFRAME
 70
     0
  9
$SPLINETYPE
 70
     6
  9
$SPLINESEGS
 70
     8
  9
$ATTDIA
 70
     0
  9
$ATTREQ
 70
     1
  9
$HANDLING
 70
 22529
  9
$HANDSEED
  5
15E
  9
$SURFTAB1
 70
     6
  9
$SURFTAB2
 70
     6
  9
$SURFTYPE
 70
     6
  9
$SURFU
 70
     6
  9
$SURFV
 70
     6
  9
$UCSNAME
  2

  9
$UCSORG
 10
0.0
 20
0.0
 30
0.0
  9
$UCSXDIR
 10
1.0
 20
0.0
 30
0.0
  9
$UCSYDIR
 10
0.0
 20
1.0
 30
0.0
  9
$PUCSNAME
  2

  9
$PUCSORG
 10
0.0
 20
0.0
 30
0.0
  9
$PUCSXDIR
 10
1.0
 20
0.0
 30
0.0
  9
$PUCSYDIR
 10
0.0
 20
1.0
 30
0.0
  9
$USERI1
 70
     0
  9
$USERI2
 70
     0
  9
$USERI3
 70
     0
  9
$USERI4
 70
     0
  9
$USERI5
 70
     0
  9
$USERR1
 40
0.0
  9
$USERR2
 40
0.0
  9
$USERR3
 40
0.0
  9
$USERR4
 40
0.0
  9
$USERR5
 40
0.0
  9
$WORLDVIEW
 70
     1
  9
$SHADEDGE
 70
     3
  9
$SHADEDIF
 70
    70
  9
$TILEMODE
 70
     1
  9
$MAXACTVP
 70
    64
  9
$PLIMCHECK
 70
     0
  9
$PEXTMIN
 10
1.0000000000000000E+020
 20
1.0000000000000000E+020
 30
1.0000000000000000E+020
  9
$PEXTMAX
 10
-1.0000000000000000E+020
 20
-1.0000000000000000E+020
 30
-1.0000000000000000E+020
  9
$PLIMMIN
 10
-211.0
 20
-100.0
  9
$PLIMMAX
 10
170.0
 20
173.0
  9
$UNITMODE
 70
     0
  9
$VISRETAIN
 70
     1
  9
$PLINEGEN
 70
     0
  9
$PSLTSCALE
 70
     1
  0
ENDSEC
  0
SECTION
  2
TABLES
  0
TABLE
  2
VPORT
 70
     2
  0
VPORT
  2
*ACTIVE
 70
     0
 10
0.0
 20
0.0
 11
1.0
 21
1.0
 12
-20.499999112915201
 22
36.5000006356276
 13
0.0
 23
0.0
 14
1.0
 24
1.0
 15
0.0
 25
0.0
 16
0.0
 26
0.0
 36
1.0
 17
0.0
 27
0.0
 37
0.0
 40
275.16077251336418
 41
1.55832241153342
 42
50.0
 43
0.0
 44
0.0
 50
0.0
 51
0.0
 71
     0
 72
   100
 73
     1
 74
     1
 75
     0
 76
     0
 77
     0
 78
     0
  0
ENDTAB
  0
TABLE
  2
LTYPE
 70
     6
  0
LTYPE
  2
CONTINUOUS
 70
     0
  3
Solid line
 72
    65
 73
     0
 40
0.0
  0
LTYPE
  2
DASHED
 70
     0
  3
__ __ __ __ __ __ __ __ __ __ __ __ __ __ __
 72
    65
 73
     2
 40
3.5
 49
2.0
 49
-1.5
  0
LTYPE
  2
CENTER
 70
     0
  3
____ _ ____ _ ____ _ ____ _ ____ _ ____ _ ____
 72
    65
 73
     4
 40
17.5
 49
13.0
 49
-1.5
 49
1.5
 49
-1.5
  0
LTYPE
  2
PHANTOM
 70
     0
  3
_____ _ _ _____ _ _ _____ _ _ _____ _ _ ____  
 72
    65
 73
     6
 40
15.5
 49
8.0
 49
-1.5
 49
1.5
 49
-1.5
 49
1.5
 49
-1.5
  0
LTYPE
  2
DOT
 70
     0
  3
. . . . . . . . . . . . . . . . . . . . . . . .
 72
    65
 73
     2
 40
0.25
 49
0.0
 49
-0.25
  0
LTYPE
  2
HIDDEN
 70
     0
  3
__ __ __ __ __ __ __ __ __ __ __ __ __ __ __
 72
    65
 73
     2
 40
3.5
 49
2.0
 49
-1.5
  0
ENDTAB
  0
TABLE
  2
LAYER
 70
     4
  0
LAYER
  2
0
 70
     0
 62
     7
  6
CONTINUOUS
  0
LAYER
  2
1
 70
     0
 62
     7
  6
CONTINUOUS
  0
LAYER
  2
2
 70
     0
 62
     7
  6
CONTINUOUS
  0
LAYER
  2
DEFPOINTS
 70
     0
 62
     7
  6
CONTINUOUS
  0
ENDTAB
  0
TABLE
  2
STYLE
 70
     1
  0
STYLE
  2
STANDARD
 70
     0
 40
0.0
 41
1.0
 50
0.0
 71
     0
 42
0.2
  3
txt
  4
BIGFONT
  0
ENDTAB
  0
TABLE
  2
VIEW
 70
     0
  0
ENDTAB
  0
TABLE
  2
UCS
 70
     0
  0
ENDTAB
  0
TABLE
  2
APPID
 70
     1
  0
APPID
  2
ACAD
 70
     0
  0
ENDTAB
  0
TABLE
  2
DIMSTYLE
 70
     1
  0
DIMSTYLE
  2
DIMSTYLE
 70
     0
  3

  4

  5

  6

  7

 40
1.0
 41
1.0
 42
2.54
 43
0.38
 44
2.54
 45
0.0
 46
0.0
 47
0.0
 48
0.0
140
3.2000000000000002
141
0.09
142
0.0
143
25.399999999999999
144
1.0
145
0.0
146
1.0
147
1.6000000000000001
 71
     0
 72
     0
 73
     0
 74
     0
 75
     0
 76
     0
 77
     0
 78
     0
170
     0
171
     2
172
     0
173
     1
174
     0
175
     0
176
     0
177
     0
178
     0
  0
ENDTAB
  0
ENDSEC
  0
SECTION
  2
BLOCKS
  0
BLOCK
  8
0
  2
$MODEL_SPACE
 70
     0
 10
0.0
 20
0.0
 30
0.0
  3
$MODEL_SPACE
  1

  0
ENDBLK
  5
20
  8
0
  0
BLOCK
 67
     1
  8
0
  2
$PAPER_SPACE
 70
     0
 10
0.0
 20
0.0
 30
0.0
  3
$PAPER_SPACE
  1

  0
ENDBLK
  5
1C
 67
     1
  8
0
  0
BLOCK
  8
0
  2
_DOT
 70
     0
 10
0.0
 20
0.0
 30
0.0
  3
_DOT
  1

  0
POLYLINE
  5
30
  8
0
  6
BYBLOCK
 62
     0
 66
     1
 10
0.0
 20
0.0
 30
0.0
 70
     1
 40
0.4000000100000001
 41
0.4000000100000001
  0
VERTEX
  5
15B
  8
0
  6
BYBLOCK
 62
     0
 10
-0.2
 20
0.0
 30
0.0
 42
1.0
  0
VERTEX
  5
15C
  8
0
  6
BYBLOCK
 62
     0
 10
0.2
 20
0.0
 30
0.0
 42
1.0
  0
SEQEND
  5
15D
  8
0
  6
BYBLOCK
 62
     0
  0
LINE
  5
34
  8
0
  6
BYBLOCK
 62
     0
 10
-0.4000000100000001
 20
0.0
 30
0.0
 11
-3.0
 21
0.0
 31
0.0
  0
ENDBLK
  5
35
  8
0
  0
BLOCK
  8
0
  2
_NONE
 70
     0
 10
0.0
 20
0.0
 30
0.0
  3
_NONE
  1

  0
CIRCLE
  5
38
  8
0
  6
BYBLOCK
 62
     0
 10
0.0
 20
0.0
 30
0.0
 40
0.001
  0
ENDBLK
  5
39
  8
0
  0
BLOCK
  8
0
  2
*D2
 70
     1
 10
0.0
 20
0.0
 30
0.0
  3
*D2
  1

  0
LINE
  5
3C
  8
0
  6
CONTINUOUS
 62
     7
 10
108.18474000000001
 20
-48.260590000000001
 30
0.0
 11
100.18474000000001
 21
-48.260590000000001
 31
0.0
  0
INSERT
  5
3D
  8
0
  6
CONTINUOUS
 62
     7
  2
_DOT
 10
108.18474000000001
 20
-48.260590000000001
 30
0.0
  0
INSERT
  5
3E
  8
0
  6
CONTINUOUS
 62
     7
  2
_DOT
 10
100.18474000000001
 20
-48.260590000000001
 30
0.0
 50
180.0
  0
LINE
  5
3F
  8
0
  6
CONTINUOUS
 62
     7
 10
108.18474000000001
 20
-35.80059
 30
0.0
 11
108.18474000000001
 21
-49.460586999999997
 31
0.0
  0
LINE
  5
40
  8
0
  6
CONTINUOUS
 62
     7
 10
100.18474999999999
 20
-35.80059
 30
0.0
 11
100.18474999999999
 21
-49.460586999999997
 31
0.0
  0
TEXT
  5
41
  8
0
  6
CONTINUOUS
 62
     7
 10
103.1131699999999
 20
-47.510590000000001
 30
0.0
 40
3.0
  1
8
  0
POINT
  5
42
  8
DEFPOINTS
  6
CONTINUOUS
 62
     7
 10
108.18474000000001
 20
-33.260590000000001
 30
0.0
  0
POINT
  5
43
  8
DEFPOINTS
  6
CONTINUOUS
 62
     7
 10
100.18474999999999
 20
-33.260590000000001
 30
0.0
  0
POINT
  5
44
  8
DEFPOINTS
  6
CONTINUOUS
 62
     7
 10
100.18474000000001
 20
-48.260590000000001
 30
0.0
  0
ENDBLK
  5
45
  8
0
  0
BLOCK
  8
0
  2
*D3
 70
     1
 10
0.0
 20
0.0
 30
0.0
  3
*D3
  1

  0
LINE
  5
48
  8
0
  6
CONTINUOUS
 62
     7
 10
63.184745999999997
 20
37.739409999999999
 30
0.0
 11
63.184745999999997
 21
44.739409999999992
 31
0.0
  0
INSERT
  5
49
  8
0
  6
CONTINUOUS
 62
     7
  2
_DOT
 10
63.184745999999997
 20
37.739409999999999
 30
0.0
 50
270.0
  0
INSERT
  5
4A
  8
0
  6
CONTINUOUS
 62
     7
  2
_DOT
 10
63.184745999999997
 20
44.739409999999992
 30
0.0
 50
90.0
  0
LINE
  5
4B
  8
0
  6
CONTINUOUS
 62
     7
 10
75.644738000000004
 20
37.739409999999999
 30
0.0
 11
63.184745999999997
 21
37.739409999999999
 31
0.0
  0
LINE
  5
4C
  8
0
  6
CONTINUOUS
 62
     7
 10
81.644738000000004
 20
44.739409999999992
 30
0.0
 11
63.184745999999997
 21
44.739409999999992
 31
0.0
  0
TEXT
  5
4D
  8
0
  6
CONTINUOUS
 62
     7
 10
62.43474599999999
 20
40.167844999999993
 30
0.0
 40
3.0
  1
7
 50
90.000003000000007
  0
POINT
  5
4E
  8
DEFPOINTS
  6
CONTINUOUS
 62
     7
 10
78.184737999999996
 20
37.739409999999999
 30
0.0
  0
POINT
  5
4F
  8
DEFPOINTS
  6
CONTINUOUS
 62
     7
 10
84.184737999999996
 20
44.739409999999992
 30
0.0
  0
POINT
  5
50
  8
DEFPOINTS
  6
CONTINUOUS
 62
     7
 10
63.184745999999997
 20
44.739409999999992
 30
0.0
  0
ENDBLK
  5
51
  8
0
  0
BLOCK
  8
0
  2
*D4
 70
     1
 10
0.0
 20
0.0
 30
0.0
  3
*D4
  1

  0
LINE
  5
54
  8
0
  6
CONTINUOUS
 62
     7
 10
63.184745999999997
 20
56.739409999999999
 30
0.0
 11
63.184745999999997
 21
44.739409999999992
 31
0.0
  0
INSERT
  5
55
  8
0
  6
CONTINUOUS
 62
     7
  2
_DOT
 10
63.184745999999997
 20
56.739409999999999
 30
0.0
 50
90.0
  0
INSERT
  5
56
  8
0
  6
CONTINUOUS
 62
     7
  2
_DOT
 10
63.184745999999997
 20
44.739409999999992
 30
0.0
 50
270.0
  0
LINE
  5
57
  8
0
  6
CONTINUOUS
 62
     7
 10
75.644738000000004
 20
56.739409999999999
 30
0.0
 11
63.184745999999997
 21
56.739409999999999
 31
0.0
  0
TEXT
  5
58
  8
0
  6
CONTINUOUS
 62
     7
 10
62.43474599999999
 20
48.167845
 30
0.0
 40
3.0
  1
12
 50
90.000003000000007
 41
1.2857825000000001
  0
POINT
  5
59
  8
DEFPOINTS
  6
CONTINUOUS
 62
     7
 10
78.184737999999996
 20
56.739409999999999
 30
0.0
  0
POINT
  5
5A
  8
DEFPOINTS
  6
CONTINUOUS
 62
     7
 10
84.184737999999996
 20
44.739409999999992
 30
0.0
  0
POINT
  5
5B
  8
DEFPOINTS
  6
CONTINUOUS
 62
     7
 10
63.184745999999997
 20
44.739409999999992
 30
0.0
  0
ENDBLK
  5
5C
  8
0
  0
BLOCK
  8
0
  2
*D5
 70
     1
 10
0.0
 20
0.0
 30
0.0
  3
*D5
  1

  0
LINE
  5
5F
  8
0
  6
CONTINUOUS
 62
     7
 10
53.184745999999997
 20
56.739409999999999
 30
0.0
 11
53.184745999999997
 21
37.739409999999999
 31
0.0
  0
INSERT
  5
60
  8
0
  6
CONTINUOUS
 62
     7
  2
_DOT
 10
53.184745999999997
 20
56.739409999999999
 30
0.0
 50
90.0
  0
INSERT
  5
61
  8
0
  6
CONTINUOUS
 62
     7
  2
_DOT
 10
53.184745999999997
 20
37.739409999999999
 30
0.0
 50
270.0
  0
LINE
  5
62
  8
0
  6
CONTINUOUS
 62
     7
 10
75.644738000000004
 20
56.739409999999999
 30
0.0
 11
51.984741
 21
56.739409999999999
 31
0.0
  0
LINE
  5
63
  8
0
  6
CONTINUOUS
 62
     7
 10
75.644738000000004
 20
37.739409999999999
 30
0.0
 11
51.984741
 21
37.739409999999999
 31
0.0
  0
TEXT
  5
64
  8
0
  6
CONTINUOUS
 62
     7
 10
52.43474599999999
 20
44.667845
 30
0.0
 40
3.0
  1
19
 50
90.000003000000007
 41
1.2857825000000001
  0
POINT
  5
65
  8
DEFPOINTS
  6
CONTINUOUS
 62
     7
 10
78.184737999999996
 20
56.739409999999999
 30
0.0
  0
POINT
  5
66
  8
DEFPOINTS
  6
CONTINUOUS
 62
     7
 10
78.184737999999996
 20
37.739409999999999
 30
0.0
  0
POINT
  5
67
  8
DEFPOINTS
  6
CONTINUOUS
 62
     7
 10
53.184745999999997
 20
37.739409999999999
 30
0.0
  0
ENDBLK
  5
68
  8
0
  0
BLOCK
  8
0
  2
*D6
 70
     1
 10
0.0
 20
0.0
 30
0.0
  3
*D6
  1

  0
LINE
  5
6B
  8
0
  6
CONTINUOUS
 62
     7
 10
108.18474000000001
 20
66.739409999999992
 30
0.0
 11
96.184737999999996
 21
66.739409999999992
 31
0.0
  0
INSERT
  5
6C
  8
0
  6
CONTINUOUS
 62
     7
  2
_DOT
 10
108.18474000000001
 20
66.739409999999992
 30
0.0
  0
INSERT
  5
6D
  8
0
  6
CONTINUOUS
 62
     7
  2
_DOT
 10
96.184737999999996
 20
66.739409999999992
 30
0.0
 50
180.0
  0
LINE
  5
6E
  8
0
  6
CONTINUOUS
 62
     7
 10
108.18474000000001
 20
57.279409999999999
 30
0.0
 11
108.18474000000001
 21
67.939414999999997
 31
0.0
  0
LINE
  5
6F
  8
0
  6
CONTINUOUS
 62
     7
 10
96.184745999999976
 20
51.279409999999991
 30
0.0
 11
96.184745999999976
 21
67.939414999999997
 31
0.0
  0
TEXT
  5
70
  8
0
  6
CONTINUOUS
 62
     7
 10
99.613173000000003
 20
67.489409999999992
 30
0.0
 40
3.0
  1
12
 41
1.2857825000000001
  0
POINT
  5
71
  8
DEFPOINTS
  6
CONTINUOUS
 62
     7
 10
108.18474000000001
 20
54.739409999999992
 30
0.0
  0
POINT
  5
72
  8
DEFPOINTS
  6
CONTINUOUS
 62
     7
 10
96.184745999999976
 20
48.739409999999999
 30
0.0
  0
POINT
  5
73
  8
DEFPOINTS
  6
CONTINUOUS
 62
     7
 10
96.184737999999996
 20
66.739409999999992
 30
0.0
  0
ENDBLK
  5
74
  8
0
  0
BLOCK
  8
0
  2
*D7
 70
     1
 10
0.0
 20
0.0
 30
0.0
  3
*D7
  1

  0
LINE
  5
77
  8
0
  6
CONTINUOUS
 62
     7
 10
96.184737999999996
 20
66.739409999999992
 30
0.0
 11
88.184737999999996
 21
66.739409999999992
 31
0.0
  0
INSERT
  5
78
  8
0
  6
CONTINUOUS
 62
     7
  2
_DOT
 10
96.184737999999996
 20
66.739409999999992
 30
0.0
  0
INSERT
  5
79
  8
0
  6
CONTINUOUS
 62
     7
  2
_DOT
 10
88.184737999999996
 20
66.739409999999992
 30
0.0
 50
180.0
  0
LINE
  5
7A
  8
0
  6
CONTINUOUS
 62
     7
 10
88.184746000000004
 20
51.279409999999991
 30
0.0
 11
88.184746000000004
 21
67.939414999999997
 31
0.0
  0
TEXT
  5
7B
  8
0
  6
CONTINUOUS
 62
     7
 10
91.113181000000012
 20
67.489409999999992
 30
0.0
 40
3.0
  1
8
  0
POINT
  5
7C
  8
DEFPOINTS
  6
CONTINUOUS
 62
     7
 10
96.184745999999976
 20
48.739409999999999
 30
0.0
  0
POINT
  5
7D
  8
DEFPOINTS
  6
CONTINUOUS
 62
     7
 10
88.184746000000004
 20
48.739409999999999
 30
0.0
  0
POINT
  5
7E
  8
DEFPOINTS
  6
CONTINUOUS
 62
     7
 10
88.184737999999996
 20
66.739409999999992
 30
0.0
  0
ENDBLK
  5
7F
  8
0
  0
BLOCK
  8
0
  2
*D8
 70
     1
 10
0.0
 20
0.0
 30
0.0
  3
*D8
  1

  0
LINE
  5
82
  8
0
  6
CONTINUOUS
 62
     7
 10
88.184737999999996
 20
66.739409999999992
 30
0.0
 11
78.184737999999996
 21
66.739409999999992
 31
0.0
  0
INSERT
  5
83
  8
0
  6
CONTINUOUS
 62
     7
  2
_DOT
 10
88.184737999999996
 20
66.739409999999992
 30
0.0
  0
INSERT
  5
84
  8
0
  6
CONTINUOUS
 62
     7
  2
_DOT
 10
78.184737999999996
 20
66.739409999999992
 30
0.0
 50
180.0
  0
LINE
  5
85
  8
0
  6
CONTINUOUS
 62
     7
 10
78.18474599999999
 20
59.279409999999999
 30
0.0
 11
78.18474599999999
 21
67.939414999999997
 31
0.0
  0
TEXT
  5
86
  8
0
  6
CONTINUOUS
 62
     7
 10
80.613173000000003
 20
67.489409999999992
 30
0.0
 40
3.0
  1
10
 41
1.4026718
  0
POINT
  5
87
  8
DEFPOINTS
  6
CONTINUOUS
 62
     7
 10
88.184746000000004
 20
48.739409999999999
 30
0.0
  0
POINT
  5
88
  8
DEFPOINTS
  6
CONTINUOUS
 62
     7
 10
78.18474599999999
 20
56.739409999999999
 30
0.0
  0
POINT
  5
89
  8
DEFPOINTS
  6
CONTINUOUS
 62
     7
 10
78.184737999999996
 20
66.739409999999992
 30
0.0
  0
ENDBLK
  5
8A
  8
0
  0
BLOCK
  8
0
  2
*D9
 70
     1
 10
0.0
 20
0.0
 30
0.0
  3
*D9
  1

  0
LINE
  5
8D
  8
0
  6
CONTINUOUS
 62
     7
 10
108.18474000000001
 20
76.739409999999992
 30
0.0
 11
78.184737999999996
 21
76.739409999999992
 31
0.0
  0
INSERT
  5
8E
  8
0
  6
CONTINUOUS
 62
     7
  2
_DOT
 10
108.18474000000001
 20
76.739409999999992
 30
0.0
  0
INSERT
  5
8F
  8
0
  6
CONTINUOUS
 62
     7
  2
_DOT
 10
78.184737999999996
 20
76.739409999999992
 30
0.0
 50
180.0
  0
LINE
  5
90
  8
0
  6
CONTINUOUS
 62
     7
 10
108.18474000000001
 20
57.279409999999999
 30
0.0
 11
108.18474000000001
 21
77.939414999999997
 31
0.0
  0
LINE
  5
91
  8
0
  6
CONTINUOUS
 62
     7
 10
78.18474599999999
 20
59.279409999999999
 30
0.0
 11
78.18474599999999
 21
77.939414999999997
 31
0.0
  0
TEXT
  5
92
  8
0
  6
CONTINUOUS
 62
     7
 10
90.613173000000003
 20
77.489409999999992
 30
0.0
 40
3.0
  1
30
 41
1.1020992999999999
  0
POINT
  5
93
  8
DEFPOINTS
  6
CONTINUOUS
 62
     7
 10
108.18474000000001
 20
54.739409999999992
 30
0.0
  0
POINT
  5
94
  8
DEFPOINTS
  6
CONTINUOUS
 62
     7
 10
78.18474599999999
 20
56.739409999999999
 30
0.0
  0
POINT
  5
95
  8
DEFPOINTS
  6
CONTINUOUS
 62
     7
 10
78.184737999999996
 20
76.739409999999992
 30
0.0
  0
ENDBLK
  5
96
  8
0
  0
BLOCK
  8
0
  2
*D10
 70
     1
 10
0.0
 20
0.0
 30
0.0
  3
*D10
  1

  0
LINE
  5
99
  8
0
  6
CONTINUOUS
 62
     7
 10
12.179705999999999
 20
-33.260590000000001
 30
0.0
 11
12.179705999999999
 21
-19.260587999999998
 31
0.0
  0
INSERT
  5
9A
  8
0
  6
CONTINUOUS
 62
     7
  2
_DOT
 10
12.179705999999999
 20
-33.260590000000001
 30
0.0
 50
270.0
  0
INSERT
  5
9B
  8
0
  6
CONTINUOUS
 62
     7
  2
_DOT
 10
12.179705999999999
 20
-19.260587999999998
 30
0.0
 50
90.0
  0
LINE
  5
9C
  8
0
  6
CONTINUOUS
 62
     7
 10
-0.28029422
 20
-33.260590000000001
 30
0.0
 11
13.379704999999991
 21
-33.260590000000001
 31
0.0
  0
LINE
  5
9D
  8
0
  6
CONTINUOUS
 62
     7
 10
-7.7302989999999996
 20
-19.260587999999998
 30
0.0
 11
13.379704999999991
 21
-19.260587999999998
 31
0.0
  0
TEXT
  5
9E
  8
0
  6
CONTINUOUS
 62
     7
 10
11.379706000000001
 20
-29.003588000000001
 30
0.0
 40
3.2000000000000002
  1
14
 50
90.000003000000007
 41
1.2857811999999991
  0
POINT
  5
9F
  8
DEFPOINTS
  6
CONTINUOUS
 62
     7
 10
-2.8202940999999999
 20
-33.260590000000001
 30
0.0
  0
POINT
  5
A0
  8
DEFPOINTS
  6
CONTINUOUS
 62
     7
 10
-10.270299
 20
-19.260587999999998
 30
0.0
  0
POINT
  5
A1
  8
DEFPOINTS
  6
CONTINUOUS
 62
     7
 10
12.179705999999999
 20
-19.260587999999998
 30
0.0
  0
ENDBLK
  5
A2
  8
0
  0
BLOCK
  8
0
  2
*D11
 70
     1
 10
0.0
 20
0.0
 30
0.0
  3
*D11
  1

  0
LINE
  5
A5
  8
0
  6
CONTINUOUS
 62
     7
 10
12.179705999999999
 20
-19.260587999999998
 30
0.0
 11
12.179705999999999
 21
56.739409999999999
 31
0.0
  0
INSERT
  5
A6
  8
0
  6
CONTINUOUS
 62
     7
  2
_DOT
 10
12.179705999999999
 20
-19.260587999999998
 30
0.0
 50
270.0
  0
INSERT
  5
A7
  8
0
  6
CONTINUOUS
 62
     7
  2
_DOT
 10
12.179705999999999
 20
56.739409999999999
 30
0.0
 50
90.0
  0
LINE
  5
A8
  8
0
  6
CONTINUOUS
 62
     7
 10
-2.280294
 20
56.739409999999999
 30
0.0
 11
13.379704999999991
 21
56.739409999999999
 31
0.0
  0
TEXT
  5
A9
  8
0
  6
CONTINUOUS
 62
     7
 10
11.379706000000001
 20
15.996409999999999
 30
0.0
 40
3.2000000000000002
  1
76
 50
90.000003000000007
 41
1.028624999999999
  0
POINT
  5
AA
  8
DEFPOINTS
  6
CONTINUOUS
 62
     7
 10
-10.270299
 20
-19.260587999999998
 30
0.0
  0
POINT
  5
AB
  8
DEFPOINTS
  6
CONTINUOUS
 62
     7
 10
-4.8202939000000002
 20
56.739409999999999
 30
0.0
  0
POINT
  5
AC
  8
DEFPOINTS
  6
CONTINUOUS
 62
     7
 10
12.179705999999999
 20
56.739409999999999
 30
0.0
  0
ENDBLK
  5
AD
  8
0
  0
BLOCK
  8
0
  2
*D12
 70
     1
 10
0.0
 20
0.0
 30
0.0
  3
*D12
  1

  0
LINE
  5
B0
  8
0
  6
CONTINUOUS
 62
     7
 10
22.17970699999999
 20
-33.260590000000001
 30
0.0
 11
22.17970699999999
 21
56.739409999999999
 31
0.0
  0
INSERT
  5
B1
  8
0
  6
CONTINUOUS
 62
     7
  2
_DOT
 10
22.17970699999999
 20
-33.260590000000001
 30
0.0
 50
270.0
  0
INSERT
  5
B2
  8
0
  6
CONTINUOUS
 62
     7
  2
_DOT
 10
22.17970699999999
 20
56.739409999999999
 30
0.0
 50
90.0
  0
LINE
  5
B3
  8
0
  6
CONTINUOUS
 62
     7
 10
-0.28029422
 20
-33.260590000000001
 30
0.0
 11
23.379707
 21
-33.260590000000001
 31
0.0
  0
LINE
  5
B4
  8
0
  6
CONTINUOUS
 62
     7
 10
-2.280294
 20
56.739409999999999
 30
0.0
 11
23.379707
 21
56.739409999999999
 31
0.0
  0
TEXT
  5
B5
  8
0
  6
CONTINUOUS
 62
     7
 10
21.379706999999989
 20
8.9964113000000019
 30
0.0
 40
3.2000000000000002
  1
90
 50
90.000003000000007
 41
1.102098199999999
  0
POINT
  5
B6
  8
DEFPOINTS
  6
CONTINUOUS
 62
     7
 10
-2.8202940999999999
 20
-33.260590000000001
 30
0.0
  0
POINT
  5
B7
  8
DEFPOINTS
  6
CONTINUOUS
 62
     7
 10
-4.8202939000000002
 20
56.739409999999999
 30
0.0
  0
POINT
  5
B8
  8
DEFPOINTS
  6
CONTINUOUS
 62
     7
 10
22.17970699999999
 20
56.739409999999999
 30
0.0
  0
ENDBLK
  5
B9
  8
0
  0
BLOCK
  8
0
  2
*D13
 70
     1
 10
0.0
 20
0.0
 30
0.0
  3
*D13
  1

  0
LINE
  5
BC
  8
0
  6
CONTINUOUS
 62
     7
 10
-79.720298999999983
 20
-58.260590000000001
 30
0.0
 11
-2.8202940999999999
 21
-58.260590000000001
 31
0.0
  0
INSERT
  5
BD
  8
0
  6
CONTINUOUS
 62
     7
  2
_DOT
 10
-79.720298999999983
 20
-58.260590000000001
 30
0.0
 50
180.0
  0
INSERT
  5
BE
  8
0
  6
CONTINUOUS
 62
     7
  2
_DOT
 10
-2.8202940999999999
 20
-58.260590000000001
 30
0.0
  0
LINE
  5
BF
  8
0
  6
CONTINUOUS
 62
     7
 10
-79.720298999999983
 20
-35.80059
 30
0.0
 11
-79.720298999999983
 21
-59.460586999999997
 31
0.0
  0
LINE
  5
C0
  8
0
  6
CONTINUOUS
 62
     7
 10
-2.8202940999999999
 20
-35.80059
 30
0.0
 11
-2.8202940999999999
 21
-59.460586999999997
 31
0.0
  0
TEXT
  5
C1
  8
0
  6
CONTINUOUS
 62
     7
 10
-47.213297999999988
 20
-57.460590000000003
 30
0.0
 40
3.2000000000000002
  1
76.9
 41
1.238124999999999
  0
POINT
  5
C2
  8
DEFPOINTS
  6
CONTINUOUS
 62
     7
 10
-79.720298999999983
 20
-33.260590000000001
 30
0.0
  0
POINT
  5
C3
  8
DEFPOINTS
  6
CONTINUOUS
 62
     7
 10
-2.8202940999999999
 20
-33.260590000000001
 30
0.0
  0
POINT
  5
C4
  8
DEFPOINTS
  6
CONTINUOUS
 62
     7
 10
-2.8202940999999999
 20
-58.260590000000001
 30
0.0
  0
ENDBLK
  5
C5
  8
0
  0
BLOCK
  8
0
  2
*D14
 70
     1
 10
0.0
 20
0.0
 30
0.0
  3
*D14
  1

  0
LINE
  5
C8
  8
0
  6
CONTINUOUS
 62
     7
 10
-66.270302000000001
 20
-48.260590000000001
 30
0.0
 11
-16.270298
 21
-48.260590000000001
 31
0.0
  0
INSERT
  5
C9
  8
0
  6
CONTINUOUS
 62
     7
  2
_DOT
 10
-66.270302000000001
 20
-48.260590000000001
 30
0.0
 50
180.0
  0
INSERT
  5
CA
  8
0
  6
CONTINUOUS
 62
     7
  2
_DOT
 10
-16.270298
 20
-48.260590000000001
 30
0.0
  0
LINE
  5
CB
  8
0
  6
CONTINUOUS
 62
     7
 10
-66.270302000000001
 20
-34.300587999999991
 30
0.0
 11
-66.270302000000001
 21
-49.460586999999997
 31
0.0
  0
LINE
  5
CC
  8
0
  6
CONTINUOUS
 62
     7
 10
-16.270298
 20
-34.300587999999991
 30
0.0
 11
-16.270298
 21
-49.460586999999997
 31
0.0
  0
TEXT
  5
CD
  8
0
  6
CONTINUOUS
 62
     7
 10
-44.013302000000003
 20
-47.460590000000003
 30
0.0
 40
3.2000000000000002
  1
50
 41
1.102098199999999
  0
POINT
  5
CE
  8
DEFPOINTS
  6
CONTINUOUS
 62
     7
 10
-66.270302000000001
 20
-31.760587999999998
 30
0.0
  0
POINT
  5
CF
  8
DEFPOINTS
  6
CONTINUOUS
 62
     7
 10
-16.270298
 20
-31.760587999999998
 30
0.0
  0
POINT
  5
D0
  8
DEFPOINTS
  6
CONTINUOUS
 62
     7
 10
-16.270298
 20
-48.260590000000001
 30
0.0
  0
ENDBLK
  5
D1
  8
0
  0
BLOCK
  8
0
  2
*D15
 70
     1
 10
0.0
 20
0.0
 30
0.0
  3
*D15
  1

  0
LINE
  5
D4
  8
0
  6
CONTINUOUS
 62
     7
 10
89.567513000000005
 20
43.294437000000002
 30
0.0
 11
69.607787999999985
 21
64.152084000000002
 31
0.0
  0
INSERT
  5
D5
  8
0
  6
CONTINUOUS
 62
     7
  2
_DOT
 10
89.567513000000005
 20
43.294437000000002
 30
0.0
 50
313.73978
  0
LINE
  5
D6
  8
0
  6
CONTINUOUS
 62
     7
 10
69.607787999999985
 20
64.152077000000006
 30
0.0
 11
47.680720999999998
 21
64.152077000000006
 31
0.0
  0
TEXT
  5
D7
  8
0
  6
CONTINUOUS
 62
     7
 10
47.680720999999998
 20
64.952077000000003
 30
0.0
 40
3.2000000000000002
  1
４－Ｍ４タップ
 41
0.84634979
  0
POINT
  5
D8
  8
DEFPOINTS
  6
CONTINUOUS
 62
     7
 10
89.567513000000005
 20
43.294437000000002
 30
0.0
  0
POINT
  5
D9
  8
DEFPOINTS
  6
CONTINUOUS
 62
     7
 10
69.607787999999985
 20
64.152084000000002
 30
0.0
  0
ENDBLK
  5
DA
  8
0
  0
BLOCK
  8
0
  2
KOZU0001
 70
     0
 10
0.0
 20
0.0
 30
0.0
  3
KOZU0001
  1

  0
LINE
  5
DD
  8
0
  6
CONTINUOUS
 62
     7
 10
0.0
 20
0.0
 30
0.0
 11
-18.790123000000001
 21
21.672943
 31
0.0
  0
LINE
  5
DE
  8
0
  6
CONTINUOUS
 62
     7
 10
-18.790123000000001
 20
21.672943
 30
0.0
 11
-69.959602000000004
 21
21.672943
 31
0.0
  0
LINE
  5
DF
  8
0
  6
CONTINUOUS
 62
     7
 10
0.0
 20
0.0
 30
0.0
 11
-2.4736829999999999
 21
1.995274499999999
 31
0.0
  0
LINE
  5
E0
  8
0
  6
CONTINUOUS
 62
     7
 10
0.0
 20
0.0
 30
0.0
 11
-1.6244223999999989
 21
2.731570899999999
 31
0.0
  0
TEXT
  5
E1
  8
0
  6
CONTINUOUS
 62
     7
 10
-69.045601000000005
 20
22.472940999999992
 30
0.0
 40
3.2000000000000002
  1
２－%%C５．５×１７．５スロット
 41
0.84306961
  0
ENDBLK
  5
E2
  8
0
  0
ENDSEC
  0
SECTION
  2
ENTITIES
  0
LINE
  5
E3
  8
0
  6
CONTINUOUS
 62
     7
 10
170.0
 20
173.0
 30
0.0
 11
170.0
 21
-100.0
 31
0.0
  0
LINE
  5
E4
  8
0
  6
CONTINUOUS
 62
     7
 10
-211.0
 20
-100.0
 30
0.0
 11
170.0
 21
-100.0
 31
0.0
  0
LINE
  5
E5
  8
0
  6
CONTINUOUS
 62
     7
 10
-211.0
 20
173.0
 30
0.0
 11
170.0
 21
173.0
 31
0.0
  0
LINE
  5
E6
  8
0
  6
CONTINUOUS
 62
     7
 10
-211.0
 20
173.0
 30
0.0
 11
-211.0
 21
-100.0
 31
0.0
  0
LINE
  5
E7
  8
0
  6
CONTINUOUS
 62
     3
 10
-79.720298999999983
 20
54.739409999999992
 30
0.0
 11
-79.720298999999983
 21
37.739409999999999
 31
0.0
  0
LINE
  5
E8
  8
0
  6
CONTINUOUS
 62
     3
 10
-2.8202940999999999
 20
54.739409999999992
 30
0.0
 11
-2.8202940999999999
 21
37.739409999999999
 31
0.0
  0
LINE
  5
E9
  8
0
  6
CONTINUOUS
 62
     3
 10
-79.720298999999983
 20
-33.260590000000001
 30
0.0
 11
-2.8202940999999999
 21
-33.260590000000001
 31
0.0
  0
LINE
  5
EA
  8
0
  6
CONTINUOUS
 62
     3
 10
-77.720298999999983
 20
56.739409999999999
 30
0.0
 11
-4.8202939000000002
 21
56.739409999999999
 31
0.0
  0
LINE
  5
EB
  8
0
  6
CONTINUOUS
 62
     3
 10
-79.720298999999983
 20
26.739409999999989
 30
0.0
 11
-76.520302000000001
 21
26.739409999999989
 31
0.0
  0
LINE
  5
EC
  8
0
  6
CONTINUOUS
 62
     3
 10
-79.720298999999983
 20
37.739409999999999
 30
0.0
 11
-76.520302000000001
 21
37.739409999999999
 31
0.0
  0
LINE
  5
ED
  8
0
  6
CONTINUOUS
 62
     3
 10
-63.520297999999997
 20
-13.260589
 30
0.0
 11
-63.520297999999997
 21
-25.260590000000001
 31
0.0
  0
LINE
  5
EE
  8
0
  6
CONTINUOUS
 62
     3
 10
-69.020302000000001
 20
-13.260589
 30
0.0
 11
-69.020302000000001
 21
-25.260590000000001
 31
0.0
  0
LINE
  5
EF
  8
0
  6
CENTER
 62
     7
 10
-66.270302000000001
 20
-6.7605886000000002
 30
0.0
 11
-66.270302000000001
 21
-31.760587999999998
 31
0.0
  0
LINE
  5
F0
  8
0
  6
CENTER
 62
     7
 10
-72.270302000000001
 20
-19.260587999999998
 30
0.0
 11
-60.270297999999997
 21
-19.260587999999998
 31
0.0
  0
LINE
  5
F1
  8
0
  6
CONTINUOUS
 62
     3
 10
-19.020298
 20
-13.260589
 30
0.0
 11
-19.020298
 21
-25.260590000000001
 31
0.0
  0
LINE
  5
F2
  8
0
  6
CONTINUOUS
 62
     3
 10
-13.520299
 20
-13.260589
 30
0.0
 11
-13.520299
 21
-25.260590000000001
 31
0.0
  0
LINE
  5
F3
  8
0
  6
CENTER
 62
     7
 10
-16.270298
 20
-6.7605886000000002
 30
0.0
 11
-16.270298
 21
-31.760587999999998
 31
0.0
  0
LINE
  5
F4
  8
0
  6
CENTER
 62
     7
 10
-10.270299
 20
-19.260587999999998
 30
0.0
 11
-22.27029799999999
 21
-19.260587999999998
 31
0.0
  0
LINE
  5
F5
  8
0
  6
CONTINUOUS
 62
     3
 10
-51.77029799999999
 20
15.739412
 30
0.0
 11
-51.77029799999999
 21
-9.2605876999999985
 31
0.0
  0
LINE
  5
F6
  8
0
  6
CONTINUOUS
 62
     3
 10
-30.770298
 20
15.739412
 30
0.0
 11
-30.770298
 21
-9.2605876999999985
 31
0.0
  0
LINE
  5
F7
  8
0
  6
CONTINUOUS
 62
     3
 10
-79.720298999999983
 20
26.739409999999989
 30
0.0
 11
-79.720298999999983
 21
-33.260590000000001
 31
0.0
  0
LINE
  5
F8
  8
0
  6
CONTINUOUS
 62
     3
 10
-2.8202940999999999
 20
26.739409999999989
 30
0.0
 11
-2.8202940999999999
 21
-33.260590000000001
 31
0.0
  0
LINE
  5
F9
  8
0
  6
CONTINUOUS
 62
     3
 10
-6.0202936999999999
 20
26.739409999999989
 30
0.0
 11
-2.8202940999999999
 21
26.739409999999989
 31
0.0
  0
LINE
  5
FA
  8
0
  6
CONTINUOUS
 62
     3
 10
-6.0202936999999999
 20
37.739409999999999
 30
0.0
 11
-2.8202940999999999
 21
37.739409999999999
 31
0.0
  0
LINE
  5
FB
  8
0
  6
CONTINUOUS
 62
     3
 10
108.18474000000001
 20
-33.260590000000001
 30
0.0
 11
100.18474000000001
 21
-33.260590000000001
 31
0.0
  0
LINE
  5
FC
  8
0
  6
CONTINUOUS
 62
     3
 10
106.18473999999991
 20
56.739409999999999
 30
0.0
 11
78.184737999999996
 21
56.739409999999999
 31
0.0
  0
LINE
  5
FD
  8
0
  6
CONTINUOUS
 62
     3
 10
108.18474000000001
 20
54.739409999999992
 30
0.0
 11
108.18474000000001
 21
-33.260590000000001
 31
0.0
  0
LINE
  5
FE
  8
0
  6
CONTINUOUS
 62
     3
 10
100.18474999999999
 20
26.739409999999989
 30
0.0
 11
100.18474999999999
 21
-33.260590000000001
 31
0.0
  0
LINE
  5
FF
  8
0
  6
CONTINUOUS
 62
     3
 10
108.18474000000001
 20
26.739409999999989
 30
0.0
 11
100.18474000000001
 21
26.739409999999989
 31
0.0
  0
LINE
  5
100
  8
0
  6
CONTINUOUS
 62
     3
 10
105.18473999999991
 20
37.739409999999999
 30
0.0
 11
78.184737999999996
 21
37.739409999999999
 31
0.0
  0
LINE
  5
101
  8
0
  6
CONTINUOUS
 62
     3
 10
78.18474599999999
 20
56.739409999999999
 30
0.0
 11
78.18474599999999
 21
37.739409999999999
 31
0.0
  0
LINE
  5
102
  8
0
  6
CONTINUOUS
 62
     3
 10
105.18473999999991
 20
56.739409999999999
 30
0.0
 11
105.18473999999991
 21
26.739409999999989
 31
0.0
  0
LINE
  5
103
  8
0
  6
CONTINUOUS
 62
     7
 10
-191.0
 20
173.0
 30
0.0
 11
-191.0
 21
77.0
 31
0.0
  0
LINE
  5
104
  8
0
  6
CONTINUOUS
 62
     7
 10
-211.0
 20
165.0
 30
0.0
 11
-96.0
 21
165.0
 31
0.0
  0
LINE
  5
105
  8
0
  6
CONTINUOUS
 62
     7
 10
-211.0
 20
157.0
 30
0.0
 11
-96.0
 21
157.0
 31
0.0
  0
LINE
  5
106
  8
0
  6
CONTINUOUS
 62
     7
 10
-211.0
 20
149.0
 30
0.0
 11
-96.0
 21
149.0
 31
0.0
  0
LINE
  5
107
  8
0
  6
CONTINUOUS
 62
     7
 10
-211.0
 20
141.0
 30
0.0
 11
-96.0
 21
141.0
 31
0.0
  0
LINE
  5
108
  8
0
  6
CONTINUOUS
 62
     7
 10
-191.0
 20
117.0
 30
0.0
 11
-96.0
 21
117.0
 31
0.0
  0
LINE
  5
109
  8
0
  6
CONTINUOUS
 62
     7
 10
-191.0
 20
109.0
 30
0.0
 11
-96.0
 21
109.0
 31
0.0
  0
LINE
  5
10A
  8
0
  6
CONTINUOUS
 62
     7
 10
-211.0
 20
101.0
 30
0.0
 11
-96.0
 21
101.0
 31
0.0
  0
LINE
  5
10B
  8
0
  6
CONTINUOUS
 62
     7
 10
-191.0
 20
93.0
 30
0.0
 11
-96.0
 21
93.0
 31
0.0
  0
LINE
  5
10C
  8
0
  6
CONTINUOUS
 62
     7
 10
-191.0
 20
85.0
 30
0.0
 11
-96.0
 21
85.0
 31
0.0
  0
LINE
  5
10D
  8
0
  6
CONTINUOUS
 62
     7
 10
-211.0
 20
77.0
 30
0.0
 11
-96.0
 21
77.0
 31
0.0
  0
LINE
  5
10E
  8
0
  6
CONTINUOUS
 62
     7
 10
-211.0
 20
133.0
 30
0.0
 11
-96.0
 21
133.0
 31
0.0
  0
LINE
  5
10F
  8
0
  6
CONTINUOUS
 62
     7
 10
-211.0
 20
125.0
 30
0.0
 11
-96.0
 21
125.0
 31
0.0
  0
LINE
  5
110
  8
0
  6
CONTINUOUS
 62
     7
 10
-191.0
 20
117.0
 30
0.0
 11
-96.0
 21
117.0
 31
0.0
  0
LINE
  5
111
  8
0
  6
CENTER
 62
     7
 10
88.184746000000004
 20
49.739409999999992
 30
0.0
 11
88.184746000000004
 21
39.739409999999992
 31
0.0
  0
LINE
  5
112
  8
0
  6
CENTER
 62
     7
 10
93.184746000000004
 20
44.739409999999992
 30
0.0
 11
83.184746000000004
 21
44.739409999999992
 31
0.0
  0
LINE
  5
113
  8
0
  6
CENTER
 62
     7
 10
96.184745999999976
 20
49.739409999999992
 30
0.0
 11
96.184745999999976
 21
39.739409999999992
 31
0.0
  0
LINE
  5
114
  8
0
  6
CENTER
 62
     7
 10
101.18474999999999
 20
44.739409999999992
 30
0.0
 11
91.184745999999976
 21
44.739409999999992
 31
0.0
  0
LINE
  5
115
  8
0
  6
CONTINUOUS
 62
     7
 10
-76.520302000000001
 20
53.53940999999999
 30
0.0
 11
-6.0202936999999999
 21
53.53940999999999
 31
0.0
  0
LINE
  5
116
  8
0
  6
CENTER
 62
     7
 10
-82.720298999999983
 20
44.739409999999992
 30
0.0
 11
-72.720298999999983
 21
44.739409999999992
 31
0.0
  0
LINE
  5
117
  8
0
  6
DASHED
 62
     7
 10
-79.720298999999983
 20
42.739409999999992
 30
0.0
 11
-76.520302000000001
 21
42.739409999999992
 31
0.0
  0
LINE
  5
118
  8
0
  6
DASHED
 62
     7
 10
-79.720298999999983
 20
46.739409999999999
 30
0.0
 11
-76.520302000000001
 21
46.739409999999999
 31
0.0
  0
LINE
  5
119
  8
0
  6
DASHED
 62
     7
 10
-79.720298999999983
 20
43.039409999999997
 30
0.0
 11
-76.520302000000001
 21
43.039409999999997
 31
0.0
  0
LINE
  5
11A
  8
0
  6
DASHED
 62
     7
 10
-79.720298999999983
 20
46.439411
 30
0.0
 11
-76.520302000000001
 21
46.439411
 31
0.0
  0
LINE
  5
11B
  8
0
  6
DASHED
 62
     7
 10
-6.0202936999999999
 20
42.739409999999992
 30
0.0
 11
-2.8202940999999999
 21
42.739409999999992
 31
0.0
  0
LINE
  5
11C
  8
0
  6
DASHED
 62
     7
 10
-6.0202936999999999
 20
43.039409999999997
 30
0.0
 11
-2.8202940999999999
 21
43.039409999999997
 31
0.0
  0
LINE
  5
11D
  8
0
  6
CENTER
 62
     7
 10
-9.8202934000000006
 20
44.739409999999992
 30
0.0
 11
0.17970586
 21
44.739409999999992
 31
0.0
  0
LINE
  5
11E
  8
0
  6
DASHED
 62
     7
 10
-6.0202936999999999
 20
46.439411
 30
0.0
 11
-2.8202940999999999
 21
46.439411
 31
0.0
  0
LINE
  5
11F
  8
0
  6
DASHED
 62
     7
 10
-6.0202936999999999
 20
46.739409999999999
 30
0.0
 11
-2.8202940999999999
 21
46.739409999999999
 31
0.0
  0
LINE
  5
120
  8
0
  6
CONTINUOUS
 62
     7
 10
-76.520302000000001
 20
53.53940999999999
 30
0.0
 11
-76.520302000000001
 21
-33.260590000000001
 31
0.0
  0
LINE
  5
121
  8
0
  6
CONTINUOUS
 62
     7
 10
-6.0202936999999999
 20
53.53940999999999
 30
0.0
 11
-6.0202936999999999
 21
-33.260590000000001
 31
0.0
  0
LINE
  5
122
  8
0
  6
CONTINUOUS
 62
     7
 10
-96.0
 20
173.0
 30
0.0
 11
-96.0
 21
77.0
 31
0.0
  0
LINE
  5
123
  8
0
  6
CENTER
 62
     7
 10
-41.27029799999999
 20
29.239411999999991
 30
0.0
 11
-41.27029799999999
 21
2.2394123000000001
 31
0.0
  0
LINE
  5
124
  8
0
  6
CENTER
 62
     7
 10
-54.770297999999997
 20
15.739412
 30
0.0
 11
-27.77029799999999
 21
15.739412
 31
0.0
  0
LINE
  5
125
  8
0
  6
CENTER
 62
     7
 10
-41.27029799999999
 20
4.2394117999999992
 30
0.0
 11
-41.27029799999999
 21
-22.760587999999998
 31
0.0
  0
LINE
  5
126
  8
0
  6
CENTER
 62
     7
 10
-54.770297999999997
 20
-9.2605876999999985
 30
0.0
 11
-27.77029799999999
 21
-9.2605876999999985
 31
0.0
  0
ARC
  5
127
  8
0
  6
CONTINUOUS
 62
     3
 10
-66.270302000000001
 20
-13.260589
 30
0.0
 40
2.75
 50
0.0
 51
179.99995999999999
  0
ARC
  5
128
  8
0
  6
CONTINUOUS
 62
     3
 10
-66.270302000000001
 20
-25.260590000000001
 30
0.0
 40
2.75
 50
179.99995999999999
 51
0.0
  0
ARC
  5
129
  8
0
  6
CONTINUOUS
 62
     3
 10
-16.270298
 20
-13.260589
 30
0.0
 40
2.75
 50
0.0
 51
179.99995999999999
  0
ARC
  5
12A
  8
0
  6
CONTINUOUS
 62
     3
 10
-16.270298
 20
-25.260590000000001
 30
0.0
 40
2.75
 50
179.99995999999999
 51
0.0
  0
ARC
  5
12B
  8
0
  6
CONTINUOUS
 62
     3
 10
-41.27029799999999
 20
15.739412
 30
0.0
 40
10.5
 50
0.0
 51
179.99995999999999
  0
ARC
  5
12C
  8
0
  6
CONTINUOUS
 62
     3
 10
-41.27029799999999
 20
-9.2605876999999985
 30
0.0
 40
10.5
 50
179.99997999999991
 51
0.0
  0
ARC
  5
12D
  8
0
  6
CONTINUOUS
 62
     3
 10
-77.720298999999983
 20
54.739409999999992
 30
0.0
 40
2.0
 50
90.0
 51
180.0
  0
ARC
  5
12E
  8
0
  6
CONTINUOUS
 62
     3
 10
-4.8202939000000002
 20
54.739409999999992
 30
0.0
 40
2.0
 50
0.0
 51
89.999985999999993
  0
ARC
  5
12F
  8
0
  6
CONTINUOUS
 62
     3
 10
106.18473999999991
 20
54.739409999999992
 30
0.0
 40
2.0
 50
0.0
 51
90.0
  0
CIRCLE
  5
130
  8
0
  6
CONTINUOUS
 62
     7
 10
88.184746000000004
 20
44.739409999999992
 30
0.0
 40
2.0
  0
CIRCLE
  5
131
  8
0
  6
CONTINUOUS
 62
     7
 10
88.184746000000004
 20
44.739409999999992
 30
0.0
 40
1.7
  0
CIRCLE
  5
132
  8
0
  6
CONTINUOUS
 62
     7
 10
86.801979000000017
 20
46.184382999999997
 30
0.0
 40
0.4000000100000001
  0
CIRCLE
  5
133
  8
0
  6
CONTINUOUS
 62
     7
 10
96.184745999999976
 20
44.739409999999992
 30
0.0
 40
2.0
  0
CIRCLE
  5
134
  8
0
  6
CONTINUOUS
 62
     7
 10
96.184745999999976
 20
44.739409999999992
 30
0.0
 40
1.7
  0
TEXT
  5
135
  8
0
  6
CONTINUOUS
 62
     7
 10
-205.34299999999999
 20
167.40000000000001
 30
0.0
 40
3.2000000000000002
  1
品　名
 41
0.85537027
  0
TEXT
  5
136
  8
0
  6
CONTINUOUS
 62
     7
 10
-205.34299999999999
 20
159.40000000000001
 30
0.0
 40
3.2000000000000002
  1
品　番
 41
0.85537027
  0
TEXT
  5
137
  8
0
  6
CONTINUOUS
 62
     7
 10
-188.14299999999989
 20
167.40000000000001
 30
0.0
 40
3.2000000000000002
  1
マグネット受け取付プレート
 41
0.8435012200000001
  0
TEXT
  5
138
  8
0
  6
CONTINUOUS
 62
     7
 10
-205.34299999999999
 20
151.40000000000001
 30
0.0
 40
3.2000000000000002
  1
材　質
 41
0.85537027
  0
TEXT
  5
139
  8
0
  6
CONTINUOUS
 62
     7
 10
-205.34299999999999
 20
143.40000000000001
 30
0.0
 40
3.2000000000000002
  1
仕上げ
 41
0.85537027
  0
TEXT
  5
13A
  8
0
  6
CONTINUOUS
 62
     7
 10
-208.54300000000001
 20
119.40000000000001
 30
0.0
 40
3.2000000000000002
  1
セットビス
 41
0.84892707
  0
TEXT
  5
13B
  8
0
  6
CONTINUOUS
 62
     7
 10
-188.14299999999989
 20
143.40000000000001
 30
0.0
 40
3.2000000000000002
  1
有色クロメート
 41
0.84634979
  0
TEXT
  5
13C
  8
0
  6
CONTINUOUS
 62
     7
 10
-203.74299999999999
 20
95.400000000000006
 30
0.0
 40
3.2000000000000002
  1
備考
 41
0.8643907499999999
  0
TEXT
  5
13D
  8
0
  6
CONTINUOUS
 62
     7
 10
-188.14299999999989
 20
151.40000000000001
 30
0.0
 40
3.2000000000000002
  1
スチール
 41
0.8512700499999999
  0
TEXT
  5
13E
  8
0
  6
CONTINUOUS
 62
     7
 10
-188.14299999999989
 20
159.40000000000001
 30
0.0
 40
3.2000000000000002
  1
ＳＢ－１０３
 41
0.84741102
  0
TEXT
  5
13F
  8
0
  6
CONTINUOUS
 62
     7
 10
-205.34299999999999
 20
135.40000000000001
 30
0.0
 40
3.2000000000000002
  1
定　尺
 41
0.85537027
  0
TEXT
  5
140
  8
0
  6
CONTINUOUS
 62
     7
 10
-206.9429999999999
 20
127.40000000000001
 30
0.0
 40
3.2000000000000002
  1
左右勝手
 41
0.8512700499999999
  0
DIMENSION
  5
143
  8
0
  6
CONTINUOUS
 62
     7
  2
*D2
 10
100.18474000000001
 20
-48.260590000000001
 30
0.0
 11
104.18473999999991
 21
-48.260590000000001
 31
0.0
 13
108.18474000000001
 23
-33.260590000000001
 33
0.0
 14
100.18474999999999
 24
-33.260590000000001
 34
0.0
1001
ACAD
1000
DSTYLE
1002
{
1070
    77
1070
     1
1070
   172
1070
     1
1002
}
  0
DIMENSION
  5
144
  8
0
  6
CONTINUOUS
 62
     7
  2
*D3
 10
63.184745999999997
 20
44.739409999999992
 30
0.0
 11
63.184745999999997
 21
41.239409999999999
 31
0.0
 13
78.184737999999996
 23
37.739409999999999
 33
0.0
 14
84.184737999999996
 24
44.739409999999992
 34
0.0
 50
90.0
1001
ACAD
1000
DSTYLE
1002
{
1070
    77
1070
     1
1070
   172
1070
     1
1002
}
  0
DIMENSION
  5
145
  8
0
  6
CONTINUOUS
 62
     7
  2
*D4
 10
63.184745999999997
 20
44.739409999999992
 30
0.0
 11
63.184745999999997
 21
50.739409999999999
 31
0.0
 13
78.184737999999996
 23
56.739409999999999
 33
0.0
 14
84.184737999999996
 24
44.739409999999992
 34
0.0
 50
90.0
1001
ACAD
1000
DSTYLE
1002
{
1070
    77
1070
     1
1070
   172
1070
     1
1070
    76
1070
     1
1002
}
  0
DIMENSION
  5
146
  8
0
  6
CONTINUOUS
 62
     7
  2
*D5
 10
53.184745999999997
 20
37.739409999999999
 30
0.0
 11
53.184745999999997
 21
47.239409999999992
 31
0.0
 13
78.184737999999996
 23
56.739409999999999
 33
0.0
 14
78.184737999999996
 24
37.739409999999999
 34
0.0
 50
90.0
1001
ACAD
1000
DSTYLE
1002
{
1070
    77
1070
     1
1070
   172
1070
     1
1002
}
  0
DIMENSION
  5
147
  8
0
  6
CONTINUOUS
 62
     7
  2
*D6
 10
96.184745999999976
 20
66.739409999999992
 30
0.0
 11
102.18473999999991
 21
66.739409999999992
 31
0.0
 13
108.18474000000001
 23
54.739409999999992
 33
0.0
 14
96.184745999999976
 24
48.739409999999999
 34
0.0
1001
ACAD
1000
DSTYLE
1002
{
1070
    77
1070
     1
1070
   172
1070
     1
1002
}
  0
DIMENSION
  5
148
  8
0
  6
CONTINUOUS
 62
     7
  2
*D7
 10
88.184746000000004
 20
66.739409999999992
 30
0.0
 11
92.184745999999976
 21
66.739409999999992
 31
0.0
 13
96.184745999999976
 23
48.739409999999999
 33
0.0
 14
88.184746000000004
 24
48.739409999999999
 34
0.0
1001
ACAD
1000
DSTYLE
1002
{
1070
    77
1070
     1
1070
   172
1070
     1
1070
    75
1070
     1
1002
}
  0
DIMENSION
  5
149
  8
0
  6
CONTINUOUS
 62
     7
  2
*D8
 10
78.18474599999999
 20
66.739409999999992
 30
0.0
 11
83.184737999999996
 21
66.739409999999992
 31
0.0
 13
88.184746000000004
 23
48.739409999999999
 33
0.0
 14
78.18474599999999
 24
56.739409999999999
 34
0.0
1001
ACAD
1000
DSTYLE
1002
{
1070
    77
1070
     1
1070
   172
1070
     1
1070
    75
1070
     1
1002
}
  0
DIMENSION
  5
14A
  8
0
  6
CONTINUOUS
 62
     7
  2
*D9
 10
78.18474599999999
 20
76.739409999999992
 30
0.0
 11
93.184737999999996
 21
76.739409999999992
 31
0.0
 13
108.18474000000001
 23
54.739409999999992
 33
0.0
 14
78.18474599999999
 24
56.739409999999999
 34
0.0
1001
ACAD
1000
DSTYLE
1002
{
1070
    77
1070
     1
1070
   172
1070
     1
1002
}
  0
DIMENSION
  5
14B
  8
0
  6
CONTINUOUS
 62
     7
  2
*D10
 10
12.179705999999999
 20
-19.260587999999998
 30
0.0
 11
12.179705999999999
 21
-26.260587999999998
 31
0.0
 13
-2.8202940999999999
 23
-33.260590000000001
 33
0.0
 14
-10.270299
 24
-19.260587999999998
 34
0.0
 50
90.0
1001
ACAD
1000
DSTYLE
1002
{
1070
    77
1070
     1
1070
   172
1070
     1
1002
}
  0
DIMENSION
  5
14C
  8
0
  6
CONTINUOUS
 62
     7
  2
*D11
 10
12.179705999999999
 20
56.739409999999999
 30
0.0
 11
12.179705999999999
 21
18.739409999999999
 31
0.0
 13
-10.270299
 23
-19.260587999999998
 33
0.0
 14
-4.8202939000000002
 24
56.739409999999999
 34
0.0
 50
90.0
1001
ACAD
1000
DSTYLE
1002
{
1070
    77
1070
     1
1070
   172
1070
     1
1070
    75
1070
     1
1002
}
  0
DIMENSION
  5
14D
  8
0
  6
CONTINUOUS
 62
     7
  2
*D12
 10
22.17970699999999
 20
56.739409999999999
 30
0.0
 11
22.17970699999999
 21
11.739411
 31
0.0
 13
-2.8202940999999999
 23
-33.260590000000001
 33
0.0
 14
-4.8202939000000002
 24
56.739409999999999
 34
0.0
 50
90.0
1001
ACAD
1000
DSTYLE
1002
{
1070
    77
1070
     1
1070
   172
1070
     1
1002
}
  0
DIMENSION
  5
14E
  8
0
  6
CONTINUOUS
 62
     7
  2
*D13
 10
-2.8202940999999999
 20
-58.260590000000001
 30
0.0
 11
-41.27029799999999
 21
-58.260590000000001
 31
0.0
 13
-79.720298999999983
 23
-33.260590000000001
 33
0.0
 14
-2.8202940999999999
 24
-33.260590000000001
 34
0.0
1001
ACAD
1000
DSTYLE
1002
{
1070
    77
1070
     1
1070
   172
1070
     1
1002
}
  0
DIMENSION
  5
14F
  8
0
  6
CONTINUOUS
 62
     7
  2
*D14
 10
-16.270298
 20
-48.260590000000001
 30
0.0
 11
-41.270302000000001
 21
-48.260590000000001
 31
0.0
 13
-66.270302000000001
 23
-31.760587999999998
 33
0.0
 14
-16.270298
 24
-31.760587999999998
 34
0.0
1001
ACAD
1000
DSTYLE
1002
{
1070
    77
1070
     1
1070
   172
1070
     1
1002
}
  0
INSERT
  5
150
  8
0
  6
CONTINUOUS
 62
     7
  2
KOZU0001
 10
-66.270302000000001
 20
-19.260587999999998
 30
0.0
  0
INSERT
  5
151
  8
0
  6
CONTINUOUS
 62
     7
  2
*D15
 10
0.0
 20
0.0
 30
0.0
  0
TEXT
  5
153
  8
0
  6
CONTINUOUS
 62
     7
 10
-188.14299999999989
 20
95.400000000000006
 30
0.0
 40
3.2000000000000002
  1
トリム８０　セット販売品
 41
0.84634979
  0
ENDSEC
  0
EOF
