  0
SECTION
  2
HEADER
  9
$ACADVER
  1
AC1015
  9
$ACADMAINTVER
 70
    20
  9
$DWGCODEPAGE
  3
ANSI_932
  9
$INSBASE
 10
0.0
 20
0.0
 30
0.0
  9
$EXTMIN
 10
1452.066621879342
 20
1357.971445804835
 30
-0.0015258207003583
  9
$EXTMAX
 10
2046.103636997045
 20
1777.99708057049
 30
0.0000000349246037
  9
$LIMMIN
 10
1452.093689170056
 20
1357.984262209774
  9
$LIMMAX
 10
2046.093689170056
 20
1777.984262209774
  9
$ORTHOMODE
 70
     0
  9
$REGENMODE
 70
     1
  9
$FILLMODE
 70
     1
  9
$QTEXTMODE
 70
     0
  9
$MIRRTEXT
 70
     0
  9
$LTSCALE
 40
1.0
  9
$ATTMODE
 70
     1
  9
$TEXTSIZE
 40
3.2
  9
$TRACEWID
 40
1.0
  9
$TEXTSTYLE
  7
STANDARD
  9
$CLAYER
  8
AM_0
  9
$CELTYPE
  6
ByLayer
  9
$CECOLOR
 62
   256
  9
$CELTSCALE
 40
1.0
  9
$DISPSILH
 70
     0
  9
$DIMSCALE
 40
1.0
  9
$DIMASZ
 40
1.0
  9
$DIMEXO
 40
1.0
  9
$DIMDLI
 40
10.0
  9
$DIMRND
 40
0.0
  9
$DIMDLE
 40
0.0
  9
$DIMEXE
 40
1.0
  9
$DIMTP
 40
0.1
  9
$DIMTM
 40
0.1
  9
$DIMTXT
 40
3.5
  9
$DIMCEN
 40
0.0
  9
$DIMTSZ
 40
0.0
  9
$DIMTOL
 70
     0
  9
$DIMLIM
 70
     0
  9
$DIMTIH
 70
     0
  9
$DIMTOH
 70
     0
  9
$DIMSE1
 70
     0
  9
$DIMSE2
 70
     0
  9
$DIMTAD
 70
     1
  9
$DIMZIN
 70
     8
  9
$DIMBLK
  1

  9
$DIMASO
 70
     1
  9
$DIMSHO
 70
     1
  9
$DIMPOST
  1

  9
$DIMAPOST
  1
"
  9
$DIMALT
 70
     0
  9
$DIMALTD
 70
     2
  9
$DIMALTF
 40
0.0393701
  9
$DIMLFAC
 40
1.0
  9
$DIMTOFL
 70
     1
  9
$DIMTVP
 40
0.0
  9
$DIMTIX
 70
     0
  9
$DIMSOXD
 70
     0
  9
$DIMSAH
 70
     0
  9
$DIMBLK1
  1

  9
$DIMBLK2
  1

  9
$DIMSTYLE
  2
SYS
  9
$DIMCLRD
 70
   256
  9
$DIMCLRE
 70
   256
  9
$DIMCLRT
 70
     7
  9
$DIMTFAC
 40
0.71
  9
$DIMGAP
 40
1.5
  9
$DIMJUST
 70
     0
  9
$DIMSD1
 70
     0
  9
$DIMSD2
 70
     0
  9
$DIMTOLJ
 70
     0
  9
$DIMTZIN
 70
     8
  9
$DIMALTZ
 70
     0
  9
$DIMALTTZ
 70
     0
  9
$DIMUPT
 70
     0
  9
$DIMDEC
 70
     2
  9
$DIMTDEC
 70
     2
  9
$DIMALTU
 70
     2
  9
$DIMALTTD
 70
     2
  9
$DIMTXSTY
  7
STANDARD
  9
$DIMAUNIT
 70
     0
  9
$DIMADEC
 70
     0
  9
$DIMALTRND
 40
0.0
  9
$DIMAZIN
 70
     2
  9
$DIMDSEP
 70
    46
  9
$DIMATFIT
 70
     3
  9
$DIMFRAC
 70
     0
  9
$DIMLDRBLK
  1

  9
$DIMLUNIT
 70
     2
  9
$DIMLWD
 70
    -1
  9
$DIMLWE
 70
    -1
  9
$DIMTMOVE
 70
     0
  9
$LUNITS
 70
     2
  9
$LUPREC
 70
     2
  9
$SKETCHINC
 40
1.0
  9
$FILLETRAD
 40
0.0
  9
$AUNITS
 70
     0
  9
$AUPREC
 70
     0
  9
$MENU
  1
.
  9
$ELEVATION
 40
0.0
  9
$PELEVATION
 40
0.0
  9
$THICKNESS
 40
0.0
  9
$LIMCHECK
 70
     0
  9
$CHAMFERA
 40
0.0
  9
$CHAMFERB
 40
0.0
  9
$CHAMFERC
 40
20.0
  9
$CHAMFERD
 40
0.0
  9
$SKPOLY
 70
     0
  9
$TDCREATE
 40
2455349.629248217
  9
$TDUCREATE
 40
2455349.254248218
  9
$TDUPDATE
 40
2455349.712552257
  9
$TDUUPDATE
 40
2455349.337552257
  9
$TDINDWG
 40
0.0617583449
  9
$TDUSRTIMER
 40
0.0617581713
  9
$USRTIMER
 70
     1
  9
$ANGBASE
 50
0.0
  9
$ANGDIR
 70
     0
  9
$PDMODE
 70
     0
  9
$PDSIZE
 40
-3.0
  9
$PLINEWID
 40
0.0
  9
$SPLFRAME
 70
     0
  9
$SPLINETYPE
 70
     6
  9
$SPLINESEGS
 70
     8
  9
$HANDSEED
  5
CF22
  9
$SURFTAB1
 70
     6
  9
$SURFTAB2
 70
     6
  9
$SURFTYPE
 70
     6
  9
$SURFU
 70
     6
  9
$SURFV
 70
     6
  9
$UCSBASE
  2

  9
$UCSNAME
  2

  9
$UCSORG
 10
0.0
 20
0.0
 30
0.0
  9
$UCSXDIR
 10
1.0
 20
0.0
 30
0.0
  9
$UCSYDIR
 10
0.0
 20
1.0
 30
0.0
  9
$UCSORTHOREF
  2

  9
$UCSORTHOVIEW
 70
     0
  9
$UCSORGTOP
 10
0.0
 20
0.0
 30
0.0
  9
$UCSORGBOTTOM
 10
0.0
 20
0.0
 30
0.0
  9
$UCSORGLEFT
 10
0.0
 20
0.0
 30
0.0
  9
$UCSORGRIGHT
 10
0.0
 20
0.0
 30
0.0
  9
$UCSORGFRONT
 10
0.0
 20
0.0
 30
0.0
  9
$UCSORGBACK
 10
0.0
 20
0.0
 30
0.0
  9
$PUCSBASE
  2

  9
$PUCSNAME
  2

  9
$PUCSORG
 10
0.0
 20
0.0
 30
0.0
  9
$PUCSXDIR
 10
1.0
 20
0.0
 30
0.0
  9
$PUCSYDIR
 10
0.0
 20
1.0
 30
0.0
  9
$PUCSORTHOREF
  2

  9
$PUCSORTHOVIEW
 70
     0
  9
$PUCSORGTOP
 10
0.0
 20
0.0
 30
0.0
  9
$PUCSORGBOTTOM
 10
0.0
 20
0.0
 30
0.0
  9
$PUCSORGLEFT
 10
0.0
 20
0.0
 30
0.0
  9
$PUCSORGRIGHT
 10
0.0
 20
0.0
 30
0.0
  9
$PUCSORGFRONT
 10
0.0
 20
0.0
 30
0.0
  9
$PUCSORGBACK
 10
0.0
 20
0.0
 30
0.0
  9
$USERI1
 70
     0
  9
$USERI2
 70
     0
  9
$USERI3
 70
     0
  9
$USERI4
 70
     0
  9
$USERI5
 70
     0
  9
$USERR1
 40
0.0
  9
$USERR2
 40
0.0
  9
$USERR3
 40
0.0
  9
$USERR4
 40
0.0
  9
$USERR5
 40
0.0
  9
$WORLDVIEW
 70
     1
  9
$SHADEDGE
 70
     3
  9
$SHADEDIF
 70
    70
  9
$TILEMODE
 70
     1
  9
$MAXACTVP
 70
    64
  9
$PINSBASE
 10
0.0
 20
0.0
 30
0.0
  9
$PLIMCHECK
 70
     0
  9
$PEXTMIN
 10
1.000000000000000E+20
 20
1.000000000000000E+20
 30
1.000000000000000E+20
  9
$PEXTMAX
 10
-1.000000000000000E+20
 20
-1.000000000000000E+20
 30
-1.000000000000000E+20
  9
$PLIMMIN
 10
-3.17498779296875
 20
-3.174999952316284
  9
$PLIMMAX
 10
293.4970092773438
 20
206.692492723465
  9
$UNITMODE
 70
     0
  9
$VISRETAIN
 70
     1
  9
$PLINEGEN
 70
     0
  9
$PSLTSCALE
 70
     1
  9
$TREEDEPTH
 70
  3020
  9
$CMLSTYLE
  2
Standard
  9
$CMLJUST
 70
     0
  9
$CMLSCALE
 40
20.0
  9
$PROXYGRAPHICS
 70
     1
  9
$MEASUREMENT
 70
     1
  9
$CELWEIGHT
370
    -1
  9
$ENDCAPS
280
     0
  9
$JOINSTYLE
280
     0
  9
$LWDISPLAY
290
     0
  9
$INSUNITS
 70
     4
  9
$HYPERLINKBASE
  1

  9
$STYLESHEET
  1
monochrome.ctb
  9
$XEDIT
290
     1
  9
$CEPSNTYPE
380
     0
  9
$PSTYLEMODE
290
     1
  9
$FINGERPRINTGUID
  2
{70D444A6-41FE-4489-BEA8-DED29400E87D}
  9
$VERSIONGUID
  2
{04B8CA4C-48AE-4209-9CC1-943223F99113}
  9
$EXTNAMES
290
     1
  9
$PSVPSCALE
 40
0.0
  9
$OLESTARTUP
290
     0
  0
ENDSEC
  0
SECTION
  2
CLASSES
  0
CLASS
  1
ACDBDICTIONARYWDFLT
  2
AcDbDictionaryWithDefault
  3
ObjectDBX Classes
 90
        0
280
     0
281
     0
  0
CLASS
  1
ACDBPLACEHOLDER
  2
AcDbPlaceHolder
  3
ObjectDBX Classes
 90
        0
280
     0
281
     0
  0
CLASS
  1
LAYOUT
  2
AcDbLayout
  3
ObjectDBX Classes
 90
        0
280
     0
281
     0
  0
CLASS
  1
AMGSETTINGSOBJ
  2
AmgSettingsObj
  3
"AcadM|Product Description: AutoCAD Mechanical|Company: Autodesk"
 90
        0
280
     0
281
     0
  0
CLASS
  1
ACME_DOCUMENT
  2
AcMeDbDoc
  3
AcMeServices
 90
        0
280
     0
281
     0
  0
CLASS
  1
ACMESCOPE
  2
AcMeScope
  3
AcMeServices
 90
        0
280
     0
281
     0
  0
CLASS
  1
ACMECOMMANDHISTORY
  2
AcMeCommandHistory
  3
AcMeServices
 90
        0
280
     0
281
     0
  0
CLASS
  1
DICTIONARYVAR
  2
AcDbDictionaryVar
  3
ObjectDBX Classes
 90
        0
280
     0
281
     0
  0
CLASS
  1
ACIMSYSVARMAN
  2
AcImSysVarManager
  3
AcMeServices
 90
        0
280
     0
281
     0
  0
CLASS
  1
ACIMREALSYSVAR
  2
AcImRealSysVar
  3
AcMeServices
 90
        0
280
     0
281
     0
  0
CLASS
  1
ACIMINTSYSVAR
  2
AcImIntSysVar
  3
AcMeServices
 90
        0
280
     0
281
     0
  0
CLASS
  1
ACMEDRAWINGMAN
  2
AcMeDrawingMan
  3
AcMeServices
 90
        0
280
     0
281
     0
  0
CLASS
  1
ACMEVIEW
  2
AcMeView
  3
AcMeServices
 90
        0
280
     0
281
     0
  0
CLASS
  1
ACDBENTITYCACHE
  2
AcMeEntityCache
  3
AcMeServices
 90
        0
280
     0
281
     0
  0
CLASS
  1
GSMANAGER
  2
AcMeGSManager
  3
AcMeServices
 90
        0
280
     0
281
     0
  0
CLASS
  1
AMDTINTERNALREACTOR
  2
AmdtInternalReactor
  3
AcMeServices
 90
        0
280
     0
281
     0
  0
CLASS
  1
ACMESTATEMGR
  2
AcMeStateMgr
  3
AcMeServices
 90
        0
280
     0
281
     0
  0
CLASS
  1
ACGREFMASTER
  2
AcGrefMaster
  3
AcAttribServices
 90
        0
280
     0
281
     0
  0
CLASS
  1
ACME_DATABASE
  2
AcMeDbDatabase
  3
AcMeServices
 90
        0
280
     0
281
     0
  0
CLASS
  1
ACRFINSADJUSTERMGR
  2
AcRfInsAdjusterMgr
  3
AcMeServices
 90
        0
280
     0
281
     0
  0
CLASS
  1
ACGREFACADMASTER
  2
AcGrefacadMaster
  3
AcGrefServices
 90
        0
280
     0
281
     0
  0
CLASS
  1
AMIMASTER
  2
AmiMaster
  3
AmiServices
 90
        0
280
     0
281
     0
  0
CLASS
  1
ACMDATADICTIONARY
  2
AcmDataDictionary
  3
"AcmSymBB|Product Description: AutoCAD Mechanical|Company: Autodesk"
 90
        0
280
     0
281
     0
  0
CLASS
  1
ACMDATAENTRYBLOCK
  2
AcmDataEntryBlock
  3
"AcmSymBB|Product Description: AutoCAD Mechanical|Company: Autodesk"
 90
        0
280
     0
281
     0
  0
CLASS
  1
ACIMSTRSYSVAR
  2
AcImStrSysVar
  3
AcMeServices
 90
        0
280
     0
281
     0
  0
CLASS
  1
ACMSTANDARDISO
  2
AcmStandardISO
  3
"Amdt_StdImp|Product Description: AutoCAD Mechanical|Company: Autodesk"
 90
        0
280
     0
281
     0
  0
CLASS
  1
AMGOBJPROPCFG
  2
AmgObjPropCfg
  3
"AmgLay|Product Description: AutoCAD Mechanical|Company: Autodesk"
 90
        1
280
     0
281
     0
  0
CLASS
  1
AMDTEDGESTANDARDISO
  2
AmdtEdgeStdISO
  3
"Amdt_StdImp|Product Description: AutoCAD Mechanical|Company: Autodesk"
 90
        0
280
     0
281
     0
  0
CLASS
  1
ACMSURFSTANDARDISO
  2
AcmSurfTextStdISO
  3
"Amdt_StdImp|Product Description: AutoCAD Mechanical|Company: Autodesk"
 90
        0
280
     0
281
     0
  0
CLASS
  1
ACMFCFSTANDARDISO
  2
AcmFCFStdISO
  3
"Amdt_StdImp|Product Description: AutoCAD Mechanical|Company: Autodesk"
 90
        0
280
     0
281
     0
  0
CLASS
  1
ACMWELDSTANDARDISO
  2
AcmWeldingStdISO
  3
"Amdt_StdImp|Product Description: AutoCAD Mechanical|Company: Autodesk"
 90
        0
280
     0
281
     0
  0
CLASS
  1
ACMIDSTANDARDISO
  2
AcmIdStdISO
  3
"Amdt_StdImp|Product Description: AutoCAD Mechanical|Company: Autodesk"
 90
        0
280
     0
281
     0
  0
CLASS
  1
ACMDATUMSTANDARDISO
  2
AcmDatumStdISO
  3
"Amdt_StdImp|Product Description: AutoCAD Mechanical|Company: Autodesk"
 90
        0
280
     0
281
     0
  0
CLASS
  1
ACMBOMSTANDARDISO
  2
AcmBOMStdISO
  3
"Amdt_StdImp|Product Description: AutoCAD Mechanical|Company: Autodesk"
 90
        0
280
     0
281
     0
  0
CLASS
  1
ACMDETAILSTANDARDISO
  2
AmdtDetailSymStdISO
  3
"Amdt_StdImp|Product Description: AutoCAD Mechanical|Company: Autodesk"
 90
        0
280
     0
281
     0
  0
CLASS
  1
ACMSECTIONSTANDARDISO
  2
AmdtSectionSymStdISO
  3
"Amdt_StdImp|Product Description: AutoCAD Mechanical|Company: Autodesk"
 90
        0
280
     0
281
     0
  0
CLASS
  1
ACMCENTERLINESTANDARDISO
  2
AmdtCenterLineStdISO
  3
"Amdt_StdImp|Product Description: AutoCAD Mechanical|Company: Autodesk"
 90
        0
280
     0
281
     0
  0
CLASS
  1
ACAMGLAYSTD
  2
AcAmgLayStd
  3
"AmgLay|Product Description: AutoCAD Mechanical|Company: Autodesk"
 90
        0
280
     0
281
     0
  0
CLASS
  1
ACAMGDIMSTD
  2
AcAmgDimStd
  3
"AmgDim|Product Description: AutoCAD Mechanical|Company: Autodesk"
 90
        0
280
     0
281
     0
  0
CLASS
  1
ACAMGTITLESTD
  2
AcAmgTitleStd
  3
"AmgTitle|Product Description: AutoCAD Mechanical|Company: Autodesk"
 90
        0
280
     0
281
     0
  0
CLASS
  1
ACAMGFILTERDAT
  2
AcAmgFilterDat
  3
"AcadM|Product Description: AutoCAD Mechanical|Company: Autodesk"
 90
        0
280
     0
281
     0
  0
CLASS
  1
LAYER_INDEX
  2
AcDbLayerIndex
  3
ObjectDBX Classes
 90
    32768
280
     0
281
     0
  0
CLASS
  1
IDBUFFER
  2
AcDbIdBuffer
  3
ObjectDBX Classes
 90
    32768
280
     0
281
     0
  0
CLASS
  1
PLOTSETTINGS
  2
AcDbPlotSettings
  3
ObjectDBX Classes
 90
        0
280
     0
281
     0
  0
CLASS
  1
AMDTFORMULAUPDATEDISPATCHER
  2
AmdtFormulaUpdateDispatcher
  3
AcMeServices
 90
        0
280
     0
281
     0
  0
CLASS
  1
ACMSTANDARDANSI
  2
AcmStandardANSI
  3
"Amdt_StdImp|Product Description: AutoCAD Mechanical|Company: Autodesk"
 90
    32768
280
     0
281
     0
  0
CLASS
  1
ACMSURFSTANDARDANSI
  2
AcmSurfTextStdANSI
  3
"Amdt_StdImp|Product Description: AutoCAD Mechanical|Company: Autodesk"
 90
    32768
280
     0
281
     0
  0
CLASS
  1
ACMFCFSTANDARDANSI
  2
AcmFCFStdANSI
  3
"Amdt_StdImp|Product Description: AutoCAD Mechanical|Company: Autodesk"
 90
    32768
280
     0
281
     0
  0
CLASS
  1
ACMWELDSTANDARDANSI
  2
AcmWeldingStdANSI
  3
"Amdt_StdImp|Product Description: AutoCAD Mechanical|Company: Autodesk"
 90
    32768
280
     0
281
     0
  0
CLASS
  1
ACMIDSTANDARDANSI
  2
AcmIdStdANSI
  3
"Amdt_StdImp|Product Description: AutoCAD Mechanical|Company: Autodesk"
 90
    32768
280
     0
281
     0
  0
CLASS
  1
ACMDATUMSTANDARDANSI
  2
AcmDatumStdANSI
  3
"Amdt_StdImp|Product Description: AutoCAD Mechanical|Company: Autodesk"
 90
    32768
280
     0
281
     0
  0
CLASS
  1
ACMBOMSTANDARDANSI
  2
AcmBOMStdANSI
  3
"Amdt_StdImp|Product Description: AutoCAD Mechanical|Company: Autodesk"
 90
    32768
280
     0
281
     0
  0
CLASS
  1
ACMDETAILSTANDARDANSI
  2
AmdtDetailSymStdANSI
  3
"Amdt_StdImp|Product Description: AutoCAD Mechanical|Company: Autodesk"
 90
    32768
280
     0
281
     0
  0
CLASS
  1
ACMSECTIONSTANDARDANSI
  2
AmdtSectionSymStdANSI
  3
"Amdt_StdImp|Product Description: AutoCAD Mechanical|Company: Autodesk"
 90
    32768
280
     0
281
     0
  0
CLASS
  1
ACMCENTERLINESTANDARDANSI
  2
AmdtCenterLineStdANSI
  3
"Amdt_StdImp|Product Description: AutoCAD Mechanical|Company: Autodesk"
 90
    32768
280
     0
281
     0
  0
CLASS
  1
ACMBOM
  2
AcmBom
  3
"AcmSymBB|Product Description: AutoCAD Mechanical|Company: Autodesk"
 90
        0
280
     0
281
     0
  0
CLASS
  1
ACMDATAENTRYPART
  2
AcmDataEntryPart
  3
"AcmSymBB|Product Description: AutoCAD Mechanical|Company: Autodesk"
 90
    32768
280
     0
281
     0
  0
CLASS
  1
ACMPARTREF
  2
AcmPartRef
  3
"AcmSymBB|Product Description: AutoCAD Mechanical|Company: Autodesk"
 90
    35839
280
     0
281
     1
  0
CLASS
  1
ACDBCIRCARCRES
  2
AcDbCircArcRes
  3
AcGrefServices
 90
    32768
280
     0
281
     0
  0
CLASS
  1
ACMBOMROW
  2
AcmBomRow
  3
"AcmSymBB|Product Description: AutoCAD Mechanical|Company: Autodesk"
 90
    32768
280
     0
281
     0
  0
CLASS
  1
ACMBALLOON
  2
AcmBalloon
  3
"AcmSymBB|Product Description: AutoCAD Mechanical|Company: Autodesk"
 90
    35839
280
     0
281
     1
  0
CLASS
  1
AMDTNOTE
  2
AmdtNote
  3
"AcmSymBB|Product Description: AutoCAD Mechanical|Company: Autodesk"
 90
    35839
280
     0
281
     1
  0
CLASS
  1
STDPART2D
  2
AmgStdPart
  3
"g3vace|Class: AmgStdPart|Product Description: AutoCAD Mechanical|Company: Autodesk"
 90
    35839
280
     0
281
     1
  0
CLASS
  1
ACDBSTDPARTRES_LINE
  2
AcDbStdPartRes_Line
  3
"g3vace|Class: AcDbStdPartRes_Line|Product Description: AutoCAD Mechanical|Company: Autodesk"
 90
    32768
280
     0
281
     0
  0
CLASS
  1
ACMDATAENTRY
  2
AcmDataEntry
  3
"AcmSymBB|Product Description: AutoCAD Mechanical|Company: Autodesk"
 90
        0
280
     0
281
     0
  0
CLASS
  1
ACDBOPPOLYLINERES
  2
AcDbOpPolylineRes
  3
AcGrefServices
 90
    32768
280
     0
281
     0
  0
CLASS
  1
ACMPARTLIST
  2
AcmPartList
  3
"AcmSymBB|Product Description: AutoCAD Mechanical|Company: Autodesk"
 90
    35839
280
     0
281
     1
  0
CLASS
  1
ACDBLINERES
  2
AcDbLineRes
  3
AcGrefServices
 90
    32768
280
     0
281
     0
  0
CLASS
  1
ACRFINSADJ
  2
AcRfInsAdjuster
  3
AcMeServices
 90
    32768
280
     0
281
     0
  0
CLASS
  1
AM_DRAWING_MGR
  2
AcDmDwgMgr
  3
AcMechDwgViewMgmt
 90
        0
280
     0
281
     0
  0
CLASS
  1
AM_DWG_DOCUMENT
  2
AcDmDwgDocument
  3
AcMechDwgViewMgmt
 90
        0
280
     0
281
     0
  0
CLASS
  1
AM_DWG_SHEET
  2
AcDmSheet
  3
AcMechDwgViewMgmt
 90
        0
280
     0
281
     0
  0
CLASS
  1
AM_VIEWDIMPARMAP
  2
AcDmViewDimParMap
  3
AcMechDwgViewMgmt
 90
        0
280
     0
281
     0
  0
CLASS
  1
AM_DWGMGR_NAME
  2
AcDmDwgMgrName
  3
AcMechDwgViewMgmt
 90
        0
280
     0
281
     0
  0
CLASS
  1
AMDTMENUSTATEMGR
  2
AmdtMenuStateMgr
  3
McadcomServices
 90
        0
280
     0
281
     0
  0
CLASS
  1
AMDTMCOMMENUSTATE
  2
AmdtMcomMenuState
  3
McadcomServices
 90
        0
280
     0
281
     0
  0
CLASS
  1
ASAPP
  2
AcAsAppObject
  3
AutoSurfServices
 90
        0
280
     0
281
     0
  0
CLASS
  1
IM_STATIC_MAN
  2
AcImStaticVarManager
  3
AcMeServices
 90
        0
280
     0
281
     0
  0
CLASS
  1
ACIMDBLSTATICVAR
  2
AcImDblStaticVar
  3
AcMeServices
 90
        0
280
     0
281
     0
  0
CLASS
  1
ACIMSTRSTATICVAR
  2
AcImStrStaticVar
  3
AcMeServices
 90
        0
280
     0
281
     0
  0
CLASS
  1
ACIMINTSTATICVAR
  2
AcImIntStaticVar
  3
AcMeServices
 90
        0
280
     0
281
     0
  0
CLASS
  1
ACASGREFMASTER
  2
AcAsGrefMaster
  3
AutoSurfResolverServices
 90
        0
280
     0
281
     0
  0
CLASS
  1
ACADGREFMODULE
  2
AcAdGrefModule
  3
AdGrefServices
 90
        0
280
     0
281
     0
  0
CLASS
  1
AMDTMAPISURFMOUDULE
  2
AmdtMApiSurfModule
  3
MApiSurfServices
 90
        0
280
     0
281
     0
  0
CLASS
  1
MAPIAMMOUDLE
  2
MApiAmModule
  3
MApiAmServices
 90
        0
280
     0
281
     0
  0
CLASS
  1
AMDTADMENUSTATE
  2
AmdtAdMenuState
  3
DesignerServices
 90
        0
280
     0
281
     0
  0
CLASS
  1
ADAPPL
  2
AcAdAppl
  3
DesignerServices
 90
        0
280
     0
281
     0
  0
CLASS
  1
DEPMGR
  2
AcAdDepMgr
  3
DesignerServices
 90
        0
280
     0
281
     0
  0
CLASS
  1
PARAMMGR
  2
AcAdParamMgr
  3
DesignerServices
 90
        0
280
     0
281
     0
  0
CLASS
  1
PARAMSCOPE
  2
AcAdParamScope
  3
DesignerServices
 90
        0
280
     0
281
     0
  0
CLASS
  1
NAMEDAPPL
  2
AcAdNamedAppl
  3
DesignerServices
 90
        0
280
     0
281
     0
  0
CLASS
  1
ADHNTMPLT
  2
AdHoleNoteTemplateMgr
  3
DesignerServices
 90
    32768
280
     0
281
     0
  0
CLASS
  1
AM_HNTEMPLATE_MGR_NAME
  2
AdHoleNoteTemplateMgrName
  3
DesignerServices
 90
    32768
280
     0
281
     0
  0
CLASS
  1
AMDTDMMENUSTATE
  2
AmdtDmMenuState
  3
AcMechDwgViewMgmt
 90
        0
280
     0
281
     0
  0
CLASS
  1
MAPIADMODULE
  2
MApiAdModule
  3
MApiAdServices
 90
        0
280
     0
281
     0
  0
CLASS
  1
AMDTAMMENUSTATE
  2
AmdtAmMenuState
  3
DesignerAssemblies
 90
        0
280
     0
281
     0
  0
CLASS
  1
ACAMPROJECT
  2
AcAmProject
  3
DesignerAssemblies
 90
        0
280
     0
281
     0
  0
CLASS
  1
ACAMGRCOMPDEF
  2
AcAmGrCompDef
  3
DesignerAssemblies
 90
        0
280
     0
281
     0
  0
CLASS
  1
ACCMCONTEXT
  2
AcCmContext
  3
DesignerAssemblies
 90
        0
280
     0
281
     0
  0
CLASS
  1
ACAMCOMPDEF
  2
AcAmCompDef
  3
DesignerAssemblies
 90
        0
280
     0
281
     0
  0
CLASS
  1
ACAMCOMPDEFMGR
  2
AcAmCompDefMgr
  3
DesignerAssemblies
 90
        0
280
     0
281
     0
  0
CLASS
  1
AMCONTEXTMGR
  2
AcAmContextMgr
  3
DesignerAssemblies
 90
        0
280
     0
281
     0
  0
CLASS
  1
ACAMCONTEXTMODELER
  2
AcAmContextModeler
  3
DesignerAssemblies
 90
        0
280
     0
281
     0
  0
CLASS
  1
CATALOGSTATE
  2
AcAmCatalogState
  3
DesignerAssemblies
 90
        0
280
     0
281
     0
  0
CLASS
  1
ACAMGRCOMPDEFSET
  2
AcAmGrCompDefSet
  3
DesignerAssemblies
 90
        0
280
     0
281
     0
  0
CLASS
  1
AMDTBROWSERDBTAB
  2
AmdtBrowserDbTab
  3
McadcomServices
 90
        0
280
     0
281
     0
  0
CLASS
  1
CBROWSERAPPOBJECT
  2
CBrowserAppObject
  3
McadcomServices
 90
        0
280
     0
281
     0
  0
CLASS
  1
DM_PLACEHOLDER
  2
AcDmSelsetPlaceholder
  3
AcMechDwgViewMgmt
 90
        0
280
     0
281
     0
  0
CLASS
  1
ACMPICKOBJ
  2
AcmPickEnt
  3
"AcmSymBB|Product Description: AutoCAD Mechanical|Company: Autodesk"
 90
    32768
280
     0
281
     1
  0
CLASS
  1
ACMNOTESTANDARDISO
  2
AmdtNoteStdISO
  3
"Amdt_StdImp|Product Description: AutoCAD Mechanical|Company: Autodesk"
 90
        0
280
     0
281
     0
  0
CLASS
  1
ACMNOTESTANDARDANSI
  2
AmdtNoteStdANSI
  3
"Amdt_StdImp|Product Description: AutoCAD Mechanical|Company: Autodesk"
 90
    32768
280
     0
281
     0
  0
CLASS
  1
ACMTHREADLINESTANDARDISO
  2
AmdtThreadLineStdISO
  3
"Amdt_StdImp|Product Description: AutoCAD Mechanical|Company: Autodesk"
 90
        0
280
     0
281
     0
  0
CLASS
  1
ACMTHREADLINESTANDARDANSI
  2
AmdtThreadLineStdANSI
  3
"Amdt_StdImp|Product Description: AutoCAD Mechanical|Company: Autodesk"
 90
    32768
280
     0
281
     0
  0
CLASS
  1
TABLESTYLE
  2
AcDbTableStyle
  3
ObjectDBX Classes
 90
     4095
280
     0
281
     0
  0
CLASS
  1
SORTENTSTABLE
  2
AcDbSortentsTable
  3
ObjectDBX Classes
 90
        0
280
     0
281
     0
  0
CLASS
  1
MATERIAL
  2
AcDbMaterial
  3
ObjectDBX Classes
 90
     1153
280
     0
281
     0
  0
CLASS
  1
VISUALSTYLE
  2
AcDbVisualStyle
  3
ObjectDBX Classes
 90
     4095
280
     0
281
     0
  0
CLASS
  1
ACRFATTGENMGR
  2
AcRfAttGeneralMgr
  3
AcAttribServices
 90
        0
280
     0
281
     0
  0
CLASS
  1
ACRFOBJATTMGR
  2
AcRfObjAttGroupMgr
  3
AcAttribServices
 90
        0
280
     0
281
     0
  0
CLASS
  1
ACRFMCADAPIATTHOLDER
  2
AcRfMCADAPIAttHolder
  3
AcAttribServices
 90
        0
280
     0
281
     0
  0
CLASS
  1
AMDTSYSATTR
  2
AmdtSystemAttribute
  3
AcAttribServices
 90
        0
280
     0
281
     0
  0
CLASS
  1
ACMTAPERSTANDARDISO
  2
AcmTaperStdISO
  3
"Amdt_StdImp|Product Description: AutoCAD Mechanical|Company: Autodesk"
 90
        0
280
     0
281
     0
  0
CLASS
  1
CAMSSTRUCTBTNSTATE
  2
StructBtnState
  3
L"DesignerAssemblies"
 90
        0
280
     0
281
     0
  0
CLASS
  1
DIMASSOC
  2
AcDbDimAssoc
  3
"AcDbDimAssoc|Product Desc:     AcDim ARX App For Dimension|Company:          Autodesk, Inc.|WEB Address:      www.autodesk.com"
 90
    32768
280
     0
281
     0
  0
CLASS
  1
AMDTEDGESTANDARDISO13715
  2
AmdtEdgeStdISO13715
  3
"Amdt_StdImp|Product Description: AutoCAD Mechanical|Company: Autodesk"
 90
        0
280
     0
281
     0
  0
CLASS
  1
AMDTNOTETEMPLATEDB
  2
AmdtNoteTemplateDB
  3
AMDT_STDIMP_MODULE_NAME
 90
        0
280
     0
281
     0
  0
CLASS
  1
ACAMGHOLECHARTSTDISO
  2
AcAmgHoleChartStdISO
  3
ACMSYMBB_MODULE_NAME
 90
        0
280
     0
281
     0
  0
ENDSEC
  0
SECTION
  2
TABLES
  0
TABLE
  2
VPORT
  5
8
330
0
100
AcDbSymbolTable
 70
     1
  0
VPORT
  5
B0EC
330
8
100
AcDbSymbolTableRecord
100
AcDbViewportTableRecord
  2
*Active
 70
     0
 10
0.0
 20
0.0
 11
1.0
 21
1.0
 12
1751.01211392206
 22
1578.335908489781
 13
0.0
 23
0.0
 14
2.5
 24
2.5
 15
10.0
 25
10.0
 16
0.0
 26
0.0
 36
1.0
 17
0.0
 27
0.0
 37
0.0
 40
445.8434566774924
 41
1.916666666666666
 42
50.0
 43
-1370.695619172058
 44
-1370.695619172058
 50
0.0
 51
0.0
 71
     0
 72
   100
 73
     1
 74
     3
 75
     0
 76
     0
 77
     0
 78
     0
281
     0
 65
     0
110
0.0
120
0.0
130
0.0
111
1.0
121
0.0
131
0.0
112
0.0
122
1.0
132
0.0
 79
     0
146
0.0
  0
ENDTAB
  0
TABLE
  2
LTYPE
  5
5
330
0
100
AcDbSymbolTable
 70
    28
  0
LTYPE
  5
14
330
5
100
AcDbSymbolTableRecord
100
AcDbLinetypeTableRecord
  2
ByBlock
 70
     0
  3

 72
    65
 73
     0
 40
0.0
  0
LTYPE
  5
15
330
5
100
AcDbSymbolTableRecord
100
AcDbLinetypeTableRecord
  2
ByLayer
 70
     0
  3

 72
    65
 73
     0
 40
0.0
  0
LTYPE
  5
16
330
5
100
AcDbSymbolTableRecord
100
AcDbLinetypeTableRecord
  2
Continuous
 70
     0
  3
Solid line
 72
    65
 73
     0
 40
0.0
  0
LTYPE
  5
4F
330
5
100
AcDbSymbolTableRecord
100
AcDbLinetypeTableRecord
  2
AM_ISO02W050
 70
     0
  3
__ __ __ __ __ __ __ __ __ __ __ __ __ __ __
 72
    65
 73
     2
 40
7.5
 49
6.0
 74
     0
 49
-1.5
 74
     0
  0
LTYPE
  5
52
330
5
100
AcDbSymbolTableRecord
100
AcDbLinetypeTableRecord
  2
Amconstr
 70
     0
  3
_______________________
 72
    65
 73
     2
 40
9999.0
 49
9999.0
 74
     0
 49
0.0
 74
     0
  0
LTYPE
  5
64
330
5
100
AcDbSymbolTableRecord
100
AcDbLinetypeTableRecord
  2
ACISOWELD
 70
     0
  3
_ _ _ _ _
 72
    65
 73
     2
 40
2.0
 49
2.0
 74
     0
 49
-1.0
 74
     0
  0
LTYPE
  5
65
330
5
100
AcDbSymbolTableRecord
100
AcDbLinetypeTableRecord
  2
ACISOTGB
 70
     0
  3
__ . . __ . .
 72
    65
 73
     6
 40
9.0
 49
4.0
 74
     0
 49
-1.0
 74
     0
 49
1.0
 74
     0
 49
-1.0
 74
     0
 49
1.0
 74
     0
 49
-1.0
 74
     0
  0
LTYPE
  5
66
330
5
100
AcDbSymbolTableRecord
100
AcDbLinetypeTableRecord
  2
ACISOTGL
 70
     0
  3
_ _ _ _ _
 72
    65
 73
     2
 40
3.0
 49
2.0
 74
     0
 49
-1.0
 74
     0
  0
LTYPE
  5
69
330
5
100
AcDbSymbolTableRecord
100
AcDbLinetypeTableRecord
  2
CENTER
 70
     0
  3
__ . __
 72
    65
 73
     4
 40
7.0
 49
4.0
 74
     0
 49
-1.0
 74
     0
 49
1.0
 74
     0
 49
-1.0
 74
     0
  0
LTYPE
  5
A6E
330
5
100
AcDbSymbolTableRecord
100
AcDbLinetypeTableRecord
  2
PHANTOM2
 70
     0
  3
Phantom (.5x) ___ _ _ ___ _ _ ___ _ _ ___ _ _
 72
    65
 73
     6
 40
31.75
 49
15.875
 74
     0
 49
-3.174999999999999
 74
     0
 49
3.174999999999999
 74
     0
 49
-3.174999999999999
 74
     0
 49
3.174999999999999
 74
     0
 49
-3.174999999999999
 74
     0
  0
LTYPE
  5
4DED
330
5
100
AcDbSymbolTableRecord
100
AcDbLinetypeTableRecord
  2
中線
 70
     0
  3
___________________
 72
    65
 73
     2
 40
2.0
 49
1.0
 74
     0
 49
1.0
 74
     0
  0
LTYPE
  5
4DF6
330
5
100
AcDbSymbolTableRecord
100
AcDbLinetypeTableRecord
  2
細線
 70
     0
  3
___________________
 72
    65
 73
     2
 40
2.0
 49
1.0
 74
     0
 49
1.0
 74
     0
  0
LTYPE
  5
4DF7
330
5
100
AcDbSymbolTableRecord
100
AcDbLinetypeTableRecord
  2
太線
 70
     0
  3
___________________
 72
    65
 73
     2
 40
2.0
 49
1.0
 74
     0
 49
1.0
 74
     0
  0
LTYPE
  5
4EA7
330
5
100
AcDbSymbolTableRecord
100
AcDbLinetypeTableRecord
  2
文字
 70
     0
  3
_________________
 72
    65
 73
     2
 40
2.0
 49
1.0
 74
     0
 49
1.0
 74
     0
  0
LTYPE
  5
4EA9
330
5
100
AcDbSymbolTableRecord
100
AcDbLinetypeTableRecord
  2
寸法線
 70
     0
  3
________________
 72
    65
 73
     2
 40
2.0
 49
1.0
 74
     0
 49
1.0
 74
     0
  0
LTYPE
  5
4F12
330
5
100
AcDbSymbolTableRecord
100
AcDbLinetypeTableRecord
  2
ハッチング
 70
     0
  3
_________________
 72
    65
 73
     2
 40
2.0
 49
1.0
 74
     0
 49
1.0
 74
     0
  0
LTYPE
  5
5180
330
5
100
AcDbSymbolTableRecord
100
AcDbLinetypeTableRecord
  2
陰線1
 70
     0
  3
__ __ __ __
 72
    65
 73
     2
 40
4.0
 49
2.2
 74
     0
 49
-1.8
 74
     0
  0
LTYPE
  5
5182
330
5
100
AcDbSymbolTableRecord
100
AcDbLinetypeTableRecord
  2
切断線
 70
     0
  3
/\/-/\/-/\/-/\/-/\/-/\/
 72
    65
 73
     2
 40
11.0001
 49
0.0001
 74
     4
 75
   135
340
56
 46
0.04
 50
0.0
 44
0.0
 45
0.0
 49
-11.0
 74
     0
  0
LTYPE
  5
5183
330
5
100
AcDbSymbolTableRecord
100
AcDbLinetypeTableRecord
  2
想像線1
 70
     0
  3
__ __ __ _____ __ __ ____
 72
    65
 73
     6
 40
14.5
 49
6.0
 74
     0
 49
-1.5
 74
     0
 49
2.0
 74
     0
 49
-1.5
 74
     0
 49
2.0
 74
     0
 49
-1.5
 74
     0
  0
LTYPE
  5
5185
330
5
100
AcDbSymbolTableRecord
100
AcDbLinetypeTableRecord
  2
中心線1
 70
     0
  3
___ _ ___ _ ___
 72
    65
 73
     4
 40
18.0
 49
12.0
 74
     0
 49
-2.0
 74
     0
 49
2.0
 74
     0
 49
-2.0
 74
     0
  0
LTYPE
  5
5188
330
5
100
AcDbSymbolTableRecord
100
AcDbLinetypeTableRecord
  2
補助線
 70
     0
  3
______________
 72
    65
 73
     2
 40
2.0
 49
1.0
 74
     0
 49
1.0
 74
     0
  0
LTYPE
  5
6427
330
5
100
AcDbSymbolTableRecord
100
AcDbLinetypeTableRecord
  2
HIDDEN
 70
     0
  3
Hidden __ __ __ __ __ __ __ __ __ __ __ __ __ _
 72
    65
 73
     2
 40
0.375
 49
0.25
 74
     0
 49
-0.125
 74
     0
  0
LTYPE
  5
AC81
330
5
100
AcDbSymbolTableRecord
100
AcDbLinetypeTableRecord
  2
破断線
 70
     0
  3
/\/-/\/-/\/-/\/-/\/-/\/
 72
    65
 73
     2
 40
0.4401
 49
0.0001
 74
     4
 75
   136
340
AC80
 46
0.0016
 50
0.0
 44
0.0
 45
0.0
 49
-0.4400000000000001
 74
     0
  0
LTYPE
  5
AC9E
330
5
100
AcDbSymbolTableRecord
100
AcDbLinetypeTableRecord
  2
Amzigzag
 70
     0
  3
/\/-/\/-/\/-/\/-/\/-/\/
 72
    65
 73
     2
 40
11.0001
 49
0.0001
 74
     4
 75
   135
340
56
 46
0.04
 50
0.0
 44
0.0
 45
0.0
 49
-11.0
 74
     0
  0
LTYPE
  5
AF0F
330
5
100
AcDbSymbolTableRecord
100
AcDbLinetypeTableRecord
  2
genzigzag
 70
     0
  3
/\/-/\/-/\/-/\/-/\/-/\/
 72
    65
 73
     2
 40
12.0001
 49
0.0001
 74
     4
 75
   135
340
AC80
 46
2.0
 50
0.0
 44
0.0
 45
0.0
 49
-12.0
 74
     0
  0
LTYPE
  5
AF95
330
5
100
AcDbSymbolTableRecord
100
AcDbLinetypeTableRecord
  2
AM_ISO08W050
 70
     0
  3
____ . ____ . ____ . ____ . ____ . ____ . ____
 72
    65
 73
     4
 40
18.0
 49
12.0
 74
     0
 49
-1.5
 74
     0
 49
3.0
 74
     0
 49
-1.5
 74
     0
  0
LTYPE
  5
AF96
330
5
100
AcDbSymbolTableRecord
100
AcDbLinetypeTableRecord
  2
AM_ISO09W050
 70
     0
  3
_____ . . _____ . . _____ . . ____ .. ____
 72
    65
 73
     6
 40
22.5
 49
12.0
 74
     0
 49
-1.5
 74
     0
 49
3.0
 74
     0
 49
-1.5
 74
     0
 49
3.0
 74
     0
 49
-1.5
 74
     0
  0
LTYPE
  5
AF97
330
5
100
AcDbSymbolTableRecord
100
AcDbLinetypeTableRecord
  2
AM_ISO08W050x2
 70
     0
  3
__ . __ . __ . __ . __ . __
 72
    65
 73
     4
 40
9.0
 49
6.0
 74
     0
 49
-0.75
 74
     0
 49
1.5
 74
     0
 49
-0.75
 74
     0
  0
LTYPE
  5
AF98
330
5
100
AcDbSymbolTableRecord
100
AcDbLinetypeTableRecord
  2
AM_ISO02W050x2
 70
     0
  3
 _ _ _ _ _ _ _ _ _ _ _ _
 72
    65
 73
     2
 40
3.75
 49
3.0
 74
     0
 49
-0.75
 74
     0
  0
LTYPE
  5
B66B
330
5
100
AcDbSymbolTableRecord
100
AcDbLinetypeTableRecord
  2
PHANTOM
 70
     0
  3
PHANTOM
 72
    83
 73
     6
 40
2.5
 49
1.25
 74
     0
 49
-0.25
 74
     0
 49
0.25
 74
     0
 49
-0.25
 74
     0
 49
0.25
 74
     0
 49
-0.25
 74
     0
  0
ENDTAB
  0
TABLE
  2
LAYER
  5
2
102
{ACAD_XDICTIONARY
360
3F95
102
}
330
0
100
AcDbSymbolTable
 70
    21
  0
LAYER
  5
10
330
2
100
AcDbSymbolTableRecord
100
AcDbLayerTableRecord
  2
0
 70
     0
 62
     7
  6
Continuous
370
    -3
390
F
  0
LAYER
  5
6D1
330
2
100
AcDbSymbolTableRecord
100
AcDbLayerTableRecord
  2
Defpoints
 70
     0
 62
     7
  6
Continuous
290
     0
370
    -3
390
F
  0
LAYER
  5
5F85
330
2
100
AcDbSymbolTableRecord
100
AcDbLayerTableRecord
  2
AM_0
 70
     0
 62
     7
  6
中線
370
    30
390
F
1001
AcAecLayerStandard
1000

1000

  0
LAYER
  5
AC9F
330
2
100
AcDbSymbolTableRecord
100
AcDbLayerTableRecord
  2
size
 70
     0
 62
     5
  6
Continuous
290
     0
370
    25
390
F
  0
LAYER
  5
ACA0
330
2
100
AcDbSymbolTableRecord
100
AcDbLayerTableRecord
  2
waku
 70
     0
 62
     7
  6
Continuous
370
    35
390
F
  0
LAYER
  5
ACA1
330
2
100
AcDbSymbolTableRecord
100
AcDbLayerTableRecord
  2
AM_6
 70
     0
 62
     2
  6
文字
370
    15
390
F
1001
AcAecLayerStandard
1000

1000

  0
LAYER
  5
ACC8
330
2
100
AcDbSymbolTableRecord
100
AcDbLayerTableRecord
  2
hyomoji
 70
     0
 62
     2
  6
Continuous
370
    15
390
F
  0
LAYER
  5
ACC9
330
2
100
AcDbSymbolTableRecord
100
AcDbLayerTableRecord
  2
hyosen1
 70
     0
 62
     1
  6
Continuous
370
    25
390
F
  0
LAYER
  5
ACCA
330
2
100
AcDbSymbolTableRecord
100
AcDbLayerTableRecord
  2
hyosen2
 70
     0
 62
     1
  6
Continuous
370
    15
390
F
  0
LAYER
  5
AD60
330
2
100
AcDbSymbolTableRecord
100
AcDbLayerTableRecord
  2
AM_1
 70
     0
 62
    30
  6
太線
370
    40
390
F
1001
AcAecLayerStandard
1000

1000

  0
LAYER
  5
AD64
330
2
100
AcDbSymbolTableRecord
100
AcDbLayerTableRecord
  2
AM_2
 70
     0
 62
     1
  6
細線
370
    13
390
F
1001
AcAecLayerStandard
1000

1000

  0
LAYER
  5
AD67
330
2
100
AcDbSymbolTableRecord
100
AcDbLayerTableRecord
  2
AM_3
 70
     0
 62
     6
  6
陰線1
370
    13
390
F
1001
AcAecLayerStandard
1000

1000

  0
LAYER
  5
AD68
330
2
100
AcDbSymbolTableRecord
100
AcDbLayerTableRecord
  2
AM_5
 70
     0
 62
     3
  6
寸法線
370
    13
390
F
1001
AcAecLayerStandard
1000

1000

  0
LAYER
  5
AD69
330
2
100
AcDbSymbolTableRecord
100
AcDbLayerTableRecord
  2
AM_7
 70
     0
 62
     4
  6
中心線1
370
    13
390
F
1001
AcAecLayerStandard
1000

1000

  0
LAYER
  5
AD6A
330
2
100
AcDbSymbolTableRecord
100
AcDbLayerTableRecord
  2
AM_8
 70
     0
 62
     1
  6
ハッチング
370
     5
390
F
1001
AcAecLayerStandard
1000

1000

  0
LAYER
  5
AD6E
330
2
100
AcDbSymbolTableRecord
100
AcDbLayerTableRecord
  2
AM_10
 70
     0
 62
     7
  6
切断線
370
    13
390
F
1001
AcAecLayerStandard
1000

1000

  0
LAYER
  5
AD6F
330
2
100
AcDbSymbolTableRecord
100
AcDbLayerTableRecord
  2
AM_11
 70
     0
 62
     2
  6
想像線1
370
    13
390
F
1001
AcAecLayerStandard
1000

1000

  0
LAYER
  5
B1B6
330
2
100
AcDbSymbolTableRecord
100
AcDbLayerTableRecord
  2
AM_CL
 70
     0
 62
     1
  6
Amconstr
370
    15
390
F
1001
AcAecLayerStandard
1000

1000

  0
LAYER
  5
B2EB
330
2
100
AcDbSymbolTableRecord
100
AcDbLayerTableRecord
  2
AM_14
 70
     0
 62
     5
  6
細線
370
     9
390
F
1001
AcAecLayerStandard
1000

1000

  0
LAYER
  5
B2EC
330
2
100
AcDbSymbolTableRecord
100
AcDbLayerTableRecord
  2
AM_15
 70
     0
 62
     6
  6
陰線1
370
     9
390
F
1001
AcAecLayerStandard
1000

1000

  0
LAYER
  5
B66C
330
2
100
AcDbSymbolTableRecord
100
AcDbLayerTableRecord
  2
001
 70
     0
 62
     7
  6
Continuous
370
    -3
390
F
  0
ENDTAB
  0
TABLE
  2
STYLE
  5
3
330
0
100
AcDbSymbolTable
 70
     7
  0
STYLE
  5
11
330
3
100
AcDbSymbolTableRecord
100
AcDbTextStyleTableRecord
  2
STANDARD
 70
     0
 40
0.0
 41
0.7
 50
0.0
 71
     0
 42
3.2
  3
romans.shx
  4
extfont.shx
  0
STYLE
  5
56
330
3
100
AcDbSymbolTableRecord
100
AcDbTextStyleTableRecord
  2

 70
     1
 40
0.0
 41
1.0
 50
0.0
 71
     0
 42
2.5
  3
ltypeshp.shx
  4

  0
STYLE
  5
58
330
3
100
AcDbSymbolTableRecord
100
AcDbTextStyleTableRecord
  2
ACISOTS
 70
     0
 40
1.0
 41
1.0
 50
0.0
 71
     0
 42
2.5
  3
isocp.shx
  4
extfont.shx
  0
STYLE
  5
63
330
3
100
AcDbSymbolTableRecord
100
AcDbTextStyleTableRecord
  2
ACISOGDT
 70
     0
 40
0.0
 41
1.0
 50
0.0
 71
     0
 42
2.5
  3
amgdt.shx
  4

  0
STYLE
  5
A74
330
3
100
AcDbSymbolTableRecord
100
AcDbTextStyleTableRecord
  2
DIM
 70
     0
 40
0.0
 41
1.0
 50
0.0
 71
     0
 42
2.5
  3
monotxt.shx
  4
extfont.shx
  0
STYLE
  5
AC80
330
3
100
AcDbSymbolTableRecord
100
AcDbTextStyleTableRecord
  2

 70
     1
 40
0.0
 41
1.0
 50
0.0
 71
     0
 42
3.2
  3
genltshp.shx
  4

  0
ENDTAB
  0
TABLE
  2
VIEW
  5
6
330
0
100
AcDbSymbolTable
 70
     6
  0
VIEW
  5
AE1
330
6
100
AcDbSymbolTableRecord
100
AcDbViewTableRecord
  2
AM_VIEW1
 70
     0
 40
210.0
 10
1653.230852124335
 20
1672.984262209774
 41
402.2743259085579
 11
0.0
 21
0.0
 31
1.0
 12
0.0
 22
0.0
 32
0.0
 42
50.0
 43
-1370.695619172058
 44
-1370.695619172058
 50
0.0
 71
     0
281
     0
 72
     0
  0
VIEW
  5
AE2
330
6
100
AcDbSymbolTableRecord
100
AcDbViewTableRecord
  2
AM_VIEW2
 70
     0
 40
210.0
 10
1844.956526215777
 20
1672.984262209774
 41
402.2743259085579
 11
0.0
 21
0.0
 31
1.0
 12
0.0
 22
0.0
 32
0.0
 42
50.0
 43
-1370.695619172058
 44
-1370.695619172058
 50
0.0
 71
     0
281
     0
 72
     0
  0
VIEW
  5
AE3
330
6
100
AcDbSymbolTableRecord
100
AcDbViewTableRecord
  2
AM_VIEW3
 70
     0
 40
210.0
 10
1653.230852124335
 20
1462.984262209774
 41
402.2743259085579
 11
0.0
 21
0.0
 31
1.0
 12
0.0
 22
0.0
 32
0.0
 42
50.0
 43
-1370.695619172058
 44
-1370.695619172058
 50
0.0
 71
     0
281
     0
 72
     0
  0
VIEW
  5
AE4
330
6
100
AcDbSymbolTableRecord
100
AcDbViewTableRecord
  2
AM_VIEW4
 70
     0
 40
210.0
 10
1844.956526215777
 20
1462.984262209774
 41
402.2743259085579
 11
0.0
 21
0.0
 31
1.0
 12
0.0
 22
0.0
 32
0.0
 42
50.0
 43
-1370.695619172058
 44
-1370.695619172058
 50
0.0
 71
     0
281
     0
 72
     0
  0
VIEW
  5
AE5
330
6
100
AcDbSymbolTableRecord
100
AcDbViewTableRecord
  2
AM_VIEW5
 70
     0
 40
210.0
 10
1749.093689170056
 20
1567.984262209774
 41
402.2743259085578
 11
0.0
 21
0.0
 31
1.0
 12
0.0
 22
0.0
 32
0.0
 42
50.0
 43
-1370.695619172058
 44
-1370.695619172058
 50
0.0
 71
     0
281
     0
 72
     0
  0
VIEW
  5
AE6
330
6
100
AcDbSymbolTableRecord
100
AcDbViewTableRecord
  2
AM_VIEW6
 70
     0
 40
419.9958000000001
 10
1749.093689170056
 20
1567.984262209774
 41
804.5406063305977
 11
0.0
 21
0.0
 31
1.0
 12
0.0
 22
0.0
 32
0.0
 42
50.0
 43
-1370.695619172058
 44
-1370.695619172058
 50
0.0
 71
     0
281
     0
 72
     0
  0
ENDTAB
  0
TABLE
  2
UCS
  5
7
330
0
100
AcDbSymbolTable
 70
     0
  0
ENDTAB
  0
TABLE
  2
APPID
  5
9
330
0
100
AcDbSymbolTable
 70
    55
  0
APPID
  5
12
330
9
100
AcDbSymbolTableRecord
100
AcDbRegAppTableRecord
  2
ACAD
 70
     0
  0
APPID
  5
30
330
9
100
AcDbSymbolTableRecord
100
AcDbRegAppTableRecord
  2
MCAD_NO_VIS
 70
     0
  0
APPID
  5
31
330
9
100
AcDbSymbolTableRecord
100
AcDbRegAppTableRecord
  2
ACAD_TEMP_GRAPHIC
 70
     0
  0
APPID
  5
44
330
9
100
AcDbSymbolTableRecord
100
AcDbRegAppTableRecord
  2
ACATTRIBSERVICES
 70
     0
  0
APPID
  5
7A1
330
9
100
AcDbSymbolTableRecord
100
AcDbRegAppTableRecord
  2
GENIUS_GENDIMSH_14
 70
     0
  0
APPID
  5
A49
330
9
100
AcDbSymbolTableRecord
100
AcDbRegAppTableRecord
  2
GENIUS_GENREC_14
 70
     0
  0
APPID
  5
A4A
330
9
100
AcDbSymbolTableRecord
100
AcDbRegAppTableRecord
  2
GENIUS_GENOBJ-N-REC_13
 70
     0
  0
APPID
  5
A4B
330
9
100
AcDbSymbolTableRecord
100
AcDbRegAppTableRecord
  2
GENIUS_GENODEF_13
 70
     0
  0
APPID
  5
A4C
330
9
100
AcDbSymbolTableRecord
100
AcDbRegAppTableRecord
  2
DCO15
 70
     0
  0
APPID
  5
ADC
330
9
100
AcDbSymbolTableRecord
100
AcDbRegAppTableRecord
  2
GENIUS_GENOLIS_13
 70
     0
  0
APPID
  5
ADD
330
9
100
AcDbSymbolTableRecord
100
AcDbRegAppTableRecord
  2
GENIUS_GENOENT_13
 70
     0
  0
APPID
  5
ADE
330
9
100
AcDbSymbolTableRecord
100
AcDbRegAppTableRecord
  2
GENIUS_GENOBJ-N-TIT_13
 70
     0
  0
APPID
  5
ADF
330
9
100
AcDbSymbolTableRecord
100
AcDbRegAppTableRecord
  2
GENIUS_GENTITLE_13
 70
     0
  0
APPID
  5
AE0
330
9
100
AcDbSymbolTableRecord
100
AcDbRegAppTableRecord
  2
GENIUS_GENOREF_13
 70
     0
  0
APPID
  5
AE7
330
9
100
AcDbSymbolTableRecord
100
AcDbRegAppTableRecord
  2
GENIUS_GENSCREG_15
 70
     0
  0
APPID
  5
AE8
330
9
100
AcDbSymbolTableRecord
100
AcDbRegAppTableRecord
  2
GENIUS_GENOBJ-N-SDF_13
 70
     0
  0
APPID
  5
FAF
330
9
100
AcDbSymbolTableRecord
100
AcDbRegAppTableRecord
  2
GENIUS_GENBLLY_14
 70
     0
  0
APPID
  5
FB0
330
9
100
AcDbSymbolTableRecord
100
AcDbRegAppTableRecord
  2
GENIUS_GENTRA_14
 70
     0
  0
APPID
  5
1285
330
9
100
AcDbSymbolTableRecord
100
AcDbRegAppTableRecord
  2
GENIUS_GENDTOL_13
 70
     0
  0
APPID
  5
142D
330
9
100
AcDbSymbolTableRecord
100
AcDbRegAppTableRecord
  2
GENIUS_GENOBJ-N-CEN_13
 70
     0
  0
APPID
  5
1AB5
330
9
100
AcDbSymbolTableRecord
100
AcDbRegAppTableRecord
  2
GENIUS_GENOBJ-N-CRS_13
 70
     0
  0
APPID
  5
1B36
330
9
100
AcDbSymbolTableRecord
100
AcDbRegAppTableRecord
  2
GENIUS_GENOBJ-N-HTC_13
 70
     0
  0
APPID
  5
1B37
330
9
100
AcDbSymbolTableRecord
100
AcDbRegAppTableRecord
  2
GENIUS_GENHATCH_13
 70
     0
  0
APPID
  5
216D
330
9
100
AcDbSymbolTableRecord
100
AcDbRegAppTableRecord
  2
GENIUS_GENOBJ-N-FIL_13
 70
     0
  0
APPID
  5
2356
330
9
100
AcDbSymbolTableRecord
100
AcDbRegAppTableRecord
  2
GEVID990412420
 70
     0
  0
APPID
  5
2357
330
9
100
AcDbSymbolTableRecord
100
AcDbRegAppTableRecord
  2
GEVDC
 70
     0
  0
APPID
  5
2358
330
9
100
AcDbSymbolTableRecord
100
AcDbRegAppTableRecord
  2
GEVCON
 70
     0
  0
APPID
  5
235B
330
9
100
AcDbSymbolTableRecord
100
AcDbRegAppTableRecord
  2
GEVRADREF
 70
     0
  0
APPID
  5
2360
330
9
100
AcDbSymbolTableRecord
100
AcDbRegAppTableRecord
  2
GENIUS_GENBH_13
 70
     0
  0
APPID
  5
2362
330
9
100
AcDbSymbolTableRecord
100
AcDbRegAppTableRecord
  2
GENIUS_GENOBJ-NBEHI-BHF_13
 70
     0
  0
APPID
  5
2364
330
9
100
AcDbSymbolTableRecord
100
AcDbRegAppTableRecord
  2
GENIUS_GENOBJ-NBEHI-BHB_13
 70
     0
  0
APPID
  5
2379
330
9
100
AcDbSymbolTableRecord
100
AcDbRegAppTableRecord
  2
GENIUS_GENOBJ-F-SCPASSM_13
 70
     0
  0
APPID
  5
3D74
330
9
100
AcDbSymbolTableRecord
100
AcDbRegAppTableRecord
  2
GENIUS_GENDIM_13
 70
     0
  0
APPID
  5
3D76
330
9
100
AcDbSymbolTableRecord
100
AcDbRegAppTableRecord
  2
GENIUS_GE3DTOL_13
 70
     0
  0
APPID
  5
3D9C
330
9
100
AcDbSymbolTableRecord
100
AcDbRegAppTableRecord
  2
AD_DRAW
 70
     0
  0
APPID
  5
3DE8
330
9
100
AcDbSymbolTableRecord
100
AcDbRegAppTableRecord
  2
ASURF_PCURVE_APPNAME
 70
     0
  0
APPID
  5
3DED
330
9
100
AcDbSymbolTableRecord
100
AcDbRegAppTableRecord
  2
AMG_3D2D_5.0
 70
     0
  0
APPID
  5
3E1B
330
9
100
AcDbSymbolTableRecord
100
AcDbRegAppTableRecord
  2
DESIGNERASSEMBLIES
 70
     0
  0
APPID
  5
3E20
330
9
100
AcDbSymbolTableRecord
100
AcDbRegAppTableRecord
  2
ACADM_DIM_EDIT
 70
     0
  0
APPID
  5
3E21
330
9
100
AcDbSymbolTableRecord
100
AcDbRegAppTableRecord
  2
AMDT_DM_ADJ
 70
     0
  0
APPID
  5
4143
330
9
100
AcDbSymbolTableRecord
100
AcDbRegAppTableRecord
  2
GENIUS_GENFIL_13
 70
     0
  0
APPID
  5
4144
330
9
100
AcDbSymbolTableRecord
100
AcDbRegAppTableRecord
  2
GENIUS_GENOBJ-N-CHA_13
 70
     0
  0
APPID
  5
4E17
330
9
100
AcDbSymbolTableRecord
100
AcDbRegAppTableRecord
  2
GEVID1008153417
 70
     0
  0
APPID
  5
4E58
330
9
100
AcDbSymbolTableRecord
100
AcDbRegAppTableRecord
  2
GEVID1008153418
 70
     0
  0
APPID
  5
4E5E
330
9
100
AcDbSymbolTableRecord
100
AcDbRegAppTableRecord
  2
GEVID1008153419
 70
     0
  0
APPID
  5
4E64
330
9
100
AcDbSymbolTableRecord
100
AcDbRegAppTableRecord
  2
GEVID1008153420
 70
     0
  0
APPID
  5
4E75
330
9
100
AcDbSymbolTableRecord
100
AcDbRegAppTableRecord
  2
GEVID1008153421
 70
     0
  0
APPID
  5
4EB7
330
9
100
AcDbSymbolTableRecord
100
AcDbRegAppTableRecord
  2
GENIUS_AMGTXT_16
 70
     0
  0
APPID
  5
7645
330
9
100
AcDbSymbolTableRecord
100
AcDbRegAppTableRecord
  2
GENIUS_GENOBJ-N-DIM_13
 70
     0
  0
APPID
  5
AAD0
330
9
100
AcDbSymbolTableRecord
100
AcDbRegAppTableRecord
  2
ACAD_DSTYLE_DIMARC_LENGTH_SYMBOL
 70
     0
  0
APPID
  5
AAD1
330
9
100
AcDbSymbolTableRecord
100
AcDbRegAppTableRecord
  2
ACAD_DSTYLE_DIMJOGGED_JOGANGLE_SYMBOL
 70
     0
  0
APPID
  5
AAFD
330
9
100
AcDbSymbolTableRecord
100
AcDbRegAppTableRecord
  2
ACAD_PSEXT
 70
     0
  0
APPID
  5
AD61
330
9
100
AcDbSymbolTableRecord
100
AcDbRegAppTableRecord
  2
AcAecLayerStandard
 70
     0
  0
APPID
  5
AEE3
330
9
100
AcDbSymbolTableRecord
100
AcDbRegAppTableRecord
  2
ACAD_EXEMPT_FROM_CAD_STANDARDS
 70
     0
  0
APPID
  5
B1BE
330
9
100
AcDbSymbolTableRecord
100
AcDbRegAppTableRecord
  2
GENIUS_GENCEN_19
 70
     0
  0
ENDTAB
  0
TABLE
  2
DIMSTYLE
  5
A
330
0
100
AcDbSymbolTable
 70
    21
100
AcDbDimStyleTable
 71
     1
340
2515
  0
DIMSTYLE
105
A76
330
A
100
AcDbSymbolTableRecord
100
AcDbDimStyleTableRecord
  2
STANDARD
 70
     0
 41
3.0
 42
1.0
 43
7.0
 44
2.0
 73
     0
 74
     0
 77
     1
140
2.799999999999999
141
0.0
143
0.0394
147
0.7
171
     4
172
     1
173
     1
176
     3
177
     3
178
     2
271
     3
272
     3
273
     8
274
     4
289
     0
340
A74
341
A66
343
A66
344
A66
  0
DIMSTYLE
105
2515
330
A
100
AcDbSymbolTableRecord
100
AcDbDimStyleTableRecord
  2
SYS
 70
     0
  4
"
 41
1.0
 42
1.0
 43
10.0
 44
1.0
 47
0.1
 48
0.1
 73
     0
 74
     0
 77
     1
 78
     8
 79
     2
140
3.5
141
0.0
143
0.0393701
146
0.71
147
1.5
172
     1
176
   256
177
   256
178
     7
271
     2
272
     2
283
     0
284
     8
340
11
371
    -1
372
    -1
1001
ACAD_DSTYLE_DIMJOGGED_JOGANGLE_SYMBOL
1070
   384
1040
0.7853981633974483
1001
ACAD_DSTYLE_DIMARC_LENGTH_SYMBOL
1070
   379
1070
     1
  0
DIMSTYLE
105
2516
102
{ACAD_REACTORS
330
BDC0
330
CD74
102
}
330
A
100
AcDbSymbolTableRecord
100
AcDbDimStyleTableRecord
  2
SYS$3
 70
     0
  4
"
 41
2.0
 42
1.0
 43
10.0
 44
1.0
 47
0.1
 48
0.1
 73
     0
 77
     1
 78
     8
 79
     2
140
3.5
141
0.0
143
0.0393701
146
0.71
147
1.5
176
   256
177
   256
178
     2
271
     2
272
     2
283
     0
284
     8
288
     1
340
11
342
A66
371
    -1
372
    -1
1001
ACAD_DSTYLE_DIMJOGGED_JOGANGLE_SYMBOL
1070
   384
1040
0.7853981633974483
1001
ACAD_DSTYLE_DIMARC_LENGTH_SYMBOL
1070
   379
1070
     1
  0
DIMSTYLE
105
2517
330
A
100
AcDbSymbolTableRecord
100
AcDbDimStyleTableRecord
  2
SYS$4
 70
     0
  4
"
 41
2.0
 42
1.0
 43
10.0
 44
1.0
 47
0.1
 48
0.1
 73
     0
 77
     1
 78
     8
 79
     2
140
3.5
141
0.0
143
0.0393701
146
0.71
147
1.5
173
     1
176
   256
177
   256
178
     2
271
     2
272
     2
283
     0
284
     8
288
     1
340
11
344
A66
371
    -1
372
    -1
1001
ACAD_DSTYLE_DIMJOGGED_JOGANGLE_SYMBOL
1070
   384
1040
0.7853981633974483
1001
ACAD_DSTYLE_DIMARC_LENGTH_SYMBOL
1070
   379
1070
     1
  0
DIMSTYLE
105
2518
330
A
100
AcDbSymbolTableRecord
100
AcDbDimStyleTableRecord
  2
SYS$6
 70
     0
  4
"
 41
2.0
 42
1.0
 43
10.0
 44
1.0
 47
0.1
 48
0.1
 73
     0
 74
     0
 78
     8
 79
     2
140
3.5
141
0.0
143
0.0393701
146
0.71
147
1.5
172
     1
176
   256
177
   256
178
     2
271
     2
272
     2
283
     0
284
     8
340
11
341
A66
371
    -1
372
    -1
1001
ACAD_DSTYLE_DIMJOGGED_JOGANGLE_SYMBOL
1070
   384
1040
0.7853981633974483
1001
ACAD_DSTYLE_DIMARC_LENGTH_SYMBOL
1070
   379
1070
     1
  0
DIMSTYLE
105
2519
330
A
100
AcDbSymbolTableRecord
100
AcDbDimStyleTableRecord
  2
SYS$7
 70
     0
  4
"
 41
2.0
 42
1.0
 43
10.0
 44
1.0
 47
0.1
 48
0.1
 73
     0
 74
     0
 77
     1
 78
     8
 79
     2
140
5.0
141
0.0
143
0.0393701
146
0.71
147
1.5
172
     1
176
   256
177
   256
178
     2
271
     2
272
     2
283
     0
284
     8
340
11
341
A66
342
A66
371
    -1
372
    -1
1001
ACAD_DSTYLE_DIMJOGGED_JOGANGLE_SYMBOL
1070
   384
1040
0.7853981633974483
1001
ACAD_DSTYLE_DIMARC_LENGTH_SYMBOL
1070
   379
1070
     1
  0
DIMSTYLE
105
251A
330
A
100
AcDbSymbolTableRecord
100
AcDbDimStyleTableRecord
  2
SYS$SF
 70
     0
  4
"
 41
2.5
 42
1.0
 43
10.0
 44
1.0
 47
0.1
 48
0.1
 73
     0
 74
     0
 75
     1
 76
     1
 77
     1
 78
     8
 79
     2
140
3.5
141
0.0
143
0.0393701
146
0.71
147
1.5
172
     1
176
   256
177
   256
178
     2
271
     2
272
     3
283
     0
284
     8
340
11
341
6C4
342
6C4
371
    -1
372
    -1
1001
ACAD_DSTYLE_DIMJOGGED_JOGANGLE_SYMBOL
1070
   384
1040
0.7853981633974483
1001
ACAD_DSTYLE_DIMARC_LENGTH_SYMBOL
1070
   379
1070
     1
  0
DIMSTYLE
105
251B
330
A
100
AcDbSymbolTableRecord
100
AcDbDimStyleTableRecord
  2
SYS$SH
 70
     0
  4
"
 41
2.5
 42
1.0
 43
10.0
 44
1.0
 47
0.1
 48
0.1
 73
     0
 74
     0
 75
     1
 76
     1
 77
     1
 78
     8
 79
     2
140
3.5
141
0.0
143
0.0393701
144
2.0
146
0.71
147
1.5
172
     1
173
     1
176
   256
177
   256
178
     2
271
     2
272
     3
283
     0
284
     8
340
11
341
6C4
343
72
344
6C4
371
    -1
372
    -1
1001
ACAD_DSTYLE_DIMJOGGED_JOGANGLE_SYMBOL
1070
   384
1040
0.7853981633974483
1001
ACAD_DSTYLE_DIMARC_LENGTH_SYMBOL
1070
   379
1070
     1
  0
DIMSTYLE
105
2A59
330
A
100
AcDbSymbolTableRecord
100
AcDbDimStyleTableRecord
  2
SYS$2
 70
     0
  4
"
 41
1.0
 42
1.0
 43
10.0
 44
1.0
 47
0.1
 48
0.1
 73
     0
 74
     0
 77
     1
 78
     8
 79
     2
140
3.5
141
0.0
143
0.0393701
146
0.71
147
1.5
172
     1
176
   256
177
   256
178
     2
271
     2
272
     2
283
     0
284
     8
340
11
342
6C4
371
    -1
372
    -1
1001
ACAD_DSTYLE_DIMJOGGED_JOGANGLE_SYMBOL
1070
   384
1040
0.7853981633974483
1001
ACAD_DSTYLE_DIMARC_LENGTH_SYMBOL
1070
   379
1070
     1
  0
DIMSTYLE
105
2AAB
102
{ACAD_REACTORS
330
BD6B
330
BDA4
330
BDA5
330
BDA6
330
BDA7
330
BDA8
330
BDA9
330
BDAA
330
BDAB
330
BDAC
330
BDAD
330
BDAE
330
BDB5
330
BDB6
330
BDB7
330
BDB8
330
BDB9
330
BDBA
330
BDBB
330
BDBC
330
BDBD
330
BDBE
330
C9A9
330
C9AA
330
C9AB
330
C9AC
330
C9AD
330
C9AE
330
C9AF
330
C9B0
330
C9B1
330
C9B2
330
C9B3
330
C9B4
330
C9B9
330
C9BA
330
C9BB
330
C9BC
330
C9BD
330
C9BE
330
C9BF
330
C9C0
330
C9C1
330
CBF7
330
CC0D
330
CD72
330
CDC8
102
}
330
A
100
AcDbSymbolTableRecord
100
AcDbDimStyleTableRecord
  2
SYS$0
 70
     0
  4
"
 41
1.0
 42
1.0
 43
10.0
 44
1.0
 47
0.1
 48
0.1
 73
     0
 74
     0
 77
     1
 78
     8
 79
     2
140
3.200000000000001
141
0.0
143
0.0393701
146
0.71
147
1.5
172
     1
176
   256
177
   256
178
     2
271
     2
272
     2
283
     0
284
     8
340
11
341
A66
342
6C4
371
    -1
372
    -1
1001
ACAD_DSTYLE_DIMJOGGED_JOGANGLE_SYMBOL
1070
   384
1040
0.7853981633974483
1001
ACAD_DSTYLE_DIMARC_LENGTH_SYMBOL
1070
   379
1070
     1
  0
DIMSTYLE
105
AF99
330
A
100
AcDbSymbolTableRecord
100
AcDbDimStyleTableRecord
  2
AM_ISO
 70
     0
  4
"
 41
2.5
 42
1.0
 43
10.0
 44
1.0
 47
0.1
 48
0.1
 73
     0
 74
     0
 77
     1
 78
     8
 79
     2
140
3.5
141
0.0
143
0.0393701
146
0.71
147
1.5
172
     1
176
   256
177
   256
178
     2
271
     2
272
     3
274
     4
283
     0
284
     8
340
11
371
    -1
372
    -1
  0
DIMSTYLE
105
AF9A
330
A
100
AcDbSymbolTableRecord
100
AcDbDimStyleTableRecord
  2
AM_ISO$3
 70
     0
  4
"
 41
2.5
 42
1.0
 43
10.0
 44
1.0
 47
0.1
 48
0.1
 73
     0
 77
     1
 78
     8
 79
     2
140
3.5
141
0.0
143
0.0393701
146
0.71
147
1.5
176
   256
177
   256
178
     2
271
     2
272
     3
274
     4
283
     0
284
     8
288
     1
289
     0
340
11
371
    -1
372
    -1
  0
DIMSTYLE
105
AF9B
330
A
100
AcDbSymbolTableRecord
100
AcDbDimStyleTableRecord
  2
AM_ISO$4
 70
     0
  4
"
 41
2.5
 42
1.0
 43
10.0
 44
1.0
 47
0.1
 48
0.1
 73
     0
 77
     1
 78
     8
 79
     2
140
3.5
141
0.0
143
0.0393701
146
0.71
147
1.5
176
   256
177
   256
178
     2
271
     2
272
     3
274
     4
283
     0
284
     8
288
     1
289
     0
340
11
371
    -1
372
    -1
  0
DIMSTYLE
105
AF9C
330
A
100
AcDbSymbolTableRecord
100
AcDbDimStyleTableRecord
  2
AM_ISO$6
 70
     0
  4
"
 41
2.5
 42
1.0
 43
10.0
 44
1.0
 47
0.1
 48
0.1
 73
     0
 74
     0
 78
     8
 79
     2
140
3.5
141
0.0
143
0.0393701
146
0.71
147
1.5
172
     1
176
   256
177
   256
178
     2
271
     2
272
     3
274
     4
283
     0
284
     8
340
11
371
    -1
372
    -1
  0
DIMSTYLE
105
AF9D
330
A
100
AcDbSymbolTableRecord
100
AcDbDimStyleTableRecord
  2
AM_ISO$7
 70
     0
  4
"
 41
2.5
 42
1.0
 43
10.0
 44
1.0
 47
0.1
 48
0.1
 73
     0
 74
     0
 77
     1
 78
     8
 79
     2
140
5.0
141
0.0
143
0.0393701
146
0.71
147
1.5
172
     1
176
   256
177
   256
178
     2
271
     2
272
     3
274
     4
283
     0
284
     8
340
11
371
    -1
372
    -1
  0
DIMSTYLE
105
AF9E
330
A
100
AcDbSymbolTableRecord
100
AcDbDimStyleTableRecord
  2
AM_ISO$SF
 70
     0
  4
"
 41
2.5
 42
1.0
 43
10.0
 44
1.0
 47
0.1
 48
0.1
 73
     0
 74
     0
 75
     1
 76
     1
 77
     1
 78
     8
 79
     2
140
3.5
141
0.0
143
0.0393701
146
0.71
147
1.5
172
     1
176
   256
177
   256
178
     2
271
     2
272
     3
274
     4
283
     0
284
     8
340
11
371
    -1
372
    -1
  0
DIMSTYLE
105
AF9F
330
A
100
AcDbSymbolTableRecord
100
AcDbDimStyleTableRecord
  2
AM_ISO$SH
 70
     0
  4
"
 41
2.5
 42
1.0
 43
10.0
 44
1.0
 47
0.1
 48
0.1
 73
     0
 74
     0
 75
     1
 76
     1
 77
     1
 78
     8
 79
     2
140
3.5
141
0.0
143
0.0393701
144
2.0
146
0.71
147
1.5
172
     1
173
     1
176
   256
177
   256
178
     2
271
     2
272
     3
274
     4
283
     0
284
     8
340
11
343
72
371
    -1
372
    -1
  0
DIMSTYLE
105
BCC1
330
A
100
AcDbSymbolTableRecord
100
AcDbDimStyleTableRecord
  2
AM_ISO$0
 70
     0
  4
"
 41
0.8
 42
1.0
 43
10.0
 44
1.0
 47
0.1
 48
0.1
 73
     0
 74
     0
 77
     1
 78
     8
 79
     2
140
3.2
141
0.0
143
0.0393701
146
0.71
147
0.9999999999999996
172
     1
176
   256
177
   256
178
     2
271
     2
272
     2
283
     0
284
     8
340
11
341
6C4
342
6C4
371
    -1
372
    -1
  0
DIMSTYLE
105
BCC2
330
A
100
AcDbSymbolTableRecord
100
AcDbDimStyleTableRecord
  2
AM_ISO$2
 70
     0
  4
"
 41
0.8
 42
1.0
 43
10.0
 44
1.0
 47
0.1
 48
0.1
 73
     0
 74
     0
 77
     3
 78
     8
 79
     2
140
3.200000000000001
141
0.0
143
0.0393701
146
0.71
147
0.9999999999999996
172
     1
176
   256
177
   256
178
     2
271
     2
272
     2
283
     0
284
     8
340
11
342
6C4
371
    -1
372
    -1
  0
DIMSTYLE
105
BCC3
330
A
100
AcDbSymbolTableRecord
100
AcDbDimStyleTableRecord
  2
AM_ANSI
 70
     0
  4
mm
 41
0.1
 42
0.05
 43
0.5
 44
0.1
 47
0.1
 48
0.1
 78
     7
 79
     2
140
0.12
141
0.0
146
0.71
147
0.06
176
   256
177
   256
178
     2
274
     4
284
     7
340
11
371
    -1
372
    -1
  0
ENDTAB
  0
TABLE
  2
BLOCK_RECORD
  5
1
330
0
100
AcDbSymbolTable
 70
    56
  0
BLOCK_RECORD
  5
1F
102
{ACAD_XDICTIONARY
360
8A
102
}
330
1
100
AcDbSymbolTableRecord
100
AcDbBlockTableRecord
  2
*Model_Space
340
22
  0
BLOCK_RECORD
  5
1B
330
1
100
AcDbSymbolTableRecord
100
AcDbBlockTableRecord
  2
*Paper_Space
340
1E
  0
BLOCK_RECORD
  5
23
330
1
100
AcDbSymbolTableRecord
100
AcDbBlockTableRecord
  2
*Paper_Space0
340
26
  0
BLOCK_RECORD
  5
72
330
1
100
AcDbSymbolTableRecord
100
AcDbBlockTableRecord
  2
GENAXEH
340
0
  0
BLOCK_RECORD
  5
6C4
330
1
100
AcDbSymbolTableRecord
100
AcDbBlockTableRecord
  2
_Dot
340
0
102
{BLKREFS
331
CB82
331
CB83
331
CB94
331
CB95
331
CBA6
331
CBA7
331
CBB8
331
CBB9
331
CBE8
331
CBE9
331
CBF1
331
CBF2
331
CC2F
331
CC30
331
CC38
331
CC39
331
CC43
331
CC44
331
CC5B
331
CC5C
331
CC76
331
CC77
331
CC91
331
CC92
331
CCA3
331
CCA4
331
CCAC
331
CCAD
331
CCB5
331
CCB6
331
CCBE
331
CCBF
331
CD2C
331
CD2D
331
CD35
331
CD36
331
CD47
331
CD48
331
CD50
331
CD51
331
CD5A
331
CD5B
331
CD96
331
CD97
331
CDA7
331
CDA8
331
CDB0
331
CDB1
331
CDD8
331
CDD9
331
CDE3
331
CDE4
331
CDEC
331
CDED
331
CDF5
331
CDF6
331
CDFE
331
CDFF
331
CE07
331
CE08
331
CE10
331
CE11
331
CE19
331
CE1A
331
CE22
331
CE23
331
CE2B
331
CE2C
331
CE34
331
CE35
331
CE3D
331
CE3E
331
CE46
331
CE47
331
CE51
331
CE52
331
CE5A
331
CE5B
331
CE63
331
CE64
331
CE6C
331
CE6D
331
CE75
331
CE76
331
CE7E
331
CE7F
331
CE87
331
CE88
331
CE90
331
CE91
331
CE9A
331
CE9B
331
CEA3
331
CEA4
102
}
  0
BLOCK_RECORD
  5
A66
330
1
100
AcDbSymbolTableRecord
100
AcDbBlockTableRecord
  2
_OPEN30
340
0
  0
BLOCK_RECORD
  5
BBA7
330
1
100
AcDbSymbolTableRecord
100
AcDbBlockTableRecord
  2
_DotSmall
340
0
102
{BLKREFS
331
BDB0
331
BDB2
331
CC4B
331
CC4E
331
CDA0
331
CDA1
331
CEAD
331
CEAE
102
}
  0
BLOCK_RECORD
  5
BDC1
330
1
100
AcDbSymbolTableRecord
100
AcDbBlockTableRecord
  2
*D6
340
0
  0
BLOCK_RECORD
  5
BDCE
330
1
100
AcDbSymbolTableRecord
100
AcDbBlockTableRecord
  2
*D7
340
0
  0
BLOCK_RECORD
  5
BDDA
330
1
100
AcDbSymbolTableRecord
100
AcDbBlockTableRecord
  2
*D8
340
0
  0
BLOCK_RECORD
  5
BDE6
330
1
100
AcDbSymbolTableRecord
100
AcDbBlockTableRecord
  2
*D9
340
0
  0
BLOCK_RECORD
  5
BDF2
330
1
100
AcDbSymbolTableRecord
100
AcDbBlockTableRecord
  2
*D10
340
0
  0
BLOCK_RECORD
  5
BDFE
330
1
100
AcDbSymbolTableRecord
100
AcDbBlockTableRecord
  2
*D11
340
0
  0
BLOCK_RECORD
  5
BE0A
330
1
100
AcDbSymbolTableRecord
100
AcDbBlockTableRecord
  2
*D12
340
0
  0
BLOCK_RECORD
  5
BE16
330
1
100
AcDbSymbolTableRecord
100
AcDbBlockTableRecord
  2
*D13
340
0
  0
BLOCK_RECORD
  5
BE22
330
1
100
AcDbSymbolTableRecord
100
AcDbBlockTableRecord
  2
*D14
340
0
  0
BLOCK_RECORD
  5
BE2E
330
1
100
AcDbSymbolTableRecord
100
AcDbBlockTableRecord
  2
*D15
340
0
  0
BLOCK_RECORD
  5
BE3A
330
1
100
AcDbSymbolTableRecord
100
AcDbBlockTableRecord
  2
*D16
340
0
  0
BLOCK_RECORD
  5
BE46
330
1
100
AcDbSymbolTableRecord
100
AcDbBlockTableRecord
  2
*D17
340
0
  0
BLOCK_RECORD
  5
BE52
330
1
100
AcDbSymbolTableRecord
100
AcDbBlockTableRecord
  2
*D18
340
0
  0
BLOCK_RECORD
  5
BE60
330
1
100
AcDbSymbolTableRecord
100
AcDbBlockTableRecord
  2
*D19
340
0
  0
BLOCK_RECORD
  5
BE6C
330
1
100
AcDbSymbolTableRecord
100
AcDbBlockTableRecord
  2
*D20
340
0
  0
BLOCK_RECORD
  5
BE78
330
1
100
AcDbSymbolTableRecord
100
AcDbBlockTableRecord
  2
*D21
340
0
  0
BLOCK_RECORD
  5
BE84
330
1
100
AcDbSymbolTableRecord
100
AcDbBlockTableRecord
  2
*D22
340
0
  0
BLOCK_RECORD
  5
BE90
330
1
100
AcDbSymbolTableRecord
100
AcDbBlockTableRecord
  2
*D23
340
0
  0
BLOCK_RECORD
  5
BE9C
330
1
100
AcDbSymbolTableRecord
100
AcDbBlockTableRecord
  2
*D24
340
0
  0
BLOCK_RECORD
  5
BEA8
330
1
100
AcDbSymbolTableRecord
100
AcDbBlockTableRecord
  2
*D25
340
0
  0
BLOCK_RECORD
  5
BEB4
330
1
100
AcDbSymbolTableRecord
100
AcDbBlockTableRecord
  2
*D26
340
0
  0
BLOCK_RECORD
  5
BEC0
330
1
100
AcDbSymbolTableRecord
100
AcDbBlockTableRecord
  2
*D27
340
0
  0
BLOCK_RECORD
  5
BECC
330
1
100
AcDbSymbolTableRecord
100
AcDbBlockTableRecord
  2
*D28
340
0
  0
BLOCK_RECORD
  5
C9C2
330
1
100
AcDbSymbolTableRecord
100
AcDbBlockTableRecord
  2
*D29
340
0
  0
BLOCK_RECORD
  5
C9CF
330
1
100
AcDbSymbolTableRecord
100
AcDbBlockTableRecord
  2
*D30
340
0
  0
BLOCK_RECORD
  5
C9DB
330
1
100
AcDbSymbolTableRecord
100
AcDbBlockTableRecord
  2
*D31
340
0
  0
BLOCK_RECORD
  5
C9E7
330
1
100
AcDbSymbolTableRecord
100
AcDbBlockTableRecord
  2
*D32
340
0
  0
BLOCK_RECORD
  5
C9F3
330
1
100
AcDbSymbolTableRecord
100
AcDbBlockTableRecord
  2
*D33
340
0
  0
BLOCK_RECORD
  5
C9FF
330
1
100
AcDbSymbolTableRecord
100
AcDbBlockTableRecord
  2
*D34
340
0
  0
BLOCK_RECORD
  5
CA0B
330
1
100
AcDbSymbolTableRecord
100
AcDbBlockTableRecord
  2
*D35
340
0
  0
BLOCK_RECORD
  5
CA17
330
1
100
AcDbSymbolTableRecord
100
AcDbBlockTableRecord
  2
*D36
340
0
  0
BLOCK_RECORD
  5
CA23
330
1
100
AcDbSymbolTableRecord
100
AcDbBlockTableRecord
  2
*D37
340
0
  0
BLOCK_RECORD
  5
CA2F
330
1
100
AcDbSymbolTableRecord
100
AcDbBlockTableRecord
  2
*D38
340
0
  0
BLOCK_RECORD
  5
CA3B
330
1
100
AcDbSymbolTableRecord
100
AcDbBlockTableRecord
  2
*D39
340
0
  0
BLOCK_RECORD
  5
CA47
330
1
100
AcDbSymbolTableRecord
100
AcDbBlockTableRecord
  2
*D40
340
0
  0
BLOCK_RECORD
  5
CA53
330
1
100
AcDbSymbolTableRecord
100
AcDbBlockTableRecord
  2
*D41
340
0
  0
BLOCK_RECORD
  5
CA5F
330
1
100
AcDbSymbolTableRecord
100
AcDbBlockTableRecord
  2
*D42
340
0
  0
BLOCK_RECORD
  5
CA6B
330
1
100
AcDbSymbolTableRecord
100
AcDbBlockTableRecord
  2
*D43
340
0
  0
BLOCK_RECORD
  5
CA77
330
1
100
AcDbSymbolTableRecord
100
AcDbBlockTableRecord
  2
*D44
340
0
  0
BLOCK_RECORD
  5
CA83
330
1
100
AcDbSymbolTableRecord
100
AcDbBlockTableRecord
  2
*D45
340
0
  0
BLOCK_RECORD
  5
CA8F
330
1
100
AcDbSymbolTableRecord
100
AcDbBlockTableRecord
  2
*D46
340
0
  0
BLOCK_RECORD
  5
CA9B
330
1
100
AcDbSymbolTableRecord
100
AcDbBlockTableRecord
  2
*D47
340
0
  0
BLOCK_RECORD
  5
CAA7
330
1
100
AcDbSymbolTableRecord
100
AcDbBlockTableRecord
  2
*D48
340
0
  0
BLOCK_RECORD
  5
CAB4
330
1
100
AcDbSymbolTableRecord
100
AcDbBlockTableRecord
  2
*D49
340
0
  0
BLOCK_RECORD
  5
CBF8
330
1
100
AcDbSymbolTableRecord
100
AcDbBlockTableRecord
  2
*D50
340
0
  0
BLOCK_RECORD
  5
CC0E
330
1
100
AcDbSymbolTableRecord
100
AcDbBlockTableRecord
  2
*D51
340
0
  0
BLOCK_RECORD
  5
CD78
330
1
100
AcDbSymbolTableRecord
100
AcDbBlockTableRecord
  2
*D52
340
0
  0
BLOCK_RECORD
  5
CD86
330
1
100
AcDbSymbolTableRecord
100
AcDbBlockTableRecord
  2
*D53
340
0
  0
BLOCK_RECORD
  5
CDC9
330
1
100
AcDbSymbolTableRecord
100
AcDbBlockTableRecord
  2
*D54
340
0
  0
ENDTAB
  0
ENDSEC
  0
SECTION
  2
BLOCKS
  0
BLOCK
  5
20
330
1F
100
AcDbEntity
  8
0
100
AcDbBlockBegin
  2
*Model_Space
 70
     0
 10
0.0
 20
0.0
 30
0.0
  3
*Model_Space
  1

  0
ENDBLK
  5
21
330
1F
100
AcDbEntity
  8
0
100
AcDbBlockEnd
  0
BLOCK
  5
1C
330
1B
100
AcDbEntity
 67
     1
  8
0
100
AcDbBlockBegin
  2
*Paper_Space
 70
     0
 10
0.0
 20
0.0
 30
0.0
  3
*Paper_Space
  1

  0
ENDBLK
  5
1D
330
1B
100
AcDbEntity
 67
     1
  8
0
100
AcDbBlockEnd
  0
BLOCK
  5
24
330
23
100
AcDbEntity
 67
     1
  8
0
100
AcDbBlockBegin
  2
*Paper_Space0
 70
     0
 10
0.0
 20
0.0
 30
0.0
  3
*Paper_Space0
  1

  0
ENDBLK
  5
25
330
23
100
AcDbEntity
 67
     1
  8
0
100
AcDbBlockEnd
  0
BLOCK
  5
74
330
72
100
AcDbEntity
  8
0
100
AcDbBlockBegin
  2
GENAXEH
 70
     0
 10
0.0
 20
0.0
 30
0.0
  3
GENAXEH
  1

  0
LINE
  5
73
330
72
100
AcDbEntity
  8
0
100
AcDbLine
 10
-1.0
 20
0.0
 30
0.0
 11
1.0
 21
0.0
 31
0.0
  0
ENDBLK
  5
75
330
72
100
AcDbEntity
  8
0
100
AcDbBlockEnd
  0
BLOCK
  5
6C7
330
6C4
100
AcDbEntity
  8
0
100
AcDbBlockBegin
  2
_Dot
 70
     0
 10
0.0
 20
0.0
 30
0.0
  3
_Dot
  1

  0
LWPOLYLINE
  5
6C5
330
6C4
100
AcDbEntity
  8
0
  6
ByBlock
 62
     0
100
AcDbPolyline
 90
        2
 70
     1
 43
0.5
 10
-0.25
 20
0.0
 42
1.0
 10
0.25
 20
0.0
 42
1.0
  0
LINE
  5
6C6
330
6C4
100
AcDbEntity
  8
0
  6
ByBlock
 62
     0
370
    -2
100
AcDbLine
 10
-0.5
 20
0.0
 30
0.0
 11
-1.0
 21
0.0
 31
0.0
  0
ENDBLK
  5
6C8
330
6C4
100
AcDbEntity
  8
0
100
AcDbBlockEnd
  0
BLOCK
  5
A6A
330
A66
100
AcDbEntity
  8
0
100
AcDbBlockBegin
  2
_OPEN30
 70
     0
 10
0.0
 20
0.0
 30
0.0
  3
_OPEN30
  1

  0
LINE
  5
A67
330
A66
100
AcDbEntity
  8
0
  6
ByBlock
 62
     0
100
AcDbLine
 10
-1.0
 20
0.26794919
 30
0.0
 11
0.0
 21
0.0
 31
0.0
  0
LINE
  5
A68
330
A66
100
AcDbEntity
  8
0
  6
ByBlock
 62
     0
100
AcDbLine
 10
0.0
 20
0.0
 30
0.0
 11
-1.0
 21
-0.26794919
 31
0.0
  0
LINE
  5
A69
330
A66
100
AcDbEntity
  8
0
  6
ByBlock
 62
     0
100
AcDbLine
 10
0.0
 20
0.0
 30
0.0
 11
-1.0
 21
0.0
 31
0.0
  0
ENDBLK
  5
A6B
330
A66
100
AcDbEntity
  8
0
100
AcDbBlockEnd
  0
BLOCK
  5
BBA8
330
BBA7
100
AcDbEntity
  8
0
100
AcDbBlockBegin
  2
_DotSmall
 70
     0
 10
0.0
 20
0.0
 30
0.0
  3
_DotSmall
  1

  0
LWPOLYLINE
  5
BBA9
330
BBA7
100
AcDbEntity
  8
0
  6
ByBlock
 62
     0
100
AcDbPolyline
 90
        2
 70
     1
 43
0.5
 10
-0.0625
 20
0.0
 42
1.0
 10
0.0625
 20
0.0
 42
1.0
  0
ENDBLK
  5
BBAA
330
BBA7
100
AcDbEntity
  8
0
100
AcDbBlockEnd
  0
BLOCK
  5
BDCC
330
BDC1
100
AcDbEntity
  8
0
100
AcDbBlockBegin
  2
*D6
 70
     1
 10
0.0
 20
0.0
 30
0.0
  3
*D6
  1

  0
LINE
  5
CDDF
330
BDC1
100
AcDbEntity
  8
AM_5
100
AcDbLine
 10
1865.805860416914
 20
1500.392057636909
 30
0.0
 11
1865.805860416914
 21
1487.392056636909
 31
0.0
  0
LINE
  5
CDE0
330
BDC1
100
AcDbEntity
  8
AM_5
100
AcDbLine
 10
1843.805860416914
 20
1500.392057636909
 30
0.0
 11
1843.805860416914
 21
1487.392056636909
 31
0.0
  0
LINE
  5
CDE1
330
BDC1
100
AcDbEntity
  8
AM_5
100
AcDbLine
 10
1864.805860416914
 20
1488.392056636909
 30
0.0
 11
1844.805860416914
 21
1488.392056636909
 31
0.0
  0
LINE
  5
CDE2
330
BDC1
100
AcDbEntity
  8
AM_5
100
AcDbLine
 10
1843.805860416914
 20
1488.392056636909
 30
0.0
 11
1832.614532023425
 21
1488.392056636909
 31
0.0
  0
INSERT
  5
CDE3
330
BDC1
100
AcDbEntity
  8
AM_5
100
AcDbBlockReference
  2
_Dot
 10
1865.805860416914
 20
1488.392056636909
 30
0.0
  0
INSERT
  5
CDE4
330
BDC1
100
AcDbEntity
  8
AM_5
100
AcDbBlockReference
  2
_Dot
 10
1843.805860416914
 20
1488.392056636909
 30
0.0
 50
180.0
  0
MTEXT
  5
CDE5
330
BDC1
100
AcDbEntity
  8
AM_5
 62
     2
100
AcDbMText
 10
1836.941198690092
 20
1491.492056636909
 30
0.0
 40
3.200000000000001
 41
0.0
 71
     5
 72
     1
  1
%%c22
 73
     1
 44
1.0
1001
ACAD
1000
MTEXTBEGIN
1070
    73
1070
     1
1070
    44
1040
1.0
1070
    74
1070
     0
1000
MTEXTEND
  0
POINT
  5
CDE6
330
BDC1
100
AcDbEntity
  8
Defpoints
 62
     0
100
AcDbPoint
 10
1865.805860416914
 20
1501.392057636909
 30
0.0
  0
POINT
  5
CDE7
330
BDC1
100
AcDbEntity
  8
Defpoints
 62
     0
100
AcDbPoint
 10
1843.805860416914
 20
1501.392057636909
 30
0.0
  0
POINT
  5
CDE8
330
BDC1
100
AcDbEntity
  8
Defpoints
 62
     0
100
AcDbPoint
 10
1843.805860416914
 20
1488.392056636909
 30
0.0
  0
ENDBLK
  5
BDCD
330
BDC1
100
AcDbEntity
  8
0
100
AcDbBlockEnd
  0
BLOCK
  5
BDD8
330
BDCE
100
AcDbEntity
  8
0
100
AcDbBlockBegin
  2
*D7
 70
     1
 10
0.0
 20
0.0
 30
0.0
  3
*D7
  1

  0
LINE
  5
CDE9
330
BDCE
100
AcDbEntity
  8
AM_5
100
AcDbLine
 10
1909.555860416914
 20
1455.39205763691
 30
0.0
 11
1921.055860416914
 21
1455.39205763691
 31
0.0
  0
LINE
  5
CDEA
330
BDCE
100
AcDbEntity
  8
AM_5
100
AcDbLine
 10
1903.805860416914
 20
1442.392057636909
 30
0.0
 11
1921.055860416914
 21
1442.392057636909
 31
0.0
  0
LINE
  5
CDEB
330
BDCE
100
AcDbEntity
  8
AM_5
100
AcDbLine
 10
1920.055860416914
 20
1454.392057636909
 30
0.0
 11
1920.055860416914
 21
1443.392057636909
 31
0.0
  0
INSERT
  5
CDEC
330
BDCE
100
AcDbEntity
  8
AM_5
100
AcDbBlockReference
  2
_Dot
 10
1920.055860416914
 20
1455.39205763691
 30
0.0
 50
90.0
  0
INSERT
  5
CDED
330
BDCE
100
AcDbEntity
  8
AM_5
100
AcDbBlockReference
  2
_Dot
 10
1920.055860416914
 20
1442.392057636909
 30
0.0
 50
270.0
  0
MTEXT
  5
CDEE
330
BDCE
100
AcDbEntity
  8
AM_5
 62
     2
100
AcDbMText
 10
1916.955860416913
 20
1448.89205763691
 30
0.0
 40
3.200000000000001
 41
0.0
 71
     5
 72
     1
  1
13
 11
0.0000000000000001
 21
1.0
 31
0.0
 73
     1
 44
1.0
1001
ACAD
1000
MTEXTBEGIN
1070
    73
1070
     1
1070
    44
1040
1.0
1070
    74
1070
     0
1000
MTEXTEND
  0
POINT
  5
CDEF
330
BDCE
100
AcDbEntity
  8
Defpoints
 62
     0
100
AcDbPoint
 10
1908.555860416914
 20
1455.39205763691
 30
0.0
  0
POINT
  5
CDF0
330
BDCE
100
AcDbEntity
  8
Defpoints
 62
     0
100
AcDbPoint
 10
1902.805860416914
 20
1442.392057636909
 30
0.0
  0
POINT
  5
CDF1
330
BDCE
100
AcDbEntity
  8
Defpoints
 62
     0
100
AcDbPoint
 10
1920.055860416914
 20
1442.392057636909
 30
0.0
  0
ENDBLK
  5
BDD9
330
BDCE
100
AcDbEntity
  8
0
100
AcDbBlockEnd
  0
BLOCK
  5
BDE4
330
BDDA
100
AcDbEntity
  8
0
100
AcDbBlockBegin
  2
*D8
 70
     1
 10
0.0
 20
0.0
 30
0.0
  3
*D8
  1

  0
LINE
  5
CDF2
330
BDDA
100
AcDbEntity
  8
AM_5
100
AcDbLine
 10
1903.805860416914
 20
1442.392057636909
 30
0.0
 11
1931.055860416914
 21
1442.392057636909
 31
0.0
  0
LINE
  5
CDF3
330
BDDA
100
AcDbEntity
  8
AM_5
100
AcDbLine
 10
1903.805860416914
 20
1501.392057636909
 30
0.0
 11
1931.055860416914
 21
1501.392057636909
 31
0.0
  0
LINE
  5
CDF4
330
BDDA
100
AcDbEntity
  8
AM_5
100
AcDbLine
 10
1930.055860416914
 20
1443.392057636909
 30
0.0
 11
1930.055860416914
 21
1500.392057636909
 31
0.0
  0
INSERT
  5
CDF5
330
BDDA
100
AcDbEntity
  8
AM_5
100
AcDbBlockReference
  2
_Dot
 10
1930.055860416914
 20
1442.392057636909
 30
0.0
 50
270.0
  0
INSERT
  5
CDF6
330
BDDA
100
AcDbEntity
  8
AM_5
100
AcDbBlockReference
  2
_Dot
 10
1930.055860416914
 20
1501.392057636909
 30
0.0
 50
90.0
  0
MTEXT
  5
CDF7
330
BDDA
100
AcDbEntity
  8
AM_5
 62
     2
100
AcDbMText
 10
1926.955860416914
 20
1471.89205763691
 30
0.0
 40
3.200000000000001
 41
0.0
 71
     5
 72
     1
  1
59
 11
0.0000000000000001
 21
1.0
 31
0.0
 73
     1
 44
1.0
1001
ACAD
1000
MTEXTBEGIN
1070
    73
1070
     1
1070
    44
1040
1.0
1070
    74
1070
     0
1000
MTEXTEND
  0
POINT
  5
CDF8
330
BDDA
100
AcDbEntity
  8
Defpoints
 62
     0
100
AcDbPoint
 10
1902.805860416914
 20
1442.392057636909
 30
0.0
  0
POINT
  5
CDF9
330
BDDA
100
AcDbEntity
  8
Defpoints
 62
     0
100
AcDbPoint
 10
1902.805860416914
 20
1501.392057636909
 30
0.0
  0
POINT
  5
CDFA
330
BDDA
100
AcDbEntity
  8
Defpoints
 62
     0
100
AcDbPoint
 10
1930.055860416914
 20
1501.392057636909
 30
0.0
  0
ENDBLK
  5
BDE5
330
BDDA
100
AcDbEntity
  8
0
100
AcDbBlockEnd
  0
BLOCK
  5
BDF0
330
BDE6
100
AcDbEntity
  8
0
100
AcDbBlockBegin
  2
*D9
 70
     1
 10
0.0
 20
0.0
 30
0.0
  3
*D9
  1

  0
LINE
  5
CDFB
330
BDE6
100
AcDbEntity
  8
AM_5
100
AcDbLine
 10
1909.555860416914
 20
1492.39205763691
 30
0.0
 11
1921.055860416914
 21
1492.39205763691
 31
0.0
  0
LINE
  5
CDFC
330
BDE6
100
AcDbEntity
  8
AM_5
100
AcDbLine
 10
1903.805860416914
 20
1501.392057636909
 30
0.0
 11
1921.055860416914
 21
1501.392057636909
 31
0.0
  0
LINE
  5
CDFD
330
BDE6
100
AcDbEntity
  8
AM_5
100
AcDbLine
 10
1920.055860416914
 20
1493.392057636909
 30
0.0
 11
1920.055860416914
 21
1500.392057636909
 31
0.0
  0
INSERT
  5
CDFE
330
BDE6
100
AcDbEntity
  8
AM_5
100
AcDbBlockReference
  2
_Dot
 10
1920.055860416914
 20
1492.39205763691
 30
0.0
 50
270.0
  0
INSERT
  5
CDFF
330
BDE6
100
AcDbEntity
  8
AM_5
100
AcDbBlockReference
  2
_Dot
 10
1920.055860416914
 20
1501.392057636909
 30
0.0
 50
90.0
  0
MTEXT
  5
CE00
330
BDE6
100
AcDbEntity
  8
AM_5
 62
     2
100
AcDbMText
 10
1916.955860416913
 20
1496.89205763691
 30
0.0
 40
3.200000000000001
 41
0.0
 71
     5
 72
     1
  1
9
 11
0.0000000000000001
 21
1.0
 31
0.0
 73
     1
 44
1.0
1001
ACAD
1000
MTEXTBEGIN
1070
    73
1070
     1
1070
    44
1040
1.0
1070
    74
1070
     0
1000
MTEXTEND
  0
POINT
  5
CE01
330
BDE6
100
AcDbEntity
  8
Defpoints
 62
     0
100
AcDbPoint
 10
1908.555860416914
 20
1492.39205763691
 30
0.0
  0
POINT
  5
CE02
330
BDE6
100
AcDbEntity
  8
Defpoints
 62
     0
100
AcDbPoint
 10
1902.805860416914
 20
1501.392057636909
 30
0.0
  0
POINT
  5
CE03
330
BDE6
100
AcDbEntity
  8
Defpoints
 62
     0
100
AcDbPoint
 10
1920.055860416914
 20
1501.392057636909
 30
0.0
  0
ENDBLK
  5
BDF1
330
BDE6
100
AcDbEntity
  8
0
100
AcDbBlockEnd
  0
BLOCK
  5
BDFC
330
BDF2
100
AcDbEntity
  8
0
100
AcDbBlockBegin
  2
*D10
 70
     1
 10
0.0
 20
0.0
 30
0.0
  3
*D10
  1

  0
LINE
  5
CE04
330
BDF2
100
AcDbEntity
  8
AM_5
100
AcDbLine
 10
1909.555860416914
 20
1455.39205763691
 30
0.0
 11
1921.055860416914
 21
1455.39205763691
 31
0.0
  0
LINE
  5
CE05
330
BDF2
100
AcDbEntity
  8
AM_5
100
AcDbLine
 10
1901.555860416914
 20
1473.89205763691
 30
0.0
 11
1921.055860416914
 21
1473.89205763691
 31
0.0
  0
LINE
  5
CE06
330
BDF2
100
AcDbEntity
  8
AM_5
100
AcDbLine
 10
1920.055860416914
 20
1456.39205763691
 30
0.0
 11
1920.055860416914
 21
1472.89205763691
 31
0.0
  0
INSERT
  5
CE07
330
BDF2
100
AcDbEntity
  8
AM_5
100
AcDbBlockReference
  2
_Dot
 10
1920.055860416914
 20
1455.39205763691
 30
0.0
 50
270.0
  0
INSERT
  5
CE08
330
BDF2
100
AcDbEntity
  8
AM_5
100
AcDbBlockReference
  2
_Dot
 10
1920.055860416914
 20
1473.89205763691
 30
0.0
 50
90.0
  0
MTEXT
  5
CE09
330
BDF2
100
AcDbEntity
  8
AM_5
 62
     2
100
AcDbMText
 10
1916.955860416913
 20
1464.64205763691
 30
0.0
 40
3.200000000000001
 41
0.0
 71
     5
 72
     1
  1
18.5
 11
0.0000000000000001
 21
1.0
 31
0.0
 73
     1
 44
1.0
1001
ACAD
1000
MTEXTBEGIN
1070
    73
1070
     1
1070
    44
1040
1.0
1070
    74
1070
     0
1000
MTEXTEND
  0
POINT
  5
CE0A
330
BDF2
100
AcDbEntity
  8
Defpoints
 62
     0
100
AcDbPoint
 10
1908.555860416914
 20
1455.39205763691
 30
0.0
  0
POINT
  5
CE0B
330
BDF2
100
AcDbEntity
  8
Defpoints
 62
     0
100
AcDbPoint
 10
1900.555860416914
 20
1473.89205763691
 30
0.0
  0
POINT
  5
CE0C
330
BDF2
100
AcDbEntity
  8
Defpoints
 62
     0
100
AcDbPoint
 10
1920.055860416914
 20
1473.89205763691
 30
0.0
  0
ENDBLK
  5
BDFD
330
BDF2
100
AcDbEntity
  8
0
100
AcDbBlockEnd
  0
BLOCK
  5
BE08
330
BDFE
100
AcDbEntity
  8
0
100
AcDbBlockBegin
  2
*D11
 70
     1
 10
0.0
 20
0.0
 30
0.0
  3
*D11
  1

  0
LINE
  5
CE0D
330
BDFE
100
AcDbEntity
  8
AM_5
100
AcDbLine
 10
1901.555860416914
 20
1473.89205763691
 30
0.0
 11
1921.055860416914
 21
1473.89205763691
 31
0.0
  0
LINE
  5
CE0E
330
BDFE
100
AcDbEntity
  8
AM_5
100
AcDbLine
 10
1909.555860416914
 20
1492.39205763691
 30
0.0
 11
1921.055860416914
 21
1492.39205763691
 31
0.0
  0
LINE
  5
CE0F
330
BDFE
100
AcDbEntity
  8
AM_5
100
AcDbLine
 10
1920.055860416914
 20
1474.89205763691
 30
0.0
 11
1920.055860416914
 21
1491.392057636909
 31
0.0
  0
INSERT
  5
CE10
330
BDFE
100
AcDbEntity
  8
AM_5
100
AcDbBlockReference
  2
_Dot
 10
1920.055860416914
 20
1473.89205763691
 30
0.0
 50
270.0
  0
INSERT
  5
CE11
330
BDFE
100
AcDbEntity
  8
AM_5
100
AcDbBlockReference
  2
_Dot
 10
1920.055860416914
 20
1492.39205763691
 30
0.0
 50
90.0
  0
MTEXT
  5
CE12
330
BDFE
100
AcDbEntity
  8
AM_5
 62
     2
100
AcDbMText
 10
1916.955860416913
 20
1483.14205763691
 30
0.0
 40
3.200000000000001
 41
0.0
 71
     5
 72
     1
  1
18.5
 11
0.0000000000000001
 21
1.0
 31
0.0
 73
     1
 44
1.0
1001
ACAD
1000
MTEXTBEGIN
1070
    73
1070
     1
1070
    44
1040
1.0
1070
    74
1070
     0
1000
MTEXTEND
  0
POINT
  5
CE13
330
BDFE
100
AcDbEntity
  8
Defpoints
 62
     0
100
AcDbPoint
 10
1900.555860416914
 20
1473.89205763691
 30
0.0
  0
POINT
  5
CE14
330
BDFE
100
AcDbEntity
  8
Defpoints
 62
     0
100
AcDbPoint
 10
1908.555860416914
 20
1492.39205763691
 30
0.0
  0
POINT
  5
CE15
330
BDFE
100
AcDbEntity
  8
Defpoints
 62
     0
100
AcDbPoint
 10
1920.055860416914
 20
1492.39205763691
 30
0.0
  0
ENDBLK
  5
BE09
330
BDFE
100
AcDbEntity
  8
0
100
AcDbBlockEnd
  0
BLOCK
  5
BE14
330
BE0A
100
AcDbEntity
  8
0
100
AcDbBlockBegin
  2
*D12
 70
     1
 10
0.0
 20
0.0
 30
0.0
  3
*D12
  1

  0
LINE
  5
CE16
330
BE0A
100
AcDbEntity
  8
AM_5
100
AcDbLine
 10
1806.805860416914
 20
1615.392057636909
 30
0.0
 11
1788.805859416913
 21
1615.392057636909
 31
0.0
  0
LINE
  5
CE17
330
BE0A
100
AcDbEntity
  8
AM_5
100
AcDbLine
 10
1800.555860416914
 20
1556.392057636909
 30
0.0
 11
1788.805859416913
 21
1556.392057636909
 31
0.0
  0
LINE
  5
CE18
330
BE0A
100
AcDbEntity
  8
AM_5
100
AcDbLine
 10
1789.805859416913
 20
1614.39205763691
 30
0.0
 11
1789.805859416913
 21
1557.392057636909
 31
0.0
  0
INSERT
  5
CE19
330
BE0A
100
AcDbEntity
  8
AM_5
100
AcDbBlockReference
  2
_Dot
 10
1789.805859416913
 20
1615.392057636909
 30
0.0
 50
90.0
  0
INSERT
  5
CE1A
330
BE0A
100
AcDbEntity
  8
AM_5
100
AcDbBlockReference
  2
_Dot
 10
1789.805859416913
 20
1556.392057636909
 30
0.0
 50
270.0
  0
MTEXT
  5
CE1B
330
BE0A
100
AcDbEntity
  8
AM_5
 62
     2
100
AcDbMText
 10
1786.705859416913
 20
1585.89205763691
 30
0.0
 40
3.200000000000001
 41
0.0
 71
     5
 72
     1
  1
59
 11
0.0000000000000001
 21
1.0
 31
0.0
 73
     1
 44
1.0
1001
ACAD
1000
MTEXTBEGIN
1070
    73
1070
     1
1070
    44
1040
1.0
1070
    74
1070
     0
1000
MTEXTEND
  0
POINT
  5
CE1C
330
BE0A
100
AcDbEntity
  8
Defpoints
 62
     0
100
AcDbPoint
 10
1807.805860416914
 20
1615.392057636909
 30
0.0
  0
POINT
  5
CE1D
330
BE0A
100
AcDbEntity
  8
Defpoints
 62
     0
100
AcDbPoint
 10
1801.555860416914
 20
1556.392057636909
 30
0.0
  0
POINT
  5
CE1E
330
BE0A
100
AcDbEntity
  8
Defpoints
 62
     0
100
AcDbPoint
 10
1789.805859416913
 20
1556.392057636909
 30
0.0
  0
ENDBLK
  5
BE15
330
BE0A
100
AcDbEntity
  8
0
100
AcDbBlockEnd
  0
BLOCK
  5
BE20
330
BE16
100
AcDbEntity
  8
0
100
AcDbBlockBegin
  2
*D13
 70
     1
 10
0.0
 20
0.0
 30
0.0
  3
*D13
  1

  0
LINE
  5
CE1F
330
BE16
100
AcDbEntity
  8
AM_5
100
AcDbLine
 10
1808.555860416914
 20
1537.892057636909
 30
0.0
 11
1788.805859416913
 21
1537.892057636909
 31
0.0
  0
LINE
  5
CE20
330
BE16
100
AcDbEntity
  8
AM_5
100
AcDbLine
 10
1800.555860416914
 20
1519.392057636909
 30
0.0
 11
1788.805859416912
 21
1519.392057636909
 31
0.0
  0
LINE
  5
CE21
330
BE16
100
AcDbEntity
  8
AM_5
100
AcDbLine
 10
1789.805859416913
 20
1536.892057636909
 30
0.0
 11
1789.805859416912
 21
1520.392057636909
 31
0.0
  0
INSERT
  5
CE22
330
BE16
100
AcDbEntity
  8
AM_5
100
AcDbBlockReference
  2
_Dot
 10
1789.805859416913
 20
1537.892057636909
 30
0.0
 50
90.0
  0
INSERT
  5
CE23
330
BE16
100
AcDbEntity
  8
AM_5
100
AcDbBlockReference
  2
_Dot
 10
1789.805859416912
 20
1519.392057636909
 30
0.0
 50
270.0
  0
MTEXT
  5
CE24
330
BE16
100
AcDbEntity
  8
AM_5
 62
     2
100
AcDbMText
 10
1786.705859416913
 20
1528.64205763691
 30
0.0
 40
3.200000000000001
 41
0.0
 71
     5
 72
     1
  1
18.5
 11
0.0000000000000001
 21
1.0
 31
0.0
 73
     1
 44
1.0
1001
ACAD
1000
MTEXTBEGIN
1070
    73
1070
     1
1070
    44
1040
1.0
1070
    74
1070
     0
1000
MTEXTEND
  0
POINT
  5
CE25
330
BE16
100
AcDbEntity
  8
Defpoints
 62
     0
100
AcDbPoint
 10
1809.555860416914
 20
1537.892057636909
 30
0.0
  0
POINT
  5
CE26
330
BE16
100
AcDbEntity
  8
Defpoints
 62
     0
100
AcDbPoint
 10
1801.555860416914
 20
1519.392057636909
 30
0.0
  0
POINT
  5
CE27
330
BE16
100
AcDbEntity
  8
Defpoints
 62
     0
100
AcDbPoint
 10
1789.805859416912
 20
1519.392057636909
 30
0.0
  0
ENDBLK
  5
BE21
330
BE16
100
AcDbEntity
  8
0
100
AcDbBlockEnd
  0
BLOCK
  5
BE2C
330
BE22
100
AcDbEntity
  8
0
100
AcDbBlockBegin
  2
*D14
 70
     1
 10
0.0
 20
0.0
 30
0.0
  3
*D14
  1

  0
LINE
  5
CE28
330
BE22
100
AcDbEntity
  8
AM_5
100
AcDbLine
 10
1800.555860416914
 20
1519.392057636909
 30
0.0
 11
1788.805859416912
 21
1519.392057636909
 31
0.0
  0
LINE
  5
CE29
330
BE22
100
AcDbEntity
  8
AM_5
100
AcDbLine
 10
1806.805860416914
 20
1510.39205763691
 30
0.0
 11
1788.805859416912
 21
1510.39205763691
 31
0.0
  0
LINE
  5
CE2A
330
BE22
100
AcDbEntity
  8
AM_5
100
AcDbLine
 10
1789.805859416912
 20
1518.392057636909
 30
0.0
 11
1789.805859416912
 21
1511.39205763691
 31
0.0
  0
INSERT
  5
CE2B
330
BE22
100
AcDbEntity
  8
AM_5
100
AcDbBlockReference
  2
_Dot
 10
1789.805859416912
 20
1519.392057636909
 30
0.0
 50
90.0
  0
INSERT
  5
CE2C
330
BE22
100
AcDbEntity
  8
AM_5
100
AcDbBlockReference
  2
_Dot
 10
1789.805859416912
 20
1510.39205763691
 30
0.0
 50
270.0
  0
MTEXT
  5
CE2D
330
BE22
100
AcDbEntity
  8
AM_5
 62
     2
100
AcDbMText
 10
1786.705859416913
 20
1514.89205763691
 30
0.0
 40
3.200000000000001
 41
0.0
 71
     5
 72
     1
  1
9
 11
0.0000000000000001
 21
1.0
 31
0.0
 73
     1
 44
1.0
1001
ACAD
1000
MTEXTBEGIN
1070
    73
1070
     1
1070
    44
1040
1.0
1070
    74
1070
     0
1000
MTEXTEND
  0
POINT
  5
CE2E
330
BE22
100
AcDbEntity
  8
Defpoints
 62
     0
100
AcDbPoint
 10
1801.555860416914
 20
1519.392057636909
 30
0.0
  0
POINT
  5
CE2F
330
BE22
100
AcDbEntity
  8
Defpoints
 62
     0
100
AcDbPoint
 10
1807.805860416914
 20
1510.39205763691
 30
0.0
  0
POINT
  5
CE30
330
BE22
100
AcDbEntity
  8
Defpoints
 62
     0
100
AcDbPoint
 10
1789.805859416912
 20
1510.39205763691
 30
0.0
  0
ENDBLK
  5
BE2D
330
BE22
100
AcDbEntity
  8
0
100
AcDbBlockEnd
  0
BLOCK
  5
BE38
330
BE2E
100
AcDbEntity
  8
0
100
AcDbBlockBegin
  2
*D15
 70
     1
 10
0.0
 20
0.0
 30
0.0
  3
*D15
  1

  0
LINE
  5
CE31
330
BE2E
100
AcDbEntity
  8
AM_5
100
AcDbLine
 10
1806.805860416914
 20
1510.39205763691
 30
0.0
 11
1778.805859416912
 21
1510.39205763691
 31
0.0
  0
LINE
  5
CE32
330
BE2E
100
AcDbEntity
  8
AM_5
100
AcDbLine
 10
1842.805860416914
 20
1501.392057636909
 30
0.0
 11
1778.805859416912
 21
1501.392057636909
 31
0.0
  0
LINE
  5
CE33
330
BE2E
100
AcDbEntity
  8
AM_5
100
AcDbLine
 10
1779.805859416913
 20
1509.392057636909
 30
0.0
 11
1779.805859416913
 21
1502.392057636909
 31
0.0
  0
INSERT
  5
CE34
330
BE2E
100
AcDbEntity
  8
AM_5
100
AcDbBlockReference
  2
_Dot
 10
1779.805859416913
 20
1510.39205763691
 30
0.0
 50
90.0
  0
INSERT
  5
CE35
330
BE2E
100
AcDbEntity
  8
AM_5
100
AcDbBlockReference
  2
_Dot
 10
1779.805859416913
 20
1501.392057636909
 30
0.0
 50
270.0
  0
MTEXT
  5
CE36
330
BE2E
100
AcDbEntity
  8
AM_5
 62
     2
100
AcDbMText
 10
1776.705859416912
 20
1505.89205763691
 30
0.0
 40
3.200000000000001
 41
0.0
 71
     5
 72
     1
  1
9
 11
0.0000000000000001
 21
1.0
 31
0.0
 73
     1
 44
1.0
1001
ACAD
1000
MTEXTBEGIN
1070
    73
1070
     1
1070
    44
1040
1.0
1070
    74
1070
     0
1000
MTEXTEND
  0
POINT
  5
CE37
330
BE2E
100
AcDbEntity
  8
Defpoints
 62
     0
100
AcDbPoint
 10
1807.805860416914
 20
1510.39205763691
 30
0.0
  0
POINT
  5
CE38
330
BE2E
100
AcDbEntity
  8
Defpoints
 62
     0
100
AcDbPoint
 10
1843.805860416914
 20
1501.392057636909
 30
0.0
  0
POINT
  5
CE39
330
BE2E
100
AcDbEntity
  8
Defpoints
 62
     0
100
AcDbPoint
 10
1779.805859416913
 20
1501.392057636909
 30
0.0
  0
ENDBLK
  5
BE39
330
BE2E
100
AcDbEntity
  8
0
100
AcDbBlockEnd
  0
BLOCK
  5
BE44
330
BE3A
100
AcDbEntity
  8
0
100
AcDbBlockBegin
  2
*D16
 70
     1
 10
0.0
 20
0.0
 30
0.0
  3
*D16
  1

  0
LINE
  5
CE3A
330
BE3A
100
AcDbEntity
  8
AM_5
100
AcDbLine
 10
1800.555860416914
 20
1556.392057636909
 30
0.0
 11
1788.805859416913
 21
1556.392057636909
 31
0.0
  0
LINE
  5
CE3B
330
BE3A
100
AcDbEntity
  8
AM_5
100
AcDbLine
 10
1808.555860416914
 20
1537.892057636909
 30
0.0
 11
1788.805859416913
 21
1537.892057636909
 31
0.0
  0
LINE
  5
CE3C
330
BE3A
100
AcDbEntity
  8
AM_5
100
AcDbLine
 10
1789.805859416913
 20
1555.392057636909
 30
0.0
 11
1789.805859416913
 21
1538.89205763691
 31
0.0
  0
INSERT
  5
CE3D
330
BE3A
100
AcDbEntity
  8
AM_5
100
AcDbBlockReference
  2
_Dot
 10
1789.805859416913
 20
1556.392057636909
 30
0.0
 50
90.0
  0
INSERT
  5
CE3E
330
BE3A
100
AcDbEntity
  8
AM_5
100
AcDbBlockReference
  2
_Dot
 10
1789.805859416913
 20
1537.892057636909
 30
0.0
 50
270.0
  0
MTEXT
  5
CE3F
330
BE3A
100
AcDbEntity
  8
AM_5
 62
     2
100
AcDbMText
 10
1786.705859416913
 20
1547.14205763691
 30
0.0
 40
3.200000000000001
 41
0.0
 71
     5
 72
     1
  1
18.5
 11
0.0000000000000001
 21
1.0
 31
0.0
 73
     1
 44
1.0
1001
ACAD
1000
MTEXTBEGIN
1070
    73
1070
     1
1070
    44
1040
1.0
1070
    74
1070
     0
1000
MTEXTEND
  0
POINT
  5
CE40
330
BE3A
100
AcDbEntity
  8
Defpoints
 62
     0
100
AcDbPoint
 10
1801.555860416914
 20
1556.392057636909
 30
0.0
  0
POINT
  5
CE41
330
BE3A
100
AcDbEntity
  8
Defpoints
 62
     0
100
AcDbPoint
 10
1809.555860416914
 20
1537.892057636909
 30
0.0
  0
POINT
  5
CE42
330
BE3A
100
AcDbEntity
  8
Defpoints
 62
     0
100
AcDbPoint
 10
1789.805859416913
 20
1537.892057636909
 30
0.0
  0
ENDBLK
  5
BE45
330
BE3A
100
AcDbEntity
  8
0
100
AcDbBlockEnd
  0
BLOCK
  5
BE50
330
BE46
100
AcDbEntity
  8
0
100
AcDbBlockBegin
  2
*D17
 70
     1
 10
0.0
 20
0.0
 30
0.0
  3
*D17
  1

  0
LINE
  5
CE43
330
BE46
100
AcDbEntity
  8
AM_5
100
AcDbLine
 10
1806.805860416914
 20
1510.39205763691
 30
0.0
 11
1778.805859416912
 21
1510.39205763691
 31
0.0
  0
LINE
  5
CE44
330
BE46
100
AcDbEntity
  8
AM_5
100
AcDbLine
 10
1806.805860416914
 20
1615.392057636909
 30
0.0
 11
1778.805859416912
 21
1615.392057636909
 31
0.0
  0
LINE
  5
CE45
330
BE46
100
AcDbEntity
  8
AM_5
100
AcDbLine
 10
1779.805859416912
 20
1511.39205763691
 30
0.0
 11
1779.805859416913
 21
1614.39205763691
 31
0.0
  0
INSERT
  5
CE46
330
BE46
100
AcDbEntity
  8
AM_5
100
AcDbBlockReference
  2
_Dot
 10
1779.805859416912
 20
1510.39205763691
 30
0.0
 50
270.0
  0
INSERT
  5
CE47
330
BE46
100
AcDbEntity
  8
AM_5
100
AcDbBlockReference
  2
_Dot
 10
1779.805859416913
 20
1615.392057636909
 30
0.0
 50
90.0
  0
MTEXT
  5
CE48
330
BE46
100
AcDbEntity
  8
AM_5
 62
     2
100
AcDbMText
 10
1776.705859416912
 20
1562.89205763691
 30
0.0
 40
3.200000000000001
 41
0.0
 71
     5
 72
     1
  1
105
 11
0.0000000000000001
 21
1.0
 31
0.0
 73
     1
 44
1.0
1001
ACAD
1000
MTEXTBEGIN
1070
    73
1070
     1
1070
    44
1040
1.0
1070
    74
1070
     0
1000
MTEXTEND
  0
POINT
  5
CE49
330
BE46
100
AcDbEntity
  8
Defpoints
 62
     0
100
AcDbPoint
 10
1807.805860416914
 20
1510.39205763691
 30
0.0
  0
POINT
  5
CE4A
330
BE46
100
AcDbEntity
  8
Defpoints
 62
     0
100
AcDbPoint
 10
1807.805860416914
 20
1615.392057636909
 30
0.0
  0
POINT
  5
CE4B
330
BE46
100
AcDbEntity
  8
Defpoints
 62
     0
100
AcDbPoint
 10
1779.805859416913
 20
1615.392057636909
 30
0.0
  0
ENDBLK
  5
BE51
330
BE46
100
AcDbEntity
  8
0
100
AcDbBlockEnd
  0
BLOCK
  5
BE5E
330
BE52
100
AcDbEntity
  8
0
100
AcDbBlockBegin
  2
*D18
 70
     1
 10
0.0
 20
0.0
 30
0.0
  3
*D18
  1

  0
LINE
  5
CE4C
330
BE52
100
AcDbEntity
  8
AM_5
100
AcDbLine
 10
1908.805860416913
 20
1701.580297614965
 30
0.0
 11
1931.055860416914
 21
1701.580297614965
 31
0.0
  0
LINE
  5
CE4D
330
BE52
100
AcDbEntity
  8
AM_5
100
AcDbLine
 10
1908.805860416913
 20
1704.580297614965
 30
0.0
 11
1931.055860416914
 21
1704.580297614965
 31
0.0
  0
LINE
  5
CE4E
330
BE52
100
AcDbEntity
  8
AM_5
100
AcDbLine
 10
1930.055860416914
 20
1700.580297614965
 30
0.0
 11
1930.055860416914
 21
1699.580297614965
 31
0.0
  0
LINE
  5
CE4F
330
BE52
100
AcDbEntity
  8
AM_5
100
AcDbLine
 10
1930.055860416914
 20
1705.580297614965
 30
0.0
 11
1930.055860416914
 21
1711.073630948298
 31
0.0
  0
LINE
  5
CE50
330
BE52
100
AcDbEntity
  8
AM_5
100
AcDbLine
 10
1930.055860416914
 20
1701.580297614965
 30
0.0
 11
1930.055860416914
 21
1704.580297614965
 31
0.0
  0
INSERT
  5
CE51
330
BE52
100
AcDbEntity
  8
AM_5
100
AcDbBlockReference
  2
_Dot
 10
1930.055860416914
 20
1701.580297614965
 30
0.0
 50
90.0
  0
INSERT
  5
CE52
330
BE52
100
AcDbEntity
  8
AM_5
100
AcDbBlockReference
  2
_Dot
 10
1930.055860416914
 20
1704.580297614965
 30
0.0
 50
270.0
  0
MTEXT
  5
CE53
330
BE52
100
AcDbEntity
  8
AM_5
 62
     2
100
AcDbMText
 10
1926.955860416913
 20
1708.826964281632
 30
0.0
 40
3.200000000000001
 41
0.0
 71
     5
 72
     1
  1
3
 11
0.0000000000000001
 21
1.0
 31
0.0
 73
     1
 44
1.0
1001
ACAD
1000
MTEXTBEGIN
1070
    73
1070
     1
1070
    44
1040
1.0
1070
    74
1070
     0
1000
MTEXTEND
  0
POINT
  5
CE54
330
BE52
100
AcDbEntity
  8
Defpoints
 62
     0
100
AcDbPoint
 10
1907.805860416914
 20
1701.580297614965
 30
0.0
  0
POINT
  5
CE55
330
BE52
100
AcDbEntity
  8
Defpoints
 62
     0
100
AcDbPoint
 10
1907.805860416914
 20
1704.580297614965
 30
0.0
  0
POINT
  5
CE56
330
BE52
100
AcDbEntity
  8
Defpoints
 62
     0
100
AcDbPoint
 10
1930.055860416914
 20
1704.580297614965
 30
0.0
  0
ENDBLK
  5
BE5F
330
BE52
100
AcDbEntity
  8
0
100
AcDbBlockEnd
  0
BLOCK
  5
BE6A
330
BE60
100
AcDbEntity
  8
0
100
AcDbBlockBegin
  2
*D19
 70
     1
 10
0.0
 20
0.0
 30
0.0
  3
*D19
  1

  0
LINE
  5
CE57
330
BE60
100
AcDbEntity
  8
AM_5
100
AcDbLine
 10
1854.805860416914
 20
1622.392057636909
 30
0.0
 11
1854.805860416914
 21
1631.392058636909
 31
0.0
  0
LINE
  5
CE58
330
BE60
100
AcDbEntity
  8
AM_5
100
AcDbLine
 10
1801.805860416914
 20
1610.392057636909
 30
0.0
 11
1801.805860416914
 21
1631.392058636909
 31
0.0
  0
LINE
  5
CE59
330
BE60
100
AcDbEntity
  8
AM_5
100
AcDbLine
 10
1853.805860416914
 20
1630.39205863691
 30
0.0
 11
1802.805860416914
 21
1630.39205863691
 31
0.0
  0
INSERT
  5
CE5A
330
BE60
100
AcDbEntity
  8
AM_5
100
AcDbBlockReference
  2
_Dot
 10
1854.805860416914
 20
1630.39205863691
 30
0.0
  0
INSERT
  5
CE5B
330
BE60
100
AcDbEntity
  8
AM_5
100
AcDbBlockReference
  2
_Dot
 10
1801.805860416914
 20
1630.39205863691
 30
0.0
 50
180.0
  0
MTEXT
  5
CE5C
330
BE60
100
AcDbEntity
  8
AM_5
 62
     2
100
AcDbMText
 10
1828.305860416914
 20
1633.49205863691
 30
0.0
 40
3.200000000000001
 41
0.0
 71
     5
 72
     1
  1
53
 73
     1
 44
1.0
1001
ACAD
1000
MTEXTBEGIN
1070
    73
1070
     1
1070
    44
1040
1.0
1070
    74
1070
     0
1000
MTEXTEND
  0
POINT
  5
CE5D
330
BE60
100
AcDbEntity
  8
Defpoints
 62
     0
100
AcDbPoint
 10
1854.805860416914
 20
1621.39205763691
 30
0.0
  0
POINT
  5
CE5E
330
BE60
100
AcDbEntity
  8
Defpoints
 62
     0
100
AcDbPoint
 10
1801.805860416914
 20
1609.39205763691
 30
0.0
  0
POINT
  5
CE5F
330
BE60
100
AcDbEntity
  8
Defpoints
 62
     0
100
AcDbPoint
 10
1801.805860416914
 20
1630.39205863691
 30
0.0
  0
ENDBLK
  5
BE6B
330
BE60
100
AcDbEntity
  8
0
100
AcDbBlockEnd
  0
BLOCK
  5
BE76
330
BE6C
100
AcDbEntity
  8
0
100
AcDbBlockBegin
  2
*D20
 70
     1
 10
0.0
 20
0.0
 30
0.0
  3
*D20
  1

  0
LINE
  5
CE60
330
BE6C
100
AcDbEntity
  8
AM_5
100
AcDbLine
 10
1854.805860416914
 20
1622.392057636909
 30
0.0
 11
1854.805860416914
 21
1631.392058636909
 31
0.0
  0
LINE
  5
CE61
330
BE6C
100
AcDbEntity
  8
AM_5
100
AcDbLine
 10
1907.805860416914
 20
1497.392057636909
 30
0.0
 11
1907.805860416914
 21
1631.392058636909
 31
0.0
  0
LINE
  5
CE62
330
BE6C
100
AcDbEntity
  8
AM_5
100
AcDbLine
 10
1855.805860416914
 20
1630.392058636909
 30
0.0
 11
1906.805860416914
 21
1630.392058636909
 31
0.0
  0
INSERT
  5
CE63
330
BE6C
100
AcDbEntity
  8
AM_5
100
AcDbBlockReference
  2
_Dot
 10
1854.805860416914
 20
1630.392058636909
 30
0.0
 50
180.0
  0
INSERT
  5
CE64
330
BE6C
100
AcDbEntity
  8
AM_5
100
AcDbBlockReference
  2
_Dot
 10
1907.805860416914
 20
1630.392058636909
 30
0.0
  0
MTEXT
  5
CE65
330
BE6C
100
AcDbEntity
  8
AM_5
 62
     2
100
AcDbMText
 10
1881.305860416914
 20
1633.492058636909
 30
0.0
 40
3.200000000000001
 41
0.0
 71
     5
 72
     1
  1
53
 73
     1
 44
1.0
1001
ACAD
1000
MTEXTBEGIN
1070
    73
1070
     1
1070
    44
1040
1.0
1070
    74
1070
     0
1000
MTEXTEND
  0
POINT
  5
CE66
330
BE6C
100
AcDbEntity
  8
Defpoints
 62
     0
100
AcDbPoint
 10
1854.805860416914
 20
1621.39205763691
 30
0.0
  0
POINT
  5
CE67
330
BE6C
100
AcDbEntity
  8
Defpoints
 62
     0
100
AcDbPoint
 10
1907.805860416914
 20
1496.392057636909
 30
0.0
  0
POINT
  5
CE68
330
BE6C
100
AcDbEntity
  8
Defpoints
 62
     0
100
AcDbPoint
 10
1907.805860416914
 20
1630.392058636909
 30
0.0
  0
ENDBLK
  5
BE77
330
BE6C
100
AcDbEntity
  8
0
100
AcDbBlockEnd
  0
BLOCK
  5
BE82
330
BE78
100
AcDbEntity
  8
0
100
AcDbBlockBegin
  2
*D21
 70
     1
 10
0.0
 20
0.0
 30
0.0
  3
*D21
  1

  0
LINE
  5
CE69
330
BE78
100
AcDbEntity
  8
AM_5
100
AcDbLine
 10
1907.805860416914
 20
1497.392057636909
 30
0.0
 11
1907.805860416914
 21
1641.392058636909
 31
0.0
  0
LINE
  5
CE6A
330
BE78
100
AcDbEntity
  8
AM_5
100
AcDbLine
 10
1801.805860416914
 20
1610.392057636909
 30
0.0
 11
1801.805860416914
 21
1641.392058636909
 31
0.0
  0
LINE
  5
CE6B
330
BE78
100
AcDbEntity
  8
AM_5
100
AcDbLine
 10
1906.805860416914
 20
1640.392058636909
 30
0.0
 11
1802.805860416914
 21
1640.392058636909
 31
0.0
  0
INSERT
  5
CE6C
330
BE78
100
AcDbEntity
  8
AM_5
100
AcDbBlockReference
  2
_Dot
 10
1907.805860416914
 20
1640.392058636909
 30
0.0
  0
INSERT
  5
CE6D
330
BE78
100
AcDbEntity
  8
AM_5
100
AcDbBlockReference
  2
_Dot
 10
1801.805860416914
 20
1640.392058636909
 30
0.0
 50
180.0
  0
MTEXT
  5
CE6E
330
BE78
100
AcDbEntity
  8
AM_5
 62
     2
100
AcDbMText
 10
1854.805860416914
 20
1643.492058636909
 30
0.0
 40
3.200000000000001
 41
0.0
 71
     5
 72
     1
  1
106
 73
     1
 44
1.0
1001
ACAD
1000
MTEXTBEGIN
1070
    73
1070
     1
1070
    44
1040
1.0
1070
    74
1070
     0
1000
MTEXTEND
  0
POINT
  5
CE6F
330
BE78
100
AcDbEntity
  8
Defpoints
 62
     0
100
AcDbPoint
 10
1907.805860416914
 20
1496.392057636909
 30
0.0
  0
POINT
  5
CE70
330
BE78
100
AcDbEntity
  8
Defpoints
 62
     0
100
AcDbPoint
 10
1801.805860416914
 20
1609.39205763691
 30
0.0
  0
POINT
  5
CE71
330
BE78
100
AcDbEntity
  8
Defpoints
 62
     0
100
AcDbPoint
 10
1801.805860416914
 20
1640.392058636909
 30
0.0
  0
ENDBLK
  5
BE83
330
BE78
100
AcDbEntity
  8
0
100
AcDbBlockEnd
  0
BLOCK
  5
BE8E
330
BE84
100
AcDbEntity
  8
0
100
AcDbBlockBegin
  2
*D22
 70
     1
 10
0.0
 20
0.0
 30
0.0
  3
*D22
  1

  0
LINE
  5
CE72
330
BE84
100
AcDbEntity
  8
AM_5
100
AcDbLine
 10
1865.805860416914
 20
1615.392057636909
 30
0.0
 11
1941.055860416914
 21
1615.392057636909
 31
0.0
  0
LINE
  5
CE73
330
BE84
100
AcDbEntity
  8
AM_5
100
AcDbLine
 10
1903.805860416914
 20
1442.392057636909
 30
0.0
 11
1941.055860416914
 21
1442.392057636909
 31
0.0
  0
LINE
  5
CE74
330
BE84
100
AcDbEntity
  8
AM_5
100
AcDbLine
 10
1940.055860416914
 20
1614.39205763691
 30
0.0
 11
1940.055860416913
 21
1443.392057636909
 31
0.0
  0
INSERT
  5
CE75
330
BE84
100
AcDbEntity
  8
AM_5
100
AcDbBlockReference
  2
_Dot
 10
1940.055860416914
 20
1615.392057636909
 30
0.0
 50
90.0
  0
INSERT
  5
CE76
330
BE84
100
AcDbEntity
  8
AM_5
100
AcDbBlockReference
  2
_Dot
 10
1940.055860416913
 20
1442.392057636909
 30
0.0
 50
270.0
  0
MTEXT
  5
CE77
330
BE84
100
AcDbEntity
  8
AM_5
 62
     2
100
AcDbMText
 10
1936.955860416914
 20
1528.89205763691
 30
0.0
 40
3.200000000000001
 41
0.0
 71
     5
 72
     1
  1
173
 11
0.0000000000000001
 21
1.0
 31
0.0
 73
     1
 44
1.0
1001
ACAD
1000
MTEXTBEGIN
1070
    73
1070
     1
1070
    44
1040
1.0
1070
    74
1070
     0
1000
MTEXTEND
  0
POINT
  5
CE78
330
BE84
100
AcDbEntity
  8
Defpoints
 62
     0
100
AcDbPoint
 10
1864.805860416914
 20
1615.392057636909
 30
0.0
  0
POINT
  5
CE79
330
BE84
100
AcDbEntity
  8
Defpoints
 62
     0
100
AcDbPoint
 10
1902.805860416914
 20
1442.392057636909
 30
0.0
  0
POINT
  5
CE7A
330
BE84
100
AcDbEntity
  8
Defpoints
 62
     0
100
AcDbPoint
 10
1940.055860416913
 20
1442.392057636909
 30
0.0
  0
ENDBLK
  5
BE8F
330
BE84
100
AcDbEntity
  8
0
100
AcDbBlockEnd
  0
BLOCK
  5
BE9A
330
BE90
100
AcDbEntity
  8
0
100
AcDbBlockBegin
  2
*D23
 70
     1
 10
0.0
 20
0.0
 30
0.0
  3
*D23
  1

  0
LINE
  5
CE7B
330
BE90
100
AcDbEntity
  8
AM_5
100
AcDbLine
 10
1893.305860416914
 20
1465.64205763691
 30
0.0
 11
1893.305860416914
 21
1434.142057636909
 31
0.0
  0
LINE
  5
CE7C
330
BE90
100
AcDbEntity
  8
AM_5
100
AcDbLine
 10
1901.305860416914
 20
1447.14205763691
 30
0.0
 11
1901.305860416914
 21
1434.142057636909
 31
0.0
  0
LINE
  5
CE7D
330
BE90
100
AcDbEntity
  8
AM_5
100
AcDbLine
 10
1894.305860416914
 20
1435.142057636909
 30
0.0
 11
1900.305860416914
 21
1435.142057636909
 31
0.0
  0
INSERT
  5
CE7E
330
BE90
100
AcDbEntity
  8
AM_5
100
AcDbBlockReference
  2
_Dot
 10
1893.305860416914
 20
1435.142057636909
 30
0.0
 50
180.0
  0
INSERT
  5
CE7F
330
BE90
100
AcDbEntity
  8
AM_5
100
AcDbBlockReference
  2
_Dot
 10
1901.305860416914
 20
1435.142057636909
 30
0.0
  0
MTEXT
  5
CE80
330
BE90
100
AcDbEntity
  8
AM_5
 62
     2
100
AcDbMText
 10
1897.305860416914
 20
1438.242057636909
 30
0.0
 40
3.200000000000001
 41
0.0
 71
     5
 72
     1
  1
8
 73
     1
 44
1.0
1001
ACAD
1000
MTEXTBEGIN
1070
    73
1070
     1
1070
    44
1040
1.0
1070
    74
1070
     0
1000
MTEXTEND
  0
POINT
  5
CE81
330
BE90
100
AcDbEntity
  8
Defpoints
 62
     0
100
AcDbPoint
 10
1893.305860416914
 20
1466.64205763691
 30
0.0
  0
POINT
  5
CE82
330
BE90
100
AcDbEntity
  8
Defpoints
 62
     0
100
AcDbPoint
 10
1901.305860416914
 20
1448.14205763691
 30
0.0
  0
POINT
  5
CE83
330
BE90
100
AcDbEntity
  8
Defpoints
 62
     0
100
AcDbPoint
 10
1901.305860416914
 20
1435.142057636909
 30
0.0
  0
ENDBLK
  5
BE9B
330
BE90
100
AcDbEntity
  8
0
100
AcDbBlockEnd
  0
BLOCK
  5
BEA6
330
BE9C
100
AcDbEntity
  8
0
100
AcDbBlockBegin
  2
*D24
 70
     1
 10
0.0
 20
0.0
 30
0.0
  3
*D24
  1

  0
LINE
  5
CE84
330
BE9C
100
AcDbEntity
  8
AM_5
100
AcDbLine
 10
1893.305860416914
 20
1465.64205763691
 30
0.0
 11
1893.305860416914
 21
1434.142057636908
 31
0.0
  0
LINE
  5
CE85
330
BE9C
100
AcDbEntity
  8
AM_5
100
AcDbLine
 10
1885.305860416914
 20
1447.14205763691
 30
0.0
 11
1885.305860416914
 21
1434.142057636908
 31
0.0
  0
LINE
  5
CE86
330
BE9C
100
AcDbEntity
  8
AM_5
100
AcDbLine
 10
1892.305860416914
 20
1435.142057636908
 30
0.0
 11
1886.305860416914
 21
1435.142057636908
 31
0.0
  0
INSERT
  5
CE87
330
BE9C
100
AcDbEntity
  8
AM_5
100
AcDbBlockReference
  2
_Dot
 10
1893.305860416914
 20
1435.142057636908
 30
0.0
  0
INSERT
  5
CE88
330
BE9C
100
AcDbEntity
  8
AM_5
100
AcDbBlockReference
  2
_Dot
 10
1885.305860416914
 20
1435.142057636908
 30
0.0
 50
180.0
  0
MTEXT
  5
CE89
330
BE9C
100
AcDbEntity
  8
AM_5
 62
     2
100
AcDbMText
 10
1889.305860416914
 20
1438.242057636908
 30
0.0
 40
3.200000000000001
 41
0.0
 71
     5
 72
     1
  1
8
 73
     1
 44
1.0
1001
ACAD
1000
MTEXTBEGIN
1070
    73
1070
     1
1070
    44
1040
1.0
1070
    74
1070
     0
1000
MTEXTEND
  0
POINT
  5
CE8A
330
BE9C
100
AcDbEntity
  8
Defpoints
 62
     0
100
AcDbPoint
 10
1893.305860416914
 20
1466.64205763691
 30
0.0
  0
POINT
  5
CE8B
330
BE9C
100
AcDbEntity
  8
Defpoints
 62
     0
100
AcDbPoint
 10
1885.305860416914
 20
1448.14205763691
 30
0.0
  0
POINT
  5
CE8C
330
BE9C
100
AcDbEntity
  8
Defpoints
 62
     0
100
AcDbPoint
 10
1885.305860416914
 20
1435.142057636908
 30
0.0
  0
ENDBLK
  5
BEA7
330
BE9C
100
AcDbEntity
  8
0
100
AcDbBlockEnd
  0
BLOCK
  5
BEB2
330
BEA8
100
AcDbEntity
  8
0
100
AcDbBlockBegin
  2
*D25
 70
     1
 10
0.0
 20
0.0
 30
0.0
  3
*D25
  1

  0
LINE
  5
CE8D
330
BEA8
100
AcDbEntity
  8
AM_5
100
AcDbLine
 10
1901.305860416914
 20
1447.14205763691
 30
0.0
 11
1901.305860416914
 21
1424.142057636907
 31
0.0
  0
LINE
  5
CE8E
330
BEA8
100
AcDbEntity
  8
AM_5
100
AcDbLine
 10
1885.305860416914
 20
1447.14205763691
 30
0.0
 11
1885.305860416914
 21
1424.142057636907
 31
0.0
  0
LINE
  5
CE8F
330
BEA8
100
AcDbEntity
  8
AM_5
100
AcDbLine
 10
1900.305860416914
 20
1425.142057636907
 30
0.0
 11
1886.305860416914
 21
1425.142057636907
 31
0.0
  0
INSERT
  5
CE90
330
BEA8
100
AcDbEntity
  8
AM_5
100
AcDbBlockReference
  2
_Dot
 10
1901.305860416914
 20
1425.142057636907
 30
0.0
  0
INSERT
  5
CE91
330
BEA8
100
AcDbEntity
  8
AM_5
100
AcDbBlockReference
  2
_Dot
 10
1885.305860416914
 20
1425.142057636907
 30
0.0
 50
180.0
  0
MTEXT
  5
CE92
330
BEA8
100
AcDbEntity
  8
AM_5
 62
     2
100
AcDbMText
 10
1893.305860416914
 20
1428.242057636907
 30
0.0
 40
3.200000000000001
 41
0.0
 71
     5
 72
     1
  1
16
 73
     1
 44
1.0
1001
ACAD
1000
MTEXTBEGIN
1070
    73
1070
     1
1070
    44
1040
1.0
1070
    74
1070
     0
1000
MTEXTEND
  0
POINT
  5
CE93
330
BEA8
100
AcDbEntity
  8
Defpoints
 62
     0
100
AcDbPoint
 10
1901.305860416914
 20
1448.14205763691
 30
0.0
  0
POINT
  5
CE94
330
BEA8
100
AcDbEntity
  8
Defpoints
 62
     0
100
AcDbPoint
 10
1885.305860416914
 20
1448.14205763691
 30
0.0
  0
POINT
  5
CE95
330
BEA8
100
AcDbEntity
  8
Defpoints
 62
     0
100
AcDbPoint
 10
1885.305860416914
 20
1425.142057636907
 30
0.0
  0
ENDBLK
  5
BEB3
330
BEA8
100
AcDbEntity
  8
0
100
AcDbBlockEnd
  0
BLOCK
  5
BEBE
330
BEB4
100
AcDbEntity
  8
0
100
AcDbBlockBegin
  2
*D26
 70
     1
 10
0.0
 20
0.0
 30
0.0
  3
*D26
  1

  0
LINE
  5
CE96
330
BEB4
100
AcDbEntity
  8
AM_5
100
AcDbLine
 10
1901.305860416914
 20
1447.14205763691
 30
0.0
 11
1901.305860416914
 21
1424.142057636906
 31
0.0
  0
LINE
  5
CE97
330
BEB4
100
AcDbEntity
  8
AM_5
100
AcDbLine
 10
1907.805860416914
 20
1446.392057636909
 30
0.0
 11
1907.805860416914
 21
1424.142057636906
 31
0.0
  0
LINE
  5
CE98
330
BEB4
100
AcDbEntity
  8
AM_5
100
AcDbLine
 10
1902.305860416914
 20
1425.142057636906
 30
0.0
 11
1906.805860416914
 21
1425.142057636906
 31
0.0
  0
LINE
  5
CE99
330
BEB4
100
AcDbEntity
  8
AM_5
100
AcDbLine
 10
1907.805860416914
 20
1425.142057636906
 30
0.0
 11
1916.39252708358
 21
1425.142057636906
 31
0.0
  0
INSERT
  5
CE9A
330
BEB4
100
AcDbEntity
  8
AM_5
100
AcDbBlockReference
  2
_Dot
 10
1901.305860416914
 20
1425.142057636906
 30
0.0
 50
180.0
  0
INSERT
  5
CE9B
330
BEB4
100
AcDbEntity
  8
AM_5
100
AcDbBlockReference
  2
_Dot
 10
1907.805860416914
 20
1425.142057636906
 30
0.0
  0
MTEXT
  5
CE9C
330
BEB4
100
AcDbEntity
  8
AM_5
 62
     2
100
AcDbMText
 10
1912.599193750247
 20
1428.242057636906
 30
0.0
 40
3.200000000000001
 41
0.0
 71
     5
 72
     1
  1
6.5
 73
     1
 44
1.0
1001
ACAD
1000
MTEXTBEGIN
1070
    73
1070
     1
1070
    44
1040
1.0
1070
    74
1070
     0
1000
MTEXTEND
  0
POINT
  5
CE9D
330
BEB4
100
AcDbEntity
  8
Defpoints
 62
     0
100
AcDbPoint
 10
1901.305860416914
 20
1448.14205763691
 30
0.0
  0
POINT
  5
CE9E
330
BEB4
100
AcDbEntity
  8
Defpoints
 62
     0
100
AcDbPoint
 10
1907.805860416914
 20
1447.392057636909
 30
0.0
  0
POINT
  5
CE9F
330
BEB4
100
AcDbEntity
  8
Defpoints
 62
     0
100
AcDbPoint
 10
1907.805860416914
 20
1425.142057636906
 30
0.0
  0
ENDBLK
  5
BEBF
330
BEB4
100
AcDbEntity
  8
0
100
AcDbBlockEnd
  0
BLOCK
  5
BECA
330
BEC0
100
AcDbEntity
  8
0
100
AcDbBlockBegin
  2
*D27
 70
     1
 10
0.0
 20
0.0
 30
0.0
  3
*D27
  1

  0
LINE
  5
CEA0
330
BEC0
100
AcDbEntity
  8
AM_5
100
AcDbLine
 10
1885.305860416914
 20
1447.14205763691
 30
0.0
 11
1885.305860416914
 21
1424.142057636906
 31
0.0
  0
LINE
  5
CEA1
330
BEC0
100
AcDbEntity
  8
AM_5
100
AcDbLine
 10
1854.805860416914
 20
1435.39205763691
 30
0.0
 11
1854.805860416914
 21
1424.142057636906
 31
0.0
  0
LINE
  5
CEA2
330
BEC0
100
AcDbEntity
  8
AM_5
100
AcDbLine
 10
1884.305860416914
 20
1425.142057636906
 30
0.0
 11
1855.805860416914
 21
1425.142057636906
 31
0.0
  0
INSERT
  5
CEA3
330
BEC0
100
AcDbEntity
  8
AM_5
100
AcDbBlockReference
  2
_Dot
 10
1885.305860416914
 20
1425.142057636906
 30
0.0
  0
INSERT
  5
CEA4
330
BEC0
100
AcDbEntity
  8
AM_5
100
AcDbBlockReference
  2
_Dot
 10
1854.805860416914
 20
1425.142057636906
 30
0.0
 50
180.0
  0
MTEXT
  5
CEA5
330
BEC0
100
AcDbEntity
  8
AM_5
 62
     2
100
AcDbMText
 10
1870.055860416914
 20
1428.242057636906
 30
0.0
 40
3.200000000000001
 41
0.0
 71
     5
 72
     1
  1
30.5
 73
     1
 44
1.0
1001
ACAD
1000
MTEXTBEGIN
1070
    73
1070
     1
1070
    44
1040
1.0
1070
    74
1070
     0
1000
MTEXTEND
  0
POINT
  5
CEA6
330
BEC0
100
AcDbEntity
  8
Defpoints
 62
     0
100
AcDbPoint
 10
1885.305860416914
 20
1448.14205763691
 30
0.0
  0
POINT
  5
CEA7
330
BEC0
100
AcDbEntity
  8
Defpoints
 62
     0
100
AcDbPoint
 10
1854.805860416914
 20
1436.39205763691
 30
0.0
  0
POINT
  5
CEA8
330
BEC0
100
AcDbEntity
  8
Defpoints
 62
     0
100
AcDbPoint
 10
1854.805860416914
 20
1425.142057636906
 30
0.0
  0
ENDBLK
  5
BECB
330
BEC0
100
AcDbEntity
  8
0
100
AcDbBlockEnd
  0
BLOCK
  5
BED5
330
BECC
100
AcDbEntity
  8
0
100
AcDbBlockBegin
  2
*D28
 70
     1
 10
0.0
 20
0.0
 30
0.0
  3
*D28
  1

  0
LINE
  5
CEA9
330
BECC
100
AcDbEntity
  8
AM_5
100
AcDbLine
 10
1826.726151225597
 20
1684.393540501704
 30
0.0
 11
1834.40948455893
 21
1684.393540501704
 31
0.0
  0
LINE
  5
CEAA
330
BECC
100
AcDbEntity
  8
AM_5
100
AcDbLine
 10
1834.40948455893
 20
1684.393540501704
 30
0.0
 11
1847.432532853337
 21
1696.325000386848
 31
0.0
  0
MTEXT
  5
CEAB
330
BECC
100
AcDbEntity
  8
AM_5
 62
     2
100
AcDbMText
 10
1829.817817892264
 20
1687.643540501704
 30
0.0
 40
3.5
 41
0.0
 71
     5
 72
     1
  1
\U+220520
 73
     1
 44
1.0
1001
ACAD
1000
MTEXTBEGIN
1070
    73
1070
     1
1070
    44
1040
1.0
1070
    74
1070
     0
1000
MTEXTEND
  0
LINE
  5
CEAC
330
BECC
100
AcDbEntity
  8
AM_5
100
AcDbLine
 10
1862.17918798049
 20
1709.835594843082
 30
0.0
 11
1847.432532853337
 21
1696.325000386848
 31
0.0
  0
INSERT
  5
CEAD
330
BECC
100
AcDbEntity
  8
AM_5
100
AcDbBlockReference
  2
_DotSmall
 10
1862.17918798049
 20
1709.835594843082
 30
0.0
 41
4.0
 42
4.0
 43
4.0
 50
222.4952997419371
  0
INSERT
  5
CEAE
330
BECC
100
AcDbEntity
  8
AM_5
100
AcDbBlockReference
  2
_DotSmall
 10
1847.432532853337
 20
1696.325000386848
 30
0.0
 41
4.0
 42
4.0
 43
4.0
 50
42.49529974193708
  0
POINT
  5
CEAF
330
BECC
100
AcDbEntity
  8
Defpoints
 62
     0
100
AcDbPoint
 10
1847.432532853337
 20
1696.325000386848
 30
0.0
  0
POINT
  5
CEB0
330
BECC
100
AcDbEntity
  8
Defpoints
 62
     0
100
AcDbPoint
 10
1862.17918798049
 20
1709.835594843082
 30
0.0
  0
ENDBLK
  5
BED6
330
BECC
100
AcDbEntity
  8
0
100
AcDbBlockEnd
  0
BLOCK
  5
C9CD
330
C9C2
100
AcDbEntity
  8
0
100
AcDbBlockBegin
  2
*D29
 70
     1
 10
0.0
 20
0.0
 30
0.0
  3
*D29
  1

  0
LINE
  5
CC3F
330
C9C2
100
AcDbEntity
  8
AM_5
100
AcDbLine
 10
1640.195121349204
 20
1511.39205763691
 30
0.0
 11
1640.195121349204
 21
1499.392057636909
 31
0.0
  0
LINE
  5
CC40
330
C9C2
100
AcDbEntity
  8
AM_5
100
AcDbLine
 10
1618.195121349204
 20
1511.39205763691
 30
0.0
 11
1618.195121349204
 21
1499.392057636909
 31
0.0
  0
LINE
  5
CC41
330
C9C2
100
AcDbEntity
  8
AM_5
100
AcDbLine
 10
1639.195121349204
 20
1500.39205763691
 30
0.0
 11
1619.195121349204
 21
1500.39205763691
 31
0.0
  0
LINE
  5
CC42
330
C9C2
100
AcDbEntity
  8
AM_5
100
AcDbLine
 10
1618.195121349204
 20
1500.39205763691
 30
0.0
 11
1607.003792955716
 21
1500.39205763691
 31
0.0
  0
INSERT
  5
CC43
330
C9C2
100
AcDbEntity
  8
AM_5
100
AcDbBlockReference
  2
_Dot
 10
1640.195121349204
 20
1500.39205763691
 30
0.0
  0
INSERT
  5
CC44
330
C9C2
100
AcDbEntity
  8
AM_5
100
AcDbBlockReference
  2
_Dot
 10
1618.195121349204
 20
1500.39205763691
 30
0.0
 50
180.0
  0
MTEXT
  5
CC45
330
C9C2
100
AcDbEntity
  8
AM_5
 62
     2
100
AcDbMText
 10
1611.330459622383
 20
1503.492057636909
 30
0.0
 40
3.200000000000001
 41
0.0
 71
     5
 72
     1
  1
%%c22
 73
     1
 44
1.0
1001
ACAD
1000
MTEXTBEGIN
1070
    73
1070
     1
1070
    44
1040
1.0
1070
    74
1070
     0
1000
MTEXTEND
  0
POINT
  5
CC46
330
C9C2
100
AcDbEntity
  8
Defpoints
 62
     0
100
AcDbPoint
 10
1640.195121349204
 20
1512.392057636909
 30
0.0
  0
POINT
  5
CC47
330
C9C2
100
AcDbEntity
  8
Defpoints
 62
     0
100
AcDbPoint
 10
1618.195121349204
 20
1512.392057636909
 30
0.0
  0
POINT
  5
CC48
330
C9C2
100
AcDbEntity
  8
Defpoints
 62
     0
100
AcDbPoint
 10
1618.195121349204
 20
1500.39205763691
 30
0.0
  0
ENDBLK
  5
C9CE
330
C9C2
100
AcDbEntity
  8
0
100
AcDbBlockEnd
  0
BLOCK
  5
C9D9
330
C9CF
100
AcDbEntity
  8
0
100
AcDbBlockBegin
  2
*D30
 70
     1
 10
0.0
 20
0.0
 30
0.0
  3
*D30
  1

  0
LINE
  5
CCA9
330
C9CF
100
AcDbEntity
  8
AM_5
100
AcDbLine
 10
1683.945121349204
 20
1501.392057636909
 30
0.0
 11
1695.445121349204
 21
1501.392057636909
 31
0.0
  0
LINE
  5
CCAA
330
C9CF
100
AcDbEntity
  8
AM_5
100
AcDbLine
 10
1678.195121349204
 20
1465.392057636909
 30
0.0
 11
1695.445121349204
 21
1465.392057636909
 31
0.0
  0
LINE
  5
CCAB
330
C9CF
100
AcDbEntity
  8
AM_5
100
AcDbLine
 10
1694.445121349204
 20
1500.39205763691
 30
0.0
 11
1694.445121349204
 21
1466.392057636909
 31
0.0
  0
INSERT
  5
CCAC
330
C9CF
100
AcDbEntity
  8
AM_5
100
AcDbBlockReference
  2
_Dot
 10
1694.445121349204
 20
1501.392057636909
 30
0.0
 50
90.0
  0
INSERT
  5
CCAD
330
C9CF
100
AcDbEntity
  8
AM_5
100
AcDbBlockReference
  2
_Dot
 10
1694.445121349204
 20
1465.392057636909
 30
0.0
 50
270.0
  0
MTEXT
  5
CCAE
330
C9CF
100
AcDbEntity
  8
AM_5
 62
     2
100
AcDbMText
 10
1691.345121349204
 20
1483.39205763691
 30
0.0
 40
3.200000000000001
 41
0.0
 71
     5
 72
     1
  1
36
 11
0.0000000000000001
 21
1.0
 31
0.0
 73
     1
 44
1.0
1001
ACAD
1000
MTEXTBEGIN
1070
    73
1070
     1
1070
    44
1040
1.0
1070
    74
1070
     0
1000
MTEXTEND
  0
POINT
  5
CCAF
330
C9CF
100
AcDbEntity
  8
Defpoints
 62
     0
100
AcDbPoint
 10
1682.945121349204
 20
1501.392057636909
 30
0.0
  0
POINT
  5
CCB0
330
C9CF
100
AcDbEntity
  8
Defpoints
 62
     0
100
AcDbPoint
 10
1677.195121349204
 20
1465.392057636909
 30
0.0
  0
POINT
  5
CCB1
330
C9CF
100
AcDbEntity
  8
Defpoints
 62
     0
100
AcDbPoint
 10
1694.445121349204
 20
1465.392057636909
 30
0.0
  0
ENDBLK
  5
C9DA
330
C9CF
100
AcDbEntity
  8
0
100
AcDbBlockEnd
  0
BLOCK
  5
C9E5
330
C9DB
100
AcDbEntity
  8
0
100
AcDbBlockBegin
  2
*D31
 70
     1
 10
0.0
 20
0.0
 30
0.0
  3
*D31
  1

  0
LINE
  5
CCB2
330
C9DB
100
AcDbEntity
  8
AM_5
100
AcDbLine
 10
1678.195121349204
 20
1465.392057636909
 30
0.0
 11
1705.445121349204
 21
1465.392057636909
 31
0.0
  0
LINE
  5
CCB3
330
C9DB
100
AcDbEntity
  8
AM_5
100
AcDbLine
 10
1678.195121349204
 20
1546.392057636909
 30
0.0
 11
1705.445121349205
 21
1546.392057636909
 31
0.0
  0
LINE
  5
CCB4
330
C9DB
100
AcDbEntity
  8
AM_5
100
AcDbLine
 10
1704.445121349204
 20
1466.392057636909
 30
0.0
 11
1704.445121349204
 21
1545.39205763691
 31
0.0
  0
INSERT
  5
CCB5
330
C9DB
100
AcDbEntity
  8
AM_5
100
AcDbBlockReference
  2
_Dot
 10
1704.445121349204
 20
1465.392057636909
 30
0.0
 50
270.0
  0
INSERT
  5
CCB6
330
C9DB
100
AcDbEntity
  8
AM_5
100
AcDbBlockReference
  2
_Dot
 10
1704.445121349204
 20
1546.392057636909
 30
0.0
 50
90.0
  0
MTEXT
  5
CCB7
330
C9DB
100
AcDbEntity
  8
AM_5
 62
     2
100
AcDbMText
 10
1701.345121349204
 20
1505.89205763691
 30
0.0
 40
3.200000000000001
 41
0.0
 71
     5
 72
     1
  1
81
 11
0.0000000000000001
 21
1.0
 31
0.0
 73
     1
 44
1.0
1001
ACAD
1000
MTEXTBEGIN
1070
    73
1070
     1
1070
    44
1040
1.0
1070
    74
1070
     0
1000
MTEXTEND
  0
POINT
  5
CCB8
330
C9DB
100
AcDbEntity
  8
Defpoints
 62
     0
100
AcDbPoint
 10
1677.195121349204
 20
1465.392057636909
 30
0.0
  0
POINT
  5
CCB9
330
C9DB
100
AcDbEntity
  8
Defpoints
 62
     0
100
AcDbPoint
 10
1677.195121349204
 20
1546.392057636909
 30
0.0
  0
POINT
  5
CCBA
330
C9DB
100
AcDbEntity
  8
Defpoints
 62
     0
100
AcDbPoint
 10
1704.445121349204
 20
1546.392057636909
 30
0.0
  0
ENDBLK
  5
C9E6
330
C9DB
100
AcDbEntity
  8
0
100
AcDbBlockEnd
  0
BLOCK
  5
C9F1
330
C9E7
100
AcDbEntity
  8
0
100
AcDbBlockBegin
  2
*D32
 70
     1
 10
0.0
 20
0.0
 30
0.0
  3
*D32
  1

  0
LINE
  5
CC73
330
C9E7
100
AcDbEntity
  8
AM_5
100
AcDbLine
 10
1683.945121349204
 20
1538.392057636909
 30
0.0
 11
1695.445121349204
 21
1538.392057636909
 31
0.0
  0
LINE
  5
CC74
330
C9E7
100
AcDbEntity
  8
AM_5
100
AcDbLine
 10
1678.195121349204
 20
1546.392057636909
 30
0.0
 11
1695.445121349204
 21
1546.392057636909
 31
0.0
  0
LINE
  5
CC75
330
C9E7
100
AcDbEntity
  8
AM_5
100
AcDbLine
 10
1694.445121349204
 20
1539.392057636909
 30
0.0
 11
1694.445121349204
 21
1545.39205763691
 31
0.0
  0
INSERT
  5
CC76
330
C9E7
100
AcDbEntity
  8
AM_5
100
AcDbBlockReference
  2
_Dot
 10
1694.445121349204
 20
1538.392057636909
 30
0.0
 50
270.0
  0
INSERT
  5
CC77
330
C9E7
100
AcDbEntity
  8
AM_5
100
AcDbBlockReference
  2
_Dot
 10
1694.445121349204
 20
1546.392057636909
 30
0.0
 50
90.0
  0
MTEXT
  5
CC78
330
C9E7
100
AcDbEntity
  8
AM_5
 62
     2
100
AcDbMText
 10
1691.345121349204
 20
1542.39205763691
 30
0.0
 40
3.200000000000001
 41
0.0
 71
     5
 72
     1
  1
8
 11
0.0000000000000001
 21
1.0
 31
0.0
 73
     1
 44
1.0
1001
ACAD
1000
MTEXTBEGIN
1070
    73
1070
     1
1070
    44
1040
1.0
1070
    74
1070
     0
1000
MTEXTEND
  0
POINT
  5
CC79
330
C9E7
100
AcDbEntity
  8
Defpoints
 62
     0
100
AcDbPoint
 10
1682.945121349204
 20
1538.392057636909
 30
0.0
  0
POINT
  5
CC7A
330
C9E7
100
AcDbEntity
  8
Defpoints
 62
     0
100
AcDbPoint
 10
1677.195121349204
 20
1546.392057636909
 30
0.0
  0
POINT
  5
CC7B
330
C9E7
100
AcDbEntity
  8
Defpoints
 62
     0
100
AcDbPoint
 10
1694.445121349204
 20
1546.392057636909
 30
0.0
  0
ENDBLK
  5
C9F2
330
C9E7
100
AcDbEntity
  8
0
100
AcDbBlockEnd
  0
BLOCK
  5
C9FD
330
C9F3
100
AcDbEntity
  8
0
100
AcDbBlockBegin
  2
*D33
 70
     1
 10
0.0
 20
0.0
 30
0.0
  3
*D33
  1

  0
LINE
  5
CCA0
330
C9F3
100
AcDbEntity
  8
AM_5
100
AcDbLine
 10
1683.945121349204
 20
1501.392057636909
 30
0.0
 11
1695.445121349204
 21
1501.392057636909
 31
0.0
  0
LINE
  5
CCA1
330
C9F3
100
AcDbEntity
  8
AM_5
100
AcDbLine
 10
1675.945121349204
 20
1519.892057636909
 30
0.0
 11
1695.445121349204
 21
1519.892057636909
 31
0.0
  0
LINE
  5
CCA2
330
C9F3
100
AcDbEntity
  8
AM_5
100
AcDbLine
 10
1694.445121349204
 20
1502.39205763691
 30
0.0
 11
1694.445121349204
 21
1518.892057636909
 31
0.0
  0
INSERT
  5
CCA3
330
C9F3
100
AcDbEntity
  8
AM_5
100
AcDbBlockReference
  2
_Dot
 10
1694.445121349204
 20
1501.392057636909
 30
0.0
 50
270.0
  0
INSERT
  5
CCA4
330
C9F3
100
AcDbEntity
  8
AM_5
100
AcDbBlockReference
  2
_Dot
 10
1694.445121349204
 20
1519.892057636909
 30
0.0
 50
90.0
  0
MTEXT
  5
CCA5
330
C9F3
100
AcDbEntity
  8
AM_5
 62
     2
100
AcDbMText
 10
1691.345121349204
 20
1510.64205763691
 30
0.0
 40
3.200000000000001
 41
0.0
 71
     5
 72
     1
  1
18.5
 11
0.0000000000000001
 21
1.0
 31
0.0
 73
     1
 44
1.0
1001
ACAD
1000
MTEXTBEGIN
1070
    73
1070
     1
1070
    44
1040
1.0
1070
    74
1070
     0
1000
MTEXTEND
  0
POINT
  5
CCA6
330
C9F3
100
AcDbEntity
  8
Defpoints
 62
     0
100
AcDbPoint
 10
1682.945121349204
 20
1501.392057636909
 30
0.0
  0
POINT
  5
CCA7
330
C9F3
100
AcDbEntity
  8
Defpoints
 62
     0
100
AcDbPoint
 10
1674.945121349204
 20
1519.892057636909
 30
0.0
  0
POINT
  5
CCA8
330
C9F3
100
AcDbEntity
  8
Defpoints
 62
     0
100
AcDbPoint
 10
1694.445121349204
 20
1519.892057636909
 30
0.0
  0
ENDBLK
  5
C9FE
330
C9F3
100
AcDbEntity
  8
0
100
AcDbBlockEnd
  0
BLOCK
  5
CA09
330
C9FF
100
AcDbEntity
  8
0
100
AcDbBlockBegin
  2
*D34
 70
     1
 10
0.0
 20
0.0
 30
0.0
  3
*D34
  1

  0
LINE
  5
CC8E
330
C9FF
100
AcDbEntity
  8
AM_5
100
AcDbLine
 10
1675.945121349204
 20
1519.892057636909
 30
0.0
 11
1695.445121349204
 21
1519.892057636909
 31
0.0
  0
LINE
  5
CC8F
330
C9FF
100
AcDbEntity
  8
AM_5
100
AcDbLine
 10
1683.945121349204
 20
1538.392057636909
 30
0.0
 11
1695.445121349204
 21
1538.392057636909
 31
0.0
  0
LINE
  5
CC90
330
C9FF
100
AcDbEntity
  8
AM_5
100
AcDbLine
 10
1694.445121349204
 20
1520.892057636909
 30
0.0
 11
1694.445121349204
 21
1537.39205763691
 31
0.0
  0
INSERT
  5
CC91
330
C9FF
100
AcDbEntity
  8
AM_5
100
AcDbBlockReference
  2
_Dot
 10
1694.445121349204
 20
1519.892057636909
 30
0.0
 50
270.0
  0
INSERT
  5
CC92
330
C9FF
100
AcDbEntity
  8
AM_5
100
AcDbBlockReference
  2
_Dot
 10
1694.445121349204
 20
1538.392057636909
 30
0.0
 50
90.0
  0
MTEXT
  5
CC93
330
C9FF
100
AcDbEntity
  8
AM_5
 62
     2
100
AcDbMText
 10
1691.345121349204
 20
1529.14205763691
 30
0.0
 40
3.200000000000001
 41
0.0
 71
     5
 72
     1
  1
18.5
 11
0.0000000000000001
 21
1.0
 31
0.0
 73
     1
 44
1.0
1001
ACAD
1000
MTEXTBEGIN
1070
    73
1070
     1
1070
    44
1040
1.0
1070
    74
1070
     0
1000
MTEXTEND
  0
POINT
  5
CC94
330
C9FF
100
AcDbEntity
  8
Defpoints
 62
     0
100
AcDbPoint
 10
1674.945121349204
 20
1519.892057636909
 30
0.0
  0
POINT
  5
CC95
330
C9FF
100
AcDbEntity
  8
Defpoints
 62
     0
100
AcDbPoint
 10
1682.945121349204
 20
1538.392057636909
 30
0.0
  0
POINT
  5
CC96
330
C9FF
100
AcDbEntity
  8
Defpoints
 62
     0
100
AcDbPoint
 10
1694.445121349204
 20
1538.392057636909
 30
0.0
  0
ENDBLK
  5
CA0A
330
C9FF
100
AcDbEntity
  8
0
100
AcDbBlockEnd
  0
BLOCK
  5
CA15
330
CA0B
100
AcDbEntity
  8
0
100
AcDbBlockBegin
  2
*D35
 70
     1
 10
0.0
 20
0.0
 30
0.0
  3
*D35
  1

  0
LINE
  5
CB7F
330
CA0B
100
AcDbEntity
  8
AM_5
100
AcDbLine
 10
1581.195121349204
 20
1615.392057636909
 30
0.0
 11
1563.195120349204
 21
1615.392057636909
 31
0.0
  0
LINE
  5
CB80
330
CA0B
100
AcDbEntity
  8
AM_5
100
AcDbLine
 10
1574.445121349204
 20
1602.392057636909
 30
0.0
 11
1563.195120349204
 21
1602.392057636909
 31
0.0
  0
LINE
  5
CB81
330
CA0B
100
AcDbEntity
  8
AM_5
100
AcDbLine
 10
1564.195120349204
 20
1614.39205763691
 30
0.0
 11
1564.195120349204
 21
1603.392057636909
 31
0.0
  0
INSERT
  5
CB82
330
CA0B
100
AcDbEntity
  8
AM_5
100
AcDbBlockReference
  2
_Dot
 10
1564.195120349204
 20
1615.392057636909
 30
0.0
 50
90.0
  0
INSERT
  5
CB83
330
CA0B
100
AcDbEntity
  8
AM_5
100
AcDbBlockReference
  2
_Dot
 10
1564.195120349204
 20
1602.392057636909
 30
0.0
 50
270.0
  0
MTEXT
  5
CB84
330
CA0B
100
AcDbEntity
  8
AM_5
 62
     2
100
AcDbMText
 10
1561.095120349204
 20
1608.89205763691
 30
0.0
 40
3.200000000000001
 41
0.0
 71
     5
 72
     1
  1
13
 11
0.0000000000000001
 21
1.0
 31
0.0
 73
     1
 44
1.0
1001
ACAD
1000
MTEXTBEGIN
1070
    73
1070
     1
1070
    44
1040
1.0
1070
    74
1070
     0
1000
MTEXTEND
  0
POINT
  5
CB85
330
CA0B
100
AcDbEntity
  8
Defpoints
 62
     0
100
AcDbPoint
 10
1582.195121349204
 20
1615.392057636909
 30
0.0
  0
POINT
  5
CB86
330
CA0B
100
AcDbEntity
  8
Defpoints
 62
     0
100
AcDbPoint
 10
1575.445121349204
 20
1602.392057636909
 30
0.0
  0
POINT
  5
CB87
330
CA0B
100
AcDbEntity
  8
Defpoints
 62
     0
100
AcDbPoint
 10
1564.195120349204
 20
1602.392057636909
 30
0.0
  0
ENDBLK
  5
CA16
330
CA0B
100
AcDbEntity
  8
0
100
AcDbBlockEnd
  0
BLOCK
  5
CA21
330
CA17
100
AcDbEntity
  8
0
100
AcDbBlockBegin
  2
*D36
 70
     1
 10
0.0
 20
0.0
 30
0.0
  3
*D36
  1

  0
LINE
  5
CBA3
330
CA17
100
AcDbEntity
  8
AM_5
100
AcDbLine
 10
1582.445121349204
 20
1583.892057636909
 30
0.0
 11
1563.195120349203
 21
1583.892057636909
 31
0.0
  0
LINE
  5
CBA4
330
CA17
100
AcDbEntity
  8
AM_5
100
AcDbLine
 10
1574.445121349204
 20
1565.392057636909
 30
0.0
 11
1563.195120349203
 21
1565.392057636909
 31
0.0
  0
LINE
  5
CBA5
330
CA17
100
AcDbEntity
  8
AM_5
100
AcDbLine
 10
1564.195120349203
 20
1582.892057636909
 30
0.0
 11
1564.195120349203
 21
1566.392057636909
 31
0.0
  0
INSERT
  5
CBA6
330
CA17
100
AcDbEntity
  8
AM_5
100
AcDbBlockReference
  2
_Dot
 10
1564.195120349203
 20
1583.892057636909
 30
0.0
 50
90.0
  0
INSERT
  5
CBA7
330
CA17
100
AcDbEntity
  8
AM_5
100
AcDbBlockReference
  2
_Dot
 10
1564.195120349203
 20
1565.392057636909
 30
0.0
 50
270.0
  0
MTEXT
  5
CBA8
330
CA17
100
AcDbEntity
  8
AM_5
 62
     2
100
AcDbMText
 10
1561.095120349203
 20
1574.64205763691
 30
0.0
 40
3.200000000000001
 41
0.0
 71
     5
 72
     1
  1
18.5
 11
0.0000000000000001
 21
1.0
 31
0.0
 73
     1
 44
1.0
1001
ACAD
1000
MTEXTBEGIN
1070
    73
1070
     1
1070
    44
1040
1.0
1070
    74
1070
     0
1000
MTEXTEND
  0
POINT
  5
CBA9
330
CA17
100
AcDbEntity
  8
Defpoints
 62
     0
100
AcDbPoint
 10
1583.445121349204
 20
1583.892057636909
 30
0.0
  0
POINT
  5
CBAA
330
CA17
100
AcDbEntity
  8
Defpoints
 62
     0
100
AcDbPoint
 10
1575.445121349204
 20
1565.392057636909
 30
0.0
  0
POINT
  5
CBAB
330
CA17
100
AcDbEntity
  8
Defpoints
 62
     0
100
AcDbPoint
 10
1564.195120349203
 20
1565.392057636909
 30
0.0
  0
ENDBLK
  5
CA22
330
CA17
100
AcDbEntity
  8
0
100
AcDbBlockEnd
  0
BLOCK
  5
CA2D
330
CA23
100
AcDbEntity
  8
0
100
AcDbBlockBegin
  2
*D37
 70
     1
 10
0.0
 20
0.0
 30
0.0
  3
*D37
  1

  0
LINE
  5
CBB5
330
CA23
100
AcDbEntity
  8
AM_5
100
AcDbLine
 10
1574.445121349204
 20
1565.392057636909
 30
0.0
 11
1563.195120349203
 21
1565.392057636909
 31
0.0
  0
LINE
  5
CBB6
330
CA23
100
AcDbEntity
  8
AM_5
100
AcDbLine
 10
1580.195121349204
 20
1556.392057636909
 30
0.0
 11
1563.195120349203
 21
1556.392057636909
 31
0.0
  0
LINE
  5
CBB7
330
CA23
100
AcDbEntity
  8
AM_5
100
AcDbLine
 10
1564.195120349203
 20
1564.392057636909
 30
0.0
 11
1564.195120349203
 21
1557.392057636909
 31
0.0
  0
INSERT
  5
CBB8
330
CA23
100
AcDbEntity
  8
AM_5
100
AcDbBlockReference
  2
_Dot
 10
1564.195120349203
 20
1565.392057636909
 30
0.0
 50
90.0
  0
INSERT
  5
CBB9
330
CA23
100
AcDbEntity
  8
AM_5
100
AcDbBlockReference
  2
_Dot
 10
1564.195120349203
 20
1556.392057636909
 30
0.0
 50
270.0
  0
MTEXT
  5
CBBA
330
CA23
100
AcDbEntity
  8
AM_5
 62
     2
100
AcDbMText
 10
1561.095120349203
 20
1560.89205763691
 30
0.0
 40
3.200000000000001
 41
0.0
 71
     5
 72
     1
  1
9
 11
0.0000000000000001
 21
1.0
 31
0.0
 73
     1
 44
1.0
1001
ACAD
1000
MTEXTBEGIN
1070
    73
1070
     1
1070
    44
1040
1.0
1070
    74
1070
     0
1000
MTEXTEND
  0
POINT
  5
CBBB
330
CA23
100
AcDbEntity
  8
Defpoints
 62
     0
100
AcDbPoint
 10
1575.445121349204
 20
1565.392057636909
 30
0.0
  0
POINT
  5
CBBC
330
CA23
100
AcDbEntity
  8
Defpoints
 62
     0
100
AcDbPoint
 10
1581.195121349204
 20
1556.392057636909
 30
0.0
  0
POINT
  5
CBBD
330
CA23
100
AcDbEntity
  8
Defpoints
 62
     0
100
AcDbPoint
 10
1564.195120349203
 20
1556.392057636909
 30
0.0
  0
ENDBLK
  5
CA2E
330
CA23
100
AcDbEntity
  8
0
100
AcDbBlockEnd
  0
BLOCK
  5
CA39
330
CA2F
100
AcDbEntity
  8
0
100
AcDbBlockBegin
  2
*D38
 70
     1
 10
0.0
 20
0.0
 30
0.0
  3
*D38
  1

  0
LINE
  5
CBEE
330
CA2F
100
AcDbEntity
  8
AM_5
100
AcDbLine
 10
1581.195121349204
 20
1556.392057636909
 30
0.0
 11
1553.195120349203
 21
1556.392057636909
 31
0.0
  0
LINE
  5
CBEF
330
CA2F
100
AcDbEntity
  8
AM_5
100
AcDbLine
 10
1611.195121349204
 20
1521.392057636909
 30
0.0
 11
1553.195120349203
 21
1521.392057636909
 31
0.0
  0
LINE
  5
CBF0
330
CA2F
100
AcDbEntity
  8
AM_5
100
AcDbLine
 10
1554.195120349203
 20
1555.392057636909
 30
0.0
 11
1554.195120349203
 21
1522.392057636909
 31
0.0
  0
INSERT
  5
CBF1
330
CA2F
100
AcDbEntity
  8
AM_5
100
AcDbBlockReference
  2
_Dot
 10
1554.195120349203
 20
1556.392057636909
 30
0.0
 50
90.0
  0
INSERT
  5
CBF2
330
CA2F
100
AcDbEntity
  8
AM_5
100
AcDbBlockReference
  2
_Dot
 10
1554.195120349203
 20
1521.392057636909
 30
0.0
 50
270.0
  0
MTEXT
  5
CBF3
330
CA2F
100
AcDbEntity
  8
AM_5
 62
     2
100
AcDbMText
 10
1551.095120349203
 20
1538.89205763691
 30
0.0
 40
3.200000000000001
 41
0.0
 71
     5
 72
     1
  1
35
 11
0.0000000000000001
 21
1.0
 31
0.0
 73
     1
 44
1.0
1001
ACAD
1000
MTEXTBEGIN
1070
    73
1070
     1
1070
    44
1040
1.0
1070
    74
1070
     0
1000
MTEXTEND
  0
POINT
  5
CBF4
330
CA2F
100
AcDbEntity
  8
Defpoints
 62
     0
100
AcDbPoint
 10
1582.195121349204
 20
1556.392057636909
 30
0.0
  0
POINT
  5
CBF5
330
CA2F
100
AcDbEntity
  8
Defpoints
 62
     0
100
AcDbPoint
 10
1612.195121349204
 20
1521.392057636909
 30
0.0
  0
POINT
  5
CBF6
330
CA2F
100
AcDbEntity
  8
Defpoints
 62
     0
100
AcDbPoint
 10
1554.195120349203
 20
1521.392057636909
 30
0.0
  0
ENDBLK
  5
CA3A
330
CA2F
100
AcDbEntity
  8
0
100
AcDbBlockEnd
  0
BLOCK
  5
CA45
330
CA3B
100
AcDbEntity
  8
0
100
AcDbBlockBegin
  2
*D39
 70
     1
 10
0.0
 20
0.0
 30
0.0
  3
*D39
  1

  0
LINE
  5
CB91
330
CA3B
100
AcDbEntity
  8
AM_5
100
AcDbLine
 10
1574.445121349204
 20
1602.392057636909
 30
0.0
 11
1563.195120349204
 21
1602.392057636909
 31
0.0
  0
LINE
  5
CB92
330
CA3B
100
AcDbEntity
  8
AM_5
100
AcDbLine
 10
1582.445121349204
 20
1583.892057636909
 30
0.0
 11
1563.195120349204
 21
1583.892057636909
 31
0.0
  0
LINE
  5
CB93
330
CA3B
100
AcDbEntity
  8
AM_5
100
AcDbLine
 10
1564.195120349204
 20
1601.392057636909
 30
0.0
 11
1564.195120349204
 21
1584.892057636909
 31
0.0
  0
INSERT
  5
CB94
330
CA3B
100
AcDbEntity
  8
AM_5
100
AcDbBlockReference
  2
_Dot
 10
1564.195120349204
 20
1602.392057636909
 30
0.0
 50
90.0
  0
INSERT
  5
CB95
330
CA3B
100
AcDbEntity
  8
AM_5
100
AcDbBlockReference
  2
_Dot
 10
1564.195120349204
 20
1583.892057636909
 30
0.0
 50
270.0
  0
MTEXT
  5
CB96
330
CA3B
100
AcDbEntity
  8
AM_5
 62
     2
100
AcDbMText
 10
1561.095120349204
 20
1593.14205763691
 30
0.0
 40
3.200000000000001
 41
0.0
 71
     5
 72
     1
  1
18.5
 11
0.0000000000000001
 21
1.0
 31
0.0
 73
     1
 44
1.0
1001
ACAD
1000
MTEXTBEGIN
1070
    73
1070
     1
1070
    44
1040
1.0
1070
    74
1070
     0
1000
MTEXTEND
  0
POINT
  5
CB97
330
CA3B
100
AcDbEntity
  8
Defpoints
 62
     0
100
AcDbPoint
 10
1575.445121349204
 20
1602.392057636909
 30
0.0
  0
POINT
  5
CB98
330
CA3B
100
AcDbEntity
  8
Defpoints
 62
     0
100
AcDbPoint
 10
1583.445121349204
 20
1583.892057636909
 30
0.0
  0
POINT
  5
CB99
330
CA3B
100
AcDbEntity
  8
Defpoints
 62
     0
100
AcDbPoint
 10
1564.195120349204
 20
1583.892057636909
 30
0.0
  0
ENDBLK
  5
CA46
330
CA3B
100
AcDbEntity
  8
0
100
AcDbBlockEnd
  0
BLOCK
  5
CA51
330
CA47
100
AcDbEntity
  8
0
100
AcDbBlockBegin
  2
*D40
 70
     1
 10
0.0
 20
0.0
 30
0.0
  3
*D40
  1

  0
LINE
  5
CBE5
330
CA47
100
AcDbEntity
  8
AM_5
100
AcDbLine
 10
1581.195121349204
 20
1556.392057636909
 30
0.0
 11
1553.195120349203
 21
1556.392057636909
 31
0.0
  0
LINE
  5
CBE6
330
CA47
100
AcDbEntity
  8
AM_5
100
AcDbLine
 10
1581.195121349204
 20
1615.392057636909
 30
0.0
 11
1553.195120349203
 21
1615.392057636909
 31
0.0
  0
LINE
  5
CBE7
330
CA47
100
AcDbEntity
  8
AM_5
100
AcDbLine
 10
1554.195120349203
 20
1557.392057636909
 30
0.0
 11
1554.195120349203
 21
1614.39205763691
 31
0.0
  0
INSERT
  5
CBE8
330
CA47
100
AcDbEntity
  8
AM_5
100
AcDbBlockReference
  2
_Dot
 10
1554.195120349203
 20
1556.392057636909
 30
0.0
 50
270.0
  0
INSERT
  5
CBE9
330
CA47
100
AcDbEntity
  8
AM_5
100
AcDbBlockReference
  2
_Dot
 10
1554.195120349203
 20
1615.392057636909
 30
0.0
 50
90.0
  0
MTEXT
  5
CBEA
330
CA47
100
AcDbEntity
  8
AM_5
 62
     2
100
AcDbMText
 10
1551.095120349202
 20
1585.89205763691
 30
0.0
 40
3.200000000000001
 41
0.0
 71
     5
 72
     1
  1
59
 11
0.0000000000000001
 21
1.0
 31
0.0
 73
     1
 44
1.0
1001
ACAD
1000
MTEXTBEGIN
1070
    73
1070
     1
1070
    44
1040
1.0
1070
    74
1070
     0
1000
MTEXTEND
  0
POINT
  5
CBEB
330
CA47
100
AcDbEntity
  8
Defpoints
 62
     0
100
AcDbPoint
 10
1582.195121349204
 20
1556.392057636909
 30
0.0
  0
POINT
  5
CBEC
330
CA47
100
AcDbEntity
  8
Defpoints
 62
     0
100
AcDbPoint
 10
1582.195121349204
 20
1615.392057636909
 30
0.0
  0
POINT
  5
CBED
330
CA47
100
AcDbEntity
  8
Defpoints
 62
     0
100
AcDbPoint
 10
1554.195120349203
 20
1615.392057636909
 30
0.0
  0
ENDBLK
  5
CA52
330
CA47
100
AcDbEntity
  8
0
100
AcDbBlockEnd
  0
BLOCK
  5
CA5D
330
CA53
100
AcDbEntity
  8
0
100
AcDbBlockBegin
  2
*D41
 70
     1
 10
0.0
 20
0.0
 30
0.0
  3
*D41
  1

  0
LINE
  5
CDA4
330
CA53
100
AcDbEntity
  8
AM_5
100
AcDbLine
 10
1629.195121349204
 20
1622.392057636909
 30
0.0
 11
1629.195121349204
 21
1631.392058636909
 31
0.0
  0
LINE
  5
CDA5
330
CA53
100
AcDbEntity
  8
AM_5
100
AcDbLine
 10
1576.195121349204
 20
1610.392057636909
 30
0.0
 11
1576.195121349204
 21
1631.392058636909
 31
0.0
  0
LINE
  5
CDA6
330
CA53
100
AcDbEntity
  8
AM_5
100
AcDbLine
 10
1628.195121349204
 20
1630.39205863691
 30
0.0
 11
1577.195121349204
 21
1630.39205863691
 31
0.0
  0
INSERT
  5
CDA7
330
CA53
100
AcDbEntity
  8
AM_5
100
AcDbBlockReference
  2
_Dot
 10
1629.195121349204
 20
1630.39205863691
 30
0.0
  0
INSERT
  5
CDA8
330
CA53
100
AcDbEntity
  8
AM_5
100
AcDbBlockReference
  2
_Dot
 10
1576.195121349204
 20
1630.39205863691
 30
0.0
 50
180.0
  0
MTEXT
  5
CDA9
330
CA53
100
AcDbEntity
  8
AM_5
 62
     2
100
AcDbMText
 10
1602.695121349204
 20
1633.49205863691
 30
0.0
 40
3.200000000000001
 41
0.0
 71
     5
 72
     1
  1
53
 73
     1
 44
1.0
1001
ACAD
1000
MTEXTBEGIN
1070
    73
1070
     1
1070
    44
1040
1.0
1070
    74
1070
     0
1000
MTEXTEND
  0
POINT
  5
CDAA
330
CA53
100
AcDbEntity
  8
Defpoints
 62
     0
100
AcDbPoint
 10
1629.195121349204
 20
1621.39205763691
 30
0.0
  0
POINT
  5
CDAB
330
CA53
100
AcDbEntity
  8
Defpoints
 62
     0
100
AcDbPoint
 10
1576.195121349204
 20
1609.39205763691
 30
0.0
  0
POINT
  5
CDAC
330
CA53
100
AcDbEntity
  8
Defpoints
 62
     0
100
AcDbPoint
 10
1576.195121349204
 20
1630.39205863691
 30
0.0
  0
ENDBLK
  5
CA5E
330
CA53
100
AcDbEntity
  8
0
100
AcDbBlockEnd
  0
BLOCK
  5
CA69
330
CA5F
100
AcDbEntity
  8
0
100
AcDbBlockBegin
  2
*D42
 70
     1
 10
0.0
 20
0.0
 30
0.0
  3
*D42
  1

  0
LINE
  5
CDAD
330
CA5F
100
AcDbEntity
  8
AM_5
100
AcDbLine
 10
1629.195121349204
 20
1622.392057636909
 30
0.0
 11
1629.195121349204
 21
1631.392058636909
 31
0.0
  0
LINE
  5
CDAE
330
CA5F
100
AcDbEntity
  8
AM_5
100
AcDbLine
 10
1682.195121349204
 20
1542.39205763691
 30
0.0
 11
1682.195121349204
 21
1631.392058636909
 31
0.0
  0
LINE
  5
CDAF
330
CA5F
100
AcDbEntity
  8
AM_5
100
AcDbLine
 10
1630.195121349204
 20
1630.392058636909
 30
0.0
 11
1681.195121349204
 21
1630.392058636909
 31
0.0
  0
INSERT
  5
CDB0
330
CA5F
100
AcDbEntity
  8
AM_5
100
AcDbBlockReference
  2
_Dot
 10
1629.195121349204
 20
1630.392058636909
 30
0.0
 50
180.0
  0
INSERT
  5
CDB1
330
CA5F
100
AcDbEntity
  8
AM_5
100
AcDbBlockReference
  2
_Dot
 10
1682.195121349204
 20
1630.392058636909
 30
0.0
  0
MTEXT
  5
CDB2
330
CA5F
100
AcDbEntity
  8
AM_5
 62
     2
100
AcDbMText
 10
1655.695121349204
 20
1633.492058636909
 30
0.0
 40
3.200000000000001
 41
0.0
 71
     5
 72
     1
  1
53
 73
     1
 44
1.0
1001
ACAD
1000
MTEXTBEGIN
1070
    73
1070
     1
1070
    44
1040
1.0
1070
    74
1070
     0
1000
MTEXTEND
  0
POINT
  5
CDB3
330
CA5F
100
AcDbEntity
  8
Defpoints
 62
     0
100
AcDbPoint
 10
1629.195121349204
 20
1621.39205763691
 30
0.0
  0
POINT
  5
CDB4
330
CA5F
100
AcDbEntity
  8
Defpoints
 62
     0
100
AcDbPoint
 10
1682.195121349204
 20
1541.392057636909
 30
0.0
  0
POINT
  5
CDB5
330
CA5F
100
AcDbEntity
  8
Defpoints
 62
     0
100
AcDbPoint
 10
1682.195121349204
 20
1630.392058636909
 30
0.0
  0
ENDBLK
  5
CA6A
330
CA5F
100
AcDbEntity
  8
0
100
AcDbBlockEnd
  0
BLOCK
  5
CA75
330
CA6B
100
AcDbEntity
  8
0
100
AcDbBlockBegin
  2
*D43
 70
     1
 10
0.0
 20
0.0
 30
0.0
  3
*D43
  1

  0
LINE
  5
CC58
330
CA6B
100
AcDbEntity
  8
AM_5
100
AcDbLine
 10
1682.195121349204
 20
1542.39205763691
 30
0.0
 11
1682.195121349204
 21
1641.392058636909
 31
0.0
  0
LINE
  5
CC59
330
CA6B
100
AcDbEntity
  8
AM_5
100
AcDbLine
 10
1576.195121349204
 20
1610.392057636909
 30
0.0
 11
1576.195121349204
 21
1641.392058636909
 31
0.0
  0
LINE
  5
CC5A
330
CA6B
100
AcDbEntity
  8
AM_5
100
AcDbLine
 10
1681.195121349204
 20
1640.392058636909
 30
0.0
 11
1577.195121349204
 21
1640.392058636909
 31
0.0
  0
INSERT
  5
CC5B
330
CA6B
100
AcDbEntity
  8
AM_5
100
AcDbBlockReference
  2
_Dot
 10
1682.195121349204
 20
1640.392058636909
 30
0.0
  0
INSERT
  5
CC5C
330
CA6B
100
AcDbEntity
  8
AM_5
100
AcDbBlockReference
  2
_Dot
 10
1576.195121349204
 20
1640.392058636909
 30
0.0
 50
180.0
  0
MTEXT
  5
CC5D
330
CA6B
100
AcDbEntity
  8
AM_5
 62
     2
100
AcDbMText
 10
1629.195121349204
 20
1643.492058636909
 30
0.0
 40
3.200000000000001
 41
0.0
 71
     5
 72
     1
  1
106
 73
     1
 44
1.0
1001
ACAD
1000
MTEXTBEGIN
1070
    73
1070
     1
1070
    44
1040
1.0
1070
    74
1070
     0
1000
MTEXTEND
  0
POINT
  5
CC5E
330
CA6B
100
AcDbEntity
  8
Defpoints
 62
     0
100
AcDbPoint
 10
1682.195121349204
 20
1541.392057636909
 30
0.0
  0
POINT
  5
CC5F
330
CA6B
100
AcDbEntity
  8
Defpoints
 62
     0
100
AcDbPoint
 10
1576.195121349204
 20
1609.39205763691
 30
0.0
  0
POINT
  5
CC60
330
CA6B
100
AcDbEntity
  8
Defpoints
 62
     0
100
AcDbPoint
 10
1576.195121349204
 20
1640.392058636909
 30
0.0
  0
ENDBLK
  5
CA76
330
CA6B
100
AcDbEntity
  8
0
100
AcDbBlockEnd
  0
BLOCK
  5
CA81
330
CA77
100
AcDbEntity
  8
0
100
AcDbBlockBegin
  2
*D44
 70
     1
 10
0.0
 20
0.0
 30
0.0
  3
*D44
  1

  0
LINE
  5
CCBB
330
CA77
100
AcDbEntity
  8
AM_5
100
AcDbLine
 10
1640.195121349204
 20
1615.392057636909
 30
0.0
 11
1715.445121349204
 21
1615.392057636909
 31
0.0
  0
LINE
  5
CCBC
330
CA77
100
AcDbEntity
  8
AM_5
100
AcDbLine
 10
1678.195121349204
 20
1465.392057636909
 30
0.0
 11
1715.445121349204
 21
1465.392057636909
 31
0.0
  0
LINE
  5
CCBD
330
CA77
100
AcDbEntity
  8
AM_5
100
AcDbLine
 10
1714.445121349205
 20
1614.39205763691
 30
0.0
 11
1714.445121349204
 21
1466.392057636909
 31
0.0
  0
INSERT
  5
CCBE
330
CA77
100
AcDbEntity
  8
AM_5
100
AcDbBlockReference
  2
_Dot
 10
1714.445121349205
 20
1615.392057636909
 30
0.0
 50
90.0
  0
INSERT
  5
CCBF
330
CA77
100
AcDbEntity
  8
AM_5
100
AcDbBlockReference
  2
_Dot
 10
1714.445121349204
 20
1465.392057636909
 30
0.0
 50
270.0
  0
MTEXT
  5
CCC0
330
CA77
100
AcDbEntity
  8
AM_5
 62
     2
100
AcDbMText
 10
1711.345121349204
 20
1540.39205763691
 30
0.0
 40
3.200000000000001
 41
0.0
 71
     5
 72
     1
  1
150
 11
0.0000000000000001
 21
1.0
 31
0.0
 73
     1
 44
1.0
1001
ACAD
1000
MTEXTBEGIN
1070
    73
1070
     1
1070
    44
1040
1.0
1070
    74
1070
     0
1000
MTEXTEND
  0
POINT
  5
CCC1
330
CA77
100
AcDbEntity
  8
Defpoints
 62
     0
100
AcDbPoint
 10
1639.195121349204
 20
1615.392057636909
 30
0.0
  0
POINT
  5
CCC2
330
CA77
100
AcDbEntity
  8
Defpoints
 62
     0
100
AcDbPoint
 10
1677.195121349204
 20
1465.392057636909
 30
0.0
  0
POINT
  5
CCC3
330
CA77
100
AcDbEntity
  8
Defpoints
 62
     0
100
AcDbPoint
 10
1714.445121349204
 20
1465.392057636909
 30
0.0
  0
ENDBLK
  5
CA82
330
CA77
100
AcDbEntity
  8
0
100
AcDbBlockEnd
  0
BLOCK
  5
CA8D
330
CA83
100
AcDbEntity
  8
0
100
AcDbBlockBegin
  2
*D45
 70
     1
 10
0.0
 20
0.0
 30
0.0
  3
*D45
  1

  0
LINE
  5
CD32
330
CA83
100
AcDbEntity
  8
AM_5
100
AcDbLine
 10
1667.695121349204
 20
1511.642057636909
 30
0.0
 11
1667.695121349204
 21
1452.39205763691
 31
0.0
  0
LINE
  5
CD33
330
CA83
100
AcDbEntity
  8
AM_5
100
AcDbLine
 10
1675.695121349204
 20
1493.142057636909
 30
0.0
 11
1675.695121349204
 21
1452.39205763691
 31
0.0
  0
LINE
  5
CD34
330
CA83
100
AcDbEntity
  8
AM_5
100
AcDbLine
 10
1668.695121349204
 20
1453.392057636909
 30
0.0
 11
1674.695121349204
 21
1453.392057636909
 31
0.0
  0
INSERT
  5
CD35
330
CA83
100
AcDbEntity
  8
AM_5
100
AcDbBlockReference
  2
_Dot
 10
1667.695121349204
 20
1453.392057636909
 30
0.0
 50
180.0
  0
INSERT
  5
CD36
330
CA83
100
AcDbEntity
  8
AM_5
100
AcDbBlockReference
  2
_Dot
 10
1675.695121349204
 20
1453.392057636909
 30
0.0
  0
MTEXT
  5
CD37
330
CA83
100
AcDbEntity
  8
AM_5
 62
     2
100
AcDbMText
 10
1671.695121349204
 20
1456.492057636909
 30
0.0
 40
3.200000000000001
 41
0.0
 71
     5
 72
     1
  1
8
 73
     1
 44
1.0
1001
ACAD
1000
MTEXTBEGIN
1070
    73
1070
     1
1070
    44
1040
1.0
1070
    74
1070
     0
1000
MTEXTEND
  0
POINT
  5
CD38
330
CA83
100
AcDbEntity
  8
Defpoints
 62
     0
100
AcDbPoint
 10
1667.695121349204
 20
1512.642057636909
 30
0.0
  0
POINT
  5
CD39
330
CA83
100
AcDbEntity
  8
Defpoints
 62
     0
100
AcDbPoint
 10
1675.695121349204
 20
1494.142057636909
 30
0.0
  0
POINT
  5
CD3A
330
CA83
100
AcDbEntity
  8
Defpoints
 62
     0
100
AcDbPoint
 10
1675.695121349204
 20
1453.392057636909
 30
0.0
  0
ENDBLK
  5
CA8E
330
CA83
100
AcDbEntity
  8
0
100
AcDbBlockEnd
  0
BLOCK
  5
CA99
330
CA8F
100
AcDbEntity
  8
0
100
AcDbBlockBegin
  2
*D46
 70
     1
 10
0.0
 20
0.0
 30
0.0
  3
*D46
  1

  0
LINE
  5
CD29
330
CA8F
100
AcDbEntity
  8
AM_5
100
AcDbLine
 10
1667.695121349204
 20
1511.642057636909
 30
0.0
 11
1667.695121349204
 21
1452.39205763691
 31
0.0
  0
LINE
  5
CD2A
330
CA8F
100
AcDbEntity
  8
AM_5
100
AcDbLine
 10
1659.695121349204
 20
1493.142057636909
 30
0.0
 11
1659.695121349204
 21
1452.39205763691
 31
0.0
  0
LINE
  5
CD2B
330
CA8F
100
AcDbEntity
  8
AM_5
100
AcDbLine
 10
1666.695121349204
 20
1453.392057636909
 30
0.0
 11
1660.695121349204
 21
1453.392057636909
 31
0.0
  0
INSERT
  5
CD2C
330
CA8F
100
AcDbEntity
  8
AM_5
100
AcDbBlockReference
  2
_Dot
 10
1667.695121349204
 20
1453.392057636909
 30
0.0
  0
INSERT
  5
CD2D
330
CA8F
100
AcDbEntity
  8
AM_5
100
AcDbBlockReference
  2
_Dot
 10
1659.695121349204
 20
1453.392057636909
 30
0.0
 50
180.0
  0
MTEXT
  5
CD2E
330
CA8F
100
AcDbEntity
  8
AM_5
 62
     2
100
AcDbMText
 10
1663.695121349204
 20
1456.492057636909
 30
0.0
 40
3.200000000000001
 41
0.0
 71
     5
 72
     1
  1
8
 73
     1
 44
1.0
1001
ACAD
1000
MTEXTBEGIN
1070
    73
1070
     1
1070
    44
1040
1.0
1070
    74
1070
     0
1000
MTEXTEND
  0
POINT
  5
CD2F
330
CA8F
100
AcDbEntity
  8
Defpoints
 62
     0
100
AcDbPoint
 10
1667.695121349204
 20
1512.642057636909
 30
0.0
  0
POINT
  5
CD30
330
CA8F
100
AcDbEntity
  8
Defpoints
 62
     0
100
AcDbPoint
 10
1659.695121349204
 20
1494.142057636909
 30
0.0
  0
POINT
  5
CD31
330
CA8F
100
AcDbEntity
  8
Defpoints
 62
     0
100
AcDbPoint
 10
1659.695121349204
 20
1453.392057636909
 30
0.0
  0
ENDBLK
  5
CA9A
330
CA8F
100
AcDbEntity
  8
0
100
AcDbBlockEnd
  0
BLOCK
  5
CAA5
330
CA9B
100
AcDbEntity
  8
0
100
AcDbBlockBegin
  2
*D47
 70
     1
 10
0.0
 20
0.0
 30
0.0
  3
*D47
  1

  0
LINE
  5
CD44
330
CA9B
100
AcDbEntity
  8
AM_5
100
AcDbLine
 10
1675.695121349204
 20
1493.142057636909
 30
0.0
 11
1675.695121349204
 21
1442.39205763691
 31
0.0
  0
LINE
  5
CD45
330
CA9B
100
AcDbEntity
  8
AM_5
100
AcDbLine
 10
1659.695121349204
 20
1493.142057636909
 30
0.0
 11
1659.695121349204
 21
1442.39205763691
 31
0.0
  0
LINE
  5
CD46
330
CA9B
100
AcDbEntity
  8
AM_5
100
AcDbLine
 10
1674.695121349204
 20
1443.392057636909
 30
0.0
 11
1660.695121349204
 21
1443.392057636909
 31
0.0
  0
INSERT
  5
CD47
330
CA9B
100
AcDbEntity
  8
AM_5
100
AcDbBlockReference
  2
_Dot
 10
1675.695121349204
 20
1443.392057636909
 30
0.0
  0
INSERT
  5
CD48
330
CA9B
100
AcDbEntity
  8
AM_5
100
AcDbBlockReference
  2
_Dot
 10
1659.695121349204
 20
1443.392057636909
 30
0.0
 50
180.0
  0
MTEXT
  5
CD49
330
CA9B
100
AcDbEntity
  8
AM_5
 62
     2
100
AcDbMText
 10
1667.695121349204
 20
1446.492057636909
 30
0.0
 40
3.200000000000001
 41
0.0
 71
     5
 72
     1
  1
16
 73
     1
 44
1.0
1001
ACAD
1000
MTEXTBEGIN
1070
    73
1070
     1
1070
    44
1040
1.0
1070
    74
1070
     0
1000
MTEXTEND
  0
POINT
  5
CD4A
330
CA9B
100
AcDbEntity
  8
Defpoints
 62
     0
100
AcDbPoint
 10
1675.695121349204
 20
1494.142057636909
 30
0.0
  0
POINT
  5
CD4B
330
CA9B
100
AcDbEntity
  8
Defpoints
 62
     0
100
AcDbPoint
 10
1659.695121349204
 20
1494.142057636909
 30
0.0
  0
POINT
  5
CD4C
330
CA9B
100
AcDbEntity
  8
Defpoints
 62
     0
100
AcDbPoint
 10
1659.695121349204
 20
1443.392057636909
 30
0.0
  0
ENDBLK
  5
CAA6
330
CA9B
100
AcDbEntity
  8
0
100
AcDbBlockEnd
  0
BLOCK
  5
CAB2
330
CAA7
100
AcDbEntity
  8
0
100
AcDbBlockBegin
  2
*D48
 70
     1
 10
0.0
 20
0.0
 30
0.0
  3
*D48
  1

  0
LINE
  5
CD56
330
CAA7
100
AcDbEntity
  8
AM_5
100
AcDbLine
 10
1675.695121349204
 20
1493.142057636909
 30
0.0
 11
1675.695121349204
 21
1442.39205763691
 31
0.0
  0
LINE
  5
CD57
330
CAA7
100
AcDbEntity
  8
AM_5
100
AcDbLine
 10
1682.195121349204
 20
1469.392057636909
 30
0.0
 11
1682.195121349204
 21
1442.39205763691
 31
0.0
  0
LINE
  5
CD58
330
CAA7
100
AcDbEntity
  8
AM_5
100
AcDbLine
 10
1676.695121349204
 20
1443.392057636909
 30
0.0
 11
1681.195121349204
 21
1443.392057636909
 31
0.0
  0
LINE
  5
CD59
330
CAA7
100
AcDbEntity
  8
AM_5
100
AcDbLine
 10
1682.195121349204
 20
1443.392057636909
 30
0.0
 11
1690.781788015871
 21
1443.392057636909
 31
0.0
  0
INSERT
  5
CD5A
330
CAA7
100
AcDbEntity
  8
AM_5
100
AcDbBlockReference
  2
_Dot
 10
1675.695121349204
 20
1443.392057636909
 30
0.0
 50
180.0
  0
INSERT
  5
CD5B
330
CAA7
100
AcDbEntity
  8
AM_5
100
AcDbBlockReference
  2
_Dot
 10
1682.195121349204
 20
1443.392057636909
 30
0.0
  0
MTEXT
  5
CD5C
330
CAA7
100
AcDbEntity
  8
AM_5
 62
     2
100
AcDbMText
 10
1686.988454682537
 20
1446.492057636909
 30
0.0
 40
3.200000000000001
 41
0.0
 71
     5
 72
     1
  1
6.5
 73
     1
 44
1.0
1001
ACAD
1000
MTEXTBEGIN
1070
    73
1070
     1
1070
    44
1040
1.0
1070
    74
1070
     0
1000
MTEXTEND
  0
POINT
  5
CD5D
330
CAA7
100
AcDbEntity
  8
Defpoints
 62
     0
100
AcDbPoint
 10
1675.695121349204
 20
1494.142057636909
 30
0.0
  0
POINT
  5
CD5E
330
CAA7
100
AcDbEntity
  8
Defpoints
 62
     0
100
AcDbPoint
 10
1682.195121349204
 20
1470.39205763691
 30
0.0
  0
POINT
  5
CD5F
330
CAA7
100
AcDbEntity
  8
Defpoints
 62
     0
100
AcDbPoint
 10
1682.195121349204
 20
1443.392057636909
 30
0.0
  0
ENDBLK
  5
CAB3
330
CAA7
100
AcDbEntity
  8
0
100
AcDbBlockEnd
  0
BLOCK
  5
CABE
330
CAB4
100
AcDbEntity
  8
0
100
AcDbBlockBegin
  2
*D49
 70
     1
 10
0.0
 20
0.0
 30
0.0
  3
*D49
  1

  0
LINE
  5
CD4D
330
CAB4
100
AcDbEntity
  8
AM_5
100
AcDbLine
 10
1659.695121349204
 20
1493.142057636909
 30
0.0
 11
1659.695121349204
 21
1442.39205763691
 31
0.0
  0
LINE
  5
CD4E
330
CAB4
100
AcDbEntity
  8
AM_5
100
AcDbLine
 10
1629.195121349204
 20
1458.392057636909
 30
0.0
 11
1629.195121349204
 21
1442.39205763691
 31
0.0
  0
LINE
  5
CD4F
330
CAB4
100
AcDbEntity
  8
AM_5
100
AcDbLine
 10
1658.695121349204
 20
1443.392057636909
 30
0.0
 11
1630.195121349204
 21
1443.392057636909
 31
0.0
  0
INSERT
  5
CD50
330
CAB4
100
AcDbEntity
  8
AM_5
100
AcDbBlockReference
  2
_Dot
 10
1659.695121349204
 20
1443.392057636909
 30
0.0
  0
INSERT
  5
CD51
330
CAB4
100
AcDbEntity
  8
AM_5
100
AcDbBlockReference
  2
_Dot
 10
1629.195121349204
 20
1443.392057636909
 30
0.0
 50
180.0
  0
MTEXT
  5
CD52
330
CAB4
100
AcDbEntity
  8
AM_5
 62
     2
100
AcDbMText
 10
1644.445121349204
 20
1446.492057636909
 30
0.0
 40
3.200000000000001
 41
0.0
 71
     5
 72
     1
  1
30.5
 73
     1
 44
1.0
1001
ACAD
1000
MTEXTBEGIN
1070
    73
1070
     1
1070
    44
1040
1.0
1070
    74
1070
     0
1000
MTEXTEND
  0
POINT
  5
CD53
330
CAB4
100
AcDbEntity
  8
Defpoints
 62
     0
100
AcDbPoint
 10
1659.695121349204
 20
1494.142057636909
 30
0.0
  0
POINT
  5
CD54
330
CAB4
100
AcDbEntity
  8
Defpoints
 62
     0
100
AcDbPoint
 10
1629.195121349204
 20
1459.392057636909
 30
0.0
  0
POINT
  5
CD55
330
CAB4
100
AcDbEntity
  8
Defpoints
 62
     0
100
AcDbPoint
 10
1629.195121349204
 20
1443.392057636909
 30
0.0
  0
ENDBLK
  5
CABF
330
CAB4
100
AcDbEntity
  8
0
100
AcDbBlockEnd
  0
BLOCK
  5
CC02
330
CBF8
100
AcDbEntity
  8
0
100
AcDbBlockBegin
  2
*D50
 70
     1
 10
0.0
 20
0.0
 30
0.0
  3
*D50
  1

  0
LINE
  5
CC35
330
CBF8
100
AcDbEntity
  8
AM_5
100
AcDbLine
 10
1611.195121349204
 20
1521.392057636909
 30
0.0
 11
1553.195120349202
 21
1521.392057636909
 31
0.0
  0
LINE
  5
CC36
330
CBF8
100
AcDbEntity
  8
AM_5
100
AcDbLine
 10
1617.195121349204
 20
1512.392057636909
 30
0.0
 11
1553.195120349202
 21
1512.392057636909
 31
0.0
  0
LINE
  5
CC37
330
CBF8
100
AcDbEntity
  8
AM_5
100
AcDbLine
 10
1554.195120349202
 20
1520.392057636909
 30
0.0
 11
1554.195120349202
 21
1513.392057636909
 31
0.0
  0
INSERT
  5
CC38
330
CBF8
100
AcDbEntity
  8
AM_5
100
AcDbBlockReference
  2
_Dot
 10
1554.195120349202
 20
1521.392057636909
 30
0.0
 50
90.0
  0
INSERT
  5
CC39
330
CBF8
100
AcDbEntity
  8
AM_5
100
AcDbBlockReference
  2
_Dot
 10
1554.195120349202
 20
1512.392057636909
 30
0.0
 50
270.0
  0
MTEXT
  5
CC3A
330
CBF8
100
AcDbEntity
  8
AM_5
 62
     2
100
AcDbMText
 10
1551.095120349202
 20
1516.89205763691
 30
0.0
 40
3.200000000000001
 41
0.0
 71
     5
 72
     1
  1
9
 11
0.0000000000000001
 21
1.0
 31
0.0
 73
     1
 44
1.0
1001
ACAD
1000
MTEXTBEGIN
1070
    73
1070
     1
1070
    44
1040
1.0
1070
    74
1070
     0
1000
MTEXTEND
  0
POINT
  5
CC3B
330
CBF8
100
AcDbEntity
  8
Defpoints
 62
     0
100
AcDbPoint
 10
1612.195121349204
 20
1521.392057636909
 30
0.0
  0
POINT
  5
CC3C
330
CBF8
100
AcDbEntity
  8
Defpoints
 62
     0
100
AcDbPoint
 10
1618.195121349204
 20
1512.392057636909
 30
0.0
  0
POINT
  5
CC3D
330
CBF8
100
AcDbEntity
  8
Defpoints
 62
     0
100
AcDbPoint
 10
1554.195120349202
 20
1512.392057636909
 30
0.0
  0
ENDBLK
  5
CC03
330
CBF8
100
AcDbEntity
  8
0
100
AcDbBlockEnd
  0
BLOCK
  5
CC18
330
CC0E
100
AcDbEntity
  8
0
100
AcDbBlockBegin
  2
*D51
 70
     1
 10
0.0
 20
0.0
 30
0.0
  3
*D51
  1

  0
LINE
  5
CC2C
330
CC0E
100
AcDbEntity
  8
AM_5
100
AcDbLine
 10
1607.195121349204
 20
1527.39205763691
 30
0.0
 11
1607.195121349204
 21
1545.39205763691
 31
0.0
  0
LINE
  5
CC2D
330
CC0E
100
AcDbEntity
  8
AM_5
100
AcDbLine
 10
1576.195121349204
 20
1560.392057636909
 30
0.0
 11
1576.195121349204
 21
1543.39205763691
 31
0.0
  0
LINE
  5
CC2E
330
CC0E
100
AcDbEntity
  8
AM_5
100
AcDbLine
 10
1606.195121349204
 20
1544.392057636909
 30
0.0
 11
1577.195121349204
 21
1544.392057636909
 31
0.0
  0
INSERT
  5
CC2F
330
CC0E
100
AcDbEntity
  8
AM_5
100
AcDbBlockReference
  2
_Dot
 10
1607.195121349204
 20
1544.392057636909
 30
0.0
  0
INSERT
  5
CC30
330
CC0E
100
AcDbEntity
  8
AM_5
100
AcDbBlockReference
  2
_Dot
 10
1576.195121349204
 20
1544.392057636909
 30
0.0
 50
180.0
  0
MTEXT
  5
CC31
330
CC0E
100
AcDbEntity
  8
AM_5
 62
     2
100
AcDbMText
 10
1591.695121349204
 20
1547.492057636909
 30
0.0
 40
3.200000000000001
 41
0.0
 71
     5
 72
     1
  1
31
 73
     1
 44
1.0
1001
ACAD
1000
MTEXTBEGIN
1070
    73
1070
     1
1070
    44
1040
1.0
1070
    74
1070
     0
1000
MTEXTEND
  0
POINT
  5
CC32
330
CC0E
100
AcDbEntity
  8
Defpoints
 62
     0
100
AcDbPoint
 10
1607.195121349204
 20
1526.39205763691
 30
0.0
  0
POINT
  5
CC33
330
CC0E
100
AcDbEntity
  8
Defpoints
 62
     0
100
AcDbPoint
 10
1576.195121349204
 20
1561.39205763691
 30
0.0
  0
POINT
  5
CC34
330
CC0E
100
AcDbEntity
  8
Defpoints
 62
     0
100
AcDbPoint
 10
1576.195121349204
 20
1544.392057636909
 30
0.0
  0
ENDBLK
  5
CC19
330
CC0E
100
AcDbEntity
  8
0
100
AcDbBlockEnd
  0
BLOCK
  5
CD84
330
CD78
100
AcDbEntity
  8
0
100
AcDbBlockBegin
  2
*D52
 70
     1
 10
0.0
 20
0.0
 30
0.0
  3
*D52
  1

  0
LINE
  5
CD91
330
CD78
100
AcDbEntity
  8
AM_5
100
AcDbLine
 10
1683.195121349204
 20
1701.580297614965
 30
0.0
 11
1705.445121349204
 21
1701.580297614965
 31
0.0
  0
LINE
  5
CD92
330
CD78
100
AcDbEntity
  8
AM_5
100
AcDbLine
 10
1683.195121349204
 20
1704.580297614965
 30
0.0
 11
1705.445121349204
 21
1704.580297614965
 31
0.0
  0
LINE
  5
CD93
330
CD78
100
AcDbEntity
  8
AM_5
100
AcDbLine
 10
1704.445121349204
 20
1700.580297614965
 30
0.0
 11
1704.445121349204
 21
1699.580297614965
 31
0.0
  0
LINE
  5
CD94
330
CD78
100
AcDbEntity
  8
AM_5
100
AcDbLine
 10
1704.445121349204
 20
1705.580297614965
 30
0.0
 11
1704.445121349204
 21
1711.073630948298
 31
0.0
  0
LINE
  5
CD95
330
CD78
100
AcDbEntity
  8
AM_5
100
AcDbLine
 10
1704.445121349204
 20
1701.580297614965
 30
0.0
 11
1704.445121349204
 21
1704.580297614965
 31
0.0
  0
INSERT
  5
CD96
330
CD78
100
AcDbEntity
  8
AM_5
100
AcDbBlockReference
  2
_Dot
 10
1704.445121349204
 20
1701.580297614965
 30
0.0
 50
90.0
  0
INSERT
  5
CD97
330
CD78
100
AcDbEntity
  8
AM_5
100
AcDbBlockReference
  2
_Dot
 10
1704.445121349204
 20
1704.580297614965
 30
0.0
 50
270.0
  0
MTEXT
  5
CD98
330
CD78
100
AcDbEntity
  8
AM_5
 62
     2
100
AcDbMText
 10
1701.345121349204
 20
1708.826964281632
 30
0.0
 40
3.200000000000001
 41
0.0
 71
     5
 72
     1
  1
3
 11
0.0000000000000001
 21
1.0
 31
0.0
 73
     1
 44
1.0
1001
ACAD
1000
MTEXTBEGIN
1070
    73
1070
     1
1070
    44
1040
1.0
1070
    74
1070
     0
1000
MTEXTEND
  0
POINT
  5
CD99
330
CD78
100
AcDbEntity
  8
Defpoints
 62
     0
100
AcDbPoint
 10
1682.195121349204
 20
1701.580297614965
 30
0.0
  0
POINT
  5
CD9A
330
CD78
100
AcDbEntity
  8
Defpoints
 62
     0
100
AcDbPoint
 10
1682.195121349204
 20
1704.580297614965
 30
0.0
  0
POINT
  5
CD9B
330
CD78
100
AcDbEntity
  8
Defpoints
 62
     0
100
AcDbPoint
 10
1704.445121349204
 20
1704.580297614965
 30
0.0
  0
ENDBLK
  5
CD85
330
CD78
100
AcDbEntity
  8
0
100
AcDbBlockEnd
  0
BLOCK
  5
CD8F
330
CD86
100
AcDbEntity
  8
0
100
AcDbBlockBegin
  2
*D53
 70
     1
 10
0.0
 20
0.0
 30
0.0
  3
*D53
  1

  0
LINE
  5
CD9C
330
CD86
100
AcDbEntity
  8
AM_5
100
AcDbLine
 10
1601.115412157889
 20
1684.393540501705
 30
0.0
 11
1608.798745491221
 21
1684.393540501705
 31
0.0
  0
LINE
  5
CD9D
330
CD86
100
AcDbEntity
  8
AM_5
100
AcDbLine
 10
1608.798745491221
 20
1684.393540501705
 30
0.0
 11
1621.821793785628
 21
1696.325000386849
 31
0.0
  0
MTEXT
  5
CD9E
330
CD86
100
AcDbEntity
  8
AM_5
 62
     2
100
AcDbMText
 10
1604.207078824555
 20
1687.643540501705
 30
0.0
 40
3.5
 41
0.0
 71
     5
 72
     1
  1
\U+220520
 73
     1
 44
1.0
1001
ACAD
1000
MTEXTBEGIN
1070
    73
1070
     1
1070
    44
1040
1.0
1070
    74
1070
     0
1000
MTEXTEND
  0
LINE
  5
CD9F
330
CD86
100
AcDbEntity
  8
AM_5
100
AcDbLine
 10
1636.568448912781
 20
1709.835594843082
 30
0.0
 11
1621.821793785628
 21
1696.325000386849
 31
0.0
  0
INSERT
  5
CDA0
330
CD86
100
AcDbEntity
  8
AM_5
100
AcDbBlockReference
  2
_DotSmall
 10
1636.568448912781
 20
1709.835594843082
 30
0.0
 41
4.0
 42
4.0
 43
4.0
 50
222.4952997419376
  0
INSERT
  5
CDA1
330
CD86
100
AcDbEntity
  8
AM_5
100
AcDbBlockReference
  2
_DotSmall
 10
1621.821793785628
 20
1696.325000386849
 30
0.0
 41
4.0
 42
4.0
 43
4.0
 50
42.49529974193756
  0
POINT
  5
CDA2
330
CD86
100
AcDbEntity
  8
Defpoints
 62
     0
100
AcDbPoint
 10
1621.821793785628
 20
1696.325000386849
 30
0.0
  0
POINT
  5
CDA3
330
CD86
100
AcDbEntity
  8
Defpoints
 62
     0
100
AcDbPoint
 10
1636.568448912781
 20
1709.835594843082
 30
0.0
  0
ENDBLK
  5
CD90
330
CD86
100
AcDbEntity
  8
0
100
AcDbBlockEnd
  0
BLOCK
  5
CDD3
330
CDC9
100
AcDbEntity
  8
0
100
AcDbBlockBegin
  2
*D54
 70
     1
 10
0.0
 20
0.0
 30
0.0
  3
*D54
  1

  0
LINE
  5
CDD5
330
CDC9
100
AcDbEntity
  8
AM_5
100
AcDbLine
 10
1653.195121349204
 20
1542.39205763691
 30
0.0
 11
1653.195121349204
 21
1559.39205863691
 31
0.0
  0
LINE
  5
CDD6
330
CDC9
100
AcDbEntity
  8
AM_5
100
AcDbLine
 10
1682.195121349204
 20
1542.39205763691
 30
0.0
 11
1682.195121349204
 21
1559.39205863691
 31
0.0
  0
LINE
  5
CDD7
330
CDC9
100
AcDbEntity
  8
AM_5
100
AcDbLine
 10
1654.195121349204
 20
1558.39205863691
 30
0.0
 11
1681.195121349204
 21
1558.39205863691
 31
0.0
  0
INSERT
  5
CDD8
330
CDC9
100
AcDbEntity
  8
AM_5
100
AcDbBlockReference
  2
_Dot
 10
1653.195121349204
 20
1558.39205863691
 30
0.0
 50
180.0
  0
INSERT
  5
CDD9
330
CDC9
100
AcDbEntity
  8
AM_5
100
AcDbBlockReference
  2
_Dot
 10
1682.195121349204
 20
1558.39205863691
 30
0.0
  0
MTEXT
  5
CDDA
330
CDC9
100
AcDbEntity
  8
AM_5
 62
     2
100
AcDbMText
 10
1667.695121349204
 20
1561.49205863691
 30
0.0
 40
3.200000000000001
 41
0.0
 71
     5
 72
     1
  1
29
 73
     1
 44
1.0
1001
ACAD
1000
MTEXTBEGIN
1070
    73
1070
     1
1070
    44
1040
1.0
1070
    74
1070
     0
1000
MTEXTEND
  0
POINT
  5
CDDB
330
CDC9
100
AcDbEntity
  8
Defpoints
 62
     0
100
AcDbPoint
 10
1653.195121349204
 20
1541.392057636909
 30
0.0
  0
POINT
  5
CDDC
330
CDC9
100
AcDbEntity
  8
Defpoints
 62
     0
100
AcDbPoint
 10
1682.195121349204
 20
1541.392057636909
 30
0.0
  0
POINT
  5
CDDD
330
CDC9
100
AcDbEntity
  8
Defpoints
 62
     0
100
AcDbPoint
 10
1682.195121349204
 20
1558.39205863691
 30
0.0
  0
ENDBLK
  5
CDD4
330
CDC9
100
AcDbEntity
  8
0
100
AcDbBlockEnd
  0
ENDSEC
  0
SECTION
  2
ENTITIES
  0
TEXT
  5
B50F
330
1F
100
AcDbEntity
  8
AM_6
 60
     1
100
AcDbText
 10
2034.593689170057
 20
1366.484262209774
 30
0.0
 40
2.5
  1
!GENTITLE-INSERT
100
AcDbText
  0
TEXT
  5
B510
330
1F
100
AcDbEntity
  8
AM_6
 60
     1
100
AcDbText
 10
2046.093689170056
 20
1777.984262209774
 30
0.0
 40
2.5
  1
!GENTITLE-MAX
100
AcDbText
  0
TEXT
  5
B511
330
1F
100
AcDbEntity
  8
AM_6
 60
     1
100
AcDbText
 10
2046.093689170056
 20
1777.984262209774
 30
0.0
 40
2.5
  1
!GENTITLE-RU
100
AcDbText
  0
TEXT
  5
B512
330
1F
100
AcDbEntity
  8
AM_6
 60
     1
100
AcDbText
 10
1452.093689170056
 20
1357.984262209774
 30
0.0
 40
2.5
  1
!GENTITLE-LL
100
AcDbText
  0
LINE
  5
B513
330
1F
100
AcDbEntity
  8
size
100
AcDbLine
 10
1452.093689170056
 20
1777.984262209774
 30
0.0
 11
2046.093689170056
 21
1777.984262209774
 31
0.0
1001
GENIUS_GENREC_14
1002
{
1000
PYDIR
1011
1452.093689170056
1021
1654.984262209774
1031
0.0
1002
}
1002
{
1000
PXDIR
1011
1872.093689170056
1021
1357.984262209774
1031
0.0
1002
}
1002
{
1000
PORI
1011
1452.093689170056
1021
1357.984262209774
1031
0.0
1002
}
1002
{
1000
PINS
1011
1662.093689170056
1021
1506.484262209774
1031
0.0
1002
}
1002
{
1000
HVAL
1000
297
1002
}
1002
{
1000
H
1070
     2
1002
}
1002
{
1000
WVAL
1000
420
1002
}
1002
{
1000
W
1070
     2
1002
}
1002
{
1000
C
1070
     4
1002
}
1001
GENIUS_GENOBJ-N-REC_13
1002
{
1000
OWNER
1000
GEN
1002
}
1001
GENIUS_GENODEF_13
1002
{
1000
HIER
1070
     0
1002
}
1002
{
1000
MANEDIT
1070
     0
1002
}
1002
{
1000
NOSEL
1070
     0
1002
}
1002
{
1000
BEHIND
1070
     0
1002
}
1002
{
1000
OTHER
1070
     0
1002
}
1002
{
1000
REACTOR
1002
}
  0
LINE
  5
B514
330
1F
100
AcDbEntity
  8
size
100
AcDbLine
 10
2046.093689170056
 20
1777.984262209774
 30
0.0
 11
2046.093689170056
 21
1357.984262209774
 31
0.0
1001
GENIUS_GENREC_14
1002
{
1000
PYDIR
1011
1452.093689170056
1021
1654.984262209774
1031
0.0
1002
}
1002
{
1000
PXDIR
1011
1872.093689170056
1021
1357.984262209774
1031
0.0
1002
}
1002
{
1000
PORI
1011
1452.093689170056
1021
1357.984262209774
1031
0.0
1002
}
1002
{
1000
PINS
1011
1662.093689170056
1021
1506.484262209774
1031
0.0
1002
}
1002
{
1000
HVAL
1000
297
1002
}
1002
{
1000
H
1070
     2
1002
}
1002
{
1000
WVAL
1000
420
1002
}
1002
{
1000
W
1070
     2
1002
}
1002
{
1000
C
1070
     4
1002
}
1001
GENIUS_GENOBJ-N-REC_13
1002
{
1000
OWNER
1000
GEN
1002
}
1001
GENIUS_GENODEF_13
1002
{
1000
HIER
1070
     0
1002
}
1002
{
1000
MANEDIT
1070
     0
1002
}
1002
{
1000
NOSEL
1070
     0
1002
}
1002
{
1000
BEHIND
1070
     0
1002
}
1002
{
1000
OTHER
1070
     0
1002
}
1002
{
1000
REACTOR
1002
}
  0
LINE
  5
B515
330
1F
100
AcDbEntity
  8
waku
100
AcDbLine
 10
1463.593689170056
 20
1366.484262209774
 30
0.0
 11
2034.593689170057
 21
1366.484262209774
 31
0.0
1001
GENIUS_GENREC_14
1002
{
1000
PYDIR
1011
1452.093689170056
1021
1654.984262209774
1031
0.0
1002
}
1002
{
1000
PXDIR
1011
1872.093689170056
1021
1357.984262209774
1031
0.0
1002
}
1002
{
1000
PORI
1011
1452.093689170056
1021
1357.984262209774
1031
0.0
1002
}
1002
{
1000
PINS
1011
1662.093689170056
1021
1506.484262209774
1031
0.0
1002
}
1002
{
1000
HVAL
1000
297
1002
}
1002
{
1000
H
1070
     2
1002
}
1002
{
1000
WVAL
1000
420
1002
}
1002
{
1000
W
1070
     2
1002
}
1002
{
1000
C
1070
     4
1002
}
  0
LINE
  5
B516
330
1F
100
AcDbEntity
  8
waku
100
AcDbLine
 10
2034.593689170057
 20
1769.484262209774
 30
0.0
 11
1463.593689170056
 21
1769.484262209774
 31
0.0
1001
GENIUS_GENREC_14
1002
{
1000
PYDIR
1011
1626.093689170056
1021
1777.984262209774
1031
0.0
1002
}
1002
{
1000
PXDIR
1011
2046.093689170056
1021
1480.984262209774
1031
0.0
1002
}
1002
{
1000
PORI
1011
1626.093689170056
1021
1480.984262209774
1031
0.0
1002
}
1002
{
1000
PINS
1011
1836.093689170056
1021
1629.484262209774
1031
0.0
1002
}
1002
{
1000
HVAL
1000
297
1002
}
1002
{
1000
H
1070
     2
1002
}
1002
{
1000
WVAL
1000
420
1002
}
1002
{
1000
W
1070
     2
1002
}
1002
{
1000
C
1070
     4
1002
}
1001
GENIUS_GENOBJ-N-REC_13
1002
{
1000
OWNER
1000
GEN
1002
}
1001
GENIUS_GENODEF_13
1002
{
1000
HIER
1070
     0
1002
}
1002
{
1000
MANEDIT
1070
     0
1002
}
1002
{
1000
NOSEL
1070
     0
1002
}
1002
{
1000
BEHIND
1070
     0
1002
}
1002
{
1000
OTHER
1070
     0
1002
}
1002
{
1000
REACTOR
1002
}
  0
LINE
  5
B517
330
1F
100
AcDbEntity
  8
waku
100
AcDbLine
 10
1463.593689170056
 20
1769.484262209774
 30
0.0
 11
1463.593689170056
 21
1366.484262209774
 31
0.0
1001
GENIUS_GENREC_14
1002
{
1000
PYDIR
1011
1452.093689170056
1021
1654.984262209774
1031
0.0
1002
}
1002
{
1000
PXDIR
1011
1872.093689170056
1021
1357.984262209774
1031
0.0
1002
}
1002
{
1000
PORI
1011
1452.093689170056
1021
1357.984262209774
1031
0.0
1002
}
1002
{
1000
PINS
1011
1662.093689170056
1021
1506.484262209774
1031
0.0
1002
}
1002
{
1000
HVAL
1000
297
1002
}
1002
{
1000
H
1070
     2
1002
}
1002
{
1000
WVAL
1000
420
1002
}
1002
{
1000
W
1070
     2
1002
}
1002
{
1000
C
1070
     4
1002
}
1001
GENIUS_GENOBJ-N-REC_13
1002
{
1000
OWNER
1000
GEN
1002
}
1001
GENIUS_GENODEF_13
1002
{
1000
HIER
1070
     0
1002
}
1002
{
1000
MANEDIT
1070
     0
1002
}
1002
{
1000
NOSEL
1070
     0
1002
}
1002
{
1000
BEHIND
1070
     0
1002
}
1002
{
1000
OTHER
1070
     0
1002
}
1002
{
1000
REACTOR
1002
}
  0
LINE
  5
B518
330
1F
100
AcDbEntity
  8
waku
100
AcDbLine
 10
2034.593689170057
 20
1366.484262209774
 30
0.0
 11
2034.593689170057
 21
1769.484262209774
 31
0.0
1001
GENIUS_GENREC_14
1002
{
1000
PYDIR
1011
1626.093689170056
1021
1777.984262209774
1031
0.0
1002
}
1002
{
1000
PXDIR
1011
2046.093689170056
1021
1480.984262209774
1031
0.0
1002
}
1002
{
1000
PORI
1011
1626.093689170056
1021
1480.984262209774
1031
0.0
1002
}
1002
{
1000
PINS
1011
1836.093689170056
1021
1629.484262209774
1031
0.0
1002
}
1002
{
1000
HVAL
1000
297
1002
}
1002
{
1000
H
1070
     2
1002
}
1002
{
1000
WVAL
1000
420
1002
}
1002
{
1000
W
1070
     2
1002
}
1002
{
1000
C
1070
     4
1002
}
1001
GENIUS_GENOBJ-N-REC_13
1002
{
1000
OWNER
1000
GEN
1002
}
1001
GENIUS_GENODEF_13
1002
{
1000
HIER
1070
     0
1002
}
1002
{
1000
MANEDIT
1070
     0
1002
}
1002
{
1000
NOSEL
1070
     0
1002
}
1002
{
1000
BEHIND
1070
     0
1002
}
1002
{
1000
OTHER
1070
     0
1002
}
1002
{
1000
REACTOR
1002
}
  0
LINE
  5
B519
330
1F
100
AcDbEntity
  8
size
100
AcDbLine
 10
1452.093689170056
 20
1777.984262209774
 30
0.0
 11
1452.093689170056
 21
1357.984262209774
 31
0.0
1001
GENIUS_GENREC_14
1002
{
1000
PYDIR
1011
1452.093689170056
1021
1654.984262209774
1031
0.0
1002
}
1002
{
1000
PXDIR
1011
1872.093689170056
1021
1357.984262209774
1031
0.0
1002
}
1002
{
1000
PORI
1011
1452.093689170056
1021
1357.984262209774
1031
0.0
1002
}
1002
{
1000
PINS
1011
1662.093689170056
1021
1506.484262209774
1031
0.0
1002
}
1002
{
1000
HVAL
1000
297
1002
}
1002
{
1000
H
1070
     2
1002
}
1002
{
1000
WVAL
1000
420
1002
}
1002
{
1000
W
1070
     2
1002
}
1002
{
1000
C
1070
     4
1002
}
1001
GENIUS_GENOBJ-N-REC_13
1002
{
1000
OWNER
1000
GEN
1002
}
1001
GENIUS_GENODEF_13
1002
{
1000
HIER
1070
     0
1002
}
1002
{
1000
MANEDIT
1070
     0
1002
}
1002
{
1000
NOSEL
1070
     0
1002
}
1002
{
1000
BEHIND
1070
     0
1002
}
1002
{
1000
OTHER
1070
     0
1002
}
1002
{
1000
REACTOR
1002
}
  0
LINE
  5
B51A
330
1F
100
AcDbEntity
  8
size
100
AcDbLine
 10
1452.093689170056
 20
1357.984262209774
 30
0.0
 11
2046.093689170056
 21
1357.984262209774
 31
0.0
1001
GENIUS_GENREC_14
1002
{
1000
PYDIR
1011
1452.093689170056
1021
1654.984262209774
1031
0.0
1002
}
1002
{
1000
PXDIR
1011
1872.093689170056
1021
1357.984262209774
1031
0.0
1002
}
1002
{
1000
PORI
1011
1452.093689170056
1021
1357.984262209774
1031
0.0
1002
}
1002
{
1000
PINS
1011
1662.093689170056
1021
1506.484262209774
1031
0.0
1002
}
1002
{
1000
HVAL
1000
297
1002
}
1002
{
1000
H
1070
     2
1002
}
1002
{
1000
WVAL
1000
420
1002
}
1002
{
1000
W
1070
     2
1002
}
1002
{
1000
C
1070
     4
1002
}
1001
GENIUS_GENOBJ-N-REC_13
1002
{
1000
OWNER
1000
GEN
1002
}
1001
GENIUS_GENODEF_13
1002
{
1000
HIER
1070
     0
1002
}
1002
{
1000
MANEDIT
1070
     0
1002
}
1002
{
1000
NOSEL
1070
     0
1002
}
1002
{
1000
BEHIND
1070
     0
1002
}
1002
{
1000
OTHER
1070
     0
1002
}
1002
{
1000
REACTOR
1002
}
  0
LINE
  5
B990
330
1F
100
AcDbEntity
  8
AM_0
100
AcDbLine
 10
1863.805860416914
 20
1615.392057636909
 30
0.0
 11
1863.805860416914
 21
1617.892057636909
 31
0.0
  0
LINE
  5
B991
330
1F
100
AcDbEntity
  8
AM_0
100
AcDbLine
 10
1845.805860416914
 20
1615.392057636909
 30
0.0
 11
1845.805860416914
 21
1617.892057636909
 31
0.0
  0
LINE
  5
B992
330
1F
100
AcDbEntity
  8
AM_0
100
AcDbLine
 10
1845.805860416914
 20
1617.892057636909
 30
0.0
 11
1846.305860416913
 21
1618.392057636909
 31
0.0
  0
LINE
  5
B993
330
1F
100
AcDbEntity
  8
AM_0
100
AcDbLine
 10
1863.805860416914
 20
1617.892057636909
 30
0.0
 11
1863.305860416914
 21
1618.392057636909
 31
0.0
  0
LINE
  5
B994
330
1F
100
AcDbEntity
  8
AM_0
100
AcDbLine
 10
1863.305860416914
 20
1618.392057636909
 30
0.0
 11
1846.305860416913
 21
1618.392057636909
 31
0.0
  0
ARC
  5
B995
330
1F
100
AcDbEntity
  8
AM_0
100
AcDbCircle
 10
1806.805860416914
 20
1610.392057636909
 30
0.0
 40
5.0
100
AcDbArc
 50
90.0
 51
180.0
  0
LINE
  5
B996
330
1F
100
AcDbEntity
  8
AM_0
100
AcDbLine
 10
1806.805860416914
 20
1615.392057636909
 30
0.0
 11
1864.805860416914
 21
1615.392057636909
 31
0.0
  0
LINE
  5
B997
330
1F
100
AcDbEntity
  8
AM_0
100
AcDbLine
 10
1845.805860416914
 20
1617.892057636909
 30
0.0
 11
1863.805860416914
 21
1617.892057636909
 31
0.0
  0
LINE
  5
B998
330
1F
100
AcDbEntity
  8
AM_0
100
AcDbLine
 10
1801.805860416914
 20
1515.392057636909
 30
0.0
 11
1801.805860416914
 21
1610.392057636909
 31
0.0
  0
LINE
  5
B999
330
1F
100
AcDbEntity
  8
AM_0
100
AcDbLine
 10
1863.805860416914
 20
1442.39205763691
 30
0.0
 11
1863.805860416914
 21
1439.89205763691
 31
0.0
  0
LINE
  5
B99A
330
1F
100
AcDbEntity
  8
AM_0
100
AcDbLine
 10
1863.805860416914
 20
1439.89205763691
 30
0.0
 11
1863.305860416914
 21
1439.39205763691
 31
0.0
  0
LINE
  5
B99B
330
1F
100
AcDbEntity
  8
AM_0
100
AcDbLine
 10
1863.305860416914
 20
1439.39205763691
 30
0.0
 11
1846.305860416913
 21
1439.39205763691
 31
0.0
  0
LINE
  5
B99C
330
1F
100
AcDbEntity
  8
AM_0
100
AcDbLine
 10
1845.805860416914
 20
1442.39205763691
 30
0.0
 11
1845.805860416914
 21
1439.89205763691
 31
0.0
  0
LINE
  5
B99D
330
1F
100
AcDbEntity
  8
AM_0
100
AcDbLine
 10
1845.805860416914
 20
1439.89205763691
 30
0.0
 11
1846.305860416913
 21
1439.39205763691
 31
0.0
  0
ARC
  5
B99E
330
1F
100
AcDbEntity
  8
AM_0
100
AcDbCircle
 10
1902.805860416914
 20
1447.39205763691
 30
0.0
 40
5.0
100
AcDbArc
 50
270.0
 51
0.0
  0
LINE
  5
B9A0
330
1F
100
AcDbEntity
  8
AM_0
100
AcDbLine
 10
1902.805860416914
 20
1442.39205763691
 30
0.0
 11
1844.805860416914
 21
1442.39205763691
 31
0.0
  0
LINE
  5
B9A1
330
1F
100
AcDbEntity
  8
AM_0
100
AcDbLine
 10
1863.805860416914
 20
1439.89205763691
 30
0.0
 11
1845.805860416914
 21
1439.89205763691
 31
0.0
  0
ARC
  5
B9A4
330
1F
100
AcDbEntity
  8
AM_0
100
AcDbCircle
 10
1902.805860416914
 20
1496.392057636909
 30
0.0
 40
5.0
100
AcDbArc
 50
0.0
 51
90.0
  0
LINE
  5
B9A5
330
1F
100
AcDbEntity
  8
AM_0
100
AcDbLine
 10
1907.805860416914
 20
1496.392057636909
 30
0.0
 11
1907.805860416914
 21
1447.39205763691
 31
0.0
  0
ARC
  5
B9A6
330
1F
100
AcDbEntity
  8
AM_0
100
AcDbCircle
 10
1806.805860416914
 20
1515.392057636909
 30
0.0
 40
5.0
100
AcDbArc
 50
180.0
 51
270.0
  0
LINE
  5
BA2D
330
1F
100
AcDbEntity
  8
AM_0
100
AcDbLine
 10
1843.805860416914
 20
1501.392057636909
 30
0.0
 11
1865.805860416914
 21
1501.392057636909
 31
0.0
  0
LINE
  5
BA2E
330
1F
100
AcDbEntity
  8
AM_0
100
AcDbLine
 10
1864.805860416914
 20
1501.392057636909
 30
0.0
 11
1864.805860416914
 21
1442.39205763691
 31
0.0
  0
LINE
  5
BA2F
330
1F
100
AcDbEntity
  8
AM_0
100
AcDbLine
 10
1844.805860416914
 20
1501.392057636909
 30
0.0
 11
1844.805860416914
 21
1442.39205763691
 31
0.0
  0
LINE
  5
BA30
330
1F
100
AcDbEntity
  8
AM_0
100
AcDbLine
 10
1865.805860416914
 20
1501.392057636909
 30
0.0
 11
1902.805860416914
 21
1501.392057636909
 31
0.0
  0
CIRCLE
  5
BA31
330
1F
100
AcDbEntity
  8
AM_0
100
AcDbCircle
 10
1893.305860416914
 20
1473.89205763691
 30
0.0
 40
4.25
  0
CIRCLE
  5
BA32
330
1F
100
AcDbEntity
  8
AM_0
100
AcDbCircle
 10
1893.305860416914
 20
1473.89205763691
 30
0.0
 40
2.75
  0
CIRCLE
  5
BA33
330
1F
100
AcDbEntity
  8
AM_0
100
AcDbCircle
 10
1901.305860416914
 20
1455.39205763691
 30
0.0
 40
4.25
  0
CIRCLE
  5
BA34
330
1F
100
AcDbEntity
  8
AM_0
100
AcDbCircle
 10
1901.305860416914
 20
1455.39205763691
 30
0.0
 40
2.75
  0
CIRCLE
  5
BA35
330
1F
100
AcDbEntity
  8
AM_0
100
AcDbCircle
 10
1885.305860416914
 20
1455.39205763691
 30
0.0
 40
4.25
  0
CIRCLE
  5
BA36
330
1F
100
AcDbEntity
  8
AM_0
100
AcDbCircle
 10
1885.305860416914
 20
1455.39205763691
 30
0.0
 40
2.75
  0
CIRCLE
  5
BA3C
330
1F
100
AcDbEntity
  8
AM_0
100
AcDbCircle
 10
1885.305860416914
 20
1492.39205763691
 30
0.0
 40
2.75
  0
CIRCLE
  5
BA3D
330
1F
100
AcDbEntity
  8
AM_0
100
AcDbCircle
 10
1885.305860416914
 20
1492.39205763691
 30
0.0
 40
4.25
  0
CIRCLE
  5
BA3E
330
1F
100
AcDbEntity
  8
AM_0
100
AcDbCircle
 10
1901.305860416914
 20
1492.39205763691
 30
0.0
 40
4.25
  0
CIRCLE
  5
BA3F
330
1F
100
AcDbEntity
  8
AM_0
100
AcDbCircle
 10
1901.305860416914
 20
1492.39205763691
 30
0.0
 40
2.75
  0
CIRCLE
  5
BA44
330
1F
100
AcDbEntity
  8
AM_0
100
AcDbCircle
 10
1808.305860416914
 20
1556.392057636909
 30
0.0
 40
2.75
  0
CIRCLE
  5
BA45
330
1F
100
AcDbEntity
  8
AM_0
100
AcDbCircle
 10
1808.305860416914
 20
1556.392057636909
 30
0.0
 40
4.25
  0
CIRCLE
  5
BA46
330
1F
100
AcDbEntity
  8
AM_0
100
AcDbCircle
 10
1824.305860416914
 20
1556.392057636909
 30
0.0
 40
4.25
  0
CIRCLE
  5
BA47
330
1F
100
AcDbEntity
  8
AM_0
100
AcDbCircle
 10
1824.305860416914
 20
1556.392057636909
 30
0.0
 40
2.75
  0
CIRCLE
  5
BA48
330
1F
100
AcDbEntity
  8
AM_0
100
AcDbCircle
 10
1816.305860416914
 20
1537.892057636909
 30
0.0
 40
4.25
  0
CIRCLE
  5
BA49
330
1F
100
AcDbEntity
  8
AM_0
100
AcDbCircle
 10
1816.305860416914
 20
1537.892057636909
 30
0.0
 40
2.75
  0
CIRCLE
  5
BA4A
330
1F
100
AcDbEntity
  8
AM_0
100
AcDbCircle
 10
1808.305860416914
 20
1519.39205763691
 30
0.0
 40
4.25
  0
CIRCLE
  5
BA4B
330
1F
100
AcDbEntity
  8
AM_0
100
AcDbCircle
 10
1808.305860416914
 20
1519.39205763691
 30
0.0
 40
2.75
  0
CIRCLE
  5
BA4C
330
1F
100
AcDbEntity
  8
AM_0
100
AcDbCircle
 10
1824.305860416914
 20
1519.39205763691
 30
0.0
 40
4.25
  0
CIRCLE
  5
BA4D
330
1F
100
AcDbEntity
  8
AM_0
100
AcDbCircle
 10
1824.305860416914
 20
1519.39205763691
 30
0.0
 40
2.75
  0
LINE
  5
BA83
330
1F
100
AcDbEntity
  8
AM_0
100
AcDbLine
 10
1843.805860416914
 20
1514.392057636909
 30
0.0
 11
1843.805860416914
 21
1501.392057636909
 31
0.0
  0
LINE
  5
BA84
330
1F
100
AcDbEntity
  8
AM_0
100
AcDbLine
 10
1865.805860416914
 20
1514.392057636909
 30
0.0
 11
1865.805860416914
 21
1501.392057636909
 31
0.0
  0
LINE
  5
BA85
330
1F
100
AcDbEntity
  8
AM_0
100
AcDbLine
 10
1843.805860416914
 20
1514.392057636909
 30
0.0
 11
1865.805860416914
 21
1514.392057636909
 31
0.0
  0
LINE
  5
BA86
330
1F
100
AcDbEntity
  8
AM_0
100
AcDbLine
 10
1864.805860416914
 20
1514.392057636909
 30
0.0
 11
1864.805860416914
 21
1615.392057636909
 31
0.0
  0
LINE
  5
BA87
330
1F
100
AcDbEntity
  8
AM_0
100
AcDbLine
 10
1843.805860416914
 20
1510.39205763691
 30
0.0
 11
1806.805860416914
 21
1510.39205763691
 31
0.0
  0
LINE
  5
BA88
330
1F
100
AcDbEntity
  8
AM_0
100
AcDbLine
 10
1844.805860416914
 20
1514.392057636909
 30
0.0
 11
1844.805860416914
 21
1615.392057636909
 31
0.0
  0
LINE
  5
BB91
330
1F
100
AcDbEntity
  8
AM_7
100
AcDbLine
 10
1854.805860416914
 20
1436.39205763691
 30
0.0
 11
1854.805860416914
 21
1621.39205763691
 31
0.0
1001
GENIUS_GENODEF_13
1002
{
1000
HIER
1070
     0
1002
}
1002
{
1000
MANEDIT
1070
     0
1002
}
1002
{
1000
NOSEL
1070
     0
1002
}
1002
{
1000
BEHIND
1070
     0
1002
}
1002
{
1000
OTHER
1070
     0
1002
}
1002
{
1000
REACTOR
1002
}
1001
GENIUS_GENOBJ-N-CEN_13
1002
{
1000
OWNER
1000
GEN
1002
}
1001
GENIUS_GENCEN_19
1002
{
1040
3.0
1002
}
  0
LINE
  5
BB92
330
1F
100
AcDbEntity
  8
AM_7
 48
0.5
100
AcDbLine
 10
1801.055860416914
 20
1556.392057636909
 30
0.0
 11
1815.555860416914
 21
1556.392057636909
 31
0.0
1001
GENIUS_GENODEF_13
1002
{
1000
HIER
1070
     0
1002
}
1002
{
1000
MANEDIT
1070
     0
1002
}
1002
{
1000
NOSEL
1070
     0
1002
}
1002
{
1000
BEHIND
1070
     0
1002
}
1002
{
1000
OTHER
1070
     0
1002
}
1002
{
1000
REACTOR
1002
}
1001
GENIUS_GENOBJ-N-CEN_13
1002
{
1000
OWNER
1000
GEN
1002
}
1001
GENIUS_GENCEN_19
1002
{
1040
3.0
1002
}
  0
LINE
  5
BB93
330
1F
100
AcDbEntity
  8
AM_7
 48
0.5
100
AcDbLine
 10
1808.305860416914
 20
1549.142057636909
 30
0.0
 11
1808.305860416914
 21
1563.642057636909
 31
0.0
1001
GENIUS_GENODEF_13
1002
{
1000
HIER
1070
     0
1002
}
1002
{
1000
MANEDIT
1070
     0
1002
}
1002
{
1000
NOSEL
1070
     0
1002
}
1002
{
1000
BEHIND
1070
     0
1002
}
1002
{
1000
OTHER
1070
     0
1002
}
1002
{
1000
REACTOR
1002
}
1001
GENIUS_GENOBJ-N-CEN_13
1002
{
1000
OWNER
1000
GEN
1002
}
1001
GENIUS_GENCEN_19
1002
{
1040
3.0
1002
}
  0
LINE
  5
BB94
330
1F
100
AcDbEntity
  8
AM_7
 48
0.5
100
AcDbLine
 10
1817.055860416914
 20
1556.392057636909
 30
0.0
 11
1831.555860416914
 21
1556.392057636909
 31
0.0
1001
GENIUS_GENODEF_13
1002
{
1000
HIER
1070
     0
1002
}
1002
{
1000
MANEDIT
1070
     0
1002
}
1002
{
1000
NOSEL
1070
     0
1002
}
1002
{
1000
BEHIND
1070
     0
1002
}
1002
{
1000
OTHER
1070
     0
1002
}
1002
{
1000
REACTOR
1002
}
1001
GENIUS_GENOBJ-N-CEN_13
1002
{
1000
OWNER
1000
GEN
1002
}
1001
GENIUS_GENCEN_19
1002
{
1040
3.0
1002
}
  0
LINE
  5
BB95
330
1F
100
AcDbEntity
  8
AM_7
 48
0.5
100
AcDbLine
 10
1824.305860416914
 20
1549.142057636909
 30
0.0
 11
1824.305860416914
 21
1563.642057636909
 31
0.0
1001
GENIUS_GENODEF_13
1002
{
1000
HIER
1070
     0
1002
}
1002
{
1000
MANEDIT
1070
     0
1002
}
1002
{
1000
NOSEL
1070
     0
1002
}
1002
{
1000
BEHIND
1070
     0
1002
}
1002
{
1000
OTHER
1070
     0
1002
}
1002
{
1000
REACTOR
1002
}
1001
GENIUS_GENOBJ-N-CEN_13
1002
{
1000
OWNER
1000
GEN
1002
}
1001
GENIUS_GENCEN_19
1002
{
1040
3.0
1002
}
  0
LINE
  5
BB96
330
1F
100
AcDbEntity
  8
AM_7
 48
0.5
100
AcDbLine
 10
1809.055860416914
 20
1537.892057636909
 30
0.0
 11
1823.555860416914
 21
1537.892057636909
 31
0.0
1001
GENIUS_GENODEF_13
1002
{
1000
HIER
1070
     0
1002
}
1002
{
1000
MANEDIT
1070
     0
1002
}
1002
{
1000
NOSEL
1070
     0
1002
}
1002
{
1000
BEHIND
1070
     0
1002
}
1002
{
1000
OTHER
1070
     0
1002
}
1002
{
1000
REACTOR
1002
}
1001
GENIUS_GENOBJ-N-CEN_13
1002
{
1000
OWNER
1000
GEN
1002
}
1001
GENIUS_GENCEN_19
1002
{
1040
3.0
1002
}
  0
LINE
  5
BB97
330
1F
100
AcDbEntity
  8
AM_7
 48
0.5
100
AcDbLine
 10
1816.305860416914
 20
1530.642057636909
 30
0.0
 11
1816.305860416914
 21
1545.142057636909
 31
0.0
1001
GENIUS_GENODEF_13
1002
{
1000
HIER
1070
     0
1002
}
1002
{
1000
MANEDIT
1070
     0
1002
}
1002
{
1000
NOSEL
1070
     0
1002
}
1002
{
1000
BEHIND
1070
     0
1002
}
1002
{
1000
OTHER
1070
     0
1002
}
1002
{
1000
REACTOR
1002
}
1001
GENIUS_GENOBJ-N-CEN_13
1002
{
1000
OWNER
1000
GEN
1002
}
1001
GENIUS_GENCEN_19
1002
{
1040
3.0
1002
}
  0
LINE
  5
BB98
330
1F
100
AcDbEntity
  8
AM_7
 48
0.5
100
AcDbLine
 10
1801.055860416914
 20
1519.39205763691
 30
0.0
 11
1815.555860416914
 21
1519.39205763691
 31
0.0
1001
GENIUS_GENODEF_13
1002
{
1000
HIER
1070
     0
1002
}
1002
{
1000
MANEDIT
1070
     0
1002
}
1002
{
1000
NOSEL
1070
     0
1002
}
1002
{
1000
BEHIND
1070
     0
1002
}
1002
{
1000
OTHER
1070
     0
1002
}
1002
{
1000
REACTOR
1002
}
1001
GENIUS_GENOBJ-N-CEN_13
1002
{
1000
OWNER
1000
GEN
1002
}
1001
GENIUS_GENCEN_19
1002
{
1040
3.0
1002
}
  0
LINE
  5
BB99
330
1F
100
AcDbEntity
  8
AM_7
 48
0.5
100
AcDbLine
 10
1808.305860416914
 20
1512.14205763691
 30
0.0
 11
1808.305860416914
 21
1526.64205763691
 31
0.0
1001
GENIUS_GENODEF_13
1002
{
1000
HIER
1070
     0
1002
}
1002
{
1000
MANEDIT
1070
     0
1002
}
1002
{
1000
NOSEL
1070
     0
1002
}
1002
{
1000
BEHIND
1070
     0
1002
}
1002
{
1000
OTHER
1070
     0
1002
}
1002
{
1000
REACTOR
1002
}
1001
GENIUS_GENOBJ-N-CEN_13
1002
{
1000
OWNER
1000
GEN
1002
}
1001
GENIUS_GENCEN_19
1002
{
1040
3.0
1002
}
  0
LINE
  5
BB9A
330
1F
100
AcDbEntity
  8
AM_7
 48
0.5
100
AcDbLine
 10
1817.055860416914
 20
1519.39205763691
 30
0.0
 11
1831.555860416914
 21
1519.39205763691
 31
0.0
1001
GENIUS_GENODEF_13
1002
{
1000
HIER
1070
     0
1002
}
1002
{
1000
MANEDIT
1070
     0
1002
}
1002
{
1000
NOSEL
1070
     0
1002
}
1002
{
1000
BEHIND
1070
     0
1002
}
1002
{
1000
OTHER
1070
     0
1002
}
1002
{
1000
REACTOR
1002
}
1001
GENIUS_GENOBJ-N-CEN_13
1002
{
1000
OWNER
1000
GEN
1002
}
1001
GENIUS_GENCEN_19
1002
{
1040
3.0
1002
}
  0
LINE
  5
BB9B
330
1F
100
AcDbEntity
  8
AM_7
 48
0.5
100
AcDbLine
 10
1824.305860416914
 20
1512.14205763691
 30
0.0
 11
1824.305860416914
 21
1526.64205763691
 31
0.0
1001
GENIUS_GENODEF_13
1002
{
1000
HIER
1070
     0
1002
}
1002
{
1000
MANEDIT
1070
     0
1002
}
1002
{
1000
NOSEL
1070
     0
1002
}
1002
{
1000
BEHIND
1070
     0
1002
}
1002
{
1000
OTHER
1070
     0
1002
}
1002
{
1000
REACTOR
1002
}
1001
GENIUS_GENOBJ-N-CEN_13
1002
{
1000
OWNER
1000
GEN
1002
}
1001
GENIUS_GENCEN_19
1002
{
1040
3.0
1002
}
  0
LINE
  5
BB9C
330
1F
100
AcDbEntity
  8
AM_7
 48
0.5
100
AcDbLine
 10
1878.055860416914
 20
1492.39205763691
 30
0.0
 11
1892.555860416914
 21
1492.39205763691
 31
0.0
1001
GENIUS_GENODEF_13
1002
{
1000
HIER
1070
     0
1002
}
1002
{
1000
MANEDIT
1070
     0
1002
}
1002
{
1000
NOSEL
1070
     0
1002
}
1002
{
1000
BEHIND
1070
     0
1002
}
1002
{
1000
OTHER
1070
     0
1002
}
1002
{
1000
REACTOR
1002
}
1001
GENIUS_GENOBJ-N-CEN_13
1002
{
1000
OWNER
1000
GEN
1002
}
1001
GENIUS_GENCEN_19
1002
{
1040
3.0
1002
}
  0
LINE
  5
BB9D
330
1F
100
AcDbEntity
  8
AM_7
 48
0.5
100
AcDbLine
 10
1885.305860416914
 20
1485.142057636909
 30
0.0
 11
1885.305860416914
 21
1499.64205763691
 31
0.0
1001
GENIUS_GENODEF_13
1002
{
1000
HIER
1070
     0
1002
}
1002
{
1000
MANEDIT
1070
     0
1002
}
1002
{
1000
NOSEL
1070
     0
1002
}
1002
{
1000
BEHIND
1070
     0
1002
}
1002
{
1000
OTHER
1070
     0
1002
}
1002
{
1000
REACTOR
1002
}
1001
GENIUS_GENOBJ-N-CEN_13
1002
{
1000
OWNER
1000
GEN
1002
}
1001
GENIUS_GENCEN_19
1002
{
1040
3.0
1002
}
  0
LINE
  5
BB9E
330
1F
100
AcDbEntity
  8
AM_7
 48
0.5
100
AcDbLine
 10
1894.055860416914
 20
1492.39205763691
 30
0.0
 11
1908.555860416914
 21
1492.39205763691
 31
0.0
1001
GENIUS_GENODEF_13
1002
{
1000
HIER
1070
     0
1002
}
1002
{
1000
MANEDIT
1070
     0
1002
}
1002
{
1000
NOSEL
1070
     0
1002
}
1002
{
1000
BEHIND
1070
     0
1002
}
1002
{
1000
OTHER
1070
     0
1002
}
1002
{
1000
REACTOR
1002
}
1001
GENIUS_GENOBJ-N-CEN_13
1002
{
1000
OWNER
1000
GEN
1002
}
1001
GENIUS_GENCEN_19
1002
{
1040
3.0
1002
}
  0
LINE
  5
BB9F
330
1F
100
AcDbEntity
  8
AM_7
 48
0.5
100
AcDbLine
 10
1901.305860416914
 20
1485.142057636909
 30
0.0
 11
1901.305860416914
 21
1499.64205763691
 31
0.0
1001
GENIUS_GENODEF_13
1002
{
1000
HIER
1070
     0
1002
}
1002
{
1000
MANEDIT
1070
     0
1002
}
1002
{
1000
NOSEL
1070
     0
1002
}
1002
{
1000
BEHIND
1070
     0
1002
}
1002
{
1000
OTHER
1070
     0
1002
}
1002
{
1000
REACTOR
1002
}
1001
GENIUS_GENOBJ-N-CEN_13
1002
{
1000
OWNER
1000
GEN
1002
}
1001
GENIUS_GENCEN_19
1002
{
1040
3.0
1002
}
  0
LINE
  5
BBA0
330
1F
100
AcDbEntity
  8
AM_7
 48
0.5
100
AcDbLine
 10
1886.055860416914
 20
1473.89205763691
 30
0.0
 11
1900.555860416914
 21
1473.89205763691
 31
0.0
1001
GENIUS_GENODEF_13
1002
{
1000
HIER
1070
     0
1002
}
1002
{
1000
MANEDIT
1070
     0
1002
}
1002
{
1000
NOSEL
1070
     0
1002
}
1002
{
1000
BEHIND
1070
     0
1002
}
1002
{
1000
OTHER
1070
     0
1002
}
1002
{
1000
REACTOR
1002
}
1001
GENIUS_GENOBJ-N-CEN_13
1002
{
1000
OWNER
1000
GEN
1002
}
1001
GENIUS_GENCEN_19
1002
{
1040
3.0
1002
}
  0
LINE
  5
BBA1
330
1F
100
AcDbEntity
  8
AM_7
 48
0.5
100
AcDbLine
 10
1893.305860416914
 20
1466.64205763691
 30
0.0
 11
1893.305860416914
 21
1481.14205763691
 31
0.0
1001
GENIUS_GENODEF_13
1002
{
1000
HIER
1070
     0
1002
}
1002
{
1000
MANEDIT
1070
     0
1002
}
1002
{
1000
NOSEL
1070
     0
1002
}
1002
{
1000
BEHIND
1070
     0
1002
}
1002
{
1000
OTHER
1070
     0
1002
}
1002
{
1000
REACTOR
1002
}
1001
GENIUS_GENOBJ-N-CEN_13
1002
{
1000
OWNER
1000
GEN
1002
}
1001
GENIUS_GENCEN_19
1002
{
1040
3.0
1002
}
  0
LINE
  5
BBA2
330
1F
100
AcDbEntity
  8
AM_7
 48
0.5
100
AcDbLine
 10
1878.055860416914
 20
1455.39205763691
 30
0.0
 11
1892.555860416914
 21
1455.39205763691
 31
0.0
1001
GENIUS_GENODEF_13
1002
{
1000
HIER
1070
     0
1002
}
1002
{
1000
MANEDIT
1070
     0
1002
}
1002
{
1000
NOSEL
1070
     0
1002
}
1002
{
1000
BEHIND
1070
     0
1002
}
1002
{
1000
OTHER
1070
     0
1002
}
1002
{
1000
REACTOR
1002
}
1001
GENIUS_GENOBJ-N-CEN_13
1002
{
1000
OWNER
1000
GEN
1002
}
1001
GENIUS_GENCEN_19
1002
{
1040
3.0
1002
}
  0
LINE
  5
BBA3
330
1F
100
AcDbEntity
  8
AM_7
 48
0.5
100
AcDbLine
 10
1885.305860416914
 20
1448.14205763691
 30
0.0
 11
1885.305860416914
 21
1462.64205763691
 31
0.0
1001
GENIUS_GENODEF_13
1002
{
1000
HIER
1070
     0
1002
}
1002
{
1000
MANEDIT
1070
     0
1002
}
1002
{
1000
NOSEL
1070
     0
1002
}
1002
{
1000
BEHIND
1070
     0
1002
}
1002
{
1000
OTHER
1070
     0
1002
}
1002
{
1000
REACTOR
1002
}
1001
GENIUS_GENOBJ-N-CEN_13
1002
{
1000
OWNER
1000
GEN
1002
}
1001
GENIUS_GENCEN_19
1002
{
1040
3.0
1002
}
  0
LINE
  5
BBA4
330
1F
100
AcDbEntity
  8
AM_7
 48
0.5
100
AcDbLine
 10
1894.055860416914
 20
1455.39205763691
 30
0.0
 11
1908.555860416914
 21
1455.39205763691
 31
0.0
1001
GENIUS_GENODEF_13
1002
{
1000
HIER
1070
     0
1002
}
1002
{
1000
MANEDIT
1070
     0
1002
}
1002
{
1000
NOSEL
1070
     0
1002
}
1002
{
1000
BEHIND
1070
     0
1002
}
1002
{
1000
OTHER
1070
     0
1002
}
1002
{
1000
REACTOR
1002
}
1001
GENIUS_GENOBJ-N-CEN_13
1002
{
1000
OWNER
1000
GEN
1002
}
1001
GENIUS_GENCEN_19
1002
{
1040
3.0
1002
}
  0
LINE
  5
BBA5
330
1F
100
AcDbEntity
  8
AM_7
 48
0.5
100
AcDbLine
 10
1901.305860416914
 20
1448.14205763691
 30
0.0
 11
1901.305860416914
 21
1462.64205763691
 31
0.0
1001
GENIUS_GENODEF_13
1002
{
1000
HIER
1070
     0
1002
}
1002
{
1000
MANEDIT
1070
     0
1002
}
1002
{
1000
NOSEL
1070
     0
1002
}
1002
{
1000
BEHIND
1070
     0
1002
}
1002
{
1000
OTHER
1070
     0
1002
}
1002
{
1000
REACTOR
1002
}
1001
GENIUS_GENOBJ-N-CEN_13
1002
{
1000
OWNER
1000
GEN
1002
}
1001
GENIUS_GENCEN_19
1002
{
1040
3.0
1002
}
  0
LINE
  5
BD4B
330
1F
100
AcDbEntity
  8
AM_0
100
AcDbLine
 10
1843.851409266811
 20
1701.580297614965
 30
0.0
 11
1801.805860416914
 21
1701.580297614965
 31
0.0
  0
LINE
  5
BD4C
330
1F
100
AcDbEntity
  8
AM_0
100
AcDbLine
 10
1843.989206590521
 20
1704.580297614965
 30
0.0
 11
1801.805860416914
 21
1704.580297614965
 31
0.0
  0
LINE
  5
BD4D
330
1F
100
AcDbEntity
  8
AM_7
100
AcDbLine
 10
1910.805860416914
 20
1703.080297614965
 30
0.0
 11
1798.805860416914
 21
1703.080297614965
 31
0.0
1001
GENIUS_GENOBJ-N-CEN_13
1002
{
1000
OWNER
1000
GEN
1002
}
1001
GENIUS_GENODEF_13
1002
{
1000
HIER
1070
     0
1002
}
1002
{
1000
MANEDIT
1070
     0
1002
}
1002
{
1000
NOSEL
1070
     0
1002
}
1002
{
1000
BEHIND
1070
     0
1002
}
1002
{
1000
OTHER
1070
     0
1002
}
1002
{
1000
REACTOR
1002
}
  0
LINE
  5
BD4E
330
1F
100
AcDbEntity
  8
AM_7
 48
0.55
100
AcDbLine
 10
1824.305860416914
 20
1697.580297614965
 30
0.0
 11
1824.305860416914
 21
1708.580297614965
 31
0.0
1001
GENIUS_GENODEF_13
1002
{
1000
HIER
1070
     0
1002
}
1002
{
1000
MANEDIT
1070
     0
1002
}
1002
{
1000
NOSEL
1070
     0
1002
}
1002
{
1000
BEHIND
1070
     0
1002
}
1002
{
1000
OTHER
1070
     0
1002
}
1002
{
1000
REACTOR
1002
}
1001
GENIUS_GENOBJ-N-CEN_13
1002
{
1000
OWNER
1000
GEN
1002
}
  0
LINE
  5
BD4F
330
1F
100
AcDbEntity
  8
AM_7
 48
0.55
100
AcDbLine
 10
1816.305860416914
 20
1697.580297614965
 30
0.0
 11
1816.305860416914
 21
1708.580297614965
 31
0.0
1001
GENIUS_GENODEF_13
1002
{
1000
HIER
1070
     0
1002
}
1002
{
1000
MANEDIT
1070
     0
1002
}
1002
{
1000
NOSEL
1070
     0
1002
}
1002
{
1000
BEHIND
1070
     0
1002
}
1002
{
1000
OTHER
1070
     0
1002
}
1002
{
1000
REACTOR
1002
}
1001
GENIUS_GENOBJ-N-CEN_13
1002
{
1000
OWNER
1000
GEN
1002
}
  0
LINE
  5
BD50
330
1F
100
AcDbEntity
  8
AM_7
 48
0.55
100
AcDbLine
 10
1808.305860416914
 20
1697.580297614965
 30
0.0
 11
1808.305860416914
 21
1708.580297614965
 31
0.0
1001
GENIUS_GENODEF_13
1002
{
1000
HIER
1070
     0
1002
}
1002
{
1000
MANEDIT
1070
     0
1002
}
1002
{
1000
NOSEL
1070
     0
1002
}
1002
{
1000
BEHIND
1070
     0
1002
}
1002
{
1000
OTHER
1070
     0
1002
}
1002
{
1000
REACTOR
1002
}
1001
GENIUS_GENOBJ-N-CEN_13
1002
{
1000
OWNER
1000
GEN
1002
}
  0
LINE
  5
BD51
330
1F
100
AcDbEntity
  8
AM_0
 48
0.15
100
AcDbLine
 10
1801.805860416914
 20
1702.580297614965
 30
0.0
 11
1801.805860416914
 21
1704.580297614965
 31
0.0
  0
LINE
  5
BD52
330
1F
100
AcDbEntity
  8
AM_0
 48
0.15
100
AcDbLine
 10
1801.805860416914
 20
1701.580297614965
 30
0.0
 11
1801.805860416914
 21
1704.580297614965
 31
0.0
  0
CIRCLE
  5
BD56
330
1F
100
AcDbEntity
  8
AM_0
 48
0.9
100
AcDbCircle
 10
1854.805860416914
 20
1703.080297614965
 30
0.0
 40
9.0
  0
ARC
  5
BD57
330
1F
100
AcDbEntity
  8
AM_0
100
AcDbCircle
 10
1854.805860416914
 20
1703.080297614965
 30
0.0
 40
10.0
100
AcDbArc
 50
8.626926558672296
 51
351.3730734413277
  0
ARC
  5
BD58
330
1F
100
AcDbEntity
  8
001
100
AcDbCircle
 10
1854.805860416914
 20
1703.080297614965
 30
0.0
 40
11.0
100
AcDbArc
 50
7.837479763077097
 51
352.1625202369229
  0
LINE
  5
BD59
330
1F
100
AcDbEntity
  8
AM_7
100
AcDbLine
 10
1854.805860416914
 20
1688.080297614965
 30
0.0
 11
1854.805860416914
 21
1718.080297614965
 31
0.0
1001
GENIUS_GENODEF_13
1002
{
1000
HIER
1070
     0
1002
}
1002
{
1000
MANEDIT
1070
     0
1002
}
1002
{
1000
NOSEL
1070
     0
1002
}
1002
{
1000
BEHIND
1070
     0
1002
}
1002
{
1000
OTHER
1070
     0
1002
}
1002
{
1000
REACTOR
1002
}
1001
GENIUS_GENOBJ-N-CEN_13
1002
{
1000
OWNER
1000
GEN
1002
}
  0
LINE
  5
BD5E
330
1F
100
AcDbEntity
  8
AM_0
100
AcDbLine
 10
1864.603819388047
 20
1701.580297614965
 30
0.0
 11
1907.805860416914
 21
1701.580297614965
 31
0.0
  0
LINE
  5
BD5F
330
1F
100
AcDbEntity
  8
AM_0
100
AcDbLine
 10
1864.603819388047
 20
1704.580297614965
 30
0.0
 11
1907.805860416914
 21
1704.580297614965
 31
0.0
  0
ARC
  5
BD66
330
1F
100
AcDbEntity
  8
AM_0
100
AcDbCircle
 10
1864.603819388047
 20
1704.580297614965
 30
0.0
 40
3.0
100
AcDbArc
 50
252.5121016671695
 51
270.0
1001
GENIUS_GENOBJ-N-FIL_13
1002
{
1000
OWNER
1000
GEN
1002
}
1001
GENIUS_GENODEF_13
1002
{
1000
HIER
1070
     0
1002
}
1002
{
1000
MANEDIT
1070
     0
1002
}
1002
{
1000
NOSEL
1070
     0
1002
}
1002
{
1000
BEHIND
1070
     0
1002
}
1002
{
1000
OTHER
1070
     0
1002
}
1002
{
1000
REACTOR
1002
}
  0
LINE
  5
BD67
330
1F
100
AcDbEntity
  8
AM_0
100
AcDbLine
 10
1863.672603009044
 20
1701.537288929016
 30
0.0
 11
1864.667118765175
 21
1701.420302497846
 31
0.0
  0
DIMENSION
  5
BD6B
330
1F
100
AcDbEntity
  8
AM_5
100
AcDbDimension
  2
*D6
 10
1843.805860416914
 20
1488.392056636909
 30
0.0
 11
1836.941198690092
 21
1488.392056636909
 31
0.0
 70
   160
  1
%%c<>
 71
     5
 42
22.0
  3
SYS$0
100
AcDbAlignedDimension
 13
1865.805860416914
 23
1501.392057636909
 33
0.0
 14
1843.805860416914
 24
1501.392057636909
 34
0.0
 50
180.0
100
AcDbRotatedDimension
1001
ACAD
1000
DSTYLE
1002
{
1070
   343
1005
6C4
1070
   173
1070
     1
1070
   344
1005
6C4
1070
    41
1040
1.0
1070
   342
1005
0
1002
}
  0
LINE
  5
BD79
330
1F
100
AcDbEntity
  8
AM_0
 48
0.15
100
AcDbLine
 10
1907.805860416914
 20
1702.580297614965
 30
0.0
 11
1907.805860416914
 21
1704.580297614965
 31
0.0
  0
LINE
  5
BD7A
330
1F
100
AcDbEntity
  8
AM_0
 48
0.15
100
AcDbLine
 10
1907.805860416914
 20
1701.580297614965
 30
0.0
 11
1907.805860416914
 21
1704.580297614965
 31
0.0
  0
DIMENSION
  5
BDA4
330
1F
100
AcDbEntity
  8
AM_5
100
AcDbDimension
  2
*D7
 10
1920.055860416914
 20
1442.392057636909
 30
0.0
 11
1916.955860416913
 21
1448.89205763691
 31
0.0
 70
    32
  1
<>
 71
     5
 42
13.00000000000045
  3
SYS$0
100
AcDbAlignedDimension
 13
1908.555860416914
 23
1455.39205763691
 33
0.0
 14
1902.805860416914
 24
1442.392057636909
 34
0.0
 50
90.0
100
AcDbRotatedDimension
  0
DIMENSION
  5
BDA5
330
1F
100
AcDbEntity
  8
AM_5
100
AcDbDimension
  2
*D8
 10
1930.055860416914
 20
1501.392057636909
 30
0.0
 11
1926.955860416914
 21
1471.89205763691
 31
0.0
 70
    32
  1
<>
 71
     5
 42
59.0
  3
SYS$0
100
AcDbAlignedDimension
 13
1902.805860416914
 23
1442.392057636909
 33
0.0
 14
1902.805860416914
 24
1501.392057636909
 34
0.0
 50
90.0
100
AcDbRotatedDimension
1001
ACAD
1000
DSTYLE
1002
{
1070
    47
1040
0.2
1070
    48
1040
0.2
1002
}
  0
DIMENSION
  5
BDA6
330
1F
100
AcDbEntity
  8
AM_5
100
AcDbDimension
  2
*D9
 10
1920.055860416914
 20
1501.392057636909
 30
0.0
 11
1916.955860416913
 21
1496.89205763691
 31
0.0
 70
    32
  1
<>
 71
     5
 42
8.999999999999772
  3
SYS$0
100
AcDbAlignedDimension
 13
1908.555860416914
 23
1492.39205763691
 33
0.0
 14
1902.805860416914
 24
1501.392057636909
 34
0.0
 50
90.0
100
AcDbRotatedDimension
1001
ACAD
1000
DSTYLE
1002
{
1070
    47
1040
0.2
1070
    48
1040
0.2
1070
   279
1070
     1
1002
}
  0
DIMENSION
  5
BDA7
330
1F
100
AcDbEntity
  8
AM_5
100
AcDbDimension
  2
*D10
 10
1920.055860416914
 20
1473.89205763691
 30
0.0
 11
1916.955860416913
 21
1464.64205763691
 31
0.0
 70
    32
  1
<>
 71
     5
 42
18.5
  3
SYS$0
100
AcDbAlignedDimension
 13
1908.555860416914
 23
1455.39205763691
 33
0.0
 14
1900.555860416914
 24
1473.89205763691
 34
0.0
 50
90.0
100
AcDbRotatedDimension
1001
ACAD
1000
DSTYLE
1002
{
1070
    47
1040
0.2
1070
    48
1040
0.2
1002
}
  0
DIMENSION
  5
BDA8
330
1F
100
AcDbEntity
  8
AM_5
100
AcDbDimension
  2
*D11
 10
1920.055860416914
 20
1492.39205763691
 30
0.0
 11
1916.955860416913
 21
1483.14205763691
 31
0.0
 70
    32
  1
<>
 71
     5
 42
18.49999999999977
  3
SYS$0
100
AcDbAlignedDimension
 13
1900.555860416914
 23
1473.89205763691
 33
0.0
 14
1908.555860416914
 24
1492.39205763691
 34
0.0
 50
90.0
100
AcDbRotatedDimension
1001
ACAD
1000
DSTYLE
1002
{
1070
    47
1040
0.2
1070
    48
1040
0.2
1002
}
  0
DIMENSION
  5
BDA9
330
1F
100
AcDbEntity
  8
AM_5
100
AcDbDimension
  2
*D12
 10
1789.805859416913
 20
1556.392057636909
 30
0.0
 11
1786.705859416913
 21
1585.89205763691
 31
0.0
 70
    32
  1
<>
 71
     5
 42
59.0
  3
SYS$0
100
AcDbAlignedDimension
 13
1807.805860416914
 23
1615.392057636909
 33
0.0
 14
1801.555860416914
 24
1556.392057636909
 34
0.0
 50
90.0
100
AcDbRotatedDimension
  0
DIMENSION
  5
BDAA
330
1F
100
AcDbEntity
  8
AM_5
100
AcDbDimension
  2
*D13
 10
1789.805859416912
 20
1519.392057636909
 30
0.0
 11
1786.705859416913
 21
1528.64205763691
 31
0.0
 70
    32
  1
<>
 71
     5
 42
18.50000000000022
  3
SYS$0
100
AcDbAlignedDimension
 13
1809.555860416914
 23
1537.892057636909
 33
0.0
 14
1801.555860416914
 24
1519.392057636909
 34
0.0
 50
90.0
100
AcDbRotatedDimension
1001
ACAD
1000
DSTYLE
1002
{
1070
    47
1040
0.2
1070
    48
1040
0.2
1002
}
  0
DIMENSION
  5
BDAB
330
1F
100
AcDbEntity
  8
AM_5
100
AcDbDimension
  2
*D14
 10
1789.805859416912
 20
1510.39205763691
 30
0.0
 11
1786.705859416913
 21
1514.89205763691
 31
0.0
 70
    32
  1
<>
 71
     5
 42
8.999999999999772
  3
SYS$0
100
AcDbAlignedDimension
 13
1801.555860416914
 23
1519.392057636909
 33
0.0
 14
1807.805860416914
 24
1510.39205763691
 34
0.0
 50
90.0
100
AcDbRotatedDimension
1001
ACAD
1000
DSTYLE
1002
{
1070
    47
1040
0.2
1070
    48
1040
0.2
1070
   279
1070
     1
1002
}
  0
DIMENSION
  5
BDAC
330
1F
100
AcDbEntity
  8
AM_5
100
AcDbDimension
  2
*D15
 10
1779.805859416913
 20
1501.392057636909
 30
0.0
 11
1776.705859416912
 21
1505.89205763691
 31
0.0
 70
    32
 71
     5
 42
9.000000000000227
  3
SYS$0
100
AcDbAlignedDimension
 13
1807.805860416914
 23
1510.39205763691
 33
0.0
 14
1843.805860416914
 24
1501.392057636909
 34
0.0
 50
90.0
100
AcDbRotatedDimension
  0
DIMENSION
  5
BDAD
330
1F
100
AcDbEntity
  8
AM_5
100
AcDbDimension
  2
*D16
 10
1789.805859416913
 20
1537.892057636909
 30
0.0
 11
1786.705859416913
 21
1547.14205763691
 31
0.0
 70
    32
  1
<>
 71
     5
 42
18.5
  3
SYS$0
100
AcDbAlignedDimension
 13
1801.555860416914
 23
1556.392057636909
 33
0.0
 14
1809.555860416914
 24
1537.892057636909
 34
0.0
 50
90.0
100
AcDbRotatedDimension
1001
ACAD
1000
DSTYLE
1002
{
1070
    47
1040
0.2
1070
    48
1040
0.2
1002
}
  0
DIMENSION
  5
BDAE
330
1F
100
AcDbEntity
  8
AM_5
100
AcDbDimension
  2
*D17
 10
1779.805859416913
 20
1615.392057636909
 30
0.0
 11
1776.705859416912
 21
1562.89205763691
 31
0.0
 70
    32
  1
<>
 71
     5
 42
105.0
  3
SYS$0
100
AcDbAlignedDimension
 13
1807.805860416914
 23
1510.39205763691
 33
0.0
 14
1807.805860416914
 24
1615.392057636909
 34
0.0
 50
90.0
100
AcDbRotatedDimension
1001
ACAD
1000
DSTYLE
1002
{
1070
    47
1040
0.2
1070
    48
1040
0.2
1002
}
  0
LINE
  5
BDAF
330
1F
100
AcDbEntity
  8
AM_5
100
AcDbLine
 10
1838.892721344889
 20
1451.620694887569
 30
0.0
 11
1882.112865863544
 21
1489.587189407892
 31
0.0
  0
INSERT
  5
BDB0
330
1F
100
AcDbEntity
  8
AM_5
100
AcDbBlockReference
  2
_DotSmall
 10
1882.112865863544
 20
1489.587189407892
 30
0.0
 41
2.999999999999763
 42
3.0
 43
3.0
 50
41.29750822205768
  0
LINE
  5
BDB1
330
1F
100
AcDbEntity
  8
AM_5
100
AcDbLine
 10
1888.498854970283
 20
1495.196925865927
 30
0.0
 11
1882.112865863544
 21
1489.587189407892
 31
0.0
  0
INSERT
  5
BDB2
330
1F
100
AcDbEntity
  8
AM_5
100
AcDbBlockReference
  2
_DotSmall
 10
1888.498854970283
 20
1495.196925865927
 30
0.0
 41
2.999999999999762
 42
3.0
 43
3.0
 50
221.2975082220577
  0
LINE
  5
BDB3
330
1F
100
AcDbEntity
  8
AM_5
100
AcDbLine
 10
1805.472721344887
 20
1451.620694887569
 30
0.0
 11
1838.892721344889
 21
1451.620694887569
 31
0.0
  0
MTEXT
  5
BDB4
330
1F
100
AcDbEntity
  8
AM_5
 62
     2
100
AcDbMText
 10
1821.432721344887
 20
1454.870694887569
 30
0.0
 40
3.5
 41
0.0
 71
     5
 72
     1
  1
10-%%c5.5×\U+22058.5サラ
 73
     1
 44
1.0
1001
ACAD
1000
MTEXTBEGIN
1070
    73
1070
     1
1070
    44
1040
1.0
1070
    74
1070
     0
1000
MTEXTEND
  0
DIMENSION
  5
BDB5
330
1F
100
AcDbEntity
  8
AM_5
100
AcDbDimension
  2
*D18
 10
1930.055860416914
 20
1704.580297614965
 30
0.0
 11
1926.955860416913
 21
1708.826964281632
 31
0.0
 70
    32
 71
     5
 42
3.0
  3
SYS$0
100
AcDbAlignedDimension
 13
1907.805860416914
 23
1701.580297614965
 33
0.0
 14
1907.805860416914
 24
1704.580297614965
 34
0.0
 50
90.0
100
AcDbRotatedDimension
1001
ACAD
1000
DSTYLE
1002
{
1070
    47
1040
0.5
1002
}
  0
DIMENSION
  5
BDB6
330
1F
100
AcDbEntity
  8
AM_5
100
AcDbDimension
  2
*D19
 10
1801.805860416914
 20
1630.39205863691
 30
0.0
 11
1828.305860416914
 21
1633.49205863691
 31
0.0
 70
    32
 71
     5
 42
53.0
  3
SYS$0
100
AcDbAlignedDimension
 13
1854.805860416914
 23
1621.39205763691
 33
0.0
 14
1801.805860416914
 24
1609.39205763691
 34
0.0
100
AcDbRotatedDimension
1001
ACAD
1000
DSTYLE
1002
{
1070
    47
1040
0.5
1002
}
  0
DIMENSION
  5
BDB7
330
1F
100
AcDbEntity
  8
AM_5
100
AcDbDimension
  2
*D20
 10
1907.805860416914
 20
1630.392058636909
 30
0.0
 11
1881.305860416914
 21
1633.492058636909
 31
0.0
 70
    32
 71
     5
 42
53.0
  3
SYS$0
100
AcDbAlignedDimension
 13
1854.805860416914
 23
1621.39205763691
 33
0.0
 14
1907.805860416914
 24
1496.392057636909
 34
0.0
100
AcDbRotatedDimension
1001
ACAD
1000
DSTYLE
1002
{
1070
    47
1040
0.5
1002
}
  0
DIMENSION
  5
BDB8
330
1F
100
AcDbEntity
  8
AM_5
100
AcDbDimension
  2
*D21
 10
1801.805860416914
 20
1640.392058636909
 30
0.0
 11
1854.805860416914
 21
1643.492058636909
 31
0.0
 70
    32
 71
     5
 42
106.0
  3
SYS$0
100
AcDbAlignedDimension
 13
1907.805860416914
 23
1496.392057636909
 33
0.0
 14
1801.805860416914
 24
1609.39205763691
 34
0.0
100
AcDbRotatedDimension
1001
ACAD
1000
DSTYLE
1002
{
1070
    47
1040
0.5
1002
}
  0
DIMENSION
  5
BDB9
330
1F
100
AcDbEntity
  8
AM_5
100
AcDbDimension
  2
*D22
 10
1940.055860416913
 20
1442.392057636909
 30
0.0
 11
1936.955860416914
 21
1528.89205763691
 31
0.0
 70
    32
 71
     5
 42
173.0000000000002
  3
SYS$0
100
AcDbAlignedDimension
 13
1864.805860416914
 23
1615.392057636909
 33
0.0
 14
1902.805860416914
 24
1442.392057636909
 34
0.0
 50
90.0
100
AcDbRotatedDimension
1001
ACAD
1000
DSTYLE
1002
{
1070
    47
1040
0.5
1002
}
  0
DIMENSION
  5
BDBA
330
1F
100
AcDbEntity
  8
AM_5
100
AcDbDimension
  2
*D23
 10
1901.305860416914
 20
1435.142057636909
 30
0.0
 11
1897.305860416914
 21
1438.242057636909
 31
0.0
 70
    32
 71
     5
 42
8.0
  3
SYS$0
100
AcDbAlignedDimension
 13
1893.305860416914
 23
1466.64205763691
 33
0.0
 14
1901.305860416914
 24
1448.14205763691
 34
0.0
100
AcDbRotatedDimension
1001
ACAD
1000
DSTYLE
1002
{
1070
    47
1040
0.5
1002
}
  0
DIMENSION
  5
BDBB
330
1F
100
AcDbEntity
  8
AM_5
100
AcDbDimension
  2
*D24
 10
1885.305860416914
 20
1435.142057636908
 30
0.0
 11
1889.305860416914
 21
1438.242057636908
 31
0.0
 70
    32
 71
     5
 42
8.0
  3
SYS$0
100
AcDbAlignedDimension
 13
1893.305860416914
 23
1466.64205763691
 33
0.0
 14
1885.305860416914
 24
1448.14205763691
 34
0.0
100
AcDbRotatedDimension
1001
ACAD
1000
DSTYLE
1002
{
1070
    47
1040
0.5
1002
}
  0
DIMENSION
  5
BDBC
330
1F
100
AcDbEntity
  8
AM_5
100
AcDbDimension
  2
*D25
 10
1885.305860416914
 20
1425.142057636907
 30
0.0
 11
1893.305860416914
 21
1428.242057636907
 31
0.0
 70
    32
 71
     5
 42
16.0
  3
SYS$0
100
AcDbAlignedDimension
 13
1901.305860416914
 23
1448.14205763691
 33
0.0
 14
1885.305860416914
 24
1448.14205763691
 34
0.0
100
AcDbRotatedDimension
1001
ACAD
1000
DSTYLE
1002
{
1070
    47
1040
0.5
1002
}
  0
DIMENSION
  5
BDBD
330
1F
100
AcDbEntity
  8
AM_5
100
AcDbDimension
  2
*D26
 10
1907.805860416914
 20
1425.142057636906
 30
0.0
 11
1912.599193750247
 21
1428.242057636906
 31
0.0
 70
    32
 71
     5
 42
6.5
  3
SYS$0
100
AcDbAlignedDimension
 13
1901.305860416914
 23
1448.14205763691
 33
0.0
 14
1907.805860416914
 24
1447.392057636909
 34
0.0
100
AcDbRotatedDimension
1001
ACAD
1000
DSTYLE
1002
{
1070
    47
1040
0.5
1002
}
  0
DIMENSION
  5
BDBE
330
1F
100
AcDbEntity
  8
AM_5
100
AcDbDimension
  2
*D27
 10
1854.805860416914
 20
1425.142057636906
 30
0.0
 11
1870.055860416914
 21
1428.242057636906
 31
0.0
 70
    32
 71
     5
 42
30.5
  3
SYS$0
100
AcDbAlignedDimension
 13
1885.305860416914
 23
1448.14205763691
 33
0.0
 14
1854.805860416914
 24
1436.39205763691
 34
0.0
100
AcDbRotatedDimension
1001
ACAD
1000
DSTYLE
1002
{
1070
    47
1040
0.5
1002
}
  0
CIRCLE
  5
BDBF
330
1F
100
AcDbEntity
  8
AM_0
100
AcDbCircle
 10
1854.805860416914
 20
1703.080297614965
 30
0.0
 40
10.0
  0
DIMENSION
  5
BDC0
330
1F
100
AcDbEntity
  8
AM_5
100
AcDbDimension
  2
*D28
 10
1862.17918798049
 20
1709.835594843082
 30
0.0
 11
1829.817817892264
 21
1684.393540501704
 31
0.0
 70
   163
 71
     5
 42
20.00000000000046
  3
SYS$3
100
AcDbDiametricDimension
 15
1847.432532853337
 25
1696.325000386848
 35
0.0
 40
0.0
1001
ACAD
1000
DSTYLE
1002
{
1070
    41
1040
4.0
1070
    47
1040
0.5
1070
   172
1070
     1
1070
   342
1005
BBA7
1002
}
  0
LINE
  5
BFBC
330
1F
100
AcDbEntity
  8
AM_7
 48
0.55
100
AcDbLine
 10
1885.305860416914
 20
1697.580297614965
 30
0.0
 11
1885.305860416914
 21
1708.580297614965
 31
0.0
1001
GENIUS_GENODEF_13
1002
{
1000
HIER
1070
     0
1002
}
1002
{
1000
MANEDIT
1070
     0
1002
}
1002
{
1000
NOSEL
1070
     0
1002
}
1002
{
1000
BEHIND
1070
     0
1002
}
1002
{
1000
OTHER
1070
     0
1002
}
1002
{
1000
REACTOR
1002
}
1001
GENIUS_GENOBJ-N-CEN_13
1002
{
1000
OWNER
1000
GEN
1002
}
  0
LINE
  5
BFBD
330
1F
100
AcDbEntity
  8
AM_7
 48
0.55
100
AcDbLine
 10
1893.305860416914
 20
1697.580297614965
 30
0.0
 11
1893.305860416914
 21
1708.580297614965
 31
0.0
1001
GENIUS_GENODEF_13
1002
{
1000
HIER
1070
     0
1002
}
1002
{
1000
MANEDIT
1070
     0
1002
}
1002
{
1000
NOSEL
1070
     0
1002
}
1002
{
1000
BEHIND
1070
     0
1002
}
1002
{
1000
OTHER
1070
     0
1002
}
1002
{
1000
REACTOR
1002
}
1001
GENIUS_GENOBJ-N-CEN_13
1002
{
1000
OWNER
1000
GEN
1002
}
  0
LINE
  5
BFBE
330
1F
100
AcDbEntity
  8
AM_7
 48
0.55
100
AcDbLine
 10
1901.305860416914
 20
1697.580297614965
 30
0.0
 11
1901.305860416914
 21
1708.580297614965
 31
0.0
1001
GENIUS_GENODEF_13
1002
{
1000
HIER
1070
     0
1002
}
1002
{
1000
MANEDIT
1070
     0
1002
}
1002
{
1000
NOSEL
1070
     0
1002
}
1002
{
1000
BEHIND
1070
     0
1002
}
1002
{
1000
OTHER
1070
     0
1002
}
1002
{
1000
REACTOR
1002
}
1001
GENIUS_GENOBJ-N-CEN_13
1002
{
1000
OWNER
1000
GEN
1002
}
  0
MTEXT
  5
C1DE
330
1F
100
AcDbEntity
  8
AM_6
100
AcDbMText
 10
1482.191201059063
 20
1739.592052873152
 30
0.0
 40
3.2
 41
54.84
 71
     1
 72
     5
  1
左勝手
 73
     1
 44
1.0
1001
ACAD
1000
MTEXTBEGIN
1070
    73
1070
     1
1070
    44
1040
1.0
1070
    74
1070
     0
1000
MTEXTEND
  0
MTEXT
  5
C1DF
330
1F
100
AcDbEntity
  8
AM_6
100
AcDbMText
 10
1482.191201059063
 20
1732.592052873152
 30
0.0
 40
3.2
 41
54.84
 71
     1
 72
     5
  1
適応扉重量　50ｋｇ（2枚吊）
 73
     1
 44
1.0
1001
ACAD
1000
MTEXTBEGIN
1070
    73
1070
     1
1070
    44
1040
1.0
1070
    74
1070
     0
1000
MTEXTEND
  0
LINE
  5
C1E0
330
1F
100
AcDbEntity
  8
AM_1
100
AcDbLine
 10
1463.593689170056
 20
1720.484262209774
 30
0.0
 11
1559.284393898641
 21
1720.484262209774
 31
0.0
  0
MTEXT
  5
C1E1
330
1F
100
AcDbEntity
  8
AM_6
100
AcDbMText
 10
1482.191201059063
 20
1746.592052873151
 30
0.0
 40
3.2
 41
77.0056919740282
 71
     1
 72
     5
  1
羽根：ヘアーライン　軸：生地
 73
     1
 44
1.0
1001
ACAD
1000
MTEXTBEGIN
1070
    73
1070
     1
1070
    44
1040
1.0
1070
    74
1070
     0
1000
MTEXTEND
  0
MTEXT
  5
C1E2
330
1F
100
AcDbEntity
  8
AM_6
100
AcDbMText
 10
1482.191201059063
 20
1753.592052873151
 30
0.0
 40
3.2
 41
67.75151604210261
 71
     1
 72
     5
  1
羽根：ステンレス　軸：ステンレス
 73
     1
 44
1.0
1001
ACAD
1000
MTEXTBEGIN
1070
    73
1070
     1
1070
    44
1040
1.0
1070
    74
1070
     0
1000
MTEXTEND
  0
LINE
  5
C1E3
330
1F
100
AcDbEntity
  8
AM_2
100
AcDbLine
 10
1463.593689170056
 20
1762.484262209774
 30
0.0
 11
1559.284393898641
 21
1762.484262209774
 31
0.0
  0
LINE
  5
C1E4
330
1F
100
AcDbEntity
  8
AM_2
100
AcDbLine
 10
1463.593689170056
 20
1755.484262209774
 30
0.0
 11
1559.284393898641
 21
1755.484262209774
 31
0.0
  0
LINE
  5
C1E5
330
1F
100
AcDbEntity
  8
AM_2
100
AcDbLine
 10
1463.593689170056
 20
1748.484262209774
 30
0.0
 11
1559.284393898641
 21
1748.484262209774
 31
0.0
  0
LINE
  5
C1E6
330
1F
100
AcDbEntity
  8
AM_2
100
AcDbLine
 10
1463.593689170056
 20
1741.484262209774
 30
0.0
 11
1559.284393898641
 21
1741.484262209774
 31
0.0
  0
LINE
  5
C1E7
330
1F
100
AcDbEntity
  8
AM_2
100
AcDbLine
 10
1477.79407945279
 20
1727.484262209775
 30
0.0
 11
1559.284393898641
 21
1727.484262209774
 31
0.0
  0
LINE
  5
C1E8
330
1F
100
AcDbEntity
  8
AM_2
100
AcDbLine
 10
1477.79407945279
 20
1734.484262209774
 30
0.0
 11
1559.284393898641
 21
1734.484262209774
 31
0.0
  0
MTEXT
  5
C1E9
330
1F
100
AcDbEntity
  8
AM_6
100
AcDbMText
 10
1467.990810776329
 20
1739.592052873152
 30
0.0
 40
3.2
 41
18.53
 71
     1
 72
     5
  1
備考
 73
     1
 44
1.0
1001
ACAD
1000
MTEXTBEGIN
1070
    73
1070
     1
1070
    44
1040
1.0
1070
    74
1070
     0
1000
MTEXTEND
  0
LINE
  5
C1EA
330
1F
100
AcDbEntity
  8
AM_2
100
AcDbLine
 10
1477.79407945279
 20
1769.484262209774
 30
0.0
 11
1477.79407945279
 21
1720.484262209774
 31
0.0
  0
MTEXT
  5
C1EB
330
1F
100
AcDbEntity
  8
AM_6
100
AcDbMText
 10
1467.990810776329
 20
1760.592052873152
 30
0.0
 40
3.2
 41
18.53
 71
     1
 72
     5
  1
品番
 73
     1
 44
1.0
1001
ACAD
1000
MTEXTBEGIN
1070
    73
1070
     1
1070
    44
1040
1.0
1070
    74
1070
     0
1000
MTEXTEND
  0
MTEXT
  5
C1EC
330
1F
100
AcDbEntity
  8
AM_6
100
AcDbMText
 10
1467.990810776329
 20
1753.592052873151
 30
0.0
 40
3.2
 41
18.53
 71
     1
 72
     5
  1
材質
 73
     1
 44
1.0
1001
ACAD
1000
MTEXTBEGIN
1070
    73
1070
     1
1070
    44
1040
1.0
1070
    74
1070
     0
1000
MTEXTEND
  0
MTEXT
  5
C1ED
330
1F
100
AcDbEntity
  8
AM_6
100
AcDbMText
 10
1467.990810776329
 20
1746.592052873151
 30
0.0
 40
3.2
 41
18.53
 71
     1
 72
     5
  1
仕上げ
 73
     1
 44
1.0
1001
ACAD
1000
MTEXTBEGIN
1070
    73
1070
     1
1070
    44
1040
1.0
1070
    74
1070
     0
1000
MTEXTEND
  0
MTEXT
  5
C1EE
330
1F
100
AcDbEntity
  8
AM_6
100
AcDbMText
 10
1467.990810776329
 20
1767.592052873151
 30
0.0
 40
3.2
 41
18.53
 71
     1
 72
     5
  1
品名
 73
     1
 44
1.0
1001
ACAD
1000
MTEXTBEGIN
1070
    73
1070
     1
1070
    44
1040
1.0
1070
    74
1070
     0
1000
MTEXTEND
  0
MTEXT
  5
C1EF
330
1F
100
AcDbEntity
  8
AM_6
100
AcDbMText
 10
1482.191201059063
 20
1760.592052873152
 30
0.0
 40
3.2
 41
18.53
 71
     1
 72
     5
  1
RDHT-20S
 73
     1
 44
1.0
1001
ACAD
1000
MTEXTBEGIN
1070
    73
1070
     1
1070
    44
1040
1.0
1070
    74
1070
     0
1000
MTEXTEND
  0
MTEXT
  5
C1F0
330
1F
100
AcDbEntity
  8
AM_6
100
AcDbMText
 10
1482.191201059063
 20
1767.592052873151
 30
0.0
 40
3.2
 41
18.53
 71
     1
 72
     5
  1
対震丁番
 73
     1
 44
1.0
1001
ACAD
1000
MTEXTBEGIN
1070
    73
1070
     1
1070
    44
1040
1.0
1070
    74
1070
     0
1000
MTEXTEND
  0
LINE
  5
C1F1
330
1F
100
AcDbEntity
  8
AM_1
100
AcDbLine
 10
1559.284393898641
 20
1769.484262209774
 30
0.0
 11
1559.284393898641
 21
1720.484262209774
 31
0.0
  0
MTEXT
  5
C1F2
330
1F
100
AcDbEntity
  8
AM_6
100
AcDbMText
 10
1851.463469540517
 20
1413.02470663087
 30
0.0
 40
6.0
 41
18.53
 71
     1
 72
     5
  1
{\L下部}
 73
     1
 44
1.0
1001
ACAD
1000
MTEXTBEGIN
1070
    73
1070
     1
1070
    44
1040
1.0
1070
    74
1070
     0
1000
MTEXTEND
  0
LINE
  5
C768
330
1F
100
AcDbEntity
  8
AM_0
100
AcDbLine
 10
1638.195121349204
 20
1615.392057636909
 30
0.0
 11
1638.195121349204
 21
1617.892057636909
 31
0.0
  0
LINE
  5
C769
330
1F
100
AcDbEntity
  8
AM_0
100
AcDbLine
 10
1620.195121349204
 20
1615.392057636909
 30
0.0
 11
1620.195121349204
 21
1617.892057636909
 31
0.0
  0
LINE
  5
C76A
330
1F
100
AcDbEntity
  8
AM_0
100
AcDbLine
 10
1620.195121349204
 20
1617.892057636909
 30
0.0
 11
1620.695121349204
 21
1618.392057636909
 31
0.0
  0
LINE
  5
C76B
330
1F
100
AcDbEntity
  8
AM_0
100
AcDbLine
 10
1638.195121349204
 20
1617.892057636909
 30
0.0
 11
1637.695121349204
 21
1618.392057636909
 31
0.0
  0
LINE
  5
C76C
330
1F
100
AcDbEntity
  8
AM_0
100
AcDbLine
 10
1638.195121349204
 20
1465.392057636909
 30
0.0
 11
1638.195121349204
 21
1462.892057636909
 31
0.0
  0
LINE
  5
C76D
330
1F
100
AcDbEntity
  8
AM_0
100
AcDbLine
 10
1638.195121349204
 20
1462.892057636909
 30
0.0
 11
1637.695121349204
 21
1462.39205763691
 31
0.0
  0
LINE
  5
C76E
330
1F
100
AcDbEntity
  8
AM_0
100
AcDbLine
 10
1637.695121349204
 20
1462.39205763691
 30
0.0
 11
1620.695121349204
 21
1462.39205763691
 31
0.0
  0
LINE
  5
C76F
330
1F
100
AcDbEntity
  8
AM_0
100
AcDbLine
 10
1620.195121349204
 20
1465.392057636909
 30
0.0
 11
1620.195121349204
 21
1462.892057636909
 31
0.0
  0
LINE
  5
C770
330
1F
100
AcDbEntity
  8
AM_0
100
AcDbLine
 10
1620.195121349204
 20
1462.892057636909
 30
0.0
 11
1620.695121349204
 21
1462.39205763691
 31
0.0
  0
LINE
  5
C771
330
1F
100
AcDbEntity
  8
AM_0
100
AcDbLine
 10
1637.695121349204
 20
1618.392057636909
 30
0.0
 11
1620.695121349204
 21
1618.392057636909
 31
0.0
  0
ARC
  5
C774
330
1F
100
AcDbEntity
  8
AM_0
100
AcDbCircle
 10
1581.195121349204
 20
1561.39205763691
 30
0.0
 40
5.0
100
AcDbArc
 50
180.0
 51
270.0
  0
ARC
  5
C775
330
1F
100
AcDbEntity
  8
AM_0
100
AcDbCircle
 10
1581.195121349204
 20
1610.392057636909
 30
0.0
 40
5.0
100
AcDbArc
 50
90.0
 51
180.0
  0
LINE
  5
C776
330
1F
100
AcDbEntity
  8
AM_0
100
AcDbLine
 10
1576.195121349204
 20
1561.39205763691
 30
0.0
 11
1576.195121349204
 21
1610.392057636909
 31
0.0
  0
ARC
  5
C777
330
1F
100
AcDbEntity
  8
AM_0
100
AcDbCircle
 10
1677.195121349204
 20
1470.39205763691
 30
0.0
 40
5.0
100
AcDbArc
 50
270.0
 51
0.000000000000007
  0
ARC
  5
C778
330
1F
100
AcDbEntity
  8
AM_0
100
AcDbCircle
 10
1677.195121349204
 20
1541.392057636909
 30
0.0
 40
5.0
100
AcDbArc
 50
0.000000000000007
 51
90.0
  0
LINE
  5
C779
330
1F
100
AcDbEntity
  8
AM_0
100
AcDbLine
 10
1682.195121349204
 20
1541.392057636909
 30
0.0
 11
1682.195121349204
 21
1470.39205763691
 31
0.0
  0
CIRCLE
  5
C77A
330
1F
100
AcDbEntity
  8
AM_0
100
AcDbCircle
 10
1582.695121349204
 20
1602.392057636909
 30
0.0
 40
2.75
  0
CIRCLE
  5
C77B
330
1F
100
AcDbEntity
  8
AM_0
100
AcDbCircle
 10
1582.695121349204
 20
1602.392057636909
 30
0.0
 40
4.25
  0
CIRCLE
  5
C77C
330
1F
100
AcDbEntity
  8
AM_0
100
AcDbCircle
 10
1598.695121349204
 20
1602.392057636909
 30
0.0
 40
4.25
  0
CIRCLE
  5
C77D
330
1F
100
AcDbEntity
  8
AM_0
100
AcDbCircle
 10
1598.695121349204
 20
1602.392057636909
 30
0.0
 40
2.75
  0
CIRCLE
  5
C77E
330
1F
100
AcDbEntity
  8
AM_0
100
AcDbCircle
 10
1590.695121349204
 20
1583.892057636909
 30
0.0
 40
4.25
  0
CIRCLE
  5
C77F
330
1F
100
AcDbEntity
  8
AM_0
100
AcDbCircle
 10
1590.695121349204
 20
1583.892057636909
 30
0.0
 40
2.75
  0
CIRCLE
  5
C780
330
1F
100
AcDbEntity
  8
AM_0
100
AcDbCircle
 10
1582.695121349204
 20
1565.392057636909
 30
0.0
 40
4.25
  0
CIRCLE
  5
C781
330
1F
100
AcDbEntity
  8
AM_0
100
AcDbCircle
 10
1582.695121349204
 20
1565.392057636909
 30
0.0
 40
2.75
  0
CIRCLE
  5
C782
330
1F
100
AcDbEntity
  8
AM_0
100
AcDbCircle
 10
1598.695121349204
 20
1565.392057636909
 30
0.0
 40
4.25
  0
CIRCLE
  5
C783
330
1F
100
AcDbEntity
  8
AM_0
100
AcDbCircle
 10
1598.695121349204
 20
1565.392057636909
 30
0.0
 40
2.75
  0
CIRCLE
  5
C784
330
1F
100
AcDbEntity
  8
AM_0
100
AcDbCircle
 10
1659.695121349204
 20
1538.392057636909
 30
0.0
 40
2.75
  0
CIRCLE
  5
C785
330
1F
100
AcDbEntity
  8
AM_0
100
AcDbCircle
 10
1659.695121349204
 20
1538.392057636909
 30
0.0
 40
4.25
  0
CIRCLE
  5
C786
330
1F
100
AcDbEntity
  8
AM_0
100
AcDbCircle
 10
1675.695121349204
 20
1538.392057636909
 30
0.0
 40
4.25
  0
CIRCLE
  5
C787
330
1F
100
AcDbEntity
  8
AM_0
100
AcDbCircle
 10
1675.695121349204
 20
1538.392057636909
 30
0.0
 40
2.75
  0
CIRCLE
  5
C788
330
1F
100
AcDbEntity
  8
AM_0
100
AcDbCircle
 10
1667.695121349204
 20
1519.892057636909
 30
0.0
 40
4.25
  0
CIRCLE
  5
C789
330
1F
100
AcDbEntity
  8
AM_0
100
AcDbCircle
 10
1667.695121349204
 20
1519.892057636909
 30
0.0
 40
2.75
  0
CIRCLE
  5
C78A
330
1F
100
AcDbEntity
  8
AM_0
100
AcDbCircle
 10
1675.695121349204
 20
1501.392057636909
 30
0.0
 40
4.25
  0
CIRCLE
  5
C78B
330
1F
100
AcDbEntity
  8
AM_0
100
AcDbCircle
 10
1675.695121349204
 20
1501.392057636909
 30
0.0
 40
2.75
  0
CIRCLE
  5
C78C
330
1F
100
AcDbEntity
  8
AM_0
100
AcDbCircle
 10
1659.695121349204
 20
1501.392057636909
 30
0.0
 40
4.25
  0
CIRCLE
  5
C78D
330
1F
100
AcDbEntity
  8
AM_0
100
AcDbCircle
 10
1659.695121349204
 20
1501.392057636909
 30
0.0
 40
2.75
  0
LINE
  5
C7A3
330
1F
100
AcDbEntity
  8
AM_0
100
AcDbLine
 10
1677.195121349204
 20
1465.392057636909
 30
0.0
 11
1619.195121349204
 21
1465.392057636909
 31
0.0
  0
LINE
  5
C7A4
330
1F
100
AcDbEntity
  8
AM_0
100
AcDbLine
 10
1638.195121349204
 20
1462.892057636909
 30
0.0
 11
1620.195121349204
 21
1462.892057636909
 31
0.0
  0
LINE
  5
C7A5
330
1F
100
AcDbEntity
  8
AM_0
100
AcDbLine
 10
1581.195121349204
 20
1615.392057636909
 30
0.0
 11
1639.195121349204
 21
1615.392057636909
 31
0.0
  0
LINE
  5
C7A6
330
1F
100
AcDbEntity
  8
AM_0
100
AcDbLine
 10
1620.195121349204
 20
1617.892057636909
 30
0.0
 11
1638.195121349204
 21
1617.892057636909
 31
0.0
  0
LINE
  5
C80D
330
1F
100
AcDbEntity
  8
AM_0
100
AcDbLine
 10
1618.195121349204
 20
1512.392057636909
 30
0.0
 11
1640.195121349204
 21
1512.392057636909
 31
0.0
  0
LINE
  5
C80E
330
1F
100
AcDbEntity
  8
AM_0
100
AcDbLine
 10
1581.195121349204
 20
1556.392057636909
 30
0.0
 11
1607.195121349204
 21
1556.392057636909
 31
0.0
  0
LINE
  5
C80F
330
1F
100
AcDbEntity
  8
AM_0
100
AcDbLine
 10
1607.195121349204
 20
1526.39205763691
 30
0.0
 11
1607.195121349204
 21
1556.392057636909
 31
0.0
  0
ARC
  5
C810
330
1F
100
AcDbEntity
  8
AM_0
100
AcDbCircle
 10
1612.195121349204
 20
1526.39205763691
 30
0.0
 40
5.0
100
AcDbArc
 50
180.0
 51
270.0
  0
LINE
  5
C811
330
1F
100
AcDbEntity
  8
AM_0
100
AcDbLine
 10
1658.195121349204
 20
1546.392057636909
 30
0.0
 11
1677.195121349204
 21
1546.392057636909
 31
0.0
  0
ARC
  5
C812
330
1F
100
AcDbEntity
  8
AM_0
100
AcDbCircle
 10
1658.195121349204
 20
1541.392057636909
 30
0.0
 40
5.0
100
AcDbArc
 50
90.0
 51
180.0
  0
ARC
  5
C813
330
1F
100
AcDbEntity
  8
AM_0
100
AcDbCircle
 10
1648.195121349204
 20
1517.392057636909
 30
0.0
 40
5.0
100
AcDbArc
 50
270.0
 51
0.000000000000007
  0
LINE
  5
C814
330
1F
100
AcDbEntity
  8
AM_0
100
AcDbLine
 10
1653.195121349204
 20
1541.392057636909
 30
0.0
 11
1653.195121349204
 21
1517.392057636909
 31
0.0
  0
LINE
  5
C815
330
1F
100
AcDbEntity
  8
AM_0
100
AcDbLine
 10
1640.195121349204
 20
1512.392057636909
 30
0.0
 11
1648.195121349204
 21
1512.392057636909
 31
0.0
  0
LINE
  5
C82F
330
1F
100
AcDbEntity
  8
AM_0
100
AcDbLine
 10
1618.195121349204
 20
1525.392057636909
 30
0.0
 11
1618.195121349204
 21
1512.392057636909
 31
0.0
  0
LINE
  5
C830
330
1F
100
AcDbEntity
  8
AM_0
100
AcDbLine
 10
1640.195121349204
 20
1525.392057636909
 30
0.0
 11
1640.195121349204
 21
1512.392057636909
 31
0.0
  0
LINE
  5
C831
330
1F
100
AcDbEntity
  8
AM_0
100
AcDbLine
 10
1618.195121349204
 20
1525.392057636909
 30
0.0
 11
1640.195121349204
 21
1525.392057636909
 31
0.0
  0
LINE
  5
C832
330
1F
100
AcDbEntity
  8
AM_0
100
AcDbLine
 10
1639.195121349204
 20
1512.392057636909
 30
0.0
 11
1639.195121349204
 21
1465.392057636909
 31
0.0
  0
LINE
  5
C833
330
1F
100
AcDbEntity
  8
AM_0
100
AcDbLine
 10
1619.195121349204
 20
1512.392057636909
 30
0.0
 11
1619.195121349204
 21
1465.392057636909
 31
0.0
  0
LINE
  5
C834
330
1F
100
AcDbEntity
  8
AM_0
100
AcDbLine
 10
1618.195121349204
 20
1521.392057636909
 30
0.0
 11
1612.195121349204
 21
1521.392057636909
 31
0.0
  0
LINE
  5
C835
330
1F
100
AcDbEntity
  8
AM_0
100
AcDbLine
 10
1619.195121349204
 20
1525.392057636909
 30
0.0
 11
1619.195121349204
 21
1615.392057636909
 31
0.0
  0
LINE
  5
C836
330
1F
100
AcDbEntity
  8
AM_0
100
AcDbLine
 10
1639.195121349204
 20
1525.392057636909
 30
0.0
 11
1639.195121349204
 21
1615.392057636909
 31
0.0
  0
LINE
  5
C992
330
1F
100
AcDbEntity
  8
AM_7
100
AcDbLine
 10
1629.195121349204
 20
1459.392057636909
 30
0.0
 11
1629.195121349204
 21
1621.39205763691
 31
0.0
1001
GENIUS_GENODEF_13
1002
{
1000
HIER
1070
     0
1002
}
1002
{
1000
MANEDIT
1070
     0
1002
}
1002
{
1000
NOSEL
1070
     0
1002
}
1002
{
1000
BEHIND
1070
     0
1002
}
1002
{
1000
OTHER
1070
     0
1002
}
1002
{
1000
REACTOR
1002
}
1001
GENIUS_GENOBJ-N-CEN_13
1002
{
1000
OWNER
1000
GEN
1002
}
1001
GENIUS_GENCEN_19
1002
{
1040
3.0
1002
}
  0
LINE
  5
C994
330
1F
100
AcDbEntity
  8
AM_7
 48
0.5
100
AcDbLine
 10
1575.445121349204
 20
1602.392057636909
 30
0.0
 11
1589.945121349204
 21
1602.392057636909
 31
0.0
1001
GENIUS_GENODEF_13
1002
{
1000
HIER
1070
     0
1002
}
1002
{
1000
MANEDIT
1070
     0
1002
}
1002
{
1000
NOSEL
1070
     0
1002
}
1002
{
1000
BEHIND
1070
     0
1002
}
1002
{
1000
OTHER
1070
     0
1002
}
1002
{
1000
REACTOR
1002
}
1001
GENIUS_GENOBJ-N-CEN_13
1002
{
1000
OWNER
1000
GEN
1002
}
1001
GENIUS_GENCEN_19
1002
{
1040
3.0
1002
}
  0
LINE
  5
C995
330
1F
100
AcDbEntity
  8
AM_7
 48
0.5
100
AcDbLine
 10
1582.695121349204
 20
1595.142057636909
 30
0.0
 11
1582.695121349204
 21
1609.642057636909
 31
0.0
1001
GENIUS_GENODEF_13
1002
{
1000
HIER
1070
     0
1002
}
1002
{
1000
MANEDIT
1070
     0
1002
}
1002
{
1000
NOSEL
1070
     0
1002
}
1002
{
1000
BEHIND
1070
     0
1002
}
1002
{
1000
OTHER
1070
     0
1002
}
1002
{
1000
REACTOR
1002
}
1001
GENIUS_GENOBJ-N-CEN_13
1002
{
1000
OWNER
1000
GEN
1002
}
1001
GENIUS_GENCEN_19
1002
{
1040
3.0
1002
}
  0
LINE
  5
C996
330
1F
100
AcDbEntity
  8
AM_7
 48
0.5
100
AcDbLine
 10
1591.445121349204
 20
1602.392057636909
 30
0.0
 11
1605.945121349204
 21
1602.392057636909
 31
0.0
1001
GENIUS_GENODEF_13
1002
{
1000
HIER
1070
     0
1002
}
1002
{
1000
MANEDIT
1070
     0
1002
}
1002
{
1000
NOSEL
1070
     0
1002
}
1002
{
1000
BEHIND
1070
     0
1002
}
1002
{
1000
OTHER
1070
     0
1002
}
1002
{
1000
REACTOR
1002
}
1001
GENIUS_GENOBJ-N-CEN_13
1002
{
1000
OWNER
1000
GEN
1002
}
1001
GENIUS_GENCEN_19
1002
{
1040
3.0
1002
}
  0
LINE
  5
C997
330
1F
100
AcDbEntity
  8
AM_7
 48
0.5
100
AcDbLine
 10
1598.695121349204
 20
1595.142057636909
 30
0.0
 11
1598.695121349204
 21
1609.642057636909
 31
0.0
1001
GENIUS_GENODEF_13
1002
{
1000
HIER
1070
     0
1002
}
1002
{
1000
MANEDIT
1070
     0
1002
}
1002
{
1000
NOSEL
1070
     0
1002
}
1002
{
1000
BEHIND
1070
     0
1002
}
1002
{
1000
OTHER
1070
     0
1002
}
1002
{
1000
REACTOR
1002
}
1001
GENIUS_GENOBJ-N-CEN_13
1002
{
1000
OWNER
1000
GEN
1002
}
1001
GENIUS_GENCEN_19
1002
{
1040
3.0
1002
}
  0
LINE
  5
C998
330
1F
100
AcDbEntity
  8
AM_7
 48
0.5
100
AcDbLine
 10
1583.445121349204
 20
1583.892057636909
 30
0.0
 11
1597.945121349204
 21
1583.892057636909
 31
0.0
1001
GENIUS_GENODEF_13
1002
{
1000
HIER
1070
     0
1002
}
1002
{
1000
MANEDIT
1070
     0
1002
}
1002
{
1000
NOSEL
1070
     0
1002
}
1002
{
1000
BEHIND
1070
     0
1002
}
1002
{
1000
OTHER
1070
     0
1002
}
1002
{
1000
REACTOR
1002
}
1001
GENIUS_GENOBJ-N-CEN_13
1002
{
1000
OWNER
1000
GEN
1002
}
1001
GENIUS_GENCEN_19
1002
{
1040
3.0
1002
}
  0
LINE
  5
C999
330
1F
100
AcDbEntity
  8
AM_7
 48
0.5
100
AcDbLine
 10
1590.695121349204
 20
1576.64205763691
 30
0.0
 11
1590.695121349204
 21
1591.142057636909
 31
0.0
1001
GENIUS_GENODEF_13
1002
{
1000
HIER
1070
     0
1002
}
1002
{
1000
MANEDIT
1070
     0
1002
}
1002
{
1000
NOSEL
1070
     0
1002
}
1002
{
1000
BEHIND
1070
     0
1002
}
1002
{
1000
OTHER
1070
     0
1002
}
1002
{
1000
REACTOR
1002
}
1001
GENIUS_GENOBJ-N-CEN_13
1002
{
1000
OWNER
1000
GEN
1002
}
1001
GENIUS_GENCEN_19
1002
{
1040
3.0
1002
}
  0
LINE
  5
C99A
330
1F
100
AcDbEntity
  8
AM_7
 48
0.5
100
AcDbLine
 10
1575.445121349204
 20
1565.392057636909
 30
0.0
 11
1589.945121349204
 21
1565.392057636909
 31
0.0
1001
GENIUS_GENODEF_13
1002
{
1000
HIER
1070
     0
1002
}
1002
{
1000
MANEDIT
1070
     0
1002
}
1002
{
1000
NOSEL
1070
     0
1002
}
1002
{
1000
BEHIND
1070
     0
1002
}
1002
{
1000
OTHER
1070
     0
1002
}
1002
{
1000
REACTOR
1002
}
1001
GENIUS_GENOBJ-N-CEN_13
1002
{
1000
OWNER
1000
GEN
1002
}
1001
GENIUS_GENCEN_19
1002
{
1040
3.0
1002
}
  0
LINE
  5
C99B
330
1F
100
AcDbEntity
  8
AM_7
 48
0.5
100
AcDbLine
 10
1582.695121349204
 20
1558.142057636909
 30
0.0
 11
1582.695121349204
 21
1572.642057636909
 31
0.0
1001
GENIUS_GENODEF_13
1002
{
1000
HIER
1070
     0
1002
}
1002
{
1000
MANEDIT
1070
     0
1002
}
1002
{
1000
NOSEL
1070
     0
1002
}
1002
{
1000
BEHIND
1070
     0
1002
}
1002
{
1000
OTHER
1070
     0
1002
}
1002
{
1000
REACTOR
1002
}
1001
GENIUS_GENOBJ-N-CEN_13
1002
{
1000
OWNER
1000
GEN
1002
}
1001
GENIUS_GENCEN_19
1002
{
1040
3.0
1002
}
  0
LINE
  5
C99C
330
1F
100
AcDbEntity
  8
AM_7
 48
0.5
100
AcDbLine
 10
1591.445121349204
 20
1565.392057636909
 30
0.0
 11
1605.945121349204
 21
1565.392057636909
 31
0.0
1001
GENIUS_GENODEF_13
1002
{
1000
HIER
1070
     0
1002
}
1002
{
1000
MANEDIT
1070
     0
1002
}
1002
{
1000
NOSEL
1070
     0
1002
}
1002
{
1000
BEHIND
1070
     0
1002
}
1002
{
1000
OTHER
1070
     0
1002
}
1002
{
1000
REACTOR
1002
}
1001
GENIUS_GENOBJ-N-CEN_13
1002
{
1000
OWNER
1000
GEN
1002
}
1001
GENIUS_GENCEN_19
1002
{
1040
3.0
1002
}
  0
LINE
  5
C99D
330
1F
100
AcDbEntity
  8
AM_7
 48
0.5
100
AcDbLine
 10
1598.695121349204
 20
1558.142057636909
 30
0.0
 11
1598.695121349204
 21
1572.642057636909
 31
0.0
1001
GENIUS_GENODEF_13
1002
{
1000
HIER
1070
     0
1002
}
1002
{
1000
MANEDIT
1070
     0
1002
}
1002
{
1000
NOSEL
1070
     0
1002
}
1002
{
1000
BEHIND
1070
     0
1002
}
1002
{
1000
OTHER
1070
     0
1002
}
1002
{
1000
REACTOR
1002
}
1001
GENIUS_GENOBJ-N-CEN_13
1002
{
1000
OWNER
1000
GEN
1002
}
1001
GENIUS_GENCEN_19
1002
{
1040
3.0
1002
}
  0
LINE
  5
C99E
330
1F
100
AcDbEntity
  8
AM_7
 48
0.5
100
AcDbLine
 10
1682.945121349204
 20
1538.392057636909
 30
0.0
 11
1668.445121349204
 21
1538.392057636909
 31
0.0
1001
GENIUS_GENODEF_13
1002
{
1000
HIER
1070
     0
1002
}
1002
{
1000
MANEDIT
1070
     0
1002
}
1002
{
1000
NOSEL
1070
     0
1002
}
1002
{
1000
BEHIND
1070
     0
1002
}
1002
{
1000
OTHER
1070
     0
1002
}
1002
{
1000
REACTOR
1002
}
1001
GENIUS_GENOBJ-N-CEN_13
1002
{
1000
OWNER
1000
GEN
1002
}
1001
GENIUS_GENCEN_19
1002
{
1040
3.0
1002
}
  0
LINE
  5
C99F
330
1F
100
AcDbEntity
  8
AM_7
 48
0.5
100
AcDbLine
 10
1675.695121349204
 20
1531.142057636909
 30
0.0
 11
1675.695121349204
 21
1545.642057636909
 31
0.0
1001
GENIUS_GENODEF_13
1002
{
1000
HIER
1070
     0
1002
}
1002
{
1000
MANEDIT
1070
     0
1002
}
1002
{
1000
NOSEL
1070
     0
1002
}
1002
{
1000
BEHIND
1070
     0
1002
}
1002
{
1000
OTHER
1070
     0
1002
}
1002
{
1000
REACTOR
1002
}
1001
GENIUS_GENOBJ-N-CEN_13
1002
{
1000
OWNER
1000
GEN
1002
}
1001
GENIUS_GENCEN_19
1002
{
1040
3.0
1002
}
  0
LINE
  5
C9A0
330
1F
100
AcDbEntity
  8
AM_7
 48
0.5
100
AcDbLine
 10
1666.945121349204
 20
1538.392057636909
 30
0.0
 11
1652.445121349204
 21
1538.392057636909
 31
0.0
1001
GENIUS_GENODEF_13
1002
{
1000
HIER
1070
     0
1002
}
1002
{
1000
MANEDIT
1070
     0
1002
}
1002
{
1000
NOSEL
1070
     0
1002
}
1002
{
1000
BEHIND
1070
     0
1002
}
1002
{
1000
OTHER
1070
     0
1002
}
1002
{
1000
REACTOR
1002
}
1001
GENIUS_GENOBJ-N-CEN_13
1002
{
1000
OWNER
1000
GEN
1002
}
1001
GENIUS_GENCEN_19
1002
{
1040
3.0
1002
}
  0
LINE
  5
C9A1
330
1F
100
AcDbEntity
  8
AM_7
 48
0.5
100
AcDbLine
 10
1659.695121349204
 20
1531.142057636909
 30
0.0
 11
1659.695121349204
 21
1545.642057636909
 31
0.0
1001
GENIUS_GENODEF_13
1002
{
1000
HIER
1070
     0
1002
}
1002
{
1000
MANEDIT
1070
     0
1002
}
1002
{
1000
NOSEL
1070
     0
1002
}
1002
{
1000
BEHIND
1070
     0
1002
}
1002
{
1000
OTHER
1070
     0
1002
}
1002
{
1000
REACTOR
1002
}
1001
GENIUS_GENOBJ-N-CEN_13
1002
{
1000
OWNER
1000
GEN
1002
}
1001
GENIUS_GENCEN_19
1002
{
1040
3.0
1002
}
  0
LINE
  5
C9A2
330
1F
100
AcDbEntity
  8
AM_7
 48
0.5
100
AcDbLine
 10
1674.945121349204
 20
1519.892057636909
 30
0.0
 11
1660.445121349204
 21
1519.892057636909
 31
0.0
1001
GENIUS_GENODEF_13
1002
{
1000
HIER
1070
     0
1002
}
1002
{
1000
MANEDIT
1070
     0
1002
}
1002
{
1000
NOSEL
1070
     0
1002
}
1002
{
1000
BEHIND
1070
     0
1002
}
1002
{
1000
OTHER
1070
     0
1002
}
1002
{
1000
REACTOR
1002
}
1001
GENIUS_GENOBJ-N-CEN_13
1002
{
1000
OWNER
1000
GEN
1002
}
1001
GENIUS_GENCEN_19
1002
{
1040
3.0
1002
}
  0
LINE
  5
C9A3
330
1F
100
AcDbEntity
  8
AM_7
 48
0.5
100
AcDbLine
 10
1667.695121349204
 20
1512.642057636909
 30
0.0
 11
1667.695121349204
 21
1527.142057636909
 31
0.0
1001
GENIUS_GENODEF_13
1002
{
1000
HIER
1070
     0
1002
}
1002
{
1000
MANEDIT
1070
     0
1002
}
1002
{
1000
NOSEL
1070
     0
1002
}
1002
{
1000
BEHIND
1070
     0
1002
}
1002
{
1000
OTHER
1070
     0
1002
}
1002
{
1000
REACTOR
1002
}
1001
GENIUS_GENOBJ-N-CEN_13
1002
{
1000
OWNER
1000
GEN
1002
}
1001
GENIUS_GENCEN_19
1002
{
1040
3.0
1002
}
  0
LINE
  5
C9A4
330
1F
100
AcDbEntity
  8
AM_7
 48
0.5
100
AcDbLine
 10
1682.945121349204
 20
1501.392057636909
 30
0.0
 11
1668.445121349204
 21
1501.392057636909
 31
0.0
1001
GENIUS_GENODEF_13
1002
{
1000
HIER
1070
     0
1002
}
1002
{
1000
MANEDIT
1070
     0
1002
}
1002
{
1000
NOSEL
1070
     0
1002
}
1002
{
1000
BEHIND
1070
     0
1002
}
1002
{
1000
OTHER
1070
     0
1002
}
1002
{
1000
REACTOR
1002
}
1001
GENIUS_GENOBJ-N-CEN_13
1002
{
1000
OWNER
1000
GEN
1002
}
1001
GENIUS_GENCEN_19
1002
{
1040
3.0
1002
}
  0
LINE
  5
C9A5
330
1F
100
AcDbEntity
  8
AM_7
 48
0.5
100
AcDbLine
 10
1675.695121349204
 20
1494.142057636909
 30
0.0
 11
1675.695121349204
 21
1508.642057636909
 31
0.0
1001
GENIUS_GENODEF_13
1002
{
1000
HIER
1070
     0
1002
}
1002
{
1000
MANEDIT
1070
     0
1002
}
1002
{
1000
NOSEL
1070
     0
1002
}
1002
{
1000
BEHIND
1070
     0
1002
}
1002
{
1000
OTHER
1070
     0
1002
}
1002
{
1000
REACTOR
1002
}
1001
GENIUS_GENOBJ-N-CEN_13
1002
{
1000
OWNER
1000
GEN
1002
}
1001
GENIUS_GENCEN_19
1002
{
1040
3.0
1002
}
  0
LINE
  5
C9A6
330
1F
100
AcDbEntity
  8
AM_7
 48
0.5
100
AcDbLine
 10
1666.945121349204
 20
1501.392057636909
 30
0.0
 11
1652.445121349204
 21
1501.392057636909
 31
0.0
1001
GENIUS_GENODEF_13
1002
{
1000
HIER
1070
     0
1002
}
1002
{
1000
MANEDIT
1070
     0
1002
}
1002
{
1000
NOSEL
1070
     0
1002
}
1002
{
1000
BEHIND
1070
     0
1002
}
1002
{
1000
OTHER
1070
     0
1002
}
1002
{
1000
REACTOR
1002
}
1001
GENIUS_GENOBJ-N-CEN_13
1002
{
1000
OWNER
1000
GEN
1002
}
1001
GENIUS_GENCEN_19
1002
{
1040
3.0
1002
}
  0
LINE
  5
C9A7
330
1F
100
AcDbEntity
  8
AM_7
 48
0.5
100
AcDbLine
 10
1659.695121349204
 20
1494.142057636909
 30
0.0
 11
1659.695121349204
 21
1508.642057636909
 31
0.0
1001
GENIUS_GENODEF_13
1002
{
1000
HIER
1070
     0
1002
}
1002
{
1000
MANEDIT
1070
     0
1002
}
1002
{
1000
NOSEL
1070
     0
1002
}
1002
{
1000
BEHIND
1070
     0
1002
}
1002
{
1000
OTHER
1070
     0
1002
}
1002
{
1000
REACTOR
1002
}
1001
GENIUS_GENOBJ-N-CEN_13
1002
{
1000
OWNER
1000
GEN
1002
}
1001
GENIUS_GENCEN_19
1002
{
1040
3.0
1002
}
  0
DIMENSION
  5
C9A9
330
1F
100
AcDbEntity
  8
AM_5
100
AcDbDimension
  2
*D29
 10
1618.195121349204
 20
1500.39205763691
 30
0.0
 11
1611.330459622383
 21
1500.39205763691
 31
0.0
 70
   160
  1
%%c<>
 71
     5
 42
22.0
  3
SYS$0
100
AcDbAlignedDimension
 13
1640.195121349204
 23
1512.392057636909
 33
0.0
 14
1618.195121349204
 24
1512.392057636909
 34
0.0
 50
180.0
100
AcDbRotatedDimension
1001
ACAD
1000
DSTYLE
1002
{
1070
   343
1005
6C4
1070
   173
1070
     1
1070
   344
1005
6C4
1070
    41
1040
1.0
1070
   342
1005
0
1002
}
  0
DIMENSION
  5
C9AA
330
1F
100
AcDbEntity
  8
AM_5
100
AcDbDimension
  2
*D30
 10
1694.445121349204
 20
1465.392057636909
 30
0.0
 11
1691.345121349204
 21
1483.39205763691
 31
0.0
 70
    32
  1
<>
 71
     5
 42
36.0
  3
SYS$0
100
AcDbAlignedDimension
 13
1682.945121349204
 23
1501.392057636909
 33
0.0
 14
1677.195121349204
 24
1465.392057636909
 34
0.0
 50
90.0
100
AcDbRotatedDimension
  0
DIMENSION
  5
C9AB
330
1F
100
AcDbEntity
  8
AM_5
100
AcDbDimension
  2
*D31
 10
1704.445121349204
 20
1546.392057636909
 30
0.0
 11
1701.345121349204
 21
1505.89205763691
 31
0.0
 70
    32
  1
<>
 71
     5
 42
81.0
  3
SYS$0
100
AcDbAlignedDimension
 13
1677.195121349204
 23
1465.392057636909
 33
0.0
 14
1677.195121349204
 24
1546.392057636909
 34
0.0
 50
90.0
100
AcDbRotatedDimension
1001
ACAD
1000
DSTYLE
1002
{
1070
    47
1040
0.2
1070
    48
1040
0.2
1002
}
  0
DIMENSION
  5
C9AC
330
1F
100
AcDbEntity
  8
AM_5
100
AcDbDimension
  2
*D32
 10
1694.445121349204
 20
1546.392057636909
 30
0.0
 11
1691.345121349204
 21
1542.39205763691
 31
0.0
 70
    32
  1
<>
 71
     5
 42
8.0
  3
SYS$0
100
AcDbAlignedDimension
 13
1682.945121349204
 23
1538.392057636909
 33
0.0
 14
1677.195121349204
 24
1546.392057636909
 34
0.0
 50
90.0
100
AcDbRotatedDimension
1001
ACAD
1000
DSTYLE
1002
{
1070
    47
1040
0.2
1070
    48
1040
0.2
1070
   279
1070
     1
1002
}
  0
DIMENSION
  5
C9AD
330
1F
100
AcDbEntity
  8
AM_5
100
AcDbDimension
  2
*D33
 10
1694.445121349204
 20
1519.892057636909
 30
0.0
 11
1691.345121349204
 21
1510.64205763691
 31
0.0
 70
    32
  1
<>
 71
     5
 42
18.5
  3
SYS$0
100
AcDbAlignedDimension
 13
1682.945121349204
 23
1501.392057636909
 33
0.0
 14
1674.945121349204
 24
1519.892057636909
 34
0.0
 50
90.0
100
AcDbRotatedDimension
1001
ACAD
1000
DSTYLE
1002
{
1070
    47
1040
0.2
1070
    48
1040
0.2
1002
}
  0
DIMENSION
  5
C9AE
330
1F
100
AcDbEntity
  8
AM_5
100
AcDbDimension
  2
*D34
 10
1694.445121349204
 20
1538.392057636909
 30
0.0
 11
1691.345121349204
 21
1529.14205763691
 31
0.0
 70
    32
  1
<>
 71
     5
 42
18.5
  3
SYS$0
100
AcDbAlignedDimension
 13
1674.945121349204
 23
1519.892057636909
 33
0.0
 14
1682.945121349204
 24
1538.392057636909
 34
0.0
 50
90.0
100
AcDbRotatedDimension
1001
ACAD
1000
DSTYLE
1002
{
1070
    47
1040
0.2
1070
    48
1040
0.2
1002
}
  0
DIMENSION
  5
C9AF
330
1F
100
AcDbEntity
  8
AM_5
100
AcDbDimension
  2
*D35
 10
1564.195120349204
 20
1602.392057636909
 30
0.0
 11
1561.095120349204
 21
1608.89205763691
 31
0.0
 70
    32
  1
<>
 71
     5
 42
13.0
  3
SYS$0
100
AcDbAlignedDimension
 13
1582.195121349204
 23
1615.392057636909
 33
0.0
 14
1575.445121349204
 24
1602.392057636909
 34
0.0
 50
90.0
100
AcDbRotatedDimension
  0
DIMENSION
  5
C9B0
330
1F
100
AcDbEntity
  8
AM_5
100
AcDbDimension
  2
*D36
 10
1564.195120349203
 20
1565.392057636909
 30
0.0
 11
1561.095120349203
 21
1574.64205763691
 31
0.0
 70
    32
  1
<>
 71
     5
 42
18.5
  3
SYS$0
100
AcDbAlignedDimension
 13
1583.445121349204
 23
1583.892057636909
 33
0.0
 14
1575.445121349204
 24
1565.392057636909
 34
0.0
 50
90.0
100
AcDbRotatedDimension
1001
ACAD
1000
DSTYLE
1002
{
1070
    47
1040
0.2
1070
    48
1040
0.2
1002
}
  0
DIMENSION
  5
C9B1
330
1F
100
AcDbEntity
  8
AM_5
100
AcDbDimension
  2
*D37
 10
1564.195120349203
 20
1556.392057636909
 30
0.0
 11
1561.095120349203
 21
1560.89205763691
 31
0.0
 70
    32
  1
<>
 71
     5
 42
9.0
  3
SYS$0
100
AcDbAlignedDimension
 13
1575.445121349204
 23
1565.392057636909
 33
0.0
 14
1581.195121349204
 24
1556.392057636909
 34
0.0
 50
90.0
100
AcDbRotatedDimension
1001
ACAD
1000
DSTYLE
1002
{
1070
    47
1040
0.2
1070
    48
1040
0.2
1070
   279
1070
     1
1002
}
  0
DIMENSION
  5
C9B2
330
1F
100
AcDbEntity
  8
AM_5
100
AcDbDimension
  2
*D38
 10
1554.195120349203
 20
1521.392057636909
 30
0.0
 11
1551.095120349203
 21
1538.89205763691
 31
0.0
 70
    32
 71
     5
 42
35.0
  3
SYS$0
100
AcDbAlignedDimension
 13
1582.195121349204
 23
1556.392057636909
 33
0.0
 14
1612.195121349204
 24
1521.392057636909
 34
0.0
 50
90.0
100
AcDbRotatedDimension
  0
DIMENSION
  5
C9B3
330
1F
100
AcDbEntity
  8
AM_5
100
AcDbDimension
  2
*D39
 10
1564.195120349204
 20
1583.892057636909
 30
0.0
 11
1561.095120349204
 21
1593.14205763691
 31
0.0
 70
    32
  1
<>
 71
     5
 42
18.5
  3
SYS$0
100
AcDbAlignedDimension
 13
1575.445121349204
 23
1602.392057636909
 33
0.0
 14
1583.445121349204
 24
1583.892057636909
 34
0.0
 50
90.0
100
AcDbRotatedDimension
1001
ACAD
1000
DSTYLE
1002
{
1070
    47
1040
0.2
1070
    48
1040
0.2
1002
}
  0
DIMENSION
  5
C9B4
330
1F
100
AcDbEntity
  8
AM_5
100
AcDbDimension
  2
*D40
 10
1554.195120349203
 20
1615.392057636909
 30
0.0
 11
1551.095120349202
 21
1585.89205763691
 31
0.0
 70
    32
  1
<>
 71
     5
 42
59.0
  3
SYS$0
100
AcDbAlignedDimension
 13
1582.195121349204
 23
1556.392057636909
 33
0.0
 14
1582.195121349204
 24
1615.392057636909
 34
0.0
 50
90.0
100
AcDbRotatedDimension
1001
ACAD
1000
DSTYLE
1002
{
1070
    47
1040
0.2
1070
    48
1040
0.2
1002
}
  0
DIMENSION
  5
C9B9
330
1F
100
AcDbEntity
  8
AM_5
100
AcDbDimension
  2
*D41
 10
1576.195121349204
 20
1630.39205863691
 30
0.0
 11
1602.695121349204
 21
1633.49205863691
 31
0.0
 70
    32
 71
     5
 42
53.0
  3
SYS$0
100
AcDbAlignedDimension
 13
1629.195121349204
 23
1621.39205763691
 33
0.0
 14
1576.195121349204
 24
1609.39205763691
 34
0.0
100
AcDbRotatedDimension
1001
ACAD
1000
DSTYLE
1002
{
1070
    47
1040
0.5
1002
}
  0
DIMENSION
  5
C9BA
330
1F
100
AcDbEntity
  8
AM_5
100
AcDbDimension
  2
*D42
 10
1682.195121349204
 20
1630.392058636909
 30
0.0
 11
1655.695121349204
 21
1633.492058636909
 31
0.0
 70
    32
 71
     5
 42
53.0
  3
SYS$0
100
AcDbAlignedDimension
 13
1629.195121349204
 23
1621.39205763691
 33
0.0
 14
1682.195121349204
 24
1541.392057636909
 34
0.0
100
AcDbRotatedDimension
1001
ACAD
1000
DSTYLE
1002
{
1070
    47
1040
0.5
1002
}
  0
DIMENSION
  5
C9BB
330
1F
100
AcDbEntity
  8
AM_5
100
AcDbDimension
  2
*D43
 10
1576.195121349204
 20
1640.392058636909
 30
0.0
 11
1629.195121349204
 21
1643.492058636909
 31
0.0
 70
    32
 71
     5
 42
106.0
  3
SYS$0
100
AcDbAlignedDimension
 13
1682.195121349204
 23
1541.392057636909
 33
0.0
 14
1576.195121349204
 24
1609.39205763691
 34
0.0
100
AcDbRotatedDimension
1001
ACAD
1000
DSTYLE
1002
{
1070
    47
1040
0.5
1002
}
  0
DIMENSION
  5
C9BC
330
1F
100
AcDbEntity
  8
AM_5
100
AcDbDimension
  2
*D44
 10
1714.445121349204
 20
1465.392057636909
 30
0.0
 11
1711.345121349204
 21
1540.39205763691
 31
0.0
 70
    32
 71
     5
 42
150.0
  3
SYS$0
100
AcDbAlignedDimension
 13
1639.195121349204
 23
1615.392057636909
 33
0.0
 14
1677.195121349204
 24
1465.392057636909
 34
0.0
 50
90.0
100
AcDbRotatedDimension
1001
ACAD
1000
DSTYLE
1002
{
1070
    47
1040
0.5
1002
}
  0
DIMENSION
  5
C9BD
330
1F
100
AcDbEntity
  8
AM_5
100
AcDbDimension
  2
*D45
 10
1675.695121349204
 20
1453.392057636909
 30
0.0
 11
1671.695121349204
 21
1456.492057636909
 31
0.0
 70
    32
 71
     5
 42
8.0
  3
SYS$0
100
AcDbAlignedDimension
 13
1667.695121349204
 23
1512.642057636909
 33
0.0
 14
1675.695121349204
 24
1494.142057636909
 34
0.0
100
AcDbRotatedDimension
1001
ACAD
1000
DSTYLE
1002
{
1070
    47
1040
0.5
1002
}
  0
DIMENSION
  5
C9BE
330
1F
100
AcDbEntity
  8
AM_5
100
AcDbDimension
  2
*D46
 10
1659.695121349204
 20
1453.392057636909
 30
0.0
 11
1663.695121349204
 21
1456.492057636909
 31
0.0
 70
    32
 71
     5
 42
8.0
  3
SYS$0
100
AcDbAlignedDimension
 13
1667.695121349204
 23
1512.642057636909
 33
0.0
 14
1659.695121349204
 24
1494.142057636909
 34
0.0
100
AcDbRotatedDimension
1001
ACAD
1000
DSTYLE
1002
{
1070
    47
1040
0.5
1002
}
  0
DIMENSION
  5
C9BF
330
1F
100
AcDbEntity
  8
AM_5
100
AcDbDimension
  2
*D47
 10
1659.695121349204
 20
1443.392057636909
 30
0.0
 11
1667.695121349204
 21
1446.492057636909
 31
0.0
 70
    32
 71
     5
 42
16.0
  3
SYS$0
100
AcDbAlignedDimension
 13
1675.695121349204
 23
1494.142057636909
 33
0.0
 14
1659.695121349204
 24
1494.142057636909
 34
0.0
100
AcDbRotatedDimension
1001
ACAD
1000
DSTYLE
1002
{
1070
    47
1040
0.5
1002
}
  0
DIMENSION
  5
C9C0
330
1F
100
AcDbEntity
  8
AM_5
100
AcDbDimension
  2
*D48
 10
1682.195121349204
 20
1443.392057636909
 30
0.0
 11
1686.988454682537
 21
1446.492057636909
 31
0.0
 70
    32
 71
     5
 42
6.5
  3
SYS$0
100
AcDbAlignedDimension
 13
1675.695121349204
 23
1494.142057636909
 33
0.0
 14
1682.195121349204
 24
1470.39205763691
 34
0.0
100
AcDbRotatedDimension
1001
ACAD
1000
DSTYLE
1002
{
1070
    47
1040
0.5
1002
}
  0
DIMENSION
  5
C9C1
330
1F
100
AcDbEntity
  8
AM_5
100
AcDbDimension
  2
*D49
 10
1629.195121349204
 20
1443.392057636909
 30
0.0
 11
1644.445121349204
 21
1446.492057636909
 31
0.0
 70
    32
 71
     5
 42
30.5
  3
SYS$0
100
AcDbAlignedDimension
 13
1659.695121349204
 23
1494.142057636909
 33
0.0
 14
1629.195121349204
 24
1459.392057636909
 34
0.0
100
AcDbRotatedDimension
1001
ACAD
1000
DSTYLE
1002
{
1070
    47
1040
0.5
1002
}
  0
DIMENSION
  5
CBF7
330
1F
100
AcDbEntity
  8
AM_5
100
AcDbDimension
  2
*D50
 10
1554.195120349202
 20
1512.392057636909
 30
0.0
 11
1551.095120349202
 21
1516.89205763691
 31
0.0
 70
    32
 71
     5
 42
9.0
  3
SYS$0
100
AcDbAlignedDimension
 13
1612.195121349204
 23
1521.392057636909
 33
0.0
 14
1618.195121349204
 24
1512.392057636909
 34
0.0
 50
90.00000000000003
100
AcDbRotatedDimension
  0
DIMENSION
  5
CC0D
330
1F
100
AcDbEntity
  8
AM_5
100
AcDbDimension
  2
*D51
 10
1576.195121349204
 20
1544.392057636909
 30
0.0
 11
1591.695121349204
 21
1547.492057636909
 31
0.0
 70
    32
 71
     5
 42
31.0
  3
SYS$0
100
AcDbAlignedDimension
 13
1607.195121349204
 23
1526.39205763691
 33
0.0
 14
1576.195121349204
 24
1561.39205763691
 34
0.0
 50
0.0000000000001132
100
AcDbRotatedDimension
  0
LINE
  5
CC49
330
1F
100
AcDbEntity
  8
AM_5
100
AcDbLine
 10
1613.28198227718
 20
1473.175191364911
 30
0.0
 11
1656.063575301155
 21
1499.184259344288
 31
0.0
  0
LINE
  5
CC4A
330
1F
100
AcDbEntity
  8
AM_5
100
AcDbLine
 10
1663.326667397253
 20
1503.599855929531
 30
0.0
 11
1656.063575301155
 21
1499.184259344288
 31
0.0
  0
INSERT
  5
CC4B
330
1F
100
AcDbEntity
  8
AM_5
100
AcDbBlockReference
  2
_DotSmall
 10
1663.326667397253
 20
1503.599855929531
 30
0.0
 41
2.999999999999762
 42
2.999999999999994
 43
3.0
 50
211.297508222058
  0
LINE
  5
CC4C
330
1F
100
AcDbEntity
  8
AM_5
100
AcDbLine
 10
1579.861982277177
 20
1473.175191364911
 30
0.0
 11
1613.281982277179
 21
1473.175191364911
 31
0.0
  0
MTEXT
  5
CC4D
330
1F
100
AcDbEntity
  8
AM_5
 62
     2
100
AcDbMText
 10
1595.821982277177
 20
1476.425191364911
 30
0.0
 40
3.5
 41
0.0
 71
     5
 72
     1
  1
10-%%c5.5×\U+22058.5サラ
 73
     1
 44
1.0
1001
ACAD
1000
MTEXTBEGIN
1070
    73
1070
     1
1070
    44
1040
1.0
1070
    74
1070
     0
1000
MTEXTEND
  0
INSERT
  5
CC4E
330
1F
100
AcDbEntity
  8
AM_5
100
AcDbBlockReference
  2
_DotSmall
 10
1656.063575301156
 20
1499.184259344288
 30
0.0
 41
2.999999999999762
 42
2.999999999999994
 43
3.0
 50
31.29750822205798
  0
LINE
  5
CD60
330
1F
100
AcDbEntity
  8
AM_0
100
AcDbLine
 10
1618.240670199101
 20
1701.580297614965
 30
0.0
 11
1576.195121349204
 21
1701.580297614965
 31
0.0
  0
LINE
  5
CD61
330
1F
100
AcDbEntity
  8
AM_0
100
AcDbLine
 10
1618.378467522812
 20
1704.580297614965
 30
0.0
 11
1576.195121349204
 21
1704.580297614965
 31
0.0
  0
LINE
  5
CD62
330
1F
100
AcDbEntity
  8
AM_7
100
AcDbLine
 10
1685.195121349204
 20
1703.080297614965
 30
0.0
 11
1573.195121349204
 21
1703.080297614965
 31
0.0
1001
GENIUS_GENOBJ-N-CEN_13
1002
{
1000
OWNER
1000
GEN
1002
}
1001
GENIUS_GENODEF_13
1002
{
1000
HIER
1070
     0
1002
}
1002
{
1000
MANEDIT
1070
     0
1002
}
1002
{
1000
NOSEL
1070
     0
1002
}
1002
{
1000
BEHIND
1070
     0
1002
}
1002
{
1000
OTHER
1070
     0
1002
}
1002
{
1000
REACTOR
1002
}
  0
LINE
  5
CD63
330
1F
100
AcDbEntity
  8
AM_7
 48
0.55
100
AcDbLine
 10
1598.695121349204
 20
1697.580297614965
 30
0.0
 11
1598.695121349204
 21
1708.580297614965
 31
0.0
1001
GENIUS_GENODEF_13
1002
{
1000
HIER
1070
     0
1002
}
1002
{
1000
MANEDIT
1070
     0
1002
}
1002
{
1000
NOSEL
1070
     0
1002
}
1002
{
1000
BEHIND
1070
     0
1002
}
1002
{
1000
OTHER
1070
     0
1002
}
1002
{
1000
REACTOR
1002
}
1001
GENIUS_GENOBJ-N-CEN_13
1002
{
1000
OWNER
1000
GEN
1002
}
  0
LINE
  5
CD64
330
1F
100
AcDbEntity
  8
AM_7
 48
0.55
100
AcDbLine
 10
1590.695121349204
 20
1697.580297614965
 30
0.0
 11
1590.695121349204
 21
1708.580297614965
 31
0.0
1001
GENIUS_GENODEF_13
1002
{
1000
HIER
1070
     0
1002
}
1002
{
1000
MANEDIT
1070
     0
1002
}
1002
{
1000
NOSEL
1070
     0
1002
}
1002
{
1000
BEHIND
1070
     0
1002
}
1002
{
1000
OTHER
1070
     0
1002
}
1002
{
1000
REACTOR
1002
}
1001
GENIUS_GENOBJ-N-CEN_13
1002
{
1000
OWNER
1000
GEN
1002
}
  0
LINE
  5
CD65
330
1F
100
AcDbEntity
  8
AM_7
 48
0.55
100
AcDbLine
 10
1582.695121349204
 20
1697.580297614965
 30
0.0
 11
1582.695121349204
 21
1708.580297614965
 31
0.0
1001
GENIUS_GENODEF_13
1002
{
1000
HIER
1070
     0
1002
}
1002
{
1000
MANEDIT
1070
     0
1002
}
1002
{
1000
NOSEL
1070
     0
1002
}
1002
{
1000
BEHIND
1070
     0
1002
}
1002
{
1000
OTHER
1070
     0
1002
}
1002
{
1000
REACTOR
1002
}
1001
GENIUS_GENOBJ-N-CEN_13
1002
{
1000
OWNER
1000
GEN
1002
}
  0
LINE
  5
CD66
330
1F
100
AcDbEntity
  8
AM_0
 48
0.15
100
AcDbLine
 10
1576.195121349204
 20
1702.580297614965
 30
0.0
 11
1576.195121349204
 21
1704.580297614965
 31
0.0
  0
LINE
  5
CD67
330
1F
100
AcDbEntity
  8
AM_0
 48
0.15
100
AcDbLine
 10
1576.195121349204
 20
1701.580297614965
 30
0.0
 11
1576.195121349204
 21
1704.580297614965
 31
0.0
  0
CIRCLE
  5
CD68
330
1F
100
AcDbEntity
  8
AM_0
 48
0.9
100
AcDbCircle
 10
1629.195121349204
 20
1703.080297614965
 30
0.0
 40
9.0
  0
ARC
  5
CD69
330
1F
100
AcDbEntity
  8
AM_0
100
AcDbCircle
 10
1629.195121349204
 20
1703.080297614965
 30
0.0
 40
10.0
100
AcDbArc
 50
8.626926558672206
 51
351.3730734413277
  0
ARC
  5
CD6A
330
1F
100
AcDbEntity
  8
001
100
AcDbCircle
 10
1629.195121349204
 20
1703.080297614965
 30
0.0
 40
11.0
100
AcDbArc
 50
7.837479763077054
 51
352.1625202369229
  0
LINE
  5
CD6B
330
1F
100
AcDbEntity
  8
AM_7
100
AcDbLine
 10
1629.195121349204
 20
1688.080297614965
 30
0.0
 11
1629.195121349204
 21
1718.080297614965
 31
0.0
1001
GENIUS_GENODEF_13
1002
{
1000
HIER
1070
     0
1002
}
1002
{
1000
MANEDIT
1070
     0
1002
}
1002
{
1000
NOSEL
1070
     0
1002
}
1002
{
1000
BEHIND
1070
     0
1002
}
1002
{
1000
OTHER
1070
     0
1002
}
1002
{
1000
REACTOR
1002
}
1001
GENIUS_GENOBJ-N-CEN_13
1002
{
1000
OWNER
1000
GEN
1002
}
  0
LINE
  5
CD6C
330
1F
100
AcDbEntity
  8
AM_0
100
AcDbLine
 10
1638.993080320337
 20
1701.580297614965
 30
0.0
 11
1682.195121349204
 21
1701.580297614965
 31
0.0
  0
LINE
  5
CD6D
330
1F
100
AcDbEntity
  8
AM_0
100
AcDbLine
 10
1638.993080320337
 20
1704.580297614965
 30
0.0
 11
1682.195121349204
 21
1704.580297614965
 31
0.0
  0
ARC
  5
CD6E
330
1F
100
AcDbEntity
  8
AM_0
100
AcDbCircle
 10
1638.993080320337
 20
1704.580297614965
 30
0.0
 40
3.0
100
AcDbArc
 50
252.5121016671695
 51
270.0
1001
GENIUS_GENOBJ-N-FIL_13
1002
{
1000
OWNER
1000
GEN
1002
}
1001
GENIUS_GENODEF_13
1002
{
1000
HIER
1070
     0
1002
}
1002
{
1000
MANEDIT
1070
     0
1002
}
1002
{
1000
NOSEL
1070
     0
1002
}
1002
{
1000
BEHIND
1070
     0
1002
}
1002
{
1000
OTHER
1070
     0
1002
}
1002
{
1000
REACTOR
1002
}
  0
LINE
  5
CD6F
330
1F
100
AcDbEntity
  8
AM_0
100
AcDbLine
 10
1638.061863941334
 20
1701.537288929016
 30
0.0
 11
1639.056379697465
 21
1701.420302497846
 31
0.0
  0
LINE
  5
CD70
330
1F
100
AcDbEntity
  8
AM_0
 48
0.15
100
AcDbLine
 10
1682.195121349204
 20
1702.580297614965
 30
0.0
 11
1682.195121349204
 21
1704.580297614965
 31
0.0
  0
LINE
  5
CD71
330
1F
100
AcDbEntity
  8
AM_0
 48
0.15
100
AcDbLine
 10
1682.195121349204
 20
1701.580297614965
 30
0.0
 11
1682.195121349204
 21
1704.580297614965
 31
0.0
  0
DIMENSION
  5
CD72
330
1F
100
AcDbEntity
  8
AM_5
100
AcDbDimension
  2
*D52
 10
1704.445121349204
 20
1704.580297614965
 30
0.0
 11
1701.345121349204
 21
1708.826964281632
 31
0.0
 70
    32
 71
     5
 42
3.0
  3
SYS$0
100
AcDbAlignedDimension
 13
1682.195121349204
 23
1701.580297614965
 33
0.0
 14
1682.195121349204
 24
1704.580297614965
 34
0.0
 50
90.0
100
AcDbRotatedDimension
1001
ACAD
1000
DSTYLE
1002
{
1070
    47
1040
0.5
1002
}
  0
CIRCLE
  5
CD73
330
1F
100
AcDbEntity
  8
AM_0
100
AcDbCircle
 10
1629.195121349204
 20
1703.080297614965
 30
0.0
 40
10.0
  0
DIMENSION
  5
CD74
330
1F
100
AcDbEntity
  8
AM_5
100
AcDbDimension
  2
*D53
 10
1636.568448912781
 20
1709.835594843082
 30
0.0
 11
1604.207078824555
 21
1684.393540501705
 31
0.0
 70
   163
 71
     5
 42
20.0
  3
SYS$3
100
AcDbDiametricDimension
 15
1621.821793785628
 25
1696.325000386849
 35
0.0
 40
0.0
1001
ACAD
1000
DSTYLE
1002
{
1070
    41
1040
4.0
1070
    47
1040
0.5
1070
   172
1070
     1
1070
   342
1005
BBA7
1002
}
  0
LINE
  5
CD75
330
1F
100
AcDbEntity
  8
AM_7
 48
0.55
100
AcDbLine
 10
1659.695121349204
 20
1697.580297614965
 30
0.0
 11
1659.695121349204
 21
1708.580297614965
 31
0.0
1001
GENIUS_GENODEF_13
1002
{
1000
HIER
1070
     0
1002
}
1002
{
1000
MANEDIT
1070
     0
1002
}
1002
{
1000
NOSEL
1070
     0
1002
}
1002
{
1000
BEHIND
1070
     0
1002
}
1002
{
1000
OTHER
1070
     0
1002
}
1002
{
1000
REACTOR
1002
}
1001
GENIUS_GENOBJ-N-CEN_13
1002
{
1000
OWNER
1000
GEN
1002
}
  0
LINE
  5
CD76
330
1F
100
AcDbEntity
  8
AM_7
 48
0.55
100
AcDbLine
 10
1667.695121349204
 20
1697.580297614965
 30
0.0
 11
1667.695121349204
 21
1708.580297614965
 31
0.0
1001
GENIUS_GENODEF_13
1002
{
1000
HIER
1070
     0
1002
}
1002
{
1000
MANEDIT
1070
     0
1002
}
1002
{
1000
NOSEL
1070
     0
1002
}
1002
{
1000
BEHIND
1070
     0
1002
}
1002
{
1000
OTHER
1070
     0
1002
}
1002
{
1000
REACTOR
1002
}
1001
GENIUS_GENOBJ-N-CEN_13
1002
{
1000
OWNER
1000
GEN
1002
}
  0
LINE
  5
CD77
330
1F
100
AcDbEntity
  8
AM_7
 48
0.55
100
AcDbLine
 10
1675.695121349204
 20
1697.580297614965
 30
0.0
 11
1675.695121349204
 21
1708.580297614965
 31
0.0
1001
GENIUS_GENODEF_13
1002
{
1000
HIER
1070
     0
1002
}
1002
{
1000
MANEDIT
1070
     0
1002
}
1002
{
1000
NOSEL
1070
     0
1002
}
1002
{
1000
BEHIND
1070
     0
1002
}
1002
{
1000
OTHER
1070
     0
1002
}
1002
{
1000
REACTOR
1002
}
1001
GENIUS_GENOBJ-N-CEN_13
1002
{
1000
OWNER
1000
GEN
1002
}
  0
DIMENSION
  5
CDC8
330
1F
100
AcDbEntity
  8
AM_5
100
AcDbDimension
  2
*D54
 10
1682.195121349204
 20
1558.39205863691
 30
0.0
 11
1667.695121349204
 21
1561.49205863691
 31
0.0
 70
    32
 71
     5
 42
29.0
  3
SYS$0
100
AcDbAlignedDimension
 13
1653.195121349204
 23
1541.392057636909
 33
0.0
 14
1682.195121349204
 24
1541.392057636909
 34
0.0
100
AcDbRotatedDimension
  0
MTEXT
  5
CDDE
330
1F
100
AcDbEntity
  8
AM_6
100
AcDbMText
 10
1624.712795603972
 20
1413.02470663087
 30
0.0
 40
6.0
 41
18.53
 71
     1
 72
     5
  1
{\L上部}
 73
     1
 44
1.0
1001
ACAD
1000
MTEXTBEGIN
1070
    73
1070
     1
1070
    44
1040
1.0
1070
    74
1070
     0
1000
MTEXTEND
  0
ENDSEC
  0
SECTION
  2
OBJECTS
  0
DICTIONARY
  5
C
330
0
100
AcDbDictionary
281
     1
  3
ACAD_2007HEADERVARS_RT
350
CF02
  3
ACAD_BGPLOT_KEY
350
AB06
  3
ACAD_COLOR
350
A91D
  3
ACAD_GROUP
350
D
  3
ACAD_LAYOUT
350
1A
  3
ACAD_MATERIAL
350
A91C
  3
ACAD_MLINESTYLE
350
17
  3
ACAD_PLOTSETTINGS
350
19
  3
ACAD_PLOTSTYLENAME
350
E
  3
ACAD_TABLESTYLE
350
AAB9
  3
ACAD_VISUALSTYLE
350
B0F1
  3
AcAsAppObject
350
3DA1
  3
ACASGREF_MASTER
350
3DE9
  3
AcDbVariableDictionary
350
34
  3
AcmDictionary
350
47
  3
AD_GREF_MODULE
350
3DEA
  3
AD_MAPI_MODULE
350
3E06
  3
AMG
350
2B
  3
AMGSNAPSETTINGS
350
7D
  3
ASE_INDEX_DICTIONARY
350
B331
  3
DWGPROPS
350
CF01
  3
MAPISURF_MODULE
350
3DEB
  0
DICTIONARY
  5
3F95
330
2
100
AcDbDictionary
280
     1
281
     1
  3
ACAD_LAYERFILTERS
360
B426
  3
ACAD_LAYERSTATES
360
3F96
  3
ACLYDICTIONARY
360
B425
  3
AMLAYER_GROUPCOLORS
360
AAB4
  0
DICTIONARY
  5
8A
330
1F
100
AcDbDictionary
280
     1
281
     1
  3
ACAD_SORTENTS
360
B1BA
  0
DICTIONARY
  5
CF02
102
{ACAD_REACTORS
330
C
102
}
330
C
100
AcDbDictionary
281
     1
  3
DIMARCSYM
350
CF03
  0
DICTIONARY
  5
AB06
102
{ACAD_REACTORS
330
C
102
}
330
C
100
AcDbDictionary
280
     1
281
     1
  0
DICTIONARY
  5
A91D
102
{ACAD_REACTORS
330
C
102
}
330
C
100
AcDbDictionary
281
     1
  0
DICTIONARY
  5
D
102
{ACAD_REACTORS
330
C
102
}
330
C
100
AcDbDictionary
281
     1
  0
DICTIONARY
  5
1A
102
{ACAD_REACTORS
330
C
102
}
330
C
100
AcDbDictionary
281
     1
  3
Model
350
22
  3
ﾚｲｱｳﾄ1
350
1E
  3
ﾚｲｱｳﾄ2
350
26
  0
DICTIONARY
  5
A91C
102
{ACAD_REACTORS
330
C
102
}
330
C
100
AcDbDictionary
281
     1
  3
ByBlock
350
B0EF
  3
ByLayer
350
B0EE
  3
Global
350
B0F0
  0
DICTIONARY
  5
17
102
{ACAD_REACTORS
330
C
102
}
330
C
100
AcDbDictionary
281
     1
  3
Standard
350
18
  0
DICTIONARY
  5
19
102
{ACAD_REACTORS
330
C
102
}
330
C
100
AcDbDictionary
281
     1
  3
01 A3フィット
350
B46C
  3
02 A3
350
B46D
  3
03 A2フィット
350
B46E
  3
04 A2
350
B46F
  3
05 A1フィット
350
B470
  3
06 A1
350
B471
  3
06 A4フィット
350
B472
  3
07 A4
350
B473
  0
ACDBDICTIONARYWDFLT
  5
E
102
{ACAD_REACTORS
330
C
102
}
330
C
100
AcDbDictionary
281
     1
  3
Normal
350
F
100
AcDbDictionaryWithDefault
340
F
  0
DICTIONARY
  5
AAB9
102
{ACAD_REACTORS
330
C
102
}
330
C
100
AcDbDictionary
281
     1
  3
Standard
350
AABA
  0
DICTIONARY
  5
B0F1
102
{ACAD_REACTORS
330
C
102
}
330
C
100
AcDbDictionary
281
     1
  3
2dWireframe
350
B0F7
  3
3D Hidden
350
B0F9
  3
3dWireframe
350
B0F8
  3
Basic
350
B0F6
  3
Brighten
350
B0FD
  3
ColorChange
350
B101
  3
Conceptual
350
B0FA
  3
Dim
350
B0FC
  3
Facepattern
350
B100
  3
Flat
350
B0F2
  3
FlatWithEdges
350
B0F3
  3
Gouraud
350
B0F4
  3
GouraudWithEdges
350
B0F5
  3
Linepattern
350
B0FF
  3
Realistic
350
B0FB
  3
Thicken
350
B0FE
  0
ACAD_PROXY_OBJECT
  5
3DA1
102
{ACAD_REACTORS
330
C
102
}
330
C
100
AcDbProxyObject
 90
      499
 91
      576
 95
       23
 70
     0
 93
       10
310
407F
 94
        0
1001
ACAD
1000
AcRTDxfName
1000
ASAPP
  0
ACAD_PROXY_OBJECT
  5
3DE9
102
{ACAD_REACTORS
330
C
102
}
330
C
100
AcDbProxyObject
 90
      499
 91
      581
 95
       23
 70
     0
 93
       34
310
010000407F
 94
        0
1001
ACAD
1000
AcRTDxfName
1000
ACASGREFMASTER
  0
DICTIONARY
  5
34
102
{ACAD_REACTORS
330
C
102
}
330
C
100
AcDbDictionary
281
     1
  3
CTABLESTYLE
350
AAF3
  3
DIMASSOC
350
A10C
  3
FIELDEVAL
350
AB07
  3
INDEXCTL
350
35
  3
SORTENTS
350
194C
  0
DICTIONARY
  5
47
102
{ACAD_REACTORS
330
C
102
}
330
C
100
AcDbDictionary
281
     1
  3
AcmBOM
350
7E8
  3
AcmStdDictionary
350
4C
  3
AMDTSECTSYM_ARROWCOLOR
350
A929
  0
ACAD_PROXY_OBJECT
  5
3DEA
102
{ACAD_REACTORS
330
C
102
}
330
C
100
AcDbProxyObject
 90
      499
 91
      582
 95
       23
 70
     0
 93
      114
310
00000043800000000000000000003F
 94
        0
1001
ACAD
1000
AcRTDxfName
1000
ACADGREFMODULE
  0
ACAD_PROXY_OBJECT
  5
3E06
102
{ACAD_REACTORS
330
C
102
}
330
C
100
AcDbProxyObject
 90
      499
 91
      594
 95
       23
 70
     0
 93
       34
310
05000044FF
 94
        0
1001
ACAD
1000
AcRTDxfName
1000
MAPIADMODULE
  0
DICTIONARY
  5
2B
102
{ACAD_REACTORS
330
C
102
}
330
C
100
AcDbDictionary
281
     1
  0
DICTIONARY
  5
7D
102
{ACAD_REACTORS
330
C
102
}
330
C
100
AcDbDictionary
281
     1
  0
DICTIONARY
  5
B331
102
{ACAD_REACTORS
330
C
102
}
330
C
100
AcDbDictionary
281
     1
  3
ASEBlockHierarchyIndexRecord
350
B332
1001
DCO15
1040
1594111214.218
  0
XRECORD
  5
CF01
102
{ACAD_REACTORS
330
C
102
}
330
C
100
AcDbXrecord
280
     1
  1
DWGPROPS COOKIE
  2

  3

  4

  6

  7

  8
Administrator
  9

300
AmdtFileType=84
301
=
302
=
303
=
304
=
305
=
306
=
307
=
308
=
309
=
 40
0.0617578009259259
 41
2455349.629248217
 42
2455349.712552257
  1

 90
        1
  0
ACAD_PROXY_OBJECT
  5
3DEB
102
{ACAD_REACTORS
330
C
102
}
330
C
100
AcDbProxyObject
 90
      499
 91
      583
 95
       23
 70
     0
 93
        8
310
047E
 94
        0
1001
ACAD
1000
AcRTDxfName
1000
AMDTMAPISURFMOUDULE
  0
DICTIONARY
  5
B426
102
{ACAD_REACTORS
330
3F95
102
}
330
3F95
100
AcDbDictionary
281
     1
  0
DICTIONARY
  5
3F96
102
{ACAD_REACTORS
330
3F95
102
}
330
3F95
100
AcDbDictionary
281
     1
  3
20011210
350
3FB7
  0
DICTIONARY
  5
B425
102
{ACAD_REACTORS
330
3F95
102
}
330
3F95
100
AcDbDictionary
281
     1
1001
ACAD
1000
<All
  0
DICTIONARY
  5
AAB4
102
{ACAD_REACTORS
330
3F95
102
}
330
3F95
100
AcDbDictionary
280
     1
281
     1
  0
SORTENTSTABLE
  5
B1BA
102
{ACAD_REACTORS
330
8A
102
}
330
8A
100
AcDbSortentsTable
330
1F
331
B511
  5
B510
331
B51A
  5
B519
331
B515
  5
B514
331
B512
  5
B511
331
B50F
  5
B50E
331
B518
  5
B517
331
B516
  5
B515
331
B513
  5
B512
331
B510
  5
B50F
331
B519
  5
B518
331
B517
  5
B516
331
B514
  5
B513
  0
XRECORD
  5
CF03
102
{ACAD_REACTORS
330
CF02
102
}
330
CF02
100
AcDbXrecord
280
     1
 70
     1
  0
LAYOUT
  5
22
102
{ACAD_XDICTIONARY
360
CF06
102
}
102
{ACAD_REACTORS
330
1A
102
}
330
1A
100
AcDbPlotSettings
  1

  2
クセロPDF2
  4
A4
  6
AM_VIEW1
 40
3.174999952316284
 41
3.174999952316284
 42
3.175003051757812
 43
3.17498779296875
 44
209.9733276367187
 45
296.9259948730469
 46
0.0
 47
1.29722400222505
 48
1452.093689170056
 49
1357.984262209774
140
2046.093689170056
141
1777.984262209774
142
1.0
143
2.062632072026713
 70
  3764
 72
     1
 73
     1
 74
     4
  7
monochrome.ctb
 75
     0
147
0.4848174396015349
148
-1452.093689170056
149
-1357.984262209774
100
AcDbLayout
  1
Model
 70
     1
 71
     0
 10
0.0
 20
0.0
 11
12.0
 21
9.0
 12
0.0
 22
0.0
 32
0.0
 14
0.0
 24
0.0
 34
0.0
 15
0.0
 25
0.0
 35
0.0
146
0.0
 13
0.0
 23
0.0
 33
0.0
 16
1.0
 26
0.0
 36
0.0
 17
0.0
 27
1.0
 37
0.0
 76
     0
330
1F
331
B0EC
1001
ACAD_PSEXT
1000
クセロPDF2
1000
XeloPDF2
1000
Xelo PDF Port2
1000

1070
     0
  0
LAYOUT
  5
1E
102
{ACAD_XDICTIONARY
360
CF04
102
}
102
{ACAD_REACTORS
330
1A
102
}
330
1A
100
AcDbPlotSettings
  1

  2
\\ML370\XEROX
  4
A4
  6

 40
3.174999952316284
 41
3.174999952316284
 42
3.175003051757812
 43
3.17498779296875
 44
209.8674926757813
 45
296.6719970703125
 46
0.0
 47
0.0
 48
0.0
 49
0.0
140
0.0
141
0.0
142
1.0
143
1.0
 70
   688
 72
     1
 73
     1
 74
     5
  7
monochrome.ctb
 75
    16
147
1.0
148
0.0
149
0.0
100
AcDbLayout
  1
ﾚｲｱｳﾄ1
 70
     1
 71
     1
 10
-3.17498779296875
 20
-3.174999952316284
 11
293.4970092773438
 21
206.692492723465
 12
0.0
 22
0.0
 32
0.0
 14
1.000000000000000E+20
 24
1.000000000000000E+20
 34
1.000000000000000E+20
 15
-1.000000000000000E+20
 25
-1.000000000000000E+20
 35
-1.000000000000000E+20
146
0.0
 13
0.0
 23
0.0
 33
0.0
 16
1.0
 26
0.0
 36
0.0
 17
0.0
 27
1.0
 37
0.0
 76
     0
330
1B
  0
LAYOUT
  5
26
102
{ACAD_XDICTIONARY
360
CF08
102
}
102
{ACAD_REACTORS
330
1A
102
}
330
1A
100
AcDbPlotSettings
  1

  2
\\ML370\XEROX
  4

  6

 40
0.0
 41
0.0
 42
0.0
 43
0.0
 44
0.0
 45
0.0
 46
0.0
 47
0.0
 48
0.0
 49
0.0
140
0.0
141
0.0
142
1.0
143
1.0
 70
   688
 72
     0
 73
     0
 74
     5
  7
monochrome.ctb
 75
    16
147
1.0
148
0.0
149
0.0
100
AcDbLayout
  1
ﾚｲｱｳﾄ2
 70
     1
 71
     2
 10
0.0
 20
0.0
 11
12.0
 21
9.0
 12
0.0
 22
0.0
 32
0.0
 14
0.0
 24
0.0
 34
0.0
 15
0.0
 25
0.0
 35
0.0
146
0.0
 13
0.0
 23
0.0
 33
0.0
 16
1.0
 26
0.0
 36
0.0
 17
0.0
 27
1.0
 37
0.0
 76
     0
330
23
  0
MATERIAL
  5
B0EF
102
{ACAD_XDICTIONARY
360
CF0E
102
}
102
{ACAD_REACTORS
330
A91C
102
}
330
A91C
100
AcDbMaterial
  1
ByBlock
  0
MATERIAL
  5
B0EE
102
{ACAD_XDICTIONARY
360
CF0C
102
}
102
{ACAD_REACTORS
330
A91C
102
}
330
A91C
100
AcDbMaterial
  1
ByLayer
  0
MATERIAL
  5
B0F0
102
{ACAD_XDICTIONARY
360
CF10
102
}
102
{ACAD_REACTORS
330
A91C
102
}
330
A91C
100
AcDbMaterial
  1
Global
  0
MLINESTYLE
  5
18
102
{ACAD_REACTORS
330
17
102
}
330
17
100
AcDbMlineStyle
  2
STANDARD
 70
     0
  3

 62
   256
 51
90.0
 52
90.0
 71
     2
 49
0.5
 62
   256
  6
BYLAYER
 49
-0.5
 62
   256
  6
BYLAYER
  0
PLOTSETTINGS
  5
B46C
102
{ACAD_XDICTIONARY
360
CF12
102
}
102
{ACAD_REACTORS
330
19
102
}
330
19
100
AcDbPlotSettings
  1
01 A3フィット
  2
FX DocuWide 2050/2051
  4
A3
  6

 40
3.174999952316284
 41
3.174999952316284
 42
3.17498779296875
 43
3.17498779296875
 44
296.989501953125
 45
419.9889831542968
 46
0.0
 47
1.295841228961961
 48
214.3704939521119
 49
367.5855324241176
140
275.6727856380065
141
407.629191407817
142
1.0
143
1.445089120606129
 70
  3764
 72
     1
 73
     1
 74
     2
  7
monochrome.ctb
 75
     0
147
0.6919988433519999
148
0.0
149
0.0
1001
ACAD_PSEXT
1000
FX DocuWide 2050/2051
1000
FX DocuWide 2050/2051
1000
IP_192.200.15.252
1000

1070
     0
  0
PLOTSETTINGS
  5
B46D
102
{ACAD_XDICTIONARY
360
CF14
102
}
102
{ACAD_REACTORS
330
19
102
}
330
19
100
AcDbPlotSettings
  1
02 A3
  2
FX DocuWide 2050/2051
  4
A3
  6

 40
3.174999952316284
 41
3.174999952316284
 42
3.17498779296875
 43
3.17498779296875
 44
296.989501953125
 45
419.9889831542968
 46
-64.68024289608002
 47
-90.18050229549407
 48
214.3704939521119
 49
367.5855324241176
140
275.6727856380065
141
407.629191407817
142
1.0
143
1.0
 70
  3764
 72
     1
 73
     1
 74
     2
  7
monochrome.ctb
 75
    16
147
1.0
148
0.0
149
0.0
1001
ACAD_PSEXT
1000
FX DocuWide 2050/2051
1000
FX DocuWide 2050/2051
1000
IP_192.200.15.252
1000

1070
     0
  0
PLOTSETTINGS
  5
B46E
102
{ACAD_XDICTIONARY
360
CF16
102
}
102
{ACAD_REACTORS
330
19
102
}
330
19
100
AcDbPlotSettings
  1
03 A2フィット
  2
FX DocuWide 2050/2051
  4
User66
  6

 40
3.174999952316284
 41
3.174999952316284
 42
3.17498779296875
 43
3.17498779296875
 44
419.9889831542968
 45
593.97900390625
 46
0.0
 47
1.312647041252716
 48
214.3704939521119
 49
367.5855324241176
140
275.6727856380065
141
407.629191407817
142
1.0
143
1.015378155013403
 70
  3764
 72
     1
 73
     1
 74
     2
  7
monochrome.ctb
 75
     0
147
0.9848547509738377
148
0.0
149
0.0
1001
ACAD_PSEXT
1000
FX DocuWide 2050/2051
1000
FX DocuWide 2050/2051
1000
IP_192.200.15.252
1000

1070
     0
  0
PLOTSETTINGS
  5
B46F
102
{ACAD_XDICTIONARY
360
CF18
102
}
102
{ACAD_REACTORS
330
19
102
}
330
19
100
AcDbPlotSettings
  1
04 A2
  2
FX DocuWide 2050/2051
  4
User66
  6

 40
3.174999952316284
 41
3.174999952316284
 42
3.17498779296875
 43
3.17498779296875
 44
419.9889831542968
 45
593.97900390625
 46
-3.180502295494079
 47
-3.185491919517517
 48
214.3704939521119
 49
367.5855324241176
140
275.6727856380065
141
407.629191407817
142
1.0
143
1.0
 70
  3764
 72
     1
 73
     1
 74
     2
  7
monochrome.ctb
 75
    16
147
1.0
148
0.0
149
0.0
1001
ACAD_PSEXT
1000
FX DocuWide 2050/2051
1000
FX DocuWide 2050/2051
1000
IP_192.200.15.252
1000

1070
     0
  0
PLOTSETTINGS
  5
B470
102
{ACAD_XDICTIONARY
360
CF1A
102
}
102
{ACAD_REACTORS
330
19
102
}
330
19
100
AcDbPlotSettings
  1
05 A1フィット
  2
FX DocuWide 2050/2051
  4
User139
  6

 40
3.174999952316284
 41
3.174999952316284
 42
3.17498779296875
 43
3.17498779296875
 44
593.97900390625
 45
840.9939575195313
 46
0.0
 47
1.784323459012171
 48
214.3704939521119
 49
367.5855324241176
140
275.6727856380065
141
407.629191407817
142
1.0
143
0.7147366594384652
 70
  3764
 72
     1
 73
     1
 74
     2
  7
monochrome.ctb
 75
     0
147
1.399116705145154
148
0.0
149
0.0
1001
ACAD_PSEXT
1000
FX DocuWide 2050/2051
1000
FX DocuWide 2050/2051
1000
IP_192.200.15.252
1000

1070
     0
  0
PLOTSETTINGS
  5
B471
102
{ACAD_XDICTIONARY
360
CF1C
102
}
102
{ACAD_REACTORS
330
19
102
}
330
19
100
AcDbPlotSettings
  1
06 A1
  2
FX DocuWide 2050/2051
  4
User139
  6

 40
3.174999952316284
 41
3.174999952316284
 42
3.17498779296875
 43
3.17498779296875
 44
593.97900390625
 45
840.9939575195313
 46
83.81450808048247
 47
120.3219848871231
 48
214.3704939521119
 49
367.5855324241176
140
275.6727856380065
141
407.629191407817
142
1.0
143
1.0
 70
  3764
 72
     1
 73
     1
 74
     2
  7
monochrome.ctb
 75
    16
147
1.0
148
0.0
149
0.0
1001
ACAD_PSEXT
1000
FX DocuWide 2050/2051
1000
FX DocuWide 2050/2051
1000
IP_192.200.15.252
1000

1070
     0
  0
PLOTSETTINGS
  5
B472
102
{ACAD_XDICTIONARY
360
CF1E
102
}
102
{ACAD_REACTORS
330
19
102
}
330
19
100
AcDbPlotSettings
  1
06 A4フィット
  2
FX DocuWide 2050/2051
  4
A4
  6

 40
3.174999952316284
 41
3.174999952316284
 42
3.175003051757812
 43
3.17498779296875
 44
209.9944915771484
 45
296.989501953125
 46
0.0
 47
1.314011612960285
 48
214.3704939521119
 49
367.5855324241176
140
275.6727856380065
141
407.629191407817
142
1.0
143
2.06241771109504
 70
  3764
 72
     1
 73
     1
 74
     2
  7
monochrome.ctb
 75
     0
147
0.4848678299358913
148
0.0
149
0.0
1001
ACAD_PSEXT
1000
FX DocuWide 2050/2051
1000
FX DocuWide 2050/2051
1000
IP_192.200.15.252
1000

1070
     0
  0
PLOTSETTINGS
  5
B473
102
{ACAD_XDICTIONARY
360
CF20
102
}
102
{ACAD_REACTORS
330
19
102
}
330
19
100
AcDbPlotSettings
  1
07 A4
  2
FX DocuWide 2050/2051
  4
A4
  6

 40
3.174999952316284
 41
3.174999952316284
 42
3.175003051757812
 43
3.17498779296875
 44
209.9944915771484
 45
296.989501953125
 46
-108.1777557134628
 47
-151.68024289608
 48
214.3704939521119
 49
367.5855324241176
140
275.6727856380065
141
407.629191407817
142
1.0
143
1.0
 70
  3764
 72
     1
 73
     1
 74
     2
  7
monochrome.ctb
 75
    16
147
1.0
148
0.0
149
0.0
1001
ACAD_PSEXT
1000
FX DocuWide 2050/2051
1000
FX DocuWide 2050/2051
1000
IP_192.200.15.252
1000

1070
     0
  0
ACDBPLACEHOLDER
  5
F
102
{ACAD_REACTORS
330
E
102
}
330
E
  0
TABLESTYLE
  5
AABA
102
{ACAD_XDICTIONARY
360
CF0A
102
}
102
{ACAD_REACTORS
330
AAB9
102
}
330
AAB9
100
AcDbTableStyle
  3
Standard
 70
     0
 71
     0
 40
1.5
 41
1.5
280
     0
281
     0
  7
STANDARD
140
4.5
170
     2
 62
     0
 63
     7
283
     0
274
    -2
284
     1
 64
     0
275
    -2
285
     1
 65
     0
276
    -2
286
     1
 66
     0
277
    -2
287
     1
 67
     0
278
    -2
288
     1
 68
     0
279
    -2
289
     1
 69
     0
  7
STANDARD
140
6.0
170
     5
 62
     0
 63
     7
283
     0
274
    -2
284
     1
 64
     0
275
    -2
285
     1
 65
     0
276
    -2
286
     1
 66
     0
277
    -2
287
     1
 67
     0
278
    -2
288
     1
 68
     0
279
    -2
289
     1
 69
     0
  7
STANDARD
140
4.5
170
     5
 62
     0
 63
     7
283
     0
274
    -2
284
     1
 64
     0
275
    -2
285
     1
 65
     0
276
    -2
286
     1
 66
     0
277
    -2
287
     1
 67
     0
278
    -2
288
     1
 68
     0
279
    -2
289
     1
 69
     0
  0
VISUALSTYLE
  5
B0F7
102
{ACAD_REACTORS
330
B0F1
102
}
330
B0F1
100
AcDbVisualStyle
  2
2dWireframe
 70
     4
 71
     0
 72
     2
 73
     0
 90
        0
 40
-0.6
 41
-30.0
 62
     5
 63
     7
 74
     1
 91
        4
 64
     7
 65
   257
 75
     1
175
     1
 42
1.0
 92
        0
 66
   257
 43
1.0
 76
     1
 77
     6
 78
     2
 67
     7
 79
     5
170
     0
171
     0
290
     0
174
     0
 93
        1
 44
0.0
173
     0
291
     0
 45
0.0
1001
ACAD
1000
AcDbSavedByObjectVersion
1070
     0
  0
VISUALSTYLE
  5
B0F9
102
{ACAD_REACTORS
330
B0F1
102
}
330
B0F1
100
AcDbVisualStyle
  2
3D Hidden
 70
     6
 71
     1
 72
     2
 73
     2
 90
        0
 40
-0.6
 41
-30.0
 62
     5
 63
     7
 74
     2
 91
        2
 64
     7
 65
   257
 75
     2
175
     1
 42
40.0
 92
        0
 66
   257
 43
1.0
 76
     1
 77
     6
 78
     2
 67
     7
 79
     3
170
     0
171
     0
290
     0
174
     0
 93
        1
 44
0.0
173
     0
291
     0
 45
0.0
1001
ACAD
1000
AcDbSavedByObjectVersion
1070
     0
  0
VISUALSTYLE
  5
B0F8
102
{ACAD_REACTORS
330
B0F1
102
}
330
B0F1
100
AcDbVisualStyle
  2
3dWireframe
 70
     5
 71
     0
 72
     2
 73
     0
 90
        0
 40
-0.6
 41
-30.0
 62
     5
 63
     7
 74
     1
 91
        4
 64
     7
 65
   257
 75
     1
175
     1
 42
1.0
 92
        0
 66
   257
 43
1.0
 76
     1
 77
     6
 78
     2
 67
     7
 79
     5
170
     0
171
     0
290
     0
174
     0
 93
        1
 44
0.0
173
     0
291
     0
 45
0.0
1001
ACAD
1000
AcDbSavedByObjectVersion
1070
     0
  0
VISUALSTYLE
  5
B0F6
102
{ACAD_REACTORS
330
B0F1
102
}
330
B0F1
100
AcDbVisualStyle
  2
Basic
 70
     7
 71
     1
 72
     0
 73
     1
 90
        0
 40
-0.6
 41
-30.0
 62
     5
 63
     7
 74
     0
 91
        4
 64
     7
 65
   257
 75
     1
175
     1
 42
1.0
 92
        8
 66
     7
 43
1.0
 76
     1
 77
     6
 78
     2
 67
     7
 79
     5
170
     0
171
     0
290
     0
174
     0
 93
        1
 44
0.0
173
     0
291
     1
 45
0.0
1001
ACAD
1000
AcDbSavedByObjectVersion
1070
     0
  0
VISUALSTYLE
  5
B0FD
102
{ACAD_REACTORS
330
B0F1
102
}
330
B0F1
100
AcDbVisualStyle
  2
Brighten
 70
    12
 71
     2
 72
     2
 73
     0
 90
        0
 40
-0.6
 41
-30.0
 62
     5
 63
     7
 74
     1
 91
        4
 64
     7
 65
   257
 75
     1
175
     1
 42
1.0
 92
        8
 66
     7
 43
1.0
 76
     1
 77
     6
 78
     2
 67
     7
 79
     5
170
     0
171
     0
290
     0
174
     0
 93
        1
 44
50.0
173
     0
291
     1
 45
0.0
1001
ACAD
1000
AcDbSavedByObjectVersion
1070
     0
  0
VISUALSTYLE
  5
B101
102
{ACAD_REACTORS
330
B0F1
102
}
330
B0F1
100
AcDbVisualStyle
  2
ColorChange
 70
    16
 71
     2
 72
     2
 73
     3
 90
        0
 40
-0.6
 41
-30.0
 62
     5
 63
     8
 74
     1
 91
        4
 64
     7
 65
   257
 75
     1
175
     1
 42
1.0
 92
        8
 66
     8
 43
1.0
 76
     1
 77
     6
 78
     2
 67
     7
 79
     5
170
     0
171
     0
290
     0
174
     0
 93
        1
 44
0.0
173
     0
291
     1
 45
0.0
1001
ACAD
1000
AcDbSavedByObjectVersion
1070
     0
  0
VISUALSTYLE
  5
B0FA
102
{ACAD_REACTORS
330
B0F1
102
}
330
B0F1
100
AcDbVisualStyle
  2
Conceptual
 70
     9
 71
     3
 72
     2
 73
     0
 90
        0
 40
-0.6
 41
-30.0
 62
     5
 63
     7
 74
     2
 91
        2
 64
     7
 65
   257
 75
     1
175
     1
 42
40.0
 92
        8
 66
     7
 43
1.0
 76
     1
 77
     6
 78
     2
 67
     7
 79
     3
170
     0
171
     0
290
     0
174
     0
 93
        1
 44
0.0
173
     0
291
     0
 45
0.0
1001
ACAD
1000
AcDbSavedByObjectVersion
1070
     0
  0
VISUALSTYLE
  5
B0FC
102
{ACAD_REACTORS
330
B0F1
102
}
330
B0F1
100
AcDbVisualStyle
  2
Dim
 70
    11
 71
     2
 72
     2
 73
     0
 90
        0
 40
-0.6
 41
-30.0
 62
     5
 63
     7
 74
     1
 91
        4
 64
     7
 65
   257
 75
     1
175
     1
 42
1.0
 92
        8
 66
     7
 43
1.0
 76
     1
 77
     6
 78
     2
 67
     7
 79
     5
170
     0
171
     0
290
     0
174
     0
 93
        1
 44
-50.0
173
     0
291
     1
 45
0.0
1001
ACAD
1000
AcDbSavedByObjectVersion
1070
     0
  0
VISUALSTYLE
  5
B100
102
{ACAD_REACTORS
330
B0F1
102
}
330
B0F1
100
AcDbVisualStyle
  2
Facepattern
 70
    15
 71
     2
 72
     2
 73
     0
 90
        0
 40
-0.6
 41
-30.0
 62
     5
 63
     7
 74
     1
 91
        4
 64
     7
 65
   257
 75
     1
175
     1
 42
1.0
 92
        8
 66
     7
 43
1.0
 76
     1
 77
     6
 78
     2
 67
     7
 79
     5
170
     0
171
     0
290
     0
174
     0
 93
        1
 44
0.0
173
     0
291
     1
 45
0.0
1001
ACAD
1000
AcDbSavedByObjectVersion
1070
     0
  0
VISUALSTYLE
  5
B0F2
102
{ACAD_REACTORS
330
B0F1
102
}
330
B0F1
100
AcDbVisualStyle
  2
Flat
 70
     0
 71
     2
 72
     1
 73
     1
 90
        2
 40
-0.6
 41
30.0
 62
     5
 63
     7
 74
     0
 91
        4
 64
     7
 65
   257
 75
     1
175
     1
 42
1.0
 92
        8
 66
     7
 43
1.0
 76
     1
 77
     6
 78
     2
 67
     7
 79
     5
170
     0
171
     0
290
     0
174
     0
 93
       13
 44
0.0
173
     0
291
     1
 45
0.0
1001
ACAD
1000
AcDbSavedByObjectVersion
1070
     0
  0
VISUALSTYLE
  5
B0F3
102
{ACAD_REACTORS
330
B0F1
102
}
330
B0F1
100
AcDbVisualStyle
  2
FlatWithEdges
 70
     1
 71
     2
 72
     1
 73
     1
 90
        2
 40
-0.6
 41
30.0
 62
     5
 63
     7
 74
     1
 91
        4
 64
     7
 65
   257
 75
     1
175
     1
 42
1.0
 92
        0
 66
   257
 43
1.0
 76
     1
 77
     6
 78
     2
 67
     7
 79
     5
170
     0
171
     0
290
     0
174
     0
 93
       13
 44
0.0
173
     0
291
     1
 45
0.0
1001
ACAD
1000
AcDbSavedByObjectVersion
1070
     0
  0
VISUALSTYLE
  5
B0F4
102
{ACAD_REACTORS
330
B0F1
102
}
330
B0F1
100
AcDbVisualStyle
  2
Gouraud
 70
     2
 71
     2
 72
     2
 73
     1
 90
        2
 40
-0.6
 41
30.0
 62
     5
 63
     7
 74
     0
 91
        4
 64
     7
 65
   257
 75
     1
175
     1
 42
1.0
 92
        0
 66
     7
 43
1.0
 76
     1
 77
     6
 78
     2
 67
     7
 79
     5
170
     0
171
     0
290
     0
174
     0
 93
       13
 44
0.0
173
     0
291
     1
 45
0.0
1001
ACAD
1000
AcDbSavedByObjectVersion
1070
     0
  0
VISUALSTYLE
  5
B0F5
102
{ACAD_REACTORS
330
B0F1
102
}
330
B0F1
100
AcDbVisualStyle
  2
GouraudWithEdges
 70
     3
 71
     2
 72
     2
 73
     1
 90
        2
 40
-0.6
 41
30.0
 62
     5
 63
     7
 74
     1
 91
        4
 64
     7
 65
   257
 75
     1
175
     1
 42
1.0
 92
        0
 66
   257
 43
1.0
 76
     1
 77
     6
 78
     2
 67
     7
 79
     5
170
     0
171
     0
290
     0
174
     0
 93
       13
 44
0.0
173
     0
291
     1
 45
0.0
1001
ACAD
1000
AcDbSavedByObjectVersion
1070
     0
  0
VISUALSTYLE
  5
B0FF
102
{ACAD_REACTORS
330
B0F1
102
}
330
B0F1
100
AcDbVisualStyle
  2
Linepattern
 70
    14
 71
     2
 72
     2
 73
     0
 90
        0
 40
-0.6
 41
-30.0
 62
     5
 63
     7
 74
     1
 91
        4
 64
     7
 65
   257
 75
     7
175
     7
 42
1.0
 92
        8
 66
     7
 43
1.0
 76
     1
 77
     6
 78
     2
 67
     7
 79
     5
170
     0
171
     0
290
     0
174
     0
 93
        1
 44
0.0
173
     0
291
     1
 45
0.0
1001
ACAD
1000
AcDbSavedByObjectVersion
1070
     0
  0
VISUALSTYLE
  5
B0FB
102
{ACAD_REACTORS
330
B0F1
102
}
330
B0F1
100
AcDbVisualStyle
  2
Realistic
 70
     8
 71
     2
 72
     2
 73
     0
 90
        0
 40
-0.6
 41
-30.0
 62
     5
 63
     7
 74
     1
 91
        0
 64
     7
 65
   257
 75
     1
175
     1
 42
1.0
 92
        8
 66
     8
 43
1.0
 76
     1
 77
     6
 78
     2
 67
     7
 79
     5
170
     0
171
     0
290
     0
174
     0
 93
       13
 44
0.0
173
     0
291
     0
 45
0.0
1001
ACAD
1000
AcDbSavedByObjectVersion
1070
     0
  0
VISUALSTYLE
  5
B0FE
102
{ACAD_REACTORS
330
B0F1
102
}
330
B0F1
100
AcDbVisualStyle
  2
Thicken
 70
    13
 71
     2
 72
     2
 73
     0
 90
        0
 40
-0.6
 41
-30.0
 62
     5
 63
     7
 74
     1
 91
        4
 64
     7
 65
   257
 75
     1
175
     1
 42
1.0
 92
       12
 66
     7
 43
1.0
 76
     1
 77
     6
 78
     2
 67
     7
 79
     5
170
     0
171
     0
290
     0
174
     0
 93
        1
 44
0.0
173
     0
291
     1
 45
0.0
1001
ACAD
1000
AcDbSavedByObjectVersion
1070
     0
  0
DICTIONARYVAR
  5
AAF3
102
{ACAD_REACTORS
330
34
102
}
330
34
100
DictionaryVariables
280
     0
  1
STANDARD
  0
DICTIONARYVAR
  5
A10C
102
{ACAD_REACTORS
330
34
102
}
330
34
100
DictionaryVariables
280
     0
  1
1
  0
DICTIONARYVAR
  5
AB07
102
{ACAD_REACTORS
330
34
102
}
330
34
100
DictionaryVariables
280
     0
  1
4
  0
DICTIONARYVAR
  5
35
102
{ACAD_REACTORS
330
34
102
}
330
34
100
DictionaryVariables
280
     0
  1
0
  0
DICTIONARYVAR
  5
194C
102
{ACAD_REACTORS
330
34
102
}
330
34
100
DictionaryVariables
280
     0
  1
96
  0
DICTIONARY
  5
7E8
102
{ACAD_REACTORS
330
47
102
}
330
47
100
AcDbDictionary
281
     1
  0
DICTIONARY
  5
4C
102
{ACAD_REACTORS
330
47
102
}
330
47
100
AcDbDictionary
281
     1
  0
XRECORD
  5
A929
102
{ACAD_REACTORS
330
47
102
}
330
47
100
AcDbXrecord
280
     1
 90
-1023410169
  0
XRECORD
  5
B332
102
{ACAD_REACTORS
330
B331
102
}
330
B331
100
AcDbXrecord
280
     1
  0
XRECORD
  5
3FB7
102
{ACAD_REACTORS
330
3F96
102
}
330
3F96
100
AcDbXrecord
280
     1
 91
        3
330
0
 90
        8
 62
     7
370
    40
331
16
  1
Color_7
330
0
 90
        0
 62
    14
370
    -3
331
16
  1
Color_14
330
0
 90
        8
 62
     7
370
    20
331
16
  1
Color_7
330
6D1
 90
        0
 62
     7
370
    -3
331
16
  1
Color_7
330
0
 90
        8
 62
     7
370
    50
331
16
  1
Color_7
330
0
 90
        8
 62
     2
370
    35
331
16
  1
Color_2
330
0
 90
        8
 62
     7
370
    -3
331
16
  1
Color_7
330
10
 90
        8
 62
     7
370
    -3
331
16
  1
Color_7
  0
DICTIONARY
  5
CF06
330
22
100
AcDbDictionary
280
     1
281
     1
  3
ACAD_XREC_ROUNDTRIP
360
CF07
  0
DICTIONARY
  5
CF04
330
1E
100
AcDbDictionary
280
     1
281
     1
  3
ACAD_XREC_ROUNDTRIP
360
CF05
  0
DICTIONARY
  5
CF08
330
26
100
AcDbDictionary
280
     1
281
     1
  3
ACAD_XREC_ROUNDTRIP
360
CF09
  0
DICTIONARY
  5
CF0E
330
B0EF
100
AcDbDictionary
280
     1
281
     1
  3
ACAD_XREC_ROUNDTRIP
360
CF0F
  0
DICTIONARY
  5
CF0C
330
B0EE
100
AcDbDictionary
280
     1
281
     1
  3
ACAD_XREC_ROUNDTRIP
360
CF0D
  0
DICTIONARY
  5
CF10
330
B0F0
100
AcDbDictionary
280
     1
281
     1
  3
ACAD_XREC_ROUNDTRIP
360
CF11
  0
DICTIONARY
  5
CF12
330
B46C
100
AcDbDictionary
280
     1
281
     1
  3
ACAD_XREC_ROUNDTRIP
360
CF13
  0
DICTIONARY
  5
CF14
330
B46D
100
AcDbDictionary
280
     1
281
     1
  3
ACAD_XREC_ROUNDTRIP
360
CF15
  0
DICTIONARY
  5
CF16
330
B46E
100
AcDbDictionary
280
     1
281
     1
  3
ACAD_XREC_ROUNDTRIP
360
CF17
  0
DICTIONARY
  5
CF18
330
B46F
100
AcDbDictionary
280
     1
281
     1
  3
ACAD_XREC_ROUNDTRIP
360
CF19
  0
DICTIONARY
  5
CF1A
330
B470
100
AcDbDictionary
280
     1
281
     1
  3
ACAD_XREC_ROUNDTRIP
360
CF1B
  0
DICTIONARY
  5
CF1C
330
B471
100
AcDbDictionary
280
     1
281
     1
  3
ACAD_XREC_ROUNDTRIP
360
CF1D
  0
DICTIONARY
  5
CF1E
330
B472
100
AcDbDictionary
280
     1
281
     1
  3
ACAD_XREC_ROUNDTRIP
360
CF1F
  0
DICTIONARY
  5
CF20
330
B473
100
AcDbDictionary
280
     1
281
     1
  3
ACAD_XREC_ROUNDTRIP
360
CF21
  0
DICTIONARY
  5
CF0A
330
AABA
100
AcDbDictionary
280
     1
281
     1
  3
ACAD_XREC_ROUNDTRIP
360
CF0B
  0
XRECORD
  5
CF07
102
{ACAD_REACTORS
330
CF06
102
}
330
CF06
100
AcDbXrecord
280
     1
102
SHADEPLOT
 70
     0
102
SHADEPLOTRESLEVEL
 70
     2
102
SHADEPLOTCUSTOMDPI
 70
   200
  0
XRECORD
  5
CF05
102
{ACAD_REACTORS
330
CF04
102
}
330
CF04
100
AcDbXrecord
280
     1
102
SHADEPLOT
 70
     0
102
SHADEPLOTRESLEVEL
 70
     2
102
SHADEPLOTCUSTOMDPI
 70
   300
  0
XRECORD
  5
CF09
102
{ACAD_REACTORS
330
CF08
102
}
330
CF08
100
AcDbXrecord
280
     1
102
SHADEPLOT
 70
     0
102
SHADEPLOTRESLEVEL
 70
     2
102
SHADEPLOTCUSTOMDPI
 70
   300
  0
XRECORD
  5
CF0F
102
{ACAD_REACTORS
330
CF0E
102
}
330
CF0E
100
AcDbXrecord
280
     1
102
MATERIAL
148
0.0
149
0.0
149
0.0
 93
        0
 94
       63
282
     0
 72
     1
 77
     1
171
     1
175
     1
179
     1
273
     0
  0
XRECORD
  5
CF0D
102
{ACAD_REACTORS
330
CF0C
102
}
330
CF0C
100
AcDbXrecord
280
     1
102
MATERIAL
148
0.0
149
0.0
149
0.0
 93
        0
 94
       63
282
     0
 72
     1
 77
     1
171
     1
175
     1
179
     1
273
     0
  0
XRECORD
  5
CF11
102
{ACAD_REACTORS
330
CF10
102
}
330
CF10
100
AcDbXrecord
280
     1
102
MATERIAL
148
0.0
149
0.0
149
0.0
 93
        0
 94
       63
282
     0
 72
     1
 77
     1
171
     1
175
     1
179
     1
273
     0
  0
XRECORD
  5
CF13
102
{ACAD_REACTORS
330
CF12
102
}
330
CF12
100
AcDbXrecord
280
     1
102
SHADEPLOT
 70
     0
102
SHADEPLOTRESLEVEL
 70
     2
102
SHADEPLOTCUSTOMDPI
 70
   200
  0
XRECORD
  5
CF15
102
{ACAD_REACTORS
330
CF14
102
}
330
CF14
100
AcDbXrecord
280
     1
102
SHADEPLOT
 70
     0
102
SHADEPLOTRESLEVEL
 70
     2
102
SHADEPLOTCUSTOMDPI
 70
   200
  0
XRECORD
  5
CF17
102
{ACAD_REACTORS
330
CF16
102
}
330
CF16
100
AcDbXrecord
280
     1
102
SHADEPLOT
 70
     0
102
SHADEPLOTRESLEVEL
 70
     2
102
SHADEPLOTCUSTOMDPI
 70
   200
  0
XRECORD
  5
CF19
102
{ACAD_REACTORS
330
CF18
102
}
330
CF18
100
AcDbXrecord
280
     1
102
SHADEPLOT
 70
     0
102
SHADEPLOTRESLEVEL
 70
     2
102
SHADEPLOTCUSTOMDPI
 70
   200
  0
XRECORD
  5
CF1B
102
{ACAD_REACTORS
330
CF1A
102
}
330
CF1A
100
AcDbXrecord
280
     1
102
SHADEPLOT
 70
     0
102
SHADEPLOTRESLEVEL
 70
     2
102
SHADEPLOTCUSTOMDPI
 70
   200
  0
XRECORD
  5
CF1D
102
{ACAD_REACTORS
330
CF1C
102
}
330
CF1C
100
AcDbXrecord
280
     1
102
SHADEPLOT
 70
     0
102
SHADEPLOTRESLEVEL
 70
     2
102
SHADEPLOTCUSTOMDPI
 70
   200
  0
XRECORD
  5
CF1F
102
{ACAD_REACTORS
330
CF1E
102
}
330
CF1E
100
AcDbXrecord
280
     1
102
SHADEPLOT
 70
     0
102
SHADEPLOTRESLEVEL
 70
     2
102
SHADEPLOTCUSTOMDPI
 70
   200
  0
XRECORD
  5
CF21
102
{ACAD_REACTORS
330
CF20
102
}
330
CF20
100
AcDbXrecord
280
     1
102
SHADEPLOT
 70
     0
102
SHADEPLOTRESLEVEL
 70
     2
102
SHADEPLOTCUSTOMDPI
 70
   200
  0
XRECORD
  5
CF0B
102
{ACAD_REACTORS
330
CF0A
102
}
330
CF0A
100
AcDbXrecord
280
     1
102
ACAD_ROUNDTRIP_PRE2007_TABLESTYLE
 90
        4
 91
        0
  1

 92
        4
 93
        0
  2

 94
        4
 95
        0
  3

  0
ENDSEC
  0
EOF
