  0
SECTION
  2
HEADER
  9
$ACADVER
  1
AC1015
  9
$ACADMAINTVER
 70
    20
  9
$DWGCODEPAGE
  3
ANSI_932
  9
$INSBASE
 10
0.0
 20
0.0
 30
0.0
  9
$EXTMIN
 10
1452.026426673288
 20
1357.982852129533
 30
-0.0015258207003583
  9
$EXTMAX
 10
2046.167756202364
 20
1778.037884452824
 30
0.0000000349246037
  9
$LIMMIN
 10
1452.093689170056
 20
1357.984262209774
  9
$LIMMAX
 10
2046.093689170056
 20
1777.984262209774
  9
$ORTHOMODE
 70
     0
  9
$REGENMODE
 70
     1
  9
$FILLMODE
 70
     1
  9
$QTEXTMODE
 70
     0
  9
$MIRRTEXT
 70
     0
  9
$LTSCALE
 40
1.0
  9
$ATTMODE
 70
     1
  9
$TEXTSIZE
 40
3.2
  9
$TRACEWID
 40
1.0
  9
$TEXTSTYLE
  7
STANDARD
  9
$CLAYER
  8
AM_0
  9
$CELTYPE
  6
ByLayer
  9
$CECOLOR
 62
   256
  9
$CELTSCALE
 40
1.0
  9
$DISPSILH
 70
     0
  9
$DIMSCALE
 40
1.0
  9
$DIMASZ
 40
1.0
  9
$DIMEXO
 40
1.0
  9
$DIMDLI
 40
10.0
  9
$DIMRND
 40
0.0
  9
$DIMDLE
 40
0.0
  9
$DIMEXE
 40
1.0
  9
$DIMTP
 40
0.1
  9
$DIMTM
 40
0.1
  9
$DIMTXT
 40
3.5
  9
$DIMCEN
 40
0.0
  9
$DIMTSZ
 40
0.0
  9
$DIMTOL
 70
     0
  9
$DIMLIM
 70
     0
  9
$DIMTIH
 70
     0
  9
$DIMTOH
 70
     0
  9
$DIMSE1
 70
     0
  9
$DIMSE2
 70
     0
  9
$DIMTAD
 70
     1
  9
$DIMZIN
 70
     8
  9
$DIMBLK
  1

  9
$DIMASO
 70
     1
  9
$DIMSHO
 70
     1
  9
$DIMPOST
  1

  9
$DIMAPOST
  1
"
  9
$DIMALT
 70
     0
  9
$DIMALTD
 70
     2
  9
$DIMALTF
 40
0.0393701
  9
$DIMLFAC
 40
1.0
  9
$DIMTOFL
 70
     1
  9
$DIMTVP
 40
0.0
  9
$DIMTIX
 70
     0
  9
$DIMSOXD
 70
     0
  9
$DIMSAH
 70
     0
  9
$DIMBLK1
  1

  9
$DIMBLK2
  1

  9
$DIMSTYLE
  2
SYS
  9
$DIMCLRD
 70
   256
  9
$DIMCLRE
 70
   256
  9
$DIMCLRT
 70
     7
  9
$DIMTFAC
 40
0.71
  9
$DIMGAP
 40
1.5
  9
$DIMJUST
 70
     0
  9
$DIMSD1
 70
     0
  9
$DIMSD2
 70
     0
  9
$DIMTOLJ
 70
     0
  9
$DIMTZIN
 70
     8
  9
$DIMALTZ
 70
     0
  9
$DIMALTTZ
 70
     0
  9
$DIMUPT
 70
     0
  9
$DIMDEC
 70
     2
  9
$DIMTDEC
 70
     2
  9
$DIMALTU
 70
     2
  9
$DIMALTTD
 70
     2
  9
$DIMTXSTY
  7
STANDARD
  9
$DIMAUNIT
 70
     0
  9
$DIMADEC
 70
     0
  9
$DIMALTRND
 40
0.0
  9
$DIMAZIN
 70
     2
  9
$DIMDSEP
 70
    46
  9
$DIMATFIT
 70
     3
  9
$DIMFRAC
 70
     0
  9
$DIMLDRBLK
  1

  9
$DIMLUNIT
 70
     2
  9
$DIMLWD
 70
    -1
  9
$DIMLWE
 70
    -1
  9
$DIMTMOVE
 70
     0
  9
$LUNITS
 70
     2
  9
$LUPREC
 70
     2
  9
$SKETCHINC
 40
1.0
  9
$FILLETRAD
 40
0.0
  9
$AUNITS
 70
     0
  9
$AUPREC
 70
     0
  9
$MENU
  1
.
  9
$ELEVATION
 40
0.0
  9
$PELEVATION
 40
0.0
  9
$THICKNESS
 40
0.0
  9
$LIMCHECK
 70
     0
  9
$CHAMFERA
 40
0.0
  9
$CHAMFERB
 40
0.0
  9
$CHAMFERC
 40
20.0
  9
$CHAMFERD
 40
0.0
  9
$SKPOLY
 70
     0
  9
$TDCREATE
 40
2455349.629248217
  9
$TDUCREATE
 40
2455349.254248218
  9
$TDUPDATE
 40
2455349.711363021
  9
$TDUUPDATE
 40
2455349.336363021
  9
$TDINDWG
 40
0.0821231134
  9
$TDUSRTIMER
 40
0.0821229398
  9
$USRTIMER
 70
     1
  9
$ANGBASE
 50
0.0
  9
$ANGDIR
 70
     0
  9
$PDMODE
 70
     0
  9
$PDSIZE
 40
-3.0
  9
$PLINEWID
 40
0.0
  9
$SPLFRAME
 70
     0
  9
$SPLINETYPE
 70
     6
  9
$SPLINESEGS
 70
     8
  9
$HANDSEED
  5
111EE
  9
$SURFTAB1
 70
     6
  9
$SURFTAB2
 70
     6
  9
$SURFTYPE
 70
     6
  9
$SURFU
 70
     6
  9
$SURFV
 70
     6
  9
$UCSBASE
  2

  9
$UCSNAME
  2

  9
$UCSORG
 10
0.0
 20
0.0
 30
0.0
  9
$UCSXDIR
 10
1.0
 20
0.0
 30
0.0
  9
$UCSYDIR
 10
0.0
 20
1.0
 30
0.0
  9
$UCSORTHOREF
  2

  9
$UCSORTHOVIEW
 70
     0
  9
$UCSORGTOP
 10
0.0
 20
0.0
 30
0.0
  9
$UCSORGBOTTOM
 10
0.0
 20
0.0
 30
0.0
  9
$UCSORGLEFT
 10
0.0
 20
0.0
 30
0.0
  9
$UCSORGRIGHT
 10
0.0
 20
0.0
 30
0.0
  9
$UCSORGFRONT
 10
0.0
 20
0.0
 30
0.0
  9
$UCSORGBACK
 10
0.0
 20
0.0
 30
0.0
  9
$PUCSBASE
  2

  9
$PUCSNAME
  2

  9
$PUCSORG
 10
0.0
 20
0.0
 30
0.0
  9
$PUCSXDIR
 10
1.0
 20
0.0
 30
0.0
  9
$PUCSYDIR
 10
0.0
 20
1.0
 30
0.0
  9
$PUCSORTHOREF
  2

  9
$PUCSORTHOVIEW
 70
     0
  9
$PUCSORGTOP
 10
0.0
 20
0.0
 30
0.0
  9
$PUCSORGBOTTOM
 10
0.0
 20
0.0
 30
0.0
  9
$PUCSORGLEFT
 10
0.0
 20
0.0
 30
0.0
  9
$PUCSORGRIGHT
 10
0.0
 20
0.0
 30
0.0
  9
$PUCSORGFRONT
 10
0.0
 20
0.0
 30
0.0
  9
$PUCSORGBACK
 10
0.0
 20
0.0
 30
0.0
  9
$USERI1
 70
     0
  9
$USERI2
 70
     0
  9
$USERI3
 70
     0
  9
$USERI4
 70
     0
  9
$USERI5
 70
     0
  9
$USERR1
 40
0.0
  9
$USERR2
 40
0.0
  9
$USERR3
 40
0.0
  9
$USERR4
 40
0.0
  9
$USERR5
 40
0.0
  9
$WORLDVIEW
 70
     1
  9
$SHADEDGE
 70
     3
  9
$SHADEDIF
 70
    70
  9
$TILEMODE
 70
     1
  9
$MAXACTVP
 70
    64
  9
$PINSBASE
 10
0.0
 20
0.0
 30
0.0
  9
$PLIMCHECK
 70
     0
  9
$PEXTMIN
 10
1.000000000000000E+20
 20
1.000000000000000E+20
 30
1.000000000000000E+20
  9
$PEXTMAX
 10
-1.000000000000000E+20
 20
-1.000000000000000E+20
 30
-1.000000000000000E+20
  9
$PLIMMIN
 10
-3.17498779296875
 20
-3.174999952316284
  9
$PLIMMAX
 10
293.4970092773438
 20
206.692492723465
  9
$UNITMODE
 70
     0
  9
$VISRETAIN
 70
     1
  9
$PLINEGEN
 70
     0
  9
$PSLTSCALE
 70
     1
  9
$TREEDEPTH
 70
  3020
  9
$CMLSTYLE
  2
Standard
  9
$CMLJUST
 70
     0
  9
$CMLSCALE
 40
20.0
  9
$PROXYGRAPHICS
 70
     1
  9
$MEASUREMENT
 70
     1
  9
$CELWEIGHT
370
    -1
  9
$ENDCAPS
280
     0
  9
$JOINSTYLE
280
     0
  9
$LWDISPLAY
290
     0
  9
$INSUNITS
 70
     4
  9
$HYPERLINKBASE
  1

  9
$STYLESHEET
  1
monochrome.ctb
  9
$XEDIT
290
     1
  9
$CEPSNTYPE
380
     0
  9
$PSTYLEMODE
290
     1
  9
$FINGERPRINTGUID
  2
{70D444A6-41FE-4489-BEA8-DED29400E87D}
  9
$VERSIONGUID
  2
{208A9B6A-064A-454C-A17C-9148EB04C95E}
  9
$EXTNAMES
290
     1
  9
$PSVPSCALE
 40
0.0
  9
$OLESTARTUP
290
     0
  0
ENDSEC
  0
SECTION
  2
CLASSES
  0
CLASS
  1
ACDBDICTIONARYWDFLT
  2
AcDbDictionaryWithDefault
  3
ObjectDBX Classes
 90
        0
280
     0
281
     0
  0
CLASS
  1
ACDBPLACEHOLDER
  2
AcDbPlaceHolder
  3
ObjectDBX Classes
 90
        0
280
     0
281
     0
  0
CLASS
  1
LAYOUT
  2
AcDbLayout
  3
ObjectDBX Classes
 90
        0
280
     0
281
     0
  0
CLASS
  1
AMGSETTINGSOBJ
  2
AmgSettingsObj
  3
"AcadM|Product Description: AutoCAD Mechanical|Company: Autodesk"
 90
        0
280
     0
281
     0
  0
CLASS
  1
ACME_DOCUMENT
  2
AcMeDbDoc
  3
AcMeServices
 90
        0
280
     0
281
     0
  0
CLASS
  1
ACMESCOPE
  2
AcMeScope
  3
AcMeServices
 90
        0
280
     0
281
     0
  0
CLASS
  1
ACMECOMMANDHISTORY
  2
AcMeCommandHistory
  3
AcMeServices
 90
        0
280
     0
281
     0
  0
CLASS
  1
DICTIONARYVAR
  2
AcDbDictionaryVar
  3
ObjectDBX Classes
 90
        0
280
     0
281
     0
  0
CLASS
  1
ACIMSYSVARMAN
  2
AcImSysVarManager
  3
AcMeServices
 90
        0
280
     0
281
     0
  0
CLASS
  1
ACIMREALSYSVAR
  2
AcImRealSysVar
  3
AcMeServices
 90
        0
280
     0
281
     0
  0
CLASS
  1
ACIMINTSYSVAR
  2
AcImIntSysVar
  3
AcMeServices
 90
        0
280
     0
281
     0
  0
CLASS
  1
ACMEDRAWINGMAN
  2
AcMeDrawingMan
  3
AcMeServices
 90
        0
280
     0
281
     0
  0
CLASS
  1
ACMEVIEW
  2
AcMeView
  3
AcMeServices
 90
        0
280
     0
281
     0
  0
CLASS
  1
ACDBENTITYCACHE
  2
AcMeEntityCache
  3
AcMeServices
 90
        0
280
     0
281
     0
  0
CLASS
  1
GSMANAGER
  2
AcMeGSManager
  3
AcMeServices
 90
        0
280
     0
281
     0
  0
CLASS
  1
AMDTINTERNALREACTOR
  2
AmdtInternalReactor
  3
AcMeServices
 90
        0
280
     0
281
     0
  0
CLASS
  1
ACMESTATEMGR
  2
AcMeStateMgr
  3
AcMeServices
 90
        0
280
     0
281
     0
  0
CLASS
  1
ACGREFMASTER
  2
AcGrefMaster
  3
AcAttribServices
 90
        0
280
     0
281
     0
  0
CLASS
  1
ACME_DATABASE
  2
AcMeDbDatabase
  3
AcMeServices
 90
        0
280
     0
281
     0
  0
CLASS
  1
ACRFINSADJUSTERMGR
  2
AcRfInsAdjusterMgr
  3
AcMeServices
 90
        0
280
     0
281
     0
  0
CLASS
  1
ACGREFACADMASTER
  2
AcGrefacadMaster
  3
AcGrefServices
 90
        0
280
     0
281
     0
  0
CLASS
  1
AMIMASTER
  2
AmiMaster
  3
AmiServices
 90
        0
280
     0
281
     0
  0
CLASS
  1
ACMDATADICTIONARY
  2
AcmDataDictionary
  3
"AcmSymBB|Product Description: AutoCAD Mechanical|Company: Autodesk"
 90
        0
280
     0
281
     0
  0
CLASS
  1
ACMDATAENTRYBLOCK
  2
AcmDataEntryBlock
  3
"AcmSymBB|Product Description: AutoCAD Mechanical|Company: Autodesk"
 90
        0
280
     0
281
     0
  0
CLASS
  1
ACIMSTRSYSVAR
  2
AcImStrSysVar
  3
AcMeServices
 90
        0
280
     0
281
     0
  0
CLASS
  1
ACMSTANDARDISO
  2
AcmStandardISO
  3
"Amdt_StdImp|Product Description: AutoCAD Mechanical|Company: Autodesk"
 90
        0
280
     0
281
     0
  0
CLASS
  1
AMGOBJPROPCFG
  2
AmgObjPropCfg
  3
"AmgLay|Product Description: AutoCAD Mechanical|Company: Autodesk"
 90
        1
280
     0
281
     0
  0
CLASS
  1
AMDTEDGESTANDARDISO
  2
AmdtEdgeStdISO
  3
"Amdt_StdImp|Product Description: AutoCAD Mechanical|Company: Autodesk"
 90
        0
280
     0
281
     0
  0
CLASS
  1
ACMSURFSTANDARDISO
  2
AcmSurfTextStdISO
  3
"Amdt_StdImp|Product Description: AutoCAD Mechanical|Company: Autodesk"
 90
        0
280
     0
281
     0
  0
CLASS
  1
ACMFCFSTANDARDISO
  2
AcmFCFStdISO
  3
"Amdt_StdImp|Product Description: AutoCAD Mechanical|Company: Autodesk"
 90
        0
280
     0
281
     0
  0
CLASS
  1
ACMWELDSTANDARDISO
  2
AcmWeldingStdISO
  3
"Amdt_StdImp|Product Description: AutoCAD Mechanical|Company: Autodesk"
 90
        0
280
     0
281
     0
  0
CLASS
  1
ACMIDSTANDARDISO
  2
AcmIdStdISO
  3
"Amdt_StdImp|Product Description: AutoCAD Mechanical|Company: Autodesk"
 90
        0
280
     0
281
     0
  0
CLASS
  1
ACMDATUMSTANDARDISO
  2
AcmDatumStdISO
  3
"Amdt_StdImp|Product Description: AutoCAD Mechanical|Company: Autodesk"
 90
        0
280
     0
281
     0
  0
CLASS
  1
ACMBOMSTANDARDISO
  2
AcmBOMStdISO
  3
"Amdt_StdImp|Product Description: AutoCAD Mechanical|Company: Autodesk"
 90
        0
280
     0
281
     0
  0
CLASS
  1
ACMDETAILSTANDARDISO
  2
AmdtDetailSymStdISO
  3
"Amdt_StdImp|Product Description: AutoCAD Mechanical|Company: Autodesk"
 90
        0
280
     0
281
     0
  0
CLASS
  1
ACMSECTIONSTANDARDISO
  2
AmdtSectionSymStdISO
  3
"Amdt_StdImp|Product Description: AutoCAD Mechanical|Company: Autodesk"
 90
        0
280
     0
281
     0
  0
CLASS
  1
ACMCENTERLINESTANDARDISO
  2
AmdtCenterLineStdISO
  3
"Amdt_StdImp|Product Description: AutoCAD Mechanical|Company: Autodesk"
 90
        0
280
     0
281
     0
  0
CLASS
  1
ACAMGLAYSTD
  2
AcAmgLayStd
  3
"AmgLay|Product Description: AutoCAD Mechanical|Company: Autodesk"
 90
        0
280
     0
281
     0
  0
CLASS
  1
ACAMGDIMSTD
  2
AcAmgDimStd
  3
"AmgDim|Product Description: AutoCAD Mechanical|Company: Autodesk"
 90
        0
280
     0
281
     0
  0
CLASS
  1
ACAMGTITLESTD
  2
AcAmgTitleStd
  3
"AmgTitle|Product Description: AutoCAD Mechanical|Company: Autodesk"
 90
        0
280
     0
281
     0
  0
CLASS
  1
ACAMGFILTERDAT
  2
AcAmgFilterDat
  3
"AcadM|Product Description: AutoCAD Mechanical|Company: Autodesk"
 90
        0
280
     0
281
     0
  0
CLASS
  1
LAYER_INDEX
  2
AcDbLayerIndex
  3
ObjectDBX Classes
 90
    32768
280
     0
281
     0
  0
CLASS
  1
IDBUFFER
  2
AcDbIdBuffer
  3
ObjectDBX Classes
 90
    32768
280
     0
281
     0
  0
CLASS
  1
PLOTSETTINGS
  2
AcDbPlotSettings
  3
ObjectDBX Classes
 90
        0
280
     0
281
     0
  0
CLASS
  1
AMDTFORMULAUPDATEDISPATCHER
  2
AmdtFormulaUpdateDispatcher
  3
AcMeServices
 90
        0
280
     0
281
     0
  0
CLASS
  1
ACMSTANDARDANSI
  2
AcmStandardANSI
  3
"Amdt_StdImp|Product Description: AutoCAD Mechanical|Company: Autodesk"
 90
    32768
280
     0
281
     0
  0
CLASS
  1
ACMSURFSTANDARDANSI
  2
AcmSurfTextStdANSI
  3
"Amdt_StdImp|Product Description: AutoCAD Mechanical|Company: Autodesk"
 90
    32768
280
     0
281
     0
  0
CLASS
  1
ACMFCFSTANDARDANSI
  2
AcmFCFStdANSI
  3
"Amdt_StdImp|Product Description: AutoCAD Mechanical|Company: Autodesk"
 90
    32768
280
     0
281
     0
  0
CLASS
  1
ACMWELDSTANDARDANSI
  2
AcmWeldingStdANSI
  3
"Amdt_StdImp|Product Description: AutoCAD Mechanical|Company: Autodesk"
 90
    32768
280
     0
281
     0
  0
CLASS
  1
ACMIDSTANDARDANSI
  2
AcmIdStdANSI
  3
"Amdt_StdImp|Product Description: AutoCAD Mechanical|Company: Autodesk"
 90
    32768
280
     0
281
     0
  0
CLASS
  1
ACMDATUMSTANDARDANSI
  2
AcmDatumStdANSI
  3
"Amdt_StdImp|Product Description: AutoCAD Mechanical|Company: Autodesk"
 90
    32768
280
     0
281
     0
  0
CLASS
  1
ACMBOMSTANDARDANSI
  2
AcmBOMStdANSI
  3
"Amdt_StdImp|Product Description: AutoCAD Mechanical|Company: Autodesk"
 90
    32768
280
     0
281
     0
  0
CLASS
  1
ACMDETAILSTANDARDANSI
  2
AmdtDetailSymStdANSI
  3
"Amdt_StdImp|Product Description: AutoCAD Mechanical|Company: Autodesk"
 90
    32768
280
     0
281
     0
  0
CLASS
  1
ACMSECTIONSTANDARDANSI
  2
AmdtSectionSymStdANSI
  3
"Amdt_StdImp|Product Description: AutoCAD Mechanical|Company: Autodesk"
 90
    32768
280
     0
281
     0
  0
CLASS
  1
ACMCENTERLINESTANDARDANSI
  2
AmdtCenterLineStdANSI
  3
"Amdt_StdImp|Product Description: AutoCAD Mechanical|Company: Autodesk"
 90
    32768
280
     0
281
     0
  0
CLASS
  1
ACMBOM
  2
AcmBom
  3
"AcmSymBB|Product Description: AutoCAD Mechanical|Company: Autodesk"
 90
        0
280
     0
281
     0
  0
CLASS
  1
ACMDATAENTRYPART
  2
AcmDataEntryPart
  3
"AcmSymBB|Product Description: AutoCAD Mechanical|Company: Autodesk"
 90
    32768
280
     0
281
     0
  0
CLASS
  1
ACMPARTREF
  2
AcmPartRef
  3
"AcmSymBB|Product Description: AutoCAD Mechanical|Company: Autodesk"
 90
    35839
280
     0
281
     1
  0
CLASS
  1
ACDBCIRCARCRES
  2
AcDbCircArcRes
  3
AcGrefServices
 90
    32768
280
     0
281
     0
  0
CLASS
  1
ACMBOMROW
  2
AcmBomRow
  3
"AcmSymBB|Product Description: AutoCAD Mechanical|Company: Autodesk"
 90
    32768
280
     0
281
     0
  0
CLASS
  1
ACMBALLOON
  2
AcmBalloon
  3
"AcmSymBB|Product Description: AutoCAD Mechanical|Company: Autodesk"
 90
    35839
280
     0
281
     1
  0
CLASS
  1
AMDTNOTE
  2
AmdtNote
  3
"AcmSymBB|Product Description: AutoCAD Mechanical|Company: Autodesk"
 90
    35839
280
     0
281
     1
  0
CLASS
  1
STDPART2D
  2
AmgStdPart
  3
"g3vace|Class: AmgStdPart|Product Description: AutoCAD Mechanical|Company: Autodesk"
 90
    35839
280
     0
281
     1
  0
CLASS
  1
ACDBSTDPARTRES_LINE
  2
AcDbStdPartRes_Line
  3
"g3vace|Class: AcDbStdPartRes_Line|Product Description: AutoCAD Mechanical|Company: Autodesk"
 90
    32768
280
     0
281
     0
  0
CLASS
  1
ACMDATAENTRY
  2
AcmDataEntry
  3
"AcmSymBB|Product Description: AutoCAD Mechanical|Company: Autodesk"
 90
        0
280
     0
281
     0
  0
CLASS
  1
ACDBOPPOLYLINERES
  2
AcDbOpPolylineRes
  3
AcGrefServices
 90
    32768
280
     0
281
     0
  0
CLASS
  1
ACMPARTLIST
  2
AcmPartList
  3
"AcmSymBB|Product Description: AutoCAD Mechanical|Company: Autodesk"
 90
    35839
280
     0
281
     1
  0
CLASS
  1
ACDBLINERES
  2
AcDbLineRes
  3
AcGrefServices
 90
    32768
280
     0
281
     0
  0
CLASS
  1
ACRFINSADJ
  2
AcRfInsAdjuster
  3
AcMeServices
 90
    32768
280
     0
281
     0
  0
CLASS
  1
AM_DRAWING_MGR
  2
AcDmDwgMgr
  3
AcMechDwgViewMgmt
 90
        0
280
     0
281
     0
  0
CLASS
  1
AM_DWG_DOCUMENT
  2
AcDmDwgDocument
  3
AcMechDwgViewMgmt
 90
        0
280
     0
281
     0
  0
CLASS
  1
AM_DWG_SHEET
  2
AcDmSheet
  3
AcMechDwgViewMgmt
 90
        0
280
     0
281
     0
  0
CLASS
  1
AM_VIEWDIMPARMAP
  2
AcDmViewDimParMap
  3
AcMechDwgViewMgmt
 90
        0
280
     0
281
     0
  0
CLASS
  1
AM_DWGMGR_NAME
  2
AcDmDwgMgrName
  3
AcMechDwgViewMgmt
 90
        0
280
     0
281
     0
  0
CLASS
  1
AMDTMENUSTATEMGR
  2
AmdtMenuStateMgr
  3
McadcomServices
 90
        0
280
     0
281
     0
  0
CLASS
  1
AMDTMCOMMENUSTATE
  2
AmdtMcomMenuState
  3
McadcomServices
 90
        0
280
     0
281
     0
  0
CLASS
  1
ASAPP
  2
AcAsAppObject
  3
AutoSurfServices
 90
        0
280
     0
281
     0
  0
CLASS
  1
IM_STATIC_MAN
  2
AcImStaticVarManager
  3
AcMeServices
 90
        0
280
     0
281
     0
  0
CLASS
  1
ACIMDBLSTATICVAR
  2
AcImDblStaticVar
  3
AcMeServices
 90
        0
280
     0
281
     0
  0
CLASS
  1
ACIMSTRSTATICVAR
  2
AcImStrStaticVar
  3
AcMeServices
 90
        0
280
     0
281
     0
  0
CLASS
  1
ACIMINTSTATICVAR
  2
AcImIntStaticVar
  3
AcMeServices
 90
        0
280
     0
281
     0
  0
CLASS
  1
ACASGREFMASTER
  2
AcAsGrefMaster
  3
AutoSurfResolverServices
 90
        0
280
     0
281
     0
  0
CLASS
  1
ACADGREFMODULE
  2
AcAdGrefModule
  3
AdGrefServices
 90
        0
280
     0
281
     0
  0
CLASS
  1
AMDTMAPISURFMOUDULE
  2
AmdtMApiSurfModule
  3
MApiSurfServices
 90
        0
280
     0
281
     0
  0
CLASS
  1
MAPIAMMOUDLE
  2
MApiAmModule
  3
MApiAmServices
 90
        0
280
     0
281
     0
  0
CLASS
  1
AMDTADMENUSTATE
  2
AmdtAdMenuState
  3
DesignerServices
 90
        0
280
     0
281
     0
  0
CLASS
  1
ADAPPL
  2
AcAdAppl
  3
DesignerServices
 90
        0
280
     0
281
     0
  0
CLASS
  1
DEPMGR
  2
AcAdDepMgr
  3
DesignerServices
 90
        0
280
     0
281
     0
  0
CLASS
  1
PARAMMGR
  2
AcAdParamMgr
  3
DesignerServices
 90
        0
280
     0
281
     0
  0
CLASS
  1
PARAMSCOPE
  2
AcAdParamScope
  3
DesignerServices
 90
        0
280
     0
281
     0
  0
CLASS
  1
NAMEDAPPL
  2
AcAdNamedAppl
  3
DesignerServices
 90
        0
280
     0
281
     0
  0
CLASS
  1
ADHNTMPLT
  2
AdHoleNoteTemplateMgr
  3
DesignerServices
 90
    32768
280
     0
281
     0
  0
CLASS
  1
AM_HNTEMPLATE_MGR_NAME
  2
AdHoleNoteTemplateMgrName
  3
DesignerServices
 90
    32768
280
     0
281
     0
  0
CLASS
  1
AMDTDMMENUSTATE
  2
AmdtDmMenuState
  3
AcMechDwgViewMgmt
 90
        0
280
     0
281
     0
  0
CLASS
  1
MAPIADMODULE
  2
MApiAdModule
  3
MApiAdServices
 90
        0
280
     0
281
     0
  0
CLASS
  1
AMDTAMMENUSTATE
  2
AmdtAmMenuState
  3
DesignerAssemblies
 90
        0
280
     0
281
     0
  0
CLASS
  1
ACAMPROJECT
  2
AcAmProject
  3
DesignerAssemblies
 90
        0
280
     0
281
     0
  0
CLASS
  1
ACAMGRCOMPDEF
  2
AcAmGrCompDef
  3
DesignerAssemblies
 90
        0
280
     0
281
     0
  0
CLASS
  1
ACCMCONTEXT
  2
AcCmContext
  3
DesignerAssemblies
 90
        0
280
     0
281
     0
  0
CLASS
  1
ACAMCOMPDEF
  2
AcAmCompDef
  3
DesignerAssemblies
 90
        0
280
     0
281
     0
  0
CLASS
  1
ACAMCOMPDEFMGR
  2
AcAmCompDefMgr
  3
DesignerAssemblies
 90
        0
280
     0
281
     0
  0
CLASS
  1
AMCONTEXTMGR
  2
AcAmContextMgr
  3
DesignerAssemblies
 90
        0
280
     0
281
     0
  0
CLASS
  1
ACAMCONTEXTMODELER
  2
AcAmContextModeler
  3
DesignerAssemblies
 90
        0
280
     0
281
     0
  0
CLASS
  1
CATALOGSTATE
  2
AcAmCatalogState
  3
DesignerAssemblies
 90
        0
280
     0
281
     0
  0
CLASS
  1
ACAMGRCOMPDEFSET
  2
AcAmGrCompDefSet
  3
DesignerAssemblies
 90
        0
280
     0
281
     0
  0
CLASS
  1
AMDTBROWSERDBTAB
  2
AmdtBrowserDbTab
  3
McadcomServices
 90
        0
280
     0
281
     0
  0
CLASS
  1
CBROWSERAPPOBJECT
  2
CBrowserAppObject
  3
McadcomServices
 90
        0
280
     0
281
     0
  0
CLASS
  1
DM_PLACEHOLDER
  2
AcDmSelsetPlaceholder
  3
AcMechDwgViewMgmt
 90
        0
280
     0
281
     0
  0
CLASS
  1
ACMPICKOBJ
  2
AcmPickEnt
  3
"AcmSymBB|Product Description: AutoCAD Mechanical|Company: Autodesk"
 90
    32768
280
     0
281
     1
  0
CLASS
  1
ACMNOTESTANDARDISO
  2
AmdtNoteStdISO
  3
"Amdt_StdImp|Product Description: AutoCAD Mechanical|Company: Autodesk"
 90
        0
280
     0
281
     0
  0
CLASS
  1
ACMNOTESTANDARDANSI
  2
AmdtNoteStdANSI
  3
"Amdt_StdImp|Product Description: AutoCAD Mechanical|Company: Autodesk"
 90
    32768
280
     0
281
     0
  0
CLASS
  1
ACMTHREADLINESTANDARDISO
  2
AmdtThreadLineStdISO
  3
"Amdt_StdImp|Product Description: AutoCAD Mechanical|Company: Autodesk"
 90
        0
280
     0
281
     0
  0
CLASS
  1
ACMTHREADLINESTANDARDANSI
  2
AmdtThreadLineStdANSI
  3
"Amdt_StdImp|Product Description: AutoCAD Mechanical|Company: Autodesk"
 90
    32768
280
     0
281
     0
  0
CLASS
  1
TABLESTYLE
  2
AcDbTableStyle
  3
ObjectDBX Classes
 90
     4095
280
     0
281
     0
  0
CLASS
  1
SORTENTSTABLE
  2
AcDbSortentsTable
  3
ObjectDBX Classes
 90
        0
280
     0
281
     0
  0
CLASS
  1
MATERIAL
  2
AcDbMaterial
  3
ObjectDBX Classes
 90
     1153
280
     0
281
     0
  0
CLASS
  1
VISUALSTYLE
  2
AcDbVisualStyle
  3
ObjectDBX Classes
 90
     4095
280
     0
281
     0
  0
CLASS
  1
ACRFATTGENMGR
  2
AcRfAttGeneralMgr
  3
AcAttribServices
 90
        0
280
     0
281
     0
  0
CLASS
  1
ACRFOBJATTMGR
  2
AcRfObjAttGroupMgr
  3
AcAttribServices
 90
        0
280
     0
281
     0
  0
CLASS
  1
ACRFMCADAPIATTHOLDER
  2
AcRfMCADAPIAttHolder
  3
AcAttribServices
 90
        0
280
     0
281
     0
  0
CLASS
  1
AMDTSYSATTR
  2
AmdtSystemAttribute
  3
AcAttribServices
 90
        0
280
     0
281
     0
  0
CLASS
  1
ACMTAPERSTANDARDISO
  2
AcmTaperStdISO
  3
"Amdt_StdImp|Product Description: AutoCAD Mechanical|Company: Autodesk"
 90
        0
280
     0
281
     0
  0
CLASS
  1
CAMSSTRUCTBTNSTATE
  2
StructBtnState
  3
L"DesignerAssemblies"
 90
        0
280
     0
281
     0
  0
CLASS
  1
DIMASSOC
  2
AcDbDimAssoc
  3
"AcDbDimAssoc|Product Desc:     AcDim ARX App For Dimension|Company:          Autodesk, Inc.|WEB Address:      www.autodesk.com"
 90
    32768
280
     0
281
     0
  0
CLASS
  1
AMDTEDGESTANDARDISO13715
  2
AmdtEdgeStdISO13715
  3
"Amdt_StdImp|Product Description: AutoCAD Mechanical|Company: Autodesk"
 90
        0
280
     0
281
     0
  0
CLASS
  1
AMDTNOTETEMPLATEDB
  2
AmdtNoteTemplateDB
  3
AMDT_STDIMP_MODULE_NAME
 90
        0
280
     0
281
     0
  0
CLASS
  1
ACAMGHOLECHARTSTDISO
  2
AcAmgHoleChartStdISO
  3
ACMSYMBB_MODULE_NAME
 90
        0
280
     0
281
     0
  0
ENDSEC
  0
SECTION
  2
TABLES
  0
TABLE
  2
VPORT
  5
8
330
0
100
AcDbSymbolTable
 70
     1
  0
VPORT
  5
B0EC
330
8
100
AcDbSymbolTableRecord
100
AcDbViewportTableRecord
  2
*Active
 70
     0
 10
0.0
 20
0.0
 11
1.0
 21
1.0
 12
1865.186845434257
 22
1570.825619804782
 13
0.0
 23
0.0
 14
2.5
 24
2.5
 15
10.0
 25
10.0
 16
0.0
 26
0.0
 36
1.0
 17
0.0
 27
0.0
 37
0.0
 40
524.2707606122674
 41
1.916666666666666
 42
50.0
 43
-1370.695619172058
 44
-1370.695619172058
 50
0.0
 51
0.0
 71
     0
 72
   100
 73
     1
 74
     3
 75
     0
 76
     0
 77
     0
 78
     0
281
     0
 65
     0
110
0.0
120
0.0
130
0.0
111
1.0
121
0.0
131
0.0
112
0.0
122
1.0
132
0.0
 79
     0
146
0.0
  0
ENDTAB
  0
TABLE
  2
LTYPE
  5
5
330
0
100
AcDbSymbolTable
 70
    28
  0
LTYPE
  5
14
330
5
100
AcDbSymbolTableRecord
100
AcDbLinetypeTableRecord
  2
ByBlock
 70
     0
  3

 72
    65
 73
     0
 40
0.0
  0
LTYPE
  5
15
330
5
100
AcDbSymbolTableRecord
100
AcDbLinetypeTableRecord
  2
ByLayer
 70
     0
  3

 72
    65
 73
     0
 40
0.0
  0
LTYPE
  5
16
330
5
100
AcDbSymbolTableRecord
100
AcDbLinetypeTableRecord
  2
Continuous
 70
     0
  3
Solid line
 72
    65
 73
     0
 40
0.0
  0
LTYPE
  5
4F
330
5
100
AcDbSymbolTableRecord
100
AcDbLinetypeTableRecord
  2
AM_ISO02W050
 70
     0
  3
__ __ __ __ __ __ __ __ __ __ __ __ __ __ __
 72
    65
 73
     2
 40
7.5
 49
6.0
 74
     0
 49
-1.5
 74
     0
  0
LTYPE
  5
52
330
5
100
AcDbSymbolTableRecord
100
AcDbLinetypeTableRecord
  2
Amconstr
 70
     0
  3
_______________________
 72
    65
 73
     2
 40
9999.0
 49
9999.0
 74
     0
 49
0.0
 74
     0
  0
LTYPE
  5
64
330
5
100
AcDbSymbolTableRecord
100
AcDbLinetypeTableRecord
  2
ACISOWELD
 70
     0
  3
_ _ _ _ _
 72
    65
 73
     2
 40
2.0
 49
2.0
 74
     0
 49
-1.0
 74
     0
  0
LTYPE
  5
65
330
5
100
AcDbSymbolTableRecord
100
AcDbLinetypeTableRecord
  2
ACISOTGB
 70
     0
  3
__ . . __ . .
 72
    65
 73
     6
 40
9.0
 49
4.0
 74
     0
 49
-1.0
 74
     0
 49
1.0
 74
     0
 49
-1.0
 74
     0
 49
1.0
 74
     0
 49
-1.0
 74
     0
  0
LTYPE
  5
66
330
5
100
AcDbSymbolTableRecord
100
AcDbLinetypeTableRecord
  2
ACISOTGL
 70
     0
  3
_ _ _ _ _
 72
    65
 73
     2
 40
3.0
 49
2.0
 74
     0
 49
-1.0
 74
     0
  0
LTYPE
  5
69
330
5
100
AcDbSymbolTableRecord
100
AcDbLinetypeTableRecord
  2
CENTER
 70
     0
  3
__ . __
 72
    65
 73
     4
 40
7.0
 49
4.0
 74
     0
 49
-1.0
 74
     0
 49
1.0
 74
     0
 49
-1.0
 74
     0
  0
LTYPE
  5
A6E
330
5
100
AcDbSymbolTableRecord
100
AcDbLinetypeTableRecord
  2
PHANTOM2
 70
     0
  3
Phantom (.5x) ___ _ _ ___ _ _ ___ _ _ ___ _ _
 72
    65
 73
     6
 40
31.75
 49
15.875
 74
     0
 49
-3.174999999999999
 74
     0
 49
3.174999999999999
 74
     0
 49
-3.174999999999999
 74
     0
 49
3.174999999999999
 74
     0
 49
-3.174999999999999
 74
     0
  0
LTYPE
  5
4DED
330
5
100
AcDbSymbolTableRecord
100
AcDbLinetypeTableRecord
  2
中線
 70
     0
  3
___________________
 72
    65
 73
     2
 40
2.0
 49
1.0
 74
     0
 49
1.0
 74
     0
  0
LTYPE
  5
4DF6
330
5
100
AcDbSymbolTableRecord
100
AcDbLinetypeTableRecord
  2
細線
 70
     0
  3
___________________
 72
    65
 73
     2
 40
2.0
 49
1.0
 74
     0
 49
1.0
 74
     0
  0
LTYPE
  5
4DF7
330
5
100
AcDbSymbolTableRecord
100
AcDbLinetypeTableRecord
  2
太線
 70
     0
  3
___________________
 72
    65
 73
     2
 40
2.0
 49
1.0
 74
     0
 49
1.0
 74
     0
  0
LTYPE
  5
4EA7
330
5
100
AcDbSymbolTableRecord
100
AcDbLinetypeTableRecord
  2
文字
 70
     0
  3
_________________
 72
    65
 73
     2
 40
2.0
 49
1.0
 74
     0
 49
1.0
 74
     0
  0
LTYPE
  5
4EA9
330
5
100
AcDbSymbolTableRecord
100
AcDbLinetypeTableRecord
  2
寸法線
 70
     0
  3
________________
 72
    65
 73
     2
 40
2.0
 49
1.0
 74
     0
 49
1.0
 74
     0
  0
LTYPE
  5
4F12
330
5
100
AcDbSymbolTableRecord
100
AcDbLinetypeTableRecord
  2
ハッチング
 70
     0
  3
_________________
 72
    65
 73
     2
 40
2.0
 49
1.0
 74
     0
 49
1.0
 74
     0
  0
LTYPE
  5
5180
330
5
100
AcDbSymbolTableRecord
100
AcDbLinetypeTableRecord
  2
陰線1
 70
     0
  3
__ __ __ __
 72
    65
 73
     2
 40
4.0
 49
2.2
 74
     0
 49
-1.8
 74
     0
  0
LTYPE
  5
5182
330
5
100
AcDbSymbolTableRecord
100
AcDbLinetypeTableRecord
  2
切断線
 70
     0
  3
/\/-/\/-/\/-/\/-/\/-/\/
 72
    65
 73
     2
 40
11.0001
 49
0.0001
 74
     4
 75
   135
340
56
 46
0.04
 50
0.0
 44
0.0
 45
0.0
 49
-11.0
 74
     0
  0
LTYPE
  5
5183
330
5
100
AcDbSymbolTableRecord
100
AcDbLinetypeTableRecord
  2
想像線1
 70
     0
  3
__ __ __ _____ __ __ ____
 72
    65
 73
     6
 40
14.5
 49
6.0
 74
     0
 49
-1.5
 74
     0
 49
2.0
 74
     0
 49
-1.5
 74
     0
 49
2.0
 74
     0
 49
-1.5
 74
     0
  0
LTYPE
  5
5185
330
5
100
AcDbSymbolTableRecord
100
AcDbLinetypeTableRecord
  2
中心線1
 70
     0
  3
___ _ ___ _ ___
 72
    65
 73
     4
 40
18.0
 49
12.0
 74
     0
 49
-2.0
 74
     0
 49
2.0
 74
     0
 49
-2.0
 74
     0
  0
LTYPE
  5
5188
330
5
100
AcDbSymbolTableRecord
100
AcDbLinetypeTableRecord
  2
補助線
 70
     0
  3
______________
 72
    65
 73
     2
 40
2.0
 49
1.0
 74
     0
 49
1.0
 74
     0
  0
LTYPE
  5
6427
330
5
100
AcDbSymbolTableRecord
100
AcDbLinetypeTableRecord
  2
HIDDEN
 70
     0
  3
Hidden __ __ __ __ __ __ __ __ __ __ __ __ __ _
 72
    65
 73
     2
 40
0.375
 49
0.25
 74
     0
 49
-0.125
 74
     0
  0
LTYPE
  5
AC81
330
5
100
AcDbSymbolTableRecord
100
AcDbLinetypeTableRecord
  2
破断線
 70
     0
  3
/\/-/\/-/\/-/\/-/\/-/\/
 72
    65
 73
     2
 40
0.4401
 49
0.0001
 74
     4
 75
   136
340
AC80
 46
0.0016
 50
0.0
 44
0.0
 45
0.0
 49
-0.4400000000000001
 74
     0
  0
LTYPE
  5
AC9E
330
5
100
AcDbSymbolTableRecord
100
AcDbLinetypeTableRecord
  2
Amzigzag
 70
     0
  3
/\/-/\/-/\/-/\/-/\/-/\/
 72
    65
 73
     2
 40
11.0001
 49
0.0001
 74
     4
 75
   135
340
56
 46
0.04
 50
0.0
 44
0.0
 45
0.0
 49
-11.0
 74
     0
  0
LTYPE
  5
AF0F
330
5
100
AcDbSymbolTableRecord
100
AcDbLinetypeTableRecord
  2
genzigzag
 70
     0
  3
/\/-/\/-/\/-/\/-/\/-/\/
 72
    65
 73
     2
 40
12.0001
 49
0.0001
 74
     4
 75
   135
340
AC80
 46
2.0
 50
0.0
 44
0.0
 45
0.0
 49
-12.0
 74
     0
  0
LTYPE
  5
AF95
330
5
100
AcDbSymbolTableRecord
100
AcDbLinetypeTableRecord
  2
AM_ISO08W050
 70
     0
  3
____ . ____ . ____ . ____ . ____ . ____ . ____
 72
    65
 73
     4
 40
18.0
 49
12.0
 74
     0
 49
-1.5
 74
     0
 49
3.0
 74
     0
 49
-1.5
 74
     0
  0
LTYPE
  5
AF96
330
5
100
AcDbSymbolTableRecord
100
AcDbLinetypeTableRecord
  2
AM_ISO09W050
 70
     0
  3
_____ . . _____ . . _____ . . ____ .. ____
 72
    65
 73
     6
 40
22.5
 49
12.0
 74
     0
 49
-1.5
 74
     0
 49
3.0
 74
     0
 49
-1.5
 74
     0
 49
3.0
 74
     0
 49
-1.5
 74
     0
  0
LTYPE
  5
AF97
330
5
100
AcDbSymbolTableRecord
100
AcDbLinetypeTableRecord
  2
AM_ISO08W050x2
 70
     0
  3
__ . __ . __ . __ . __ . __
 72
    65
 73
     4
 40
9.0
 49
6.0
 74
     0
 49
-0.75
 74
     0
 49
1.5
 74
     0
 49
-0.75
 74
     0
  0
LTYPE
  5
AF98
330
5
100
AcDbSymbolTableRecord
100
AcDbLinetypeTableRecord
  2
AM_ISO02W050x2
 70
     0
  3
 _ _ _ _ _ _ _ _ _ _ _ _
 72
    65
 73
     2
 40
3.75
 49
3.0
 74
     0
 49
-0.75
 74
     0
  0
LTYPE
  5
B66B
330
5
100
AcDbSymbolTableRecord
100
AcDbLinetypeTableRecord
  2
PHANTOM
 70
     0
  3
PHANTOM
 72
    83
 73
     6
 40
2.5
 49
1.25
 74
     0
 49
-0.25
 74
     0
 49
0.25
 74
     0
 49
-0.25
 74
     0
 49
0.25
 74
     0
 49
-0.25
 74
     0
  0
ENDTAB
  0
TABLE
  2
LAYER
  5
2
102
{ACAD_XDICTIONARY
360
3F95
102
}
330
0
100
AcDbSymbolTable
 70
    22
  0
LAYER
  5
10
330
2
100
AcDbSymbolTableRecord
100
AcDbLayerTableRecord
  2
0
 70
     0
 62
     7
  6
Continuous
370
    -3
390
F
  0
LAYER
  5
6D1
330
2
100
AcDbSymbolTableRecord
100
AcDbLayerTableRecord
  2
Defpoints
 70
     0
 62
     7
  6
Continuous
290
     0
370
    -3
390
F
  0
LAYER
  5
5F85
330
2
100
AcDbSymbolTableRecord
100
AcDbLayerTableRecord
  2
AM_0
 70
     0
 62
     7
  6
中線
370
    30
390
F
1001
AcAecLayerStandard
1000

1000

  0
LAYER
  5
AC9F
330
2
100
AcDbSymbolTableRecord
100
AcDbLayerTableRecord
  2
size
 70
     0
 62
     5
  6
Continuous
290
     0
370
    25
390
F
  0
LAYER
  5
ACA0
330
2
100
AcDbSymbolTableRecord
100
AcDbLayerTableRecord
  2
waku
 70
     0
 62
     7
  6
Continuous
370
    35
390
F
  0
LAYER
  5
ACA1
330
2
100
AcDbSymbolTableRecord
100
AcDbLayerTableRecord
  2
AM_6
 70
     0
 62
     2
  6
文字
370
    15
390
F
1001
AcAecLayerStandard
1000

1000

  0
LAYER
  5
ACC8
330
2
100
AcDbSymbolTableRecord
100
AcDbLayerTableRecord
  2
hyomoji
 70
     0
 62
     2
  6
Continuous
370
    15
390
F
  0
LAYER
  5
ACC9
330
2
100
AcDbSymbolTableRecord
100
AcDbLayerTableRecord
  2
hyosen1
 70
     0
 62
     1
  6
Continuous
370
    25
390
F
  0
LAYER
  5
ACCA
330
2
100
AcDbSymbolTableRecord
100
AcDbLayerTableRecord
  2
hyosen2
 70
     0
 62
     1
  6
Continuous
370
    15
390
F
  0
LAYER
  5
AD60
330
2
100
AcDbSymbolTableRecord
100
AcDbLayerTableRecord
  2
AM_1
 70
     0
 62
    30
  6
太線
370
    40
390
F
1001
AcAecLayerStandard
1000

1000

  0
LAYER
  5
AD64
330
2
100
AcDbSymbolTableRecord
100
AcDbLayerTableRecord
  2
AM_2
 70
     0
 62
     1
  6
細線
370
    13
390
F
1001
AcAecLayerStandard
1000

1000

  0
LAYER
  5
AD67
330
2
100
AcDbSymbolTableRecord
100
AcDbLayerTableRecord
  2
AM_3
 70
     0
 62
     6
  6
陰線1
370
    13
390
F
1001
AcAecLayerStandard
1000

1000

  0
LAYER
  5
AD68
330
2
100
AcDbSymbolTableRecord
100
AcDbLayerTableRecord
  2
AM_5
 70
     0
 62
     3
  6
寸法線
370
    13
390
F
1001
AcAecLayerStandard
1000

1000

  0
LAYER
  5
AD69
330
2
100
AcDbSymbolTableRecord
100
AcDbLayerTableRecord
  2
AM_7
 70
     0
 62
     4
  6
中心線1
370
    13
390
F
1001
AcAecLayerStandard
1000

1000

  0
LAYER
  5
AD6A
330
2
100
AcDbSymbolTableRecord
100
AcDbLayerTableRecord
  2
AM_8
 70
     0
 62
     1
  6
ハッチング
370
     5
390
F
1001
AcAecLayerStandard
1000

1000

  0
LAYER
  5
AD6E
330
2
100
AcDbSymbolTableRecord
100
AcDbLayerTableRecord
  2
AM_10
 70
     0
 62
     7
  6
切断線
370
    13
390
F
1001
AcAecLayerStandard
1000

1000

  0
LAYER
  5
AD6F
330
2
100
AcDbSymbolTableRecord
100
AcDbLayerTableRecord
  2
AM_11
 70
     0
 62
     2
  6
想像線1
370
    13
390
F
1001
AcAecLayerStandard
1000

1000

  0
LAYER
  5
B1B6
330
2
100
AcDbSymbolTableRecord
100
AcDbLayerTableRecord
  2
AM_CL
 70
     0
 62
     1
  6
Amconstr
370
    15
390
F
1001
AcAecLayerStandard
1000

1000

  0
LAYER
  5
B2EB
330
2
100
AcDbSymbolTableRecord
100
AcDbLayerTableRecord
  2
AM_14
 70
     0
 62
     5
  6
細線
370
     9
390
F
1001
AcAecLayerStandard
1000

1000

  0
LAYER
  5
B2EC
330
2
100
AcDbSymbolTableRecord
100
AcDbLayerTableRecord
  2
AM_15
 70
     0
 62
     6
  6
陰線1
370
     9
390
F
1001
AcAecLayerStandard
1000

1000

  0
LAYER
  5
B66C
330
2
100
AcDbSymbolTableRecord
100
AcDbLayerTableRecord
  2
001
 70
     0
 62
     7
  6
Continuous
370
    -3
390
F
  0
LAYER
  5
D89B
330
2
100
AcDbSymbolTableRecord
100
AcDbLayerTableRecord
  2
255
 70
     0
 62
     7
  6
Continuous
370
    -3
390
F
  0
ENDTAB
  0
TABLE
  2
STYLE
  5
3
330
0
100
AcDbSymbolTable
 70
    10
  0
STYLE
  5
11
330
3
100
AcDbSymbolTableRecord
100
AcDbTextStyleTableRecord
  2
STANDARD
 70
     0
 40
0.0
 41
0.7
 50
0.0
 71
     0
 42
3.2
  3
romans.shx
  4
extfont.shx
  0
STYLE
  5
56
330
3
100
AcDbSymbolTableRecord
100
AcDbTextStyleTableRecord
  2

 70
     1
 40
0.0
 41
1.0
 50
0.0
 71
     0
 42
2.5
  3
ltypeshp.shx
  4

  0
STYLE
  5
58
330
3
100
AcDbSymbolTableRecord
100
AcDbTextStyleTableRecord
  2
ACISOTS
 70
     0
 40
1.0
 41
1.0
 50
0.0
 71
     0
 42
2.5
  3
isocp.shx
  4
extfont.shx
  0
STYLE
  5
63
330
3
100
AcDbSymbolTableRecord
100
AcDbTextStyleTableRecord
  2
ACISOGDT
 70
     0
 40
0.0
 41
1.0
 50
0.0
 71
     0
 42
2.5
  3
amgdt.shx
  4

  0
STYLE
  5
A74
330
3
100
AcDbSymbolTableRecord
100
AcDbTextStyleTableRecord
  2
DIM
 70
     0
 40
0.0
 41
1.0
 50
0.0
 71
     0
 42
2.5
  3
monotxt.shx
  4
extfont.shx
  0
STYLE
  5
AC80
330
3
100
AcDbSymbolTableRecord
100
AcDbTextStyleTableRecord
  2

 70
     1
 40
0.0
 41
1.0
 50
0.0
 71
     0
 42
3.2
  3
genltshp.shx
  4

  0
STYLE
  5
D89C
330
3
100
AcDbSymbolTableRecord
100
AcDbTextStyleTableRecord
  2
TATEGAKI
 70
     4
 40
1.0
 41
1.0
 50
0.0
 71
     0
 42
0.2
  3
TXT
  4
BIGFONT
  0
ENDTAB
  0
TABLE
  2
VIEW
  5
6
330
0
100
AcDbSymbolTable
 70
     6
  0
VIEW
  5
AE1
330
6
100
AcDbSymbolTableRecord
100
AcDbViewTableRecord
  2
AM_VIEW1
 70
     0
 40
210.0
 10
1653.230852124335
 20
1672.984262209774
 41
402.2743259085579
 11
0.0
 21
0.0
 31
1.0
 12
0.0
 22
0.0
 32
0.0
 42
50.0
 43
-1370.695619172058
 44
-1370.695619172058
 50
0.0
 71
     0
281
     0
 72
     0
  0
VIEW
  5
AE2
330
6
100
AcDbSymbolTableRecord
100
AcDbViewTableRecord
  2
AM_VIEW2
 70
     0
 40
210.0
 10
1844.956526215777
 20
1672.984262209774
 41
402.2743259085579
 11
0.0
 21
0.0
 31
1.0
 12
0.0
 22
0.0
 32
0.0
 42
50.0
 43
-1370.695619172058
 44
-1370.695619172058
 50
0.0
 71
     0
281
     0
 72
     0
  0
VIEW
  5
AE3
330
6
100
AcDbSymbolTableRecord
100
AcDbViewTableRecord
  2
AM_VIEW3
 70
     0
 40
210.0
 10
1653.230852124335
 20
1462.984262209774
 41
402.2743259085579
 11
0.0
 21
0.0
 31
1.0
 12
0.0
 22
0.0
 32
0.0
 42
50.0
 43
-1370.695619172058
 44
-1370.695619172058
 50
0.0
 71
     0
281
     0
 72
     0
  0
VIEW
  5
AE4
330
6
100
AcDbSymbolTableRecord
100
AcDbViewTableRecord
  2
AM_VIEW4
 70
     0
 40
210.0
 10
1844.956526215777
 20
1462.984262209774
 41
402.2743259085579
 11
0.0
 21
0.0
 31
1.0
 12
0.0
 22
0.0
 32
0.0
 42
50.0
 43
-1370.695619172058
 44
-1370.695619172058
 50
0.0
 71
     0
281
     0
 72
     0
  0
VIEW
  5
AE5
330
6
100
AcDbSymbolTableRecord
100
AcDbViewTableRecord
  2
AM_VIEW5
 70
     0
 40
210.0
 10
1749.093689170056
 20
1567.984262209774
 41
402.2743259085578
 11
0.0
 21
0.0
 31
1.0
 12
0.0
 22
0.0
 32
0.0
 42
50.0
 43
-1370.695619172058
 44
-1370.695619172058
 50
0.0
 71
     0
281
     0
 72
     0
  0
VIEW
  5
AE6
330
6
100
AcDbSymbolTableRecord
100
AcDbViewTableRecord
  2
AM_VIEW6
 70
     0
 40
419.9958000000001
 10
1749.093689170056
 20
1567.984262209774
 41
804.5406063305977
 11
0.0
 21
0.0
 31
1.0
 12
0.0
 22
0.0
 32
0.0
 42
50.0
 43
-1370.695619172058
 44
-1370.695619172058
 50
0.0
 71
     0
281
     0
 72
     0
  0
ENDTAB
  0
TABLE
  2
UCS
  5
7
330
0
100
AcDbSymbolTable
 70
     0
  0
ENDTAB
  0
TABLE
  2
APPID
  5
9
330
0
100
AcDbSymbolTable
 70
    55
  0
APPID
  5
12
330
9
100
AcDbSymbolTableRecord
100
AcDbRegAppTableRecord
  2
ACAD
 70
     0
  0
APPID
  5
30
330
9
100
AcDbSymbolTableRecord
100
AcDbRegAppTableRecord
  2
MCAD_NO_VIS
 70
     0
  0
APPID
  5
31
330
9
100
AcDbSymbolTableRecord
100
AcDbRegAppTableRecord
  2
ACAD_TEMP_GRAPHIC
 70
     0
  0
APPID
  5
44
330
9
100
AcDbSymbolTableRecord
100
AcDbRegAppTableRecord
  2
ACATTRIBSERVICES
 70
     0
  0
APPID
  5
7A1
330
9
100
AcDbSymbolTableRecord
100
AcDbRegAppTableRecord
  2
GENIUS_GENDIMSH_14
 70
     0
  0
APPID
  5
A49
330
9
100
AcDbSymbolTableRecord
100
AcDbRegAppTableRecord
  2
GENIUS_GENREC_14
 70
     0
  0
APPID
  5
A4A
330
9
100
AcDbSymbolTableRecord
100
AcDbRegAppTableRecord
  2
GENIUS_GENOBJ-N-REC_13
 70
     0
  0
APPID
  5
A4B
330
9
100
AcDbSymbolTableRecord
100
AcDbRegAppTableRecord
  2
GENIUS_GENODEF_13
 70
     0
  0
APPID
  5
A4C
330
9
100
AcDbSymbolTableRecord
100
AcDbRegAppTableRecord
  2
DCO15
 70
     0
  0
APPID
  5
ADC
330
9
100
AcDbSymbolTableRecord
100
AcDbRegAppTableRecord
  2
GENIUS_GENOLIS_13
 70
     0
  0
APPID
  5
ADD
330
9
100
AcDbSymbolTableRecord
100
AcDbRegAppTableRecord
  2
GENIUS_GENOENT_13
 70
     0
  0
APPID
  5
ADE
330
9
100
AcDbSymbolTableRecord
100
AcDbRegAppTableRecord
  2
GENIUS_GENOBJ-N-TIT_13
 70
     0
  0
APPID
  5
ADF
330
9
100
AcDbSymbolTableRecord
100
AcDbRegAppTableRecord
  2
GENIUS_GENTITLE_13
 70
     0
  0
APPID
  5
AE0
330
9
100
AcDbSymbolTableRecord
100
AcDbRegAppTableRecord
  2
GENIUS_GENOREF_13
 70
     0
  0
APPID
  5
AE7
330
9
100
AcDbSymbolTableRecord
100
AcDbRegAppTableRecord
  2
GENIUS_GENSCREG_15
 70
     0
  0
APPID
  5
AE8
330
9
100
AcDbSymbolTableRecord
100
AcDbRegAppTableRecord
  2
GENIUS_GENOBJ-N-SDF_13
 70
     0
  0
APPID
  5
FAF
330
9
100
AcDbSymbolTableRecord
100
AcDbRegAppTableRecord
  2
GENIUS_GENBLLY_14
 70
     0
  0
APPID
  5
FB0
330
9
100
AcDbSymbolTableRecord
100
AcDbRegAppTableRecord
  2
GENIUS_GENTRA_14
 70
     0
  0
APPID
  5
1285
330
9
100
AcDbSymbolTableRecord
100
AcDbRegAppTableRecord
  2
GENIUS_GENDTOL_13
 70
     0
  0
APPID
  5
142D
330
9
100
AcDbSymbolTableRecord
100
AcDbRegAppTableRecord
  2
GENIUS_GENOBJ-N-CEN_13
 70
     0
  0
APPID
  5
1AB5
330
9
100
AcDbSymbolTableRecord
100
AcDbRegAppTableRecord
  2
GENIUS_GENOBJ-N-CRS_13
 70
     0
  0
APPID
  5
1B36
330
9
100
AcDbSymbolTableRecord
100
AcDbRegAppTableRecord
  2
GENIUS_GENOBJ-N-HTC_13
 70
     0
  0
APPID
  5
1B37
330
9
100
AcDbSymbolTableRecord
100
AcDbRegAppTableRecord
  2
GENIUS_GENHATCH_13
 70
     0
  0
APPID
  5
216D
330
9
100
AcDbSymbolTableRecord
100
AcDbRegAppTableRecord
  2
GENIUS_GENOBJ-N-FIL_13
 70
     0
  0
APPID
  5
2356
330
9
100
AcDbSymbolTableRecord
100
AcDbRegAppTableRecord
  2
GEVID990412420
 70
     0
  0
APPID
  5
2357
330
9
100
AcDbSymbolTableRecord
100
AcDbRegAppTableRecord
  2
GEVDC
 70
     0
  0
APPID
  5
2358
330
9
100
AcDbSymbolTableRecord
100
AcDbRegAppTableRecord
  2
GEVCON
 70
     0
  0
APPID
  5
235B
330
9
100
AcDbSymbolTableRecord
100
AcDbRegAppTableRecord
  2
GEVRADREF
 70
     0
  0
APPID
  5
2360
330
9
100
AcDbSymbolTableRecord
100
AcDbRegAppTableRecord
  2
GENIUS_GENBH_13
 70
     0
  0
APPID
  5
2362
330
9
100
AcDbSymbolTableRecord
100
AcDbRegAppTableRecord
  2
GENIUS_GENOBJ-NBEHI-BHF_13
 70
     0
  0
APPID
  5
2364
330
9
100
AcDbSymbolTableRecord
100
AcDbRegAppTableRecord
  2
GENIUS_GENOBJ-NBEHI-BHB_13
 70
     0
  0
APPID
  5
2379
330
9
100
AcDbSymbolTableRecord
100
AcDbRegAppTableRecord
  2
GENIUS_GENOBJ-F-SCPASSM_13
 70
     0
  0
APPID
  5
3D74
330
9
100
AcDbSymbolTableRecord
100
AcDbRegAppTableRecord
  2
GENIUS_GENDIM_13
 70
     0
  0
APPID
  5
3D76
330
9
100
AcDbSymbolTableRecord
100
AcDbRegAppTableRecord
  2
GENIUS_GE3DTOL_13
 70
     0
  0
APPID
  5
3D9C
330
9
100
AcDbSymbolTableRecord
100
AcDbRegAppTableRecord
  2
AD_DRAW
 70
     0
  0
APPID
  5
3DE8
330
9
100
AcDbSymbolTableRecord
100
AcDbRegAppTableRecord
  2
ASURF_PCURVE_APPNAME
 70
     0
  0
APPID
  5
3DED
330
9
100
AcDbSymbolTableRecord
100
AcDbRegAppTableRecord
  2
AMG_3D2D_5.0
 70
     0
  0
APPID
  5
3E1B
330
9
100
AcDbSymbolTableRecord
100
AcDbRegAppTableRecord
  2
DESIGNERASSEMBLIES
 70
     0
  0
APPID
  5
3E20
330
9
100
AcDbSymbolTableRecord
100
AcDbRegAppTableRecord
  2
ACADM_DIM_EDIT
 70
     0
  0
APPID
  5
3E21
330
9
100
AcDbSymbolTableRecord
100
AcDbRegAppTableRecord
  2
AMDT_DM_ADJ
 70
     0
  0
APPID
  5
4143
330
9
100
AcDbSymbolTableRecord
100
AcDbRegAppTableRecord
  2
GENIUS_GENFIL_13
 70
     0
  0
APPID
  5
4144
330
9
100
AcDbSymbolTableRecord
100
AcDbRegAppTableRecord
  2
GENIUS_GENOBJ-N-CHA_13
 70
     0
  0
APPID
  5
4E17
330
9
100
AcDbSymbolTableRecord
100
AcDbRegAppTableRecord
  2
GEVID1008153417
 70
     0
  0
APPID
  5
4E58
330
9
100
AcDbSymbolTableRecord
100
AcDbRegAppTableRecord
  2
GEVID1008153418
 70
     0
  0
APPID
  5
4E5E
330
9
100
AcDbSymbolTableRecord
100
AcDbRegAppTableRecord
  2
GEVID1008153419
 70
     0
  0
APPID
  5
4E64
330
9
100
AcDbSymbolTableRecord
100
AcDbRegAppTableRecord
  2
GEVID1008153420
 70
     0
  0
APPID
  5
4E75
330
9
100
AcDbSymbolTableRecord
100
AcDbRegAppTableRecord
  2
GEVID1008153421
 70
     0
  0
APPID
  5
4EB7
330
9
100
AcDbSymbolTableRecord
100
AcDbRegAppTableRecord
  2
GENIUS_AMGTXT_16
 70
     0
  0
APPID
  5
7645
330
9
100
AcDbSymbolTableRecord
100
AcDbRegAppTableRecord
  2
GENIUS_GENOBJ-N-DIM_13
 70
     0
  0
APPID
  5
AAD0
330
9
100
AcDbSymbolTableRecord
100
AcDbRegAppTableRecord
  2
ACAD_DSTYLE_DIMARC_LENGTH_SYMBOL
 70
     0
  0
APPID
  5
AAD1
330
9
100
AcDbSymbolTableRecord
100
AcDbRegAppTableRecord
  2
ACAD_DSTYLE_DIMJOGGED_JOGANGLE_SYMBOL
 70
     0
  0
APPID
  5
AAFD
330
9
100
AcDbSymbolTableRecord
100
AcDbRegAppTableRecord
  2
ACAD_PSEXT
 70
     0
  0
APPID
  5
AD61
330
9
100
AcDbSymbolTableRecord
100
AcDbRegAppTableRecord
  2
AcAecLayerStandard
 70
     0
  0
APPID
  5
AEE3
330
9
100
AcDbSymbolTableRecord
100
AcDbRegAppTableRecord
  2
ACAD_EXEMPT_FROM_CAD_STANDARDS
 70
     0
  0
APPID
  5
B1BE
330
9
100
AcDbSymbolTableRecord
100
AcDbRegAppTableRecord
  2
GENIUS_GENCEN_19
 70
     0
  0
ENDTAB
  0
TABLE
  2
DIMSTYLE
  5
A
330
0
100
AcDbSymbolTable
 70
    23
100
AcDbDimStyleTable
 71
     1
340
2515
  0
DIMSTYLE
105
A76
330
A
100
AcDbSymbolTableRecord
100
AcDbDimStyleTableRecord
  2
STANDARD
 70
     0
 41
3.0
 42
1.0
 43
7.0
 44
2.0
 73
     0
 74
     0
 77
     1
140
2.799999999999999
141
0.0
143
0.0394
147
0.7
171
     4
172
     1
173
     1
176
     3
177
     3
178
     2
271
     3
272
     3
273
     8
274
     4
289
     0
340
A74
341
A66
343
A66
344
A66
  0
DIMSTYLE
105
2515
330
A
100
AcDbSymbolTableRecord
100
AcDbDimStyleTableRecord
  2
SYS
 70
     0
  4
"
 41
1.0
 42
1.0
 43
10.0
 44
1.0
 47
0.1
 48
0.1
 73
     0
 74
     0
 77
     1
 78
     8
 79
     2
140
3.5
141
0.0
143
0.0393701
146
0.71
147
1.5
172
     1
176
   256
177
   256
178
     7
271
     2
272
     2
283
     0
284
     8
340
11
371
    -1
372
    -1
1001
ACAD_DSTYLE_DIMJOGGED_JOGANGLE_SYMBOL
1070
   384
1040
0.7853981633974483
1001
ACAD_DSTYLE_DIMARC_LENGTH_SYMBOL
1070
   379
1070
     1
  0
DIMSTYLE
105
2516
330
A
100
AcDbSymbolTableRecord
100
AcDbDimStyleTableRecord
  2
SYS$3
 70
     0
  4
"
 41
2.0
 42
1.0
 43
10.0
 44
1.0
 47
0.1
 48
0.1
 73
     0
 77
     1
 78
     8
 79
     2
140
3.5
141
0.0
143
0.0393701
146
0.71
147
1.5
176
   256
177
   256
178
     2
271
     2
272
     2
283
     0
284
     8
288
     1
340
11
342
A66
371
    -1
372
    -1
1001
ACAD_DSTYLE_DIMJOGGED_JOGANGLE_SYMBOL
1070
   384
1040
0.7853981633974483
1001
ACAD_DSTYLE_DIMARC_LENGTH_SYMBOL
1070
   379
1070
     1
  0
DIMSTYLE
105
2517
330
A
100
AcDbSymbolTableRecord
100
AcDbDimStyleTableRecord
  2
SYS$4
 70
     0
  4
"
 41
2.0
 42
1.0
 43
10.0
 44
1.0
 47
0.1
 48
0.1
 73
     0
 77
     1
 78
     8
 79
     2
140
3.5
141
0.0
143
0.0393701
146
0.71
147
1.5
173
     1
176
   256
177
   256
178
     2
271
     2
272
     2
283
     0
284
     8
288
     1
340
11
344
A66
371
    -1
372
    -1
1001
ACAD_DSTYLE_DIMJOGGED_JOGANGLE_SYMBOL
1070
   384
1040
0.7853981633974483
1001
ACAD_DSTYLE_DIMARC_LENGTH_SYMBOL
1070
   379
1070
     1
  0
DIMSTYLE
105
2518
330
A
100
AcDbSymbolTableRecord
100
AcDbDimStyleTableRecord
  2
SYS$6
 70
     0
  4
"
 41
2.0
 42
1.0
 43
10.0
 44
1.0
 47
0.1
 48
0.1
 73
     0
 74
     0
 78
     8
 79
     2
140
3.5
141
0.0
143
0.0393701
146
0.71
147
1.5
172
     1
176
   256
177
   256
178
     2
271
     2
272
     2
283
     0
284
     8
340
11
341
A66
371
    -1
372
    -1
1001
ACAD_DSTYLE_DIMJOGGED_JOGANGLE_SYMBOL
1070
   384
1040
0.7853981633974483
1001
ACAD_DSTYLE_DIMARC_LENGTH_SYMBOL
1070
   379
1070
     1
  0
DIMSTYLE
105
2519
330
A
100
AcDbSymbolTableRecord
100
AcDbDimStyleTableRecord
  2
SYS$7
 70
     0
  4
"
 41
2.0
 42
1.0
 43
10.0
 44
1.0
 47
0.1
 48
0.1
 73
     0
 74
     0
 77
     1
 78
     8
 79
     2
140
5.0
141
0.0
143
0.0393701
146
0.71
147
1.5
172
     1
176
   256
177
   256
178
     2
271
     2
272
     2
283
     0
284
     8
340
11
341
A66
342
A66
371
    -1
372
    -1
1001
ACAD_DSTYLE_DIMJOGGED_JOGANGLE_SYMBOL
1070
   384
1040
0.7853981633974483
1001
ACAD_DSTYLE_DIMARC_LENGTH_SYMBOL
1070
   379
1070
     1
  0
DIMSTYLE
105
251A
330
A
100
AcDbSymbolTableRecord
100
AcDbDimStyleTableRecord
  2
SYS$SF
 70
     0
  4
"
 41
2.5
 42
1.0
 43
10.0
 44
1.0
 47
0.1
 48
0.1
 73
     0
 74
     0
 75
     1
 76
     1
 77
     1
 78
     8
 79
     2
140
3.5
141
0.0
143
0.0393701
146
0.71
147
1.5
172
     1
176
   256
177
   256
178
     2
271
     2
272
     3
283
     0
284
     8
340
11
341
6C4
342
6C4
371
    -1
372
    -1
1001
ACAD_DSTYLE_DIMJOGGED_JOGANGLE_SYMBOL
1070
   384
1040
0.7853981633974483
1001
ACAD_DSTYLE_DIMARC_LENGTH_SYMBOL
1070
   379
1070
     1
  0
DIMSTYLE
105
251B
330
A
100
AcDbSymbolTableRecord
100
AcDbDimStyleTableRecord
  2
SYS$SH
 70
     0
  4
"
 41
2.5
 42
1.0
 43
10.0
 44
1.0
 47
0.1
 48
0.1
 73
     0
 74
     0
 75
     1
 76
     1
 77
     1
 78
     8
 79
     2
140
3.5
141
0.0
143
0.0393701
144
2.0
146
0.71
147
1.5
172
     1
173
     1
176
   256
177
   256
178
     2
271
     2
272
     3
283
     0
284
     8
340
11
341
6C4
343
72
344
6C4
371
    -1
372
    -1
1001
ACAD_DSTYLE_DIMJOGGED_JOGANGLE_SYMBOL
1070
   384
1040
0.7853981633974483
1001
ACAD_DSTYLE_DIMARC_LENGTH_SYMBOL
1070
   379
1070
     1
  0
DIMSTYLE
105
2A59
330
A
100
AcDbSymbolTableRecord
100
AcDbDimStyleTableRecord
  2
SYS$2
 70
     0
  4
"
 41
1.0
 42
1.0
 43
10.0
 44
1.0
 47
0.1
 48
0.1
 73
     0
 74
     0
 77
     1
 78
     8
 79
     2
140
3.5
141
0.0
143
0.0393701
146
0.71
147
1.5
172
     1
176
   256
177
   256
178
     2
271
     2
272
     2
283
     0
284
     8
340
11
342
6C4
371
    -1
372
    -1
1001
ACAD_DSTYLE_DIMJOGGED_JOGANGLE_SYMBOL
1070
   384
1040
0.7853981633974483
1001
ACAD_DSTYLE_DIMARC_LENGTH_SYMBOL
1070
   379
1070
     1
  0
DIMSTYLE
105
2AAB
102
{ACAD_REACTORS
330
C9A9
330
C9AA
330
C9AB
330
C9AC
330
C9AD
330
C9AE
330
C9AF
330
C9B0
330
C9B1
330
C9B2
330
C9B3
330
C9B4
330
C9B9
330
C9BA
330
C9BB
330
C9BC
330
C9BD
330
C9BE
330
C9BF
330
C9C0
330
C9C1
330
CBF7
330
CC0D
330
CDC8
330
D04B
330
D04C
330
D04D
330
D04E
330
D04F
330
D050
330
D05C
330
D060
330
D062
330
D063
330
D089
330
D08A
330
D08B
330
D090
330
D0A6
330
D0B8
330
D0B9
330
D0BA
330
D0BB
330
D0BC
330
D0BD
330
D0CA
330
D43D
102
}
330
A
100
AcDbSymbolTableRecord
100
AcDbDimStyleTableRecord
  2
SYS$0
 70
     0
  4
"
 41
1.0
 42
1.0
 43
10.0
 44
1.0
 47
0.1
 48
0.1
 73
     0
 74
     0
 77
     1
 78
     8
 79
     2
140
3.200000000000001
141
0.0
143
0.0393701
146
0.71
147
1.5
172
     1
176
   256
177
   256
178
     2
271
     2
272
     2
283
     0
284
     8
340
11
341
A66
342
6C4
371
    -1
372
    -1
1001
ACAD_DSTYLE_DIMJOGGED_JOGANGLE_SYMBOL
1070
   384
1040
0.7853981633974483
1001
ACAD_DSTYLE_DIMARC_LENGTH_SYMBOL
1070
   379
1070
     1
  0
DIMSTYLE
105
AF99
330
A
100
AcDbSymbolTableRecord
100
AcDbDimStyleTableRecord
  2
AM_ISO
 70
     0
  4
"
 41
2.5
 42
1.0
 43
10.0
 44
1.0
 47
0.1
 48
0.1
 73
     0
 74
     0
 77
     1
 78
     8
 79
     2
140
3.5
141
0.0
143
0.0393701
146
0.71
147
1.5
172
     1
176
   256
177
   256
178
     2
271
     2
272
     3
274
     4
283
     0
284
     8
340
11
371
    -1
372
    -1
  0
DIMSTYLE
105
AF9A
330
A
100
AcDbSymbolTableRecord
100
AcDbDimStyleTableRecord
  2
AM_ISO$3
 70
     0
  4
"
 41
2.5
 42
1.0
 43
10.0
 44
1.0
 47
0.1
 48
0.1
 73
     0
 77
     1
 78
     8
 79
     2
140
3.5
141
0.0
143
0.0393701
146
0.71
147
1.5
176
   256
177
   256
178
     2
271
     2
272
     3
274
     4
283
     0
284
     8
288
     1
289
     0
340
11
371
    -1
372
    -1
  0
DIMSTYLE
105
AF9B
330
A
100
AcDbSymbolTableRecord
100
AcDbDimStyleTableRecord
  2
AM_ISO$4
 70
     0
  4
"
 41
2.5
 42
1.0
 43
10.0
 44
1.0
 47
0.1
 48
0.1
 73
     0
 77
     1
 78
     8
 79
     2
140
3.5
141
0.0
143
0.0393701
146
0.71
147
1.5
176
   256
177
   256
178
     2
271
     2
272
     3
274
     4
283
     0
284
     8
288
     1
289
     0
340
11
371
    -1
372
    -1
  0
DIMSTYLE
105
AF9C
330
A
100
AcDbSymbolTableRecord
100
AcDbDimStyleTableRecord
  2
AM_ISO$6
 70
     0
  4
"
 41
2.5
 42
1.0
 43
10.0
 44
1.0
 47
0.1
 48
0.1
 73
     0
 74
     0
 78
     8
 79
     2
140
3.5
141
0.0
143
0.0393701
146
0.71
147
1.5
172
     1
176
   256
177
   256
178
     2
271
     2
272
     3
274
     4
283
     0
284
     8
340
11
371
    -1
372
    -1
  0
DIMSTYLE
105
AF9D
330
A
100
AcDbSymbolTableRecord
100
AcDbDimStyleTableRecord
  2
AM_ISO$7
 70
     0
  4
"
 41
2.5
 42
1.0
 43
10.0
 44
1.0
 47
0.1
 48
0.1
 73
     0
 74
     0
 77
     1
 78
     8
 79
     2
140
5.0
141
0.0
143
0.0393701
146
0.71
147
1.5
172
     1
176
   256
177
   256
178
     2
271
     2
272
     3
274
     4
283
     0
284
     8
340
11
371
    -1
372
    -1
  0
DIMSTYLE
105
AF9E
330
A
100
AcDbSymbolTableRecord
100
AcDbDimStyleTableRecord
  2
AM_ISO$SF
 70
     0
  4
"
 41
2.5
 42
1.0
 43
10.0
 44
1.0
 47
0.1
 48
0.1
 73
     0
 74
     0
 75
     1
 76
     1
 77
     1
 78
     8
 79
     2
140
3.5
141
0.0
143
0.0393701
146
0.71
147
1.5
172
     1
176
   256
177
   256
178
     2
271
     2
272
     3
274
     4
283
     0
284
     8
340
11
371
    -1
372
    -1
  0
DIMSTYLE
105
AF9F
330
A
100
AcDbSymbolTableRecord
100
AcDbDimStyleTableRecord
  2
AM_ISO$SH
 70
     0
  4
"
 41
2.5
 42
1.0
 43
10.0
 44
1.0
 47
0.1
 48
0.1
 73
     0
 74
     0
 75
     1
 76
     1
 77
     1
 78
     8
 79
     2
140
3.5
141
0.0
143
0.0393701
144
2.0
146
0.71
147
1.5
172
     1
173
     1
176
   256
177
   256
178
     2
271
     2
272
     3
274
     4
283
     0
284
     8
340
11
343
72
371
    -1
372
    -1
  0
DIMSTYLE
105
BCC1
330
A
100
AcDbSymbolTableRecord
100
AcDbDimStyleTableRecord
  2
AM_ISO$0
 70
     0
  4
"
 41
0.8
 42
1.0
 43
10.0
 44
1.0
 47
0.1
 48
0.1
 73
     0
 74
     0
 77
     1
 78
     8
 79
     2
140
3.2
141
0.0
143
0.0393701
146
0.71
147
0.9999999999999996
172
     1
176
   256
177
   256
178
     2
271
     2
272
     2
283
     0
284
     8
340
11
341
6C4
342
6C4
371
    -1
372
    -1
  0
DIMSTYLE
105
BCC2
330
A
100
AcDbSymbolTableRecord
100
AcDbDimStyleTableRecord
  2
AM_ISO$2
 70
     0
  4
"
 41
0.8
 42
1.0
 43
10.0
 44
1.0
 47
0.1
 48
0.1
 73
     0
 74
     0
 77
     3
 78
     8
 79
     2
140
3.200000000000001
141
0.0
143
0.0393701
146
0.71
147
0.9999999999999996
172
     1
176
   256
177
   256
178
     2
271
     2
272
     2
283
     0
284
     8
340
11
342
6C4
371
    -1
372
    -1
  0
DIMSTYLE
105
BCC3
330
A
100
AcDbSymbolTableRecord
100
AcDbDimStyleTableRecord
  2
AM_ANSI
 70
     0
  4
mm
 41
0.1
 42
0.05
 43
0.5
 44
0.1
 47
0.1
 48
0.1
 78
     7
 79
     2
140
0.12
141
0.0
146
0.71
147
0.06
176
   256
177
   256
178
     2
274
     4
284
     7
340
11
371
    -1
372
    -1
  0
ENDTAB
  0
TABLE
  2
BLOCK_RECORD
  5
1
330
0
100
AcDbSymbolTable
 70
   390
  0
BLOCK_RECORD
  5
1F
102
{ACAD_XDICTIONARY
360
8A
102
}
330
1
100
AcDbSymbolTableRecord
100
AcDbBlockTableRecord
  2
*Model_Space
340
22
  0
BLOCK_RECORD
  5
1B
330
1
100
AcDbSymbolTableRecord
100
AcDbBlockTableRecord
  2
*Paper_Space
340
1E
  0
BLOCK_RECORD
  5
23
330
1
100
AcDbSymbolTableRecord
100
AcDbBlockTableRecord
  2
*Paper_Space0
340
26
  0
BLOCK_RECORD
  5
72
330
1
100
AcDbSymbolTableRecord
100
AcDbBlockTableRecord
  2
GENAXEH
340
0
  0
BLOCK_RECORD
  5
6C4
330
1
100
AcDbSymbolTableRecord
100
AcDbBlockTableRecord
  2
_Dot
340
0
102
{BLKREFS
331
BBB1
331
BBB2
331
BBBD
331
BBBE
331
BBC9
331
BBCA
331
BBD5
331
BBD6
331
BBE1
331
BBE2
331
BBED
331
BBEE
331
BBF9
331
BBFA
331
BC05
331
BC06
331
BC11
331
BC12
331
BC1D
331
BC1E
331
BC29
331
BC2A
331
BC35
331
BC36
331
BC43
331
BC44
331
BC4F
331
BC50
331
BC5B
331
BC5C
331
BC67
331
BC68
331
BC73
331
BC74
331
BC7F
331
BC80
331
BC8B
331
BC8C
331
BC97
331
BC98
331
BCA3
331
BCA4
331
BCAF
331
BCB0
331
CD96
331
CD97
331
CDE3
331
CDE4
331
CDEC
331
CDED
331
CDF5
331
CDF6
331
CDFE
331
CDFF
331
CE07
331
CE08
331
CE10
331
CE11
331
CE19
331
CE1A
331
CE22
331
CE23
331
CE2B
331
CE2C
331
CE34
331
CE35
331
CE3D
331
CE3E
331
CE46
331
CE47
331
CE51
331
CE52
331
CE5A
331
CE5B
331
CE63
331
CE64
331
CE6C
331
CE6D
331
CE75
331
CE76
331
CE7E
331
CE7F
331
CE87
331
CE88
331
CE90
331
CE91
331
CE9A
331
CE9B
331
CEA3
331
CEA4
331
CF69
331
CF6A
331
CF5D
331
CF5E
331
CF51
331
CF52
331
CF45
331
CF46
331
CF39
331
CF3A
331
CF2D
331
CF2E
331
CF21
331
CF22
331
CEE4
331
CEE5
331
CF15
331
CF16
331
CF09
331
CF0A
331
CEF0
331
CEF1
331
CED8
331
CED9
331
CECC
331
CECD
331
CEFD
331
CEFE
331
CEC0
331
CEC1
331
CF75
331
CF76
331
CF81
331
CF82
331
CF8D
331
CF8E
331
CF9B
331
CF9C
331
CFA7
331
CFA8
331
CFB3
331
CFB4
331
CFBF
331
CFC0
331
D347
331
D348
331
D36B
331
D36C
331
D374
331
D375
331
D37D
331
D37E
331
D386
331
D387
331
D38F
331
D390
331
D398
331
D399
331
D3A1
331
D3A2
331
D3AA
331
D3AB
331
D3B3
331
D3B4
331
D3BC
331
D3BD
331
D3C5
331
D3C6
331
D3CE
331
D3CF
331
D3D7
331
D3D8
331
D3E1
331
D3E2
331
D3EA
331
D3EB
331
D3F3
331
D3F4
331
D3FC
331
D3FD
331
D405
331
D406
331
D40E
331
D40F
331
D417
331
D418
331
D420
331
D421
331
D457
331
D458
331
109BA
331
109BB
331
109C3
331
109C4
331
109CC
331
109CD
331
109D5
331
109D6
331
109DF
331
109E0
331
109FA
331
109FB
331
10A03
331
10A04
331
10A0C
331
10A0D
331
10A15
331
10A16
331
10A1E
331
10A1F
331
10A27
331
10A28
331
10A30
331
10A31
331
10A4C
331
10A4D
331
10A60
331
10A61
331
10ABB
331
10ABC
331
10AC4
331
10AC5
331
10ACD
331
10ACE
331
10AD6
331
10AD7
331
10ADF
331
10AE0
331
10AE8
331
10AE9
331
10AF1
331
10AF2
331
10AFA
331
10AFB
331
10B03
331
10B04
331
10B0C
331
10B0D
331
11126
331
11127
331
1112F
331
11130
331
11138
331
11139
331
11141
331
11142
331
1114A
331
1114B
331
11153
331
11154
331
1115C
331
1115D
331
11165
331
11166
331
1116E
331
1116F
331
11177
331
11178
331
11180
331
11181
331
11189
331
1118A
331
11192
331
11193
331
1119B
331
1119C
331
111A4
331
111A5
331
111AD
331
111AE
331
111B6
331
111B7
331
111BF
331
111C0
102
}
  0
BLOCK_RECORD
  5
A66
330
1
100
AcDbSymbolTableRecord
100
AcDbBlockTableRecord
  2
_OPEN30
340
0
102
{BLKREFS
331
BB16
331
BB17
331
BB1F
331
BB20
331
BB2A
331
BB2B
331
BB33
331
BB34
331
BB3E
331
BB3F
331
BB47
331
BB48
331
BB52
331
BB53
331
BB5D
331
BB5E
331
BB68
331
BB69
331
BB71
331
BB72
331
C90A
331
C90B
331
C913
331
C914
331
C91C
331
C91D
331
C925
331
C926
331
C92E
331
C92F
331
C937
331
C938
331
C940
331
C941
331
C949
331
C94A
331
C952
331
C953
331
C95B
331
C95C
331
C966
331
C967
331
C971
331
C972
331
C97A
331
C97B
331
C983
331
C984
331
C98C
331
C98D
331
E561
331
E562
331
E56A
331
E56B
331
E575
331
E576
331
E57E
331
E57F
331
E589
331
E58A
331
E592
331
E593
331
E59B
331
E59C
331
E5A6
331
E5A7
331
E5AF
331
E5B0
331
E5B8
331
E5B9
331
E5C1
331
E5C2
331
E5CC
331
E5CD
331
E5D5
331
E5D6
331
E5DE
331
E5DF
331
E5E7
331
E5E8
331
E5F0
331
E5F1
331
E5F9
331
E5FA
331
E602
331
E603
331
E60B
331
E60C
331
E614
331
E615
331
E61D
331
E61E
331
E626
331
E627
331
E62F
331
E630
331
E638
331
E639
331
E643
331
E644
331
E64C
331
E64D
331
E655
331
E656
331
E65E
331
E65F
331
E667
331
E668
331
E670
331
E671
331
E67B
331
E67C
331
E686
331
E687
331
E68F
331
E690
331
E698
331
E699
331
E6A3
331
E6A4
331
E6AC
331
E6AD
331
E6B5
331
E6B6
331
E6C0
331
E6C1
331
E6C9
331
E6CA
331
1085B
331
1085C
331
10866
331
10867
331
1086F
331
10870
331
10878
331
10879
331
10881
331
10882
331
1088A
331
1088B
331
10895
331
10896
331
1089E
331
1089F
331
108A7
331
108A8
331
108B0
331
108B1
331
108B9
331
108BA
331
108C2
331
108C3
331
108CB
331
108CC
331
108D4
331
108D5
331
108DD
331
108DE
331
108E6
331
108E7
331
108F1
331
108F2
331
108FC
331
108FD
331
10907
331
10908
331
10910
331
10911
331
10919
331
1091A
331
10922
331
10923
331
1092D
331
1092E
331
10936
331
10937
331
10941
331
10942
331
1094A
331
1094B
331
10953
331
10954
331
1095C
331
1095D
331
10965
331
10966
331
1096E
331
1096F
331
10977
331
10978
331
10980
331
10981
331
10989
331
1098A
331
10992
331
10993
331
1099B
331
1099C
331
109A6
331
109A7
331
109B1
331
109B2
331
10FB0
331
10FB1
331
10FB9
331
10FBA
331
10FC2
331
10FC3
331
10FCB
331
10FCC
331
10FD4
331
10FD5
331
10FDD
331
10FDE
102
}
  0
BLOCK_RECORD
  5
BBA7
330
1
100
AcDbSymbolTableRecord
100
AcDbBlockTableRecord
  2
_DotSmall
340
0
102
{BLKREFS
331
BD30
331
BD32
331
BCBC
331
BCBD
331
CC4B
331
CC4E
331
CDA0
331
CDA1
331
CEAD
331
CEAE
331
D03E
331
D03F
331
D044
331
D045
331
D0C2
331
D0C3
331
D0C8
331
D0C9
331
D442
331
D443
102
}
  0
BLOCK_RECORD
  5
C9C2
330
1
100
AcDbSymbolTableRecord
100
AcDbBlockTableRecord
  2
*D114
340
0
  0
BLOCK_RECORD
  5
C9CF
330
1
100
AcDbSymbolTableRecord
100
AcDbBlockTableRecord
  2
*D115
340
0
  0
BLOCK_RECORD
  5
C9DB
330
1
100
AcDbSymbolTableRecord
100
AcDbBlockTableRecord
  2
*D116
340
0
  0
BLOCK_RECORD
  5
C9E7
330
1
100
AcDbSymbolTableRecord
100
AcDbBlockTableRecord
  2
*D117
340
0
  0
BLOCK_RECORD
  5
C9F3
330
1
100
AcDbSymbolTableRecord
100
AcDbBlockTableRecord
  2
*D118
340
0
  0
BLOCK_RECORD
  5
C9FF
330
1
100
AcDbSymbolTableRecord
100
AcDbBlockTableRecord
  2
*D119
340
0
  0
BLOCK_RECORD
  5
CA0B
330
1
100
AcDbSymbolTableRecord
100
AcDbBlockTableRecord
  2
*D120
340
0
  0
BLOCK_RECORD
  5
CA17
330
1
100
AcDbSymbolTableRecord
100
AcDbBlockTableRecord
  2
*D121
340
0
  0
BLOCK_RECORD
  5
CA23
330
1
100
AcDbSymbolTableRecord
100
AcDbBlockTableRecord
  2
*D122
340
0
  0
BLOCK_RECORD
  5
CA2F
330
1
100
AcDbSymbolTableRecord
100
AcDbBlockTableRecord
  2
*D123
340
0
  0
BLOCK_RECORD
  5
CA3B
330
1
100
AcDbSymbolTableRecord
100
AcDbBlockTableRecord
  2
*D124
340
0
  0
BLOCK_RECORD
  5
CA47
330
1
100
AcDbSymbolTableRecord
100
AcDbBlockTableRecord
  2
*D125
340
0
  0
BLOCK_RECORD
  5
CA53
330
1
100
AcDbSymbolTableRecord
100
AcDbBlockTableRecord
  2
*D126
340
0
  0
BLOCK_RECORD
  5
CA5F
330
1
100
AcDbSymbolTableRecord
100
AcDbBlockTableRecord
  2
*D127
340
0
  0
BLOCK_RECORD
  5
CA6B
330
1
100
AcDbSymbolTableRecord
100
AcDbBlockTableRecord
  2
*D128
340
0
  0
BLOCK_RECORD
  5
CA77
330
1
100
AcDbSymbolTableRecord
100
AcDbBlockTableRecord
  2
*D129
340
0
  0
BLOCK_RECORD
  5
CA83
330
1
100
AcDbSymbolTableRecord
100
AcDbBlockTableRecord
  2
*D130
340
0
  0
BLOCK_RECORD
  5
CA8F
330
1
100
AcDbSymbolTableRecord
100
AcDbBlockTableRecord
  2
*D131
340
0
  0
BLOCK_RECORD
  5
CA9B
330
1
100
AcDbSymbolTableRecord
100
AcDbBlockTableRecord
  2
*D132
340
0
  0
BLOCK_RECORD
  5
CAA7
330
1
100
AcDbSymbolTableRecord
100
AcDbBlockTableRecord
  2
*D133
340
0
  0
BLOCK_RECORD
  5
CAB4
330
1
100
AcDbSymbolTableRecord
100
AcDbBlockTableRecord
  2
*D134
340
0
  0
BLOCK_RECORD
  5
CBF8
330
1
100
AcDbSymbolTableRecord
100
AcDbBlockTableRecord
  2
*D135
340
0
  0
BLOCK_RECORD
  5
CC0E
330
1
100
AcDbSymbolTableRecord
100
AcDbBlockTableRecord
  2
*D136
340
0
  0
BLOCK_RECORD
  5
CDC9
330
1
100
AcDbSymbolTableRecord
100
AcDbBlockTableRecord
  2
*D139
340
0
  0
BLOCK_RECORD
  5
D0CB
330
1
100
AcDbSymbolTableRecord
100
AcDbBlockTableRecord
  2
*D164
340
0
  0
BLOCK_RECORD
  5
D0D7
330
1
100
AcDbSymbolTableRecord
100
AcDbBlockTableRecord
  2
*D165
340
0
  0
BLOCK_RECORD
  5
D0E3
330
1
100
AcDbSymbolTableRecord
100
AcDbBlockTableRecord
  2
*D166
340
0
  0
BLOCK_RECORD
  5
D0EF
330
1
100
AcDbSymbolTableRecord
100
AcDbBlockTableRecord
  2
*D167
340
0
  0
BLOCK_RECORD
  5
D0FB
330
1
100
AcDbSymbolTableRecord
100
AcDbBlockTableRecord
  2
*D168
340
0
  0
BLOCK_RECORD
  5
D107
330
1
100
AcDbSymbolTableRecord
100
AcDbBlockTableRecord
  2
*D169
340
0
  0
BLOCK_RECORD
  5
D113
330
1
100
AcDbSymbolTableRecord
100
AcDbBlockTableRecord
  2
*D170
340
0
  0
BLOCK_RECORD
  5
D11F
330
1
100
AcDbSymbolTableRecord
100
AcDbBlockTableRecord
  2
*D171
340
0
  0
BLOCK_RECORD
  5
D12B
330
1
100
AcDbSymbolTableRecord
100
AcDbBlockTableRecord
  2
*D172
340
0
  0
BLOCK_RECORD
  5
D137
330
1
100
AcDbSymbolTableRecord
100
AcDbBlockTableRecord
  2
*D173
340
0
  0
BLOCK_RECORD
  5
D143
330
1
100
AcDbSymbolTableRecord
100
AcDbBlockTableRecord
  2
*D174
340
0
  0
BLOCK_RECORD
  5
D14F
330
1
100
AcDbSymbolTableRecord
100
AcDbBlockTableRecord
  2
*D175
340
0
  0
BLOCK_RECORD
  5
D15B
330
1
100
AcDbSymbolTableRecord
100
AcDbBlockTableRecord
  2
*D176
340
0
  0
BLOCK_RECORD
  5
D167
330
1
100
AcDbSymbolTableRecord
100
AcDbBlockTableRecord
  2
*D177
340
0
  0
BLOCK_RECORD
  5
D174
330
1
100
AcDbSymbolTableRecord
100
AcDbBlockTableRecord
  2
*D178
340
0
  0
BLOCK_RECORD
  5
D180
330
1
100
AcDbSymbolTableRecord
100
AcDbBlockTableRecord
  2
*D179
340
0
  0
BLOCK_RECORD
  5
D18C
330
1
100
AcDbSymbolTableRecord
100
AcDbBlockTableRecord
  2
*D180
340
0
  0
BLOCK_RECORD
  5
D198
330
1
100
AcDbSymbolTableRecord
100
AcDbBlockTableRecord
  2
*D181
340
0
  0
BLOCK_RECORD
  5
D1A4
330
1
100
AcDbSymbolTableRecord
100
AcDbBlockTableRecord
  2
*D182
340
0
  0
BLOCK_RECORD
  5
D1B2
330
1
100
AcDbSymbolTableRecord
100
AcDbBlockTableRecord
  2
*D183
340
0
  0
BLOCK_RECORD
  5
D1BE
330
1
100
AcDbSymbolTableRecord
100
AcDbBlockTableRecord
  2
*D184
340
0
  0
BLOCK_RECORD
  5
D1CA
330
1
100
AcDbSymbolTableRecord
100
AcDbBlockTableRecord
  2
*D185
340
0
  0
BLOCK_RECORD
  5
D444
330
1
100
AcDbSymbolTableRecord
100
AcDbBlockTableRecord
  2
*D186
340
0
  0
ENDTAB
  0
ENDSEC
  0
SECTION
  2
BLOCKS
  0
BLOCK
  5
20
330
1F
100
AcDbEntity
  8
0
100
AcDbBlockBegin
  2
*Model_Space
 70
     0
 10
0.0
 20
0.0
 30
0.0
  3
*Model_Space
  1

  0
ENDBLK
  5
21
330
1F
100
AcDbEntity
  8
0
100
AcDbBlockEnd
  0
BLOCK
  5
1C
330
1B
100
AcDbEntity
 67
     1
  8
0
100
AcDbBlockBegin
  2
*Paper_Space
 70
     0
 10
0.0
 20
0.0
 30
0.0
  3
*Paper_Space
  1

  0
ENDBLK
  5
1D
330
1B
100
AcDbEntity
 67
     1
  8
0
100
AcDbBlockEnd
  0
BLOCK
  5
24
330
23
100
AcDbEntity
 67
     1
  8
0
100
AcDbBlockBegin
  2
*Paper_Space0
 70
     0
 10
0.0
 20
0.0
 30
0.0
  3
*Paper_Space0
  1

  0
ENDBLK
  5
25
330
23
100
AcDbEntity
 67
     1
  8
0
100
AcDbBlockEnd
  0
BLOCK
  5
74
330
72
100
AcDbEntity
  8
0
100
AcDbBlockBegin
  2
GENAXEH
 70
     0
 10
0.0
 20
0.0
 30
0.0
  3
GENAXEH
  1

  0
LINE
  5
73
330
72
100
AcDbEntity
  8
0
100
AcDbLine
 10
-1.0
 20
0.0
 30
0.0
 11
1.0
 21
0.0
 31
0.0
  0
ENDBLK
  5
75
330
72
100
AcDbEntity
  8
0
100
AcDbBlockEnd
  0
BLOCK
  5
6C7
330
6C4
100
AcDbEntity
  8
0
100
AcDbBlockBegin
  2
_Dot
 70
     0
 10
0.0
 20
0.0
 30
0.0
  3
_Dot
  1

  0
LWPOLYLINE
  5
6C5
330
6C4
100
AcDbEntity
  8
0
  6
ByBlock
 62
     0
100
AcDbPolyline
 90
        2
 70
     1
 43
0.5
 10
-0.25
 20
0.0
 42
1.0
 10
0.25
 20
0.0
 42
1.0
  0
LINE
  5
6C6
330
6C4
100
AcDbEntity
  8
0
  6
ByBlock
 62
     0
370
    -2
100
AcDbLine
 10
-0.5
 20
0.0
 30
0.0
 11
-1.0
 21
0.0
 31
0.0
  0
ENDBLK
  5
6C8
330
6C4
100
AcDbEntity
  8
0
100
AcDbBlockEnd
  0
BLOCK
  5
A6A
330
A66
100
AcDbEntity
  8
0
100
AcDbBlockBegin
  2
_OPEN30
 70
     0
 10
0.0
 20
0.0
 30
0.0
  3
_OPEN30
  1

  0
LINE
  5
A67
330
A66
100
AcDbEntity
  8
0
  6
ByBlock
 62
     0
100
AcDbLine
 10
-1.0
 20
0.26794919
 30
0.0
 11
0.0
 21
0.0
 31
0.0
  0
LINE
  5
A68
330
A66
100
AcDbEntity
  8
0
  6
ByBlock
 62
     0
100
AcDbLine
 10
0.0
 20
0.0
 30
0.0
 11
-1.0
 21
-0.26794919
 31
0.0
  0
LINE
  5
A69
330
A66
100
AcDbEntity
  8
0
  6
ByBlock
 62
     0
100
AcDbLine
 10
0.0
 20
0.0
 30
0.0
 11
-1.0
 21
0.0
 31
0.0
  0
ENDBLK
  5
A6B
330
A66
100
AcDbEntity
  8
0
100
AcDbBlockEnd
  0
BLOCK
  5
BBA8
330
BBA7
100
AcDbEntity
  8
0
100
AcDbBlockBegin
  2
_DotSmall
 70
     0
 10
0.0
 20
0.0
 30
0.0
  3
_DotSmall
  1

  0
LWPOLYLINE
  5
BBA9
330
BBA7
100
AcDbEntity
  8
0
  6
ByBlock
 62
     0
100
AcDbPolyline
 90
        2
 70
     1
 43
0.5
 10
-0.0625
 20
0.0
 42
1.0
 10
0.0625
 20
0.0
 42
1.0
  0
ENDBLK
  5
BBAA
330
BBA7
100
AcDbEntity
  8
0
100
AcDbBlockEnd
  0
BLOCK
  5
C9CD
330
C9C2
100
AcDbEntity
  8
0
100
AcDbBlockBegin
  2
*D114
 70
     1
 10
0.0
 20
0.0
 30
0.0
  3
*D114
  1

  0
LINE
  5
10A5C
330
C9C2
100
AcDbEntity
  8
AM_5
100
AcDbLine
 10
1639.195121349204
 20
1511.39205763691
 30
0.0
 11
1639.195121349204
 21
1499.392057636909
 31
0.0
  0
LINE
  5
10A5D
330
C9C2
100
AcDbEntity
  8
AM_5
100
AcDbLine
 10
1619.195121349204
 20
1511.39205763691
 30
0.0
 11
1619.195121349204
 21
1499.392057636909
 31
0.0
  0
LINE
  5
10A5E
330
C9C2
100
AcDbEntity
  8
AM_5
100
AcDbLine
 10
1638.195121349204
 20
1500.39205763691
 30
0.0
 11
1620.195121349204
 21
1500.39205763691
 31
0.0
  0
LINE
  5
10A5F
330
C9C2
100
AcDbEntity
  8
AM_5
100
AcDbLine
 10
1619.195121349204
 20
1500.39205763691
 30
0.0
 11
1607.003792955716
 21
1500.39205763691
 31
0.0
  0
INSERT
  5
10A60
330
C9C2
100
AcDbEntity
  8
AM_5
100
AcDbBlockReference
  2
_Dot
 10
1639.195121349204
 20
1500.39205763691
 30
0.0
  0
INSERT
  5
10A61
330
C9C2
100
AcDbEntity
  8
AM_5
100
AcDbBlockReference
  2
_Dot
 10
1619.195121349204
 20
1500.39205763691
 30
0.0
 50
180.0
  0
MTEXT
  5
10A62
330
C9C2
100
AcDbEntity
  8
AM_5
 62
     2
100
AcDbMText
 10
1611.330459622383
 20
1503.492057636909
 30
0.0
 40
3.200000000000001
 41
0.0
 71
     5
 72
     1
  1
%%c20
 73
     1
 44
1.0
1001
ACAD
1000
MTEXTBEGIN
1070
    73
1070
     1
1070
    44
1040
1.0
1070
    74
1070
     0
1000
MTEXTEND
  0
POINT
  5
10A63
330
C9C2
100
AcDbEntity
  8
Defpoints
 62
     0
100
AcDbPoint
 10
1639.195121349204
 20
1512.392057636909
 30
0.0
  0
POINT
  5
10A64
330
C9C2
100
AcDbEntity
  8
Defpoints
 62
     0
100
AcDbPoint
 10
1619.195121349204
 20
1512.392057636909
 30
0.0
  0
POINT
  5
10A65
330
C9C2
100
AcDbEntity
  8
Defpoints
 62
     0
100
AcDbPoint
 10
1619.195121349204
 20
1500.39205763691
 30
0.0
  0
ENDBLK
  5
C9CE
330
C9C2
100
AcDbEntity
  8
0
100
AcDbBlockEnd
  0
BLOCK
  5
C9D9
330
C9CF
100
AcDbEntity
  8
0
100
AcDbBlockBegin
  2
*D115
 70
     1
 10
0.0
 20
0.0
 30
0.0
  3
*D115
  1

  0
LINE
  5
10A12
330
C9CF
100
AcDbEntity
  8
AM_5
100
AcDbLine
 10
1679.445121349204
 20
1501.392057636909
 30
0.0
 11
1690.945121349204
 21
1501.392057636909
 31
0.0
  0
LINE
  5
10A13
330
C9CF
100
AcDbEntity
  8
AM_5
100
AcDbLine
 10
1673.695121349204
 20
1465.392057636909
 30
0.0
 11
1690.945121349204
 21
1465.392057636909
 31
0.0
  0
LINE
  5
10A14
330
C9CF
100
AcDbEntity
  8
AM_5
100
AcDbLine
 10
1689.945121349204
 20
1500.39205763691
 30
0.0
 11
1689.945121349204
 21
1466.392057636909
 31
0.0
  0
INSERT
  5
10A15
330
C9CF
100
AcDbEntity
  8
AM_5
100
AcDbBlockReference
  2
_Dot
 10
1689.945121349204
 20
1501.392057636909
 30
0.0
 50
90.0
  0
INSERT
  5
10A16
330
C9CF
100
AcDbEntity
  8
AM_5
100
AcDbBlockReference
  2
_Dot
 10
1689.945121349204
 20
1465.392057636909
 30
0.0
 50
270.0
  0
MTEXT
  5
10A17
330
C9CF
100
AcDbEntity
  8
AM_5
 62
     2
100
AcDbMText
 10
1686.845121349204
 20
1483.39205763691
 30
0.0
 40
3.200000000000001
 41
0.0
 71
     5
 72
     1
  1
36
 11
0.0000000000000001
 21
1.0
 31
0.0
 73
     1
 44
1.0
1001
ACAD
1000
MTEXTBEGIN
1070
    73
1070
     1
1070
    44
1040
1.0
1070
    74
1070
     0
1000
MTEXTEND
  0
POINT
  5
10A18
330
C9CF
100
AcDbEntity
  8
Defpoints
 62
     0
100
AcDbPoint
 10
1678.445121349204
 20
1501.392057636909
 30
0.0
  0
POINT
  5
10A19
330
C9CF
100
AcDbEntity
  8
Defpoints
 62
     0
100
AcDbPoint
 10
1672.695121349204
 20
1465.392057636909
 30
0.0
  0
POINT
  5
10A1A
330
C9CF
100
AcDbEntity
  8
Defpoints
 62
     0
100
AcDbPoint
 10
1689.945121349204
 20
1465.392057636909
 30
0.0
  0
ENDBLK
  5
C9DA
330
C9CF
100
AcDbEntity
  8
0
100
AcDbBlockEnd
  0
BLOCK
  5
C9E5
330
C9DB
100
AcDbEntity
  8
0
100
AcDbBlockBegin
  2
*D116
 70
     1
 10
0.0
 20
0.0
 30
0.0
  3
*D116
  1

  0
LINE
  5
10A09
330
C9DB
100
AcDbEntity
  8
AM_5
100
AcDbLine
 10
1673.695121349204
 20
1465.392057636909
 30
0.0
 11
1700.945121349204
 21
1465.392057636909
 31
0.0
  0
LINE
  5
10A0A
330
C9DB
100
AcDbEntity
  8
AM_5
100
AcDbLine
 10
1673.695121349204
 20
1546.392057636909
 30
0.0
 11
1700.945121349204
 21
1546.392057636909
 31
0.0
  0
LINE
  5
10A0B
330
C9DB
100
AcDbEntity
  8
AM_5
100
AcDbLine
 10
1699.945121349204
 20
1466.392057636909
 30
0.0
 11
1699.945121349204
 21
1545.39205763691
 31
0.0
  0
INSERT
  5
10A0C
330
C9DB
100
AcDbEntity
  8
AM_5
100
AcDbBlockReference
  2
_Dot
 10
1699.945121349204
 20
1465.392057636909
 30
0.0
 50
270.0
  0
INSERT
  5
10A0D
330
C9DB
100
AcDbEntity
  8
AM_5
100
AcDbBlockReference
  2
_Dot
 10
1699.945121349204
 20
1546.392057636909
 30
0.0
 50
90.0
  0
MTEXT
  5
10A0E
330
C9DB
100
AcDbEntity
  8
AM_5
 62
     2
100
AcDbMText
 10
1696.845121349204
 20
1505.89205763691
 30
0.0
 40
3.200000000000001
 41
0.0
 71
     5
 72
     1
  1
81
 11
0.0000000000000001
 21
1.0
 31
0.0
 73
     1
 44
1.0
1001
ACAD
1000
MTEXTBEGIN
1070
    73
1070
     1
1070
    44
1040
1.0
1070
    74
1070
     0
1000
MTEXTEND
  0
POINT
  5
10A0F
330
C9DB
100
AcDbEntity
  8
Defpoints
 62
     0
100
AcDbPoint
 10
1672.695121349204
 20
1465.392057636909
 30
0.0
  0
POINT
  5
10A10
330
C9DB
100
AcDbEntity
  8
Defpoints
 62
     0
100
AcDbPoint
 10
1672.695121349204
 20
1546.392057636909
 30
0.0
  0
POINT
  5
10A11
330
C9DB
100
AcDbEntity
  8
Defpoints
 62
     0
100
AcDbPoint
 10
1699.945121349204
 20
1546.392057636909
 30
0.0
  0
ENDBLK
  5
C9E6
330
C9DB
100
AcDbEntity
  8
0
100
AcDbBlockEnd
  0
BLOCK
  5
C9F1
330
C9E7
100
AcDbEntity
  8
0
100
AcDbBlockBegin
  2
*D117
 70
     1
 10
0.0
 20
0.0
 30
0.0
  3
*D117
  1

  0
LINE
  5
10A2D
330
C9E7
100
AcDbEntity
  8
AM_5
100
AcDbLine
 10
1679.445121349204
 20
1538.392057636909
 30
0.0
 11
1690.945121349204
 21
1538.392057636909
 31
0.0
  0
LINE
  5
10A2E
330
C9E7
100
AcDbEntity
  8
AM_5
100
AcDbLine
 10
1673.695121349204
 20
1546.392057636909
 30
0.0
 11
1690.945121349204
 21
1546.392057636909
 31
0.0
  0
LINE
  5
10A2F
330
C9E7
100
AcDbEntity
  8
AM_5
100
AcDbLine
 10
1689.945121349204
 20
1539.392057636909
 30
0.0
 11
1689.945121349204
 21
1545.39205763691
 31
0.0
  0
INSERT
  5
10A30
330
C9E7
100
AcDbEntity
  8
AM_5
100
AcDbBlockReference
  2
_Dot
 10
1689.945121349204
 20
1538.392057636909
 30
0.0
 50
270.0
  0
INSERT
  5
10A31
330
C9E7
100
AcDbEntity
  8
AM_5
100
AcDbBlockReference
  2
_Dot
 10
1689.945121349204
 20
1546.392057636909
 30
0.0
 50
90.0
  0
MTEXT
  5
10A32
330
C9E7
100
AcDbEntity
  8
AM_5
 62
     2
100
AcDbMText
 10
1686.845121349204
 20
1542.39205763691
 30
0.0
 40
3.200000000000001
 41
0.0
 71
     5
 72
     1
  1
8
 11
0.0000000000000001
 21
1.0
 31
0.0
 73
     1
 44
1.0
1001
ACAD
1000
MTEXTBEGIN
1070
    73
1070
     1
1070
    44
1040
1.0
1070
    74
1070
     0
1000
MTEXTEND
  0
POINT
  5
10A33
330
C9E7
100
AcDbEntity
  8
Defpoints
 62
     0
100
AcDbPoint
 10
1678.445121349204
 20
1538.392057636909
 30
0.0
  0
POINT
  5
10A34
330
C9E7
100
AcDbEntity
  8
Defpoints
 62
     0
100
AcDbPoint
 10
1672.695121349204
 20
1546.392057636909
 30
0.0
  0
POINT
  5
10A35
330
C9E7
100
AcDbEntity
  8
Defpoints
 62
     0
100
AcDbPoint
 10
1689.945121349204
 20
1546.392057636909
 30
0.0
  0
ENDBLK
  5
C9F2
330
C9E7
100
AcDbEntity
  8
0
100
AcDbBlockEnd
  0
BLOCK
  5
C9FD
330
C9F3
100
AcDbEntity
  8
0
100
AcDbBlockBegin
  2
*D118
 70
     1
 10
0.0
 20
0.0
 30
0.0
  3
*D118
  1

  0
LINE
  5
10A1B
330
C9F3
100
AcDbEntity
  8
AM_5
100
AcDbLine
 10
1679.445121349204
 20
1501.392057636909
 30
0.0
 11
1690.945121349204
 21
1501.392057636909
 31
0.0
  0
LINE
  5
10A1C
330
C9F3
100
AcDbEntity
  8
AM_5
100
AcDbLine
 10
1671.445121349204
 20
1519.892057636909
 30
0.0
 11
1690.945121349204
 21
1519.892057636909
 31
0.0
  0
LINE
  5
10A1D
330
C9F3
100
AcDbEntity
  8
AM_5
100
AcDbLine
 10
1689.945121349204
 20
1502.39205763691
 30
0.0
 11
1689.945121349204
 21
1518.892057636909
 31
0.0
  0
INSERT
  5
10A1E
330
C9F3
100
AcDbEntity
  8
AM_5
100
AcDbBlockReference
  2
_Dot
 10
1689.945121349204
 20
1501.392057636909
 30
0.0
 50
270.0
  0
INSERT
  5
10A1F
330
C9F3
100
AcDbEntity
  8
AM_5
100
AcDbBlockReference
  2
_Dot
 10
1689.945121349204
 20
1519.892057636909
 30
0.0
 50
90.0
  0
MTEXT
  5
10A20
330
C9F3
100
AcDbEntity
  8
AM_5
 62
     2
100
AcDbMText
 10
1686.845121349204
 20
1510.64205763691
 30
0.0
 40
3.200000000000001
 41
0.0
 71
     5
 72
     1
  1
18.5
 11
0.0000000000000001
 21
1.0
 31
0.0
 73
     1
 44
1.0
1001
ACAD
1000
MTEXTBEGIN
1070
    73
1070
     1
1070
    44
1040
1.0
1070
    74
1070
     0
1000
MTEXTEND
  0
POINT
  5
10A21
330
C9F3
100
AcDbEntity
  8
Defpoints
 62
     0
100
AcDbPoint
 10
1678.445121349204
 20
1501.392057636909
 30
0.0
  0
POINT
  5
10A22
330
C9F3
100
AcDbEntity
  8
Defpoints
 62
     0
100
AcDbPoint
 10
1670.445121349204
 20
1519.892057636909
 30
0.0
  0
POINT
  5
10A23
330
C9F3
100
AcDbEntity
  8
Defpoints
 62
     0
100
AcDbPoint
 10
1689.945121349204
 20
1519.892057636909
 30
0.0
  0
ENDBLK
  5
C9FE
330
C9F3
100
AcDbEntity
  8
0
100
AcDbBlockEnd
  0
BLOCK
  5
CA09
330
C9FF
100
AcDbEntity
  8
0
100
AcDbBlockBegin
  2
*D119
 70
     1
 10
0.0
 20
0.0
 30
0.0
  3
*D119
  1

  0
LINE
  5
10A00
330
C9FF
100
AcDbEntity
  8
AM_5
100
AcDbLine
 10
1671.445121349204
 20
1519.892057636909
 30
0.0
 11
1690.945121349204
 21
1519.892057636909
 31
0.0
  0
LINE
  5
10A01
330
C9FF
100
AcDbEntity
  8
AM_5
100
AcDbLine
 10
1679.445121349204
 20
1538.392057636909
 30
0.0
 11
1690.945121349204
 21
1538.392057636909
 31
0.0
  0
LINE
  5
10A02
330
C9FF
100
AcDbEntity
  8
AM_5
100
AcDbLine
 10
1689.945121349204
 20
1520.892057636909
 30
0.0
 11
1689.945121349204
 21
1537.39205763691
 31
0.0
  0
INSERT
  5
10A03
330
C9FF
100
AcDbEntity
  8
AM_5
100
AcDbBlockReference
  2
_Dot
 10
1689.945121349204
 20
1519.892057636909
 30
0.0
 50
270.0
  0
INSERT
  5
10A04
330
C9FF
100
AcDbEntity
  8
AM_5
100
AcDbBlockReference
  2
_Dot
 10
1689.945121349204
 20
1538.392057636909
 30
0.0
 50
90.0
  0
MTEXT
  5
10A05
330
C9FF
100
AcDbEntity
  8
AM_5
 62
     2
100
AcDbMText
 10
1686.845121349204
 20
1529.14205763691
 30
0.0
 40
3.200000000000001
 41
0.0
 71
     5
 72
     1
  1
18.5
 11
0.0000000000000001
 21
1.0
 31
0.0
 73
     1
 44
1.0
1001
ACAD
1000
MTEXTBEGIN
1070
    73
1070
     1
1070
    44
1040
1.0
1070
    74
1070
     0
1000
MTEXTEND
  0
POINT
  5
10A06
330
C9FF
100
AcDbEntity
  8
Defpoints
 62
     0
100
AcDbPoint
 10
1670.445121349204
 20
1519.892057636909
 30
0.0
  0
POINT
  5
10A07
330
C9FF
100
AcDbEntity
  8
Defpoints
 62
     0
100
AcDbPoint
 10
1678.445121349204
 20
1538.392057636909
 30
0.0
  0
POINT
  5
10A08
330
C9FF
100
AcDbEntity
  8
Defpoints
 62
     0
100
AcDbPoint
 10
1689.945121349204
 20
1538.392057636909
 30
0.0
  0
ENDBLK
  5
CA0A
330
C9FF
100
AcDbEntity
  8
0
100
AcDbBlockEnd
  0
BLOCK
  5
CA15
330
CA0B
100
AcDbEntity
  8
0
100
AcDbBlockBegin
  2
*D120
 70
     1
 10
0.0
 20
0.0
 30
0.0
  3
*D120
  1

  0
LINE
  5
10B09
330
CA0B
100
AcDbEntity
  8
AM_5
100
AcDbLine
 10
1585.695121349204
 20
1615.392057636909
 30
0.0
 11
1567.695120349204
 21
1615.392057636909
 31
0.0
  0
LINE
  5
10B0A
330
CA0B
100
AcDbEntity
  8
AM_5
100
AcDbLine
 10
1578.945121349204
 20
1602.392057636909
 30
0.0
 11
1567.695120349204
 21
1602.392057636909
 31
0.0
  0
LINE
  5
10B0B
330
CA0B
100
AcDbEntity
  8
AM_5
100
AcDbLine
 10
1568.695120349204
 20
1614.39205763691
 30
0.0
 11
1568.695120349204
 21
1603.392057636909
 31
0.0
  0
INSERT
  5
10B0C
330
CA0B
100
AcDbEntity
  8
AM_5
100
AcDbBlockReference
  2
_Dot
 10
1568.695120349204
 20
1615.392057636909
 30
0.0
 50
90.0
  0
INSERT
  5
10B0D
330
CA0B
100
AcDbEntity
  8
AM_5
100
AcDbBlockReference
  2
_Dot
 10
1568.695120349204
 20
1602.392057636909
 30
0.0
 50
270.0
  0
MTEXT
  5
10B0E
330
CA0B
100
AcDbEntity
  8
AM_5
 62
     2
100
AcDbMText
 10
1565.595120349204
 20
1608.89205763691
 30
0.0
 40
3.200000000000001
 41
0.0
 71
     5
 72
     1
  1
13
 11
0.0000000000000001
 21
1.0
 31
0.0
 73
     1
 44
1.0
1001
ACAD
1000
MTEXTBEGIN
1070
    73
1070
     1
1070
    44
1040
1.0
1070
    74
1070
     0
1000
MTEXTEND
  0
POINT
  5
10B0F
330
CA0B
100
AcDbEntity
  8
Defpoints
 62
     0
100
AcDbPoint
 10
1586.695121349204
 20
1615.392057636909
 30
0.0
  0
POINT
  5
10B10
330
CA0B
100
AcDbEntity
  8
Defpoints
 62
     0
100
AcDbPoint
 10
1579.945121349204
 20
1602.392057636909
 30
0.0
  0
POINT
  5
10B11
330
CA0B
100
AcDbEntity
  8
Defpoints
 62
     0
100
AcDbPoint
 10
1568.695120349204
 20
1602.392057636909
 30
0.0
  0
ENDBLK
  5
CA16
330
CA0B
100
AcDbEntity
  8
0
100
AcDbBlockEnd
  0
BLOCK
  5
CA21
330
CA17
100
AcDbEntity
  8
0
100
AcDbBlockBegin
  2
*D121
 70
     1
 10
0.0
 20
0.0
 30
0.0
  3
*D121
  1

  0
LINE
  5
10AE5
330
CA17
100
AcDbEntity
  8
AM_5
100
AcDbLine
 10
1586.945121349204
 20
1583.892057636909
 30
0.0
 11
1567.695120349203
 21
1583.892057636909
 31
0.0
  0
LINE
  5
10AE6
330
CA17
100
AcDbEntity
  8
AM_5
100
AcDbLine
 10
1578.945121349204
 20
1565.392057636909
 30
0.0
 11
1567.695120349203
 21
1565.392057636909
 31
0.0
  0
LINE
  5
10AE7
330
CA17
100
AcDbEntity
  8
AM_5
100
AcDbLine
 10
1568.695120349203
 20
1582.892057636909
 30
0.0
 11
1568.695120349203
 21
1566.392057636909
 31
0.0
  0
INSERT
  5
10AE8
330
CA17
100
AcDbEntity
  8
AM_5
100
AcDbBlockReference
  2
_Dot
 10
1568.695120349203
 20
1583.892057636909
 30
0.0
 50
90.0
  0
INSERT
  5
10AE9
330
CA17
100
AcDbEntity
  8
AM_5
100
AcDbBlockReference
  2
_Dot
 10
1568.695120349203
 20
1565.392057636909
 30
0.0
 50
270.0
  0
MTEXT
  5
10AEA
330
CA17
100
AcDbEntity
  8
AM_5
 62
     2
100
AcDbMText
 10
1565.595120349203
 20
1574.64205763691
 30
0.0
 40
3.200000000000001
 41
0.0
 71
     5
 72
     1
  1
18.5
 11
0.0000000000000001
 21
1.0
 31
0.0
 73
     1
 44
1.0
1001
ACAD
1000
MTEXTBEGIN
1070
    73
1070
     1
1070
    44
1040
1.0
1070
    74
1070
     0
1000
MTEXTEND
  0
POINT
  5
10AEB
330
CA17
100
AcDbEntity
  8
Defpoints
 62
     0
100
AcDbPoint
 10
1587.945121349204
 20
1583.892057636909
 30
0.0
  0
POINT
  5
10AEC
330
CA17
100
AcDbEntity
  8
Defpoints
 62
     0
100
AcDbPoint
 10
1579.945121349204
 20
1565.392057636909
 30
0.0
  0
POINT
  5
10AED
330
CA17
100
AcDbEntity
  8
Defpoints
 62
     0
100
AcDbPoint
 10
1568.695120349203
 20
1565.392057636909
 30
0.0
  0
ENDBLK
  5
CA22
330
CA17
100
AcDbEntity
  8
0
100
AcDbBlockEnd
  0
BLOCK
  5
CA2D
330
CA23
100
AcDbEntity
  8
0
100
AcDbBlockBegin
  2
*D122
 70
     1
 10
0.0
 20
0.0
 30
0.0
  3
*D122
  1

  0
LINE
  5
10AEE
330
CA23
100
AcDbEntity
  8
AM_5
100
AcDbLine
 10
1578.945121349204
 20
1565.392057636909
 30
0.0
 11
1567.695120349203
 21
1565.392057636909
 31
0.0
  0
LINE
  5
10AEF
330
CA23
100
AcDbEntity
  8
AM_5
100
AcDbLine
 10
1584.695121349204
 20
1556.392057636909
 30
0.0
 11
1567.695120349203
 21
1556.392057636909
 31
0.0
  0
LINE
  5
10AF0
330
CA23
100
AcDbEntity
  8
AM_5
100
AcDbLine
 10
1568.695120349203
 20
1564.392057636909
 30
0.0
 11
1568.695120349203
 21
1557.392057636909
 31
0.0
  0
INSERT
  5
10AF1
330
CA23
100
AcDbEntity
  8
AM_5
100
AcDbBlockReference
  2
_Dot
 10
1568.695120349203
 20
1565.392057636909
 30
0.0
 50
90.0
  0
INSERT
  5
10AF2
330
CA23
100
AcDbEntity
  8
AM_5
100
AcDbBlockReference
  2
_Dot
 10
1568.695120349203
 20
1556.392057636909
 30
0.0
 50
270.0
  0
MTEXT
  5
10AF3
330
CA23
100
AcDbEntity
  8
AM_5
 62
     2
100
AcDbMText
 10
1565.595120349203
 20
1560.89205763691
 30
0.0
 40
3.200000000000001
 41
0.0
 71
     5
 72
     1
  1
9
 11
0.0000000000000001
 21
1.0
 31
0.0
 73
     1
 44
1.0
1001
ACAD
1000
MTEXTBEGIN
1070
    73
1070
     1
1070
    44
1040
1.0
1070
    74
1070
     0
1000
MTEXTEND
  0
POINT
  5
10AF4
330
CA23
100
AcDbEntity
  8
Defpoints
 62
     0
100
AcDbPoint
 10
1579.945121349204
 20
1565.392057636909
 30
0.0
  0
POINT
  5
10AF5
330
CA23
100
AcDbEntity
  8
Defpoints
 62
     0
100
AcDbPoint
 10
1585.695121349204
 20
1556.392057636909
 30
0.0
  0
POINT
  5
10AF6
330
CA23
100
AcDbEntity
  8
Defpoints
 62
     0
100
AcDbPoint
 10
1568.695120349203
 20
1556.392057636909
 30
0.0
  0
ENDBLK
  5
CA2E
330
CA23
100
AcDbEntity
  8
0
100
AcDbBlockEnd
  0
BLOCK
  5
CA39
330
CA2F
100
AcDbEntity
  8
0
100
AcDbBlockBegin
  2
*D123
 70
     1
 10
0.0
 20
0.0
 30
0.0
  3
*D123
  1

  0
LINE
  5
10AD3
330
CA2F
100
AcDbEntity
  8
AM_5
100
AcDbLine
 10
1585.695121349204
 20
1556.392057636909
 30
0.0
 11
1557.695120349203
 21
1556.392057636909
 31
0.0
  0
LINE
  5
10AD4
330
CA2F
100
AcDbEntity
  8
AM_5
100
AcDbLine
 10
1615.695121349204
 20
1521.392057636909
 30
0.0
 11
1557.695120349203
 21
1521.392057636909
 31
0.0
  0
LINE
  5
10AD5
330
CA2F
100
AcDbEntity
  8
AM_5
100
AcDbLine
 10
1558.695120349203
 20
1555.392057636909
 30
0.0
 11
1558.695120349203
 21
1522.392057636909
 31
0.0
  0
INSERT
  5
10AD6
330
CA2F
100
AcDbEntity
  8
AM_5
100
AcDbBlockReference
  2
_Dot
 10
1558.695120349203
 20
1556.392057636909
 30
0.0
 50
90.0
  0
INSERT
  5
10AD7
330
CA2F
100
AcDbEntity
  8
AM_5
100
AcDbBlockReference
  2
_Dot
 10
1558.695120349203
 20
1521.392057636909
 30
0.0
 50
270.0
  0
MTEXT
  5
10AD8
330
CA2F
100
AcDbEntity
  8
AM_5
 62
     2
100
AcDbMText
 10
1555.595120349203
 20
1538.89205763691
 30
0.0
 40
3.200000000000001
 41
0.0
 71
     5
 72
     1
  1
35
 11
0.0000000000000001
 21
1.0
 31
0.0
 73
     1
 44
1.0
1001
ACAD
1000
MTEXTBEGIN
1070
    73
1070
     1
1070
    44
1040
1.0
1070
    74
1070
     0
1000
MTEXTEND
  0
POINT
  5
10AD9
330
CA2F
100
AcDbEntity
  8
Defpoints
 62
     0
100
AcDbPoint
 10
1586.695121349204
 20
1556.392057636909
 30
0.0
  0
POINT
  5
10ADA
330
CA2F
100
AcDbEntity
  8
Defpoints
 62
     0
100
AcDbPoint
 10
1616.695121349204
 20
1521.392057636909
 30
0.0
  0
POINT
  5
10ADB
330
CA2F
100
AcDbEntity
  8
Defpoints
 62
     0
100
AcDbPoint
 10
1558.695120349203
 20
1521.392057636909
 30
0.0
  0
ENDBLK
  5
CA3A
330
CA2F
100
AcDbEntity
  8
0
100
AcDbBlockEnd
  0
BLOCK
  5
CA45
330
CA3B
100
AcDbEntity
  8
0
100
AcDbBlockBegin
  2
*D124
 70
     1
 10
0.0
 20
0.0
 30
0.0
  3
*D124
  1

  0
LINE
  5
10AB8
330
CA3B
100
AcDbEntity
  8
AM_5
100
AcDbLine
 10
1578.945121349204
 20
1602.392057636909
 30
0.0
 11
1567.695120349204
 21
1602.392057636909
 31
0.0
  0
LINE
  5
10AB9
330
CA3B
100
AcDbEntity
  8
AM_5
100
AcDbLine
 10
1586.945121349204
 20
1583.892057636909
 30
0.0
 11
1567.695120349204
 21
1583.892057636909
 31
0.0
  0
LINE
  5
10ABA
330
CA3B
100
AcDbEntity
  8
AM_5
100
AcDbLine
 10
1568.695120349204
 20
1601.392057636909
 30
0.0
 11
1568.695120349204
 21
1584.892057636909
 31
0.0
  0
INSERT
  5
10ABB
330
CA3B
100
AcDbEntity
  8
AM_5
100
AcDbBlockReference
  2
_Dot
 10
1568.695120349204
 20
1602.392057636909
 30
0.0
 50
90.0
  0
INSERT
  5
10ABC
330
CA3B
100
AcDbEntity
  8
AM_5
100
AcDbBlockReference
  2
_Dot
 10
1568.695120349204
 20
1583.892057636909
 30
0.0
 50
270.0
  0
MTEXT
  5
10ABD
330
CA3B
100
AcDbEntity
  8
AM_5
 62
     2
100
AcDbMText
 10
1565.595120349204
 20
1593.14205763691
 30
0.0
 40
3.200000000000001
 41
0.0
 71
     5
 72
     1
  1
18.5
 11
0.0000000000000001
 21
1.0
 31
0.0
 73
     1
 44
1.0
1001
ACAD
1000
MTEXTBEGIN
1070
    73
1070
     1
1070
    44
1040
1.0
1070
    74
1070
     0
1000
MTEXTEND
  0
POINT
  5
10ABE
330
CA3B
100
AcDbEntity
  8
Defpoints
 62
     0
100
AcDbPoint
 10
1579.945121349204
 20
1602.392057636909
 30
0.0
  0
POINT
  5
10ABF
330
CA3B
100
AcDbEntity
  8
Defpoints
 62
     0
100
AcDbPoint
 10
1587.945121349204
 20
1583.892057636909
 30
0.0
  0
POINT
  5
10AC0
330
CA3B
100
AcDbEntity
  8
Defpoints
 62
     0
100
AcDbPoint
 10
1568.695120349204
 20
1583.892057636909
 30
0.0
  0
ENDBLK
  5
CA46
330
CA3B
100
AcDbEntity
  8
0
100
AcDbBlockEnd
  0
BLOCK
  5
CA51
330
CA47
100
AcDbEntity
  8
0
100
AcDbBlockBegin
  2
*D125
 70
     1
 10
0.0
 20
0.0
 30
0.0
  3
*D125
  1

  0
LINE
  5
10AC1
330
CA47
100
AcDbEntity
  8
AM_5
100
AcDbLine
 10
1585.695121349204
 20
1556.392057636909
 30
0.0
 11
1557.695120349203
 21
1556.392057636909
 31
0.0
  0
LINE
  5
10AC2
330
CA47
100
AcDbEntity
  8
AM_5
100
AcDbLine
 10
1585.695121349204
 20
1615.392057636909
 30
0.0
 11
1557.695120349203
 21
1615.392057636909
 31
0.0
  0
LINE
  5
10AC3
330
CA47
100
AcDbEntity
  8
AM_5
100
AcDbLine
 10
1558.695120349203
 20
1557.392057636909
 30
0.0
 11
1558.695120349203
 21
1614.39205763691
 31
0.0
  0
INSERT
  5
10AC4
330
CA47
100
AcDbEntity
  8
AM_5
100
AcDbBlockReference
  2
_Dot
 10
1558.695120349203
 20
1556.392057636909
 30
0.0
 50
270.0
  0
INSERT
  5
10AC5
330
CA47
100
AcDbEntity
  8
AM_5
100
AcDbBlockReference
  2
_Dot
 10
1558.695120349203
 20
1615.392057636909
 30
0.0
 50
90.0
  0
MTEXT
  5
10AC6
330
CA47
100
AcDbEntity
  8
AM_5
 62
     2
100
AcDbMText
 10
1555.595120349203
 20
1585.89205763691
 30
0.0
 40
3.200000000000001
 41
0.0
 71
     5
 72
     1
  1
59
 11
0.0000000000000001
 21
1.0
 31
0.0
 73
     1
 44
1.0
1001
ACAD
1000
MTEXTBEGIN
1070
    73
1070
     1
1070
    44
1040
1.0
1070
    74
1070
     0
1000
MTEXTEND
  0
POINT
  5
10AC7
330
CA47
100
AcDbEntity
  8
Defpoints
 62
     0
100
AcDbPoint
 10
1586.695121349204
 20
1556.392057636909
 30
0.0
  0
POINT
  5
10AC8
330
CA47
100
AcDbEntity
  8
Defpoints
 62
     0
100
AcDbPoint
 10
1586.695121349204
 20
1615.392057636909
 30
0.0
  0
POINT
  5
10AC9
330
CA47
100
AcDbEntity
  8
Defpoints
 62
     0
100
AcDbPoint
 10
1558.695120349203
 20
1615.392057636909
 30
0.0
  0
ENDBLK
  5
CA52
330
CA47
100
AcDbEntity
  8
0
100
AcDbBlockEnd
  0
BLOCK
  5
CA5D
330
CA53
100
AcDbEntity
  8
0
100
AcDbBlockBegin
  2
*D126
 70
     1
 10
0.0
 20
0.0
 30
0.0
  3
*D126
  1

  0
LINE
  5
10B00
330
CA53
100
AcDbEntity
  8
AM_5
100
AcDbLine
 10
1629.195121349204
 20
1622.392057636909
 30
0.0
 11
1629.195121349204
 21
1631.392058636909
 31
0.0
  0
LINE
  5
10B01
330
CA53
100
AcDbEntity
  8
AM_5
100
AcDbLine
 10
1580.695121349204
 20
1610.392057636909
 30
0.0
 11
1580.695121349204
 21
1631.392058636909
 31
0.0
  0
LINE
  5
10B02
330
CA53
100
AcDbEntity
  8
AM_5
100
AcDbLine
 10
1628.195121349204
 20
1630.39205863691
 30
0.0
 11
1581.695121349204
 21
1630.39205863691
 31
0.0
  0
INSERT
  5
10B03
330
CA53
100
AcDbEntity
  8
AM_5
100
AcDbBlockReference
  2
_Dot
 10
1629.195121349204
 20
1630.39205863691
 30
0.0
  0
INSERT
  5
10B04
330
CA53
100
AcDbEntity
  8
AM_5
100
AcDbBlockReference
  2
_Dot
 10
1580.695121349204
 20
1630.39205863691
 30
0.0
 50
180.0
  0
MTEXT
  5
10B05
330
CA53
100
AcDbEntity
  8
AM_5
 62
     2
100
AcDbMText
 10
1604.945121349204
 20
1633.49205863691
 30
0.0
 40
3.200000000000001
 41
0.0
 71
     5
 72
     1
  1
48.5
 73
     1
 44
1.0
1001
ACAD
1000
MTEXTBEGIN
1070
    73
1070
     1
1070
    44
1040
1.0
1070
    74
1070
     0
1000
MTEXTEND
  0
POINT
  5
10B06
330
CA53
100
AcDbEntity
  8
Defpoints
 62
     0
100
AcDbPoint
 10
1629.195121349204
 20
1621.39205763691
 30
0.0
  0
POINT
  5
10B07
330
CA53
100
AcDbEntity
  8
Defpoints
 62
     0
100
AcDbPoint
 10
1580.695121349204
 20
1609.39205763691
 30
0.0
  0
POINT
  5
10B08
330
CA53
100
AcDbEntity
  8
Defpoints
 62
     0
100
AcDbPoint
 10
1580.695121349204
 20
1630.39205863691
 30
0.0
  0
ENDBLK
  5
CA5E
330
CA53
100
AcDbEntity
  8
0
100
AcDbBlockEnd
  0
BLOCK
  5
CA69
330
CA5F
100
AcDbEntity
  8
0
100
AcDbBlockBegin
  2
*D127
 70
     1
 10
0.0
 20
0.0
 30
0.0
  3
*D127
  1

  0
LINE
  5
109F7
330
CA5F
100
AcDbEntity
  8
AM_5
100
AcDbLine
 10
1629.195121349204
 20
1622.392057636909
 30
0.0
 11
1629.195121349204
 21
1631.392058636909
 31
0.0
  0
LINE
  5
109F8
330
CA5F
100
AcDbEntity
  8
AM_5
100
AcDbLine
 10
1677.695121349204
 20
1542.39205763691
 30
0.0
 11
1677.695121349204
 21
1631.392058636909
 31
0.0
  0
LINE
  5
109F9
330
CA5F
100
AcDbEntity
  8
AM_5
100
AcDbLine
 10
1630.195121349204
 20
1630.392058636909
 30
0.0
 11
1676.695121349204
 21
1630.392058636909
 31
0.0
  0
INSERT
  5
109FA
330
CA5F
100
AcDbEntity
  8
AM_5
100
AcDbBlockReference
  2
_Dot
 10
1629.195121349204
 20
1630.392058636909
 30
0.0
 50
180.0
  0
INSERT
  5
109FB
330
CA5F
100
AcDbEntity
  8
AM_5
100
AcDbBlockReference
  2
_Dot
 10
1677.695121349204
 20
1630.392058636909
 30
0.0
  0
MTEXT
  5
109FC
330
CA5F
100
AcDbEntity
  8
AM_5
 62
     2
100
AcDbMText
 10
1653.445121349204
 20
1633.492058636909
 30
0.0
 40
3.200000000000001
 41
0.0
 71
     5
 72
     1
  1
48.5
 73
     1
 44
1.0
1001
ACAD
1000
MTEXTBEGIN
1070
    73
1070
     1
1070
    44
1040
1.0
1070
    74
1070
     0
1000
MTEXTEND
  0
POINT
  5
109FD
330
CA5F
100
AcDbEntity
  8
Defpoints
 62
     0
100
AcDbPoint
 10
1629.195121349204
 20
1621.39205763691
 30
0.0
  0
POINT
  5
109FE
330
CA5F
100
AcDbEntity
  8
Defpoints
 62
     0
100
AcDbPoint
 10
1677.695121349204
 20
1541.392057636909
 30
0.0
  0
POINT
  5
109FF
330
CA5F
100
AcDbEntity
  8
Defpoints
 62
     0
100
AcDbPoint
 10
1677.695121349204
 20
1630.392058636909
 30
0.0
  0
ENDBLK
  5
CA6A
330
CA5F
100
AcDbEntity
  8
0
100
AcDbBlockEnd
  0
BLOCK
  5
CA75
330
CA6B
100
AcDbEntity
  8
0
100
AcDbBlockBegin
  2
*D128
 70
     1
 10
0.0
 20
0.0
 30
0.0
  3
*D128
  1

  0
LINE
  5
10ACA
330
CA6B
100
AcDbEntity
  8
AM_5
100
AcDbLine
 10
1677.695121349204
 20
1542.39205763691
 30
0.0
 11
1677.695121349204
 21
1641.392058636909
 31
0.0
  0
LINE
  5
10ACB
330
CA6B
100
AcDbEntity
  8
AM_5
100
AcDbLine
 10
1580.695121349204
 20
1610.392057636909
 30
0.0
 11
1580.695121349204
 21
1641.392058636909
 31
0.0
  0
LINE
  5
10ACC
330
CA6B
100
AcDbEntity
  8
AM_5
100
AcDbLine
 10
1676.695121349204
 20
1640.392058636909
 30
0.0
 11
1581.695121349204
 21
1640.392058636909
 31
0.0
  0
INSERT
  5
10ACD
330
CA6B
100
AcDbEntity
  8
AM_5
100
AcDbBlockReference
  2
_Dot
 10
1677.695121349204
 20
1640.392058636909
 30
0.0
  0
INSERT
  5
10ACE
330
CA6B
100
AcDbEntity
  8
AM_5
100
AcDbBlockReference
  2
_Dot
 10
1580.695121349204
 20
1640.392058636909
 30
0.0
 50
180.0
  0
MTEXT
  5
10ACF
330
CA6B
100
AcDbEntity
  8
AM_5
 62
     2
100
AcDbMText
 10
1629.195121349204
 20
1643.492058636909
 30
0.0
 40
3.200000000000001
 41
0.0
 71
     5
 72
     1
  1
97
 73
     1
 44
1.0
1001
ACAD
1000
MTEXTBEGIN
1070
    73
1070
     1
1070
    44
1040
1.0
1070
    74
1070
     0
1000
MTEXTEND
  0
POINT
  5
10AD0
330
CA6B
100
AcDbEntity
  8
Defpoints
 62
     0
100
AcDbPoint
 10
1677.695121349204
 20
1541.392057636909
 30
0.0
  0
POINT
  5
10AD1
330
CA6B
100
AcDbEntity
  8
Defpoints
 62
     0
100
AcDbPoint
 10
1580.695121349204
 20
1609.39205763691
 30
0.0
  0
POINT
  5
10AD2
330
CA6B
100
AcDbEntity
  8
Defpoints
 62
     0
100
AcDbPoint
 10
1580.695121349204
 20
1640.392058636909
 30
0.0
  0
ENDBLK
  5
CA76
330
CA6B
100
AcDbEntity
  8
0
100
AcDbBlockEnd
  0
BLOCK
  5
CA81
330
CA77
100
AcDbEntity
  8
0
100
AcDbBlockBegin
  2
*D129
 70
     1
 10
0.0
 20
0.0
 30
0.0
  3
*D129
  1

  0
LINE
  5
10A49
330
CA77
100
AcDbEntity
  8
AM_5
100
AcDbLine
 10
1639.195121349204
 20
1615.392057636909
 30
0.0
 11
1710.945121349205
 21
1615.392057636909
 31
0.0
  0
LINE
  5
10A4A
330
CA77
100
AcDbEntity
  8
AM_5
100
AcDbLine
 10
1673.695121349204
 20
1465.392057636909
 30
0.0
 11
1710.945121349204
 21
1465.392057636909
 31
0.0
  0
LINE
  5
10A4B
330
CA77
100
AcDbEntity
  8
AM_5
100
AcDbLine
 10
1709.945121349204
 20
1614.39205763691
 30
0.0
 11
1709.945121349204
 21
1466.392057636909
 31
0.0
  0
INSERT
  5
10A4C
330
CA77
100
AcDbEntity
  8
AM_5
100
AcDbBlockReference
  2
_Dot
 10
1709.945121349204
 20
1615.392057636909
 30
0.0
 50
90.0
  0
INSERT
  5
10A4D
330
CA77
100
AcDbEntity
  8
AM_5
100
AcDbBlockReference
  2
_Dot
 10
1709.945121349204
 20
1465.392057636909
 30
0.0
 50
270.0
  0
MTEXT
  5
10A4E
330
CA77
100
AcDbEntity
  8
AM_5
 62
     2
100
AcDbMText
 10
1706.845121349204
 20
1540.39205763691
 30
0.0
 40
3.200000000000001
 41
0.0
 71
     5
 72
     1
  1
150
 11
0.0000000000000001
 21
1.0
 31
0.0
 73
     1
 44
1.0
1001
ACAD
1000
MTEXTBEGIN
1070
    73
1070
     1
1070
    44
1040
1.0
1070
    74
1070
     0
1000
MTEXTEND
  0
POINT
  5
10A4F
330
CA77
100
AcDbEntity
  8
Defpoints
 62
     0
100
AcDbPoint
 10
1638.195121349204
 20
1615.392057636909
 30
0.0
  0
POINT
  5
10A50
330
CA77
100
AcDbEntity
  8
Defpoints
 62
     0
100
AcDbPoint
 10
1672.695121349204
 20
1465.392057636909
 30
0.0
  0
POINT
  5
10A51
330
CA77
100
AcDbEntity
  8
Defpoints
 62
     0
100
AcDbPoint
 10
1709.945121349204
 20
1465.392057636909
 30
0.0
  0
ENDBLK
  5
CA82
330
CA77
100
AcDbEntity
  8
0
100
AcDbBlockEnd
  0
BLOCK
  5
CA8D
330
CA83
100
AcDbEntity
  8
0
100
AcDbBlockBegin
  2
*D130
 70
     1
 10
0.0
 20
0.0
 30
0.0
  3
*D130
  1

  0
LINE
  5
109C0
330
CA83
100
AcDbEntity
  8
AM_5
100
AcDbLine
 10
1663.195121349204
 20
1511.642057636909
 30
0.0
 11
1663.195121349204
 21
1452.39205763691
 31
0.0
  0
LINE
  5
109C1
330
CA83
100
AcDbEntity
  8
AM_5
100
AcDbLine
 10
1671.195121349204
 20
1493.142057636909
 30
0.0
 11
1671.195121349204
 21
1452.39205763691
 31
0.0
  0
LINE
  5
109C2
330
CA83
100
AcDbEntity
  8
AM_5
100
AcDbLine
 10
1664.195121349204
 20
1453.392057636909
 30
0.0
 11
1670.195121349204
 21
1453.392057636909
 31
0.0
  0
INSERT
  5
109C3
330
CA83
100
AcDbEntity
  8
AM_5
100
AcDbBlockReference
  2
_Dot
 10
1663.195121349204
 20
1453.392057636909
 30
0.0
 50
180.0
  0
INSERT
  5
109C4
330
CA83
100
AcDbEntity
  8
AM_5
100
AcDbBlockReference
  2
_Dot
 10
1671.195121349204
 20
1453.392057636909
 30
0.0
  0
MTEXT
  5
109C5
330
CA83
100
AcDbEntity
  8
AM_5
 62
     2
100
AcDbMText
 10
1667.195121349204
 20
1456.492057636909
 30
0.0
 40
3.200000000000001
 41
0.0
 71
     5
 72
     1
  1
8
 73
     1
 44
1.0
1001
ACAD
1000
MTEXTBEGIN
1070
    73
1070
     1
1070
    44
1040
1.0
1070
    74
1070
     0
1000
MTEXTEND
  0
POINT
  5
109C6
330
CA83
100
AcDbEntity
  8
Defpoints
 62
     0
100
AcDbPoint
 10
1663.195121349204
 20
1512.642057636909
 30
0.0
  0
POINT
  5
109C7
330
CA83
100
AcDbEntity
  8
Defpoints
 62
     0
100
AcDbPoint
 10
1671.195121349204
 20
1494.142057636909
 30
0.0
  0
POINT
  5
109C8
330
CA83
100
AcDbEntity
  8
Defpoints
 62
     0
100
AcDbPoint
 10
1671.195121349204
 20
1453.392057636909
 30
0.0
  0
ENDBLK
  5
CA8E
330
CA83
100
AcDbEntity
  8
0
100
AcDbBlockEnd
  0
BLOCK
  5
CA99
330
CA8F
100
AcDbEntity
  8
0
100
AcDbBlockBegin
  2
*D131
 70
     1
 10
0.0
 20
0.0
 30
0.0
  3
*D131
  1

  0
LINE
  5
109B7
330
CA8F
100
AcDbEntity
  8
AM_5
100
AcDbLine
 10
1663.195121349204
 20
1511.642057636909
 30
0.0
 11
1663.195121349204
 21
1452.39205763691
 31
0.0
  0
LINE
  5
109B8
330
CA8F
100
AcDbEntity
  8
AM_5
100
AcDbLine
 10
1655.195121349204
 20
1493.142057636909
 30
0.0
 11
1655.195121349204
 21
1452.39205763691
 31
0.0
  0
LINE
  5
109B9
330
CA8F
100
AcDbEntity
  8
AM_5
100
AcDbLine
 10
1662.195121349204
 20
1453.392057636909
 30
0.0
 11
1656.195121349204
 21
1453.392057636909
 31
0.0
  0
INSERT
  5
109BA
330
CA8F
100
AcDbEntity
  8
AM_5
100
AcDbBlockReference
  2
_Dot
 10
1663.195121349204
 20
1453.392057636909
 30
0.0
  0
INSERT
  5
109BB
330
CA8F
100
AcDbEntity
  8
AM_5
100
AcDbBlockReference
  2
_Dot
 10
1655.195121349204
 20
1453.392057636909
 30
0.0
 50
180.0
  0
MTEXT
  5
109BC
330
CA8F
100
AcDbEntity
  8
AM_5
 62
     2
100
AcDbMText
 10
1659.195121349204
 20
1456.492057636909
 30
0.0
 40
3.200000000000001
 41
0.0
 71
     5
 72
     1
  1
8
 73
     1
 44
1.0
1001
ACAD
1000
MTEXTBEGIN
1070
    73
1070
     1
1070
    44
1040
1.0
1070
    74
1070
     0
1000
MTEXTEND
  0
POINT
  5
109BD
330
CA8F
100
AcDbEntity
  8
Defpoints
 62
     0
100
AcDbPoint
 10
1663.195121349204
 20
1512.642057636909
 30
0.0
  0
POINT
  5
109BE
330
CA8F
100
AcDbEntity
  8
Defpoints
 62
     0
100
AcDbPoint
 10
1655.195121349204
 20
1494.142057636909
 30
0.0
  0
POINT
  5
109BF
330
CA8F
100
AcDbEntity
  8
Defpoints
 62
     0
100
AcDbPoint
 10
1655.195121349204
 20
1453.392057636909
 30
0.0
  0
ENDBLK
  5
CA9A
330
CA8F
100
AcDbEntity
  8
0
100
AcDbBlockEnd
  0
BLOCK
  5
CAA5
330
CA9B
100
AcDbEntity
  8
0
100
AcDbBlockBegin
  2
*D132
 70
     1
 10
0.0
 20
0.0
 30
0.0
  3
*D132
  1

  0
LINE
  5
109C9
330
CA9B
100
AcDbEntity
  8
AM_5
100
AcDbLine
 10
1671.195121349204
 20
1493.142057636909
 30
0.0
 11
1671.195121349204
 21
1442.39205763691
 31
0.0
  0
LINE
  5
109CA
330
CA9B
100
AcDbEntity
  8
AM_5
100
AcDbLine
 10
1655.195121349204
 20
1493.142057636909
 30
0.0
 11
1655.195121349204
 21
1442.39205763691
 31
0.0
  0
LINE
  5
109CB
330
CA9B
100
AcDbEntity
  8
AM_5
100
AcDbLine
 10
1670.195121349204
 20
1443.392057636909
 30
0.0
 11
1656.195121349204
 21
1443.392057636909
 31
0.0
  0
INSERT
  5
109CC
330
CA9B
100
AcDbEntity
  8
AM_5
100
AcDbBlockReference
  2
_Dot
 10
1671.195121349204
 20
1443.392057636909
 30
0.0
  0
INSERT
  5
109CD
330
CA9B
100
AcDbEntity
  8
AM_5
100
AcDbBlockReference
  2
_Dot
 10
1655.195121349204
 20
1443.392057636909
 30
0.0
 50
180.0
  0
MTEXT
  5
109CE
330
CA9B
100
AcDbEntity
  8
AM_5
 62
     2
100
AcDbMText
 10
1663.195121349204
 20
1446.492057636909
 30
0.0
 40
3.200000000000001
 41
0.0
 71
     5
 72
     1
  1
16
 73
     1
 44
1.0
1001
ACAD
1000
MTEXTBEGIN
1070
    73
1070
     1
1070
    44
1040
1.0
1070
    74
1070
     0
1000
MTEXTEND
  0
POINT
  5
109CF
330
CA9B
100
AcDbEntity
  8
Defpoints
 62
     0
100
AcDbPoint
 10
1671.195121349204
 20
1494.142057636909
 30
0.0
  0
POINT
  5
109D0
330
CA9B
100
AcDbEntity
  8
Defpoints
 62
     0
100
AcDbPoint
 10
1655.195121349204
 20
1494.142057636909
 30
0.0
  0
POINT
  5
109D1
330
CA9B
100
AcDbEntity
  8
Defpoints
 62
     0
100
AcDbPoint
 10
1655.195121349204
 20
1443.392057636909
 30
0.0
  0
ENDBLK
  5
CAA6
330
CA9B
100
AcDbEntity
  8
0
100
AcDbBlockEnd
  0
BLOCK
  5
CAB2
330
CAA7
100
AcDbEntity
  8
0
100
AcDbBlockBegin
  2
*D133
 70
     1
 10
0.0
 20
0.0
 30
0.0
  3
*D133
  1

  0
LINE
  5
109DB
330
CAA7
100
AcDbEntity
  8
AM_5
100
AcDbLine
 10
1671.195121349204
 20
1493.142057636909
 30
0.0
 11
1671.195121349204
 21
1442.39205763691
 31
0.0
  0
LINE
  5
109DC
330
CAA7
100
AcDbEntity
  8
AM_5
100
AcDbLine
 10
1677.695121349204
 20
1469.392057636909
 30
0.0
 11
1677.695121349204
 21
1442.39205763691
 31
0.0
  0
LINE
  5
109DD
330
CAA7
100
AcDbEntity
  8
AM_5
100
AcDbLine
 10
1672.195121349204
 20
1443.392057636909
 30
0.0
 11
1676.695121349204
 21
1443.392057636909
 31
0.0
  0
LINE
  5
109DE
330
CAA7
100
AcDbEntity
  8
AM_5
100
AcDbLine
 10
1677.695121349204
 20
1443.392057636909
 30
0.0
 11
1686.281788015871
 21
1443.392057636909
 31
0.0
  0
INSERT
  5
109DF
330
CAA7
100
AcDbEntity
  8
AM_5
100
AcDbBlockReference
  2
_Dot
 10
1671.195121349204
 20
1443.392057636909
 30
0.0
 50
180.0
  0
INSERT
  5
109E0
330
CAA7
100
AcDbEntity
  8
AM_5
100
AcDbBlockReference
  2
_Dot
 10
1677.695121349204
 20
1443.392057636909
 30
0.0
  0
MTEXT
  5
109E1
330
CAA7
100
AcDbEntity
  8
AM_5
 62
     2
100
AcDbMText
 10
1682.488454682538
 20
1446.492057636909
 30
0.0
 40
3.200000000000001
 41
0.0
 71
     5
 72
     1
  1
6.5
 73
     1
 44
1.0
1001
ACAD
1000
MTEXTBEGIN
1070
    73
1070
     1
1070
    44
1040
1.0
1070
    74
1070
     0
1000
MTEXTEND
  0
POINT
  5
109E2
330
CAA7
100
AcDbEntity
  8
Defpoints
 62
     0
100
AcDbPoint
 10
1671.195121349204
 20
1494.142057636909
 30
0.0
  0
POINT
  5
109E3
330
CAA7
100
AcDbEntity
  8
Defpoints
 62
     0
100
AcDbPoint
 10
1677.695121349204
 20
1470.39205763691
 30
0.0
  0
POINT
  5
109E4
330
CAA7
100
AcDbEntity
  8
Defpoints
 62
     0
100
AcDbPoint
 10
1677.695121349204
 20
1443.392057636909
 30
0.0
  0
ENDBLK
  5
CAB3
330
CAA7
100
AcDbEntity
  8
0
100
AcDbBlockEnd
  0
BLOCK
  5
CABE
330
CAB4
100
AcDbEntity
  8
0
100
AcDbBlockBegin
  2
*D134
 70
     1
 10
0.0
 20
0.0
 30
0.0
  3
*D134
  1

  0
LINE
  5
109D2
330
CAB4
100
AcDbEntity
  8
AM_5
100
AcDbLine
 10
1655.195121349204
 20
1493.142057636909
 30
0.0
 11
1655.195121349204
 21
1442.39205763691
 31
0.0
  0
LINE
  5
109D3
330
CAB4
100
AcDbEntity
  8
AM_5
100
AcDbLine
 10
1629.195121349204
 20
1458.392057636909
 30
0.0
 11
1629.195121349204
 21
1442.39205763691
 31
0.0
  0
LINE
  5
109D4
330
CAB4
100
AcDbEntity
  8
AM_5
100
AcDbLine
 10
1654.195121349204
 20
1443.392057636909
 30
0.0
 11
1630.195121349204
 21
1443.392057636909
 31
0.0
  0
INSERT
  5
109D5
330
CAB4
100
AcDbEntity
  8
AM_5
100
AcDbBlockReference
  2
_Dot
 10
1655.195121349204
 20
1443.392057636909
 30
0.0
  0
INSERT
  5
109D6
330
CAB4
100
AcDbEntity
  8
AM_5
100
AcDbBlockReference
  2
_Dot
 10
1629.195121349204
 20
1443.392057636909
 30
0.0
 50
180.0
  0
MTEXT
  5
109D7
330
CAB4
100
AcDbEntity
  8
AM_5
 62
     2
100
AcDbMText
 10
1642.195121349204
 20
1446.492057636909
 30
0.0
 40
3.200000000000001
 41
0.0
 71
     5
 72
     1
  1
26
 73
     1
 44
1.0
1001
ACAD
1000
MTEXTBEGIN
1070
    73
1070
     1
1070
    44
1040
1.0
1070
    74
1070
     0
1000
MTEXTEND
  0
POINT
  5
109D8
330
CAB4
100
AcDbEntity
  8
Defpoints
 62
     0
100
AcDbPoint
 10
1655.195121349204
 20
1494.142057636909
 30
0.0
  0
POINT
  5
109D9
330
CAB4
100
AcDbEntity
  8
Defpoints
 62
     0
100
AcDbPoint
 10
1629.195121349204
 20
1459.392057636909
 30
0.0
  0
POINT
  5
109DA
330
CAB4
100
AcDbEntity
  8
Defpoints
 62
     0
100
AcDbPoint
 10
1629.195121349204
 20
1443.392057636909
 30
0.0
  0
ENDBLK
  5
CABF
330
CAB4
100
AcDbEntity
  8
0
100
AcDbBlockEnd
  0
BLOCK
  5
CC02
330
CBF8
100
AcDbEntity
  8
0
100
AcDbBlockBegin
  2
*D135
 70
     1
 10
0.0
 20
0.0
 30
0.0
  3
*D135
  1

  0
LINE
  5
10ADC
330
CBF8
100
AcDbEntity
  8
AM_5
100
AcDbLine
 10
1615.695121349204
 20
1521.392057636909
 30
0.0
 11
1557.695120349202
 21
1521.392057636909
 31
0.0
  0
LINE
  5
10ADD
330
CBF8
100
AcDbEntity
  8
AM_5
100
AcDbLine
 10
1618.195121349204
 20
1512.392057636909
 30
0.0
 11
1557.695120349202
 21
1512.392057636909
 31
0.0
  0
LINE
  5
10ADE
330
CBF8
100
AcDbEntity
  8
AM_5
100
AcDbLine
 10
1558.695120349202
 20
1520.392057636909
 30
0.0
 11
1558.695120349202
 21
1513.392057636909
 31
0.0
  0
INSERT
  5
10ADF
330
CBF8
100
AcDbEntity
  8
AM_5
100
AcDbBlockReference
  2
_Dot
 10
1558.695120349202
 20
1521.392057636909
 30
0.0
 50
90.0
  0
INSERT
  5
10AE0
330
CBF8
100
AcDbEntity
  8
AM_5
100
AcDbBlockReference
  2
_Dot
 10
1558.695120349202
 20
1512.392057636909
 30
0.0
 50
270.0
  0
MTEXT
  5
10AE1
330
CBF8
100
AcDbEntity
  8
AM_5
 62
     2
100
AcDbMText
 10
1555.595120349202
 20
1516.89205763691
 30
0.0
 40
3.200000000000001
 41
0.0
 71
     5
 72
     1
  1
9
 11
0.0000000000000001
 21
1.0
 31
0.0
 73
     1
 44
1.0
1001
ACAD
1000
MTEXTBEGIN
1070
    73
1070
     1
1070
    44
1040
1.0
1070
    74
1070
     0
1000
MTEXTEND
  0
POINT
  5
10AE2
330
CBF8
100
AcDbEntity
  8
Defpoints
 62
     0
100
AcDbPoint
 10
1616.695121349204
 20
1521.392057636909
 30
0.0
  0
POINT
  5
10AE3
330
CBF8
100
AcDbEntity
  8
Defpoints
 62
     0
100
AcDbPoint
 10
1619.195121349204
 20
1512.392057636909
 30
0.0
  0
POINT
  5
10AE4
330
CBF8
100
AcDbEntity
  8
Defpoints
 62
     0
100
AcDbPoint
 10
1558.695120349202
 20
1512.392057636909
 30
0.0
  0
ENDBLK
  5
CC03
330
CBF8
100
AcDbEntity
  8
0
100
AcDbBlockEnd
  0
BLOCK
  5
CC18
330
CC0E
100
AcDbEntity
  8
0
100
AcDbBlockBegin
  2
*D136
 70
     1
 10
0.0
 20
0.0
 30
0.0
  3
*D136
  1

  0
LINE
  5
10AF7
330
CC0E
100
AcDbEntity
  8
AM_5
100
AcDbLine
 10
1611.695121349204
 20
1527.39205763691
 30
0.0
 11
1611.695121349204
 21
1545.39205763691
 31
0.0
  0
LINE
  5
10AF8
330
CC0E
100
AcDbEntity
  8
AM_5
100
AcDbLine
 10
1580.695121349204
 20
1560.392057636909
 30
0.0
 11
1580.695121349204
 21
1543.39205763691
 31
0.0
  0
LINE
  5
10AF9
330
CC0E
100
AcDbEntity
  8
AM_5
100
AcDbLine
 10
1610.695121349204
 20
1544.392057636909
 30
0.0
 11
1581.695121349204
 21
1544.392057636909
 31
0.0
  0
INSERT
  5
10AFA
330
CC0E
100
AcDbEntity
  8
AM_5
100
AcDbBlockReference
  2
_Dot
 10
1611.695121349204
 20
1544.392057636909
 30
0.0
  0
INSERT
  5
10AFB
330
CC0E
100
AcDbEntity
  8
AM_5
100
AcDbBlockReference
  2
_Dot
 10
1580.695121349204
 20
1544.392057636909
 30
0.0
 50
180.0
  0
MTEXT
  5
10AFC
330
CC0E
100
AcDbEntity
  8
AM_5
 62
     2
100
AcDbMText
 10
1596.195121349204
 20
1547.492057636909
 30
0.0
 40
3.200000000000001
 41
0.0
 71
     5
 72
     1
  1
31
 73
     1
 44
1.0
1001
ACAD
1000
MTEXTBEGIN
1070
    73
1070
     1
1070
    44
1040
1.0
1070
    74
1070
     0
1000
MTEXTEND
  0
POINT
  5
10AFD
330
CC0E
100
AcDbEntity
  8
Defpoints
 62
     0
100
AcDbPoint
 10
1611.695121349204
 20
1526.39205763691
 30
0.0
  0
POINT
  5
10AFE
330
CC0E
100
AcDbEntity
  8
Defpoints
 62
     0
100
AcDbPoint
 10
1580.695121349204
 20
1561.39205763691
 30
0.0
  0
POINT
  5
10AFF
330
CC0E
100
AcDbEntity
  8
Defpoints
 62
     0
100
AcDbPoint
 10
1580.695121349204
 20
1544.392057636909
 30
0.0
  0
ENDBLK
  5
CC19
330
CC0E
100
AcDbEntity
  8
0
100
AcDbBlockEnd
  0
BLOCK
  5
CDD3
330
CDC9
100
AcDbEntity
  8
0
100
AcDbBlockBegin
  2
*D139
 70
     1
 10
0.0
 20
0.0
 30
0.0
  3
*D139
  1

  0
LINE
  5
10A24
330
CDC9
100
AcDbEntity
  8
AM_5
100
AcDbLine
 10
1648.695121349204
 20
1542.39205763691
 30
0.0
 11
1648.695121349204
 21
1559.39205863691
 31
0.0
  0
LINE
  5
10A25
330
CDC9
100
AcDbEntity
  8
AM_5
100
AcDbLine
 10
1677.695121349204
 20
1542.39205763691
 30
0.0
 11
1677.695121349204
 21
1559.39205863691
 31
0.0
  0
LINE
  5
10A26
330
CDC9
100
AcDbEntity
  8
AM_5
100
AcDbLine
 10
1649.695121349204
 20
1558.39205863691
 30
0.0
 11
1676.695121349204
 21
1558.39205863691
 31
0.0
  0
INSERT
  5
10A27
330
CDC9
100
AcDbEntity
  8
AM_5
100
AcDbBlockReference
  2
_Dot
 10
1648.695121349204
 20
1558.39205863691
 30
0.0
 50
180.0
  0
INSERT
  5
10A28
330
CDC9
100
AcDbEntity
  8
AM_5
100
AcDbBlockReference
  2
_Dot
 10
1677.695121349204
 20
1558.39205863691
 30
0.0
  0
MTEXT
  5
10A29
330
CDC9
100
AcDbEntity
  8
AM_5
 62
     2
100
AcDbMText
 10
1663.195121349204
 20
1561.49205863691
 30
0.0
 40
3.200000000000001
 41
0.0
 71
     5
 72
     1
  1
29
 73
     1
 44
1.0
1001
ACAD
1000
MTEXTBEGIN
1070
    73
1070
     1
1070
    44
1040
1.0
1070
    74
1070
     0
1000
MTEXTEND
  0
POINT
  5
10A2A
330
CDC9
100
AcDbEntity
  8
Defpoints
 62
     0
100
AcDbPoint
 10
1648.695121349204
 20
1541.392057636909
 30
0.0
  0
POINT
  5
10A2B
330
CDC9
100
AcDbEntity
  8
Defpoints
 62
     0
100
AcDbPoint
 10
1677.695121349204
 20
1541.392057636909
 30
0.0
  0
POINT
  5
10A2C
330
CDC9
100
AcDbEntity
  8
Defpoints
 62
     0
100
AcDbPoint
 10
1677.695121349204
 20
1558.39205863691
 30
0.0
  0
ENDBLK
  5
CDD4
330
CDC9
100
AcDbEntity
  8
0
100
AcDbBlockEnd
  0
BLOCK
  5
D0D5
330
D0CB
100
AcDbEntity
  8
0
100
AcDbBlockBegin
  2
*D164
 70
     1
 10
0.0
 20
0.0
 30
0.0
  3
*D164
  1

  0
LINE
  5
D368
330
D0CB
100
AcDbEntity
  8
AM_5
100
AcDbLine
 10
1809.114031265477
 20
1615.39205763691
 30
0.0
 11
1791.114030265477
 21
1615.39205763691
 31
0.0
  0
LINE
  5
D369
330
D0CB
100
AcDbEntity
  8
AM_5
100
AcDbLine
 10
1802.864031265477
 20
1556.39205763691
 30
0.0
 11
1791.114030265477
 21
1556.39205763691
 31
0.0
  0
LINE
  5
D36A
330
D0CB
100
AcDbEntity
  8
AM_5
100
AcDbLine
 10
1792.114030265477
 20
1614.39205763691
 30
0.0
 11
1792.114030265477
 21
1557.39205763691
 31
0.0
  0
INSERT
  5
D36B
330
D0CB
100
AcDbEntity
  8
AM_5
100
AcDbBlockReference
  2
_Dot
 10
1792.114030265477
 20
1615.39205763691
 30
0.0
 50
90.0
  0
INSERT
  5
D36C
330
D0CB
100
AcDbEntity
  8
AM_5
100
AcDbBlockReference
  2
_Dot
 10
1792.114030265477
 20
1556.39205763691
 30
0.0
 50
270.0
  0
MTEXT
  5
D36D
330
D0CB
100
AcDbEntity
  8
AM_5
 62
     2
100
AcDbMText
 10
1789.014030265477
 20
1585.89205763691
 30
0.0
 40
3.200000000000001
 41
0.0
 71
     5
 72
     1
  1
59
 11
0.0000000000000001
 21
1.0
 31
0.0
 73
     1
 44
1.0
1001
ACAD
1000
MTEXTBEGIN
1070
    73
1070
     1
1070
    44
1040
1.0
1070
    74
1070
     0
1000
MTEXTEND
  0
POINT
  5
D36E
330
D0CB
100
AcDbEntity
  8
Defpoints
 62
     0
100
AcDbPoint
 10
1810.114031265477
 20
1615.39205763691
 30
0.0
  0
POINT
  5
D36F
330
D0CB
100
AcDbEntity
  8
Defpoints
 62
     0
100
AcDbPoint
 10
1803.864031265477
 20
1556.39205763691
 30
0.0
  0
POINT
  5
D370
330
D0CB
100
AcDbEntity
  8
Defpoints
 62
     0
100
AcDbPoint
 10
1792.114030265477
 20
1556.39205763691
 30
0.0
  0
ENDBLK
  5
D0D6
330
D0CB
100
AcDbEntity
  8
0
100
AcDbBlockEnd
  0
BLOCK
  5
D0E1
330
D0D7
100
AcDbEntity
  8
0
100
AcDbBlockBegin
  2
*D165
 70
     1
 10
0.0
 20
0.0
 30
0.0
  3
*D165
  1

  0
LINE
  5
D371
330
D0D7
100
AcDbEntity
  8
AM_5
100
AcDbLine
 10
1802.864031265477
 20
1556.39205763691
 30
0.0
 11
1791.114030265476
 21
1556.39205763691
 31
0.0
  0
LINE
  5
D372
330
D0D7
100
AcDbEntity
  8
AM_5
100
AcDbLine
 10
1810.864031265477
 20
1537.89205763691
 30
0.0
 11
1791.114030265476
 21
1537.89205763691
 31
0.0
  0
LINE
  5
D373
330
D0D7
100
AcDbEntity
  8
AM_5
100
AcDbLine
 10
1792.114030265476
 20
1555.392057636909
 30
0.0
 11
1792.114030265476
 21
1538.89205763691
 31
0.0
  0
INSERT
  5
D374
330
D0D7
100
AcDbEntity
  8
AM_5
100
AcDbBlockReference
  2
_Dot
 10
1792.114030265476
 20
1556.39205763691
 30
0.0
 50
90.0
  0
INSERT
  5
D375
330
D0D7
100
AcDbEntity
  8
AM_5
100
AcDbBlockReference
  2
_Dot
 10
1792.114030265476
 20
1537.89205763691
 30
0.0
 50
270.0
  0
MTEXT
  5
D376
330
D0D7
100
AcDbEntity
  8
AM_5
 62
     2
100
AcDbMText
 10
1789.014030265476
 20
1547.14205763691
 30
0.0
 40
3.200000000000001
 41
0.0
 71
     5
 72
     1
  1
18.5
 11
0.0000000000000001
 21
1.0
 31
0.0
 73
     1
 44
1.0
1001
ACAD
1000
MTEXTBEGIN
1070
    73
1070
     1
1070
    44
1040
1.0
1070
    74
1070
     0
1000
MTEXTEND
  0
POINT
  5
D377
330
D0D7
100
AcDbEntity
  8
Defpoints
 62
     0
100
AcDbPoint
 10
1803.864031265477
 20
1556.39205763691
 30
0.0
  0
POINT
  5
D378
330
D0D7
100
AcDbEntity
  8
Defpoints
 62
     0
100
AcDbPoint
 10
1811.864031265477
 20
1537.89205763691
 30
0.0
  0
POINT
  5
D379
330
D0D7
100
AcDbEntity
  8
Defpoints
 62
     0
100
AcDbPoint
 10
1792.114030265476
 20
1537.89205763691
 30
0.0
  0
ENDBLK
  5
D0E2
330
D0D7
100
AcDbEntity
  8
0
100
AcDbBlockEnd
  0
BLOCK
  5
D0ED
330
D0E3
100
AcDbEntity
  8
0
100
AcDbBlockBegin
  2
*D166
 70
     1
 10
0.0
 20
0.0
 30
0.0
  3
*D166
  1

  0
LINE
  5
D37A
330
D0E3
100
AcDbEntity
  8
AM_5
100
AcDbLine
 10
1810.864031265477
 20
1537.89205763691
 30
0.0
 11
1791.114030265476
 21
1537.89205763691
 31
0.0
  0
LINE
  5
D37B
330
D0E3
100
AcDbEntity
  8
AM_5
100
AcDbLine
 10
1802.864031265477
 20
1519.39205763691
 30
0.0
 11
1791.114030265476
 21
1519.39205763691
 31
0.0
  0
LINE
  5
D37C
330
D0E3
100
AcDbEntity
  8
AM_5
100
AcDbLine
 10
1792.114030265476
 20
1536.89205763691
 30
0.0
 11
1792.114030265476
 21
1520.39205763691
 31
0.0
  0
INSERT
  5
D37D
330
D0E3
100
AcDbEntity
  8
AM_5
100
AcDbBlockReference
  2
_Dot
 10
1792.114030265476
 20
1537.89205763691
 30
0.0
 50
90.0
  0
INSERT
  5
D37E
330
D0E3
100
AcDbEntity
  8
AM_5
100
AcDbBlockReference
  2
_Dot
 10
1792.114030265476
 20
1519.39205763691
 30
0.0
 50
270.0
  0
MTEXT
  5
D37F
330
D0E3
100
AcDbEntity
  8
AM_5
 62
     2
100
AcDbMText
 10
1789.014030265476
 20
1528.64205763691
 30
0.0
 40
3.200000000000001
 41
0.0
 71
     5
 72
     1
  1
18.5
 11
0.0000000000000001
 21
1.0
 31
0.0
 73
     1
 44
1.0
1001
ACAD
1000
MTEXTBEGIN
1070
    73
1070
     1
1070
    44
1040
1.0
1070
    74
1070
     0
1000
MTEXTEND
  0
POINT
  5
D380
330
D0E3
100
AcDbEntity
  8
Defpoints
 62
     0
100
AcDbPoint
 10
1811.864031265477
 20
1537.89205763691
 30
0.0
  0
POINT
  5
D381
330
D0E3
100
AcDbEntity
  8
Defpoints
 62
     0
100
AcDbPoint
 10
1803.864031265477
 20
1519.39205763691
 30
0.0
  0
POINT
  5
D382
330
D0E3
100
AcDbEntity
  8
Defpoints
 62
     0
100
AcDbPoint
 10
1792.114030265476
 20
1519.39205763691
 30
0.0
  0
ENDBLK
  5
D0EE
330
D0E3
100
AcDbEntity
  8
0
100
AcDbBlockEnd
  0
BLOCK
  5
D0F9
330
D0EF
100
AcDbEntity
  8
0
100
AcDbBlockBegin
  2
*D167
 70
     1
 10
0.0
 20
0.0
 30
0.0
  3
*D167
  1

  0
LINE
  5
D383
330
D0EF
100
AcDbEntity
  8
AM_5
100
AcDbLine
 10
1802.864031265477
 20
1519.39205763691
 30
0.0
 11
1791.114030265475
 21
1519.39205763691
 31
0.0
  0
LINE
  5
D384
330
D0EF
100
AcDbEntity
  8
AM_5
100
AcDbLine
 10
1809.114031265477
 20
1510.39205763691
 30
0.0
 11
1791.114030265475
 21
1510.39205763691
 31
0.0
  0
LINE
  5
D385
330
D0EF
100
AcDbEntity
  8
AM_5
100
AcDbLine
 10
1792.114030265475
 20
1518.39205763691
 30
0.0
 11
1792.114030265475
 21
1511.39205763691
 31
0.0
  0
INSERT
  5
D386
330
D0EF
100
AcDbEntity
  8
AM_5
100
AcDbBlockReference
  2
_Dot
 10
1792.114030265475
 20
1519.39205763691
 30
0.0
 50
90.0
  0
INSERT
  5
D387
330
D0EF
100
AcDbEntity
  8
AM_5
100
AcDbBlockReference
  2
_Dot
 10
1792.114030265475
 20
1510.39205763691
 30
0.0
 50
270.0
  0
MTEXT
  5
D388
330
D0EF
100
AcDbEntity
  8
AM_5
 62
     2
100
AcDbMText
 10
1789.014030265475
 20
1514.89205763691
 30
0.0
 40
3.200000000000001
 41
0.0
 71
     5
 72
     1
  1
9
 11
0.0000000000000001
 21
1.0
 31
0.0
 73
     1
 44
1.0
1001
ACAD
1000
MTEXTBEGIN
1070
    73
1070
     1
1070
    44
1040
1.0
1070
    74
1070
     0
1000
MTEXTEND
  0
POINT
  5
D389
330
D0EF
100
AcDbEntity
  8
Defpoints
 62
     0
100
AcDbPoint
 10
1803.864031265477
 20
1519.39205763691
 30
0.0
  0
POINT
  5
D38A
330
D0EF
100
AcDbEntity
  8
Defpoints
 62
     0
100
AcDbPoint
 10
1810.114031265477
 20
1510.39205763691
 30
0.0
  0
POINT
  5
D38B
330
D0EF
100
AcDbEntity
  8
Defpoints
 62
     0
100
AcDbPoint
 10
1792.114030265475
 20
1510.39205763691
 30
0.0
  0
ENDBLK
  5
D0FA
330
D0EF
100
AcDbEntity
  8
0
100
AcDbBlockEnd
  0
BLOCK
  5
D105
330
D0FB
100
AcDbEntity
  8
0
100
AcDbBlockBegin
  2
*D168
 70
     1
 10
0.0
 20
0.0
 30
0.0
  3
*D168
  1

  0
LINE
  5
D38C
330
D0FB
100
AcDbEntity
  8
AM_5
100
AcDbLine
 10
1809.114031265477
 20
1510.39205763691
 30
0.0
 11
1781.114030265475
 21
1510.39205763691
 31
0.0
  0
LINE
  5
D38D
330
D0FB
100
AcDbEntity
  8
AM_5
100
AcDbLine
 10
1843.114031265476
 20
1501.39205763691
 30
0.0
 11
1781.114030265475
 21
1501.39205763691
 31
0.0
  0
LINE
  5
D38E
330
D0FB
100
AcDbEntity
  8
AM_5
100
AcDbLine
 10
1782.114030265475
 20
1509.39205763691
 30
0.0
 11
1782.114030265475
 21
1502.39205763691
 31
0.0
  0
INSERT
  5
D38F
330
D0FB
100
AcDbEntity
  8
AM_5
100
AcDbBlockReference
  2
_Dot
 10
1782.114030265475
 20
1510.39205763691
 30
0.0
 50
90.0
  0
INSERT
  5
D390
330
D0FB
100
AcDbEntity
  8
AM_5
100
AcDbBlockReference
  2
_Dot
 10
1782.114030265475
 20
1501.39205763691
 30
0.0
 50
270.0
  0
MTEXT
  5
D391
330
D0FB
100
AcDbEntity
  8
AM_5
 62
     2
100
AcDbMText
 10
1779.014030265475
 20
1505.89205763691
 30
0.0
 40
3.200000000000001
 41
0.0
 71
     5
 72
     1
  1
9
 11
0.0000000000000001
 21
1.0
 31
0.0
 73
     1
 44
1.0
1001
ACAD
1000
MTEXTBEGIN
1070
    73
1070
     1
1070
    44
1040
1.0
1070
    74
1070
     0
1000
MTEXTEND
  0
POINT
  5
D392
330
D0FB
100
AcDbEntity
  8
Defpoints
 62
     0
100
AcDbPoint
 10
1810.114031265477
 20
1510.39205763691
 30
0.0
  0
POINT
  5
D393
330
D0FB
100
AcDbEntity
  8
Defpoints
 62
     0
100
AcDbPoint
 10
1844.114031265476
 20
1501.39205763691
 30
0.0
  0
POINT
  5
D394
330
D0FB
100
AcDbEntity
  8
Defpoints
 62
     0
100
AcDbPoint
 10
1782.114030265475
 20
1501.39205763691
 30
0.0
  0
ENDBLK
  5
D106
330
D0FB
100
AcDbEntity
  8
0
100
AcDbBlockEnd
  0
BLOCK
  5
D111
330
D107
100
AcDbEntity
  8
0
100
AcDbBlockBegin
  2
*D169
 70
     1
 10
0.0
 20
0.0
 30
0.0
  3
*D169
  1

  0
LINE
  5
D395
330
D107
100
AcDbEntity
  8
AM_5
100
AcDbLine
 10
1809.114031265477
 20
1510.39205763691
 30
0.0
 11
1781.114030265475
 21
1510.39205763691
 31
0.0
  0
LINE
  5
D396
330
D107
100
AcDbEntity
  8
AM_5
100
AcDbLine
 10
1809.114031265477
 20
1615.39205763691
 30
0.0
 11
1781.114030265475
 21
1615.39205763691
 31
0.0
  0
LINE
  5
D397
330
D107
100
AcDbEntity
  8
AM_5
100
AcDbLine
 10
1782.114030265475
 20
1511.39205763691
 30
0.0
 11
1782.114030265475
 21
1614.39205763691
 31
0.0
  0
INSERT
  5
D398
330
D107
100
AcDbEntity
  8
AM_5
100
AcDbBlockReference
  2
_Dot
 10
1782.114030265475
 20
1510.39205763691
 30
0.0
 50
270.0
  0
INSERT
  5
D399
330
D107
100
AcDbEntity
  8
AM_5
100
AcDbBlockReference
  2
_Dot
 10
1782.114030265475
 20
1615.39205763691
 30
0.0
 50
90.0
  0
MTEXT
  5
D39A
330
D107
100
AcDbEntity
  8
AM_5
 62
     2
100
AcDbMText
 10
1779.014030265475
 20
1562.89205763691
 30
0.0
 40
3.200000000000001
 41
0.0
 71
     5
 72
     1
  1
105
 11
0.0000000000000001
 21
1.0
 31
0.0
 73
     1
 44
1.0
1001
ACAD
1000
MTEXTBEGIN
1070
    73
1070
     1
1070
    44
1040
1.0
1070
    74
1070
     0
1000
MTEXTEND
  0
POINT
  5
D39B
330
D107
100
AcDbEntity
  8
Defpoints
 62
     0
100
AcDbPoint
 10
1810.114031265477
 20
1510.39205763691
 30
0.0
  0
POINT
  5
D39C
330
D107
100
AcDbEntity
  8
Defpoints
 62
     0
100
AcDbPoint
 10
1810.114031265477
 20
1615.39205763691
 30
0.0
  0
POINT
  5
D39D
330
D107
100
AcDbEntity
  8
Defpoints
 62
     0
100
AcDbPoint
 10
1782.114030265475
 20
1615.39205763691
 30
0.0
  0
ENDBLK
  5
D112
330
D107
100
AcDbEntity
  8
0
100
AcDbBlockEnd
  0
BLOCK
  5
D11D
330
D113
100
AcDbEntity
  8
0
100
AcDbBlockBegin
  2
*D170
 70
     1
 10
0.0
 20
0.0
 30
0.0
  3
*D170
  1

  0
LINE
  5
D39E
330
D113
100
AcDbEntity
  8
AM_5
100
AcDbLine
 10
1897.364031265476
 20
1473.89205763691
 30
0.0
 11
1917.364031265477
 21
1473.89205763691
 31
0.0
  0
LINE
  5
D39F
330
D113
100
AcDbEntity
  8
AM_5
100
AcDbLine
 10
1905.364031265476
 20
1492.39205763691
 30
0.0
 11
1917.364031265477
 21
1492.39205763691
 31
0.0
  0
LINE
  5
D3A0
330
D113
100
AcDbEntity
  8
AM_5
100
AcDbLine
 10
1916.364031265477
 20
1474.89205763691
 30
0.0
 11
1916.364031265477
 21
1491.39205763691
 31
0.0
  0
INSERT
  5
D3A1
330
D113
100
AcDbEntity
  8
AM_5
100
AcDbBlockReference
  2
_Dot
 10
1916.364031265477
 20
1473.89205763691
 30
0.0
 50
270.0
  0
INSERT
  5
D3A2
330
D113
100
AcDbEntity
  8
AM_5
100
AcDbBlockReference
  2
_Dot
 10
1916.364031265477
 20
1492.39205763691
 30
0.0
 50
90.0
  0
MTEXT
  5
D3A3
330
D113
100
AcDbEntity
  8
AM_5
 62
     2
100
AcDbMText
 10
1913.264031265477
 20
1483.14205763691
 30
0.0
 40
3.200000000000001
 41
0.0
 71
     5
 72
     1
  1
18.5
 11
0.0000000000000001
 21
1.0
 31
0.0
 73
     1
 44
1.0
1001
ACAD
1000
MTEXTBEGIN
1070
    73
1070
     1
1070
    44
1040
1.0
1070
    74
1070
     0
1000
MTEXTEND
  0
POINT
  5
D3A4
330
D113
100
AcDbEntity
  8
Defpoints
 62
     0
100
AcDbPoint
 10
1896.364031265476
 20
1473.89205763691
 30
0.0
  0
POINT
  5
D3A5
330
D113
100
AcDbEntity
  8
Defpoints
 62
     0
100
AcDbPoint
 10
1904.364031265476
 20
1492.39205763691
 30
0.0
  0
POINT
  5
D3A6
330
D113
100
AcDbEntity
  8
Defpoints
 62
     0
100
AcDbPoint
 10
1916.364031265477
 20
1492.39205763691
 30
0.0
  0
ENDBLK
  5
D11E
330
D113
100
AcDbEntity
  8
0
100
AcDbBlockEnd
  0
BLOCK
  5
D129
330
D11F
100
AcDbEntity
  8
0
100
AcDbBlockBegin
  2
*D171
 70
     1
 10
0.0
 20
0.0
 30
0.0
  3
*D171
  1

  0
LINE
  5
D3A7
330
D11F
100
AcDbEntity
  8
AM_5
100
AcDbLine
 10
1900.114031265476
 20
1442.39205763691
 30
0.0
 11
1927.364031265477
 21
1442.39205763691
 31
0.0
  0
LINE
  5
D3A8
330
D11F
100
AcDbEntity
  8
AM_5
100
AcDbLine
 10
1900.114031265476
 20
1501.39205763691
 30
0.0
 11
1927.364031265477
 21
1501.39205763691
 31
0.0
  0
LINE
  5
D3A9
330
D11F
100
AcDbEntity
  8
AM_5
100
AcDbLine
 10
1926.364031265477
 20
1443.39205763691
 30
0.0
 11
1926.364031265477
 21
1500.39205763691
 31
0.0
  0
INSERT
  5
D3AA
330
D11F
100
AcDbEntity
  8
AM_5
100
AcDbBlockReference
  2
_Dot
 10
1926.364031265477
 20
1442.39205763691
 30
0.0
 50
270.0
  0
INSERT
  5
D3AB
330
D11F
100
AcDbEntity
  8
AM_5
100
AcDbBlockReference
  2
_Dot
 10
1926.364031265477
 20
1501.39205763691
 30
0.0
 50
90.0
  0
MTEXT
  5
D3AC
330
D11F
100
AcDbEntity
  8
AM_5
 62
     2
100
AcDbMText
 10
1923.264031265477
 20
1471.89205763691
 30
0.0
 40
3.200000000000001
 41
0.0
 71
     5
 72
     1
  1
59
 11
0.0000000000000001
 21
1.0
 31
0.0
 73
     1
 44
1.0
1001
ACAD
1000
MTEXTBEGIN
1070
    73
1070
     1
1070
    44
1040
1.0
1070
    74
1070
     0
1000
MTEXTEND
  0
POINT
  5
D3AD
330
D11F
100
AcDbEntity
  8
Defpoints
 62
     0
100
AcDbPoint
 10
1899.114031265476
 20
1442.39205763691
 30
0.0
  0
POINT
  5
D3AE
330
D11F
100
AcDbEntity
  8
Defpoints
 62
     0
100
AcDbPoint
 10
1899.114031265476
 20
1501.39205763691
 30
0.0
  0
POINT
  5
D3AF
330
D11F
100
AcDbEntity
  8
Defpoints
 62
     0
100
AcDbPoint
 10
1926.364031265477
 20
1501.39205763691
 30
0.0
  0
ENDBLK
  5
D12A
330
D11F
100
AcDbEntity
  8
0
100
AcDbBlockEnd
  0
BLOCK
  5
D135
330
D12B
100
AcDbEntity
  8
0
100
AcDbBlockBegin
  2
*D172
 70
     1
 10
0.0
 20
0.0
 30
0.0
  3
*D172
  1

  0
LINE
  5
D3B0
330
D12B
100
AcDbEntity
  8
AM_5
100
AcDbLine
 10
1905.364031265476
 20
1455.39205763691
 30
0.0
 11
1917.364031265477
 21
1455.39205763691
 31
0.0
  0
LINE
  5
D3B1
330
D12B
100
AcDbEntity
  8
AM_5
100
AcDbLine
 10
1900.114031265476
 20
1442.39205763691
 30
0.0
 11
1917.364031265477
 21
1442.39205763691
 31
0.0
  0
LINE
  5
D3B2
330
D12B
100
AcDbEntity
  8
AM_5
100
AcDbLine
 10
1916.364031265477
 20
1454.392057636909
 30
0.0
 11
1916.364031265477
 21
1443.39205763691
 31
0.0
  0
INSERT
  5
D3B3
330
D12B
100
AcDbEntity
  8
AM_5
100
AcDbBlockReference
  2
_Dot
 10
1916.364031265477
 20
1455.39205763691
 30
0.0
 50
90.0
  0
INSERT
  5
D3B4
330
D12B
100
AcDbEntity
  8
AM_5
100
AcDbBlockReference
  2
_Dot
 10
1916.364031265477
 20
1442.39205763691
 30
0.0
 50
270.0
  0
MTEXT
  5
D3B5
330
D12B
100
AcDbEntity
  8
AM_5
 62
     2
100
AcDbMText
 10
1913.264031265477
 20
1448.89205763691
 30
0.0
 40
3.200000000000001
 41
0.0
 71
     5
 72
     1
  1
13
 11
0.0000000000000001
 21
1.0
 31
0.0
 73
     1
 44
1.0
1001
ACAD
1000
MTEXTBEGIN
1070
    73
1070
     1
1070
    44
1040
1.0
1070
    74
1070
     0
1000
MTEXTEND
  0
POINT
  5
D3B6
330
D12B
100
AcDbEntity
  8
Defpoints
 62
     0
100
AcDbPoint
 10
1904.364031265476
 20
1455.39205763691
 30
0.0
  0
POINT
  5
D3B7
330
D12B
100
AcDbEntity
  8
Defpoints
 62
     0
100
AcDbPoint
 10
1899.114031265476
 20
1442.39205763691
 30
0.0
  0
POINT
  5
D3B8
330
D12B
100
AcDbEntity
  8
Defpoints
 62
     0
100
AcDbPoint
 10
1916.364031265477
 20
1442.39205763691
 30
0.0
  0
ENDBLK
  5
D136
330
D12B
100
AcDbEntity
  8
0
100
AcDbBlockEnd
  0
BLOCK
  5
D141
330
D137
100
AcDbEntity
  8
0
100
AcDbBlockBegin
  2
*D173
 70
     1
 10
0.0
 20
0.0
 30
0.0
  3
*D173
  1

  0
LINE
  5
D3B9
330
D137
100
AcDbEntity
  8
AM_5
100
AcDbLine
 10
1905.364031265476
 20
1455.39205763691
 30
0.0
 11
1917.364031265477
 21
1455.39205763691
 31
0.0
  0
LINE
  5
D3BA
330
D137
100
AcDbEntity
  8
AM_5
100
AcDbLine
 10
1897.364031265476
 20
1473.89205763691
 30
0.0
 11
1917.364031265477
 21
1473.89205763691
 31
0.0
  0
LINE
  5
D3BB
330
D137
100
AcDbEntity
  8
AM_5
100
AcDbLine
 10
1916.364031265477
 20
1456.39205763691
 30
0.0
 11
1916.364031265477
 21
1472.89205763691
 31
0.0
  0
INSERT
  5
D3BC
330
D137
100
AcDbEntity
  8
AM_5
100
AcDbBlockReference
  2
_Dot
 10
1916.364031265477
 20
1455.39205763691
 30
0.0
 50
270.0
  0
INSERT
  5
D3BD
330
D137
100
AcDbEntity
  8
AM_5
100
AcDbBlockReference
  2
_Dot
 10
1916.364031265477
 20
1473.89205763691
 30
0.0
 50
90.0
  0
MTEXT
  5
D3BE
330
D137
100
AcDbEntity
  8
AM_5
 62
     2
100
AcDbMText
 10
1913.264031265477
 20
1464.64205763691
 30
0.0
 40
3.200000000000001
 41
0.0
 71
     5
 72
     1
  1
18.5
 11
0.0000000000000001
 21
1.0
 31
0.0
 73
     1
 44
1.0
1001
ACAD
1000
MTEXTBEGIN
1070
    73
1070
     1
1070
    44
1040
1.0
1070
    74
1070
     0
1000
MTEXTEND
  0
POINT
  5
D3BF
330
D137
100
AcDbEntity
  8
Defpoints
 62
     0
100
AcDbPoint
 10
1904.364031265476
 20
1455.39205763691
 30
0.0
  0
POINT
  5
D3C0
330
D137
100
AcDbEntity
  8
Defpoints
 62
     0
100
AcDbPoint
 10
1896.364031265476
 20
1473.89205763691
 30
0.0
  0
POINT
  5
D3C1
330
D137
100
AcDbEntity
  8
Defpoints
 62
     0
100
AcDbPoint
 10
1916.364031265477
 20
1473.89205763691
 30
0.0
  0
ENDBLK
  5
D142
330
D137
100
AcDbEntity
  8
0
100
AcDbBlockEnd
  0
BLOCK
  5
D14D
330
D143
100
AcDbEntity
  8
0
100
AcDbBlockBegin
  2
*D174
 70
     1
 10
0.0
 20
0.0
 30
0.0
  3
*D174
  1

  0
LINE
  5
D3C2
330
D143
100
AcDbEntity
  8
AM_5
100
AcDbLine
 10
1905.364031265476
 20
1492.39205763691
 30
0.0
 11
1917.364031265477
 21
1492.39205763691
 31
0.0
  0
LINE
  5
D3C3
330
D143
100
AcDbEntity
  8
AM_5
100
AcDbLine
 10
1900.114031265476
 20
1501.39205763691
 30
0.0
 11
1917.364031265477
 21
1501.39205763691
 31
0.0
  0
LINE
  5
D3C4
330
D143
100
AcDbEntity
  8
AM_5
100
AcDbLine
 10
1916.364031265477
 20
1493.39205763691
 30
0.0
 11
1916.364031265477
 21
1500.39205763691
 31
0.0
  0
INSERT
  5
D3C5
330
D143
100
AcDbEntity
  8
AM_5
100
AcDbBlockReference
  2
_Dot
 10
1916.364031265477
 20
1492.39205763691
 30
0.0
 50
270.0
  0
INSERT
  5
D3C6
330
D143
100
AcDbEntity
  8
AM_5
100
AcDbBlockReference
  2
_Dot
 10
1916.364031265477
 20
1501.39205763691
 30
0.0
 50
90.0
  0
MTEXT
  5
D3C7
330
D143
100
AcDbEntity
  8
AM_5
 62
     2
100
AcDbMText
 10
1913.264031265477
 20
1496.89205763691
 30
0.0
 40
3.200000000000001
 41
0.0
 71
     5
 72
     1
  1
9
 11
0.0000000000000001
 21
1.0
 31
0.0
 73
     1
 44
1.0
1001
ACAD
1000
MTEXTBEGIN
1070
    73
1070
     1
1070
    44
1040
1.0
1070
    74
1070
     0
1000
MTEXTEND
  0
POINT
  5
D3C8
330
D143
100
AcDbEntity
  8
Defpoints
 62
     0
100
AcDbPoint
 10
1904.364031265476
 20
1492.39205763691
 30
0.0
  0
POINT
  5
D3C9
330
D143
100
AcDbEntity
  8
Defpoints
 62
     0
100
AcDbPoint
 10
1899.114031265476
 20
1501.39205763691
 30
0.0
  0
POINT
  5
D3CA
330
D143
100
AcDbEntity
  8
Defpoints
 62
     0
100
AcDbPoint
 10
1916.364031265477
 20
1501.39205763691
 30
0.0
  0
ENDBLK
  5
D14E
330
D143
100
AcDbEntity
  8
0
100
AcDbBlockEnd
  0
BLOCK
  5
D159
330
D14F
100
AcDbEntity
  8
0
100
AcDbBlockBegin
  2
*D175
 70
     1
 10
0.0
 20
0.0
 30
0.0
  3
*D175
  1

  0
LINE
  5
D3CB
330
D14F
100
AcDbEntity
  8
AM_5
100
AcDbLine
 10
1896.114031265477
 20
1446.14205763691
 30
0.0
 11
1896.114031265477
 21
1421.39205763691
 31
0.0
  0
LINE
  5
D3CC
330
D14F
100
AcDbEntity
  8
AM_5
100
AcDbLine
 10
1904.114031265477
 20
1446.392057636909
 30
0.0
 11
1904.114031265477
 21
1421.39205763691
 31
0.0
  0
LINE
  5
D3CD
330
D14F
100
AcDbEntity
  8
AM_5
100
AcDbLine
 10
1897.114031265477
 20
1422.392057636909
 30
0.0
 11
1903.114031265477
 21
1422.392057636909
 31
0.0
  0
INSERT
  5
D3CE
330
D14F
100
AcDbEntity
  8
AM_5
100
AcDbBlockReference
  2
_Dot
 10
1896.114031265477
 20
1422.392057636909
 30
0.0
 50
180.0
  0
INSERT
  5
D3CF
330
D14F
100
AcDbEntity
  8
AM_5
100
AcDbBlockReference
  2
_Dot
 10
1904.114031265477
 20
1422.392057636909
 30
0.0
  0
MTEXT
  5
D3D0
330
D14F
100
AcDbEntity
  8
AM_5
 62
     2
100
AcDbMText
 10
1900.114031265477
 20
1425.49205763691
 30
0.0
 40
3.200000000000001
 41
0.0
 71
     5
 72
     1
  1
8
 73
     1
 44
1.0
1001
ACAD
1000
MTEXTBEGIN
1070
    73
1070
     1
1070
    44
1040
1.0
1070
    74
1070
     0
1000
MTEXTEND
  0
POINT
  5
D3D1
330
D14F
100
AcDbEntity
  8
Defpoints
 62
     0
100
AcDbPoint
 10
1896.114031265477
 20
1447.14205763691
 30
0.0
  0
POINT
  5
D3D2
330
D14F
100
AcDbEntity
  8
Defpoints
 62
     0
100
AcDbPoint
 10
1904.114031265477
 20
1447.39205763691
 30
0.0
  0
POINT
  5
D3D3
330
D14F
100
AcDbEntity
  8
Defpoints
 62
     0
100
AcDbPoint
 10
1904.114031265477
 20
1422.392057636909
 30
0.0
  0
ENDBLK
  5
D15A
330
D14F
100
AcDbEntity
  8
0
100
AcDbBlockEnd
  0
BLOCK
  5
D165
330
D15B
100
AcDbEntity
  8
0
100
AcDbBlockBegin
  2
*D176
 70
     1
 10
0.0
 20
0.0
 30
0.0
  3
*D176
  1

  0
LINE
  5
D3D4
330
D15B
100
AcDbEntity
  8
AM_5
100
AcDbLine
 10
1896.114031265477
 20
1446.14205763691
 30
0.0
 11
1896.114031265477
 21
1431.39205763691
 31
0.0
  0
LINE
  5
D3D5
330
D15B
100
AcDbEntity
  8
AM_5
100
AcDbLine
 10
1888.114031265476
 20
1464.64205763691
 30
0.0
 11
1888.114031265476
 21
1431.39205763691
 31
0.0
  0
LINE
  5
D3D6
330
D15B
100
AcDbEntity
  8
AM_5
100
AcDbLine
 10
1895.114031265477
 20
1432.39205763691
 30
0.0
 11
1889.114031265476
 21
1432.39205763691
 31
0.0
  0
INSERT
  5
D3D7
330
D15B
100
AcDbEntity
  8
AM_5
100
AcDbBlockReference
  2
_Dot
 10
1896.114031265477
 20
1432.39205763691
 30
0.0
  0
INSERT
  5
D3D8
330
D15B
100
AcDbEntity
  8
AM_5
100
AcDbBlockReference
  2
_Dot
 10
1888.114031265476
 20
1432.39205763691
 30
0.0
 50
180.0
  0
MTEXT
  5
D3D9
330
D15B
100
AcDbEntity
  8
AM_5
 62
     2
100
AcDbMText
 10
1892.114031265476
 20
1435.49205763691
 30
0.0
 40
3.200000000000001
 41
0.0
 71
     5
 72
     1
  1
8
 73
     1
 44
1.0
1001
ACAD
1000
MTEXTBEGIN
1070
    73
1070
     1
1070
    44
1040
1.0
1070
    74
1070
     0
1000
MTEXTEND
  0
POINT
  5
D3DA
330
D15B
100
AcDbEntity
  8
Defpoints
 62
     0
100
AcDbPoint
 10
1896.114031265477
 20
1447.14205763691
 30
0.0
  0
POINT
  5
D3DB
330
D15B
100
AcDbEntity
  8
Defpoints
 62
     0
100
AcDbPoint
 10
1888.114031265476
 20
1465.64205763691
 30
0.0
  0
POINT
  5
D3DC
330
D15B
100
AcDbEntity
  8
Defpoints
 62
     0
100
AcDbPoint
 10
1888.114031265476
 20
1432.39205763691
 30
0.0
  0
ENDBLK
  5
D166
330
D15B
100
AcDbEntity
  8
0
100
AcDbBlockEnd
  0
BLOCK
  5
D172
330
D167
100
AcDbEntity
  8
0
100
AcDbBlockBegin
  2
*D177
 70
     1
 10
0.0
 20
0.0
 30
0.0
  3
*D177
  1

  0
LINE
  5
D3DD
330
D167
100
AcDbEntity
  8
AM_5
100
AcDbLine
 10
1864.114031265476
 20
1500.892057636909
 30
0.0
 11
1864.114031265476
 21
1487.392056636909
 31
0.0
  0
LINE
  5
D3DE
330
D167
100
AcDbEntity
  8
AM_5
100
AcDbLine
 10
1844.114031265476
 20
1500.892057636909
 30
0.0
 11
1844.114031265476
 21
1487.392056636909
 31
0.0
  0
LINE
  5
D3DF
330
D167
100
AcDbEntity
  8
AM_5
100
AcDbLine
 10
1863.114031265476
 20
1488.392056636909
 30
0.0
 11
1845.114031265476
 21
1488.392056636909
 31
0.0
  0
LINE
  5
D3E0
330
D167
100
AcDbEntity
  8
AM_5
100
AcDbLine
 10
1844.114031265476
 20
1488.392056636909
 30
0.0
 11
1831.922702871988
 21
1488.392056636909
 31
0.0
  0
INSERT
  5
D3E1
330
D167
100
AcDbEntity
  8
AM_5
100
AcDbBlockReference
  2
_Dot
 10
1864.114031265476
 20
1488.392056636909
 30
0.0
  0
INSERT
  5
D3E2
330
D167
100
AcDbEntity
  8
AM_5
100
AcDbBlockReference
  2
_Dot
 10
1844.114031265476
 20
1488.392056636909
 30
0.0
 50
180.0
  0
MTEXT
  5
D3E3
330
D167
100
AcDbEntity
  8
AM_5
 62
     2
100
AcDbMText
 10
1836.249369538655
 20
1491.492056636909
 30
0.0
 40
3.200000000000001
 41
0.0
 71
     5
 72
     1
  1
%%c20
 73
     1
 44
1.0
1001
ACAD
1000
MTEXTBEGIN
1070
    73
1070
     1
1070
    44
1040
1.0
1070
    74
1070
     0
1000
MTEXTEND
  0
POINT
  5
D3E4
330
D167
100
AcDbEntity
  8
Defpoints
 62
     0
100
AcDbPoint
 10
1864.114031265476
 20
1501.89205763691
 30
0.0
  0
POINT
  5
D3E5
330
D167
100
AcDbEntity
  8
Defpoints
 62
     0
100
AcDbPoint
 10
1844.114031265476
 20
1501.89205763691
 30
0.0
  0
POINT
  5
D3E6
330
D167
100
AcDbEntity
  8
Defpoints
 62
     0
100
AcDbPoint
 10
1844.114031265476
 20
1488.392056636909
 30
0.0
  0
ENDBLK
  5
D173
330
D167
100
AcDbEntity
  8
0
100
AcDbBlockEnd
  0
BLOCK
  5
D17E
330
D174
100
AcDbEntity
  8
0
100
AcDbBlockBegin
  2
*D178
 70
     1
 10
0.0
 20
0.0
 30
0.0
  3
*D178
  1

  0
LINE
  5
D3E7
330
D174
100
AcDbEntity
  8
AM_5
100
AcDbLine
 10
1888.114031265476
 20
1464.64205763691
 30
0.0
 11
1888.114031265476
 21
1431.39205763691
 31
0.0
  0
LINE
  5
D3E8
330
D174
100
AcDbEntity
  8
AM_5
100
AcDbLine
 10
1880.114031265476
 20
1446.14205763691
 30
0.0
 11
1880.114031265476
 21
1431.39205763691
 31
0.0
  0
LINE
  5
D3E9
330
D174
100
AcDbEntity
  8
AM_5
100
AcDbLine
 10
1887.114031265476
 20
1432.39205763691
 30
0.0
 11
1881.114031265476
 21
1432.39205763691
 31
0.0
  0
INSERT
  5
D3EA
330
D174
100
AcDbEntity
  8
AM_5
100
AcDbBlockReference
  2
_Dot
 10
1888.114031265476
 20
1432.39205763691
 30
0.0
  0
INSERT
  5
D3EB
330
D174
100
AcDbEntity
  8
AM_5
100
AcDbBlockReference
  2
_Dot
 10
1880.114031265476
 20
1432.39205763691
 30
0.0
 50
180.0
  0
MTEXT
  5
D3EC
330
D174
100
AcDbEntity
  8
AM_5
 62
     2
100
AcDbMText
 10
1884.114031265476
 20
1435.49205763691
 30
0.0
 40
3.200000000000001
 41
0.0
 71
     5
 72
     1
  1
8
 73
     1
 44
1.0
1001
ACAD
1000
MTEXTBEGIN
1070
    73
1070
     1
1070
    44
1040
1.0
1070
    74
1070
     0
1000
MTEXTEND
  0
POINT
  5
D3ED
330
D174
100
AcDbEntity
  8
Defpoints
 62
     0
100
AcDbPoint
 10
1888.114031265476
 20
1465.64205763691
 30
0.0
  0
POINT
  5
D3EE
330
D174
100
AcDbEntity
  8
Defpoints
 62
     0
100
AcDbPoint
 10
1880.114031265476
 20
1447.14205763691
 30
0.0
  0
POINT
  5
D3EF
330
D174
100
AcDbEntity
  8
Defpoints
 62
     0
100
AcDbPoint
 10
1880.114031265476
 20
1432.39205763691
 30
0.0
  0
ENDBLK
  5
D17F
330
D174
100
AcDbEntity
  8
0
100
AcDbBlockEnd
  0
BLOCK
  5
D18A
330
D180
100
AcDbEntity
  8
0
100
AcDbBlockBegin
  2
*D179
 70
     1
 10
0.0
 20
0.0
 30
0.0
  3
*D179
  1

  0
LINE
  5
D3F0
330
D180
100
AcDbEntity
  8
AM_5
100
AcDbLine
 10
1854.114031265476
 20
1623.39205763691
 30
0.0
 11
1854.114031265476
 21
1635.39205763691
 31
0.0
  0
LINE
  5
D3F1
330
D180
100
AcDbEntity
  8
AM_5
100
AcDbLine
 10
1804.114031265475
 20
1610.39205763691
 30
0.0
 11
1804.114031265475
 21
1635.39205763691
 31
0.0
  0
LINE
  5
D3F2
330
D180
100
AcDbEntity
  8
AM_5
100
AcDbLine
 10
1853.114031265476
 20
1634.392057636909
 30
0.0
 11
1805.114031265476
 21
1634.392057636909
 31
0.0
  0
INSERT
  5
D3F3
330
D180
100
AcDbEntity
  8
AM_5
100
AcDbBlockReference
  2
_Dot
 10
1854.114031265476
 20
1634.392057636909
 30
0.0
  0
INSERT
  5
D3F4
330
D180
100
AcDbEntity
  8
AM_5
100
AcDbBlockReference
  2
_Dot
 10
1804.114031265475
 20
1634.392057636909
 30
0.0
 50
180.0
  0
MTEXT
  5
D3F5
330
D180
100
AcDbEntity
  8
AM_5
 62
     2
100
AcDbMText
 10
1829.114031265476
 20
1637.49205763691
 30
0.0
 40
3.200000000000001
 41
0.0
 71
     5
 72
     1
  1
50
 73
     1
 44
1.0
1001
ACAD
1000
MTEXTBEGIN
1070
    73
1070
     1
1070
    44
1040
1.0
1070
    74
1070
     0
1000
MTEXTEND
  0
POINT
  5
D3F6
330
D180
100
AcDbEntity
  8
Defpoints
 62
     0
100
AcDbPoint
 10
1854.114031265476
 20
1622.39205763691
 30
0.0
  0
POINT
  5
D3F7
330
D180
100
AcDbEntity
  8
Defpoints
 62
     0
100
AcDbPoint
 10
1804.114031265475
 20
1609.39205763691
 30
0.0
  0
POINT
  5
D3F8
330
D180
100
AcDbEntity
  8
Defpoints
 62
     0
100
AcDbPoint
 10
1804.114031265475
 20
1634.392057636909
 30
0.0
  0
ENDBLK
  5
D18B
330
D180
100
AcDbEntity
  8
0
100
AcDbBlockEnd
  0
BLOCK
  5
D196
330
D18C
100
AcDbEntity
  8
0
100
AcDbBlockBegin
  2
*D180
 70
     1
 10
0.0
 20
0.0
 30
0.0
  3
*D180
  1

  0
LINE
  5
D3F9
330
D18C
100
AcDbEntity
  8
AM_5
100
AcDbLine
 10
1854.114031265476
 20
1623.39205763691
 30
0.0
 11
1854.114031265476
 21
1635.392057636909
 31
0.0
  0
LINE
  5
D3FA
330
D18C
100
AcDbEntity
  8
AM_5
100
AcDbLine
 10
1904.114031265477
 20
1497.39205763691
 30
0.0
 11
1904.114031265477
 21
1635.392057636909
 31
0.0
  0
LINE
  5
D3FB
330
D18C
100
AcDbEntity
  8
AM_5
100
AcDbLine
 10
1855.114031265476
 20
1634.392057636909
 30
0.0
 11
1903.114031265477
 21
1634.392057636909
 31
0.0
  0
INSERT
  5
D3FC
330
D18C
100
AcDbEntity
  8
AM_5
100
AcDbBlockReference
  2
_Dot
 10
1854.114031265476
 20
1634.392057636909
 30
0.0
 50
180.0
  0
INSERT
  5
D3FD
330
D18C
100
AcDbEntity
  8
AM_5
100
AcDbBlockReference
  2
_Dot
 10
1904.114031265477
 20
1634.392057636909
 30
0.0
  0
MTEXT
  5
D3FE
330
D18C
100
AcDbEntity
  8
AM_5
 62
     2
100
AcDbMText
 10
1879.114031265476
 20
1637.492057636909
 30
0.0
 40
3.200000000000001
 41
0.0
 71
     5
 72
     1
  1
50
 73
     1
 44
1.0
1001
ACAD
1000
MTEXTBEGIN
1070
    73
1070
     1
1070
    44
1040
1.0
1070
    74
1070
     0
1000
MTEXTEND
  0
POINT
  5
D3FF
330
D18C
100
AcDbEntity
  8
Defpoints
 62
     0
100
AcDbPoint
 10
1854.114031265476
 20
1622.39205763691
 30
0.0
  0
POINT
  5
D400
330
D18C
100
AcDbEntity
  8
Defpoints
 62
     0
100
AcDbPoint
 10
1904.114031265477
 20
1496.39205763691
 30
0.0
  0
POINT
  5
D401
330
D18C
100
AcDbEntity
  8
Defpoints
 62
     0
100
AcDbPoint
 10
1904.114031265477
 20
1634.392057636909
 30
0.0
  0
ENDBLK
  5
D197
330
D18C
100
AcDbEntity
  8
0
100
AcDbBlockEnd
  0
BLOCK
  5
D1A2
330
D198
100
AcDbEntity
  8
0
100
AcDbBlockBegin
  2
*D181
 70
     1
 10
0.0
 20
0.0
 30
0.0
  3
*D181
  1

  0
LINE
  5
D402
330
D198
100
AcDbEntity
  8
AM_5
100
AcDbLine
 10
1904.114031265477
 20
1497.39205763691
 30
0.0
 11
1904.114031265477
 21
1645.392057636909
 31
0.0
  0
LINE
  5
D403
330
D198
100
AcDbEntity
  8
AM_5
100
AcDbLine
 10
1804.114031265475
 20
1610.39205763691
 30
0.0
 11
1804.114031265475
 21
1645.392057636909
 31
0.0
  0
LINE
  5
D404
330
D198
100
AcDbEntity
  8
AM_5
100
AcDbLine
 10
1903.114031265477
 20
1644.392057636909
 30
0.0
 11
1805.114031265476
 21
1644.392057636909
 31
0.0
  0
INSERT
  5
D405
330
D198
100
AcDbEntity
  8
AM_5
100
AcDbBlockReference
  2
_Dot
 10
1904.114031265477
 20
1644.392057636909
 30
0.0
  0
INSERT
  5
D406
330
D198
100
AcDbEntity
  8
AM_5
100
AcDbBlockReference
  2
_Dot
 10
1804.114031265475
 20
1644.392057636909
 30
0.0
 50
180.0
  0
MTEXT
  5
D407
330
D198
100
AcDbEntity
  8
AM_5
 62
     2
100
AcDbMText
 10
1854.114031265476
 20
1647.492057636909
 30
0.0
 40
3.200000000000001
 41
0.0
 71
     5
 72
     1
  1
100
 73
     1
 44
1.0
1001
ACAD
1000
MTEXTBEGIN
1070
    73
1070
     1
1070
    44
1040
1.0
1070
    74
1070
     0
1000
MTEXTEND
  0
POINT
  5
D408
330
D198
100
AcDbEntity
  8
Defpoints
 62
     0
100
AcDbPoint
 10
1904.114031265477
 20
1496.39205763691
 30
0.0
  0
POINT
  5
D409
330
D198
100
AcDbEntity
  8
Defpoints
 62
     0
100
AcDbPoint
 10
1804.114031265475
 20
1609.39205763691
 30
0.0
  0
POINT
  5
D40A
330
D198
100
AcDbEntity
  8
Defpoints
 62
     0
100
AcDbPoint
 10
1804.114031265475
 20
1644.392057636909
 30
0.0
  0
ENDBLK
  5
D1A3
330
D198
100
AcDbEntity
  8
0
100
AcDbBlockEnd
  0
BLOCK
  5
D1B0
330
D1A4
100
AcDbEntity
  8
0
100
AcDbBlockBegin
  2
*D182
 70
     1
 10
0.0
 20
0.0
 30
0.0
  3
*D182
  1

  0
LINE
  5
D342
330
D1A4
100
AcDbEntity
  8
AM_5
100
AcDbLine
 10
1905.114031265477
 20
1701.580297614965
 30
0.0
 11
1927.364031265478
 21
1701.580297614965
 31
0.0
  0
LINE
  5
D343
330
D1A4
100
AcDbEntity
  8
AM_5
100
AcDbLine
 10
1905.114031265477
 20
1704.580297614965
 30
0.0
 11
1927.364031265478
 21
1704.580297614965
 31
0.0
  0
LINE
  5
D344
330
D1A4
100
AcDbEntity
  8
AM_5
100
AcDbLine
 10
1926.364031265478
 20
1700.580297614965
 30
0.0
 11
1926.364031265478
 21
1699.580297614965
 31
0.0
  0
LINE
  5
D345
330
D1A4
100
AcDbEntity
  8
AM_5
100
AcDbLine
 10
1926.364031265478
 20
1705.580297614966
 30
0.0
 11
1926.364031265478
 21
1711.073630948298
 31
0.0
  0
LINE
  5
D346
330
D1A4
100
AcDbEntity
  8
AM_5
100
AcDbLine
 10
1926.364031265478
 20
1701.580297614965
 30
0.0
 11
1926.364031265478
 21
1704.580297614965
 31
0.0
  0
INSERT
  5
D347
330
D1A4
100
AcDbEntity
  8
AM_5
100
AcDbBlockReference
  2
_Dot
 10
1926.364031265478
 20
1701.580297614965
 30
0.0
 50
90.0
  0
INSERT
  5
D348
330
D1A4
100
AcDbEntity
  8
AM_5
100
AcDbBlockReference
  2
_Dot
 10
1926.364031265478
 20
1704.580297614965
 30
0.0
 50
270.0
  0
MTEXT
  5
D349
330
D1A4
100
AcDbEntity
  8
AM_5
 62
     2
100
AcDbMText
 10
1923.264031265478
 20
1708.826964281632
 30
0.0
 40
3.200000000000001
 41
0.0
 71
     5
 72
     1
  1
3
 11
0.0000000000000001
 21
1.0
 31
0.0
 73
     1
 44
1.0
1001
ACAD
1000
MTEXTBEGIN
1070
    73
1070
     1
1070
    44
1040
1.0
1070
    74
1070
     0
1000
MTEXTEND
  0
POINT
  5
D34A
330
D1A4
100
AcDbEntity
  8
Defpoints
 62
     0
100
AcDbPoint
 10
1904.114031265477
 20
1701.580297614965
 30
0.0
  0
POINT
  5
D34B
330
D1A4
100
AcDbEntity
  8
Defpoints
 62
     0
100
AcDbPoint
 10
1904.114031265477
 20
1704.580297614965
 30
0.0
  0
POINT
  5
D34C
330
D1A4
100
AcDbEntity
  8
Defpoints
 62
     0
100
AcDbPoint
 10
1926.364031265478
 20
1704.580297614965
 30
0.0
  0
ENDBLK
  5
D1B1
330
D1A4
100
AcDbEntity
  8
0
100
AcDbBlockEnd
  0
BLOCK
  5
D1BC
330
D1B2
100
AcDbEntity
  8
0
100
AcDbBlockBegin
  2
*D183
 70
     1
 10
0.0
 20
0.0
 30
0.0
  3
*D183
  1

  0
LINE
  5
D40B
330
D1B2
100
AcDbEntity
  8
AM_5
100
AcDbLine
 10
1896.114031265477
 20
1446.14205763691
 30
0.0
 11
1896.114031265477
 21
1421.39205763691
 31
0.0
  0
LINE
  5
D40C
330
D1B2
100
AcDbEntity
  8
AM_5
100
AcDbLine
 10
1880.114031265476
 20
1446.14205763691
 30
0.0
 11
1880.114031265476
 21
1421.39205763691
 31
0.0
  0
LINE
  5
D40D
330
D1B2
100
AcDbEntity
  8
AM_5
100
AcDbLine
 10
1895.114031265477
 20
1422.392057636909
 30
0.0
 11
1881.114031265476
 21
1422.392057636909
 31
0.0
  0
INSERT
  5
D40E
330
D1B2
100
AcDbEntity
  8
AM_5
100
AcDbBlockReference
  2
_Dot
 10
1896.114031265477
 20
1422.392057636909
 30
0.0
  0
INSERT
  5
D40F
330
D1B2
100
AcDbEntity
  8
AM_5
100
AcDbBlockReference
  2
_Dot
 10
1880.114031265476
 20
1422.392057636909
 30
0.0
 50
180.0
  0
MTEXT
  5
D410
330
D1B2
100
AcDbEntity
  8
AM_5
 62
     2
100
AcDbMText
 10
1888.114031265476
 20
1425.49205763691
 30
0.0
 40
3.200000000000001
 41
0.0
 71
     5
 72
     1
  1
16
 73
     1
 44
1.0
1001
ACAD
1000
MTEXTBEGIN
1070
    73
1070
     1
1070
    44
1040
1.0
1070
    74
1070
     0
1000
MTEXTEND
  0
POINT
  5
D411
330
D1B2
100
AcDbEntity
  8
Defpoints
 62
     0
100
AcDbPoint
 10
1896.114031265477
 20
1447.14205763691
 30
0.0
  0
POINT
  5
D412
330
D1B2
100
AcDbEntity
  8
Defpoints
 62
     0
100
AcDbPoint
 10
1880.114031265476
 20
1447.14205763691
 30
0.0
  0
POINT
  5
D413
330
D1B2
100
AcDbEntity
  8
Defpoints
 62
     0
100
AcDbPoint
 10
1880.114031265476
 20
1422.392057636909
 30
0.0
  0
ENDBLK
  5
D1BD
330
D1B2
100
AcDbEntity
  8
0
100
AcDbBlockEnd
  0
BLOCK
  5
D1C8
330
D1BE
100
AcDbEntity
  8
0
100
AcDbBlockBegin
  2
*D184
 70
     1
 10
0.0
 20
0.0
 30
0.0
  3
*D184
  1

  0
LINE
  5
D414
330
D1BE
100
AcDbEntity
  8
AM_5
100
AcDbLine
 10
1880.114031265476
 20
1446.14205763691
 30
0.0
 11
1880.114031265476
 21
1421.39205763691
 31
0.0
  0
LINE
  5
D415
330
D1BE
100
AcDbEntity
  8
AM_5
100
AcDbLine
 10
1854.114031265476
 20
1434.39205763691
 30
0.0
 11
1854.114031265476
 21
1421.39205763691
 31
0.0
  0
LINE
  5
D416
330
D1BE
100
AcDbEntity
  8
AM_5
100
AcDbLine
 10
1879.114031265476
 20
1422.392057636909
 30
0.0
 11
1855.114031265476
 21
1422.392057636909
 31
0.0
  0
INSERT
  5
D417
330
D1BE
100
AcDbEntity
  8
AM_5
100
AcDbBlockReference
  2
_Dot
 10
1880.114031265476
 20
1422.392057636909
 30
0.0
  0
INSERT
  5
D418
330
D1BE
100
AcDbEntity
  8
AM_5
100
AcDbBlockReference
  2
_Dot
 10
1854.114031265476
 20
1422.392057636909
 30
0.0
 50
180.0
  0
MTEXT
  5
D419
330
D1BE
100
AcDbEntity
  8
AM_5
 62
     2
100
AcDbMText
 10
1867.114031265476
 20
1425.49205763691
 30
0.0
 40
3.200000000000001
 41
0.0
 71
     5
 72
     1
  1
26
 73
     1
 44
1.0
1001
ACAD
1000
MTEXTBEGIN
1070
    73
1070
     1
1070
    44
1040
1.0
1070
    74
1070
     0
1000
MTEXTEND
  0
POINT
  5
D41A
330
D1BE
100
AcDbEntity
  8
Defpoints
 62
     0
100
AcDbPoint
 10
1880.114031265476
 20
1447.14205763691
 30
0.0
  0
POINT
  5
D41B
330
D1BE
100
AcDbEntity
  8
Defpoints
 62
     0
100
AcDbPoint
 10
1854.114031265476
 20
1435.39205763691
 30
0.0
  0
POINT
  5
D41C
330
D1BE
100
AcDbEntity
  8
Defpoints
 62
     0
100
AcDbPoint
 10
1854.114031265476
 20
1422.392057636909
 30
0.0
  0
ENDBLK
  5
D1C9
330
D1BE
100
AcDbEntity
  8
0
100
AcDbBlockEnd
  0
BLOCK
  5
D1D4
330
D1CA
100
AcDbEntity
  8
0
100
AcDbBlockBegin
  2
*D185
 70
     1
 10
0.0
 20
0.0
 30
0.0
  3
*D185
  1

  0
LINE
  5
D41D
330
D1CA
100
AcDbEntity
  8
AM_5
100
AcDbLine
 10
1900.114031265476
 20
1442.39205763691
 30
0.0
 11
1937.364031265476
 21
1442.39205763691
 31
0.0
  0
LINE
  5
D41E
330
D1CA
100
AcDbEntity
  8
AM_5
100
AcDbLine
 10
1864.114031265477
 20
1615.39205763691
 30
0.0
 11
1937.364031265476
 21
1615.39205763691
 31
0.0
  0
LINE
  5
D41F
330
D1CA
100
AcDbEntity
  8
AM_5
100
AcDbLine
 10
1936.364031265475
 20
1443.39205763691
 30
0.0
 11
1936.364031265476
 21
1614.39205763691
 31
0.0
  0
INSERT
  5
D420
330
D1CA
100
AcDbEntity
  8
AM_5
100
AcDbBlockReference
  2
_Dot
 10
1936.364031265475
 20
1442.39205763691
 30
0.0
 50
270.0
  0
INSERT
  5
D421
330
D1CA
100
AcDbEntity
  8
AM_5
100
AcDbBlockReference
  2
_Dot
 10
1936.364031265476
 20
1615.39205763691
 30
0.0
 50
90.0
  0
MTEXT
  5
D422
330
D1CA
100
AcDbEntity
  8
AM_5
 62
     2
100
AcDbMText
 10
1933.264031265476
 20
1528.89205763691
 30
0.0
 40
3.200000000000001
 41
0.0
 71
     5
 72
     1
  1
173
 11
0.0000000000000001
 21
1.0
 31
0.0
 73
     1
 44
1.0
1001
ACAD
1000
MTEXTBEGIN
1070
    73
1070
     1
1070
    44
1040
1.0
1070
    74
1070
     0
1000
MTEXTEND
  0
POINT
  5
D423
330
D1CA
100
AcDbEntity
  8
Defpoints
 62
     0
100
AcDbPoint
 10
1899.114031265476
 20
1442.39205763691
 30
0.0
  0
POINT
  5
D424
330
D1CA
100
AcDbEntity
  8
Defpoints
 62
     0
100
AcDbPoint
 10
1863.114031265477
 20
1615.39205763691
 30
0.0
  0
POINT
  5
D425
330
D1CA
100
AcDbEntity
  8
Defpoints
 62
     0
100
AcDbPoint
 10
1936.364031265476
 20
1615.39205763691
 30
0.0
  0
ENDBLK
  5
D1D5
330
D1CA
100
AcDbEntity
  8
0
100
AcDbBlockEnd
  0
BLOCK
  5
D450
330
D444
100
AcDbEntity
  8
0
100
AcDbBlockBegin
  2
*D186
 70
     1
 10
0.0
 20
0.0
 30
0.0
  3
*D186
  1

  0
LINE
  5
D452
330
D444
100
AcDbEntity
  8
AM_5
100
AcDbLine
 10
1680.195121349205
 20
1701.580297614965
 30
0.0
 11
1702.445121349206
 21
1701.580297614965
 31
0.0
  0
LINE
  5
D453
330
D444
100
AcDbEntity
  8
AM_5
100
AcDbLine
 10
1680.195121349205
 20
1704.580297614965
 30
0.0
 11
1702.445121349206
 21
1704.580297614965
 31
0.0
  0
LINE
  5
D454
330
D444
100
AcDbEntity
  8
AM_5
100
AcDbLine
 10
1701.445121349206
 20
1700.580297614965
 30
0.0
 11
1701.445121349206
 21
1699.580297614965
 31
0.0
  0
LINE
  5
D455
330
D444
100
AcDbEntity
  8
AM_5
100
AcDbLine
 10
1701.445121349206
 20
1705.580297614965
 30
0.0
 11
1701.445121349206
 21
1711.073630948298
 31
0.0
  0
LINE
  5
D456
330
D444
100
AcDbEntity
  8
AM_5
100
AcDbLine
 10
1701.445121349206
 20
1701.580297614965
 30
0.0
 11
1701.445121349206
 21
1704.580297614965
 31
0.0
  0
INSERT
  5
D457
330
D444
100
AcDbEntity
  8
AM_5
100
AcDbBlockReference
  2
_Dot
 10
1701.445121349206
 20
1701.580297614965
 30
0.0
 50
90.0
  0
INSERT
  5
D458
330
D444
100
AcDbEntity
  8
AM_5
100
AcDbBlockReference
  2
_Dot
 10
1701.445121349206
 20
1704.580297614965
 30
0.0
 50
270.0
  0
MTEXT
  5
D459
330
D444
100
AcDbEntity
  8
AM_5
 62
     2
100
AcDbMText
 10
1698.345121349206
 20
1708.826964281632
 30
0.0
 40
3.200000000000001
 41
0.0
 71
     5
 72
     1
  1
3
 11
0.0000000000000001
 21
1.0
 31
0.0
 73
     1
 44
1.0
1001
ACAD
1000
MTEXTBEGIN
1070
    73
1070
     1
1070
    44
1040
1.0
1070
    74
1070
     0
1000
MTEXTEND
  0
POINT
  5
D45A
330
D444
100
AcDbEntity
  8
Defpoints
 62
     0
100
AcDbPoint
 10
1679.195121349205
 20
1701.580297614965
 30
0.0
  0
POINT
  5
D45B
330
D444
100
AcDbEntity
  8
Defpoints
 62
     0
100
AcDbPoint
 10
1679.195121349205
 20
1704.580297614965
 30
0.0
  0
POINT
  5
D45C
330
D444
100
AcDbEntity
  8
Defpoints
 62
     0
100
AcDbPoint
 10
1701.445121349206
 20
1704.580297614965
 30
0.0
  0
ENDBLK
  5
D451
330
D444
100
AcDbEntity
  8
0
100
AcDbBlockEnd
  0
ENDSEC
  0
SECTION
  2
ENTITIES
  0
TEXT
  5
B50F
330
1F
100
AcDbEntity
  8
AM_6
 60
     1
100
AcDbText
 10
2034.593689170057
 20
1366.484262209774
 30
0.0
 40
2.5
  1
!GENTITLE-INSERT
100
AcDbText
  0
TEXT
  5
B510
330
1F
100
AcDbEntity
  8
AM_6
 60
     1
100
AcDbText
 10
2046.093689170056
 20
1777.984262209774
 30
0.0
 40
2.5
  1
!GENTITLE-MAX
100
AcDbText
  0
TEXT
  5
B511
330
1F
100
AcDbEntity
  8
AM_6
 60
     1
100
AcDbText
 10
2046.093689170056
 20
1777.984262209774
 30
0.0
 40
2.5
  1
!GENTITLE-RU
100
AcDbText
  0
TEXT
  5
B512
330
1F
100
AcDbEntity
  8
AM_6
 60
     1
100
AcDbText
 10
1452.093689170056
 20
1357.984262209774
 30
0.0
 40
2.5
  1
!GENTITLE-LL
100
AcDbText
  0
LINE
  5
B513
330
1F
100
AcDbEntity
  8
size
100
AcDbLine
 10
1452.093689170056
 20
1777.984262209774
 30
0.0
 11
2046.093689170056
 21
1777.984262209774
 31
0.0
1001
GENIUS_GENREC_14
1002
{
1000
PYDIR
1011
1452.093689170056
1021
1654.984262209774
1031
0.0
1002
}
1002
{
1000
PXDIR
1011
1872.093689170056
1021
1357.984262209774
1031
0.0
1002
}
1002
{
1000
PORI
1011
1452.093689170056
1021
1357.984262209774
1031
0.0
1002
}
1002
{
1000
PINS
1011
1662.093689170056
1021
1506.484262209774
1031
0.0
1002
}
1002
{
1000
HVAL
1000
297
1002
}
1002
{
1000
H
1070
     2
1002
}
1002
{
1000
WVAL
1000
420
1002
}
1002
{
1000
W
1070
     2
1002
}
1002
{
1000
C
1070
     4
1002
}
1001
GENIUS_GENOBJ-N-REC_13
1002
{
1000
OWNER
1000
GEN
1002
}
1001
GENIUS_GENODEF_13
1002
{
1000
HIER
1070
     0
1002
}
1002
{
1000
MANEDIT
1070
     0
1002
}
1002
{
1000
NOSEL
1070
     0
1002
}
1002
{
1000
BEHIND
1070
     0
1002
}
1002
{
1000
OTHER
1070
     0
1002
}
1002
{
1000
REACTOR
1002
}
  0
LINE
  5
B514
330
1F
100
AcDbEntity
  8
size
100
AcDbLine
 10
2046.093689170056
 20
1777.984262209774
 30
0.0
 11
2046.093689170056
 21
1357.984262209774
 31
0.0
1001
GENIUS_GENREC_14
1002
{
1000
PYDIR
1011
1452.093689170056
1021
1654.984262209774
1031
0.0
1002
}
1002
{
1000
PXDIR
1011
1872.093689170056
1021
1357.984262209774
1031
0.0
1002
}
1002
{
1000
PORI
1011
1452.093689170056
1021
1357.984262209774
1031
0.0
1002
}
1002
{
1000
PINS
1011
1662.093689170056
1021
1506.484262209774
1031
0.0
1002
}
1002
{
1000
HVAL
1000
297
1002
}
1002
{
1000
H
1070
     2
1002
}
1002
{
1000
WVAL
1000
420
1002
}
1002
{
1000
W
1070
     2
1002
}
1002
{
1000
C
1070
     4
1002
}
1001
GENIUS_GENOBJ-N-REC_13
1002
{
1000
OWNER
1000
GEN
1002
}
1001
GENIUS_GENODEF_13
1002
{
1000
HIER
1070
     0
1002
}
1002
{
1000
MANEDIT
1070
     0
1002
}
1002
{
1000
NOSEL
1070
     0
1002
}
1002
{
1000
BEHIND
1070
     0
1002
}
1002
{
1000
OTHER
1070
     0
1002
}
1002
{
1000
REACTOR
1002
}
  0
LINE
  5
B515
330
1F
100
AcDbEntity
  8
waku
100
AcDbLine
 10
1463.593689170056
 20
1366.484262209774
 30
0.0
 11
2034.593689170057
 21
1366.484262209774
 31
0.0
1001
GENIUS_GENREC_14
1002
{
1000
PYDIR
1011
1452.093689170056
1021
1654.984262209774
1031
0.0
1002
}
1002
{
1000
PXDIR
1011
1872.093689170056
1021
1357.984262209774
1031
0.0
1002
}
1002
{
1000
PORI
1011
1452.093689170056
1021
1357.984262209774
1031
0.0
1002
}
1002
{
1000
PINS
1011
1662.093689170056
1021
1506.484262209774
1031
0.0
1002
}
1002
{
1000
HVAL
1000
297
1002
}
1002
{
1000
H
1070
     2
1002
}
1002
{
1000
WVAL
1000
420
1002
}
1002
{
1000
W
1070
     2
1002
}
1002
{
1000
C
1070
     4
1002
}
  0
LINE
  5
B516
330
1F
100
AcDbEntity
  8
waku
100
AcDbLine
 10
2034.593689170057
 20
1769.484262209774
 30
0.0
 11
1463.593689170056
 21
1769.484262209774
 31
0.0
1001
GENIUS_GENREC_14
1002
{
1000
PYDIR
1011
1626.093689170056
1021
1777.984262209774
1031
0.0
1002
}
1002
{
1000
PXDIR
1011
2046.093689170056
1021
1480.984262209774
1031
0.0
1002
}
1002
{
1000
PORI
1011
1626.093689170056
1021
1480.984262209774
1031
0.0
1002
}
1002
{
1000
PINS
1011
1836.093689170056
1021
1629.484262209774
1031
0.0
1002
}
1002
{
1000
HVAL
1000
297
1002
}
1002
{
1000
H
1070
     2
1002
}
1002
{
1000
WVAL
1000
420
1002
}
1002
{
1000
W
1070
     2
1002
}
1002
{
1000
C
1070
     4
1002
}
1001
GENIUS_GENOBJ-N-REC_13
1002
{
1000
OWNER
1000
GEN
1002
}
1001
GENIUS_GENODEF_13
1002
{
1000
HIER
1070
     0
1002
}
1002
{
1000
MANEDIT
1070
     0
1002
}
1002
{
1000
NOSEL
1070
     0
1002
}
1002
{
1000
BEHIND
1070
     0
1002
}
1002
{
1000
OTHER
1070
     0
1002
}
1002
{
1000
REACTOR
1002
}
  0
LINE
  5
B517
330
1F
100
AcDbEntity
  8
waku
100
AcDbLine
 10
1463.593689170056
 20
1769.484262209774
 30
0.0
 11
1463.593689170056
 21
1366.484262209774
 31
0.0
1001
GENIUS_GENREC_14
1002
{
1000
PYDIR
1011
1452.093689170056
1021
1654.984262209774
1031
0.0
1002
}
1002
{
1000
PXDIR
1011
1872.093689170056
1021
1357.984262209774
1031
0.0
1002
}
1002
{
1000
PORI
1011
1452.093689170056
1021
1357.984262209774
1031
0.0
1002
}
1002
{
1000
PINS
1011
1662.093689170056
1021
1506.484262209774
1031
0.0
1002
}
1002
{
1000
HVAL
1000
297
1002
}
1002
{
1000
H
1070
     2
1002
}
1002
{
1000
WVAL
1000
420
1002
}
1002
{
1000
W
1070
     2
1002
}
1002
{
1000
C
1070
     4
1002
}
1001
GENIUS_GENOBJ-N-REC_13
1002
{
1000
OWNER
1000
GEN
1002
}
1001
GENIUS_GENODEF_13
1002
{
1000
HIER
1070
     0
1002
}
1002
{
1000
MANEDIT
1070
     0
1002
}
1002
{
1000
NOSEL
1070
     0
1002
}
1002
{
1000
BEHIND
1070
     0
1002
}
1002
{
1000
OTHER
1070
     0
1002
}
1002
{
1000
REACTOR
1002
}
  0
LINE
  5
B518
330
1F
100
AcDbEntity
  8
waku
100
AcDbLine
 10
2034.593689170057
 20
1366.484262209774
 30
0.0
 11
2034.593689170057
 21
1769.484262209774
 31
0.0
1001
GENIUS_GENREC_14
1002
{
1000
PYDIR
1011
1626.093689170056
1021
1777.984262209774
1031
0.0
1002
}
1002
{
1000
PXDIR
1011
2046.093689170056
1021
1480.984262209774
1031
0.0
1002
}
1002
{
1000
PORI
1011
1626.093689170056
1021
1480.984262209774
1031
0.0
1002
}
1002
{
1000
PINS
1011
1836.093689170056
1021
1629.484262209774
1031
0.0
1002
}
1002
{
1000
HVAL
1000
297
1002
}
1002
{
1000
H
1070
     2
1002
}
1002
{
1000
WVAL
1000
420
1002
}
1002
{
1000
W
1070
     2
1002
}
1002
{
1000
C
1070
     4
1002
}
1001
GENIUS_GENOBJ-N-REC_13
1002
{
1000
OWNER
1000
GEN
1002
}
1001
GENIUS_GENODEF_13
1002
{
1000
HIER
1070
     0
1002
}
1002
{
1000
MANEDIT
1070
     0
1002
}
1002
{
1000
NOSEL
1070
     0
1002
}
1002
{
1000
BEHIND
1070
     0
1002
}
1002
{
1000
OTHER
1070
     0
1002
}
1002
{
1000
REACTOR
1002
}
  0
LINE
  5
B519
330
1F
100
AcDbEntity
  8
size
100
AcDbLine
 10
1452.093689170056
 20
1777.984262209774
 30
0.0
 11
1452.093689170056
 21
1357.984262209774
 31
0.0
1001
GENIUS_GENREC_14
1002
{
1000
PYDIR
1011
1452.093689170056
1021
1654.984262209774
1031
0.0
1002
}
1002
{
1000
PXDIR
1011
1872.093689170056
1021
1357.984262209774
1031
0.0
1002
}
1002
{
1000
PORI
1011
1452.093689170056
1021
1357.984262209774
1031
0.0
1002
}
1002
{
1000
PINS
1011
1662.093689170056
1021
1506.484262209774
1031
0.0
1002
}
1002
{
1000
HVAL
1000
297
1002
}
1002
{
1000
H
1070
     2
1002
}
1002
{
1000
WVAL
1000
420
1002
}
1002
{
1000
W
1070
     2
1002
}
1002
{
1000
C
1070
     4
1002
}
1001
GENIUS_GENOBJ-N-REC_13
1002
{
1000
OWNER
1000
GEN
1002
}
1001
GENIUS_GENODEF_13
1002
{
1000
HIER
1070
     0
1002
}
1002
{
1000
MANEDIT
1070
     0
1002
}
1002
{
1000
NOSEL
1070
     0
1002
}
1002
{
1000
BEHIND
1070
     0
1002
}
1002
{
1000
OTHER
1070
     0
1002
}
1002
{
1000
REACTOR
1002
}
  0
LINE
  5
B51A
330
1F
100
AcDbEntity
  8
size
100
AcDbLine
 10
1452.093689170056
 20
1357.984262209774
 30
0.0
 11
2046.093689170056
 21
1357.984262209774
 31
0.0
1001
GENIUS_GENREC_14
1002
{
1000
PYDIR
1011
1452.093689170056
1021
1654.984262209774
1031
0.0
1002
}
1002
{
1000
PXDIR
1011
1872.093689170056
1021
1357.984262209774
1031
0.0
1002
}
1002
{
1000
PORI
1011
1452.093689170056
1021
1357.984262209774
1031
0.0
1002
}
1002
{
1000
PINS
1011
1662.093689170056
1021
1506.484262209774
1031
0.0
1002
}
1002
{
1000
HVAL
1000
297
1002
}
1002
{
1000
H
1070
     2
1002
}
1002
{
1000
WVAL
1000
420
1002
}
1002
{
1000
W
1070
     2
1002
}
1002
{
1000
C
1070
     4
1002
}
1001
GENIUS_GENOBJ-N-REC_13
1002
{
1000
OWNER
1000
GEN
1002
}
1001
GENIUS_GENODEF_13
1002
{
1000
HIER
1070
     0
1002
}
1002
{
1000
MANEDIT
1070
     0
1002
}
1002
{
1000
NOSEL
1070
     0
1002
}
1002
{
1000
BEHIND
1070
     0
1002
}
1002
{
1000
OTHER
1070
     0
1002
}
1002
{
1000
REACTOR
1002
}
  0
MTEXT
  5
C1DE
330
1F
100
AcDbEntity
  8
AM_6
100
AcDbMText
 10
1482.191201059063
 20
1739.592052873152
 30
0.0
 40
3.2
 41
54.84
 71
     1
 72
     5
  1
左勝手
 73
     1
 44
1.0
1001
ACAD
1000
MTEXTBEGIN
1070
    73
1070
     1
1070
    44
1040
1.0
1070
    74
1070
     0
1000
MTEXTEND
  0
MTEXT
  5
C1DF
330
1F
100
AcDbEntity
  8
AM_6
100
AcDbMText
 10
1482.191201059063
 20
1732.592052873152
 30
0.0
 40
3.2
 41
54.84
 71
     1
 72
     5
  1
適応扉重量　50ｋｇ（3枚吊）
 73
     1
 44
1.0
1001
ACAD
1000
MTEXTBEGIN
1070
    73
1070
     1
1070
    44
1040
1.0
1070
    74
1070
     0
1000
MTEXTEND
  0
LINE
  5
C1E0
330
1F
100
AcDbEntity
  8
AM_1
100
AcDbLine
 10
1463.593689170056
 20
1720.484262209774
 30
0.0
 11
1559.284393898641
 21
1720.484262209774
 31
0.0
  0
MTEXT
  5
C1E1
330
1F
100
AcDbEntity
  8
AM_6
100
AcDbMText
 10
1482.191201059063
 20
1746.592052873151
 30
0.0
 40
3.2
 41
77.0056919740282
 71
     1
 72
     5
  1
羽根：ヘアーライン 軸：生地
 73
     1
 44
1.0
1001
ACAD
1000
MTEXTBEGIN
1070
    73
1070
     1
1070
    44
1040
1.0
1070
    74
1070
     0
1000
MTEXTEND
  0
MTEXT
  5
C1E2
330
1F
100
AcDbEntity
  8
AM_6
100
AcDbMText
 10
1482.191201059063
 20
1753.592052873151
 30
0.0
 40
3.2
 41
67.75151604210261
 71
     1
 72
     5
  1
羽根：ステンレス　軸：ステンレス
 73
     1
 44
1.0
1001
ACAD
1000
MTEXTBEGIN
1070
    73
1070
     1
1070
    44
1040
1.0
1070
    74
1070
     0
1000
MTEXTEND
  0
LINE
  5
C1E3
330
1F
100
AcDbEntity
  8
AM_2
100
AcDbLine
 10
1463.593689170056
 20
1762.484262209774
 30
0.0
 11
1559.284393898641
 21
1762.484262209774
 31
0.0
  0
LINE
  5
C1E4
330
1F
100
AcDbEntity
  8
AM_2
100
AcDbLine
 10
1463.593689170056
 20
1755.484262209774
 30
0.0
 11
1559.284393898641
 21
1755.484262209774
 31
0.0
  0
LINE
  5
C1E5
330
1F
100
AcDbEntity
  8
AM_2
100
AcDbLine
 10
1463.593689170056
 20
1748.484262209774
 30
0.0
 11
1559.284393898641
 21
1748.484262209774
 31
0.0
  0
LINE
  5
C1E6
330
1F
100
AcDbEntity
  8
AM_2
100
AcDbLine
 10
1463.593689170056
 20
1741.484262209774
 30
0.0
 11
1559.284393898641
 21
1741.484262209774
 31
0.0
  0
LINE
  5
C1E7
330
1F
100
AcDbEntity
  8
AM_2
100
AcDbLine
 10
1477.79407945279
 20
1727.484262209775
 30
0.0
 11
1559.284393898641
 21
1727.484262209774
 31
0.0
  0
LINE
  5
C1E8
330
1F
100
AcDbEntity
  8
AM_2
100
AcDbLine
 10
1477.79407945279
 20
1734.484262209774
 30
0.0
 11
1559.284393898641
 21
1734.484262209774
 31
0.0
  0
MTEXT
  5
C1E9
330
1F
100
AcDbEntity
  8
AM_6
100
AcDbMText
 10
1467.990810776329
 20
1739.592052873152
 30
0.0
 40
3.2
 41
18.53
 71
     1
 72
     5
  1
備考
 73
     1
 44
1.0
1001
ACAD
1000
MTEXTBEGIN
1070
    73
1070
     1
1070
    44
1040
1.0
1070
    74
1070
     0
1000
MTEXTEND
  0
LINE
  5
C1EA
330
1F
100
AcDbEntity
  8
AM_2
100
AcDbLine
 10
1477.79407945279
 20
1769.484262209774
 30
0.0
 11
1477.79407945279
 21
1720.484262209774
 31
0.0
  0
MTEXT
  5
C1EB
330
1F
100
AcDbEntity
  8
AM_6
100
AcDbMText
 10
1467.990810776329
 20
1760.592052873152
 30
0.0
 40
3.2
 41
18.53
 71
     1
 72
     5
  1
品番
 73
     1
 44
1.0
1001
ACAD
1000
MTEXTBEGIN
1070
    73
1070
     1
1070
    44
1040
1.0
1070
    74
1070
     0
1000
MTEXTEND
  0
MTEXT
  5
C1EC
330
1F
100
AcDbEntity
  8
AM_6
100
AcDbMText
 10
1467.990810776329
 20
1753.592052873151
 30
0.0
 40
3.2
 41
18.53
 71
     1
 72
     5
  1
材質
 73
     1
 44
1.0
1001
ACAD
1000
MTEXTBEGIN
1070
    73
1070
     1
1070
    44
1040
1.0
1070
    74
1070
     0
1000
MTEXTEND
  0
MTEXT
  5
C1ED
330
1F
100
AcDbEntity
  8
AM_6
100
AcDbMText
 10
1467.990810776329
 20
1746.592052873151
 30
0.0
 40
3.2
 41
18.53
 71
     1
 72
     5
  1
仕上げ
 73
     1
 44
1.0
1001
ACAD
1000
MTEXTBEGIN
1070
    73
1070
     1
1070
    44
1040
1.0
1070
    74
1070
     0
1000
MTEXTEND
  0
MTEXT
  5
C1EE
330
1F
100
AcDbEntity
  8
AM_6
100
AcDbMText
 10
1467.990810776329
 20
1767.592052873151
 30
0.0
 40
3.2
 41
18.53
 71
     1
 72
     5
  1
品名
 73
     1
 44
1.0
1001
ACAD
1000
MTEXTBEGIN
1070
    73
1070
     1
1070
    44
1040
1.0
1070
    74
1070
     0
1000
MTEXTEND
  0
MTEXT
  5
C1EF
330
1F
100
AcDbEntity
  8
AM_6
100
AcDbMText
 10
1482.191201059063
 20
1760.592052873152
 30
0.0
 40
3.2
 41
18.53
 71
     1
 72
     5
  1
RDHT-18S
 73
     1
 44
1.0
1001
ACAD
1000
MTEXTBEGIN
1070
    73
1070
     1
1070
    44
1040
1.0
1070
    74
1070
     0
1000
MTEXTEND
  0
MTEXT
  5
C1F0
330
1F
100
AcDbEntity
  8
AM_6
100
AcDbMText
 10
1482.191201059063
 20
1767.592052873151
 30
0.0
 40
3.2
 41
18.53
 71
     1
 72
     5
  1
対震丁番
 73
     1
 44
1.0
1001
ACAD
1000
MTEXTBEGIN
1070
    73
1070
     1
1070
    44
1040
1.0
1070
    74
1070
     0
1000
MTEXTEND
  0
LINE
  5
C1F1
330
1F
100
AcDbEntity
  8
AM_1
100
AcDbLine
 10
1559.284393898641
 20
1769.484262209774
 30
0.0
 11
1559.284393898641
 21
1720.484262209774
 31
0.0
  0
MTEXT
  5
C1F2
330
1F
100
AcDbEntity
  8
AM_6
100
AcDbMText
 10
1840.267090977696
 20
1413.02470663087
 30
0.0
 40
6.0
 41
43.03897017548232
 71
     1
 72
     5
  1
{\L中間、下部}
 73
     1
 44
1.0
1001
ACAD
1000
MTEXTBEGIN
1070
    73
1070
     1
1070
    44
1040
1.0
1070
    74
1070
     0
1000
MTEXTEND
  0
LINE
  5
C76C
330
1F
100
AcDbEntity
  8
AM_0
100
AcDbLine
 10
1637.545121349204
 20
1465.392057636909
 30
0.0
 11
1637.545121349204
 21
1462.892057636909
 31
0.0
  0
LINE
  5
C76D
330
1F
100
AcDbEntity
  8
AM_0
100
AcDbLine
 10
1637.545121349204
 20
1462.892057636909
 30
0.0
 11
1637.045121349204
 21
1462.39205763691
 31
0.0
  0
LINE
  5
C76E
330
1F
100
AcDbEntity
  8
AM_0
100
AcDbLine
 10
1637.045121349204
 20
1462.39205763691
 30
0.0
 11
1621.345121349204
 21
1462.39205763691
 31
0.0
  0
LINE
  5
C76F
330
1F
100
AcDbEntity
  8
AM_0
100
AcDbLine
 10
1620.845121349204
 20
1465.392057636909
 30
0.0
 11
1620.845121349204
 21
1462.892057636909
 31
0.0
  0
LINE
  5
C770
330
1F
100
AcDbEntity
  8
AM_0
100
AcDbLine
 10
1620.845121349204
 20
1462.892057636909
 30
0.0
 11
1621.345121349204
 21
1462.39205763691
 31
0.0
  0
ARC
  5
C774
330
1F
100
AcDbEntity
  8
AM_0
100
AcDbCircle
 10
1585.695121349204
 20
1561.39205763691
 30
0.0
 40
5.0
100
AcDbArc
 50
180.0
 51
270.0
  0
ARC
  5
C775
330
1F
100
AcDbEntity
  8
AM_0
100
AcDbCircle
 10
1585.695121349204
 20
1610.392057636909
 30
0.0
 40
5.0
100
AcDbArc
 50
90.0
 51
180.0
  0
LINE
  5
C776
330
1F
100
AcDbEntity
  8
AM_0
100
AcDbLine
 10
1580.695121349204
 20
1561.39205763691
 30
0.0
 11
1580.695121349204
 21
1610.392057636909
 31
0.0
  0
ARC
  5
C777
330
1F
100
AcDbEntity
  8
AM_0
100
AcDbCircle
 10
1672.695121349204
 20
1470.39205763691
 30
0.0
 40
5.0
100
AcDbArc
 50
270.0
 51
0.000000000000007
  0
ARC
  5
C778
330
1F
100
AcDbEntity
  8
AM_0
100
AcDbCircle
 10
1672.695121349204
 20
1541.392057636909
 30
0.0
 40
5.0
100
AcDbArc
 50
0.000000000000007
 51
90.0
  0
LINE
  5
C779
330
1F
100
AcDbEntity
  8
AM_0
100
AcDbLine
 10
1677.695121349204
 20
1541.392057636909
 30
0.0
 11
1677.695121349204
 21
1470.39205763691
 31
0.0
  0
CIRCLE
  5
C77A
330
1F
100
AcDbEntity
  8
AM_0
100
AcDbCircle
 10
1587.195121349204
 20
1602.392057636909
 30
0.0
 40
2.75
  0
CIRCLE
  5
C77B
330
1F
100
AcDbEntity
  8
AM_0
100
AcDbCircle
 10
1587.195121349204
 20
1602.392057636909
 30
0.0
 40
4.25
  0
CIRCLE
  5
C77C
330
1F
100
AcDbEntity
  8
AM_0
100
AcDbCircle
 10
1603.195121349204
 20
1602.392057636909
 30
0.0
 40
4.25
  0
CIRCLE
  5
C77D
330
1F
100
AcDbEntity
  8
AM_0
100
AcDbCircle
 10
1603.195121349204
 20
1602.392057636909
 30
0.0
 40
2.75
  0
CIRCLE
  5
C77E
330
1F
100
AcDbEntity
  8
AM_0
100
AcDbCircle
 10
1595.195121349204
 20
1583.892057636909
 30
0.0
 40
4.25
  0
CIRCLE
  5
C77F
330
1F
100
AcDbEntity
  8
AM_0
100
AcDbCircle
 10
1595.195121349204
 20
1583.892057636909
 30
0.0
 40
2.75
  0
CIRCLE
  5
C780
330
1F
100
AcDbEntity
  8
AM_0
100
AcDbCircle
 10
1587.195121349204
 20
1565.392057636909
 30
0.0
 40
4.25
  0
CIRCLE
  5
C781
330
1F
100
AcDbEntity
  8
AM_0
100
AcDbCircle
 10
1587.195121349204
 20
1565.392057636909
 30
0.0
 40
2.75
  0
CIRCLE
  5
C782
330
1F
100
AcDbEntity
  8
AM_0
100
AcDbCircle
 10
1603.195121349204
 20
1565.392057636909
 30
0.0
 40
4.25
  0
CIRCLE
  5
C783
330
1F
100
AcDbEntity
  8
AM_0
100
AcDbCircle
 10
1603.195121349204
 20
1565.392057636909
 30
0.0
 40
2.75
  0
CIRCLE
  5
C784
330
1F
100
AcDbEntity
  8
AM_0
100
AcDbCircle
 10
1655.195121349204
 20
1538.392057636909
 30
0.0
 40
2.75
  0
CIRCLE
  5
C785
330
1F
100
AcDbEntity
  8
AM_0
100
AcDbCircle
 10
1655.195121349204
 20
1538.392057636909
 30
0.0
 40
4.25
  0
CIRCLE
  5
C786
330
1F
100
AcDbEntity
  8
AM_0
100
AcDbCircle
 10
1671.195121349204
 20
1538.392057636909
 30
0.0
 40
4.25
  0
CIRCLE
  5
C787
330
1F
100
AcDbEntity
  8
AM_0
100
AcDbCircle
 10
1671.195121349204
 20
1538.392057636909
 30
0.0
 40
2.75
  0
CIRCLE
  5
C788
330
1F
100
AcDbEntity
  8
AM_0
100
AcDbCircle
 10
1663.195121349204
 20
1519.892057636909
 30
0.0
 40
4.25
  0
CIRCLE
  5
C789
330
1F
100
AcDbEntity
  8
AM_0
100
AcDbCircle
 10
1663.195121349204
 20
1519.892057636909
 30
0.0
 40
2.75
  0
CIRCLE
  5
C78A
330
1F
100
AcDbEntity
  8
AM_0
100
AcDbCircle
 10
1671.195121349204
 20
1501.392057636909
 30
0.0
 40
4.25
  0
CIRCLE
  5
C78B
330
1F
100
AcDbEntity
  8
AM_0
100
AcDbCircle
 10
1671.195121349204
 20
1501.392057636909
 30
0.0
 40
2.75
  0
CIRCLE
  5
C78C
330
1F
100
AcDbEntity
  8
AM_0
100
AcDbCircle
 10
1655.195121349204
 20
1501.392057636909
 30
0.0
 40
4.25
  0
CIRCLE
  5
C78D
330
1F
100
AcDbEntity
  8
AM_0
100
AcDbCircle
 10
1655.195121349204
 20
1501.392057636909
 30
0.0
 40
2.75
  0
LINE
  5
C7A3
330
1F
100
AcDbEntity
  8
AM_0
100
AcDbLine
 10
1672.695121349204
 20
1465.392057636909
 30
0.0
 11
1620.195121349204
 21
1465.392057636909
 31
0.0
  0
LINE
  5
C7A4
330
1F
100
AcDbEntity
  8
AM_0
100
AcDbLine
 10
1637.545121349204
 20
1462.892057636909
 30
0.0
 11
1620.845121349204
 21
1462.892057636909
 31
0.0
  0
LINE
  5
C7A5
330
1F
100
AcDbEntity
  8
AM_0
100
AcDbLine
 10
1585.695121349204
 20
1615.392057636909
 30
0.0
 11
1638.195121349204
 21
1615.392057636909
 31
0.0
  0
LINE
  5
C80D
330
1F
100
AcDbEntity
  8
AM_0
100
AcDbLine
 10
1619.195121349204
 20
1512.392057636909
 30
0.0
 11
1639.195121349204
 21
1512.392057636909
 31
0.0
  0
LINE
  5
C80E
330
1F
100
AcDbEntity
  8
AM_0
100
AcDbLine
 10
1585.695121349204
 20
1556.392057636909
 30
0.0
 11
1611.695121349204
 21
1556.392057636909
 31
0.0
  0
LINE
  5
C80F
330
1F
100
AcDbEntity
  8
AM_0
100
AcDbLine
 10
1611.695121349204
 20
1526.39205763691
 30
0.0
 11
1611.695121349204
 21
1556.392057636909
 31
0.0
  0
ARC
  5
C810
330
1F
100
AcDbEntity
  8
AM_0
100
AcDbCircle
 10
1616.695121349204
 20
1526.39205763691
 30
0.0
 40
5.0
100
AcDbArc
 50
180.0
 51
270.0
  0
LINE
  5
C811
330
1F
100
AcDbEntity
  8
AM_0
100
AcDbLine
 10
1653.695121349204
 20
1546.392057636909
 30
0.0
 11
1672.695121349204
 21
1546.392057636909
 31
0.0
  0
ARC
  5
C812
330
1F
100
AcDbEntity
  8
AM_0
100
AcDbCircle
 10
1653.695121349204
 20
1541.392057636909
 30
0.0
 40
5.0
100
AcDbArc
 50
90.0
 51
180.0
  0
ARC
  5
C813
330
1F
100
AcDbEntity
  8
AM_0
100
AcDbCircle
 10
1643.695121349204
 20
1517.392057636909
 30
0.0
 40
5.0
100
AcDbArc
 50
270.0
 51
0.000000000000007
  0
LINE
  5
C814
330
1F
100
AcDbEntity
  8
AM_0
100
AcDbLine
 10
1648.695121349204
 20
1541.392057636909
 30
0.0
 11
1648.695121349204
 21
1517.392057636909
 31
0.0
  0
LINE
  5
C815
330
1F
100
AcDbEntity
  8
AM_0
100
AcDbLine
 10
1639.195121349204
 20
1512.392057636909
 30
0.0
 11
1643.695121349204
 21
1512.392057636909
 31
0.0
  0
LINE
  5
C82F
330
1F
100
AcDbEntity
  8
AM_0
100
AcDbLine
 10
1619.195121349204
 20
1525.392057636909
 30
0.0
 11
1619.195121349204
 21
1512.392057636909
 31
0.0
  0
LINE
  5
C830
330
1F
100
AcDbEntity
  8
AM_0
100
AcDbLine
 10
1639.195121349204
 20
1525.392057636909
 30
0.0
 11
1639.195121349204
 21
1512.392057636909
 31
0.0
  0
LINE
  5
C831
330
1F
100
AcDbEntity
  8
AM_0
100
AcDbLine
 10
1619.195121349204
 20
1525.392057636909
 30
0.0
 11
1639.195121349204
 21
1525.392057636909
 31
0.0
  0
LINE
  5
C832
330
1F
100
AcDbEntity
  8
AM_0
100
AcDbLine
 10
1638.195121349204
 20
1512.392057636909
 30
0.0
 11
1638.195121349204
 21
1465.392057636909
 31
0.0
  0
LINE
  5
C833
330
1F
100
AcDbEntity
  8
AM_0
100
AcDbLine
 10
1620.195121349204
 20
1512.392057636909
 30
0.0
 11
1620.195121349204
 21
1465.392057636909
 31
0.0
  0
LINE
  5
C834
330
1F
100
AcDbEntity
  8
AM_0
100
AcDbLine
 10
1619.195121349204
 20
1521.392057636909
 30
0.0
 11
1616.695121349204
 21
1521.392057636909
 31
0.0
  0
LINE
  5
C835
330
1F
100
AcDbEntity
  8
AM_0
100
AcDbLine
 10
1620.195121349204
 20
1525.392057636909
 30
0.0
 11
1620.195121349204
 21
1615.392057636909
 31
0.0
  0
LINE
  5
C836
330
1F
100
AcDbEntity
  8
AM_0
100
AcDbLine
 10
1638.195121349204
 20
1525.392057636909
 30
0.0
 11
1638.195121349204
 21
1615.392057636909
 31
0.0
  0
LINE
  5
C992
330
1F
100
AcDbEntity
  8
AM_7
100
AcDbLine
 10
1629.195121349204
 20
1459.392057636909
 30
0.0
 11
1629.195121349204
 21
1621.39205763691
 31
0.0
1001
GENIUS_GENODEF_13
1002
{
1000
HIER
1070
     0
1002
}
1002
{
1000
MANEDIT
1070
     0
1002
}
1002
{
1000
NOSEL
1070
     0
1002
}
1002
{
1000
BEHIND
1070
     0
1002
}
1002
{
1000
OTHER
1070
     0
1002
}
1002
{
1000
REACTOR
1002
}
1001
GENIUS_GENOBJ-N-CEN_13
1002
{
1000
OWNER
1000
GEN
1002
}
1001
GENIUS_GENCEN_19
1002
{
1040
3.0
1002
}
  0
LINE
  5
C994
330
1F
100
AcDbEntity
  8
AM_7
 48
0.5
100
AcDbLine
 10
1579.945121349204
 20
1602.392057636909
 30
0.0
 11
1594.445121349204
 21
1602.392057636909
 31
0.0
1001
GENIUS_GENODEF_13
1002
{
1000
HIER
1070
     0
1002
}
1002
{
1000
MANEDIT
1070
     0
1002
}
1002
{
1000
NOSEL
1070
     0
1002
}
1002
{
1000
BEHIND
1070
     0
1002
}
1002
{
1000
OTHER
1070
     0
1002
}
1002
{
1000
REACTOR
1002
}
1001
GENIUS_GENOBJ-N-CEN_13
1002
{
1000
OWNER
1000
GEN
1002
}
1001
GENIUS_GENCEN_19
1002
{
1040
3.0
1002
}
  0
LINE
  5
C995
330
1F
100
AcDbEntity
  8
AM_7
 48
0.5
100
AcDbLine
 10
1587.195121349204
 20
1595.142057636909
 30
0.0
 11
1587.195121349204
 21
1609.642057636909
 31
0.0
1001
GENIUS_GENODEF_13
1002
{
1000
HIER
1070
     0
1002
}
1002
{
1000
MANEDIT
1070
     0
1002
}
1002
{
1000
NOSEL
1070
     0
1002
}
1002
{
1000
BEHIND
1070
     0
1002
}
1002
{
1000
OTHER
1070
     0
1002
}
1002
{
1000
REACTOR
1002
}
1001
GENIUS_GENOBJ-N-CEN_13
1002
{
1000
OWNER
1000
GEN
1002
}
1001
GENIUS_GENCEN_19
1002
{
1040
3.0
1002
}
  0
LINE
  5
C996
330
1F
100
AcDbEntity
  8
AM_7
 48
0.5
100
AcDbLine
 10
1595.945121349204
 20
1602.392057636909
 30
0.0
 11
1610.445121349204
 21
1602.392057636909
 31
0.0
1001
GENIUS_GENODEF_13
1002
{
1000
HIER
1070
     0
1002
}
1002
{
1000
MANEDIT
1070
     0
1002
}
1002
{
1000
NOSEL
1070
     0
1002
}
1002
{
1000
BEHIND
1070
     0
1002
}
1002
{
1000
OTHER
1070
     0
1002
}
1002
{
1000
REACTOR
1002
}
1001
GENIUS_GENOBJ-N-CEN_13
1002
{
1000
OWNER
1000
GEN
1002
}
1001
GENIUS_GENCEN_19
1002
{
1040
3.0
1002
}
  0
LINE
  5
C997
330
1F
100
AcDbEntity
  8
AM_7
 48
0.5
100
AcDbLine
 10
1603.195121349204
 20
1595.142057636909
 30
0.0
 11
1603.195121349204
 21
1609.642057636909
 31
0.0
1001
GENIUS_GENODEF_13
1002
{
1000
HIER
1070
     0
1002
}
1002
{
1000
MANEDIT
1070
     0
1002
}
1002
{
1000
NOSEL
1070
     0
1002
}
1002
{
1000
BEHIND
1070
     0
1002
}
1002
{
1000
OTHER
1070
     0
1002
}
1002
{
1000
REACTOR
1002
}
1001
GENIUS_GENOBJ-N-CEN_13
1002
{
1000
OWNER
1000
GEN
1002
}
1001
GENIUS_GENCEN_19
1002
{
1040
3.0
1002
}
  0
LINE
  5
C998
330
1F
100
AcDbEntity
  8
AM_7
 48
0.5
100
AcDbLine
 10
1587.945121349204
 20
1583.892057636909
 30
0.0
 11
1602.445121349204
 21
1583.892057636909
 31
0.0
1001
GENIUS_GENODEF_13
1002
{
1000
HIER
1070
     0
1002
}
1002
{
1000
MANEDIT
1070
     0
1002
}
1002
{
1000
NOSEL
1070
     0
1002
}
1002
{
1000
BEHIND
1070
     0
1002
}
1002
{
1000
OTHER
1070
     0
1002
}
1002
{
1000
REACTOR
1002
}
1001
GENIUS_GENOBJ-N-CEN_13
1002
{
1000
OWNER
1000
GEN
1002
}
1001
GENIUS_GENCEN_19
1002
{
1040
3.0
1002
}
  0
LINE
  5
C999
330
1F
100
AcDbEntity
  8
AM_7
 48
0.5
100
AcDbLine
 10
1595.195121349204
 20
1576.64205763691
 30
0.0
 11
1595.195121349204
 21
1591.142057636909
 31
0.0
1001
GENIUS_GENODEF_13
1002
{
1000
HIER
1070
     0
1002
}
1002
{
1000
MANEDIT
1070
     0
1002
}
1002
{
1000
NOSEL
1070
     0
1002
}
1002
{
1000
BEHIND
1070
     0
1002
}
1002
{
1000
OTHER
1070
     0
1002
}
1002
{
1000
REACTOR
1002
}
1001
GENIUS_GENOBJ-N-CEN_13
1002
{
1000
OWNER
1000
GEN
1002
}
1001
GENIUS_GENCEN_19
1002
{
1040
3.0
1002
}
  0
LINE
  5
C99A
330
1F
100
AcDbEntity
  8
AM_7
 48
0.5
100
AcDbLine
 10
1579.945121349204
 20
1565.392057636909
 30
0.0
 11
1594.445121349204
 21
1565.392057636909
 31
0.0
1001
GENIUS_GENODEF_13
1002
{
1000
HIER
1070
     0
1002
}
1002
{
1000
MANEDIT
1070
     0
1002
}
1002
{
1000
NOSEL
1070
     0
1002
}
1002
{
1000
BEHIND
1070
     0
1002
}
1002
{
1000
OTHER
1070
     0
1002
}
1002
{
1000
REACTOR
1002
}
1001
GENIUS_GENOBJ-N-CEN_13
1002
{
1000
OWNER
1000
GEN
1002
}
1001
GENIUS_GENCEN_19
1002
{
1040
3.0
1002
}
  0
LINE
  5
C99B
330
1F
100
AcDbEntity
  8
AM_7
 48
0.5
100
AcDbLine
 10
1587.195121349204
 20
1558.142057636909
 30
0.0
 11
1587.195121349204
 21
1572.642057636909
 31
0.0
1001
GENIUS_GENODEF_13
1002
{
1000
HIER
1070
     0
1002
}
1002
{
1000
MANEDIT
1070
     0
1002
}
1002
{
1000
NOSEL
1070
     0
1002
}
1002
{
1000
BEHIND
1070
     0
1002
}
1002
{
1000
OTHER
1070
     0
1002
}
1002
{
1000
REACTOR
1002
}
1001
GENIUS_GENOBJ-N-CEN_13
1002
{
1000
OWNER
1000
GEN
1002
}
1001
GENIUS_GENCEN_19
1002
{
1040
3.0
1002
}
  0
LINE
  5
C99C
330
1F
100
AcDbEntity
  8
AM_7
 48
0.5
100
AcDbLine
 10
1595.945121349204
 20
1565.392057636909
 30
0.0
 11
1610.445121349204
 21
1565.392057636909
 31
0.0
1001
GENIUS_GENODEF_13
1002
{
1000
HIER
1070
     0
1002
}
1002
{
1000
MANEDIT
1070
     0
1002
}
1002
{
1000
NOSEL
1070
     0
1002
}
1002
{
1000
BEHIND
1070
     0
1002
}
1002
{
1000
OTHER
1070
     0
1002
}
1002
{
1000
REACTOR
1002
}
1001
GENIUS_GENOBJ-N-CEN_13
1002
{
1000
OWNER
1000
GEN
1002
}
1001
GENIUS_GENCEN_19
1002
{
1040
3.0
1002
}
  0
LINE
  5
C99D
330
1F
100
AcDbEntity
  8
AM_7
 48
0.5
100
AcDbLine
 10
1603.195121349204
 20
1558.142057636909
 30
0.0
 11
1603.195121349204
 21
1572.642057636909
 31
0.0
1001
GENIUS_GENODEF_13
1002
{
1000
HIER
1070
     0
1002
}
1002
{
1000
MANEDIT
1070
     0
1002
}
1002
{
1000
NOSEL
1070
     0
1002
}
1002
{
1000
BEHIND
1070
     0
1002
}
1002
{
1000
OTHER
1070
     0
1002
}
1002
{
1000
REACTOR
1002
}
1001
GENIUS_GENOBJ-N-CEN_13
1002
{
1000
OWNER
1000
GEN
1002
}
1001
GENIUS_GENCEN_19
1002
{
1040
3.0
1002
}
  0
LINE
  5
C99E
330
1F
100
AcDbEntity
  8
AM_7
 48
0.5
100
AcDbLine
 10
1678.445121349204
 20
1538.392057636909
 30
0.0
 11
1663.945121349204
 21
1538.392057636909
 31
0.0
1001
GENIUS_GENODEF_13
1002
{
1000
HIER
1070
     0
1002
}
1002
{
1000
MANEDIT
1070
     0
1002
}
1002
{
1000
NOSEL
1070
     0
1002
}
1002
{
1000
BEHIND
1070
     0
1002
}
1002
{
1000
OTHER
1070
     0
1002
}
1002
{
1000
REACTOR
1002
}
1001
GENIUS_GENOBJ-N-CEN_13
1002
{
1000
OWNER
1000
GEN
1002
}
1001
GENIUS_GENCEN_19
1002
{
1040
3.0
1002
}
  0
LINE
  5
C99F
330
1F
100
AcDbEntity
  8
AM_7
 48
0.5
100
AcDbLine
 10
1671.195121349204
 20
1531.142057636909
 30
0.0
 11
1671.195121349204
 21
1545.642057636909
 31
0.0
1001
GENIUS_GENODEF_13
1002
{
1000
HIER
1070
     0
1002
}
1002
{
1000
MANEDIT
1070
     0
1002
}
1002
{
1000
NOSEL
1070
     0
1002
}
1002
{
1000
BEHIND
1070
     0
1002
}
1002
{
1000
OTHER
1070
     0
1002
}
1002
{
1000
REACTOR
1002
}
1001
GENIUS_GENOBJ-N-CEN_13
1002
{
1000
OWNER
1000
GEN
1002
}
1001
GENIUS_GENCEN_19
1002
{
1040
3.0
1002
}
  0
LINE
  5
C9A0
330
1F
100
AcDbEntity
  8
AM_7
 48
0.5
100
AcDbLine
 10
1662.445121349204
 20
1538.392057636909
 30
0.0
 11
1647.945121349204
 21
1538.392057636909
 31
0.0
1001
GENIUS_GENODEF_13
1002
{
1000
HIER
1070
     0
1002
}
1002
{
1000
MANEDIT
1070
     0
1002
}
1002
{
1000
NOSEL
1070
     0
1002
}
1002
{
1000
BEHIND
1070
     0
1002
}
1002
{
1000
OTHER
1070
     0
1002
}
1002
{
1000
REACTOR
1002
}
1001
GENIUS_GENOBJ-N-CEN_13
1002
{
1000
OWNER
1000
GEN
1002
}
1001
GENIUS_GENCEN_19
1002
{
1040
3.0
1002
}
  0
LINE
  5
C9A1
330
1F
100
AcDbEntity
  8
AM_7
 48
0.5
100
AcDbLine
 10
1655.195121349204
 20
1531.142057636909
 30
0.0
 11
1655.195121349204
 21
1545.642057636909
 31
0.0
1001
GENIUS_GENODEF_13
1002
{
1000
HIER
1070
     0
1002
}
1002
{
1000
MANEDIT
1070
     0
1002
}
1002
{
1000
NOSEL
1070
     0
1002
}
1002
{
1000
BEHIND
1070
     0
1002
}
1002
{
1000
OTHER
1070
     0
1002
}
1002
{
1000
REACTOR
1002
}
1001
GENIUS_GENOBJ-N-CEN_13
1002
{
1000
OWNER
1000
GEN
1002
}
1001
GENIUS_GENCEN_19
1002
{
1040
3.0
1002
}
  0
LINE
  5
C9A2
330
1F
100
AcDbEntity
  8
AM_7
 48
0.5
100
AcDbLine
 10
1670.445121349204
 20
1519.892057636909
 30
0.0
 11
1655.945121349204
 21
1519.892057636909
 31
0.0
1001
GENIUS_GENODEF_13
1002
{
1000
HIER
1070
     0
1002
}
1002
{
1000
MANEDIT
1070
     0
1002
}
1002
{
1000
NOSEL
1070
     0
1002
}
1002
{
1000
BEHIND
1070
     0
1002
}
1002
{
1000
OTHER
1070
     0
1002
}
1002
{
1000
REACTOR
1002
}
1001
GENIUS_GENOBJ-N-CEN_13
1002
{
1000
OWNER
1000
GEN
1002
}
1001
GENIUS_GENCEN_19
1002
{
1040
3.0
1002
}
  0
LINE
  5
C9A3
330
1F
100
AcDbEntity
  8
AM_7
 48
0.5
100
AcDbLine
 10
1663.195121349204
 20
1512.642057636909
 30
0.0
 11
1663.195121349204
 21
1527.142057636909
 31
0.0
1001
GENIUS_GENODEF_13
1002
{
1000
HIER
1070
     0
1002
}
1002
{
1000
MANEDIT
1070
     0
1002
}
1002
{
1000
NOSEL
1070
     0
1002
}
1002
{
1000
BEHIND
1070
     0
1002
}
1002
{
1000
OTHER
1070
     0
1002
}
1002
{
1000
REACTOR
1002
}
1001
GENIUS_GENOBJ-N-CEN_13
1002
{
1000
OWNER
1000
GEN
1002
}
1001
GENIUS_GENCEN_19
1002
{
1040
3.0
1002
}
  0
LINE
  5
C9A4
330
1F
100
AcDbEntity
  8
AM_7
 48
0.5
100
AcDbLine
 10
1678.445121349204
 20
1501.392057636909
 30
0.0
 11
1663.945121349204
 21
1501.392057636909
 31
0.0
1001
GENIUS_GENODEF_13
1002
{
1000
HIER
1070
     0
1002
}
1002
{
1000
MANEDIT
1070
     0
1002
}
1002
{
1000
NOSEL
1070
     0
1002
}
1002
{
1000
BEHIND
1070
     0
1002
}
1002
{
1000
OTHER
1070
     0
1002
}
1002
{
1000
REACTOR
1002
}
1001
GENIUS_GENOBJ-N-CEN_13
1002
{
1000
OWNER
1000
GEN
1002
}
1001
GENIUS_GENCEN_19
1002
{
1040
3.0
1002
}
  0
LINE
  5
C9A5
330
1F
100
AcDbEntity
  8
AM_7
 48
0.5
100
AcDbLine
 10
1671.195121349204
 20
1494.142057636909
 30
0.0
 11
1671.195121349204
 21
1508.642057636909
 31
0.0
1001
GENIUS_GENODEF_13
1002
{
1000
HIER
1070
     0
1002
}
1002
{
1000
MANEDIT
1070
     0
1002
}
1002
{
1000
NOSEL
1070
     0
1002
}
1002
{
1000
BEHIND
1070
     0
1002
}
1002
{
1000
OTHER
1070
     0
1002
}
1002
{
1000
REACTOR
1002
}
1001
GENIUS_GENOBJ-N-CEN_13
1002
{
1000
OWNER
1000
GEN
1002
}
1001
GENIUS_GENCEN_19
1002
{
1040
3.0
1002
}
  0
LINE
  5
C9A6
330
1F
100
AcDbEntity
  8
AM_7
 48
0.5
100
AcDbLine
 10
1662.445121349204
 20
1501.392057636909
 30
0.0
 11
1647.945121349204
 21
1501.392057636909
 31
0.0
1001
GENIUS_GENODEF_13
1002
{
1000
HIER
1070
     0
1002
}
1002
{
1000
MANEDIT
1070
     0
1002
}
1002
{
1000
NOSEL
1070
     0
1002
}
1002
{
1000
BEHIND
1070
     0
1002
}
1002
{
1000
OTHER
1070
     0
1002
}
1002
{
1000
REACTOR
1002
}
1001
GENIUS_GENOBJ-N-CEN_13
1002
{
1000
OWNER
1000
GEN
1002
}
1001
GENIUS_GENCEN_19
1002
{
1040
3.0
1002
}
  0
LINE
  5
C9A7
330
1F
100
AcDbEntity
  8
AM_7
 48
0.5
100
AcDbLine
 10
1655.195121349204
 20
1494.142057636909
 30
0.0
 11
1655.195121349204
 21
1508.642057636909
 31
0.0
1001
GENIUS_GENODEF_13
1002
{
1000
HIER
1070
     0
1002
}
1002
{
1000
MANEDIT
1070
     0
1002
}
1002
{
1000
NOSEL
1070
     0
1002
}
1002
{
1000
BEHIND
1070
     0
1002
}
1002
{
1000
OTHER
1070
     0
1002
}
1002
{
1000
REACTOR
1002
}
1001
GENIUS_GENOBJ-N-CEN_13
1002
{
1000
OWNER
1000
GEN
1002
}
1001
GENIUS_GENCEN_19
1002
{
1040
3.0
1002
}
  0
DIMENSION
  5
C9A9
330
1F
100
AcDbEntity
  8
AM_5
100
AcDbDimension
  2
*D114
 10
1619.195121349204
 20
1500.39205763691
 30
0.0
 11
1611.330459622383
 21
1500.39205763691
 31
0.0
 70
   160
  1
%%c<>
 71
     5
 42
20.0
  3
SYS$0
100
AcDbAlignedDimension
 13
1639.195121349204
 23
1512.392057636909
 33
0.0
 14
1619.195121349204
 24
1512.392057636909
 34
0.0
 50
180.0
100
AcDbRotatedDimension
1001
ACAD
1000
DSTYLE
1002
{
1070
   343
1005
6C4
1070
   173
1070
     1
1070
   344
1005
6C4
1070
    41
1040
1.0
1070
   342
1005
0
1002
}
  0
DIMENSION
  5
C9AA
330
1F
100
AcDbEntity
  8
AM_5
100
AcDbDimension
  2
*D115
 10
1689.945121349204
 20
1465.392057636909
 30
0.0
 11
1686.845121349204
 21
1483.39205763691
 31
0.0
 70
    32
  1
<>
 71
     5
 42
36.0
  3
SYS$0
100
AcDbAlignedDimension
 13
1678.445121349204
 23
1501.392057636909
 33
0.0
 14
1672.695121349204
 24
1465.392057636909
 34
0.0
 50
90.0
100
AcDbRotatedDimension
  0
DIMENSION
  5
C9AB
330
1F
100
AcDbEntity
  8
AM_5
100
AcDbDimension
  2
*D116
 10
1699.945121349204
 20
1546.392057636909
 30
0.0
 11
1696.845121349204
 21
1505.89205763691
 31
0.0
 70
    32
  1
<>
 71
     5
 42
81.0
  3
SYS$0
100
AcDbAlignedDimension
 13
1672.695121349204
 23
1465.392057636909
 33
0.0
 14
1672.695121349204
 24
1546.392057636909
 34
0.0
 50
90.0
100
AcDbRotatedDimension
1001
ACAD
1000
DSTYLE
1002
{
1070
    47
1040
0.2
1070
    48
1040
0.2
1002
}
  0
DIMENSION
  5
C9AC
330
1F
100
AcDbEntity
  8
AM_5
100
AcDbDimension
  2
*D117
 10
1689.945121349204
 20
1546.392057636909
 30
0.0
 11
1686.845121349204
 21
1542.39205763691
 31
0.0
 70
    32
  1
<>
 71
     5
 42
8.0
  3
SYS$0
100
AcDbAlignedDimension
 13
1678.445121349204
 23
1538.392057636909
 33
0.0
 14
1672.695121349204
 24
1546.392057636909
 34
0.0
 50
90.0
100
AcDbRotatedDimension
1001
ACAD
1000
DSTYLE
1002
{
1070
    47
1040
0.2
1070
    48
1040
0.2
1070
   279
1070
     1
1002
}
  0
DIMENSION
  5
C9AD
330
1F
100
AcDbEntity
  8
AM_5
100
AcDbDimension
  2
*D118
 10
1689.945121349204
 20
1519.892057636909
 30
0.0
 11
1686.845121349204
 21
1510.64205763691
 31
0.0
 70
    32
  1
<>
 71
     5
 42
18.5
  3
SYS$0
100
AcDbAlignedDimension
 13
1678.445121349204
 23
1501.392057636909
 33
0.0
 14
1670.445121349204
 24
1519.892057636909
 34
0.0
 50
90.0
100
AcDbRotatedDimension
1001
ACAD
1000
DSTYLE
1002
{
1070
    47
1040
0.2
1070
    48
1040
0.2
1002
}
  0
DIMENSION
  5
C9AE
330
1F
100
AcDbEntity
  8
AM_5
100
AcDbDimension
  2
*D119
 10
1689.945121349204
 20
1538.392057636909
 30
0.0
 11
1686.845121349204
 21
1529.14205763691
 31
0.0
 70
    32
  1
<>
 71
     5
 42
18.5
  3
SYS$0
100
AcDbAlignedDimension
 13
1670.445121349204
 23
1519.892057636909
 33
0.0
 14
1678.445121349204
 24
1538.392057636909
 34
0.0
 50
90.0
100
AcDbRotatedDimension
1001
ACAD
1000
DSTYLE
1002
{
1070
    47
1040
0.2
1070
    48
1040
0.2
1002
}
  0
DIMENSION
  5
C9AF
330
1F
100
AcDbEntity
  8
AM_5
100
AcDbDimension
  2
*D120
 10
1568.695120349204
 20
1602.392057636909
 30
0.0
 11
1565.595120349204
 21
1608.89205763691
 31
0.0
 70
    32
  1
<>
 71
     5
 42
13.0
  3
SYS$0
100
AcDbAlignedDimension
 13
1586.695121349204
 23
1615.392057636909
 33
0.0
 14
1579.945121349204
 24
1602.392057636909
 34
0.0
 50
90.0
100
AcDbRotatedDimension
  0
DIMENSION
  5
C9B0
330
1F
100
AcDbEntity
  8
AM_5
100
AcDbDimension
  2
*D121
 10
1568.695120349203
 20
1565.392057636909
 30
0.0
 11
1565.595120349203
 21
1574.64205763691
 31
0.0
 70
    32
  1
<>
 71
     5
 42
18.5
  3
SYS$0
100
AcDbAlignedDimension
 13
1587.945121349204
 23
1583.892057636909
 33
0.0
 14
1579.945121349204
 24
1565.392057636909
 34
0.0
 50
90.0
100
AcDbRotatedDimension
1001
ACAD
1000
DSTYLE
1002
{
1070
    47
1040
0.2
1070
    48
1040
0.2
1002
}
  0
DIMENSION
  5
C9B1
330
1F
100
AcDbEntity
  8
AM_5
100
AcDbDimension
  2
*D122
 10
1568.695120349203
 20
1556.392057636909
 30
0.0
 11
1565.595120349203
 21
1560.89205763691
 31
0.0
 70
    32
  1
<>
 71
     5
 42
9.0
  3
SYS$0
100
AcDbAlignedDimension
 13
1579.945121349204
 23
1565.392057636909
 33
0.0
 14
1585.695121349204
 24
1556.392057636909
 34
0.0
 50
90.0
100
AcDbRotatedDimension
1001
ACAD
1000
DSTYLE
1002
{
1070
    47
1040
0.2
1070
    48
1040
0.2
1070
   279
1070
     1
1002
}
  0
DIMENSION
  5
C9B2
330
1F
100
AcDbEntity
  8
AM_5
100
AcDbDimension
  2
*D123
 10
1558.695120349203
 20
1521.392057636909
 30
0.0
 11
1555.595120349203
 21
1538.89205763691
 31
0.0
 70
    32
 71
     5
 42
35.0
  3
SYS$0
100
AcDbAlignedDimension
 13
1586.695121349204
 23
1556.392057636909
 33
0.0
 14
1616.695121349204
 24
1521.392057636909
 34
0.0
 50
90.0
100
AcDbRotatedDimension
  0
DIMENSION
  5
C9B3
330
1F
100
AcDbEntity
  8
AM_5
100
AcDbDimension
  2
*D124
 10
1568.695120349204
 20
1583.892057636909
 30
0.0
 11
1565.595120349204
 21
1593.14205763691
 31
0.0
 70
    32
  1
<>
 71
     5
 42
18.5
  3
SYS$0
100
AcDbAlignedDimension
 13
1579.945121349204
 23
1602.392057636909
 33
0.0
 14
1587.945121349204
 24
1583.892057636909
 34
0.0
 50
90.0
100
AcDbRotatedDimension
1001
ACAD
1000
DSTYLE
1002
{
1070
    47
1040
0.2
1070
    48
1040
0.2
1002
}
  0
DIMENSION
  5
C9B4
330
1F
100
AcDbEntity
  8
AM_5
100
AcDbDimension
  2
*D125
 10
1558.695120349203
 20
1615.392057636909
 30
0.0
 11
1555.595120349203
 21
1585.89205763691
 31
0.0
 70
    32
  1
<>
 71
     5
 42
59.0
  3
SYS$0
100
AcDbAlignedDimension
 13
1586.695121349204
 23
1556.392057636909
 33
0.0
 14
1586.695121349204
 24
1615.392057636909
 34
0.0
 50
90.0
100
AcDbRotatedDimension
1001
ACAD
1000
DSTYLE
1002
{
1070
    47
1040
0.2
1070
    48
1040
0.2
1002
}
  0
DIMENSION
  5
C9B9
330
1F
100
AcDbEntity
  8
AM_5
100
AcDbDimension
  2
*D126
 10
1580.695121349204
 20
1630.39205863691
 30
0.0
 11
1604.945121349204
 21
1633.49205863691
 31
0.0
 70
    32
 71
     5
 42
48.5
  3
SYS$0
100
AcDbAlignedDimension
 13
1629.195121349204
 23
1621.39205763691
 33
0.0
 14
1580.695121349204
 24
1609.39205763691
 34
0.0
100
AcDbRotatedDimension
1001
ACAD
1000
DSTYLE
1002
{
1070
    47
1040
0.5
1002
}
  0
DIMENSION
  5
C9BA
330
1F
100
AcDbEntity
  8
AM_5
100
AcDbDimension
  2
*D127
 10
1677.695121349204
 20
1630.392058636909
 30
0.0
 11
1653.445121349204
 21
1633.492058636909
 31
0.0
 70
    32
 71
     5
 42
48.5
  3
SYS$0
100
AcDbAlignedDimension
 13
1629.195121349204
 23
1621.39205763691
 33
0.0
 14
1677.695121349204
 24
1541.392057636909
 34
0.0
100
AcDbRotatedDimension
1001
ACAD
1000
DSTYLE
1002
{
1070
    47
1040
0.5
1002
}
  0
DIMENSION
  5
C9BB
330
1F
100
AcDbEntity
  8
AM_5
100
AcDbDimension
  2
*D128
 10
1580.695121349204
 20
1640.392058636909
 30
0.0
 11
1629.195121349204
 21
1643.492058636909
 31
0.0
 70
    32
 71
     5
 42
97.0
  3
SYS$0
100
AcDbAlignedDimension
 13
1677.695121349204
 23
1541.392057636909
 33
0.0
 14
1580.695121349204
 24
1609.39205763691
 34
0.0
100
AcDbRotatedDimension
1001
ACAD
1000
DSTYLE
1002
{
1070
    47
1040
0.5
1002
}
  0
DIMENSION
  5
C9BC
330
1F
100
AcDbEntity
  8
AM_5
100
AcDbDimension
  2
*D129
 10
1709.945121349204
 20
1465.392057636909
 30
0.0
 11
1706.845121349204
 21
1540.39205763691
 31
0.0
 70
    32
 71
     5
 42
150.0
  3
SYS$0
100
AcDbAlignedDimension
 13
1638.195121349204
 23
1615.392057636909
 33
0.0
 14
1672.695121349204
 24
1465.392057636909
 34
0.0
 50
90.0
100
AcDbRotatedDimension
1001
ACAD
1000
DSTYLE
1002
{
1070
    47
1040
0.5
1002
}
  0
DIMENSION
  5
C9BD
330
1F
100
AcDbEntity
  8
AM_5
100
AcDbDimension
  2
*D130
 10
1671.195121349204
 20
1453.392057636909
 30
0.0
 11
1667.195121349204
 21
1456.492057636909
 31
0.0
 70
    32
 71
     5
 42
8.0
  3
SYS$0
100
AcDbAlignedDimension
 13
1663.195121349204
 23
1512.642057636909
 33
0.0
 14
1671.195121349204
 24
1494.142057636909
 34
0.0
100
AcDbRotatedDimension
1001
ACAD
1000
DSTYLE
1002
{
1070
    47
1040
0.5
1002
}
  0
DIMENSION
  5
C9BE
330
1F
100
AcDbEntity
  8
AM_5
100
AcDbDimension
  2
*D131
 10
1655.195121349204
 20
1453.392057636909
 30
0.0
 11
1659.195121349204
 21
1456.492057636909
 31
0.0
 70
    32
 71
     5
 42
8.0
  3
SYS$0
100
AcDbAlignedDimension
 13
1663.195121349204
 23
1512.642057636909
 33
0.0
 14
1655.195121349204
 24
1494.142057636909
 34
0.0
100
AcDbRotatedDimension
1001
ACAD
1000
DSTYLE
1002
{
1070
    47
1040
0.5
1002
}
  0
DIMENSION
  5
C9BF
330
1F
100
AcDbEntity
  8
AM_5
100
AcDbDimension
  2
*D132
 10
1655.195121349204
 20
1443.392057636909
 30
0.0
 11
1663.195121349204
 21
1446.492057636909
 31
0.0
 70
    32
 71
     5
 42
16.0
  3
SYS$0
100
AcDbAlignedDimension
 13
1671.195121349204
 23
1494.142057636909
 33
0.0
 14
1655.195121349204
 24
1494.142057636909
 34
0.0
100
AcDbRotatedDimension
1001
ACAD
1000
DSTYLE
1002
{
1070
    47
1040
0.5
1002
}
  0
DIMENSION
  5
C9C0
330
1F
100
AcDbEntity
  8
AM_5
100
AcDbDimension
  2
*D133
 10
1677.695121349204
 20
1443.392057636909
 30
0.0
 11
1682.488454682538
 21
1446.492057636909
 31
0.0
 70
    32
 71
     5
 42
6.5
  3
SYS$0
100
AcDbAlignedDimension
 13
1671.195121349204
 23
1494.142057636909
 33
0.0
 14
1677.695121349204
 24
1470.39205763691
 34
0.0
100
AcDbRotatedDimension
1001
ACAD
1000
DSTYLE
1002
{
1070
    47
1040
0.5
1002
}
  0
DIMENSION
  5
C9C1
330
1F
100
AcDbEntity
  8
AM_5
100
AcDbDimension
  2
*D134
 10
1629.195121349204
 20
1443.392057636909
 30
0.0
 11
1642.195121349204
 21
1446.492057636909
 31
0.0
 70
    32
 71
     5
 42
26.0
  3
SYS$0
100
AcDbAlignedDimension
 13
1655.195121349204
 23
1494.142057636909
 33
0.0
 14
1629.195121349204
 24
1459.392057636909
 34
0.0
100
AcDbRotatedDimension
1001
ACAD
1000
DSTYLE
1002
{
1070
    47
1040
0.5
1002
}
  0
DIMENSION
  5
CBF7
330
1F
100
AcDbEntity
  8
AM_5
100
AcDbDimension
  2
*D135
 10
1558.695120349202
 20
1512.392057636909
 30
0.0
 11
1555.595120349202
 21
1516.89205763691
 31
0.0
 70
    32
 71
     5
 42
9.0
  3
SYS$0
100
AcDbAlignedDimension
 13
1616.695121349204
 23
1521.392057636909
 33
0.0
 14
1619.195121349204
 24
1512.392057636909
 34
0.0
 50
90.00000000000003
100
AcDbRotatedDimension
  0
DIMENSION
  5
CC0D
330
1F
100
AcDbEntity
  8
AM_5
100
AcDbDimension
  2
*D136
 10
1580.695121349204
 20
1544.392057636909
 30
0.0
 11
1596.195121349204
 21
1547.492057636909
 31
0.0
 70
    32
 71
     5
 42
31.0
  3
SYS$0
100
AcDbAlignedDimension
 13
1611.695121349204
 23
1526.39205763691
 33
0.0
 14
1580.695121349204
 24
1561.39205763691
 34
0.0
 50
0.0000000000001132
100
AcDbRotatedDimension
  0
LINE
  5
CC49
330
1F
100
AcDbEntity
  8
AM_5
100
AcDbLine
 10
1608.78198227718
 20
1473.175191364911
 30
0.0
 11
1651.563575301156
 21
1499.184259344288
 31
0.0
  0
LINE
  5
CC4A
330
1F
100
AcDbEntity
  8
AM_5
100
AcDbLine
 10
1658.826667397253
 20
1503.599855929531
 30
0.0
 11
1651.563575301156
 21
1499.184259344288
 31
0.0
  0
INSERT
  5
CC4B
330
1F
100
AcDbEntity
  8
AM_5
100
AcDbBlockReference
  2
_DotSmall
 10
1658.826667397253
 20
1503.599855929531
 30
0.0
 41
2.999999999999762
 42
2.999999999999994
 43
3.0
 50
211.297508222058
  0
LINE
  5
CC4C
330
1F
100
AcDbEntity
  8
AM_5
100
AcDbLine
 10
1575.361982277177
 20
1473.175191364911
 30
0.0
 11
1608.781982277179
 21
1473.175191364911
 31
0.0
  0
MTEXT
  5
CC4D
330
1F
100
AcDbEntity
  8
AM_5
 62
     2
100
AcDbMText
 10
1591.321982277177
 20
1476.425191364911
 30
0.0
 40
3.5
 41
0.0
 71
     5
 72
     1
  1
10-%%c5.5×\U+22058.5サラ
 73
     1
 44
1.0
1001
ACAD
1000
MTEXTBEGIN
1070
    73
1070
     1
1070
    44
1040
1.0
1070
    74
1070
     0
1000
MTEXTEND
  0
INSERT
  5
CC4E
330
1F
100
AcDbEntity
  8
AM_5
100
AcDbBlockReference
  2
_DotSmall
 10
1651.563575301156
 20
1499.184259344288
 30
0.0
 41
2.999999999999762
 42
2.999999999999994
 43
3.0
 50
31.29750822205798
  0
DIMENSION
  5
CDC8
330
1F
100
AcDbEntity
  8
AM_5
100
AcDbDimension
  2
*D139
 10
1677.695121349204
 20
1558.39205863691
 30
0.0
 11
1663.195121349204
 21
1561.49205863691
 31
0.0
 70
    32
 71
     5
 42
29.0
  3
SYS$0
100
AcDbAlignedDimension
 13
1648.695121349204
 23
1541.392057636909
 33
0.0
 14
1677.695121349204
 24
1541.392057636909
 34
0.0
100
AcDbRotatedDimension
  0
MTEXT
  5
CDDE
330
1F
100
AcDbEntity
  8
AM_6
100
AcDbMText
 10
1624.712795603972
 20
1413.02470663087
 30
0.0
 40
6.0
 41
18.53
 71
     1
 72
     5
  1
{\L上部}
 73
     1
 44
1.0
1001
ACAD
1000
MTEXTBEGIN
1070
    73
1070
     1
1070
    44
1040
1.0
1070
    74
1070
     0
1000
MTEXTEND
  0
DIMENSION
  5
D04B
330
1F
100
AcDbEntity
  8
AM_5
100
AcDbDimension
  2
*D164
 10
1792.114030265477
 20
1556.39205763691
 30
0.0
 11
1789.014030265477
 21
1585.89205763691
 31
0.0
 70
    32
  1
<>
 71
     5
 42
59.0
  3
SYS$0
100
AcDbAlignedDimension
 13
1810.114031265477
 23
1615.39205763691
 33
0.0
 14
1803.864031265477
 24
1556.39205763691
 34
0.0
 50
90.0
100
AcDbRotatedDimension
  0
DIMENSION
  5
D04C
330
1F
100
AcDbEntity
  8
AM_5
100
AcDbDimension
  2
*D165
 10
1792.114030265476
 20
1537.89205763691
 30
0.0
 11
1789.014030265476
 21
1547.14205763691
 31
0.0
 70
    32
  1
<>
 71
     5
 42
18.5
  3
SYS$0
100
AcDbAlignedDimension
 13
1803.864031265477
 23
1556.39205763691
 33
0.0
 14
1811.864031265477
 24
1537.89205763691
 34
0.0
 50
90.0
100
AcDbRotatedDimension
1001
ACAD
1000
DSTYLE
1002
{
1070
    47
1040
0.2
1070
    48
1040
0.2
1002
}
  0
DIMENSION
  5
D04D
330
1F
100
AcDbEntity
  8
AM_5
100
AcDbDimension
  2
*D166
 10
1792.114030265476
 20
1519.39205763691
 30
0.0
 11
1789.014030265476
 21
1528.64205763691
 31
0.0
 70
    32
  1
<>
 71
     5
 42
18.5
  3
SYS$0
100
AcDbAlignedDimension
 13
1811.864031265477
 23
1537.89205763691
 33
0.0
 14
1803.864031265477
 24
1519.39205763691
 34
0.0
 50
90.0
100
AcDbRotatedDimension
1001
ACAD
1000
DSTYLE
1002
{
1070
    47
1040
0.2
1070
    48
1040
0.2
1002
}
  0
DIMENSION
  5
D04E
330
1F
100
AcDbEntity
  8
AM_5
100
AcDbDimension
  2
*D167
 10
1792.114030265475
 20
1510.39205763691
 30
0.0
 11
1789.014030265475
 21
1514.89205763691
 31
0.0
 70
    32
  1
<>
 71
     5
 42
9.0
  3
SYS$0
100
AcDbAlignedDimension
 13
1803.864031265477
 23
1519.39205763691
 33
0.0
 14
1810.114031265477
 24
1510.39205763691
 34
0.0
 50
90.0
100
AcDbRotatedDimension
1001
ACAD
1000
DSTYLE
1002
{
1070
    47
1040
0.2
1070
    48
1040
0.2
1070
   279
1070
     1
1002
}
  0
DIMENSION
  5
D04F
330
1F
100
AcDbEntity
  8
AM_5
100
AcDbDimension
  2
*D168
 10
1782.114030265475
 20
1501.39205763691
 30
0.0
 11
1779.014030265475
 21
1505.89205763691
 31
0.0
 70
    32
 71
     5
 42
9.0
  3
SYS$0
100
AcDbAlignedDimension
 13
1810.114031265477
 23
1510.39205763691
 33
0.0
 14
1844.114031265476
 24
1501.39205763691
 34
0.0
 50
90.0
100
AcDbRotatedDimension
  0
DIMENSION
  5
D050
330
1F
100
AcDbEntity
  8
AM_5
100
AcDbDimension
  2
*D169
 10
1782.114030265475
 20
1615.39205763691
 30
0.0
 11
1779.014030265475
 21
1562.89205763691
 31
0.0
 70
    32
  1
<>
 71
     5
 42
105.0
  3
SYS$0
100
AcDbAlignedDimension
 13
1810.114031265477
 23
1510.39205763691
 33
0.0
 14
1810.114031265477
 24
1615.39205763691
 34
0.0
 50
90.0
100
AcDbRotatedDimension
1001
ACAD
1000
DSTYLE
1002
{
1070
    47
1040
0.2
1070
    48
1040
0.2
1002
}
  0
ARC
  5
D051
330
1F
100
AcDbEntity
  8
AM_0
 48
0.6000000000000001
100
AcDbCircle
 10
1810.114031265477
 20
1609.39205763691
 30
0.0
 40
6.0
100
AcDbArc
 50
90.0
 51
180.0
  0
LINE
  5
D052
330
1F
100
AcDbEntity
  8
AM_7
 48
0.825
100
AcDbLine
 10
1820.364031265477
 20
1556.39205763691
 30
0.0
 11
1803.864031265477
 21
1556.39205763691
 31
0.0
1001
GENIUS_GENOBJ-N-CEN_13
1002
{
1000
OWNER
1000
GEN
1002
}
1001
GENIUS_GENODEF_13
1002
{
1000
HIER
1070
     0
1002
}
1002
{
1000
MANEDIT
1070
     0
1002
}
1002
{
1000
NOSEL
1070
     0
1002
}
1002
{
1000
BEHIND
1070
     0
1002
}
1002
{
1000
OTHER
1070
     0
1002
}
1002
{
1000
REACTOR
1002
}
  0
ARC
  5
D053
330
1F
100
AcDbEntity
  8
AM_0
 48
0.6000000000000001
100
AcDbCircle
 10
1810.114031265477
 20
1516.39205763691
 30
0.0
 40
6.0
100
AcDbArc
 50
180.0
 51
270.0
  0
LINE
  5
D054
330
1F
100
AcDbEntity
  8
AM_7
 48
0.825
100
AcDbLine
 10
1820.364031265477
 20
1519.39205763691
 30
0.0
 11
1803.864031265477
 21
1519.39205763691
 31
0.0
1001
GENIUS_GENOBJ-N-CEN_13
1002
{
1000
OWNER
1000
GEN
1002
}
1001
GENIUS_GENODEF_13
1002
{
1000
HIER
1070
     0
1002
}
1002
{
1000
MANEDIT
1070
     0
1002
}
1002
{
1000
NOSEL
1070
     0
1002
}
1002
{
1000
BEHIND
1070
     0
1002
}
1002
{
1000
OTHER
1070
     0
1002
}
1002
{
1000
REACTOR
1002
}
  0
LINE
  5
D055
330
1F
100
AcDbEntity
  8
AM_0
100
AcDbLine
 10
1864.063905636543
 20
1701.580297614965
 30
0.0
 11
1904.114031265477
 21
1701.580297614965
 31
0.0
  0
LINE
  5
D056
330
1F
100
AcDbEntity
  8
AM_0
100
AcDbLine
 10
1863.911990236609
 20
1704.580297614965
 30
0.0
 11
1904.114031265477
 21
1704.580297614965
 31
0.0
  0
LINE
  5
D057
330
1F
100
AcDbEntity
  8
AM_7
100
AcDbLine
 10
1801.114031265477
 20
1703.080297614965
 30
0.0
 11
1907.114031265477
 21
1703.080297614965
 31
0.0
1001
GENIUS_GENOBJ-N-CEN_13
1002
{
1000
OWNER
1000
GEN
1002
}
1001
GENIUS_GENODEF_13
1002
{
1000
HIER
1070
     0
1002
}
1002
{
1000
MANEDIT
1070
     0
1002
}
1002
{
1000
NOSEL
1070
     0
1002
}
1002
{
1000
BEHIND
1070
     0
1002
}
1002
{
1000
OTHER
1070
     0
1002
}
1002
{
1000
REACTOR
1002
}
  0
LINE
  5
D058
330
1F
100
AcDbEntity
  8
AM_0
 48
0.15
100
AcDbLine
 10
1904.114031265477
 20
1701.580297614965
 30
0.0
 11
1904.114031265477
 21
1704.580297614965
 31
0.0
  0
LINE
  5
D059
330
1F
100
AcDbEntity
  8
AM_0
 48
0.15
100
AcDbLine
 10
1904.114031265477
 20
1702.580297614965
 30
0.0
 11
1904.114031265477
 21
1704.580297614965
 31
0.0
  0
LINE
  5
D05A
330
1F
100
AcDbEntity
  8
AM_0
100
AcDbLine
 10
1804.114031265475
 20
1609.39205763691
 30
0.0
 11
1804.114031265475
 21
1516.39205763691
 31
0.0
  0
LINE
  5
D05B
330
1F
100
AcDbEntity
  8
AM_7
 48
0.825
100
AcDbLine
 10
1888.114031265476
 20
1465.64205763691
 30
0.0
 11
1888.114031265476
 21
1482.14205763691
 31
0.0
1001
GENIUS_GENODEF_13
1002
{
1000
HIER
1070
     0
1002
}
1002
{
1000
MANEDIT
1070
     0
1002
}
1002
{
1000
NOSEL
1070
     0
1002
}
1002
{
1000
BEHIND
1070
     0
1002
}
1002
{
1000
OTHER
1070
     0
1002
}
1002
{
1000
REACTOR
1002
}
1001
GENIUS_GENOBJ-N-CEN_13
1002
{
1000
OWNER
1000
GEN
1002
}
  0
DIMENSION
  5
D05C
330
1F
100
AcDbEntity
  8
AM_5
100
AcDbDimension
  2
*D170
 10
1916.364031265477
 20
1492.39205763691
 30
0.0
 11
1913.264031265477
 21
1483.14205763691
 31
0.0
 70
    32
  1
<>
 71
     5
 42
18.5
  3
SYS$0
100
AcDbAlignedDimension
 13
1896.364031265476
 23
1473.89205763691
 33
0.0
 14
1904.364031265476
 24
1492.39205763691
 34
0.0
 50
90.0
100
AcDbRotatedDimension
1001
ACAD
1000
DSTYLE
1002
{
1070
    47
1040
0.2
1070
    48
1040
0.2
1002
}
  0
LINE
  5
D05D
330
1F
100
AcDbEntity
  8
AM_0
100
AcDbLine
 10
1863.114031265477
 20
1501.39205763691
 30
0.0
 11
1863.114031265477
 21
1442.39205763691
 31
0.0
  0
LINE
  5
D05E
330
1F
100
AcDbEntity
  8
AM_0
100
AcDbLine
 10
1904.114031265477
 20
1496.39205763691
 30
0.0
 11
1904.114031265477
 21
1447.39205763691
 31
0.0
  0
LINE
  5
D05F
330
1F
100
AcDbEntity
  8
AM_0
100
AcDbLine
 10
1845.114031265477
 20
1501.39205763691
 30
0.0
 11
1845.114031265477
 21
1442.39205763691
 31
0.0
  0
DIMENSION
  5
D060
330
1F
100
AcDbEntity
  8
AM_5
100
AcDbDimension
  2
*D171
 10
1926.364031265477
 20
1501.39205763691
 30
0.0
 11
1923.264031265477
 21
1471.89205763691
 31
0.0
 70
    32
  1
<>
 71
     5
 42
59.0
  3
SYS$0
100
AcDbAlignedDimension
 13
1899.114031265476
 23
1442.39205763691
 33
0.0
 14
1899.114031265476
 24
1501.39205763691
 34
0.0
 50
90.0
100
AcDbRotatedDimension
1001
ACAD
1000
DSTYLE
1002
{
1070
    47
1040
0.2
1070
    48
1040
0.2
1002
}
  0
LINE
  5
D061
330
1F
100
AcDbEntity
  8
AM_7
100
AcDbLine
 10
1854.114031265476
 20
1435.39205763691
 30
0.0
 11
1854.114031265476
 21
1622.39205763691
 31
0.0
1001
GENIUS_GENOBJ-N-CEN_13
1002
{
1000
OWNER
1000
GEN
1002
}
1001
GENIUS_GENODEF_13
1002
{
1000
HIER
1070
     0
1002
}
1002
{
1000
MANEDIT
1070
     0
1002
}
1002
{
1000
NOSEL
1070
     0
1002
}
1002
{
1000
BEHIND
1070
     0
1002
}
1002
{
1000
OTHER
1070
     0
1002
}
1002
{
1000
REACTOR
1002
}
  0
DIMENSION
  5
D062
330
1F
100
AcDbEntity
  8
AM_5
100
AcDbDimension
  2
*D172
 10
1916.364031265477
 20
1442.39205763691
 30
0.0
 11
1913.264031265477
 21
1448.89205763691
 31
0.0
 70
    32
  1
<>
 71
     5
 42
13.0
  3
SYS$0
100
AcDbAlignedDimension
 13
1904.364031265476
 23
1455.39205763691
 33
0.0
 14
1899.114031265476
 24
1442.39205763691
 34
0.0
 50
90.0
100
AcDbRotatedDimension
  0
DIMENSION
  5
D063
330
1F
100
AcDbEntity
  8
AM_5
100
AcDbDimension
  2
*D173
 10
1916.364031265477
 20
1473.89205763691
 30
0.0
 11
1913.264031265477
 21
1464.64205763691
 31
0.0
 70
    32
  1
<>
 71
     5
 42
18.5
  3
SYS$0
100
AcDbAlignedDimension
 13
1904.364031265476
 23
1455.39205763691
 33
0.0
 14
1896.364031265476
 24
1473.89205763691
 34
0.0
 50
90.0
100
AcDbRotatedDimension
1001
ACAD
1000
DSTYLE
1002
{
1070
    47
1040
0.2
1070
    48
1040
0.2
1002
}
  0
LINE
  5
D064
330
1F
100
AcDbEntity
  8
AM_0
100
AcDbLine
 10
1899.114031265476
 20
1442.39205763691
 30
0.0
 11
1845.114031265477
 21
1442.39205763691
 31
0.0
  0
LINE
  5
D065
330
1F
100
AcDbEntity
  8
AM_0
 48
0.9
100
AcDbLine
 10
1862.464031265476
 20
1439.89205763691
 30
0.0
 11
1845.764031265477
 21
1439.89205763691
 31
0.0
  0
LINE
  5
D066
330
1F
100
AcDbEntity
  8
AM_0
 48
0.85
100
AcDbLine
 10
1846.264031265477
 20
1439.39205763691
 30
0.0
 11
1861.964031265476
 21
1439.39205763691
 31
0.0
  0
CIRCLE
  5
D067
330
1F
100
AcDbEntity
  8
AM_0
 48
0.9
100
AcDbCircle
 10
1854.114031265477
 20
1703.080297614965
 30
0.0
 40
8.350000000000022
  0
CIRCLE
  5
D068
330
1F
100
AcDbEntity
  8
AM_0
100
AcDbCircle
 10
1854.114031265477
 20
1703.080297614965
 30
0.0
 40
7.850000000000137
  0
ARC
  5
D069
330
1F
100
AcDbEntity
  8
AM_0
100
AcDbCircle
 10
1854.114031265477
 20
1703.080297614965
 30
0.0
 40
10.0
100
AcDbArc
 50
188.6269265586773
 51
0.0
  0
ARC
  5
D06A
330
1F
100
AcDbEntity
  8
001
100
AcDbCircle
 10
1854.114031265477
 20
1703.080297614965
 30
0.0
 40
9.0
100
AcDbArc
 50
189.5940682268584
 51
170.4059317731416
  0
ARC
  5
D06B
330
1F
100
AcDbEntity
  8
AM_0
100
AcDbCircle
 10
1854.114031265477
 20
1703.080297614965
 30
0.0
 40
10.0
100
AcDbArc
 50
0.0
 51
171.3730734413226
  0
LINE
  5
D06C
330
1F
100
AcDbEntity
  8
AM_7
 48
0.55
100
AcDbLine
 10
1880.114031265477
 20
1697.580297614965
 30
0.0
 11
1880.114031265477
 21
1708.580297614965
 31
0.0
1001
GENIUS_GENODEF_13
1002
{
1000
HIER
1070
     0
1002
}
1002
{
1000
MANEDIT
1070
     0
1002
}
1002
{
1000
NOSEL
1070
     0
1002
}
1002
{
1000
BEHIND
1070
     0
1002
}
1002
{
1000
OTHER
1070
     0
1002
}
1002
{
1000
REACTOR
1002
}
1001
GENIUS_GENOBJ-N-CEN_13
1002
{
1000
OWNER
1000
GEN
1002
}
  0
LINE
  5
D06D
330
1F
100
AcDbEntity
  8
AM_7
 48
0.55
100
AcDbLine
 10
1888.114031265477
 20
1697.580297614965
 30
0.0
 11
1888.114031265477
 21
1708.580297614965
 31
0.0
1001
GENIUS_GENODEF_13
1002
{
1000
HIER
1070
     0
1002
}
1002
{
1000
MANEDIT
1070
     0
1002
}
1002
{
1000
NOSEL
1070
     0
1002
}
1002
{
1000
BEHIND
1070
     0
1002
}
1002
{
1000
OTHER
1070
     0
1002
}
1002
{
1000
REACTOR
1002
}
1001
GENIUS_GENOBJ-N-CEN_13
1002
{
1000
OWNER
1000
GEN
1002
}
  0
LINE
  5
D06E
330
1F
100
AcDbEntity
  8
AM_7
 48
0.55
100
AcDbLine
 10
1896.114031265477
 20
1697.580297614965
 30
0.0
 11
1896.114031265477
 21
1708.580297614965
 31
0.0
1001
GENIUS_GENODEF_13
1002
{
1000
HIER
1070
     0
1002
}
1002
{
1000
MANEDIT
1070
     0
1002
}
1002
{
1000
NOSEL
1070
     0
1002
}
1002
{
1000
BEHIND
1070
     0
1002
}
1002
{
1000
OTHER
1070
     0
1002
}
1002
{
1000
REACTOR
1002
}
1001
GENIUS_GENOBJ-N-CEN_13
1002
{
1000
OWNER
1000
GEN
1002
}
  0
LINE
  5
D06F
330
1F
100
AcDbEntity
  8
AM_7
100
AcDbLine
 10
1854.114031265477
 20
1688.080297614965
 30
0.0
 11
1854.114031265477
 21
1718.080297614966
 31
0.0
1001
GENIUS_GENODEF_13
1002
{
1000
HIER
1070
     0
1002
}
1002
{
1000
MANEDIT
1070
     0
1002
}
1002
{
1000
NOSEL
1070
     0
1002
}
1002
{
1000
BEHIND
1070
     0
1002
}
1002
{
1000
OTHER
1070
     0
1002
}
1002
{
1000
REACTOR
1002
}
1001
GENIUS_GENOBJ-N-CEN_13
1002
{
1000
OWNER
1000
GEN
1002
}
  0
LINE
  5
D070
330
1F
100
AcDbEntity
  8
AM_0
 48
0.15
100
AcDbLine
 10
1846.264031265477
 20
1439.39205763691
 30
0.0
 11
1845.764031265477
 21
1439.89205763691
 31
0.0
  0
LINE
  5
D071
330
1F
100
AcDbEntity
  8
AM_0
 48
0.15
100
AcDbLine
 10
1845.764031265477
 20
1439.89205763691
 30
0.0
 11
1845.764031265477
 21
1442.39205763691
 31
0.0
  0
LINE
  5
D072
330
1F
100
AcDbEntity
  8
AM_0
100
AcDbLine
 10
1845.339066878084
 20
1701.580297614965
 30
0.0
 11
1804.114031265477
 21
1701.580297614965
 31
0.0
  0
LINE
  5
D073
330
1F
100
AcDbEntity
  8
AM_0
100
AcDbLine
 10
1844.316072294344
 20
1704.580297614965
 30
0.0
 11
1804.114031265477
 21
1704.580297614965
 31
0.0
  0
LINE
  5
D074
330
1F
100
AcDbEntity
  8
AM_0
100
AcDbLine
 10
1845.239911590827
 20
1704.580297614965
 30
0.0
 11
1804.114031265477
 21
1704.580297614965
 31
0.0
  0
LINE
  5
D075
330
1F
100
AcDbEntity
  8
AM_7
 48
0.55
100
AcDbLine
 10
1820.114031265477
 20
1697.580297614965
 30
0.0
 11
1820.114031265477
 21
1708.580297614965
 31
0.0
1001
GENIUS_GENODEF_13
1002
{
1000
HIER
1070
     0
1002
}
1002
{
1000
MANEDIT
1070
     0
1002
}
1002
{
1000
NOSEL
1070
     0
1002
}
1002
{
1000
BEHIND
1070
     0
1002
}
1002
{
1000
OTHER
1070
     0
1002
}
1002
{
1000
REACTOR
1002
}
1001
GENIUS_GENOBJ-N-CEN_13
1002
{
1000
OWNER
1000
GEN
1002
}
  0
LINE
  5
D076
330
1F
100
AcDbEntity
  8
AM_7
 48
0.55
100
AcDbLine
 10
1828.114031265477
 20
1697.580297614965
 30
0.0
 11
1828.114031265477
 21
1708.580297614965
 31
0.0
1001
GENIUS_GENODEF_13
1002
{
1000
HIER
1070
     0
1002
}
1002
{
1000
MANEDIT
1070
     0
1002
}
1002
{
1000
NOSEL
1070
     0
1002
}
1002
{
1000
BEHIND
1070
     0
1002
}
1002
{
1000
OTHER
1070
     0
1002
}
1002
{
1000
REACTOR
1002
}
1001
GENIUS_GENOBJ-N-CEN_13
1002
{
1000
OWNER
1000
GEN
1002
}
  0
ARC
  5
D077
330
1F
100
AcDbEntity
  8
AM_0
100
AcDbCircle
 10
1845.339066878084
 20
1704.580297614965
 30
0.0
 40
3.0
100
AcDbArc
 50
270.0
 51
280.5955195844087
  0
LINE
  5
D078
330
1F
100
AcDbEntity
  8
AM_0
 48
0.15
100
AcDbLine
 10
1804.114031265477
 20
1701.580297614965
 30
0.0
 11
1804.114031265477
 21
1704.580297614965
 31
0.0
  0
LINE
  5
D079
330
1F
100
AcDbEntity
  8
AM_7
 48
0.55
100
AcDbLine
 10
1812.114031265477
 20
1697.580297614965
 30
0.0
 11
1812.114031265477
 21
1708.580297614965
 31
0.0
1001
GENIUS_GENODEF_13
1002
{
1000
HIER
1070
     0
1002
}
1002
{
1000
MANEDIT
1070
     0
1002
}
1002
{
1000
NOSEL
1070
     0
1002
}
1002
{
1000
BEHIND
1070
     0
1002
}
1002
{
1000
OTHER
1070
     0
1002
}
1002
{
1000
REACTOR
1002
}
1001
GENIUS_GENOBJ-N-CEN_13
1002
{
1000
OWNER
1000
GEN
1002
}
  0
LINE
  5
D07A
330
1F
100
AcDbEntity
  8
AM_0
 48
0.15
100
AcDbLine
 10
1804.114031265477
 20
1702.580297614965
 30
0.0
 11
1804.114031265477
 21
1704.580297614965
 31
0.0
  0
CIRCLE
  5
D07B
330
1F
100
AcDbEntity
  8
AM_0
 48
0.425
100
AcDbCircle
 10
1888.114031265476
 20
1473.89205763691
 30
0.0
 40
4.25
  0
CIRCLE
  5
D07C
330
1F
100
AcDbEntity
  8
AM_0
 48
0.4
100
AcDbCircle
 10
1888.114031265476
 20
1473.89205763691
 30
0.0
 40
2.75
  0
LINE
  5
D07D
330
1F
100
AcDbEntity
  8
AM_7
 48
0.825
100
AcDbLine
 10
1879.864031265477
 20
1473.89205763691
 30
0.0
 11
1896.364031265476
 21
1473.89205763691
 31
0.0
1001
GENIUS_GENOBJ-N-CEN_13
1002
{
1000
OWNER
1000
GEN
1002
}
1001
GENIUS_GENODEF_13
1002
{
1000
HIER
1070
     0
1002
}
1002
{
1000
MANEDIT
1070
     0
1002
}
1002
{
1000
NOSEL
1070
     0
1002
}
1002
{
1000
BEHIND
1070
     0
1002
}
1002
{
1000
OTHER
1070
     0
1002
}
1002
{
1000
REACTOR
1002
}
  0
LINE
  5
D07E
330
1F
100
AcDbEntity
  8
AM_7
 48
0.825
100
AcDbLine
 10
1887.864031265477
 20
1455.39205763691
 30
0.0
 11
1904.364031265476
 21
1455.39205763691
 31
0.0
1001
GENIUS_GENOBJ-N-CEN_13
1002
{
1000
OWNER
1000
GEN
1002
}
1001
GENIUS_GENODEF_13
1002
{
1000
HIER
1070
     0
1002
}
1002
{
1000
MANEDIT
1070
     0
1002
}
1002
{
1000
NOSEL
1070
     0
1002
}
1002
{
1000
BEHIND
1070
     0
1002
}
1002
{
1000
OTHER
1070
     0
1002
}
1002
{
1000
REACTOR
1002
}
  0
LINE
  5
D07F
330
1F
100
AcDbEntity
  8
AM_7
 48
0.825
100
AcDbLine
 10
1871.864031265477
 20
1455.39205763691
 30
0.0
 11
1888.364031265476
 21
1455.39205763691
 31
0.0
1001
GENIUS_GENOBJ-N-CEN_13
1002
{
1000
OWNER
1000
GEN
1002
}
1001
GENIUS_GENODEF_13
1002
{
1000
HIER
1070
     0
1002
}
1002
{
1000
MANEDIT
1070
     0
1002
}
1002
{
1000
NOSEL
1070
     0
1002
}
1002
{
1000
BEHIND
1070
     0
1002
}
1002
{
1000
OTHER
1070
     0
1002
}
1002
{
1000
REACTOR
1002
}
  0
CIRCLE
  5
D080
330
1F
100
AcDbEntity
  8
AM_0
 48
0.425
100
AcDbCircle
 10
1880.114031265476
 20
1455.39205763691
 30
0.0
 40
4.25
  0
CIRCLE
  5
D081
330
1F
100
AcDbEntity
  8
AM_0
 48
0.4
100
AcDbCircle
 10
1880.114031265476
 20
1455.39205763691
 30
0.0
 40
2.75
  0
LINE
  5
D082
330
1F
100
AcDbEntity
  8
AM_7
 48
0.825
100
AcDbLine
 10
1880.114031265476
 20
1447.14205763691
 30
0.0
 11
1880.114031265476
 21
1463.64205763691
 31
0.0
1001
GENIUS_GENODEF_13
1002
{
1000
HIER
1070
     0
1002
}
1002
{
1000
MANEDIT
1070
     0
1002
}
1002
{
1000
NOSEL
1070
     0
1002
}
1002
{
1000
BEHIND
1070
     0
1002
}
1002
{
1000
OTHER
1070
     0
1002
}
1002
{
1000
REACTOR
1002
}
1001
GENIUS_GENOBJ-N-CEN_13
1002
{
1000
OWNER
1000
GEN
1002
}
  0
LINE
  5
D083
330
1F
100
AcDbEntity
  8
AM_0
 48
0.15
100
AcDbLine
 10
1862.464031265476
 20
1439.89205763691
 30
0.0
 11
1862.464031265476
 21
1442.39205763691
 31
0.0
  0
LINE
  5
D084
330
1F
100
AcDbEntity
  8
AM_0
 48
0.15
100
AcDbLine
 10
1862.464031265476
 20
1439.89205763691
 30
0.0
 11
1861.964031265476
 21
1439.39205763691
 31
0.0
  0
CIRCLE
  5
D085
330
1F
100
AcDbEntity
  8
AM_0
 48
0.425
100
AcDbCircle
 10
1896.114031265477
 20
1455.39205763691
 30
0.0
 40
4.25
  0
CIRCLE
  5
D086
330
1F
100
AcDbEntity
  8
AM_0
 48
0.4
100
AcDbCircle
 10
1896.114031265477
 20
1455.39205763691
 30
0.0
 40
2.75
  0
LINE
  5
D087
330
1F
100
AcDbEntity
  8
AM_7
 48
0.825
100
AcDbLine
 10
1896.114031265477
 20
1447.14205763691
 30
0.0
 11
1896.114031265477
 21
1463.64205763691
 31
0.0
1001
GENIUS_GENODEF_13
1002
{
1000
HIER
1070
     0
1002
}
1002
{
1000
MANEDIT
1070
     0
1002
}
1002
{
1000
NOSEL
1070
     0
1002
}
1002
{
1000
BEHIND
1070
     0
1002
}
1002
{
1000
OTHER
1070
     0
1002
}
1002
{
1000
REACTOR
1002
}
1001
GENIUS_GENOBJ-N-CEN_13
1002
{
1000
OWNER
1000
GEN
1002
}
  0
ARC
  5
D088
330
1F
100
AcDbEntity
  8
AM_0
 48
0.5
100
AcDbCircle
 10
1899.114031265476
 20
1447.39205763691
 30
0.0
 40
5.0
100
AcDbArc
 50
270.0
 51
0.0
  0
DIMENSION
  5
D089
330
1F
100
AcDbEntity
  8
AM_5
100
AcDbDimension
  2
*D174
 10
1916.364031265477
 20
1501.39205763691
 30
0.0
 11
1913.264031265477
 21
1496.89205763691
 31
0.0
 70
    32
  1
<>
 71
     5
 42
9.0
  3
SYS$0
100
AcDbAlignedDimension
 13
1904.364031265476
 23
1492.39205763691
 33
0.0
 14
1899.114031265476
 24
1501.39205763691
 34
0.0
 50
90.0
100
AcDbRotatedDimension
1001
ACAD
1000
DSTYLE
1002
{
1070
    47
1040
0.2
1070
    48
1040
0.2
1070
   279
1070
     1
1002
}
  0
DIMENSION
  5
D08A
330
1F
100
AcDbEntity
  8
AM_5
100
AcDbDimension
  2
*D175
 10
1904.114031265477
 20
1422.392057636909
 30
0.0
 11
1900.114031265477
 21
1425.49205763691
 31
0.0
 70
    32
  1
<>
 71
     5
 42
8.0
  3
SYS$0
100
AcDbAlignedDimension
 13
1896.114031265477
 23
1447.14205763691
 33
0.0
 14
1904.114031265477
 24
1447.39205763691
 34
0.0
 50
180.0
100
AcDbRotatedDimension
1001
ACAD
1000
DSTYLE
1002
{
1070
    47
1040
0.2
1070
    48
1040
0.2
1002
}
  0
DIMENSION
  5
D08B
330
1F
100
AcDbEntity
  8
AM_5
100
AcDbDimension
  2
*D176
 10
1888.114031265476
 20
1432.39205763691
 30
0.0
 11
1892.114031265476
 21
1435.49205763691
 31
0.0
 70
    32
  1
<>
 71
     5
 42
8.000000000001136
  3
SYS$0
100
AcDbAlignedDimension
 13
1896.114031265477
 23
1447.14205763691
 33
0.0
 14
1888.114031265476
 24
1465.64205763691
 34
0.0
100
AcDbRotatedDimension
1001
ACAD
1000
DSTYLE
1002
{
1070
    47
1040
0.2
1070
    48
1040
0.2
1070
   279
1070
     1
1002
}
  0
LINE
  5
D08C
330
1F
100
AcDbEntity
  8
AM_0
100
AcDbLine
 10
1863.114031265476
 20
1514.39205763691
 30
0.0
 11
1863.114031265477
 21
1615.39205763691
 31
0.0
  0
LINE
  5
D08D
330
1F
100
AcDbEntity
  8
AM_0
100
AcDbLine
 10
1845.114031265476
 20
1514.39205763691
 30
0.0
 11
1845.114031265477
 21
1615.39205763691
 31
0.0
  0
LINE
  5
D08E
330
1F
100
AcDbEntity
  8
AM_0
100
AcDbLine
 10
1864.114031265476
 20
1514.39205763691
 30
0.0
 11
1844.114031265476
 21
1514.39205763691
 31
0.0
  0
LINE
  5
D08F
330
1F
100
AcDbEntity
  8
AM_0
100
AcDbLine
 10
1899.114031265476
 20
1501.39205763691
 30
0.0
 11
1845.114031265477
 21
1501.39205763691
 31
0.0
  0
DIMENSION
  5
D090
330
1F
100
AcDbEntity
  8
AM_5
100
AcDbDimension
  2
*D177
 10
1844.114031265476
 20
1488.392056636909
 30
0.0
 11
1836.249369538655
 21
1488.392056636909
 31
0.0
 70
   160
  1
%%c<>
 71
     5
 42
20.0
  3
SYS$0
100
AcDbAlignedDimension
 13
1864.114031265476
 23
1501.89205763691
 33
0.0
 14
1844.114031265476
 24
1501.89205763691
 34
0.0
 50
180.0
100
AcDbRotatedDimension
  0
LINE
  5
D091
330
1F
100
AcDbEntity
  8
AM_0
100
AcDbLine
 10
1864.114031265476
 20
1501.39205763691
 30
0.0
 11
1844.114031265476
 21
1501.39205763691
 31
0.0
  0
LINE
  5
D092
330
1F
100
AcDbEntity
  8
AM_7
 48
0.825
100
AcDbLine
 10
1820.114031265475
 20
1529.64205763691
 30
0.0
 11
1820.114031265475
 21
1546.14205763691
 31
0.0
1001
GENIUS_GENODEF_13
1002
{
1000
HIER
1070
     0
1002
}
1002
{
1000
MANEDIT
1070
     0
1002
}
1002
{
1000
NOSEL
1070
     0
1002
}
1002
{
1000
BEHIND
1070
     0
1002
}
1002
{
1000
OTHER
1070
     0
1002
}
1002
{
1000
REACTOR
1002
}
1001
GENIUS_GENOBJ-N-CEN_13
1002
{
1000
OWNER
1000
GEN
1002
}
  0
CIRCLE
  5
D093
330
1F
100
AcDbEntity
  8
AM_0
 48
0.425
100
AcDbCircle
 10
1828.114031265476
 20
1519.39205763691
 30
0.0
 40
4.25
  0
LINE
  5
D094
330
1F
100
AcDbEntity
  8
AM_0
100
AcDbLine
 10
1844.114031265476
 20
1510.39205763691
 30
0.0
 11
1810.114031265477
 21
1510.39205763691
 31
0.0
  0
LINE
  5
D095
330
1F
100
AcDbEntity
  8
AM_7
 48
0.825
100
AcDbLine
 10
1836.364031265477
 20
1519.39205763691
 30
0.0
 11
1819.864031265476
 21
1519.39205763691
 31
0.0
1001
GENIUS_GENOBJ-N-CEN_13
1002
{
1000
OWNER
1000
GEN
1002
}
1001
GENIUS_GENODEF_13
1002
{
1000
HIER
1070
     0
1002
}
1002
{
1000
MANEDIT
1070
     0
1002
}
1002
{
1000
NOSEL
1070
     0
1002
}
1002
{
1000
BEHIND
1070
     0
1002
}
1002
{
1000
OTHER
1070
     0
1002
}
1002
{
1000
REACTOR
1002
}
  0
CIRCLE
  5
D096
330
1F
100
AcDbEntity
  8
AM_0
 48
0.4
100
AcDbCircle
 10
1812.114031265476
 20
1519.39205763691
 30
0.0
 40
2.75
  0
CIRCLE
  5
D097
330
1F
100
AcDbEntity
  8
AM_0
 48
0.425
100
AcDbCircle
 10
1812.114031265476
 20
1519.39205763691
 30
0.0
 40
4.25
  0
LINE
  5
D098
330
1F
100
AcDbEntity
  8
AM_7
 48
0.825
100
AcDbLine
 10
1812.114031265476
 20
1511.14205763691
 30
0.0
 11
1812.114031265476
 21
1527.64205763691
 31
0.0
1001
GENIUS_GENODEF_13
1002
{
1000
HIER
1070
     0
1002
}
1002
{
1000
MANEDIT
1070
     0
1002
}
1002
{
1000
NOSEL
1070
     0
1002
}
1002
{
1000
BEHIND
1070
     0
1002
}
1002
{
1000
OTHER
1070
     0
1002
}
1002
{
1000
REACTOR
1002
}
1001
GENIUS_GENOBJ-N-CEN_13
1002
{
1000
OWNER
1000
GEN
1002
}
  0
CIRCLE
  5
D099
330
1F
100
AcDbEntity
  8
AM_0
 48
0.4
100
AcDbCircle
 10
1828.114031265476
 20
1519.39205763691
 30
0.0
 40
2.75
  0
LINE
  5
D09A
330
1F
100
AcDbEntity
  8
AM_7
 48
0.825
100
AcDbLine
 10
1828.114031265476
 20
1511.14205763691
 30
0.0
 11
1828.114031265476
 21
1527.64205763691
 31
0.0
1001
GENIUS_GENODEF_13
1002
{
1000
HIER
1070
     0
1002
}
1002
{
1000
MANEDIT
1070
     0
1002
}
1002
{
1000
NOSEL
1070
     0
1002
}
1002
{
1000
BEHIND
1070
     0
1002
}
1002
{
1000
OTHER
1070
     0
1002
}
1002
{
1000
REACTOR
1002
}
1001
GENIUS_GENOBJ-N-CEN_13
1002
{
1000
OWNER
1000
GEN
1002
}
  0
LINE
  5
D09B
330
1F
100
AcDbEntity
  8
AM_0
100
AcDbLine
 10
1844.114031265476
 20
1501.39205763691
 30
0.0
 11
1844.114031265476
 21
1514.39205763691
 31
0.0
  0
LINE
  5
D09C
330
1F
100
AcDbEntity
  8
AM_7
 48
0.825
100
AcDbLine
 10
1836.364031265477
 20
1556.39205763691
 30
0.0
 11
1819.864031265476
 21
1556.39205763691
 31
0.0
1001
GENIUS_GENOBJ-N-CEN_13
1002
{
1000
OWNER
1000
GEN
1002
}
1001
GENIUS_GENODEF_13
1002
{
1000
HIER
1070
     0
1002
}
1002
{
1000
MANEDIT
1070
     0
1002
}
1002
{
1000
NOSEL
1070
     0
1002
}
1002
{
1000
BEHIND
1070
     0
1002
}
1002
{
1000
OTHER
1070
     0
1002
}
1002
{
1000
REACTOR
1002
}
  0
CIRCLE
  5
D09D
330
1F
100
AcDbEntity
  8
AM_0
 48
0.425
100
AcDbCircle
 10
1828.114031265476
 20
1556.39205763691
 30
0.0
 40
4.25
  0
CIRCLE
  5
D09E
330
1F
100
AcDbEntity
  8
AM_0
 48
0.4
100
AcDbCircle
 10
1828.114031265476
 20
1556.39205763691
 30
0.0
 40
2.75
  0
CIRCLE
  5
D09F
330
1F
100
AcDbEntity
  8
AM_0
 48
0.425
100
AcDbCircle
 10
1812.114031265476
 20
1556.39205763691
 30
0.0
 40
4.25
  0
CIRCLE
  5
D0A0
330
1F
100
AcDbEntity
  8
AM_0
 48
0.4
100
AcDbCircle
 10
1812.114031265476
 20
1556.39205763691
 30
0.0
 40
2.75
  0
LINE
  5
D0A1
330
1F
100
AcDbEntity
  8
AM_7
 48
0.825
100
AcDbLine
 10
1812.114031265476
 20
1548.142057636909
 30
0.0
 11
1812.114031265476
 21
1564.64205763691
 31
0.0
1001
GENIUS_GENODEF_13
1002
{
1000
HIER
1070
     0
1002
}
1002
{
1000
MANEDIT
1070
     0
1002
}
1002
{
1000
NOSEL
1070
     0
1002
}
1002
{
1000
BEHIND
1070
     0
1002
}
1002
{
1000
OTHER
1070
     0
1002
}
1002
{
1000
REACTOR
1002
}
1001
GENIUS_GENOBJ-N-CEN_13
1002
{
1000
OWNER
1000
GEN
1002
}
  0
LINE
  5
D0A2
330
1F
100
AcDbEntity
  8
AM_7
 48
0.825
100
AcDbLine
 10
1828.114031265476
 20
1548.142057636909
 30
0.0
 11
1828.114031265476
 21
1564.64205763691
 31
0.0
1001
GENIUS_GENODEF_13
1002
{
1000
HIER
1070
     0
1002
}
1002
{
1000
MANEDIT
1070
     0
1002
}
1002
{
1000
NOSEL
1070
     0
1002
}
1002
{
1000
BEHIND
1070
     0
1002
}
1002
{
1000
OTHER
1070
     0
1002
}
1002
{
1000
REACTOR
1002
}
1001
GENIUS_GENOBJ-N-CEN_13
1002
{
1000
OWNER
1000
GEN
1002
}
  0
CIRCLE
  5
D0A3
330
1F
100
AcDbEntity
  8
AM_0
 48
0.4
100
AcDbCircle
 10
1820.114031265475
 20
1537.89205763691
 30
0.0
 40
2.75
  0
CIRCLE
  5
D0A4
330
1F
100
AcDbEntity
  8
AM_0
 48
0.425
100
AcDbCircle
 10
1820.114031265475
 20
1537.89205763691
 30
0.0
 40
4.25
  0
LINE
  5
D0A5
330
1F
100
AcDbEntity
  8
AM_7
 48
0.825
100
AcDbLine
 10
1828.364031265477
 20
1537.89205763691
 30
0.0
 11
1811.864031265477
 21
1537.89205763691
 31
0.0
1001
GENIUS_GENOBJ-N-CEN_13
1002
{
1000
OWNER
1000
GEN
1002
}
1001
GENIUS_GENODEF_13
1002
{
1000
HIER
1070
     0
1002
}
1002
{
1000
MANEDIT
1070
     0
1002
}
1002
{
1000
NOSEL
1070
     0
1002
}
1002
{
1000
BEHIND
1070
     0
1002
}
1002
{
1000
OTHER
1070
     0
1002
}
1002
{
1000
REACTOR
1002
}
  0
DIMENSION
  5
D0A6
330
1F
100
AcDbEntity
  8
AM_5
100
AcDbDimension
  2
*D178
 10
1880.114031265476
 20
1432.39205763691
 30
0.0
 11
1884.114031265476
 21
1435.49205763691
 31
0.0
 70
    32
  1
<>
 71
     5
 42
8.0
  3
SYS$0
100
AcDbAlignedDimension
 13
1888.114031265476
 23
1465.64205763691
 33
0.0
 14
1880.114031265476
 24
1447.14205763691
 34
0.0
100
AcDbRotatedDimension
1001
ACAD
1000
DSTYLE
1002
{
1070
    47
1040
0.2
1070
    48
1040
0.2
1002
}
  0
LINE
  5
D0A7
330
1F
100
AcDbEntity
  8
AM_7
 48
0.825
100
AcDbLine
 10
1887.864031265477
 20
1492.39205763691
 30
0.0
 11
1904.364031265476
 21
1492.39205763691
 31
0.0
1001
GENIUS_GENOBJ-N-CEN_13
1002
{
1000
OWNER
1000
GEN
1002
}
1001
GENIUS_GENODEF_13
1002
{
1000
HIER
1070
     0
1002
}
1002
{
1000
MANEDIT
1070
     0
1002
}
1002
{
1000
NOSEL
1070
     0
1002
}
1002
{
1000
BEHIND
1070
     0
1002
}
1002
{
1000
OTHER
1070
     0
1002
}
1002
{
1000
REACTOR
1002
}
  0
LINE
  5
D0A8
330
1F
100
AcDbEntity
  8
AM_7
 48
0.825
100
AcDbLine
 10
1871.864031265477
 20
1492.39205763691
 30
0.0
 11
1888.364031265476
 21
1492.39205763691
 31
0.0
1001
GENIUS_GENOBJ-N-CEN_13
1002
{
1000
OWNER
1000
GEN
1002
}
1001
GENIUS_GENODEF_13
1002
{
1000
HIER
1070
     0
1002
}
1002
{
1000
MANEDIT
1070
     0
1002
}
1002
{
1000
NOSEL
1070
     0
1002
}
1002
{
1000
BEHIND
1070
     0
1002
}
1002
{
1000
OTHER
1070
     0
1002
}
1002
{
1000
REACTOR
1002
}
  0
LINE
  5
D0A9
330
1F
100
AcDbEntity
  8
AM_0
100
AcDbLine
 10
1864.114031265476
 20
1501.39205763691
 30
0.0
 11
1864.114031265476
 21
1514.39205763691
 31
0.0
  0
CIRCLE
  5
D0AA
330
1F
100
AcDbEntity
  8
AM_0
 48
0.425
100
AcDbCircle
 10
1880.114031265476
 20
1492.39205763691
 30
0.0
 40
4.25
  0
CIRCLE
  5
D0AB
330
1F
100
AcDbEntity
  8
AM_0
 48
0.4
100
AcDbCircle
 10
1880.114031265476
 20
1492.39205763691
 30
0.0
 40
2.75
  0
LINE
  5
D0AC
330
1F
100
AcDbEntity
  8
AM_7
 48
0.825
100
AcDbLine
 10
1880.114031265476
 20
1484.14205763691
 30
0.0
 11
1880.114031265476
 21
1500.64205763691
 31
0.0
1001
GENIUS_GENODEF_13
1002
{
1000
HIER
1070
     0
1002
}
1002
{
1000
MANEDIT
1070
     0
1002
}
1002
{
1000
NOSEL
1070
     0
1002
}
1002
{
1000
BEHIND
1070
     0
1002
}
1002
{
1000
OTHER
1070
     0
1002
}
1002
{
1000
REACTOR
1002
}
1001
GENIUS_GENOBJ-N-CEN_13
1002
{
1000
OWNER
1000
GEN
1002
}
  0
ARC
  5
D0AD
330
1F
100
AcDbEntity
  8
AM_0
 48
0.5
100
AcDbCircle
 10
1899.114031265476
 20
1496.39205763691
 30
0.0
 40
5.0
100
AcDbArc
 50
0.0
 51
90.0
  0
CIRCLE
  5
D0AE
330
1F
100
AcDbEntity
  8
AM_0
 48
0.425
100
AcDbCircle
 10
1896.114031265477
 20
1492.39205763691
 30
0.0
 40
4.25
  0
CIRCLE
  5
D0AF
330
1F
100
AcDbEntity
  8
AM_0
 48
0.4
100
AcDbCircle
 10
1896.114031265477
 20
1492.39205763691
 30
0.0
 40
2.75
  0
LINE
  5
D0B0
330
1F
100
AcDbEntity
  8
AM_7
 48
0.825
100
AcDbLine
 10
1896.114031265477
 20
1484.14205763691
 30
0.0
 11
1896.114031265477
 21
1500.64205763691
 31
0.0
1001
GENIUS_GENODEF_13
1002
{
1000
HIER
1070
     0
1002
}
1002
{
1000
MANEDIT
1070
     0
1002
}
1002
{
1000
NOSEL
1070
     0
1002
}
1002
{
1000
BEHIND
1070
     0
1002
}
1002
{
1000
OTHER
1070
     0
1002
}
1002
{
1000
REACTOR
1002
}
1001
GENIUS_GENOBJ-N-CEN_13
1002
{
1000
OWNER
1000
GEN
1002
}
  0
LINE
  5
D0B1
330
1F
100
AcDbEntity
  8
AM_0
100
AcDbLine
 10
1810.114031265477
 20
1615.39205763691
 30
0.0
 11
1863.114031265477
 21
1615.39205763691
 31
0.0
  0
LINE
  5
D0B2
330
1F
100
AcDbEntity
  8
AM_0
 48
0.9
100
AcDbLine
 10
1862.464031265476
 20
1617.892057636909
 30
0.0
 11
1845.764031265477
 21
1617.892057636909
 31
0.0
  0
LINE
  5
D0B3
330
1F
100
AcDbEntity
  8
AM_0
 48
0.85
100
AcDbLine
 10
1846.264031265477
 20
1618.392057636909
 30
0.0
 11
1861.964031265476
 21
1618.392057636909
 31
0.0
  0
LINE
  5
D0B4
330
1F
100
AcDbEntity
  8
AM_0
 48
0.15
100
AcDbLine
 10
1845.764031265477
 20
1617.892057636909
 30
0.0
 11
1846.264031265477
 21
1618.392057636909
 31
0.0
  0
LINE
  5
D0B5
330
1F
100
AcDbEntity
  8
AM_0
 48
0.15
100
AcDbLine
 10
1845.764031265477
 20
1617.892057636909
 30
0.0
 11
1845.764031265477
 21
1615.39205763691
 31
0.0
  0
LINE
  5
D0B6
330
1F
100
AcDbEntity
  8
AM_0
 48
0.15
100
AcDbLine
 10
1862.464031265476
 20
1617.892057636909
 30
0.0
 11
1862.464031265476
 21
1615.39205763691
 31
0.0
  0
LINE
  5
D0B7
330
1F
100
AcDbEntity
  8
AM_0
 48
0.15
100
AcDbLine
 10
1862.464031265476
 20
1617.892057636909
 30
0.0
 11
1861.964031265476
 21
1618.392057636909
 31
0.0
  0
DIMENSION
  5
D0B8
330
1F
100
AcDbEntity
  8
AM_5
100
AcDbDimension
  2
*D179
 10
1804.114031265475
 20
1634.392057636909
 30
0.0
 11
1829.114031265476
 21
1637.49205763691
 31
0.0
 70
    32
 71
     5
 42
50.0
  3
SYS$0
100
AcDbAlignedDimension
 13
1854.114031265476
 23
1622.39205763691
 33
0.0
 14
1804.114031265475
 24
1609.39205763691
 34
0.0
100
AcDbRotatedDimension
  0
DIMENSION
  5
D0B9
330
1F
100
AcDbEntity
  8
AM_5
100
AcDbDimension
  2
*D180
 10
1904.114031265477
 20
1634.392057636909
 30
0.0
 11
1879.114031265476
 21
1637.492057636909
 31
0.0
 70
    32
 71
     5
 42
50.00000000000113
  3
SYS$0
100
AcDbAlignedDimension
 13
1854.114031265476
 23
1622.39205763691
 33
0.0
 14
1904.114031265477
 24
1496.39205763691
 34
0.0
100
AcDbRotatedDimension
  0
DIMENSION
  5
D0BA
330
1F
100
AcDbEntity
  8
AM_5
100
AcDbDimension
  2
*D181
 10
1804.114031265475
 20
1644.392057636909
 30
0.0
 11
1854.114031265476
 21
1647.492057636909
 31
0.0
 70
    32
 71
     5
 42
100.0000000000011
  3
SYS$0
100
AcDbAlignedDimension
 13
1904.114031265477
 23
1496.39205763691
 33
0.0
 14
1804.114031265475
 24
1609.39205763691
 34
0.0
100
AcDbRotatedDimension
  0
DIMENSION
  5
D0BB
330
1F
100
AcDbEntity
  8
AM_5
100
AcDbDimension
  2
*D182
 10
1926.364031265478
 20
1704.580297614965
 30
0.0
 11
1923.264031265478
 21
1708.826964281632
 31
0.0
 70
    32
 71
     5
 42
3.0
  3
SYS$0
100
AcDbAlignedDimension
 13
1904.114031265477
 23
1701.580297614965
 33
0.0
 14
1904.114031265477
 24
1704.580297614965
 34
0.0
 50
90.0
100
AcDbRotatedDimension
  0
DIMENSION
  5
D0BC
330
1F
100
AcDbEntity
  8
AM_5
100
AcDbDimension
  2
*D183
 10
1880.114031265476
 20
1422.392057636909
 30
0.0
 11
1888.114031265476
 21
1425.49205763691
 31
0.0
 70
    32
 71
     5
 42
16.00000000000114
  3
SYS$0
100
AcDbAlignedDimension
 13
1896.114031265477
 23
1447.14205763691
 33
0.0
 14
1880.114031265476
 24
1447.14205763691
 34
0.0
100
AcDbRotatedDimension
  0
DIMENSION
  5
D0BD
330
1F
100
AcDbEntity
  8
AM_5
100
AcDbDimension
  2
*D184
 10
1854.114031265476
 20
1422.392057636909
 30
0.0
 11
1867.114031265476
 21
1425.49205763691
 31
0.0
 70
    32
 71
     5
 42
26.0
  3
SYS$0
100
AcDbAlignedDimension
 13
1880.114031265476
 23
1447.14205763691
 33
0.0
 14
1854.114031265476
 24
1435.39205763691
 34
0.0
100
AcDbRotatedDimension
  0
LINE
  5
D0BE
330
1F
100
AcDbEntity
  8
AM_5
100
AcDbLine
 10
1800.280892193448
 20
1451.62069488757
 30
0.0
 11
1833.700892193452
 21
1451.62069488757
 31
0.0
  0
LINE
  5
D0BF
330
1F
100
AcDbEntity
  8
AM_5
100
AcDbLine
 10
1833.700892193452
 20
1451.62069488757
 30
0.0
 11
1876.921036712107
 21
1489.587189407892
 31
0.0
  0
MTEXT
  5
D0C0
330
1F
100
AcDbEntity
  8
AM_5
 62
     2
100
AcDbMText
 10
1816.240892193449
 20
1454.87069488757
 30
0.0
 40
3.5
 41
0.0
 71
     5
 72
     1
  1
10-%%c5.5×\U+22058.5サラ
 73
     1
 44
1.0
1001
ACAD
1000
MTEXTBEGIN
1070
    73
1070
     1
1070
    44
1040
1.0
1070
    74
1070
     0
1000
MTEXTEND
  0
LINE
  5
D0C1
330
1F
100
AcDbEntity
  8
AM_5
100
AcDbLine
 10
1883.307025818846
 20
1495.196925865927
 30
0.0
 11
1876.921036712107
 21
1489.587189407892
 31
0.0
  0
INSERT
  5
D0C2
330
1F
100
AcDbEntity
  8
AM_5
100
AcDbBlockReference
  2
_DotSmall
 10
1883.307025818846
 20
1495.196925865927
 30
0.0
 41
3.000000000000008
 42
3.0
 43
3.0
 50
221.2975082220565
  0
INSERT
  5
D0C3
330
1F
100
AcDbEntity
  8
AM_5
100
AcDbBlockReference
  2
_DotSmall
 10
1876.921036712107
 20
1489.587189407892
 30
0.0
 41
3.000000000000008
 42
3.0
 43
3.0
 50
41.29750822205644
  0
LINE
  5
D0C4
330
1F
100
AcDbEntity
  8
AM_5
100
AcDbLine
 10
1829.780747737853
 20
1686.815420622962
 30
0.0
 11
1837.464081071186
 21
1686.815420622963
 31
0.0
  0
LINE
  5
D0C5
330
1F
100
AcDbEntity
  8
AM_5
100
AcDbLine
 10
1837.464081071186
 20
1686.815420622963
 30
0.0
 11
1847.676058307155
 21
1696.791219448182
 31
0.0
  0
MTEXT
  5
D0C6
330
1F
100
AcDbEntity
  8
AM_5
 62
     2
100
AcDbMText
 10
1832.872414404519
 20
1690.065420622962
 30
0.0
 40
3.5
 41
0.0
 71
     5
 72
     1
  1
\U+220518
 73
     1
 44
1.0
1001
ACAD
1000
MTEXTBEGIN
1070
    73
1070
     1
1070
    44
1040
1.0
1070
    74
1070
     0
1000
MTEXTEND
  0
LINE
  5
D0C7
330
1F
100
AcDbEntity
  8
AM_5
100
AcDbLine
 10
1860.552004223799
 20
1709.369375781749
 30
0.0
 11
1847.676058307155
 21
1696.791219448182
 31
0.0
  0
INSERT
  5
D0C8
330
1F
100
AcDbEntity
  8
AM_5
100
AcDbBlockReference
  2
_DotSmall
 10
1860.552004223799
 20
1709.369375781749
 30
0.0
 41
3.000000000000021
 42
3.0
 43
3.0
 50
224.3297226604628
  0
INSERT
  5
D0C9
330
1F
100
AcDbEntity
  8
AM_5
100
AcDbBlockReference
  2
_DotSmall
 10
1847.676058307155
 20
1696.791219448182
 30
0.0
 41
3.000000000000021
 42
3.0
 43
3.0
 50
44.32972266046288
  0
DIMENSION
  5
D0CA
330
1F
100
AcDbEntity
  8
AM_5
100
AcDbDimension
  2
*D185
 10
1936.364031265476
 20
1615.39205763691
 30
0.0
 11
1933.264031265476
 21
1528.89205763691
 31
0.0
 70
    32
 71
     5
 42
173.0
  3
SYS$0
100
AcDbAlignedDimension
 13
1899.114031265476
 23
1442.39205763691
 33
0.0
 14
1863.114031265477
 24
1615.39205763691
 34
0.0
 50
90.0
100
AcDbRotatedDimension
  0
LINE
  5
D426
330
1F
100
AcDbEntity
  8
AM_0
100
AcDbLine
 10
1639.144995720271
 20
1701.580297614965
 30
0.0
 11
1679.195121349205
 21
1701.580297614965
 31
0.0
  0
LINE
  5
D427
330
1F
100
AcDbEntity
  8
AM_0
100
AcDbLine
 10
1638.993080320337
 20
1704.580297614965
 30
0.0
 11
1679.195121349205
 21
1704.580297614965
 31
0.0
  0
LINE
  5
D428
330
1F
100
AcDbEntity
  8
AM_7
100
AcDbLine
 10
1576.195121349205
 20
1703.080297614965
 30
0.0
 11
1682.195121349205
 21
1703.080297614965
 31
0.0
1001
GENIUS_GENOBJ-N-CEN_13
1002
{
1000
OWNER
1000
GEN
1002
}
1001
GENIUS_GENODEF_13
1002
{
1000
HIER
1070
     0
1002
}
1002
{
1000
MANEDIT
1070
     0
1002
}
1002
{
1000
NOSEL
1070
     0
1002
}
1002
{
1000
BEHIND
1070
     0
1002
}
1002
{
1000
OTHER
1070
     0
1002
}
1002
{
1000
REACTOR
1002
}
  0
LINE
  5
D429
330
1F
100
AcDbEntity
  8
AM_0
 48
0.15
100
AcDbLine
 10
1679.195121349205
 20
1701.580297614965
 30
0.0
 11
1679.195121349205
 21
1704.580297614965
 31
0.0
  0
LINE
  5
D42A
330
1F
100
AcDbEntity
  8
AM_0
 48
0.15
100
AcDbLine
 10
1679.195121349205
 20
1702.580297614965
 30
0.0
 11
1679.195121349205
 21
1704.580297614965
 31
0.0
  0
CIRCLE
  5
D42B
330
1F
100
AcDbEntity
  8
AM_0
 48
0.9
100
AcDbCircle
 10
1629.195121349205
 20
1703.080297614965
 30
0.0
 40
8.350000000000022
  0
CIRCLE
  5
D42C
330
1F
100
AcDbEntity
  8
AM_0
100
AcDbCircle
 10
1629.195121349205
 20
1703.080297614965
 30
0.0
 40
7.850000000000137
  0
ARC
  5
D42D
330
1F
100
AcDbEntity
  8
AM_0
100
AcDbCircle
 10
1629.195121349205
 20
1703.080297614965
 30
0.0
 40
10.0
100
AcDbArc
 50
188.6269265586774
 51
0.0
  0
ARC
  5
D42E
330
1F
100
AcDbEntity
  8
001
100
AcDbCircle
 10
1629.195121349205
 20
1703.080297614965
 30
0.0
 40
9.0
100
AcDbArc
 50
189.5940682268585
 51
170.4059317731415
  0
ARC
  5
D42F
330
1F
100
AcDbEntity
  8
AM_0
100
AcDbCircle
 10
1629.195121349205
 20
1703.080297614965
 30
0.0
 40
10.0
100
AcDbArc
 50
0.0
 51
171.3730734413226
  0
LINE
  5
D430
330
1F
100
AcDbEntity
  8
AM_7
 48
0.55
100
AcDbLine
 10
1655.195121349205
 20
1697.580297614965
 30
0.0
 11
1655.195121349205
 21
1708.580297614965
 31
0.0
1001
GENIUS_GENODEF_13
1002
{
1000
HIER
1070
     0
1002
}
1002
{
1000
MANEDIT
1070
     0
1002
}
1002
{
1000
NOSEL
1070
     0
1002
}
1002
{
1000
BEHIND
1070
     0
1002
}
1002
{
1000
OTHER
1070
     0
1002
}
1002
{
1000
REACTOR
1002
}
1001
GENIUS_GENOBJ-N-CEN_13
1002
{
1000
OWNER
1000
GEN
1002
}
  0
LINE
  5
D431
330
1F
100
AcDbEntity
  8
AM_7
 48
0.55
100
AcDbLine
 10
1663.195121349205
 20
1697.580297614965
 30
0.0
 11
1663.195121349205
 21
1708.580297614965
 31
0.0
1001
GENIUS_GENODEF_13
1002
{
1000
HIER
1070
     0
1002
}
1002
{
1000
MANEDIT
1070
     0
1002
}
1002
{
1000
NOSEL
1070
     0
1002
}
1002
{
1000
BEHIND
1070
     0
1002
}
1002
{
1000
OTHER
1070
     0
1002
}
1002
{
1000
REACTOR
1002
}
1001
GENIUS_GENOBJ-N-CEN_13
1002
{
1000
OWNER
1000
GEN
1002
}
  0
LINE
  5
D432
330
1F
100
AcDbEntity
  8
AM_7
 48
0.55
100
AcDbLine
 10
1671.195121349205
 20
1697.580297614965
 30
0.0
 11
1671.195121349205
 21
1708.580297614965
 31
0.0
1001
GENIUS_GENODEF_13
1002
{
1000
HIER
1070
     0
1002
}
1002
{
1000
MANEDIT
1070
     0
1002
}
1002
{
1000
NOSEL
1070
     0
1002
}
1002
{
1000
BEHIND
1070
     0
1002
}
1002
{
1000
OTHER
1070
     0
1002
}
1002
{
1000
REACTOR
1002
}
1001
GENIUS_GENOBJ-N-CEN_13
1002
{
1000
OWNER
1000
GEN
1002
}
  0
LINE
  5
D433
330
1F
100
AcDbEntity
  8
AM_7
100
AcDbLine
 10
1629.195121349205
 20
1688.080297614965
 30
0.0
 11
1629.195121349205
 21
1718.080297614965
 31
0.0
1001
GENIUS_GENODEF_13
1002
{
1000
HIER
1070
     0
1002
}
1002
{
1000
MANEDIT
1070
     0
1002
}
1002
{
1000
NOSEL
1070
     0
1002
}
1002
{
1000
BEHIND
1070
     0
1002
}
1002
{
1000
OTHER
1070
     0
1002
}
1002
{
1000
REACTOR
1002
}
1001
GENIUS_GENOBJ-N-CEN_13
1002
{
1000
OWNER
1000
GEN
1002
}
  0
LINE
  5
D434
330
1F
100
AcDbEntity
  8
AM_0
100
AcDbLine
 10
1620.420156961812
 20
1701.580297614965
 30
0.0
 11
1579.195121349205
 21
1701.580297614965
 31
0.0
  0
LINE
  5
D435
330
1F
100
AcDbEntity
  8
AM_0
100
AcDbLine
 10
1619.397162378072
 20
1704.580297614965
 30
0.0
 11
1579.195121349205
 21
1704.580297614965
 31
0.0
  0
LINE
  5
D436
330
1F
100
AcDbEntity
  8
AM_0
100
AcDbLine
 10
1620.321001674555
 20
1704.580297614965
 30
0.0
 11
1579.195121349205
 21
1704.580297614965
 31
0.0
  0
LINE
  5
D437
330
1F
100
AcDbEntity
  8
AM_7
 48
0.55
100
AcDbLine
 10
1595.195121349205
 20
1697.580297614965
 30
0.0
 11
1595.195121349205
 21
1708.580297614965
 31
0.0
1001
GENIUS_GENODEF_13
1002
{
1000
HIER
1070
     0
1002
}
1002
{
1000
MANEDIT
1070
     0
1002
}
1002
{
1000
NOSEL
1070
     0
1002
}
1002
{
1000
BEHIND
1070
     0
1002
}
1002
{
1000
OTHER
1070
     0
1002
}
1002
{
1000
REACTOR
1002
}
1001
GENIUS_GENOBJ-N-CEN_13
1002
{
1000
OWNER
1000
GEN
1002
}
  0
LINE
  5
D438
330
1F
100
AcDbEntity
  8
AM_7
 48
0.55
100
AcDbLine
 10
1603.195121349205
 20
1697.580297614965
 30
0.0
 11
1603.195121349205
 21
1708.580297614965
 31
0.0
1001
GENIUS_GENODEF_13
1002
{
1000
HIER
1070
     0
1002
}
1002
{
1000
MANEDIT
1070
     0
1002
}
1002
{
1000
NOSEL
1070
     0
1002
}
1002
{
1000
BEHIND
1070
     0
1002
}
1002
{
1000
OTHER
1070
     0
1002
}
1002
{
1000
REACTOR
1002
}
1001
GENIUS_GENOBJ-N-CEN_13
1002
{
1000
OWNER
1000
GEN
1002
}
  0
ARC
  5
D439
330
1F
100
AcDbEntity
  8
AM_0
100
AcDbCircle
 10
1620.420156961812
 20
1704.580297614965
 30
0.0
 40
3.0
100
AcDbArc
 50
270.0
 51
280.5955195844088
  0
LINE
  5
D43A
330
1F
100
AcDbEntity
  8
AM_0
 48
0.15
100
AcDbLine
 10
1579.195121349205
 20
1701.580297614965
 30
0.0
 11
1579.195121349205
 21
1704.580297614965
 31
0.0
  0
LINE
  5
D43B
330
1F
100
AcDbEntity
  8
AM_7
 48
0.55
100
AcDbLine
 10
1587.195121349205
 20
1697.580297614965
 30
0.0
 11
1587.195121349205
 21
1708.580297614965
 31
0.0
1001
GENIUS_GENODEF_13
1002
{
1000
HIER
1070
     0
1002
}
1002
{
1000
MANEDIT
1070
     0
1002
}
1002
{
1000
NOSEL
1070
     0
1002
}
1002
{
1000
BEHIND
1070
     0
1002
}
1002
{
1000
OTHER
1070
     0
1002
}
1002
{
1000
REACTOR
1002
}
1001
GENIUS_GENOBJ-N-CEN_13
1002
{
1000
OWNER
1000
GEN
1002
}
  0
LINE
  5
D43C
330
1F
100
AcDbEntity
  8
AM_0
 48
0.15
100
AcDbLine
 10
1579.195121349205
 20
1702.580297614965
 30
0.0
 11
1579.195121349205
 21
1704.580297614965
 31
0.0
  0
DIMENSION
  5
D43D
330
1F
100
AcDbEntity
  8
AM_5
100
AcDbDimension
  2
*D186
 10
1701.445121349206
 20
1704.580297614965
 30
0.0
 11
1698.345121349206
 21
1708.826964281632
 31
0.0
 70
    32
 71
     5
 42
3.0
  3
SYS$0
100
AcDbAlignedDimension
 13
1679.195121349205
 23
1701.580297614965
 33
0.0
 14
1679.195121349205
 24
1704.580297614965
 34
0.0
 50
90.0
100
AcDbRotatedDimension
  0
LINE
  5
D43E
330
1F
100
AcDbEntity
  8
AM_5
100
AcDbLine
 10
1604.861837821581
 20
1686.815420622962
 30
0.0
 11
1612.545171154914
 21
1686.815420622962
 31
0.0
  0
LINE
  5
D43F
330
1F
100
AcDbEntity
  8
AM_5
100
AcDbLine
 10
1612.545171154914
 20
1686.815420622962
 30
0.0
 11
1622.757148390883
 21
1696.791219448181
 31
0.0
  0
MTEXT
  5
D440
330
1F
100
AcDbEntity
  8
AM_5
 62
     2
100
AcDbMText
 10
1607.953504488247
 20
1690.065420622962
 30
0.0
 40
3.5
 41
0.0
 71
     5
 72
     1
  1
\U+220518
 73
     1
 44
1.0
1001
ACAD
1000
MTEXTBEGIN
1070
    73
1070
     1
1070
    44
1040
1.0
1070
    74
1070
     0
1000
MTEXTEND
  0
LINE
  5
D441
330
1F
100
AcDbEntity
  8
AM_5
100
AcDbLine
 10
1635.633094307527
 20
1709.369375781749
 30
0.0
 11
1622.757148390883
 21
1696.791219448181
 31
0.0
  0
INSERT
  5
D442
330
1F
100
AcDbEntity
  8
AM_5
100
AcDbBlockReference
  2
_DotSmall
 10
1635.633094307527
 20
1709.369375781749
 30
0.0
 41
3.00000000000002
 42
3.0
 43
3.0
 50
224.3297226604628
  0
INSERT
  5
D443
330
1F
100
AcDbEntity
  8
AM_5
100
AcDbBlockReference
  2
_DotSmall
 10
1622.757148390883
 20
1696.791219448182
 30
0.0
 41
3.000000000000021
 42
3.0
 43
3.0
 50
44.32972266046288
  0
LINE
  5
10AB2
330
1F
100
AcDbEntity
  8
AM_0
 48
0.9
100
AcDbLine
 10
1637.545121349204
 20
1617.892057636909
 30
0.0
 11
1620.845121349205
 21
1617.892057636909
 31
0.0
  0
LINE
  5
10AB3
330
1F
100
AcDbEntity
  8
AM_0
 48
0.85
100
AcDbLine
 10
1621.345121349205
 20
1618.392057636909
 30
0.0
 11
1637.045121349204
 21
1618.392057636909
 31
0.0
  0
LINE
  5
10AB4
330
1F
100
AcDbEntity
  8
AM_0
 48
0.15
100
AcDbLine
 10
1620.845121349205
 20
1617.892057636909
 30
0.0
 11
1621.345121349205
 21
1618.392057636909
 31
0.0
  0
LINE
  5
10AB5
330
1F
100
AcDbEntity
  8
AM_0
 48
0.15
100
AcDbLine
 10
1620.845121349205
 20
1617.892057636909
 30
0.0
 11
1620.845121349205
 21
1615.392057636909
 31
0.0
  0
LINE
  5
10AB6
330
1F
100
AcDbEntity
  8
AM_0
 48
0.15
100
AcDbLine
 10
1637.545121349204
 20
1617.892057636909
 30
0.0
 11
1637.545121349204
 21
1615.392057636909
 31
0.0
  0
LINE
  5
10AB7
330
1F
100
AcDbEntity
  8
AM_0
 48
0.15
100
AcDbLine
 10
1637.545121349204
 20
1617.892057636909
 30
0.0
 11
1637.045121349204
 21
1618.392057636909
 31
0.0
  0
ENDSEC
  0
SECTION
  2
OBJECTS
  0
DICTIONARY
  5
C
330
0
100
AcDbDictionary
281
     1
  3
ACAD_2007HEADERVARS_RT
350
111CE
  3
ACAD_BGPLOT_KEY
350
AB06
  3
ACAD_COLOR
350
A91D
  3
ACAD_GROUP
350
D
  3
ACAD_LAYOUT
350
1A
  3
ACAD_MATERIAL
350
A91C
  3
ACAD_MLINESTYLE
350
17
  3
ACAD_PLOTSETTINGS
350
19
  3
ACAD_PLOTSTYLENAME
350
E
  3
ACAD_TABLESTYLE
350
AAB9
  3
ACAD_VISUALSTYLE
350
B0F1
  3
AcAsAppObject
350
3DA1
  3
ACASGREF_MASTER
350
3DE9
  3
AcDbVariableDictionary
350
34
  3
AcmDictionary
350
47
  3
AD_GREF_MODULE
350
3DEA
  3
AD_MAPI_MODULE
350
3E06
  3
AMG
350
2B
  3
AMGSNAPSETTINGS
350
7D
  3
ASE_INDEX_DICTIONARY
350
B331
  3
DWGPROPS
350
111CD
  3
MAPISURF_MODULE
350
3DEB
  0
DICTIONARY
  5
3F95
330
2
100
AcDbDictionary
280
     1
281
     1
  3
ACAD_LAYERFILTERS
360
B426
  3
ACAD_LAYERSTATES
360
3F96
  3
ACLYDICTIONARY
360
B425
  3
AMLAYER_GROUPCOLORS
360
AAB4
  0
DICTIONARY
  5
8A
330
1F
100
AcDbDictionary
280
     1
281
     1
  3
ACAD_SORTENTS
360
B1BA
  0
DICTIONARY
  5
111CE
102
{ACAD_REACTORS
330
C
102
}
330
C
100
AcDbDictionary
281
     1
  3
DIMARCSYM
350
111CF
  0
DICTIONARY
  5
AB06
102
{ACAD_REACTORS
330
C
102
}
330
C
100
AcDbDictionary
280
     1
281
     1
  0
DICTIONARY
  5
A91D
102
{ACAD_REACTORS
330
C
102
}
330
C
100
AcDbDictionary
281
     1
  0
DICTIONARY
  5
D
102
{ACAD_REACTORS
330
C
102
}
330
C
100
AcDbDictionary
281
     1
  0
DICTIONARY
  5
1A
102
{ACAD_REACTORS
330
C
102
}
330
C
100
AcDbDictionary
281
     1
  3
Model
350
22
  3
ﾚｲｱｳﾄ1
350
1E
  3
ﾚｲｱｳﾄ2
350
26
  0
DICTIONARY
  5
A91C
102
{ACAD_REACTORS
330
C
102
}
330
C
100
AcDbDictionary
281
     1
  3
ByBlock
350
B0EF
  3
ByLayer
350
B0EE
  3
Global
350
B0F0
  0
DICTIONARY
  5
17
102
{ACAD_REACTORS
330
C
102
}
330
C
100
AcDbDictionary
281
     1
  3
Standard
350
18
  0
DICTIONARY
  5
19
102
{ACAD_REACTORS
330
C
102
}
330
C
100
AcDbDictionary
281
     1
  3
01 A3フィット
350
B46C
  3
02 A3
350
B46D
  3
03 A2フィット
350
B46E
  3
04 A2
350
B46F
  3
05 A1フィット
350
B470
  3
06 A1
350
B471
  3
06 A4フィット
350
B472
  3
07 A4
350
B473
  0
ACDBDICTIONARYWDFLT
  5
E
102
{ACAD_REACTORS
330
C
102
}
330
C
100
AcDbDictionary
281
     1
  3
Normal
350
F
100
AcDbDictionaryWithDefault
340
F
  0
DICTIONARY
  5
AAB9
102
{ACAD_REACTORS
330
C
102
}
330
C
100
AcDbDictionary
281
     1
  3
Standard
350
AABA
  0
DICTIONARY
  5
B0F1
102
{ACAD_REACTORS
330
C
102
}
330
C
100
AcDbDictionary
281
     1
  3
2dWireframe
350
B0F7
  3
3D Hidden
350
B0F9
  3
3dWireframe
350
B0F8
  3
Basic
350
B0F6
  3
Brighten
350
B0FD
  3
ColorChange
350
B101
  3
Conceptual
350
B0FA
  3
Dim
350
B0FC
  3
Facepattern
350
B100
  3
Flat
350
B0F2
  3
FlatWithEdges
350
B0F3
  3
Gouraud
350
B0F4
  3
GouraudWithEdges
350
B0F5
  3
Linepattern
350
B0FF
  3
Realistic
350
B0FB
  3
Thicken
350
B0FE
  0
ACAD_PROXY_OBJECT
  5
3DA1
102
{ACAD_REACTORS
330
C
102
}
330
C
100
AcDbProxyObject
 90
      499
 91
      576
 95
   917527
 70
     0
 93
       10
310
407F
 94
        0
1001
ACAD
1000
AcRTDxfName
1000
ASAPP
  0
ACAD_PROXY_OBJECT
  5
3DE9
102
{ACAD_REACTORS
330
C
102
}
330
C
100
AcDbProxyObject
 90
      499
 91
      581
 95
   917527
 70
     0
 93
       34
310
010000407F
 94
        0
1001
ACAD
1000
AcRTDxfName
1000
ACASGREFMASTER
  0
DICTIONARY
  5
34
102
{ACAD_REACTORS
330
C
102
}
330
C
100
AcDbDictionary
281
     1
  3
CTABLESTYLE
350
AAF3
  3
DIMASSOC
350
A10C
  3
FIELDEVAL
350
AB07
  3
INDEXCTL
350
35
  3
SORTENTS
350
194C
  0
DICTIONARY
  5
47
102
{ACAD_REACTORS
330
C
102
}
330
C
100
AcDbDictionary
281
     1
  3
AcmBOM
350
7E8
  3
AcmStdDictionary
350
4C
  3
AMDTSECTSYM_ARROWCOLOR
350
A929
  0
ACAD_PROXY_OBJECT
  5
3DEA
102
{ACAD_REACTORS
330
C
102
}
330
C
100
AcDbProxyObject
 90
      499
 91
      582
 95
   917527
 70
     0
 93
      114
310
00000043800000000000000000003F
 94
        0
1001
ACAD
1000
AcRTDxfName
1000
ACADGREFMODULE
  0
ACAD_PROXY_OBJECT
  5
3E06
102
{ACAD_REACTORS
330
C
102
}
330
C
100
AcDbProxyObject
 90
      499
 91
      594
 95
   917527
 70
     0
 93
       34
310
05000044FF
 94
        0
1001
ACAD
1000
AcRTDxfName
1000
MAPIADMODULE
  0
DICTIONARY
  5
2B
102
{ACAD_REACTORS
330
C
102
}
330
C
100
AcDbDictionary
281
     1
  0
DICTIONARY
  5
7D
102
{ACAD_REACTORS
330
C
102
}
330
C
100
AcDbDictionary
281
     1
  0
DICTIONARY
  5
B331
102
{ACAD_REACTORS
330
C
102
}
330
C
100
AcDbDictionary
281
     1
  3
ASEBlockHierarchyIndexRecord
350
B332
1001
DCO15
1040
1594111214.218
  0
XRECORD
  5
111CD
102
{ACAD_REACTORS
330
C
102
}
330
C
100
AcDbXrecord
280
     1
  1
DWGPROPS COOKIE
  2

  3

  4

  6

  7

  8
Administrator
  9

300
AmdtFileType=84
301
=
302
=
303
=
304
=
305
=
306
=
307
=
308
=
309
=
 40
0.082119675925926
 41
2455349.629248217
 42
2455349.711363021
  1

 90
        1
  0
ACAD_PROXY_OBJECT
  5
3DEB
102
{ACAD_REACTORS
330
C
102
}
330
C
100
AcDbProxyObject
 90
      499
 91
      583
 95
   917527
 70
     0
 93
        8
310
047E
 94
        0
1001
ACAD
1000
AcRTDxfName
1000
AMDTMAPISURFMOUDULE
  0
DICTIONARY
  5
B426
102
{ACAD_REACTORS
330
3F95
102
}
330
3F95
100
AcDbDictionary
281
     1
  0
DICTIONARY
  5
3F96
102
{ACAD_REACTORS
330
3F95
102
}
330
3F95
100
AcDbDictionary
281
     1
  3
20011210
350
3FB7
  0
DICTIONARY
  5
B425
102
{ACAD_REACTORS
330
3F95
102
}
330
3F95
100
AcDbDictionary
281
     1
1001
ACAD
1000
<All
  0
DICTIONARY
  5
AAB4
102
{ACAD_REACTORS
330
3F95
102
}
330
3F95
100
AcDbDictionary
280
     1
281
     1
  0
SORTENTSTABLE
  5
B1BA
102
{ACAD_REACTORS
330
8A
102
}
330
8A
100
AcDbSortentsTable
330
1F
331
B513
  5
B512
331
B511
  5
B510
331
B50F
  5
B50E
331
B51A
  5
B519
331
B518
  5
B517
331
B516
  5
B515
331
B514
  5
B513
331
B512
  5
B511
331
B510
  5
B50F
331
B519
  5
B518
331
B517
  5
B516
331
B515
  5
B514
  0
XRECORD
  5
111CF
102
{ACAD_REACTORS
330
111CE
102
}
330
111CE
100
AcDbXrecord
280
     1
 70
     1
  0
LAYOUT
  5
22
102
{ACAD_XDICTIONARY
360
111D2
102
}
102
{ACAD_REACTORS
330
1A
102
}
330
1A
100
AcDbPlotSettings
  1

  2
クセロPDF2
  4
A4
  6
AM_VIEW1
 40
3.174999952316284
 41
3.174999952316284
 42
3.175003051757812
 43
3.17498779296875
 44
209.9733276367187
 45
296.9259948730469
 46
0.0
 47
1.29722400222505
 48
1452.093689170056
 49
1357.984262209774
140
2046.093689170056
141
1777.984262209774
142
1.0
143
2.062632072026713
 70
  3764
 72
     1
 73
     1
 74
     4
  7
monochrome.ctb
 75
     0
147
0.4848174396015349
148
-1452.093689170056
149
-1357.984262209774
100
AcDbLayout
  1
Model
 70
     1
 71
     0
 10
0.0
 20
0.0
 11
12.0
 21
9.0
 12
0.0
 22
0.0
 32
0.0
 14
0.0
 24
0.0
 34
0.0
 15
0.0
 25
0.0
 35
0.0
146
0.0
 13
0.0
 23
0.0
 33
0.0
 16
1.0
 26
0.0
 36
0.0
 17
0.0
 27
1.0
 37
0.0
 76
     0
330
1F
331
B0EC
1001
ACAD_PSEXT
1000
クセロPDF2
1000
XeloPDF2
1000
Xelo PDF Port2
1000

1070
     0
  0
LAYOUT
  5
1E
102
{ACAD_XDICTIONARY
360
111D0
102
}
102
{ACAD_REACTORS
330
1A
102
}
330
1A
100
AcDbPlotSettings
  1

  2
\\ML370\XEROX
  4
A4
  6

 40
3.174999952316284
 41
3.174999952316284
 42
3.175003051757812
 43
3.17498779296875
 44
209.8674926757813
 45
296.6719970703125
 46
0.0
 47
0.0
 48
0.0
 49
0.0
140
0.0
141
0.0
142
1.0
143
1.0
 70
   688
 72
     1
 73
     1
 74
     5
  7
monochrome.ctb
 75
    16
147
1.0
148
0.0
149
0.0
100
AcDbLayout
  1
ﾚｲｱｳﾄ1
 70
     1
 71
     1
 10
-3.17498779296875
 20
-3.174999952316284
 11
293.4970092773438
 21
206.692492723465
 12
0.0
 22
0.0
 32
0.0
 14
1.000000000000000E+20
 24
1.000000000000000E+20
 34
1.000000000000000E+20
 15
-1.000000000000000E+20
 25
-1.000000000000000E+20
 35
-1.000000000000000E+20
146
0.0
 13
0.0
 23
0.0
 33
0.0
 16
1.0
 26
0.0
 36
0.0
 17
0.0
 27
1.0
 37
0.0
 76
     0
330
1B
  0
LAYOUT
  5
26
102
{ACAD_XDICTIONARY
360
111D4
102
}
102
{ACAD_REACTORS
330
1A
102
}
330
1A
100
AcDbPlotSettings
  1

  2
\\ML370\XEROX
  4

  6

 40
0.0
 41
0.0
 42
0.0
 43
0.0
 44
0.0
 45
0.0
 46
0.0
 47
0.0
 48
0.0
 49
0.0
140
0.0
141
0.0
142
1.0
143
1.0
 70
   688
 72
     0
 73
     0
 74
     5
  7
monochrome.ctb
 75
    16
147
1.0
148
0.0
149
0.0
100
AcDbLayout
  1
ﾚｲｱｳﾄ2
 70
     1
 71
     2
 10
0.0
 20
0.0
 11
12.0
 21
9.0
 12
0.0
 22
0.0
 32
0.0
 14
0.0
 24
0.0
 34
0.0
 15
0.0
 25
0.0
 35
0.0
146
0.0
 13
0.0
 23
0.0
 33
0.0
 16
1.0
 26
0.0
 36
0.0
 17
0.0
 27
1.0
 37
0.0
 76
     0
330
23
  0
MATERIAL
  5
B0EF
102
{ACAD_XDICTIONARY
360
111DA
102
}
102
{ACAD_REACTORS
330
A91C
102
}
330
A91C
100
AcDbMaterial
  1
ByBlock
  0
MATERIAL
  5
B0EE
102
{ACAD_XDICTIONARY
360
111D8
102
}
102
{ACAD_REACTORS
330
A91C
102
}
330
A91C
100
AcDbMaterial
  1
ByLayer
  0
MATERIAL
  5
B0F0
102
{ACAD_XDICTIONARY
360
111DC
102
}
102
{ACAD_REACTORS
330
A91C
102
}
330
A91C
100
AcDbMaterial
  1
Global
  0
MLINESTYLE
  5
18
102
{ACAD_REACTORS
330
17
102
}
330
17
100
AcDbMlineStyle
  2
STANDARD
 70
     0
  3

 62
   256
 51
90.0
 52
90.0
 71
     2
 49
0.5
 62
   256
  6
BYLAYER
 49
-0.5
 62
   256
  6
BYLAYER
  0
PLOTSETTINGS
  5
B46C
102
{ACAD_XDICTIONARY
360
111DE
102
}
102
{ACAD_REACTORS
330
19
102
}
330
19
100
AcDbPlotSettings
  1
01 A3フィット
  2
FX DocuWide 2050/2051
  4
A3
  6

 40
3.174999952316284
 41
3.174999952316284
 42
3.17498779296875
 43
3.17498779296875
 44
296.989501953125
 45
419.9889831542968
 46
0.0
 47
1.295841228961961
 48
214.3704939521119
 49
367.5855324241176
140
275.6727856380065
141
407.629191407817
142
1.0
143
1.445089120606129
 70
  3764
 72
     1
 73
     1
 74
     2
  7
monochrome.ctb
 75
     0
147
0.6919988433519999
148
0.0
149
0.0
1001
ACAD_PSEXT
1000
FX DocuWide 2050/2051
1000
FX DocuWide 2050/2051
1000
IP_192.200.15.252
1000

1070
     0
  0
PLOTSETTINGS
  5
B46D
102
{ACAD_XDICTIONARY
360
111E0
102
}
102
{ACAD_REACTORS
330
19
102
}
330
19
100
AcDbPlotSettings
  1
02 A3
  2
FX DocuWide 2050/2051
  4
A3
  6

 40
3.174999952316284
 41
3.174999952316284
 42
3.17498779296875
 43
3.17498779296875
 44
296.989501953125
 45
419.9889831542968
 46
-64.68024289608002
 47
-90.18050229549407
 48
214.3704939521119
 49
367.5855324241176
140
275.6727856380065
141
407.629191407817
142
1.0
143
1.0
 70
  3764
 72
     1
 73
     1
 74
     2
  7
monochrome.ctb
 75
    16
147
1.0
148
0.0
149
0.0
1001
ACAD_PSEXT
1000
FX DocuWide 2050/2051
1000
FX DocuWide 2050/2051
1000
IP_192.200.15.252
1000

1070
     0
  0
PLOTSETTINGS
  5
B46E
102
{ACAD_XDICTIONARY
360
111E2
102
}
102
{ACAD_REACTORS
330
19
102
}
330
19
100
AcDbPlotSettings
  1
03 A2フィット
  2
FX DocuWide 2050/2051
  4
User66
  6

 40
3.174999952316284
 41
3.174999952316284
 42
3.17498779296875
 43
3.17498779296875
 44
419.9889831542968
 45
593.97900390625
 46
0.0
 47
1.312647041252716
 48
214.3704939521119
 49
367.5855324241176
140
275.6727856380065
141
407.629191407817
142
1.0
143
1.015378155013403
 70
  3764
 72
     1
 73
     1
 74
     2
  7
monochrome.ctb
 75
     0
147
0.9848547509738377
148
0.0
149
0.0
1001
ACAD_PSEXT
1000
FX DocuWide 2050/2051
1000
FX DocuWide 2050/2051
1000
IP_192.200.15.252
1000

1070
     0
  0
PLOTSETTINGS
  5
B46F
102
{ACAD_XDICTIONARY
360
111E4
102
}
102
{ACAD_REACTORS
330
19
102
}
330
19
100
AcDbPlotSettings
  1
04 A2
  2
FX DocuWide 2050/2051
  4
User66
  6

 40
3.174999952316284
 41
3.174999952316284
 42
3.17498779296875
 43
3.17498779296875
 44
419.9889831542968
 45
593.97900390625
 46
-3.180502295494079
 47
-3.185491919517517
 48
214.3704939521119
 49
367.5855324241176
140
275.6727856380065
141
407.629191407817
142
1.0
143
1.0
 70
  3764
 72
     1
 73
     1
 74
     2
  7
monochrome.ctb
 75
    16
147
1.0
148
0.0
149
0.0
1001
ACAD_PSEXT
1000
FX DocuWide 2050/2051
1000
FX DocuWide 2050/2051
1000
IP_192.200.15.252
1000

1070
     0
  0
PLOTSETTINGS
  5
B470
102
{ACAD_XDICTIONARY
360
111E6
102
}
102
{ACAD_REACTORS
330
19
102
}
330
19
100
AcDbPlotSettings
  1
05 A1フィット
  2
FX DocuWide 2050/2051
  4
User139
  6

 40
3.174999952316284
 41
3.174999952316284
 42
3.17498779296875
 43
3.17498779296875
 44
593.97900390625
 45
840.9939575195313
 46
0.0
 47
1.784323459012171
 48
214.3704939521119
 49
367.5855324241176
140
275.6727856380065
141
407.629191407817
142
1.0
143
0.7147366594384652
 70
  3764
 72
     1
 73
     1
 74
     2
  7
monochrome.ctb
 75
     0
147
1.399116705145154
148
0.0
149
0.0
1001
ACAD_PSEXT
1000
FX DocuWide 2050/2051
1000
FX DocuWide 2050/2051
1000
IP_192.200.15.252
1000

1070
     0
  0
PLOTSETTINGS
  5
B471
102
{ACAD_XDICTIONARY
360
111E8
102
}
102
{ACAD_REACTORS
330
19
102
}
330
19
100
AcDbPlotSettings
  1
06 A1
  2
FX DocuWide 2050/2051
  4
User139
  6

 40
3.174999952316284
 41
3.174999952316284
 42
3.17498779296875
 43
3.17498779296875
 44
593.97900390625
 45
840.9939575195313
 46
83.81450808048247
 47
120.3219848871231
 48
214.3704939521119
 49
367.5855324241176
140
275.6727856380065
141
407.629191407817
142
1.0
143
1.0
 70
  3764
 72
     1
 73
     1
 74
     2
  7
monochrome.ctb
 75
    16
147
1.0
148
0.0
149
0.0
1001
ACAD_PSEXT
1000
FX DocuWide 2050/2051
1000
FX DocuWide 2050/2051
1000
IP_192.200.15.252
1000

1070
     0
  0
PLOTSETTINGS
  5
B472
102
{ACAD_XDICTIONARY
360
111EA
102
}
102
{ACAD_REACTORS
330
19
102
}
330
19
100
AcDbPlotSettings
  1
06 A4フィット
  2
FX DocuWide 2050/2051
  4
A4
  6

 40
3.174999952316284
 41
3.174999952316284
 42
3.175003051757812
 43
3.17498779296875
 44
209.9944915771484
 45
296.989501953125
 46
0.0
 47
1.314011612960285
 48
214.3704939521119
 49
367.5855324241176
140
275.6727856380065
141
407.629191407817
142
1.0
143
2.06241771109504
 70
  3764
 72
     1
 73
     1
 74
     2
  7
monochrome.ctb
 75
     0
147
0.4848678299358913
148
0.0
149
0.0
1001
ACAD_PSEXT
1000
FX DocuWide 2050/2051
1000
FX DocuWide 2050/2051
1000
IP_192.200.15.252
1000

1070
     0
  0
PLOTSETTINGS
  5
B473
102
{ACAD_XDICTIONARY
360
111EC
102
}
102
{ACAD_REACTORS
330
19
102
}
330
19
100
AcDbPlotSettings
  1
07 A4
  2
FX DocuWide 2050/2051
  4
A4
  6

 40
3.174999952316284
 41
3.174999952316284
 42
3.175003051757812
 43
3.17498779296875
 44
209.9944915771484
 45
296.989501953125
 46
-108.1777557134628
 47
-151.68024289608
 48
214.3704939521119
 49
367.5855324241176
140
275.6727856380065
141
407.629191407817
142
1.0
143
1.0
 70
  3764
 72
     1
 73
     1
 74
     2
  7
monochrome.ctb
 75
    16
147
1.0
148
0.0
149
0.0
1001
ACAD_PSEXT
1000
FX DocuWide 2050/2051
1000
FX DocuWide 2050/2051
1000
IP_192.200.15.252
1000

1070
     0
  0
ACDBPLACEHOLDER
  5
F
102
{ACAD_REACTORS
330
E
102
}
330
E
  0
TABLESTYLE
  5
AABA
102
{ACAD_XDICTIONARY
360
111D6
102
}
102
{ACAD_REACTORS
330
AAB9
102
}
330
AAB9
100
AcDbTableStyle
  3
Standard
 70
     0
 71
     0
 40
1.5
 41
1.5
280
     0
281
     0
  7
STANDARD
140
4.5
170
     2
 62
     0
 63
     7
283
     0
274
    -2
284
     1
 64
     0
275
    -2
285
     1
 65
     0
276
    -2
286
     1
 66
     0
277
    -2
287
     1
 67
     0
278
    -2
288
     1
 68
     0
279
    -2
289
     1
 69
     0
  7
STANDARD
140
6.0
170
     5
 62
     0
 63
     7
283
     0
274
    -2
284
     1
 64
     0
275
    -2
285
     1
 65
     0
276
    -2
286
     1
 66
     0
277
    -2
287
     1
 67
     0
278
    -2
288
     1
 68
     0
279
    -2
289
     1
 69
     0
  7
STANDARD
140
4.5
170
     5
 62
     0
 63
     7
283
     0
274
    -2
284
     1
 64
     0
275
    -2
285
     1
 65
     0
276
    -2
286
     1
 66
     0
277
    -2
287
     1
 67
     0
278
    -2
288
     1
 68
     0
279
    -2
289
     1
 69
     0
  0
VISUALSTYLE
  5
B0F7
102
{ACAD_REACTORS
330
B0F1
102
}
330
B0F1
100
AcDbVisualStyle
  2
2dWireframe
 70
     4
 71
     0
 72
     2
 73
     0
 90
        0
 40
-0.6
 41
-30.0
 62
     5
 63
     7
 74
     1
 91
        4
 64
     7
 65
   257
 75
     1
175
     1
 42
1.0
 92
        0
 66
   257
 43
1.0
 76
     1
 77
     6
 78
     2
 67
     7
 79
     5
170
     0
171
     0
290
     0
174
     0
 93
        1
 44
0.0
173
     0
291
     0
 45
0.0
1001
ACAD
1000
AcDbSavedByObjectVersion
1070
     0
  0
VISUALSTYLE
  5
B0F9
102
{ACAD_REACTORS
330
B0F1
102
}
330
B0F1
100
AcDbVisualStyle
  2
3D Hidden
 70
     6
 71
     1
 72
     2
 73
     2
 90
        0
 40
-0.6
 41
-30.0
 62
     5
 63
     7
 74
     2
 91
        2
 64
     7
 65
   257
 75
     2
175
     1
 42
40.0
 92
        0
 66
   257
 43
1.0
 76
     1
 77
     6
 78
     2
 67
     7
 79
     3
170
     0
171
     0
290
     0
174
     0
 93
        1
 44
0.0
173
     0
291
     0
 45
0.0
1001
ACAD
1000
AcDbSavedByObjectVersion
1070
     0
  0
VISUALSTYLE
  5
B0F8
102
{ACAD_REACTORS
330
B0F1
102
}
330
B0F1
100
AcDbVisualStyle
  2
3dWireframe
 70
     5
 71
     0
 72
     2
 73
     0
 90
        0
 40
-0.6
 41
-30.0
 62
     5
 63
     7
 74
     1
 91
        4
 64
     7
 65
   257
 75
     1
175
     1
 42
1.0
 92
        0
 66
   257
 43
1.0
 76
     1
 77
     6
 78
     2
 67
     7
 79
     5
170
     0
171
     0
290
     0
174
     0
 93
        1
 44
0.0
173
     0
291
     0
 45
0.0
1001
ACAD
1000
AcDbSavedByObjectVersion
1070
     0
  0
VISUALSTYLE
  5
B0F6
102
{ACAD_REACTORS
330
B0F1
102
}
330
B0F1
100
AcDbVisualStyle
  2
Basic
 70
     7
 71
     1
 72
     0
 73
     1
 90
        0
 40
-0.6
 41
-30.0
 62
     5
 63
     7
 74
     0
 91
        4
 64
     7
 65
   257
 75
     1
175
     1
 42
1.0
 92
        8
 66
     7
 43
1.0
 76
     1
 77
     6
 78
     2
 67
     7
 79
     5
170
     0
171
     0
290
     0
174
     0
 93
        1
 44
0.0
173
     0
291
     1
 45
0.0
1001
ACAD
1000
AcDbSavedByObjectVersion
1070
     0
  0
VISUALSTYLE
  5
B0FD
102
{ACAD_REACTORS
330
B0F1
102
}
330
B0F1
100
AcDbVisualStyle
  2
Brighten
 70
    12
 71
     2
 72
     2
 73
     0
 90
        0
 40
-0.6
 41
-30.0
 62
     5
 63
     7
 74
     1
 91
        4
 64
     7
 65
   257
 75
     1
175
     1
 42
1.0
 92
        8
 66
     7
 43
1.0
 76
     1
 77
     6
 78
     2
 67
     7
 79
     5
170
     0
171
     0
290
     0
174
     0
 93
        1
 44
50.0
173
     0
291
     1
 45
0.0
1001
ACAD
1000
AcDbSavedByObjectVersion
1070
     0
  0
VISUALSTYLE
  5
B101
102
{ACAD_REACTORS
330
B0F1
102
}
330
B0F1
100
AcDbVisualStyle
  2
ColorChange
 70
    16
 71
     2
 72
     2
 73
     3
 90
        0
 40
-0.6
 41
-30.0
 62
     5
 63
     8
 74
     1
 91
        4
 64
     7
 65
   257
 75
     1
175
     1
 42
1.0
 92
        8
 66
     8
 43
1.0
 76
     1
 77
     6
 78
     2
 67
     7
 79
     5
170
     0
171
     0
290
     0
174
     0
 93
        1
 44
0.0
173
     0
291
     1
 45
0.0
1001
ACAD
1000
AcDbSavedByObjectVersion
1070
     0
  0
VISUALSTYLE
  5
B0FA
102
{ACAD_REACTORS
330
B0F1
102
}
330
B0F1
100
AcDbVisualStyle
  2
Conceptual
 70
     9
 71
     3
 72
     2
 73
     0
 90
        0
 40
-0.6
 41
-30.0
 62
     5
 63
     7
 74
     2
 91
        2
 64
     7
 65
   257
 75
     1
175
     1
 42
40.0
 92
        8
 66
     7
 43
1.0
 76
     1
 77
     6
 78
     2
 67
     7
 79
     3
170
     0
171
     0
290
     0
174
     0
 93
        1
 44
0.0
173
     0
291
     0
 45
0.0
1001
ACAD
1000
AcDbSavedByObjectVersion
1070
     0
  0
VISUALSTYLE
  5
B0FC
102
{ACAD_REACTORS
330
B0F1
102
}
330
B0F1
100
AcDbVisualStyle
  2
Dim
 70
    11
 71
     2
 72
     2
 73
     0
 90
        0
 40
-0.6
 41
-30.0
 62
     5
 63
     7
 74
     1
 91
        4
 64
     7
 65
   257
 75
     1
175
     1
 42
1.0
 92
        8
 66
     7
 43
1.0
 76
     1
 77
     6
 78
     2
 67
     7
 79
     5
170
     0
171
     0
290
     0
174
     0
 93
        1
 44
-50.0
173
     0
291
     1
 45
0.0
1001
ACAD
1000
AcDbSavedByObjectVersion
1070
     0
  0
VISUALSTYLE
  5
B100
102
{ACAD_REACTORS
330
B0F1
102
}
330
B0F1
100
AcDbVisualStyle
  2
Facepattern
 70
    15
 71
     2
 72
     2
 73
     0
 90
        0
 40
-0.6
 41
-30.0
 62
     5
 63
     7
 74
     1
 91
        4
 64
     7
 65
   257
 75
     1
175
     1
 42
1.0
 92
        8
 66
     7
 43
1.0
 76
     1
 77
     6
 78
     2
 67
     7
 79
     5
170
     0
171
     0
290
     0
174
     0
 93
        1
 44
0.0
173
     0
291
     1
 45
0.0
1001
ACAD
1000
AcDbSavedByObjectVersion
1070
     0
  0
VISUALSTYLE
  5
B0F2
102
{ACAD_REACTORS
330
B0F1
102
}
330
B0F1
100
AcDbVisualStyle
  2
Flat
 70
     0
 71
     2
 72
     1
 73
     1
 90
        2
 40
-0.6
 41
30.0
 62
     5
 63
     7
 74
     0
 91
        4
 64
     7
 65
   257
 75
     1
175
     1
 42
1.0
 92
        8
 66
     7
 43
1.0
 76
     1
 77
     6
 78
     2
 67
     7
 79
     5
170
     0
171
     0
290
     0
174
     0
 93
       13
 44
0.0
173
     0
291
     1
 45
0.0
1001
ACAD
1000
AcDbSavedByObjectVersion
1070
     0
  0
VISUALSTYLE
  5
B0F3
102
{ACAD_REACTORS
330
B0F1
102
}
330
B0F1
100
AcDbVisualStyle
  2
FlatWithEdges
 70
     1
 71
     2
 72
     1
 73
     1
 90
        2
 40
-0.6
 41
30.0
 62
     5
 63
     7
 74
     1
 91
        4
 64
     7
 65
   257
 75
     1
175
     1
 42
1.0
 92
        0
 66
   257
 43
1.0
 76
     1
 77
     6
 78
     2
 67
     7
 79
     5
170
     0
171
     0
290
     0
174
     0
 93
       13
 44
0.0
173
     0
291
     1
 45
0.0
1001
ACAD
1000
AcDbSavedByObjectVersion
1070
     0
  0
VISUALSTYLE
  5
B0F4
102
{ACAD_REACTORS
330
B0F1
102
}
330
B0F1
100
AcDbVisualStyle
  2
Gouraud
 70
     2
 71
     2
 72
     2
 73
     1
 90
        2
 40
-0.6
 41
30.0
 62
     5
 63
     7
 74
     0
 91
        4
 64
     7
 65
   257
 75
     1
175
     1
 42
1.0
 92
        0
 66
     7
 43
1.0
 76
     1
 77
     6
 78
     2
 67
     7
 79
     5
170
     0
171
     0
290
     0
174
     0
 93
       13
 44
0.0
173
     0
291
     1
 45
0.0
1001
ACAD
1000
AcDbSavedByObjectVersion
1070
     0
  0
VISUALSTYLE
  5
B0F5
102
{ACAD_REACTORS
330
B0F1
102
}
330
B0F1
100
AcDbVisualStyle
  2
GouraudWithEdges
 70
     3
 71
     2
 72
     2
 73
     1
 90
        2
 40
-0.6
 41
30.0
 62
     5
 63
     7
 74
     1
 91
        4
 64
     7
 65
   257
 75
     1
175
     1
 42
1.0
 92
        0
 66
   257
 43
1.0
 76
     1
 77
     6
 78
     2
 67
     7
 79
     5
170
     0
171
     0
290
     0
174
     0
 93
       13
 44
0.0
173
     0
291
     1
 45
0.0
1001
ACAD
1000
AcDbSavedByObjectVersion
1070
     0
  0
VISUALSTYLE
  5
B0FF
102
{ACAD_REACTORS
330
B0F1
102
}
330
B0F1
100
AcDbVisualStyle
  2
Linepattern
 70
    14
 71
     2
 72
     2
 73
     0
 90
        0
 40
-0.6
 41
-30.0
 62
     5
 63
     7
 74
     1
 91
        4
 64
     7
 65
   257
 75
     7
175
     7
 42
1.0
 92
        8
 66
     7
 43
1.0
 76
     1
 77
     6
 78
     2
 67
     7
 79
     5
170
     0
171
     0
290
     0
174
     0
 93
        1
 44
0.0
173
     0
291
     1
 45
0.0
1001
ACAD
1000
AcDbSavedByObjectVersion
1070
     0
  0
VISUALSTYLE
  5
B0FB
102
{ACAD_REACTORS
330
B0F1
102
}
330
B0F1
100
AcDbVisualStyle
  2
Realistic
 70
     8
 71
     2
 72
     2
 73
     0
 90
        0
 40
-0.6
 41
-30.0
 62
     5
 63
     7
 74
     1
 91
        0
 64
     7
 65
   257
 75
     1
175
     1
 42
1.0
 92
        8
 66
     8
 43
1.0
 76
     1
 77
     6
 78
     2
 67
     7
 79
     5
170
     0
171
     0
290
     0
174
     0
 93
       13
 44
0.0
173
     0
291
     0
 45
0.0
1001
ACAD
1000
AcDbSavedByObjectVersion
1070
     0
  0
VISUALSTYLE
  5
B0FE
102
{ACAD_REACTORS
330
B0F1
102
}
330
B0F1
100
AcDbVisualStyle
  2
Thicken
 70
    13
 71
     2
 72
     2
 73
     0
 90
        0
 40
-0.6
 41
-30.0
 62
     5
 63
     7
 74
     1
 91
        4
 64
     7
 65
   257
 75
     1
175
     1
 42
1.0
 92
       12
 66
     7
 43
1.0
 76
     1
 77
     6
 78
     2
 67
     7
 79
     5
170
     0
171
     0
290
     0
174
     0
 93
        1
 44
0.0
173
     0
291
     1
 45
0.0
1001
ACAD
1000
AcDbSavedByObjectVersion
1070
     0
  0
DICTIONARYVAR
  5
AAF3
102
{ACAD_REACTORS
330
34
102
}
330
34
100
DictionaryVariables
280
     0
  1
STANDARD
  0
DICTIONARYVAR
  5
A10C
102
{ACAD_REACTORS
330
34
102
}
330
34
100
DictionaryVariables
280
     0
  1
1
  0
DICTIONARYVAR
  5
AB07
102
{ACAD_REACTORS
330
34
102
}
330
34
100
DictionaryVariables
280
     0
  1
4
  0
DICTIONARYVAR
  5
35
102
{ACAD_REACTORS
330
34
102
}
330
34
100
DictionaryVariables
280
     0
  1
0
  0
DICTIONARYVAR
  5
194C
102
{ACAD_REACTORS
330
34
102
}
330
34
100
DictionaryVariables
280
     0
  1
96
  0
DICTIONARY
  5
7E8
102
{ACAD_REACTORS
330
47
102
}
330
47
100
AcDbDictionary
281
     1
  0
DICTIONARY
  5
4C
102
{ACAD_REACTORS
330
47
102
}
330
47
100
AcDbDictionary
281
     1
  0
XRECORD
  5
A929
102
{ACAD_REACTORS
330
47
102
}
330
47
100
AcDbXrecord
280
     1
 90
-1023410169
  0
XRECORD
  5
B332
102
{ACAD_REACTORS
330
B331
102
}
330
B331
100
AcDbXrecord
280
     1
  0
XRECORD
  5
3FB7
102
{ACAD_REACTORS
330
3F96
102
}
330
3F96
100
AcDbXrecord
280
     1
 91
        3
330
0
 90
        8
 62
     7
370
    40
331
16
  1
Color_7
330
0
 90
        0
 62
    14
370
    -3
331
16
  1
Color_14
330
0
 90
        8
 62
     7
370
    20
331
16
  1
Color_7
330
6D1
 90
        0
 62
     7
370
    -3
331
16
  1
Color_7
330
0
 90
        8
 62
     7
370
    50
331
16
  1
Color_7
330
0
 90
        8
 62
     2
370
    35
331
16
  1
Color_2
330
0
 90
        8
 62
     7
370
    -3
331
16
  1
Color_7
330
10
 90
        8
 62
     7
370
    -3
331
16
  1
Color_7
  0
DICTIONARY
  5
111D2
330
22
100
AcDbDictionary
280
     1
281
     1
  3
ACAD_XREC_ROUNDTRIP
360
111D3
  0
DICTIONARY
  5
111D0
330
1E
100
AcDbDictionary
280
     1
281
     1
  3
ACAD_XREC_ROUNDTRIP
360
111D1
  0
DICTIONARY
  5
111D4
330
26
100
AcDbDictionary
280
     1
281
     1
  3
ACAD_XREC_ROUNDTRIP
360
111D5
  0
DICTIONARY
  5
111DA
330
B0EF
100
AcDbDictionary
280
     1
281
     1
  3
ACAD_XREC_ROUNDTRIP
360
111DB
  0
DICTIONARY
  5
111D8
330
B0EE
100
AcDbDictionary
280
     1
281
     1
  3
ACAD_XREC_ROUNDTRIP
360
111D9
  0
DICTIONARY
  5
111DC
330
B0F0
100
AcDbDictionary
280
     1
281
     1
  3
ACAD_XREC_ROUNDTRIP
360
111DD
  0
DICTIONARY
  5
111DE
330
B46C
100
AcDbDictionary
280
     1
281
     1
  3
ACAD_XREC_ROUNDTRIP
360
111DF
  0
DICTIONARY
  5
111E0
330
B46D
100
AcDbDictionary
280
     1
281
     1
  3
ACAD_XREC_ROUNDTRIP
360
111E1
  0
DICTIONARY
  5
111E2
330
B46E
100
AcDbDictionary
280
     1
281
     1
  3
ACAD_XREC_ROUNDTRIP
360
111E3
  0
DICTIONARY
  5
111E4
330
B46F
100
AcDbDictionary
280
     1
281
     1
  3
ACAD_XREC_ROUNDTRIP
360
111E5
  0
DICTIONARY
  5
111E6
330
B470
100
AcDbDictionary
280
     1
281
     1
  3
ACAD_XREC_ROUNDTRIP
360
111E7
  0
DICTIONARY
  5
111E8
330
B471
100
AcDbDictionary
280
     1
281
     1
  3
ACAD_XREC_ROUNDTRIP
360
111E9
  0
DICTIONARY
  5
111EA
330
B472
100
AcDbDictionary
280
     1
281
     1
  3
ACAD_XREC_ROUNDTRIP
360
111EB
  0
DICTIONARY
  5
111EC
330
B473
100
AcDbDictionary
280
     1
281
     1
  3
ACAD_XREC_ROUNDTRIP
360
111ED
  0
DICTIONARY
  5
111D6
330
AABA
100
AcDbDictionary
280
     1
281
     1
  3
ACAD_XREC_ROUNDTRIP
360
111D7
  0
XRECORD
  5
111D3
102
{ACAD_REACTORS
330
111D2
102
}
330
111D2
100
AcDbXrecord
280
     1
102
SHADEPLOT
 70
     0
102
SHADEPLOTRESLEVEL
 70
     2
102
SHADEPLOTCUSTOMDPI
 70
   200
  0
XRECORD
  5
111D1
102
{ACAD_REACTORS
330
111D0
102
}
330
111D0
100
AcDbXrecord
280
     1
102
SHADEPLOT
 70
     0
102
SHADEPLOTRESLEVEL
 70
     2
102
SHADEPLOTCUSTOMDPI
 70
   300
  0
XRECORD
  5
111D5
102
{ACAD_REACTORS
330
111D4
102
}
330
111D4
100
AcDbXrecord
280
     1
102
SHADEPLOT
 70
     0
102
SHADEPLOTRESLEVEL
 70
     2
102
SHADEPLOTCUSTOMDPI
 70
   300
  0
XRECORD
  5
111DB
102
{ACAD_REACTORS
330
111DA
102
}
330
111DA
100
AcDbXrecord
280
     1
102
MATERIAL
148
0.0
149
0.0
149
0.0
 93
        0
 94
       63
282
     0
 72
     1
 77
     1
171
     1
175
     1
179
     1
273
     0
  0
XRECORD
  5
111D9
102
{ACAD_REACTORS
330
111D8
102
}
330
111D8
100
AcDbXrecord
280
     1
102
MATERIAL
148
0.0
149
0.0
149
0.0
 93
        0
 94
       63
282
     0
 72
     1
 77
     1
171
     1
175
     1
179
     1
273
     0
  0
XRECORD
  5
111DD
102
{ACAD_REACTORS
330
111DC
102
}
330
111DC
100
AcDbXrecord
280
     1
102
MATERIAL
148
0.0
149
0.0
149
0.0
 93
        0
 94
       63
282
     0
 72
     1
 77
     1
171
     1
175
     1
179
     1
273
     0
  0
XRECORD
  5
111DF
102
{ACAD_REACTORS
330
111DE
102
}
330
111DE
100
AcDbXrecord
280
     1
102
SHADEPLOT
 70
     0
102
SHADEPLOTRESLEVEL
 70
     2
102
SHADEPLOTCUSTOMDPI
 70
   200
  0
XRECORD
  5
111E1
102
{ACAD_REACTORS
330
111E0
102
}
330
111E0
100
AcDbXrecord
280
     1
102
SHADEPLOT
 70
     0
102
SHADEPLOTRESLEVEL
 70
     2
102
SHADEPLOTCUSTOMDPI
 70
   200
  0
XRECORD
  5
111E3
102
{ACAD_REACTORS
330
111E2
102
}
330
111E2
100
AcDbXrecord
280
     1
102
SHADEPLOT
 70
     0
102
SHADEPLOTRESLEVEL
 70
     2
102
SHADEPLOTCUSTOMDPI
 70
   200
  0
XRECORD
  5
111E5
102
{ACAD_REACTORS
330
111E4
102
}
330
111E4
100
AcDbXrecord
280
     1
102
SHADEPLOT
 70
     0
102
SHADEPLOTRESLEVEL
 70
     2
102
SHADEPLOTCUSTOMDPI
 70
   200
  0
XRECORD
  5
111E7
102
{ACAD_REACTORS
330
111E6
102
}
330
111E6
100
AcDbXrecord
280
     1
102
SHADEPLOT
 70
     0
102
SHADEPLOTRESLEVEL
 70
     2
102
SHADEPLOTCUSTOMDPI
 70
   200
  0
XRECORD
  5
111E9
102
{ACAD_REACTORS
330
111E8
102
}
330
111E8
100
AcDbXrecord
280
     1
102
SHADEPLOT
 70
     0
102
SHADEPLOTRESLEVEL
 70
     2
102
SHADEPLOTCUSTOMDPI
 70
   200
  0
XRECORD
  5
111EB
102
{ACAD_REACTORS
330
111EA
102
}
330
111EA
100
AcDbXrecord
280
     1
102
SHADEPLOT
 70
     0
102
SHADEPLOTRESLEVEL
 70
     2
102
SHADEPLOTCUSTOMDPI
 70
   200
  0
XRECORD
  5
111ED
102
{ACAD_REACTORS
330
111EC
102
}
330
111EC
100
AcDbXrecord
280
     1
102
SHADEPLOT
 70
     0
102
SHADEPLOTRESLEVEL
 70
     2
102
SHADEPLOTCUSTOMDPI
 70
   200
  0
XRECORD
  5
111D7
102
{ACAD_REACTORS
330
111D6
102
}
330
111D6
100
AcDbXrecord
280
     1
102
ACAD_ROUNDTRIP_PRE2007_TABLESTYLE
 90
        4
 91
        0
  1

 92
        4
 93
        0
  2

 94
        4
 95
        0
  3

  0
ENDSEC
  0
EOF
