  0
SECTION
  2
HEADER
  9
$EXTMAX
 10
170
 20
296
 30
0
  9
$EXTMIN
 10
-385
 20
-100
 30
0
  9
$LIMMAX
 10
170
 20
296
  9
$LIMMIN
 10
-385
 20
-100
  9
$PLIMMAX
 10
170
 20
296
  9
$PLIMMIN
 10
-385
 20
-100
  9
$TEXTSIZE
 40
3.2
  9
$DIMSHO
 70
     0
  9
$DIMASZ
 40
1.0
  9
$DIMTAD
 70
     1
  9
$DIMTIH
 70
     0
  9
$DIMTOH
 70
     0
  9
$DIMEXE
 40
2.54
  9
$DIMEXO
 40
2.54
  9
$DIMTVP
 40
1.0
  9
$DIMSAH
 70
     1
  9
$DIMDLE
 40
0.0
  9
$DIMTXT
 40
3.2
  9
$DIMGAP
 40
1.6
  0
ENDSEC
  0
SECTION
  2
TABLES
  0
TABLE
  2
LTYPE
 70
     6
  0
LTYPE
  2
CONTINUOUS
 70
    64
  3
Solid line
 72
    65
 73
     0
 40
0.0
  0
LTYPE
  2
DASHED
 70
    64
  3
__ __ __ __ __ __ __ __ __ __ __ __ __ __ __
 72
    65
 73
     2
 40
3.5
 49
2.0
 49
-1.5
  0
LTYPE
  2
CENTER
 70
    64
  3
____ _ ____ _ ____ _ ____ _ ____ _ ____ _ ____
 72
    65
 73
     4
 40
17.5
 49
13.0
 49
-1.5
 49
1.5
 49
-1.5
  0
LTYPE
  2
PHANTOM
 70
    64
  3
_____ _ _ _____ _ _ _____ _ _ _____ _ _ ____  
 72
    65
 73
     6
 40
15.5
 49
8.0
 49
-1.5
 49
1.5
 49
-1.5
 49
1.5
 49
-1.5
  0
LTYPE
  2
DOT
 70
    64
  3
. . . . . . . . . . . . . . . . . . . . . . . .
 72
    65
 73
     2
 40
0.25
 49
0.0
 49
-0.25
  0
LTYPE
  2
HIDDEN
 70
    64
  3
__ __ __ __ __ __ __ __ __ __ __ __ __ __ __
 72
    65
 73
     2
 40
3.5
 49
2.0
 49
-1.5
  0
ENDTAB
  0
TABLE
  2
LAYER
 70
     2
  0
LAYER
  2
0
 70
     0
 62
     7
  6
CONTINUOUS
  0
LAYER
  2
DEFPOINTS
 70
     0
 62
     7
  6
CONTINUOUS
  0
ENDTAB
  0
TABLE
  2
STYLE
 70
     1
  0
STYLE
  2
STANDARD
 70
     0
 40
0.0
 41
1.0
 50
0.0
 71
     0
 42
0.2
  3
txt
  4
BIGFONT
  0
ENDTAB
  0
TABLE
  2
DIMSTYLE
 70
     1
  0
DIMSTYLE
  2
DIMSTYLE
 70
     0
  3

  4

  5
_DOT
  6
_DOT
  7
_DOT
 40
1
 41
1
 42
2.54
 43
0.38
 44
2.54
 45
0
 46
0
 47
0
 48
0
140
3.2
141
0.09
142
0
143
25.4
144
1
145
0
146
1
147
1.6
 71
     0
 72
     0
 73
     0
 74
     0
 75
     0
 76
     0
 78
     0
170
     0
171
     2
 77
     0
172
     0
173
     1
174
     0
175
     0
176
     0
177
     0
178
     0
  0
ENDTAB
  0
ENDSEC
  0
SECTION
  2
BLOCKS
  0
BLOCK
  8
0
  2
_DOT
 70
    64
 10
0
 20
0
  3
_DOT
  0
POLYLINE
  8
0
  6
BYBLOCK
 62
     0
 66
     1
 10
0
 20
0
 70
     1
 40
0.40000001
 41
0.40000001
  0
VERTEX
  8
0
  6
BYBLOCK
 62
     0
 10
-0.2
 20
0
 42
1
  0
VERTEX
  8
0
  6
BYBLOCK
 62
     0
 10
0.2
 20
0
 42
1
  0
SEQEND
  8
0
  6
BYBLOCK
 62
     0
  0
LINE
  8
0
  6
BYBLOCK
 62
     0
 10
-0.40000001
 20
0
 11
-3
 21
0
  0
ENDBLK
  8
0
  0
BLOCK
  8
0
  2
*D1
 70
    65
 10
0
 20
0
  0
LINE
  8
0
  6
CONTINUOUS
 62
     7
 10
49.209244
 20
206.83594
 11
4.2092438
 21
206.83594
  0
INSERT
  8
0
  6
CONTINUOUS
 62
     7
  2
_DOT
 10
49.209244
 20
206.83594
  0
INSERT
  8
0
  6
CONTINUOUS
 62
     7
  2
_DOT
 10
4.2092438
 20
206.83594
 50
180
  0
LINE
  8
0
  6
CONTINUOUS
 62
     7
 10
49.209244
 20
190.63869
 11
49.209244
 21
208.03593
  0
LINE
  8
0
  6
CONTINUOUS
 62
     7
 10
4.2092438
 20
190.63869
 11
4.2092438
 21
208.03593
  0
TEXT
  8
0
  6
CONTINUOUS
 62
     7
 10
24.31995
 20
207.63594
 40
3.2
 41
1.028625
  1
45
  0
POINT
  8
DEFPOINTS
  6
CONTINUOUS
 62
     7
 10
49.209244
 20
188.09869
  0
POINT
  8
DEFPOINTS
  6
CONTINUOUS
 62
     7
 10
4.2092438
 20
188.09869
  0
POINT
  8
DEFPOINTS
  6
CONTINUOUS
 62
     7
 10
4.2092438
 20
206.83594
  0
ENDBLK
  8
0
  0
BLOCK
  8
0
  2
*D2
 70
    65
 10
0
 20
0
  0
LINE
  8
0
  6
CONTINUOUS
 62
     7
 10
-151.29077
 20
147.09869
 11
-141.29077
 21
147.09869
  0
INSERT
  8
0
  6
CONTINUOUS
 62
     7
  2
_DOT
 10
-151.29077
 20
147.09869
 50
180
  0
INSERT
  8
0
  6
CONTINUOUS
 62
     7
  2
_DOT
 10
-141.29077
 20
147.09869
  0
LINE
  8
0
  6
CONTINUOUS
 62
     7
 10
-151.29077
 20
167.28878
 11
-151.29077
 21
145.89868
  0
LINE
  8
0
  6
CONTINUOUS
 62
     7
 10
-141.29077
 20
166.85955
 11
-141.29077
 21
145.89868
  0
TEXT
  8
0
  6
CONTINUOUS
 62
     7
 10
-149.03377
 20
147.89869
 40
3.2
 41
1.4026704
  1
10
  0
POINT
  8
DEFPOINTS
  6
CONTINUOUS
 62
     7
 10
-151.29077
 20
169.82878
  0
POINT
  8
DEFPOINTS
  6
CONTINUOUS
 62
     7
 10
-141.29077
 20
169.39955
  0
POINT
  8
DEFPOINTS
  6
CONTINUOUS
 62
     7
 10
-141.29077
 20
147.09869
  0
ENDBLK
  8
0
  0
BLOCK
  8
0
  2
*D3
 70
    65
 10
0
 20
0
  0
LINE
  8
0
  6
CONTINUOUS
 62
     7
 10
-105.29076
 20
147.09869
 11
-141.29077
 21
147.09869
  0
INSERT
  8
0
  6
CONTINUOUS
 62
     7
  2
_DOT
 10
-105.29076
 20
147.09869
  0
INSERT
  8
0
  6
CONTINUOUS
 62
     7
  2
_DOT
 10
-141.29077
 20
147.09869
 50
180
  0
LINE
  8
0
  6
CONTINUOUS
 62
     7
 10
-105.29076
 20
167.15017
 11
-105.29076
 21
145.8987
  0
TEXT
  8
0
  6
CONTINUOUS
 62
     7
 10
-117.09914
 20
147.89869
 40
3.2
 41
1.028625
  1
36
  0
POINT
  8
DEFPOINTS
  6
CONTINUOUS
 62
     7
 10
-105.29076
 20
169.69017
  0
POINT
  8
DEFPOINTS
  6
CONTINUOUS
 62
     7
 10
-141.29077
 20
166.09869
  0
POINT
  8
DEFPOINTS
  6
CONTINUOUS
 62
     7
 10
-141.29077
 20
147.09869
  0
ENDBLK
  8
0
  0
BLOCK
  8
0
  2
*D4
 70
    65
 10
0
 20
0
  0
LINE
  8
0
  6
CONTINUOUS
 62
     7
 10
-105.29076
 20
147.09869
 11
-95.290756
 21
147.09869
  0
INSERT
  8
0
  6
CONTINUOUS
 62
     7
  2
_DOT
 10
-105.29076
 20
147.09869
 50
180
  0
INSERT
  8
0
  6
CONTINUOUS
 62
     7
  2
_DOT
 10
-95.290756
 20
147.09869
  0
LINE
  8
0
  6
CONTINUOUS
 62
     7
 10
-95.290756
 20
166.97579
 11
-95.290756
 21
145.89868
  0
TEXT
  8
0
  6
CONTINUOUS
 62
     7
 10
-103.03376
 20
147.89869
 40
3.2
 41
1.4026704
  1
10
  0
POINT
  8
DEFPOINTS
  6
CONTINUOUS
 62
     7
 10
-105.29076
 20
166.09869
  0
POINT
  8
DEFPOINTS
  6
CONTINUOUS
 62
     7
 10
-95.290756
 20
169.51579
  0
POINT
  8
DEFPOINTS
  6
CONTINUOUS
 62
     7
 10
-95.290756
 20
147.09869
  0
ENDBLK
  8
0
  0
BLOCK
  8
0
  2
*D5
 70
    65
 10
0
 20
0
  0
LINE
  8
0
  6
CONTINUOUS
 62
     7
 10
-5.7907562
 20
184.09869
 11
-5.7907562
 21
198.46823
  0
LINE
  8
0
  6
CONTINUOUS
 62
     7
 10
-5.7907562
 20
184.09869
 11
-5.7907562
 21
168.09869
  0
INSERT
  8
0
  6
CONTINUOUS
 62
     7
  2
_DOT
 10
-5.7907562
 20
184.09869
 50
90
  0
INSERT
  8
0
  6
CONTINUOUS
 62
     7
  2
_DOT
 10
-5.7907562
 20
168.09869
 50
270
  0
TEXT
  8
0
  6
CONTINUOUS
 62
     7
 10
-6.5907561
 20
192.98222
 40
3.2
 41
1.2857812
  1
16
 50
90.000003
  0
POINT
  8
DEFPOINTS
  6
CONTINUOUS
 62
     7
 10
9.2682648
 20
184.09869
  0
POINT
  8
DEFPOINTS
  6
CONTINUOUS
 62
     7
 10
9.2682648
 20
168.09869
  0
POINT
  8
DEFPOINTS
  6
CONTINUOUS
 62
     7
 10
-5.7907562
 20
168.09869
  0
ENDBLK
  8
0
  0
BLOCK
  8
0
  2
*D6
 70
    65
 10
0
 20
0
  0
LINE
  8
0
  6
CONTINUOUS
 62
     7
 10
-15.790756
 20
186.09869
 11
-15.790756
 21
198.46823
  0
LINE
  8
0
  6
CONTINUOUS
 62
     7
 10
-15.790756
 20
166.09869
 11
-15.790756
 21
186.09869
  0
INSERT
  8
0
  6
CONTINUOUS
 62
     7
  2
_DOT
 10
-15.790756
 20
166.09869
 50
270
  0
INSERT
  8
0
  6
CONTINUOUS
 62
     7
  2
_DOT
 10
-15.790756
 20
186.09869
 50
90
  0
TEXT
  8
0
  6
CONTINUOUS
 62
     7
 10
-16.590756
 20
192.98222
 40
3.2
 41
1.1020982
  1
20
 50
90.000003
  0
POINT
  8
DEFPOINTS
  6
CONTINUOUS
 62
     7
 10
4.2092438
 20
166.09869
  0
POINT
  8
DEFPOINTS
  6
CONTINUOUS
 62
     7
 10
4.2092438
 20
186.09869
  0
POINT
  8
DEFPOINTS
  6
CONTINUOUS
 62
     7
 10
-15.790756
 20
186.09869
  0
ENDBLK
  8
0
  0
BLOCK
  8
0
  2
*D7
 70
    65
 10
0
 20
0
  0
LINE
  8
0
  6
CONTINUOUS
 62
     7
 10
-25.790756
 20
190.09869
 11
-25.790756
 21
198.46823
  0
LINE
  8
0
  6
CONTINUOUS
 62
     7
 10
-25.790756
 20
190.09869
 11
-25.790756
 21
162.09869
  0
INSERT
  8
0
  6
CONTINUOUS
 62
     7
  2
_DOT
 10
-25.790756
 20
190.09869
 50
90
  0
INSERT
  8
0
  6
CONTINUOUS
 62
     7
  2
_DOT
 10
-25.790756
 20
162.09869
 50
270
  0
LINE
  8
0
  6
CONTINUOUS
 62
     7
 10
3.6692439
 20
190.09869
 11
-26.990757
 21
190.09869
  0
LINE
  8
0
  6
CONTINUOUS
 62
     7
 10
3.6692439
 20
162.09869
 11
-26.990757
 21
162.09869
  0
TEXT
  8
0
  6
CONTINUOUS
 62
     7
 10
-26.590756
 20
192.98222
 40
3.2
 41
1.028625
  1
28
 50
90.000003
  0
POINT
  8
DEFPOINTS
  6
CONTINUOUS
 62
     7
 10
6.2092438
 20
190.09869
  0
POINT
  8
DEFPOINTS
  6
CONTINUOUS
 62
     7
 10
6.2092438
 20
162.09869
  0
POINT
  8
DEFPOINTS
  6
CONTINUOUS
 62
     7
 10
-25.790756
 20
162.09869
  0
ENDBLK
  8
0
  0
BLOCK
  8
0
  2
*D8
 70
    65
 10
0
 20
0
  0
LINE
  8
0
  6
CONTINUOUS
 62
     7
 10
-181.29074
 20
137.09869
 11
-171.29077
 21
137.09869
  0
INSERT
  8
0
  6
CONTINUOUS
 62
     7
  2
_DOT
 10
-181.29074
 20
137.09869
 50
180
  0
INSERT
  8
0
  6
CONTINUOUS
 62
     7
  2
_DOT
 10
-171.29077
 20
137.09869
  0
LINE
  8
0
  6
CONTINUOUS
 62
     7
 10
-181.29074
 20
165.55869
 11
-181.29074
 21
135.89868
  0
LINE
  8
0
  6
CONTINUOUS
 62
     7
 10
-171.29077
 20
158.04334
 11
-171.29077
 21
135.89868
  0
TEXT
  8
0
  6
CONTINUOUS
 62
     7
 10
-179.03376
 20
137.89869
 40
3.2
 41
1.4026704
  1
10
  0
POINT
  8
DEFPOINTS
  6
CONTINUOUS
 62
     7
 10
-181.29074
 20
168.09869
  0
POINT
  8
DEFPOINTS
  6
CONTINUOUS
 62
     7
 10
-171.29077
 20
160.58334
  0
POINT
  8
DEFPOINTS
  6
CONTINUOUS
 62
     7
 10
-171.29077
 20
137.09869
  0
ENDBLK
  8
0
  0
BLOCK
  8
0
  2
*D9
 70
    65
 10
0
 20
0
  0
LINE
  8
0
  6
CONTINUOUS
 62
     7
 10
-181.29074
 20
127.09869
 11
-183.29074
 21
127.09869
  0
INSERT
  8
0
  6
CONTINUOUS
 62
     7
  2
_DOT
 10
-181.29074
 20
127.09869
  0
INSERT
  8
0
  6
CONTINUOUS
 62
     7
  2
_DOT
 10
-183.29074
 20
127.09869
 50
180
  0
LINE
  8
0
  6
CONTINUOUS
 62
     7
 10
-181.29074
 20
165.55869
 11
-181.29074
 21
125.89869
  0
LINE
  8
0
  6
CONTINUOUS
 62
     7
 10
-183.29074
 20
166.55869
 11
-183.29074
 21
125.89869
  0
TEXT
  8
0
  6
CONTINUOUS
 62
     7
 10
-183.43374
 20
127.89869
 40
3.2
 41
1
  1
2
  0
POINT
  8
DEFPOINTS
  6
CONTINUOUS
 62
     7
 10
-181.29074
 20
168.09869
  0
POINT
  8
DEFPOINTS
  6
CONTINUOUS
 62
     7
 10
-183.29074
 20
169.09869
  0
POINT
  8
DEFPOINTS
  6
CONTINUOUS
 62
     7
 10
-183.29074
 20
127.09869
  0
ENDBLK
  8
0
  0
BLOCK
  8
0
  2
*D10
 70
    65
 10
0
 20
0
  0
LINE
  8
0
  6
CONTINUOUS
 62
     7
 10
-171.29077
 20
137.09869
 11
-123.29077
 21
137.09869
  0
INSERT
  8
0
  6
CONTINUOUS
 62
     7
  2
_DOT
 10
-171.29077
 20
137.09869
 50
180
  0
INSERT
  8
0
  6
CONTINUOUS
 62
     7
  2
_DOT
 10
-123.29077
 20
137.09869
  0
LINE
  8
0
  6
CONTINUOUS
 62
     7
 10
-123.29077
 20
157.8961
 11
-123.29077
 21
135.89868
  0
TEXT
  8
0
  6
CONTINUOUS
 62
     7
 10
-148.43377
 20
137.89869
 40
3.2
 41
1
  1
B
  0
POINT
  8
DEFPOINTS
  6
CONTINUOUS
 62
     7
 10
-171.29077
 20
160.58334
  0
POINT
  8
DEFPOINTS
  6
CONTINUOUS
 62
     7
 10
-123.29077
 20
160.4361
  0
POINT
  8
DEFPOINTS
  6
CONTINUOUS
 62
     7
 10
-123.29077
 20
137.09869
  0
ENDBLK
  8
0
  0
BLOCK
  8
0
  2
*D11
 70
    65
 10
0
 20
0
  0
LINE
  8
0
  6
CONTINUOUS
 62
     7
 10
26.709244
 20
137.09869
 11
-123.29077
 21
137.09869
  0
INSERT
  8
0
  6
CONTINUOUS
 62
     7
  2
_DOT
 10
26.709244
 20
137.09869
  0
INSERT
  8
0
  6
CONTINUOUS
 62
     7
  2
_DOT
 10
-123.29077
 20
137.09869
 50
180
  0
LINE
  8
0
  6
CONTINUOUS
 62
     7
 10
26.709244
 20
153.55869
 11
26.709244
 21
135.89868
  0
TEXT
  8
0
  6
CONTINUOUS
 62
     7
 10
-50.233764
 20
137.89869
 40
3.2
 41
1
  1
L
  0
TEXT
  8
0
  6
CONTINUOUS
 62
     7
 10
-47.033764
 20
137.89869
 40
1.6
 41
1
  1
2
  0
POINT
  8
DEFPOINTS
  6
CONTINUOUS
 62
     7
 10
26.709244
 20
156.09869
  0
POINT
  8
DEFPOINTS
  6
CONTINUOUS
 62
     7
 10
-123.29077
 20
160.4361
  0
POINT
  8
DEFPOINTS
  6
CONTINUOUS
 62
     7
 10
-123.29077
 20
137.09869
  0
ENDBLK
  8
0
  0
BLOCK
  8
0
  2
*D12
 70
    65
 10
0
 20
0
  0
LINE
  8
0
  6
CONTINUOUS
 62
     7
 10
26.709244
 20
137.09869
 11
96.709244
 21
137.09869
  0
INSERT
  8
0
  6
CONTINUOUS
 62
     7
  2
_DOT
 10
26.709244
 20
137.09869
 50
180
  0
INSERT
  8
0
  6
CONTINUOUS
 62
     7
  2
_DOT
 10
96.709244
 20
137.09869
  0
LINE
  8
0
  6
CONTINUOUS
 62
     7
 10
96.709244
 20
158.04334
 11
96.709244
 21
135.89868
  0
TEXT
  8
0
  6
CONTINUOUS
 62
     7
 10
58.966244
 20
137.89869
 40
3.2
 41
1.1020982
  1
70
  0
POINT
  8
DEFPOINTS
  6
CONTINUOUS
 62
     7
 10
26.709244
 20
156.09869
  0
POINT
  8
DEFPOINTS
  6
CONTINUOUS
 62
     7
 10
96.709244
 20
160.58334
  0
POINT
  8
DEFPOINTS
  6
CONTINUOUS
 62
     7
 10
96.709244
 20
137.09869
  0
ENDBLK
  8
0
  0
BLOCK
  8
0
  2
*D13
 70
    65
 10
0
 20
0
  0
LINE
  8
0
  6
CONTINUOUS
 62
     7
 10
96.709244
 20
137.09869
 11
106.70924
 21
137.09869
  0
INSERT
  8
0
  6
CONTINUOUS
 62
     7
  2
_DOT
 10
96.709244
 20
137.09869
 50
180
  0
INSERT
  8
0
  6
CONTINUOUS
 62
     7
  2
_DOT
 10
106.70924
 20
137.09869
  0
LINE
  8
0
  6
CONTINUOUS
 62
     7
 10
106.70924
 20
165.55869
 11
106.70924
 21
135.89868
  0
TEXT
  8
0
  6
CONTINUOUS
 62
     7
 10
98.966244
 20
137.89869
 40
3.2
 41
1.4026704
  1
10
  0
POINT
  8
DEFPOINTS
  6
CONTINUOUS
 62
     7
 10
96.709244
 20
160.58334
  0
POINT
  8
DEFPOINTS
  6
CONTINUOUS
 62
     7
 10
106.70924
 20
168.09869
  0
POINT
  8
DEFPOINTS
  6
CONTINUOUS
 62
     7
 10
106.70924
 20
137.09869
  0
ENDBLK
  8
0
  0
BLOCK
  8
0
  2
*D14
 70
    65
 10
0
 20
0
  0
LINE
  8
0
  6
CONTINUOUS
 62
     7
 10
106.70924
 20
127.09869
 11
108.70924
 21
127.09869
  0
INSERT
  8
0
  6
CONTINUOUS
 62
     7
  2
_DOT
 10
106.70924
 20
127.09869
 50
180
  0
INSERT
  8
0
  6
CONTINUOUS
 62
     7
  2
_DOT
 10
108.70924
 20
127.09869
  0
LINE
  8
0
  6
CONTINUOUS
 62
     7
 10
106.70924
 20
165.55869
 11
106.70924
 21
125.89869
  0
LINE
  8
0
  6
CONTINUOUS
 62
     7
 10
108.70924
 20
166.55869
 11
108.70924
 21
125.89869
  0
TEXT
  8
0
  6
CONTINUOUS
 62
     7
 10
106.56624
 20
127.89869
 40
3.2
 41
1
  1
2
  0
POINT
  8
DEFPOINTS
  6
CONTINUOUS
 62
     7
 10
106.70924
 20
168.09869
  0
POINT
  8
DEFPOINTS
  6
CONTINUOUS
 62
     7
 10
108.70924
 20
169.09869
  0
POINT
  8
DEFPOINTS
  6
CONTINUOUS
 62
     7
 10
108.70924
 20
127.09869
  0
ENDBLK
  8
0
  0
BLOCK
  8
0
  2
*D15
 70
    65
 10
0
 20
0
  0
LINE
  8
0
  6
CONTINUOUS
 62
     7
 10
106.70924
 20
127.09869
 11
-181.29074
 21
127.09869
  0
INSERT
  8
0
  6
CONTINUOUS
 62
     7
  2
_DOT
 10
106.70924
 20
127.09869
  0
INSERT
  8
0
  6
CONTINUOUS
 62
     7
  2
_DOT
 10
-181.29074
 20
127.09869
 50
180
  0
LINE
  8
0
  6
CONTINUOUS
 62
     7
 10
106.70924
 20
165.55869
 11
106.70924
 21
125.89869
  0
LINE
  8
0
  6
CONTINUOUS
 62
     7
 10
-181.29074
 20
165.55869
 11
-181.29074
 21
125.89869
  0
TEXT
  8
0
  6
CONTINUOUS
 62
     7
 10
-39.233749
 20
127.89869
 40
3.2
 41
1
  1
L
  0
TEXT
  8
0
  6
CONTINUOUS
 62
     7
 10
-36.033749
 20
127.89869
 40
1.6
 41
0.66666667
  1
1
  0
POINT
  8
DEFPOINTS
  6
CONTINUOUS
 62
     7
 10
106.70924
 20
168.09869
  0
POINT
  8
DEFPOINTS
  6
CONTINUOUS
 62
     7
 10
-181.29074
 20
168.09869
  0
POINT
  8
DEFPOINTS
  6
CONTINUOUS
 62
     7
 10
-181.29074
 20
127.09869
  0
ENDBLK
  8
0
  0
BLOCK
  8
0
  2
*D16
 70
    65
 10
0
 20
0
  0
LINE
  8
0
  6
CONTINUOUS
 62
     7
 10
-202.29074
 20
81.284729
 11
-196.29077
 21
81.284729
  0
INSERT
  8
0
  6
CONTINUOUS
 62
     7
  2
_DOT
 10
-202.29074
 20
81.284729
 50
180
  0
INSERT
  8
0
  6
CONTINUOUS
 62
     7
  2
_DOT
 10
-196.29077
 20
81.284729
  0
LINE
  8
0
  6
CONTINUOUS
 62
     7
 10
-202.29074
 20
73.824729
 11
-202.29074
 21
82.484734
  0
LINE
  8
0
  6
CONTINUOUS
 62
     7
 10
-196.29077
 20
75.816901
 11
-196.29077
 21
82.484734
  0
TEXT
  8
0
  6
CONTINUOUS
 62
     7
 10
-200.43376
 20
82.084729
 40
3.2
 41
1
  1
6
  0
POINT
  8
DEFPOINTS
  6
CONTINUOUS
 62
     7
 10
-202.29074
 20
71.284729
  0
POINT
  8
DEFPOINTS
  6
CONTINUOUS
 62
     7
 10
-196.29077
 20
73.276901
  0
POINT
  8
DEFPOINTS
  6
CONTINUOUS
 62
     7
 10
-196.29077
 20
81.284729
  0
ENDBLK
  8
0
  0
BLOCK
  8
0
  2
*D17
 70
    65
 10
0
 20
0
  0
LINE
  8
0
  6
CONTINUOUS
 62
     7
 10
-186.29077
 20
81.284729
 11
-196.29077
 21
81.284729
  0
INSERT
  8
0
  6
CONTINUOUS
 62
     7
  2
_DOT
 10
-186.29077
 20
81.284729
  0
INSERT
  8
0
  6
CONTINUOUS
 62
     7
  2
_DOT
 10
-196.29077
 20
81.284729
 50
180
  0
LINE
  8
0
  6
CONTINUOUS
 62
     7
 10
-186.29077
 20
75.816901
 11
-186.29077
 21
82.484734
  0
TEXT
  8
0
  6
CONTINUOUS
 62
     7
 10
-194.03377
 20
82.084729
 40
3.2
 41
1.4026704
  1
10
  0
POINT
  8
DEFPOINTS
  6
CONTINUOUS
 62
     7
 10
-186.29077
 20
73.276901
  0
POINT
  8
DEFPOINTS
  6
CONTINUOUS
 62
     7
 10
-196.29077
 20
73.276901
  0
POINT
  8
DEFPOINTS
  6
CONTINUOUS
 62
     7
 10
-196.29077
 20
81.284729
  0
ENDBLK
  8
0
  0
BLOCK
  8
0
  2
*D18
 70
    65
 10
0
 20
0
  0
LINE
  8
0
  6
CONTINUOUS
 62
     7
 10
-186.29077
 20
81.284729
 11
-156.29077
 21
81.284729
  0
INSERT
  8
0
  6
CONTINUOUS
 62
     7
  2
_DOT
 10
-186.29077
 20
81.284729
 50
180
  0
INSERT
  8
0
  6
CONTINUOUS
 62
     7
  2
_DOT
 10
-156.29077
 20
81.284729
  0
LINE
  8
0
  6
CONTINUOUS
 62
     7
 10
-156.29077
 20
75.816901
 11
-156.29077
 21
82.484734
  0
TEXT
  8
0
  6
CONTINUOUS
 62
     7
 10
-174.03377
 20
82.084729
 40
3.2
 41
1.1020982
  1
30
  0
POINT
  8
DEFPOINTS
  6
CONTINUOUS
 62
     7
 10
-186.29077
 20
73.276901
  0
POINT
  8
DEFPOINTS
  6
CONTINUOUS
 62
     7
 10
-156.29077
 20
73.276901
  0
POINT
  8
DEFPOINTS
  6
CONTINUOUS
 62
     7
 10
-156.29077
 20
81.284729
  0
ENDBLK
  8
0
  0
BLOCK
  8
0
  2
*D19
 70
    65
 10
0
 20
0
  0
LINE
  8
0
  6
CONTINUOUS
 62
     7
 10
-156.29077
 20
81.284729
 11
-146.29077
 21
81.284729
  0
INSERT
  8
0
  6
CONTINUOUS
 62
     7
  2
_DOT
 10
-156.29077
 20
81.284729
 50
180
  0
INSERT
  8
0
  6
CONTINUOUS
 62
     7
  2
_DOT
 10
-146.29077
 20
81.284729
  0
LINE
  8
0
  6
CONTINUOUS
 62
     7
 10
-146.29077
 20
75.816901
 11
-146.29077
 21
82.484734
  0
TEXT
  8
0
  6
CONTINUOUS
 62
     7
 10
-154.03377
 20
82.084729
 40
3.2
 41
1.4026704
  1
10
  0
POINT
  8
DEFPOINTS
  6
CONTINUOUS
 62
     7
 10
-156.29077
 20
73.276901
  0
POINT
  8
DEFPOINTS
  6
CONTINUOUS
 62
     7
 10
-146.29077
 20
73.276901
  0
POINT
  8
DEFPOINTS
  6
CONTINUOUS
 62
     7
 10
-146.29077
 20
81.284729
  0
ENDBLK
  8
0
  0
BLOCK
  8
0
  2
*D20
 70
    65
 10
0
 20
0
  0
LINE
  8
0
  6
CONTINUOUS
 62
     7
 10
-146.29077
 20
81.284729
 11
-140.29077
 21
81.284729
  0
INSERT
  8
0
  6
CONTINUOUS
 62
     7
  2
_DOT
 10
-146.29077
 20
81.284729
 50
180
  0
INSERT
  8
0
  6
CONTINUOUS
 62
     7
  2
_DOT
 10
-140.29077
 20
81.284729
  0
LINE
  8
0
  6
CONTINUOUS
 62
     7
 10
-140.29077
 20
73.824729
 11
-140.29077
 21
82.484734
  0
TEXT
  8
0
  6
CONTINUOUS
 62
     7
 10
-144.43377
 20
82.084729
 40
3.2
 41
1
  1
6
  0
POINT
  8
DEFPOINTS
  6
CONTINUOUS
 62
     7
 10
-146.29077
 20
73.276901
  0
POINT
  8
DEFPOINTS
  6
CONTINUOUS
 62
     7
 10
-140.29077
 20
71.284729
  0
POINT
  8
DEFPOINTS
  6
CONTINUOUS
 62
     7
 10
-140.29077
 20
81.284729
  0
ENDBLK
  8
0
  0
BLOCK
  8
0
  2
*D21
 70
    65
 10
0
 20
0
  0
LINE
  8
0
  6
CONTINUOUS
 62
     7
 10
-212.29074
 20
39.284733
 11
-212.29074
 21
42.284733
  0
INSERT
  8
0
  6
CONTINUOUS
 62
     7
  2
_DOT
 10
-212.29074
 20
39.284733
 50
270
  0
INSERT
  8
0
  6
CONTINUOUS
 62
     7
  2
_DOT
 10
-212.29074
 20
42.284733
 50
90
  0
LINE
  8
0
  6
CONTINUOUS
 62
     7
 10
-204.83074
 20
39.284733
 11
-213.49074
 21
39.284733
  0
TEXT
  8
0
  6
CONTINUOUS
 62
     7
 10
-213.09074
 20
39.641733
 40
3.2
 41
1
  1
3
 50
90.000003
  0
POINT
  8
DEFPOINTS
  6
CONTINUOUS
 62
     7
 10
-202.29074
 20
39.284733
  0
POINT
  8
DEFPOINTS
  6
CONTINUOUS
 62
     7
 10
-202.29074
 20
42.284733
  0
POINT
  8
DEFPOINTS
  6
CONTINUOUS
 62
     7
 10
-212.29074
 20
42.284733
  0
ENDBLK
  8
0
  0
BLOCK
  8
0
  2
*D22
 70
    65
 10
0
 20
0
  0
LINE
  8
0
  6
CONTINUOUS
 62
     7
 10
-212.29074
 20
42.284733
 11
-212.29074
 21
64.784729
  0
INSERT
  8
0
  6
CONTINUOUS
 62
     7
  2
_DOT
 10
-212.29074
 20
42.284733
 50
270
  0
INSERT
  8
0
  6
CONTINUOUS
 62
     7
  2
_DOT
 10
-212.29074
 20
64.784729
 50
90
  0
LINE
  8
0
  6
CONTINUOUS
 62
     7
 10
-204.83074
 20
42.284733
 11
-213.49074
 21
42.284733
  0
LINE
  8
0
  6
CONTINUOUS
 62
     7
 10
-203.87893
 20
64.784729
 11
-213.49074
 21
64.784729
  0
TEXT
  8
0
  6
CONTINUOUS
 62
     7
 10
-213.09074
 20
47.591733
 40
3.2
 41
1.238125
  1
22.5
 50
90.000003
  0
POINT
  8
DEFPOINTS
  6
CONTINUOUS
 62
     7
 10
-202.29074
 20
42.284733
  0
POINT
  8
DEFPOINTS
  6
CONTINUOUS
 62
     7
 10
-201.33893
 20
64.784729
  0
POINT
  8
DEFPOINTS
  6
CONTINUOUS
 62
     7
 10
-212.29074
 20
64.784729
  0
ENDBLK
  8
0
  0
BLOCK
  8
0
  2
*D23
 70
    65
 10
0
 20
0
  0
LINE
  8
0
  6
CONTINUOUS
 62
     7
 10
-212.29074
 20
71.284729
 11
-212.29074
 21
80.971901
  0
LINE
  8
0
  6
CONTINUOUS
 62
     7
 10
-212.29074
 20
64.784729
 11
-212.29074
 21
71.284729
  0
INSERT
  8
0
  6
CONTINUOUS
 62
     7
  2
_DOT
 10
-212.29074
 20
64.784729
 50
270
  0
INSERT
  8
0
  6
CONTINUOUS
 62
     7
  2
_DOT
 10
-212.29074
 20
71.284729
 50
90
  0
LINE
  8
0
  6
CONTINUOUS
 62
     7
 10
-204.83074
 20
71.284729
 11
-213.49074
 21
71.284729
  0
TEXT
  8
0
  6
CONTINUOUS
 62
     7
 10
-213.09074
 20
72.285899
 40
3.2
 41
1.3571875
  1
6.5
 50
90.000003
  0
POINT
  8
DEFPOINTS
  6
CONTINUOUS
 62
     7
 10
-201.33893
 20
64.784729
  0
POINT
  8
DEFPOINTS
  6
CONTINUOUS
 62
     7
 10
-202.29074
 20
71.284729
  0
POINT
  8
DEFPOINTS
  6
CONTINUOUS
 62
     7
 10
-212.29074
 20
71.284729
  0
ENDBLK
  8
0
  0
BLOCK
  8
0
  2
*D24
 70
    65
 10
0
 20
0
  0
LINE
  8
0
  6
CONTINUOUS
 62
     7
 10
-222.29074
 20
39.284733
 11
-222.29074
 21
71.284729
  0
INSERT
  8
0
  6
CONTINUOUS
 62
     7
  2
_DOT
 10
-222.29074
 20
39.284733
 50
270
  0
INSERT
  8
0
  6
CONTINUOUS
 62
     7
  2
_DOT
 10
-222.29074
 20
71.284729
 50
90
  0
LINE
  8
0
  6
CONTINUOUS
 62
     7
 10
-204.83074
 20
39.284733
 11
-223.49074
 21
39.284733
  0
LINE
  8
0
  6
CONTINUOUS
 62
     7
 10
-204.83074
 20
71.284729
 11
-223.49074
 21
71.284729
  0
TEXT
  8
0
  6
CONTINUOUS
 62
     7
 10
-223.09074
 20
52.541733
 40
3.2
 41
1.028625
  1
32
 50
90.000003
  0
POINT
  8
DEFPOINTS
  6
CONTINUOUS
 62
     7
 10
-202.29074
 20
39.284733
  0
POINT
  8
DEFPOINTS
  6
CONTINUOUS
 62
     7
 10
-202.29074
 20
71.284729
  0
POINT
  8
DEFPOINTS
  6
CONTINUOUS
 62
     7
 10
-222.29074
 20
71.284729
  0
ENDBLK
  8
0
  0
BLOCK
  8
0
  2
*D25
 70
    65
 10
0
 20
0
  0
LINE
  8
0
  6
CONTINUOUS
 62
     7
 10
-166.79077
 20
17.784733
 11
-166.79077
 21
24.784733
  0
INSERT
  8
0
  6
CONTINUOUS
 62
     7
  2
_DOT
 10
-166.79077
 20
17.784733
 50
270
  0
INSERT
  8
0
  6
CONTINUOUS
 62
     7
  2
_DOT
 10
-166.79077
 20
24.784733
 50
90
  0
LINE
  8
0
  6
CONTINUOUS
 62
     7
 10
-159.33077
 20
17.784733
 11
-167.99077
 21
17.784733
  0
LINE
  8
0
  6
CONTINUOUS
 62
     7
 10
-135.33077
 20
24.784733
 11
-167.99077
 21
24.784733
  0
TEXT
  8
0
  6
CONTINUOUS
 62
     7
 10
-167.59077
 20
20.141733
 40
3.2
 41
1
  1
7
 50
90.000003
  0
POINT
  8
DEFPOINTS
  6
CONTINUOUS
 62
     7
 10
-156.79077
 20
17.784733
  0
POINT
  8
DEFPOINTS
  6
CONTINUOUS
 62
     7
 10
-132.79077
 20
24.784733
  0
POINT
  8
DEFPOINTS
  6
CONTINUOUS
 62
     7
 10
-166.79077
 20
24.784733
  0
ENDBLK
  8
0
  0
BLOCK
  8
0
  2
*D26
 70
    65
 10
0
 20
0
  0
LINE
  8
0
  6
CONTINUOUS
 62
     7
 10
-166.79077
 20
24.784733
 11
-166.79077
 21
25.784733
  0
INSERT
  8
0
  6
CONTINUOUS
 62
     7
  2
_DOT
 10
-166.79077
 20
24.784733
 50
270
  0
INSERT
  8
0
  6
CONTINUOUS
 62
     7
  2
_DOT
 10
-166.79077
 20
25.784733
 50
90
  0
LINE
  8
0
  6
CONTINUOUS
 62
     7
 10
-135.83077
 20
25.784733
 11
-167.99077
 21
25.784733
  0
TEXT
  8
0
  6
CONTINUOUS
 62
     7
 10
-167.59077
 20
24.141733
 40
3.2
 41
0.66666667
  1
1
 50
90.000003
  0
POINT
  8
DEFPOINTS
  6
CONTINUOUS
 62
     7
 10
-132.79077
 20
24.784733
  0
POINT
  8
DEFPOINTS
  6
CONTINUOUS
 62
     7
 10
-133.29077
 20
25.784733
  0
POINT
  8
DEFPOINTS
  6
CONTINUOUS
 62
     7
 10
-166.79077
 20
25.784733
  0
ENDBLK
  8
0
  0
BLOCK
  8
0
  2
*D27
 70
    65
 10
0
 20
0
  0
LINE
  8
0
  6
CONTINUOUS
 62
     7
 10
-166.79077
 20
25.784733
 11
-166.79077
 21
31.784733
  0
INSERT
  8
0
  6
CONTINUOUS
 62
     7
  2
_DOT
 10
-166.79077
 20
25.784733
 50
270
  0
INSERT
  8
0
  6
CONTINUOUS
 62
     7
  2
_DOT
 10
-166.79077
 20
31.784733
 50
90
  0
LINE
  8
0
  6
CONTINUOUS
 62
     7
 10
-135.83077
 20
31.784733
 11
-167.99077
 21
31.784733
  0
TEXT
  8
0
  6
CONTINUOUS
 62
     7
 10
-167.59077
 20
27.641733
 40
3.2
 41
1
  1
6
 50
90.000003
  0
POINT
  8
DEFPOINTS
  6
CONTINUOUS
 62
     7
 10
-136.29077
 20
25.784733
  0
POINT
  8
DEFPOINTS
  6
CONTINUOUS
 62
     7
 10
-133.29077
 20
31.784733
  0
POINT
  8
DEFPOINTS
  6
CONTINUOUS
 62
     7
 10
-166.79077
 20
31.784733
  0
ENDBLK
  8
0
  0
BLOCK
  8
0
  2
*D28
 70
    65
 10
0
 20
0
  0
LINE
  8
0
  6
CONTINUOUS
 62
     7
 10
-222.29074
 20
17.784733
 11
-222.29074
 21
39.284733
  0
INSERT
  8
0
  6
CONTINUOUS
 62
     7
  2
_DOT
 10
-222.29074
 20
17.784733
 50
270
  0
INSERT
  8
0
  6
CONTINUOUS
 62
     7
  2
_DOT
 10
-222.29074
 20
39.284733
 50
90
  0
LINE
  8
0
  6
CONTINUOUS
 62
     7
 10
-159.33077
 20
17.784733
 11
-223.49074
 21
17.784733
  0
TEXT
  8
0
  6
CONTINUOUS
 62
     7
 10
-223.09074
 20
22.591733
 40
3.2
 41
1.3928906
  1
21.5
 50
90.000003
  0
POINT
  8
DEFPOINTS
  6
CONTINUOUS
 62
     7
 10
-156.79077
 20
17.784733
  0
POINT
  8
DEFPOINTS
  6
CONTINUOUS
 62
     7
 10
-202.29074
 20
39.284733
  0
POINT
  8
DEFPOINTS
  6
CONTINUOUS
 62
     7
 10
-222.29074
 20
39.284733
  0
ENDBLK
  8
0
  0
BLOCK
  8
0
  2
*D29
 70
    65
 10
0
 20
0
  0
LINE
  8
0
  6
CONTINUOUS
 62
     7
 10
-156.79077
 20
2.7847328
 11
-89.790756
 21
2.7847328
  0
INSERT
  8
0
  6
CONTINUOUS
 62
     7
  2
_DOT
 10
-156.79077
 20
2.7847328
 50
180
  0
INSERT
  8
0
  6
CONTINUOUS
 62
     7
  2
_DOT
 10
-89.790756
 20
2.7847328
  0
LINE
  8
0
  6
CONTINUOUS
 62
     7
 10
-156.79077
 20
15.244733
 11
-156.79077
 21
1.5847328
  0
LINE
  8
0
  6
CONTINUOUS
 62
     7
 10
-89.790756
 20
15.244733
 11
-89.790756
 21
1.5847328
  0
TEXT
  8
0
  6
CONTINUOUS
 62
     7
 10
-126.03376
 20
3.5847328
 40
3.2
 41
1.028625
  1
67
  0
POINT
  8
DEFPOINTS
  6
CONTINUOUS
 62
     7
 10
-156.79077
 20
17.784733
  0
POINT
  8
DEFPOINTS
  6
CONTINUOUS
 62
     7
 10
-89.790756
 20
17.784733
  0
POINT
  8
DEFPOINTS
  6
CONTINUOUS
 62
     7
 10
-89.790756
 20
2.7847328
  0
ENDBLK
  8
0
  0
BLOCK
  8
0
  2
*D30
 70
    65
 10
0
 20
0
  0
LINE
  8
0
  6
CONTINUOUS
 62
     7
 10
-5.79072
 20
31.784733
 11
-5.79072
 21
33.784733
  0
INSERT
  8
0
  6
CONTINUOUS
 62
     7
  2
_DOT
 10
-5.79072
 20
31.784733
 50
270
  0
INSERT
  8
0
  6
CONTINUOUS
 62
     7
  2
_DOT
 10
-5.79072
 20
33.784733
 50
90
  0
LINE
  8
0
  6
CONTINUOUS
 62
     7
 10
1.6692439
 20
33.784733
 11
-6.9907198
 21
33.784733
  0
TEXT
  8
0
  6
CONTINUOUS
 62
     7
 10
-6.5907199
 20
31.641733
 40
3.2
 41
1
  1
2
 50
90.000003
  0
POINT
  8
DEFPOINTS
  6
CONTINUOUS
 62
     7
 10
38.709244
 20
31.784733
  0
POINT
  8
DEFPOINTS
  6
CONTINUOUS
 62
     7
 10
4.2092438
 20
33.784733
  0
POINT
  8
DEFPOINTS
  6
CONTINUOUS
 62
     7
 10
-5.79072
 20
33.784733
  0
ENDBLK
  8
0
  0
BLOCK
  8
0
  2
*D31
 70
    65
 10
0
 20
0
  0
LINE
  8
0
  6
CONTINUOUS
 62
     7
 10
-5.79072
 20
33.784733
 11
-5.79072
 21
43.784733
  0
INSERT
  8
0
  6
CONTINUOUS
 62
     7
  2
_DOT
 10
-5.79072
 20
33.784733
 50
270
  0
INSERT
  8
0
  6
CONTINUOUS
 62
     7
  2
_DOT
 10
-5.79072
 20
43.784733
 50
90
  0
LINE
  8
0
  6
CONTINUOUS
 62
     7
 10
1.6692801
 20
33.784733
 11
-6.9907198
 21
33.784733
  0
TEXT
  8
0
  6
CONTINUOUS
 62
     7
 10
-6.5907199
 20
36.041733
 40
3.2
 41
1.4026704
  1
10
 50
90.000003
  0
POINT
  8
DEFPOINTS
  6
CONTINUOUS
 62
     7
 10
4.20928
 20
33.784733
  0
POINT
  8
DEFPOINTS
  6
CONTINUOUS
 62
     7
 10
5.9542389
 20
43.784733
  0
POINT
  8
DEFPOINTS
  6
CONTINUOUS
 62
     7
 10
-5.79072
 20
43.784733
  0
ENDBLK
  8
0
  0
BLOCK
  8
0
  2
*D32
 70
    65
 10
0
 20
0
  0
LINE
  8
0
  6
CONTINUOUS
 62
     7
 10
-5.79072
 20
43.784733
 11
-5.79072
 21
59.784733
  0
INSERT
  8
0
  6
CONTINUOUS
 62
     7
  2
_DOT
 10
-5.79072
 20
43.784733
 50
270
  0
INSERT
  8
0
  6
CONTINUOUS
 62
     7
  2
_DOT
 10
-5.79072
 20
59.784733
 50
90
  0
TEXT
  8
0
  6
CONTINUOUS
 62
     7
 10
-6.5907199
 20
49.041733
 40
3.2
 41
1.2857812
  1
16
 50
90.000003
  0
POINT
  8
DEFPOINTS
  6
CONTINUOUS
 62
     7
 10
5.9542389
 20
43.784733
  0
POINT
  8
DEFPOINTS
  6
CONTINUOUS
 62
     7
 10
8.744278
 20
59.784733
  0
POINT
  8
DEFPOINTS
  6
CONTINUOUS
 62
     7
 10
-5.79072
 20
59.784733
  0
ENDBLK
  8
0
  0
BLOCK
  8
0
  2
*D33
 70
    65
 10
0
 20
0
  0
LINE
  8
0
  6
CONTINUOUS
 62
     7
 10
-5.79072
 20
59.784733
 11
-5.79072
 21
76.784737
  0
INSERT
  8
0
  6
CONTINUOUS
 62
     7
  2
_DOT
 10
-5.79072
 20
59.784733
 50
270
  0
INSERT
  8
0
  6
CONTINUOUS
 62
     7
  2
_DOT
 10
-5.79072
 20
76.784737
 50
90
  0
LINE
  8
0
  6
CONTINUOUS
 62
     7
 10
10.851251
 20
76.784737
 11
-6.9907198
 21
76.784737
  0
TEXT
  8
0
  6
CONTINUOUS
 62
     7
 10
-6.5907199
 20
65.541737
 40
3.2
 41
1.2857812
  1
17
 50
90.000003
  0
POINT
  8
DEFPOINTS
  6
CONTINUOUS
 62
     7
 10
8.744278
 20
59.784733
  0
POINT
  8
DEFPOINTS
  6
CONTINUOUS
 62
     7
 10
13.391251
 20
76.784737
  0
POINT
  8
DEFPOINTS
  6
CONTINUOUS
 62
     7
 10
-5.79072
 20
76.784737
  0
ENDBLK
  8
0
  0
BLOCK
  8
0
  2
*D34
 70
    65
 10
0
 20
0
  0
LINE
  8
0
  6
CONTINUOUS
 62
     7
 10
-5.79072
 20
83.284744
 11
-5.79072
 21
92.973122
  0
LINE
  8
0
  6
CONTINUOUS
 62
     7
 10
-5.79072
 20
76.784737
 11
-5.79072
 21
83.284744
  0
INSERT
  8
0
  6
CONTINUOUS
 62
     7
  2
_DOT
 10
-5.79072
 20
76.784737
 50
270
  0
INSERT
  8
0
  6
CONTINUOUS
 62
     7
  2
_DOT
 10
-5.79072
 20
83.284744
 50
90
  0
LINE
  8
0
  6
CONTINUOUS
 62
     7
 10
18.669244
 20
83.284744
 11
-6.9907198
 21
83.284744
  0
TEXT
  8
0
  6
CONTINUOUS
 62
     7
 10
-6.5907198
 20
84.287119
 40
3.2
 41
1.3571875
  1
6.5
 50
90.000003
  0
POINT
  8
DEFPOINTS
  6
CONTINUOUS
 62
     7
 10
13.391251
 20
76.784737
  0
POINT
  8
DEFPOINTS
  6
CONTINUOUS
 62
     7
 10
21.209244
 20
83.284744
  0
POINT
  8
DEFPOINTS
  6
CONTINUOUS
 62
     7
 10
-5.79072
 20
83.284744
  0
ENDBLK
  8
0
  0
BLOCK
  8
0
  2
*D35
 70
    65
 10
0
 20
0
  0
LINE
  8
0
  6
CONTINUOUS
 62
     7
 10
-302.29077
 20
101.78474
 11
-277.29077
 21
101.78474
  0
INSERT
  8
0
  6
CONTINUOUS
 62
     7
  2
_DOT
 10
-302.29077
 20
101.78474
 50
180
  0
INSERT
  8
0
  6
CONTINUOUS
 62
     7
  2
_DOT
 10
-277.29077
 20
101.78474
  0
LINE
  8
0
  6
CONTINUOUS
 62
     7
 10
-302.29077
 20
94.324737
 11
-302.29077
 21
102.98473
  0
LINE
  8
0
  6
CONTINUOUS
 62
     7
 10
-277.29077
 20
90.10974
 11
-277.29077
 21
102.98473
  0
TEXT
  8
0
  6
CONTINUOUS
 62
     7
 10
-295.73377
 20
102.58474
 40
3.2
 41
1.0130114
  1
A=25
  0
POINT
  8
DEFPOINTS
  6
CONTINUOUS
 62
     7
 10
-302.29077
 20
91.784737
  0
POINT
  8
DEFPOINTS
  6
CONTINUOUS
 62
     7
 10
-277.29077
 20
87.56974
  0
POINT
  8
DEFPOINTS
  6
CONTINUOUS
 62
     7
 10
-277.29077
 20
101.78474
  0
ENDBLK
  8
0
  0
BLOCK
  8
0
  2
KOZU0001
 70
    64
 10
0
 20
0
  0
LINE
  8
0
  6
CONTINUOUS
 62
     7
 10
0
 20
0
 11
19.123917
 21
31.47287
  0
LINE
  8
0
  6
CONTINUOUS
 62
     7
 10
19.123917
 20
31.47287
 11
68.813919
 21
31.47287
  0
LINE
  8
0
  6
CONTINUOUS
 62
     7
 10
0
 20
0
 11
0.70324813
 21
3.0830896
  0
LINE
  8
0
  6
CONTINUOUS
 62
     7
 10
0
 20
0
 11
2.4124523
 21
2.0445228
  0
TEXT
  8
0
  6
CONTINUOUS
 62
     7
 10
24.013922
 20
32.27287
 40
3.2
 41
0.84326962
  1
４－%%C５．５×８．５スロット
  0
ENDBLK
  8
0
  0
BLOCK
  8
0
  2
KOZU0002
 70
    64
 10
0
 20
0
  0
LINE
  8
0
  6
CONTINUOUS
 62
     7
 10
0
 20
0
 11
16.497574
 21
20.718864
  0
LINE
  8
0
  6
CONTINUOUS
 62
     7
 10
16.497574
 20
20.718864
 11
63.2873
 21
20.718864
  0
LINE
  8
0
  6
CONTINUOUS
 62
     7
 10
0
 20
0
 11
1.0864317
 21
2.9697922
  0
LINE
  8
0
  6
CONTINUOUS
 62
     7
 10
0
 20
0
 11
2.6510207
 21
1.7239748
  0
TEXT
  8
0
  6
CONTINUOUS
 62
     7
 10
18.487303
 20
21.518872
 40
3.2
 41
0.84326962
  1
４－%%C５．５×８．５スロット
  0
ENDBLK
  8
0
  0
ENDSEC
  0
SECTION
  2
ENTITIES
  0
POINT
  8
0
  6
CONTINUOUS
 62
     7
 10
-328.82617
 20
234.3804
  0
LINE
  8
0
  6
CONTINUOUS
 62
     7
 10
170
 20
294.5
 11
170
 21
-100
  0
LINE
  8
0
  6
CONTINUOUS
 62
     7
 10
-385
 20
-100
 11
170
 21
-100
  0
LINE
  8
0
  6
CONTINUOUS
 62
     7
 10
-385
 20
294.5
 11
170
 21
294.5
  0
LINE
  8
0
  6
CONTINUOUS
 62
     7
 10
-385
 20
294.5
 11
-385
 21
-100
  0
LINE
  8
0
  6
CONTINUOUS
 62
     7
 10
-365
 20
294.5
 11
-365
 21
182.5
  0
LINE
  8
0
  6
CONTINUOUS
 62
     7
 10
-385
 20
286.5
 11
-275
 21
286.5
  0
LINE
  8
0
  6
CONTINUOUS
 62
     7
 10
-385
 20
278.5
 11
-275
 21
278.5
  0
LINE
  8
0
  6
CONTINUOUS
 62
     7
 10
-385
 20
262.5
 11
-275
 21
262.5
  0
LINE
  8
0
  6
CONTINUOUS
 62
     7
 10
-365
 20
246.5
 11
-275
 21
246.5
  0
LINE
  8
0
  6
CONTINUOUS
 62
     7
 10
-365
 20
230.5
 11
-275
 21
230.5
  0
LINE
  8
0
  6
CONTINUOUS
 62
     7
 10
-365
 20
222.5
 11
-275
 21
222.5
  0
LINE
  8
0
  6
CONTINUOUS
 62
     7
 10
-385
 20
214.5
 11
-275
 21
214.5
  0
LINE
  8
0
  6
CONTINUOUS
 62
     7
 10
-365
 20
206.5
 11
-275
 21
206.5
  0
LINE
  8
0
  6
CONTINUOUS
 62
     7
 10
-365
 20
198.5
 11
-275
 21
198.5
  0
LINE
  8
0
  6
CONTINUOUS
 62
     7
 10
-365
 20
190.5
 11
-275
 21
190.5
  0
LINE
  8
0
  6
CONTINUOUS
 62
     7
 10
-385
 20
294.5
 11
-385
 21
214.5
  0
LINE
  8
0
  6
CONTINUOUS
 62
     7
 10
-385
 20
294.5
 11
-275
 21
294.5
  0
LINE
  8
0
  6
CONTINUOUS
 62
     7
 10
-275
 20
294.5
 11
-275
 21
182.5
  0
LINE
  8
0
  6
CONTINUOUS
 62
     7
 10
-385
 20
-100
 11
-275
 21
-100
  0
LINE
  8
0
  6
CONTINUOUS
 62
     7
 10
-385
 20
-20
 11
-385
 21
-100
  0
LINE
  8
0
  6
CONTINUOUS
 62
     7
 10
-385
 20
182.5
 11
-275
 21
182.5
  0
LINE
  8
0
  6
CONTINUOUS
 62
     7
 10
-365
 20
254.5
 11
-275
 21
254.5
  0
LINE
  8
0
  6
CONTINUOUS
 62
     7
 10
-385
 20
238.5
 11
-275
 21
238.5
  0
LINE
  8
0
  6
CONTINUOUS
 62
     3
 10
-149.04077
 20
66.284729
 11
-149.04077
 21
63.284733
  0
LINE
  8
0
  6
CENTER
 62
     7
 10
-123.29077
 20
191.41959
 11
-123.29077
 21
160.4361
  0
LINE
  8
0
  6
CENTER
 62
     7
 10
26.709244
 20
196.09866
 11
26.709244
 21
156.09869
  0
LINE
  8
0
  6
CONTINUOUS
 62
     3
 10
-181.29074
 20
184.09869
 11
-181.29074
 21
168.09869
  0
LINE
  8
0
  6
CENTER
 62
     7
 10
-171.29077
 20
190.28424
 11
-171.29077
 21
160.58334
  0
LINE
  8
0
  6
CONTINUOUS
 62
     3
 10
-183.29074
 20
183.09869
 11
-183.29074
 21
169.09869
  0
LINE
  8
0
  6
CONTINUOUS
 62
     3
 10
106.70924
 20
184.09869
 11
106.70924
 21
168.09869
  0
LINE
  8
0
  6
CENTER
 62
     7
 10
96.709244
 20
186.09869
 11
96.709244
 21
166.09869
  0
LINE
  8
0
  6
CONTINUOUS
 62
     3
 10
108.70924
 20
169.09869
 11
108.70924
 21
183.09869
  0
LINE
  8
0
  6
CENTER
 62
     7
 10
113.70924
 20
176.09869
 11
-193.29074
 21
176.09869
  0
LINE
  8
0
  6
CONTINUOUS
 62
     3
 10
3.1691132
 20
166.09869
 11
-156.79077
 21
166.09869
  0
LINE
  8
0
  6
DASHED
 62
     7
 10
-138.54077
 20
177.59869
 11
-138.54077
 21
174.59869
  0
LINE
  8
0
  6
DASHED
 62
     7
 10
-144.04077
 20
177.59869
 11
-144.04077
 21
174.59869
  0
LINE
  8
0
  6
CONTINUOUS
 62
     3
 10
-182.29074
 20
168.09869
 11
6.1167755
 21
168.09869
  0
LINE
  8
0
  6
CONTINUOUS
 62
     3
 10
6.1167755
 20
184.09869
 11
-182.29074
 21
184.09869
  0
LINE
  8
0
  6
CONTINUOUS
 62
     3
 10
-140.29077
 20
201.09866
 11
-202.29074
 21
201.09866
  0
LINE
  8
0
  6
CONTINUOUS
 62
     3
 10
107.70924
 20
184.09869
 11
47.301712
 21
184.09869
  0
LINE
  8
0
  6
CONTINUOUS
 62
     3
 10
47.301712
 20
168.09869
 11
107.70924
 21
168.09869
  0
LINE
  8
0
  6
CONTINUOUS
 62
     3
 10
-140.29077
 20
198.09866
 11
-202.29074
 21
198.09866
  0
LINE
  8
0
  6
CENTER
 62
     7
 10
-141.29077
 20
182.7061
 11
-141.29077
 21
169.39955
  0
LINE
  8
0
  6
CENTER
 62
     7
 10
96.709244
 20
193.16074
 11
96.709244
 21
160.58334
  0
LINE
  8
0
  6
DASHED
 62
     7
 10
-148.54077
 20
177.59869
 11
-148.54077
 21
174.59869
  0
LINE
  8
0
  6
CENTER
 62
     7
 10
-105.29076
 20
182.70197
 11
-105.29076
 21
169.69017
  0
LINE
  8
0
  6
DASHED
 62
     7
 10
-102.54076
 20
177.59869
 11
-102.54076
 21
174.59869
  0
LINE
  8
0
  6
DASHED
 62
     7
 10
-108.04076
 20
177.59869
 11
-108.04076
 21
174.59869
  0
LINE
  8
0
  6
CENTER
 62
     7
 10
-95.290756
 20
183.17505
 11
-95.290756
 21
169.51579
  0
LINE
  8
0
  6
DASHED
 62
     7
 10
-92.540756
 20
177.59869
 11
-92.540756
 21
174.59869
  0
LINE
  8
0
  6
DASHED
 62
     7
 10
-98.040756
 20
177.59869
 11
-98.040756
 21
174.59869
  0
LINE
  8
0
  6
CONTINUOUS
 62
     3
 10
-191.75073
 20
42.284733
 11
-189.99074
 21
45.804741
  0
LINE
  8
0
  6
CONTINUOUS
 62
     3
 10
-150.83078
 20
198.09862
 11
-152.59076
 21
194.57864
  0
LINE
  8
0
  6
CENTER
 62
     7
 10
26.709244
 20
86.470741
 11
26.709244
 21
18.483698
  0
LINE
  8
0
  6
CONTINUOUS
 62
     3
 10
-152.59076
 20
194.57863
 11
-154.35075
 21
198.09865
  0
LINE
  8
0
  6
CONTINUOUS
 62
     3
 10
3.1691132
 20
186.09869
 11
-140.29077
 21
186.09869
  0
LINE
  8
0
  6
DASHED
 62
     7
 10
-154.04077
 20
177.59869
 11
-154.04077
 21
174.59869
  0
LINE
  8
0
  6
CONTINUOUS
 62
     3
 10
-153.54077
 20
66.284729
 11
-153.54077
 21
63.284733
  0
LINE
  8
0
  6
CENTER
 62
     7
 10
-151.29077
 20
182.96365
 11
-151.29077
 21
169.82878
  0
LINE
  8
0
  6
CONTINUOUS
 62
     3
 10
65.709244
 20
39.284733
 11
127.70923
 21
39.284733
  0
LINE
  8
0
  6
CENTER
 62
     7
 10
111.70924
 20
73.276901
 11
111.70924
 21
55.267193
  0
LINE
  8
0
  6
CENTER
 62
     7
 10
-123.29077
 20
37.773201
 11
-123.29077
 21
13.99234
  0
LINE
  8
0
  6
CONTINUOUS
 62
     3
 10
118.95924
 20
65.784729
 11
118.95924
 21
62.784733
  0
LINE
  8
0
  6
CONTINUOUS
 62
     3
 10
108.95924
 20
65.784729
 11
108.95924
 21
62.784733
  0
LINE
  8
0
  6
CONTINUOUS
 62
     3
 10
114.45924
 20
65.784729
 11
114.45924
 21
62.784733
  0
LINE
  8
0
  6
CONTINUOUS
 62
     3
 10
68.959244
 20
65.784729
 11
68.959244
 21
62.784733
  0
LINE
  8
0
  6
CONTINUOUS
 62
     3
 10
-181.29074
 20
59.784733
 11
-181.29074
 21
43.784733
  0
LINE
  8
0
  6
CONTINUOUS
 62
     3
 10
-140.29077
 20
39.284733
 11
-202.29074
 21
39.284733
  0
LINE
  8
0
  6
CENTER
 62
     7
 10
-171.29077
 20
65.050415
 11
-171.29077
 21
34.925961
  0
LINE
  8
0
  6
CONTINUOUS
 62
     3
 10
-140.29077
 20
59.784733
 11
-140.29077
 21
71.284729
  0
LINE
  8
0
  6
CONTINUOUS
 62
     3
 10
-140.29077
 20
71.284729
 11
-202.29074
 21
71.284729
  0
LINE
  8
0
  6
CENTER
 62
     7
 10
-156.29077
 20
73.776901
 11
-156.29077
 21
55.767193
  0
LINE
  8
0
  6
CENTER
 62
     7
 10
-186.29077
 20
73.776901
 11
-186.29077
 21
55.767193
  0
LINE
  8
0
  6
CONTINUOUS
 62
     3
 10
6.1167731
 20
59.784733
 11
-182.29074
 21
59.784733
  0
LINE
  8
0
  6
CONTINUOUS
 62
     3
 10
-183.29074
 20
58.784733
 11
-183.29074
 21
44.784733
  0
LINE
  8
0
  6
CONTINUOUS
 62
     3
 10
-182.29074
 20
43.784733
 11
3.6981819
 21
43.784733
  0
LINE
  8
0
  6
CONTINUOUS
 62
     3
 10
106.70924
 20
59.784733
 11
106.70924
 21
43.784733
  0
LINE
  8
0
  6
CONTINUOUS
 62
     3
 10
107.70924
 20
59.784733
 11
47.30172
 21
59.784733
  0
LINE
  8
0
  6
CONTINUOUS
 62
     3
 10
108.70924
 20
44.784733
 11
108.70924
 21
58.784733
  0
LINE
  8
0
  6
CONTINUOUS
 62
     3
 10
49.72031
 20
43.784733
 11
107.70924
 21
43.784733
  0
LINE
  8
0
  6
CONTINUOUS
 62
     3
 10
4.2092438
 20
33.784733
 11
49.209244
 21
33.784733
  0
LINE
  8
0
  6
CONTINUOUS
 62
     3
 10
-140.29077
 20
39.284733
 11
-140.29077
 21
43.784733
  0
LINE
  8
0
  6
CONTINUOUS
 62
     3
 10
-140.29077
 20
42.284733
 11
-202.29074
 21
42.284733
  0
LINE
  8
0
  6
CONTINUOUS
 62
     3
 10
-202.29074
 20
71.284729
 11
-202.29074
 21
39.284733
  0
LINE
  8
0
  6
CONTINUOUS
 62
     3
 10
65.709244
 20
39.284733
 11
65.709244
 21
43.784733
  0
LINE
  8
0
  6
CONTINUOUS
 62
     3
 10
65.709244
 20
42.284733
 11
127.70923
 21
42.284733
  0
LINE
  8
0
  6
CONTINUOUS
 62
     3
 10
127.70923
 20
71.284729
 11
127.70923
 21
39.284733
  0
LINE
  8
0
  6
CONTINUOUS
 62
     3
 10
-118.79077
 20
31.784733
 11
-127.79077
 21
31.784733
  0
LINE
  8
0
  6
CONTINUOUS
 62
     3
 10
90.209282
 20
61.784733
 11
103.20926
 21
61.784733
  0
LINE
  8
0
  6
CONTINUOUS
 62
     3
 10
-114.29077
 20
24.784733
 11
-132.29077
 21
24.784733
  0
LINE
  8
0
  6
CENTER
 62
     7
 10
107.72827
 20
64.284729
 11
126.7574
 21
64.284729
  0
LINE
  8
0
  6
CONTINUOUS
 62
     3
 10
78.959244
 20
65.784729
 11
78.959244
 21
62.784733
  0
LINE
  8
0
  6
CONTINUOUS
 62
     3
 10
-133.29077
 20
25.784733
 11
38.709244
 21
25.784733
  0
LINE
  8
0
  6
CONTINUOUS
 62
     3
 10
38.709244
 20
31.784733
 11
-133.29077
 21
31.784733
  0
LINE
  8
0
  6
CENTER
 62
     7
 10
-146.29077
 20
73.776901
 11
-146.29077
 21
55.767193
  0
LINE
  8
0
  6
CENTER
 62
     7
 10
-160.27173
 20
64.784729
 11
-141.24261
 21
64.784729
  0
LINE
  8
0
  6
CONTINUOUS
 62
     3
 10
115.40924
 20
45.804741
 11
113.64925
 21
42.284733
  0
LINE
  8
0
  6
CENTER
 62
     7
 10
71.709244
 20
73.276901
 11
71.709244
 21
55.267193
  0
LINE
  8
0
  6
CENTER
 62
     7
 10
81.709244
 20
73.276901
 11
81.709244
 21
55.267193
  0
LINE
  8
0
  6
CENTER
 62
     7
 10
85.690216
 20
64.284729
 11
66.661087
 21
64.284729
  0
LINE
  8
0
  6
CENTER
 62
     7
 10
121.70924
 20
73.276901
 11
121.70924
 21
55.267193
  0
LINE
  8
0
  6
CONTINUOUS
 62
     3
 10
-143.54077
 20
66.284729
 11
-143.54077
 21
63.284733
  0
LINE
  8
0
  6
CENTER
 62
     7
 10
-196.29077
 20
73.776901
 11
-196.29077
 21
55.767193
  0
LINE
  8
0
  6
CENTER
 62
     7
 10
-182.30978
 20
64.784729
 11
-201.33893
 21
64.784729
  0
LINE
  8
0
  6
CONTINUOUS
 62
     3
 10
65.709244
 20
71.284729
 11
127.70923
 21
71.284729
  0
LINE
  8
0
  6
CONTINUOUS
 62
     3
 10
-193.54077
 20
66.284729
 11
-193.54077
 21
63.284733
  0
LINE
  8
0
  6
CONTINUOUS
 62
     3
 10
-199.04077
 20
66.284729
 11
-199.04077
 21
63.284733
  0
LINE
  8
0
  6
CONTINUOUS
 62
     3
 10
-189.04077
 20
66.284729
 11
-189.04077
 21
63.284733
  0
LINE
  8
0
  6
CONTINUOUS
 62
     3
 10
-183.54077
 20
66.284729
 11
-183.54077
 21
63.284733
  0
LINE
  8
0
  6
CONTINUOUS
 62
     3
 10
-159.04077
 20
66.284729
 11
-159.04077
 21
63.284733
  0
LINE
  8
0
  6
CENTER
 62
     7
 10
96.709244
 20
66.288574
 11
96.709244
 21
33.96312
  0
LINE
  8
0
  6
CONTINUOUS
 62
     3
 10
65.709244
 20
59.784733
 11
65.709244
 21
71.284729
  0
LINE
  8
0
  6
CONTINUOUS
 62
     3
 10
124.45924
 20
65.784729
 11
124.45924
 21
62.784733
  0
LINE
  8
0
  6
CONTINUOUS
 62
     3
 10
84.459244
 20
65.784729
 11
84.459244
 21
62.784733
  0
LINE
  8
0
  6
CONTINUOUS
 62
     3
 10
74.459244
 20
65.784729
 11
74.459244
 21
62.784733
  0
LINE
  8
0
  6
CONTINUOUS
 62
     3
 10
-302.29077
 20
71.284729
 11
-299.29077
 21
71.284729
  0
LINE
  8
0
  6
PHANTOM
 62
     7
 10
-325.29077
 20
39.784733
 11
-312.29077
 21
39.784733
  0
LINE
  8
0
  6
PHANTOM
 62
     7
 10
-302.29077
 20
42.284733
 11
-302.29077
 21
35.784733
  0
LINE
  8
0
  6
CENTER
 62
     7
 10
-264.36539
 20
51.784733
 11
-290.36609
 21
51.784733
  0
LINE
  8
0
  6
CENTER
 62
     7
 10
-277.29077
 20
87.56974
 11
-277.29077
 21
12.378727
  0
LINE
  8
0
  6
PHANTOM
 62
     7
 10
-299.29077
 20
17.784733
 11
-287.79077
 21
17.784733
  0
LINE
  8
0
  6
CONTINUOUS
 62
     3
 10
-299.29077
 20
71.284729
 11
-299.29077
 21
42.284733
  0
LINE
  8
0
  6
CONTINUOUS
 62
     3
 10
-302.29077
 20
71.284729
 11
-302.29077
 21
42.284733
  0
LINE
  8
0
  6
PHANTOM
 62
     7
 10
-304.29077
 20
75.784729
 11
-333.29077
 21
75.784729
  0
LINE
  8
0
  6
PHANTOM
 62
     7
 10
-333.29077
 20
75.784729
 11
-333.29077
 21
41.784733
  0
LINE
  8
0
  6
PHANTOM
 62
     7
 10
-333.29077
 20
41.784733
 11
-304.29077
 21
41.784733
  0
LINE
  8
0
  6
PHANTOM
 62
     7
 10
-304.29077
 20
41.784733
 11
-304.29077
 21
75.784729
  0
LINE
  8
0
  6
PHANTOM
 62
     7
 10
-327.29077
 20
39.784733
 11
-327.29077
 21
37.784733
  0
LINE
  8
0
  6
PHANTOM
 62
     7
 10
-327.79077
 20
35.784733
 11
-325.29077
 21
35.784733
  0
LINE
  8
0
  6
PHANTOM
 62
     7
 10
-325.29077
 20
35.784733
 11
-325.29077
 21
39.784733
  0
LINE
  8
0
  6
PHANTOM
 62
     7
 10
-310.29077
 20
39.784733
 11
-310.29077
 21
37.784733
  0
LINE
  8
0
  6
PHANTOM
 62
     7
 10
-309.79077
 20
35.784733
 11
-312.29077
 21
35.784733
  0
LINE
  8
0
  6
PHANTOM
 62
     7
 10
-312.29077
 20
35.784733
 11
-312.29077
 21
39.784733
  0
LINE
  8
0
  6
PHANTOM
 62
     7
 10
-310.29077
 20
39.784733
 11
-304.29077
 21
39.784733
  0
LINE
  8
0
  6
PHANTOM
 62
     7
 10
-304.29077
 20
39.784733
 11
-304.29077
 21
35.784733
  0
LINE
  8
0
  6
PHANTOM
 62
     7
 10
-304.29077
 20
35.784733
 11
-302.29077
 21
35.784733
  0
LINE
  8
0
  6
PHANTOM
 62
     7
 10
-302.29077
 20
91.784737
 11
-312.29077
 21
91.784737
  0
LINE
  8
0
  6
PHANTOM
 62
     7
 10
-312.29077
 20
91.784737
 11
-312.29077
 21
89.784737
  0
LINE
  8
0
  6
PHANTOM
 62
     7
 10
-312.29077
 20
89.784737
 11
-304.29077
 21
89.784737
  0
LINE
  8
0
  6
PHANTOM
 62
     7
 10
-304.29077
 20
89.784737
 11
-304.29077
 21
77.784737
  0
LINE
  8
0
  6
PHANTOM
 62
     7
 10
-304.29077
 20
77.784737
 11
-333.29077
 21
77.784737
  0
LINE
  8
0
  6
PHANTOM
 62
     7
 10
-333.29077
 20
77.784737
 11
-333.29077
 21
89.784737
  0
LINE
  8
0
  6
PHANTOM
 62
     7
 10
-333.29077
 20
89.784737
 11
-325.29077
 21
89.784737
  0
LINE
  8
0
  6
PHANTOM
 62
     7
 10
-325.29077
 20
89.784737
 11
-325.29077
 21
91.784737
  0
LINE
  8
0
  6
PHANTOM
 62
     7
 10
-325.29077
 20
91.784737
 11
-335.29077
 21
91.784737
  0
LINE
  8
0
  6
PHANTOM
 62
     7
 10
-335.29077
 20
91.784737
 11
-335.29077
 21
35.784733
  0
LINE
  8
0
  6
PHANTOM
 62
     7
 10
-335.29077
 20
35.784733
 11
-333.29077
 21
35.784733
  0
LINE
  8
0
  6
PHANTOM
 62
     7
 10
-333.29077
 20
35.784733
 11
-333.29077
 21
39.784733
  0
LINE
  8
0
  6
PHANTOM
 62
     7
 10
-333.29077
 20
39.784733
 11
-327.29077
 21
39.784733
  0
LINE
  8
0
  6
PHANTOM
 62
     7
 10
-299.29077
 20
29.600626
 11
-299.29077
 21
9.600626
  0
LINE
  8
0
  6
CONTINUOUS
 62
     3
 10
-287.29077
 20
24.784733
 11
-267.29077
 21
24.784733
  0
LINE
  8
0
  6
PHANTOM
 62
     7
 10
-335.29077
 20
29.600626
 11
-335.29077
 21
-6.5743504
  0
LINE
  8
0
  6
PHANTOM
 62
     7
 10
-333.29077
 20
11.600626
 11
-301.29077
 21
11.600626
  0
LINE
  8
0
  6
PHANTOM
 62
     7
 10
-333.29077
 20
27.600626
 11
-333.29077
 21
11.600626
  0
LINE
  8
0
  6
PHANTOM
 62
     7
 10
-333.29077
 20
27.600626
 11
-301.29077
 21
27.600626
  0
LINE
  8
0
  6
PHANTOM
 62
     7
 10
-335.29077
 20
29.600626
 11
-299.29077
 21
29.600626
  0
LINE
  8
0
  6
PHANTOM
 62
     7
 10
-302.29077
 20
91.784737
 11
-302.29077
 21
71.284729
  0
LINE
  8
0
  6
PHANTOM
 62
     7
 10
-333.29077
 20
9.600626
 11
-299.29077
 21
9.600626
  0
LINE
  8
0
  6
PHANTOM
 62
     7
 10
-301.29077
 20
27.600626
 11
-301.29077
 21
11.600626
  0
LINE
  8
0
  6
PHANTOM
 62
     7
 10
-265.29077
 20
17.784733
 11
-265.29077
 21
-16.399372
  0
LINE
  8
0
  6
PHANTOM
 62
     7
 10
-267.29077
 20
15.784733
 11
-267.29077
 21
-0.10019112
  0
LINE
  8
0
  6
PHANTOM
 62
     7
 10
-299.29071
 20
15.784736
 11
-267.29074
 21
15.784735
  0
LINE
  8
0
  6
PHANTOM
 62
     7
 10
-333.29077
 20
9.600626
 11
-333.29077
 21
-6.399374
  0
LINE
  8
0
  6
PHANTOM
 62
     7
 10
-343.29074
 20
-9.2819004
 11
-267.29071
 21
-2.107826
  0
LINE
  8
0
  6
PHANTOM
 62
     7
 10
-267.29077
 20
-2.10783
 11
-267.29077
 21
-14.399372
  0
LINE
  8
0
  6
PHANTOM
 62
     7
 10
-275.29077
 20
-14.399372
 11
-275.29077
 21
-16.399372
  0
LINE
  8
0
  6
PHANTOM
 62
     7
 10
-275.29077
 20
-14.399372
 11
-267.29077
 21
-14.399372
  0
LINE
  8
0
  6
PHANTOM
 62
     7
 10
-345.29074
 20
-7.4492345
 11
-335.29071
 21
-6.574347
  0
LINE
  8
0
  6
PHANTOM
 62
     7
 10
-345.29077
 20
-7.4492378
 11
-345.29077
 21
-16.399372
  0
LINE
  8
0
  6
PHANTOM
 62
     7
 10
-343.29077
 20
-9.2818985
 11
-343.29077
 21
-14.399372
  0
LINE
  8
0
  6
PHANTOM
 62
     7
 10
-275.29077
 20
-16.399372
 11
-265.29077
 21
-16.399372
  0
LINE
  8
0
  6
PHANTOM
 62
     7
 10
-345.29077
 20
-16.399372
 11
-335.29077
 21
-16.399372
  0
LINE
  8
0
  6
PHANTOM
 62
     7
 10
-343.29077
 20
-14.399372
 11
-335.29077
 21
-14.399372
  0
LINE
  8
0
  6
PHANTOM
 62
     7
 10
-335.29077
 20
-14.399372
 11
-335.29077
 21
-16.399372
  0
LINE
  8
0
  6
PHANTOM
 62
     7
 10
-333.2908
 20
-6.3993697
 11
-267.29074
 21
-0.10018454
  0
LINE
  8
0
  6
CONTINUOUS
 62
     3
 10
-287.29077
 20
17.784733
 11
-267.29077
 21
17.784733
  0
LINE
  8
0
  6
PHANTOM
 62
     7
 10
-266.79074
 20
17.784733
 11
-265.29074
 21
17.784727
  0
LINE
  8
0
  6
CENTER
 62
     7
 10
-309.54614
 20
64.284729
 11
-293.11707
 21
64.284729
  0
LINE
  8
0
  6
CONTINUOUS
 62
     3
 10
-156.79077
 20
168.09869
 11
-156.79077
 21
166.09869
  0
LINE
  8
0
  6
CONTINUOUS
 62
     3
 10
-191.75075
 20
198.09863
 11
-189.99075
 21
194.57866
  0
LINE
  8
0
  6
CONTINUOUS
 62
     3
 10
-189.99077
 20
194.57863
 11
-188.23076
 21
198.09863
  0
LINE
  8
0
  6
CONTINUOUS
 62
     3
 10
-189.99077
 20
45.804745
 11
-188.23077
 21
42.284733
  0
LINE
  8
0
  6
CONTINUOUS
 62
     3
 10
117.16924
 20
42.284729
 11
115.40923
 21
45.804741
  0
LINE
  8
0
  6
CONTINUOUS
 62
     3
 10
-299.29077
 20
45.804749
 11
-297.53076
 21
42.284744
  0
LINE
  8
0
  6
PHANTOM
 62
     7
 10
-327.79077
 20
35.784733
 11
-327.79077
 21
37.784733
  0
LINE
  8
0
  6
PHANTOM
 62
     7
 10
-309.79077
 20
35.784733
 11
-309.79077
 21
37.784733
  0
LINE
  8
0
  6
PHANTOM
 62
     7
 10
-309.79077
 20
37.784733
 11
-310.29077
 21
37.784733
  0
LINE
  8
0
  6
PHANTOM
 62
     7
 10
-327.79077
 20
37.784733
 11
-327.29077
 21
37.784733
  0
LINE
  8
0
  6
CONTINUOUS
 62
     7
 10
-365
 20
270.5
 11
-275
 21
270.5
  0
LINE
  8
0
  6
CONTINUOUS
 62
     3
 10
20.709244
 20
167.09869
 11
20.709244
 21
185.09869
  0
LINE
  8
0
  6
CONTINUOUS
 62
     3
 10
21.709244
 20
186.09869
 11
31.709244
 21
186.09869
  0
LINE
  8
0
  6
CONTINUOUS
 62
     3
 10
32.709244
 20
185.09869
 11
32.709244
 21
167.09869
  0
LINE
  8
0
  6
CONTINUOUS
 62
     3
 10
31.709244
 20
166.09869
 11
21.709244
 21
166.09869
  0
LINE
  8
0
  6
CONTINUOUS
 62
     3
 10
6.2206421
 20
190.09869
 11
47.197845
 21
190.09869
  0
LINE
  8
0
  6
CONTINUOUS
 62
     3
 10
47.197845
 20
162.09869
 11
6.2206421
 21
162.09869
  0
LINE
  8
0
  6
CONTINUOUS
 62
     3
 10
4.2092438
 20
163.59869
 11
4.2092438
 21
166.09869
  0
LINE
  8
0
  6
CONTINUOUS
 62
     3
 10
4.2092438
 20
186.09869
 11
4.2092438
 21
188.59869
  0
LINE
  8
0
  6
CONTINUOUS
 62
     3
 10
49.209244
 20
188.59869
 11
49.209244
 21
186.09869
  0
LINE
  8
0
  6
CONTINUOUS
 62
     3
 10
49.209244
 20
166.09869
 11
49.209244
 21
163.59869
  0
LINE
  8
0
  6
CONTINUOUS
 62
     3
 10
11.197449
 20
189.09869
 11
42.221039
 21
189.09869
  0
LINE
  8
0
  6
CONTINUOUS
 62
     3
 10
11.197449
 20
163.09869
 11
42.221039
 21
163.09869
  0
LINE
  8
0
  6
CONTINUOUS
 62
     3
 10
14.15004
 20
75.784729
 11
39.268448
 21
75.784729
  0
LINE
  8
0
  6
CONTINUOUS
 62
     3
 10
-267.29077
 20
82.284729
 11
-267.29077
 21
76.784729
  0
LINE
  8
0
  6
CONTINUOUS
 62
     3
 10
14.15004
 20
76.784729
 11
39.268448
 21
76.784729
  0
LINE
  8
0
  6
CONTINUOUS
 62
     3
 10
-111.29077
 20
21.784733
 11
-111.29077
 21
20.784733
  0
LINE
  8
0
  6
CONTINUOUS
 62
     3
 10
-111.29077
 20
17.784733
 11
-89.790771
 21
17.784733
  0
LINE
  8
0
  6
CONTINUOUS
 62
     3
 10
-111.29077
 20
20.784733
 11
-89.790771
 21
20.784733
  0
LINE
  8
0
  6
CONTINUOUS
 62
     3
 10
-132.29077
 20
21.784733
 11
-114.29077
 21
21.784733
  0
LINE
  8
0
  6
CONTINUOUS
 62
     3
 10
-156.79077
 20
20.784733
 11
-156.79077
 21
17.784733
  0
LINE
  8
0
  6
CONTINUOUS
 62
     3
 10
-135.29077
 20
21.784733
 11
-135.29077
 21
20.784733
  0
LINE
  8
0
  6
CONTINUOUS
 62
     3
 10
-135.29077
 20
20.784733
 11
-156.79077
 21
20.784733
  0
LINE
  8
0
  6
CONTINUOUS
 62
     3
 10
-135.29077
 20
17.784733
 11
-156.79077
 21
17.784733
  0
LINE
  8
0
  6
CONTINUOUS
 62
     3
 10
-89.790771
 20
20.784733
 11
-89.790771
 21
17.784733
  0
LINE
  8
0
  6
CONTINUOUS
 62
     3
 10
-286.29077
 20
83.284729
 11
-268.29077
 21
83.284729
  0
LINE
  8
0
  6
CONTINUOUS
 62
     3
 10
-266.25323
 20
76.784729
 11
-288.32831
 21
76.784729
  0
LINE
  8
0
  6
CONTINUOUS
 62
     3
 10
-291.29077
 20
33.784733
 11
-263.29077
 21
33.784733
  0
LINE
  8
0
  6
CONTINUOUS
 62
     3
 10
-269.29077
 20
45.28474
 11
-269.29077
 21
58.28474
  0
LINE
  8
0
  6
CONTINUOUS
 62
     3
 10
-270.79077
 20
59.78474
 11
-283.79083
 21
59.78474
  0
LINE
  8
0
  6
CONTINUOUS
 62
     3
 10
-285.29083
 20
58.28474
 11
-285.29083
 21
45.28474
  0
LINE
  8
0
  6
CONTINUOUS
 62
     3
 10
-283.79083
 20
43.78474
 11
-270.79077
 21
43.78474
  0
LINE
  8
0
  6
CENTER
 62
     7
 10
-277.29077
 20
90.092834
 11
-277.29077
 21
12.260975
  0
LINE
  8
0
  6
CONTINUOUS
 62
     3
 10
-287.29077
 20
25.784733
 11
-267.29077
 21
25.784733
  0
LINE
  8
0
  6
CONTINUOUS
 62
     3
 10
-299.29877
 20
39.284744
 11
-269.29077
 21
39.284744
  0
LINE
  8
0
  6
CONTINUOUS
 62
     3
 10
-269.29077
 20
42.284744
 11
-299.29077
 21
42.284744
  0
LINE
  8
0
  6
CONTINUOUS
 62
     3
 10
-269.29077
 20
42.284744
 11
-269.29077
 21
39.284744
  0
LINE
  8
0
  6
CONTINUOUS
 62
     3
 10
-287.29077
 20
31.784733
 11
-267.29077
 21
31.784733
  0
LINE
  8
0
  6
CONTINUOUS
 62
     3
 10
-135.29077
 20
166.09869
 11
-135.29077
 21
168.09869
  0
LINE
  8
0
  6
CONTINUOUS
 62
     3
 10
38.709244
 20
31.784733
 11
38.709244
 21
25.784733
  0
LINE
  8
0
  6
CONTINUOUS
 62
     3
 10
-135.29077
 20
184.09869
 11
-135.29077
 21
186.09869
  0
LINE
  8
0
  6
CONTINUOUS
 62
     3
 10
-287.29077
 20
82.284729
 11
-287.29077
 21
76.784729
  0
LINE
  8
0
  6
CENTER
 62
     7
 10
111.70924
 20
204.09866
 11
111.70924
 21
194.09866
  0
LINE
  8
0
  6
CENTER
 62
     7
 10
81.709244
 20
204.09866
 11
81.709244
 21
194.53622
  0
LINE
  8
0
  6
CENTER
 62
     7
 10
121.70924
 20
204.09866
 11
121.70924
 21
194.09866
  0
LINE
  8
0
  6
CENTER
 62
     7
 10
71.709244
 20
204.09866
 11
71.709244
 21
194.66574
  0
LINE
  8
0
  6
CONTINUOUS
 62
     3
 10
34.209244
 20
82.284729
 11
34.209244
 21
76.784729
  0
LINE
  8
0
  6
CONTINUOUS
 62
     3
 10
19.209244
 20
76.784729
 11
19.209244
 21
82.284729
  0
LINE
  8
0
  6
CONTINUOUS
 62
     7
 10
34.209244
 20
25.584736
 11
34.209244
 21
23.584736
  0
LINE
  8
0
  6
CONTINUOUS
 62
     7
 10
19.209244
 20
25.584736
 11
19.209244
 21
23.584736
  0
LINE
  8
0
  6
CONTINUOUS
 62
     7
 10
-273.29077
 20
25.784733
 11
-273.29077
 21
24.784733
  0
LINE
  8
0
  6
CONTINUOUS
 62
     7
 10
-281.29077
 20
24.784733
 11
-281.29077
 21
25.784733
  0
LINE
  8
0
  6
CONTINUOUS
 62
     7
 10
-269.79077
 20
25.584736
 11
-269.79077
 21
24.784733
  0
LINE
  8
0
  6
CONTINUOUS
 62
     7
 10
-284.79077
 20
25.584736
 11
-284.79077
 21
24.784733
  0
LINE
  8
0
  6
CONTINUOUS
 62
     3
 10
19.209244
 20
25.584736
 11
34.209244
 21
25.584736
  0
LINE
  8
0
  6
CONTINUOUS
 62
     3
 10
19.209244
 20
23.584736
 11
34.209244
 21
23.584736
  0
LINE
  8
0
  6
CONTINUOUS
 62
     7
 10
31.709244
 20
25.784733
 11
31.709244
 21
25.584736
  0
LINE
  8
0
  6
CONTINUOUS
 62
     7
 10
21.709244
 20
25.784733
 11
21.709244
 21
25.584736
  0
LINE
  8
0
  6
CONTINUOUS
 62
     3
 10
-114.29077
 20
21.784733
 11
-114.29077
 21
20.784733
  0
LINE
  8
0
  6
CONTINUOUS
 62
     3
 10
-132.29077
 20
21.784733
 11
-132.29077
 21
20.784733
  0
LINE
  8
0
  6
CONTINUOUS
 62
     7
 10
-133.29077
 20
31.784733
 11
-133.29077
 21
25.784733
  0
LINE
  8
0
  6
CONTINUOUS
 62
     7
 10
-127.92402
 20
31.784733
 11
-127.92402
 21
25.784733
  0
LINE
  8
0
  6
CONTINUOUS
 62
     3
 10
-140.29077
 20
184.45427
 11
-140.29077
 21
201.09866
  0
LINE
  8
0
  6
CONTINUOUS
 62
     3
 10
-202.29077
 20
201.09866
 11
-202.29077
 21
184.44482
  0
LINE
  8
0
  6
CONTINUOUS
 62
     7
 10
-140.85115
 20
184.13072
 11
-140.29076
 21
184.45425
  0
LINE
  8
0
  6
CENTER
 62
     7
 10
-146.29079
 20
204.09866
 11
-146.29079
 21
194.09866
  0
LINE
  8
0
  6
CONTINUOUS
 62
     7
 10
-183.29074
 20
173.47516
 11
-202.29076
 21
184.44482
  0
LINE
  8
0
  6
CONTINUOUS
 62
     3
 10
-287.29077
 20
24.784733
 11
-287.29077
 21
17.784733
  0
LINE
  8
0
  6
CONTINUOUS
 62
     3
 10
-267.29077
 20
24.784733
 11
-267.29077
 21
17.784733
  0
LINE
  8
0
  6
CONTINUOUS
 62
     3
 10
-287.29077
 20
31.784733
 11
-287.29077
 21
25.784733
  0
LINE
  8
0
  6
CONTINUOUS
 62
     3
 10
-267.29077
 20
31.784733
 11
-267.29077
 21
25.784733
  0
LINE
  8
0
  6
CONTINUOUS
 62
     7
 10
-284.79077
 20
25.584736
 11
-281.29077
 21
25.584736
  0
LINE
  8
0
  6
CONTINUOUS
 62
     7
 10
-272.29077
 20
25.784733
 11
-272.29077
 21
25.584736
  0
LINE
  8
0
  6
CONTINUOUS
 62
     7
 10
-282.29077
 20
25.784733
 11
-282.29077
 21
25.584736
  0
LINE
  8
0
  6
CONTINUOUS
 62
     3
 10
-283.79077
 20
43.78474
 11
-283.79077
 21
42.28474
  0
LINE
  8
0
  6
CONTINUOUS
 62
     3
 10
-270.79077
 20
43.78474
 11
-270.79077
 21
42.28474
  0
LINE
  8
0
  6
CONTINUOUS
 62
     7
 10
-164.79077
 20
43.784733
 11
-164.79077
 21
42.284733
  0
LINE
  8
0
  6
CONTINUOUS
 62
     7
 10
-177.79077
 20
43.784733
 11
-177.79077
 21
42.284733
  0
LINE
  8
0
  6
CONTINUOUS
 62
     7
 10
-270.79077
 20
61.784748
 11
-270.79077
 21
59.78474
  0
LINE
  8
0
  6
CONTINUOUS
 62
     3
 10
-270.79077
 20
61.28474
 11
-283.79077
 21
61.28474
  0
LINE
  8
0
  6
CONTINUOUS
 62
     3
 10
-271.79074
 20
62.78474
 11
-282.79074
 21
62.78474
  0
LINE
  8
0
  6
CONTINUOUS
 62
     3
 10
-270.79077
 20
61.78476
 11
-271.79074
 21
62.78474
  0
LINE
  8
0
  6
CONTINUOUS
 62
     3
 10
-282.79074
 20
62.78474
 11
-283.79077
 21
61.784706
  0
LINE
  8
0
  6
CONTINUOUS
 62
     7
 10
-283.79077
 20
61.78471
 11
-270.79071
 21
61.78471
  0
LINE
  8
0
  6
CONTINUOUS
 62
     7
 10
-283.79077
 20
61.78471
 11
-283.79077
 21
59.78474
  0
LINE
  8
0
  6
CONTINUOUS
 62
     7
 10
49.209209
 20
33.784725
 11
43.223522
 21
73.382576
  0
LINE
  8
0
  6
CONTINUOUS
 62
     7
 10
4.2092876
 20
33.784733
 11
10.19498
 21
73.382584
  0
LINE
  8
0
  6
CONTINUOUS
 62
     7
 10
48.197849
 20
33.784733
 11
42.234753
 21
73.233116
  0
LINE
  8
0
  6
CONTINUOUS
 62
     7
 10
5.2206488
 20
33.784733
 11
11.183746
 21
73.233116
  0
LINE
  8
0
  6
CONTINUOUS
 62
     7
 10
42.709244
 20
186.09869
 11
42.709244
 21
166.09869
  0
LINE
  8
0
  6
CONTINUOUS
 62
     7
 10
10.709244
 20
186.09869
 11
10.709244
 21
166.09869
  0
LINE
  8
0
  6
CONTINUOUS
 62
     3
 10
11.164795
 20
165.09869
 11
42.253693
 21
165.09869
  0
LINE
  8
0
  6
CONTINUOUS
 62
     3
 10
11.164795
 20
187.09869
 11
42.253693
 21
187.09869
  0
LINE
  8
0
  6
CONTINUOUS
 62
     7
 10
49.209251
 20
163.59871
 11
43.153133
 21
164.99628
  0
LINE
  8
0
  6
CONTINUOUS
 62
     7
 10
49.20924
 20
188.59871
 11
43.15313
 21
187.20114
  0
LINE
  8
0
  6
CONTINUOUS
 62
     7
 10
10.265362
 20
187.20114
 11
4.2092419
 21
188.59871
  0
LINE
  8
0
  6
CONTINUOUS
 62
     7
 10
10.265368
 20
164.99625
 11
4.2092471
 21
163.59869
  0
LINE
  8
0
  6
CONTINUOUS
 62
     7
 10
48.197845
 20
163.59869
 11
48.197845
 21
163.09869
  0
LINE
  8
0
  6
CONTINUOUS
 62
     7
 10
5.2206421
 20
163.59869
 11
5.2206421
 21
163.09869
  0
LINE
  8
0
  6
CONTINUOUS
 62
     7
 10
48.197845
 20
189.09869
 11
48.197845
 21
188.59869
  0
LINE
  8
0
  6
CONTINUOUS
 62
     7
 10
5.2206421
 20
189.09869
 11
5.2206421
 21
188.59869
  0
LINE
  8
0
  6
CONTINUOUS
 62
     7
 10
46.384933
 20
162.41583
 11
42.737999
 21
163.05382
  0
LINE
  8
0
  6
CONTINUOUS
 62
     7
 10
10.680497
 20
163.05382
 11
7.0362387
 21
162.41631
  0
LINE
  8
0
  6
CONTINUOUS
 62
     7
 10
46.533806
 20
189.80759
 11
42.738003
 21
189.14357
  0
LINE
  8
0
  6
CONTINUOUS
 62
     7
 10
10.680499
 20
189.14357
 11
7.1362839
 21
189.76358
  0
LINE
  8
0
  6
CONTINUOUS
 62
     7
 10
49.209244
 20
188.59869
 11
48.197845
 21
188.59869
  0
LINE
  8
0
  6
CONTINUOUS
 62
     7
 10
5.2206421
 20
188.59869
 11
4.2092438
 21
188.59869
  0
LINE
  8
0
  6
CONTINUOUS
 62
     7
 10
49.209244
 20
163.59869
 11
48.197845
 21
163.59869
  0
LINE
  8
0
  6
CONTINUOUS
 62
     7
 10
5.2206421
 20
163.59869
 11
4.2092438
 21
163.59869
  0
LINE
  8
0
  6
CONTINUOUS
 62
     7
 10
48.197849
 20
163.59869
 11
43.104042
 21
164.9908
  0
LINE
  8
0
  6
CONTINUOUS
 62
     7
 10
5.2206302
 20
163.59871
 11
10.314453
 21
164.99081
  0
LINE
  8
0
  6
CONTINUOUS
 62
     7
 10
48.197845
 20
188.59869
 11
43.104038
 21
187.20659
  0
LINE
  8
0
  6
CONTINUOUS
 62
     7
 10
5.220633
 20
188.59869
 11
10.314441
 21
187.20659
  0
LINE
  8
0
  6
CONTINUOUS
 62
     3
 10
50.249374
 20
40.284733
 11
48.226654
 21
40.284733
  0
LINE
  8
0
  6
CONTINUOUS
 62
     3
 10
46.62149
 20
64.284737
 11
44.59877
 21
64.284737
  0
LINE
  8
0
  6
CONTINUOUS
 62
     7
 10
50.249378
 20
40.284729
 11
46.62149
 21
64.284729
  0
LINE
  8
0
  6
CONTINUOUS
 62
     7
 10
3.1691155
 20
40.284737
 11
6.7970028
 21
64.284737
  0
LINE
  8
0
  6
CONTINUOUS
 62
     3
 10
3.1691132
 20
40.284733
 11
5.1918335
 21
40.284733
  0
LINE
  8
0
  6
CONTINUOUS
 62
     3
 10
6.7969971
 20
64.284737
 11
8.8197174
 21
64.284737
  0
LINE
  8
0
  6
CONTINUOUS
 62
     7
 10
44.59877
 20
186.09869
 11
44.59877
 21
166.09869
  0
LINE
  8
0
  6
CONTINUOUS
 62
     7
 10
46.62149
 20
186.09869
 11
46.62149
 21
166.09869
  0
LINE
  8
0
  6
CONTINUOUS
 62
     7
 10
50.249374
 20
186.09869
 11
50.249374
 21
184.09869
  0
LINE
  8
0
  6
CONTINUOUS
 62
     7
 10
44.59877
 20
186.09869
 11
50.249374
 21
186.09869
  0
LINE
  8
0
  6
CONTINUOUS
 62
     7
 10
44.59877
 20
166.09869
 11
50.249374
 21
166.09869
  0
LINE
  8
0
  6
CONTINUOUS
 62
     7
 10
47.301712
 20
184.09869
 11
47.301712
 21
168.09869
  0
LINE
  8
0
  6
CONTINUOUS
 62
     7
 10
50.249374
 20
168.09869
 11
50.249374
 21
166.09869
  0
LINE
  8
0
  6
CONTINUOUS
 62
     7
 10
3.1691132
 20
168.09869
 11
3.1691132
 21
166.09869
  0
LINE
  8
0
  6
CONTINUOUS
 62
     7
 10
6.7969971
 20
186.09869
 11
6.7969971
 21
166.09869
  0
LINE
  8
0
  6
CONTINUOUS
 62
     7
 10
6.1167755
 20
184.09869
 11
6.1167755
 21
168.09869
  0
LINE
  8
0
  6
CONTINUOUS
 62
     7
 10
3.1691132
 20
186.09869
 11
3.1691132
 21
184.09869
  0
LINE
  8
0
  6
CONTINUOUS
 62
     7
 10
8.8197174
 20
186.09869
 11
3.1691132
 21
186.09869
  0
LINE
  8
0
  6
CONTINUOUS
 62
     7
 10
8.8197174
 20
166.09869
 11
3.1691132
 21
166.09869
  0
LINE
  8
0
  6
CONTINUOUS
 62
     7
 10
8.8197174
 20
186.09869
 11
8.8197174
 21
166.09869
  0
LINE
  8
0
  6
CONTINUOUS
 62
     7
 10
-263.29077
 20
33.784729
 11
-264.2085
 21
74.807098
  0
LINE
  8
0
  6
CONTINUOUS
 62
     7
 10
-265.29028
 20
33.739998
 11
-266.25323
 21
76.784714
  0
LINE
  8
0
  6
CONTINUOUS
 62
     7
 10
-289.29129
 20
33.740002
 11
-289.16724
 21
39.284744
  0
LINE
  8
0
  6
CONTINUOUS
 62
     7
 10
-291.2908
 20
33.784733
 11
-291.16776
 21
39.284744
  0
LINE
  8
0
  6
CONTINUOUS
 62
     7
 10
-291.10065
 20
42.28474
 11
-290.37308
 21
74.807091
  0
LINE
  8
0
  6
CONTINUOUS
 62
     7
 10
-289.10013
 20
42.284744
 11
-288.32834
 21
76.784729
  0
LINE
  8
0
  6
CONTINUOUS
 62
     7
 10
-287.29077
 20
64.284737
 11
-267.29077
 21
64.284737
  0
LINE
  8
0
  6
CONTINUOUS
 62
     7
 10
-269.29077
 20
40.284733
 11
-267.29077
 21
40.284733
  0
LINE
  8
0
  6
CONTINUOUS
 62
     7
 10
-267.29077
 20
64.284737
 11
-267.29077
 21
40.284733
  0
LINE
  8
0
  6
CONTINUOUS
 62
     7
 10
-287.29077
 20
64.284737
 11
-287.29077
 21
42.284744
  0
LINE
  8
0
  6
CONTINUOUS
 62
     7
 10
-266.23087
 20
75.784729
 11
-265.20825
 21
75.784729
  0
LINE
  8
0
  6
CONTINUOUS
 62
     7
 10
-289.37329
 20
75.784729
 11
-288.35068
 21
75.784729
  0
LINE
  8
0
  6
CONTINUOUS
 62
     7
 10
33.342484
 20
31.784733
 11
33.342484
 21
25.784733
  0
LINE
  8
0
  6
CONTINUOUS
 62
     7
 10
103.20924
 20
61.78474
 11
103.20924
 21
59.784733
  0
LINE
  8
0
  6
CONTINUOUS
 62
     3
 10
103.20924
 20
61.284733
 11
90.209244
 21
61.284733
  0
LINE
  8
0
  6
CONTINUOUS
 62
     3
 10
102.20926
 20
62.784733
 11
91.209274
 21
62.784733
  0
LINE
  8
0
  6
CONTINUOUS
 62
     3
 10
103.20924
 20
61.784748
 11
102.20927
 21
62.784729
  0
LINE
  8
0
  6
CONTINUOUS
 62
     3
 10
91.209282
 20
62.784733
 11
90.209251
 21
61.784698
  0
LINE
  8
0
  6
CONTINUOUS
 62
     7
 10
90.209244
 20
61.784702
 11
90.209244
 21
59.784733
  0
LINE
  8
0
  6
CONTINUOUS
 62
     7
 10
103.20924
 20
43.784733
 11
103.20924
 21
42.284733
  0
LINE
  8
0
  6
CONTINUOUS
 62
     7
 10
90.209244
 20
43.784733
 11
90.209244
 21
42.284733
  0
LINE
  8
0
  6
CONTINUOUS
 62
     3
 10
65.709244
 20
201.09866
 11
127.70921
 21
201.09866
  0
LINE
  8
0
  6
CONTINUOUS
 62
     3
 10
65.709244
 20
198.09866
 11
127.70921
 21
198.09866
  0
LINE
  8
0
  6
CONTINUOUS
 62
     3
 10
76.249252
 20
198.09862
 11
78.009232
 21
194.57863
  0
LINE
  8
0
  6
CONTINUOUS
 62
     3
 10
78.009224
 20
194.57863
 11
79.769218
 21
198.09863
  0
LINE
  8
0
  6
CONTINUOUS
 62
     3
 10
117.16921
 20
198.09863
 11
115.40923
 21
194.57866
  0
LINE
  8
0
  6
CONTINUOUS
 62
     3
 10
115.40923
 20
194.57863
 11
113.64923
 21
198.09863
  0
LINE
  8
0
  6
CONTINUOUS
 62
     3
 10
65.709244
 20
184.45427
 11
65.709244
 21
201.09866
  0
LINE
  8
0
  6
CONTINUOUS
 62
     3
 10
127.70924
 20
201.09866
 11
127.70924
 21
184.44482
  0
LINE
  8
0
  6
CONTINUOUS
 62
     7
 10
66.269623
 20
184.13072
 11
65.709229
 21
184.45427
  0
LINE
  8
0
  6
CONTINUOUS
 62
     7
 10
108.70921
 20
173.47514
 11
127.70922
 21
184.44481
  0
LINE
  8
0
  6
CONTINUOUS
 62
     3
 10
-164.79077
 20
61.784748
 11
-165.79076
 21
62.784729
  0
LINE
  8
0
  6
CONTINUOUS
 62
     7
 10
-164.79077
 20
61.78474
 11
-164.79077
 21
59.784733
  0
LINE
  8
0
  6
CONTINUOUS
 62
     3
 10
-164.79077
 20
61.284733
 11
-177.79077
 21
61.284733
  0
LINE
  8
0
  6
CONTINUOUS
 62
     3
 10
-165.79076
 20
62.784733
 11
-176.79074
 21
62.784733
  0
LINE
  8
0
  6
CONTINUOUS
 62
     3
 10
-177.79074
 20
61.784733
 11
-164.79076
 21
61.784733
  0
LINE
  8
0
  6
CONTINUOUS
 62
     3
 10
-176.79074
 20
62.784733
 11
-177.79077
 21
61.784702
  0
LINE
  8
0
  6
CONTINUOUS
 62
     7
 10
-177.79077
 20
61.784702
 11
-177.79077
 21
59.784733
  0
LINE
  8
0
  6
CONTINUOUS
 62
     7
 10
-119.29077
 20
25.784733
 11
-119.29077
 21
24.784733
  0
LINE
  8
0
  6
CONTINUOUS
 62
     7
 10
-127.29077
 20
24.784733
 11
-127.29077
 21
25.784733
  0
LINE
  8
0
  6
CONTINUOUS
 62
     3
 10
-287.29077
 20
20.784733
 11
-267.29077
 21
20.784733
  0
LINE
  8
0
  6
CONTINUOUS
 62
     7
 10
-273.29077
 20
25.584736
 11
-269.79077
 21
25.584736
  0
LINE
  8
0
  6
CENTER
 62
     7
 10
-156.29077
 20
204.09866
 11
-156.29077
 21
194.09866
  0
LINE
  8
0
  6
CENTER
 62
     7
 10
-186.29077
 20
204.09866
 11
-186.29077
 21
194.53622
  0
LINE
  8
0
  6
CENTER
 62
     7
 10
-196.29077
 20
204.09866
 11
-196.29077
 21
194.66574
  0
LINE
  8
0
  6
CENTER
 62
     7
 10
-141.29077
 20
22.652771
 11
-141.29077
 21
11.838857
  0
LINE
  8
0
  6
CENTER
 62
     7
 10
-105.29076
 20
22.94829
 11
-105.29076
 21
12.129479
  0
LINE
  8
0
  6
CENTER
 62
     7
 10
-95.290756
 20
22.252922
 11
-95.290756
 21
11.955106
  0
LINE
  8
0
  6
CENTER
 62
     7
 10
-151.29077
 20
22.477182
 11
-151.29077
 21
12.268101
  0
LINE
  8
0
  6
CONTINUOUS
 62
     7
 10
-285.64078
 20
42.284744
 11
-285.64078
 21
39.284744
  0
ARC
  8
0
  6
DASHED
 62
     7
 10
-141.29077
 20
174.59869
 40
2.75
 50
180
 51
360
  0
ARC
  8
0
  6
DASHED
 62
     7
 10
-141.29077
 20
177.59869
 40
2.75
 50
0
 51
180
  0
ARC
  8
0
  6
DASHED
 62
     7
 10
-151.29077
 20
174.59869
 40
2.75
 50
180
 51
360
  0
ARC
  8
0
  6
DASHED
 62
     7
 10
-95.290756
 20
177.59869
 40
2.75
 50
0
 51
180
  0
ARC
  8
0
  6
DASHED
 62
     7
 10
-105.29076
 20
177.59869
 40
2.75
 50
0
 51
180
  0
ARC
  8
0
  6
DASHED
 62
     7
 10
-105.29076
 20
174.59869
 40
2.75
 50
180
 51
360
  0
ARC
  8
0
  6
DASHED
 62
     7
 10
-95.290756
 20
174.59869
 40
2.75
 50
180
 51
360
  0
ARC
  8
0
  6
DASHED
 62
     7
 10
-151.29077
 20
177.59869
 40
2.75
 50
0
 51
180
  0
ARC
  8
0
  6
CONTINUOUS
 62
     3
 10
-182.29074
 20
183.09869
 40
1
 50
90
 51
180
  0
ARC
  8
0
  6
CONTINUOUS
 62
     3
 10
-182.29074
 20
169.09869
 40
1
 50
180
 51
270
  0
ARC
  8
0
  6
CONTINUOUS
 62
     3
 10
107.70924
 20
183.09869
 40
1
 50
0
 51
90
  0
ARC
  8
0
  6
CONTINUOUS
 62
     3
 10
107.70924
 20
169.09869
 40
1
 50
270
 51
360
  0
ARC
  8
0
  6
CONTINUOUS
 62
     3
 10
81.709244
 20
65.784729
 40
2.75
 50
0
 51
180
  0
ARC
  8
0
  6
CONTINUOUS
 62
     3
 10
-186.29077
 20
63.284733
 40
2.75
 50
180
 51
360
  0
ARC
  8
0
  6
CONTINUOUS
 62
     3
 10
-156.29077
 20
63.284733
 40
2.75
 50
180
 51
360
  0
CIRCLE
  8
0
  6
DASHED
 62
     7
 10
-123.29077
 20
176.09869
 40
6
  0
ARC
  8
0
  6
CONTINUOUS
 62
     3
 10
-196.29077
 20
63.284733
 40
2.75
 50
180
 51
360
  0
ARC
  8
0
  6
CONTINUOUS
 62
     3
 10
71.709244
 20
65.784729
 40
2.75
 50
0
 51
180
  0
ARC
  8
0
  6
CONTINUOUS
 62
     3
 10
71.709244
 20
62.784733
 40
2.75
 50
180
 51
360
  0
ARC
  8
0
  6
CONTINUOUS
 62
     3
 10
111.70924
 20
62.784733
 40
2.75
 50
180
 51
360
  0
ARC
  8
0
  6
CONTINUOUS
 62
     3
 10
96.709244
 20
44.909733
 40
6.625
 50
238.10921
 51
301.89079
  0
ARC
  8
0
  6
CONTINUOUS
 62
     3
 10
121.70924
 20
62.784733
 40
2.75
 50
180
 51
360
  0
ARC
  8
0
  6
CONTINUOUS
 62
     3
 10
121.70924
 20
65.784729
 40
2.75
 50
0
 51
180
  0
ARC
  8
0
  6
CONTINUOUS
 62
     3
 10
111.70924
 20
65.784729
 40
2.75
 50
0
 51
180
  0
ARC
  8
0
  6
CONTINUOUS
 62
     3
 10
81.709244
 20
62.784733
 40
2.75
 50
180
 51
360
  0
ARC
  8
0
  6
CONTINUOUS
 62
     3
 10
-146.29077
 20
66.284729
 40
2.75
 50
0
 51
180
  0
ARC
  8
0
  6
CONTINUOUS
 62
     3
 10
-196.29077
 20
66.284729
 40
2.75
 50
0
 51
180
  0
ARC
  8
0
  6
CONTINUOUS
 62
     3
 10
-186.29077
 20
66.284729
 40
2.75
 50
0
 51
180
  0
ARC
  8
0
  6
CONTINUOUS
 62
     3
 10
-156.29077
 20
66.284729
 40
2.75
 50
0
 51
180
  0
ARC
  8
0
  6
CONTINUOUS
 62
     3
 10
-171.29077
 20
44.909733
 40
6.625
 50
238.10921
 51
301.89079
  0
ARC
  8
0
  6
CONTINUOUS
 62
     3
 10
-182.29074
 20
58.784733
 40
1
 50
90
 51
180
  0
ARC
  8
0
  6
CONTINUOUS
 62
     3
 10
-182.29074
 20
44.784733
 40
1
 50
180
 51
270
  0
ARC
  8
0
  6
CONTINUOUS
 62
     3
 10
107.70924
 20
58.784733
 40
1
 50
0
 51
90
  0
ARC
  8
0
  6
CONTINUOUS
 62
     3
 10
107.70924
 20
44.784733
 40
1
 50
270
 51
360
  0
ARC
  8
0
  6
CONTINUOUS
 62
     3
 10
-146.29077
 20
63.284733
 40
2.75
 50
180
 51
360
  0
ARC
  8
0
  6
CONTINUOUS
 62
     3
 10
-299.29077
 20
42.284733
 40
3
 50
180
 51
270
  0
CIRCLE
  8
0
  6
CONTINUOUS
 62
     7
 10
-328.82617
 20
234.3804
 40
1.5
  0
ARC
  8
0
  6
CONTINUOUS
 62
     3
 10
-268.29077
 20
82.284729
 40
1
 50
0
 51
90
  0
ARC
  8
0
  6
CONTINUOUS
 62
     3
 10
-286.29077
 20
82.284729
 40
1
 50
90
 51
180
  0
ARC
  8
0
  6
CONTINUOUS
 62
     7
 10
-121.29077
 20
176.09869
 40
12
 50
221.81031
 51
236.4427
  0
ARC
  8
0
  6
CONTINUOUS
 62
     7
 10
-121.29077
 20
176.09869
 40
12
 50
123.5573
 51
138.18969
  0
ARC
  8
0
  6
CONTINUOUS
 62
     7
 10
26.709244
 20
48.034733
 40
17.929274
 50
294.99577
 51
307.36461
  0
ARC
  8
0
  6
CONTINUOUS
 62
     7
 10
26.709244
 20
48.034733
 40
17.929274
 50
232.63539
 51
245.00423
  0
ARC
  8
0
  6
CONTINUOUS
 62
     3
 10
-111.29077
 20
20.784733
 40
3
 50
180
 51
270
  0
ARC
  8
0
  6
CONTINUOUS
 62
     3
 10
-114.29077
 20
21.784733
 40
3
 50
0
 51
90
  0
ARC
  8
0
  6
CONTINUOUS
 62
     3
 10
-135.29077
 20
20.784733
 40
3
 50
270
 51
360
  0
ARC
  8
0
  6
CONTINUOUS
 62
     3
 10
-132.29077
 20
21.784733
 40
3
 50
90
 51
180
  0
ARC
  8
0
  6
CONTINUOUS
 62
     7
 10
-277.29077
 20
48.034733
 40
17.929274
 50
232.63538
 51
245.0042
  0
ARC
  8
0
  6
CONTINUOUS
 62
     7
 10
-277.29077
 20
48.034733
 40
17.929274
 50
294.9958
 51
307.36462
  0
ARC
  8
0
  6
CONTINUOUS
 62
     3
 10
-277.29077
 20
44.909744
 40
6.625
 50
238.10921
 51
301.89079
  0
ARC
  8
0
  6
CONTINUOUS
 62
     7
 10
-123.29077
 20
27.284733
 40
7
 50
231.78682
 51
308.21319
  0
ARC
  8
0
  6
CONTINUOUS
 62
     3
 10
-283.79083
 20
58.28474
 40
1.5
 50
90
 51
180
  0
ARC
  8
0
  6
CONTINUOUS
 62
     3
 10
-270.79077
 20
58.28474
 40
1.5
 50
0
 51
90
  0
ARC
  8
0
  6
CONTINUOUS
 62
     3
 10
-283.79083
 20
45.28474
 40
1.5
 50
180
 51
270
  0
ARC
  8
0
  6
CONTINUOUS
 62
     3
 10
-270.79077
 20
45.28474
 40
1.5
 50
270
 51
360
  0
ARC
  8
0
  6
CONTINUOUS
 62
     3
 10
31.709244
 20
167.09869
 40
1
 50
270
 51
360
  0
ARC
  8
0
  6
CONTINUOUS
 62
     3
 10
31.709244
 20
185.09869
 40
1
 50
0
 51
90
  0
ARC
  8
0
  6
CONTINUOUS
 62
     3
 10
21.709244
 20
185.09869
 40
1
 50
90
 51
180
  0
ARC
  8
0
  6
CONTINUOUS
 62
     3
 10
21.709244
 20
167.09869
 40
1
 50
180
 51
270
  0
ARC
  8
0
  6
CONTINUOUS
 62
     3
 10
33.209244
 20
82.284729
 40
1
 50
0
 51
115.98913
  0
ARC
  8
0
  6
CONTINUOUS
 62
     3
 10
20.209244
 20
82.284729
 40
1
 50
64.010874
 51
180
  0
ARC
  8
0
  6
CONTINUOUS
 62
     7
 10
26.709244
 20
95.618057
 40
13.833333
 50
244.01076
 51
295.98924
  0
CIRCLE
  8
0
  6
CONTINUOUS
 62
     7
 10
-171.29077
 20
176.09869
 40
6.5
  0
CIRCLE
  8
0
  6
CONTINUOUS
 62
     7
 10
-171.29077
 20
176.09869
 40
5.5000119
  0
ARC
  8
0
  6
CONTINUOUS
 62
     7
 10
39.268448
 20
72.784729
 40
4
 50
8.5958423
 51
90
  0
ARC
  8
0
  6
CONTINUOUS
 62
     7
 10
14.15004
 20
72.784729
 40
4
 50
90
 51
171.40415
  0
ARC
  8
0
  6
CONTINUOUS
 62
     7
 10
39.268448
 20
72.784729
 40
3
 50
8.5959198
 51
90
  0
ARC
  8
0
  6
CONTINUOUS
 62
     7
 10
14.15004
 20
72.784729
 40
3
 50
90
 51
171.40408
  0
ARC
  8
0
  6
CONTINUOUS
 62
     7
 10
42.253693
 20
161.09869
 40
4
 50
77.005408
 51
90
  0
ARC
  8
0
  6
CONTINUOUS
 62
     7
 10
11.164795
 20
191.09869
 40
4
 50
257.00539
 51
270
  0
ARC
  8
0
  6
CONTINUOUS
 62
     7
 10
11.164795
 20
161.09869
 40
4
 50
90
 51
102.99461
  0
ARC
  8
0
  6
CONTINUOUS
 62
     7
 10
6.2206421
 20
189.09869
 40
1
 50
90
 51
180
  0
ARC
  8
0
  6
CONTINUOUS
 62
     7
 10
47.197845
 20
189.09869
 40
1
 50
0
 51
90
  0
ARC
  8
0
  6
CONTINUOUS
 62
     7
 10
47.197845
 20
163.09869
 40
1
 50
270
 51
360
  0
ARC
  8
0
  6
CONTINUOUS
 62
     7
 10
6.2206421
 20
163.09869
 40
1
 50
180
 51
270
  0
ARC
  8
0
  6
CONTINUOUS
 62
     7
 10
42.221039
 20
160.09869
 40
3
 50
80.077336
 51
90
  0
ARC
  8
0
  6
CONTINUOUS
 62
     7
 10
11.197449
 20
160.09869
 40
3
 50
90
 51
99.922682
  0
ARC
  8
0
  6
CONTINUOUS
 62
     7
 10
11.197449
 20
192.09869
 40
3
 50
260.07732
 51
270
  0
ARC
  8
0
  6
CONTINUOUS
 62
     7
 10
42.221039
 20
192.09869
 40
3
 50
270
 51
279.92266
  0
ARC
  8
0
  6
CONTINUOUS
 62
     7
 10
42.313171
 20
162.09692
 40
3
 50
74.71467
 51
86.590689
  0
ARC
  8
0
  6
CONTINUOUS
 62
     7
 10
11.105331
 20
162.09692
 40
3
 50
93.409348
 51
105.28531
  0
ARC
  8
0
  6
CONTINUOUS
 62
     7
 10
11.105331
 20
190.10046
 40
3
 50
254.71469
 51
266.59065
  0
ARC
  8
0
  6
CONTINUOUS
 62
     7
 10
-265.20825
 20
74.784729
 40
1
 50
1.2817705
 51
90
  0
ARC
  8
0
  6
CONTINUOUS
 62
     7
 10
-289.37329
 20
74.784729
 40
1
 50
90
 51
178.71867
  0
CIRCLE
  8
0
  6
CONTINUOUS
 62
     7
 10
96.709244
 20
176.09869
 40
6.5
  0
CIRCLE
  8
0
  6
CONTINUOUS
 62
     7
 10
96.709244
 20
176.09869
 40
5.5000119
  0
TEXT
  8
0
  6
CONTINUOUS
 62
     7
 10
-379.343
 20
288.9
 40
3.2
 41
0.85537027
  1
品　名
  0
TEXT
  8
0
  6
CONTINUOUS
 62
     7
 10
-379.343
 20
280.9
 40
3.2
 41
0.85537027
  1
品　番
  0
TEXT
  8
0
  6
CONTINUOUS
 62
     7
 10
-379.343
 20
272.9
 40
3.2
 41
0.85537027
  1
材　質
  0
TEXT
  8
0
  6
CONTINUOUS
 62
     7
 10
-379.343
 20
256.9
 40
3.2
 41
0.85537027
  1
仕上げ
  0
TEXT
  8
0
  6
CONTINUOUS
 62
     7
 10
-382.543
 20
232.9
 40
3.2
 41
0.84892707
  1
セットビス
  0
TEXT
  8
0
  6
CONTINUOUS
 62
     7
 10
-377.743
 20
208.9
 40
3.2
 41
0.86439075
  1
備考
  0
TEXT
  8
0
  6
CONTINUOUS
 62
     7
 10
-362.143
 20
288.9
 40
3.2
 41
0.84377251
  1
重量窓用調整器（内開用）
  0
TEXT
  8
0
  6
CONTINUOUS
 62
     7
 10
-362.143
 20
280.9
 40
3.2
 41
0.84741102
  1
ＯＳ－３８０
  0
TEXT
  8
0
  6
CONTINUOUS
 62
     7
 10
-361.84756
 20
272.9
 40
3.2
 41
0.62491263
  1
ストッパーケース：亜鉛ダイキャスト
  0
TEXT
  8
0
  6
CONTINUOUS
 62
     7
 10
-362.143
 20
216.9
 40
3.2
 41
1
  1
*
  0
TEXT
  8
0
  6
CONTINUOUS
 62
     7
 10
-362.143
 20
208.9
 40
3.2
 41
0.84189812
  1
※サッシ形状、開き角度に応じＬ－２、ストップ位置設定
  0
TEXT
  8
0
  6
CONTINUOUS
 62
     7
 10
-361.93035
 20
248.9
 40
3.2
 41
0.68705179
  1
ブラケット：バレル研磨
  0
TEXT
  8
0
  6
CONTINUOUS
 62
     7
 10
-361.93035
 20
256.9
 40
3.2
 41
0.68499147
  1
ストッパーケース：サーチライトニッケルクロム／パイプ：ヘアーライン
  0
TEXT
  8
0
  6
CONTINUOUS
 62
     7
 10
-362.143
 20
200.9
 40
3.2
 41
0.84741102
  1
　致します。
  0
TEXT
  8
0
  6
CONTINUOUS
 62
     7
 10
-361.96166
 20
192.9
 40
3.2
 41
0.70814842
  1
●シリンダー付も有ります。（ＯＳＬ－３８０、ＯＳＬ－３９０）
  0
TEXT
  8
0
  6
CONTINUOUS
 62
     7
 10
-362.143
 20
184.9
 40
3.2
 41
0.85127005
  1
受注生産
  0
TEXT
  8
0
  6
CONTINUOUS
 62
     7
 10
-361.84756
 20
264.9
 40
3.2
 41
0.6245674
  1
パイプ：ステンレス・ブラケット：ステンレス
  0
TEXT
  8
0
  6
CONTINUOUS
 62
     7
 10
-362.143
 20
232.9
 40
3.2
 41
0.84248387
  1
Ｍ５×１２ナベ小ネジ＋ＳＵＳ：１２本付
  0
DIMENSION
  8
0
  6
CONTINUOUS
 62
     7
  2
*D1
 70
     0
 10
4.2092438
 20
206.83594
 11
27.06295
 21
206.83594
  3
DIMSTYLE
 13
49.209244
 23
188.09869
 14
4.2092438
 24
188.09869
 50
0
1001
ACAD
1000
DSTYLE
1002
{
1070
    77
1070
     1
1070
   172
1070
     1
1002
}
  0
DIMENSION
  8
0
  6
CONTINUOUS
 62
     7
  2
*D2
 70
     0
 10
-141.29077
 20
147.09869
 11
-146.29077
 21
147.09869
  3
DIMSTYLE
 13
-151.29077
 23
169.82878
 14
-141.29077
 24
169.39955
 50
0
1001
ACAD
1000
DSTYLE
1002
{
1070
    77
1070
     1
1070
   172
1070
     1
1002
}
  0
DIMENSION
  8
0
  6
CONTINUOUS
 62
     7
  2
*D3
 70
     0
 10
-141.29077
 20
147.09869
 11
-114.35614
 21
147.09869
  3
DIMSTYLE
 13
-105.29076
 23
169.69017
 14
-141.29077
 24
166.09869
 50
0
1001
ACAD
1000
DSTYLE
1002
{
1070
    77
1070
     1
1070
   172
1070
     1
1070
    76
1070
     1
1002
}
  0
DIMENSION
  8
0
  6
CONTINUOUS
 62
     7
  2
*D4
 70
     0
 10
-95.290756
 20
147.09869
 11
-100.29076
 21
147.09869
  3
DIMSTYLE
 13
-105.29076
 23
166.09869
 14
-95.290756
 24
169.51579
 50
0
1001
ACAD
1000
DSTYLE
1002
{
1070
    77
1070
     1
1070
   172
1070
     1
1070
    75
1070
     1
1002
}
  0
DIMENSION
  8
0
  6
CONTINUOUS
 62
     7
  2
*D5
 70
     0
 10
-5.7907562
 20
168.09869
 11
-5.7907562
 21
195.72522
  3
DIMSTYLE
 13
9.2682648
 23
184.09869
 14
9.2682648
 24
168.09869
 50
90
1001
ACAD
1000
DSTYLE
1002
{
1070
    77
1070
     1
1070
   172
1070
     1
1070
    75
1070
     1
1070
    76
1070
     1
1002
}
  0
DIMENSION
  8
0
  6
CONTINUOUS
 62
     7
  2
*D6
 70
     0
 10
-15.790756
 20
186.09869
 11
-15.790756
 21
195.72522
  3
DIMSTYLE
 13
4.2092438
 23
166.09869
 14
4.2092438
 24
186.09869
 50
90
1001
ACAD
1000
DSTYLE
1002
{
1070
    77
1070
     1
1070
   172
1070
     1
1070
    75
1070
     1
1070
    76
1070
     1
1002
}
  0
DIMENSION
  8
0
  6
CONTINUOUS
 62
     7
  2
*D7
 70
     0
 10
-25.790756
 20
162.09869
 11
-25.790756
 21
195.72522
  3
DIMSTYLE
 13
6.2092438
 23
190.09869
 14
6.2092438
 24
162.09869
 50
90
1001
ACAD
1000
DSTYLE
1002
{
1070
    77
1070
     1
1070
   172
1070
     1
1002
}
  0
DIMENSION
  8
0
  6
CONTINUOUS
 62
     7
  2
*D8
 70
     0
 10
-171.29077
 20
137.09869
 11
-176.29076
 21
137.09869
  3
DIMSTYLE
 13
-181.29074
 23
168.09869
 14
-171.29077
 24
160.58334
 50
0
1001
ACAD
1000
DSTYLE
1002
{
1070
    77
1070
     1
1070
   172
1070
     1
1002
}
  0
DIMENSION
  8
0
  6
CONTINUOUS
 62
     7
  2
*D9
 70
     0
 10
-183.29074
 20
127.09869
 11
-182.29074
 21
127.09869
  3
DIMSTYLE
 13
-181.29074
 23
168.09869
 14
-183.29074
 24
169.09869
 50
0
1001
ACAD
1000
DSTYLE
1002
{
1070
    77
1070
     1
1070
   172
1070
     1
1002
}
  0
DIMENSION
  8
0
  6
CONTINUOUS
 62
     7
  2
*D10
 70
     0
 10
-123.29077
 20
137.09869
 11
-147.29077
 21
137.09869
  3
DIMSTYLE
 13
-171.29077
 23
160.58334
 14
-123.29077
 24
160.4361
 50
0
1001
ACAD
1000
DSTYLE
1002
{
1070
    77
1070
     1
1070
   172
1070
     1
1070
    75
1070
     1
1002
}
  0
DIMENSION
  8
0
  6
CONTINUOUS
 62
     7
  2
*D11
 70
     0
 10
-123.29077
 20
137.09869
 11
-48.290764
 21
137.09869
  3
DIMSTYLE
 13
26.709244
 23
156.09869
 14
-123.29077
 24
160.4361
 50
0
1001
ACAD
1000
DSTYLE
1002
{
1070
    77
1070
     1
1070
   172
1070
     1
1070
    76
1070
     1
1002
}
  0
DIMENSION
  8
0
  6
CONTINUOUS
 62
     7
  2
*D12
 70
     0
 10
96.709244
 20
137.09869
 11
61.709244
 21
137.09869
  3
DIMSTYLE
 13
26.709244
 23
156.09869
 14
96.709244
 24
160.58334
 50
0
1001
ACAD
1000
DSTYLE
1002
{
1070
    77
1070
     1
1070
   172
1070
     1
1070
    75
1070
     1
1002
}
  0
DIMENSION
  8
0
  6
CONTINUOUS
 62
     7
  2
*D13
 70
     0
 10
106.70924
 20
137.09869
 11
101.70924
 21
137.09869
  3
DIMSTYLE
 13
96.709244
 23
160.58334
 14
106.70924
 24
168.09869
 50
0
1001
ACAD
1000
DSTYLE
1002
{
1070
    77
1070
     1
1070
   172
1070
     1
1070
    75
1070
     1
1002
}
  0
DIMENSION
  8
0
  6
CONTINUOUS
 62
     7
  2
*D14
 70
     0
 10
108.70924
 20
127.09869
 11
107.70924
 21
127.09869
  3
DIMSTYLE
 13
106.70924
 23
168.09869
 14
108.70924
 24
169.09869
 50
0
1001
ACAD
1000
DSTYLE
1002
{
1070
    77
1070
     1
1070
   172
1070
     1
1002
}
  0
DIMENSION
  8
0
  6
CONTINUOUS
 62
     7
  2
*D15
 70
     0
 10
-181.29074
 20
127.09869
 11
-37.290749
 21
127.09869
  3
DIMSTYLE
 13
106.70924
 23
168.09869
 14
-181.29074
 24
168.09869
 50
0
1001
ACAD
1000
DSTYLE
1002
{
1070
    77
1070
     1
1070
   172
1070
     1
1002
}
  0
DIMENSION
  8
0
  6
CONTINUOUS
 62
     7
  2
*D16
 70
     0
 10
-196.29077
 20
81.284729
 11
-199.29076
 21
81.284729
  3
DIMSTYLE
 13
-202.29074
 23
71.284729
 14
-196.29077
 24
73.276901
 50
0
1001
ACAD
1000
DSTYLE
1002
{
1070
    77
1070
     1
1070
   172
1070
     1
1002
}
  0
DIMENSION
  8
0
  6
CONTINUOUS
 62
     7
  2
*D17
 70
     0
 10
-196.29077
 20
81.284729
 11
-191.29077
 21
81.284729
  3
DIMSTYLE
 13
-186.29077
 23
73.276901
 14
-196.29077
 24
73.276901
 50
0
1001
ACAD
1000
DSTYLE
1002
{
1070
    77
1070
     1
1070
   172
1070
     1
1070
    76
1070
     1
1002
}
  0
DIMENSION
  8
0
  6
CONTINUOUS
 62
     7
  2
*D18
 70
     0
 10
-156.29077
 20
81.284729
 11
-171.29077
 21
81.284729
  3
DIMSTYLE
 13
-186.29077
 23
73.276901
 14
-156.29077
 24
73.276901
 50
0
1001
ACAD
1000
DSTYLE
1002
{
1070
    77
1070
     1
1070
   172
1070
     1
1070
    75
1070
     1
1002
}
  0
DIMENSION
  8
0
  6
CONTINUOUS
 62
     7
  2
*D19
 70
     0
 10
-146.29077
 20
81.284729
 11
-151.29077
 21
81.284729
  3
DIMSTYLE
 13
-156.29077
 23
73.276901
 14
-146.29077
 24
73.276901
 50
0
1001
ACAD
1000
DSTYLE
1002
{
1070
    77
1070
     1
1070
   172
1070
     1
1070
    75
1070
     1
1002
}
  0
DIMENSION
  8
0
  6
CONTINUOUS
 62
     7
  2
*D20
 70
     0
 10
-140.29077
 20
81.284729
 11
-143.29077
 21
81.284729
  3
DIMSTYLE
 13
-146.29077
 23
73.276901
 14
-140.29077
 24
71.284729
 50
0
1001
ACAD
1000
DSTYLE
1002
{
1070
    77
1070
     1
1070
   172
1070
     1
1070
    75
1070
     1
1002
}
  0
DIMENSION
  8
0
  6
CONTINUOUS
 62
     7
  2
*D21
 70
     0
 10
-212.29074
 20
42.284733
 11
-212.29074
 21
40.784733
  3
DIMSTYLE
 13
-202.29074
 23
39.284733
 14
-202.29074
 24
42.284733
 50
90
1001
ACAD
1000
DSTYLE
1002
{
1070
    77
1070
     1
1070
   172
1070
     1
1070
    76
1070
     1
1002
}
  0
DIMENSION
  8
0
  6
CONTINUOUS
 62
     7
  2
*D22
 70
     0
 10
-212.29074
 20
64.784729
 11
-212.29074
 21
53.534733
  3
DIMSTYLE
 13
-202.29074
 23
42.284733
 14
-201.33893
 24
64.784729
 50
90
1001
ACAD
1000
DSTYLE
1002
{
1070
    77
1070
     1
1070
   172
1070
     1
1002
}
  0
DIMENSION
  8
0
  6
CONTINUOUS
 62
     7
  2
*D23
 70
     0
 10
-212.29074
 20
71.284729
 11
-212.29074
 21
76.628899
  3
DIMSTYLE
 13
-201.33893
 23
64.784729
 14
-202.29074
 24
71.284729
 50
90
1001
ACAD
1000
DSTYLE
1002
{
1070
    77
1070
     1
1070
   172
1070
     1
1070
    75
1070
     1
1002
}
  0
DIMENSION
  8
0
  6
CONTINUOUS
 62
     7
  2
*D24
 70
     0
 10
-222.29074
 20
71.284729
 11
-222.29074
 21
55.284733
  3
DIMSTYLE
 13
-202.29074
 23
39.284733
 14
-202.29074
 24
71.284729
 50
90
1001
ACAD
1000
DSTYLE
1002
{
1070
    77
1070
     1
1070
   172
1070
     1
1002
}
  0
DIMENSION
  8
0
  6
CONTINUOUS
 62
     7
  2
*D25
 70
     0
 10
-166.79077
 20
24.784733
 11
-166.79077
 21
21.284733
  3
DIMSTYLE
 13
-156.79077
 23
17.784733
 14
-132.79077
 24
24.784733
 50
90
1001
ACAD
1000
DSTYLE
1002
{
1070
    77
1070
     1
1070
   172
1070
     1
1002
}
  0
DIMENSION
  8
0
  6
CONTINUOUS
 62
     7
  2
*D26
 70
     0
 10
-166.79077
 20
25.784733
 11
-166.79077
 21
25.284733
  3
DIMSTYLE
 13
-132.79077
 23
24.784733
 14
-133.29077
 24
25.784733
 50
90
1001
ACAD
1000
DSTYLE
1002
{
1070
    77
1070
     1
1070
   172
1070
     1
1070
    75
1070
     1
1002
}
  0
DIMENSION
  8
0
  6
CONTINUOUS
 62
     7
  2
*D27
 70
     0
 10
-166.79077
 20
31.784733
 11
-166.79077
 21
28.784733
  3
DIMSTYLE
 13
-136.29077
 23
25.784733
 14
-133.29077
 24
31.784733
 50
90
1001
ACAD
1000
DSTYLE
1002
{
1070
    77
1070
     1
1070
   172
1070
     1
1070
    75
1070
     1
1002
}
  0
DIMENSION
  8
0
  6
CONTINUOUS
 62
     7
  2
*D28
 70
     0
 10
-222.29074
 20
39.284733
 11
-222.29074
 21
28.534733
  3
DIMSTYLE
 13
-156.79077
 23
17.784733
 14
-202.29074
 24
39.284733
 50
90
1001
ACAD
1000
DSTYLE
1002
{
1070
    77
1070
     1
1070
   172
1070
     1
1070
    76
1070
     1
1002
}
  0
DIMENSION
  8
0
  6
CONTINUOUS
 62
     7
  2
*D29
 70
     0
 10
-89.790756
 20
2.7847328
 11
-123.29076
 21
2.7847328
  3
DIMSTYLE
 13
-156.79077
 23
17.784733
 14
-89.790756
 24
17.784733
 50
0
1001
ACAD
1000
DSTYLE
1002
{
1070
    77
1070
     1
1070
   172
1070
     1
1002
}
  0
DIMENSION
  8
0
  6
CONTINUOUS
 62
     7
  2
*D30
 70
     0
 10
-5.79072
 20
33.784733
 11
-5.79072
 21
32.784733
  3
DIMSTYLE
 13
38.709244
 23
31.784733
 14
4.2092438
 24
33.784733
 50
90
1001
ACAD
1000
DSTYLE
1002
{
1070
    77
1070
     1
1070
   172
1070
     1
1070
    75
1070
     1
1002
}
  0
DIMENSION
  8
0
  6
CONTINUOUS
 62
     7
  2
*D31
 70
     0
 10
-5.79072
 20
43.784733
 11
-5.79072
 21
38.784733
  3
DIMSTYLE
 13
4.20928
 23
33.784733
 14
5.9542389
 24
43.784733
 50
90
1001
ACAD
1000
DSTYLE
1002
{
1070
    77
1070
     1
1070
   172
1070
     1
1070
    76
1070
     1
1002
}
  0
DIMENSION
  8
0
  6
CONTINUOUS
 62
     7
  2
*D32
 70
     0
 10
-5.79072
 20
59.784733
 11
-5.79072
 21
51.784733
  3
DIMSTYLE
 13
5.9542389
 23
43.784733
 14
8.744278
 24
59.784733
 50
90
1001
ACAD
1000
DSTYLE
1002
{
1070
    77
1070
     1
1070
   172
1070
     1
1070
    75
1070
     1
1070
    76
1070
     1
1002
}
  0
DIMENSION
  8
0
  6
CONTINUOUS
 62
     7
  2
*D33
 70
     0
 10
-5.79072
 20
76.784737
 11
-5.79072
 21
68.284737
  3
DIMSTYLE
 13
8.744278
 23
59.784733
 14
13.391251
 24
76.784737
 50
90
1001
ACAD
1000
DSTYLE
1002
{
1070
    77
1070
     1
1070
   172
1070
     1
1070
    75
1070
     1
1002
}
  0
DIMENSION
  8
0
  6
CONTINUOUS
 62
     7
  2
*D34
 70
     0
 10
-5.79072
 20
83.284744
 11
-5.79072
 21
88.630119
  3
DIMSTYLE
 13
13.391251
 23
76.784737
 14
21.209244
 24
83.284744
 50
90
1001
ACAD
1000
DSTYLE
1002
{
1070
    77
1070
     1
1070
   172
1070
     1
1070
    75
1070
     1
1002
}
  0
INSERT
  8
0
  6
CONTINUOUS
 62
     7
  2
KOZU0001
 10
-141.29077
 20
176.09869
  0
INSERT
  8
0
  6
CONTINUOUS
 62
     7
  2
KOZU0002
 10
-146.29077
 20
64.784729
  0
DIMENSION
  8
0
  6
CONTINUOUS
 62
     7
  2
*D35
 70
     0
 10
-277.29077
 20
101.78474
 11
-289.79077
 21
101.78474
  3
DIMSTYLE
 13
-302.29077
 23
91.784737
 14
-277.29077
 24
87.56974
 50
0
1001
ACAD
1000
DSTYLE
1002
{
1070
    77
1070
     1
1070
   172
1070
     1
1002
}
  0
ENDSEC
  0
EOF
