  0
SECTION
  2
HEADER
  9
$EXTMAX
 10
170
 20
296
 30
0
  9
$EXTMIN
 10
-385
 20
-100
 30
0
  9
$LIMMAX
 10
170
 20
296
  9
$LIMMIN
 10
-385
 20
-100
  9
$PLIMMAX
 10
170
 20
296
  9
$PLIMMIN
 10
-385
 20
-100
  9
$TEXTSIZE
 40
3.2
  9
$DIMSHO
 70
     0
  9
$DIMASZ
 40
1.0
  9
$DIMTAD
 70
     1
  9
$DIMTIH
 70
     0
  9
$DIMTOH
 70
     0
  9
$DIMEXE
 40
2.54
  9
$DIMEXO
 40
2.54
  9
$DIMTVP
 40
1.0
  9
$DIMSAH
 70
     1
  9
$DIMDLE
 40
0.0
  9
$DIMTXT
 40
3.2
  9
$DIMGAP
 40
1.6
  0
ENDSEC
  0
SECTION
  2
TABLES
  0
TABLE
  2
LTYPE
 70
     6
  0
LTYPE
  2
CONTINUOUS
 70
    64
  3
Solid line
 72
    65
 73
     0
 40
0.0
  0
LTYPE
  2
DASHED
 70
    64
  3
__ __ __ __ __ __ __ __ __ __ __ __ __ __ __
 72
    65
 73
     2
 40
3.5
 49
2.0
 49
-1.5
  0
LTYPE
  2
CENTER
 70
    64
  3
____ _ ____ _ ____ _ ____ _ ____ _ ____ _ ____
 72
    65
 73
     4
 40
17.5
 49
13.0
 49
-1.5
 49
1.5
 49
-1.5
  0
LTYPE
  2
PHANTOM
 70
    64
  3
_____ _ _ _____ _ _ _____ _ _ _____ _ _ ____  
 72
    65
 73
     6
 40
15.5
 49
8.0
 49
-1.5
 49
1.5
 49
-1.5
 49
1.5
 49
-1.5
  0
LTYPE
  2
DOT
 70
    64
  3
. . . . . . . . . . . . . . . . . . . . . . . .
 72
    65
 73
     2
 40
0.25
 49
0.0
 49
-0.25
  0
LTYPE
  2
HIDDEN
 70
    64
  3
__ __ __ __ __ __ __ __ __ __ __ __ __ __ __
 72
    65
 73
     2
 40
3.5
 49
2.0
 49
-1.5
  0
ENDTAB
  0
TABLE
  2
LAYER
 70
     2
  0
LAYER
  2
0
 70
     0
 62
     7
  6
CONTINUOUS
  0
LAYER
  2
DEFPOINTS
 70
     0
 62
     7
  6
CONTINUOUS
  0
ENDTAB
  0
TABLE
  2
STYLE
 70
     1
  0
STYLE
  2
STANDARD
 70
     0
 40
0.0
 41
1.0
 50
0.0
 71
     0
 42
0.2
  3
txt
  4
BIGFONT
  0
ENDTAB
  0
TABLE
  2
DIMSTYLE
 70
     1
  0
DIMSTYLE
  2
DIMSTYLE
 70
     0
  3

  4

  5
_DOT
  6
_DOT
  7
_DOT
 40
1
 41
1
 42
2.54
 43
0.38
 44
2.54
 45
0
 46
0
 47
0
 48
0
140
3.2
141
0.09
142
0
143
25.4
144
1
145
0
146
1
147
1.6
 71
     0
 72
     0
 73
     0
 74
     0
 75
     0
 76
     0
 78
     0
170
     0
171
     2
 77
     0
172
     0
173
     1
174
     0
175
     0
176
     0
177
     0
178
     0
  0
ENDTAB
  0
ENDSEC
  0
SECTION
  2
BLOCKS
  0
BLOCK
  8
0
  2
_OPEN
 70
    64
 10
0
 20
0
  3
_OPEN
  0
LINE
  8
0
  6
BYBLOCK
 62
     0
 10
0
 20
0
 11
-3.128
 21
-0.56199999
  0
LINE
  8
0
  6
BYBLOCK
 62
     0
 10
0
 20
0
 11
-3.128
 21
0.56199999
  0
LINE
  8
0
  6
BYBLOCK
 62
     0
 10
0
 20
0
 11
-3
 21
0
  0
ENDBLK
  8
0
  0
BLOCK
  8
0
  2
_DOT
 70
    64
 10
0
 20
0
  3
_DOT
  0
POLYLINE
  8
0
  6
BYBLOCK
 62
     0
 66
     1
 10
0
 20
0
 70
     1
 40
0.40000001
 41
0.40000001
  0
VERTEX
  8
0
  6
BYBLOCK
 62
     0
 10
-0.2
 20
0
 42
1
  0
VERTEX
  8
0
  6
BYBLOCK
 62
     0
 10
0.2
 20
0
 42
1
  0
SEQEND
  8
0
  6
BYBLOCK
 62
     0
  0
LINE
  8
0
  6
BYBLOCK
 62
     0
 10
-0.40000001
 20
0
 11
-3
 21
0
  0
ENDBLK
  8
0
  0
BLOCK
  8
0
  2
*D1
 70
    65
 10
0
 20
0
  0
LINE
  8
0
  6
CONTINUOUS
 62
     7
 10
-51.672138
 20
158.2435
 11
-6.6721382
 21
158.2435
  0
INSERT
  8
0
  6
CONTINUOUS
 62
     7
  2
_DOT
 10
-51.672138
 20
158.2435
 50
180
  0
INSERT
  8
0
  6
CONTINUOUS
 62
     7
  2
_DOT
 10
-6.6721382
 20
158.2435
  0
LINE
  8
0
  6
CONTINUOUS
 62
     7
 10
-51.672138
 20
172.70353
 11
-51.672138
 21
157.0435
  0
LINE
  8
0
  6
CONTINUOUS
 62
     7
 10
-6.6721382
 20
172.70353
 11
-6.6721382
 21
157.0435
  0
TEXT
  8
0
  6
CONTINUOUS
 62
     7
 10
-31.915138
 20
159.0435
 40
3.2
 41
1.028625
  1
45
  0
POINT
  8
DEFPOINTS
  6
CONTINUOUS
 62
     7
 10
-51.672138
 20
175.24353
  0
POINT
  8
DEFPOINTS
  6
CONTINUOUS
 62
     7
 10
-6.6721382
 20
175.24353
  0
POINT
  8
DEFPOINTS
  6
CONTINUOUS
 62
     7
 10
-6.6721382
 20
158.2435
  0
ENDBLK
  8
0
  0
BLOCK
  8
0
  2
*D2
 70
    65
 10
0
 20
0
  0
LINE
  8
0
  6
CONTINUOUS
 62
     7
 10
150.97984
 20
158.2435
 11
140.97984
 21
158.2435
  0
INSERT
  8
0
  6
CONTINUOUS
 62
     7
  2
_DOT
 10
150.97984
 20
158.2435
  0
INSERT
  8
0
  6
CONTINUOUS
 62
     7
  2
_DOT
 10
140.97984
 20
158.2435
 50
180
  0
LINE
  8
0
  6
CONTINUOUS
 62
     7
 10
150.97984
 20
176.70353
 11
150.97984
 21
157.0435
  0
LINE
  8
0
  6
CONTINUOUS
 62
     7
 10
140.97984
 20
174.7035
 11
140.97984
 21
157.0435
  0
TEXT
  8
0
  6
CONTINUOUS
 62
     7
 10
143.23684
 20
159.0435
 40
3.2
 41
1.4026704
  1
10
  0
POINT
  8
DEFPOINTS
  6
CONTINUOUS
 62
     7
 10
150.97984
 20
179.24353
  0
POINT
  8
DEFPOINTS
  6
CONTINUOUS
 62
     7
 10
140.97984
 20
177.2435
  0
POINT
  8
DEFPOINTS
  6
CONTINUOUS
 62
     7
 10
140.97984
 20
158.2435
  0
ENDBLK
  8
0
  0
BLOCK
  8
0
  2
*D3
 70
    65
 10
0
 20
0
  0
LINE
  8
0
  6
CONTINUOUS
 62
     7
 10
-190.41212
 20
158.2435
 11
-200.41212
 21
158.2435
  0
INSERT
  8
0
  6
CONTINUOUS
 62
     7
  2
_DOT
 10
-190.41212
 20
158.2435
  0
INSERT
  8
0
  6
CONTINUOUS
 62
     7
  2
_DOT
 10
-200.41212
 20
158.2435
 50
180
  0
LINE
  8
0
  6
CONTINUOUS
 62
     7
 10
-190.41212
 20
174.7035
 11
-190.41212
 21
157.0435
  0
LINE
  8
0
  6
CONTINUOUS
 62
     7
 10
-200.41212
 20
176.70353
 11
-200.41212
 21
157.0435
  0
TEXT
  8
0
  6
CONTINUOUS
 62
     7
 10
-198.15512
 20
159.0435
 40
3.2
 41
1.4026704
  1
10
  0
POINT
  8
DEFPOINTS
  6
CONTINUOUS
 62
     7
 10
-190.41212
 20
177.2435
  0
POINT
  8
DEFPOINTS
  6
CONTINUOUS
 62
     7
 10
-200.41212
 20
179.24353
  0
POINT
  8
DEFPOINTS
  6
CONTINUOUS
 62
     7
 10
-200.41212
 20
158.2435
  0
ENDBLK
  8
0
  0
BLOCK
  8
0
  2
*D4
 70
    65
 10
0
 20
0
  0
LINE
  8
0
  6
CONTINUOUS
 62
     7
 10
-200.41212
 20
148.2435
 11
-202.41225
 21
148.2435
  0
INSERT
  8
0
  6
CONTINUOUS
 62
     7
  2
_DOT
 10
-200.41212
 20
148.2435
  0
INSERT
  8
0
  6
CONTINUOUS
 62
     7
  2
_DOT
 10
-202.41225
 20
148.2435
 50
180
  0
LINE
  8
0
  6
CONTINUOUS
 62
     7
 10
-200.41212
 20
176.70353
 11
-200.41212
 21
147.0435
  0
LINE
  8
0
  6
CONTINUOUS
 62
     7
 10
-202.41225
 20
177.70353
 11
-202.41225
 21
147.0435
  0
TEXT
  8
0
  6
CONTINUOUS
 62
     7
 10
-202.55519
 20
149.0435
 40
3.2
 41
1
  1
2
  0
POINT
  8
DEFPOINTS
  6
CONTINUOUS
 62
     7
 10
-200.41212
 20
179.24353
  0
POINT
  8
DEFPOINTS
  6
CONTINUOUS
 62
     7
 10
-202.41225
 20
180.24353
  0
POINT
  8
DEFPOINTS
  6
CONTINUOUS
 62
     7
 10
-202.41225
 20
148.2435
  0
ENDBLK
  8
0
  0
BLOCK
  8
0
  2
*D5
 70
    65
 10
0
 20
0
  0
LINE
  8
0
  6
CONTINUOUS
 62
     7
 10
-200.41212
 20
148.2435
 11
150.97984
 21
148.2435
  0
INSERT
  8
0
  6
CONTINUOUS
 62
     7
  2
_DOT
 10
-200.41212
 20
148.2435
 50
180
  0
INSERT
  8
0
  6
CONTINUOUS
 62
     7
  2
_DOT
 10
150.97984
 20
148.2435
  0
LINE
  8
0
  6
CONTINUOUS
 62
     7
 10
150.97984
 20
176.70353
 11
150.97984
 21
147.0435
  0
TEXT
  8
0
  6
CONTINUOUS
 62
     7
 10
-25.859145
 20
149.0435
 40
3.2
 41
1
  1
L
  0
POINT
  8
DEFPOINTS
  6
CONTINUOUS
 62
     7
 10
-200.41212
 20
179.24353
  0
POINT
  8
DEFPOINTS
  6
CONTINUOUS
 62
     7
 10
150.97984
 20
179.24353
  0
POINT
  8
DEFPOINTS
  6
CONTINUOUS
 62
     7
 10
150.97984
 20
148.2435
  0
ENDBLK
  8
0
  0
BLOCK
  8
0
  2
*D6
 70
    65
 10
0
 20
0
  0
LINE
  8
0
  6
CONTINUOUS
 62
     7
 10
150.97984
 20
148.2435
 11
152.97984
 21
148.2435
  0
INSERT
  8
0
  6
CONTINUOUS
 62
     7
  2
_DOT
 10
150.97984
 20
148.2435
 50
180
  0
INSERT
  8
0
  6
CONTINUOUS
 62
     7
  2
_DOT
 10
152.97984
 20
148.2435
  0
LINE
  8
0
  6
CONTINUOUS
 62
     7
 10
152.97984
 20
177.70353
 11
152.97984
 21
147.0435
  0
TEXT
  8
0
  6
CONTINUOUS
 62
     7
 10
150.83684
 20
149.0435
 40
3.2
 41
1
  1
2
  0
POINT
  8
DEFPOINTS
  6
CONTINUOUS
 62
     7
 10
150.97984
 20
179.24353
  0
POINT
  8
DEFPOINTS
  6
CONTINUOUS
 62
     7
 10
152.97984
 20
180.24353
  0
POINT
  8
DEFPOINTS
  6
CONTINUOUS
 62
     7
 10
152.97984
 20
148.2435
  0
ENDBLK
  8
0
  0
BLOCK
  8
0
  2
*D7
 70
    65
 10
0
 20
0
  0
LINE
  8
0
  6
CONTINUOUS
 62
     7
 10
30.827862
 20
197.2435
 11
30.827862
 21
210.64149
  0
LINE
  8
0
  6
CONTINUOUS
 62
     7
 10
30.827862
 20
177.2435
 11
30.827862
 21
197.2435
  0
INSERT
  8
0
  6
CONTINUOUS
 62
     7
  2
_DOT
 10
30.827862
 20
177.2435
 50
270
  0
INSERT
  8
0
  6
CONTINUOUS
 62
     7
  2
_DOT
 10
30.827862
 20
197.2435
 50
90
  0
LINE
  8
0
  6
CONTINUOUS
 62
     7
 10
18.367862
 20
177.2435
 11
32.027863
 21
177.2435
  0
LINE
  8
0
  6
CONTINUOUS
 62
     7
 10
18.367862
 20
197.2435
 11
32.027863
 21
197.2435
  0
TEXT
  8
0
  6
CONTINUOUS
 62
     7
 10
30.027862
 20
205.1555
 40
3.2
 41
1.1020982
  1
20
 50
90.000003
  0
POINT
  8
DEFPOINTS
  6
CONTINUOUS
 62
     7
 10
15.827862
 20
177.2435
  0
POINT
  8
DEFPOINTS
  6
CONTINUOUS
 62
     7
 10
15.827862
 20
197.2435
  0
POINT
  8
DEFPOINTS
  6
CONTINUOUS
 62
     7
 10
30.827862
 20
197.2435
  0
ENDBLK
  8
0
  0
BLOCK
  8
0
  2
*D8
 70
    65
 10
0
 20
0
  0
LINE
  8
0
  6
CONTINUOUS
 62
     7
 10
40.827862
 20
201.24353
 11
40.827862
 21
210.09166
  0
LINE
  8
0
  6
CONTINUOUS
 62
     7
 10
40.827862
 20
201.24353
 11
40.827862
 21
173.2435
  0
INSERT
  8
0
  6
CONTINUOUS
 62
     7
  2
_DOT
 10
40.827862
 20
201.24353
 50
90
  0
INSERT
  8
0
  6
CONTINUOUS
 62
     7
  2
_DOT
 10
40.827862
 20
173.2435
 50
270
  0
LINE
  8
0
  6
CONTINUOUS
 62
     7
 10
-6.1321383
 20
201.24353
 11
42.027863
 21
201.24353
  0
LINE
  8
0
  6
CONTINUOUS
 62
     7
 10
-6.1321383
 20
173.2435
 11
42.027863
 21
173.2435
  0
TEXT
  8
0
  6
CONTINUOUS
 62
     7
 10
40.027862
 20
204.60565
 40
3.2
 41
1.028625
  1
28
 50
90.000003
  0
POINT
  8
DEFPOINTS
  6
CONTINUOUS
 62
     7
 10
-8.6721382
 20
201.24353
  0
POINT
  8
DEFPOINTS
  6
CONTINUOUS
 62
     7
 10
-8.6721382
 20
173.2435
  0
POINT
  8
DEFPOINTS
  6
CONTINUOUS
 62
     7
 10
40.827862
 20
173.2435
  0
ENDBLK
  8
0
  0
BLOCK
  8
0
  2
*D9
 70
    65
 10
0
 20
0
  0
LINE
  8
0
  6
CONTINUOUS
 62
     7
 10
-231.41212
 20
187.2435
 11
-231.41212
 21
217.2435
  0
INSERT
  8
0
  6
CONTINUOUS
 62
     7
  2
_DOT
 10
-231.41212
 20
187.2435
 50
270
  0
INSERT
  8
0
  6
CONTINUOUS
 62
     7
  2
_DOT
 10
-231.41212
 20
217.2435
 50
90
  0
LINE
  8
0
  6
CONTINUOUS
 62
     7
 10
-214.95212
 20
187.2435
 11
-232.61212
 21
187.2435
  0
LINE
  8
0
  6
CONTINUOUS
 62
     7
 10
-223.95212
 20
217.2435
 11
-232.61212
 21
217.2435
  0
TEXT
  8
0
  6
CONTINUOUS
 62
     7
 10
-232.21212
 20
197.9005
 40
3.2
 41
0.85537027
  1
（Ａ）
 50
90.000003
  0
POINT
  8
DEFPOINTS
  6
CONTINUOUS
 62
     7
 10
-212.41212
 20
187.2435
  0
POINT
  8
DEFPOINTS
  6
CONTINUOUS
 62
     7
 10
-221.41212
 20
217.2435
  0
POINT
  8
DEFPOINTS
  6
CONTINUOUS
 62
     7
 10
-231.41212
 20
217.2435
  0
ENDBLK
  8
0
  0
BLOCK
  8
0
  2
*D10
 70
    65
 10
0
 20
0
  0
LINE
  8
0
  6
CONTINUOUS
 62
     7
 10
-74.172142
 20
16.743408
 11
-64.172142
 21
16.743408
  0
INSERT
  8
0
  6
CONTINUOUS
 62
     7
  2
_DOT
 10
-74.172142
 20
16.743408
 50
180
  0
INSERT
  8
0
  6
CONTINUOUS
 62
     7
  2
_DOT
 10
-64.172142
 20
16.743408
  0
LINE
  8
0
  6
CONTINUOUS
 62
     7
 10
-74.172142
 20
29.203408
 11
-74.172142
 21
15.543407
  0
LINE
  8
0
  6
CONTINUOUS
 62
     7
 10
-64.172142
 20
22.620217
 11
-64.172142
 21
15.543407
  0
TEXT
  8
0
  6
CONTINUOUS
 62
     7
 10
-71.915142
 20
17.543408
 40
3.2
 41
1.4026704
  1
10
  0
POINT
  8
DEFPOINTS
  6
CONTINUOUS
 62
     7
 10
-74.172142
 20
31.743408
  0
POINT
  8
DEFPOINTS
  6
CONTINUOUS
 62
     7
 10
-64.172142
 20
25.160217
  0
POINT
  8
DEFPOINTS
  6
CONTINUOUS
 62
     7
 10
-64.172142
 20
16.743408
  0
ENDBLK
  8
0
  0
BLOCK
  8
0
  2
*D11
 70
    65
 10
0
 20
0
  0
LINE
  8
0
  6
CONTINUOUS
 62
     7
 10
-64.172142
 20
16.743408
 11
-54.172138
 21
16.743408
  0
INSERT
  8
0
  6
CONTINUOUS
 62
     7
  2
_DOT
 10
-64.172142
 20
16.743408
 50
180
  0
INSERT
  8
0
  6
CONTINUOUS
 62
     7
  2
_DOT
 10
-54.172138
 20
16.743408
  0
LINE
  8
0
  6
CONTINUOUS
 62
     7
 10
-54.172138
 20
22.620217
 11
-54.172138
 21
15.543407
  0
TEXT
  8
0
  6
CONTINUOUS
 62
     7
 10
-61.915138
 20
17.543408
 40
3.2
 41
1.4026704
  1
10
  0
POINT
  8
DEFPOINTS
  6
CONTINUOUS
 62
     7
 10
-64.172142
 20
25.160217
  0
POINT
  8
DEFPOINTS
  6
CONTINUOUS
 62
     7
 10
-54.172138
 20
25.160217
  0
POINT
  8
DEFPOINTS
  6
CONTINUOUS
 62
     7
 10
-54.172138
 20
16.743408
  0
ENDBLK
  8
0
  0
BLOCK
  8
0
  2
*D12
 70
    65
 10
0
 20
0
  0
LINE
  8
0
  6
CONTINUOUS
 62
     7
 10
-54.172138
 20
16.743408
 11
-4.1721382
 21
16.743408
  0
INSERT
  8
0
  6
CONTINUOUS
 62
     7
  2
_DOT
 10
-54.172138
 20
16.743408
 50
180
  0
INSERT
  8
0
  6
CONTINUOUS
 62
     7
  2
_DOT
 10
-4.1721382
 20
16.743408
  0
LINE
  8
0
  6
CONTINUOUS
 62
     7
 10
-4.1721382
 20
22.620217
 11
-4.1721382
 21
15.543407
  0
TEXT
  8
0
  6
CONTINUOUS
 62
     7
 10
-31.915138
 20
17.543408
 40
3.2
 41
1.1020982
  1
50
  0
POINT
  8
DEFPOINTS
  6
CONTINUOUS
 62
     7
 10
-54.172138
 20
25.160217
  0
POINT
  8
DEFPOINTS
  6
CONTINUOUS
 62
     7
 10
-4.1721382
 20
25.160217
  0
POINT
  8
DEFPOINTS
  6
CONTINUOUS
 62
     7
 10
-4.1721382
 20
16.743408
  0
ENDBLK
  8
0
  0
BLOCK
  8
0
  2
*D13
 70
    65
 10
0
 20
0
  0
LINE
  8
0
  6
CONTINUOUS
 62
     7
 10
-4.1721382
 20
16.743408
 11
5.8278618
 21
16.743408
  0
INSERT
  8
0
  6
CONTINUOUS
 62
     7
  2
_DOT
 10
-4.1721382
 20
16.743408
 50
180
  0
INSERT
  8
0
  6
CONTINUOUS
 62
     7
  2
_DOT
 10
5.8278618
 20
16.743408
  0
LINE
  8
0
  6
CONTINUOUS
 62
     7
 10
5.8278618
 20
22.620217
 11
5.8278618
 21
15.543407
  0
TEXT
  8
0
  6
CONTINUOUS
 62
     7
 10
-1.9151384
 20
17.543408
 40
3.2
 41
1.4026704
  1
10
  0
POINT
  8
DEFPOINTS
  6
CONTINUOUS
 62
     7
 10
-4.1721382
 20
25.160217
  0
POINT
  8
DEFPOINTS
  6
CONTINUOUS
 62
     7
 10
5.8278618
 20
25.160217
  0
POINT
  8
DEFPOINTS
  6
CONTINUOUS
 62
     7
 10
5.8278618
 20
16.743408
  0
ENDBLK
  8
0
  0
BLOCK
  8
0
  2
*D14
 70
    65
 10
0
 20
0
  0
LINE
  8
0
  6
CONTINUOUS
 62
     7
 10
5.8278618
 20
16.743408
 11
15.827862
 21
16.743408
  0
INSERT
  8
0
  6
CONTINUOUS
 62
     7
  2
_DOT
 10
5.8278618
 20
16.743408
 50
180
  0
INSERT
  8
0
  6
CONTINUOUS
 62
     7
  2
_DOT
 10
15.827862
 20
16.743408
  0
LINE
  8
0
  6
CONTINUOUS
 62
     7
 10
15.827862
 20
29.203408
 11
15.827862
 21
15.543407
  0
TEXT
  8
0
  6
CONTINUOUS
 62
     7
 10
8.0848618
 20
17.543408
 40
3.2
 41
1.4026704
  1
10
  0
POINT
  8
DEFPOINTS
  6
CONTINUOUS
 62
     7
 10
5.8278618
 20
25.160217
  0
POINT
  8
DEFPOINTS
  6
CONTINUOUS
 62
     7
 10
15.827862
 20
31.743408
  0
POINT
  8
DEFPOINTS
  6
CONTINUOUS
 62
     7
 10
15.827862
 20
16.743408
  0
ENDBLK
  8
0
  0
BLOCK
  8
0
  2
*D15
 70
    65
 10
0
 20
0
  0
LINE
  8
0
  6
CONTINUOUS
 62
     7
 10
-74.172142
 20
6.7434077
 11
15.827862
 21
6.7434077
  0
INSERT
  8
0
  6
CONTINUOUS
 62
     7
  2
_DOT
 10
-74.172142
 20
6.7434077
 50
180
  0
INSERT
  8
0
  6
CONTINUOUS
 62
     7
  2
_DOT
 10
15.827862
 20
6.7434077
  0
LINE
  8
0
  6
CONTINUOUS
 62
     7
 10
-74.172142
 20
29.203408
 11
-74.172142
 21
5.5434079
  0
LINE
  8
0
  6
CONTINUOUS
 62
     7
 10
15.827862
 20
29.203408
 11
15.827862
 21
5.5434079
  0
TEXT
  8
0
  6
CONTINUOUS
 62
     7
 10
-31.915138
 20
7.5434077
 40
3.2
 41
1.1020982
  1
90
  0
POINT
  8
DEFPOINTS
  6
CONTINUOUS
 62
     7
 10
-74.172142
 20
31.743408
  0
POINT
  8
DEFPOINTS
  6
CONTINUOUS
 62
     7
 10
15.827862
 20
31.743408
  0
POINT
  8
DEFPOINTS
  6
CONTINUOUS
 62
     7
 10
15.827862
 20
6.7434077
  0
ENDBLK
  8
0
  0
BLOCK
  8
0
  2
*D16
 70
    65
 10
0
 20
0
  0
LINE
  8
0
  6
CONTINUOUS
 62
     7
 10
-159.41212
 20
16.743408
 11
-165.41212
 21
16.743408
  0
INSERT
  8
0
  6
CONTINUOUS
 62
     7
  2
_DOT
 10
-159.41212
 20
16.743408
  0
INSERT
  8
0
  6
CONTINUOUS
 62
     7
  2
_DOT
 10
-165.41212
 20
16.743408
 50
180
  0
LINE
  8
0
  6
CONTINUOUS
 62
     7
 10
-159.41212
 20
44.203408
 11
-159.41212
 21
15.543407
  0
LINE
  8
0
  6
CONTINUOUS
 62
     7
 10
-165.41212
 20
44.203408
 11
-165.41212
 21
15.543407
  0
TEXT
  8
0
  6
CONTINUOUS
 62
     7
 10
-163.55512
 20
17.543408
 40
3.2
 41
1
  1
6
  0
POINT
  8
DEFPOINTS
  6
CONTINUOUS
 62
     7
 10
-159.41212
 20
46.743408
  0
POINT
  8
DEFPOINTS
  6
CONTINUOUS
 62
     7
 10
-165.41212
 20
46.743408
  0
POINT
  8
DEFPOINTS
  6
CONTINUOUS
 62
     7
 10
-165.41212
 20
16.743408
  0
ENDBLK
  8
0
  0
BLOCK
  8
0
  2
*D17
 70
    65
 10
0
 20
0
  0
LINE
  8
0
  6
CONTINUOUS
 62
     7
 10
-165.41212
 20
16.743408
 11
-175.41212
 21
16.743408
  0
INSERT
  8
0
  6
CONTINUOUS
 62
     7
  2
_DOT
 10
-165.41212
 20
16.743408
  0
INSERT
  8
0
  6
CONTINUOUS
 62
     7
  2
_DOT
 10
-175.41212
 20
16.743408
 50
180
  0
LINE
  8
0
  6
CONTINUOUS
 62
     7
 10
-175.41212
 20
44.203408
 11
-175.41212
 21
15.543407
  0
TEXT
  8
0
  6
CONTINUOUS
 62
     7
 10
-173.15512
 20
17.543408
 40
3.2
 41
1.4026704
  1
10
  0
POINT
  8
DEFPOINTS
  6
CONTINUOUS
 62
     7
 10
-165.41212
 20
46.743408
  0
POINT
  8
DEFPOINTS
  6
CONTINUOUS
 62
     7
 10
-175.41212
 20
46.743408
  0
POINT
  8
DEFPOINTS
  6
CONTINUOUS
 62
     7
 10
-175.41212
 20
16.743408
  0
ENDBLK
  8
0
  0
BLOCK
  8
0
  2
*D18
 70
    65
 10
0
 20
0
  0
LINE
  8
0
  6
CONTINUOUS
 62
     7
 10
-175.41212
 20
16.743408
 11
-205.41212
 21
16.743408
  0
INSERT
  8
0
  6
CONTINUOUS
 62
     7
  2
_DOT
 10
-175.41212
 20
16.743408
  0
INSERT
  8
0
  6
CONTINUOUS
 62
     7
  2
_DOT
 10
-205.41212
 20
16.743408
 50
180
  0
LINE
  8
0
  6
CONTINUOUS
 62
     7
 10
-205.41212
 20
44.203408
 11
-205.41212
 21
15.543407
  0
TEXT
  8
0
  6
CONTINUOUS
 62
     7
 10
-193.15512
 20
17.543408
 40
3.2
 41
1.1020982
  1
30
  0
POINT
  8
DEFPOINTS
  6
CONTINUOUS
 62
     7
 10
-175.41212
 20
46.743408
  0
POINT
  8
DEFPOINTS
  6
CONTINUOUS
 62
     7
 10
-205.41212
 20
46.743408
  0
POINT
  8
DEFPOINTS
  6
CONTINUOUS
 62
     7
 10
-205.41212
 20
16.743408
  0
ENDBLK
  8
0
  0
BLOCK
  8
0
  2
*D19
 70
    65
 10
0
 20
0
  0
LINE
  8
0
  6
CONTINUOUS
 62
     7
 10
-205.41212
 20
16.743408
 11
-215.41212
 21
16.743408
  0
INSERT
  8
0
  6
CONTINUOUS
 62
     7
  2
_DOT
 10
-205.41212
 20
16.743408
  0
INSERT
  8
0
  6
CONTINUOUS
 62
     7
  2
_DOT
 10
-215.41212
 20
16.743408
 50
180
  0
LINE
  8
0
  6
CONTINUOUS
 62
     7
 10
-215.41212
 20
44.203408
 11
-215.41212
 21
15.543407
  0
TEXT
  8
0
  6
CONTINUOUS
 62
     7
 10
-213.15512
 20
17.543408
 40
3.2
 41
1.4026704
  1
10
  0
POINT
  8
DEFPOINTS
  6
CONTINUOUS
 62
     7
 10
-205.41212
 20
46.743408
  0
POINT
  8
DEFPOINTS
  6
CONTINUOUS
 62
     7
 10
-215.41212
 20
46.743408
  0
POINT
  8
DEFPOINTS
  6
CONTINUOUS
 62
     7
 10
-215.41212
 20
16.743408
  0
ENDBLK
  8
0
  0
BLOCK
  8
0
  2
*D20
 70
    65
 10
0
 20
0
  0
LINE
  8
0
  6
CONTINUOUS
 62
     7
 10
-215.41212
 20
16.743408
 11
-221.41212
 21
16.743408
  0
INSERT
  8
0
  6
CONTINUOUS
 62
     7
  2
_DOT
 10
-215.41212
 20
16.743408
  0
INSERT
  8
0
  6
CONTINUOUS
 62
     7
  2
_DOT
 10
-221.41212
 20
16.743408
 50
180
  0
LINE
  8
0
  6
CONTINUOUS
 62
     7
 10
-221.41212
 20
44.203408
 11
-221.41212
 21
15.543407
  0
TEXT
  8
0
  6
CONTINUOUS
 62
     7
 10
-219.55512
 20
17.543408
 40
3.2
 41
1
  1
6
  0
POINT
  8
DEFPOINTS
  6
CONTINUOUS
 62
     7
 10
-215.41212
 20
46.743408
  0
POINT
  8
DEFPOINTS
  6
CONTINUOUS
 62
     7
 10
-221.41212
 20
46.743408
  0
POINT
  8
DEFPOINTS
  6
CONTINUOUS
 62
     7
 10
-221.41212
 20
16.743408
  0
ENDBLK
  8
0
  0
BLOCK
  8
0
  2
*D21
 70
    65
 10
0
 20
0
  0
LINE
  8
0
  6
CONTINUOUS
 62
     7
 10
-221.41212
 20
6.7434077
 11
-159.41212
 21
6.7434077
  0
INSERT
  8
0
  6
CONTINUOUS
 62
     7
  2
_DOT
 10
-221.41212
 20
6.7434077
 50
180
  0
INSERT
  8
0
  6
CONTINUOUS
 62
     7
  2
_DOT
 10
-159.41212
 20
6.7434077
  0
LINE
  8
0
  6
CONTINUOUS
 62
     7
 10
-221.41212
 20
44.203408
 11
-221.41212
 21
5.5434079
  0
LINE
  8
0
  6
CONTINUOUS
 62
     7
 10
-159.41212
 20
44.203408
 11
-159.41212
 21
5.5434079
  0
TEXT
  8
0
  6
CONTINUOUS
 62
     7
 10
-193.15512
 20
7.5434077
 40
3.2
 41
1.028625
  1
62
  0
POINT
  8
DEFPOINTS
  6
CONTINUOUS
 62
     7
 10
-221.41212
 20
46.743408
  0
POINT
  8
DEFPOINTS
  6
CONTINUOUS
 62
     7
 10
-159.41212
 20
46.743408
  0
POINT
  8
DEFPOINTS
  6
CONTINUOUS
 62
     7
 10
-159.41212
 20
6.7434077
  0
ENDBLK
  8
0
  0
BLOCK
  8
0
  2
*D22
 70
    65
 10
0
 20
0
  0
LINE
  8
0
  6
CONTINUOUS
 62
     7
 10
30.827862
 20
31.743408
 11
30.827862
 21
34.743423
  0
INSERT
  8
0
  6
CONTINUOUS
 62
     7
  2
_DOT
 10
30.827862
 20
31.743408
 50
270
  0
INSERT
  8
0
  6
CONTINUOUS
 62
     7
  2
_DOT
 10
30.827862
 20
34.743423
 50
90
  0
LINE
  8
0
  6
CONTINUOUS
 62
     7
 10
18.367862
 20
31.743408
 11
32.027863
 21
31.743408
  0
LINE
  8
0
  6
CONTINUOUS
 62
     7
 10
18.367862
 20
34.743423
 11
32.027863
 21
34.743423
  0
TEXT
  8
0
  6
CONTINUOUS
 62
     7
 10
30.027862
 20
32.100416
 40
3.2
 41
1
  1
3
 50
90.000003
  0
POINT
  8
DEFPOINTS
  6
CONTINUOUS
 62
     7
 10
15.827862
 20
31.743408
  0
POINT
  8
DEFPOINTS
  6
CONTINUOUS
 62
     7
 10
15.827862
 20
34.743423
  0
POINT
  8
DEFPOINTS
  6
CONTINUOUS
 62
     7
 10
30.827862
 20
34.743423
  0
ENDBLK
  8
0
  0
BLOCK
  8
0
  2
*D23
 70
    65
 10
0
 20
0
  0
LINE
  8
0
  6
CONTINUOUS
 62
     7
 10
30.827862
 20
34.743423
 11
30.827862
 21
46.743408
  0
INSERT
  8
0
  6
CONTINUOUS
 62
     7
  2
_DOT
 10
30.827862
 20
34.743423
 50
270
  0
INSERT
  8
0
  6
CONTINUOUS
 62
     7
  2
_DOT
 10
30.827862
 20
46.743408
 50
90
  0
LINE
  8
0
  6
CONTINUOUS
 62
     7
 10
18.367862
 20
34.743423
 11
32.027863
 21
34.743423
  0
LINE
  8
0
  6
CONTINUOUS
 62
     7
 10
-14.632138
 20
46.743408
 11
32.027863
 21
46.743408
  0
TEXT
  8
0
  6
CONTINUOUS
 62
     7
 10
30.027862
 20
38.000416
 40
3.2
 41
1.2857812
  1
12
 50
90.000003
  0
POINT
  8
DEFPOINTS
  6
CONTINUOUS
 62
     7
 10
15.827862
 20
34.743423
  0
POINT
  8
DEFPOINTS
  6
CONTINUOUS
 62
     7
 10
-17.172138
 20
46.743408
  0
POINT
  8
DEFPOINTS
  6
CONTINUOUS
 62
     7
 10
30.827862
 20
46.743408
  0
ENDBLK
  8
0
  0
BLOCK
  8
0
  2
*D24
 70
    65
 10
0
 20
0
  0
LINE
  8
0
  6
CONTINUOUS
 62
     7
 10
30.827862
 20
46.743408
 11
30.827862
 21
54.243439
  0
INSERT
  8
0
  6
CONTINUOUS
 62
     7
  2
_DOT
 10
30.827862
 20
46.743408
 50
270
  0
INSERT
  8
0
  6
CONTINUOUS
 62
     7
  2
_DOT
 10
30.827862
 20
54.243439
 50
90
  0
LINE
  8
0
  6
CONTINUOUS
 62
     7
 10
-4.1321383
 20
54.243439
 11
32.027863
 21
54.243439
  0
TEXT
  8
0
  6
CONTINUOUS
 62
     7
 10
38.760307
 20
33.464941
 40
3.2
 41
3.085875
  1
  
 50
90.000003
  0
POINT
  8
DEFPOINTS
  6
CONTINUOUS
 62
     7
 10
-18.172077
 20
46.743408
  0
POINT
  8
DEFPOINTS
  6
CONTINUOUS
 62
     7
 10
-6.6721382
 20
54.243439
  0
POINT
  8
DEFPOINTS
  6
CONTINUOUS
 62
     7
 10
30.827862
 20
54.243439
  0
ENDBLK
  8
0
  0
BLOCK
  8
0
  2
*D25
 70
    65
 10
0
 20
0
  0
LINE
  8
0
  6
CONTINUOUS
 62
     7
 10
30.827862
 20
54.243439
 11
30.827862
 21
64.2435
  0
INSERT
  8
0
  6
CONTINUOUS
 62
     7
  2
_DOT
 10
30.827862
 20
54.243439
 50
270
  0
INSERT
  8
0
  6
CONTINUOUS
 62
     7
  2
_DOT
 10
30.827862
 20
64.2435
 50
90
  0
TEXT
  8
0
  6
CONTINUOUS
 62
     7
 10
30.027862
 20
56.500469
 40
3.2
 41
1.4026704
  1
10
 50
90.000003
  0
POINT
  8
DEFPOINTS
  6
CONTINUOUS
 62
     7
 10
-6.6721382
 20
54.243439
  0
POINT
  8
DEFPOINTS
  6
CONTINUOUS
 62
     7
 10
-8.416523
 20
64.2435
  0
POINT
  8
DEFPOINTS
  6
CONTINUOUS
 62
     7
 10
30.827862
 20
64.2435
  0
ENDBLK
  8
0
  0
BLOCK
  8
0
  2
*D26
 70
    65
 10
0
 20
0
  0
LINE
  8
0
  6
CONTINUOUS
 62
     7
 10
30.827862
 20
64.2435
 11
30.827862
 21
80.24353
  0
INSERT
  8
0
  6
CONTINUOUS
 62
     7
  2
_DOT
 10
30.827862
 20
64.2435
 50
270
  0
INSERT
  8
0
  6
CONTINUOUS
 62
     7
  2
_DOT
 10
30.827862
 20
80.24353
 50
90
  0
TEXT
  8
0
  6
CONTINUOUS
 62
     7
 10
30.027862
 20
69.500515
 40
3.2
 41
1.2857812
  1
16
 50
90.000003
  0
POINT
  8
DEFPOINTS
  6
CONTINUOUS
 62
     7
 10
-8.416523
 20
64.2435
  0
POINT
  8
DEFPOINTS
  6
CONTINUOUS
 62
     7
 10
-11.206135
 20
80.24353
  0
POINT
  8
DEFPOINTS
  6
CONTINUOUS
 62
     7
 10
30.827862
 20
80.24353
  0
ENDBLK
  8
0
  0
BLOCK
  8
0
  2
*D27
 70
    65
 10
0
 20
0
  0
LINE
  8
0
  6
CONTINUOUS
 62
     7
 10
30.827862
 20
80.24353
 11
30.827862
 21
97.24353
  0
INSERT
  8
0
  6
CONTINUOUS
 62
     7
  2
_DOT
 10
30.827862
 20
80.24353
 50
270
  0
INSERT
  8
0
  6
CONTINUOUS
 62
     7
  2
_DOT
 10
30.827862
 20
97.24353
 50
90
  0
LINE
  8
0
  6
CONTINUOUS
 62
     7
 10
-14.072934
 20
97.24353
 11
32.027863
 21
97.24353
  0
TEXT
  8
0
  6
CONTINUOUS
 62
     7
 10
30.027862
 20
86.00053
 40
3.2
 41
1.2857812
  1
17
 50
90.000003
  0
POINT
  8
DEFPOINTS
  6
CONTINUOUS
 62
     7
 10
-11.206135
 20
80.24353
  0
POINT
  8
DEFPOINTS
  6
CONTINUOUS
 62
     7
 10
-16.612934
 20
97.24353
  0
POINT
  8
DEFPOINTS
  6
CONTINUOUS
 62
     7
 10
30.827862
 20
97.24353
  0
ENDBLK
  8
0
  0
BLOCK
  8
0
  2
*D28
 70
    65
 10
0
 20
0
  0
LINE
  8
0
  6
CONTINUOUS
 62
     7
 10
30.827862
 20
103.7435
 11
30.827862
 21
114.39699
  0
LINE
  8
0
  6
CONTINUOUS
 62
     7
 10
30.827862
 20
103.7435
 11
30.827862
 21
97.24353
  0
INSERT
  8
0
  6
CONTINUOUS
 62
     7
  2
_DOT
 10
30.827862
 20
103.7435
 50
90
  0
INSERT
  8
0
  6
CONTINUOUS
 62
     7
  2
_DOT
 10
30.827862
 20
97.24353
 50
270
  0
LINE
  8
0
  6
CONTINUOUS
 62
     7
 10
-19.132138
 20
103.7435
 11
32.027863
 21
103.7435
  0
TEXT
  8
0
  6
CONTINUOUS
 62
     7
 10
30.027862
 20
105.71099
 40
3.2
 41
1.3571875
  1
6.5
 50
90.000003
  0
POINT
  8
DEFPOINTS
  6
CONTINUOUS
 62
     7
 10
-21.672138
 20
103.7435
  0
POINT
  8
DEFPOINTS
  6
CONTINUOUS
 62
     7
 10
-15.853107
 20
97.24353
  0
POINT
  8
DEFPOINTS
  6
CONTINUOUS
 62
     7
 10
30.827862
 20
97.24353
  0
ENDBLK
  8
0
  0
BLOCK
  8
0
  2
*D29
 70
    65
 10
0
 20
0
  0
LINE
  8
0
  6
CONTINUOUS
 62
     7
 10
140.97984
 20
44.795471
 11
150.97984
 21
44.795471
  0
INSERT
  8
0
  6
CONTINUOUS
 62
     7
  2
_DOT
 10
140.97984
 20
44.795471
 50
180
  0
INSERT
  8
0
  6
CONTINUOUS
 62
     7
  2
_DOT
 10
150.97984
 20
44.795471
  0
LINE
  8
0
  6
CONTINUOUS
 62
     7
 10
140.97984
 20
53.849755
 11
140.97984
 21
43.59547
  0
LINE
  8
0
  6
CONTINUOUS
 62
     7
 10
150.97984
 20
61.7035
 11
150.97984
 21
43.59547
  0
TEXT
  8
0
  6
CONTINUOUS
 62
     7
 10
143.23684
 20
45.595471
 40
3.2
 41
1.4026704
  1
10
  0
POINT
  8
DEFPOINTS
  6
CONTINUOUS
 62
     7
 10
140.97984
 20
56.389755
  0
POINT
  8
DEFPOINTS
  6
CONTINUOUS
 62
     7
 10
150.97984
 20
64.2435
  0
POINT
  8
DEFPOINTS
  6
CONTINUOUS
 62
     7
 10
150.97984
 20
44.795471
  0
ENDBLK
  8
0
  0
BLOCK
  8
0
  2
*D30
 70
    65
 10
0
 20
0
  0
LINE
  8
0
  6
CONTINUOUS
 62
     7
 10
140.97984
 20
44.795471
 11
110.97984
 21
44.795471
  0
INSERT
  8
0
  6
CONTINUOUS
 62
     7
  2
_DOT
 10
140.97984
 20
44.795471
  0
INSERT
  8
0
  6
CONTINUOUS
 62
     7
  2
_DOT
 10
110.97984
 20
44.795471
 50
180
  0
LINE
  8
0
  6
CONTINUOUS
 62
     7
 10
140.97984
 20
53.849755
 11
140.97984
 21
43.59547
  0
LINE
  8
0
  6
CONTINUOUS
 62
     7
 10
110.97984
 20
55.644143
 11
110.97984
 21
43.59547
  0
TEXT
  8
0
  6
CONTINUOUS
 62
     7
 10
123.23684
 20
45.595471
 40
3.2
 41
1.1020982
  1
30
  0
POINT
  8
DEFPOINTS
  6
CONTINUOUS
 62
     7
 10
140.97984
 20
56.389755
  0
POINT
  8
DEFPOINTS
  6
CONTINUOUS
 62
     7
 10
110.97984
 20
58.184143
  0
POINT
  8
DEFPOINTS
  6
CONTINUOUS
 62
     7
 10
110.97984
 20
44.795471
  0
ENDBLK
  8
0
  0
BLOCK
  8
0
  2
*D31
 70
    65
 10
0
 20
0
  0
LINE
  8
0
  6
CONTINUOUS
 62
     7
 10
93.194702
 20
44.795471
 11
110.97984
 21
44.795471
  0
INSERT
  8
0
  6
CONTINUOUS
 62
     7
  2
_OPEN
 10
90.194702
 20
44.795471
 50
180
  0
INSERT
  8
0
  6
CONTINUOUS
 62
     7
  2
_DOT
 10
110.97984
 20
44.795471
  0
TEXT
  8
0
  6
CONTINUOUS
 62
     7
 10
99.444273
 20
45.595471
 40
3.2
 41
1
  1
P
  0
POINT
  8
DEFPOINTS
  6
CONTINUOUS
 62
     7
 10
90.194702
 20
64.2435
  0
POINT
  8
DEFPOINTS
  6
CONTINUOUS
 62
     7
 10
110.97984
 20
58.184143
  0
POINT
  8
DEFPOINTS
  6
CONTINUOUS
 62
     7
 10
110.97984
 20
44.795471
  0
ENDBLK
  8
0
  0
BLOCK
  8
0
  2
*D32
 70
    65
 10
0
 20
0
  0
LINE
  8
0
  6
CONTINUOUS
 62
     7
 10
-231.41212
 20
46.743408
 11
-231.41212
 21
51.743408
  0
INSERT
  8
0
  6
CONTINUOUS
 62
     7
  2
_DOT
 10
-231.41212
 20
46.743408
 50
270
  0
INSERT
  8
0
  6
CONTINUOUS
 62
     7
  2
_DOT
 10
-231.41212
 20
51.743408
 50
90
  0
LINE
  8
0
  6
CONTINUOUS
 62
     7
 10
-223.95212
 20
46.743408
 11
-232.61212
 21
46.743408
  0
LINE
  8
0
  6
CONTINUOUS
 62
     7
 10
-222.9741
 20
51.743408
 11
-232.61212
 21
51.743408
  0
TEXT
  8
0
  6
CONTINUOUS
 62
     7
 10
-232.21212
 20
48.100408
 40
3.2
 41
1
  1
5
 50
90.000003
  0
POINT
  8
DEFPOINTS
  6
CONTINUOUS
 62
     7
 10
-221.41212
 20
46.743408
  0
POINT
  8
DEFPOINTS
  6
CONTINUOUS
 62
     7
 10
-220.4341
 20
51.743408
  0
POINT
  8
DEFPOINTS
  6
CONTINUOUS
 62
     7
 10
-231.41212
 20
51.743408
  0
ENDBLK
  8
0
  0
BLOCK
  8
0
  2
*D33
 70
    65
 10
0
 20
0
  0
LINE
  8
0
  6
CONTINUOUS
 62
     7
 10
-231.41212
 20
51.743408
 11
-231.41212
 21
54.743439
  0
INSERT
  8
0
  6
CONTINUOUS
 62
     7
  2
_DOT
 10
-231.41212
 20
51.743408
 50
270
  0
INSERT
  8
0
  6
CONTINUOUS
 62
     7
  2
_DOT
 10
-231.41212
 20
54.743439
 50
90
  0
LINE
  8
0
  6
CONTINUOUS
 62
     7
 10
-222.9741
 20
51.743408
 11
-232.61212
 21
51.743408
  0
LINE
  8
0
  6
CONTINUOUS
 62
     7
 10
-222.9741
 20
54.743439
 11
-232.61212
 21
54.743439
  0
TEXT
  8
0
  6
CONTINUOUS
 62
     7
 10
-232.21212
 20
52.100423
 40
3.2
 41
1
  1
3
 50
90.000003
  0
POINT
  8
DEFPOINTS
  6
CONTINUOUS
 62
     7
 10
-220.4341
 20
51.743408
  0
POINT
  8
DEFPOINTS
  6
CONTINUOUS
 62
     7
 10
-220.4341
 20
54.743439
  0
POINT
  8
DEFPOINTS
  6
CONTINUOUS
 62
     7
 10
-231.41212
 20
54.743439
  0
ENDBLK
  8
0
  0
BLOCK
  8
0
  2
*D34
 70
    65
 10
0
 20
0
  0
LINE
  8
0
  6
CONTINUOUS
 62
     7
 10
-231.41212
 20
59.743439
 11
-231.41212
 21
62.743408
  0
INSERT
  8
0
  6
CONTINUOUS
 62
     7
  2
_DOT
 10
-231.41212
 20
59.743439
 50
270
  0
INSERT
  8
0
  6
CONTINUOUS
 62
     7
  2
_DOT
 10
-231.41212
 20
62.743408
 50
90
  0
LINE
  8
0
  6
CONTINUOUS
 62
     7
 10
-223.95212
 20
59.743439
 11
-232.61212
 21
59.743439
  0
LINE
  8
0
  6
CONTINUOUS
 62
     7
 10
-223.95212
 20
62.743408
 11
-232.61212
 21
62.743408
  0
TEXT
  8
0
  6
CONTINUOUS
 62
     7
 10
-232.21212
 20
60.100423
 40
3.2
 41
1
  1
3
 50
90.000003
  0
POINT
  8
DEFPOINTS
  6
CONTINUOUS
 62
     7
 10
-221.41212
 20
59.743439
  0
POINT
  8
DEFPOINTS
  6
CONTINUOUS
 62
     7
 10
-221.41212
 20
62.743408
  0
POINT
  8
DEFPOINTS
  6
CONTINUOUS
 62
     7
 10
-231.41212
 20
62.743408
  0
ENDBLK
  8
0
  0
BLOCK
  8
0
  2
*D35
 70
    65
 10
0
 20
0
  0
LINE
  8
0
  6
CONTINUOUS
 62
     7
 10
-241.41212
 20
64.2435
 11
-241.41212
 21
74.217293
  0
LINE
  8
0
  6
CONTINUOUS
 62
     7
 10
-241.41212
 20
62.743408
 11
-241.41212
 21
64.2435
  0
INSERT
  8
0
  6
CONTINUOUS
 62
     7
  2
_DOT
 10
-241.41212
 20
62.743408
 50
270
  0
INSERT
  8
0
  6
CONTINUOUS
 62
     7
  2
_DOT
 10
-241.41212
 20
64.2435
 50
90
  0
LINE
  8
0
  6
CONTINUOUS
 62
     7
 10
-203.95212
 20
64.2435
 11
-242.61212
 21
64.2435
  0
TEXT
  8
0
  6
CONTINUOUS
 62
     7
 10
-242.21212
 20
65.531298
 40
3.2
 41
1.628625
  1
1.5
 50
90.000003
  0
POINT
  8
DEFPOINTS
  6
CONTINUOUS
 62
     7
 10
-221.41212
 20
62.743408
  0
POINT
  8
DEFPOINTS
  6
CONTINUOUS
 62
     7
 10
-201.41212
 20
64.2435
  0
POINT
  8
DEFPOINTS
  6
CONTINUOUS
 62
     7
 10
-241.41212
 20
64.2435
  0
ENDBLK
  8
0
  0
BLOCK
  8
0
  2
*D36
 70
    65
 10
0
 20
0
  0
LINE
  8
0
  6
CONTINUOUS
 62
     7
 10
-241.41212
 20
31.743408
 11
-241.41212
 21
46.743408
  0
INSERT
  8
0
  6
CONTINUOUS
 62
     7
  2
_DOT
 10
-241.41212
 20
31.743408
 50
270
  0
INSERT
  8
0
  6
CONTINUOUS
 62
     7
  2
_DOT
 10
-241.41212
 20
46.743408
 50
90
  0
LINE
  8
0
  6
CONTINUOUS
 62
     7
 10
-76.712142
 20
31.743408
 11
-242.61212
 21
31.743408
  0
TEXT
  8
0
  6
CONTINUOUS
 62
     7
 10
-242.21212
 20
36.500408
 40
3.2
 41
1.2857812
  1
15
 50
90.000003
  0
POINT
  8
DEFPOINTS
  6
CONTINUOUS
 62
     7
 10
-74.172142
 20
31.743408
  0
POINT
  8
DEFPOINTS
  6
CONTINUOUS
 62
     7
 10
-221.41212
 20
46.743408
  0
POINT
  8
DEFPOINTS
  6
CONTINUOUS
 62
     7
 10
-241.41212
 20
46.743408
  0
ENDBLK
  8
0
  0
BLOCK
  8
0
  2
*D37
 70
    65
 10
0
 20
0
  0
LINE
  8
0
  6
CONTINUOUS
 62
     7
 10
-292.41177
 20
113.7435
 11
-322.41177
 21
113.7435
  0
INSERT
  8
0
  6
CONTINUOUS
 62
     7
  2
_DOT
 10
-292.41177
 20
113.7435
  0
INSERT
  8
0
  6
CONTINUOUS
 62
     7
  2
_DOT
 10
-322.41177
 20
113.7435
 50
180
  0
LINE
  8
0
  6
CONTINUOUS
 62
     7
 10
-292.41177
 20
110.5685
 11
-292.41177
 21
114.9435
  0
LINE
  8
0
  6
CONTINUOUS
 62
     7
 10
-322.41177
 20
84.7835
 11
-322.41177
 21
114.9435
  0
TEXT
  8
0
  6
CONTINUOUS
 62
     7
 10
-311.75477
 20
114.5435
 40
3.2
 41
1.2857566
  1
(A)
  0
POINT
  8
DEFPOINTS
  6
CONTINUOUS
 62
     7
 10
-292.41177
 20
108.0285
  0
POINT
  8
DEFPOINTS
  6
CONTINUOUS
 62
     7
 10
-322.41177
 20
82.2435
  0
POINT
  8
DEFPOINTS
  6
CONTINUOUS
 62
     7
 10
-322.41177
 20
113.7435
  0
ENDBLK
  8
0
  0
BLOCK
  8
0
  2
*D38
 70
    65
 10
0
 20
0
  0
LINE
  8
0
  6
CONTINUOUS
 62
     7
 10
-241.412
 20
46.743484
 11
-241.412
 21
62.74353
  0
INSERT
  8
0
  6
CONTINUOUS
 62
     7
  2
_DOT
 10
-241.412
 20
46.743484
 50
270
  0
INSERT
  8
0
  6
CONTINUOUS
 62
     7
  2
_DOT
 10
-241.412
 20
62.74353
 50
90
  0
LINE
  8
0
  6
CONTINUOUS
 62
     7
 10
-223.952
 20
46.743484
 11
-242.612
 21
46.743484
  0
LINE
  8
0
  6
CONTINUOUS
 62
     7
 10
-223.952
 20
62.74353
 11
-242.612
 21
62.74353
  0
TEXT
  8
0
  6
CONTINUOUS
 62
     7
 10
-242.212
 20
52.000507
 40
3.2
 41
1.2857812
  1
16
 50
90.000003
  0
POINT
  8
DEFPOINTS
  6
CONTINUOUS
 62
     7
 10
-221.412
 20
46.743484
  0
POINT
  8
DEFPOINTS
  6
CONTINUOUS
 62
     7
 10
-221.412
 20
62.74353
  0
POINT
  8
DEFPOINTS
  6
CONTINUOUS
 62
     7
 10
-241.412
 20
62.74353
  0
ENDBLK
  8
0
  0
BLOCK
  8
0
  2
KOZU0001
 70
    64
 10
0
 20
0
  0
LINE
  8
0
  6
CONTINUOUS
 62
     7
 10
0
 20
0
 11
-22.338776
 21
28.455612
  0
LINE
  8
0
  6
CONTINUOUS
 62
     7
 10
-22.338776
 20
28.455612
 11
-72.671051
 21
28.455612
  0
LINE
  8
0
  6
CONTINUOUS
 62
     7
 10
0
 20
0
 11
-2.6390559
 21
1.7422352
  0
LINE
  8
0
  6
CONTINUOUS
 62
     7
 10
0
 20
0
 11
-1.0659036
 21
2.9772217
  0
TEXT
  8
0
  6
CONTINUOUS
 62
     7
 10
-71.757049
 20
29.255597
 40
3.2
 41
0.84306961
  1
４－%%C５．２×１５．２スロット
  0
ENDBLK
  8
0
  0
BLOCK
  8
0
  2
KOZU0002
 70
    64
 10
0
 20
0
  0
LINE
  8
0
  6
CONTINUOUS
 62
     7
 10
0
 20
0
 11
-21.503204
 21
38.162903
  0
LINE
  8
0
  6
CONTINUOUS
 62
     7
 10
-21.503204
 20
38.162903
 11
27.310455
 21
38.162903
  0
LINE
  8
0
  6
CONTINUOUS
 62
     7
 10
0
 20
0
 11
-2.3439045
 21
2.1227603
  0
LINE
  8
0
  6
CONTINUOUS
 62
     7
 10
0
 20
0
 11
-0.60146742
 21
3.104551
  0
TEXT
  8
0
  6
CONTINUOUS
 62
     7
 10
-17.489549
 20
38.962903
 40
3.2
 41
0.84326962
  1
４－%%C５．５×８．５スロット
  0
ENDBLK
  8
0
  0
ENDSEC
  0
SECTION
  2
ENTITIES
  0
LINE
  8
0
  6
CONTINUOUS
 62
     7
 10
170
 20
294.5
 11
170
 21
-100
  0
LINE
  8
0
  6
CONTINUOUS
 62
     7
 10
-385
 20
-100
 11
170
 21
-100
  0
LINE
  8
0
  6
CONTINUOUS
 62
     7
 10
-385
 20
294.5
 11
170
 21
294.5
  0
LINE
  8
0
  6
CONTINUOUS
 62
     7
 10
-385
 20
294.5
 11
-385
 21
-100
  0
LINE
  8
0
  6
CONTINUOUS
 62
     7
 10
-365
 20
294.5
 11
-365
 21
198.5
  0
LINE
  8
0
  6
CONTINUOUS
 62
     7
 10
-385
 20
286.5
 11
-275
 21
286.5
  0
LINE
  8
0
  6
CONTINUOUS
 62
     7
 10
-385
 20
278.5
 11
-275
 21
278.5
  0
LINE
  8
0
  6
CONTINUOUS
 62
     7
 10
-385
 20
270.5
 11
-275
 21
270.5
  0
LINE
  8
0
  6
CONTINUOUS
 62
     7
 10
-385
 20
254.5
 11
-275
 21
254.5
  0
LINE
  8
0
  6
CONTINUOUS
 62
     7
 10
-365
 20
246.5
 11
-275
 21
246.5
  0
LINE
  8
0
  6
CONTINUOUS
 62
     7
 10
-365
 20
238.5
 11
-275
 21
238.5
  0
LINE
  8
0
  6
CONTINUOUS
 62
     7
 10
-385
 20
230.5
 11
-275
 21
230.5
  0
LINE
  8
0
  6
CONTINUOUS
 62
     7
 10
-365
 20
222.5
 11
-275
 21
222.5
  0
LINE
  8
0
  6
CONTINUOUS
 62
     7
 10
-365
 20
214.5
 11
-275
 21
214.5
  0
LINE
  8
0
  6
CONTINUOUS
 62
     7
 10
-365
 20
206.5
 11
-275
 21
206.5
  0
LINE
  8
0
  6
CONTINUOUS
 62
     7
 10
-385
 20
294.5
 11
-385
 21
214.5
  0
LINE
  8
0
  6
CONTINUOUS
 62
     7
 10
-385
 20
294.5
 11
-275
 21
294.5
  0
LINE
  8
0
  6
CONTINUOUS
 62
     7
 10
-275
 20
294.5
 11
-275
 21
198.5
  0
LINE
  8
0
  6
CONTINUOUS
 62
     7
 10
-385
 20
-100
 11
-275
 21
-100
  0
LINE
  8
0
  6
CONTINUOUS
 62
     7
 10
-385
 20
-20
 11
-385
 21
-100
  0
LINE
  8
0
  6
CONTINUOUS
 62
     7
 10
-385
 20
198.5
 11
-275
 21
198.5
  0
LINE
  8
0
  6
CONTINUOUS
 62
     3
 10
15.827862
 20
177.2435
 11
15.827862
 21
179.24353
  0
LINE
  8
0
  6
CONTINUOUS
 62
     3
 10
15.827862
 20
195.24353
 11
15.827862
 21
197.2435
  0
LINE
  8
0
  6
CONTINUOUS
 62
     3
 10
15.827862
 20
197.2435
 11
-5.6320076
 21
197.2435
  0
LINE
  8
0
  6
CONTINUOUS
 62
     3
 10
-159.41212
 20
195.59441
 11
-159.41212
 21
217.2435
  0
LINE
  8
0
  6
CONTINUOUS
 62
     3
 10
-159.41212
 20
217.2435
 11
-221.41212
 21
217.2435
  0
LINE
  8
0
  6
CONTINUOUS
 62
     3
 10
-221.41212
 20
217.2435
 11
-221.41212
 21
195.59441
  0
LINE
  8
0
  6
CONTINUOUS
 62
     3
 10
-24.172138
 20
43.743423
 11
-34.172138
 21
43.743423
  0
LINE
  8
0
  6
CONTINUOUS
 62
     3
 10
-14.172077
 20
31.743408
 11
15.827862
 21
31.743408
  0
LINE
  8
0
  6
CONTINUOUS
 62
     3
 10
15.827862
 20
31.743408
 11
15.827862
 21
34.743423
  0
LINE
  8
0
  6
CONTINUOUS
 62
     3
 10
15.827862
 20
34.743423
 11
-14.172138
 21
34.743423
  0
LINE
  8
0
  6
CONTINUOUS
 62
     3
 10
-44.172138
 20
34.743423
 11
-74.172142
 21
34.743423
  0
LINE
  8
0
  6
CONTINUOUS
 62
     3
 10
-74.172142
 20
34.743423
 11
-74.172142
 21
31.743408
  0
LINE
  8
0
  6
CONTINUOUS
 62
     3
 10
-74.172142
 20
31.743408
 11
-44.172138
 21
31.743408
  0
LINE
  8
0
  6
CONTINUOUS
 62
     3
 10
-221.41212
 20
46.743408
 11
-159.41212
 21
46.743408
  0
LINE
  8
0
  6
CONTINUOUS
 62
     3
 10
-159.41212
 20
46.743408
 11
-159.41212
 21
62.743408
  0
LINE
  8
0
  6
CONTINUOUS
 62
     3
 10
-159.41212
 20
62.743408
 11
-221.41212
 21
62.743408
  0
LINE
  8
0
  6
CONTINUOUS
 62
     3
 10
-221.41212
 20
62.743408
 11
-221.41212
 21
46.743408
  0
LINE
  8
0
  6
CONTINUOUS
 62
     3
 10
151.9799
 20
195.24356
 11
-8.57967
 21
195.24356
  0
LINE
  8
0
  6
CONTINUOUS
 62
     3
 10
-8.57967
 20
179.2435
 11
151.9799
 21
179.2435
  0
LINE
  8
0
  6
CONTINUOUS
 62
     3
 10
-201.41212
 20
179.24356
 11
-49.764606
 21
179.24356
  0
LINE
  8
0
  6
CONTINUOUS
 62
     3
 10
-49.764606
 20
195.24353
 11
-201.41212
 21
195.24353
  0
LINE
  8
0
  6
CONTINUOUS
 62
     3
 10
-302.41177
 20
46.743408
 11
-302.41177
 21
31.743408
  0
LINE
  8
0
  6
CONTINUOUS
 62
     3
 10
-302.41177
 20
31.743408
 11
-282.41214
 21
31.743408
  0
LINE
  8
0
  6
CONTINUOUS
 62
     3
 10
-282.41214
 20
31.743408
 11
-282.41214
 21
46.743408
  0
LINE
  8
0
  6
CONTINUOUS
 62
     3
 10
-322.41177
 20
59.743561
 11
-322.41177
 21
46.743408
  0
LINE
  8
0
  6
CONTINUOUS
 62
     3
 10
-322.41177
 20
46.743408
 11
-319.41165
 21
46.743408
  0
LINE
  8
0
  6
CONTINUOUS
 62
     3
 10
-319.41165
 20
46.743408
 11
-319.41165
 21
59.74353
  0
LINE
  8
0
  6
CONTINUOUS
 62
     3
 10
-304.91177
 20
46.743408
 11
-279.91177
 21
46.743408
  0
LINE
  8
0
  6
PHANTOM
 62
     7
 10
-320.41177
 20
29.743423
 11
-358.41177
 21
29.743423
  0
LINE
  8
0
  6
PHANTOM
 62
     7
 10
-358.41177
 20
29.743423
 11
-358.41177
 21
11.743408
  0
LINE
  8
0
  6
PHANTOM
 62
     7
 10
-358.41177
 20
11.743439
 11
-320.41177
 21
11.743439
  0
LINE
  8
0
  6
PHANTOM
 62
     7
 10
-320.41177
 20
11.743408
 11
-320.41177
 21
29.743423
  0
LINE
  8
0
  6
PHANTOM
 62
     7
 10
-322.41177
 20
82.24353
 11
-332.41177
 21
82.24353
  0
LINE
  8
0
  6
PHANTOM
 62
     7
 10
-332.41177
 20
82.2435
 11
-332.41177
 21
80.24353
  0
LINE
  8
0
  6
PHANTOM
 62
     7
 10
-332.41177
 20
80.24353
 11
-324.41165
 21
80.24353
  0
LINE
  8
0
  6
PHANTOM
 62
     7
 10
-324.41165
 20
80.24353
 11
-324.41165
 21
31.743408
  0
LINE
  8
0
  6
PHANTOM
 62
     7
 10
-324.41165
 20
31.743408
 11
-358.41177
 21
31.743408
  0
LINE
  8
0
  6
PHANTOM
 62
     7
 10
-358.41177
 20
31.743408
 11
-358.41177
 21
80.24353
  0
LINE
  8
0
  6
PHANTOM
 62
     7
 10
-358.41177
 20
80.24353
 11
-350.41177
 21
80.24353
  0
LINE
  8
0
  6
PHANTOM
 62
     7
 10
-350.41177
 20
80.24353
 11
-350.41177
 21
82.2435
  0
LINE
  8
0
  6
PHANTOM
 62
     7
 10
-350.41177
 20
82.24353
 11
-360.41177
 21
82.24353
  0
LINE
  8
0
  6
PHANTOM
 62
     7
 10
-360.41177
 20
82.2435
 11
-360.41177
 21
5.743423
  0
LINE
  8
0
  6
PHANTOM
 62
     7
 10
-360.41177
 20
5.7433925
 11
-358.41177
 21
5.7433925
  0
LINE
  8
0
  6
PHANTOM
 62
     7
 10
-358.41177
 20
5.743423
 11
-358.41177
 21
9.7434235
  0
LINE
  8
0
  6
PHANTOM
 62
     7
 10
-358.41177
 20
9.7434235
 11
-320.41177
 21
9.7434235
  0
LINE
  8
0
  6
PHANTOM
 62
     7
 10
-320.41177
 20
9.7434235
 11
-320.41177
 21
5.743423
  0
LINE
  8
0
  6
PHANTOM
 62
     7
 10
-320.41177
 20
5.7433925
 11
-318.41177
 21
5.7433925
  0
LINE
  8
0
  6
PHANTOM
 62
     7
 10
-318.41177
 20
5.743423
 11
-318.41177
 21
31.743408
  0
LINE
  8
0
  6
PHANTOM
 62
     7
 10
-318.41177
 20
31.743408
 11
-322.41177
 21
31.743408
  0
LINE
  8
0
  6
PHANTOM
 62
     7
 10
-322.41177
 20
31.743408
 11
-322.41177
 21
82.24353
  0
LINE
  8
0
  6
PHANTOM
 62
     7
 10
-308.41196
 20
-6.4230356
 11
-370.91199
 21
-11.756445
  0
LINE
  8
0
  6
PHANTOM
 62
     7
 10
-370.91177
 20
-11.756577
 11
-370.91177
 21
-27.756561
  0
LINE
  8
0
  6
PHANTOM
 62
     7
 10
-370.91177
 20
-27.756577
 11
-358.91177
 21
-27.756577
  0
LINE
  8
0
  6
PHANTOM
 62
     7
 10
-358.91177
 20
-27.756561
 11
-358.91177
 21
-25.756577
  0
LINE
  8
0
  6
PHANTOM
 62
     7
 10
-358.91177
 20
-25.756592
 11
-368.91177
 21
-25.756592
  0
LINE
  8
0
  6
PHANTOM
 62
     7
 10
-368.91177
 20
-25.756577
 11
-368.91177
 21
-13.756577
  0
LINE
  8
0
  6
PHANTOM
 62
     7
 10
-368.91171
 20
-13.756584
 11
-278.41208
 21
-5.7565799
  0
LINE
  8
0
  6
PHANTOM
 62
     7
 10
-278.41226
 20
-5.7565923
 11
-278.41226
 21
-25.756577
  0
LINE
  8
0
  6
PHANTOM
 62
     7
 10
-278.41226
 20
-25.756592
 11
-286.41214
 21
-25.756592
  0
LINE
  8
0
  6
PHANTOM
 62
     7
 10
-286.41214
 20
-25.756577
 11
-286.41214
 21
-27.756561
  0
LINE
  8
0
  6
PHANTOM
 62
     7
 10
-286.41214
 20
-27.756577
 11
-276.41214
 21
-27.756577
  0
LINE
  8
0
  6
PHANTOM
 62
     7
 10
-276.41214
 20
-27.756561
 11
-276.41214
 21
33.743423
  0
LINE
  8
0
  6
PHANTOM
 62
     7
 10
-276.41214
 20
33.743423
 11
-278.41226
 21
33.743423
  0
LINE
  8
0
  6
PHANTOM
 62
     7
 10
-278.41226
 20
33.743423
 11
-278.41226
 21
31.743408
  0
LINE
  8
0
  6
PHANTOM
 62
     7
 10
-278.41226
 20
31.743408
 11
-282.41214
 21
31.743408
  0
LINE
  8
0
  6
PHANTOM
 62
     7
 10
-312.41177
 20
31.743408
 11
-312.41177
 21
27.743423
  0
LINE
  8
0
  6
PHANTOM
 62
     7
 10
-312.41177
 20
27.743439
 11
-310.41177
 21
27.743439
  0
LINE
  8
0
  6
PHANTOM
 62
     7
 10
-310.41177
 20
27.743423
 11
-310.41177
 21
29.743423
  0
LINE
  8
0
  6
PHANTOM
 62
     7
 10
-310.41177
 20
29.743423
 11
-308.41177
 21
29.743423
  0
LINE
  8
0
  6
PHANTOM
 62
     7
 10
-308.41177
 20
29.743423
 11
-308.41177
 21
21.743408
  0
LINE
  8
0
  6
PHANTOM
 62
     7
 10
-308.41177
 20
21.743408
 11
-310.41177
 21
21.743408
  0
LINE
  8
0
  6
PHANTOM
 62
     7
 10
-310.41177
 20
21.743408
 11
-310.41177
 21
23.743423
  0
LINE
  8
0
  6
PHANTOM
 62
     7
 10
-310.41177
 20
23.743408
 11
-312.41177
 21
23.743408
  0
LINE
  8
0
  6
PHANTOM
 62
     7
 10
-312.41177
 20
23.743423
 11
-312.41177
 21
19.743423
  0
LINE
  8
0
  6
PHANTOM
 62
     7
 10
-312.41177
 20
19.743423
 11
-308.41177
 21
19.743423
  0
LINE
  8
0
  6
PHANTOM
 62
     7
 10
-308.41177
 20
19.743423
 11
-308.41177
 21
-6.4231877
  0
LINE
  8
0
  6
CENTER
 62
     7
 10
-64.172142
 20
196.23453
 11
-64.172142
 21
177.95651
  0
LINE
  8
0
  6
CENTER
 62
     7
 10
-59.763142
 20
192.2435
 11
-68.729149
 21
192.2435
  0
LINE
  8
0
  6
CENTER
 62
     7
 10
-59.763142
 20
182.2435
 11
-68.729149
 21
182.2435
  0
LINE
  8
0
  6
DASHED
 62
     7
 10
-66.772179
 20
192.2435
 11
-66.772179
 21
182.2435
  0
LINE
  8
0
  6
DASHED
 62
     7
 10
-61.572163
 20
182.2435
 11
-61.572163
 21
192.2435
  0
LINE
  8
0
  6
CENTER
 62
     7
 10
-54.172138
 20
196.23453
 11
-54.172138
 21
177.95651
  0
LINE
  8
0
  6
CENTER
 62
     7
 10
-49.763142
 20
192.2435
 11
-58.729145
 21
192.2435
  0
LINE
  8
0
  6
CENTER
 62
     7
 10
-49.763142
 20
182.2435
 11
-58.729145
 21
182.2435
  0
LINE
  8
0
  6
DASHED
 62
     7
 10
-56.772175
 20
192.2435
 11
-56.772175
 21
182.2435
  0
LINE
  8
0
  6
DASHED
 62
     7
 10
-51.572163
 20
182.2435
 11
-51.572163
 21
192.2435
  0
LINE
  8
0
  6
CENTER
 62
     7
 10
-4.1721382
 20
196.23453
 11
-4.1721382
 21
177.95651
  0
LINE
  8
0
  6
CENTER
 62
     7
 10
0.2368582
 20
192.2435
 11
-8.729084
 21
192.2435
  0
LINE
  8
0
  6
CENTER
 62
     7
 10
0.2368582
 20
182.2435
 11
-8.729084
 21
182.2435
  0
LINE
  8
0
  6
DASHED
 62
     7
 10
-6.7721748
 20
192.2435
 11
-6.7721748
 21
182.2435
  0
LINE
  8
0
  6
DASHED
 62
     7
 10
-1.5721627
 20
182.2435
 11
-1.5721627
 21
192.2435
  0
LINE
  8
0
  6
CENTER
 62
     7
 10
5.8278618
 20
196.23453
 11
5.8278618
 21
177.95651
  0
LINE
  8
0
  6
CENTER
 62
     7
 10
10.236858
 20
192.2435
 11
1.2709159
 21
192.2435
  0
LINE
  8
0
  6
CENTER
 62
     7
 10
10.236858
 20
182.2435
 11
1.2709159
 21
182.2435
  0
LINE
  8
0
  6
DASHED
 62
     7
 10
3.227886
 20
192.2435
 11
3.227886
 21
182.2435
  0
LINE
  8
0
  6
DASHED
 62
     7
 10
8.4278374
 20
182.2435
 11
8.4278374
 21
192.2435
  0
LINE
  8
0
  6
CONTINUOUS
 62
     3
 10
-200.41212
 20
80.24353
 11
-200.41212
 21
64.2435
  0
LINE
  8
0
  6
CENTER
 62
     7
 10
-4.1721382
 20
39.732407
 11
-4.1721382
 21
25.160217
  0
LINE
  8
0
  6
CENTER
 62
     7
 10
5.8278618
 20
39.732407
 11
5.8278618
 21
25.160217
  0
LINE
  8
0
  6
CENTER
 62
     7
 10
-54.172138
 20
39.732407
 11
-54.172138
 21
25.160217
  0
LINE
  8
0
  6
CENTER
 62
     7
 10
-190.41212
 20
197.2435
 11
-190.41212
 21
177.2435
  0
LINE
  8
0
  6
CONTINUOUS
 62
     3
 10
-74.172142
 20
179.24353
 11
-74.172142
 21
177.2435
  0
LINE
  8
0
  6
CONTINUOUS
 62
     3
 10
-5.6320076
 20
177.2435
 11
15.827862
 21
177.2435
  0
LINE
  8
0
  6
CONTINUOUS
 62
     3
 10
-74.172142
 20
177.2435
 11
-52.712269
 21
177.2435
  0
LINE
  8
0
  6
CONTINUOUS
 62
     3
 10
-52.712269
 20
197.2435
 11
-74.172142
 21
197.2435
  0
LINE
  8
0
  6
CONTINUOUS
 62
     3
 10
-74.172142
 20
197.2435
 11
-74.172142
 21
195.24353
  0
LINE
  8
0
  6
CENTER
 62
     7
 10
140.97984
 20
83.33551
 11
140.97984
 21
56.389755
  0
LINE
  8
0
  6
CENTER
 62
     7
 10
110.97984
 20
69.896515
 11
110.97984
 21
58.184143
  0
LINE
  8
0
  6
CONTINUOUS
 62
     3
 10
108.47984
 20
65.7435
 11
108.47984
 21
64.2435
  0
LINE
  8
0
  6
CONTINUOUS
 62
     3
 10
113.47984
 20
65.7435
 11
113.47984
 21
64.2435
  0
LINE
  8
0
  6
CONTINUOUS
 62
     3
 10
124.01188
 20
78.7435
 11
98.611855
 21
78.7435
  0
LINE
  8
0
  6
CONTINUOUS
 62
     3
 10
102.33585
 20
65.74353
 11
127.7349
 21
65.74353
  0
LINE
  8
0
  6
CENTER
 62
     7
 10
-292.41177
 20
108.0285
 11
-292.41177
 21
23.37381
  0
LINE
  8
0
  6
CENTER
 62
     7
 10
-279.91995
 20
72.24353
 11
-304.77832
 21
72.24353
  0
LINE
  8
0
  6
CONTINUOUS
 62
     3
 10
-6.1610703
 20
64.2435
 11
151.9799
 21
64.2435
  0
LINE
  8
0
  6
CENTER
 62
     7
 10
157.9799
 20
187.2435
 11
-212.41212
 21
187.2435
  0
LINE
  8
0
  6
CENTER
 62
     7
 10
-64.172142
 20
39.732407
 11
-64.172142
 21
25.160217
  0
LINE
  8
0
  6
CONTINUOUS
 62
     3
 10
-202.41225
 20
79.24353
 11
-202.41225
 21
65.24353
  0
LINE
  8
0
  6
CONTINUOUS
 62
     3
 10
-201.41212
 20
64.2435
 11
-52.183201
 21
64.2435
  0
LINE
  8
0
  6
CONTINUOUS
 62
     3
 10
151.9799
 20
80.24353
 11
-8.5796661
 21
80.24353
  0
LINE
  8
0
  6
CONTINUOUS
 62
     3
 10
152.97984
 20
180.24353
 11
152.97984
 21
194.24353
  0
LINE
  8
0
  6
CONTINUOUS
 62
     3
 10
-202.41225
 20
194.24353
 11
-202.41225
 21
180.24353
  0
LINE
  8
0
  6
CONTINUOUS
 62
     3
 10
-49.764603
 20
80.24353
 11
-201.41212
 21
80.24353
  0
LINE
  8
0
  6
CONTINUOUS
 62
     3
 10
150.97984
 20
195.24353
 11
150.97984
 21
179.24353
  0
LINE
  8
0
  6
CENTER
 62
     7
 10
140.97984
 20
197.2435
 11
140.97984
 21
177.2435
  0
LINE
  8
0
  6
CONTINUOUS
 62
     3
 10
150.97984
 20
80.24353
 11
150.97984
 21
64.2435
  0
LINE
  8
0
  6
CENTER
 62
     7
 10
-29.172138
 20
106.92953
 11
-29.172138
 21
32.243423
  0
LINE
  8
0
  6
CENTER
 62
     7
 10
-215.41212
 20
59.743439
 11
-215.41212
 21
46.743408
  0
LINE
  8
0
  6
CENTER
 62
     7
 10
-220.4341
 20
51.743408
 11
-210.23122
 21
51.743408
  0
LINE
  8
0
  6
CENTER
 62
     7
 10
-220.4341
 20
54.743439
 11
-210.23122
 21
54.743439
  0
LINE
  8
0
  6
CONTINUOUS
 62
     3
 10
-212.66212
 20
54.743439
 11
-212.66212
 21
51.743408
  0
LINE
  8
0
  6
CENTER
 62
     7
 10
-210.4341
 20
54.743439
 11
-200.23122
 21
54.743439
  0
LINE
  8
0
  6
CONTINUOUS
 62
     3
 10
-218.16212
 20
54.743439
 11
-218.16212
 21
51.743408
  0
LINE
  8
0
  6
CONTINUOUS
 62
     3
 10
-208.16212
 20
54.743439
 11
-208.16212
 21
51.743408
  0
LINE
  8
0
  6
CENTER
 62
     7
 10
-205.41212
 20
59.743439
 11
-205.41212
 21
46.743408
  0
LINE
  8
0
  6
CENTER
 62
     7
 10
-210.4341
 20
51.743408
 11
-200.23122
 21
51.743408
  0
LINE
  8
0
  6
CENTER
 62
     7
 10
-165.41212
 20
59.743439
 11
-165.41212
 21
46.743408
  0
LINE
  8
0
  6
CENTER
 62
     7
 10
-160.39015
 20
51.743408
 11
-170.59206
 21
51.743408
  0
LINE
  8
0
  6
CENTER
 62
     7
 10
-160.39015
 20
54.743439
 11
-170.59206
 21
54.743439
  0
LINE
  8
0
  6
CONTINUOUS
 62
     3
 10
-202.66212
 20
54.743439
 11
-202.66212
 21
51.743408
  0
LINE
  8
0
  6
CENTER
 62
     7
 10
-170.39015
 20
54.743439
 11
-180.59206
 21
54.743439
  0
LINE
  8
0
  6
CONTINUOUS
 62
     3
 10
-168.16212
 20
54.743439
 11
-168.16212
 21
51.743408
  0
LINE
  8
0
  6
CONTINUOUS
 62
     3
 10
-162.66212
 20
54.743439
 11
-162.66212
 21
51.743408
  0
LINE
  8
0
  6
CONTINUOUS
 62
     3
 10
-178.16212
 20
54.743439
 11
-178.16212
 21
51.743408
  0
LINE
  8
0
  6
CONTINUOUS
 62
     3
 10
-172.66212
 20
54.743439
 11
-172.66212
 21
51.743408
  0
LINE
  8
0
  6
CENTER
 62
     7
 10
-170.39015
 20
51.743408
 11
-180.59206
 21
51.743408
  0
LINE
  8
0
  6
CENTER
 62
     7
 10
-175.41212
 20
59.743439
 11
-175.41212
 21
46.743408
  0
LINE
  8
0
  6
CONTINUOUS
 62
     3
 10
-159.41212
 20
59.743439
 11
-221.41212
 21
59.743439
  0
LINE
  8
0
  6
CENTER
 62
     7
 10
-190.41212
 20
86.015533
 11
-190.41212
 21
41.457916
  0
LINE
  8
0
  6
CONTINUOUS
 62
     3
 10
-17.172077
 20
43.743423
 11
-41.172138
 21
43.743423
  0
LINE
  8
0
  6
CONTINUOUS
 62
     3
 10
-41.172138
 20
43.743423
 11
-41.172138
 21
34.743408
  0
LINE
  8
0
  6
CONTINUOUS
 62
     3
 10
-44.172138
 20
43.743408
 11
-44.172138
 21
34.743423
  0
LINE
  8
0
  6
CONTINUOUS
 62
     3
 10
-41.172138
 20
46.743408
 11
-17.172138
 21
46.743408
  0
LINE
  8
0
  6
CONTINUOUS
 62
     3
 10
-17.172077
 20
34.743408
 11
-17.172077
 21
43.743423
  0
LINE
  8
0
  6
CONTINUOUS
 62
     3
 10
-14.172138
 20
43.743408
 11
-14.172138
 21
34.743423
  0
LINE
  8
0
  6
CONTINUOUS
 62
     3
 10
-302.41177
 20
34.743423
 11
-282.41214
 21
34.743423
  0
LINE
  8
0
  6
CONTINUOUS
 62
     3
 10
152.97984
 20
65.24353
 11
152.97984
 21
79.24353
  0
LINE
  8
0
  6
CENTER
 62
     7
 10
-29.172138
 20
207.2435
 11
-29.172138
 21
167.2435
  0
LINE
  8
0
  6
CONTINUOUS
 62
     3
 10
-200.41212
 20
195.24353
 11
-200.41212
 21
179.24353
  0
LINE
  8
0
  6
PHANTOM
 62
     7
 10
-302.41177
 20
31.743408
 11
-312.41177
 21
31.743408
  0
LINE
  8
0
  6
CONTINUOUS
 62
     7
 10
-365
 20
262.5
 11
-275
 21
262.5
  0
LINE
  8
0
  6
CONTINUOUS
 62
     3
 10
-37.172138
 20
41.243027
 11
-21.172138
 21
41.243027
  0
LINE
  8
0
  6
CONTINUOUS
 62
     3
 10
-51.672134
 20
54.2435
 11
-6.6721382
 21
54.2435
  0
LINE
  8
0
  6
CONTINUOUS
 62
     3
 10
-183.91208
 20
82.2435
 11
-196.91212
 21
82.2435
  0
LINE
  8
0
  6
CONTINUOUS
 62
     3
 10
-284.4119
 20
62.743561
 11
-319.41177
 21
62.743561
  0
LINE
  8
0
  6
CONTINUOUS
 62
     3
 10
-284.4118
 20
59.743488
 11
-284.4118
 21
62.743519
  0
LINE
  8
0
  6
CONTINUOUS
 62
     3
 10
-319.41165
 20
59.74353
 11
-284.4119
 21
59.74353
  0
LINE
  8
0
  6
CONTINUOUS
 62
     7
 10
-41.672138
 20
54.2435
 11
-41.672138
 21
46.743484
  0
LINE
  8
0
  6
CONTINUOUS
 62
     7
 10
-16.672138
 20
54.2435
 11
-16.672138
 21
46.743484
  0
LINE
  8
0
  6
CONTINUOUS
 62
     7
 10
-279.91177
 20
54.243523
 11
-279.91177
 21
46.743523
  0
LINE
  8
0
  6
CONTINUOUS
 62
     7
 10
-304.91177
 20
54.243523
 11
-304.91177
 21
46.743523
  0
LINE
  8
0
  6
CONTINUOUS
 62
     3
 10
-35.172138
 20
178.2435
 11
-35.172138
 21
196.2435
  0
LINE
  8
0
  6
CONTINUOUS
 62
     3
 10
-34.172138
 20
197.2435
 11
-24.172138
 21
197.2435
  0
LINE
  8
0
  6
CONTINUOUS
 62
     3
 10
-23.172138
 20
196.2435
 11
-23.172138
 21
178.2435
  0
LINE
  8
0
  6
CONTINUOUS
 62
     3
 10
-24.172138
 20
177.2435
 11
-34.172138
 21
177.2435
  0
LINE
  8
0
  6
CONTINUOUS
 62
     3
 10
-49.66074
 20
201.2435
 11
-8.6835365
 21
201.2435
  0
LINE
  8
0
  6
CONTINUOUS
 62
     3
 10
-8.6835365
 20
173.2435
 11
-49.66074
 21
173.2435
  0
LINE
  8
0
  6
CONTINUOUS
 62
     3
 10
-51.672138
 20
174.7435
 11
-51.672138
 21
177.2435
  0
LINE
  8
0
  6
CONTINUOUS
 62
     3
 10
-51.672138
 20
197.2435
 11
-51.672138
 21
199.7435
  0
LINE
  8
0
  6
CONTINUOUS
 62
     3
 10
-6.6721382
 20
199.7435
 11
-6.6721382
 21
197.2435
  0
LINE
  8
0
  6
CONTINUOUS
 62
     3
 10
-6.6721382
 20
177.2435
 11
-6.6721382
 21
174.7435
  0
LINE
  8
0
  6
CONTINUOUS
 62
     3
 10
-44.683933
 20
200.2435
 11
-13.660343
 21
200.2435
  0
LINE
  8
0
  6
CONTINUOUS
 62
     3
 10
-44.683933
 20
174.2435
 11
-13.660343
 21
174.2435
  0
LINE
  8
0
  6
CONTINUOUS
 62
     3
 10
-41.731342
 20
96.243492
 11
-16.612934
 21
96.243492
  0
LINE
  8
0
  6
CONTINUOUS
 62
     3
 10
-282.41177
 20
102.74352
 11
-282.41177
 21
97.243515
  0
LINE
  8
0
  6
CONTINUOUS
 62
     3
 10
-41.731342
 20
97.243492
 11
-16.612934
 21
97.243492
  0
LINE
  8
0
  6
CONTINUOUS
 62
     3
 10
-301.41177
 20
103.74352
 11
-283.41177
 21
103.74352
  0
LINE
  8
0
  6
CONTINUOUS
 62
     3
 10
-281.37424
 20
97.243515
 11
-303.44931
 21
97.243515
  0
LINE
  8
0
  6
CONTINUOUS
 62
     3
 10
-306.41177
 20
54.243523
 11
-278.41177
 21
54.243523
  0
LINE
  8
0
  6
CONTINUOUS
 62
     3
 10
-284.41177
 20
65.74353
 11
-284.41177
 21
78.74353
  0
LINE
  8
0
  6
CONTINUOUS
 62
     3
 10
-285.91177
 20
80.24353
 11
-298.91183
 21
80.24353
  0
LINE
  8
0
  6
CONTINUOUS
 62
     3
 10
-300.41183
 20
78.74353
 11
-300.41183
 21
65.74353
  0
LINE
  8
0
  6
CONTINUOUS
 62
     3
 10
-298.91183
 20
64.24353
 11
-285.91177
 21
64.24353
  0
LINE
  8
0
  6
CONTINUOUS
 62
     3
 10
-302.41177
 20
102.74352
 11
-302.41177
 21
97.243515
  0
LINE
  8
0
  6
CONTINUOUS
 62
     3
 10
-21.672138
 20
102.74349
 11
-21.672138
 21
97.243492
  0
LINE
  8
0
  6
CONTINUOUS
 62
     3
 10
-36.672138
 20
97.243492
 11
-36.672138
 21
102.74349
  0
LINE
  8
0
  6
CONTINUOUS
 62
     7
 10
-183.91212
 20
82.243538
 11
-183.91212
 21
80.24353
  0
LINE
  8
0
  6
CONTINUOUS
 62
     3
 10
-183.91212
 20
81.74353
 11
-196.91212
 21
81.74353
  0
LINE
  8
0
  6
CONTINUOUS
 62
     3
 10
-184.91211
 20
83.24353
 11
-195.91209
 21
83.24353
  0
LINE
  8
0
  6
CONTINUOUS
 62
     3
 10
-183.91212
 20
82.243553
 11
-184.91211
 21
83.24353
  0
LINE
  8
0
  6
CONTINUOUS
 62
     3
 10
-195.91209
 20
83.243538
 11
-196.91212
 21
82.2435
  0
LINE
  8
0
  6
CONTINUOUS
 62
     7
 10
-196.91212
 20
82.2435
 11
-196.91212
 21
80.24353
  0
LINE
  8
0
  6
CONTINUOUS
 62
     7
 10
-6.6721716
 20
54.2435
 11
-12.65786
 21
93.841347
  0
LINE
  8
0
  6
CONTINUOUS
 62
     7
 10
-51.672092
 20
54.2435
 11
-45.686401
 21
93.841354
  0
LINE
  8
0
  6
CONTINUOUS
 62
     7
 10
-7.6835322
 20
54.2435
 11
-13.646627
 21
93.691887
  0
LINE
  8
0
  6
CONTINUOUS
 62
     7
 10
-50.660732
 20
54.2435
 11
-44.697636
 21
93.691887
  0
LINE
  8
0
  6
CONTINUOUS
 62
     7
 10
-13.172138
 20
197.2435
 11
-13.172138
 21
177.2435
  0
LINE
  8
0
  6
CONTINUOUS
 62
     7
 10
-45.172138
 20
197.2435
 11
-45.172138
 21
177.2435
  0
LINE
  8
0
  6
CONTINUOUS
 62
     3
 10
-44.716587
 20
176.2435
 11
-13.627689
 21
176.2435
  0
LINE
  8
0
  6
CONTINUOUS
 62
     3
 10
-44.716587
 20
198.2435
 11
-13.627689
 21
198.2435
  0
LINE
  8
0
  6
CONTINUOUS
 62
     7
 10
-6.672132
 20
174.7435
 11
-12.728252
 21
176.14107
  0
LINE
  8
0
  6
CONTINUOUS
 62
     7
 10
-6.6721363
 20
199.7435
 11
-12.72825
 21
198.34593
  0
LINE
  8
0
  6
CONTINUOUS
 62
     7
 10
-45.616016
 20
198.34593
 11
-51.672138
 21
199.7435
  0
LINE
  8
0
  6
CONTINUOUS
 62
     7
 10
-45.616013
 20
176.14105
 11
-51.672134
 21
174.74348
  0
LINE
  8
0
  6
CONTINUOUS
 62
     7
 10
-7.6835365
 20
174.7435
 11
-7.6835365
 21
174.2435
  0
LINE
  8
0
  6
CONTINUOUS
 62
     7
 10
-50.66074
 20
174.7435
 11
-50.66074
 21
174.2435
  0
LINE
  8
0
  6
CONTINUOUS
 62
     7
 10
-7.6835365
 20
200.2435
 11
-7.6835365
 21
199.7435
  0
LINE
  8
0
  6
CONTINUOUS
 62
     7
 10
-50.66074
 20
200.2435
 11
-50.66074
 21
199.7435
  0
LINE
  8
0
  6
CONTINUOUS
 62
     7
 10
-9.4964504
 20
173.56064
 11
-13.143384
 21
174.19862
  0
LINE
  8
0
  6
CONTINUOUS
 62
     7
 10
-45.200882
 20
174.19862
 11
-48.845142
 21
173.56111
  0
LINE
  8
0
  6
CONTINUOUS
 62
     7
 10
-9.3475704
 20
200.95239
 11
-13.143373
 21
200.28836
  0
LINE
  8
0
  6
CONTINUOUS
 62
     7
 10
-45.200882
 20
200.28838
 11
-48.745098
 21
200.90839
  0
LINE
  8
0
  6
CONTINUOUS
 62
     7
 10
-6.6721382
 20
199.7435
 11
-7.6835365
 21
199.7435
  0
LINE
  8
0
  6
CONTINUOUS
 62
     7
 10
-50.66074
 20
199.7435
 11
-51.672138
 21
199.7435
  0
LINE
  8
0
  6
CONTINUOUS
 62
     7
 10
-6.6721382
 20
174.7435
 11
-7.6835365
 21
174.7435
  0
LINE
  8
0
  6
CONTINUOUS
 62
     7
 10
-50.66074
 20
174.7435
 11
-51.672138
 21
174.7435
  0
LINE
  8
0
  6
CONTINUOUS
 62
     7
 10
-7.6835356
 20
174.74348
 11
-12.777344
 21
176.13559
  0
LINE
  8
0
  6
CONTINUOUS
 62
     7
 10
-50.660748
 20
174.7435
 11
-45.566925
 21
176.1356
  0
LINE
  8
0
  6
CONTINUOUS
 62
     7
 10
-7.6835351
 20
199.7435
 11
-12.777343
 21
198.35139
  0
LINE
  8
0
  6
CONTINUOUS
 62
     7
 10
-50.660744
 20
199.7435
 11
-45.566936
 21
198.35139
  0
LINE
  8
0
  6
CONTINUOUS
 62
     3
 10
-5.6320076
 20
60.7435
 11
-7.6547279
 21
60.7435
  0
LINE
  8
0
  6
CONTINUOUS
 62
     3
 10
-9.2598915
 20
84.7435
 11
-11.282612
 21
84.7435
  0
LINE
  8
0
  6
CONTINUOUS
 62
     7
 10
-5.6320038
 20
60.7435
 11
-9.2598915
 21
84.7435
  0
LINE
  8
0
  6
CONTINUOUS
 62
     7
 10
-52.712265
 20
60.743504
 11
-49.084377
 21
84.743507
  0
LINE
  8
0
  6
CONTINUOUS
 62
     3
 10
-52.712269
 20
60.7435
 11
-50.689548
 21
60.7435
  0
LINE
  8
0
  6
CONTINUOUS
 62
     3
 10
-49.084385
 20
84.7435
 11
-47.061665
 21
84.7435
  0
LINE
  8
0
  6
CONTINUOUS
 62
     7
 10
-11.282612
 20
197.2435
 11
-11.282612
 21
177.2435
  0
LINE
  8
0
  6
CONTINUOUS
 62
     7
 10
-9.2598915
 20
197.2435
 11
-9.2598915
 21
177.2435
  0
LINE
  8
0
  6
CONTINUOUS
 62
     7
 10
-5.6320076
 20
197.2435
 11
-5.6320076
 21
195.2435
  0
LINE
  8
0
  6
CONTINUOUS
 62
     7
 10
-11.282612
 20
197.2435
 11
-5.6320076
 21
197.2435
  0
LINE
  8
0
  6
CONTINUOUS
 62
     7
 10
-11.282612
 20
177.2435
 11
-5.6320076
 21
177.2435
  0
LINE
  8
0
  6
CONTINUOUS
 62
     7
 10
-8.57967
 20
195.2435
 11
-8.57967
 21
179.2435
  0
LINE
  8
0
  6
CONTINUOUS
 62
     7
 10
-5.6320076
 20
179.2435
 11
-5.6320076
 21
177.2435
  0
LINE
  8
0
  6
CONTINUOUS
 62
     7
 10
-52.712269
 20
179.2435
 11
-52.712269
 21
177.2435
  0
LINE
  8
0
  6
CONTINUOUS
 62
     7
 10
-49.084385
 20
197.2435
 11
-49.084385
 21
177.2435
  0
LINE
  8
0
  6
CONTINUOUS
 62
     7
 10
-49.764606
 20
195.2435
 11
-49.764606
 21
179.2435
  0
LINE
  8
0
  6
CONTINUOUS
 62
     7
 10
-52.712269
 20
197.2435
 11
-52.712269
 21
195.2435
  0
LINE
  8
0
  6
CONTINUOUS
 62
     7
 10
-47.061665
 20
197.2435
 11
-52.712269
 21
197.2435
  0
LINE
  8
0
  6
CONTINUOUS
 62
     7
 10
-47.061665
 20
177.2435
 11
-52.712269
 21
177.2435
  0
LINE
  8
0
  6
CONTINUOUS
 62
     7
 10
-47.061665
 20
197.2435
 11
-47.061665
 21
177.2435
  0
LINE
  8
0
  6
CONTINUOUS
 62
     7
 10
-278.41177
 20
54.243519
 11
-279.3295
 21
95.265884
  0
LINE
  8
0
  6
CONTINUOUS
 62
     7
 10
-280.41226
 20
54.243523
 11
-281.37424
 21
97.243507
  0
LINE
  8
0
  6
CONTINUOUS
 62
     7
 10
-304.41125
 20
54.243523
 11
-304.28824
 21
59.74353
  0
LINE
  8
0
  6
CONTINUOUS
 62
     7
 10
-306.41177
 20
54.243523
 11
-306.28873
 21
59.74353
  0
LINE
  8
0
  6
CONTINUOUS
 62
     7
 10
-306.22162
 20
62.743561
 11
-305.49405
 21
95.265884
  0
LINE
  8
0
  6
CONTINUOUS
 62
     7
 10
-304.2211
 20
62.743561
 11
-303.44931
 21
97.243523
  0
LINE
  8
0
  6
CONTINUOUS
 62
     7
 10
-302.41177
 20
84.743523
 11
-282.41177
 21
84.743523
  0
LINE
  8
0
  6
CONTINUOUS
 62
     7
 10
-284.41177
 20
60.743523
 11
-282.41177
 21
60.743523
  0
LINE
  8
0
  6
CONTINUOUS
 62
     7
 10
-282.41177
 20
84.743523
 11
-282.41177
 21
60.743523
  0
LINE
  8
0
  6
CONTINUOUS
 62
     7
 10
-302.41177
 20
84.743523
 11
-302.41177
 21
62.743561
  0
LINE
  8
0
  6
CONTINUOUS
 62
     7
 10
-281.35187
 20
96.243515
 11
-280.32925
 21
96.243515
  0
LINE
  8
0
  6
CONTINUOUS
 62
     7
 10
-304.49429
 20
96.243515
 11
-303.47168
 21
96.243515
  0
LINE
  8
0
  6
CONTINUOUS
 62
     7
 10
-196.91212
 20
64.2435
 11
-196.91212
 21
62.74353
  0
LINE
  8
0
  6
CONTINUOUS
 62
     7
 10
-183.91212
 20
64.2435
 11
-183.91212
 21
62.74353
  0
LINE
  8
0
  6
CONTINUOUS
 62
     7
 10
-21.172138
 20
43.742996
 11
-21.172138
 21
41.243027
  0
LINE
  8
0
  6
CONTINUOUS
 62
     7
 10
-37.172138
 20
43.742996
 11
-37.172138
 21
41.243027
  0
LINE
  8
0
  6
CONTINUOUS
 62
     7
 10
-34.172138
 20
41.243027
 11
-34.172138
 21
40.743027
  0
LINE
  8
0
  6
CONTINUOUS
 62
     7
 10
-24.172138
 20
41.243027
 11
-24.172138
 21
40.743027
  0
LINE
  8
0
  6
CONTINUOUS
 62
     3
 10
-285.91174
 20
82.24353
 11
-298.91177
 21
82.24353
  0
LINE
  8
0
  6
CONTINUOUS
 62
     7
 10
-285.91177
 20
82.243568
 11
-285.91177
 21
80.243561
  0
LINE
  8
0
  6
CONTINUOUS
 62
     3
 10
-285.91177
 20
81.743561
 11
-298.91177
 21
81.743561
  0
LINE
  8
0
  6
CONTINUOUS
 62
     3
 10
-286.91174
 20
83.243561
 11
-297.91174
 21
83.243561
  0
LINE
  8
0
  6
CONTINUOUS
 62
     3
 10
-285.91177
 20
82.243568
 11
-286.91174
 21
83.243546
  0
LINE
  8
0
  6
CONTINUOUS
 62
     3
 10
-297.91174
 20
83.243553
 11
-298.91177
 21
82.243523
  0
LINE
  8
0
  6
CONTINUOUS
 62
     7
 10
-298.91177
 20
82.24353
 11
-298.91177
 21
80.243561
  0
LINE
  8
0
  6
CONTINUOUS
 62
     7
 10
-298.91177
 20
64.24353
 11
-298.91177
 21
62.743561
  0
LINE
  8
0
  6
CONTINUOUS
 62
     7
 10
-285.91177
 20
64.24353
 11
-285.91177
 21
62.743561
  0
LINE
  8
0
  6
CONTINUOUS
 62
     3
 10
134.87984
 20
62.7435
 11
147.07985
 21
62.7435
  0
LINE
  8
0
  6
CONTINUOUS
 62
     7
 10
147.07985
 20
64.2435
 11
147.07985
 21
62.7435
  0
LINE
  8
0
  6
CONTINUOUS
 62
     7
 10
134.87984
 20
64.2435
 11
134.87984
 21
62.7435
  0
LINE
  8
0
  6
CONTINUOUS
 62
     7
 10
140.22984
 20
62.743504
 11
141.72984
 21
64.243492
  0
LINE
  8
0
  6
CONTINUOUS
 62
     7
 10
142.07228
 20
59.255714
 11
142.07228
 21
58.786961
  0
LINE
  8
0
  6
CONTINUOUS
 62
     7
 10
139.88741
 20
59.255714
 11
142.07228
 21
59.255714
  0
LINE
  8
0
  6
CONTINUOUS
 62
     7
 10
139.88741
 20
59.255714
 11
139.88741
 21
58.786961
  0
LINE
  8
0
  6
CONTINUOUS
 62
     7
 10
146.22984
 20
62.7435
 11
146.22984
 21
60.468494
  0
LINE
  8
0
  6
CONTINUOUS
 62
     7
 10
135.72984
 20
62.7435
 11
135.72984
 21
60.468494
  0
LINE
  8
0
  6
CONTINUOUS
 62
     7
 10
-160.01988
 20
195.24353
 11
-159.41212
 21
195.59441
  0
LINE
  8
0
  6
CONTINUOUS
 62
     7
 10
-221.41214
 20
195.59442
 11
-202.41225
 21
184.62483
  0
LINE
  8
0
  6
CONTINUOUS
 62
     7
 10
-300.76178
 20
62.743561
 11
-300.76178
 21
59.74353
  0
ARC
  8
0
  6
DASHED
 62
     7
 10
-64.172142
 20
192.2435
 40
2.6000063
 50
0
 51
180
  0
ARC
  8
0
  6
DASHED
 62
     7
 10
-64.172142
 20
182.2435
 40
2.6000063
 50
180
 51
360
  0
ARC
  8
0
  6
DASHED
 62
     7
 10
-54.172138
 20
192.2435
 40
2.6000063
 50
0
 51
180
  0
ARC
  8
0
  6
DASHED
 62
     7
 10
-54.172138
 20
182.2435
 40
2.6000063
 50
180
 51
360
  0
ARC
  8
0
  6
DASHED
 62
     7
 10
-4.1721382
 20
192.2435
 40
2.6000063
 50
0
 51
180
  0
ARC
  8
0
  6
DASHED
 62
     7
 10
-4.1721382
 20
182.2435
 40
2.6000063
 50
180
 51
360
  0
ARC
  8
0
  6
DASHED
 62
     7
 10
5.8278618
 20
192.2435
 40
2.6000063
 50
0
 51
180
  0
ARC
  8
0
  6
DASHED
 62
     7
 10
5.8278618
 20
182.2435
 40
2.6000063
 50
180
 51
360
  0
ARC
  8
0
  6
CONTINUOUS
 62
     3
 10
-175.41212
 20
51.743408
 40
2.7500002
 50
180
 51
360
  0
ARC
  8
0
  6
CONTINUOUS
 62
     3
 10
-175.41212
 20
54.743439
 40
2.7500002
 50
0
 51
180
  0
ARC
  8
0
  6
CONTINUOUS
 62
     3
 10
-165.41212
 20
51.743408
 40
2.7500002
 50
180
 51
360
  0
ARC
  8
0
  6
CONTINUOUS
 62
     3
 10
-165.41212
 20
54.743439
 40
2.7500002
 50
0
 51
180
  0
ARC
  8
0
  6
CONTINUOUS
 62
     3
 10
-205.41212
 20
51.743408
 40
2.7500002
 50
180
 51
360
  0
ARC
  8
0
  6
CONTINUOUS
 62
     3
 10
-205.41212
 20
54.743439
 40
2.7500002
 50
0
 51
180
  0
ARC
  8
0
  6
CONTINUOUS
 62
     3
 10
-215.41212
 20
51.743408
 40
2.7500002
 50
180
 51
360
  0
ARC
  8
0
  6
CONTINUOUS
 62
     3
 10
-215.41212
 20
54.743439
 40
2.7500002
 50
0
 51
180
  0
ARC
  8
0
  6
CONTINUOUS
 62
     3
 10
151.97984
 20
194.2435
 40
1
 50
0
 51
90
  0
ARC
  8
0
  6
CONTINUOUS
 62
     3
 10
151.97984
 20
180.24347
 40
1
 50
270
 51
360
  0
ARC
  8
0
  6
CONTINUOUS
 62
     3
 10
-201.41212
 20
194.2435
 40
1
 50
90
 51
180
  0
ARC
  8
0
  6
CONTINUOUS
 62
     3
 10
-201.41212
 20
180.24347
 40
1
 50
180
 51
270
  0
ARC
  8
0
  6
CONTINUOUS
 62
     3
 10
-201.41212
 20
79.2435
 40
1
 50
90
 51
180
  0
ARC
  8
0
  6
CONTINUOUS
 62
     3
 10
-201.41212
 20
65.24353
 40
1
 50
180
 51
270
  0
ARC
  8
0
  6
CONTINUOUS
 62
     3
 10
151.97984
 20
79.2435
 40
1
 50
0
 51
90
  0
ARC
  8
0
  6
CONTINUOUS
 62
     3
 10
151.97984
 20
65.24353
 40
1
 50
270
 51
360
  0
ARC
  8
0
  6
CONTINUOUS
 62
     3
 10
-190.41212
 20
65.2435
 40
6.8750505
 50
233.13027
 51
306.86971
  0
CIRCLE
  8
0
  6
CONTINUOUS
 62
     7
 10
-325.6283
 20
250.40697
 40
2
  0
ARC
  8
0
  6
CONTINUOUS
 62
     3
 10
-292.41177
 20
65.079376
 40
6.6358089
 50
233.5228
 51
306.4772
  0
ARC
  8
0
  6
CONTINUOUS
 62
     3
 10
-283.41177
 20
102.74352
 40
1
 50
0
 51
90
  0
ARC
  8
0
  6
CONTINUOUS
 62
     3
 10
-301.41177
 20
102.74352
 40
1
 50
90
 51
180
  0
ARC
  8
0
  6
CONTINUOUS
 62
     3
 10
-298.91183
 20
78.74353
 40
1.5
 50
90
 51
180
  0
ARC
  8
0
  6
CONTINUOUS
 62
     3
 10
-285.91177
 20
78.74353
 40
1.5
 50
0
 51
90
  0
ARC
  8
0
  6
CONTINUOUS
 62
     3
 10
-298.91183
 20
65.74353
 40
1.5
 50
180
 51
270
  0
ARC
  8
0
  6
CONTINUOUS
 62
     3
 10
-285.91177
 20
65.74353
 40
1.5
 50
270
 51
360
  0
ARC
  8
0
  6
CONTINUOUS
 62
     3
 10
-24.172138
 20
178.2435
 40
1
 50
270
 51
360
  0
ARC
  8
0
  6
CONTINUOUS
 62
     3
 10
-24.172138
 20
196.2435
 40
1
 50
0
 51
90
  0
ARC
  8
0
  6
CONTINUOUS
 62
     3
 10
-34.172138
 20
196.2435
 40
1
 50
90
 51
180
  0
ARC
  8
0
  6
CONTINUOUS
 62
     3
 10
-34.172138
 20
178.2435
 40
1
 50
180
 51
270
  0
ARC
  8
0
  6
CONTINUOUS
 62
     3
 10
-22.672138
 20
102.74349
 40
1
 50
0
 51
115.98913
  0
ARC
  8
0
  6
CONTINUOUS
 62
     3
 10
-35.672138
 20
102.74349
 40
1
 50
64.010874
 51
180
  0
ARC
  8
0
  6
CONTINUOUS
 62
     7
 10
-29.172138
 20
116.07682
 40
13.833333
 50
244.01076
 51
295.98924
  0
CIRCLE
  8
0
  6
CONTINUOUS
 62
     7
 10
-190.41212
 20
187.2435
 40
6.5
  0
CIRCLE
  8
0
  6
CONTINUOUS
 62
     7
 10
-190.41212
 20
187.2435
 40
5.5000119
  0
ARC
  8
0
  6
CONTINUOUS
 62
     7
 10
-16.612934
 20
93.243492
 40
4
 50
8.5958464
 51
90
  0
ARC
  8
0
  6
CONTINUOUS
 62
     7
 10
-41.731342
 20
93.243492
 40
4
 50
90
 51
171.40416
  0
ARC
  8
0
  6
CONTINUOUS
 62
     7
 10
-16.612934
 20
93.243492
 40
3
 50
8.5959171
 51
90
  0
ARC
  8
0
  6
CONTINUOUS
 62
     7
 10
-41.731342
 20
93.243492
 40
3
 50
90
 51
171.40408
  0
ARC
  8
0
  6
CONTINUOUS
 62
     7
 10
-13.627689
 20
172.2435
 40
4
 50
77.005394
 51
90
  0
ARC
  8
0
  6
CONTINUOUS
 62
     7
 10
-13.627689
 20
202.2435
 40
4
 50
270
 51
282.99461
  0
ARC
  8
0
  6
CONTINUOUS
 62
     7
 10
-44.716587
 20
202.2435
 40
4
 50
257.00541
 51
270
  0
ARC
  8
0
  6
CONTINUOUS
 62
     7
 10
-44.716587
 20
172.2435
 40
4
 50
90
 51
102.99459
  0
ARC
  8
0
  6
CONTINUOUS
 62
     7
 10
-49.66074
 20
200.2435
 40
1
 50
90
 51
180
  0
ARC
  8
0
  6
CONTINUOUS
 62
     7
 10
-8.6835365
 20
200.2435
 40
1
 50
0
 51
90
  0
ARC
  8
0
  6
CONTINUOUS
 62
     7
 10
-8.6835365
 20
174.2435
 40
1
 50
270
 51
360
  0
ARC
  8
0
  6
CONTINUOUS
 62
     7
 10
-49.66074
 20
174.2435
 40
1
 50
180
 51
270
  0
ARC
  8
0
  6
CONTINUOUS
 62
     7
 10
-13.660343
 20
171.2435
 40
3
 50
80.077318
 51
90
  0
ARC
  8
0
  6
CONTINUOUS
 62
     7
 10
-44.683933
 20
171.2435
 40
3
 50
90
 51
99.922664
  0
ARC
  8
0
  6
CONTINUOUS
 62
     7
 10
-44.683933
 20
203.2435
 40
3
 50
260.07734
 51
270
  0
ARC
  8
0
  6
CONTINUOUS
 62
     7
 10
-13.660343
 20
203.2435
 40
3
 50
270
 51
279.92268
  0
ARC
  8
0
  6
CONTINUOUS
 62
     7
 10
-13.568211
 20
173.24173
 40
3
 50
74.714688
 51
86.590671
  0
ARC
  8
0
  6
CONTINUOUS
 62
     7
 10
-44.776051
 20
173.24173
 40
3
 50
93.409384
 51
105.28533
  0
ARC
  8
0
  6
CONTINUOUS
 62
     7
 10
-44.776051
 20
201.24527
 40
3
 50
254.71467
 51
266.59062
  0
ARC
  8
0
  6
CONTINUOUS
 62
     7
 10
-13.568211
 20
201.24527
 40
3
 50
273.40933
 51
285.28531
  0
ARC
  8
0
  6
CONTINUOUS
 62
     7
 10
-280.32925
 20
95.243515
 40
1
 50
1.2817705
 51
90
  0
ARC
  8
0
  6
CONTINUOUS
 62
     7
 10
-304.49429
 20
95.243515
 40
1
 50
90
 51
178.71867
  0
ARC
  8
0
  6
CONTINUOUS
 62
     7
 10
-29.172138
 20
65.516792
 40
25.273294
 50
258.58948
 51
281.41052
  0
ARC
  8
0
  6
CONTINUOUS
 62
     7
 10
140.97984
 20
67.468491
 40
8.75
 50
277.17209
 51
306.8699
  0
ARC
  8
0
  6
CONTINUOUS
 62
     7
 10
140.97984
 20
67.468491
 40
8.75
 50
233.1301
 51
262.82791
  0
ARC
  8
0
  6
CONTINUOUS
 62
     3
 10
-41.172138
 20
43.743408
 40
3
 50
90
 51
180
  0
ARC
  8
0
  6
CONTINUOUS
 62
     3
 10
-44.172138
 20
34.743408
 40
3
 50
270
 51
360
  0
ARC
  8
0
  6
CONTINUOUS
 62
     3
 10
-17.172138
 20
43.743408
 40
3
 50
0
 51
90
  0
ARC
  8
0
  6
CONTINUOUS
 62
     3
 10
-14.172077
 20
34.743408
 40
3
 50
180
 51
270
  0
ARC
  8
0
  6
CONTINUOUS
 62
     3
 10
-319.41177
 20
59.743561
 40
3
 50
90
 51
180
  0
POLYLINE
  8
0
  6
PHANTOM
 62
     7
 66
     1
 10
0
 20
0
  0
VERTEX
  8
0
  6
PHANTOM
 62
     7
 10
-278.41226
 20
-3.7565923
  0
VERTEX
  8
0
  6
PHANTOM
 62
     7
 10
-306.41177
 20
-6.2454991
  0
VERTEX
  8
0
  6
PHANTOM
 62
     7
 10
-306.41177
 20
29.743423
  0
VERTEX
  8
0
  6
PHANTOM
 62
     7
 10
-278.41226
 20
29.743423
  0
VERTEX
  8
0
  6
PHANTOM
 62
     7
 10
-278.41226
 20
-3.7565923
  0
VERTEX
  8
0
  6
PHANTOM
 62
     7
 10
-278.58121
 20
-3.7709813
  0
SEQEND
  8
0
  6
PHANTOM
 62
     7
  0
POLYLINE
  8
0
  6
CONTINUOUS
 62
     3
 66
     1
 10
0
 20
0
  0
VERTEX
  8
0
  6
CONTINUOUS
 62
     3
 10
101.11485
 20
84.792511
  0
VERTEX
  8
0
  6
CONTINUOUS
 62
     3
 10
100.87486
 20
84.319519
  0
VERTEX
  8
0
  6
CONTINUOUS
 62
     3
 10
100.63584
 20
83.846497
  0
VERTEX
  8
0
  6
CONTINUOUS
 62
     3
 10
100.40086
 20
83.374512
  0
VERTEX
  8
0
  6
CONTINUOUS
 62
     3
 10
100.17081
 20
82.906525
  0
VERTEX
  8
0
  6
CONTINUOUS
 62
     3
 10
99.94883
 20
82.440521
  0
VERTEX
  8
0
  6
CONTINUOUS
 62
     3
 10
99.735817
 20
81.979523
  0
VERTEX
  8
0
  6
CONTINUOUS
 62
     3
 10
99.533852
 20
81.523499
  0
VERTEX
  8
0
  6
CONTINUOUS
 62
     3
 10
99.343849
 20
81.073517
  0
VERTEX
  8
0
  6
CONTINUOUS
 62
     3
 10
99.168861
 20
80.629517
  0
VERTEX
  8
0
  6
CONTINUOUS
 62
     3
 10
99.010841
 20
80.193512
  0
VERTEX
  8
0
  6
CONTINUOUS
 62
     3
 10
98.86985
 20
79.765503
  0
VERTEX
  8
0
  6
CONTINUOUS
 62
     3
 10
98.749855
 20
79.347534
  0
VERTEX
  8
0
  6
CONTINUOUS
 62
     3
 10
98.651833
 20
78.939514
  0
VERTEX
  8
0
  6
CONTINUOUS
 62
     3
 10
98.576881
 20
78.541534
  0
VERTEX
  8
0
  6
CONTINUOUS
 62
     3
 10
98.52787
 20
78.155518
  0
VERTEX
  8
0
  6
CONTINUOUS
 62
     3
 10
98.506813
 20
77.782501
  0
VERTEX
  8
0
  6
CONTINUOUS
 62
     3
 10
98.512856
 20
77.422516
  0
VERTEX
  8
0
  6
CONTINUOUS
 62
     3
 10
98.546852
 20
77.074493
  0
VERTEX
  8
0
  6
CONTINUOUS
 62
     3
 10
98.605873
 20
76.736511
  0
VERTEX
  8
0
  6
CONTINUOUS
 62
     3
 10
98.687843
 20
76.407501
  0
VERTEX
  8
0
  6
CONTINUOUS
 62
     3
 10
98.790871
 20
76.084503
  0
VERTEX
  8
0
  6
CONTINUOUS
 62
     3
 10
98.911842
 20
75.768494
  0
VERTEX
  8
0
  6
CONTINUOUS
 62
     3
 10
99.049843
 20
75.455505
  0
VERTEX
  8
0
  6
CONTINUOUS
 62
     3
 10
99.201881
 20
75.145538
  0
VERTEX
  8
0
  6
CONTINUOUS
 62
     3
 10
99.366859
 20
74.836517
  0
VERTEX
  8
0
  6
CONTINUOUS
 62
     3
 10
99.541847
 20
74.52652
  0
VERTEX
  8
0
  6
CONTINUOUS
 62
     3
 10
99.724831
 20
74.214508
  0
VERTEX
  8
0
  6
CONTINUOUS
 62
     3
 10
99.913857
 20
73.898499
  0
VERTEX
  8
0
  6
CONTINUOUS
 62
     3
 10
100.10783
 20
73.577515
  0
VERTEX
  8
0
  6
CONTINUOUS
 62
     3
 10
100.30283
 20
73.249512
  0
VERTEX
  8
0
  6
CONTINUOUS
 62
     3
 10
100.49784
 20
72.912506
  0
VERTEX
  8
0
  6
CONTINUOUS
 62
     3
 10
100.69083
 20
72.565491
  0
VERTEX
  8
0
  6
CONTINUOUS
 62
     3
 10
100.87986
 20
72.208527
  0
VERTEX
  8
0
  6
CONTINUOUS
 62
     3
 10
101.06284
 20
71.839508
  0
VERTEX
  8
0
  6
CONTINUOUS
 62
     3
 10
101.23887
 20
71.461517
  0
VERTEX
  8
0
  6
CONTINUOUS
 62
     3
 10
101.40781
 20
71.0755
  0
VERTEX
  8
0
  6
CONTINUOUS
 62
     3
 10
101.56681
 20
70.682526
  0
VERTEX
  8
0
  6
CONTINUOUS
 62
     3
 10
101.71684
 20
70.283508
  0
VERTEX
  8
0
  6
CONTINUOUS
 62
     3
 10
101.85386
 20
69.879517
  0
VERTEX
  8
0
  6
CONTINUOUS
 62
     3
 10
101.9799
 20
69.471527
  0
VERTEX
  8
0
  6
CONTINUOUS
 62
     3
 10
102.09086
 20
69.061523
  0
VERTEX
  8
0
  6
CONTINUOUS
 62
     3
 10
102.18687
 20
68.649536
  0
VERTEX
  8
0
  6
CONTINUOUS
 62
     3
 10
102.26786
 20
68.236511
  0
VERTEX
  8
0
  6
CONTINUOUS
 62
     3
 10
102.33085
 20
67.824524
  0
VERTEX
  8
0
  6
CONTINUOUS
 62
     3
 10
102.37486
 20
67.415497
  0
VERTEX
  8
0
  6
CONTINUOUS
 62
     3
 10
102.39982
 20
67.008545
  0
VERTEX
  8
0
  6
CONTINUOUS
 62
     3
 10
102.40482
 20
66.60553
  0
VERTEX
  8
0
  6
CONTINUOUS
 62
     3
 10
102.38682
 20
66.208527
  0
VERTEX
  8
0
  6
CONTINUOUS
 62
     3
 10
102.34586
 20
65.816528
  0
VERTEX
  8
0
  6
CONTINUOUS
 62
     3
 10
102.28385
 20
65.431549
  0
VERTEX
  8
0
  6
CONTINUOUS
 62
     3
 10
102.20084
 20
65.051514
  0
VERTEX
  8
0
  6
CONTINUOUS
 62
     3
 10
102.09983
 20
64.676544
  0
VERTEX
  8
0
  6
CONTINUOUS
 62
     3
 10
101.98081
 20
64.306519
  0
VERTEX
  8
0
  6
CONTINUOUS
 62
     3
 10
101.84586
 20
63.940521
  0
VERTEX
  8
0
  6
CONTINUOUS
 62
     3
 10
101.69682
 20
63.579529
  0
VERTEX
  8
0
  6
CONTINUOUS
 62
     3
 10
101.53483
 20
63.220551
  0
VERTEX
  8
0
  6
CONTINUOUS
 62
     3
 10
101.36082
 20
62.866547
  0
VERTEX
  8
0
  6
CONTINUOUS
 62
     3
 10
101.17686
 20
62.513916
  0
VERTEX
  8
0
  6
CONTINUOUS
 62
     3
 10
100.98386
 20
62.164124
  0
VERTEX
  8
0
  6
CONTINUOUS
 62
     3
 10
100.78385
 20
61.816315
  0
VERTEX
  8
0
  6
CONTINUOUS
 62
     3
 10
100.57883
 20
61.470032
  0
VERTEX
  8
0
  6
CONTINUOUS
 62
     3
 10
100.36887
 20
61.125031
  0
VERTEX
  8
0
  6
CONTINUOUS
 62
     3
 10
100.15586
 20
60.780823
  0
VERTEX
  8
0
  6
CONTINUOUS
 62
     3
 10
99.940834
 20
60.437042
  0
SEQEND
  8
0
  6
CONTINUOUS
 62
     3
  0
POLYLINE
  8
0
  6
CONTINUOUS
 62
     3
 66
     1
 10
0
 20
0
  0
VERTEX
  8
0
  6
CONTINUOUS
 62
     3
 10
126.51383
 20
84.792511
  0
VERTEX
  8
0
  6
CONTINUOUS
 62
     3
 10
126.27384
 20
84.319519
  0
VERTEX
  8
0
  6
CONTINUOUS
 62
     3
 10
126.03483
 20
83.846497
  0
VERTEX
  8
0
  6
CONTINUOUS
 62
     3
 10
125.79984
 20
83.374512
  0
VERTEX
  8
0
  6
CONTINUOUS
 62
     3
 10
125.56986
 20
82.906525
  0
VERTEX
  8
0
  6
CONTINUOUS
 62
     3
 10
125.34782
 20
82.440521
  0
VERTEX
  8
0
  6
CONTINUOUS
 62
     3
 10
125.13486
 20
81.979523
  0
VERTEX
  8
0
  6
CONTINUOUS
 62
     3
 10
124.93284
 20
81.523499
  0
VERTEX
  8
0
  6
CONTINUOUS
 62
     3
 10
124.74284
 20
81.073517
  0
VERTEX
  8
0
  6
CONTINUOUS
 62
     3
 10
124.56785
 20
80.629517
  0
VERTEX
  8
0
  6
CONTINUOUS
 62
     3
 10
124.40983
 20
80.193512
  0
VERTEX
  8
0
  6
CONTINUOUS
 62
     3
 10
124.26981
 20
79.765503
  0
VERTEX
  8
0
  6
CONTINUOUS
 62
     3
 10
124.14982
 20
79.347534
  0
VERTEX
  8
0
  6
CONTINUOUS
 62
     3
 10
124.05082
 20
78.939514
  0
VERTEX
  8
0
  6
CONTINUOUS
 62
     3
 10
123.97684
 20
78.541534
  0
VERTEX
  8
0
  6
CONTINUOUS
 62
     3
 10
123.92783
 20
78.155518
  0
VERTEX
  8
0
  6
CONTINUOUS
 62
     3
 10
123.90586
 20
77.782501
  0
VERTEX
  8
0
  6
CONTINUOUS
 62
     3
 10
123.91282
 20
77.422516
  0
VERTEX
  8
0
  6
CONTINUOUS
 62
     3
 10
123.94682
 20
77.074493
  0
VERTEX
  8
0
  6
CONTINUOUS
 62
     3
 10
124.00486
 20
76.736511
  0
VERTEX
  8
0
  6
CONTINUOUS
 62
     3
 10
124.08683
 20
76.407501
  0
VERTEX
  8
0
  6
CONTINUOUS
 62
     3
 10
124.18986
 20
76.084503
  0
VERTEX
  8
0
  6
CONTINUOUS
 62
     3
 10
124.31083
 20
75.768494
  0
VERTEX
  8
0
  6
CONTINUOUS
 62
     3
 10
124.44883
 20
75.455505
  0
VERTEX
  8
0
  6
CONTINUOUS
 62
     3
 10
124.60087
 20
75.145538
  0
VERTEX
  8
0
  6
CONTINUOUS
 62
     3
 10
124.76585
 20
74.836517
  0
VERTEX
  8
0
  6
CONTINUOUS
 62
     3
 10
124.94083
 20
74.52652
  0
VERTEX
  8
0
  6
CONTINUOUS
 62
     3
 10
125.12382
 20
74.214508
  0
VERTEX
  8
0
  6
CONTINUOUS
 62
     3
 10
125.31382
 20
73.898499
  0
VERTEX
  8
0
  6
CONTINUOUS
 62
     3
 10
125.50681
 20
73.577515
  0
VERTEX
  8
0
  6
CONTINUOUS
 62
     3
 10
125.70182
 20
73.249512
  0
VERTEX
  8
0
  6
CONTINUOUS
 62
     3
 10
125.89787
 20
72.912506
  0
VERTEX
  8
0
  6
CONTINUOUS
 62
     3
 10
126.08982
 20
72.565491
  0
VERTEX
  8
0
  6
CONTINUOUS
 62
     3
 10
126.27885
 20
72.208527
  0
VERTEX
  8
0
  6
CONTINUOUS
 62
     3
 10
126.46183
 20
71.839508
  0
VERTEX
  8
0
  6
CONTINUOUS
 62
     3
 10
126.63883
 20
71.461517
  0
VERTEX
  8
0
  6
CONTINUOUS
 62
     3
 10
126.80686
 20
71.0755
  0
VERTEX
  8
0
  6
CONTINUOUS
 62
     3
 10
126.96684
 20
70.682526
  0
VERTEX
  8
0
  6
CONTINUOUS
 62
     3
 10
127.11582
 20
70.283508
  0
VERTEX
  8
0
  6
CONTINUOUS
 62
     3
 10
127.25382
 20
69.879517
  0
VERTEX
  8
0
  6
CONTINUOUS
 62
     3
 10
127.37882
 20
69.471527
  0
VERTEX
  8
0
  6
CONTINUOUS
 62
     3
 10
127.48985
 20
69.061523
  0
VERTEX
  8
0
  6
CONTINUOUS
 62
     3
 10
127.58683
 20
68.649536
  0
VERTEX
  8
0
  6
CONTINUOUS
 62
     3
 10
127.66685
 20
68.236511
  0
VERTEX
  8
0
  6
CONTINUOUS
 62
     3
 10
127.72984
 20
67.824524
  0
VERTEX
  8
0
  6
CONTINUOUS
 62
     3
 10
127.77482
 20
67.415497
  0
VERTEX
  8
0
  6
CONTINUOUS
 62
     3
 10
127.79984
 20
67.008545
  0
VERTEX
  8
0
  6
CONTINUOUS
 62
     3
 10
127.80381
 20
66.60553
  0
VERTEX
  8
0
  6
CONTINUOUS
 62
     3
 10
127.78587
 20
66.208527
  0
VERTEX
  8
0
  6
CONTINUOUS
 62
     3
 10
127.74485
 20
65.816528
  0
VERTEX
  8
0
  6
CONTINUOUS
 62
     3
 10
127.68284
 20
65.431549
  0
VERTEX
  8
0
  6
CONTINUOUS
 62
     3
 10
127.59983
 20
65.051514
  0
VERTEX
  8
0
  6
CONTINUOUS
 62
     3
 10
127.49882
 20
64.676544
  0
VERTEX
  8
0
  6
CONTINUOUS
 62
     3
 10
127.37986
 20
64.306519
  0
VERTEX
  8
0
  6
CONTINUOUS
 62
     3
 10
127.24485
 20
63.940521
  0
VERTEX
  8
0
  6
CONTINUOUS
 62
     3
 10
127.09586
 20
63.579529
  0
VERTEX
  8
0
  6
CONTINUOUS
 62
     3
 10
126.93382
 20
63.220551
  0
VERTEX
  8
0
  6
CONTINUOUS
 62
     3
 10
126.75986
 20
62.866547
  0
VERTEX
  8
0
  6
CONTINUOUS
 62
     3
 10
126.57584
 20
62.513916
  0
VERTEX
  8
0
  6
CONTINUOUS
 62
     3
 10
126.38285
 20
62.164124
  0
VERTEX
  8
0
  6
CONTINUOUS
 62
     3
 10
126.18382
 20
61.816315
  0
VERTEX
  8
0
  6
CONTINUOUS
 62
     3
 10
125.97782
 20
61.470032
  0
VERTEX
  8
0
  6
CONTINUOUS
 62
     3
 10
125.76786
 20
61.125031
  0
VERTEX
  8
0
  6
CONTINUOUS
 62
     3
 10
125.55485
 20
60.780823
  0
VERTEX
  8
0
  6
CONTINUOUS
 62
     3
 10
125.33982
 20
60.437042
  0
SEQEND
  8
0
  6
CONTINUOUS
 62
     3
  0
TEXT
  8
0
  6
CONTINUOUS
 62
     7
 10
-379.343
 20
288.9
 40
3.2
 41
0.85537027
  1
品　名
  0
TEXT
  8
0
  6
CONTINUOUS
 62
     7
 10
-379.343
 20
280.9
 40
3.2
 41
0.85537027
  1
品　番
  0
TEXT
  8
0
  6
CONTINUOUS
 62
     7
 10
-379.343
 20
272.9
 40
3.2
 41
0.85537027
  1
材　質
  0
TEXT
  8
0
  6
CONTINUOUS
 62
     7
 10
-379.343
 20
264.9
 40
3.2
 41
0.85537027
  1
仕上げ
  0
TEXT
  8
0
  6
CONTINUOUS
 62
     7
 10
-382.543
 20
248.9
 40
3.2
 41
0.84892707
  1
セットビス
  0
TEXT
  8
0
  6
CONTINUOUS
 62
     7
 10
-377.743
 20
224.9
 40
3.2
 41
0.86439075
  1
備考
  0
TEXT
  8
0
  6
CONTINUOUS
 62
     7
 10
-362.143
 20
288.9
 40
3.2
 41
0.84634979
  1
重量窓用調整器
  0
TEXT
  8
0
  6
CONTINUOUS
 62
     7
 10
-362.143
 20
280.9
 40
3.2
 41
0.84634979
  1
ＯＳ－２５０Ｎ
  0
TEXT
  8
0
  6
CONTINUOUS
 62
     7
 10
-361.84756
 20
272.9
 40
3.2
 41
0.62401195
  1
ストッパーケース：アルミダイキャスト／アーム・ブラケット：ステンレス
  0
TEXT
  8
0
  6
CONTINUOUS
 62
     7
 10
-362.143
 20
264.9
 40
3.2
 41
0.84218649
  1
ストッパーケース：サーチライトニッケルクロム
  0
TEXT
  8
0
  6
CONTINUOUS
 62
     7
 10
-362.143
 20
248.9
 40
3.2
 41
0.84248387
  1
Ｍ５×１２ナベ小ネジ　＋　ＳＵＳ８本付
  0
TEXT
  8
0
  6
CONTINUOUS
 62
     7
 10
-362.03105
 20
240.9
 40
3.2
 41
0.75944171
  1
（ブロンズ色の対応も可能です。別途お問合せ下さい。）
  0
TEXT
  8
0
  6
CONTINUOUS
 62
     7
 10
-362.143
 20
232.9
 40
3.2
 41
1
  1
*
  0
TEXT
  8
0
  6
CONTINUOUS
 62
     7
 10
-362.143
 20
224.9
 40
3.2
 41
0.85127005
  1
受注生産
  0
TEXT
  8
0
  6
CONTINUOUS
 62
     7
 10
-323.78982
 20
-44.830488
 40
3.2
 41
0.84377251
  1
※標準（Ａ）＝２０、２５
  0
TEXT
  8
0
  6
CONTINUOUS
 62
     7
 10
-362.143
 20
256.9
 40
3.2
 41
0.84218649
  1
アーム：ヘアーライン／ブラケット：バレル研磨
  0
DIMENSION
  8
0
  6
CONTINUOUS
 62
     7
  2
*D1
 70
     0
 10
-6.6721382
 20
158.2435
 11
-29.172138
 21
158.2435
  3
DIMSTYLE
 13
-51.672138
 23
175.24353
 14
-6.6721382
 24
175.24353
 50
0
1001
ACAD
1000
DSTYLE
1002
{
1070
    77
1070
     1
1070
   172
1070
     1
1002
}
  0
DIMENSION
  8
0
  6
CONTINUOUS
 62
     7
  2
*D2
 70
     0
 10
140.97984
 20
158.2435
 11
145.97984
 21
158.2435
  3
DIMSTYLE
 13
150.97984
 23
179.24353
 14
140.97984
 24
177.2435
 50
0
1001
ACAD
1000
DSTYLE
1002
{
1070
    77
1070
     1
1070
   172
1070
     1
1002
}
  0
DIMENSION
  8
0
  6
CONTINUOUS
 62
     7
  2
*D3
 70
     0
 10
-200.41212
 20
158.2435
 11
-195.41212
 21
158.2435
  3
DIMSTYLE
 13
-190.41212
 23
177.2435
 14
-200.41212
 24
179.24353
 50
0
1001
ACAD
1000
DSTYLE
1002
{
1070
    77
1070
     1
1070
   172
1070
     1
1002
}
  0
DIMENSION
  8
0
  6
CONTINUOUS
 62
     7
  2
*D4
 70
     0
 10
-202.41225
 20
148.2435
 11
-201.41219
 21
148.2435
  3
DIMSTYLE
 13
-200.41212
 23
179.24353
 14
-202.41225
 24
180.24353
 50
0
1001
ACAD
1000
DSTYLE
1002
{
1070
    77
1070
     1
1070
   172
1070
     1
1002
}
  0
DIMENSION
  8
0
  6
CONTINUOUS
 62
     7
  2
*D5
 70
     0
 10
150.97984
 20
148.2435
 11
-24.716145
 21
148.2435
  3
DIMSTYLE
 13
-200.41212
 23
179.24353
 14
150.97984
 24
179.24353
 50
0
1001
ACAD
1000
DSTYLE
1002
{
1070
    77
1070
     1
1070
   172
1070
     1
1070
    75
1070
     1
1002
}
  0
DIMENSION
  8
0
  6
CONTINUOUS
 62
     7
  2
*D6
 70
     0
 10
152.97984
 20
148.2435
 11
151.97984
 21
148.2435
  3
DIMSTYLE
 13
150.97984
 23
179.24353
 14
152.97984
 24
180.24353
 50
0
1001
ACAD
1000
DSTYLE
1002
{
1070
    77
1070
     1
1070
   172
1070
     1
1070
    75
1070
     1
1002
}
  0
DIMENSION
  8
0
  6
CONTINUOUS
 62
     7
  2
*D7
 70
     0
 10
30.827862
 20
197.2435
 11
30.827862
 21
207.8985
  3
DIMSTYLE
 13
15.827862
 23
177.2435
 14
15.827862
 24
197.2435
 50
90
1001
ACAD
1000
DSTYLE
1002
{
1070
    77
1070
     1
1070
   172
1070
     1
1002
}
  0
DIMENSION
  8
0
  6
CONTINUOUS
 62
     7
  2
*D8
 70
     0
 10
40.827862
 20
173.2435
 11
40.827862
 21
207.34865
  3
DIMSTYLE
 13
-8.6721382
 23
201.24353
 14
-8.6721382
 24
173.2435
 50
90
1001
ACAD
1000
DSTYLE
1002
{
1070
    77
1070
     1
1070
   172
1070
     1
1002
}
  0
DIMENSION
  8
0
  6
CONTINUOUS
 62
     7
  2
*D9
 70
     0
 10
-231.41212
 20
217.2435
 11
-231.41212
 21
202.2435
  3
DIMSTYLE
 13
-212.41212
 23
187.2435
 14
-221.41212
 24
217.2435
 50
90
1001
ACAD
1000
DSTYLE
1002
{
1070
    77
1070
     1
1070
   172
1070
     1
1002
}
  0
DIMENSION
  8
0
  6
CONTINUOUS
 62
     7
  2
*D10
 70
     0
 10
-64.172142
 20
16.743408
 11
-69.172142
 21
16.743408
  3
DIMSTYLE
 13
-74.172142
 23
31.743408
 14
-64.172142
 24
25.160217
 50
0
1001
ACAD
1000
DSTYLE
1002
{
1070
    77
1070
     1
1070
   172
1070
     1
1002
}
  0
DIMENSION
  8
0
  6
CONTINUOUS
 62
     7
  2
*D11
 70
     0
 10
-54.172138
 20
16.743408
 11
-59.172138
 21
16.743408
  3
DIMSTYLE
 13
-64.172142
 23
25.160217
 14
-54.172138
 24
25.160217
 50
0
1001
ACAD
1000
DSTYLE
1002
{
1070
    77
1070
     1
1070
   172
1070
     1
1070
    75
1070
     1
1002
}
  0
DIMENSION
  8
0
  6
CONTINUOUS
 62
     7
  2
*D12
 70
     0
 10
-4.1721382
 20
16.743408
 11
-29.172138
 21
16.743408
  3
DIMSTYLE
 13
-54.172138
 23
25.160217
 14
-4.1721382
 24
25.160217
 50
0
1001
ACAD
1000
DSTYLE
1002
{
1070
    77
1070
     1
1070
   172
1070
     1
1070
    75
1070
     1
1002
}
  0
DIMENSION
  8
0
  6
CONTINUOUS
 62
     7
  2
*D13
 70
     0
 10
5.8278618
 20
16.743408
 11
0.82786161
 21
16.743408
  3
DIMSTYLE
 13
-4.1721382
 23
25.160217
 14
5.8278618
 24
25.160217
 50
0
1001
ACAD
1000
DSTYLE
1002
{
1070
    77
1070
     1
1070
   172
1070
     1
1070
    75
1070
     1
1002
}
  0
DIMENSION
  8
0
  6
CONTINUOUS
 62
     7
  2
*D14
 70
     0
 10
15.827862
 20
16.743408
 11
10.827862
 21
16.743408
  3
DIMSTYLE
 13
5.8278618
 23
25.160217
 14
15.827862
 24
31.743408
 50
0
1001
ACAD
1000
DSTYLE
1002
{
1070
    77
1070
     1
1070
   172
1070
     1
1070
    75
1070
     1
1002
}
  0
DIMENSION
  8
0
  6
CONTINUOUS
 62
     7
  2
*D15
 70
     0
 10
15.827862
 20
6.7434077
 11
-29.172138
 21
6.7434077
  3
DIMSTYLE
 13
-74.172142
 23
31.743408
 14
15.827862
 24
31.743408
 50
0
1001
ACAD
1000
DSTYLE
1002
{
1070
    77
1070
     1
1070
   172
1070
     1
1002
}
  0
DIMENSION
  8
0
  6
CONTINUOUS
 62
     7
  2
*D16
 70
     0
 10
-165.41212
 20
16.743408
 11
-162.41212
 21
16.743408
  3
DIMSTYLE
 13
-159.41212
 23
46.743408
 14
-165.41212
 24
46.743408
 50
0
1001
ACAD
1000
DSTYLE
1002
{
1070
    77
1070
     1
1070
   172
1070
     1
1002
}
  0
DIMENSION
  8
0
  6
CONTINUOUS
 62
     7
  2
*D17
 70
     0
 10
-175.41212
 20
16.743408
 11
-170.41212
 21
16.743408
  3
DIMSTYLE
 13
-165.41212
 23
46.743408
 14
-175.41212
 24
46.743408
 50
0
1001
ACAD
1000
DSTYLE
1002
{
1070
    77
1070
     1
1070
   172
1070
     1
1070
    75
1070
     1
1002
}
  0
DIMENSION
  8
0
  6
CONTINUOUS
 62
     7
  2
*D18
 70
     0
 10
-205.41212
 20
16.743408
 11
-190.41212
 21
16.743408
  3
DIMSTYLE
 13
-175.41212
 23
46.743408
 14
-205.41212
 24
46.743408
 50
0
1001
ACAD
1000
DSTYLE
1002
{
1070
    77
1070
     1
1070
   172
1070
     1
1070
    75
1070
     1
1002
}
  0
DIMENSION
  8
0
  6
CONTINUOUS
 62
     7
  2
*D19
 70
     0
 10
-215.41212
 20
16.743408
 11
-210.41212
 21
16.743408
  3
DIMSTYLE
 13
-205.41212
 23
46.743408
 14
-215.41212
 24
46.743408
 50
0
1001
ACAD
1000
DSTYLE
1002
{
1070
    77
1070
     1
1070
   172
1070
     1
1070
    75
1070
     1
1002
}
  0
DIMENSION
  8
0
  6
CONTINUOUS
 62
     7
  2
*D20
 70
     0
 10
-221.41212
 20
16.743408
 11
-218.41212
 21
16.743408
  3
DIMSTYLE
 13
-215.41212
 23
46.743408
 14
-221.41212
 24
46.743408
 50
0
1001
ACAD
1000
DSTYLE
1002
{
1070
    77
1070
     1
1070
   172
1070
     1
1070
    75
1070
     1
1002
}
  0
DIMENSION
  8
0
  6
CONTINUOUS
 62
     7
  2
*D21
 70
     0
 10
-159.41212
 20
6.7434077
 11
-190.41212
 21
6.7434077
  3
DIMSTYLE
 13
-221.41212
 23
46.743408
 14
-159.41212
 24
46.743408
 50
0
1001
ACAD
1000
DSTYLE
1002
{
1070
    77
1070
     1
1070
   172
1070
     1
1002
}
  0
DIMENSION
  8
0
  6
CONTINUOUS
 62
     7
  2
*D22
 70
     0
 10
30.827862
 20
34.743423
 11
30.827862
 21
33.243416
  3
DIMSTYLE
 13
15.827862
 23
31.743408
 14
15.827862
 24
34.743423
 50
90
1001
ACAD
1000
DSTYLE
1002
{
1070
    77
1070
     1
1070
   172
1070
     1
1002
}
  0
DIMENSION
  8
0
  6
CONTINUOUS
 62
     7
  2
*D23
 70
     0
 10
30.827862
 20
46.743408
 11
30.827862
 21
40.743416
  3
DIMSTYLE
 13
15.827862
 23
34.743423
 14
-17.172138
 24
46.743408
 50
90
1001
ACAD
1000
DSTYLE
1002
{
1070
    77
1070
     1
1070
   172
1070
     1
1002
}
  0
POLYLINE
  8
0
  6
CONTINUOUS
 62
     7
 66
     1
 10
0
 20
0
 40
0
 41
0
  0
VERTEX
  8
0
  6
CONTINUOUS
 62
     7
 10
30.827862
 20
50.493423
  0
VERTEX
  8
0
  6
CONTINUOUS
 62
     7
 10
39.560307
 20
45.451744
  0
VERTEX
  8
0
  6
CONTINUOUS
 62
     7
 10
39.560307
 20
33.464939
  0
SEQEND
  8
0
  6
CONTINUOUS
 62
     7
  0
LINE
  8
0
  6
CONTINUOUS
 62
     7
 10
30.827862
 20
50.493423
 11
33.817789
 21
49.41613
  0
LINE
  8
0
  6
CONTINUOUS
 62
     7
 10
30.827862
 20
50.493423
 11
33.255789
 21
48.442717
  0
TEXT
  8
0
  6
CONTINUOUS
 62
     7
 10
38.760307
 20
33.464941
 40
3.2
 41
1.3571875
  1
7.5
 50
90.000003
  0
DIMENSION
  8
0
  6
CONTINUOUS
 62
     7
  2
*D24
 70
     0
 10
30.827862
 20
54.243439
 11
39.560307
 21
37.807941
  3
DIMSTYLE
 13
-18.172077
 23
46.743408
 14
-6.6721382
 24
54.243439
 50
90
1001
ACAD
1000
DSTYLE
1002
{
1070
    77
1070
     1
1070
   172
1070
     1
1070
    75
1070
     1
1002
}
  0
DIMENSION
  8
0
  6
CONTINUOUS
 62
     7
  2
*D25
 70
     0
 10
30.827862
 20
64.2435
 11
30.827862
 21
59.243469
  3
DIMSTYLE
 13
-6.6721382
 23
54.243439
 14
-8.416523
 24
64.2435
 50
90
1001
ACAD
1000
DSTYLE
1002
{
1070
    77
1070
     1
1070
   172
1070
     1
1070
    75
1070
     1
1070
    76
1070
     1
1002
}
  0
DIMENSION
  8
0
  6
CONTINUOUS
 62
     7
  2
*D26
 70
     0
 10
30.827862
 20
80.24353
 11
30.827862
 21
72.243515
  3
DIMSTYLE
 13
-8.416523
 23
64.2435
 14
-11.206135
 24
80.24353
 50
90
1001
ACAD
1000
DSTYLE
1002
{
1070
    77
1070
     1
1070
   172
1070
     1
1070
    75
1070
     1
1070
    76
1070
     1
1002
}
  0
DIMENSION
  8
0
  6
CONTINUOUS
 62
     7
  2
*D27
 70
     0
 10
30.827862
 20
97.24353
 11
30.827862
 21
88.74353
  3
DIMSTYLE
 13
-11.206135
 23
80.24353
 14
-16.612934
 24
97.24353
 50
90
1001
ACAD
1000
DSTYLE
1002
{
1070
    77
1070
     1
1070
   172
1070
     1
1070
    75
1070
     1
1002
}
  0
DIMENSION
  8
0
  6
CONTINUOUS
 62
     7
  2
*D28
 70
     0
 10
30.827862
 20
97.24353
 11
30.827862
 21
110.05399
  3
DIMSTYLE
 13
-21.672138
 23
103.7435
 14
-15.853107
 24
97.24353
 50
90
1001
ACAD
1000
DSTYLE
1002
{
1070
    77
1070
     1
1070
   172
1070
     1
1070
    76
1070
     1
1002
}
  0
DIMENSION
  8
0
  6
CONTINUOUS
 62
     7
  2
*D29
 70
     0
 10
150.97984
 20
44.795471
 11
145.97984
 21
44.795471
  3
DIMSTYLE
 13
140.97984
 23
56.389755
 14
150.97984
 24
64.2435
 50
0
1001
ACAD
1000
DSTYLE
1002
{
1070
    77
1070
     1
1070
   172
1070
     1
1002
}
  0
DIMENSION
  8
0
  6
CONTINUOUS
 62
     7
  2
*D30
 70
     0
 10
110.97984
 20
44.795471
 11
125.97984
 21
44.795471
  3
DIMSTYLE
 13
140.97984
 23
56.389755
 14
110.97984
 24
58.184143
 50
0
1001
ACAD
1000
DSTYLE
1002
{
1070
    77
1070
     1
1070
   172
1070
     1
1002
}
  0
DIMENSION
  8
0
  6
CONTINUOUS
 62
     7
  2
*D31
 70
     0
 10
110.97984
 20
44.795471
 11
100.58727
 21
44.795471
  3
DIMSTYLE
 13
90.194702
 23
64.2435
 14
110.97984
 24
58.184143
 50
0
1001
ACAD
1000
DSTYLE
1002
{
1070
     6
1000
_OPEN
1070
    77
1070
     1
1070
   172
1070
     1
1070
    75
1070
     1
1070
    76
1070
     1
1002
}
  0
DIMENSION
  8
0
  6
CONTINUOUS
 62
     7
  2
*D32
 70
     0
 10
-231.41212
 20
51.743408
 11
-231.41212
 21
49.243408
  3
DIMSTYLE
 13
-221.41212
 23
46.743408
 14
-220.4341
 24
51.743408
 50
90
1001
ACAD
1000
DSTYLE
1002
{
1070
    77
1070
     1
1070
   172
1070
     1
1002
}
  0
DIMENSION
  8
0
  6
CONTINUOUS
 62
     7
  2
*D33
 70
     0
 10
-231.41212
 20
54.743439
 11
-231.41212
 21
53.243423
  3
DIMSTYLE
 13
-220.4341
 23
51.743408
 14
-220.4341
 24
54.743439
 50
90
1001
ACAD
1000
DSTYLE
1002
{
1070
    77
1070
     1
1070
   172
1070
     1
1002
}
  0
DIMENSION
  8
0
  6
CONTINUOUS
 62
     7
  2
*D34
 70
     0
 10
-231.41212
 20
62.743408
 11
-231.41212
 21
61.243423
  3
DIMSTYLE
 13
-221.41212
 23
59.743439
 14
-221.41212
 24
62.743408
 50
90
1001
ACAD
1000
DSTYLE
1002
{
1070
    77
1070
     1
1070
   172
1070
     1
1002
}
  0
DIMENSION
  8
0
  6
CONTINUOUS
 62
     7
  2
*D35
 70
     0
 10
-241.41212
 20
64.2435
 11
-241.41212
 21
69.874298
  3
DIMSTYLE
 13
-221.41212
 23
62.743408
 14
-201.41212
 24
64.2435
 50
90
1001
ACAD
1000
DSTYLE
1002
{
1070
    77
1070
     1
1070
   172
1070
     1
1070
    75
1070
     1
1002
}
  0
DIMENSION
  8
0
  6
CONTINUOUS
 62
     7
  2
*D36
 70
     0
 10
-241.41212
 20
46.743408
 11
-241.41212
 21
39.243408
  3
DIMSTYLE
 13
-74.172142
 23
31.743408
 14
-221.41212
 24
46.743408
 50
90
1001
ACAD
1000
DSTYLE
1002
{
1070
    77
1070
     1
1070
   172
1070
     1
1070
    76
1070
     1
1002
}
  0
DIMENSION
  8
0
  6
CONTINUOUS
 62
     7
  2
*D37
 70
     0
 10
-322.41177
 20
113.7435
 11
-307.41177
 21
113.7435
  3
DIMSTYLE
 13
-292.41177
 23
108.0285
 14
-322.41177
 24
82.2435
 50
0
1001
ACAD
1000
DSTYLE
1002
{
1070
    77
1070
     1
1070
   172
1070
     1
1002
}
  0
INSERT
  8
0
  6
CONTINUOUS
 62
     7
  2
KOZU0001
 10
-64.17215
 20
187.2435
  0
INSERT
  8
0
  6
CONTINUOUS
 62
     7
  2
KOZU0002
 10
-215.41212
 20
53.243423
  0
DIMENSION
  8
0
  6
CONTINUOUS
 62
     7
  2
*D38
 70
     0
 10
-241.412
 20
62.74353
 11
-241.412
 21
54.743507
  3
DIMSTYLE
 13
-221.412
 23
46.743484
 14
-221.412
 24
62.74353
 50
90
1001
ACAD
1000
DSTYLE
1002
{
1070
    77
1070
     1
1070
   172
1070
     1
1002
}
  0
ENDSEC
  0
EOF
