  0
SECTION
  2
HEADER
  9
$ACADVER
  1
AC1015
  9
$ACADMAINTVER
 70
    20
  9
$DWGCODEPAGE
  3
ANSI_932
  9
$INSBASE
 10
0.0
 20
0.0
 30
0.0
  9
$EXTMIN
 10
-211.0116263101944
 20
-100.0083306632102
 30
-0.0015258207003583
  9
$EXTMAX
 10
170.011628084364
 20
173.0083319344654
 30
0.0000000349246037
  9
$LIMMIN
 10
-211.0
 20
-100.0
  9
$LIMMAX
 10
170.0
 20
173.0
  9
$ORTHOMODE
 70
     0
  9
$REGENMODE
 70
     1
  9
$FILLMODE
 70
     1
  9
$QTEXTMODE
 70
     0
  9
$MIRRTEXT
 70
     0
  9
$LTSCALE
 40
1.0
  9
$ATTMODE
 70
     1
  9
$TEXTSIZE
 40
0.2
  9
$TRACEWID
 40
0.05
  9
$TEXTSTYLE
  7
STANDARD
  9
$CLAYER
  8
0
  9
$CELTYPE
  6
CONTINUOUS
  9
$CECOLOR
 62
   256
  9
$CELTSCALE
 40
1.0
  9
$DISPSILH
 70
     0
  9
$DIMSCALE
 40
1.0
  9
$DIMASZ
 40
1.0
  9
$DIMEXO
 40
2.54
  9
$DIMDLI
 40
0.38
  9
$DIMRND
 40
0.0
  9
$DIMDLE
 40
0.0
  9
$DIMEXE
 40
2.54
  9
$DIMTP
 40
0.0
  9
$DIMTM
 40
0.0
  9
$DIMTXT
 40
3.2
  9
$DIMCEN
 40
0.09
  9
$DIMTSZ
 40
0.0
  9
$DIMTOL
 70
     0
  9
$DIMLIM
 70
     0
  9
$DIMTIH
 70
     0
  9
$DIMTOH
 70
     0
  9
$DIMSE1
 70
     0
  9
$DIMSE2
 70
     0
  9
$DIMTAD
 70
     1
  9
$DIMZIN
 70
     0
  9
$DIMBLK
  1

  9
$DIMASO
 70
     1
  9
$DIMSHO
 70
     0
  9
$DIMPOST
  1

  9
$DIMAPOST
  1

  9
$DIMALT
 70
     0
  9
$DIMALTD
 70
     2
  9
$DIMALTF
 40
25.4
  9
$DIMLFAC
 40
1.0
  9
$DIMTOFL
 70
     0
  9
$DIMTVP
 40
1.0
  9
$DIMTIX
 70
     0
  9
$DIMSOXD
 70
     0
  9
$DIMSAH
 70
     1
  9
$DIMBLK1
  1

  9
$DIMBLK2
  1

  9
$DIMSTYLE
  2
DIMSTYLE
  9
$DIMCLRD
 70
     0
  9
$DIMCLRE
 70
     0
  9
$DIMCLRT
 70
     0
  9
$DIMTFAC
 40
1.0
  9
$DIMGAP
 40
1.6
  9
$DIMJUST
 70
     0
  9
$DIMSD1
 70
     0
  9
$DIMSD2
 70
     0
  9
$DIMTOLJ
 70
     1
  9
$DIMTZIN
 70
     0
  9
$DIMALTZ
 70
     0
  9
$DIMALTTZ
 70
     0
  9
$DIMUPT
 70
     0
  9
$DIMDEC
 70
     4
  9
$DIMTDEC
 70
     4
  9
$DIMALTU
 70
     2
  9
$DIMALTTD
 70
     2
  9
$DIMTXSTY
  7
STANDARD
  9
$DIMAUNIT
 70
     0
  9
$DIMADEC
 70
     0
  9
$DIMALTRND
 40
0.0
  9
$DIMAZIN
 70
     0
  9
$DIMDSEP
 70
    46
  9
$DIMATFIT
 70
     3
  9
$DIMFRAC
 70
     0
  9
$DIMLDRBLK
  1

  9
$DIMLUNIT
 70
     2
  9
$DIMLWD
 70
    -2
  9
$DIMLWE
 70
    -2
  9
$DIMTMOVE
 70
     0
  9
$LUNITS
 70
     2
  9
$LUPREC
 70
     4
  9
$SKETCHINC
 40
0.1
  9
$FILLETRAD
 40
0.0
  9
$AUNITS
 70
     0
  9
$AUPREC
 70
     0
  9
$MENU
  1
.
  9
$ELEVATION
 40
0.0
  9
$PELEVATION
 40
0.0
  9
$THICKNESS
 40
0.0
  9
$LIMCHECK
 70
     0
  9
$CHAMFERA
 40
0.0
  9
$CHAMFERB
 40
0.0
  9
$CHAMFERC
 40
0.0
  9
$CHAMFERD
 40
0.0
  9
$SKPOLY
 70
     0
  9
$TDCREATE
 40
2454218.399405197
  9
$TDUCREATE
 40
2454218.024405197
  9
$TDUPDATE
 40
2454218.400259873
  9
$TDUUPDATE
 40
2454218.025259873
  9
$TDINDWG
 40
0.0008552199
  9
$TDUSRTIMER
 40
0.0008552199
  9
$USRTIMER
 70
     1
  9
$ANGBASE
 50
0.0
  9
$ANGDIR
 70
     0
  9
$PDMODE
 70
     0
  9
$PDSIZE
 40
0.0
  9
$PLINEWID
 40
0.0
  9
$SPLFRAME
 70
     0
  9
$SPLINETYPE
 70
     6
  9
$SPLINESEGS
 70
     8
  9
$HANDSEED
  5
5CC
  9
$SURFTAB1
 70
     6
  9
$SURFTAB2
 70
     6
  9
$SURFTYPE
 70
     6
  9
$SURFU
 70
     6
  9
$SURFV
 70
     6
  9
$UCSBASE
  2

  9
$UCSNAME
  2

  9
$UCSORG
 10
0.0
 20
0.0
 30
0.0
  9
$UCSXDIR
 10
1.0
 20
0.0
 30
0.0
  9
$UCSYDIR
 10
0.0
 20
1.0
 30
0.0
  9
$UCSORTHOREF
  2

  9
$UCSORTHOVIEW
 70
     0
  9
$UCSORGTOP
 10
0.0
 20
0.0
 30
0.0
  9
$UCSORGBOTTOM
 10
0.0
 20
0.0
 30
0.0
  9
$UCSORGLEFT
 10
0.0
 20
0.0
 30
0.0
  9
$UCSORGRIGHT
 10
0.0
 20
0.0
 30
0.0
  9
$UCSORGFRONT
 10
0.0
 20
0.0
 30
0.0
  9
$UCSORGBACK
 10
0.0
 20
0.0
 30
0.0
  9
$PUCSBASE
  2

  9
$PUCSNAME
  2

  9
$PUCSORG
 10
0.0
 20
0.0
 30
0.0
  9
$PUCSXDIR
 10
1.0
 20
0.0
 30
0.0
  9
$PUCSYDIR
 10
0.0
 20
1.0
 30
0.0
  9
$PUCSORTHOREF
  2

  9
$PUCSORTHOVIEW
 70
     0
  9
$PUCSORGTOP
 10
0.0
 20
0.0
 30
0.0
  9
$PUCSORGBOTTOM
 10
0.0
 20
0.0
 30
0.0
  9
$PUCSORGLEFT
 10
0.0
 20
0.0
 30
0.0
  9
$PUCSORGRIGHT
 10
0.0
 20
0.0
 30
0.0
  9
$PUCSORGFRONT
 10
0.0
 20
0.0
 30
0.0
  9
$PUCSORGBACK
 10
0.0
 20
0.0
 30
0.0
  9
$USERI1
 70
     0
  9
$USERI2
 70
     0
  9
$USERI3
 70
     0
  9
$USERI4
 70
     0
  9
$USERI5
 70
     0
  9
$USERR1
 40
0.0
  9
$USERR2
 40
0.0
  9
$USERR3
 40
0.0
  9
$USERR4
 40
0.0
  9
$USERR5
 40
0.0
  9
$WORLDVIEW
 70
     1
  9
$SHADEDGE
 70
     3
  9
$SHADEDIF
 70
    70
  9
$TILEMODE
 70
     1
  9
$MAXACTVP
 70
    64
  9
$PINSBASE
 10
0.0
 20
0.0
 30
0.0
  9
$PLIMCHECK
 70
     0
  9
$PEXTMIN
 10
1.000000000000000E+20
 20
1.000000000000000E+20
 30
1.000000000000000E+20
  9
$PEXTMAX
 10
-1.000000000000000E+20
 20
-1.000000000000000E+20
 30
-1.000000000000000E+20
  9
$PLIMMIN
 10
-211.0
 20
-100.0
  9
$PLIMMAX
 10
170.0
 20
173.0
  9
$UNITMODE
 70
     0
  9
$VISRETAIN
 70
     1
  9
$PLINEGEN
 70
     0
  9
$PSLTSCALE
 70
     1
  9
$TREEDEPTH
 70
  3020
  9
$CMLSTYLE
  2
Standard
  9
$CMLJUST
 70
     0
  9
$CMLSCALE
 40
1.0
  9
$PROXYGRAPHICS
 70
     1
  9
$MEASUREMENT
 70
     0
  9
$CELWEIGHT
370
    -1
  9
$ENDCAPS
280
     0
  9
$JOINSTYLE
280
     0
  9
$LWDISPLAY
290
     0
  9
$INSUNITS
 70
     0
  9
$HYPERLINKBASE
  1

  9
$STYLESHEET
  1

  9
$XEDIT
290
     1
  9
$CEPSNTYPE
380
     0
  9
$PSTYLEMODE
290
     1
  9
$FINGERPRINTGUID
  2
{833EE6E2-F976-4016-8F87-1C0CCF268D3D}
  9
$VERSIONGUID
  2
{1CAE272B-3631-4DCE-A2E1-9DF19E9926A9}
  9
$EXTNAMES
290
     1
  9
$PSVPSCALE
 40
0.0
  9
$OLESTARTUP
290
     0
  0
ENDSEC
  0
SECTION
  2
CLASSES
  0
CLASS
  1
ACDBDICTIONARYWDFLT
  2
AcDbDictionaryWithDefault
  3
ObjectDBX Classes
 90
        0
280
     0
281
     0
  0
CLASS
  1
MATERIAL
  2
AcDbMaterial
  3
ObjectDBX Classes
 90
     1153
280
     0
281
     0
  0
CLASS
  1
VISUALSTYLE
  2
AcDbVisualStyle
  3
ObjectDBX Classes
 90
     4095
280
     0
281
     0
  0
CLASS
  1
TABLESTYLE
  2
AcDbTableStyle
  3
ObjectDBX Classes
 90
     4095
280
     0
281
     0
  0
CLASS
  1
AMGSETTINGSOBJ
  2
AmgSettingsObj
  3
"AcadM|Product Description: AutoCAD Mechanical|Company: Autodesk"
 90
        0
280
     0
281
     0
  0
CLASS
  1
ACME_DOCUMENT
  2
AcMeDbDoc
  3
AcMeServices
 90
        0
280
     0
281
     0
  0
CLASS
  1
ACMESCOPE
  2
AcMeScope
  3
AcMeServices
 90
        0
280
     0
281
     0
  0
CLASS
  1
ACMECOMMANDHISTORY
  2
AcMeCommandHistory
  3
AcMeServices
 90
        0
280
     0
281
     0
  0
CLASS
  1
ACIMSYSVARMAN
  2
AcImSysVarManager
  3
AcMeServices
 90
        0
280
     0
281
     0
  0
CLASS
  1
ACIMINTSYSVAR
  2
AcImIntSysVar
  3
AcMeServices
 90
        0
280
     0
281
     0
  0
CLASS
  1
ACMEDRAWINGMAN
  2
AcMeDrawingMan
  3
AcMeServices
 90
        0
280
     0
281
     0
  0
CLASS
  1
ACMEVIEW
  2
AcMeView
  3
AcMeServices
 90
        0
280
     0
281
     0
  0
CLASS
  1
ACDBENTITYCACHE
  2
AcMeEntityCache
  3
AcMeServices
 90
        0
280
     0
281
     0
  0
CLASS
  1
GSMANAGER
  2
AcMeGSManager
  3
AcMeServices
 90
        0
280
     0
281
     0
  0
CLASS
  1
AMDTINTERNALREACTOR
  2
AmdtInternalReactor
  3
AcMeServices
 90
        0
280
     0
281
     0
  0
CLASS
  1
ACMESTATEMGR
  2
AcMeStateMgr
  3
AcMeServices
 90
        0
280
     0
281
     0
  0
CLASS
  1
ACGREFMASTER
  2
AcGrefMaster
  3
AcAttribServices
 90
        0
280
     0
281
     0
  0
CLASS
  1
AM_DRAWING_MGR
  2
AcDmDwgMgr
  3
AcMechDwgViewMgmt
 90
        0
280
     0
281
     0
  0
CLASS
  1
AM_DWG_DOCUMENT
  2
AcDmDwgDocument
  3
AcMechDwgViewMgmt
 90
        0
280
     0
281
     0
  0
CLASS
  1
AM_DWG_SHEET
  2
AcDmSheet
  3
AcMechDwgViewMgmt
 90
        0
280
     0
281
     0
  0
CLASS
  1
AM_VIEWDIMPARMAP
  2
AcDmViewDimParMap
  3
AcMechDwgViewMgmt
 90
        0
280
     0
281
     0
  0
CLASS
  1
ACIMREALSYSVAR
  2
AcImRealSysVar
  3
AcMeServices
 90
        0
280
     0
281
     0
  0
CLASS
  1
AM_DWGMGR_NAME
  2
AcDmDwgMgrName
  3
AcMechDwgViewMgmt
 90
        0
280
     0
281
     0
  0
CLASS
  1
ACME_DATABASE
  2
AcMeDbDatabase
  3
AcMeServices
 90
        0
280
     0
281
     0
  0
CLASS
  1
ACRFINSADJUSTERMGR
  2
AcRfInsAdjusterMgr
  3
AcMeServices
 90
        0
280
     0
281
     0
  0
CLASS
  1
ACGREFACADMASTER
  2
AcGrefacadMaster
  3
AcGrefServices
 90
        0
280
     0
281
     0
  0
CLASS
  1
AMDTMENUSTATEMGR
  2
AmdtMenuStateMgr
  3
McadcomServices
 90
        0
280
     0
281
     0
  0
CLASS
  1
AMDTMCOMMENUSTATE
  2
AmdtMcomMenuState
  3
McadcomServices
 90
        0
280
     0
281
     0
  0
CLASS
  1
AMIMASTER
  2
AmiMaster
  3
AmiServices
 90
        0
280
     0
281
     0
  0
CLASS
  1
MAPIAMMOUDLE
  2
MApiAmModule
  3
MApiAmServices
 90
        0
280
     0
281
     0
  0
CLASS
  1
ACIMSTRSYSVAR
  2
AcImStrSysVar
  3
AcMeServices
 90
        0
280
     0
281
     0
  0
CLASS
  1
AMDTADMENUSTATE
  2
AmdtAdMenuState
  3
DesignerServices
 90
        0
280
     0
281
     0
  0
CLASS
  1
ADAPPL
  2
AcAdAppl
  3
DesignerServices
 90
        0
280
     0
281
     0
  0
CLASS
  1
DEPMGR
  2
AcAdDepMgr
  3
DesignerServices
 90
        0
280
     0
281
     0
  0
CLASS
  1
PARAMMGR
  2
AcAdParamMgr
  3
DesignerServices
 90
        0
280
     0
281
     0
  0
CLASS
  1
PARAMSCOPE
  2
AcAdParamScope
  3
DesignerServices
 90
        0
280
     0
281
     0
  0
CLASS
  1
NAMEDAPPL
  2
AcAdNamedAppl
  3
DesignerServices
 90
        0
280
     0
281
     0
  0
CLASS
  1
AMDTDMMENUSTATE
  2
AmdtDmMenuState
  3
AcMechDwgViewMgmt
 90
        0
280
     0
281
     0
  0
CLASS
  1
AMDTAMMENUSTATE
  2
AmdtAmMenuState
  3
DesignerAssemblies
 90
        0
280
     0
281
     0
  0
CLASS
  1
ACAMPROJECT
  2
AcAmProject
  3
DesignerAssemblies
 90
        0
280
     0
281
     0
  0
CLASS
  1
ACAMGRCOMPDEF
  2
AcAmGrCompDef
  3
DesignerAssemblies
 90
        0
280
     0
281
     0
  0
CLASS
  1
ACCMCONTEXT
  2
AcCmContext
  3
DesignerAssemblies
 90
        0
280
     0
281
     0
  0
CLASS
  1
ACAMCOMPDEF
  2
AcAmCompDef
  3
DesignerAssemblies
 90
        0
280
     0
281
     0
  0
CLASS
  1
ACAMCOMPDEFMGR
  2
AcAmCompDefMgr
  3
DesignerAssemblies
 90
        0
280
     0
281
     0
  0
CLASS
  1
AMCONTEXTMGR
  2
AcAmContextMgr
  3
DesignerAssemblies
 90
        0
280
     0
281
     0
  0
CLASS
  1
ACAMCONTEXTMODELER
  2
AcAmContextModeler
  3
DesignerAssemblies
 90
        0
280
     0
281
     0
  0
CLASS
  1
ACMDATADICTIONARY
  2
AcmDataDictionary
  3
"AcmSymBB|Product Description: AutoCAD Mechanical|Company: Autodesk"
 90
        0
280
     0
281
     0
  0
CLASS
  1
CATALOGSTATE
  2
AcAmCatalogState
  3
DesignerAssemblies
 90
        0
280
     0
281
     0
  0
CLASS
  1
ACAMGRCOMPDEFSET
  2
AcAmGrCompDefSet
  3
DesignerAssemblies
 90
        0
280
     0
281
     0
  0
CLASS
  1
AMDTBROWSERDBTAB
  2
AmdtBrowserDbTab
  3
McadcomServices
 90
        0
280
     0
281
     0
  0
CLASS
  1
CBROWSERAPPOBJECT
  2
CBrowserAppObject
  3
McadcomServices
 90
        0
280
     0
281
     0
  0
CLASS
  1
DM_PLACEHOLDER
  2
AcDmSelsetPlaceholder
  3
AcMechDwgViewMgmt
 90
        0
280
     0
281
     0
  0
CLASS
  1
ACMSTANDARDANSI
  2
AcmStandardANSI
  3
"Amdt_StdImp|Product Description: AutoCAD Mechanical|Company: Autodesk"
 90
        0
280
     0
281
     0
  0
CLASS
  1
AMGOBJPROPCFG
  2
AmgObjPropCfg
  3
"AmgLay|Product Description: AutoCAD Mechanical|Company: Autodesk"
 90
        1
280
     0
281
     0
  0
CLASS
  1
ACMSURFSTANDARDANSI
  2
AcmSurfTextStdANSI
  3
"Amdt_StdImp|Product Description: AutoCAD Mechanical|Company: Autodesk"
 90
        0
280
     0
281
     0
  0
CLASS
  1
ACMFCFSTANDARDANSI
  2
AcmFCFStdANSI
  3
"Amdt_StdImp|Product Description: AutoCAD Mechanical|Company: Autodesk"
 90
        0
280
     0
281
     0
  0
CLASS
  1
ACMWELDSTANDARDANSI
  2
AcmWeldingStdANSI
  3
"Amdt_StdImp|Product Description: AutoCAD Mechanical|Company: Autodesk"
 90
        0
280
     0
281
     0
  0
CLASS
  1
ACMIDSTANDARDANSI
  2
AcmIdStdANSI
  3
"Amdt_StdImp|Product Description: AutoCAD Mechanical|Company: Autodesk"
 90
        0
280
     0
281
     0
  0
CLASS
  1
ACMDATUMSTANDARDANSI
  2
AcmDatumStdANSI
  3
"Amdt_StdImp|Product Description: AutoCAD Mechanical|Company: Autodesk"
 90
        0
280
     0
281
     0
  0
CLASS
  1
ACMBOMSTANDARDANSI
  2
AcmBOMStdANSI
  3
"Amdt_StdImp|Product Description: AutoCAD Mechanical|Company: Autodesk"
 90
        0
280
     0
281
     0
  0
CLASS
  1
ACMDETAILSTANDARDANSI
  2
AmdtDetailSymStdANSI
  3
"Amdt_StdImp|Product Description: AutoCAD Mechanical|Company: Autodesk"
 90
        0
280
     0
281
     0
  0
CLASS
  1
ACMSECTIONSTANDARDANSI
  2
AmdtSectionSymStdANSI
  3
"Amdt_StdImp|Product Description: AutoCAD Mechanical|Company: Autodesk"
 90
        0
280
     0
281
     0
  0
CLASS
  1
ACMCENTERLINESTANDARDANSI
  2
AmdtCenterLineStdANSI
  3
"Amdt_StdImp|Product Description: AutoCAD Mechanical|Company: Autodesk"
 90
        0
280
     0
281
     0
  0
CLASS
  1
ACMTHREADLINESTANDARDANSI
  2
AmdtThreadLineStdANSI
  3
"Amdt_StdImp|Product Description: AutoCAD Mechanical|Company: Autodesk"
 90
        0
280
     0
281
     0
  0
CLASS
  1
ACMNOTESTANDARDANSI
  2
AmdtNoteStdANSI
  3
"Amdt_StdImp|Product Description: AutoCAD Mechanical|Company: Autodesk"
 90
        0
280
     0
281
     0
  0
CLASS
  1
ACMTAPERSTANDARDANSI
  2
AcmTaperStdANSI
  3
"Amdt_StdImp|Product Description: AutoCAD Mechanical|Company: Autodesk"
 90
        0
280
     0
281
     0
  0
CLASS
  1
AMDTNOTETEMPLATEDB
  2
AmdtNoteTemplateDB
  3
AMDT_STDIMP_MODULE_NAME
 90
        0
280
     0
281
     0
  0
CLASS
  1
ACAMGLAYSTD
  2
AcAmgLayStd
  3
"AmgLay|Product Description: AutoCAD Mechanical|Company: Autodesk"
 90
        0
280
     0
281
     0
  0
CLASS
  1
ACAMGDIMSTD
  2
AcAmgDimStd
  3
"AmgDim|Product Description: AutoCAD Mechanical|Company: Autodesk"
 90
        0
280
     0
281
     0
  0
CLASS
  1
ACAMGHOLECHARTSTDANSI
  2
AcAmgHoleChartStdANSI
  3
ACMSYMBB_MODULE_NAME
 90
        0
280
     0
281
     0
  0
CLASS
  1
ACAMGTITLESTD
  2
AcAmgTitleStd
  3
"AmgTitle|Product Description: AutoCAD Mechanical|Company: Autodesk"
 90
        0
280
     0
281
     0
  0
CLASS
  1
ACAMGFILTERDAT
  2
AcAmgFilterDat
  3
"AcadM|Product Description: AutoCAD Mechanical|Company: Autodesk"
 90
        0
280
     0
281
     0
  0
CLASS
  1
DICTIONARYVAR
  2
AcDbDictionaryVar
  3
ObjectDBX Classes
 90
        0
280
     0
281
     0
  0
CLASS
  1
ACDBPLACEHOLDER
  2
AcDbPlaceHolder
  3
ObjectDBX Classes
 90
        0
280
     0
281
     0
  0
CLASS
  1
LAYOUT
  2
AcDbLayout
  3
ObjectDBX Classes
 90
        0
280
     0
281
     0
  0
ENDSEC
  0
SECTION
  2
TABLES
  0
TABLE
  2
VPORT
  5
8
330
0
100
AcDbSymbolTable
 70
     1
  0
VPORT
  5
45
330
8
100
AcDbSymbolTableRecord
100
AcDbViewportTableRecord
  2
*Active
 70
     0
 10
0.0
 20
0.0
 11
1.0
 21
1.0
 12
-166.157116380197
 22
108.3000042404051
 13
0.0
 23
0.0
 14
1.0
 24
1.0
 15
0.0
 25
0.0
 16
0.0
 26
0.0
 36
1.0
 17
0.0
 27
0.0
 37
0.0
 40
161.159818338845
 41
1.313157894736842
 42
50.0
 43
0.0
 44
0.0
 50
0.0
 51
0.0
 71
     0
 72
   100
 73
     1
 74
     1
 75
     0
 76
     0
 77
     0
 78
     0
281
     0
 65
     0
110
0.0
120
0.0
130
0.0
111
1.0
121
0.0
131
0.0
112
0.0
122
1.0
132
0.0
 79
     0
146
0.0
  0
ENDTAB
  0
TABLE
  2
LTYPE
  5
5
330
0
100
AcDbSymbolTable
 70
    19
  0
LTYPE
  5
28
330
5
100
AcDbSymbolTableRecord
100
AcDbLinetypeTableRecord
  2
ByBlock
 70
     0
  3

 72
    65
 73
     0
 40
0.0
  0
LTYPE
  5
29
330
5
100
AcDbSymbolTableRecord
100
AcDbLinetypeTableRecord
  2
ByLayer
 70
     0
  3

 72
    65
 73
     0
 40
0.0
  0
LTYPE
  5
2A
330
5
100
AcDbSymbolTableRecord
100
AcDbLinetypeTableRecord
  2
CONTINUOUS
 70
     0
  3
Solid line
 72
    65
 73
     0
 40
0.0
  0
LTYPE
  5
3A
330
5
100
AcDbSymbolTableRecord
100
AcDbLinetypeTableRecord
  2
DASHED
 70
     0
  3
__ __ __ __ __ __ __ __ __ __ __ __ __ __ __
 72
    65
 73
     2
 40
3.5
 49
2.0
 74
     0
 49
-1.5
 74
     0
  0
LTYPE
  5
3B
330
5
100
AcDbSymbolTableRecord
100
AcDbLinetypeTableRecord
  2
CENTER
 70
     0
  3
____ _ ____ _ ____ _ ____ _ ____ _ ____ _ ____
 72
    65
 73
     4
 40
17.5
 49
13.0
 74
     0
 49
-1.5
 74
     0
 49
1.5
 74
     0
 49
-1.5
 74
     0
  0
LTYPE
  5
3C
330
5
100
AcDbSymbolTableRecord
100
AcDbLinetypeTableRecord
  2
PHANTOM
 70
     0
  3
_____ _ _ _____ _ _ _____ _ _ _____ _ _ ____  
 72
    65
 73
     6
 40
15.5
 49
8.0
 74
     0
 49
-1.5
 74
     0
 49
1.5
 74
     0
 49
-1.5
 74
     0
 49
1.5
 74
     0
 49
-1.5
 74
     0
  0
LTYPE
  5
3D
330
5
100
AcDbSymbolTableRecord
100
AcDbLinetypeTableRecord
  2
DOT
 70
     0
  3
. . . . . . . . . . . . . . . . . . . . . . . .
 72
    65
 73
     2
 40
0.25
 49
0.0
 74
     0
 49
-0.25
 74
     0
  0
LTYPE
  5
3E
330
5
100
AcDbSymbolTableRecord
100
AcDbLinetypeTableRecord
  2
HIDDEN
 70
     0
  3
__ __ __ __ __ __ __ __ __ __ __ __ __ __ __
 72
    65
 73
     2
 40
3.5
 49
2.0
 74
     0
 49
-1.5
 74
     0
  0
LTYPE
  5
530
330
5
100
AcDbSymbolTableRecord
100
AcDbLinetypeTableRecord
  2
PHANTOM2
 70
     0
  3
Phantom (.5x) ___ _ _ ___ _ _ ___ _ _ ___ _ _
 72
    65
 73
     6
 40
1.25
 49
0.625
 74
     0
 49
-0.125
 74
     0
 49
0.125
 74
     0
 49
-0.125
 74
     0
 49
0.125
 74
     0
 49
-0.125
 74
     0
  0
LTYPE
  5
565
330
5
100
AcDbSymbolTableRecord
100
AcDbLinetypeTableRecord
  2
AM_ISO02W050
 70
     0
  3
__ __ __ __ __ __ __ __ __ __ __ __ __ __ __
 72
    65
 73
     2
 40
7.5
 49
6.0
 74
     0
 49
-1.5
 74
     0
  0
LTYPE
  5
566
330
5
100
AcDbSymbolTableRecord
100
AcDbLinetypeTableRecord
  2
AM_ISO08W050
 70
     0
  3
____ . ____ . ____ . ____ . ____ . ____ . ____
 72
    65
 73
     4
 40
18.0
 49
12.0
 74
     0
 49
-1.5
 74
     0
 49
3.0
 74
     0
 49
-1.5
 74
     0
  0
LTYPE
  5
567
330
5
100
AcDbSymbolTableRecord
100
AcDbLinetypeTableRecord
  2
AM_ISO09W050
 70
     0
  3
_____ . . _____ . . _____ . . ____ .. ____
 72
    65
 73
     6
 40
22.5
 49
12.0
 74
     0
 49
-1.5
 74
     0
 49
3.0
 74
     0
 49
-1.5
 74
     0
 49
3.0
 74
     0
 49
-1.5
 74
     0
  0
LTYPE
  5
568
330
5
100
AcDbSymbolTableRecord
100
AcDbLinetypeTableRecord
  2
Amconstr
 70
     0
  3
_______________________
 72
    65
 73
     2
 40
9999.0
 49
9999.0
 74
     0
 49
0.0
 74
     0
  0
LTYPE
  5
569
330
5
100
AcDbSymbolTableRecord
100
AcDbLinetypeTableRecord
  2
AM_ISO08W050x2
 70
     0
  3
__ . __ . __ . __ . __ . __
 72
    65
 73
     4
 40
9.0
 49
6.0
 74
     0
 49
-0.75
 74
     0
 49
1.5
 74
     0
 49
-0.75
 74
     0
  0
LTYPE
  5
56A
330
5
100
AcDbSymbolTableRecord
100
AcDbLinetypeTableRecord
  2
AM_ISO02W050x2
 70
     0
  3
 _ _ _ _ _ _ _ _ _ _ _ _
 72
    65
 73
     2
 40
3.75
 49
3.0
 74
     0
 49
-0.75
 74
     0
  0
LTYPE
  5
56D
330
5
100
AcDbSymbolTableRecord
100
AcDbLinetypeTableRecord
  2
Amzigzag
 70
     0
  3
/\/-/\/-/\/-/\/-/\/-/\/
 72
    65
 73
     2
 40
11.0001
 49
0.0001
 74
     4
 75
   136
340
56C
 46
0.04
 50
0.0
 44
0.0
 45
0.0
 49
-11.0
 74
     0
  0
LTYPE
  5
56E
330
5
100
AcDbSymbolTableRecord
100
AcDbLinetypeTableRecord
  2
CENTER2
 70
     0
  3
Center (.5x) ___ _ ___ _ ___ _ ___ _ ___ _ ___
 72
    65
 73
     4
 40
1.125
 49
0.75
 74
     0
 49
-0.125
 74
     0
 49
0.125
 74
     0
 49
-0.125
 74
     0
  0
LTYPE
  5
56F
330
5
100
AcDbSymbolTableRecord
100
AcDbLinetypeTableRecord
  2
HIDDEN2
 70
     0
  3
Hidden (.5x) _ _ _ _ _ _ _ _ _ _ _ _ _ _ _ _ _
 72
    65
 73
     2
 40
0.1875
 49
0.125
 74
     0
 49
-0.0625
 74
     0
  0
LTYPE
  5
570
330
5
100
AcDbSymbolTableRecord
100
AcDbLinetypeTableRecord
  2
Amzigzag2
 70
     0
  3
/\/-/\/-/\/-/\/-/\/-/\/
 72
    65
 73
     2
 40
0.4401
 49
0.0001
 74
     4
 75
   136
340
56C
 46
0.0016
 50
0.0
 44
0.0
 45
0.0
 49
-0.4400000000000001
 74
     0
  0
LTYPE
  5
57F
330
5
100
AcDbSymbolTableRecord
100
AcDbLinetypeTableRecord
  2
ACANSTGB
 70
     0
  3
__ . . __ . .
 72
    65
 73
     6
 40
0.35433070866
 49
0.15748031496
 74
     0
 49
-0.03937007874
 74
     0
 49
0.03937007874
 74
     0
 49
-0.03937007874
 74
     0
 49
0.03937007874
 74
     0
 49
-0.03937007874
 74
     0
  0
LTYPE
  5
580
330
5
100
AcDbSymbolTableRecord
100
AcDbLinetypeTableRecord
  2
ACANSTGL
 70
     0
  3
_ _ _ _ _
 72
    65
 73
     2
 40
0.11811023622
 49
0.07874015748
 74
     0
 49
-0.03937007874
 74
     0
  0
ENDTAB
  0
TABLE
  2
LAYER
  5
2
330
0
100
AcDbSymbolTable
 70
     4
  0
LAYER
  5
25
330
2
100
AcDbSymbolTableRecord
100
AcDbLayerTableRecord
  2
0
 70
     0
 62
     7
  6
CONTINUOUS
370
    -3
390
F
  0
LAYER
  5
3F
330
2
100
AcDbSymbolTableRecord
100
AcDbLayerTableRecord
  2
1
 70
     0
 62
     7
  6
CONTINUOUS
370
    -3
390
F
  0
LAYER
  5
40
330
2
100
AcDbSymbolTableRecord
100
AcDbLayerTableRecord
  2
2
 70
     0
 62
     7
  6
CONTINUOUS
370
    -3
390
F
  0
LAYER
  5
41
330
2
100
AcDbSymbolTableRecord
100
AcDbLayerTableRecord
  2
DEFPOINTS
 70
     0
 62
     7
  6
CONTINUOUS
290
     0
370
    -3
390
F
  0
ENDTAB
  0
TABLE
  2
STYLE
  5
3
330
0
100
AcDbSymbolTable
 70
     4
  0
STYLE
  5
26
330
3
100
AcDbSymbolTableRecord
100
AcDbTextStyleTableRecord
  2
STANDARD
 70
     0
 40
0.0
 41
1.0
 50
0.0
 71
     0
 42
0.2
  3
txt
  4
BIGFONT
  0
STYLE
  5
56C
330
3
100
AcDbSymbolTableRecord
100
AcDbTextStyleTableRecord
  2

 70
     1
 40
0.0
 41
1.0
 50
0.0
 71
     0
 42
3.2
  3
genltshp.shx
  4

  0
STYLE
  5
571
330
3
100
AcDbSymbolTableRecord
100
AcDbTextStyleTableRecord
  2
ACANSTS
 70
     0
 40
1.0
 41
1.0
 50
0.0
 71
     0
 42
3.2
  3
romans.shx
  4
extfont.shx
  0
STYLE
  5
57E
330
3
100
AcDbSymbolTableRecord
100
AcDbTextStyleTableRecord
  2
ACANSGDT
 70
     0
 40
0.0
 41
1.0
 50
0.0
 71
     0
 42
3.2
  3
amgdt.shx
  4

  0
ENDTAB
  0
TABLE
  2
VIEW
  5
6
330
0
100
AcDbSymbolTable
 70
     0
  0
ENDTAB
  0
TABLE
  2
UCS
  5
7
330
0
100
AcDbSymbolTable
 70
     0
  0
ENDTAB
  0
TABLE
  2
APPID
  5
9
330
0
100
AcDbSymbolTable
 70
     9
  0
APPID
  5
27
330
9
100
AcDbSymbolTableRecord
100
AcDbRegAppTableRecord
  2
ACAD
 70
     0
  0
APPID
  5
503
330
9
100
AcDbSymbolTableRecord
100
AcDbRegAppTableRecord
  2
MCAD_NO_VIS
 70
     0
  0
APPID
  5
504
330
9
100
AcDbSymbolTableRecord
100
AcDbRegAppTableRecord
  2
ACAD_TEMP_GRAPHIC
 70
     0
  0
APPID
  5
532
330
9
100
AcDbSymbolTableRecord
100
AcDbRegAppTableRecord
  2
AD_DRAW
 70
     0
  0
APPID
  5
535
330
9
100
AcDbSymbolTableRecord
100
AcDbRegAppTableRecord
  2
ACATTRIBSERVICES
 70
     0
  0
APPID
  5
556
330
9
100
AcDbSymbolTableRecord
100
AcDbRegAppTableRecord
  2
DESIGNERASSEMBLIES
 70
     0
  0
APPID
  5
55C
330
9
100
AcDbSymbolTableRecord
100
AcDbRegAppTableRecord
  2
ACADM_DIM_EDIT
 70
     0
  0
APPID
  5
55D
330
9
100
AcDbSymbolTableRecord
100
AcDbRegAppTableRecord
  2
AMDT_DM_ADJ
 70
     0
  0
APPID
  5
5CB
330
9
100
AcDbSymbolTableRecord
100
AcDbRegAppTableRecord
  2
ACAD_DSTYLE_DIMARC_LENGTH_SYMBOL
 70
     0
  0
ENDTAB
  0
TABLE
  2
DIMSTYLE
  5
A
330
0
100
AcDbSymbolTable
 70
     7
100
AcDbDimStyleTable
 71
     0
  0
DIMSTYLE
105
42
102
{ACAD_REACTORS
330
4D5
330
4D6
330
4D7
330
4D8
330
4D9
330
4DA
330
4DD
330
4DE
330
4DF
330
4E0
330
4E1
330
4E2
330
4E3
330
4E4
330
4E5
330
4E6
330
4E7
330
4E8
330
4E9
330
4EA
330
4EB
330
4EC
330
4ED
330
4EE
330
4EF
330
4F0
330
4F1
330
4F2
330
4F3
330
4F4
330
4F5
330
4F6
330
4F7
330
4F9
330
4FA
330
4FB
330
4FC
102
}
330
A
100
AcDbSymbolTableRecord
100
AcDbDimStyleTableRecord
  2
DIMSTYLE
 70
     0
 41
1.0
 42
2.54
 44
2.54
 73
     0
 74
     0
140
3.2
147
1.6
173
     1
279
     2
340
26
  0
DIMSTYLE
105
58C
330
A
100
AcDbSymbolTableRecord
100
AcDbDimStyleTableRecord
  2
AM_ANSI
 70
     0
  4
mm
 41
0.1
 42
0.05
 43
0.5
 44
0.1
 47
0.1
 48
0.1
 78
     7
 79
     2
140
0.12
141
0.0
146
0.71
147
0.06
176
   256
177
   256
178
     2
274
     4
284
     7
340
26
371
    -1
372
    -1
1001
ACAD_DSTYLE_DIMARC_LENGTH_SYMBOL
1070
   379
1070
     1
  0
DIMSTYLE
105
58D
330
A
100
AcDbSymbolTableRecord
100
AcDbDimStyleTableRecord
  2
AM_ANSI$3
 70
     0
  4
mm
 41
0.1
 42
0.05
 43
0.5
 44
0.1
 47
0.1
 48
0.1
 78
     7
 79
     2
140
0.12
141
0.0
146
0.71
147
0.06
176
   256
177
   256
178
     2
274
     4
284
     7
288
     1
289
     0
340
26
371
    -1
372
    -1
1001
ACAD_DSTYLE_DIMARC_LENGTH_SYMBOL
1070
   379
1070
     1
  0
DIMSTYLE
105
58E
330
A
100
AcDbSymbolTableRecord
100
AcDbDimStyleTableRecord
  2
AM_ANSI$4
 70
     0
  4
mm
 41
0.1
 42
0.05
 43
0.5
 44
0.1
 47
0.1
 48
0.1
 78
     7
 79
     2
140
0.12
141
0.0
146
0.71
147
0.06
176
   256
177
   256
178
     2
274
     4
284
     7
288
     1
289
     0
340
26
371
    -1
372
    -1
1001
ACAD_DSTYLE_DIMARC_LENGTH_SYMBOL
1070
   379
1070
     1
  0
DIMSTYLE
105
58F
330
A
100
AcDbSymbolTableRecord
100
AcDbDimStyleTableRecord
  2
AM_ANSI$7
 70
     0
  4
mm
 41
0.1
 42
0.05
 43
0.5
 44
0.1
 47
0.1
 48
0.1
 78
     7
 79
     2
140
0.24
141
0.0
146
0.71
147
0.06
176
   256
177
   256
178
     2
274
     4
284
     7
340
26
371
    -1
372
    -1
1001
ACAD_DSTYLE_DIMARC_LENGTH_SYMBOL
1070
   379
1070
     1
  0
DIMSTYLE
105
590
330
A
100
AcDbSymbolTableRecord
100
AcDbDimStyleTableRecord
  2
AM_ANSI$SF
 70
     0
  4
mm
 41
0.1
 42
0.05
 43
0.5
 44
0.1
 47
0.1
 48
0.1
 75
     1
 76
     1
 78
     7
 79
     2
140
0.12
141
0.0
146
0.71
147
0.06
176
   256
177
   256
178
     2
274
     4
284
     7
340
26
371
    -1
372
    -1
1001
ACAD_DSTYLE_DIMARC_LENGTH_SYMBOL
1070
   379
1070
     1
  0
DIMSTYLE
105
595
330
A
100
AcDbSymbolTableRecord
100
AcDbDimStyleTableRecord
  2
AM_ANSI$SH
 70
     0
  4
mm
 41
0.1
 42
0.05
 43
0.5
 44
0.1
 47
0.1
 48
0.1
 75
     1
 76
     1
 78
     7
 79
     2
140
0.12
141
0.0
146
0.71
147
0.06
173
     1
176
   256
177
   256
178
     2
274
     4
284
     7
340
26
343
591
371
    -1
372
    -1
1001
ACAD_DSTYLE_DIMARC_LENGTH_SYMBOL
1070
   379
1070
     1
  0
ENDTAB
  0
TABLE
  2
BLOCK_RECORD
  5
1
330
0
100
AcDbSymbolTable
 70
    44
  0
BLOCK_RECORD
  5
36
330
1
100
AcDbSymbolTableRecord
100
AcDbBlockTableRecord
  2
*Model_Space
340
39
  0
BLOCK_RECORD
  5
32
330
1
100
AcDbSymbolTableRecord
100
AcDbBlockTableRecord
  2
*Paper_Space
340
35
  0
BLOCK_RECORD
  5
46
330
1
100
AcDbSymbolTableRecord
100
AcDbBlockTableRecord
  2
_OPEN
340
0
102
{BLKREFS
331
1BA
102
}
  0
BLOCK_RECORD
  5
4C
330
1
100
AcDbSymbolTableRecord
100
AcDbBlockTableRecord
  2
_DOT
340
0
102
{BLKREFS
331
57
331
58
331
63
331
64
331
6E
331
6F
331
7B
331
7C
331
87
331
88
331
92
331
93
331
9B
331
9C
331
A7
331
A8
331
B2
331
B3
331
BD
331
BE
331
C9
331
CA
331
D4
331
D5
331
E0
331
E1
331
EC
331
ED
331
F7
331
F8
331
102
331
103
331
10E
331
10F
331
11A
331
11B
331
126
331
127
331
132
331
133
331
13E
331
13F
331
14A
331
14B
331
156
331
157
331
162
331
163
331
16E
331
16F
331
179
331
17A
331
183
331
184
331
18D
331
18E
331
198
331
199
331
1A3
331
1A4
331
1AF
331
1B0
331
1BB
331
1C4
331
1C5
331
1D1
331
1D2
331
1DE
331
1DF
331
1EB
331
1EC
331
1F5
331
1F6
102
}
  0
BLOCK_RECORD
  5
54
330
1
100
AcDbSymbolTableRecord
100
AcDbBlockTableRecord
  2
*D2
340
0
  0
BLOCK_RECORD
  5
60
330
1
100
AcDbSymbolTableRecord
100
AcDbBlockTableRecord
  2
*D3
340
0
  0
BLOCK_RECORD
  5
6B
330
1
100
AcDbSymbolTableRecord
100
AcDbBlockTableRecord
  2
*D4
340
0
  0
BLOCK_RECORD
  5
77
330
1
100
AcDbSymbolTableRecord
100
AcDbBlockTableRecord
  2
*D5
340
0
  0
BLOCK_RECORD
  5
83
330
1
100
AcDbSymbolTableRecord
100
AcDbBlockTableRecord
  2
*D6
340
0
  0
BLOCK_RECORD
  5
8F
330
1
100
AcDbSymbolTableRecord
100
AcDbBlockTableRecord
  2
*D7
340
0
  0
BLOCK_RECORD
  5
97
330
1
100
AcDbSymbolTableRecord
100
AcDbBlockTableRecord
  2
*D8
340
0
  0
BLOCK_RECORD
  5
A4
330
1
100
AcDbSymbolTableRecord
100
AcDbBlockTableRecord
  2
*D9
340
0
  0
BLOCK_RECORD
  5
AF
330
1
100
AcDbSymbolTableRecord
100
AcDbBlockTableRecord
  2
*D10
340
0
  0
BLOCK_RECORD
  5
BA
330
1
100
AcDbSymbolTableRecord
100
AcDbBlockTableRecord
  2
*D11
340
0
  0
BLOCK_RECORD
  5
C5
330
1
100
AcDbSymbolTableRecord
100
AcDbBlockTableRecord
  2
*D12
340
0
  0
BLOCK_RECORD
  5
D1
330
1
100
AcDbSymbolTableRecord
100
AcDbBlockTableRecord
  2
*D13
340
0
  0
BLOCK_RECORD
  5
DD
330
1
100
AcDbSymbolTableRecord
100
AcDbBlockTableRecord
  2
*D14
340
0
  0
BLOCK_RECORD
  5
E9
330
1
100
AcDbSymbolTableRecord
100
AcDbBlockTableRecord
  2
*D15
340
0
  0
BLOCK_RECORD
  5
F4
330
1
100
AcDbSymbolTableRecord
100
AcDbBlockTableRecord
  2
*D16
340
0
  0
BLOCK_RECORD
  5
FF
330
1
100
AcDbSymbolTableRecord
100
AcDbBlockTableRecord
  2
*D17
340
0
  0
BLOCK_RECORD
  5
10B
330
1
100
AcDbSymbolTableRecord
100
AcDbBlockTableRecord
  2
*D18
340
0
  0
BLOCK_RECORD
  5
117
330
1
100
AcDbSymbolTableRecord
100
AcDbBlockTableRecord
  2
*D19
340
0
  0
BLOCK_RECORD
  5
122
330
1
100
AcDbSymbolTableRecord
100
AcDbBlockTableRecord
  2
*D20
340
0
  0
BLOCK_RECORD
  5
12F
330
1
100
AcDbSymbolTableRecord
100
AcDbBlockTableRecord
  2
*D21
340
0
  0
BLOCK_RECORD
  5
13B
330
1
100
AcDbSymbolTableRecord
100
AcDbBlockTableRecord
  2
*D22
340
0
  0
BLOCK_RECORD
  5
146
330
1
100
AcDbSymbolTableRecord
100
AcDbBlockTableRecord
  2
*D23
340
0
  0
BLOCK_RECORD
  5
152
330
1
100
AcDbSymbolTableRecord
100
AcDbBlockTableRecord
  2
*D24
340
0
  0
BLOCK_RECORD
  5
15F
330
1
100
AcDbSymbolTableRecord
100
AcDbBlockTableRecord
  2
*D25
340
0
  0
BLOCK_RECORD
  5
16B
330
1
100
AcDbSymbolTableRecord
100
AcDbBlockTableRecord
  2
*D26
340
0
  0
BLOCK_RECORD
  5
176
330
1
100
AcDbSymbolTableRecord
100
AcDbBlockTableRecord
  2
*D27
340
0
  0
BLOCK_RECORD
  5
180
330
1
100
AcDbSymbolTableRecord
100
AcDbBlockTableRecord
  2
*D28
340
0
  0
BLOCK_RECORD
  5
18A
330
1
100
AcDbSymbolTableRecord
100
AcDbBlockTableRecord
  2
*D29
340
0
  0
BLOCK_RECORD
  5
195
330
1
100
AcDbSymbolTableRecord
100
AcDbBlockTableRecord
  2
*D30
340
0
  0
BLOCK_RECORD
  5
1A0
330
1
100
AcDbSymbolTableRecord
100
AcDbBlockTableRecord
  2
*D31
340
0
  0
BLOCK_RECORD
  5
1AC
330
1
100
AcDbSymbolTableRecord
100
AcDbBlockTableRecord
  2
*D32
340
0
  0
BLOCK_RECORD
  5
1B7
330
1
100
AcDbSymbolTableRecord
100
AcDbBlockTableRecord
  2
*D33
340
0
  0
BLOCK_RECORD
  5
1C1
330
1
100
AcDbSymbolTableRecord
100
AcDbBlockTableRecord
  2
*D34
340
0
  0
BLOCK_RECORD
  5
1CD
330
1
100
AcDbSymbolTableRecord
100
AcDbBlockTableRecord
  2
*D35
340
0
  0
BLOCK_RECORD
  5
1DA
330
1
100
AcDbSymbolTableRecord
100
AcDbBlockTableRecord
  2
*D36
340
0
  0
BLOCK_RECORD
  5
1E7
330
1
100
AcDbSymbolTableRecord
100
AcDbBlockTableRecord
  2
*D37
340
0
  0
BLOCK_RECORD
  5
1F2
330
1
100
AcDbSymbolTableRecord
100
AcDbBlockTableRecord
  2
*D38
340
0
  0
BLOCK_RECORD
  5
1FE
330
1
100
AcDbSymbolTableRecord
100
AcDbBlockTableRecord
  2
KOZU0001
340
0
102
{BLKREFS
331
4DB
102
}
  0
BLOCK_RECORD
  5
204
330
1
100
AcDbSymbolTableRecord
100
AcDbBlockTableRecord
  2
KOZU0002
340
0
102
{BLKREFS
331
4DC
102
}
  0
BLOCK_RECORD
  5
20C
330
1
100
AcDbSymbolTableRecord
100
AcDbBlockTableRecord
  2
KOZU0003
340
0
102
{BLKREFS
331
4F8
102
}
  0
BLOCK_RECORD
  5
591
330
1
100
AcDbSymbolTableRecord
100
AcDbBlockTableRecord
  2
GENAXEH
340
0
  0
ENDTAB
  0
ENDSEC
  0
SECTION
  2
BLOCKS
  0
BLOCK
  5
37
330
36
100
AcDbEntity
  8
0
100
AcDbBlockBegin
  2
*Model_Space
 70
     0
 10
0.0
 20
0.0
 30
0.0
  3
*Model_Space
  1

  0
ENDBLK
  5
38
330
36
100
AcDbEntity
  8
0
100
AcDbBlockEnd
  0
BLOCK
  5
33
330
32
100
AcDbEntity
 67
     1
  8
0
100
AcDbBlockBegin
  2
*Paper_Space
 70
     0
 10
0.0
 20
0.0
 30
0.0
  3
*Paper_Space
  1

  0
ENDBLK
  5
34
330
32
100
AcDbEntity
 67
     1
  8
0
100
AcDbBlockEnd
  0
BLOCK
  5
47
330
46
100
AcDbEntity
  8
0
100
AcDbBlockBegin
  2
_OPEN
 70
     0
 10
0.0
 20
0.0
 30
0.0
  3
_OPEN
  1

  0
LINE
  5
48
330
46
100
AcDbEntity
  8
0
  6
ByBlock
 62
     0
100
AcDbLine
 10
0.0
 20
0.0
 30
0.0
 11
-3.128
 21
-0.56199999
 31
0.0
  0
LINE
  5
49
330
46
100
AcDbEntity
  8
0
  6
ByBlock
 62
     0
100
AcDbLine
 10
0.0
 20
0.0
 30
0.0
 11
-3.128
 21
0.56199999
 31
0.0
  0
LINE
  5
4A
330
46
100
AcDbEntity
  8
0
  6
ByBlock
 62
     0
100
AcDbLine
 10
0.0
 20
0.0
 30
0.0
 11
-3.0
 21
0.0
 31
0.0
  0
ENDBLK
  5
4B
330
46
100
AcDbEntity
  8
0
100
AcDbBlockEnd
  0
BLOCK
  5
4D
330
4C
100
AcDbEntity
  8
0
100
AcDbBlockBegin
  2
_DOT
 70
     0
 10
0.0
 20
0.0
 30
0.0
  3
_DOT
  1

  0
POLYLINE
  5
4E
330
4C
100
AcDbEntity
  8
0
  6
ByBlock
 62
     0
100
AcDb2dPolyline
 66
     1
 10
0.0
 20
0.0
 30
0.0
 70
     1
 40
0.4000000100000001
 41
0.4000000100000001
  0
VERTEX
  5
4F
330
4E
100
AcDbEntity
  8
0
  6
ByBlock
 62
     0
100
AcDbVertex
100
AcDb2dVertex
 10
-0.2
 20
0.0
 30
0.0
 42
1.0
  0
VERTEX
  5
50
330
4E
100
AcDbEntity
  8
0
  6
ByBlock
 62
     0
100
AcDbVertex
100
AcDb2dVertex
 10
0.2
 20
0.0
 30
0.0
 42
1.0
  0
SEQEND
  5
51
330
4E
100
AcDbEntity
  8
0
  6
ByBlock
 62
     0
  0
LINE
  5
52
330
4C
100
AcDbEntity
  8
0
  6
ByBlock
 62
     0
100
AcDbLine
 10
-0.4000000100000001
 20
0.0
 30
0.0
 11
-3.0
 21
0.0
 31
0.0
  0
ENDBLK
  5
53
330
4C
100
AcDbEntity
  8
0
100
AcDbBlockEnd
  0
BLOCK
  5
55
330
54
100
AcDbEntity
  8
0
100
AcDbBlockBegin
  2
*D2
 70
     1
 10
0.0
 20
0.0
 30
0.0
  3
*D2
  1

  0
LINE
  5
56
330
54
100
AcDbEntity
  8
0
  6
Continuous
 62
     7
100
AcDbLine
 10
-60.48260500000001
 20
84.591095
 30
0.0
 11
-52.482605
 21
84.591095
 31
0.0
  0
INSERT
  5
57
330
54
100
AcDbEntity
  8
0
  6
Continuous
 62
     7
100
AcDbBlockReference
  2
_DOT
 10
-60.48260500000001
 20
84.591095
 30
0.0
 50
180.0
  0
INSERT
  5
58
330
54
100
AcDbEntity
  8
0
  6
Continuous
 62
     7
100
AcDbBlockReference
  2
_DOT
 10
-52.482605
 20
84.591095
 30
0.0
  0
LINE
  5
59
330
54
100
AcDbEntity
  8
0
  6
Continuous
 62
     7
100
AcDbLine
 10
-60.48260500000001
 20
101.5511
 30
0.0
 11
-60.48260500000001
 21
83.39109800000001
 31
0.0
  0
LINE
  5
5A
330
54
100
AcDbEntity
  8
0
  6
Continuous
 62
     7
100
AcDbLine
 10
-52.482605
 20
99.55109499999998
 30
0.0
 11
-52.482605
 21
83.39109800000001
 31
0.0
  0
TEXT
  5
5B
330
54
100
AcDbEntity
  8
0
  6
Continuous
 62
     7
100
AcDbText
 10
-57.62560500000001
 20
85.391095
 30
0.0
 40
3.2
  1
8
100
AcDbText
  0
POINT
  5
5C
330
54
100
AcDbEntity
  8
DEFPOINTS
  6
Continuous
 62
     7
100
AcDbPoint
 10
-60.48260500000001
 20
104.09109
 30
0.0
  0
POINT
  5
5D
330
54
100
AcDbEntity
  8
DEFPOINTS
  6
Continuous
 62
     7
100
AcDbPoint
 10
-52.482605
 20
102.09109
 30
0.0
  0
POINT
  5
5E
330
54
100
AcDbEntity
  8
DEFPOINTS
  6
Continuous
 62
     7
100
AcDbPoint
 10
-52.482605
 20
84.591095
 30
0.0
  0
ENDBLK
  5
5F
330
54
100
AcDbEntity
  8
0
100
AcDbBlockEnd
  0
BLOCK
  5
61
330
60
100
AcDbEntity
  8
0
100
AcDbBlockBegin
  2
*D3
 70
     1
 10
0.0
 20
0.0
 30
0.0
  3
*D3
  1

  0
LINE
  5
62
330
60
100
AcDbEntity
  8
0
  6
Continuous
 62
     7
100
AcDbLine
 10
155.5174
 20
84.591095
 30
0.0
 11
147.5174
 21
84.591095
 31
0.0
  0
INSERT
  5
63
330
60
100
AcDbEntity
  8
0
  6
Continuous
 62
     7
100
AcDbBlockReference
  2
_DOT
 10
155.5174
 20
84.591095
 30
0.0
  0
INSERT
  5
64
330
60
100
AcDbEntity
  8
0
  6
Continuous
 62
     7
100
AcDbBlockReference
  2
_DOT
 10
147.5174
 20
84.591095
 30
0.0
 50
180.0
  0
LINE
  5
65
330
60
100
AcDbEntity
  8
0
  6
Continuous
 62
     7
100
AcDbLine
 10
147.5174
 20
101.0511
 30
0.0
 11
147.5174
 21
83.39109800000001
 31
0.0
  0
TEXT
  5
66
330
60
100
AcDbEntity
  8
0
  6
Continuous
 62
     7
100
AcDbText
 10
150.3744
 20
85.391095
 30
0.0
 40
3.2
  1
8
100
AcDbText
  0
POINT
  5
67
330
60
100
AcDbEntity
  8
DEFPOINTS
  6
Continuous
 62
     7
100
AcDbPoint
 10
155.5174
 20
104.09109
 30
0.0
  0
POINT
  5
68
330
60
100
AcDbEntity
  8
DEFPOINTS
  6
Continuous
 62
     7
100
AcDbPoint
 10
147.5174
 20
103.59109
 30
0.0
  0
POINT
  5
69
330
60
100
AcDbEntity
  8
DEFPOINTS
  6
Continuous
 62
     7
100
AcDbPoint
 10
147.5174
 20
84.591095
 30
0.0
  0
ENDBLK
  5
6A
330
60
100
AcDbEntity
  8
0
100
AcDbBlockEnd
  0
BLOCK
  5
6C
330
6B
100
AcDbEntity
  8
0
100
AcDbBlockBegin
  2
*D4
 70
     1
 10
0.0
 20
0.0
 30
0.0
  3
*D4
  1

  0
LINE
  5
6D
330
6B
100
AcDbEntity
  8
0
  6
Continuous
 62
     7
100
AcDbLine
 10
-60.48260500000001
 20
74.591095
 30
0.0
 11
155.5174
 21
74.591095
 31
0.0
  0
INSERT
  5
6E
330
6B
100
AcDbEntity
  8
0
  6
Continuous
 62
     7
100
AcDbBlockReference
  2
_DOT
 10
-60.48260500000001
 20
74.591095
 30
0.0
 50
180.0
  0
INSERT
  5
6F
330
6B
100
AcDbEntity
  8
0
  6
Continuous
 62
     7
100
AcDbBlockReference
  2
_DOT
 10
155.5174
 20
74.591095
 30
0.0
  0
LINE
  5
70
330
6B
100
AcDbEntity
  8
0
  6
Continuous
 62
     7
100
AcDbLine
 10
-60.48260500000001
 20
101.5511
 30
0.0
 11
-60.48260500000001
 21
73.391098
 31
0.0
  0
LINE
  5
71
330
6B
100
AcDbEntity
  8
0
  6
Continuous
 62
     7
100
AcDbLine
 10
155.5174
 20
101.5511
 30
0.0
 11
155.5174
 21
73.391098
 31
0.0
  0
TEXT
  5
72
330
6B
100
AcDbEntity
  8
0
  6
Continuous
 62
     7
100
AcDbText
 10
46.374395
 20
75.39109499999999
 30
0.0
 40
3.2
  1
L
100
AcDbText
  0
POINT
  5
73
330
6B
100
AcDbEntity
  8
DEFPOINTS
  6
Continuous
 62
     7
100
AcDbPoint
 10
-60.48260500000001
 20
104.09109
 30
0.0
  0
POINT
  5
74
330
6B
100
AcDbEntity
  8
DEFPOINTS
  6
Continuous
 62
     7
100
AcDbPoint
 10
155.5174
 20
104.09109
 30
0.0
  0
POINT
  5
75
330
6B
100
AcDbEntity
  8
DEFPOINTS
  6
Continuous
 62
     7
100
AcDbPoint
 10
155.5174
 20
74.591095
 30
0.0
  0
ENDBLK
  5
76
330
6B
100
AcDbEntity
  8
0
100
AcDbBlockEnd
  0
BLOCK
  5
78
330
77
100
AcDbEntity
  8
0
100
AcDbBlockBegin
  2
*D5
 70
     1
 10
0.0
 20
0.0
 30
0.0
  3
*D5
  1

  0
LINE
  5
79
330
77
100
AcDbEntity
  8
0
  6
Continuous
 62
     7
100
AcDbLine
 10
-62.482605
 20
74.591095
 30
0.0
 11
-68.217888
 21
74.591095
 31
0.0
  0
LINE
  5
7A
330
77
100
AcDbEntity
  8
0
  6
Continuous
 62
     7
100
AcDbLine
 10
-60.48260500000001
 20
74.591095
 30
0.0
 11
-62.482605
 21
74.591095
 31
0.0
  0
INSERT
  5
7B
330
77
100
AcDbEntity
  8
0
  6
Continuous
 62
     7
100
AcDbBlockReference
  2
_DOT
 10
-60.48260500000001
 20
74.591095
 30
0.0
  0
INSERT
  5
7C
330
77
100
AcDbEntity
  8
0
  6
Continuous
 62
     7
100
AcDbBlockReference
  2
_DOT
 10
-62.482605
 20
74.591095
 30
0.0
 50
180.0
  0
LINE
  5
7D
330
77
100
AcDbEntity
  8
0
  6
Continuous
 62
     7
100
AcDbLine
 10
-62.482605
 20
102.5511
 30
0.0
 11
-62.482605
 21
73.391098
 31
0.0
  0
TEXT
  5
7E
330
77
100
AcDbEntity
  8
0
  6
Continuous
 62
     7
100
AcDbText
 10
-68.21788999999999
 20
75.39109499999999
 30
0.0
 40
3.2
  1
2
100
AcDbText
  0
POINT
  5
7F
330
77
100
AcDbEntity
  8
DEFPOINTS
  6
Continuous
 62
     7
100
AcDbPoint
 10
-60.48260500000001
 20
104.09109
 30
0.0
  0
POINT
  5
80
330
77
100
AcDbEntity
  8
DEFPOINTS
  6
Continuous
 62
     7
100
AcDbPoint
 10
-62.482605
 20
105.09109
 30
0.0
  0
POINT
  5
81
330
77
100
AcDbEntity
  8
DEFPOINTS
  6
Continuous
 62
     7
100
AcDbPoint
 10
-62.482605
 20
74.591095
 30
0.0
  0
ENDBLK
  5
82
330
77
100
AcDbEntity
  8
0
100
AcDbBlockEnd
  0
BLOCK
  5
84
330
83
100
AcDbEntity
  8
0
100
AcDbBlockBegin
  2
*D6
 70
     1
 10
0.0
 20
0.0
 30
0.0
  3
*D6
  1

  0
LINE
  5
85
330
83
100
AcDbEntity
  8
0
  6
Continuous
 62
     7
100
AcDbLine
 10
157.5174
 20
74.591095
 30
0.0
 11
162.68936
 21
74.591095
 31
0.0
  0
LINE
  5
86
330
83
100
AcDbEntity
  8
0
  6
Continuous
 62
     7
100
AcDbLine
 10
155.5174
 20
74.591095
 30
0.0
 11
157.5174
 21
74.591095
 31
0.0
  0
INSERT
  5
87
330
83
100
AcDbEntity
  8
0
  6
Continuous
 62
     7
100
AcDbBlockReference
  2
_DOT
 10
155.5174
 20
74.591095
 30
0.0
 50
180.0
  0
INSERT
  5
88
330
83
100
AcDbEntity
  8
0
  6
Continuous
 62
     7
100
AcDbBlockReference
  2
_DOT
 10
157.5174
 20
74.591095
 30
0.0
  0
LINE
  5
89
330
83
100
AcDbEntity
  8
0
  6
Continuous
 62
     7
100
AcDbLine
 10
157.5174
 20
102.5511
 30
0.0
 11
157.5174
 21
73.391098
 31
0.0
  0
TEXT
  5
8A
330
83
100
AcDbEntity
  8
0
  6
Continuous
 62
     7
100
AcDbText
 10
160.40336
 20
75.39109499999999
 30
0.0
 40
3.2
  1
2
100
AcDbText
  0
POINT
  5
8B
330
83
100
AcDbEntity
  8
DEFPOINTS
  6
Continuous
 62
     7
100
AcDbPoint
 10
155.5174
 20
104.09109
 30
0.0
  0
POINT
  5
8C
330
83
100
AcDbEntity
  8
DEFPOINTS
  6
Continuous
 62
     7
100
AcDbPoint
 10
157.5174
 20
105.09109
 30
0.0
  0
POINT
  5
8D
330
83
100
AcDbEntity
  8
DEFPOINTS
  6
Continuous
 62
     7
100
AcDbPoint
 10
157.5174
 20
74.591095
 30
0.0
  0
ENDBLK
  5
8E
330
83
100
AcDbEntity
  8
0
100
AcDbBlockEnd
  0
BLOCK
  5
90
330
8F
100
AcDbEntity
  8
0
100
AcDbBlockBegin
  2
*D7
 70
     1
 10
0.0
 20
0.0
 30
0.0
  3
*D7
  1

  0
LINE
  5
91
330
8F
100
AcDbEntity
  8
0
  6
Continuous
 62
     7
100
AcDbLine
 10
47.003307
 20
115.07504
 30
0.0
 11
44.031483
 21
112.10716
 31
0.0
  0
INSERT
  5
92
330
8F
100
AcDbEntity
  8
0
  6
Continuous
 62
     7
100
AcDbBlockReference
  2
_DOT
 10
47.003307
 20
115.07504
 30
0.0
 50
44.961878
  0
INSERT
  5
93
330
8F
100
AcDbEntity
  8
0
  6
Continuous
 62
     7
100
AcDbBlockReference
  2
_DOT
 10
44.031483
 20
112.10716
 30
0.0
 50
224.96188
  0
POINT
  5
94
330
8F
100
AcDbEntity
  8
DEFPOINTS
  6
Continuous
 62
     7
100
AcDbPoint
 10
47.003307
 20
115.07504
 30
0.0
  0
POINT
  5
95
330
8F
100
AcDbEntity
  8
DEFPOINTS
  6
Continuous
 62
     7
100
AcDbPoint
 10
44.031483
 20
112.10716
 30
0.0
  0
ENDBLK
  5
96
330
8F
100
AcDbEntity
  8
0
100
AcDbBlockEnd
  0
BLOCK
  5
98
330
97
100
AcDbEntity
  8
0
100
AcDbBlockBegin
  2
*D8
 70
     1
 10
0.0
 20
0.0
 30
0.0
  3
*D8
  1

  0
LINE
  5
99
330
97
100
AcDbEntity
  8
0
  6
Continuous
 62
     7
100
AcDbLine
 10
-5.982603099999999
 20
-25.408905
 30
0.0
 11
-16.281698
 21
-25.408905
 31
0.0
  0
LINE
  5
9A
330
97
100
AcDbEntity
  8
0
  6
Continuous
 62
     7
100
AcDbLine
 10
-0.4826030700000001
 20
-25.408905
 30
0.0
 11
-5.982603099999999
 21
-25.408905
 31
0.0
  0
INSERT
  5
9B
330
97
100
AcDbEntity
  8
0
  6
Continuous
 62
     7
100
AcDbBlockReference
  2
_DOT
 10
-0.4826030700000001
 20
-25.408905
 30
0.0
  0
INSERT
  5
9C
330
97
100
AcDbEntity
  8
0
  6
Continuous
 62
     7
100
AcDbBlockReference
  2
_DOT
 10
-5.982603099999999
 20
-25.408905
 30
0.0
 50
180.0
  0
LINE
  5
9D
330
97
100
AcDbEntity
  8
0
  6
Continuous
 62
     7
100
AcDbLine
 10
-0.4826030700000001
 20
-20.032203
 30
0.0
 11
-0.4826030700000001
 21
-26.608904
 31
0.0
  0
LINE
  5
9E
330
97
100
AcDbEntity
  8
0
  6
Continuous
 62
     7
100
AcDbLine
 10
-5.982603099999999
 20
-12.948905
 30
0.0
 11
-5.982603099999999
 21
-26.608904
 31
0.0
  0
TEXT
  5
9F
330
97
100
AcDbEntity
  8
0
  6
Continuous
 62
     7
100
AcDbText
 10
-16.2817
 20
-24.608905
 30
0.0
 40
3.2
  1
5.5
 41
1.357187499999999
100
AcDbText
  0
POINT
  5
A0
330
97
100
AcDbEntity
  8
DEFPOINTS
  6
Continuous
 62
     7
100
AcDbPoint
 10
-0.4826030700000001
 20
-17.492203
 30
0.0
  0
POINT
  5
A1
330
97
100
AcDbEntity
  8
DEFPOINTS
  6
Continuous
 62
     7
100
AcDbPoint
 10
-5.982603099999999
 20
-10.408905
 30
0.0
  0
POINT
  5
A2
330
97
100
AcDbEntity
  8
DEFPOINTS
  6
Continuous
 62
     7
100
AcDbPoint
 10
-5.982603099999999
 20
-25.408905
 30
0.0
  0
ENDBLK
  5
A3
330
97
100
AcDbEntity
  8
0
100
AcDbBlockEnd
  0
BLOCK
  5
A5
330
A4
100
AcDbEntity
  8
0
100
AcDbBlockBegin
  2
*D9
 70
     1
 10
0.0
 20
0.0
 30
0.0
  3
*D9
  1

  0
LINE
  5
A6
330
A4
100
AcDbEntity
  8
0
  6
Continuous
 62
     7
100
AcDbLine
 10
-0.4826030700000001
 20
-25.408905
 30
0.0
 11
9.517396899999999
 21
-25.408905
 31
0.0
  0
INSERT
  5
A7
330
A4
100
AcDbEntity
  8
0
  6
Continuous
 62
     7
100
AcDbBlockReference
  2
_DOT
 10
-0.4826030700000001
 20
-25.408905
 30
0.0
 50
180.0
  0
INSERT
  5
A8
330
A4
100
AcDbEntity
  8
0
  6
Continuous
 62
     7
100
AcDbBlockReference
  2
_DOT
 10
9.517396899999999
 20
-25.408905
 30
0.0
  0
LINE
  5
A9
330
A4
100
AcDbEntity
  8
0
  6
Continuous
 62
     7
100
AcDbLine
 10
9.517396899999999
 20
-20.032203
 30
0.0
 11
9.517396899999999
 21
-26.608904
 31
0.0
  0
TEXT
  5
AA
330
A4
100
AcDbEntity
  8
0
  6
Continuous
 62
     7
100
AcDbText
 10
1.774396899999999
 20
-24.608905
 30
0.0
 40
3.2
  1
10
 41
1.402670399999999
100
AcDbText
  0
POINT
  5
AB
330
A4
100
AcDbEntity
  8
DEFPOINTS
  6
Continuous
 62
     7
100
AcDbPoint
 10
-0.4826030700000001
 20
-17.492203
 30
0.0
  0
POINT
  5
AC
330
A4
100
AcDbEntity
  8
DEFPOINTS
  6
Continuous
 62
     7
100
AcDbPoint
 10
9.517396899999999
 20
-17.492203
 30
0.0
  0
POINT
  5
AD
330
A4
100
AcDbEntity
  8
DEFPOINTS
  6
Continuous
 62
     7
100
AcDbPoint
 10
9.517396899999999
 20
-25.408905
 30
0.0
  0
ENDBLK
  5
AE
330
A4
100
AcDbEntity
  8
0
100
AcDbBlockEnd
  0
BLOCK
  5
B0
330
AF
100
AcDbEntity
  8
0
100
AcDbBlockBegin
  2
*D10
 70
     1
 10
0.0
 20
0.0
 30
0.0
  3
*D10
  1

  0
LINE
  5
B1
330
AF
100
AcDbEntity
  8
0
  6
Continuous
 62
     7
100
AcDbLine
 10
9.517396899999999
 20
-25.408905
 30
0.0
 11
45.517395
 21
-25.408905
 31
0.0
  0
INSERT
  5
B2
330
AF
100
AcDbEntity
  8
0
  6
Continuous
 62
     7
100
AcDbBlockReference
  2
_DOT
 10
9.517396899999999
 20
-25.408905
 30
0.0
 50
180.0
  0
INSERT
  5
B3
330
AF
100
AcDbEntity
  8
0
  6
Continuous
 62
     7
100
AcDbBlockReference
  2
_DOT
 10
45.517395
 20
-25.408905
 30
0.0
  0
LINE
  5
B4
330
AF
100
AcDbEntity
  8
0
  6
Continuous
 62
     7
100
AcDbLine
 10
45.517395
 20
-20.032203
 30
0.0
 11
45.517395
 21
-26.608904
 31
0.0
  0
TEXT
  5
B5
330
AF
100
AcDbEntity
  8
0
  6
Continuous
 62
     7
100
AcDbText
 10
24.774397
 20
-24.608905
 30
0.0
 40
3.2
  1
36
 41
1.028624999999999
100
AcDbText
  0
POINT
  5
B6
330
AF
100
AcDbEntity
  8
DEFPOINTS
  6
Continuous
 62
     7
100
AcDbPoint
 10
9.517396899999999
 20
-17.492203
 30
0.0
  0
POINT
  5
B7
330
AF
100
AcDbEntity
  8
DEFPOINTS
  6
Continuous
 62
     7
100
AcDbPoint
 10
45.517395
 20
-17.492203
 30
0.0
  0
POINT
  5
B8
330
AF
100
AcDbEntity
  8
DEFPOINTS
  6
Continuous
 62
     7
100
AcDbPoint
 10
45.517395
 20
-25.408905
 30
0.0
  0
ENDBLK
  5
B9
330
AF
100
AcDbEntity
  8
0
100
AcDbBlockEnd
  0
BLOCK
  5
BB
330
BA
100
AcDbEntity
  8
0
100
AcDbBlockBegin
  2
*D11
 70
     1
 10
0.0
 20
0.0
 30
0.0
  3
*D11
  1

  0
LINE
  5
BC
330
BA
100
AcDbEntity
  8
0
  6
Continuous
 62
     7
100
AcDbLine
 10
45.517395
 20
-25.408905
 30
0.0
 11
55.517395
 21
-25.408905
 31
0.0
  0
INSERT
  5
BD
330
BA
100
AcDbEntity
  8
0
  6
Continuous
 62
     7
100
AcDbBlockReference
  2
_DOT
 10
45.517395
 20
-25.408905
 30
0.0
 50
180.0
  0
INSERT
  5
BE
330
BA
100
AcDbEntity
  8
0
  6
Continuous
 62
     7
100
AcDbBlockReference
  2
_DOT
 10
55.517395
 20
-25.408905
 30
0.0
  0
LINE
  5
BF
330
BA
100
AcDbEntity
  8
0
  6
Continuous
 62
     7
100
AcDbLine
 10
55.517395
 20
-20.032203
 30
0.0
 11
55.517395
 21
-26.608904
 31
0.0
  0
TEXT
  5
C0
330
BA
100
AcDbEntity
  8
0
  6
Continuous
 62
     7
100
AcDbText
 10
47.77439499999999
 20
-24.608905
 30
0.0
 40
3.2
  1
10
 41
1.402670399999999
100
AcDbText
  0
POINT
  5
C1
330
BA
100
AcDbEntity
  8
DEFPOINTS
  6
Continuous
 62
     7
100
AcDbPoint
 10
45.517395
 20
-17.492203
 30
0.0
  0
POINT
  5
C2
330
BA
100
AcDbEntity
  8
DEFPOINTS
  6
Continuous
 62
     7
100
AcDbPoint
 10
55.517395
 20
-17.492203
 30
0.0
  0
POINT
  5
C3
330
BA
100
AcDbEntity
  8
DEFPOINTS
  6
Continuous
 62
     7
100
AcDbPoint
 10
55.517395
 20
-25.408905
 30
0.0
  0
ENDBLK
  5
C4
330
BA
100
AcDbEntity
  8
0
100
AcDbBlockEnd
  0
BLOCK
  5
C6
330
C5
100
AcDbEntity
  8
0
100
AcDbBlockBegin
  2
*D12
 70
     1
 10
0.0
 20
0.0
 30
0.0
  3
*D12
  1

  0
LINE
  5
C7
330
C5
100
AcDbEntity
  8
0
  6
Continuous
 62
     7
100
AcDbLine
 10
61.01739499999999
 20
-25.408905
 30
0.0
 11
71.205162
 21
-25.408905
 31
0.0
  0
LINE
  5
C8
330
C5
100
AcDbEntity
  8
0
  6
Continuous
 62
     7
100
AcDbLine
 10
55.517395
 20
-25.408905
 30
0.0
 11
61.01739499999999
 21
-25.408905
 31
0.0
  0
INSERT
  5
C9
330
C5
100
AcDbEntity
  8
0
  6
Continuous
 62
     7
100
AcDbBlockReference
  2
_DOT
 10
55.517395
 20
-25.408905
 30
0.0
 50
180.0
  0
INSERT
  5
CA
330
C5
100
AcDbEntity
  8
0
  6
Continuous
 62
     7
100
AcDbBlockReference
  2
_DOT
 10
61.01739499999999
 20
-25.408905
 30
0.0
  0
LINE
  5
CB
330
C5
100
AcDbEntity
  8
0
  6
Continuous
 62
     7
100
AcDbLine
 10
61.01739499999999
 20
-12.948905
 30
0.0
 11
61.01739499999999
 21
-26.608904
 31
0.0
  0
TEXT
  5
CC
330
C5
100
AcDbEntity
  8
0
  6
Continuous
 62
     7
100
AcDbText
 10
62.519167
 20
-24.608905
 30
0.0
 40
3.2
  1
5.5
 41
1.357187499999999
100
AcDbText
  0
POINT
  5
CD
330
C5
100
AcDbEntity
  8
DEFPOINTS
  6
Continuous
 62
     7
100
AcDbPoint
 10
55.517395
 20
-17.492203
 30
0.0
  0
POINT
  5
CE
330
C5
100
AcDbEntity
  8
DEFPOINTS
  6
Continuous
 62
     7
100
AcDbPoint
 10
61.01739499999999
 20
-10.408905
 30
0.0
  0
POINT
  5
CF
330
C5
100
AcDbEntity
  8
DEFPOINTS
  6
Continuous
 62
     7
100
AcDbPoint
 10
61.01739499999999
 20
-25.408905
 30
0.0
  0
ENDBLK
  5
D0
330
C5
100
AcDbEntity
  8
0
100
AcDbBlockEnd
  0
BLOCK
  5
D2
330
D1
100
AcDbEntity
  8
0
100
AcDbBlockBegin
  2
*D13
 70
     1
 10
0.0
 20
0.0
 30
0.0
  3
*D13
  1

  0
LINE
  5
D3
330
D1
100
AcDbEntity
  8
0
  6
Continuous
 62
     7
100
AcDbLine
 10
61.01739499999999
 20
-35.408905
 30
0.0
 11
-5.982603099999999
 21
-35.408905
 31
0.0
  0
INSERT
  5
D4
330
D1
100
AcDbEntity
  8
0
  6
Continuous
 62
     7
100
AcDbBlockReference
  2
_DOT
 10
61.01739499999999
 20
-35.408905
 30
0.0
  0
INSERT
  5
D5
330
D1
100
AcDbEntity
  8
0
  6
Continuous
 62
     7
100
AcDbBlockReference
  2
_DOT
 10
-5.982603099999999
 20
-35.408905
 30
0.0
 50
180.0
  0
LINE
  5
D6
330
D1
100
AcDbEntity
  8
0
  6
Continuous
 62
     7
100
AcDbLine
 10
61.01739499999999
 20
-12.948905
 30
0.0
 11
61.01739499999999
 21
-36.608906
 31
0.0
  0
LINE
  5
D7
330
D1
100
AcDbEntity
  8
0
  6
Continuous
 62
     7
100
AcDbLine
 10
-5.982603099999999
 20
-12.948905
 30
0.0
 11
-5.982603099999999
 21
-36.608906
 31
0.0
  0
TEXT
  5
D8
330
D1
100
AcDbEntity
  8
0
  6
Continuous
 62
     7
100
AcDbText
 10
24.774397
 20
-34.608905
 30
0.0
 40
3.2
  1
67
 41
1.028624999999999
100
AcDbText
  0
POINT
  5
D9
330
D1
100
AcDbEntity
  8
DEFPOINTS
  6
Continuous
 62
     7
100
AcDbPoint
 10
61.01739499999999
 20
-10.408905
 30
0.0
  0
POINT
  5
DA
330
D1
100
AcDbEntity
  8
DEFPOINTS
  6
Continuous
 62
     7
100
AcDbPoint
 10
-5.982603099999999
 20
-10.408905
 30
0.0
  0
POINT
  5
DB
330
D1
100
AcDbEntity
  8
DEFPOINTS
  6
Continuous
 62
     7
100
AcDbPoint
 10
-5.982603099999999
 20
-35.408905
 30
0.0
  0
ENDBLK
  5
DC
330
D1
100
AcDbEntity
  8
0
100
AcDbBlockEnd
  0
BLOCK
  5
DE
330
DD
100
AcDbEntity
  8
0
100
AcDbBlockBegin
  2
*D14
 70
     1
 10
0.0
 20
0.0
 30
0.0
  3
*D14
  1

  0
LINE
  5
DF
330
DD
100
AcDbEntity
  8
0
  6
Continuous
 62
     7
100
AcDbLine
 10
-27.482605
 20
-25.408905
 30
0.0
 11
-36.482605
 21
-25.408905
 31
0.0
  0
INSERT
  5
E0
330
DD
100
AcDbEntity
  8
0
  6
Continuous
 62
     7
100
AcDbBlockReference
  2
_DOT
 10
-27.482605
 20
-25.408905
 30
0.0
  0
INSERT
  5
E1
330
DD
100
AcDbEntity
  8
0
  6
Continuous
 62
     7
100
AcDbBlockReference
  2
_DOT
 10
-36.482605
 20
-25.408905
 30
0.0
 50
180.0
  0
LINE
  5
E2
330
DD
100
AcDbEntity
  8
0
  6
Continuous
 62
     7
100
AcDbLine
 10
-27.482605
 20
-4.948904699999999
 30
0.0
 11
-27.482605
 21
-26.608904
 31
0.0
  0
LINE
  5
E3
330
DD
100
AcDbEntity
  8
0
  6
Continuous
 62
     7
100
AcDbLine
 10
-36.482605
 20
-5.448904699999999
 30
0.0
 11
-36.482605
 21
-26.608904
 31
0.0
  0
TEXT
  5
E4
330
DD
100
AcDbEntity
  8
0
  6
Continuous
 62
     7
100
AcDbText
 10
-33.125605
 20
-24.608905
 30
0.0
 40
3.2
  1
9
100
AcDbText
  0
POINT
  5
E5
330
DD
100
AcDbEntity
  8
DEFPOINTS
  6
Continuous
 62
     7
100
AcDbPoint
 10
-27.482605
 20
-2.408904799999999
 30
0.0
  0
POINT
  5
E6
330
DD
100
AcDbEntity
  8
DEFPOINTS
  6
Continuous
 62
     7
100
AcDbPoint
 10
-36.482605
 20
-2.908904799999999
 30
0.0
  0
POINT
  5
E7
330
DD
100
AcDbEntity
  8
DEFPOINTS
  6
Continuous
 62
     7
100
AcDbPoint
 10
-36.482605
 20
-25.408905
 30
0.0
  0
ENDBLK
  5
E8
330
DD
100
AcDbEntity
  8
0
100
AcDbBlockEnd
  0
BLOCK
  5
EA
330
E9
100
AcDbEntity
  8
0
100
AcDbBlockBegin
  2
*D15
 70
     1
 10
0.0
 20
0.0
 30
0.0
  3
*D15
  1

  0
LINE
  5
EB
330
E9
100
AcDbEntity
  8
0
  6
Continuous
 62
     7
100
AcDbLine
 10
-36.482605
 20
-25.408905
 30
0.0
 11
-68.48260500000001
 21
-25.408905
 31
0.0
  0
INSERT
  5
EC
330
E9
100
AcDbEntity
  8
0
  6
Continuous
 62
     7
100
AcDbBlockReference
  2
_DOT
 10
-36.482605
 20
-25.408905
 30
0.0
  0
INSERT
  5
ED
330
E9
100
AcDbEntity
  8
0
  6
Continuous
 62
     7
100
AcDbBlockReference
  2
_DOT
 10
-68.48260500000001
 20
-25.408905
 30
0.0
 50
180.0
  0
LINE
  5
EE
330
E9
100
AcDbEntity
  8
0
  6
Continuous
 62
     7
100
AcDbLine
 10
-68.48260500000001
 20
-5.448904699999999
 30
0.0
 11
-68.48260500000001
 21
-26.608904
 31
0.0
  0
TEXT
  5
EF
330
E9
100
AcDbEntity
  8
0
  6
Continuous
 62
     7
100
AcDbText
 10
-55.225605
 20
-24.608905
 30
0.0
 40
3.2
  1
32
 41
1.028624999999999
100
AcDbText
  0
POINT
  5
F0
330
E9
100
AcDbEntity
  8
DEFPOINTS
  6
Continuous
 62
     7
100
AcDbPoint
 10
-36.482605
 20
-2.908904799999999
 30
0.0
  0
POINT
  5
F1
330
E9
100
AcDbEntity
  8
DEFPOINTS
  6
Continuous
 62
     7
100
AcDbPoint
 10
-68.48260500000001
 20
-2.908904799999999
 30
0.0
  0
POINT
  5
F2
330
E9
100
AcDbEntity
  8
DEFPOINTS
  6
Continuous
 62
     7
100
AcDbPoint
 10
-68.48260500000001
 20
-25.408905
 30
0.0
  0
ENDBLK
  5
F3
330
E9
100
AcDbEntity
  8
0
100
AcDbBlockEnd
  0
BLOCK
  5
F5
330
F4
100
AcDbEntity
  8
0
100
AcDbBlockBegin
  2
*D16
 70
     1
 10
0.0
 20
0.0
 30
0.0
  3
*D16
  1

  0
LINE
  5
F6
330
F4
100
AcDbEntity
  8
0
  6
Continuous
 62
     7
100
AcDbLine
 10
-68.48260500000001
 20
-25.408905
 30
0.0
 11
-77.482605
 21
-25.408905
 31
0.0
  0
INSERT
  5
F7
330
F4
100
AcDbEntity
  8
0
  6
Continuous
 62
     7
100
AcDbBlockReference
  2
_DOT
 10
-68.48260500000001
 20
-25.408905
 30
0.0
  0
INSERT
  5
F8
330
F4
100
AcDbEntity
  8
0
  6
Continuous
 62
     7
100
AcDbBlockReference
  2
_DOT
 10
-77.482605
 20
-25.408905
 30
0.0
 50
180.0
  0
LINE
  5
F9
330
F4
100
AcDbEntity
  8
0
  6
Continuous
 62
     7
100
AcDbLine
 10
-77.482605
 20
-4.948904699999999
 30
0.0
 11
-77.482605
 21
-26.608904
 31
0.0
  0
TEXT
  5
FA
330
F4
100
AcDbEntity
  8
0
  6
Continuous
 62
     7
100
AcDbText
 10
-74.12560500000001
 20
-24.608905
 30
0.0
 40
3.2
  1
9
100
AcDbText
  0
POINT
  5
FB
330
F4
100
AcDbEntity
  8
DEFPOINTS
  6
Continuous
 62
     7
100
AcDbPoint
 10
-68.48260500000001
 20
-2.908904799999999
 30
0.0
  0
POINT
  5
FC
330
F4
100
AcDbEntity
  8
DEFPOINTS
  6
Continuous
 62
     7
100
AcDbPoint
 10
-77.482605
 20
-2.408904799999999
 30
0.0
  0
POINT
  5
FD
330
F4
100
AcDbEntity
  8
DEFPOINTS
  6
Continuous
 62
     7
100
AcDbPoint
 10
-77.482605
 20
-25.408905
 30
0.0
  0
ENDBLK
  5
FE
330
F4
100
AcDbEntity
  8
0
100
AcDbBlockEnd
  0
BLOCK
  5
100
330
FF
100
AcDbEntity
  8
0
100
AcDbBlockBegin
  2
*D17
 70
     1
 10
0.0
 20
0.0
 30
0.0
  3
*D17
  1

  0
LINE
  5
101
330
FF
100
AcDbEntity
  8
0
  6
Continuous
 62
     7
100
AcDbLine
 10
-77.482605
 20
-35.408905
 30
0.0
 11
-27.482605
 21
-35.408905
 31
0.0
  0
INSERT
  5
102
330
FF
100
AcDbEntity
  8
0
  6
Continuous
 62
     7
100
AcDbBlockReference
  2
_DOT
 10
-77.482605
 20
-35.408905
 30
0.0
 50
180.0
  0
INSERT
  5
103
330
FF
100
AcDbEntity
  8
0
  6
Continuous
 62
     7
100
AcDbBlockReference
  2
_DOT
 10
-27.482605
 20
-35.408905
 30
0.0
  0
LINE
  5
104
330
FF
100
AcDbEntity
  8
0
  6
Continuous
 62
     7
100
AcDbLine
 10
-77.482605
 20
-4.948904699999999
 30
0.0
 11
-77.482605
 21
-36.608906
 31
0.0
  0
LINE
  5
105
330
FF
100
AcDbEntity
  8
0
  6
Continuous
 62
     7
100
AcDbLine
 10
-27.482605
 20
-4.948904699999999
 30
0.0
 11
-27.482605
 21
-36.608906
 31
0.0
  0
TEXT
  5
106
330
FF
100
AcDbEntity
  8
0
  6
Continuous
 62
     7
100
AcDbText
 10
-55.225605
 20
-34.608905
 30
0.0
 40
3.2
  1
50
 41
1.102098199999999
100
AcDbText
  0
POINT
  5
107
330
FF
100
AcDbEntity
  8
DEFPOINTS
  6
Continuous
 62
     7
100
AcDbPoint
 10
-77.482605
 20
-2.408904799999999
 30
0.0
  0
POINT
  5
108
330
FF
100
AcDbEntity
  8
DEFPOINTS
  6
Continuous
 62
     7
100
AcDbPoint
 10
-27.482605
 20
-2.408904799999999
 30
0.0
  0
POINT
  5
109
330
FF
100
AcDbEntity
  8
DEFPOINTS
  6
Continuous
 62
     7
100
AcDbPoint
 10
-27.482605
 20
-35.408905
 30
0.0
  0
ENDBLK
  5
10A
330
FF
100
AcDbEntity
  8
0
100
AcDbBlockEnd
  0
BLOCK
  5
10C
330
10B
100
AcDbEntity
  8
0
100
AcDbBlockBegin
  2
*D18
 70
     1
 10
0.0
 20
0.0
 30
0.0
  3
*D18
  1

  0
LINE
  5
10D
330
10B
100
AcDbEntity
  8
0
  6
Continuous
 62
     7
100
AcDbLine
 10
-87.482605
 20
-2.408904799999999
 30
0.0
 11
-87.482605
 21
1.591095199999999
 31
0.0
  0
INSERT
  5
10E
330
10B
100
AcDbEntity
  8
0
  6
Continuous
 62
     7
100
AcDbBlockReference
  2
_DOT
 10
-87.482605
 20
-2.408904799999999
 30
0.0
 50
270.0
  0
INSERT
  5
10F
330
10B
100
AcDbEntity
  8
0
  6
Continuous
 62
     7
100
AcDbBlockReference
  2
_DOT
 10
-87.482605
 20
1.591095199999999
 30
0.0
 50
90.0
  0
LINE
  5
110
330
10B
100
AcDbEntity
  8
0
  6
Continuous
 62
     7
100
AcDbLine
 10
-80.022605
 20
-2.408904799999999
 30
0.0
 11
-88.68260199999999
 21
-2.408904799999999
 31
0.0
  0
LINE
  5
111
330
10B
100
AcDbEntity
  8
0
  6
Continuous
 62
     7
100
AcDbLine
 10
-76.044608
 20
1.591095199999999
 30
0.0
 11
-88.68260199999999
 21
1.591095199999999
 31
0.0
  0
TEXT
  5
112
330
10B
100
AcDbEntity
  8
0
  6
Continuous
 62
     7
100
AcDbText
 10
-88.282605
 20
-1.551904899999999
 30
0.0
 40
3.2
  1
4
 50
90.00000300000001
100
AcDbText
  0
POINT
  5
113
330
10B
100
AcDbEntity
  8
DEFPOINTS
  6
Continuous
 62
     7
100
AcDbPoint
 10
-77.482605
 20
-2.408904799999999
 30
0.0
  0
POINT
  5
114
330
10B
100
AcDbEntity
  8
DEFPOINTS
  6
Continuous
 62
     7
100
AcDbPoint
 10
-73.50460799999999
 20
1.591095199999999
 30
0.0
  0
POINT
  5
115
330
10B
100
AcDbEntity
  8
DEFPOINTS
  6
Continuous
 62
     7
100
AcDbPoint
 10
-87.482605
 20
1.591095199999999
 30
0.0
  0
ENDBLK
  5
116
330
10B
100
AcDbEntity
  8
0
100
AcDbBlockEnd
  0
BLOCK
  5
118
330
117
100
AcDbEntity
  8
0
100
AcDbBlockBegin
  2
*D19
 70
     1
 10
0.0
 20
0.0
 30
0.0
  3
*D19
  1

  0
LINE
  5
119
330
117
100
AcDbEntity
  8
0
  6
Continuous
 62
     7
100
AcDbLine
 10
-87.482605
 20
1.591095199999999
 30
0.0
 11
-87.482605
 21
5.591095
 31
0.0
  0
INSERT
  5
11A
330
117
100
AcDbEntity
  8
0
  6
Continuous
 62
     7
100
AcDbBlockReference
  2
_DOT
 10
-87.482605
 20
1.591095199999999
 30
0.0
 50
270.0
  0
INSERT
  5
11B
330
117
100
AcDbEntity
  8
0
  6
Continuous
 62
     7
100
AcDbBlockReference
  2
_DOT
 10
-87.482605
 20
5.591095
 30
0.0
 50
90.0
  0
LINE
  5
11C
330
117
100
AcDbEntity
  8
0
  6
Continuous
 62
     7
100
AcDbLine
 10
-76.044608
 20
5.591095
 30
0.0
 11
-88.68260199999999
 21
5.591095
 31
0.0
  0
TEXT
  5
11D
330
117
100
AcDbEntity
  8
0
  6
Continuous
 62
     7
100
AcDbText
 10
-88.282605
 20
2.4480952
 30
0.0
 40
3.2
  1
4
 50
90.00000300000001
100
AcDbText
  0
POINT
  5
11E
330
117
100
AcDbEntity
  8
DEFPOINTS
  6
Continuous
 62
     7
100
AcDbPoint
 10
-73.50460799999999
 20
1.591095199999999
 30
0.0
  0
POINT
  5
11F
330
117
100
AcDbEntity
  8
DEFPOINTS
  6
Continuous
 62
     7
100
AcDbPoint
 10
-73.50460799999999
 20
5.591095
 30
0.0
  0
POINT
  5
120
330
117
100
AcDbEntity
  8
DEFPOINTS
  6
Continuous
 62
     7
100
AcDbPoint
 10
-87.482605
 20
5.591095
 30
0.0
  0
ENDBLK
  5
121
330
117
100
AcDbEntity
  8
0
100
AcDbBlockEnd
  0
BLOCK
  5
123
330
122
100
AcDbEntity
  8
0
100
AcDbBlockBegin
  2
*D20
 70
     1
 10
0.0
 20
0.0
 30
0.0
  3
*D20
  1

  0
LINE
  5
124
330
122
100
AcDbEntity
  8
0
  6
Continuous
 62
     7
100
AcDbLine
 10
-87.482605
 20
12.591095
 30
0.0
 11
-87.482605
 21
24.251961
 31
0.0
  0
LINE
  5
125
330
122
100
AcDbEntity
  8
0
  6
Continuous
 62
     7
100
AcDbLine
 10
-87.482605
 20
10.091095
 30
0.0
 11
-87.482605
 21
12.591095
 31
0.0
  0
INSERT
  5
126
330
122
100
AcDbEntity
  8
0
  6
Continuous
 62
     7
100
AcDbBlockReference
  2
_DOT
 10
-87.482605
 20
10.091095
 30
0.0
 50
270.0
  0
INSERT
  5
127
330
122
100
AcDbEntity
  8
0
  6
Continuous
 62
     7
100
AcDbBlockReference
  2
_DOT
 10
-87.482605
 20
12.591095
 30
0.0
 50
90.0
  0
LINE
  5
128
330
122
100
AcDbEntity
  8
0
  6
Continuous
 62
     7
100
AcDbLine
 10
-80.022605
 20
10.091095
 30
0.0
 11
-88.68260199999999
 21
10.091095
 31
0.0
  0
LINE
  5
129
330
122
100
AcDbEntity
  8
0
  6
Continuous
 62
     7
100
AcDbLine
 10
-80.022605
 20
12.591095
 30
0.0
 11
-88.68260199999999
 21
12.591095
 31
0.0
  0
TEXT
  5
12A
330
122
100
AcDbEntity
  8
0
  6
Continuous
 62
     7
100
AcDbText
 10
-88.282605
 20
15.56596
 30
0.0
 40
3.2
  1
2.5
 50
90.00000300000001
 41
1.357187499999999
100
AcDbText
  0
POINT
  5
12B
330
122
100
AcDbEntity
  8
DEFPOINTS
  6
Continuous
 62
     7
100
AcDbPoint
 10
-77.482605
 20
10.091095
 30
0.0
  0
POINT
  5
12C
330
122
100
AcDbEntity
  8
DEFPOINTS
  6
Continuous
 62
     7
100
AcDbPoint
 10
-77.482605
 20
12.591095
 30
0.0
  0
POINT
  5
12D
330
122
100
AcDbEntity
  8
DEFPOINTS
  6
Continuous
 62
     7
100
AcDbPoint
 10
-87.482605
 20
12.591095
 30
0.0
  0
ENDBLK
  5
12E
330
122
100
AcDbEntity
  8
0
100
AcDbBlockEnd
  0
BLOCK
  5
130
330
12F
100
AcDbEntity
  8
0
100
AcDbBlockBegin
  2
*D21
 70
     1
 10
0.0
 20
0.0
 30
0.0
  3
*D21
  1

  0
LINE
  5
131
330
12F
100
AcDbEntity
  8
0
  6
Continuous
 62
     7
100
AcDbLine
 10
-97.482605
 20
-2.408904799999999
 30
0.0
 11
-97.482605
 21
12.591095
 31
0.0
  0
INSERT
  5
132
330
12F
100
AcDbEntity
  8
0
  6
Continuous
 62
     7
100
AcDbBlockReference
  2
_DOT
 10
-97.482605
 20
-2.408904799999999
 30
0.0
 50
270.0
  0
INSERT
  5
133
330
12F
100
AcDbEntity
  8
0
  6
Continuous
 62
     7
100
AcDbBlockReference
  2
_DOT
 10
-97.482605
 20
12.591095
 30
0.0
 50
90.0
  0
LINE
  5
134
330
12F
100
AcDbEntity
  8
0
  6
Continuous
 62
     7
100
AcDbLine
 10
-80.022605
 20
-2.408904799999999
 30
0.0
 11
-98.68260200000001
 21
-2.408904799999999
 31
0.0
  0
LINE
  5
135
330
12F
100
AcDbEntity
  8
0
  6
Continuous
 62
     7
100
AcDbLine
 10
-80.022605
 20
12.591095
 30
0.0
 11
-98.68260200000001
 21
12.591095
 31
0.0
  0
TEXT
  5
136
330
12F
100
AcDbEntity
  8
0
  6
Continuous
 62
     7
100
AcDbText
 10
-98.282605
 20
2.348094899999999
 30
0.0
 40
3.2
  1
15
 50
90.00000300000001
 41
1.285781199999999
100
AcDbText
  0
POINT
  5
137
330
12F
100
AcDbEntity
  8
DEFPOINTS
  6
Continuous
 62
     7
100
AcDbPoint
 10
-77.482605
 20
-2.408904799999999
 30
0.0
  0
POINT
  5
138
330
12F
100
AcDbEntity
  8
DEFPOINTS
  6
Continuous
 62
     7
100
AcDbPoint
 10
-77.482605
 20
12.591095
 30
0.0
  0
POINT
  5
139
330
12F
100
AcDbEntity
  8
DEFPOINTS
  6
Continuous
 62
     7
100
AcDbPoint
 10
-97.482605
 20
12.591095
 30
0.0
  0
ENDBLK
  5
13A
330
12F
100
AcDbEntity
  8
0
100
AcDbBlockEnd
  0
BLOCK
  5
13C
330
13B
100
AcDbEntity
  8
0
100
AcDbBlockBegin
  2
*D22
 70
     1
 10
0.0
 20
0.0
 30
0.0
  3
*D22
  1

  0
LINE
  5
13D
330
13B
100
AcDbEntity
  8
0
  6
Continuous
 62
     7
100
AcDbLine
 10
-97.482605
 20
-10.408905
 30
0.0
 11
-97.482605
 21
-2.408904799999999
 31
0.0
  0
INSERT
  5
13E
330
13B
100
AcDbEntity
  8
0
  6
Continuous
 62
     7
100
AcDbBlockReference
  2
_DOT
 10
-97.482605
 20
-10.408905
 30
0.0
 50
270.0
  0
INSERT
  5
13F
330
13B
100
AcDbEntity
  8
0
  6
Continuous
 62
     7
100
AcDbBlockReference
  2
_DOT
 10
-97.482605
 20
-2.408904799999999
 30
0.0
 50
90.0
  0
LINE
  5
140
330
13B
100
AcDbEntity
  8
0
  6
Continuous
 62
     7
100
AcDbLine
 10
-8.522603
 20
-10.408905
 30
0.0
 11
-98.68260200000001
 21
-10.408905
 31
0.0
  0
TEXT
  5
141
330
13B
100
AcDbEntity
  8
0
  6
Continuous
 62
     7
100
AcDbText
 10
-98.282605
 20
-7.551905099999999
 30
0.0
 40
3.2
  1
8
 50
90.00000300000001
100
AcDbText
  0
POINT
  5
142
330
13B
100
AcDbEntity
  8
DEFPOINTS
  6
Continuous
 62
     7
100
AcDbPoint
 10
-5.982603099999999
 20
-10.408905
 30
0.0
  0
POINT
  5
143
330
13B
100
AcDbEntity
  8
DEFPOINTS
  6
Continuous
 62
     7
100
AcDbPoint
 10
-77.482605
 20
-2.408904799999999
 30
0.0
  0
POINT
  5
144
330
13B
100
AcDbEntity
  8
DEFPOINTS
  6
Continuous
 62
     7
100
AcDbPoint
 10
-97.482605
 20
-2.408904799999999
 30
0.0
  0
ENDBLK
  5
145
330
13B
100
AcDbEntity
  8
0
100
AcDbBlockEnd
  0
BLOCK
  5
147
330
146
100
AcDbEntity
  8
0
100
AcDbBlockBegin
  2
*D23
 70
     1
 10
0.0
 20
0.0
 30
0.0
  3
*D23
  1

  0
LINE
  5
148
330
146
100
AcDbEntity
  8
0
  6
Continuous
 62
     7
100
AcDbLine
 10
-97.482605
 20
13.591095
 30
0.0
 11
-97.482605
 21
17.922657
 31
0.0
  0
LINE
  5
149
330
146
100
AcDbEntity
  8
0
  6
Continuous
 62
     7
100
AcDbLine
 10
-97.482605
 20
12.591095
 30
0.0
 11
-97.482605
 21
13.591095
 31
0.0
  0
INSERT
  5
14A
330
146
100
AcDbEntity
  8
0
  6
Continuous
 62
     7
100
AcDbBlockReference
  2
_DOT
 10
-97.482605
 20
12.591095
 30
0.0
 50
270.0
  0
INSERT
  5
14B
330
146
100
AcDbEntity
  8
0
  6
Continuous
 62
     7
100
AcDbBlockReference
  2
_DOT
 10
-97.482605
 20
13.591095
 30
0.0
 50
90.0
  0
LINE
  5
14C
330
146
100
AcDbEntity
  8
0
  6
Continuous
 62
     7
100
AcDbLine
 10
-64.022605
 20
13.591095
 30
0.0
 11
-98.68260200000001
 21
13.591095
 31
0.0
  0
TEXT
  5
14D
330
146
100
AcDbEntity
  8
0
  6
Continuous
 62
     7
100
AcDbText
 10
-98.282605
 20
15.636657
 30
0.0
 40
3.2
  1
1
 50
90.00000300000001
 41
0.6666666700000001
100
AcDbText
  0
POINT
  5
14E
330
146
100
AcDbEntity
  8
DEFPOINTS
  6
Continuous
 62
     7
100
AcDbPoint
 10
-77.482605
 20
12.591095
 30
0.0
  0
POINT
  5
14F
330
146
100
AcDbEntity
  8
DEFPOINTS
  6
Continuous
 62
     7
100
AcDbPoint
 10
-61.48260500000001
 20
13.591095
 30
0.0
  0
POINT
  5
150
330
146
100
AcDbEntity
  8
DEFPOINTS
  6
Continuous
 62
     7
100
AcDbPoint
 10
-97.482605
 20
13.591095
 30
0.0
  0
ENDBLK
  5
151
330
146
100
AcDbEntity
  8
0
100
AcDbBlockEnd
  0
BLOCK
  5
153
330
152
100
AcDbEntity
  8
0
100
AcDbBlockBegin
  2
*D24
 70
     1
 10
0.0
 20
0.0
 30
0.0
  3
*D24
  1

  0
LINE
  5
154
330
152
100
AcDbEntity
  8
0
  6
Continuous
 62
     7
100
AcDbLine
 10
76.01739499999999
 20
-10.408905
 30
0.0
 11
76.01739499999999
 21
-19.621412
 31
0.0
  0
LINE
  5
155
330
152
100
AcDbEntity
  8
0
  6
Continuous
 62
     7
100
AcDbLine
 10
76.01739499999999
 20
-7.908904999999999
 30
0.0
 11
76.01739499999999
 21
-10.408905
 31
0.0
  0
INSERT
  5
156
330
152
100
AcDbEntity
  8
0
  6
Continuous
 62
     7
100
AcDbBlockReference
  2
_DOT
 10
76.01739499999999
 20
-7.908904999999999
 30
0.0
 50
90.0
  0
INSERT
  5
157
330
152
100
AcDbEntity
  8
0
  6
Continuous
 62
     7
100
AcDbBlockReference
  2
_DOT
 10
76.01739499999999
 20
-10.408905
 30
0.0
 50
270.0
  0
LINE
  5
158
330
152
100
AcDbEntity
  8
0
  6
Continuous
 62
     7
100
AcDbLine
 10
63.55739499999999
 20
-7.908904999999999
 30
0.0
 11
77.2174
 21
-7.908904999999999
 31
0.0
  0
LINE
  5
159
330
152
100
AcDbEntity
  8
0
  6
Continuous
 62
     7
100
AcDbLine
 10
63.55739499999999
 20
-10.408905
 30
0.0
 11
77.2174
 21
-10.408905
 31
0.0
  0
TEXT
  5
15A
330
152
100
AcDbEntity
  8
0
  6
Continuous
 62
     7
100
AcDbText
 10
75.21739499999999
 20
-19.621413
 30
0.0
 40
3.2
  1
2.5
 50
90.00000300000001
 41
1.357187499999999
100
AcDbText
  0
POINT
  5
15B
330
152
100
AcDbEntity
  8
DEFPOINTS
  6
Continuous
 62
     7
100
AcDbPoint
 10
61.01739499999999
 20
-7.908904999999999
 30
0.0
  0
POINT
  5
15C
330
152
100
AcDbEntity
  8
DEFPOINTS
  6
Continuous
 62
     7
100
AcDbPoint
 10
61.01739499999999
 20
-10.408905
 30
0.0
  0
POINT
  5
15D
330
152
100
AcDbEntity
  8
DEFPOINTS
  6
Continuous
 62
     7
100
AcDbPoint
 10
76.01739499999999
 20
-10.408905
 30
0.0
  0
ENDBLK
  5
15E
330
152
100
AcDbEntity
  8
0
100
AcDbBlockEnd
  0
BLOCK
  5
160
330
15F
100
AcDbEntity
  8
0
100
AcDbBlockBegin
  2
*D25
 70
     1
 10
0.0
 20
0.0
 30
0.0
  3
*D25
  1

  0
LINE
  5
161
330
15F
100
AcDbEntity
  8
0
  6
Continuous
 62
     7
100
AcDbLine
 10
86.01739499999998
 20
-10.408905
 30
0.0
 11
86.01739499999998
 21
-3.408904799999999
 31
0.0
  0
INSERT
  5
162
330
15F
100
AcDbEntity
  8
0
  6
Continuous
 62
     7
100
AcDbBlockReference
  2
_DOT
 10
86.01739499999998
 20
-10.408905
 30
0.0
 50
270.0
  0
INSERT
  5
163
330
15F
100
AcDbEntity
  8
0
  6
Continuous
 62
     7
100
AcDbBlockReference
  2
_DOT
 10
86.01739499999998
 20
-3.408904799999999
 30
0.0
 50
90.0
  0
LINE
  5
164
330
15F
100
AcDbEntity
  8
0
  6
Continuous
 62
     7
100
AcDbLine
 10
63.55739499999999
 20
-10.408905
 30
0.0
 11
87.2174
 21
-10.408905
 31
0.0
  0
LINE
  5
165
330
15F
100
AcDbEntity
  8
0
  6
Continuous
 62
     7
100
AcDbLine
 10
42.05739499999999
 20
-3.408904799999999
 30
0.0
 11
87.2174
 21
-3.408904799999999
 31
0.0
  0
TEXT
  5
166
330
15F
100
AcDbEntity
  8
0
  6
Continuous
 62
     7
100
AcDbText
 10
85.217395
 20
-8.051905099999999
 30
0.0
 40
3.2
  1
7
 50
90.00000300000001
100
AcDbText
  0
POINT
  5
167
330
15F
100
AcDbEntity
  8
DEFPOINTS
  6
Continuous
 62
     7
100
AcDbPoint
 10
61.01739499999999
 20
-10.408905
 30
0.0
  0
POINT
  5
168
330
15F
100
AcDbEntity
  8
DEFPOINTS
  6
Continuous
 62
     7
100
AcDbPoint
 10
39.517395
 20
-3.408904799999999
 30
0.0
  0
POINT
  5
169
330
15F
100
AcDbEntity
  8
DEFPOINTS
  6
Continuous
 62
     7
100
AcDbPoint
 10
86.01739499999998
 20
-3.408904799999999
 30
0.0
  0
ENDBLK
  5
16A
330
15F
100
AcDbEntity
  8
0
100
AcDbBlockEnd
  0
BLOCK
  5
16C
330
16B
100
AcDbEntity
  8
0
100
AcDbBlockBegin
  2
*D26
 70
     1
 10
0.0
 20
0.0
 30
0.0
  3
*D26
  1

  0
LINE
  5
16D
330
16B
100
AcDbEntity
  8
0
  6
Continuous
 62
     7
100
AcDbLine
 10
86.01739499999998
 20
-3.408904799999999
 30
0.0
 11
86.01739499999998
 21
3.5910952
 31
0.0
  0
INSERT
  5
16E
330
16B
100
AcDbEntity
  8
0
  6
Continuous
 62
     7
100
AcDbBlockReference
  2
_DOT
 10
86.01739499999998
 20
-3.408904799999999
 30
0.0
 50
270.0
  0
INSERT
  5
16F
330
16B
100
AcDbEntity
  8
0
  6
Continuous
 62
     7
100
AcDbBlockReference
  2
_DOT
 10
86.01739499999998
 20
3.5910952
 30
0.0
 50
90.0
  0
LINE
  5
170
330
16B
100
AcDbEntity
  8
0
  6
Continuous
 62
     7
100
AcDbLine
 10
48.557395
 20
3.5910952
 30
0.0
 11
87.2174
 21
3.5910952
 31
0.0
  0
TEXT
  5
171
330
16B
100
AcDbEntity
  8
0
  6
Continuous
 62
     7
100
AcDbText
 10
85.217395
 20
-1.051904799999999
 30
0.0
 40
3.2
  1
7
 50
90.00000300000001
100
AcDbText
  0
POINT
  5
172
330
16B
100
AcDbEntity
  8
DEFPOINTS
  6
Continuous
 62
     7
100
AcDbPoint
 10
39.517395
 20
-3.408904799999999
 30
0.0
  0
POINT
  5
173
330
16B
100
AcDbEntity
  8
DEFPOINTS
  6
Continuous
 62
     7
100
AcDbPoint
 10
46.01739499999999
 20
3.5910952
 30
0.0
  0
POINT
  5
174
330
16B
100
AcDbEntity
  8
DEFPOINTS
  6
Continuous
 62
     7
100
AcDbPoint
 10
86.01739499999998
 20
3.5910952
 30
0.0
  0
ENDBLK
  5
175
330
16B
100
AcDbEntity
  8
0
100
AcDbBlockEnd
  0
BLOCK
  5
177
330
176
100
AcDbEntity
  8
0
100
AcDbBlockBegin
  2
*D27
 70
     1
 10
0.0
 20
0.0
 30
0.0
  3
*D27
  1

  0
LINE
  5
178
330
176
100
AcDbEntity
  8
0
  6
Continuous
 62
     7
100
AcDbLine
 10
86.01739499999998
 20
3.5910952
 30
0.0
 11
86.01739499999998
 21
13.591095
 31
0.0
  0
INSERT
  5
179
330
176
100
AcDbEntity
  8
0
  6
Continuous
 62
     7
100
AcDbBlockReference
  2
_DOT
 10
86.01739499999998
 20
3.5910952
 30
0.0
 50
270.0
  0
INSERT
  5
17A
330
176
100
AcDbEntity
  8
0
  6
Continuous
 62
     7
100
AcDbBlockReference
  2
_DOT
 10
86.01739499999998
 20
13.591095
 30
0.0
 50
90.0
  0
TEXT
  5
17B
330
176
100
AcDbEntity
  8
0
  6
Continuous
 62
     7
100
AcDbText
 10
85.217395
 20
5.8480949
 30
0.0
 40
3.2
  1
10
 50
90.00000300000001
 41
1.402670399999999
100
AcDbText
  0
POINT
  5
17C
330
176
100
AcDbEntity
  8
DEFPOINTS
  6
Continuous
 62
     7
100
AcDbPoint
 10
46.01739499999999
 20
3.5910952
 30
0.0
  0
POINT
  5
17D
330
176
100
AcDbEntity
  8
DEFPOINTS
  6
Continuous
 62
     7
100
AcDbPoint
 10
44.81839799999999
 20
13.591095
 30
0.0
  0
POINT
  5
17E
330
176
100
AcDbEntity
  8
DEFPOINTS
  6
Continuous
 62
     7
100
AcDbPoint
 10
86.01739499999998
 20
13.591095
 30
0.0
  0
ENDBLK
  5
17F
330
176
100
AcDbEntity
  8
0
100
AcDbBlockEnd
  0
BLOCK
  5
181
330
180
100
AcDbEntity
  8
0
100
AcDbBlockBegin
  2
*D28
 70
     1
 10
0.0
 20
0.0
 30
0.0
  3
*D28
  1

  0
LINE
  5
182
330
180
100
AcDbEntity
  8
0
  6
Continuous
 62
     7
100
AcDbLine
 10
86.01739499999998
 20
13.591095
 30
0.0
 11
86.01739499999998
 21
23.591095
 31
0.0
  0
INSERT
  5
183
330
180
100
AcDbEntity
  8
0
  6
Continuous
 62
     7
100
AcDbBlockReference
  2
_DOT
 10
86.01739499999998
 20
13.591095
 30
0.0
 50
270.0
  0
INSERT
  5
184
330
180
100
AcDbEntity
  8
0
  6
Continuous
 62
     7
100
AcDbBlockReference
  2
_DOT
 10
86.01739499999998
 20
23.591095
 30
0.0
 50
90.0
  0
TEXT
  5
185
330
180
100
AcDbEntity
  8
0
  6
Continuous
 62
     7
100
AcDbText
 10
85.217395
 20
15.848095
 30
0.0
 40
3.2
  1
10
 50
90.00000300000001
 41
1.402670399999999
100
AcDbText
  0
POINT
  5
186
330
180
100
AcDbEntity
  8
DEFPOINTS
  6
Continuous
 62
     7
100
AcDbPoint
 10
44.81839799999999
 20
13.591095
 30
0.0
  0
POINT
  5
187
330
180
100
AcDbEntity
  8
DEFPOINTS
  6
Continuous
 62
     7
100
AcDbPoint
 10
43.62039199999999
 20
23.591095
 30
0.0
  0
POINT
  5
188
330
180
100
AcDbEntity
  8
DEFPOINTS
  6
Continuous
 62
     7
100
AcDbPoint
 10
86.01739499999998
 20
23.591095
 30
0.0
  0
ENDBLK
  5
189
330
180
100
AcDbEntity
  8
0
100
AcDbBlockEnd
  0
BLOCK
  5
18B
330
18A
100
AcDbEntity
  8
0
100
AcDbBlockBegin
  2
*D29
 70
     1
 10
0.0
 20
0.0
 30
0.0
  3
*D29
  1

  0
LINE
  5
18C
330
18A
100
AcDbEntity
  8
0
  6
Continuous
 62
     7
100
AcDbLine
 10
86.01739499999998
 20
23.591095
 30
0.0
 11
86.01739499999998
 21
32.791092
 31
0.0
  0
INSERT
  5
18D
330
18A
100
AcDbEntity
  8
0
  6
Continuous
 62
     7
100
AcDbBlockReference
  2
_DOT
 10
86.01739499999998
 20
23.591095
 30
0.0
 50
270.0
  0
INSERT
  5
18E
330
18A
100
AcDbEntity
  8
0
  6
Continuous
 62
     7
100
AcDbBlockReference
  2
_DOT
 10
86.01739499999998
 20
32.791092
 30
0.0
 50
90.0
  0
LINE
  5
18F
330
18A
100
AcDbEntity
  8
0
  6
Continuous
 62
     7
100
AcDbLine
 10
43.28239299999999
 20
32.791092
 30
0.0
 11
87.2174
 21
32.791092
 31
0.0
  0
TEXT
  5
190
330
18A
100
AcDbEntity
  8
0
  6
Continuous
 62
     7
100
AcDbText
 10
85.217395
 20
23.848093
 30
0.0
 40
3.2
  1
9.2
 50
90.00000300000001
 41
1.357187499999999
100
AcDbText
  0
POINT
  5
191
330
18A
100
AcDbEntity
  8
DEFPOINTS
  6
Continuous
 62
     7
100
AcDbPoint
 10
43.62039199999999
 20
23.591095
 30
0.0
  0
POINT
  5
192
330
18A
100
AcDbEntity
  8
DEFPOINTS
  6
Continuous
 62
     7
100
AcDbPoint
 10
40.742393
 20
32.791092
 30
0.0
  0
POINT
  5
193
330
18A
100
AcDbEntity
  8
DEFPOINTS
  6
Continuous
 62
     7
100
AcDbPoint
 10
86.01739499999998
 20
32.791092
 30
0.0
  0
ENDBLK
  5
194
330
18A
100
AcDbEntity
  8
0
100
AcDbBlockEnd
  0
BLOCK
  5
196
330
195
100
AcDbEntity
  8
0
100
AcDbBlockBegin
  2
*D30
 70
     1
 10
0.0
 20
0.0
 30
0.0
  3
*D30
  1

  0
LINE
  5
197
330
195
100
AcDbEntity
  8
0
  6
Continuous
 62
     7
100
AcDbLine
 10
86.01739499999998
 20
32.791092
 30
0.0
 11
86.01739499999998
 21
38.791092
 31
0.0
  0
INSERT
  5
198
330
195
100
AcDbEntity
  8
0
  6
Continuous
 62
     7
100
AcDbBlockReference
  2
_DOT
 10
86.01739499999998
 20
32.791092
 30
0.0
 50
270.0
  0
INSERT
  5
199
330
195
100
AcDbEntity
  8
0
  6
Continuous
 62
     7
100
AcDbBlockReference
  2
_DOT
 10
86.01739499999998
 20
38.791092
 30
0.0
 50
90.0
  0
LINE
  5
19A
330
195
100
AcDbEntity
  8
0
  6
Continuous
 62
     7
100
AcDbLine
 10
36.257392
 20
38.791092
 30
0.0
 11
87.2174
 21
38.791092
 31
0.0
  0
TEXT
  5
19B
330
195
100
AcDbEntity
  8
0
  6
Continuous
 62
     7
100
AcDbText
 10
85.217395
 20
34.648092
 30
0.0
 40
3.2
  1
6
 50
90.00000300000001
100
AcDbText
  0
POINT
  5
19C
330
195
100
AcDbEntity
  8
DEFPOINTS
  6
Continuous
 62
     7
100
AcDbPoint
 10
40.742393
 20
32.791092
 30
0.0
  0
POINT
  5
19D
330
195
100
AcDbEntity
  8
DEFPOINTS
  6
Continuous
 62
     7
100
AcDbPoint
 10
33.717392
 20
38.791092
 30
0.0
  0
POINT
  5
19E
330
195
100
AcDbEntity
  8
DEFPOINTS
  6
Continuous
 62
     7
100
AcDbPoint
 10
86.01739499999998
 20
38.791092
 30
0.0
  0
ENDBLK
  5
19F
330
195
100
AcDbEntity
  8
0
100
AcDbBlockEnd
  0
BLOCK
  5
1A1
330
1A0
100
AcDbEntity
  8
0
100
AcDbBlockBegin
  2
*D31
 70
     1
 10
0.0
 20
0.0
 30
0.0
  3
*D31
  1

  0
LINE
  5
1A2
330
1A0
100
AcDbEntity
  8
0
  6
Continuous
 62
     7
100
AcDbLine
 10
147.5174
 20
-5.408904999999999
 30
0.0
 11
155.5174
 21
-5.408904999999999
 31
0.0
  0
INSERT
  5
1A3
330
1A0
100
AcDbEntity
  8
0
  6
Continuous
 62
     7
100
AcDbBlockReference
  2
_DOT
 10
147.5174
 20
-5.408904999999999
 30
0.0
 50
180.0
  0
INSERT
  5
1A4
330
1A0
100
AcDbEntity
  8
0
  6
Continuous
 62
     7
100
AcDbBlockReference
  2
_DOT
 10
155.5174
 20
-5.408904999999999
 30
0.0
  0
LINE
  5
1A5
330
1A0
100
AcDbEntity
  8
0
  6
Continuous
 62
     7
100
AcDbLine
 10
147.5174
 20
2.1442347
 30
0.0
 11
147.5174
 21
-6.608904799999999
 31
0.0
  0
LINE
  5
1A6
330
1A0
100
AcDbEntity
  8
0
  6
Continuous
 62
     7
100
AcDbLine
 10
155.5174
 20
11.051095
 30
0.0
 11
155.5174
 21
-6.608904799999999
 31
0.0
  0
TEXT
  5
1A7
330
1A0
100
AcDbEntity
  8
0
  6
Continuous
 62
     7
100
AcDbText
 10
150.3744
 20
-4.608905
 30
0.0
 40
3.2
  1
8
100
AcDbText
  0
POINT
  5
1A8
330
1A0
100
AcDbEntity
  8
DEFPOINTS
  6
Continuous
 62
     7
100
AcDbPoint
 10
147.5174
 20
4.684234599999999
 30
0.0
  0
POINT
  5
1A9
330
1A0
100
AcDbEntity
  8
DEFPOINTS
  6
Continuous
 62
     7
100
AcDbPoint
 10
155.5174
 20
13.591095
 30
0.0
  0
POINT
  5
1AA
330
1A0
100
AcDbEntity
  8
DEFPOINTS
  6
Continuous
 62
     7
100
AcDbPoint
 10
155.5174
 20
-5.408904999999999
 30
0.0
  0
ENDBLK
  5
1AB
330
1A0
100
AcDbEntity
  8
0
100
AcDbBlockEnd
  0
BLOCK
  5
1AD
330
1AC
100
AcDbEntity
  8
0
100
AcDbBlockBegin
  2
*D32
 70
     1
 10
0.0
 20
0.0
 30
0.0
  3
*D32
  1

  0
LINE
  5
1AE
330
1AC
100
AcDbEntity
  8
0
  6
Continuous
 62
     7
100
AcDbLine
 10
147.5174
 20
-5.408904999999999
 30
0.0
 11
122.5174
 21
-5.408904999999999
 31
0.0
  0
INSERT
  5
1AF
330
1AC
100
AcDbEntity
  8
0
  6
Continuous
 62
     7
100
AcDbBlockReference
  2
_DOT
 10
147.5174
 20
-5.408904999999999
 30
0.0
  0
INSERT
  5
1B0
330
1AC
100
AcDbEntity
  8
0
  6
Continuous
 62
     7
100
AcDbBlockReference
  2
_DOT
 10
122.5174
 20
-5.408904999999999
 30
0.0
 50
180.0
  0
LINE
  5
1B1
330
1AC
100
AcDbEntity
  8
0
  6
Continuous
 62
     7
100
AcDbLine
 10
122.5174
 20
4.9920969
 30
0.0
 11
122.5174
 21
-6.608904799999999
 31
0.0
  0
TEXT
  5
1B2
330
1AC
100
AcDbEntity
  8
0
  6
Continuous
 62
     7
100
AcDbText
 10
132.2744
 20
-4.608905
 30
0.0
 40
3.2
  1
25
 41
1.028624999999999
100
AcDbText
  0
POINT
  5
1B3
330
1AC
100
AcDbEntity
  8
DEFPOINTS
  6
Continuous
 62
     7
100
AcDbPoint
 10
147.5174
 20
7.532096899999999
 30
0.0
  0
POINT
  5
1B4
330
1AC
100
AcDbEntity
  8
DEFPOINTS
  6
Continuous
 62
     7
100
AcDbPoint
 10
122.5174
 20
7.532096899999999
 30
0.0
  0
POINT
  5
1B5
330
1AC
100
AcDbEntity
  8
DEFPOINTS
  6
Continuous
 62
     7
100
AcDbPoint
 10
122.5174
 20
-5.408904999999999
 30
0.0
  0
ENDBLK
  5
1B6
330
1AC
100
AcDbEntity
  8
0
100
AcDbBlockEnd
  0
BLOCK
  5
1B8
330
1B7
100
AcDbEntity
  8
0
100
AcDbBlockBegin
  2
*D33
 70
     1
 10
0.0
 20
0.0
 30
0.0
  3
*D33
  1

  0
LINE
  5
1B9
330
1B7
100
AcDbEntity
  8
0
  6
Continuous
 62
     7
100
AcDbLine
 10
109.3037
 20
-5.408904999999999
 30
0.0
 11
122.5174
 21
-5.408904999999999
 31
0.0
  0
INSERT
  5
1BA
330
1B7
100
AcDbEntity
  8
0
  6
Continuous
 62
     7
100
AcDbBlockReference
  2
_OPEN
 10
106.3037
 20
-5.408904999999999
 30
0.0
 50
180.0
  0
INSERT
  5
1BB
330
1B7
100
AcDbEntity
  8
0
  6
Continuous
 62
     7
100
AcDbBlockReference
  2
_DOT
 10
122.5174
 20
-5.408904999999999
 30
0.0
  0
TEXT
  5
1BC
330
1B7
100
AcDbEntity
  8
0
  6
Continuous
 62
     7
100
AcDbText
 10
113.26755
 20
-4.608905
 30
0.0
 40
3.2
  1
P
100
AcDbText
  0
POINT
  5
1BD
330
1B7
100
AcDbEntity
  8
DEFPOINTS
  6
Continuous
 62
     7
100
AcDbPoint
 10
106.3037
 20
13.591095
 30
0.0
  0
POINT
  5
1BE
330
1B7
100
AcDbEntity
  8
DEFPOINTS
  6
Continuous
 62
     7
100
AcDbPoint
 10
122.5174
 20
7.532096899999999
 30
0.0
  0
POINT
  5
1BF
330
1B7
100
AcDbEntity
  8
DEFPOINTS
  6
Continuous
 62
     7
100
AcDbPoint
 10
122.5174
 20
-5.408904999999999
 30
0.0
  0
ENDBLK
  5
1C0
330
1B7
100
AcDbEntity
  8
0
100
AcDbBlockEnd
  0
BLOCK
  5
1C2
330
1C1
100
AcDbEntity
  8
0
100
AcDbBlockBegin
  2
*D34
 70
     1
 10
0.0
 20
0.0
 30
0.0
  3
*D34
  1

  0
LINE
  5
1C3
330
1C1
100
AcDbEntity
  8
0
  6
Continuous
 62
     7
100
AcDbLine
 10
-157.4826
 20
50.091095
 30
0.0
 11
-137.4826
 21
50.091095
 31
0.0
  0
INSERT
  5
1C4
330
1C1
100
AcDbEntity
  8
0
  6
Continuous
 62
     7
100
AcDbBlockReference
  2
_DOT
 10
-157.4826
 20
50.091095
 30
0.0
 50
180.0
  0
INSERT
  5
1C5
330
1C1
100
AcDbEntity
  8
0
  6
Continuous
 62
     7
100
AcDbBlockReference
  2
_DOT
 10
-137.4826
 20
50.091095
 30
0.0
  0
LINE
  5
1C6
330
1C1
100
AcDbEntity
  8
0
  6
Continuous
 62
     7
100
AcDbLine
 10
-157.4826
 20
42.631095
 30
0.0
 11
-157.4826
 21
51.291096
 31
0.0
  0
LINE
  5
1C7
330
1C1
100
AcDbEntity
  8
0
  6
Continuous
 62
     7
100
AcDbLine
 10
-137.4826
 20
46.81609199999999
 30
0.0
 11
-137.4826
 21
51.291096
 31
0.0
  0
TEXT
  5
1C8
330
1C1
100
AcDbEntity
  8
0
  6
Continuous
 62
     7
100
AcDbText
 10
-151.8256
 20
50.891095
 30
0.0
 40
3.2
  1
(A)
 41
1.2857566
100
AcDbText
  0
POINT
  5
1C9
330
1C1
100
AcDbEntity
  8
DEFPOINTS
  6
Continuous
 62
     7
100
AcDbPoint
 10
-157.4826
 20
40.091095
 30
0.0
  0
POINT
  5
1CA
330
1C1
100
AcDbEntity
  8
DEFPOINTS
  6
Continuous
 62
     7
100
AcDbPoint
 10
-137.4826
 20
44.27609299999999
 30
0.0
  0
POINT
  5
1CB
330
1C1
100
AcDbEntity
  8
DEFPOINTS
  6
Continuous
 62
     7
100
AcDbPoint
 10
-137.4826
 20
50.091095
 30
0.0
  0
ENDBLK
  5
1CC
330
1C1
100
AcDbEntity
  8
0
100
AcDbBlockEnd
  0
BLOCK
  5
1CE
330
1CD
100
AcDbEntity
  8
0
100
AcDbBlockBegin
  2
*D35
 70
     1
 10
0.0
 20
0.0
 30
0.0
  3
*D35
  1

  0
LINE
  5
1CF
330
1CD
100
AcDbEntity
  8
0
  6
Continuous
 62
     7
100
AcDbLine
 10
76.01739499999999
 20
123.59109
 30
0.0
 11
76.01739499999999
 21
134.14723
 31
0.0
  0
LINE
  5
1D0
330
1CD
100
AcDbEntity
  8
0
  6
Continuous
 62
     7
100
AcDbLine
 10
76.01739499999999
 20
103.59109
 30
0.0
 11
76.01739499999999
 21
123.59109
 31
0.0
  0
INSERT
  5
1D1
330
1CD
100
AcDbEntity
  8
0
  6
Continuous
 62
     7
100
AcDbBlockReference
  2
_DOT
 10
76.01739499999999
 20
103.59109
 30
0.0
 50
270.0
  0
INSERT
  5
1D2
330
1CD
100
AcDbEntity
  8
0
  6
Continuous
 62
     7
100
AcDbBlockReference
  2
_DOT
 10
76.01739499999999
 20
123.59109
 30
0.0
 50
90.0
  0
LINE
  5
1D3
330
1CD
100
AcDbEntity
  8
0
  6
Continuous
 62
     7
100
AcDbLine
 10
63.55739499999999
 20
103.59109
 30
0.0
 11
77.217392
 21
103.59109
 31
0.0
  0
LINE
  5
1D4
330
1CD
100
AcDbEntity
  8
0
  6
Continuous
 62
     7
100
AcDbLine
 10
63.55739499999999
 20
123.59109
 30
0.0
 11
77.217392
 21
123.59109
 31
0.0
  0
TEXT
  5
1D5
330
1CD
100
AcDbEntity
  8
0
  6
Continuous
 62
     7
100
AcDbText
 10
75.21739499999999
 20
128.66124
 30
0.0
 40
3.2
  1
20
 50
90.00000300000001
 41
1.102098199999999
100
AcDbText
  0
POINT
  5
1D6
330
1CD
100
AcDbEntity
  8
DEFPOINTS
  6
Continuous
 62
     7
100
AcDbPoint
 10
61.01739499999999
 20
103.59109
 30
0.0
  0
POINT
  5
1D7
330
1CD
100
AcDbEntity
  8
DEFPOINTS
  6
Continuous
 62
     7
100
AcDbPoint
 10
61.01739499999999
 20
123.59109
 30
0.0
  0
POINT
  5
1D8
330
1CD
100
AcDbEntity
  8
DEFPOINTS
  6
Continuous
 62
     7
100
AcDbPoint
 10
76.01739499999999
 20
123.59109
 30
0.0
  0
ENDBLK
  5
1D9
330
1CD
100
AcDbEntity
  8
0
100
AcDbBlockEnd
  0
BLOCK
  5
1DB
330
1DA
100
AcDbEntity
  8
0
100
AcDbBlockBegin
  2
*D36
 70
     1
 10
0.0
 20
0.0
 30
0.0
  3
*D36
  1

  0
LINE
  5
1DC
330
1DA
100
AcDbEntity
  8
0
  6
Continuous
 62
     7
100
AcDbLine
 10
86.01739499999998
 20
127.59109
 30
0.0
 11
86.01739499999998
 21
134.07977
 31
0.0
  0
LINE
  5
1DD
330
1DA
100
AcDbEntity
  8
0
  6
Continuous
 62
     7
100
AcDbLine
 10
86.01739499999998
 20
127.59109
 30
0.0
 11
86.01739499999998
 21
99.591095
 31
0.0
  0
INSERT
  5
1DE
330
1DA
100
AcDbEntity
  8
0
  6
Continuous
 62
     7
100
AcDbBlockReference
  2
_DOT
 10
86.01739499999998
 20
127.59109
 30
0.0
 50
90.0
  0
INSERT
  5
1DF
330
1DA
100
AcDbEntity
  8
0
  6
Continuous
 62
     7
100
AcDbBlockReference
  2
_DOT
 10
86.01739499999998
 20
99.591095
 30
0.0
 50
270.0
  0
LINE
  5
1E0
330
1DA
100
AcDbEntity
  8
0
  6
Continuous
 62
     7
100
AcDbLine
 10
48.30739499999999
 20
127.59109
 30
0.0
 11
87.217392
 21
127.59109
 31
0.0
  0
LINE
  5
1E1
330
1DA
100
AcDbEntity
  8
0
  6
Continuous
 62
     7
100
AcDbLine
 10
48.30739499999999
 20
99.591095
 30
0.0
 11
87.217392
 21
99.591095
 31
0.0
  0
TEXT
  5
1E2
330
1DA
100
AcDbEntity
  8
0
  6
Continuous
 62
     7
100
AcDbText
 10
85.217395
 20
128.59378
 30
0.0
 40
3.2
  1
28
 50
90.00000300000001
 41
1.028624999999999
100
AcDbText
  0
POINT
  5
1E3
330
1DA
100
AcDbEntity
  8
DEFPOINTS
  6
Continuous
 62
     7
100
AcDbPoint
 10
45.767395
 20
127.59109
 30
0.0
  0
POINT
  5
1E4
330
1DA
100
AcDbEntity
  8
DEFPOINTS
  6
Continuous
 62
     7
100
AcDbPoint
 10
45.767395
 20
99.591095
 30
0.0
  0
POINT
  5
1E5
330
1DA
100
AcDbEntity
  8
DEFPOINTS
  6
Continuous
 62
     7
100
AcDbPoint
 10
86.01739499999998
 20
99.591095
 30
0.0
  0
ENDBLK
  5
1E6
330
1DA
100
AcDbEntity
  8
0
100
AcDbBlockEnd
  0
BLOCK
  5
1E8
330
1E7
100
AcDbEntity
  8
0
100
AcDbBlockBegin
  2
*D37
 70
     1
 10
0.0
 20
0.0
 30
0.0
  3
*D37
  1

  0
LINE
  5
1E9
330
1E7
100
AcDbEntity
  8
0
  6
Continuous
 62
     7
100
AcDbLine
 10
-16.013988
 20
123.09109
 30
0.0
 11
-16.013988
 21
130.84024
 31
0.0
  0
LINE
  5
1EA
330
1E7
100
AcDbEntity
  8
0
  6
Continuous
 62
     7
100
AcDbLine
 10
-16.013988
 20
123.09109
 30
0.0
 11
-16.013988
 21
104.09109
 31
0.0
  0
INSERT
  5
1EB
330
1E7
100
AcDbEntity
  8
0
  6
Continuous
 62
     7
100
AcDbBlockReference
  2
_DOT
 10
-16.013988
 20
123.09109
 30
0.0
 50
90.0
  0
INSERT
  5
1EC
330
1E7
100
AcDbEntity
  8
0
  6
Continuous
 62
     7
100
AcDbBlockReference
  2
_DOT
 10
-16.013988
 20
104.09109
 30
0.0
 50
270.0
  0
TEXT
  5
1ED
330
1E7
100
AcDbEntity
  8
0
  6
Continuous
 62
     7
100
AcDbText
 10
-16.813988
 20
125.35424
 30
0.0
 40
3.2
  1
19
 50
90.00000300000001
 41
1.285781199999999
100
AcDbText
  0
POINT
  5
1EE
330
1E7
100
AcDbEntity
  8
DEFPOINTS
  6
Continuous
 62
     7
100
AcDbPoint
 10
11.325396
 20
123.09109
 30
0.0
  0
POINT
  5
1EF
330
1E7
100
AcDbEntity
  8
DEFPOINTS
  6
Continuous
 62
     7
100
AcDbPoint
 10
11.325396
 20
104.09109
 30
0.0
  0
POINT
  5
1F0
330
1E7
100
AcDbEntity
  8
DEFPOINTS
  6
Continuous
 62
     7
100
AcDbPoint
 10
-16.013988
 20
104.09109
 30
0.0
  0
ENDBLK
  5
1F1
330
1E7
100
AcDbEntity
  8
0
100
AcDbBlockEnd
  0
BLOCK
  5
1F3
330
1F2
100
AcDbEntity
  8
0
100
AcDbBlockBegin
  2
*D38
 70
     1
 10
0.0
 20
0.0
 30
0.0
  3
*D38
  1

  0
LINE
  5
1F4
330
1F2
100
AcDbEntity
  8
0
  6
Continuous
 62
     7
100
AcDbLine
 10
7.517396899999999
 20
84.591095
 30
0.0
 11
47.517395
 21
84.591095
 31
0.0
  0
INSERT
  5
1F5
330
1F2
100
AcDbEntity
  8
0
  6
Continuous
 62
     7
100
AcDbBlockReference
  2
_DOT
 10
7.517396899999999
 20
84.591095
 30
0.0
 50
180.0
  0
INSERT
  5
1F6
330
1F2
100
AcDbEntity
  8
0
  6
Continuous
 62
     7
100
AcDbBlockReference
  2
_DOT
 10
47.517395
 20
84.591095
 30
0.0
  0
LINE
  5
1F7
330
1F2
100
AcDbEntity
  8
0
  6
Continuous
 62
     7
100
AcDbLine
 10
7.517396899999999
 20
97.75109200000001
 30
0.0
 11
7.517396899999999
 21
83.39109800000001
 31
0.0
  0
LINE
  5
1F8
330
1F2
100
AcDbEntity
  8
0
  6
Continuous
 62
     7
100
AcDbLine
 10
47.517395
 20
97.75109200000001
 30
0.0
 11
47.517395
 21
83.39109800000001
 31
0.0
  0
TEXT
  5
1F9
330
1F2
100
AcDbEntity
  8
0
  6
Continuous
 62
     7
100
AcDbText
 10
24.774395
 20
85.391095
 30
0.0
 40
3.2
  1
40
 41
1.102098199999999
100
AcDbText
  0
POINT
  5
1FA
330
1F2
100
AcDbEntity
  8
DEFPOINTS
  6
Continuous
 62
     7
100
AcDbPoint
 10
7.517396899999999
 20
100.29109
 30
0.0
  0
POINT
  5
1FB
330
1F2
100
AcDbEntity
  8
DEFPOINTS
  6
Continuous
 62
     7
100
AcDbPoint
 10
47.517395
 20
100.29109
 30
0.0
  0
POINT
  5
1FC
330
1F2
100
AcDbEntity
  8
DEFPOINTS
  6
Continuous
 62
     7
100
AcDbPoint
 10
47.517395
 20
84.591095
 30
0.0
  0
ENDBLK
  5
1FD
330
1F2
100
AcDbEntity
  8
0
100
AcDbBlockEnd
  0
BLOCK
  5
1FF
330
1FE
100
AcDbEntity
  8
0
100
AcDbBlockBegin
  2
KOZU0001
 70
     0
 10
0.0
 20
0.0
 30
0.0
  3
KOZU0001
  1

  0
LINE
  5
200
330
1FE
100
AcDbEntity
  8
0
  6
Continuous
 62
     7
100
AcDbLine
 10
0.0
 20
0.0
 30
0.0
 11
24.533733
 21
24.501045
 31
0.0
  0
LINE
  5
201
330
1FE
100
AcDbEntity
  8
0
  6
Continuous
 62
     7
100
AcDbLine
 10
24.533733
 20
24.501045
 30
0.0
 11
45.43021799999999
 21
24.501045
 31
0.0
  0
TEXT
  5
202
330
1FE
100
AcDbEntity
  8
0
  6
Continuous
 62
     7
100
AcDbText
 10
26.230219
 20
25.301045
 30
0.0
 40
3.2
  1
２－%%C４．２
 41
0.84741102
100
AcDbText
  0
ENDBLK
  5
203
330
1FE
100
AcDbEntity
  8
0
100
AcDbBlockEnd
  0
BLOCK
  5
205
330
204
100
AcDbEntity
  8
0
100
AcDbBlockBegin
  2
KOZU0002
 70
     0
 10
0.0
 20
0.0
 30
0.0
  3
KOZU0002
  1

  0
LINE
  5
206
330
204
100
AcDbEntity
  8
0
  6
Continuous
 62
     7
100
AcDbLine
 10
0.0
 20
0.0
 30
0.0
 11
-13.87371
 21
28.307419
 31
0.0
  0
LINE
  5
207
330
204
100
AcDbEntity
  8
0
  6
Continuous
 62
     7
100
AcDbLine
 10
-13.87371
 20
28.307419
 30
0.0
 11
-64.09372799999999
 21
28.307419
 31
0.0
  0
LINE
  5
208
330
204
100
AcDbEntity
  8
0
  6
Continuous
 62
     7
100
AcDbLine
 10
0.0
 20
0.0
 30
0.0
 11
-2.218233399999999
 21
2.253761399999999
 31
0.0
  0
LINE
  5
209
330
204
100
AcDbEntity
  8
0
  6
Continuous
 62
     7
100
AcDbLine
 10
0.0
 20
0.0
 30
0.0
 11
-0.4223299
 21
3.1339491
 31
0.0
  0
TEXT
  5
20A
330
204
100
AcDbEntity
  8
0
  6
Continuous
 62
     7
100
AcDbText
 10
-63.179728
 20
29.107419
 30
0.0
 40
3.2
  1
２－%%C４．２×１２．２スロット
 41
0.84306961
100
AcDbText
  0
ENDBLK
  5
20B
330
204
100
AcDbEntity
  8
0
100
AcDbBlockEnd
  0
BLOCK
  5
20D
330
20C
100
AcDbEntity
  8
0
100
AcDbBlockBegin
  2
KOZU0003
 70
     0
 10
0.0
 20
0.0
 30
0.0
  3
KOZU0003
  1

  0
LINE
  5
20E
330
20C
100
AcDbEntity
  8
0
  6
Continuous
 62
     7
100
AcDbLine
 10
0.0
 20
0.0
 30
0.0
 11
-14.388115
 21
31.426783
 31
0.0
  0
LINE
  5
20F
330
20C
100
AcDbEntity
  8
0
  6
Continuous
 62
     7
100
AcDbLine
 10
-14.388115
 20
31.426783
 30
0.0
 11
31.826435
 21
31.426783
 31
0.0
  0
LINE
  5
210
330
20C
100
AcDbEntity
  8
0
  6
Continuous
 62
     7
100
AcDbLine
 10
0.0
 20
0.0
 30
0.0
 11
-2.158066899999999
 21
2.311438299999999
 31
0.0
  0
LINE
  5
211
330
20C
100
AcDbEntity
  8
0
  6
Continuous
 62
     7
100
AcDbLine
 10
0.0
 20
0.0
 30
0.0
 11
-0.33959056
 21
3.1439908
 31
0.0
  0
TEXT
  5
212
330
20C
100
AcDbEntity
  8
0
  6
Continuous
 62
     7
100
AcDbText
 10
-12.973566
 20
32.226787
 30
0.0
 40
3.2
  1
２－%%C４．２×８．２スロット
 41
0.84326962
100
AcDbText
  0
ENDBLK
  5
213
330
20C
100
AcDbEntity
  8
0
100
AcDbBlockEnd
  0
BLOCK
  5
593
330
591
100
AcDbEntity
  8
0
100
AcDbBlockBegin
  2
GENAXEH
 70
     0
 10
0.0
 20
0.0
 30
0.0
  3
GENAXEH
  1

  0
LINE
  5
592
330
591
100
AcDbEntity
  8
0
100
AcDbLine
 10
-1.0
 20
0.0
 30
0.0
 11
1.0
 21
0.0
 31
0.0
  0
ENDBLK
  5
594
330
591
100
AcDbEntity
  8
0
100
AcDbBlockEnd
  0
ENDSEC
  0
SECTION
  2
ENTITIES
  0
LINE
  5
214
330
36
100
AcDbEntity
  8
0
  6
Continuous
 62
     7
100
AcDbLine
 10
170.0
 20
173.0
 30
0.0
 11
170.0
 21
-100.0
 31
0.0
  0
LINE
  5
215
330
36
100
AcDbEntity
  8
0
  6
Continuous
 62
     7
100
AcDbLine
 10
-211.0
 20
-100.0
 30
0.0
 11
170.0
 21
-100.0
 31
0.0
  0
LINE
  5
216
330
36
100
AcDbEntity
  8
0
  6
Continuous
 62
     7
100
AcDbLine
 10
-211.0
 20
173.0
 30
0.0
 11
170.0
 21
173.0
 31
0.0
  0
LINE
  5
217
330
36
100
AcDbEntity
  8
0
  6
Continuous
 62
     7
100
AcDbLine
 10
-211.0
 20
173.0
 30
0.0
 11
-211.0
 21
-100.0
 31
0.0
  0
LINE
  5
218
330
36
100
AcDbEntity
  8
0
  6
Continuous
 62
     7
100
AcDbLine
 10
-191.0
 20
173.0
 30
0.0
 11
-191.0
 21
69.0
 31
0.0
  0
LINE
  5
219
330
36
100
AcDbEntity
  8
0
  6
Continuous
 62
     7
100
AcDbLine
 10
-211.0
 20
165.0
 30
0.0
 11
-81.0
 21
165.0
 31
0.0
  0
LINE
  5
21A
330
36
100
AcDbEntity
  8
0
  6
Continuous
 62
     7
100
AcDbLine
 10
-211.0
 20
157.0
 30
0.0
 11
-81.0
 21
157.0
 31
0.0
  0
LINE
  5
21B
330
36
100
AcDbEntity
  8
0
  6
Continuous
 62
     7
100
AcDbLine
 10
-191.0
 20
109.0
 30
0.0
 11
-81.0
 21
109.0
 31
0.0
  0
LINE
  5
21C
330
36
100
AcDbEntity
  8
0
  6
Continuous
 62
     7
100
AcDbLine
 10
-211.0
 20
101.0
 30
0.0
 11
-81.0
 21
101.0
 31
0.0
  0
LINE
  5
21D
330
36
100
AcDbEntity
  8
0
  6
Continuous
 62
     7
100
AcDbLine
 10
-191.0
 20
93.0
 30
0.0
 11
-81.0
 21
93.0
 31
0.0
  0
LINE
  5
21E
330
36
100
AcDbEntity
  8
0
  6
Continuous
 62
     7
100
AcDbLine
 10
-191.0
 20
85.0
 30
0.0
 11
-81.0
 21
85.0
 31
0.0
  0
LINE
  5
21F
330
36
100
AcDbEntity
  8
0
  6
Continuous
 62
     7
100
AcDbLine
 10
-191.0
 20
77.0
 30
0.0
 11
-81.0
 21
77.0
 31
0.0
  0
LINE
  5
220
330
36
100
AcDbEntity
  8
0
  6
Continuous
 62
     7
100
AcDbLine
 10
-211.0
 20
173.0
 30
0.0
 11
-211.0
 21
69.0
 31
0.0
  0
LINE
  5
221
330
36
100
AcDbEntity
  8
0
  6
Continuous
 62
     7
100
AcDbLine
 10
-211.0
 20
173.0
 30
0.0
 11
-81.0
 21
173.0
 31
0.0
  0
LINE
  5
222
330
36
100
AcDbEntity
  8
0
  6
Continuous
 62
     7
100
AcDbLine
 10
-81.0
 20
173.0
 30
0.0
 11
-81.0
 21
69.0
 31
0.0
  0
LINE
  5
223
330
36
100
AcDbEntity
  8
0
  6
Continuous
 62
     7
100
AcDbLine
 10
-211.0
 20
117.0
 30
0.0
 11
-81.0
 21
117.0
 31
0.0
  0
LINE
  5
224
330
36
100
AcDbEntity
  8
0
  6
Continuous
 62
     7
100
AcDbLine
 10
-191.0
 20
109.0
 30
0.0
 11
-81.0
 21
109.0
 31
0.0
  0
LINE
  5
225
330
36
100
AcDbEntity
  8
0
  6
Continuous
 62
     7
100
AcDbLine
 10
-191.0
 20
133.0
 30
0.0
 11
-81.0
 21
133.0
 31
0.0
  0
LINE
  5
226
330
36
100
AcDbEntity
  8
0
  6
Continuous
 62
     7
100
AcDbLine
 10
-211.0
 20
141.0
 30
0.0
 11
-81.0
 21
141.0
 31
0.0
  0
LINE
  5
227
330
36
100
AcDbEntity
  8
0
  6
Continuous
 62
     7
100
AcDbLine
 10
-211.0
 20
69.0
 30
0.0
 11
-81.0
 21
69.0
 31
0.0
  0
LINE
  5
228
330
36
100
AcDbEntity
  8
0
  6
CENTER
 62
     7
100
AcDbLine
 10
27.517397
 20
133.59109
 30
0.0
 11
27.517397
 21
93.591095
 31
0.0
  0
LINE
  5
229
330
36
100
AcDbEntity
  8
0
  6
Continuous
 62
     3
100
AcDbLine
 10
155.5174
 20
123.09109
 30
0.0
 11
155.5174
 21
104.09109
 31
0.0
  0
LINE
  5
22A
330
36
100
AcDbEntity
  8
0
  6
Continuous
 62
     3
100
AcDbLine
 10
157.5174
 20
105.59109
 30
0.0
 11
157.5174
 21
121.59109
 31
0.0
  0
LINE
  5
22B
330
36
100
AcDbEntity
  8
0
  6
CENTER
 62
     7
100
AcDbLine
 10
147.5174
 20
125.09109
 30
0.0
 11
147.5174
 21
103.59109
 31
0.0
  0
LINE
  5
22C
330
36
100
AcDbEntity
  8
0
  6
CENTER
 62
     7
100
AcDbLine
 10
55.517395
 20
121.58209
 30
0.0
 11
55.517395
 21
105.3051
 31
0.0
  0
LINE
  5
22D
330
36
100
AcDbEntity
  8
0
  6
DASHED
 62
     3
100
AcDbLine
 10
57.61739300000001
 20
117.59109
 30
0.0
 11
57.61739300000001
 21
109.59109
 31
0.0
  0
LINE
  5
22E
330
36
100
AcDbEntity
  8
0
  6
DASHED
 62
     3
100
AcDbLine
 10
53.41739699999999
 20
109.59109
 30
0.0
 11
53.41739699999999
 21
117.59109
 31
0.0
  0
LINE
  5
22F
330
36
100
AcDbEntity
  8
0
  6
DASHED
 62
     3
100
AcDbLine
 10
-2.5826092
 20
117.59109
 30
0.0
 11
-2.5826092
 21
109.59109
 31
0.0
  0
LINE
  5
230
330
36
100
AcDbEntity
  8
0
  6
DASHED
 62
     3
100
AcDbLine
 10
1.617403
 20
109.59109
 30
0.0
 11
1.617403
 21
117.59109
 31
0.0
  0
LINE
  5
231
330
36
100
AcDbEntity
  8
0
  6
CENTER
 62
     7
100
AcDbLine
 10
-0.4826030700000001
 20
123.08209
 30
0.0
 11
-0.4826030700000001
 21
103.8051
 31
0.0
  0
LINE
  5
232
330
36
100
AcDbEntity
  8
0
  6
Continuous
 62
     3
100
AcDbLine
 10
113.87289
 20
15.091095
 30
0.0
 11
132.27209
 21
15.091095
 31
0.0
  0
LINE
  5
233
330
36
100
AcDbEntity
  8
0
  6
Continuous
 62
     3
100
AcDbLine
 10
120.0174
 20
15.091095
 30
0.0
 11
120.0174
 21
13.591095
 31
0.0
  0
LINE
  5
234
330
36
100
AcDbEntity
  8
0
  6
Continuous
 62
     3
100
AcDbLine
 10
125.0174
 20
15.091095
 30
0.0
 11
125.0174
 21
13.591095
 31
0.0
  0
LINE
  5
235
330
36
100
AcDbEntity
  8
0
  6
CENTER
 62
     7
100
AcDbLine
 10
122.5174
 20
16.244095
 30
0.0
 11
122.5174
 21
7.532096899999999
 31
0.0
  0
LINE
  5
236
330
36
100
AcDbEntity
  8
0
  6
CENTER
 62
     7
100
AcDbLine
 10
27.517397
 20
41.97808799999999
 30
0.0
 11
27.517397
 21
-17.90890499999999
 31
0.0
  0
LINE
  5
237
330
36
100
AcDbEntity
  8
0
  6
Continuous
 62
     3
100
AcDbLine
 10
155.5174
 20
23.591095
 30
0.0
 11
45.851379
 21
23.591095
 31
0.0
  0
LINE
  5
238
330
36
100
AcDbEntity
  8
0
  6
Continuous
 62
     3
100
AcDbLine
 10
47.13187
 20
13.591095
 30
0.0
 11
155.5174
 21
13.591095
 31
0.0
  0
LINE
  5
239
330
36
100
AcDbEntity
  8
0
  6
CENTER
 62
     7
100
AcDbLine
 10
45.517395
 20
-5.420005799999999
 30
0.0
 11
45.517395
 21
-17.492203
 31
0.0
  0
LINE
  5
23A
330
36
100
AcDbEntity
  8
0
  6
CENTER
 62
     7
100
AcDbLine
 10
9.517396899999999
 20
-5.420005799999999
 30
0.0
 11
9.517396899999999
 21
-17.492203
 31
0.0
  0
LINE
  5
23B
330
36
100
AcDbEntity
  8
0
  6
CENTER
 62
     7
100
AcDbLine
 10
-0.4826030700000001
 20
-5.420005799999999
 30
0.0
 11
-0.4826030700000001
 21
-17.492203
 31
0.0
  0
LINE
  5
23C
330
36
100
AcDbEntity
  8
0
  6
CENTER
 62
     7
100
AcDbLine
 10
55.517395
 20
-5.420005799999999
 30
0.0
 11
55.517395
 21
-17.492203
 31
0.0
  0
LINE
  5
23D
330
36
100
AcDbEntity
  8
0
  6
Continuous
 62
     3
100
AcDbLine
 10
131.2088
 20
22.091095
 30
0.0
 11
112.80959
 21
22.091095
 31
0.0
  0
LINE
  5
23E
330
36
100
AcDbEntity
  8
0
  6
Continuous
 62
     3
100
AcDbLine
 10
-143.4826
 20
13.591095
 30
0.0
 11
-143.4826
 21
12.591095
 31
0.0
  0
LINE
  5
23F
330
36
100
AcDbEntity
  8
0
  6
Continuous
 62
     3
100
AcDbLine
 10
-131.4826
 20
13.591095
 30
0.0
 11
-131.4826
 21
12.591095
 31
0.0
  0
LINE
  5
240
330
36
100
AcDbEntity
  8
0
  6
CENTER
 62
     7
100
AcDbLine
 10
-137.4826
 20
44.27609299999999
 30
0.0
 11
-137.4826
 21
-16.415604
 31
0.0
  0
LINE
  5
241
330
36
100
AcDbEntity
  8
0
  6
Continuous
 62
     3
100
AcDbLine
 10
-60.48260500000001
 20
123.09109
 30
0.0
 11
-60.48260500000001
 21
104.09109
 31
0.0
  0
LINE
  5
242
330
36
100
AcDbEntity
  8
0
  6
Continuous
 62
     3
100
AcDbLine
 10
-62.482605
 20
121.59109
 30
0.0
 11
-62.482605
 21
105.59109
 31
0.0
  0
LINE
  5
243
330
36
100
AcDbEntity
  8
0
  6
CENTER
 62
     7
100
AcDbLine
 10
-52.482605
 20
123.59109
 30
0.0
 11
-52.482605
 21
102.09109
 31
0.0
  0
LINE
  5
244
330
36
100
AcDbEntity
  8
0
  6
Continuous
 62
     3
100
AcDbLine
 10
-60.48260500000001
 20
23.591095
 30
0.0
 11
-60.48260500000001
 21
13.591095
 31
0.0
  0
LINE
  5
245
330
36
100
AcDbEntity
  8
0
  6
Continuous
 62
     3
100
AcDbLine
 10
-62.482605
 20
22.09111
 30
0.0
 11
-62.482605
 21
15.09111
 31
0.0
  0
LINE
  5
246
330
36
100
AcDbEntity
  8
0
  6
Continuous
 62
     3
100
AcDbLine
 10
-143.4826
 20
24.591095
 30
0.0
 11
-131.4826
 21
24.591095
 31
0.0
  0
LINE
  5
247
330
36
100
AcDbEntity
  8
0
  6
CENTER
 62
     7
100
AcDbLine
 10
-52.482605
 20
29.363098
 30
0.0
 11
-52.482605
 21
-8.6944046
 31
0.0
  0
LINE
  5
248
330
36
100
AcDbEntity
  8
0
  6
Continuous
 62
     3
100
AcDbLine
 10
-58.48260500000001
 20
13.591095
 30
0.0
 11
-58.48260500000001
 21
12.591095
 31
0.0
  0
LINE
  5
249
330
36
100
AcDbEntity
  8
0
  6
Continuous
 62
     3
100
AcDbLine
 10
-46.482605
 20
13.591095
 30
0.0
 11
-46.482605
 21
12.591095
 31
0.0
  0
LINE
  5
24A
330
36
100
AcDbEntity
  8
0
  6
Continuous
 62
     3
100
AcDbLine
 10
-27.482605
 20
10.091095
 30
0.0
 11
-77.482605
 21
10.091095
 31
0.0
  0
LINE
  5
24B
330
36
100
AcDbEntity
  8
0
  6
CENTER
 62
     7
100
AcDbLine
 10
-68.48260500000001
 20
9.591094999999999
 30
0.0
 11
-68.48260500000001
 21
-2.908904799999999
 31
0.0
  0
LINE
  5
24C
330
36
100
AcDbEntity
  8
0
  6
CENTER
 62
     7
100
AcDbLine
 10
-73.50460799999999
 20
5.591095
 30
0.0
 11
-63.30261199999999
 21
5.591095
 31
0.0
  0
LINE
  5
24D
330
36
100
AcDbEntity
  8
0
  6
CENTER
 62
     7
100
AcDbLine
 10
-73.50460799999999
 20
1.591095199999999
 30
0.0
 11
-63.30261199999999
 21
1.591095199999999
 31
0.0
  0
LINE
  5
24E
330
36
100
AcDbEntity
  8
0
  6
Continuous
 62
     3
100
AcDbLine
 10
-70.582611
 20
5.591095
 30
0.0
 11
-70.582611
 21
1.591095199999999
 31
0.0
  0
LINE
  5
24F
330
36
100
AcDbEntity
  8
0
  6
Continuous
 62
     3
100
AcDbLine
 10
-66.382599
 20
5.591095
 30
0.0
 11
-66.382599
 21
1.591095199999999
 31
0.0
  0
LINE
  5
250
330
36
100
AcDbEntity
  8
0
  6
CENTER
 62
     7
100
AcDbLine
 10
-36.482605
 20
9.591094999999999
 30
0.0
 11
-36.482605
 21
-2.908904799999999
 31
0.0
  0
LINE
  5
251
330
36
100
AcDbEntity
  8
0
  6
CENTER
 62
     7
100
AcDbLine
 10
-31.460602
 20
5.591095
 30
0.0
 11
-41.66259799999999
 21
5.591095
 31
0.0
  0
LINE
  5
252
330
36
100
AcDbEntity
  8
0
  6
CENTER
 62
     7
100
AcDbLine
 10
-31.460602
 20
1.591095199999999
 30
0.0
 11
-41.66259799999999
 21
1.591095199999999
 31
0.0
  0
LINE
  5
253
330
36
100
AcDbEntity
  8
0
  6
Continuous
 62
     3
100
AcDbLine
 10
-38.582611
 20
5.591095
 30
0.0
 11
-38.582611
 21
1.591095199999999
 31
0.0
  0
LINE
  5
254
330
36
100
AcDbEntity
  8
0
  6
Continuous
 62
     3
100
AcDbLine
 10
-34.382599
 20
5.591095
 30
0.0
 11
-34.382599
 21
1.591095199999999
 31
0.0
  0
LINE
  5
255
330
36
100
AcDbEntity
  8
0
  6
CENTER
 62
     7
100
AcDbLine
 10
162.5174
 20
113.59109
 30
0.0
 11
-72.482605
 21
113.59109
 31
0.0
  0
LINE
  5
256
330
36
100
AcDbEntity
  8
0
  6
Continuous
 62
     3
100
AcDbLine
 10
9.183408699999999
 20
23.591095
 30
0.0
 11
-60.98937199999999
 21
23.591095
 31
0.0
  0
LINE
  5
257
330
36
100
AcDbEntity
  8
0
  6
Continuous
 62
     3
100
AcDbLine
 10
-60.98260500000001
 20
13.591095
 30
0.0
 11
7.902920699999999
 21
13.591095
 31
0.0
  0
LINE
  5
258
330
36
100
AcDbEntity
  8
0
  6
Continuous
 62
     3
100
AcDbLine
 10
47.59888499999999
 20
103.59109
 30
0.0
 11
61.01739499999999
 21
103.59109
 31
0.0
  0
LINE
  5
259
330
36
100
AcDbEntity
  8
0
  6
Continuous
 62
     3
100
AcDbLine
 10
61.01739499999999
 20
103.59109
 30
0.0
 11
61.01739499999999
 21
104.09109
 31
0.0
  0
LINE
  5
25A
330
36
100
AcDbEntity
  8
0
  6
Continuous
 62
     3
100
AcDbLine
 10
61.01739499999999
 20
123.09109
 30
0.0
 11
61.01739499999999
 21
123.59109
 31
0.0
  0
LINE
  5
25B
330
36
100
AcDbEntity
  8
0
  6
Continuous
 62
     3
100
AcDbLine
 10
61.01739499999999
 20
123.59109
 30
0.0
 11
47.59888499999999
 21
123.59109
 31
0.0
  0
LINE
  5
25C
330
36
100
AcDbEntity
  8
0
  6
Continuous
 62
     3
100
AcDbLine
 10
7.435914999999999
 20
123.59109
 30
0.0
 11
-5.982603099999999
 21
123.59109
 31
0.0
  0
LINE
  5
25D
330
36
100
AcDbEntity
  8
0
  6
Continuous
 62
     3
100
AcDbLine
 10
-5.982603099999999
 20
123.59109
 30
0.0
 11
-5.982603099999999
 21
123.09109
 31
0.0
  0
LINE
  5
25E
330
36
100
AcDbEntity
  8
0
  6
Continuous
 62
     3
100
AcDbLine
 10
-5.982603099999999
 20
104.09109
 30
0.0
 11
-5.982603099999999
 21
103.59109
 31
0.0
  0
LINE
  5
25F
330
36
100
AcDbEntity
  8
0
  6
Continuous
 62
     3
100
AcDbLine
 10
-5.982603099999999
 20
103.59109
 30
0.0
 11
7.435914999999999
 21
103.59109
 31
0.0
  0
LINE
  5
260
330
36
100
AcDbEntity
  8
0
  6
Continuous
 62
     3
100
AcDbLine
 10
156.0174
 20
123.09109
 30
0.0
 11
45.843781
 21
123.09109
 31
0.0
  0
LINE
  5
261
330
36
100
AcDbEntity
  8
0
  6
Continuous
 62
     3
100
AcDbLine
 10
45.843781
 20
104.09109
 30
0.0
 11
156.0174
 21
104.09109
 31
0.0
  0
LINE
  5
262
330
36
100
AcDbEntity
  8
0
  6
Continuous
 62
     3
100
AcDbLine
 10
-58.48260500000001
 20
24.591095
 30
0.0
 11
-46.482605
 21
24.591095
 31
0.0
  0
LINE
  5
263
330
36
100
AcDbEntity
  8
0
  6
Continuous
 62
     3
100
AcDbLine
 10
-154.9826
 20
10.091095
 30
0.0
 11
-126.4826
 21
10.091095
 31
0.0
  0
LINE
  5
264
330
36
100
AcDbEntity
  8
0
  6
Continuous
 62
     3
100
AcDbLine
 10
-126.4826
 20
12.591095
 30
0.0
 11
-154.9826
 21
12.591095
 31
0.0
  0
LINE
  5
265
330
36
100
AcDbEntity
  8
0
  6
Continuous
 62
     3
100
AcDbLine
 10
-157.4826
 20
10.091095
 30
0.0
 11
-157.4826
 21
-2.408904799999999
 31
0.0
  0
LINE
  5
266
330
36
100
AcDbEntity
  8
0
  6
Continuous
 62
     3
100
AcDbLine
 10
-157.4826
 20
-2.408904799999999
 30
0.0
 11
-154.9826
 21
-2.408904799999999
 31
0.0
  0
LINE
  5
267
330
36
100
AcDbEntity
  8
0
  6
Continuous
 62
     3
100
AcDbLine
 10
-154.9826
 20
-2.408904799999999
 30
0.0
 11
-154.9826
 21
10.091095
 31
0.0
  0
LINE
  5
268
330
36
100
AcDbEntity
  8
0
  6
PHANTOM
 62
     7
100
AcDbLine
 10
-157.4826
 20
40.091095
 30
0.0
 11
-167.4826
 21
40.091095
 31
0.0
  0
LINE
  5
269
330
36
100
AcDbEntity
  8
0
  6
PHANTOM
 62
     7
100
AcDbLine
 10
-167.4826
 20
40.091095
 30
0.0
 11
-167.4826
 21
38.091095
 31
0.0
  0
LINE
  5
26A
330
36
100
AcDbEntity
  8
0
  6
PHANTOM
 62
     7
100
AcDbLine
 10
-167.4826
 20
38.091095
 30
0.0
 11
-159.4826
 21
38.091095
 31
0.0
  0
LINE
  5
26B
330
36
100
AcDbEntity
  8
0
  6
PHANTOM
 62
     7
100
AcDbLine
 10
-159.4826
 20
38.091095
 30
0.0
 11
-159.4826
 21
-10.408905
 31
0.0
  0
LINE
  5
26C
330
36
100
AcDbEntity
  8
0
  6
PHANTOM
 62
     7
100
AcDbLine
 10
-159.4826
 20
-10.408905
 30
0.0
 11
-193.4826
 21
-10.408905
 31
0.0
  0
LINE
  5
26D
330
36
100
AcDbEntity
  8
0
  6
PHANTOM
 62
     7
100
AcDbLine
 10
-193.4826
 20
-10.408905
 30
0.0
 11
-193.4826
 21
38.091095
 31
0.0
  0
LINE
  5
26E
330
36
100
AcDbEntity
  8
0
  6
PHANTOM
 62
     7
100
AcDbLine
 10
-193.4826
 20
38.091095
 30
0.0
 11
-185.4826
 21
38.091095
 31
0.0
  0
LINE
  5
26F
330
36
100
AcDbEntity
  8
0
  6
PHANTOM
 62
     7
100
AcDbLine
 10
-185.4826
 20
38.091095
 30
0.0
 11
-185.4826
 21
40.091095
 31
0.0
  0
LINE
  5
270
330
36
100
AcDbEntity
  8
0
  6
PHANTOM
 62
     7
100
AcDbLine
 10
-185.4826
 20
40.091095
 30
0.0
 11
-195.4826
 21
40.091095
 31
0.0
  0
LINE
  5
271
330
36
100
AcDbEntity
  8
0
  6
PHANTOM
 62
     7
100
AcDbLine
 10
-195.4826
 20
40.091095
 30
0.0
 11
-195.4826
 21
-36.408905
 31
0.0
  0
LINE
  5
272
330
36
100
AcDbEntity
  8
0
  6
PHANTOM
 62
     7
100
AcDbLine
 10
-195.4826
 20
-36.408905
 30
0.0
 11
-193.4826
 21
-36.408905
 31
0.0
  0
LINE
  5
273
330
36
100
AcDbEntity
  8
0
  6
PHANTOM
 62
     7
100
AcDbLine
 10
-193.4826
 20
-36.408905
 30
0.0
 11
-193.4826
 21
-32.408905
 31
0.0
  0
LINE
  5
274
330
36
100
AcDbEntity
  8
0
  6
PHANTOM
 62
     7
100
AcDbLine
 10
-193.4826
 20
-32.408905
 30
0.0
 11
-155.4826
 21
-32.408905
 31
0.0
  0
LINE
  5
275
330
36
100
AcDbEntity
  8
0
  6
PHANTOM
 62
     7
100
AcDbLine
 10
-155.4826
 20
-32.408905
 30
0.0
 11
-155.4826
 21
-36.408905
 31
0.0
  0
LINE
  5
276
330
36
100
AcDbEntity
  8
0
  6
PHANTOM
 62
     7
100
AcDbLine
 10
-155.4826
 20
-36.408905
 30
0.0
 11
-153.4826
 21
-36.408905
 31
0.0
  0
LINE
  5
277
330
36
100
AcDbEntity
  8
0
  6
PHANTOM
 62
     7
100
AcDbLine
 10
-153.4826
 20
-36.408905
 30
0.0
 11
-153.4826
 21
-10.408905
 31
0.0
  0
LINE
  5
278
330
36
100
AcDbEntity
  8
0
  6
PHANTOM
 62
     7
100
AcDbLine
 10
-153.4826
 20
-10.408905
 30
0.0
 11
-157.4826
 21
-10.408905
 31
0.0
  0
LINE
  5
279
330
36
100
AcDbEntity
  8
0
  6
PHANTOM
 62
     7
100
AcDbLine
 10
-157.4826
 20
-10.408905
 30
0.0
 11
-157.4826
 21
40.091095
 31
0.0
  0
LINE
  5
27A
330
36
100
AcDbEntity
  8
0
  6
PHANTOM
 62
     7
100
AcDbLine
 10
-155.4826
 20
-12.408905
 30
0.0
 11
-193.4826
 21
-12.408905
 31
0.0
  0
LINE
  5
27B
330
36
100
AcDbEntity
  8
0
  6
PHANTOM
 62
     7
100
AcDbLine
 10
-193.4826
 20
-12.408905
 30
0.0
 11
-193.4826
 21
-30.408905
 31
0.0
  0
LINE
  5
27C
330
36
100
AcDbEntity
  8
0
  6
PHANTOM
 62
     7
100
AcDbLine
 10
-193.4826
 20
-30.408905
 30
0.0
 11
-155.4826
 21
-30.408905
 31
0.0
  0
LINE
  5
27D
330
36
100
AcDbEntity
  8
0
  6
PHANTOM
 62
     7
100
AcDbLine
 10
-155.4826
 20
-30.408905
 30
0.0
 11
-155.4826
 21
-12.408905
 31
0.0
  0
LINE
  5
27E
330
36
100
AcDbEntity
  8
0
  6
PHANTOM
 62
     7
100
AcDbLine
 10
-147.48259
 20
-48.575607
 30
0.0
 11
-207.48259
 21
-53.90890899999999
 31
0.0
  0
LINE
  5
27F
330
36
100
AcDbEntity
  8
0
  6
PHANTOM
 62
     7
100
AcDbLine
 10
-207.4826
 20
-53.90890500000001
 30
0.0
 11
-207.4826
 21
-69.908905
 31
0.0
  0
LINE
  5
280
330
36
100
AcDbEntity
  8
0
  6
PHANTOM
 62
     7
100
AcDbLine
 10
-207.4826
 20
-69.908905
 30
0.0
 11
-195.4826
 21
-69.908905
 31
0.0
  0
LINE
  5
281
330
36
100
AcDbEntity
  8
0
  6
PHANTOM
 62
     7
100
AcDbLine
 10
-195.4826
 20
-69.908905
 30
0.0
 11
-195.4826
 21
-67.908905
 31
0.0
  0
LINE
  5
282
330
36
100
AcDbEntity
  8
0
  6
PHANTOM
 62
     7
100
AcDbLine
 10
-195.4826
 20
-67.908905
 30
0.0
 11
-205.4826
 21
-67.908905
 31
0.0
  0
LINE
  5
283
330
36
100
AcDbEntity
  8
0
  6
PHANTOM
 62
     7
100
AcDbLine
 10
-205.4826
 20
-67.908905
 30
0.0
 11
-205.4826
 21
-55.908905
 31
0.0
  0
LINE
  5
284
330
36
100
AcDbEntity
  8
0
  6
PHANTOM
 62
     7
100
AcDbLine
 10
-205.48262
 20
-55.908905
 30
0.0
 11
-117.48262
 21
-47.90890499999999
 31
0.0
  0
LINE
  5
285
330
36
100
AcDbEntity
  8
0
  6
PHANTOM
 62
     7
100
AcDbLine
 10
-117.4826
 20
-47.90890499999999
 30
0.0
 11
-117.4826
 21
-67.908905
 31
0.0
  0
LINE
  5
286
330
36
100
AcDbEntity
  8
0
  6
PHANTOM
 62
     7
100
AcDbLine
 10
-117.4826
 20
-67.908905
 30
0.0
 11
-125.4826
 21
-67.908905
 31
0.0
  0
LINE
  5
287
330
36
100
AcDbEntity
  8
0
  6
PHANTOM
 62
     7
100
AcDbLine
 10
-125.4826
 20
-67.908905
 30
0.0
 11
-125.4826
 21
-69.908905
 31
0.0
  0
LINE
  5
288
330
36
100
AcDbEntity
  8
0
  6
PHANTOM
 62
     7
100
AcDbLine
 10
-125.4826
 20
-69.908905
 30
0.0
 11
-115.4826
 21
-69.908905
 31
0.0
  0
LINE
  5
289
330
36
100
AcDbEntity
  8
0
  6
PHANTOM
 62
     7
100
AcDbLine
 10
-115.4826
 20
-69.908905
 30
0.0
 11
-115.4826
 21
-10.408905
 31
0.0
  0
LINE
  5
28A
330
36
100
AcDbEntity
  8
0
  6
PHANTOM
 62
     7
100
AcDbLine
 10
-115.4826
 20
-10.408905
 30
0.0
 11
-127.4826
 21
-10.408905
 31
0.0
  0
LINE
  5
28B
330
36
100
AcDbEntity
  8
0
  6
PHANTOM
 62
     7
100
AcDbLine
 10
-151.4826
 20
-10.408905
 30
0.0
 11
-151.4826
 21
-14.408905
 31
0.0
  0
LINE
  5
28C
330
36
100
AcDbEntity
  8
0
  6
PHANTOM
 62
     7
100
AcDbLine
 10
-151.4826
 20
-14.408905
 30
0.0
 11
-149.4826
 21
-14.408905
 31
0.0
  0
LINE
  5
28D
330
36
100
AcDbEntity
  8
0
  6
PHANTOM
 62
     7
100
AcDbLine
 10
-149.4826
 20
-14.408905
 30
0.0
 11
-149.4826
 21
-12.408905
 31
0.0
  0
LINE
  5
28E
330
36
100
AcDbEntity
  8
0
  6
PHANTOM
 62
     7
100
AcDbLine
 10
-149.4826
 20
-12.408905
 30
0.0
 11
-147.4826
 21
-12.408905
 31
0.0
  0
LINE
  5
28F
330
36
100
AcDbEntity
  8
0
  6
PHANTOM
 62
     7
100
AcDbLine
 10
-147.4826
 20
-12.408905
 30
0.0
 11
-147.4826
 21
-20.408905
 31
0.0
  0
LINE
  5
290
330
36
100
AcDbEntity
  8
0
  6
PHANTOM
 62
     7
100
AcDbLine
 10
-147.4826
 20
-20.408905
 30
0.0
 11
-149.4826
 21
-20.408905
 31
0.0
  0
LINE
  5
291
330
36
100
AcDbEntity
  8
0
  6
PHANTOM
 62
     7
100
AcDbLine
 10
-149.4826
 20
-20.408905
 30
0.0
 11
-149.4826
 21
-18.408905
 31
0.0
  0
LINE
  5
292
330
36
100
AcDbEntity
  8
0
  6
PHANTOM
 62
     7
100
AcDbLine
 10
-149.4826
 20
-18.408905
 30
0.0
 11
-151.4826
 21
-18.408905
 31
0.0
  0
LINE
  5
293
330
36
100
AcDbEntity
  8
0
  6
PHANTOM
 62
     7
100
AcDbLine
 10
-151.4826
 20
-18.408905
 30
0.0
 11
-151.4826
 21
-22.408905
 31
0.0
  0
LINE
  5
294
330
36
100
AcDbEntity
  8
0
  6
PHANTOM
 62
     7
100
AcDbLine
 10
-151.4826
 20
-22.408905
 30
0.0
 11
-147.4826
 21
-22.408905
 31
0.0
  0
LINE
  5
295
330
36
100
AcDbEntity
  8
0
  6
PHANTOM
 62
     7
100
AcDbLine
 10
-147.4826
 20
-22.408905
 30
0.0
 11
-147.4826
 21
-48.575603
 31
0.0
  0
LINE
  5
296
330
36
100
AcDbEntity
  8
0
  6
Continuous
 62
     3
100
AcDbLine
 10
-131.4826
 20
23.591095
 30
0.0
 11
-131.4826
 21
25.591103
 31
0.0
  0
LINE
  5
297
330
36
100
AcDbEntity
  8
0
  6
Continuous
 62
     3
100
AcDbLine
 10
-131.4826
 20
25.591095
 30
0.0
 11
-143.4826
 21
25.591095
 31
0.0
  0
LINE
  5
298
330
36
100
AcDbEntity
  8
0
  6
Continuous
 62
     3
100
AcDbLine
 10
-132.48257
 20
26.591087
 30
0.0
 11
-131.48257
 21
25.591089
 31
0.0
  0
LINE
  5
299
330
36
100
AcDbEntity
  8
0
  6
Continuous
 62
     3
100
AcDbLine
 10
-143.4826
 20
25.591087
 30
0.0
 11
-143.4826
 21
23.591095
 31
0.0
  0
LINE
  5
29A
330
36
100
AcDbEntity
  8
0
  6
Continuous
 62
     3
100
AcDbLine
 10
-77.482605
 20
-2.408904799999999
 30
0.0
 11
-27.482605
 21
-2.408904799999999
 31
0.0
  0
LINE
  5
29B
330
36
100
AcDbEntity
  8
0
  6
Continuous
 62
     3
100
AcDbLine
 10
-27.482605
 20
-2.408904799999999
 30
0.0
 11
-27.482605
 21
12.591095
 31
0.0
  0
LINE
  5
29C
330
36
100
AcDbEntity
  8
0
  6
Continuous
 62
     3
100
AcDbLine
 10
-27.482605
 20
12.591095
 30
0.0
 11
-77.482605
 21
12.591095
 31
0.0
  0
LINE
  5
29D
330
36
100
AcDbEntity
  8
0
  6
Continuous
 62
     3
100
AcDbLine
 10
-77.482605
 20
12.591095
 30
0.0
 11
-77.482605
 21
-2.408904799999999
 31
0.0
  0
LINE
  5
29E
330
36
100
AcDbEntity
  8
0
  6
Continuous
 62
     3
100
AcDbLine
 10
-27.482605
 20
123.09109
 30
0.0
 11
-27.482605
 21
133.59109
 31
0.0
  0
LINE
  5
29F
330
36
100
AcDbEntity
  8
0
  6
Continuous
 62
     3
100
AcDbLine
 10
-60.98260500000001
 20
104.09109
 30
0.0
 11
9.191019099999998
 21
104.09109
 31
0.0
  0
LINE
  5
2A0
330
36
100
AcDbEntity
  8
0
  6
Continuous
 62
     3
100
AcDbLine
 10
9.191019099999998
 20
123.09109
 30
0.0
 11
-60.98260500000001
 21
123.09109
 31
0.0
  0
LINE
  5
2A1
330
36
100
AcDbEntity
  8
0
  6
PHANTOM
 62
     7
100
AcDbLine
 10
-117.4826
 20
-45.908901
 30
0.0
 11
-145.4826
 21
-48.3978
 31
0.0
  0
LINE
  5
2A2
330
36
100
AcDbEntity
  8
0
  6
PHANTOM
 62
     7
100
AcDbLine
 10
-145.4826
 20
-48.397804
 30
0.0
 11
-145.4826
 21
-12.408905
 31
0.0
  0
LINE
  5
2A3
330
36
100
AcDbEntity
  8
0
  6
PHANTOM
 62
     7
100
AcDbLine
 10
-145.4826
 20
-12.408905
 30
0.0
 11
-117.4826
 21
-12.408905
 31
0.0
  0
LINE
  5
2A4
330
36
100
AcDbEntity
  8
0
  6
PHANTOM
 62
     7
100
AcDbLine
 10
-117.4826
 20
-12.408905
 30
0.0
 11
-117.4826
 21
-45.90890499999999
 31
0.0
  0
LINE
  5
2A5
330
36
100
AcDbEntity
  8
0
  6
PHANTOM
 62
     7
100
AcDbLine
 10
-117.4826
 20
-45.90889699999999
 30
0.0
 11
-117.6516
 21
-45.92329799999999
 31
0.0
  0
LINE
  5
2A6
330
36
100
AcDbEntity
  8
0
  6
Continuous
 62
     3
100
AcDbLine
 10
-27.482605
 20
133.59109
 30
0.0
 11
-77.482605
 21
133.59109
 31
0.0
  0
LINE
  5
2A7
330
36
100
AcDbEntity
  8
0
  6
Continuous
 62
     3
100
AcDbLine
 10
-132.4826
 20
26.591095
 30
0.0
 11
-142.4826
 21
26.591095
 31
0.0
  0
LINE
  5
2A8
330
36
100
AcDbEntity
  8
0
  6
Continuous
 62
     3
100
AcDbLine
 10
-47.482597
 20
26.591095
 30
0.0
 11
-46.48259399999999
 21
25.591099
 31
0.0
  0
LINE
  5
2A9
330
36
100
AcDbEntity
  8
0
  6
Continuous
 62
     3
100
AcDbLine
 10
-142.48262
 20
26.591106
 30
0.0
 11
-143.4826
 21
25.591103
 31
0.0
  0
LINE
  5
2AA
330
36
100
AcDbEntity
  8
0
  6
Continuous
 62
     3
100
AcDbLine
 10
-46.482605
 20
23.591095
 30
0.0
 11
-46.482605
 21
25.591103
 31
0.0
  0
LINE
  5
2AB
330
36
100
AcDbEntity
  8
0
  6
Continuous
 62
     3
100
AcDbLine
 10
-46.482605
 20
25.591095
 30
0.0
 11
-58.48260500000001
 21
25.591095
 31
0.0
  0
LINE
  5
2AC
330
36
100
AcDbEntity
  8
0
  6
Continuous
 62
     3
100
AcDbLine
 10
-58.48260500000001
 20
25.591087
 30
0.0
 11
-58.48260500000001
 21
23.591095
 31
0.0
  0
LINE
  5
2AD
330
36
100
AcDbEntity
  8
0
  6
Continuous
 62
     3
100
AcDbLine
 10
-47.48260499999999
 20
26.591095
 30
0.0
 11
-57.482605
 21
26.591095
 31
0.0
  0
LINE
  5
2AE
330
36
100
AcDbEntity
  8
0
  6
Continuous
 62
     3
100
AcDbLine
 10
-57.482609
 20
26.591097
 30
0.0
 11
-58.48260899999999
 21
25.591093
 31
0.0
  0
LINE
  5
2AF
330
36
100
AcDbEntity
  8
0
  6
PHANTOM
 62
     7
100
AcDbLine
 10
-147.4826
 20
-10.408905
 30
0.0
 11
-151.4826
 21
-10.408905
 31
0.0
  0
LINE
  5
2B0
330
36
100
AcDbEntity
  8
0
  6
Continuous
 62
     7
100
AcDbLine
 10
-211.0
 20
125.0
 30
0.0
 11
-81.0
 21
125.0
 31
0.0
  0
LINE
  5
2B1
330
36
100
AcDbEntity
  8
0
  6
Continuous
 62
     7
100
AcDbLine
 10
-191.0
 20
149.0
 30
0.0
 11
-81.0
 21
149.0
 31
0.0
  0
LINE
  5
2B2
330
36
100
AcDbEntity
  8
0
  6
CENTER
 62
     7
100
AcDbLine
 10
-122.4826
 20
18.591095
 30
0.0
 11
-152.4826
 21
18.591095
 31
0.0
  0
LINE
  5
2B3
330
36
100
AcDbEntity
  8
0
  6
Continuous
 62
     7
100
AcDbLine
 10
-129.4826
 20
13.591095
 30
0.0
 11
-145.4826
 21
13.591095
 31
0.0
  0
LINE
  5
2B4
330
36
100
AcDbEntity
  8
0
  6
Continuous
 62
     7
100
AcDbLine
 10
-129.4826
 20
23.59108
 30
0.0
 11
-145.4826
 21
23.59108
 31
0.0
  0
LINE
  5
2B5
330
36
100
AcDbEntity
  8
0
  6
Continuous
 62
     7
100
AcDbLine
 10
-127.9826
 20
22.09108
 30
0.0
 11
-127.9826
 21
15.091095
 31
0.0
  0
LINE
  5
2B6
330
36
100
AcDbEntity
  8
0
  6
Continuous
 62
     7
100
AcDbLine
 10
-146.9826
 20
22.09108
 30
0.0
 11
-146.9826
 21
15.091095
 31
0.0
  0
LINE
  5
2B7
330
36
100
AcDbEntity
  8
0
  6
Continuous
 62
     7
100
AcDbLine
 10
-145.79999
 20
32.791092
 30
0.0
 11
-129.16519
 21
32.791092
 31
0.0
  0
LINE
  5
2B8
330
36
100
AcDbEntity
  8
0
  6
Continuous
 62
     7
100
AcDbLine
 10
-147.23262
 20
30.791101
 30
0.0
 11
-146.4261
 21
32.40414400000001
 31
0.0
  0
LINE
  5
2B9
330
36
100
AcDbEntity
  8
0
  6
Continuous
 62
     7
100
AcDbLine
 10
-128.53911
 20
32.40414400000001
 30
0.0
 11
-127.7326
 21
30.79113
 31
0.0
  0
LINE
  5
2BA
330
36
100
AcDbEntity
  8
0
  6
Continuous
 62
     7
100
AcDbLine
 10
-151.48257
 20
3.591094999999999
 30
0.0
 11
-123.4826
 21
3.591094999999999
 31
0.0
  0
LINE
  5
2BB
330
36
100
AcDbEntity
  8
0
  6
Continuous
 62
     7
100
AcDbLine
 10
-149.80786
 20
30.791092
 30
0.0
 11
-125.15732
 21
30.791092
 31
0.0
  0
LINE
  5
2BC
330
36
100
AcDbEntity
  8
0
  6
Continuous
 62
     7
100
AcDbLine
 10
-151.4826
 20
3.5910928
 30
0.0
 11
-151.24364
 21
10.091095
 31
0.0
  0
LINE
  5
2BD
330
36
100
AcDbEntity
  8
0
  6
Continuous
 62
     7
100
AcDbLine
 10
-124.45782
 20
30.116812
 30
0.0
 11
-123.48261
 21
3.591091599999999
 31
0.0
  0
LINE
  5
2BE
330
36
100
AcDbEntity
  8
0
  6
Continuous
 62
     7
100
AcDbLine
 10
-147.58258
 20
9.291091900000001
 30
0.0
 11
-142.58728
 21
9.291091900000001
 31
0.0
  0
LINE
  5
2BF
330
36
100
AcDbEntity
  8
0
  6
Continuous
 62
     7
100
AcDbLine
 10
-142.58727
 20
9.291069
 30
0.0
 11
-142.12537
 21
10.091098
 31
0.0
  0
LINE
  5
2C0
330
36
100
AcDbEntity
  8
0
  6
Continuous
 62
     7
100
AcDbLine
 10
-132.83977
 20
10.09109
 30
0.0
 11
-132.37788
 21
9.291091900000001
 31
0.0
  0
LINE
  5
2C1
330
36
100
AcDbEntity
  8
0
  6
Continuous
 62
     7
100
AcDbLine
 10
-132.3779
 20
9.291091900000001
 30
0.0
 11
-127.3826
 21
9.291091900000001
 31
0.0
  0
LINE
  5
2C2
330
36
100
AcDbEntity
  8
0
  6
Continuous
 62
     7
100
AcDbLine
 10
-126.9826
 20
26.766495
 30
0.0
 11
-147.9826
 21
26.766495
 31
0.0
  0
LINE
  5
2C3
330
36
100
AcDbEntity
  8
0
  6
Continuous
 62
     7
100
AcDbLine
 10
-126.9826
 20
26.334045
 30
0.0
 11
-132.22556
 21
26.334045
 31
0.0
  0
LINE
  5
2C4
330
36
100
AcDbEntity
  8
0
  6
Continuous
 62
     7
100
AcDbLine
 10
-125.4826
 20
25.266495
 30
0.0
 11
-125.4826
 21
10.841095
 31
0.0
  0
LINE
  5
2C5
330
36
100
AcDbEntity
  8
0
  6
Continuous
 62
     7
100
AcDbLine
 10
-149.4826
 20
25.266495
 30
0.0
 11
-149.4826
 21
12.591095
 31
0.0
  0
LINE
  5
2C6
330
36
100
AcDbEntity
  8
0
  6
Continuous
 62
     7
100
AcDbLine
 10
-125.9826
 20
25.334045
 30
0.0
 11
-125.9826
 21
10.900558
 31
0.0
  0
LINE
  5
2C7
330
36
100
AcDbEntity
  8
0
  6
Continuous
 62
     7
100
AcDbLine
 10
-148.9826
 20
25.334045
 30
0.0
 11
-148.9826
 21
12.591095
 31
0.0
  0
LINE
  5
2C8
330
36
100
AcDbEntity
  8
0
  6
Continuous
 62
     7
100
AcDbLine
 10
-128.7326
 20
23.741089
 30
0.0
 11
-131.4826
 21
23.741089
 31
0.0
  0
LINE
  5
2C9
330
36
100
AcDbEntity
  8
0
  6
Continuous
 62
     7
100
AcDbLine
 10
-128.7326
 20
13.441101
 30
0.0
 11
-131.4826
 21
13.441101
 31
0.0
  0
LINE
  5
2CA
330
36
100
AcDbEntity
  8
0
  6
Continuous
 62
     7
100
AcDbLine
 10
-127.7326
 20
22.741089
 30
0.0
 11
-127.7326
 21
14.441101
 31
0.0
  0
LINE
  5
2CB
330
36
100
AcDbEntity
  8
0
  6
Continuous
 62
     7
100
AcDbLine
 10
-147.2326
 20
22.741089
 30
0.0
 11
-147.2326
 21
14.441101
 31
0.0
  0
LINE
  5
2CC
330
36
100
AcDbEntity
  8
0
  6
Continuous
 62
     7
100
AcDbLine
 10
-126.4826
 20
10.091095
 30
0.0
 11
-126.4826
 21
12.591095
 31
0.0
  0
LINE
  5
2CD
330
36
100
AcDbEntity
  8
0
  6
Continuous
 62
     7
100
AcDbLine
 10
-147.4826
 20
-3.408905
 30
0.0
 11
-127.4826
 21
-3.408905
 31
0.0
  0
LINE
  5
2CE
330
36
100
AcDbEntity
  8
0
  6
Continuous
 62
     7
100
AcDbLine
 10
155.5174
 20
23.59108
 30
0.0
 11
155.5174
 21
13.591095
 31
0.0
  0
LINE
  5
2CF
330
36
100
AcDbEntity
  8
0
  6
CENTER
 62
     7
100
AcDbLine
 10
-137.4826
 20
42.14262399999999
 30
0.0
 11
-137.4826
 21
-16.795807
 31
0.0
  0
LINE
  5
2D0
330
36
100
AcDbEntity
  8
0
  6
Continuous
 62
     7
100
AcDbLine
 10
17.517397
 20
-3.408904799999999
 30
0.0
 11
37.517395
 21
-3.408904799999999
 31
0.0
  0
LINE
  5
2D1
330
36
100
AcDbEntity
  8
0
  6
Continuous
 62
     7
100
AcDbLine
 10
-132.4826
 20
26.59108
 30
0.0
 11
-142.4826
 21
26.59108
 31
0.0
  0
LINE
  5
2D2
330
36
100
AcDbEntity
  8
0
  6
Continuous
 62
     7
100
AcDbLine
 10
-131.4826
 20
24.59108
 30
0.0
 11
-143.4826
 21
24.59108
 31
0.0
  0
LINE
  5
2D3
330
36
100
AcDbEntity
  8
0
  6
Continuous
 62
     7
100
AcDbLine
 10
-143.4826
 20
25.59108
 30
0.0
 11
-143.4826
 21
24.59108
 31
0.0
  0
LINE
  5
2D4
330
36
100
AcDbEntity
  8
0
  6
Continuous
 62
     7
100
AcDbLine
 10
-131.4826
 20
25.59108
 30
0.0
 11
-131.4826
 21
24.59108
 31
0.0
  0
LINE
  5
2D5
330
36
100
AcDbEntity
  8
0
  6
Continuous
 62
     7
100
AcDbLine
 10
-131.4826
 20
25.59108
 30
0.0
 11
-143.4826
 21
25.59108
 31
0.0
  0
LINE
  5
2D6
330
36
100
AcDbEntity
  8
0
  6
Continuous
 62
     7
100
AcDbLine
 10
-131.4826
 20
25.591091
 30
0.0
 11
-132.4826
 21
26.591093
 31
0.0
  0
LINE
  5
2D7
330
36
100
AcDbEntity
  8
0
  6
Continuous
 62
     7
100
AcDbLine
 10
-142.4826
 20
26.591103
 30
0.0
 11
-143.4826
 21
25.591103
 31
0.0
  0
LINE
  5
2D8
330
36
100
AcDbEntity
  8
0
  6
Continuous
 62
     7
100
AcDbLine
 10
18.017397
 20
-5.908904999999999
 30
0.0
 11
37.017395
 21
-5.908904999999999
 31
0.0
  0
LINE
  5
2D9
330
36
100
AcDbEntity
  8
0
  6
Continuous
 62
     7
100
AcDbLine
 10
-144.4826
 20
37.84108
 30
0.0
 11
-144.4826
 21
32.791092
 31
0.0
  0
LINE
  5
2DA
330
36
100
AcDbEntity
  8
0
  6
Continuous
 62
     7
100
AcDbLine
 10
-130.4826
 20
37.841095
 30
0.0
 11
-130.4826
 21
32.791092
 31
0.0
  0
LINE
  5
2DB
330
36
100
AcDbEntity
  8
0
  6
Continuous
 62
     7
100
AcDbLine
 10
-131.18262
 20
38.541092
 30
0.0
 11
-143.78262
 21
38.541092
 31
0.0
  0
LINE
  5
2DC
330
36
100
AcDbEntity
  8
0
  6
Continuous
 62
     7
100
AcDbLine
 10
-131.4826
 20
24.59108
 30
0.0
 11
-131.4826
 21
23.59108
 31
0.0
  0
LINE
  5
2DD
330
36
100
AcDbEntity
  8
0
  6
Continuous
 62
     7
100
AcDbLine
 10
-143.4826
 20
24.59108
 30
0.0
 11
-143.4826
 21
23.59108
 31
0.0
  0
LINE
  5
2DE
330
36
100
AcDbEntity
  8
0
  6
Continuous
 62
     7
100
AcDbLine
 10
-147.4826
 20
-3.408905
 30
0.0
 11
-147.4826
 21
3.591094999999999
 31
0.0
  0
LINE
  5
2DF
330
36
100
AcDbEntity
  8
0
  6
Continuous
 62
     7
100
AcDbLine
 10
-127.4826
 20
-3.408905
 30
0.0
 11
-127.4826
 21
3.591094999999999
 31
0.0
  0
LINE
  5
2E0
330
36
100
AcDbEntity
  8
0
  6
Continuous
 62
     7
100
AcDbLine
 10
156.0174
 20
13.591095
 30
0.0
 11
155.5174
 21
13.591095
 31
0.0
  0
LINE
  5
2E1
330
36
100
AcDbEntity
  8
0
  6
Continuous
 62
     7
100
AcDbLine
 10
156.0174
 20
23.591095
 30
0.0
 11
155.5174
 21
23.591095
 31
0.0
  0
LINE
  5
2E2
330
36
100
AcDbEntity
  8
0
  6
Continuous
 62
     7
100
AcDbLine
 10
157.5174
 20
15.091095
 30
0.0
 11
157.5174
 21
22.091095
 31
0.0
  0
LINE
  5
2E3
330
36
100
AcDbEntity
  8
0
  6
Continuous
 62
     7
100
AcDbLine
 10
-143.4826
 20
12.591095
 30
0.0
 11
-143.4826
 21
13.591095
 31
0.0
  0
LINE
  5
2E4
330
36
100
AcDbEntity
  8
0
  6
Continuous
 62
     7
100
AcDbLine
 10
-131.4826
 20
12.591095
 30
0.0
 11
-131.4826
 21
13.591095
 31
0.0
  0
LINE
  5
2E5
330
36
100
AcDbEntity
  8
0
  6
Continuous
 62
     7
100
AcDbLine
 10
-143.4826
 20
12.591095
 30
0.0
 11
-131.4826
 21
12.591095
 31
0.0
  0
LINE
  5
2E6
330
36
100
AcDbEntity
  8
0
  6
Continuous
 62
     7
100
AcDbLine
 10
152.1174
 20
13.591095
 30
0.0
 11
152.1174
 21
12.291092
 31
0.0
  0
LINE
  5
2E7
330
36
100
AcDbEntity
  8
0
  6
Continuous
 62
     7
100
AcDbLine
 10
142.91739
 20
13.591095
 30
0.0
 11
142.91739
 21
12.291092
 31
0.0
  0
LINE
  5
2E8
330
36
100
AcDbEntity
  8
0
  6
Continuous
 62
     7
100
AcDbLine
 10
142.91739
 20
12.291092
 30
0.0
 11
152.1174
 21
12.291092
 31
0.0
  0
LINE
  5
2E9
330
36
100
AcDbEntity
  8
0
  6
Continuous
 62
     7
100
AcDbLine
 10
148.0174
 20
10.491089
 30
0.0
 11
148.0174
 21
10.128098
 31
0.0
  0
LINE
  5
2EA
330
36
100
AcDbEntity
  8
0
  6
Continuous
 62
     7
100
AcDbLine
 10
147.0174
 20
10.491089
 30
0.0
 11
147.0174
 21
10.128098
 31
0.0
  0
LINE
  5
2EB
330
36
100
AcDbEntity
  8
0
  6
CENTER
 62
     7
100
AcDbLine
 10
147.5174
 20
25.712463
 30
0.0
 11
147.5174
 21
4.684234599999999
 31
0.0
  0
LINE
  5
2EC
330
36
100
AcDbEntity
  8
0
  6
Continuous
 62
     7
100
AcDbLine
 10
-132.27017
 20
9.341090199999998
 30
0.0
 11
-132.7031899999999
 21
10.091092
 31
0.0
  0
LINE
  5
2ED
330
36
100
AcDbEntity
  8
0
  6
Continuous
 62
     7
100
AcDbLine
 10
-142.26199
 20
10.091098
 30
0.0
 11
-142.69502
 21
9.341069199999999
 31
0.0
  0
LINE
  5
2EE
330
36
100
AcDbEntity
  8
0
  6
Continuous
 62
     7
100
AcDbLine
 10
-147.9826
 20
9.341094999999999
 30
0.0
 11
-142.6950399999999
 21
9.341094999999999
 31
0.0
  0
LINE
  5
2EF
330
36
100
AcDbEntity
  8
0
  6
Continuous
 62
     7
100
AcDbLine
 10
-132.27017
 20
9.341094999999999
 30
0.0
 11
-126.9826
 21
9.341094999999999
 31
0.0
  0
LINE
  5
2F0
330
36
100
AcDbEntity
  8
0
  6
Continuous
 62
     7
100
AcDbLine
 10
17.517397
 20
-3.408904799999999
 30
0.0
 11
17.517397
 21
3.5910952
 31
0.0
  0
LINE
  5
2F1
330
36
100
AcDbEntity
  8
0
  6
Continuous
 62
     7
100
AcDbLine
 10
37.517395
 20
-3.408904799999999
 30
0.0
 11
37.517395
 21
3.5910952
 31
0.0
  0
LINE
  5
2F2
330
36
100
AcDbEntity
  8
0
  6
Continuous
 62
     7
100
AcDbLine
 10
20.017397
 20
-6.008911099999999
 30
0.0
 11
20.017397
 21
-8.508911099999998
 31
0.0
  0
LINE
  5
2F3
330
36
100
AcDbEntity
  8
0
  6
Continuous
 62
     7
100
AcDbLine
 10
35.017395
 20
-6.008911099999999
 30
0.0
 11
35.017395
 21
-8.508911099999998
 31
0.0
  0
LINE
  5
2F4
330
36
100
AcDbEntity
  8
0
  6
Continuous
 62
     7
100
AcDbLine
 10
20.017397
 20
-6.008911099999999
 30
0.0
 11
35.017395
 21
-6.008911099999999
 31
0.0
  0
LINE
  5
2F5
330
36
100
AcDbEntity
  8
0
  6
Continuous
 62
     7
100
AcDbLine
 10
20.017397
 20
-8.508911099999998
 30
0.0
 11
35.017395
 21
-8.508911099999998
 31
0.0
  0
LINE
  5
2F6
330
36
100
AcDbEntity
  8
0
  6
Continuous
 62
     7
100
AcDbLine
 10
23.517397
 20
-5.908904999999999
 30
0.0
 11
23.517397
 21
-6.008911099999999
 31
0.0
  0
LINE
  5
2F7
330
36
100
AcDbEntity
  8
0
  6
Continuous
 62
     7
100
AcDbLine
 10
31.517397
 20
-5.908904999999999
 30
0.0
 11
31.517397
 21
-6.008911099999999
 31
0.0
  0
LINE
  5
2F8
330
36
100
AcDbEntity
  8
0
  6
Continuous
 62
     7
100
AcDbLine
 10
-143.4826
 20
13.441101
 30
0.0
 11
-146.2326
 21
13.441101
 31
0.0
  0
LINE
  5
2F9
330
36
100
AcDbEntity
  8
0
  6
Continuous
 62
     7
100
AcDbLine
 10
-143.4826
 20
23.741089
 30
0.0
 11
-146.2326
 21
23.741089
 31
0.0
  0
LINE
  5
2FA
330
36
100
AcDbEntity
  8
0
  6
Continuous
 62
     7
100
AcDbLine
 10
-142.73962
 20
26.334045
 30
0.0
 11
-147.9826
 21
26.334045
 31
0.0
  0
LINE
  5
2FB
330
36
100
AcDbEntity
  8
0
  6
Continuous
 62
     7
100
AcDbLine
 10
-151.15172
 20
12.591095
 30
0.0
 11
-150.5074
 21
30.116812
 31
0.0
  0
LINE
  5
2FC
330
36
100
AcDbEntity
  8
0
  6
Continuous
 62
     7
100
AcDbLine
 10
8.217393899999999
 20
99.591095
 30
0.0
 11
46.81739799999999
 21
99.591095
 31
0.0
  0
LINE
  5
2FD
330
36
100
AcDbEntity
  8
0
  6
Continuous
 62
     7
100
AcDbLine
 10
8.217393899999999
 20
127.59109
 30
0.0
 11
46.81739799999999
 21
127.59109
 31
0.0
  0
LINE
  5
2FE
330
36
100
AcDbEntity
  8
0
  6
Continuous
 62
     7
100
AcDbLine
 10
12.767397
 20
100.59109
 30
0.0
 11
42.26739499999999
 21
100.59109
 31
0.0
  0
LINE
  5
2FF
330
36
100
AcDbEntity
  8
0
  6
Continuous
 62
     7
100
AcDbLine
 10
12.767397
 20
126.59109
 30
0.0
 11
42.26739499999999
 21
126.59109
 31
0.0
  0
LINE
  5
300
330
36
100
AcDbEntity
  8
0
  6
Continuous
 62
     7
100
AcDbLine
 10
7.517396899999999
 20
126.89108
 30
0.0
 11
7.517396899999999
 21
125.36469
 31
0.0
  0
LINE
  5
301
330
36
100
AcDbEntity
  8
0
  6
Continuous
 62
     7
100
AcDbLine
 10
10.767397
 20
124.59109
 30
0.0
 11
10.767397
 21
102.59109
 31
0.0
  0
LINE
  5
302
330
36
100
AcDbEntity
  8
0
  6
Continuous
 62
     7
100
AcDbLine
 10
44.267395
 20
124.59109
 30
0.0
 11
44.267395
 21
102.59109
 31
0.0
  0
LINE
  5
303
330
36
100
AcDbEntity
  8
0
  6
Continuous
 62
     7
100
AcDbLine
 10
7.435914999999999
 20
125.09109
 30
0.0
 11
7.435914999999999
 21
123.09109
 31
0.0
  0
LINE
  5
304
330
36
100
AcDbEntity
  8
0
  6
Continuous
 62
     7
100
AcDbLine
 10
7.935914999999999
 20
101.59109
 30
0.0
 11
9.798036599999999
 21
101.59109
 31
0.0
  0
LINE
  5
305
330
36
100
AcDbEntity
  8
0
  6
Continuous
 62
     7
100
AcDbLine
 10
10.298037
 20
125.09109
 30
0.0
 11
10.298037
 21
102.09109
 31
0.0
  0
LINE
  5
306
330
36
100
AcDbEntity
  8
0
  6
Continuous
 62
     7
100
AcDbLine
 10
10.099657
 20
125.09109
 30
0.0
 11
10.099657
 21
102.09109
 31
0.0
  0
LINE
  5
307
330
36
100
AcDbEntity
  8
0
  6
Continuous
 62
     7
100
AcDbLine
 10
9.5402088
 20
124.59109
 30
0.0
 11
9.5402088
 21
102.59109
 31
0.0
  0
LINE
  5
308
330
36
100
AcDbEntity
  8
0
  6
Continuous
 62
     7
100
AcDbLine
 10
7.435914999999999
 20
102.09109
 30
0.0
 11
9.0402088
 21
102.09109
 31
0.0
  0
LINE
  5
309
330
36
100
AcDbEntity
  8
0
  6
Continuous
 62
     7
100
AcDbLine
 10
9.208177599999999
 20
122.84109
 30
0.0
 11
9.208177599999999
 21
104.34109
 31
0.0
  0
LINE
  5
30A
330
36
100
AcDbEntity
  8
0
  6
Continuous
 62
     7
100
AcDbLine
 10
8.017320599999999
 20
123.34109
 30
0.0
 11
9.080125799999999
 21
123.34109
 31
0.0
  0
LINE
  5
30B
330
36
100
AcDbEntity
  8
0
  6
Continuous
 62
     7
100
AcDbLine
 10
8.017320599999999
 20
103.84109
 30
0.0
 11
9.080125799999999
 21
103.84109
 31
0.0
  0
LINE
  5
30C
330
36
100
AcDbEntity
  8
0
  6
Continuous
 62
     7
100
AcDbLine
 10
7.935914999999999
 20
125.59109
 30
0.0
 11
9.798036599999999
 21
125.59109
 31
0.0
  0
LINE
  5
30D
330
36
100
AcDbEntity
  8
0
  6
Continuous
 62
     7
100
AcDbLine
 10
7.435914999999999
 20
125.09109
 30
0.0
 11
9.0402088
 21
125.09109
 31
0.0
  0
LINE
  5
30E
330
36
100
AcDbEntity
  8
0
  6
Continuous
 62
     7
100
AcDbLine
 10
-77.48259
 20
133.59109
 30
0.0
 11
-77.48259
 21
123.03476
 31
0.0
  0
LINE
  5
30F
330
36
100
AcDbEntity
  8
0
  6
Continuous
 62
     7
100
AcDbLine
 10
-77.482605
 20
123.03474
 30
0.0
 11
-62.482609
 21
108.03474
 31
0.0
  0
LINE
  5
310
330
36
100
AcDbEntity
  8
0
  6
Continuous
 62
     7
100
AcDbLine
 10
7.517396899999999
 20
101.8175
 30
0.0
 11
7.517396899999999
 21
100.29109
 31
0.0
  0
LINE
  5
311
330
36
100
AcDbEntity
  8
0
  6
Continuous
 62
     7
100
AcDbLine
 10
47.517395
 20
126.89108
 30
0.0
 11
47.517395
 21
125.36469
 31
0.0
  0
LINE
  5
312
330
36
100
AcDbEntity
  8
0
  6
Continuous
 62
     7
100
AcDbLine
 10
47.59888499999999
 20
125.09109
 30
0.0
 11
47.59888499999999
 21
123.09109
 31
0.0
  0
LINE
  5
313
330
36
100
AcDbEntity
  8
0
  6
Continuous
 62
     7
100
AcDbLine
 10
47.09888499999999
 20
101.59109
 30
0.0
 11
45.236763
 21
101.59109
 31
0.0
  0
LINE
  5
314
330
36
100
AcDbEntity
  8
0
  6
Continuous
 62
     7
100
AcDbLine
 10
44.736763
 20
125.09109
 30
0.0
 11
44.736763
 21
102.09109
 31
0.0
  0
LINE
  5
315
330
36
100
AcDbEntity
  8
0
  6
Continuous
 62
     7
100
AcDbLine
 10
44.935143
 20
125.09109
 30
0.0
 11
44.935143
 21
102.09109
 31
0.0
  0
LINE
  5
316
330
36
100
AcDbEntity
  8
0
  6
Continuous
 62
     7
100
AcDbLine
 10
45.49459099999999
 20
124.59109
 30
0.0
 11
45.49459099999999
 21
102.59109
 31
0.0
  0
LINE
  5
317
330
36
100
AcDbEntity
  8
0
  6
Continuous
 62
     7
100
AcDbLine
 10
47.59888499999999
 20
102.09109
 30
0.0
 11
45.99459099999999
 21
102.09109
 31
0.0
  0
LINE
  5
318
330
36
100
AcDbEntity
  8
0
  6
Continuous
 62
     7
100
AcDbLine
 10
45.826622
 20
122.84109
 30
0.0
 11
45.826622
 21
104.34109
 31
0.0
  0
LINE
  5
319
330
36
100
AcDbEntity
  8
0
  6
Continuous
 62
     7
100
AcDbLine
 10
47.01747899999999
 20
123.34109
 30
0.0
 11
45.95467399999999
 21
123.34109
 31
0.0
  0
LINE
  5
31A
330
36
100
AcDbEntity
  8
0
  6
Continuous
 62
     7
100
AcDbLine
 10
47.01747899999999
 20
103.84109
 30
0.0
 11
45.95467399999999
 21
103.84109
 31
0.0
  0
LINE
  5
31B
330
36
100
AcDbEntity
  8
0
  6
Continuous
 62
     7
100
AcDbLine
 10
47.09888499999999
 20
125.59109
 30
0.0
 11
45.236763
 21
125.59109
 31
0.0
  0
LINE
  5
31C
330
36
100
AcDbEntity
  8
0
  6
Continuous
 62
     7
100
AcDbLine
 10
47.59888499999999
 20
125.09109
 30
0.0
 11
45.99459099999999
 21
125.09109
 31
0.0
  0
LINE
  5
31D
330
36
100
AcDbEntity
  8
0
  6
Continuous
 62
     7
100
AcDbLine
 10
47.517395
 20
101.8175
 30
0.0
 11
47.517395
 21
100.29109
 31
0.0
  0
LINE
  5
31E
330
36
100
AcDbEntity
  8
0
  6
Continuous
 62
     7
100
AcDbLine
 10
7.435914999999999
 20
104.09109
 30
0.0
 11
7.435914999999999
 21
102.09109
 31
0.0
  0
LINE
  5
31F
330
36
100
AcDbEntity
  8
0
  6
Continuous
 62
     7
100
AcDbLine
 10
47.59888499999999
 20
104.09109
 30
0.0
 11
47.59888499999999
 21
102.09109
 31
0.0
  0
LINE
  5
320
330
36
100
AcDbEntity
  8
0
  6
Continuous
 62
     7
100
AcDbLine
 10
-127.4826
 20
-7.908904999999999
 30
0.0
 11
-147.4826
 21
-7.908904999999999
 31
0.0
  0
LINE
  5
321
330
36
100
AcDbEntity
  8
0
  6
Continuous
 62
     7
100
AcDbLine
 10
-127.4826
 20
-10.408905
 30
0.0
 11
-147.4826
 21
-10.408905
 31
0.0
  0
LINE
  5
322
330
36
100
AcDbEntity
  8
0
  6
Continuous
 62
     7
100
AcDbLine
 10
-147.4826
 20
-3.408905
 30
0.0
 11
-147.4826
 21
-10.408905
 31
0.0
  0
LINE
  5
323
330
36
100
AcDbEntity
  8
0
  6
Continuous
 62
     7
100
AcDbLine
 10
-127.4826
 20
-3.408905
 30
0.0
 11
-127.4826
 21
-10.408905
 31
0.0
  0
LINE
  5
324
330
36
100
AcDbEntity
  8
0
  6
Continuous
 62
     7
100
AcDbLine
 10
-5.982603099999999
 20
-7.908904999999999
 30
0.0
 11
-5.982603099999999
 21
-10.408905
 31
0.0
  0
LINE
  5
325
330
36
100
AcDbEntity
  8
0
  6
Continuous
 62
     7
100
AcDbLine
 10
61.01739499999999
 20
-7.908904999999999
 30
0.0
 11
61.01739499999999
 21
-10.408905
 31
0.0
  0
LINE
  5
326
330
36
100
AcDbEntity
  8
0
  6
Continuous
 62
     7
100
AcDbLine
 10
-5.982603099999999
 20
-10.408905
 30
0.0
 11
15.517397
 21
-10.408905
 31
0.0
  0
LINE
  5
327
330
36
100
AcDbEntity
  8
0
  6
Continuous
 62
     7
100
AcDbLine
 10
-5.982603099999999
 20
-7.908904999999999
 30
0.0
 11
15.517397
 21
-7.908904999999999
 31
0.0
  0
LINE
  5
328
330
36
100
AcDbEntity
  8
0
  6
Continuous
 62
     7
100
AcDbLine
 10
15.517397
 20
-5.908904999999999
 30
0.0
 11
15.517397
 21
-7.908904999999999
 31
0.0
  0
LINE
  5
329
330
36
100
AcDbEntity
  8
0
  6
Continuous
 62
     7
100
AcDbLine
 10
39.517395
 20
-5.908904999999999
 30
0.0
 11
39.517395
 21
-7.908904999999999
 31
0.0
  0
LINE
  5
32A
330
36
100
AcDbEntity
  8
0
  6
Continuous
 62
     7
100
AcDbLine
 10
18.017397
 20
-5.908904999999999
 30
0.0
 11
18.017397
 21
-7.908904999999999
 31
0.0
  0
LINE
  5
32B
330
36
100
AcDbEntity
  8
0
  6
Continuous
 62
     7
100
AcDbLine
 10
37.017395
 20
-5.908904999999999
 30
0.0
 11
37.017395
 21
-7.908904999999999
 31
0.0
  0
LINE
  5
32C
330
36
100
AcDbEntity
  8
0
  6
Continuous
 62
     7
100
AcDbLine
 10
39.517395
 20
-10.408905
 30
0.0
 11
61.01739499999999
 21
-10.408905
 31
0.0
  0
LINE
  5
32D
330
36
100
AcDbEntity
  8
0
  6
Continuous
 62
     7
100
AcDbLine
 10
39.517395
 20
-7.908904999999999
 30
0.0
 11
61.01739499999999
 21
-7.908904999999999
 31
0.0
  0
LINE
  5
32E
330
36
100
AcDbEntity
  8
0
  6
Continuous
 62
     7
100
AcDbLine
 10
44.688629
 20
27.265657
 30
0.0
 11
47.51739099999999
 21
3.591100899999999
 31
0.0
  0
LINE
  5
32F
330
36
100
AcDbEntity
  8
0
  6
Continuous
 62
     7
100
AcDbLine
 10
14.317904
 20
30.791092
 30
0.0
 11
40.716881
 21
30.791092
 31
0.0
  0
LINE
  5
330
330
36
100
AcDbEntity
  8
0
  6
Continuous
 62
     7
100
AcDbLine
 10
17.767389
 20
30.7911
 30
0.0
 11
18.57391
 21
32.40414000000001
 31
0.0
  0
LINE
  5
331
330
36
100
AcDbEntity
  8
0
  6
Continuous
 62
     7
100
AcDbLine
 10
19.200006
 20
32.791092
 30
0.0
 11
35.83477
 21
32.791092
 31
0.0
  0
LINE
  5
332
330
36
100
AcDbEntity
  8
0
  6
Continuous
 62
     7
100
AcDbLine
 10
36.460869
 20
32.40414000000001
 30
0.0
 11
37.267399
 21
30.791082
 31
0.0
  0
LINE
  5
333
330
36
100
AcDbEntity
  8
0
  6
Continuous
 62
     7
100
AcDbLine
 10
7.856386200000001
 20
9.291091900000001
 30
0.0
 11
8.1984577
 21
9.291091900000001
 31
0.0
  0
LINE
  5
334
330
36
100
AcDbEntity
  8
0
  6
Continuous
 62
     7
100
AcDbLine
 10
7.856382400000001
 20
9.291091900000001
 30
0.0
 11
7.423937299999999
 21
9.850548699999999
 31
0.0
  0
LINE
  5
335
330
36
100
AcDbEntity
  8
0
  6
Continuous
 62
     7
100
AcDbLine
 10
10.087692
 20
26.71647800000001
 30
0.0
 11
10.28607
 21
26.691076
 31
0.0
  0
LINE
  5
336
330
36
100
AcDbEntity
  8
0
  6
Continuous
 62
     7
100
AcDbLine
 10
9.528226899999999
 20
26.28405
 30
0.0
 11
10.087684
 21
26.716496
 31
0.0
  0
LINE
  5
337
330
36
100
AcDbEntity
  8
0
  6
Continuous
 62
     7
100
AcDbLine
 10
7.517394999999999
 20
3.5910945
 30
0.0
 11
10.346157
 21
27.265652
 31
0.0
  0
LINE
  5
338
330
36
100
AcDbEntity
  8
0
  6
Continuous
 62
     7
100
AcDbLine
 10
47.178406
 20
9.291091900000001
 30
0.0
 11
46.836327
 21
9.291091900000001
 31
0.0
  0
LINE
  5
339
330
36
100
AcDbEntity
  8
0
  6
Continuous
 62
     7
100
AcDbLine
 10
47.178406
 20
9.291099499999999
 30
0.0
 11
47.610851
 21
9.8505564
 31
0.0
  0
LINE
  5
33A
330
36
100
AcDbEntity
  8
0
  6
Continuous
 62
     7
100
AcDbLine
 10
44.94709799999999
 20
26.716488
 30
0.0
 11
44.74871799999999
 21
26.691086
 31
0.0
  0
LINE
  5
33B
330
36
100
AcDbEntity
  8
0
  6
Continuous
 62
     7
100
AcDbLine
 10
45.506565
 20
26.284058
 30
0.0
 11
44.947105
 21
26.716503
 31
0.0
  0
LINE
  5
33C
330
36
100
AcDbEntity
  8
0
  6
Continuous
 62
     7
100
AcDbLine
 10
7.4239454
 20
9.8505239
 30
0.0
 11
9.5282364
 21
26.284033
 31
0.0
  0
LINE
  5
33D
330
36
100
AcDbEntity
  8
0
  6
Continuous
 62
     7
100
AcDbLine
 10
47.610844
 20
9.8505335
 30
0.0
 11
45.506554
 21
26.284042
 31
0.0
  0
LINE
  5
33E
330
36
100
AcDbEntity
  8
0
  6
Continuous
 62
     7
100
AcDbLine
 10
7.517396899999999
 20
3.5910952
 30
0.0
 11
47.517395
 21
3.5910952
 31
0.0
  0
LINE
  5
33F
330
36
100
AcDbEntity
  8
0
  6
Continuous
 62
     7
100
AcDbLine
 10
7.8563914
 20
9.2910719
 30
0.0
 11
10.087704
 21
26.716467
 31
0.0
  0
LINE
  5
340
330
36
100
AcDbEntity
  8
0
  6
Continuous
 62
     7
100
AcDbLine
 10
47.17841299999999
 20
9.291094799999999
 30
0.0
 11
44.947102
 21
26.716503
 31
0.0
  0
LINE
  5
341
330
36
100
AcDbEntity
  8
0
  6
Continuous
 62
     7
100
AcDbLine
 10
20.517397
 20
37.84108
 30
0.0
 11
20.517397
 21
32.791092
 31
0.0
  0
LINE
  5
342
330
36
100
AcDbEntity
  8
0
  6
Continuous
 62
     7
100
AcDbLine
 10
34.517395
 20
37.841095
 30
0.0
 11
34.517395
 21
32.791092
 31
0.0
  0
LINE
  5
343
330
36
100
AcDbEntity
  8
0
  6
Continuous
 62
     7
100
AcDbLine
 10
33.817383
 20
38.541092
 30
0.0
 11
21.217394
 21
38.541092
 31
0.0
  0
LINE
  5
344
330
36
100
AcDbEntity
  8
0
  6
Continuous
 62
     7
100
AcDbLine
 10
-132.59319
 20
9.9005585
 30
0.0
 11
-126.9826
 21
9.9005585
 31
0.0
  0
LINE
  5
345
330
36
100
AcDbEntity
  8
0
  6
Continuous
 62
     7
100
AcDbLine
 10
-142.37202
 20
9.9005585
 30
0.0
 11
-147.9826
 21
9.9005585
 31
0.0
  0
LINE
  5
346
330
36
100
AcDbEntity
  8
0
  6
Continuous
 62
     7
100
AcDbLine
 10
-146.9826
 20
12.591095
 30
0.0
 11
-146.9826
 21
10.091095
 31
0.0
  0
LINE
  5
347
330
36
100
AcDbEntity
  8
0
  6
Continuous
 62
     7
100
AcDbLine
 10
24.017397
 20
-8.508911099999998
 30
0.0
 11
24.017397
 21
-9.008911099999998
 31
0.0
  0
LINE
  5
348
330
36
100
AcDbEntity
  8
0
  6
Continuous
 62
     7
100
AcDbLine
 10
31.01739699999999
 20
-8.508911099999998
 30
0.0
 11
31.01739699999999
 21
-9.008911099999998
 31
0.0
  0
CIRCLE
  5
349
330
36
100
AcDbEntity
  8
0
  6
DASHED
 62
     3
100
AcDbCircle
 10
9.517396899999999
 20
113.59109
 30
0.0
 40
2.099999899999999
  0
CIRCLE
  5
34A
330
36
100
AcDbEntity
  8
0
  6
DASHED
 62
     3
100
AcDbCircle
 10
45.517395
 20
113.59109
 30
0.0
 40
2.099999899999999
  0
ARC
  5
34B
330
36
100
AcDbEntity
  8
0
  6
DASHED
 62
     3
100
AcDbCircle
 10
55.517395
 20
117.59109
 30
0.0
 40
2.099998499999999
100
AcDbArc
 50
0.0
 51
180.0
  0
ARC
  5
34C
330
36
100
AcDbEntity
  8
0
  6
DASHED
 62
     3
100
AcDbCircle
 10
55.517395
 20
109.59109
 30
0.0
 40
2.099998499999999
100
AcDbArc
 50
180.0
 51
0.0
  0
ARC
  5
34D
330
36
100
AcDbEntity
  8
0
  6
DASHED
 62
     3
100
AcDbCircle
 10
-0.4826030700000001
 20
117.59109
 30
0.0
 40
2.1000061
100
AcDbArc
 50
0.0
 51
180.0
  0
ARC
  5
34E
330
36
100
AcDbEntity
  8
0
  6
DASHED
 62
     3
100
AcDbCircle
 10
-0.4826030700000001
 20
109.59109
 30
0.0
 40
2.1000061
100
AcDbArc
 50
180.0
 51
0.0
  0
ARC
  5
34F
330
36
100
AcDbEntity
  8
0
  6
Continuous
 62
     3
100
AcDbCircle
 10
-68.48260500000001
 20
5.591095
 30
0.0
 40
2.1000061
100
AcDbArc
 50
0.000013009846
 51
179.99997
  0
ARC
  5
350
330
36
100
AcDbEntity
  8
0
  6
Continuous
 62
     3
100
AcDbCircle
 10
-68.48260500000001
 20
1.591095199999999
 30
0.0
 40
2.1000061
100
AcDbArc
 50
179.99998
 51
0.0
  0
ARC
  5
351
330
36
100
AcDbEntity
  8
0
  6
Continuous
 62
     3
100
AcDbCircle
 10
-36.482605
 20
5.591095
 30
0.0
 40
2.1000061
100
AcDbArc
 50
0.000013009846
 51
179.99997
  0
ARC
  5
352
330
36
100
AcDbEntity
  8
0
  6
Continuous
 62
     3
100
AcDbCircle
 10
-36.482605
 20
1.591095199999999
 30
0.0
 40
2.1000061
100
AcDbArc
 50
179.99998
 51
0.0
  0
CIRCLE
  5
353
330
36
100
AcDbEntity
  8
0
  6
Continuous
 62
     3
100
AcDbCircle
 10
-52.482605
 20
113.59109
 30
0.0
 40
6.0
  0
CIRCLE
  5
354
330
36
100
AcDbEntity
  8
0
  6
Continuous
 62
     3
100
AcDbCircle
 10
-52.482605
 20
113.59109
 30
0.0
 40
5.0
  0
ARC
  5
355
330
36
100
AcDbEntity
  8
0
  6
Continuous
 62
     3
100
AcDbCircle
 10
-137.4826
 20
13.091095
 30
0.0
 40
5.0
100
AcDbArc
 50
216.86987
 51
323.13008
  0
ARC
  5
356
330
36
100
AcDbEntity
  8
0
  6
Continuous
 62
     3
100
AcDbCircle
 10
-52.482605
 20
13.091095
 30
0.0
 40
5.0
100
AcDbArc
 50
216.86988
 51
323.13009
  0
CIRCLE
  5
357
330
36
100
AcDbEntity
  8
0
  6
Continuous
 62
     7
100
AcDbCircle
 10
-151.6283
 20
112.90697
 30
0.0
 40
2.0
  0
ARC
  5
358
330
36
100
AcDbEntity
  8
0
  6
Continuous
 62
     7
100
AcDbCircle
 10
-145.4826
 20
15.091095
 30
0.0
 40
1.5
100
AcDbArc
 50
180.0
 51
270.0
  0
ARC
  5
359
330
36
100
AcDbEntity
  8
0
  6
Continuous
 62
     7
100
AcDbCircle
 10
-129.4826
 20
15.091095
 30
0.0
 40
1.5
100
AcDbArc
 50
270.0
 51
0.0
  0
ARC
  5
35A
330
36
100
AcDbEntity
  8
0
  6
Continuous
 62
     7
100
AcDbCircle
 10
-129.4826
 20
22.09108
 30
0.0
 40
1.5
100
AcDbArc
 50
0.0
 51
90.0
  0
ARC
  5
35B
330
36
100
AcDbEntity
  8
0
  6
Continuous
 62
     7
100
AcDbCircle
 10
-145.4826
 20
22.09108
 30
0.0
 40
1.5
100
AcDbArc
 50
90.0
 51
180.0
  0
ARC
  5
35C
330
36
100
AcDbEntity
  8
0
  6
Continuous
 62
     7
100
AcDbCircle
 10
-149.80786
 20
30.091095
 30
0.0
 40
0.6999999900000001
100
AcDbArc
 50
90.0
 51
177.89441
  0
ARC
  5
35D
330
36
100
AcDbEntity
  8
0
  6
Continuous
 62
     7
100
AcDbCircle
 10
-125.15732
 20
30.091095
 30
0.0
 40
0.6999999900000001
100
AcDbArc
 50
2.1055876
 51
90.0
  0
ARC
  5
35E
330
36
100
AcDbEntity
  8
0
  6
Continuous
 62
     7
100
AcDbCircle
 10
-126.9826
 20
25.266495
 30
0.0
 40
1.5
100
AcDbArc
 50
0.0
 51
90.0
  0
ARC
  5
35F
330
36
100
AcDbEntity
  8
0
  6
Continuous
 62
     7
100
AcDbCircle
 10
-147.9826
 20
25.266495
 30
0.0
 40
1.5
100
AcDbArc
 50
90.0
 51
180.0
  0
ARC
  5
360
330
36
100
AcDbEntity
  8
0
  6
Continuous
 62
     7
100
AcDbCircle
 10
-126.9826
 20
10.841095
 30
0.0
 40
1.5
100
AcDbArc
 50
270.0
 51
0.0
  0
ARC
  5
361
330
36
100
AcDbEntity
  8
0
  6
Continuous
 62
     7
100
AcDbCircle
 10
-147.9826
 20
10.841095
 30
0.0
 40
1.5
100
AcDbArc
 50
209.99993
 51
270.0
  0
ARC
  5
362
330
36
100
AcDbEntity
  8
0
  6
Continuous
 62
     7
100
AcDbCircle
 10
-147.9826
 20
25.334045
 30
0.0
 40
1.0
100
AcDbArc
 50
90.0
 51
180.0
  0
ARC
  5
363
330
36
100
AcDbEntity
  8
0
  6
Continuous
 62
     7
100
AcDbCircle
 10
-126.9826
 20
25.334045
 30
0.0
 40
1.0
100
AcDbArc
 50
0.0
 51
90.0
  0
ARC
  5
364
330
36
100
AcDbEntity
  8
0
  6
Continuous
 62
     7
100
AcDbCircle
 10
-126.9826
 20
10.900558
 30
0.0
 40
1.0
100
AcDbArc
 50
270.0
 51
0.0
  0
ARC
  5
365
330
36
100
AcDbEntity
  8
0
  6
Continuous
 62
     7
100
AcDbCircle
 10
-128.7326
 20
14.441101
 30
0.0
 40
1.0
100
AcDbArc
 50
270.0
 51
0.0
  0
ARC
  5
366
330
36
100
AcDbEntity
  8
0
  6
Continuous
 62
     7
100
AcDbCircle
 10
-128.7326
 20
22.741089
 30
0.0
 40
1.0
100
AcDbArc
 50
0.0
 51
90.0
  0
ARC
  5
367
330
36
100
AcDbEntity
  8
0
  6
Continuous
 62
     7
100
AcDbCircle
 10
-146.2326
 20
22.741089
 30
0.0
 40
1.0
100
AcDbArc
 50
90.0
 51
180.0
  0
ARC
  5
368
330
36
100
AcDbEntity
  8
0
  6
Continuous
 62
     7
100
AcDbCircle
 10
-146.2326
 20
14.441101
 30
0.0
 40
1.0
100
AcDbArc
 50
180.0
 51
270.0
  0
ARC
  5
369
330
36
100
AcDbEntity
  8
0
  6
Continuous
 62
     7
100
AcDbCircle
 10
-143.78262
 20
37.84108
 30
0.0
 40
0.6999999900000001
100
AcDbArc
 50
90.0
 51
180.0
  0
ARC
  5
36A
330
36
100
AcDbEntity
  8
0
  6
Continuous
 62
     7
100
AcDbCircle
 10
-131.18262
 20
37.841095
 30
0.0
 40
0.6999999900000001
100
AcDbArc
 50
0.0
 51
90.0
  0
ARC
  5
36B
330
36
100
AcDbEntity
  8
0
  6
Continuous
 62
     7
100
AcDbCircle
 10
156.0174
 20
22.091095
 30
0.0
 40
1.5
100
AcDbArc
 50
0.0
 51
90.0
  0
ARC
  5
36C
330
36
100
AcDbEntity
  8
0
  6
Continuous
 62
     7
100
AcDbCircle
 10
156.0174
 20
15.091095
 30
0.0
 40
1.5
100
AcDbArc
 50
270.0
 51
0.0
  0
ARC
  5
36D
330
36
100
AcDbEntity
  8
0
  6
Continuous
 62
     7
100
AcDbCircle
 10
147.5174
 20
13.709274
 30
0.0
 40
4.7181816
100
AcDbArc
 50
197.49233
 51
342.50768
  0
ARC
  5
36E
330
36
100
AcDbEntity
  8
0
  6
Continuous
 62
     7
100
AcDbCircle
 10
147.5174
 20
13.709274
 30
0.0
 40
4.2181816
100
AcDbArc
 50
244.91942
 51
254.39826
  0
ARC
  5
36F
330
36
100
AcDbEntity
  8
0
  6
Continuous
 62
     7
100
AcDbCircle
 10
145.5174
 20
9.435958900000001
 30
0.0
 40
0.5
100
AcDbArc
 50
64.91958199999999
 51
151.88237
  0
ARC
  5
370
330
36
100
AcDbEntity
  8
0
  6
Continuous
 62
     7
100
AcDbCircle
 10
149.5174
 20
9.435958900000001
 30
0.0
 40
0.5
100
AcDbArc
 50
28.117627
 51
115.08042
  0
ARC
  5
371
330
36
100
AcDbEntity
  8
0
  6
Continuous
 62
     7
100
AcDbCircle
 10
147.5174
 20
10.491089
 30
0.0
 40
0.5
100
AcDbArc
 50
0.0
 51
180.0
  0
ARC
  5
372
330
36
100
AcDbEntity
  8
0
  6
Continuous
 62
     7
100
AcDbCircle
 10
147.5174
 20
13.709274
 30
0.0
 40
4.2181816
100
AcDbArc
 50
285.60174
 51
295.08058
  0
ARC
  5
373
330
36
100
AcDbEntity
  8
0
  6
Continuous
 62
     7
100
AcDbCircle
 10
146.5174
 20
10.128098
 30
0.0
 40
0.5
100
AcDbArc
 50
254.39812
 51
0.0
  0
ARC
  5
374
330
36
100
AcDbEntity
  8
0
  6
Continuous
 62
     7
100
AcDbCircle
 10
148.5174
 20
10.128098
 30
0.0
 40
0.5
100
AcDbArc
 50
180.0
 51
285.60188
  0
ARC
  5
375
330
36
100
AcDbEntity
  8
0
  6
Continuous
 62
     7
100
AcDbCircle
 10
-147.58258
 20
10.291092
 30
0.0
 40
1.0
100
AcDbArc
 50
251.40581
 51
270.0
  0
ARC
  5
376
330
36
100
AcDbEntity
  8
0
  6
Continuous
 62
     7
100
AcDbCircle
 10
-127.3826
 20
10.291092
 30
0.0
 40
1.0
100
AcDbArc
 50
270.0
 51
288.59416
  0
ARC
  5
377
330
36
100
AcDbEntity
  8
0
  6
Continuous
 62
     7
100
AcDbCircle
 10
12.767397
 20
102.59109
 30
0.0
 40
2.0
100
AcDbArc
 50
180.0
 51
270.0
  0
ARC
  5
378
330
36
100
AcDbEntity
  8
0
  6
Continuous
 62
     7
100
AcDbCircle
 10
12.767397
 20
124.59109
 30
0.0
 40
2.0
100
AcDbArc
 50
90.0
 51
180.0
  0
ARC
  5
379
330
36
100
AcDbEntity
  8
0
  6
Continuous
 62
     7
100
AcDbCircle
 10
42.26739499999999
 20
124.59109
 30
0.0
 40
2.0
100
AcDbArc
 50
0.0
 51
90.0
  0
ARC
  5
37A
330
36
100
AcDbEntity
  8
0
  6
Continuous
 62
     7
100
AcDbCircle
 10
42.26739499999999
 20
102.59109
 30
0.0
 40
2.0
100
AcDbArc
 50
270.0
 51
0.0
  0
CIRCLE
  5
37B
330
36
100
AcDbEntity
  8
0
  6
Continuous
 62
     7
100
AcDbCircle
 10
27.517397
 20
113.59109
 30
0.0
 40
9.75
  0
CIRCLE
  5
37C
330
36
100
AcDbEntity
  8
0
  6
Continuous
 62
     7
100
AcDbCircle
 10
27.517397
 20
113.59109
 30
0.0
 40
8.75
  0
ARC
  5
37D
330
36
100
AcDbEntity
  8
0
  6
Continuous
 62
     7
100
AcDbCircle
 10
9.798036599999999
 20
102.09109
 30
0.0
 40
0.5
100
AcDbArc
 50
270.0
 51
0.0
  0
ARC
  5
37E
330
36
100
AcDbEntity
  8
0
  6
Continuous
 62
     7
100
AcDbCircle
 10
9.0402088
 20
102.59109
 30
0.0
 40
0.5
100
AcDbArc
 50
270.0
 51
0.0
  0
ARC
  5
37F
330
36
100
AcDbEntity
  8
0
  6
Continuous
 62
     7
100
AcDbCircle
 10
7.935914999999999
 20
102.09109
 30
0.0
 40
0.5
100
AcDbArc
 50
180.0
 51
270.0
  0
ARC
  5
380
330
36
100
AcDbEntity
  8
0
  6
Continuous
 62
     7
100
AcDbCircle
 10
9.599657099999999
 20
102.09109
 30
0.0
 40
0.5
100
AcDbArc
 50
270.0
 51
0.0
  0
ARC
  5
381
330
36
100
AcDbEntity
  8
0
  6
Continuous
 62
     7
100
AcDbCircle
 10
7.935914999999999
 20
125.09109
 30
0.0
 40
0.5
100
AcDbArc
 50
90.0
 51
180.0
  0
ARC
  5
382
330
36
100
AcDbEntity
  8
0
  6
Continuous
 62
     7
100
AcDbCircle
 10
9.599657099999999
 20
125.09109
 30
0.0
 40
0.5
100
AcDbArc
 50
0.0
 51
90.0
  0
ARC
  5
383
330
36
100
AcDbEntity
  8
0
  6
Continuous
 62
     7
100
AcDbCircle
 10
9.0402088
 20
124.59109
 30
0.0
 40
0.5
100
AcDbArc
 50
0.0
 51
90.0
  0
ARC
  5
384
330
36
100
AcDbEntity
  8
0
  6
Continuous
 62
     7
100
AcDbCircle
 10
9.798036599999999
 20
125.09109
 30
0.0
 40
0.5
100
AcDbArc
 50
0.0
 51
90.0
  0
CIRCLE
  5
385
330
36
100
AcDbEntity
  8
0
  6
Continuous
 62
     7
100
AcDbCircle
 10
27.517397
 20
113.59109
 30
0.0
 40
7.0
  0
ARC
  5
386
330
36
100
AcDbEntity
  8
0
  6
Continuous
 62
     7
100
AcDbCircle
 10
156.0174
 20
105.59109
 30
0.0
 40
1.5
100
AcDbArc
 50
270.0
 51
0.0
  0
ARC
  5
387
330
36
100
AcDbEntity
  8
0
  6
Continuous
 62
     7
100
AcDbCircle
 10
156.0174
 20
121.59109
 30
0.0
 40
1.5
100
AcDbArc
 50
0.0
 51
90.0
  0
ARC
  5
388
330
36
100
AcDbEntity
  8
0
  6
Continuous
 62
     7
100
AcDbCircle
 10
-60.98260500000001
 20
121.59109
 30
0.0
 40
1.5
100
AcDbArc
 50
90.0
 51
180.0
  0
ARC
  5
389
330
36
100
AcDbEntity
  8
0
  6
Continuous
 62
     7
100
AcDbCircle
 10
-60.98260500000001
 20
105.59109
 30
0.0
 40
1.5
100
AcDbArc
 50
180.0
 51
270.0
  0
ARC
  5
38A
330
36
100
AcDbEntity
  8
0
  6
Continuous
 62
     7
100
AcDbCircle
 10
45.236763
 20
125.09109
 30
0.0
 40
0.5
100
AcDbArc
 50
90.0
 51
180.0
  0
ARC
  5
38B
330
36
100
AcDbEntity
  8
0
  6
Continuous
 62
     7
100
AcDbCircle
 10
45.435143
 20
125.09109
 30
0.0
 40
0.5
100
AcDbArc
 50
90.0
 51
180.0
  0
ARC
  5
38C
330
36
100
AcDbEntity
  8
0
  6
Continuous
 62
     7
100
AcDbCircle
 10
45.99459099999999
 20
124.59109
 30
0.0
 40
0.5
100
AcDbArc
 50
90.0
 51
180.0
  0
ARC
  5
38D
330
36
100
AcDbEntity
  8
0
  6
Continuous
 62
     7
100
AcDbCircle
 10
45.236763
 20
102.09109
 30
0.0
 40
0.5
100
AcDbArc
 50
180.0
 51
270.0
  0
ARC
  5
38E
330
36
100
AcDbEntity
  8
0
  6
Continuous
 62
     7
100
AcDbCircle
 10
45.99459099999999
 20
102.59109
 30
0.0
 40
0.5
100
AcDbArc
 50
180.0
 51
270.0
  0
ARC
  5
38F
330
36
100
AcDbEntity
  8
0
  6
Continuous
 62
     7
100
AcDbCircle
 10
47.09888499999999
 20
102.09109
 30
0.0
 40
0.5
100
AcDbArc
 50
270.0
 51
0.0
  0
ARC
  5
390
330
36
100
AcDbEntity
  8
0
  6
Continuous
 62
     7
100
AcDbCircle
 10
45.435143
 20
102.09109
 30
0.0
 40
0.5
100
AcDbArc
 50
180.0
 51
270.0
  0
ARC
  5
391
330
36
100
AcDbEntity
  8
0
  6
Continuous
 62
     7
100
AcDbCircle
 10
47.09888499999999
 20
125.09109
 30
0.0
 40
0.5
100
AcDbArc
 50
0.0
 51
90.0
  0
ARC
  5
392
330
36
100
AcDbEntity
  8
0
  6
Continuous
 62
     7
100
AcDbCircle
 10
-52.482605
 20
113.59109
 30
0.0
 40
11.0
100
AcDbArc
 50
239.72736
 51
300.27264
  0
ARC
  5
393
330
36
100
AcDbEntity
  8
0
  6
Continuous
 62
     7
100
AcDbCircle
 10
37.017395
 20
-5.908904999999999
 30
0.0
 40
2.5
100
AcDbArc
 50
0.0
 51
90.0
  0
ARC
  5
394
330
36
100
AcDbEntity
  8
0
  6
Continuous
 62
     7
100
AcDbCircle
 10
18.017397
 20
-5.908904999999999
 30
0.0
 40
2.5
100
AcDbArc
 50
90.0
 51
180.0
  0
ARC
  5
395
330
36
100
AcDbEntity
  8
0
  6
Continuous
 62
     7
100
AcDbCircle
 10
39.517395
 20
-7.908904999999999
 30
0.0
 40
2.5
100
AcDbArc
 50
179.99999
 51
270.0
  0
ARC
  5
396
330
36
100
AcDbEntity
  8
0
  6
Continuous
 62
     7
100
AcDbCircle
 10
15.517397
 20
-7.908904999999999
 30
0.0
 40
2.5
100
AcDbArc
 50
270.0
 51
0.0
  0
ARC
  5
397
330
36
100
AcDbEntity
  8
0
  6
Continuous
 62
     7
100
AcDbCircle
 10
8.217393899999999
 20
126.89108
 30
0.0
 40
0.6999999900000001
100
AcDbArc
 50
90.0
 51
180.0
  0
ARC
  5
398
330
36
100
AcDbEntity
  8
0
  6
Continuous
 62
     7
100
AcDbCircle
 10
46.81739799999999
 20
126.89108
 30
0.0
 40
0.6999999900000001
100
AcDbArc
 50
0.0
 51
90.0
  0
ARC
  5
399
330
36
100
AcDbEntity
  8
0
  6
Continuous
 62
     7
100
AcDbCircle
 10
8.217393899999999
 20
100.29109
 30
0.0
 40
0.6999999900000001
100
AcDbArc
 50
180.0
 51
270.0
  0
ARC
  5
39A
330
36
100
AcDbEntity
  8
0
  6
Continuous
 62
     7
100
AcDbCircle
 10
46.81739799999999
 20
100.29109
 30
0.0
 40
0.6999999900000001
100
AcDbArc
 50
270.0
 51
0.0
  0
ARC
  5
39B
330
36
100
AcDbEntity
  8
0
  6
Continuous
 62
     7
100
AcDbCircle
 10
-145.79999
 20
32.091095
 30
0.0
 40
0.6999999900000001
100
AcDbArc
 50
90.0
 51
153.43495
  0
ARC
  5
39C
330
36
100
AcDbEntity
  8
0
  6
Continuous
 62
     7
100
AcDbCircle
 10
-129.16519
 20
32.091095
 30
0.0
 40
0.6999999900000001
100
AcDbArc
 50
26.565051
 51
90.0
  0
ARC
  5
39D
330
36
100
AcDbEntity
  8
0
  6
Continuous
 62
     7
100
AcDbCircle
 10
33.817383
 20
37.841095
 30
0.0
 40
0.6999999900000001
100
AcDbArc
 50
0.0
 51
90.0
  0
ARC
  5
39E
330
36
100
AcDbEntity
  8
0
  6
Continuous
 62
     7
100
AcDbCircle
 10
21.217394
 20
37.84108
 30
0.0
 40
0.6999999900000001
100
AcDbArc
 50
90.0
 51
180.0
  0
ARC
  5
39F
330
36
100
AcDbEntity
  8
0
  6
Continuous
 62
     7
100
AcDbCircle
 10
40.716881
 20
26.791092
 30
0.0
 40
4.0
100
AcDbArc
 50
6.813699599999999
 51
90.0
  0
ARC
  5
3A0
330
36
100
AcDbEntity
  8
0
  6
Continuous
 62
     7
100
AcDbCircle
 10
14.317904
 20
26.791092
 30
0.0
 40
4.0
100
AcDbArc
 50
90.0
 51
173.1863
  0
ARC
  5
3A1
330
36
100
AcDbEntity
  8
0
  6
Continuous
 62
     7
100
AcDbCircle
 10
35.83477
 20
32.091095
 30
0.0
 40
0.6999999900000001
100
AcDbArc
 50
26.565051
 51
90.0
  0
ARC
  5
3A2
330
36
100
AcDbEntity
  8
0
  6
Continuous
 62
     7
100
AcDbCircle
 10
19.200006
 20
32.091095
 30
0.0
 40
0.6999999900000001
100
AcDbArc
 50
90.0
 51
153.43495
  0
ARC
  5
3A3
330
36
100
AcDbEntity
  8
0
  6
Continuous
 62
     7
100
AcDbCircle
 10
-60.98260500000001
 20
22.09111
 30
0.0
 40
1.5
100
AcDbArc
 50
90.0
 51
180.0
  0
ARC
  5
3A4
330
36
100
AcDbEntity
  8
0
  6
Continuous
 62
     7
100
AcDbCircle
 10
-60.98260500000001
 20
15.09111
 30
0.0
 40
1.5
100
AcDbArc
 50
180.0
 51
270.0
  0
ARC
  5
3A5
330
36
100
AcDbEntity
  8
0
  6
Continuous
 62
     7
100
AcDbCircle
 10
-154.9826
 20
10.091095
 30
0.0
 40
2.5
100
AcDbArc
 50
90.0
 51
180.0
  0
ARC
  5
3A6
330
36
100
AcDbEntity
  8
0
  6
Continuous
 62
     7
100
AcDbCircle
 10
-147.9826
 20
10.900558
 30
0.0
 40
1.0
100
AcDbArc
 50
234.0434
 51
270.0
  0
ARC
  5
3A7
330
36
100
AcDbEntity
  8
0
  6
Continuous
 62
     7
100
AcDbCircle
 10
27.517397
 20
-3.3839111
 30
0.0
 40
6.625
100
AcDbArc
 50
238.10921
 51
301.89079
  0
POLYLINE
  5
3A8
330
36
100
AcDbEntity
  8
0
  6
Continuous
 62
     7
100
AcDb2dPolyline
 66
     1
 10
0.0
 20
0.0
 30
0.0
  0
VERTEX
  5
3A9
330
3A8
100
AcDbEntity
  8
0
  6
Continuous
 62
     7
100
AcDbVertex
100
AcDb2dVertex
 10
114.5564
 20
28.189095
 30
0.0
  0
VERTEX
  5
3AA
330
3A8
100
AcDbEntity
  8
0
  6
Continuous
 62
     7
100
AcDbVertex
100
AcDb2dVertex
 10
114.3928
 20
27.825096
 30
0.0
  0
VERTEX
  5
3AB
330
3A8
100
AcDbEntity
  8
0
  6
Continuous
 62
     7
100
AcDbVertex
100
AcDb2dVertex
 10
114.2304
 20
27.461098
 30
0.0
  0
VERTEX
  5
3AC
330
3A8
100
AcDbEntity
  8
0
  6
Continuous
 62
     7
100
AcDbVertex
100
AcDb2dVertex
 10
114.0705
 20
27.098099
 30
0.0
  0
VERTEX
  5
3AD
330
3A8
100
AcDbEntity
  8
0
  6
Continuous
 62
     7
100
AcDbVertex
100
AcDb2dVertex
 10
113.9143
 20
26.736092
 30
0.0
  0
VERTEX
  5
3AE
330
3A8
100
AcDbEntity
  8
0
  6
Continuous
 62
     7
100
AcDbVertex
100
AcDb2dVertex
 10
113.7631
 20
26.377098
 30
0.0
  0
VERTEX
  5
3AF
330
3A8
100
AcDbEntity
  8
0
  6
Continuous
 62
     7
100
AcDbVertex
100
AcDb2dVertex
 10
113.6181
 20
26.019096
 30
0.0
  0
VERTEX
  5
3B0
330
3A8
100
AcDbEntity
  8
0
  6
Continuous
 62
     7
100
AcDbVertex
100
AcDb2dVertex
 10
113.4805
 20
25.665092
 30
0.0
  0
VERTEX
  5
3B1
330
3A8
100
AcDbEntity
  8
0
  6
Continuous
 62
     7
100
AcDbVertex
100
AcDb2dVertex
 10
113.3517
 20
25.313095
 30
0.0
  0
VERTEX
  5
3B2
330
3A8
100
AcDbEntity
  8
0
  6
Continuous
 62
     7
100
AcDbVertex
100
AcDb2dVertex
 10
113.2327
 20
24.966095
 30
0.0
  0
VERTEX
  5
3B3
330
3A8
100
AcDbEntity
  8
0
  6
Continuous
 62
     7
100
AcDbVertex
100
AcDb2dVertex
 10
113.125
 20
24.622093
 30
0.0
  0
VERTEX
  5
3B4
330
3A8
100
AcDbEntity
  8
0
  6
Continuous
 62
     7
100
AcDbVertex
100
AcDb2dVertex
 10
113.02969
 20
24.283096
 30
0.0
  0
VERTEX
  5
3B5
330
3A8
100
AcDbEntity
  8
0
  6
Continuous
 62
     7
100
AcDbVertex
100
AcDb2dVertex
 10
112.9481
 20
23.950096
 30
0.0
  0
VERTEX
  5
3B6
330
3A8
100
AcDbEntity
  8
0
  6
Continuous
 62
     7
100
AcDbVertex
100
AcDb2dVertex
 10
112.88139
 20
23.621094
 30
0.0
  0
VERTEX
  5
3B7
330
3A8
100
AcDbEntity
  8
0
  6
Continuous
 62
     7
100
AcDbVertex
100
AcDb2dVertex
 10
112.8308
 20
23.299095
 30
0.0
  0
VERTEX
  5
3B8
330
3A8
100
AcDbEntity
  8
0
  6
Continuous
 62
     7
100
AcDbVertex
100
AcDb2dVertex
 10
112.7977
 20
22.983093
 30
0.0
  0
VERTEX
  5
3B9
330
3A8
100
AcDbEntity
  8
0
  6
Continuous
 62
     7
100
AcDbVertex
100
AcDb2dVertex
 10
112.7832
 20
22.675095
 30
0.0
  0
VERTEX
  5
3BA
330
3A8
100
AcDbEntity
  8
0
  6
Continuous
 62
     7
100
AcDbVertex
100
AcDb2dVertex
 10
112.78799
 20
22.373093
 30
0.0
  0
VERTEX
  5
3BB
330
3A8
100
AcDbEntity
  8
0
  6
Continuous
 62
     7
100
AcDbVertex
100
AcDb2dVertex
 10
112.8109
 20
22.079094
 30
0.0
  0
VERTEX
  5
3BC
330
3A8
100
AcDbEntity
  8
0
  6
Continuous
 62
     7
100
AcDbVertex
100
AcDb2dVertex
 10
112.8499
 20
21.791092
 30
0.0
  0
VERTEX
  5
3BD
330
3A8
100
AcDbEntity
  8
0
  6
Continuous
 62
     7
100
AcDbVertex
100
AcDb2dVertex
 10
112.9031
 20
21.511093
 30
0.0
  0
VERTEX
  5
3BE
330
3A8
100
AcDbEntity
  8
0
  6
Continuous
 62
     7
100
AcDbVertex
100
AcDb2dVertex
 10
112.9688
 20
21.236092
 30
0.0
  0
VERTEX
  5
3BF
330
3A8
100
AcDbEntity
  8
0
  6
Continuous
 62
     7
100
AcDbVertex
100
AcDb2dVertex
 10
113.045
 20
20.968094
 30
0.0
  0
VERTEX
  5
3C0
330
3A8
100
AcDbEntity
  8
0
  6
Continuous
 62
     7
100
AcDbVertex
100
AcDb2dVertex
 10
113.1298
 20
20.706093
 30
0.0
  0
VERTEX
  5
3C1
330
3A8
100
AcDbEntity
  8
0
  6
Continuous
 62
     7
100
AcDbVertex
100
AcDb2dVertex
 10
113.2214
 20
20.449097
 30
0.0
  0
VERTEX
  5
3C2
330
3A8
100
AcDbEntity
  8
0
  6
Continuous
 62
     7
100
AcDbVertex
100
AcDb2dVertex
 10
113.31789
 20
20.198097
 30
0.0
  0
VERTEX
  5
3C3
330
3A8
100
AcDbEntity
  8
0
  6
Continuous
 62
     7
100
AcDbVertex
100
AcDb2dVertex
 10
113.4175
 20
19.952095
 30
0.0
  0
VERTEX
  5
3C4
330
3A8
100
AcDbEntity
  8
0
  6
Continuous
 62
     7
100
AcDbVertex
100
AcDb2dVertex
 10
113.5182
 20
19.711098
 30
0.0
  0
VERTEX
  5
3C5
330
3A8
100
AcDbEntity
  8
0
  6
Continuous
 62
     7
100
AcDbVertex
100
AcDb2dVertex
 10
113.6181
 20
19.474098
 30
0.0
  0
VERTEX
  5
3C6
330
3A8
100
AcDbEntity
  8
0
  6
Continuous
 62
     7
100
AcDbVertex
100
AcDb2dVertex
 10
113.7155
 20
19.242096
 30
0.0
  0
VERTEX
  5
3C7
330
3A8
100
AcDbEntity
  8
0
  6
Continuous
 62
     7
100
AcDbVertex
100
AcDb2dVertex
 10
113.80849
 20
19.014091
 30
0.0
  0
VERTEX
  5
3C8
330
3A8
100
AcDbEntity
  8
0
  6
Continuous
 62
     7
100
AcDbVertex
100
AcDb2dVertex
 10
113.8951
 20
18.790092
 30
0.0
  0
VERTEX
  5
3C9
330
3A8
100
AcDbEntity
  8
0
  6
Continuous
 62
     7
100
AcDbVertex
100
AcDb2dVertex
 10
113.9734
 20
18.569092
 30
0.0
  0
VERTEX
  5
3CA
330
3A8
100
AcDbEntity
  8
0
  6
Continuous
 62
     7
100
AcDbVertex
100
AcDb2dVertex
 10
114.0421
 20
18.352097
 30
0.0
  0
VERTEX
  5
3CB
330
3A8
100
AcDbEntity
  8
0
  6
Continuous
 62
     7
100
AcDbVertex
100
AcDb2dVertex
 10
114.10059
 20
18.138092
 30
0.0
  0
VERTEX
  5
3CC
330
3A8
100
AcDbEntity
  8
0
  6
Continuous
 62
     7
100
AcDbVertex
100
AcDb2dVertex
 10
114.1492
 20
17.926094
 30
0.0
  0
VERTEX
  5
3CD
330
3A8
100
AcDbEntity
  8
0
  6
Continuous
 62
     7
100
AcDbVertex
100
AcDb2dVertex
 10
114.1876
 20
17.716095
 30
0.0
  0
VERTEX
  5
3CE
330
3A8
100
AcDbEntity
  8
0
  6
Continuous
 62
     7
100
AcDbVertex
100
AcDb2dVertex
 10
114.21609
 20
17.506096
 30
0.0
  0
VERTEX
  5
3CF
330
3A8
100
AcDbEntity
  8
0
  6
Continuous
 62
     7
100
AcDbVertex
100
AcDb2dVertex
 10
114.2346
 20
17.297096
 30
0.0
  0
VERTEX
  5
3D0
330
3A8
100
AcDbEntity
  8
0
  6
Continuous
 62
     7
100
AcDbVertex
100
AcDb2dVertex
 10
114.2431
 20
17.088097
 30
0.0
  0
VERTEX
  5
3D1
330
3A8
100
AcDbEntity
  8
0
  6
Continuous
 62
     7
100
AcDbVertex
100
AcDb2dVertex
 10
114.2416
 20
16.877098
 30
0.0
  0
VERTEX
  5
3D2
330
3A8
100
AcDbEntity
  8
0
  6
Continuous
 62
     7
100
AcDbVertex
100
AcDb2dVertex
 10
114.23019
 20
16.666092
 30
0.0
  0
VERTEX
  5
3D3
330
3A8
100
AcDbEntity
  8
0
  6
Continuous
 62
     7
100
AcDbVertex
100
AcDb2dVertex
 10
114.20879
 20
16.452095
 30
0.0
  0
VERTEX
  5
3D4
330
3A8
100
AcDbEntity
  8
0
  6
Continuous
 62
     7
100
AcDbVertex
100
AcDb2dVertex
 10
114.1775
 20
16.235092
 30
0.0
  0
VERTEX
  5
3D5
330
3A8
100
AcDbEntity
  8
0
  6
Continuous
 62
     7
100
AcDbVertex
100
AcDb2dVertex
 10
114.1363
 20
16.015099
 30
0.0
  0
VERTEX
  5
3D6
330
3A8
100
AcDbEntity
  8
0
  6
Continuous
 62
     7
100
AcDbVertex
100
AcDb2dVertex
 10
114.0853
 20
15.792091
 30
0.0
  0
VERTEX
  5
3D7
330
3A8
100
AcDbEntity
  8
0
  6
Continuous
 62
     7
100
AcDbVertex
100
AcDb2dVertex
 10
114.0243
 20
15.563095
 30
0.0
  0
VERTEX
  5
3D8
330
3A8
100
AcDbEntity
  8
0
  6
Continuous
 62
     7
100
AcDbVertex
100
AcDb2dVertex
 10
113.9535
 20
15.330093
 30
0.0
  0
VERTEX
  5
3D9
330
3A8
100
AcDbEntity
  8
0
  6
Continuous
 62
     7
100
AcDbVertex
100
AcDb2dVertex
 10
113.87289
 20
15.091095
 30
0.0
  0
VERTEX
  5
3DA
330
3A8
100
AcDbEntity
  8
0
  6
Continuous
 62
     7
100
AcDbVertex
100
AcDb2dVertex
 10
113.78249
 20
14.846092
 30
0.0
  0
VERTEX
  5
3DB
330
3A8
100
AcDbEntity
  8
0
  6
Continuous
 62
     7
100
AcDbVertex
100
AcDb2dVertex
 10
113.6829
 20
14.595093
 30
0.0
  0
VERTEX
  5
3DC
330
3A8
100
AcDbEntity
  8
0
  6
Continuous
 62
     7
100
AcDbVertex
100
AcDb2dVertex
 10
113.5748
 20
14.338097
 30
0.0
  0
VERTEX
  5
3DD
330
3A8
100
AcDbEntity
  8
0
  6
Continuous
 62
     7
100
AcDbVertex
100
AcDb2dVertex
 10
113.4586
 20
14.076096
 30
0.0
  0
VERTEX
  5
3DE
330
3A8
100
AcDbEntity
  8
0
  6
Continuous
 62
     7
100
AcDbVertex
100
AcDb2dVertex
 10
113.3351
 20
13.809097
 30
0.0
  0
VERTEX
  5
3DF
330
3A8
100
AcDbEntity
  8
0
  6
Continuous
 62
     7
100
AcDbVertex
100
AcDb2dVertex
 10
113.2048
 20
13.538094
 30
0.0
  0
VERTEX
  5
3E0
330
3A8
100
AcDbEntity
  8
0
  6
Continuous
 62
     7
100
AcDbVertex
100
AcDb2dVertex
 10
113.0684
 20
13.263092
 30
0.0
  0
VERTEX
  5
3E1
330
3A8
100
AcDbEntity
  8
0
  6
Continuous
 62
     7
100
AcDbVertex
100
AcDb2dVertex
 10
112.9265
 20
12.984093
 30
0.0
  0
VERTEX
  5
3E2
330
3A8
100
AcDbEntity
  8
0
  6
Continuous
 62
     7
100
AcDbVertex
100
AcDb2dVertex
 10
112.77959
 20
12.703094
 30
0.0
  0
VERTEX
  5
3E3
330
3A8
100
AcDbEntity
  8
0
  6
Continuous
 62
     7
100
AcDbVertex
100
AcDb2dVertex
 10
112.62849
 20
12.418098
 30
0.0
  0
VERTEX
  5
3E4
330
3A8
100
AcDbEntity
  8
0
  6
Continuous
 62
     7
100
AcDbVertex
100
AcDb2dVertex
 10
112.47369
 20
12.131096
 30
0.0
  0
VERTEX
  5
3E5
330
3A8
100
AcDbEntity
  8
0
  6
Continuous
 62
     7
100
AcDbVertex
100
AcDb2dVertex
 10
112.3158
 20
11.842094
 30
0.0
  0
VERTEX
  5
3E6
330
3A8
100
AcDbEntity
  8
0
  6
Continuous
 62
     7
100
AcDbVertex
100
AcDb2dVertex
 10
112.1554
 20
11.552094
 30
0.0
  0
VERTEX
  5
3E7
330
3A8
100
AcDbEntity
  8
0
  6
Continuous
 62
     7
100
AcDbVertex
100
AcDb2dVertex
 10
111.99319
 20
11.260094
 30
0.0
  0
VERTEX
  5
3E8
330
3A8
100
AcDbEntity
  8
0
  6
Continuous
 62
     7
100
AcDbVertex
100
AcDb2dVertex
 10
111.8298
 20
10.968094
 30
0.0
  0
VERTEX
  5
3E9
330
3A8
100
AcDbEntity
  8
0
  6
Continuous
 62
     7
100
AcDbVertex
100
AcDb2dVertex
 10
111.66579
 20
10.675095
 30
0.0
  0
SEQEND
  5
3EA
330
3A8
100
AcDbEntity
  8
0
  6
Continuous
 62
     7
  0
POLYLINE
  5
3EB
330
36
100
AcDbEntity
  8
0
  6
Continuous
 62
     7
100
AcDb2dPolyline
 66
     1
 10
0.0
 20
0.0
 30
0.0
  0
VERTEX
  5
3EC
330
3EB
100
AcDbEntity
  8
0
  6
Continuous
 62
     7
100
AcDbVertex
100
AcDb2dVertex
 10
132.95569
 20
28.189095
 30
0.0
  0
VERTEX
  5
3ED
330
3EB
100
AcDbEntity
  8
0
  6
Continuous
 62
     7
100
AcDbVertex
100
AcDb2dVertex
 10
132.79199
 20
27.825096
 30
0.0
  0
VERTEX
  5
3EE
330
3EB
100
AcDbEntity
  8
0
  6
Continuous
 62
     7
100
AcDbVertex
100
AcDb2dVertex
 10
132.62961
 20
27.461098
 30
0.0
  0
VERTEX
  5
3EF
330
3EB
100
AcDbEntity
  8
0
  6
Continuous
 62
     7
100
AcDbVertex
100
AcDb2dVertex
 10
132.4697
 20
27.098099
 30
0.0
  0
VERTEX
  5
3F0
330
3EB
100
AcDbEntity
  8
0
  6
Continuous
 62
     7
100
AcDbVertex
100
AcDb2dVertex
 10
132.31351
 20
26.736092
 30
0.0
  0
VERTEX
  5
3F1
330
3EB
100
AcDbEntity
  8
0
  6
Continuous
 62
     7
100
AcDbVertex
100
AcDb2dVertex
 10
132.16229
 20
26.377098
 30
0.0
  0
VERTEX
  5
3F2
330
3EB
100
AcDbEntity
  8
0
  6
Continuous
 62
     7
100
AcDbVertex
100
AcDb2dVertex
 10
132.0173
 20
26.019096
 30
0.0
  0
VERTEX
  5
3F3
330
3EB
100
AcDbEntity
  8
0
  6
Continuous
 62
     7
100
AcDbVertex
100
AcDb2dVertex
 10
131.8797
 20
25.665092
 30
0.0
  0
VERTEX
  5
3F4
330
3EB
100
AcDbEntity
  8
0
  6
Continuous
 62
     7
100
AcDbVertex
100
AcDb2dVertex
 10
131.7509
 20
25.313095
 30
0.0
  0
VERTEX
  5
3F5
330
3EB
100
AcDbEntity
  8
0
  6
Continuous
 62
     7
100
AcDbVertex
100
AcDb2dVertex
 10
131.63199
 20
24.966095
 30
0.0
  0
VERTEX
  5
3F6
330
3EB
100
AcDbEntity
  8
0
  6
Continuous
 62
     7
100
AcDbVertex
100
AcDb2dVertex
 10
131.5242
 20
24.622093
 30
0.0
  0
VERTEX
  5
3F7
330
3EB
100
AcDbEntity
  8
0
  6
Continuous
 62
     7
100
AcDbVertex
100
AcDb2dVertex
 10
131.42889
 20
24.283096
 30
0.0
  0
VERTEX
  5
3F8
330
3EB
100
AcDbEntity
  8
0
  6
Continuous
 62
     7
100
AcDbVertex
100
AcDb2dVertex
 10
131.34729
 20
23.950096
 30
0.0
  0
VERTEX
  5
3F9
330
3EB
100
AcDbEntity
  8
0
  6
Continuous
 62
     7
100
AcDbVertex
100
AcDb2dVertex
 10
131.28059
 20
23.621094
 30
0.0
  0
VERTEX
  5
3FA
330
3EB
100
AcDbEntity
  8
0
  6
Continuous
 62
     7
100
AcDbVertex
100
AcDb2dVertex
 10
131.23
 20
23.299095
 30
0.0
  0
VERTEX
  5
3FB
330
3EB
100
AcDbEntity
  8
0
  6
Continuous
 62
     7
100
AcDbVertex
100
AcDb2dVertex
 10
131.1969
 20
22.983093
 30
0.0
  0
VERTEX
  5
3FC
330
3EB
100
AcDbEntity
  8
0
  6
Continuous
 62
     7
100
AcDbVertex
100
AcDb2dVertex
 10
131.1824
 20
22.675095
 30
0.0
  0
VERTEX
  5
3FD
330
3EB
100
AcDbEntity
  8
0
  6
Continuous
 62
     7
100
AcDbVertex
100
AcDb2dVertex
 10
131.18719
 20
22.373093
 30
0.0
  0
VERTEX
  5
3FE
330
3EB
100
AcDbEntity
  8
0
  6
Continuous
 62
     7
100
AcDbVertex
100
AcDb2dVertex
 10
131.2101
 20
22.079094
 30
0.0
  0
VERTEX
  5
3FF
330
3EB
100
AcDbEntity
  8
0
  6
Continuous
 62
     7
100
AcDbVertex
100
AcDb2dVertex
 10
131.2491
 20
21.791092
 30
0.0
  0
VERTEX
  5
400
330
3EB
100
AcDbEntity
  8
0
  6
Continuous
 62
     7
100
AcDbVertex
100
AcDb2dVertex
 10
131.3024
 20
21.511093
 30
0.0
  0
VERTEX
  5
401
330
3EB
100
AcDbEntity
  8
0
  6
Continuous
 62
     7
100
AcDbVertex
100
AcDb2dVertex
 10
131.368
 20
21.236092
 30
0.0
  0
VERTEX
  5
402
330
3EB
100
AcDbEntity
  8
0
  6
Continuous
 62
     7
100
AcDbVertex
100
AcDb2dVertex
 10
131.4442
 20
20.968094
 30
0.0
  0
VERTEX
  5
403
330
3EB
100
AcDbEntity
  8
0
  6
Continuous
 62
     7
100
AcDbVertex
100
AcDb2dVertex
 10
131.52899
 20
20.706093
 30
0.0
  0
VERTEX
  5
404
330
3EB
100
AcDbEntity
  8
0
  6
Continuous
 62
     7
100
AcDbVertex
100
AcDb2dVertex
 10
131.62061
 20
20.449097
 30
0.0
  0
VERTEX
  5
405
330
3EB
100
AcDbEntity
  8
0
  6
Continuous
 62
     7
100
AcDbVertex
100
AcDb2dVertex
 10
131.7171
 20
20.198097
 30
0.0
  0
VERTEX
  5
406
330
3EB
100
AcDbEntity
  8
0
  6
Continuous
 62
     7
100
AcDbVertex
100
AcDb2dVertex
 10
131.8167
 20
19.952095
 30
0.0
  0
VERTEX
  5
407
330
3EB
100
AcDbEntity
  8
0
  6
Continuous
 62
     7
100
AcDbVertex
100
AcDb2dVertex
 10
132.1147
 20
19.242096
 30
0.0
  0
VERTEX
  5
408
330
3EB
100
AcDbEntity
  8
0
  6
Continuous
 62
     7
100
AcDbVertex
100
AcDb2dVertex
 10
132.2077
 20
19.014091
 30
0.0
  0
VERTEX
  5
409
330
3EB
100
AcDbEntity
  8
0
  6
Continuous
 62
     7
100
AcDbVertex
100
AcDb2dVertex
 10
132.2943
 20
18.790092
 30
0.0
  0
VERTEX
  5
40A
330
3EB
100
AcDbEntity
  8
0
  6
Continuous
 62
     7
100
AcDbVertex
100
AcDb2dVertex
 10
132.3727
 20
18.569092
 30
0.0
  0
VERTEX
  5
40B
330
3EB
100
AcDbEntity
  8
0
  6
Continuous
 62
     7
100
AcDbVertex
100
AcDb2dVertex
 10
132.4413
 20
18.352097
 30
0.0
  0
VERTEX
  5
40C
330
3EB
100
AcDbEntity
  8
0
  6
Continuous
 62
     7
100
AcDbVertex
100
AcDb2dVertex
 10
132.49979
 20
18.138092
 30
0.0
  0
VERTEX
  5
40D
330
3EB
100
AcDbEntity
  8
0
  6
Continuous
 62
     7
100
AcDbVertex
100
AcDb2dVertex
 10
132.5484
 20
17.926094
 30
0.0
  0
VERTEX
  5
40E
330
3EB
100
AcDbEntity
  8
0
  6
Continuous
 62
     7
100
AcDbVertex
100
AcDb2dVertex
 10
132.5869
 20
17.716095
 30
0.0
  0
VERTEX
  5
40F
330
3EB
100
AcDbEntity
  8
0
  6
Continuous
 62
     7
100
AcDbVertex
100
AcDb2dVertex
 10
132.6153
 20
17.506096
 30
0.0
  0
VERTEX
  5
410
330
3EB
100
AcDbEntity
  8
0
  6
Continuous
 62
     7
100
AcDbVertex
100
AcDb2dVertex
 10
132.63379
 20
17.297096
 30
0.0
  0
VERTEX
  5
411
330
3EB
100
AcDbEntity
  8
0
  6
Continuous
 62
     7
100
AcDbVertex
100
AcDb2dVertex
 10
132.6423
 20
17.088097
 30
0.0
  0
VERTEX
  5
412
330
3EB
100
AcDbEntity
  8
0
  6
Continuous
 62
     7
100
AcDbVertex
100
AcDb2dVertex
 10
132.64081
 20
16.877098
 30
0.0
  0
VERTEX
  5
413
330
3EB
100
AcDbEntity
  8
0
  6
Continuous
 62
     7
100
AcDbVertex
100
AcDb2dVertex
 10
132.62939
 20
16.666092
 30
0.0
  0
VERTEX
  5
414
330
3EB
100
AcDbEntity
  8
0
  6
Continuous
 62
     7
100
AcDbVertex
100
AcDb2dVertex
 10
132.608
 20
16.452095
 30
0.0
  0
VERTEX
  5
415
330
3EB
100
AcDbEntity
  8
0
  6
Continuous
 62
     7
100
AcDbVertex
100
AcDb2dVertex
 10
132.57669
 20
16.235092
 30
0.0
  0
VERTEX
  5
416
330
3EB
100
AcDbEntity
  8
0
  6
Continuous
 62
     7
100
AcDbVertex
100
AcDb2dVertex
 10
132.53549
 20
16.015099
 30
0.0
  0
VERTEX
  5
417
330
3EB
100
AcDbEntity
  8
0
  6
Continuous
 62
     7
100
AcDbVertex
100
AcDb2dVertex
 10
132.4845
 20
15.792091
 30
0.0
  0
VERTEX
  5
418
330
3EB
100
AcDbEntity
  8
0
  6
Continuous
 62
     7
100
AcDbVertex
100
AcDb2dVertex
 10
132.42349
 20
15.563095
 30
0.0
  0
VERTEX
  5
419
330
3EB
100
AcDbEntity
  8
0
  6
Continuous
 62
     7
100
AcDbVertex
100
AcDb2dVertex
 10
132.35269
 20
15.330093
 30
0.0
  0
VERTEX
  5
41A
330
3EB
100
AcDbEntity
  8
0
  6
Continuous
 62
     7
100
AcDbVertex
100
AcDb2dVertex
 10
132.27209
 20
15.091095
 30
0.0
  0
VERTEX
  5
41B
330
3EB
100
AcDbEntity
  8
0
  6
Continuous
 62
     7
100
AcDbVertex
100
AcDb2dVertex
 10
132.1817
 20
14.846092
 30
0.0
  0
VERTEX
  5
41C
330
3EB
100
AcDbEntity
  8
0
  6
Continuous
 62
     7
100
AcDbVertex
100
AcDb2dVertex
 10
132.08209
 20
14.595093
 30
0.0
  0
VERTEX
  5
41D
330
3EB
100
AcDbEntity
  8
0
  6
Continuous
 62
     7
100
AcDbVertex
100
AcDb2dVertex
 10
131.974
 20
14.338097
 30
0.0
  0
VERTEX
  5
41E
330
3EB
100
AcDbEntity
  8
0
  6
Continuous
 62
     7
100
AcDbVertex
100
AcDb2dVertex
 10
131.85779
 20
14.076096
 30
0.0
  0
VERTEX
  5
41F
330
3EB
100
AcDbEntity
  8
0
  6
Continuous
 62
     7
100
AcDbVertex
100
AcDb2dVertex
 10
131.7343
 20
13.809097
 30
0.0
  0
VERTEX
  5
420
330
3EB
100
AcDbEntity
  8
0
  6
Continuous
 62
     7
100
AcDbVertex
100
AcDb2dVertex
 10
131.604
 20
13.538094
 30
0.0
  0
VERTEX
  5
421
330
3EB
100
AcDbEntity
  8
0
  6
Continuous
 62
     7
100
AcDbVertex
100
AcDb2dVertex
 10
131.46759
 20
13.263092
 30
0.0
  0
VERTEX
  5
422
330
3EB
100
AcDbEntity
  8
0
  6
Continuous
 62
     7
100
AcDbVertex
100
AcDb2dVertex
 10
131.3257
 20
12.984093
 30
0.0
  0
VERTEX
  5
423
330
3EB
100
AcDbEntity
  8
0
  6
Continuous
 62
     7
100
AcDbVertex
100
AcDb2dVertex
 10
131.1788
 20
12.703094
 30
0.0
  0
VERTEX
  5
424
330
3EB
100
AcDbEntity
  8
0
  6
Continuous
 62
     7
100
AcDbVertex
100
AcDb2dVertex
 10
131.02769
 20
12.418098
 30
0.0
  0
VERTEX
  5
425
330
3EB
100
AcDbEntity
  8
0
  6
Continuous
 62
     7
100
AcDbVertex
100
AcDb2dVertex
 10
130.87289
 20
12.131096
 30
0.0
  0
VERTEX
  5
426
330
3EB
100
AcDbEntity
  8
0
  6
Continuous
 62
     7
100
AcDbVertex
100
AcDb2dVertex
 10
130.715
 20
11.842094
 30
0.0
  0
VERTEX
  5
427
330
3EB
100
AcDbEntity
  8
0
  6
Continuous
 62
     7
100
AcDbVertex
100
AcDb2dVertex
 10
130.3924
 20
11.260094
 30
0.0
  0
VERTEX
  5
428
330
3EB
100
AcDbEntity
  8
0
  6
Continuous
 62
     7
100
AcDbVertex
100
AcDb2dVertex
 10
130.065
 20
10.675095
 30
0.0
  0
SEQEND
  5
429
330
3EB
100
AcDbEntity
  8
0
  6
Continuous
 62
     7
  0
POLYLINE
  5
42A
330
36
100
AcDbEntity
  8
0
  6
Continuous
 62
     7
100
AcDb2dPolyline
 66
     1
 10
0.0
 20
0.0
 30
0.0
  0
VERTEX
  5
42B
330
42A
100
AcDbEntity
  8
0
  6
Continuous
 62
     7
100
AcDbVertex
100
AcDb2dVertex
 10
47.01747899999999
 20
103.84109
 30
0.0
 42
0.016360933
  0
VERTEX
  5
42C
330
42A
100
AcDbEntity
  8
0
  6
Continuous
 62
     7
100
AcDbVertex
100
AcDb2dVertex
 10
47.025852
 20
103.84217
 30
0.0
 42
0.016360933
  0
VERTEX
  5
42D
330
42A
100
AcDbEntity
  8
0
  6
Continuous
 62
     7
100
AcDbVertex
100
AcDb2dVertex
 10
47.03419
 20
103.84537
 30
0.0
 42
0.016360933
  0
VERTEX
  5
42E
330
42A
100
AcDbEntity
  8
0
  6
Continuous
 62
     7
100
AcDbVertex
100
AcDb2dVertex
 10
47.042456
 20
103.8507
 30
0.0
 42
0.016360933
  0
VERTEX
  5
42F
330
42A
100
AcDbEntity
  8
0
  6
Continuous
 62
     7
100
AcDbVertex
100
AcDb2dVertex
 10
47.050614
 20
103.85813
 30
0.0
 42
0.016360933
  0
VERTEX
  5
430
330
42A
100
AcDbEntity
  8
0
  6
Continuous
 62
     7
100
AcDbVertex
100
AcDb2dVertex
 10
47.058632
 20
103.86762
 30
0.0
 42
0.016360933
  0
VERTEX
  5
431
330
42A
100
AcDbEntity
  8
0
  6
Continuous
 62
     7
100
AcDbVertex
100
AcDb2dVertex
 10
47.06647299999999
 20
103.87914
 30
0.0
 42
0.016360933
  0
VERTEX
  5
432
330
42A
100
AcDbEntity
  8
0
  6
Continuous
 62
     7
100
AcDbVertex
100
AcDb2dVertex
 10
47.07410399999999
 20
103.89264
 30
0.0
 42
0.016360933
  0
VERTEX
  5
433
330
42A
100
AcDbEntity
  8
0
  6
Continuous
 62
     7
100
AcDbVertex
100
AcDb2dVertex
 10
47.081493
 20
103.90806
 30
0.0
 42
0.016360933
  0
VERTEX
  5
434
330
42A
100
AcDbEntity
  8
0
  6
Continuous
 62
     7
100
AcDbVertex
100
AcDb2dVertex
 10
47.088608
 20
103.92533
 30
0.0
 42
0.016360933
  0
VERTEX
  5
435
330
42A
100
AcDbEntity
  8
0
  6
Continuous
 62
     7
100
AcDbVertex
100
AcDb2dVertex
 10
47.095418
 20
103.94438
 30
0.0
 42
0.016360933
  0
VERTEX
  5
436
330
42A
100
AcDbEntity
  8
0
  6
Continuous
 62
     7
100
AcDbVertex
100
AcDb2dVertex
 10
47.101895
 20
103.96513
 30
0.0
 42
0.016360933
  0
VERTEX
  5
437
330
42A
100
AcDbEntity
  8
0
  6
Continuous
 62
     7
100
AcDbVertex
100
AcDb2dVertex
 10
47.10801
 20
103.98749
 30
0.0
 42
0.016360933
  0
VERTEX
  5
438
330
42A
100
AcDbEntity
  8
0
  6
Continuous
 62
     7
100
AcDbVertex
100
AcDb2dVertex
 10
47.11373799999999
 20
104.01136
 30
0.0
 42
0.016360933
  0
VERTEX
  5
439
330
42A
100
AcDbEntity
  8
0
  6
Continuous
 62
     7
100
AcDbVertex
100
AcDb2dVertex
 10
47.119054
 20
104.03665
 30
0.0
 42
0.016360933
  0
VERTEX
  5
43A
330
42A
100
AcDbEntity
  8
0
  6
Continuous
 62
     7
100
AcDbVertex
100
AcDb2dVertex
 10
47.123935
 20
104.06324
 30
0.0
 42
0.016360933
  0
VERTEX
  5
43B
330
42A
100
AcDbEntity
  8
0
  6
Continuous
 62
     7
100
AcDbVertex
100
AcDb2dVertex
 10
47.12836
 20
104.09101
 30
0.0
 42
-1.0
  0
SEQEND
  5
43C
330
42A
100
AcDbEntity
  8
0
  6
Continuous
 62
     7
  0
POLYLINE
  5
43D
330
36
100
AcDbEntity
  8
0
  6
Continuous
 62
     7
100
AcDb2dPolyline
 66
     1
 10
0.0
 20
0.0
 30
0.0
  0
VERTEX
  5
43E
330
43D
100
AcDbEntity
  8
0
  6
Continuous
 62
     7
100
AcDbVertex
100
AcDb2dVertex
 10
47.12836
 20
123.09118
 30
0.0
 42
0.016360933
  0
VERTEX
  5
43F
330
43D
100
AcDbEntity
  8
0
  6
Continuous
 62
     7
100
AcDbVertex
100
AcDb2dVertex
 10
47.123935
 20
123.11895
 30
0.0
 42
0.016360933
  0
VERTEX
  5
440
330
43D
100
AcDbEntity
  8
0
  6
Continuous
 62
     7
100
AcDbVertex
100
AcDb2dVertex
 10
47.119054
 20
123.14554
 30
0.0
 42
0.016360933
  0
VERTEX
  5
441
330
43D
100
AcDbEntity
  8
0
  6
Continuous
 62
     7
100
AcDbVertex
100
AcDb2dVertex
 10
47.11373799999999
 20
123.17083
 30
0.0
 42
0.016360933
  0
VERTEX
  5
442
330
43D
100
AcDbEntity
  8
0
  6
Continuous
 62
     7
100
AcDbVertex
100
AcDb2dVertex
 10
47.10801
 20
123.1947
 30
0.0
 42
0.016360933
  0
VERTEX
  5
443
330
43D
100
AcDbEntity
  8
0
  6
Continuous
 62
     7
100
AcDbVertex
100
AcDb2dVertex
 10
47.101895
 20
123.21706
 30
0.0
 42
0.016360933
  0
VERTEX
  5
444
330
43D
100
AcDbEntity
  8
0
  6
Continuous
 62
     7
100
AcDbVertex
100
AcDb2dVertex
 10
47.095418
 20
123.23781
 30
0.0
 42
0.016360933
  0
VERTEX
  5
445
330
43D
100
AcDbEntity
  8
0
  6
Continuous
 62
     7
100
AcDbVertex
100
AcDb2dVertex
 10
47.088608
 20
123.25686
 30
0.0
 42
0.016360933
  0
VERTEX
  5
446
330
43D
100
AcDbEntity
  8
0
  6
Continuous
 62
     7
100
AcDbVertex
100
AcDb2dVertex
 10
47.081493
 20
123.27413
 30
0.0
 42
0.016360933
  0
VERTEX
  5
447
330
43D
100
AcDbEntity
  8
0
  6
Continuous
 62
     7
100
AcDbVertex
100
AcDb2dVertex
 10
47.07410399999999
 20
123.28955
 30
0.0
 42
0.016360933
  0
VERTEX
  5
448
330
43D
100
AcDbEntity
  8
0
  6
Continuous
 62
     7
100
AcDbVertex
100
AcDb2dVertex
 10
47.06647299999999
 20
123.30305
 30
0.0
 42
0.016360933
  0
VERTEX
  5
449
330
43D
100
AcDbEntity
  8
0
  6
Continuous
 62
     7
100
AcDbVertex
100
AcDb2dVertex
 10
47.058632
 20
123.31457
 30
0.0
 42
0.016360933
  0
VERTEX
  5
44A
330
43D
100
AcDbEntity
  8
0
  6
Continuous
 62
     7
100
AcDbVertex
100
AcDb2dVertex
 10
47.050614
 20
123.32406
 30
0.0
 42
0.016360933
  0
VERTEX
  5
44B
330
43D
100
AcDbEntity
  8
0
  6
Continuous
 62
     7
100
AcDbVertex
100
AcDb2dVertex
 10
47.042456
 20
123.33149
 30
0.0
 42
0.016360933
  0
VERTEX
  5
44C
330
43D
100
AcDbEntity
  8
0
  6
Continuous
 62
     7
100
AcDbVertex
100
AcDb2dVertex
 10
47.03419
 20
123.33682
 30
0.0
 42
0.016360933
  0
VERTEX
  5
44D
330
43D
100
AcDbEntity
  8
0
  6
Continuous
 62
     7
100
AcDbVertex
100
AcDb2dVertex
 10
47.025852
 20
123.34002
 30
0.0
 42
0.016360933
  0
VERTEX
  5
44E
330
43D
100
AcDbEntity
  8
0
  6
Continuous
 62
     7
100
AcDbVertex
100
AcDb2dVertex
 10
47.01747899999999
 20
123.34109
 30
0.0
 42
-1.0
  0
SEQEND
  5
44F
330
43D
100
AcDbEntity
  8
0
  6
Continuous
 62
     7
  0
POLYLINE
  5
450
330
36
100
AcDbEntity
  8
0
  6
Continuous
 62
     7
100
AcDb2dPolyline
 66
     1
 10
0.0
 20
0.0
 30
0.0
  0
VERTEX
  5
451
330
450
100
AcDbEntity
  8
0
  6
Continuous
 62
     7
100
AcDbVertex
100
AcDb2dVertex
 10
45.826625
 20
104.34109
 30
0.0
 42
0.024548622
  0
VERTEX
  5
452
330
450
100
AcDbEntity
  8
0
  6
Continuous
 62
     7
100
AcDbVertex
100
AcDb2dVertex
 10
45.827242
 20
104.29209
 30
0.0
 42
0.024548622
  0
VERTEX
  5
453
330
450
100
AcDbEntity
  8
0
  6
Continuous
 62
     7
100
AcDbVertex
100
AcDb2dVertex
 10
45.829085
 20
104.24355
 30
0.0
 42
0.024548622
  0
VERTEX
  5
454
330
450
100
AcDbEntity
  8
0
  6
Continuous
 62
     7
100
AcDbVertex
100
AcDb2dVertex
 10
45.83213899999999
 20
104.19595
 30
0.0
 42
0.024548622
  0
VERTEX
  5
455
330
450
100
AcDbEntity
  8
0
  6
Continuous
 62
     7
100
AcDbVertex
100
AcDb2dVertex
 10
45.836372
 20
104.14975
 30
0.0
 42
0.024548622
  0
VERTEX
  5
456
330
450
100
AcDbEntity
  8
0
  6
Continuous
 62
     7
100
AcDbVertex
100
AcDb2dVertex
 10
45.841745
 20
104.1054
 30
0.0
 42
0.024548622
  0
VERTEX
  5
457
330
450
100
AcDbEntity
  8
0
  6
Continuous
 62
     7
100
AcDbVertex
100
AcDb2dVertex
 10
45.848205
 20
104.06331
 30
0.0
 42
0.024548622
  0
VERTEX
  5
458
330
450
100
AcDbEntity
  8
0
  6
Continuous
 62
     7
100
AcDbVertex
100
AcDb2dVertex
 10
45.85569099999999
 20
104.0239
 30
0.0
 42
0.024548622
  0
VERTEX
  5
459
330
450
100
AcDbEntity
  8
0
  6
Continuous
 62
     7
100
AcDbVertex
100
AcDb2dVertex
 10
45.86412999999999
 20
103.98754
 30
0.0
 42
0.024548622
  0
VERTEX
  5
45A
330
450
100
AcDbEntity
  8
0
  6
Continuous
 62
     7
100
AcDbVertex
100
AcDb2dVertex
 10
45.87344
 20
103.95459
 30
0.0
 42
0.024548622
  0
VERTEX
  5
45B
330
450
100
AcDbEntity
  8
0
  6
Continuous
 62
     7
100
AcDbVertex
100
AcDb2dVertex
 10
45.883534
 20
103.92536
 30
0.0
 42
0.024548622
  0
VERTEX
  5
45C
330
450
100
AcDbEntity
  8
0
  6
Continuous
 62
     7
100
AcDbVertex
100
AcDb2dVertex
 10
45.89431199999999
 20
103.90013
 30
0.0
 42
0.024548622
  0
VERTEX
  5
45D
330
450
100
AcDbEntity
  8
0
  6
Continuous
 62
     7
100
AcDbVertex
100
AcDb2dVertex
 10
45.90567199999999
 20
103.87916
 30
0.0
 42
0.024548622
  0
VERTEX
  5
45E
330
450
100
AcDbEntity
  8
0
  6
Continuous
 62
     7
100
AcDbVertex
100
AcDb2dVertex
 10
45.917503
 20
103.86262
 30
0.0
 42
0.024548622
  0
VERTEX
  5
45F
330
450
100
AcDbEntity
  8
0
  6
Continuous
 62
     7
100
AcDbVertex
100
AcDb2dVertex
 10
45.929693
 20
103.8507
 30
0.0
 42
0.024548622
  0
VERTEX
  5
460
330
450
100
AcDbEntity
  8
0
  6
Continuous
 62
     7
100
AcDbVertex
100
AcDb2dVertex
 10
45.94212299999999
 20
103.8435
 30
0.0
 42
0.024548622
  0
VERTEX
  5
461
330
450
100
AcDbEntity
  8
0
  6
Continuous
 62
     7
100
AcDbVertex
100
AcDb2dVertex
 10
45.95467399999999
 20
103.84109
 30
0.0
 42
-1.0
  0
SEQEND
  5
462
330
450
100
AcDbEntity
  8
0
  6
Continuous
 62
     7
  0
POLYLINE
  5
463
330
36
100
AcDbEntity
  8
0
  6
Continuous
 62
     7
100
AcDb2dPolyline
 66
     1
 10
0.0
 20
0.0
 30
0.0
  0
VERTEX
  5
464
330
463
100
AcDbEntity
  8
0
  6
Continuous
 62
     7
100
AcDbVertex
100
AcDb2dVertex
 10
7.9064394
 20
104.09101
 30
0.0
 42
0.016360933
  0
VERTEX
  5
465
330
463
100
AcDbEntity
  8
0
  6
Continuous
 62
     7
100
AcDbVertex
100
AcDb2dVertex
 10
7.910864699999999
 20
104.06324
 30
0.0
 42
0.016360933
  0
VERTEX
  5
466
330
463
100
AcDbEntity
  8
0
  6
Continuous
 62
     7
100
AcDbVertex
100
AcDb2dVertex
 10
7.915745699999999
 20
104.03665
 30
0.0
 42
0.016360933
  0
VERTEX
  5
467
330
463
100
AcDbEntity
  8
0
  6
Continuous
 62
     7
100
AcDbVertex
100
AcDb2dVertex
 10
7.921061599999999
 20
104.01136
 30
0.0
 42
0.016360933
  0
VERTEX
  5
468
330
463
100
AcDbEntity
  8
0
  6
Continuous
 62
     7
100
AcDbVertex
100
AcDb2dVertex
 10
7.9267895
 20
103.98749
 30
0.0
 42
0.016360933
  0
VERTEX
  5
469
330
463
100
AcDbEntity
  8
0
  6
Continuous
 62
     7
100
AcDbVertex
100
AcDb2dVertex
 10
7.932904899999999
 20
103.96513
 30
0.0
 42
0.016360933
  0
VERTEX
  5
46A
330
463
100
AcDbEntity
  8
0
  6
Continuous
 62
     7
100
AcDbVertex
100
AcDb2dVertex
 10
7.939381599999999
 20
103.94438
 30
0.0
 42
0.016360933
  0
VERTEX
  5
46B
330
463
100
AcDbEntity
  8
0
  6
Continuous
 62
     7
100
AcDbVertex
100
AcDb2dVertex
 10
7.946191999999999
 20
103.92533
 30
0.0
 42
0.016360933
  0
VERTEX
  5
46C
330
463
100
AcDbEntity
  8
0
  6
Continuous
 62
     7
100
AcDbVertex
100
AcDb2dVertex
 10
7.9533068
 20
103.90806
 30
0.0
 42
0.016360933
  0
VERTEX
  5
46D
330
463
100
AcDbEntity
  8
0
  6
Continuous
 62
     7
100
AcDbVertex
100
AcDb2dVertex
 10
7.960695699999999
 20
103.89264
 30
0.0
 42
0.016360933
  0
VERTEX
  5
46E
330
463
100
AcDbEntity
  8
0
  6
Continuous
 62
     7
100
AcDbVertex
100
AcDb2dVertex
 10
7.968327
 20
103.87914
 30
0.0
 42
0.016360933
  0
VERTEX
  5
46F
330
463
100
AcDbEntity
  8
0
  6
Continuous
 62
     7
100
AcDbVertex
100
AcDb2dVertex
 10
7.9761679
 20
103.86762
 30
0.0
 42
0.016360933
  0
VERTEX
  5
470
330
463
100
AcDbEntity
  8
0
  6
Continuous
 62
     7
100
AcDbVertex
100
AcDb2dVertex
 10
7.984185099999999
 20
103.85813
 30
0.0
 42
0.016360933
  0
VERTEX
  5
471
330
463
100
AcDbEntity
  8
0
  6
Continuous
 62
     7
100
AcDbVertex
100
AcDb2dVertex
 10
7.992344099999999
 20
103.8507
 30
0.0
 42
0.016360933
  0
VERTEX
  5
472
330
463
100
AcDbEntity
  8
0
  6
Continuous
 62
     7
100
AcDbVertex
100
AcDb2dVertex
 10
8.0006099
 20
103.84537
 30
0.0
 42
0.016360933
  0
VERTEX
  5
473
330
463
100
AcDbEntity
  8
0
  6
Continuous
 62
     7
100
AcDbVertex
100
AcDb2dVertex
 10
8.0089474
 20
103.84217
 30
0.0
 42
0.016360933
  0
VERTEX
  5
474
330
463
100
AcDbEntity
  8
0
  6
Continuous
 62
     7
100
AcDbVertex
100
AcDb2dVertex
 10
8.017320599999999
 20
103.84109
 30
0.0
 42
-1.0
  0
SEQEND
  5
475
330
463
100
AcDbEntity
  8
0
  6
Continuous
 62
     7
  0
POLYLINE
  5
476
330
36
100
AcDbEntity
  8
0
  6
Continuous
 62
     7
100
AcDb2dPolyline
 66
     1
 10
0.0
 20
0.0
 30
0.0
  0
VERTEX
  5
477
330
476
100
AcDbEntity
  8
0
  6
Continuous
 62
     7
100
AcDbVertex
100
AcDb2dVertex
 10
45.95467399999999
 20
123.34109
 30
0.0
 42
0.024548622
  0
VERTEX
  5
478
330
476
100
AcDbEntity
  8
0
  6
Continuous
 62
     7
100
AcDbVertex
100
AcDb2dVertex
 10
45.94212299999999
 20
123.33869
 30
0.0
 42
0.024548622
  0
VERTEX
  5
479
330
476
100
AcDbEntity
  8
0
  6
Continuous
 62
     7
100
AcDbVertex
100
AcDb2dVertex
 10
45.929693
 20
123.33149
 30
0.0
 42
0.024548622
  0
VERTEX
  5
47A
330
476
100
AcDbEntity
  8
0
  6
Continuous
 62
     7
100
AcDbVertex
100
AcDb2dVertex
 10
45.917503
 20
123.31957
 30
0.0
 42
0.024548622
  0
VERTEX
  5
47B
330
476
100
AcDbEntity
  8
0
  6
Continuous
 62
     7
100
AcDbVertex
100
AcDb2dVertex
 10
45.90567199999999
 20
123.30303
 30
0.0
 42
0.024548622
  0
VERTEX
  5
47C
330
476
100
AcDbEntity
  8
0
  6
Continuous
 62
     7
100
AcDbVertex
100
AcDb2dVertex
 10
45.89431199999999
 20
123.28206
 30
0.0
 42
0.024548622
  0
VERTEX
  5
47D
330
476
100
AcDbEntity
  8
0
  6
Continuous
 62
     7
100
AcDbVertex
100
AcDb2dVertex
 10
45.883534
 20
123.25683
 30
0.0
 42
0.024548622
  0
VERTEX
  5
47E
330
476
100
AcDbEntity
  8
0
  6
Continuous
 62
     7
100
AcDbVertex
100
AcDb2dVertex
 10
45.87344
 20
123.2276
 30
0.0
 42
0.024548622
  0
VERTEX
  5
47F
330
476
100
AcDbEntity
  8
0
  6
Continuous
 62
     7
100
AcDbVertex
100
AcDb2dVertex
 10
45.86412999999999
 20
123.19465
 30
0.0
 42
0.024548622
  0
VERTEX
  5
480
330
476
100
AcDbEntity
  8
0
  6
Continuous
 62
     7
100
AcDbVertex
100
AcDb2dVertex
 10
45.85569099999999
 20
123.15829
 30
0.0
 42
0.024548622
  0
VERTEX
  5
481
330
476
100
AcDbEntity
  8
0
  6
Continuous
 62
     7
100
AcDbVertex
100
AcDb2dVertex
 10
45.848205
 20
123.11888
 30
0.0
 42
0.024548622
  0
VERTEX
  5
482
330
476
100
AcDbEntity
  8
0
  6
Continuous
 62
     7
100
AcDbVertex
100
AcDb2dVertex
 10
45.841745
 20
123.07679
 30
0.0
 42
0.024548622
  0
VERTEX
  5
483
330
476
100
AcDbEntity
  8
0
  6
Continuous
 62
     7
100
AcDbVertex
100
AcDb2dVertex
 10
45.836372
 20
123.03244
 30
0.0
 42
0.024548622
  0
VERTEX
  5
484
330
476
100
AcDbEntity
  8
0
  6
Continuous
 62
     7
100
AcDbVertex
100
AcDb2dVertex
 10
45.83213899999999
 20
122.98624
 30
0.0
 42
0.024548622
  0
VERTEX
  5
485
330
476
100
AcDbEntity
  8
0
  6
Continuous
 62
     7
100
AcDbVertex
100
AcDb2dVertex
 10
45.829085
 20
122.93864
 30
0.0
 42
0.024548622
  0
VERTEX
  5
486
330
476
100
AcDbEntity
  8
0
  6
Continuous
 62
     7
100
AcDbVertex
100
AcDb2dVertex
 10
45.827242
 20
122.8901
 30
0.0
 42
0.024548622
  0
VERTEX
  5
487
330
476
100
AcDbEntity
  8
0
  6
Continuous
 62
     7
100
AcDbVertex
100
AcDb2dVertex
 10
45.826625
 20
122.84109
 30
0.0
 42
-1.0
  0
SEQEND
  5
488
330
476
100
AcDbEntity
  8
0
  6
Continuous
 62
     7
  0
POLYLINE
  5
489
330
36
100
AcDbEntity
  8
0
  6
Continuous
 62
     7
100
AcDb2dPolyline
 66
     1
 10
0.0
 20
0.0
 30
0.0
  0
VERTEX
  5
48A
330
489
100
AcDbEntity
  8
0
  6
Continuous
 62
     7
100
AcDbVertex
100
AcDb2dVertex
 10
8.017320599999999
 20
123.34109
 30
0.0
 42
0.016360933
  0
VERTEX
  5
48B
330
489
100
AcDbEntity
  8
0
  6
Continuous
 62
     7
100
AcDbVertex
100
AcDb2dVertex
 10
8.0089474
 20
123.34002
 30
0.0
 42
0.016360933
  0
VERTEX
  5
48C
330
489
100
AcDbEntity
  8
0
  6
Continuous
 62
     7
100
AcDbVertex
100
AcDb2dVertex
 10
8.0006099
 20
123.33682
 30
0.0
 42
0.016360933
  0
VERTEX
  5
48D
330
489
100
AcDbEntity
  8
0
  6
Continuous
 62
     7
100
AcDbVertex
100
AcDb2dVertex
 10
7.992344099999999
 20
123.33149
 30
0.0
 42
0.016360933
  0
VERTEX
  5
48E
330
489
100
AcDbEntity
  8
0
  6
Continuous
 62
     7
100
AcDbVertex
100
AcDb2dVertex
 10
7.984185099999999
 20
123.32406
 30
0.0
 42
0.016360933
  0
VERTEX
  5
48F
330
489
100
AcDbEntity
  8
0
  6
Continuous
 62
     7
100
AcDbVertex
100
AcDb2dVertex
 10
7.9761679
 20
123.31457
 30
0.0
 42
0.016360933
  0
VERTEX
  5
490
330
489
100
AcDbEntity
  8
0
  6
Continuous
 62
     7
100
AcDbVertex
100
AcDb2dVertex
 10
7.968327
 20
123.30305
 30
0.0
 42
0.016360933
  0
VERTEX
  5
491
330
489
100
AcDbEntity
  8
0
  6
Continuous
 62
     7
100
AcDbVertex
100
AcDb2dVertex
 10
7.960695699999999
 20
123.28955
 30
0.0
 42
0.016360933
  0
VERTEX
  5
492
330
489
100
AcDbEntity
  8
0
  6
Continuous
 62
     7
100
AcDbVertex
100
AcDb2dVertex
 10
7.9533068
 20
123.27413
 30
0.0
 42
0.016360933
  0
VERTEX
  5
493
330
489
100
AcDbEntity
  8
0
  6
Continuous
 62
     7
100
AcDbVertex
100
AcDb2dVertex
 10
7.946191999999999
 20
123.25686
 30
0.0
 42
0.016360933
  0
VERTEX
  5
494
330
489
100
AcDbEntity
  8
0
  6
Continuous
 62
     7
100
AcDbVertex
100
AcDb2dVertex
 10
7.939381599999999
 20
123.23781
 30
0.0
 42
0.016360933
  0
VERTEX
  5
495
330
489
100
AcDbEntity
  8
0
  6
Continuous
 62
     7
100
AcDbVertex
100
AcDb2dVertex
 10
7.932904899999999
 20
123.21706
 30
0.0
 42
0.016360933
  0
VERTEX
  5
496
330
489
100
AcDbEntity
  8
0
  6
Continuous
 62
     7
100
AcDbVertex
100
AcDb2dVertex
 10
7.9267895
 20
123.1947
 30
0.0
 42
0.016360933
  0
VERTEX
  5
497
330
489
100
AcDbEntity
  8
0
  6
Continuous
 62
     7
100
AcDbVertex
100
AcDb2dVertex
 10
7.921061599999999
 20
123.17083
 30
0.0
 42
0.016360933
  0
VERTEX
  5
498
330
489
100
AcDbEntity
  8
0
  6
Continuous
 62
     7
100
AcDbVertex
100
AcDb2dVertex
 10
7.915745699999999
 20
123.14554
 30
0.0
 42
0.016360933
  0
VERTEX
  5
499
330
489
100
AcDbEntity
  8
0
  6
Continuous
 62
     7
100
AcDbVertex
100
AcDb2dVertex
 10
7.910864699999999
 20
123.11895
 30
0.0
 42
0.016360933
  0
VERTEX
  5
49A
330
489
100
AcDbEntity
  8
0
  6
Continuous
 62
     7
100
AcDbVertex
100
AcDb2dVertex
 10
7.9064394
 20
123.09118
 30
0.0
 42
-1.0
  0
SEQEND
  5
49B
330
489
100
AcDbEntity
  8
0
  6
Continuous
 62
     7
  0
POLYLINE
  5
49C
330
36
100
AcDbEntity
  8
0
  6
Continuous
 62
     7
100
AcDb2dPolyline
 66
     1
 10
0.0
 20
0.0
 30
0.0
  0
VERTEX
  5
49D
330
49C
100
AcDbEntity
  8
0
  6
Continuous
 62
     7
100
AcDbVertex
100
AcDb2dVertex
 10
9.208174599999999
 20
122.84109
 30
0.0
 42
0.024548622
  0
VERTEX
  5
49E
330
49C
100
AcDbEntity
  8
0
  6
Continuous
 62
     7
100
AcDbVertex
100
AcDb2dVertex
 10
9.207558
 20
122.8901
 30
0.0
 42
0.024548622
  0
VERTEX
  5
49F
330
49C
100
AcDbEntity
  8
0
  6
Continuous
 62
     7
100
AcDbVertex
100
AcDb2dVertex
 10
9.205714199999999
 20
122.93864
 30
0.0
 42
0.024548622
  0
VERTEX
  5
4A0
330
49C
100
AcDbEntity
  8
0
  6
Continuous
 62
     7
100
AcDbVertex
100
AcDb2dVertex
 10
9.202660899999999
 20
122.98624
 30
0.0
 42
0.024548622
  0
VERTEX
  5
4A1
330
49C
100
AcDbEntity
  8
0
  6
Continuous
 62
     7
100
AcDbVertex
100
AcDb2dVertex
 10
9.198427499999999
 20
123.03244
 30
0.0
 42
0.024548622
  0
VERTEX
  5
4A2
330
49C
100
AcDbEntity
  8
0
  6
Continuous
 62
     7
100
AcDbVertex
100
AcDb2dVertex
 10
9.1930548
 20
123.07679
 30
0.0
 42
0.024548622
  0
VERTEX
  5
4A3
330
49C
100
AcDbEntity
  8
0
  6
Continuous
 62
     7
100
AcDbVertex
100
AcDb2dVertex
 10
9.186594499999999
 20
123.11888
 30
0.0
 42
0.024548622
  0
VERTEX
  5
4A4
330
49C
100
AcDbEntity
  8
0
  6
Continuous
 62
     7
100
AcDbVertex
100
AcDb2dVertex
 10
9.179108900000001
 20
123.15829
 30
0.0
 42
0.024548622
  0
VERTEX
  5
4A5
330
49C
100
AcDbEntity
  8
0
  6
Continuous
 62
     7
100
AcDbVertex
100
AcDb2dVertex
 10
9.170669999999999
 20
123.19465
 30
0.0
 42
0.024548622
  0
VERTEX
  5
4A6
330
49C
100
AcDbEntity
  8
0
  6
Continuous
 62
     7
100
AcDbVertex
100
AcDb2dVertex
 10
9.1613591
 20
123.2276
 30
0.0
 42
0.024548622
  0
VERTEX
  5
4A7
330
49C
100
AcDbEntity
  8
0
  6
Continuous
 62
     7
100
AcDbVertex
100
AcDb2dVertex
 10
9.1512659
 20
123.25683
 30
0.0
 42
0.024548622
  0
VERTEX
  5
4A8
330
49C
100
AcDbEntity
  8
0
  6
Continuous
 62
     7
100
AcDbVertex
100
AcDb2dVertex
 10
9.140487599999998
 20
123.28206
 30
0.0
 42
0.024548622
  0
VERTEX
  5
4A9
330
49C
100
AcDbEntity
  8
0
  6
Continuous
 62
     7
100
AcDbVertex
100
AcDb2dVertex
 10
9.129127999999999
 20
123.30303
 30
0.0
 42
0.024548622
  0
VERTEX
  5
4AA
330
49C
100
AcDbEntity
  8
0
  6
Continuous
 62
     7
100
AcDbVertex
100
AcDb2dVertex
 10
9.1172964
 20
123.31957
 30
0.0
 42
0.024548622
  0
VERTEX
  5
4AB
330
49C
100
AcDbEntity
  8
0
  6
Continuous
 62
     7
100
AcDbVertex
100
AcDb2dVertex
 10
9.1051069
 20
123.33149
 30
0.0
 42
0.024548622
  0
VERTEX
  5
4AC
330
49C
100
AcDbEntity
  8
0
  6
Continuous
 62
     7
100
AcDbVertex
100
AcDb2dVertex
 10
9.092676800000001
 20
123.33869
 30
0.0
 42
0.024548622
  0
VERTEX
  5
4AD
330
49C
100
AcDbEntity
  8
0
  6
Continuous
 62
     7
100
AcDbVertex
100
AcDb2dVertex
 10
9.080125799999999
 20
123.34109
 30
0.0
 42
-1.0
  0
SEQEND
  5
4AE
330
49C
100
AcDbEntity
  8
0
  6
Continuous
 62
     7
  0
POLYLINE
  5
4AF
330
36
100
AcDbEntity
  8
0
  6
Continuous
 62
     7
100
AcDb2dPolyline
 66
     1
 10
0.0
 20
0.0
 30
0.0
  0
VERTEX
  5
4B0
330
4AF
100
AcDbEntity
  8
0
  6
Continuous
 62
     7
100
AcDbVertex
100
AcDb2dVertex
 10
9.080125799999999
 20
103.84109
 30
0.0
 42
0.024548622
  0
VERTEX
  5
4B1
330
4AF
100
AcDbEntity
  8
0
  6
Continuous
 62
     7
100
AcDbVertex
100
AcDb2dVertex
 10
9.092676800000001
 20
103.8435
 30
0.0
 42
0.024548622
  0
VERTEX
  5
4B2
330
4AF
100
AcDbEntity
  8
0
  6
Continuous
 62
     7
100
AcDbVertex
100
AcDb2dVertex
 10
9.1051069
 20
103.8507
 30
0.0
 42
0.024548622
  0
VERTEX
  5
4B3
330
4AF
100
AcDbEntity
  8
0
  6
Continuous
 62
     7
100
AcDbVertex
100
AcDb2dVertex
 10
9.1172964
 20
103.86262
 30
0.0
 42
0.024548622
  0
VERTEX
  5
4B4
330
4AF
100
AcDbEntity
  8
0
  6
Continuous
 62
     7
100
AcDbVertex
100
AcDb2dVertex
 10
9.129127999999999
 20
103.87916
 30
0.0
 42
0.024548622
  0
VERTEX
  5
4B5
330
4AF
100
AcDbEntity
  8
0
  6
Continuous
 62
     7
100
AcDbVertex
100
AcDb2dVertex
 10
9.140487599999998
 20
103.90013
 30
0.0
 42
0.024548622
  0
VERTEX
  5
4B6
330
4AF
100
AcDbEntity
  8
0
  6
Continuous
 62
     7
100
AcDbVertex
100
AcDb2dVertex
 10
9.1512659
 20
103.92536
 30
0.0
 42
0.024548622
  0
VERTEX
  5
4B7
330
4AF
100
AcDbEntity
  8
0
  6
Continuous
 62
     7
100
AcDbVertex
100
AcDb2dVertex
 10
9.1613591
 20
103.95459
 30
0.0
 42
0.024548622
  0
VERTEX
  5
4B8
330
4AF
100
AcDbEntity
  8
0
  6
Continuous
 62
     7
100
AcDbVertex
100
AcDb2dVertex
 10
9.170669999999999
 20
103.98754
 30
0.0
 42
0.024548622
  0
VERTEX
  5
4B9
330
4AF
100
AcDbEntity
  8
0
  6
Continuous
 62
     7
100
AcDbVertex
100
AcDb2dVertex
 10
9.179108900000001
 20
104.0239
 30
0.0
 42
0.024548622
  0
VERTEX
  5
4BA
330
4AF
100
AcDbEntity
  8
0
  6
Continuous
 62
     7
100
AcDbVertex
100
AcDb2dVertex
 10
9.186594499999999
 20
104.06331
 30
0.0
 42
0.024548622
  0
VERTEX
  5
4BB
330
4AF
100
AcDbEntity
  8
0
  6
Continuous
 62
     7
100
AcDbVertex
100
AcDb2dVertex
 10
9.1930548
 20
104.1054
 30
0.0
 42
0.024548622
  0
VERTEX
  5
4BC
330
4AF
100
AcDbEntity
  8
0
  6
Continuous
 62
     7
100
AcDbVertex
100
AcDb2dVertex
 10
9.198427499999999
 20
104.14975
 30
0.0
 42
0.024548622
  0
VERTEX
  5
4BD
330
4AF
100
AcDbEntity
  8
0
  6
Continuous
 62
     7
100
AcDbVertex
100
AcDb2dVertex
 10
9.202660899999999
 20
104.19595
 30
0.0
 42
0.024548622
  0
VERTEX
  5
4BE
330
4AF
100
AcDbEntity
  8
0
  6
Continuous
 62
     7
100
AcDbVertex
100
AcDb2dVertex
 10
9.205714199999999
 20
104.24355
 30
0.0
 42
0.024548622
  0
VERTEX
  5
4BF
330
4AF
100
AcDbEntity
  8
0
  6
Continuous
 62
     7
100
AcDbVertex
100
AcDb2dVertex
 10
9.207558
 20
104.29209
 30
0.0
 42
0.024548622
  0
VERTEX
  5
4C0
330
4AF
100
AcDbEntity
  8
0
  6
Continuous
 62
     7
100
AcDbVertex
100
AcDb2dVertex
 10
9.208174599999999
 20
104.34109
 30
0.0
 42
-1.0
  0
SEQEND
  5
4C1
330
4AF
100
AcDbEntity
  8
0
  6
Continuous
 62
     7
  0
TEXT
  5
4C2
330
36
100
AcDbEntity
  8
0
  6
Continuous
 62
     7
100
AcDbText
 10
-205.343
 20
167.4
 30
0.0
 40
3.2
  1
品　名
 41
0.85537027
100
AcDbText
  0
TEXT
  5
4C3
330
36
100
AcDbEntity
  8
0
  6
Continuous
 62
     7
100
AcDbText
 10
-205.343
 20
159.4
 30
0.0
 40
3.2
  1
品　番
 41
0.85537027
100
AcDbText
  0
TEXT
  5
4C4
330
36
100
AcDbEntity
  8
0
  6
Continuous
 62
     7
100
AcDbText
 10
-205.343
 20
151.4
 30
0.0
 40
3.2
  1
材　質
 41
0.85537027
100
AcDbText
  0
TEXT
  5
4C5
330
36
100
AcDbEntity
  8
0
  6
Continuous
 62
     7
100
AcDbText
 10
-205.343
 20
135.4
 30
0.0
 40
3.2
  1
仕上げ
 41
0.85537027
100
AcDbText
  0
TEXT
  5
4C6
330
36
100
AcDbEntity
  8
0
  6
Continuous
 62
     7
100
AcDbText
 10
-208.543
 20
111.4
 30
0.0
 40
3.2
  1
セットビス
 41
0.84892707
100
AcDbText
  0
TEXT
  5
4C7
330
36
100
AcDbEntity
  8
0
  6
Continuous
 62
     7
100
AcDbText
 10
-203.743
 20
95.4
 30
0.0
 40
3.2
  1
備考
 41
0.8643907499999999
100
AcDbText
  0
TEXT
  5
4C8
330
36
100
AcDbEntity
  8
0
  6
Continuous
 62
     7
100
AcDbText
 10
-206.943
 20
119.4
 30
0.0
 40
3.2
  1
左右勝手
 41
0.8512700499999999
100
AcDbText
  0
TEXT
  5
4C9
330
36
100
AcDbEntity
  8
0
  6
Continuous
 62
     7
100
AcDbText
 10
-188.143
 20
167.4
 30
0.0
 40
3.2
  1
窓用調整器
 41
0.84892707
100
AcDbText
  0
TEXT
  5
4CA
330
36
100
AcDbEntity
  8
0
  6
Continuous
 62
     7
100
AcDbText
 10
-188.143
 20
159.4
 30
0.0
 40
3.2
  1
ＯＳ－２３０
 41
0.84741102
100
AcDbText
  0
TEXT
  5
4CB
330
36
100
AcDbEntity
  8
0
  6
Continuous
 62
     7
100
AcDbText
 10
-188.37855
 20
119.36617
 30
0.0
 40
3.2
  1
無し
 41
0.8643907499999999
100
AcDbText
  0
TEXT
  5
4CC
330
36
100
AcDbEntity
  8
0
  6
Continuous
 62
     7
100
AcDbText
 10
-188.10307
 20
151.4
 30
0.0
 40
3.2
  1
ストッパーケース：亜鉛ダイキャスト
 41
0.81330015
100
AcDbText
  0
TEXT
  5
4CD
330
36
100
AcDbEntity
  8
0
  6
Continuous
 62
     7
100
AcDbText
 10
-188.10307
 20
135.4
 30
0.0
 40
3.2
  1
ストッパーケース：サーチライトニッケルクロム
 41
0.81276443
100
AcDbText
  0
TEXT
  5
4CE
330
36
100
AcDbEntity
  8
0
  6
Continuous
 62
     7
100
AcDbText
 10
-73.725092
 20
-64.928358
 30
0.0
 40
3.2
  1
※標準（Ａ）＝１８
 41
0.84496202
100
AcDbText
  0
TEXT
  5
4CF
330
36
100
AcDbEntity
  8
0
  6
Continuous
 62
     7
100
AcDbText
 10
-188.10307
 20
127.4
 30
0.0
 40
3.2
  1
アーム：ヘアーライン／ブラケット：バレル研磨
 41
0.81254725
100
AcDbText
  0
TEXT
  5
4D0
330
36
100
AcDbEntity
  8
0
  6
Continuous
 62
     7
100
AcDbText
 10
-188.03105
 20
95.4
 30
0.0
 40
3.2
  1
※付属部品：裏板１枚付
 41
0.76142313
100
AcDbText
  0
TEXT
  5
4D1
330
36
100
AcDbEntity
  8
0
  6
Continuous
 62
     7
100
AcDbText
 10
-188.143
 20
111.4
 30
0.0
 40
3.2
  1
Ｍ４×１０ナベ小ネジ　＋　ＳＵＳ６本付
 41
0.84248387
100
AcDbText
  0
TEXT
  5
4D2
330
36
100
AcDbEntity
  8
0
  6
Continuous
 62
     7
100
AcDbText
 10
-188.03105
 20
87.4
 30
0.0
 40
3.2
  1
（ブロンズ色の対応も可能です。別途お問合せ下さい。）
 41
0.7594417100000001
100
AcDbText
  0
TEXT
  5
4D3
330
36
100
AcDbEntity
  8
0
  6
Continuous
 62
     7
100
AcDbText
 10
-188.10307
 20
143.4
 30
0.0
 40
3.2
  1
アーム：ステンレス・ブラケット：ステンレス
 41
0.8128508399999999
100
AcDbText
  0
TEXT
  5
4D4
330
36
100
AcDbEntity
  8
0
  6
Continuous
 62
     7
100
AcDbText
 10
-188.03105
 20
79.40000000000001
 30
0.0
 40
3.2
  1
受注生産
 41
0.76789575
100
AcDbText
  0
DIMENSION
  5
4D5
330
36
100
AcDbEntity
  8
0
  6
Continuous
 62
     7
100
AcDbDimension
  2
*D2
 10
-52.482605
 20
84.591095
 30
0.0
 11
-56.48260500000001
 21
84.591095
 31
0.0
 71
     5
 42
-1.0
  3
DIMSTYLE
100
AcDbAlignedDimension
 13
-60.48260500000001
 23
104.09109
 33
0.0
 14
-52.482605
 24
102.09109
 34
0.0
100
AcDbRotatedDimension
1001
ACAD
1000
DSTYLE
1002
{
1070
    77
1070
     1
1070
   172
1070
     1
1002
}
  0
DIMENSION
  5
4D6
330
36
100
AcDbEntity
  8
0
  6
Continuous
 62
     7
100
AcDbDimension
  2
*D3
 10
147.5174
 20
84.591095
 30
0.0
 11
151.5174
 21
84.591095
 31
0.0
 71
     5
 42
-1.0
  3
DIMSTYLE
100
AcDbAlignedDimension
 13
155.5174
 23
104.09109
 33
0.0
 14
147.5174
 24
103.59109
 34
0.0
100
AcDbRotatedDimension
1001
ACAD
1000
DSTYLE
1002
{
1070
    77
1070
     1
1070
   172
1070
     1
1070
    75
1070
     1
1002
}
  0
DIMENSION
  5
4D7
330
36
100
AcDbEntity
  8
0
  6
Continuous
 62
     7
100
AcDbDimension
  2
*D4
 10
155.5174
 20
74.591095
 30
0.0
 11
47.517395
 21
74.591095
 31
0.0
 71
     5
 42
-1.0
  3
DIMSTYLE
100
AcDbAlignedDimension
 13
-60.48260500000001
 23
104.09109
 33
0.0
 14
155.5174
 24
104.09109
 34
0.0
100
AcDbRotatedDimension
1001
ACAD
1000
DSTYLE
1002
{
1070
    77
1070
     1
1070
   172
1070
     1
1002
}
  0
DIMENSION
  5
4D8
330
36
100
AcDbEntity
  8
0
  6
Continuous
 62
     7
100
AcDbDimension
  2
*D5
 10
-62.482605
 20
74.591095
 30
0.0
 11
-67.07488999999999
 21
74.591095
 31
0.0
 71
     5
 42
-1.0
  3
DIMSTYLE
100
AcDbAlignedDimension
 13
-60.48260500000001
 23
104.09109
 33
0.0
 14
-62.482605
 24
105.09109
 34
0.0
100
AcDbRotatedDimension
1001
ACAD
1000
DSTYLE
1002
{
1070
    77
1070
     1
1070
   172
1070
     1
1070
    75
1070
     1
1002
}
  0
DIMENSION
  5
4D9
330
36
100
AcDbEntity
  8
0
  6
Continuous
 62
     7
100
AcDbDimension
  2
*D6
 10
157.5174
 20
74.591095
 30
0.0
 11
161.54636
 21
74.591095
 31
0.0
 71
     5
 42
-1.0
  3
DIMSTYLE
100
AcDbAlignedDimension
 13
155.5174
 23
104.09109
 33
0.0
 14
157.5174
 24
105.09109
 34
0.0
100
AcDbRotatedDimension
1001
ACAD
1000
DSTYLE
1002
{
1070
    77
1070
     1
1070
   172
1070
     1
1070
    75
1070
     1
1002
}
  0
DIMENSION
  5
4DA
330
36
100
AcDbEntity
  8
0
  6
Continuous
 62
     7
100
AcDbDimension
  2
*D7
 10
47.003308
 20
115.07504
 30
0.0
 11
45.411278
 21
113.48511
 31
0.0
 70
     3
 71
     5
 42
-1.0
  3
DIMSTYLE
100
AcDbDiametricDimension
 15
44.031482
 25
112.10717
 35
0.0
 40
0.0
1001
ACAD
1000
DSTYLE
1002
{
1070
    77
1070
     1
1070
   172
1070
     1
1002
}
  0
INSERT
  5
4DB
330
36
100
AcDbEntity
  8
0
  6
Continuous
 62
     7
100
AcDbBlockReference
  2
KOZU0001
 10
47.003307
 20
115.07504
 30
0.0
  0
INSERT
  5
4DC
330
36
100
AcDbEntity
  8
0
  6
Continuous
 62
     7
100
AcDbBlockReference
  2
KOZU0002
 10
-0.48260406
 20
113.59109
 30
0.0
  0
DIMENSION
  5
4DD
330
36
100
AcDbEntity
  8
0
  6
Continuous
 62
     7
100
AcDbDimension
  2
*D8
 10
-5.982603099999999
 20
-25.408905
 30
0.0
 11
-11.9387
 21
-25.408905
 31
0.0
 71
     5
 42
-1.0
  3
DIMSTYLE
100
AcDbAlignedDimension
 13
-0.4826030700000001
 23
-17.492203
 33
0.0
 14
-5.982603099999999
 24
-10.408905
 34
0.0
100
AcDbRotatedDimension
1001
ACAD
1000
DSTYLE
1002
{
1070
    77
1070
     1
1070
   172
1070
     1
1002
}
  0
DIMENSION
  5
4DE
330
36
100
AcDbEntity
  8
0
  6
Continuous
 62
     7
100
AcDbDimension
  2
*D9
 10
9.517396899999999
 20
-25.408905
 30
0.0
 11
4.5173969
 21
-25.408905
 31
0.0
 71
     5
 42
-1.0
  3
DIMSTYLE
100
AcDbAlignedDimension
 13
-0.4826030700000001
 23
-17.492203
 33
0.0
 14
9.517396899999999
 24
-17.492203
 34
0.0
100
AcDbRotatedDimension
1001
ACAD
1000
DSTYLE
1002
{
1070
    77
1070
     1
1070
   172
1070
     1
1070
    75
1070
     1
1002
}
  0
DIMENSION
  5
4DF
330
36
100
AcDbEntity
  8
0
  6
Continuous
 62
     7
100
AcDbDimension
  2
*D10
 10
45.517395
 20
-25.408905
 30
0.0
 11
27.517397
 21
-25.408905
 31
0.0
 71
     5
 42
-1.0
  3
DIMSTYLE
100
AcDbAlignedDimension
 13
9.517396899999999
 23
-17.492203
 33
0.0
 14
45.517395
 24
-17.492203
 34
0.0
100
AcDbRotatedDimension
1001
ACAD
1000
DSTYLE
1002
{
1070
    77
1070
     1
1070
   172
1070
     1
1070
    75
1070
     1
1002
}
  0
DIMENSION
  5
4E0
330
36
100
AcDbEntity
  8
0
  6
Continuous
 62
     7
100
AcDbDimension
  2
*D11
 10
55.517395
 20
-25.408905
 30
0.0
 11
50.517395
 21
-25.408905
 31
0.0
 71
     5
 42
-1.0
  3
DIMSTYLE
100
AcDbAlignedDimension
 13
45.517395
 23
-17.492203
 33
0.0
 14
55.517395
 24
-17.492203
 34
0.0
100
AcDbRotatedDimension
1001
ACAD
1000
DSTYLE
1002
{
1070
    77
1070
     1
1070
   172
1070
     1
1070
    75
1070
     1
1002
}
  0
DIMENSION
  5
4E1
330
36
100
AcDbEntity
  8
0
  6
Continuous
 62
     7
100
AcDbDimension
  2
*D12
 10
61.01739499999999
 20
-25.408905
 30
0.0
 11
66.862167
 21
-25.408905
 31
0.0
 71
     5
 42
-1.0
  3
DIMSTYLE
100
AcDbAlignedDimension
 13
55.517395
 23
-17.492203
 33
0.0
 14
61.01739499999999
 24
-10.408905
 34
0.0
100
AcDbRotatedDimension
1001
ACAD
1000
DSTYLE
1002
{
1070
    77
1070
     1
1070
   172
1070
     1
1070
    75
1070
     1
1002
}
  0
DIMENSION
  5
4E2
330
36
100
AcDbEntity
  8
0
  6
Continuous
 62
     7
100
AcDbDimension
  2
*D13
 10
-5.982603099999999
 20
-35.408905
 30
0.0
 11
27.517397
 21
-35.408905
 31
0.0
 71
     5
 42
-1.0
  3
DIMSTYLE
100
AcDbAlignedDimension
 13
61.01739499999999
 23
-10.408905
 33
0.0
 14
-5.982603099999999
 24
-10.408905
 34
0.0
100
AcDbRotatedDimension
1001
ACAD
1000
DSTYLE
1002
{
1070
    77
1070
     1
1070
   172
1070
     1
1002
}
  0
DIMENSION
  5
4E3
330
36
100
AcDbEntity
  8
0
  6
Continuous
 62
     7
100
AcDbDimension
  2
*D14
 10
-36.482605
 20
-25.408905
 30
0.0
 11
-31.982605
 21
-25.408905
 31
0.0
 71
     5
 42
-1.0
  3
DIMSTYLE
100
AcDbAlignedDimension
 13
-27.482605
 23
-2.408904799999999
 33
0.0
 14
-36.482605
 24
-2.908904799999999
 34
0.0
100
AcDbRotatedDimension
1001
ACAD
1000
DSTYLE
1002
{
1070
    77
1070
     1
1070
   172
1070
     1
1002
}
  0
DIMENSION
  5
4E4
330
36
100
AcDbEntity
  8
0
  6
Continuous
 62
     7
100
AcDbDimension
  2
*D15
 10
-68.48260500000001
 20
-25.408905
 30
0.0
 11
-52.482605
 21
-25.408905
 31
0.0
 71
     5
 42
-1.0
  3
DIMSTYLE
100
AcDbAlignedDimension
 13
-36.482605
 23
-2.908904799999999
 33
0.0
 14
-68.48260500000001
 24
-2.908904799999999
 34
0.0
100
AcDbRotatedDimension
1001
ACAD
1000
DSTYLE
1002
{
1070
    77
1070
     1
1070
   172
1070
     1
1070
    75
1070
     1
1002
}
  0
DIMENSION
  5
4E5
330
36
100
AcDbEntity
  8
0
  6
Continuous
 62
     7
100
AcDbDimension
  2
*D16
 10
-77.482605
 20
-25.408905
 30
0.0
 11
-72.98260500000001
 21
-25.408905
 31
0.0
 71
     5
 42
-1.0
  3
DIMSTYLE
100
AcDbAlignedDimension
 13
-68.48260500000001
 23
-2.908904799999999
 33
0.0
 14
-77.482605
 24
-2.408904799999999
 34
0.0
100
AcDbRotatedDimension
1001
ACAD
1000
DSTYLE
1002
{
1070
    77
1070
     1
1070
   172
1070
     1
1070
    75
1070
     1
1002
}
  0
DIMENSION
  5
4E6
330
36
100
AcDbEntity
  8
0
  6
Continuous
 62
     7
100
AcDbDimension
  2
*D17
 10
-27.482605
 20
-35.408905
 30
0.0
 11
-52.482605
 21
-35.408905
 31
0.0
 71
     5
 42
-1.0
  3
DIMSTYLE
100
AcDbAlignedDimension
 13
-77.482605
 23
-2.408904799999999
 33
0.0
 14
-27.482605
 24
-2.408904799999999
 34
0.0
100
AcDbRotatedDimension
1001
ACAD
1000
DSTYLE
1002
{
1070
    77
1070
     1
1070
   172
1070
     1
1002
}
  0
DIMENSION
  5
4E7
330
36
100
AcDbEntity
  8
0
  6
Continuous
 62
     7
100
AcDbDimension
  2
*D18
 10
-87.482605
 20
1.591095199999999
 30
0.0
 11
-87.482605
 21
-0.40890482
 31
0.0
 71
     5
 42
-1.0
  3
DIMSTYLE
100
AcDbAlignedDimension
 13
-77.482605
 23
-2.408904799999999
 33
0.0
 14
-73.50460799999999
 24
1.591095199999999
 34
0.0
 50
90.0
100
AcDbRotatedDimension
1001
ACAD
1000
DSTYLE
1002
{
1070
    77
1070
     1
1070
   172
1070
     1
1002
}
  0
DIMENSION
  5
4E8
330
36
100
AcDbEntity
  8
0
  6
Continuous
 62
     7
100
AcDbDimension
  2
*D19
 10
-87.482605
 20
5.591095
 30
0.0
 11
-87.482605
 21
3.5910952
 31
0.0
 71
     5
 42
-1.0
  3
DIMSTYLE
100
AcDbAlignedDimension
 13
-73.50460799999999
 23
1.591095199999999
 33
0.0
 14
-73.50460799999999
 24
5.591095
 34
0.0
 50
90.0
100
AcDbRotatedDimension
1001
ACAD
1000
DSTYLE
1002
{
1070
    77
1070
     1
1070
   172
1070
     1
1070
    75
1070
     1
1002
}
  0
DIMENSION
  5
4E9
330
36
100
AcDbEntity
  8
0
  6
Continuous
 62
     7
100
AcDbDimension
  2
*D20
 10
-87.482605
 20
12.591095
 30
0.0
 11
-87.482605
 21
19.90896
 31
0.0
 71
     5
 42
-1.0
  3
DIMSTYLE
100
AcDbAlignedDimension
 13
-77.482605
 23
10.091095
 33
0.0
 14
-77.482605
 24
12.591095
 34
0.0
 50
90.0
100
AcDbRotatedDimension
1001
ACAD
1000
DSTYLE
1002
{
1070
    77
1070
     1
1070
   172
1070
     1
1002
}
  0
DIMENSION
  5
4EA
330
36
100
AcDbEntity
  8
0
  6
Continuous
 62
     7
100
AcDbDimension
  2
*D21
 10
-97.482605
 20
12.591095
 30
0.0
 11
-97.482605
 21
5.091095
 31
0.0
 71
     5
 42
-1.0
  3
DIMSTYLE
100
AcDbAlignedDimension
 13
-77.482605
 23
-2.408904799999999
 33
0.0
 14
-77.482605
 24
12.591095
 34
0.0
 50
90.0
100
AcDbRotatedDimension
1001
ACAD
1000
DSTYLE
1002
{
1070
    77
1070
     1
1070
   172
1070
     1
1002
}
  0
DIMENSION
  5
4EB
330
36
100
AcDbEntity
  8
0
  6
Continuous
 62
     7
100
AcDbDimension
  2
*D22
 10
-97.482605
 20
-2.408904799999999
 30
0.0
 11
-97.482605
 21
-6.408904999999999
 31
0.0
 71
     5
 42
-1.0
  3
DIMSTYLE
100
AcDbAlignedDimension
 13
-5.982603099999999
 23
-10.408905
 33
0.0
 14
-77.482605
 24
-2.408904799999999
 34
0.0
 50
90.0
100
AcDbRotatedDimension
1001
ACAD
1000
DSTYLE
1002
{
1070
    77
1070
     1
1070
   172
1070
     1
1070
    76
1070
     1
1002
}
  0
DIMENSION
  5
4EC
330
36
100
AcDbEntity
  8
0
  6
Continuous
 62
     7
100
AcDbDimension
  2
*D23
 10
-97.482605
 20
13.591095
 30
0.0
 11
-97.482605
 21
16.779657
 31
0.0
 71
     5
 42
-1.0
  3
DIMSTYLE
100
AcDbAlignedDimension
 13
-77.482605
 23
12.591095
 33
0.0
 14
-61.48260500000001
 24
13.591095
 34
0.0
 50
90.0
100
AcDbRotatedDimension
1001
ACAD
1000
DSTYLE
1002
{
1070
    77
1070
     1
1070
   172
1070
     1
1070
    75
1070
     1
1002
}
  0
DIMENSION
  5
4ED
330
36
100
AcDbEntity
  8
0
  6
Continuous
 62
     7
100
AcDbDimension
  2
*D24
 10
76.01739499999999
 20
-10.408905
 30
0.0
 11
76.01739499999999
 21
-15.278413
 31
0.0
 71
     5
 42
-1.0
  3
DIMSTYLE
100
AcDbAlignedDimension
 13
61.01739499999999
 23
-7.908904999999999
 33
0.0
 14
61.01739499999999
 24
-10.408905
 34
0.0
 50
90.0
100
AcDbRotatedDimension
1001
ACAD
1000
DSTYLE
1002
{
1070
    77
1070
     1
1070
   172
1070
     1
1002
}
  0
DIMENSION
  5
4EE
330
36
100
AcDbEntity
  8
0
  6
Continuous
 62
     7
100
AcDbDimension
  2
*D25
 10
86.01739499999998
 20
-3.408904799999999
 30
0.0
 11
86.01739499999998
 21
-6.908904999999999
 31
0.0
 71
     5
 42
-1.0
  3
DIMSTYLE
100
AcDbAlignedDimension
 13
61.01739499999999
 23
-10.408905
 33
0.0
 14
39.517395
 24
-3.408904799999999
 34
0.0
 50
90.0
100
AcDbRotatedDimension
1001
ACAD
1000
DSTYLE
1002
{
1070
    77
1070
     1
1070
   172
1070
     1
1002
}
  0
DIMENSION
  5
4EF
330
36
100
AcDbEntity
  8
0
  6
Continuous
 62
     7
100
AcDbDimension
  2
*D26
 10
86.01739499999998
 20
3.5910952
 30
0.0
 11
86.01739499999998
 21
0.091095194
 31
0.0
 71
     5
 42
-1.0
  3
DIMSTYLE
100
AcDbAlignedDimension
 13
39.517395
 23
-3.408904799999999
 33
0.0
 14
46.01739499999999
 24
3.5910952
 34
0.0
 50
90.0
100
AcDbRotatedDimension
1001
ACAD
1000
DSTYLE
1002
{
1070
    77
1070
     1
1070
   172
1070
     1
1070
    75
1070
     1
1002
}
  0
DIMENSION
  5
4F0
330
36
100
AcDbEntity
  8
0
  6
Continuous
 62
     7
100
AcDbDimension
  2
*D27
 10
86.01739499999998
 20
13.591095
 30
0.0
 11
86.01739499999998
 21
8.591094999999999
 31
0.0
 71
     5
 42
-1.0
  3
DIMSTYLE
100
AcDbAlignedDimension
 13
46.01739499999999
 23
3.5910952
 33
0.0
 14
44.81839799999999
 24
13.591095
 34
0.0
 50
90.0
100
AcDbRotatedDimension
1001
ACAD
1000
DSTYLE
1002
{
1070
    77
1070
     1
1070
   172
1070
     1
1070
    75
1070
     1
1070
    76
1070
     1
1002
}
  0
DIMENSION
  5
4F1
330
36
100
AcDbEntity
  8
0
  6
Continuous
 62
     7
100
AcDbDimension
  2
*D28
 10
86.01739499999998
 20
23.591095
 30
0.0
 11
86.01739499999998
 21
18.591095
 31
0.0
 71
     5
 42
-1.0
  3
DIMSTYLE
100
AcDbAlignedDimension
 13
44.81839799999999
 23
13.591095
 33
0.0
 14
43.62039199999999
 24
23.591095
 34
0.0
 50
90.0
100
AcDbRotatedDimension
1001
ACAD
1000
DSTYLE
1002
{
1070
    77
1070
     1
1070
   172
1070
     1
1070
    75
1070
     1
1070
    76
1070
     1
1002
}
  0
DIMENSION
  5
4F2
330
36
100
AcDbEntity
  8
0
  6
Continuous
 62
     7
100
AcDbDimension
  2
*D29
 10
86.01739499999998
 20
32.791092
 30
0.0
 11
86.01739499999998
 21
28.191093
 31
0.0
 71
     5
 42
-1.0
  3
DIMSTYLE
100
AcDbAlignedDimension
 13
43.62039199999999
 23
23.591095
 33
0.0
 14
40.742393
 24
32.791092
 34
0.0
 50
90.0
100
AcDbRotatedDimension
1001
ACAD
1000
DSTYLE
1002
{
1070
    77
1070
     1
1070
   172
1070
     1
1070
    75
1070
     1
1002
}
  0
DIMENSION
  5
4F3
330
36
100
AcDbEntity
  8
0
  6
Continuous
 62
     7
100
AcDbDimension
  2
*D30
 10
86.01739499999998
 20
38.791092
 30
0.0
 11
86.01739499999998
 21
35.791092
 31
0.0
 71
     5
 42
-1.0
  3
DIMSTYLE
100
AcDbAlignedDimension
 13
40.742393
 23
32.791092
 33
0.0
 14
33.717392
 24
38.791092
 34
0.0
 50
90.0
100
AcDbRotatedDimension
1001
ACAD
1000
DSTYLE
1002
{
1070
    77
1070
     1
1070
   172
1070
     1
1070
    75
1070
     1
1002
}
  0
DIMENSION
  5
4F4
330
36
100
AcDbEntity
  8
0
  6
Continuous
 62
     7
100
AcDbDimension
  2
*D31
 10
155.5174
 20
-5.408904999999999
 30
0.0
 11
151.5174
 21
-5.408904999999999
 31
0.0
 71
     5
 42
-1.0
  3
DIMSTYLE
100
AcDbAlignedDimension
 13
147.5174
 23
4.684234599999999
 33
0.0
 14
155.5174
 24
13.591095
 34
0.0
100
AcDbRotatedDimension
1001
ACAD
1000
DSTYLE
1002
{
1070
    77
1070
     1
1070
   172
1070
     1
1002
}
  0
DIMENSION
  5
4F5
330
36
100
AcDbEntity
  8
0
  6
Continuous
 62
     7
100
AcDbDimension
  2
*D32
 10
122.5174
 20
-5.408904999999999
 30
0.0
 11
135.0174
 21
-5.408904999999999
 31
0.0
 71
     5
 42
-1.0
  3
DIMSTYLE
100
AcDbAlignedDimension
 13
147.5174
 23
7.532096899999999
 33
0.0
 14
122.5174
 24
7.532096899999999
 34
0.0
100
AcDbRotatedDimension
1001
ACAD
1000
DSTYLE
1002
{
1070
    77
1070
     1
1070
   172
1070
     1
1070
    75
1070
     1
1002
}
  0
DIMENSION
  5
4F6
330
36
100
AcDbEntity
  8
0
  6
Continuous
 62
     7
100
AcDbDimension
  2
*D33
 10
122.5174
 20
-5.408904999999999
 30
0.0
 11
114.41055
 21
-5.408904999999999
 31
0.0
 71
     5
 42
-1.0
  3
DIMSTYLE
100
AcDbAlignedDimension
 13
106.3037
 23
13.591095
 33
0.0
 14
122.5174
 24
7.532096899999999
 34
0.0
100
AcDbRotatedDimension
1001
ACAD
1000
DSTYLE
1002
{
1070
     6
1000
_OPEN
1070
    77
1070
     1
1070
   172
1070
     1
1070
    75
1070
     1
1070
    76
1070
     1
1002
}
  0
DIMENSION
  5
4F7
330
36
100
AcDbEntity
  8
0
  6
Continuous
 62
     7
100
AcDbDimension
  2
*D34
 10
-137.4826
 20
50.091095
 30
0.0
 11
-147.4826
 21
50.091095
 31
0.0
 71
     5
 42
-1.0
  3
DIMSTYLE
100
AcDbAlignedDimension
 13
-157.4826
 23
40.091095
 33
0.0
 14
-137.4826
 24
44.27609299999999
 34
0.0
100
AcDbRotatedDimension
1001
ACAD
1000
DSTYLE
1002
{
1070
    77
1070
     1
1070
   172
1070
     1
1002
}
  0
INSERT
  5
4F8
330
36
100
AcDbEntity
  8
0
  6
Continuous
 62
     7
100
AcDbBlockReference
  2
KOZU0003
 10
-68.48260500000001
 20
3.591096199999999
 30
0.0
  0
DIMENSION
  5
4F9
330
36
100
AcDbEntity
  8
0
  6
Continuous
 62
     7
100
AcDbDimension
  2
*D35
 10
76.01739499999999
 20
123.59109
 30
0.0
 11
76.01739499999999
 21
131.40424
 31
0.0
 71
     5
 42
-1.0
  3
DIMSTYLE
100
AcDbAlignedDimension
 13
61.01739499999999
 23
103.59109
 33
0.0
 14
61.01739499999999
 24
123.59109
 34
0.0
 50
90.0
100
AcDbRotatedDimension
1001
ACAD
1000
DSTYLE
1002
{
1070
    77
1070
     1
1070
   172
1070
     1
1002
}
  0
DIMENSION
  5
4FA
330
36
100
AcDbEntity
  8
0
  6
Continuous
 62
     7
100
AcDbDimension
  2
*D36
 10
86.01739499999998
 20
99.591095
 30
0.0
 11
86.01739499999998
 21
131.33678
 31
0.0
 71
     5
 42
-1.0
  3
DIMSTYLE
100
AcDbAlignedDimension
 13
45.767395
 23
127.59109
 33
0.0
 14
45.767395
 24
99.591095
 34
0.0
 50
90.0
100
AcDbRotatedDimension
1001
ACAD
1000
DSTYLE
1002
{
1070
    77
1070
     1
1070
   172
1070
     1
1002
}
  0
DIMENSION
  5
4FB
330
36
100
AcDbEntity
  8
0
  6
Continuous
 62
     7
100
AcDbDimension
  2
*D37
 10
-16.013988
 20
104.09109
 30
0.0
 11
-16.013988
 21
128.09724
 31
0.0
 71
     5
 42
-1.0
  3
DIMSTYLE
100
AcDbAlignedDimension
 13
11.325396
 23
123.09109
 33
0.0
 14
11.325396
 24
104.09109
 34
0.0
 50
90.0
100
AcDbRotatedDimension
1001
ACAD
1000
DSTYLE
1002
{
1070
    77
1070
     1
1070
   172
1070
     1
1070
    75
1070
     1
1070
    76
1070
     1
1002
}
  0
DIMENSION
  5
4FC
330
36
100
AcDbEntity
  8
0
  6
Continuous
 62
     7
100
AcDbDimension
  2
*D38
 10
47.517395
 20
84.591095
 30
0.0
 11
27.517395
 21
84.591095
 31
0.0
 71
     5
 42
-1.0
  3
DIMSTYLE
100
AcDbAlignedDimension
 13
7.517396899999999
 23
100.29109
 33
0.0
 14
47.517395
 24
100.29109
 34
0.0
100
AcDbRotatedDimension
1001
ACAD
1000
DSTYLE
1002
{
1070
    77
1070
     1
1070
   172
1070
     1
1002
}
  0
ENDSEC
  0
SECTION
  2
OBJECTS
  0
DICTIONARY
  5
C
330
0
100
AcDbDictionary
281
     1
  3
ACAD_COLOR
350
2F
  3
ACAD_GROUP
350
D
  3
ACAD_LAYOUT
350
2E
  3
ACAD_MATERIAL
350
10
  3
ACAD_MLINESTYLE
350
2B
  3
ACAD_PLOTSETTINGS
350
2D
  3
ACAD_PLOTSTYLENAME
350
E
  3
ACAD_TABLESTYLE
350
30
  3
ACAD_VISUALSTYLE
350
14
  3
AcDbVariableDictionary
350
5B9
  3
AcmDictionary
350
557
  3
AMG
350
4FE
  3
AMGSNAPSETTINGS
350
5B2
  3
DWGPROPS
350
5BE
  0
DICTIONARY
  5
2F
102
{ACAD_REACTORS
330
C
102
}
330
C
100
AcDbDictionary
281
     1
  0
DICTIONARY
  5
D
102
{ACAD_REACTORS
330
C
102
}
330
C
100
AcDbDictionary
281
     1
  0
DICTIONARY
  5
2E
102
{ACAD_REACTORS
330
C
102
}
330
C
100
AcDbDictionary
281
     1
  3
Model
350
39
  3
レイアウト1
350
35
  0
DICTIONARY
  5
10
102
{ACAD_REACTORS
330
C
102
}
330
C
100
AcDbDictionary
281
     1
  3
ByBlock
350
12
  3
ByLayer
350
11
  3
Global
350
13
  0
DICTIONARY
  5
2B
102
{ACAD_REACTORS
330
C
102
}
330
C
100
AcDbDictionary
281
     1
  3
Standard
350
2C
  0
DICTIONARY
  5
2D
102
{ACAD_REACTORS
330
C
102
}
330
C
100
AcDbDictionary
281
     1
  0
ACDBDICTIONARYWDFLT
  5
E
102
{ACAD_REACTORS
330
C
102
}
330
C
100
AcDbDictionary
281
     1
  3
Normal
350
F
100
AcDbDictionaryWithDefault
340
F
  0
DICTIONARY
  5
30
102
{ACAD_REACTORS
330
C
102
}
330
C
100
AcDbDictionary
281
     1
  3
Standard
350
31
  0
DICTIONARY
  5
14
102
{ACAD_REACTORS
330
C
102
}
330
C
100
AcDbDictionary
281
     1
  3
2dWireframe
350
1A
  3
3D Hidden
350
1C
  3
3dWireframe
350
1B
  3
Basic
350
19
  3
Brighten
350
20
  3
ColorChange
350
24
  3
Conceptual
350
1D
  3
Dim
350
1F
  3
Facepattern
350
23
  3
Flat
350
15
  3
FlatWithEdges
350
16
  3
Gouraud
350
17
  3
GouraudWithEdges
350
18
  3
Linepattern
350
22
  3
Realistic
350
1E
  3
Thicken
350
21
  0
DICTIONARY
  5
5B9
102
{ACAD_REACTORS
330
C
102
}
330
C
100
AcDbDictionary
281
     1
  3
CTABLESTYLE
350
5BA
  3
DIMASSOC
350
5BD
  3
INDEXCTL
350
5BC
  3
SORTENTS
350
5BB
  0
DICTIONARY
  5
557
102
{ACAD_REACTORS
330
C
102
}
330
C
100
AcDbDictionary
281
     1
  3
AcmStdDictionary
350
562
  3
AMDTSECTSYM_ARROWCOLOR
350
583
  0
DICTIONARY
  5
4FE
102
{ACAD_REACTORS
330
C
102
}
330
C
100
AcDbDictionary
281
     1
  0
DICTIONARY
  5
5B2
102
{ACAD_REACTORS
330
C
102
}
330
C
100
AcDbDictionary
281
     1
  0
XRECORD
  5
5BE
102
{ACAD_REACTORS
330
C
102
}
330
C
100
AcDbXrecord
280
     1
  1
DWGPROPS COOKIE
  2

  3

  4

  6

  7

  8
Administrator
  9

300
=
301
=
302
=
303
=
304
=
305
=
306
=
307
=
308
=
309
=
 40
0.0008550347222222
 41
2454218.399405197
 42
2454218.400259873
  1

 90
        0
  0
LAYOUT
  5
39
102
{ACAD_XDICTIONARY
360
5C9
102
}
102
{ACAD_REACTORS
330
2E
102
}
330
2E
100
AcDbPlotSettings
  1

  2
\\CAD-SRV01\FX DocuColor 1250 PLW
  4

  6

 40
0.0
 41
0.0
 42
0.0
 43
0.0
 44
0.0
 45
0.0
 46
0.0
 47
0.0
 48
0.0
 49
0.0
140
0.0
141
0.0
142
1.0
143
1.0
 70
  1712
 72
     0
 73
     0
 74
     0
  7

 75
     0
147
1.0
148
0.0
149
0.0
100
AcDbLayout
  1
Model
 70
     1
 71
     0
 10
0.0
 20
0.0
 11
12.0
 21
9.0
 12
0.0
 22
0.0
 32
0.0
 14
0.0
 24
0.0
 34
0.0
 15
0.0
 25
0.0
 35
0.0
146
0.0
 13
0.0
 23
0.0
 33
0.0
 16
1.0
 26
0.0
 36
0.0
 17
0.0
 27
1.0
 37
0.0
 76
     0
330
36
331
45
  0
LAYOUT
  5
35
102
{ACAD_XDICTIONARY
360
5C7
102
}
102
{ACAD_REACTORS
330
2E
102
}
330
2E
100
AcDbPlotSettings
  1

  2
\\CAD-SRV01\FX DocuColor 1250 PLW
  4

  6

 40
0.0
 41
0.0
 42
0.0
 43
0.0
 44
0.0
 45
0.0
 46
0.0
 47
0.0
 48
0.0
 49
0.0
140
0.0
141
0.0
142
1.0
143
1.0
 70
   688
 72
     0
 73
     0
 74
     5
  7

 75
    16
147
1.0
148
0.0
149
0.0
100
AcDbLayout
  1
レイアウト1
 70
     1
 71
     1
 10
-211.0
 20
-100.0
 11
170.0
 21
173.0
 12
0.0
 22
0.0
 32
0.0
 14
1.000000000000000E+20
 24
1.000000000000000E+20
 34
1.000000000000000E+20
 15
-1.000000000000000E+20
 25
-1.000000000000000E+20
 35
-1.000000000000000E+20
146
0.0
 13
0.0
 23
0.0
 33
0.0
 16
1.0
 26
0.0
 36
0.0
 17
0.0
 27
1.0
 37
0.0
 76
     0
330
32
  0
MATERIAL
  5
12
102
{ACAD_XDICTIONARY
360
5C1
102
}
102
{ACAD_REACTORS
330
10
102
}
330
10
100
AcDbMaterial
  1
ByBlock
  0
MATERIAL
  5
11
102
{ACAD_XDICTIONARY
360
5BF
102
}
102
{ACAD_REACTORS
330
10
102
}
330
10
100
AcDbMaterial
  1
ByLayer
  0
MATERIAL
  5
13
102
{ACAD_XDICTIONARY
360
5C3
102
}
102
{ACAD_REACTORS
330
10
102
}
330
10
100
AcDbMaterial
  1
Global
  0
MLINESTYLE
  5
2C
102
{ACAD_REACTORS
330
2B
102
}
330
2B
100
AcDbMlineStyle
  2
STANDARD
 70
     0
  3

 62
   256
 51
90.0
 52
90.0
 71
     2
 49
0.5
 62
   256
  6
BYLAYER
 49
-0.5
 62
   256
  6
BYLAYER
  0
ACDBPLACEHOLDER
  5
F
102
{ACAD_REACTORS
330
E
102
}
330
E
  0
TABLESTYLE
  5
31
102
{ACAD_XDICTIONARY
360
5C5
102
}
102
{ACAD_REACTORS
330
30
102
}
330
30
100
AcDbTableStyle
  3
Standard
 70
     0
 71
     0
 40
0.06
 41
0.06
280
     0
281
     0
  7
STANDARD
140
0.18
170
     2
 62
     0
 63
     7
283
     0
274
    -2
284
     1
 64
     0
275
    -2
285
     1
 65
     0
276
    -2
286
     1
 66
     0
277
    -2
287
     1
 67
     0
278
    -2
288
     1
 68
     0
279
    -2
289
     1
 69
     0
  7
STANDARD
140
0.25
170
     5
 62
     0
 63
     7
283
     0
274
    -2
284
     1
 64
     0
275
    -2
285
     1
 65
     0
276
    -2
286
     1
 66
     0
277
    -2
287
     1
 67
     0
278
    -2
288
     1
 68
     0
279
    -2
289
     1
 69
     0
  7
STANDARD
140
0.18
170
     5
 62
     0
 63
     7
283
     0
274
    -2
284
     1
 64
     0
275
    -2
285
     1
 65
     0
276
    -2
286
     1
 66
     0
277
    -2
287
     1
 67
     0
278
    -2
288
     1
 68
     0
279
    -2
289
     1
 69
     0
  0
VISUALSTYLE
  5
1A
102
{ACAD_REACTORS
330
14
102
}
330
14
100
AcDbVisualStyle
  2
2dWireframe
 70
     4
 71
     0
 72
     2
 73
     0
 90
        0
 40
-0.6
 41
-30.0
 62
     5
 63
     7
 74
     1
 91
        4
 64
     7
 65
   257
 75
     1
175
     1
 42
1.0
 92
        0
 66
   257
 43
1.0
 76
     1
 77
     6
 78
     2
 67
     7
 79
     5
170
     0
171
     0
290
     0
174
     0
 93
        1
 44
0.0
173
     0
291
     0
 45
0.0
1001
ACAD
1000
AcDbSavedByObjectVersion
1070
     0
  0
VISUALSTYLE
  5
1C
102
{ACAD_REACTORS
330
14
102
}
330
14
100
AcDbVisualStyle
  2
3D Hidden
 70
     6
 71
     1
 72
     2
 73
     2
 90
        0
 40
-0.6
 41
-30.0
 62
     5
 63
     7
 74
     2
 91
        2
 64
     7
 65
   257
 75
     2
175
     1
 42
40.0
 92
        0
 66
   257
 43
1.0
 76
     1
 77
     6
 78
     2
 67
     7
 79
     3
170
     0
171
     0
290
     0
174
     0
 93
        1
 44
0.0
173
     0
291
     0
 45
0.0
1001
ACAD
1000
AcDbSavedByObjectVersion
1070
     0
  0
VISUALSTYLE
  5
1B
102
{ACAD_REACTORS
330
14
102
}
330
14
100
AcDbVisualStyle
  2
3dWireframe
 70
     5
 71
     0
 72
     2
 73
     0
 90
        0
 40
-0.6
 41
-30.0
 62
     5
 63
     7
 74
     1
 91
        4
 64
     7
 65
   257
 75
     1
175
     1
 42
1.0
 92
        0
 66
   257
 43
1.0
 76
     1
 77
     6
 78
     2
 67
     7
 79
     5
170
     0
171
     0
290
     0
174
     0
 93
        1
 44
0.0
173
     0
291
     0
 45
0.0
1001
ACAD
1000
AcDbSavedByObjectVersion
1070
     0
  0
VISUALSTYLE
  5
19
102
{ACAD_REACTORS
330
14
102
}
330
14
100
AcDbVisualStyle
  2
Basic
 70
     7
 71
     1
 72
     0
 73
     1
 90
        0
 40
-0.6
 41
-30.0
 62
     5
 63
     7
 74
     0
 91
        4
 64
     7
 65
   257
 75
     1
175
     1
 42
1.0
 92
        8
 66
     7
 43
1.0
 76
     1
 77
     6
 78
     2
 67
     7
 79
     5
170
     0
171
     0
290
     0
174
     0
 93
        1
 44
0.0
173
     0
291
     1
 45
0.0
1001
ACAD
1000
AcDbSavedByObjectVersion
1070
     0
  0
VISUALSTYLE
  5
20
102
{ACAD_REACTORS
330
14
102
}
330
14
100
AcDbVisualStyle
  2
Brighten
 70
    12
 71
     2
 72
     2
 73
     0
 90
        0
 40
-0.6
 41
-30.0
 62
     5
 63
     7
 74
     1
 91
        4
 64
     7
 65
   257
 75
     1
175
     1
 42
1.0
 92
        8
 66
     7
 43
1.0
 76
     1
 77
     6
 78
     2
 67
     7
 79
     5
170
     0
171
     0
290
     0
174
     0
 93
        1
 44
50.0
173
     0
291
     1
 45
0.0
1001
ACAD
1000
AcDbSavedByObjectVersion
1070
     0
  0
VISUALSTYLE
  5
24
102
{ACAD_REACTORS
330
14
102
}
330
14
100
AcDbVisualStyle
  2
ColorChange
 70
    16
 71
     2
 72
     2
 73
     3
 90
        0
 40
-0.6
 41
-30.0
 62
     5
 63
     8
 74
     1
 91
        4
 64
     7
 65
   257
 75
     1
175
     1
 42
1.0
 92
        8
 66
     8
 43
1.0
 76
     1
 77
     6
 78
     2
 67
     7
 79
     5
170
     0
171
     0
290
     0
174
     0
 93
        1
 44
0.0
173
     0
291
     1
 45
0.0
1001
ACAD
1000
AcDbSavedByObjectVersion
1070
     0
  0
VISUALSTYLE
  5
1D
102
{ACAD_REACTORS
330
14
102
}
330
14
100
AcDbVisualStyle
  2
Conceptual
 70
     9
 71
     3
 72
     2
 73
     0
 90
        0
 40
-0.6
 41
-30.0
 62
     5
 63
     7
 74
     2
 91
        2
 64
     7
 65
   257
 75
     1
175
     1
 42
40.0
 92
        8
 66
     7
 43
1.0
 76
     1
 77
     6
 78
     2
 67
     7
 79
     3
170
     0
171
     0
290
     0
174
     0
 93
        1
 44
0.0
173
     0
291
     0
 45
0.0
1001
ACAD
1000
AcDbSavedByObjectVersion
1070
     0
  0
VISUALSTYLE
  5
1F
102
{ACAD_REACTORS
330
14
102
}
330
14
100
AcDbVisualStyle
  2
Dim
 70
    11
 71
     2
 72
     2
 73
     0
 90
        0
 40
-0.6
 41
-30.0
 62
     5
 63
     7
 74
     1
 91
        4
 64
     7
 65
   257
 75
     1
175
     1
 42
1.0
 92
        8
 66
     7
 43
1.0
 76
     1
 77
     6
 78
     2
 67
     7
 79
     5
170
     0
171
     0
290
     0
174
     0
 93
        1
 44
-50.0
173
     0
291
     1
 45
0.0
1001
ACAD
1000
AcDbSavedByObjectVersion
1070
     0
  0
VISUALSTYLE
  5
23
102
{ACAD_REACTORS
330
14
102
}
330
14
100
AcDbVisualStyle
  2
Facepattern
 70
    15
 71
     2
 72
     2
 73
     0
 90
        0
 40
-0.6
 41
-30.0
 62
     5
 63
     7
 74
     1
 91
        4
 64
     7
 65
   257
 75
     1
175
     1
 42
1.0
 92
        8
 66
     7
 43
1.0
 76
     1
 77
     6
 78
     2
 67
     7
 79
     5
170
     0
171
     0
290
     0
174
     0
 93
        1
 44
0.0
173
     0
291
     1
 45
0.0
1001
ACAD
1000
AcDbSavedByObjectVersion
1070
     0
  0
VISUALSTYLE
  5
15
102
{ACAD_REACTORS
330
14
102
}
330
14
100
AcDbVisualStyle
  2
Flat
 70
     0
 71
     2
 72
     1
 73
     1
 90
        2
 40
-0.6
 41
30.0
 62
     5
 63
     7
 74
     0
 91
        4
 64
     7
 65
   257
 75
     1
175
     1
 42
1.0
 92
        8
 66
     7
 43
1.0
 76
     1
 77
     6
 78
     2
 67
     7
 79
     5
170
     0
171
     0
290
     0
174
     0
 93
       13
 44
0.0
173
     0
291
     1
 45
0.0
1001
ACAD
1000
AcDbSavedByObjectVersion
1070
     0
  0
VISUALSTYLE
  5
16
102
{ACAD_REACTORS
330
14
102
}
330
14
100
AcDbVisualStyle
  2
FlatWithEdges
 70
     1
 71
     2
 72
     1
 73
     1
 90
        2
 40
-0.6
 41
30.0
 62
     5
 63
     7
 74
     1
 91
        4
 64
     7
 65
   257
 75
     1
175
     1
 42
1.0
 92
        0
 66
   257
 43
1.0
 76
     1
 77
     6
 78
     2
 67
     7
 79
     5
170
     0
171
     0
290
     0
174
     0
 93
       13
 44
0.0
173
     0
291
     1
 45
0.0
1001
ACAD
1000
AcDbSavedByObjectVersion
1070
     0
  0
VISUALSTYLE
  5
17
102
{ACAD_REACTORS
330
14
102
}
330
14
100
AcDbVisualStyle
  2
Gouraud
 70
     2
 71
     2
 72
     2
 73
     1
 90
        2
 40
-0.6
 41
30.0
 62
     5
 63
     7
 74
     0
 91
        4
 64
     7
 65
   257
 75
     1
175
     1
 42
1.0
 92
        0
 66
     7
 43
1.0
 76
     1
 77
     6
 78
     2
 67
     7
 79
     5
170
     0
171
     0
290
     0
174
     0
 93
       13
 44
0.0
173
     0
291
     1
 45
0.0
1001
ACAD
1000
AcDbSavedByObjectVersion
1070
     0
  0
VISUALSTYLE
  5
18
102
{ACAD_REACTORS
330
14
102
}
330
14
100
AcDbVisualStyle
  2
GouraudWithEdges
 70
     3
 71
     2
 72
     2
 73
     1
 90
        2
 40
-0.6
 41
30.0
 62
     5
 63
     7
 74
     1
 91
        4
 64
     7
 65
   257
 75
     1
175
     1
 42
1.0
 92
        0
 66
   257
 43
1.0
 76
     1
 77
     6
 78
     2
 67
     7
 79
     5
170
     0
171
     0
290
     0
174
     0
 93
       13
 44
0.0
173
     0
291
     1
 45
0.0
1001
ACAD
1000
AcDbSavedByObjectVersion
1070
     0
  0
VISUALSTYLE
  5
22
102
{ACAD_REACTORS
330
14
102
}
330
14
100
AcDbVisualStyle
  2
Linepattern
 70
    14
 71
     2
 72
     2
 73
     0
 90
        0
 40
-0.6
 41
-30.0
 62
     5
 63
     7
 74
     1
 91
        4
 64
     7
 65
   257
 75
     7
175
     7
 42
1.0
 92
        8
 66
     7
 43
1.0
 76
     1
 77
     6
 78
     2
 67
     7
 79
     5
170
     0
171
     0
290
     0
174
     0
 93
        1
 44
0.0
173
     0
291
     1
 45
0.0
1001
ACAD
1000
AcDbSavedByObjectVersion
1070
     0
  0
VISUALSTYLE
  5
1E
102
{ACAD_REACTORS
330
14
102
}
330
14
100
AcDbVisualStyle
  2
Realistic
 70
     8
 71
     2
 72
     2
 73
     0
 90
        0
 40
-0.6
 41
-30.0
 62
     5
 63
     7
 74
     1
 91
        0
 64
     7
 65
   257
 75
     1
175
     1
 42
1.0
 92
        8
 66
     8
 43
1.0
 76
     1
 77
     6
 78
     2
 67
     7
 79
     5
170
     0
171
     0
290
     0
174
     0
 93
       13
 44
0.0
173
     0
291
     0
 45
0.0
1001
ACAD
1000
AcDbSavedByObjectVersion
1070
     0
  0
VISUALSTYLE
  5
21
102
{ACAD_REACTORS
330
14
102
}
330
14
100
AcDbVisualStyle
  2
Thicken
 70
    13
 71
     2
 72
     2
 73
     0
 90
        0
 40
-0.6
 41
-30.0
 62
     5
 63
     7
 74
     1
 91
        4
 64
     7
 65
   257
 75
     1
175
     1
 42
1.0
 92
       12
 66
     7
 43
1.0
 76
     1
 77
     6
 78
     2
 67
     7
 79
     5
170
     0
171
     0
290
     0
174
     0
 93
        1
 44
0.0
173
     0
291
     1
 45
0.0
1001
ACAD
1000
AcDbSavedByObjectVersion
1070
     0
  0
DICTIONARYVAR
  5
5BA
102
{ACAD_REACTORS
330
5B9
102
}
330
5B9
100
DictionaryVariables
280
     0
  1
STANDARD
  0
DICTIONARYVAR
  5
5BD
102
{ACAD_REACTORS
330
5B9
102
}
330
5B9
100
DictionaryVariables
280
     0
  1
1
  0
DICTIONARYVAR
  5
5BC
102
{ACAD_REACTORS
330
5B9
102
}
330
5B9
100
DictionaryVariables
280
     0
  1
0
  0
DICTIONARYVAR
  5
5BB
102
{ACAD_REACTORS
330
5B9
102
}
330
5B9
100
DictionaryVariables
280
     0
  1
127
  0
DICTIONARY
  5
562
102
{ACAD_REACTORS
330
557
102
}
330
557
100
AcDbDictionary
281
     1
  0
XRECORD
  5
583
102
{ACAD_REACTORS
330
557
102
}
330
557
100
AcDbXrecord
280
     1
 90
-1023410169
  0
DICTIONARY
  5
5C9
330
39
100
AcDbDictionary
280
     1
281
     1
  3
ACAD_XREC_ROUNDTRIP
360
5CA
  0
DICTIONARY
  5
5C7
330
35
100
AcDbDictionary
280
     1
281
     1
  3
ACAD_XREC_ROUNDTRIP
360
5C8
  0
DICTIONARY
  5
5C1
330
12
100
AcDbDictionary
280
     1
281
     1
  3
ACAD_XREC_ROUNDTRIP
360
5C2
  0
DICTIONARY
  5
5BF
330
11
100
AcDbDictionary
280
     1
281
     1
  3
ACAD_XREC_ROUNDTRIP
360
5C0
  0
DICTIONARY
  5
5C3
330
13
100
AcDbDictionary
280
     1
281
     1
  3
ACAD_XREC_ROUNDTRIP
360
5C4
  0
DICTIONARY
  5
5C5
330
31
100
AcDbDictionary
280
     1
281
     1
  3
ACAD_XREC_ROUNDTRIP
360
5C6
  0
XRECORD
  5
5CA
102
{ACAD_REACTORS
330
5C9
102
}
330
5C9
100
AcDbXrecord
280
     1
102
SHADEPLOT
 70
     0
102
SHADEPLOTRESLEVEL
 70
     2
102
SHADEPLOTCUSTOMDPI
 70
   300
  0
XRECORD
  5
5C8
102
{ACAD_REACTORS
330
5C7
102
}
330
5C7
100
AcDbXrecord
280
     1
102
SHADEPLOT
 70
     0
102
SHADEPLOTRESLEVEL
 70
     2
102
SHADEPLOTCUSTOMDPI
 70
   300
  0
XRECORD
  5
5C2
102
{ACAD_REACTORS
330
5C1
102
}
330
5C1
100
AcDbXrecord
280
     1
102
MATERIAL
148
0.0
149
0.0
149
0.0
 93
        0
 94
       63
282
     0
 72
     1
 77
     1
171
     1
175
     1
179
     1
273
     0
  0
XRECORD
  5
5C0
102
{ACAD_REACTORS
330
5BF
102
}
330
5BF
100
AcDbXrecord
280
     1
102
MATERIAL
148
0.0
149
0.0
149
0.0
 93
        0
 94
       63
282
     0
 72
     1
 77
     1
171
     1
175
     1
179
     1
273
     0
  0
XRECORD
  5
5C4
102
{ACAD_REACTORS
330
5C3
102
}
330
5C3
100
AcDbXrecord
280
     1
102
MATERIAL
148
0.0
149
0.0
149
0.0
 93
        0
 94
       63
282
     0
 72
     1
 77
     1
171
     1
175
     1
179
     1
273
     0
  0
XRECORD
  5
5C6
102
{ACAD_REACTORS
330
5C5
102
}
330
5C5
100
AcDbXrecord
280
     1
102
ACAD_ROUNDTRIP_PRE2007_TABLESTYLE
 90
      512
 91
        0
  1

 92
      512
 93
        0
  2

 94
      512
 95
        0
  3

  0
ENDSEC
  0
EOF
