  0
SECTION
  2
HEADER
  9
$ACADVER
  1
AC1018
  9
$ACADMAINTVER
 70
   104
  9
$DWGCODEPAGE
  3
ANSI_932
  9
$LASTSAVEDBY
  1
Administrator
  9
$CUSTOMPROPERTYTAG
  1
AmdtFileType
  9
$CUSTOMPROPERTY
  1
84
  9
$INSBASE
 10
0.0
 20
0.0
 30
0.0
  9
$EXTMIN
 10
-0.0262952701823451
 20
-0.0044532728503555
 30
-0.000000000000013
  9
$EXTMAX
 10
420.0172298419633
 20
297.0032391654235
 30
0.0000000000000023
  9
$LIMMIN
 10
0.0
 20
0.0
  9
$LIMMAX
 10
420.0
 20
297.0
  9
$ORTHOMODE
 70
     0
  9
$REGENMODE
 70
     1
  9
$FILLMODE
 70
     1
  9
$QTEXTMODE
 70
     0
  9
$MIRRTEXT
 70
     0
  9
$LTSCALE
 40
1.0
  9
$ATTMODE
 70
     1
  9
$TEXTSIZE
 40
3.2
  9
$TRACEWID
 40
1.0
  9
$TEXTSTYLE
  7
STANDARD
  9
$CLAYER
  8
AM_0
  9
$CELTYPE
  6
ByLayer
  9
$CECOLOR
 62
   256
  9
$CELTSCALE
 40
1.0
  9
$DISPSILH
 70
     0
  9
$DIMSCALE
 40
1.0
  9
$DIMASZ
 40
1.0
  9
$DIMEXO
 40
1.0
  9
$DIMDLI
 40
10.0
  9
$DIMRND
 40
0.0
  9
$DIMDLE
 40
0.0
  9
$DIMEXE
 40
1.0
  9
$DIMTP
 40
0.1
  9
$DIMTM
 40
0.1
  9
$DIMTXT
 40
3.5
  9
$DIMCEN
 40
0.0
  9
$DIMTSZ
 40
0.0
  9
$DIMTOL
 70
     0
  9
$DIMLIM
 70
     0
  9
$DIMTIH
 70
     0
  9
$DIMTOH
 70
     0
  9
$DIMSE1
 70
     0
  9
$DIMSE2
 70
     0
  9
$DIMTAD
 70
     1
  9
$DIMZIN
 70
     8
  9
$DIMBLK
  1

  9
$DIMASO
 70
     1
  9
$DIMSHO
 70
     1
  9
$DIMPOST
  1

  9
$DIMAPOST
  1
"
  9
$DIMALT
 70
     0
  9
$DIMALTD
 70
     2
  9
$DIMALTF
 40
0.0393701
  9
$DIMLFAC
 40
1.0
  9
$DIMTOFL
 70
     1
  9
$DIMTVP
 40
0.0
  9
$DIMTIX
 70
     0
  9
$DIMSOXD
 70
     0
  9
$DIMSAH
 70
     0
  9
$DIMBLK1
  1

  9
$DIMBLK2
  1

  9
$DIMSTYLE
  2
SYS
  9
$DIMCLRD
 70
   256
  9
$DIMCLRE
 70
   256
  9
$DIMCLRT
 70
     7
  9
$DIMTFAC
 40
0.71
  9
$DIMGAP
 40
1.5
  9
$DIMJUST
 70
     0
  9
$DIMSD1
 70
     0
  9
$DIMSD2
 70
     0
  9
$DIMTOLJ
 70
     0
  9
$DIMTZIN
 70
     8
  9
$DIMALTZ
 70
     0
  9
$DIMALTTZ
 70
     0
  9
$DIMUPT
 70
     0
  9
$DIMDEC
 70
     2
  9
$DIMTDEC
 70
     2
  9
$DIMALTU
 70
     2
  9
$DIMALTTD
 70
     2
  9
$DIMTXSTY
  7
STANDARD
  9
$DIMAUNIT
 70
     0
  9
$DIMADEC
 70
     0
  9
$DIMALTRND
 40
0.0
  9
$DIMAZIN
 70
     2
  9
$DIMDSEP
 70
    46
  9
$DIMATFIT
 70
     3
  9
$DIMFRAC
 70
     0
  9
$DIMLDRBLK
  1

  9
$DIMLUNIT
 70
     2
  9
$DIMLWD
 70
    -1
  9
$DIMLWE
 70
    -1
  9
$DIMTMOVE
 70
     0
  9
$LUNITS
 70
     2
  9
$LUPREC
 70
     2
  9
$SKETCHINC
 40
1.0
  9
$FILLETRAD
 40
2.0
  9
$AUNITS
 70
     0
  9
$AUPREC
 70
     0
  9
$MENU
  1
.
  9
$ELEVATION
 40
0.0
  9
$PELEVATION
 40
0.0
  9
$THICKNESS
 40
0.0
  9
$LIMCHECK
 70
     0
  9
$CHAMFERA
 40
0.0
  9
$CHAMFERB
 40
0.0
  9
$CHAMFERC
 40
20.0
  9
$CHAMFERD
 40
0.0
  9
$SKPOLY
 70
     0
  9
$TDCREATE
 40
2455586.676808449
  9
$TDUCREATE
 40
2455586.301808449
  9
$TDUPDATE
 40
2455631.793487951
  9
$TDUUPDATE
 40
2455631.418487951
  9
$TDINDWG
 40
0.7005119329
  9
$TDUSRTIMER
 40
0.7005119329
  9
$USRTIMER
 70
     1
  9
$ANGBASE
 50
0.0
  9
$ANGDIR
 70
     0
  9
$PDMODE
 70
     0
  9
$PDSIZE
 40
-3.0
  9
$PLINEWID
 40
0.0
  9
$SPLFRAME
 70
     0
  9
$SPLINETYPE
 70
     6
  9
$SPLINESEGS
 70
     8
  9
$HANDSEED
  5
18855
  9
$SURFTAB1
 70
     6
  9
$SURFTAB2
 70
     6
  9
$SURFTYPE
 70
     6
  9
$SURFU
 70
     6
  9
$SURFV
 70
     6
  9
$UCSBASE
  2

  9
$UCSNAME
  2

  9
$UCSORG
 10
0.0
 20
0.0
 30
0.0
  9
$UCSXDIR
 10
1.0
 20
0.0
 30
0.0
  9
$UCSYDIR
 10
0.0
 20
1.0
 30
0.0
  9
$UCSORTHOREF
  2

  9
$UCSORTHOVIEW
 70
     0
  9
$UCSORGTOP
 10
0.0
 20
0.0
 30
0.0
  9
$UCSORGBOTTOM
 10
0.0
 20
0.0
 30
0.0
  9
$UCSORGLEFT
 10
0.0
 20
0.0
 30
0.0
  9
$UCSORGRIGHT
 10
0.0
 20
0.0
 30
0.0
  9
$UCSORGFRONT
 10
0.0
 20
0.0
 30
0.0
  9
$UCSORGBACK
 10
0.0
 20
0.0
 30
0.0
  9
$PUCSBASE
  2

  9
$PUCSNAME
  2

  9
$PUCSORG
 10
0.0
 20
0.0
 30
0.0
  9
$PUCSXDIR
 10
1.0
 20
0.0
 30
0.0
  9
$PUCSYDIR
 10
0.0
 20
1.0
 30
0.0
  9
$PUCSORTHOREF
  2

  9
$PUCSORTHOVIEW
 70
     0
  9
$PUCSORGTOP
 10
0.0
 20
0.0
 30
0.0
  9
$PUCSORGBOTTOM
 10
0.0
 20
0.0
 30
0.0
  9
$PUCSORGLEFT
 10
0.0
 20
0.0
 30
0.0
  9
$PUCSORGRIGHT
 10
0.0
 20
0.0
 30
0.0
  9
$PUCSORGFRONT
 10
0.0
 20
0.0
 30
0.0
  9
$PUCSORGBACK
 10
0.0
 20
0.0
 30
0.0
  9
$USERI1
 70
     0
  9
$USERI2
 70
     0
  9
$USERI3
 70
     0
  9
$USERI4
 70
     0
  9
$USERI5
 70
     0
  9
$USERR1
 40
0.0
  9
$USERR2
 40
0.0
  9
$USERR3
 40
0.0
  9
$USERR4
 40
0.0
  9
$USERR5
 40
0.0
  9
$WORLDVIEW
 70
     1
  9
$SHADEDGE
 70
     3
  9
$SHADEDIF
 70
    70
  9
$TILEMODE
 70
     1
  9
$MAXACTVP
 70
    64
  9
$PINSBASE
 10
0.0
 20
0.0
 30
0.0
  9
$PLIMCHECK
 70
     0
  9
$PEXTMIN
 10
1.000000000000000E+20
 20
1.000000000000000E+20
 30
1.000000000000000E+20
  9
$PEXTMAX
 10
-1.000000000000000E+20
 20
-1.000000000000000E+20
 30
-1.000000000000000E+20
  9
$PLIMMIN
 10
-3.17498779296875
 20
-3.174999952316284
  9
$PLIMMAX
 10
293.4970092773438
 20
206.692492723465
  9
$UNITMODE
 70
     0
  9
$VISRETAIN
 70
     1
  9
$PLINEGEN
 70
     0
  9
$PSLTSCALE
 70
     1
  9
$TREEDEPTH
 70
  3020
  9
$CMLSTYLE
  2
Standard
  9
$CMLJUST
 70
     0
  9
$CMLSCALE
 40
20.0
  9
$PROXYGRAPHICS
 70
     1
  9
$MEASUREMENT
 70
     1
  9
$CELWEIGHT
370
    -1
  9
$ENDCAPS
280
     0
  9
$JOINSTYLE
280
     0
  9
$LWDISPLAY
290
     1
  9
$INSUNITS
 70
     4
  9
$HYPERLINKBASE
  1

  9
$STYLESHEET
  1
monochrome.ctb
  9
$XEDIT
290
     1
  9
$CEPSNTYPE
380
     0
  9
$PSTYLEMODE
290
     1
  9
$FINGERPRINTGUID
  2
{55437959-1424-4180-A3A3-0250141FF14A}
  9
$VERSIONGUID
  2
{3CD4FBF3-B3CC-4079-AC56-BB121C5C7E90}
  9
$EXTNAMES
290
     1
  9
$PSVPSCALE
 40
0.0
  9
$OLESTARTUP
290
     0
  9
$SORTENTS
280
    96
  9
$INDEXCTL
280
     0
  9
$HIDETEXT
280
     0
  9
$XCLIPFRAME
290
     0
  9
$HALOGAP
280
     0
  9
$OBSCOLOR
 70
   257
  9
$OBSLTYPE
280
     0
  9
$INTERSECTIONDISPLAY
280
     0
  9
$INTERSECTIONCOLOR
 70
   257
  9
$DIMASSOC
280
     1
  9
$PROJECTNAME
  1

  0
ENDSEC
  0
SECTION
  2
CLASSES
  0
CLASS
  1
ACDBDICTIONARYWDFLT
  2
AcDbDictionaryWithDefault
  3
ObjectDBX Classes
 90
        0
 91
        1
280
     0
281
     0
  0
CLASS
  1
ACDBPLACEHOLDER
  2
AcDbPlaceHolder
  3
ObjectDBX Classes
 90
        0
 91
        1
280
     0
281
     0
  0
CLASS
  1
LAYOUT
  2
AcDbLayout
  3
ObjectDBX Classes
 90
        0
 91
        3
280
     0
281
     0
  0
CLASS
  1
AMGSETTINGSOBJ
  2
AmgSettingsObj
  3
"AcadM|Product Description: AutoCAD Mechanical|Company: Autodesk, Inc."
 90
     1024
 91
        4
280
     0
281
     0
  0
CLASS
  1
ACME_DOCUMENT
  2
AcMeDbDoc
  3
AcMeServices
 90
     1024
 91
        2
280
     0
281
     0
  0
CLASS
  1
ACMESCOPE
  2
AcMeScope
  3
AcMeServices
 90
     1024
 91
        1
280
     0
281
     0
  0
CLASS
  1
ACMECOMMANDHISTORY
  2
AcMeCommandHistory
  3
AcMeServices
 90
     1024
 91
        1
280
     0
281
     0
  0
CLASS
  1
DICTIONARYVAR
  2
AcDbDictionaryVar
  3
ObjectDBX Classes
 90
        0
 91
        9
280
     0
281
     0
  0
CLASS
  1
ACIMSYSVARMAN
  2
AcImSysVarManager
  3
AcMeServices
 90
     1024
 91
        6
280
     0
281
     0
  0
CLASS
  1
ACIMREALSYSVAR
  2
AcImRealSysVar
  3
AcMeServices
 90
     1024
 91
       24
280
     0
281
     0
  0
CLASS
  1
ACIMINTSYSVAR
  2
AcImIntSysVar
  3
AcMeServices
 90
     1024
 91
      248
280
     0
281
     0
  0
CLASS
  1
ACMEDRAWINGMAN
  2
AcMeDrawingMan
  3
AcMeServices
 90
     1024
 91
        1
280
     0
281
     0
  0
CLASS
  1
ACMEVIEW
  2
AcMeView
  3
AcMeServices
 90
     1024
 91
        1
280
     0
281
     0
  0
CLASS
  1
ACDBENTITYCACHE
  2
AcMeEntityCache
  3
AcMeServices
 90
     1024
 91
        1
280
     0
281
     0
  0
CLASS
  1
GSMANAGER
  2
AcMeGSManager
  3
AcMeServices
 90
     1024
 91
        1
280
     0
281
     0
  0
CLASS
  1
AMDTINTERNALREACTOR
  2
AmdtInternalReactor
  3
AcMeServices
 90
     1024
 91
        2
280
     0
281
     0
  0
CLASS
  1
ACMESTATEMGR
  2
AcMeStateMgr
  3
AcMeServices
 90
     1024
 91
        1
280
     0
281
     0
  0
CLASS
  1
ACGREFMASTER
  2
AcGrefMaster
  3
AcAttribServices
 90
     1024
 91
        1
280
     0
281
     0
  0
CLASS
  1
ACME_DATABASE
  2
AcMeDbDatabase
  3
AcMeServices
 90
     1024
 91
        1
280
     0
281
     0
  0
CLASS
  1
ACRFINSADJUSTERMGR
  2
AcRfInsAdjusterMgr
  3
AcMeServices
 90
     1024
 91
        1
280
     0
281
     0
  0
CLASS
  1
ACGREFACADMASTER
  2
AcGrefacadMaster
  3
AcGrefServices
 90
     1024
 91
        1
280
     0
281
     0
  0
CLASS
  1
AMIMASTER
  2
AmiMaster
  3
AmiServices
 90
     1024
 91
        1
280
     0
281
     0
  0
CLASS
  1
ACMDATADICTIONARY
  2
AcmDataDictionary
  3
"AcmSymBB|Product Description: AutoCAD Mechanical|Company: Autodesk, Inc."
 90
     1024
 91
        1
280
     0
281
     0
  0
CLASS
  1
ACMDATAENTRYBLOCK
  2
AcmDataEntryBlock
  3
AcmSymBB|Product Description: AutoCAD Mechanical|Company: Autodesk, Inc.
 90
     1024
 91
        6
280
     0
281
     0
  0
CLASS
  1
ACIMSTRSYSVAR
  2
AcImStrSysVar
  3
AcMeServices
 90
     1024
 91
       11
280
     0
281
     0
  0
CLASS
  1
ACMSTANDARDISO
  2
AcmStandardISO
  3
"Amdt_StdImp|Product Description: AutoCAD Mechanical|Company: Autodesk, Inc."
 90
     1024
 91
        1
280
     0
281
     0
  0
CLASS
  1
AMGOBJPROPCFG
  2
AmgObjPropCfg
  3
"AmgLay|Product Description: AutoCAD Mechanical|Company: Autodesk, Inc."
 90
     1025
 91
        1
280
     0
281
     0
  0
CLASS
  1
AMDTEDGESTANDARDISO
  2
AmdtEdgeStdISO
  3
"Amdt_StdImp|Product Description: AutoCAD Mechanical|Company: Autodesk, Inc."
 90
     1024
 91
        1
280
     0
281
     0
  0
CLASS
  1
ACMSURFSTANDARDISO
  2
AcmSurfTextStdISO
  3
"Amdt_StdImp|Product Description: AutoCAD Mechanical|Company: Autodesk, Inc."
 90
     1024
 91
        1
280
     0
281
     0
  0
CLASS
  1
ACMFCFSTANDARDISO
  2
AcmFCFStdISO
  3
"Amdt_StdImp|Product Description: AutoCAD Mechanical|Company: Autodesk, Inc."
 90
     1024
 91
        1
280
     0
281
     0
  0
CLASS
  1
ACMWELDSTANDARDISO
  2
AcmWeldingStdISO
  3
"Amdt_StdImp|Product Description: AutoCAD Mechanical|Company: Autodesk, Inc."
 90
     1024
 91
        1
280
     0
281
     0
  0
CLASS
  1
ACMIDSTANDARDISO
  2
AcmIdStdISO
  3
"Amdt_StdImp|Product Description: AutoCAD Mechanical|Company: Autodesk, Inc."
 90
     1024
 91
        1
280
     0
281
     0
  0
CLASS
  1
ACMDATUMSTANDARDISO
  2
AcmDatumStdISO
  3
"Amdt_StdImp|Product Description: AutoCAD Mechanical|Company: Autodesk, Inc."
 90
     1024
 91
        1
280
     0
281
     0
  0
CLASS
  1
ACMBOMSTANDARDISO
  2
AcmBOMStdISO
  3
"Amdt_StdImp|Product Description: AutoCAD Mechanical|Company: Autodesk, Inc."
 90
     1024
 91
        1
280
     0
281
     0
  0
CLASS
  1
ACMDETAILSTANDARDISO
  2
AmdtDetailSymStdISO
  3
"Amdt_StdImp|Product Description: AutoCAD Mechanical|Company: Autodesk, Inc."
 90
     1024
 91
        1
280
     0
281
     0
  0
CLASS
  1
ACMSECTIONSTANDARDISO
  2
AmdtSectionSymStdISO
  3
"Amdt_StdImp|Product Description: AutoCAD Mechanical|Company: Autodesk, Inc."
 90
     1024
 91
        1
280
     0
281
     0
  0
CLASS
  1
ACMCENTERLINESTANDARDISO
  2
AmdtCenterLineStdISO
  3
"Amdt_StdImp|Product Description: AutoCAD Mechanical|Company: Autodesk, Inc."
 90
     1024
 91
        1
280
     0
281
     0
  0
CLASS
  1
ACAMGLAYSTD
  2
AcAmgLayStd
  3
"AmgLay|Product Description: AutoCAD Mechanical|Company: Autodesk, Inc."
 90
     1024
 91
        2
280
     0
281
     0
  0
CLASS
  1
ACAMGDIMSTD
  2
AcAmgDimStd
  3
"AmgDim|Product Description: AutoCAD Mechanical|Company: Autodesk, Inc."
 90
     1024
 91
        2
280
     0
281
     0
  0
CLASS
  1
ACAMGTITLESTD
  2
AcAmgTitleStd
  3
"AmgTitle|Product Description: AutoCAD Mechanical|Company: Autodesk, Inc."
 90
     4095
 91
        2
280
     0
281
     0
  0
CLASS
  1
ACAMGFILTERDAT
  2
AcAmgFilterDat
  3
"AcadM|Product Description: AutoCAD Mechanical|Company: Autodesk, Inc."
 90
     1024
 91
        6
280
     0
281
     0
  0
CLASS
  1
LAYER_INDEX
  2
AcDbLayerIndex
  3
ObjectDBX Classes
 90
        0
 91
        0
280
     0
281
     0
  0
CLASS
  1
IDBUFFER
  2
AcDbIdBuffer
  3
ObjectDBX Classes
 90
        0
 91
        0
280
     0
281
     0
  0
CLASS
  1
PLOTSETTINGS
  2
AcDbPlotSettings
  3
ObjectDBX Classes
 90
        0
 91
        0
280
     0
281
     0
  0
CLASS
  1
AMDTFORMULAUPDATEDISPATCHER
  2
AmdtFormulaUpdateDispatcher
  3
AcMeServices
 90
     1024
 91
        1
280
     0
281
     0
  0
CLASS
  1
ACMSTANDARDANSI
  2
AcmStandardANSI
  3
"Amdt_StdImp|Product Description: AutoCAD Mechanical|Company: Autodesk, Inc."
 90
     1024
 91
        1
280
     0
281
     0
  0
CLASS
  1
ACMSURFSTANDARDANSI
  2
AcmSurfTextStdANSI
  3
"Amdt_StdImp|Product Description: AutoCAD Mechanical|Company: Autodesk, Inc."
 90
     1024
 91
        1
280
     0
281
     0
  0
CLASS
  1
ACMFCFSTANDARDANSI
  2
AcmFCFStdANSI
  3
"Amdt_StdImp|Product Description: AutoCAD Mechanical|Company: Autodesk, Inc."
 90
     1024
 91
        1
280
     0
281
     0
  0
CLASS
  1
ACMWELDSTANDARDANSI
  2
AcmWeldingStdANSI
  3
"Amdt_StdImp|Product Description: AutoCAD Mechanical|Company: Autodesk, Inc."
 90
     1024
 91
        1
280
     0
281
     0
  0
CLASS
  1
ACMIDSTANDARDANSI
  2
AcmIdStdANSI
  3
"Amdt_StdImp|Product Description: AutoCAD Mechanical|Company: Autodesk, Inc."
 90
     1024
 91
        1
280
     0
281
     0
  0
CLASS
  1
ACMDATUMSTANDARDANSI
  2
AcmDatumStdANSI
  3
"Amdt_StdImp|Product Description: AutoCAD Mechanical|Company: Autodesk, Inc."
 90
     1024
 91
        1
280
     0
281
     0
  0
CLASS
  1
ACMBOMSTANDARDANSI
  2
AcmBOMStdANSI
  3
"Amdt_StdImp|Product Description: AutoCAD Mechanical|Company: Autodesk, Inc."
 90
     1024
 91
        1
280
     0
281
     0
  0
CLASS
  1
ACMDETAILSTANDARDANSI
  2
AmdtDetailSymStdANSI
  3
"Amdt_StdImp|Product Description: AutoCAD Mechanical|Company: Autodesk, Inc."
 90
     1024
 91
        1
280
     0
281
     0
  0
CLASS
  1
ACMSECTIONSTANDARDANSI
  2
AmdtSectionSymStdANSI
  3
"Amdt_StdImp|Product Description: AutoCAD Mechanical|Company: Autodesk, Inc."
 90
     1024
 91
        1
280
     0
281
     0
  0
CLASS
  1
ACMCENTERLINESTANDARDANSI
  2
AmdtCenterLineStdANSI
  3
"Amdt_StdImp|Product Description: AutoCAD Mechanical|Company: Autodesk, Inc."
 90
     1024
 91
        1
280
     0
281
     0
  0
CLASS
  1
ACMBOM
  2
AcmBom
  3
"AcmSymBB|Product Description: AutoCAD Mechanical|Company: Autodesk, Inc."
 90
     1024
 91
        1
280
     0
281
     0
  0
CLASS
  1
ACMDATAENTRYPART
  2
AcmDataEntryPart
  3
AcmSymBB|Product Description: AutoCAD Mechanical|Company: Autodesk, Inc.
 90
     1024
 91
        0
280
     0
281
     0
  0
CLASS
  1
ACMPARTREF
  2
AcmPartRef
  3
"AcmSymBB|Product Description: AutoCAD Mechanical|Company: Autodesk, Inc."
 90
     4095
 91
        0
280
     0
281
     1
  0
CLASS
  1
ACDBCIRCARCRES
  2
AcDbCircArcRes
  3
AcGrefServices
 90
     1024
 91
        0
280
     0
281
     0
  0
CLASS
  1
ACMBOMROW
  2
AcmBomRow
  3
"AcmSymBB|Product Description: AutoCAD Mechanical|Company: Autodesk, Inc."
 90
     1024
 91
        0
280
     0
281
     0
  0
CLASS
  1
ACMBALLOON
  2
AcmBalloon
  3
"AcmSymBB|Product Description: AutoCAD Mechanical|Company: Autodesk, Inc."
 90
     4095
 91
        0
280
     0
281
     1
  0
CLASS
  1
AMDTNOTE
  2
AmdtNote
  3
"AcmSymBB|Product Description: AutoCAD Mechanical|Company: Autodesk, Inc."
 90
     4095
 91
        0
280
     0
281
     1
  0
CLASS
  1
STDPART2D
  2
AmgStdPart
  3
AmgStdPart|Product Description: AutoCAD Mechanical|Company: Autodesk, Inc.
 90
     4095
 91
        0
280
     0
281
     1
  0
CLASS
  1
ACDBSTDPARTRES_LINE
  2
AcDbStdPartRes_Line
  3
AmgStdPart|Product Description: AutoCAD Mechanical|Company: Autodesk, Inc.
 90
     1024
 91
        0
280
     0
281
     0
  0
CLASS
  1
ACMDATAENTRY
  2
AcmDataEntry
  3
AcmSymBB|Product Description: AutoCAD Mechanical|Company: Autodesk, Inc.
 90
     1024
 91
        9
280
     0
281
     0
  0
CLASS
  1
ACDBOPPOLYLINERES
  2
AcDbOpPolylineRes
  3
AcGrefServices
 90
     1024
 91
        0
280
     0
281
     0
  0
CLASS
  1
ACMPARTLIST
  2
AcmPartList
  3
"AcmSymBB|Product Description: AutoCAD Mechanical|Company: Autodesk, Inc."
 90
     4095
 91
        0
280
     0
281
     1
  0
CLASS
  1
ACDBLINERES
  2
AcDbLineRes
  3
AcGrefServices
 90
     1024
 91
        3
280
     0
281
     0
  0
CLASS
  1
ACRFINSADJ
  2
AcRfInsAdjuster
  3
AcMeServices
 90
     1024
 91
        0
280
     0
281
     0
  0
CLASS
  1
AM_DRAWING_MGR
  2
AcDmDwgMgr
  3
AcMechDwgViewMgmt
 90
     1024
 91
        1
280
     0
281
     0
  0
CLASS
  1
AM_DWG_DOCUMENT
  2
AcDmDwgDocument
  3
AcMechDwgViewMgmt
 90
     1024
 91
        1
280
     0
281
     0
  0
CLASS
  1
AM_DWG_SHEET
  2
AcDmSheet
  3
AcMechDwgViewMgmt
 90
     1024
 91
        2
280
     0
281
     0
  0
CLASS
  1
AM_VIEWDIMPARMAP
  2
AcDmViewDimParMap
  3
AcMechDwgViewMgmt
 90
     1024
 91
        2
280
     0
281
     0
  0
CLASS
  1
AM_DWGMGR_NAME
  2
AcDmDwgMgrName
  3
AcMechDwgViewMgmt
 90
     1024
 91
        1
280
     0
281
     0
  0
CLASS
  1
AMDTMENUSTATEMGR
  2
AmdtMenuStateMgr
  3
McadcomServices
 90
     1024
 91
        1
280
     0
281
     0
  0
CLASS
  1
AMDTMCOMMENUSTATE
  2
AmdtMcomMenuState
  3
McadcomServices
 90
     1024
 91
        1
280
     0
281
     0
  0
CLASS
  1
ASAPP
  2
AcAsAppObject
  3
AutoSurfServices
 90
        0
 91
        2
280
     0
281
     0
  0
CLASS
  1
IM_STATIC_MAN
  2
AcImStaticVarManager
  3
AcMeServices
 90
     1024
 91
        1
280
     0
281
     0
  0
CLASS
  1
ACIMDBLSTATICVAR
  2
AcImDblStaticVar
  3
AcMeServices
 90
     1024
 91
       20
280
     0
281
     0
  0
CLASS
  1
ACIMSTRSTATICVAR
  2
AcImStrStaticVar
  3
AcMeServices
 90
     1024
 91
       12
280
     0
281
     0
  0
CLASS
  1
ACIMINTSTATICVAR
  2
AcImIntStaticVar
  3
AcMeServices
 90
     1024
 91
       17
280
     0
281
     0
  0
CLASS
  1
ACASGREFMASTER
  2
AcAsGrefMaster
  3
AutoSurfResolverServices
 90
        0
 91
        2
280
     0
281
     0
  0
CLASS
  1
ACADGREFMODULE
  2
AcAdGrefModule
  3
AdGrefServices
 90
        0
 91
        2
280
     0
281
     0
  0
CLASS
  1
AMDTMAPISURFMOUDULE
  2
AmdtMApiSurfModule
  3
MApiSurfServices
 90
        0
 91
        2
280
     0
281
     0
  0
CLASS
  1
MAPIAMMOUDLE
  2
MApiAmModule
  3
MApiAmServices
 90
     1024
 91
        1
280
     0
281
     0
  0
CLASS
  1
AMDTADMENUSTATE
  2
AmdtAdMenuState
  3
DesignerServices
 90
     1024
 91
        1
280
     0
281
     0
  0
CLASS
  1
ADAPPL
  2
AcAdAppl
  3
DesignerServices
 90
     1024
 91
        1
280
     0
281
     0
  0
CLASS
  1
DEPMGR
  2
AcAdDepMgr
  3
DesignerServices
 90
     1024
 91
        1
280
     0
281
     0
  0
CLASS
  1
PARAMMGR
  2
AcAdParamMgr
  3
DesignerServices
 90
     1024
 91
        1
280
     0
281
     0
  0
CLASS
  1
PARAMSCOPE
  2
AcAdParamScope
  3
DesignerServices
 90
     1024
 91
        1
280
     0
281
     0
  0
CLASS
  1
NAMEDAPPL
  2
AcAdNamedAppl
  3
DesignerServices
 90
     1024
 91
        1
280
     0
281
     0
  0
CLASS
  1
ADHNTMPLT
  2
AdHoleNoteTemplateMgr
  3
DesignerServices
 90
     1024
 91
        0
280
     0
281
     0
  0
CLASS
  1
AM_HNTEMPLATE_MGR_NAME
  2
AdHoleNoteTemplateMgrName
  3
DesignerServices
 90
     1024
 91
        0
280
     0
281
     0
  0
CLASS
  1
AMDTDMMENUSTATE
  2
AmdtDmMenuState
  3
AcMechDwgViewMgmt
 90
     1024
 91
        1
280
     0
281
     0
  0
CLASS
  1
MAPIADMODULE
  2
MApiAdModule
  3
MApiAdServices
 90
        0
 91
        2
280
     0
281
     0
  0
CLASS
  1
AMDTAMMENUSTATE
  2
AmdtAmMenuState
  3
DesignerAssemblies
 90
     1024
 91
        1
280
     0
281
     0
  0
CLASS
  1
ACAMPROJECT
  2
AcAmProject
  3
DesignerAssemblies
 90
     1024
 91
        1
280
     0
281
     0
  0
CLASS
  1
ACAMGRCOMPDEF
  2
AcAmGrCompDef
  3
DesignerAssemblies
 90
     1024
 91
        1
280
     0
281
     0
  0
CLASS
  1
ACCMCONTEXT
  2
AcCmContext
  3
DesignerAssemblies
 90
     1024
 91
        1
280
     0
281
     0
  0
CLASS
  1
ACAMCOMPDEF
  2
AcAmCompDef
  3
DesignerAssemblies
 90
     1024
 91
        1
280
     0
281
     0
  0
CLASS
  1
ACAMCOMPDEFMGR
  2
AcAmCompDefMgr
  3
DesignerAssemblies
 90
     1024
 91
        1
280
     0
281
     0
  0
CLASS
  1
AMCONTEXTMGR
  2
AcAmContextMgr
  3
DesignerAssemblies
 90
     1024
 91
        1
280
     0
281
     0
  0
CLASS
  1
ACAMCONTEXTMODELER
  2
AcAmContextModeler
  3
DesignerAssemblies
 90
     1024
 91
        1
280
     0
281
     0
  0
CLASS
  1
CATALOGSTATE
  2
AcAmCatalogState
  3
DesignerAssemblies
 90
     1024
 91
        1
280
     0
281
     0
  0
CLASS
  1
ACAMGRCOMPDEFSET
  2
AcAmGrCompDefSet
  3
DesignerAssemblies
 90
     1024
 91
        1
280
     0
281
     0
  0
CLASS
  1
AMDTBROWSERDBTAB
  2
AmdtBrowserDbTab
  3
McadcomServices
 90
     1024
 91
        1
280
     0
281
     0
  0
CLASS
  1
CBROWSERAPPOBJECT
  2
CBrowserAppObject
  3
McadcomServices
 90
     1024
 91
        3
280
     0
281
     0
  0
CLASS
  1
DM_PLACEHOLDER
  2
AcDmSelsetPlaceholder
  3
AcMechDwgViewMgmt
 90
     1024
 91
        1
280
     0
281
     0
  0
CLASS
  1
ACMPICKOBJ
  2
AcmPickEnt
  3
"AcmSymBB|Product Description: AutoCAD Mechanical|Company: Autodesk, Inc."
 90
     1024
 91
        0
280
     0
281
     1
  0
CLASS
  1
ACMNOTESTANDARDISO
  2
AmdtNoteStdISO
  3
"Amdt_StdImp|Product Description: AutoCAD Mechanical|Company: Autodesk, Inc."
 90
     1024
 91
        1
280
     0
281
     0
  0
CLASS
  1
ACMNOTESTANDARDANSI
  2
AmdtNoteStdANSI
  3
"Amdt_StdImp|Product Description: AutoCAD Mechanical|Company: Autodesk, Inc."
 90
     1024
 91
        1
280
     0
281
     0
  0
CLASS
  1
ACMTHREADLINESTANDARDISO
  2
AmdtThreadLineStdISO
  3
"Amdt_StdImp|Product Description: AutoCAD Mechanical|Company: Autodesk, Inc."
 90
     1024
 91
        1
280
     0
281
     0
  0
CLASS
  1
ACMTHREADLINESTANDARDANSI
  2
AmdtThreadLineStdANSI
  3
"Amdt_StdImp|Product Description: AutoCAD Mechanical|Company: Autodesk, Inc."
 90
     1024
 91
        1
280
     0
281
     0
  0
CLASS
  1
TABLESTYLE
  2
AcDbTableStyle
  3
ObjectDBX Classes
 90
     4095
 91
        1
280
     0
281
     0
  0
CLASS
  1
SORTENTSTABLE
  2
AcDbSortentsTable
  3
ObjectDBX Classes
 90
        0
 91
        1
280
     0
281
     0
  0
CLASS
  1
MATERIAL
  2
AcDbMaterial
  3
ObjectDBX Classes
 90
     1153
 91
        3
280
     0
281
     0
  0
CLASS
  1
VISUALSTYLE
  2
AcDbVisualStyle
  3
ObjectDBX Classes
 90
     4095
 91
       16
280
     0
281
     0
  0
CLASS
  1
ACRFATTGENMGR
  2
AcRfAttGeneralMgr
  3
AcAttribServices
 90
     1024
 91
        1
280
     0
281
     0
  0
CLASS
  1
ACRFOBJATTMGR
  2
AcRfObjAttGroupMgr
  3
AcAttribServices
 90
     1024
 91
        1
280
     0
281
     0
  0
CLASS
  1
ACRFMCADAPIATTHOLDER
  2
AcRfMCADAPIAttHolder
  3
AcAttribServices
 90
     1024
 91
        1
280
     0
281
     0
  0
CLASS
  1
AMDTSYSATTR
  2
AmdtSystemAttribute
  3
AcAttribServices
 90
     1024
 91
        3
280
     0
281
     0
  0
CLASS
  1
ACMTAPERSTANDARDISO
  2
AcmTaperStdISO
  3
"Amdt_StdImp|Product Description: AutoCAD Mechanical|Company: Autodesk, Inc."
 90
     1024
 91
        1
280
     0
281
     0
  0
CLASS
  1
CAMSSTRUCTBTNSTATE
  2
StructBtnState
  3
DesignerAssemblies
 90
     1024
 91
        1
280
     0
281
     0
  0
CLASS
  1
DIMASSOC
  2
AcDbDimAssoc
  3
"AcDbDimAssoc|Product Desc:     AcDim ARX App For Dimension|Company:          Autodesk, Inc.|WEB Address:      www.autodesk.com"
 90
        0
 91
        0
280
     0
281
     0
  0
CLASS
  1
AMDTNOTETEMPLATEDB
  2
AmdtNoteTemplateDB
  3
AcmSymBB|Product Description: AutoCAD Mechanical|Company: Autodesk, Inc.
 90
     1024
 91
       10
280
     0
281
     0
  0
CLASS
  1
SCALE
  2
AcDbScale
  3
ObjectDBX Classes
 90
     1153
 91
       33
280
     0
281
     0
  0
CLASS
  1
MLEADERSTYLE
  2
AcDbMLeaderStyle
  3
ACDB_MLEADERSTYLE_CLASS
 90
     4095
 91
        1
280
     0
281
     0
  0
CLASS
  1
ACMANOOTATIONVIEWSTANDARDISO
  2
AmdtAnViewStdISO
  3
"Amdt_StdImp|Product Description: AutoCAD Mechanical|Company: Autodesk, Inc."
 90
     1024
 91
        1
280
     0
281
     0
  0
CLASS
  1
CELLSTYLEMAP
  2
AcDbCellStyleMap
  3
ObjectDBX Classes
 90
     1152
 91
        2
280
     0
281
     0
  0
CLASS
  1
ACMTAPERSTANDARDANSI
  2
AcmTaperStdANSI
  3
"Amdt_StdImp|Product Description: AutoCAD Mechanical|Company: Autodesk, Inc."
 90
     1024
 91
        1
280
     0
281
     0
  0
CLASS
  1
ACAMGHOLECHARTSTDANSI
  2
AcAmgHoleChartStdANSI
  3
AmgDim|Product Description: AutoCAD Mechanical|Company: Autodesk, Inc.
 90
     1024
 91
        1
280
     0
281
     0
  0
CLASS
  1
ACMANOOTATIONVIEWSTANDARDANSI
  2
AmdtAnViewStdANSI
  3
"Amdt_StdImp|Product Description: AutoCAD Mechanical|Company: Autodesk, Inc."
 90
     1024
 91
        1
280
     0
281
     0
  0
ENDSEC
  0
SECTION
  2
TABLES
  0
TABLE
  2
VPORT
  5
8
330
0
100
AcDbSymbolTable
 70
     1
  0
VPORT
  5
B0EC
330
8
100
AcDbSymbolTableRecord
100
AcDbViewportTableRecord
  2
*Active
 70
     0
 10
0.0
 20
0.0
 11
1.0
 21
1.0
 12
209.99546630796
 22
148.4993922546982
 13
0.0
 23
0.0
 14
2.5
 24
2.5
 15
10.0
 25
10.0
 16
0.0
 26
0.0
 36
1.0
 17
0.0
 27
0.0
 37
0.0
 40
298.8971744858972
 41
1.624476987447698
 42
50.0
 43
-1370.695619172058
 44
-1370.695619172058
 50
0.0
 51
0.0
 71
     0
 72
   100
 73
     1
 74
     3
 75
     0
 76
     0
 77
     0
 78
     0
281
     0
 65
     0
110
0.0
120
0.0
130
0.0
111
1.0
121
0.0
131
0.0
112
0.0
122
1.0
132
0.0
 79
     0
146
0.0
  0
ENDTAB
  0
TABLE
  2
LTYPE
  5
5
330
0
100
AcDbSymbolTable
 70
    33
  0
LTYPE
  5
14
330
5
100
AcDbSymbolTableRecord
100
AcDbLinetypeTableRecord
  2
ByBlock
 70
     0
  3

 72
    65
 73
     0
 40
0.0
  0
LTYPE
  5
15
330
5
100
AcDbSymbolTableRecord
100
AcDbLinetypeTableRecord
  2
ByLayer
 70
     0
  3

 72
    65
 73
     0
 40
0.0
  0
LTYPE
  5
16
330
5
100
AcDbSymbolTableRecord
100
AcDbLinetypeTableRecord
  2
Continuous
 70
     0
  3
Solid line
 72
    65
 73
     0
 40
0.0
  0
LTYPE
  5
4F
330
5
100
AcDbSymbolTableRecord
100
AcDbLinetypeTableRecord
  2
AM_ISO02W050
 70
     0
  3
__ __ __ __ __ __ __ __ __ __ __ __ __ __ __
 72
    65
 73
     2
 40
7.5
 49
6.0
 74
     0
 49
-1.5
 74
     0
  0
LTYPE
  5
52
330
5
100
AcDbSymbolTableRecord
100
AcDbLinetypeTableRecord
  2
Amconstr
 70
     0
  3
_______________________
 72
    65
 73
     2
 40
9999.0
 49
9999.0
 74
     0
 49
0.0
 74
     0
  0
LTYPE
  5
64
330
5
100
AcDbSymbolTableRecord
100
AcDbLinetypeTableRecord
  2
ACISOWELD
 70
     0
  3
_ _ _ _ _
 72
    65
 73
     2
 40
2.0
 49
2.0
 74
     0
 49
-1.0
 74
     0
  0
LTYPE
  5
65
330
5
100
AcDbSymbolTableRecord
100
AcDbLinetypeTableRecord
  2
ACISOTGB
 70
     0
  3
__ . . __ . .
 72
    65
 73
     6
 40
9.0
 49
4.0
 74
     0
 49
-1.0
 74
     0
 49
1.0
 74
     0
 49
-1.0
 74
     0
 49
1.0
 74
     0
 49
-1.0
 74
     0
  0
LTYPE
  5
66
330
5
100
AcDbSymbolTableRecord
100
AcDbLinetypeTableRecord
  2
ACISOTGL
 70
     0
  3
_ _ _ _ _
 72
    65
 73
     2
 40
3.0
 49
2.0
 74
     0
 49
-1.0
 74
     0
  0
LTYPE
  5
69
330
5
100
AcDbSymbolTableRecord
100
AcDbLinetypeTableRecord
  2
CENTER
 70
     0
  3
__ . __
 72
    65
 73
     4
 40
7.0
 49
4.0
 74
     0
 49
-1.0
 74
     0
 49
1.0
 74
     0
 49
-1.0
 74
     0
  0
LTYPE
  5
A6E
330
5
100
AcDbSymbolTableRecord
100
AcDbLinetypeTableRecord
  2
PHANTOM2
 70
     0
  3
Phantom (.5x) ___ _ _ ___ _ _ ___ _ _ ___ _ _
 72
    65
 73
     6
 40
31.75
 49
15.875
 74
     0
 49
-3.174999999999999
 74
     0
 49
3.174999999999999
 74
     0
 49
-3.174999999999999
 74
     0
 49
3.174999999999999
 74
     0
 49
-3.174999999999999
 74
     0
  0
LTYPE
  5
4DED
330
5
100
AcDbSymbolTableRecord
100
AcDbLinetypeTableRecord
  2
中線
 70
     0
  3
___________________
 72
    65
 73
     2
 40
2.0
 49
1.0
 74
     0
 49
1.0
 74
     0
  0
LTYPE
  5
4DF6
330
5
100
AcDbSymbolTableRecord
100
AcDbLinetypeTableRecord
  2
細線
 70
     0
  3
___________________
 72
    65
 73
     2
 40
2.0
 49
1.0
 74
     0
 49
1.0
 74
     0
  0
LTYPE
  5
4DF7
330
5
100
AcDbSymbolTableRecord
100
AcDbLinetypeTableRecord
  2
太線
 70
     0
  3
___________________
 72
    65
 73
     2
 40
2.0
 49
1.0
 74
     0
 49
1.0
 74
     0
  0
LTYPE
  5
4EA7
330
5
100
AcDbSymbolTableRecord
100
AcDbLinetypeTableRecord
  2
文字
 70
     0
  3
_________________
 72
    65
 73
     2
 40
2.0
 49
1.0
 74
     0
 49
1.0
 74
     0
  0
LTYPE
  5
4EA9
330
5
100
AcDbSymbolTableRecord
100
AcDbLinetypeTableRecord
  2
寸法線
 70
     0
  3
________________
 72
    65
 73
     2
 40
2.0
 49
1.0
 74
     0
 49
1.0
 74
     0
  0
LTYPE
  5
4F12
330
5
100
AcDbSymbolTableRecord
100
AcDbLinetypeTableRecord
  2
ハッチング
 70
     0
  3
_________________
 72
    65
 73
     2
 40
2.0
 49
1.0
 74
     0
 49
1.0
 74
     0
  0
LTYPE
  5
5180
330
5
100
AcDbSymbolTableRecord
100
AcDbLinetypeTableRecord
  2
陰線1
 70
     0
  3
__ __ __ __
 72
    65
 73
     2
 40
4.0
 49
2.2
 74
     0
 49
-1.8
 74
     0
  0
LTYPE
  5
5182
330
5
100
AcDbSymbolTableRecord
100
AcDbLinetypeTableRecord
  2
切断線
 70
     0
  3
/\/-/\/-/\/-/\/-/\/-/\/
 72
    65
 73
     2
 40
11.0001
 49
0.0001
 74
     4
 75
   135
340
56
 46
0.04
 50
0.0
 44
0.0
 45
0.0
 49
-11.0
 74
     0
  0
LTYPE
  5
5183
330
5
100
AcDbSymbolTableRecord
100
AcDbLinetypeTableRecord
  2
想像線1
 70
     0
  3
__ __ __ _____ __ __ ____
 72
    65
 73
     6
 40
14.5
 49
6.0
 74
     0
 49
-1.5
 74
     0
 49
2.0
 74
     0
 49
-1.5
 74
     0
 49
2.0
 74
     0
 49
-1.5
 74
     0
  0
LTYPE
  5
5185
330
5
100
AcDbSymbolTableRecord
100
AcDbLinetypeTableRecord
  2
中心線1
 70
     0
  3
___ _ ___ _ ___
 72
    65
 73
     4
 40
18.0
 49
12.0
 74
     0
 49
-2.0
 74
     0
 49
2.0
 74
     0
 49
-2.0
 74
     0
  0
LTYPE
  5
5188
330
5
100
AcDbSymbolTableRecord
100
AcDbLinetypeTableRecord
  2
補助線
 70
     0
  3
______________
 72
    65
 73
     2
 40
2.0
 49
1.0
 74
     0
 49
1.0
 74
     0
  0
LTYPE
  5
6427
330
5
100
AcDbSymbolTableRecord
100
AcDbLinetypeTableRecord
  2
HIDDEN
 70
     0
  3
Hidden __ __ __ __ __ __ __ __ __ __ __ __ __ _
 72
    65
 73
     2
 40
0.375
 49
0.25
 74
     0
 49
-0.125
 74
     0
  0
LTYPE
  5
AC81
330
5
100
AcDbSymbolTableRecord
100
AcDbLinetypeTableRecord
  2
破断線
 70
     0
  3
/\/-/\/-/\/-/\/-/\/-/\/
 72
    65
 73
     2
 40
0.4401
 49
0.0001
 74
     4
 75
   136
340
AC80
 46
0.0016
 50
0.0
 44
0.0
 45
0.0
 49
-0.4400000000000001
 74
     0
  0
LTYPE
  5
AC9E
330
5
100
AcDbSymbolTableRecord
100
AcDbLinetypeTableRecord
  2
Amzigzag
 70
     0
  3
/\/-/\/-/\/-/\/-/\/-/\/
 72
    65
 73
     2
 40
11.0001
 49
0.0001
 74
     4
 75
   135
340
56
 46
0.04
 50
0.0
 44
0.0
 45
0.0
 49
-11.0
 74
     0
  0
LTYPE
  5
AF0F
330
5
100
AcDbSymbolTableRecord
100
AcDbLinetypeTableRecord
  2
genzigzag
 70
     0
  3
/\/-/\/-/\/-/\/-/\/-/\/
 72
    65
 73
     2
 40
12.0001
 49
0.0001
 74
     4
 75
   135
340
AC80
 46
2.0
 50
0.0
 44
0.0
 45
0.0
 49
-12.0
 74
     0
  0
LTYPE
  5
AF95
330
5
100
AcDbSymbolTableRecord
100
AcDbLinetypeTableRecord
  2
AM_ISO08W050
 70
     0
  3
____ . ____ . ____ . ____ . ____ . ____ . ____
 72
    65
 73
     4
 40
18.0
 49
12.0
 74
     0
 49
-1.5
 74
     0
 49
3.0
 74
     0
 49
-1.5
 74
     0
  0
LTYPE
  5
AF96
330
5
100
AcDbSymbolTableRecord
100
AcDbLinetypeTableRecord
  2
AM_ISO09W050
 70
     0
  3
_____ . . _____ . . _____ . . ____ .. ____
 72
    65
 73
     6
 40
22.5
 49
12.0
 74
     0
 49
-1.5
 74
     0
 49
3.0
 74
     0
 49
-1.5
 74
     0
 49
3.0
 74
     0
 49
-1.5
 74
     0
  0
LTYPE
  5
AF97
330
5
100
AcDbSymbolTableRecord
100
AcDbLinetypeTableRecord
  2
AM_ISO08W050x2
 70
     0
  3
__ . __ . __ . __ . __ . __
 72
    65
 73
     4
 40
9.0
 49
6.0
 74
     0
 49
-0.75
 74
     0
 49
1.5
 74
     0
 49
-0.75
 74
     0
  0
LTYPE
  5
AF98
330
5
100
AcDbSymbolTableRecord
100
AcDbLinetypeTableRecord
  2
AM_ISO02W050x2
 70
     0
  3
 _ _ _ _ _ _ _ _ _ _ _ _
 72
    65
 73
     2
 40
3.75
 49
3.0
 74
     0
 49
-0.75
 74
     0
  0
LTYPE
  5
B7EC
330
5
100
AcDbSymbolTableRecord
100
AcDbLinetypeTableRecord
  2
ACANSTGB
 70
     0
  3
__ . . __ . .
 72
    65
 73
     6
 40
0.35433070866
 49
0.15748031496
 74
     0
 49
-0.03937007874
 74
     0
 49
0.03937007874
 74
     0
 49
-0.03937007874
 74
     0
 49
0.03937007874
 74
     0
 49
-0.03937007874
 74
     0
  0
LTYPE
  5
B7ED
330
5
100
AcDbSymbolTableRecord
100
AcDbLinetypeTableRecord
  2
ACANSTGL
 70
     0
  3
_ _ _ _ _
 72
    65
 73
     2
 40
0.11811023622
 49
0.07874015748
 74
     0
 49
-0.03937007874
 74
     0
  0
LTYPE
  5
B7EE
330
5
100
AcDbSymbolTableRecord
100
AcDbLinetypeTableRecord
  2
CENTER2
 70
     0
  3
Center (.5x) ___ _ ___ _ ___ _ ___ _ ___ _ ___
 72
    65
 73
     4
 40
1.125
 49
0.75
 74
     0
 49
-0.125
 74
     0
 49
0.125
 74
     0
 49
-0.125
 74
     0
  0
LTYPE
  5
B7EF
330
5
100
AcDbSymbolTableRecord
100
AcDbLinetypeTableRecord
  2
HIDDEN2
 70
     0
  3
Hidden (.5x) _ _ _ _ _ _ _ _ _ _ _ _ _ _ _ _ _
 72
    65
 73
     2
 40
0.1875
 49
0.125
 74
     0
 49
-0.0625
 74
     0
  0
LTYPE
  5
B7F0
330
5
100
AcDbSymbolTableRecord
100
AcDbLinetypeTableRecord
  2
AMZIGZAG2
 70
     0
  3
/\/-/\/-/\/-/\/-/\/-/\/
 72
    65
 73
     2
 40
0.4401
 49
0.0001
 74
     0
 49
-0.4400000000000003
 74
     0
  0
LTYPE
  5
C649
330
5
100
AcDbSymbolTableRecord
100
AcDbLinetypeTableRecord
  2
PHANTOM
 70
     0
  3
_____ _ _ _____ _ _ _____ _ _ _____ _ _ ____  
 72
    65
 73
     6
 40
15.5
 49
8.0
 74
     0
 49
-1.5
 74
     0
 49
1.5
 74
     0
 49
-1.5
 74
     0
 49
1.5
 74
     0
 49
-1.5
 74
     0
  0
ENDTAB
  0
TABLE
  2
LAYER
  5
2
102
{ACAD_XDICTIONARY
360
3F95
102
}
330
0
100
AcDbSymbolTable
 70
    22
  0
LAYER
  5
10
102
{ACAD_XDICTIONARY
360
C26F
102
}
330
2
100
AcDbSymbolTableRecord
100
AcDbLayerTableRecord
  2
0
 70
     0
 62
     7
  6
Continuous
370
    -3
390
F
  0
LAYER
  5
6D1
330
2
100
AcDbSymbolTableRecord
100
AcDbLayerTableRecord
  2
Defpoints
 70
     0
 62
     7
  6
Continuous
290
     0
370
    -3
390
F
  0
LAYER
  5
5F85
102
{ACAD_XDICTIONARY
360
C271
102
}
330
2
100
AcDbSymbolTableRecord
100
AcDbLayerTableRecord
  2
AM_0
 70
     0
 62
     7
  6
中線
370
    30
390
F
1001
AcAecLayerStandard
1000

1000

  0
LAYER
  5
AC9F
102
{ACAD_XDICTIONARY
360
C273
102
}
330
2
100
AcDbSymbolTableRecord
100
AcDbLayerTableRecord
  2
size
 70
     0
 62
     5
  6
Continuous
290
     0
370
    25
390
F
  0
LAYER
  5
ACA0
102
{ACAD_XDICTIONARY
360
C275
102
}
330
2
100
AcDbSymbolTableRecord
100
AcDbLayerTableRecord
  2
waku
 70
     0
 62
     7
  6
Continuous
370
    35
390
F
  0
LAYER
  5
ACA1
102
{ACAD_XDICTIONARY
360
C277
102
}
330
2
100
AcDbSymbolTableRecord
100
AcDbLayerTableRecord
  2
AM_6
 70
     0
 62
     2
  6
文字
370
    13
390
F
1001
AcAecLayerStandard
1000

1000

  0
LAYER
  5
ACC8
102
{ACAD_XDICTIONARY
360
C279
102
}
330
2
100
AcDbSymbolTableRecord
100
AcDbLayerTableRecord
  2
hyomoji
 70
     0
 62
     2
  6
Continuous
370
    13
390
F
  0
LAYER
  5
ACC9
102
{ACAD_XDICTIONARY
360
C27B
102
}
330
2
100
AcDbSymbolTableRecord
100
AcDbLayerTableRecord
  2
hyosen1
 70
     0
 62
    12
  6
Continuous
370
    25
390
F
  0
LAYER
  5
ACCA
102
{ACAD_XDICTIONARY
360
C27D
102
}
330
2
100
AcDbSymbolTableRecord
100
AcDbLayerTableRecord
  2
hyosen2
 70
     0
 62
    12
  6
Continuous
370
    13
390
F
  0
LAYER
  5
AD60
102
{ACAD_XDICTIONARY
360
C27F
102
}
330
2
100
AcDbSymbolTableRecord
100
AcDbLayerTableRecord
  2
AM_1
 70
     0
 62
    30
  6
太線
370
    40
390
F
1001
AcAecLayerStandard
1000

1000

  0
LAYER
  5
AD64
102
{ACAD_XDICTIONARY
360
C281
102
}
330
2
100
AcDbSymbolTableRecord
100
AcDbLayerTableRecord
  2
AM_2
 70
     0
 62
     1
  6
細線
370
    13
390
F
1001
AcAecLayerStandard
1000

1000

  0
LAYER
  5
AD67
102
{ACAD_XDICTIONARY
360
C283
102
}
330
2
100
AcDbSymbolTableRecord
100
AcDbLayerTableRecord
  2
AM_3
 70
     0
 62
     6
  6
陰線1
370
    13
390
F
1001
AcAecLayerStandard
1000

1000

  0
LAYER
  5
AD68
102
{ACAD_XDICTIONARY
360
C285
102
}
330
2
100
AcDbSymbolTableRecord
100
AcDbLayerTableRecord
  2
AM_5
 70
     0
 62
     3
  6
寸法線
370
    13
390
F
1001
AcAecLayerStandard
1000

1000

  0
LAYER
  5
AD69
102
{ACAD_XDICTIONARY
360
C287
102
}
330
2
100
AcDbSymbolTableRecord
100
AcDbLayerTableRecord
  2
AM_7
 70
     0
 62
     4
  6
中心線1
370
    13
390
F
1001
AcAecLayerStandard
1000

1000

  0
LAYER
  5
AD6A
102
{ACAD_XDICTIONARY
360
C289
102
}
330
2
100
AcDbSymbolTableRecord
100
AcDbLayerTableRecord
  2
AM_8
 70
     0
 62
     1
  6
ハッチング
370
    13
390
F
1001
AcAecLayerStandard
1000

1000

  0
LAYER
  5
AD6E
102
{ACAD_XDICTIONARY
360
C28B
102
}
330
2
100
AcDbSymbolTableRecord
100
AcDbLayerTableRecord
  2
AM_10
 70
     0
 62
     7
  6
切断線
370
    13
390
F
1001
AcAecLayerStandard
1000

1000

  0
LAYER
  5
AD6F
102
{ACAD_XDICTIONARY
360
C28D
102
}
330
2
100
AcDbSymbolTableRecord
100
AcDbLayerTableRecord
  2
AM_11
 70
     0
 62
     2
  6
想像線1
370
    13
390
F
1001
AcAecLayerStandard
1000

1000

  0
LAYER
  5
B1B6
102
{ACAD_XDICTIONARY
360
C28F
102
}
330
2
100
AcDbSymbolTableRecord
100
AcDbLayerTableRecord
  2
AM_CL
 70
     0
 62
     1
  6
Amconstr
370
    15
390
F
1001
AcAecLayerStandard
1000

1000

  0
LAYER
  5
B2EB
102
{ACAD_XDICTIONARY
360
C291
102
}
330
2
100
AcDbSymbolTableRecord
100
AcDbLayerTableRecord
  2
AM_14
 70
     0
 62
     5
  6
細線
370
     9
390
F
1001
AcAecLayerStandard
1000

1000

  0
LAYER
  5
B2EC
102
{ACAD_XDICTIONARY
360
C293
102
}
330
2
100
AcDbSymbolTableRecord
100
AcDbLayerTableRecord
  2
AM_15
 70
     0
 62
     6
  6
陰線1
370
     9
390
F
1001
AcAecLayerStandard
1000

1000

  0
LAYER
  5
11EBD
330
2
100
AcDbSymbolTableRecord
100
AcDbLayerTableRecord
  2
AM_4
 70
     0
 62
     3
  6
補助線
370
    13
390
F
1001
AcAecLayerStandard
1000

1000

  0
LAYER
  5
159E8
102
{ACAD_XDICTIONARY
360
159E9
102
}
330
2
100
AcDbSymbolTableRecord
100
AcDbLayerTableRecord
  2
0スペーサー
 70
     0
 62
    60
  6
中線
370
    30
390
F
1001
AcAecLayerStandard
1000

1000

  0
ENDTAB
  0
TABLE
  2
STYLE
  5
3
330
0
100
AcDbSymbolTable
 70
     9
  0
STYLE
  5
11
330
3
100
AcDbSymbolTableRecord
100
AcDbTextStyleTableRecord
  2
STANDARD
 70
     0
 40
0.0
 41
0.7
 50
0.0
 71
     0
 42
3.2
  3
romans.shx
  4
extfont.shx
  0
STYLE
  5
56
330
3
100
AcDbSymbolTableRecord
100
AcDbTextStyleTableRecord
  2

 70
     1
 40
0.0
 41
1.0
 50
0.0
 71
     0
 42
2.5
  3
ltypeshp.shx
  4

  0
STYLE
  5
58
330
3
100
AcDbSymbolTableRecord
100
AcDbTextStyleTableRecord
  2
ACISOTS
 70
     0
 40
1.0
 41
1.0
 50
0.0
 71
     0
 42
2.5
  3
isocp.shx
  4
extfont.shx
  0
STYLE
  5
63
330
3
100
AcDbSymbolTableRecord
100
AcDbTextStyleTableRecord
  2
ACISOGDT
 70
     0
 40
0.0
 41
1.0
 50
0.0
 71
     0
 42
2.5
  3
amgdt.shx
  4

  0
STYLE
  5
A74
330
3
100
AcDbSymbolTableRecord
100
AcDbTextStyleTableRecord
  2
DIM
 70
     0
 40
0.0
 41
1.0
 50
0.0
 71
     0
 42
2.5
  3
monotxt.shx
  4
extfont.shx
  0
STYLE
  5
AC80
330
3
100
AcDbSymbolTableRecord
100
AcDbTextStyleTableRecord
  2

 70
     1
 40
0.0
 41
1.0
 50
0.0
 71
     0
 42
3.2
  3
genltshp.shx
  4

  0
STYLE
  5
B7F1
330
3
100
AcDbSymbolTableRecord
100
AcDbTextStyleTableRecord
  2
ACANSTS
 70
     0
 40
1.0
 41
1.0
 50
0.0
 71
     0
 42
0.2
  3
romans.shx
  4
extfont.shx
  0
STYLE
  5
B7F2
330
3
100
AcDbSymbolTableRecord
100
AcDbTextStyleTableRecord
  2
ACANSGDT
 70
     0
 40
0.0
 41
1.0
 50
0.0
 71
     0
 42
0.2
  3
amgdt.shx
  4

  0
ENDTAB
  0
TABLE
  2
VIEW
  5
6
330
0
100
AcDbSymbolTable
 70
     6
  0
VIEW
  5
AE1
330
6
100
AcDbSymbolTableRecord
100
AcDbViewTableRecord
  2
AM_VIEW1
 70
     0
 40
148.5
 10
120.5689655172414
 20
222.75
 41
241.1379310344828
 11
0.0
 21
0.0
 31
1.0
 12
0.0
 22
0.0
 32
0.0
 42
50.0
 43
-1370.695619172058
 44
-1370.695619172058
 50
0.0
 71
     0
281
     0
 72
     0
  0
VIEW
  5
AE2
330
6
100
AcDbSymbolTableRecord
100
AcDbViewTableRecord
  2
AM_VIEW2
 70
     0
 40
148.5
 10
299.4310344827586
 20
222.75
 41
241.1379310344828
 11
0.0
 21
0.0
 31
1.0
 12
0.0
 22
0.0
 32
0.0
 42
50.0
 43
-1370.695619172058
 44
-1370.695619172058
 50
0.0
 71
     0
281
     0
 72
     0
  0
VIEW
  5
AE3
330
6
100
AcDbSymbolTableRecord
100
AcDbViewTableRecord
  2
AM_VIEW3
 70
     0
 40
148.5
 10
120.5689655172414
 20
74.25
 41
241.1379310344828
 11
0.0
 21
0.0
 31
1.0
 12
0.0
 22
0.0
 32
0.0
 42
50.0
 43
-1370.695619172058
 44
-1370.695619172058
 50
0.0
 71
     0
281
     0
 72
     0
  0
VIEW
  5
AE4
330
6
100
AcDbSymbolTableRecord
100
AcDbViewTableRecord
  2
AM_VIEW4
 70
     0
 40
148.5
 10
299.4310344827586
 20
74.25
 41
241.1379310344828
 11
0.0
 21
0.0
 31
1.0
 12
0.0
 22
0.0
 32
0.0
 42
50.0
 43
-1370.695619172058
 44
-1370.695619172058
 50
0.0
 71
     0
281
     0
 72
     0
  0
VIEW
  5
AE5
330
6
100
AcDbSymbolTableRecord
100
AcDbViewTableRecord
  2
AM_VIEW5
 70
     0
 40
148.5
 10
210.0
 20
148.5
 41
241.1379310344828
 11
0.0
 21
0.0
 31
1.0
 12
0.0
 22
0.0
 32
0.0
 42
50.0
 43
-1370.695619172058
 44
-1370.695619172058
 50
0.0
 71
     0
281
     0
 72
     0
  0
VIEW
  5
AE6
330
6
100
AcDbSymbolTableRecord
100
AcDbViewTableRecord
  2
AM_VIEW6
 70
     0
 40
296.99703
 10
210.0
 20
148.5
 41
482.2710393103448
 11
0.0
 21
0.0
 31
1.0
 12
0.0
 22
0.0
 32
0.0
 42
50.0
 43
-1370.695619172058
 44
-1370.695619172058
 50
0.0
 71
     0
281
     0
 72
     0
  0
ENDTAB
  0
TABLE
  2
UCS
  5
7
330
0
100
AcDbSymbolTable
 70
     0
  0
ENDTAB
  0
TABLE
  2
APPID
  5
9
330
0
100
AcDbSymbolTable
 70
    58
  0
APPID
  5
12
330
9
100
AcDbSymbolTableRecord
100
AcDbRegAppTableRecord
  2
ACAD
 70
     0
  0
APPID
  5
30
330
9
100
AcDbSymbolTableRecord
100
AcDbRegAppTableRecord
  2
MCAD_NO_VIS
 70
     0
  0
APPID
  5
31
330
9
100
AcDbSymbolTableRecord
100
AcDbRegAppTableRecord
  2
ACAD_TEMP_GRAPHIC
 70
     0
  0
APPID
  5
44
330
9
100
AcDbSymbolTableRecord
100
AcDbRegAppTableRecord
  2
ACATTRIBSERVICES
 70
     0
  0
APPID
  5
7A1
330
9
100
AcDbSymbolTableRecord
100
AcDbRegAppTableRecord
  2
GENIUS_GENDIMSH_14
 70
     0
  0
APPID
  5
A49
330
9
100
AcDbSymbolTableRecord
100
AcDbRegAppTableRecord
  2
GENIUS_GENREC_14
 70
     0
  0
APPID
  5
A4A
330
9
100
AcDbSymbolTableRecord
100
AcDbRegAppTableRecord
  2
GENIUS_GENOBJ-N-REC_13
 70
     0
  0
APPID
  5
A4B
330
9
100
AcDbSymbolTableRecord
100
AcDbRegAppTableRecord
  2
GENIUS_GENODEF_13
 70
     0
  0
APPID
  5
A4C
330
9
100
AcDbSymbolTableRecord
100
AcDbRegAppTableRecord
  2
DCO15
 70
     0
  0
APPID
  5
ADC
330
9
100
AcDbSymbolTableRecord
100
AcDbRegAppTableRecord
  2
GENIUS_GENOLIS_13
 70
     0
  0
APPID
  5
ADD
330
9
100
AcDbSymbolTableRecord
100
AcDbRegAppTableRecord
  2
GENIUS_GENOENT_13
 70
     0
  0
APPID
  5
ADE
330
9
100
AcDbSymbolTableRecord
100
AcDbRegAppTableRecord
  2
GENIUS_GENOBJ-N-TIT_13
 70
     0
  0
APPID
  5
ADF
330
9
100
AcDbSymbolTableRecord
100
AcDbRegAppTableRecord
  2
GENIUS_GENTITLE_13
 70
     0
  0
APPID
  5
AE0
330
9
100
AcDbSymbolTableRecord
100
AcDbRegAppTableRecord
  2
GENIUS_GENOREF_13
 70
     0
  0
APPID
  5
AE7
330
9
100
AcDbSymbolTableRecord
100
AcDbRegAppTableRecord
  2
GENIUS_GENSCREG_15
 70
     0
  0
APPID
  5
AE8
330
9
100
AcDbSymbolTableRecord
100
AcDbRegAppTableRecord
  2
GENIUS_GENOBJ-N-SDF_13
 70
     0
  0
APPID
  5
FAF
330
9
100
AcDbSymbolTableRecord
100
AcDbRegAppTableRecord
  2
GENIUS_GENBLLY_14
 70
     0
  0
APPID
  5
FB0
330
9
100
AcDbSymbolTableRecord
100
AcDbRegAppTableRecord
  2
GENIUS_GENTRA_14
 70
     0
  0
APPID
  5
1285
330
9
100
AcDbSymbolTableRecord
100
AcDbRegAppTableRecord
  2
GENIUS_GENDTOL_13
 70
     0
  0
APPID
  5
142D
330
9
100
AcDbSymbolTableRecord
100
AcDbRegAppTableRecord
  2
GENIUS_GENOBJ-N-CEN_13
 70
     0
  0
APPID
  5
1AB5
330
9
100
AcDbSymbolTableRecord
100
AcDbRegAppTableRecord
  2
GENIUS_GENOBJ-N-CRS_13
 70
     0
  0
APPID
  5
1B36
330
9
100
AcDbSymbolTableRecord
100
AcDbRegAppTableRecord
  2
GENIUS_GENOBJ-N-HTC_13
 70
     0
  0
APPID
  5
1B37
330
9
100
AcDbSymbolTableRecord
100
AcDbRegAppTableRecord
  2
GENIUS_GENHATCH_13
 70
     0
  0
APPID
  5
216D
330
9
100
AcDbSymbolTableRecord
100
AcDbRegAppTableRecord
  2
GENIUS_GENOBJ-N-FIL_13
 70
     0
  0
APPID
  5
2356
330
9
100
AcDbSymbolTableRecord
100
AcDbRegAppTableRecord
  2
GEVID990412420
 70
     0
  0
APPID
  5
2357
330
9
100
AcDbSymbolTableRecord
100
AcDbRegAppTableRecord
  2
GEVDC
 70
     0
  0
APPID
  5
2358
330
9
100
AcDbSymbolTableRecord
100
AcDbRegAppTableRecord
  2
GEVCON
 70
     0
  0
APPID
  5
235B
330
9
100
AcDbSymbolTableRecord
100
AcDbRegAppTableRecord
  2
GEVRADREF
 70
     0
  0
APPID
  5
2360
330
9
100
AcDbSymbolTableRecord
100
AcDbRegAppTableRecord
  2
GENIUS_GENBH_13
 70
     0
  0
APPID
  5
2362
330
9
100
AcDbSymbolTableRecord
100
AcDbRegAppTableRecord
  2
GENIUS_GENOBJ-NBEHI-BHF_13
 70
     0
  0
APPID
  5
2364
330
9
100
AcDbSymbolTableRecord
100
AcDbRegAppTableRecord
  2
GENIUS_GENOBJ-NBEHI-BHB_13
 70
     0
  0
APPID
  5
2379
330
9
100
AcDbSymbolTableRecord
100
AcDbRegAppTableRecord
  2
GENIUS_GENOBJ-F-SCPASSM_13
 70
     0
  0
APPID
  5
3D74
330
9
100
AcDbSymbolTableRecord
100
AcDbRegAppTableRecord
  2
GENIUS_GENDIM_13
 70
     0
  0
APPID
  5
3D76
330
9
100
AcDbSymbolTableRecord
100
AcDbRegAppTableRecord
  2
GENIUS_GE3DTOL_13
 70
     0
  0
APPID
  5
3D9C
330
9
100
AcDbSymbolTableRecord
100
AcDbRegAppTableRecord
  2
AD_DRAW
 70
     0
  0
APPID
  5
3DE8
330
9
100
AcDbSymbolTableRecord
100
AcDbRegAppTableRecord
  2
ASURF_PCURVE_APPNAME
 70
     0
  0
APPID
  5
3DED
330
9
100
AcDbSymbolTableRecord
100
AcDbRegAppTableRecord
  2
AMG_3D2D_5.0
 70
     0
  0
APPID
  5
3E1B
330
9
100
AcDbSymbolTableRecord
100
AcDbRegAppTableRecord
  2
DESIGNERASSEMBLIES
 70
     0
  0
APPID
  5
3E20
330
9
100
AcDbSymbolTableRecord
100
AcDbRegAppTableRecord
  2
ACADM_DIM_EDIT
 70
     0
  0
APPID
  5
3E21
330
9
100
AcDbSymbolTableRecord
100
AcDbRegAppTableRecord
  2
AMDT_DM_ADJ
 70
     0
  0
APPID
  5
4143
330
9
100
AcDbSymbolTableRecord
100
AcDbRegAppTableRecord
  2
GENIUS_GENFIL_13
 70
     0
  0
APPID
  5
4144
330
9
100
AcDbSymbolTableRecord
100
AcDbRegAppTableRecord
  2
GENIUS_GENOBJ-N-CHA_13
 70
     0
  0
APPID
  5
4E17
330
9
100
AcDbSymbolTableRecord
100
AcDbRegAppTableRecord
  2
GEVID1008153417
 70
     0
  0
APPID
  5
4E58
330
9
100
AcDbSymbolTableRecord
100
AcDbRegAppTableRecord
  2
GEVID1008153418
 70
     0
  0
APPID
  5
4E5E
330
9
100
AcDbSymbolTableRecord
100
AcDbRegAppTableRecord
  2
GEVID1008153419
 70
     0
  0
APPID
  5
4E64
330
9
100
AcDbSymbolTableRecord
100
AcDbRegAppTableRecord
  2
GEVID1008153420
 70
     0
  0
APPID
  5
4E75
330
9
100
AcDbSymbolTableRecord
100
AcDbRegAppTableRecord
  2
GEVID1008153421
 70
     0
  0
APPID
  5
4EB7
330
9
100
AcDbSymbolTableRecord
100
AcDbRegAppTableRecord
  2
GENIUS_AMGTXT_16
 70
     0
  0
APPID
  5
7645
330
9
100
AcDbSymbolTableRecord
100
AcDbRegAppTableRecord
  2
GENIUS_GENOBJ-N-DIM_13
 70
     0
  0
APPID
  5
AAD0
330
9
100
AcDbSymbolTableRecord
100
AcDbRegAppTableRecord
  2
ACAD_DSTYLE_DIMARC_LENGTH_SYMBOL
 70
     0
  0
APPID
  5
AAD1
330
9
100
AcDbSymbolTableRecord
100
AcDbRegAppTableRecord
  2
ACAD_DSTYLE_DIMJOGGED_JOGANGLE_SYMBOL
 70
     0
  0
APPID
  5
AAFD
330
9
100
AcDbSymbolTableRecord
100
AcDbRegAppTableRecord
  2
ACAD_PSEXT
 70
     0
  0
APPID
  5
AD61
330
9
100
AcDbSymbolTableRecord
100
AcDbRegAppTableRecord
  2
AcAecLayerStandard
 70
     0
  0
APPID
  5
AEE3
330
9
100
AcDbSymbolTableRecord
100
AcDbRegAppTableRecord
  2
ACAD_EXEMPT_FROM_CAD_STANDARDS
 70
     0
  0
APPID
  5
B1BE
330
9
100
AcDbSymbolTableRecord
100
AcDbRegAppTableRecord
  2
GENIUS_GENCEN_19
 70
     0
  0
APPID
  5
B597
330
9
100
AcDbSymbolTableRecord
100
AcDbRegAppTableRecord
  2
ACAD_MLEADERVER
 70
     0
  0
APPID
  5
BBD6
330
9
100
AcDbSymbolTableRecord
100
AcDbRegAppTableRecord
  2
ACAD_DSTYLE_DIMINSPECT
 70
     0
  0
APPID
  5
BE09
330
9
100
AcDbSymbolTableRecord
100
AcDbRegAppTableRecord
  2
ACAD_DSTYLE_DIMRADIAL_EXTENSION
 70
     0
  0
ENDTAB
  0
TABLE
  2
DIMSTYLE
  5
A
330
0
100
AcDbSymbolTable
 70
    25
100
AcDbDimStyleTable
 71
     1
340
2515
  0
DIMSTYLE
105
A76
330
A
100
AcDbSymbolTableRecord
100
AcDbDimStyleTableRecord
  2
STANDARD
 70
     0
 41
3.0
 42
1.0
 43
7.0
 44
2.0
 73
     0
 74
     0
 77
     1
140
2.799999999999999
141
0.0
143
0.0394
147
0.7
171
     4
172
     1
173
     1
176
     3
177
     3
178
     2
271
     3
272
     3
273
     8
274
     4
289
     0
340
A74
341
A66
343
A66
344
A66
  0
DIMSTYLE
105
2515
330
A
100
AcDbSymbolTableRecord
100
AcDbDimStyleTableRecord
  2
SYS
 70
     0
  4
"
 41
1.0
 42
1.0
 43
10.0
 44
1.0
 47
0.1
 48
0.1
 73
     0
 74
     0
 77
     1
 78
     8
 79
     2
140
3.5
141
0.0
143
0.0393701
146
0.71
147
1.5
172
     1
176
   256
177
   256
178
     7
271
     2
272
     2
283
     0
284
     8
340
11
371
    -1
372
    -1
1001
ACAD_DSTYLE_DIMJOGGED_JOGANGLE_SYMBOL
1070
   384
1040
0.7853981633974483
1001
ACAD_DSTYLE_DIMARC_LENGTH_SYMBOL
1070
   379
1070
     1
  0
DIMSTYLE
105
2516
102
{ACAD_REACTORS
330
16FB1
330
16FB2
102
}
330
A
100
AcDbSymbolTableRecord
100
AcDbDimStyleTableRecord
  2
SYS$3
 70
     0
  4
"
 41
2.0
 42
1.0
 43
10.0
 44
1.0
 47
0.1
 48
0.1
 73
     0
 77
     1
 78
     8
 79
     2
140
3.5
141
0.0
143
0.0393701
146
0.71
147
1.5
176
   256
177
   256
178
     2
271
     2
272
     2
283
     0
284
     8
288
     1
340
11
342
A66
371
    -1
372
    -1
1001
ACAD_DSTYLE_DIMJOGGED_JOGANGLE_SYMBOL
1070
   384
1040
0.7853981633974483
1001
ACAD_DSTYLE_DIMARC_LENGTH_SYMBOL
1070
   379
1070
     1
  0
DIMSTYLE
105
2517
330
A
100
AcDbSymbolTableRecord
100
AcDbDimStyleTableRecord
  2
SYS$4
 70
     0
  4
"
 41
2.0
 42
1.0
 43
10.0
 44
1.0
 47
0.1
 48
0.1
 73
     0
 77
     1
 78
     8
 79
     2
140
3.5
141
0.0
143
0.0393701
146
0.71
147
1.5
173
     1
176
   256
177
   256
178
     2
271
     2
272
     2
283
     0
284
     8
288
     1
340
11
344
A66
371
    -1
372
    -1
1001
ACAD_DSTYLE_DIMJOGGED_JOGANGLE_SYMBOL
1070
   384
1040
0.7853981633974483
1001
ACAD_DSTYLE_DIMARC_LENGTH_SYMBOL
1070
   379
1070
     1
  0
DIMSTYLE
105
2518
330
A
100
AcDbSymbolTableRecord
100
AcDbDimStyleTableRecord
  2
SYS$6
 70
     0
  4
"
 41
2.0
 42
1.0
 43
10.0
 44
1.0
 47
0.1
 48
0.1
 73
     0
 74
     0
 78
     8
 79
     2
140
3.5
141
0.0
143
0.0393701
146
0.71
147
1.5
172
     1
176
   256
177
   256
178
     2
271
     2
272
     2
283
     0
284
     8
340
11
341
A66
371
    -1
372
    -1
1001
ACAD_DSTYLE_DIMJOGGED_JOGANGLE_SYMBOL
1070
   384
1040
0.7853981633974483
1001
ACAD_DSTYLE_DIMARC_LENGTH_SYMBOL
1070
   379
1070
     1
  0
DIMSTYLE
105
2519
330
A
100
AcDbSymbolTableRecord
100
AcDbDimStyleTableRecord
  2
SYS$7
 70
     0
  4
"
 41
2.0
 42
1.0
 43
10.0
 44
1.0
 47
0.1
 48
0.1
 73
     0
 74
     0
 77
     1
 78
     8
 79
     2
140
5.0
141
0.0
143
0.0393701
146
0.71
147
1.5
172
     1
176
   256
177
   256
178
     2
271
     2
272
     2
283
     0
284
     8
340
11
341
A66
342
A66
371
    -1
372
    -1
1001
ACAD_DSTYLE_DIMJOGGED_JOGANGLE_SYMBOL
1070
   384
1040
0.7853981633974483
1001
ACAD_DSTYLE_DIMARC_LENGTH_SYMBOL
1070
   379
1070
     1
  0
DIMSTYLE
105
251A
330
A
100
AcDbSymbolTableRecord
100
AcDbDimStyleTableRecord
  2
SYS$SF
 70
     0
  4
"
 41
2.5
 42
1.0
 43
10.0
 44
1.0
 47
0.1
 48
0.1
 73
     0
 74
     0
 75
     1
 76
     1
 77
     1
 78
     8
 79
     2
140
3.5
141
0.0
143
0.0393701
146
0.71
147
1.5
172
     1
176
   256
177
   256
178
     2
271
     2
272
     3
283
     0
284
     8
340
11
341
6C4
342
6C4
371
    -1
372
    -1
1001
ACAD_DSTYLE_DIMJOGGED_JOGANGLE_SYMBOL
1070
   384
1040
0.7853981633974483
1001
ACAD_DSTYLE_DIMARC_LENGTH_SYMBOL
1070
   379
1070
     1
  0
DIMSTYLE
105
251B
330
A
100
AcDbSymbolTableRecord
100
AcDbDimStyleTableRecord
  2
SYS$SH
 70
     0
  4
"
 41
2.5
 42
1.0
 43
10.0
 44
1.0
 47
0.1
 48
0.1
 73
     0
 74
     0
 75
     1
 76
     1
 77
     1
 78
     8
 79
     2
140
3.5
141
0.0
143
0.0393701
144
2.0
146
0.71
147
1.5
172
     1
173
     1
176
   256
177
   256
178
     2
271
     2
272
     3
283
     0
284
     8
340
11
341
6C4
343
72
344
6C4
371
    -1
372
    -1
1001
ACAD_DSTYLE_DIMJOGGED_JOGANGLE_SYMBOL
1070
   384
1040
0.7853981633974483
1001
ACAD_DSTYLE_DIMARC_LENGTH_SYMBOL
1070
   379
1070
     1
  0
DIMSTYLE
105
2A59
102
{ACAD_REACTORS
330
1730B
330
173D4
102
}
330
A
100
AcDbSymbolTableRecord
100
AcDbDimStyleTableRecord
  2
SYS$2
 70
     0
  4
"
 41
1.0
 42
1.0
 43
10.0
 44
1.0
 47
0.1
 48
0.1
 73
     0
 74
     0
 77
     1
 78
     8
 79
     2
140
3.5
141
0.0
143
0.0393701
146
0.71
147
1.5
172
     1
176
   256
177
   256
178
     2
271
     2
272
     2
283
     0
284
     8
340
11
342
6C4
371
    -1
372
    -1
1001
ACAD_DSTYLE_DIMJOGGED_JOGANGLE_SYMBOL
1070
   384
1040
0.7853981633974483
1001
ACAD_DSTYLE_DIMARC_LENGTH_SYMBOL
1070
   379
1070
     1
  0
DIMSTYLE
105
2AAB
102
{ACAD_REACTORS
330
15025
330
15026
330
15027
330
15028
330
16F98
330
16F99
330
16F1A
330
16F1B
330
16F25
330
16F97
330
16F9B
330
16F9C
330
16F9D
330
16FAC
330
16FAD
330
17881
330
17DC4
330
18153
330
181E8
330
18285
102
}
330
A
100
AcDbSymbolTableRecord
100
AcDbDimStyleTableRecord
  2
SYS$0
 70
     0
  4
"
 41
1.0
 42
1.0
 43
10.0
 44
1.0
 47
0.1
 48
0.1
 73
     0
 74
     0
 77
     1
 78
     8
 79
     2
140
3.200000000000001
141
0.0
143
0.0393701
146
0.71
147
1.5
172
     1
176
   256
177
   256
178
     2
271
     2
272
     2
283
     0
284
     8
340
11
341
A66
342
6C4
371
    -1
372
    -1
1001
ACAD_DSTYLE_DIMJOGGED_JOGANGLE_SYMBOL
1070
   384
1040
0.7853981633974483
1001
ACAD_DSTYLE_DIMARC_LENGTH_SYMBOL
1070
   379
1070
     1
  0
DIMSTYLE
105
AF99
330
A
100
AcDbSymbolTableRecord
100
AcDbDimStyleTableRecord
  2
AM_ISO
 70
     0
  4
"
 41
2.5
 42
1.0
 43
10.0
 44
1.0
 47
0.1
 48
0.1
 73
     0
 74
     0
 77
     1
 78
     8
 79
     2
140
3.5
141
0.0
143
0.0393701
146
0.71
147
1.5
172
     1
176
   256
177
   256
178
     2
271
     2
272
     3
274
     4
283
     0
284
     8
340
11
371
    -1
372
    -1
  0
DIMSTYLE
105
AF9A
330
A
100
AcDbSymbolTableRecord
100
AcDbDimStyleTableRecord
  2
AM_ISO$3
 70
     0
  4
"
 41
2.5
 42
1.0
 43
10.0
 44
1.0
 47
0.1
 48
0.1
 73
     0
 77
     1
 78
     8
 79
     2
140
3.5
141
0.0
143
0.0393701
146
0.71
147
1.5
176
   256
177
   256
178
     2
271
     2
272
     3
274
     4
283
     0
284
     8
288
     1
289
     0
340
11
371
    -1
372
    -1
  0
DIMSTYLE
105
AF9B
330
A
100
AcDbSymbolTableRecord
100
AcDbDimStyleTableRecord
  2
AM_ISO$4
 70
     0
  4
"
 41
2.5
 42
1.0
 43
10.0
 44
1.0
 47
0.1
 48
0.1
 73
     0
 77
     1
 78
     8
 79
     2
140
3.5
141
0.0
143
0.0393701
146
0.71
147
1.5
176
   256
177
   256
178
     2
271
     2
272
     3
274
     4
283
     0
284
     8
288
     1
289
     0
340
11
371
    -1
372
    -1
  0
DIMSTYLE
105
AF9C
330
A
100
AcDbSymbolTableRecord
100
AcDbDimStyleTableRecord
  2
AM_ISO$6
 70
     0
  4
"
 41
2.5
 42
1.0
 43
10.0
 44
1.0
 47
0.1
 48
0.1
 73
     0
 74
     0
 78
     8
 79
     2
140
3.5
141
0.0
143
0.0393701
146
0.71
147
1.5
172
     1
176
   256
177
   256
178
     2
271
     2
272
     3
274
     4
283
     0
284
     8
340
11
371
    -1
372
    -1
  0
DIMSTYLE
105
AF9D
330
A
100
AcDbSymbolTableRecord
100
AcDbDimStyleTableRecord
  2
AM_ISO$7
 70
     0
  4
"
 41
2.5
 42
1.0
 43
10.0
 44
1.0
 47
0.1
 48
0.1
 73
     0
 74
     0
 77
     1
 78
     8
 79
     2
140
5.0
141
0.0
143
0.0393701
146
0.71
147
1.5
172
     1
176
   256
177
   256
178
     2
271
     2
272
     3
274
     4
283
     0
284
     8
340
11
371
    -1
372
    -1
  0
DIMSTYLE
105
AF9E
330
A
100
AcDbSymbolTableRecord
100
AcDbDimStyleTableRecord
  2
AM_ISO$SF
 70
     0
  4
"
 41
2.5
 42
1.0
 43
10.0
 44
1.0
 47
0.1
 48
0.1
 73
     0
 74
     0
 75
     1
 76
     1
 77
     1
 78
     8
 79
     2
140
3.5
141
0.0
143
0.0393701
146
0.71
147
1.5
172
     1
176
   256
177
   256
178
     2
271
     2
272
     3
274
     4
283
     0
284
     8
340
11
371
    -1
372
    -1
  0
DIMSTYLE
105
AF9F
330
A
100
AcDbSymbolTableRecord
100
AcDbDimStyleTableRecord
  2
AM_ISO$SH
 70
     0
  4
"
 41
2.5
 42
1.0
 43
10.0
 44
1.0
 47
0.1
 48
0.1
 73
     0
 74
     0
 75
     1
 76
     1
 77
     1
 78
     8
 79
     2
140
3.5
141
0.0
143
0.0393701
144
2.0
146
0.71
147
1.5
172
     1
173
     1
176
   256
177
   256
178
     2
271
     2
272
     3
274
     4
283
     0
284
     8
340
11
343
72
371
    -1
372
    -1
  0
DIMSTYLE
105
B7F3
330
A
100
AcDbSymbolTableRecord
100
AcDbDimStyleTableRecord
  2
AM_ANSI
 70
     0
  4
mm
 41
0.1
 42
0.05
 43
0.5
 44
0.1
 47
0.1
 48
0.1
 78
     7
140
0.12
141
0.0
146
0.71
147
0.06
176
   256
177
   256
178
     2
271
     2
272
     2
279
     2
284
     8
285
     8
286
     8
340
11
  0
DIMSTYLE
105
B7F4
330
A
100
AcDbSymbolTableRecord
100
AcDbDimStyleTableRecord
  2
AM_ANSI$3
 70
     0
  4
mm
 41
0.1
 42
0.05
 43
0.5
 44
0.1
 47
0.1
 48
0.1
 78
     7
140
0.12
141
0.0
146
0.71
147
0.06
176
   256
177
   256
178
     2
271
     2
272
     2
279
     2
284
     8
285
     8
286
     8
340
11
  0
DIMSTYLE
105
B7F5
330
A
100
AcDbSymbolTableRecord
100
AcDbDimStyleTableRecord
  2
AM_ANSI$4
 70
     0
  4
mm
 41
0.1
 42
0.05
 43
0.5
 44
0.1
 47
0.1
 48
0.1
 78
     7
140
0.12
141
0.0
146
0.71
147
0.06
176
   256
177
   256
178
     2
271
     2
272
     2
279
     2
284
     8
285
     8
286
     8
340
11
  0
DIMSTYLE
105
B7F6
330
A
100
AcDbSymbolTableRecord
100
AcDbDimStyleTableRecord
  2
AM_ANSI$7
 70
     0
  4
mm
 41
0.1
 42
0.05
 43
0.5
 44
0.1
 47
0.1
 48
0.1
 78
     7
140
0.24
141
0.0
146
0.71
147
0.06
176
   256
177
   256
178
     2
271
     2
272
     2
279
     2
284
     8
285
     8
286
     8
340
11
  0
DIMSTYLE
105
B7F7
330
A
100
AcDbSymbolTableRecord
100
AcDbDimStyleTableRecord
  2
AM_ANSI$SF
 70
     0
  4
mm
 41
0.1
 42
0.05
 43
0.5
 44
0.1
 47
0.1
 48
0.1
 75
     1
 76
     1
 78
     7
140
0.12
141
0.0
146
0.71
147
0.06
176
   256
177
   256
178
     2
271
     2
272
     2
279
     2
284
     8
285
     8
286
     8
340
11
  0
DIMSTYLE
105
B7F8
330
A
100
AcDbSymbolTableRecord
100
AcDbDimStyleTableRecord
  2
AM_ANSI$SH
 70
     0
  4
mm
 41
0.1
 42
0.05
 43
0.5
 44
0.1
 47
0.1
 48
0.1
 75
     1
 76
     1
 78
     7
140
0.12
141
0.0
146
0.71
147
0.06
173
     1
176
   256
177
   256
178
     2
271
     2
272
     2
279
     2
284
     8
285
     8
286
     8
340
11
  0
DIMSTYLE
105
C64A
330
A
100
AcDbSymbolTableRecord
100
AcDbDimStyleTableRecord
  2
DIMSTYLE
 70
     0
 41
1.0
 42
2.54
 44
2.54
 73
     0
 74
     0
140
3.2
147
1.6
173
     1
279
     2
340
11
  0
ENDTAB
  0
TABLE
  2
BLOCK_RECORD
  5
1
330
0
100
AcDbSymbolTable
 70
    33
  0
BLOCK_RECORD
  5
1F
102
{ACAD_XDICTIONARY
360
8A
102
}
330
1
100
AcDbSymbolTableRecord
100
AcDbBlockTableRecord
  2
*Model_Space
340
22
  0
BLOCK_RECORD
  5
1B
330
1
100
AcDbSymbolTableRecord
100
AcDbBlockTableRecord
  2
*Paper_Space
340
1E
  0
BLOCK_RECORD
  5
23
330
1
100
AcDbSymbolTableRecord
100
AcDbBlockTableRecord
  2
*Paper_Space0
340
26
  0
BLOCK_RECORD
  5
72
330
1
100
AcDbSymbolTableRecord
100
AcDbBlockTableRecord
  2
GENAXEH
340
0
  0
BLOCK_RECORD
  5
6C4
330
1
100
AcDbSymbolTableRecord
100
AcDbBlockTableRecord
  2
_Dot
340
0
102
{BLKREFS
331
17AE8
331
17AE9
331
17AF1
331
17AF2
331
17B0D
331
17B0E
331
17B15
331
17B16
331
17B1C
331
17B1D
331
17B73
331
17B74
331
17E10
331
17E11
331
17E2D
331
17E2E
331
17E38
331
17E39
331
17E41
331
17E42
331
17E4A
331
17E4B
331
1808D
331
1808E
331
1809F
331
180A0
331
180A8
331
180A9
331
18106
331
18107
331
18175
331
18176
331
18192
331
18193
331
181EF
331
181F0
331
182A7
331
182A8
331
182B9
331
182BA
102
}
  0
BLOCK_RECORD
  5
A66
330
1
100
AcDbSymbolTableRecord
100
AcDbBlockTableRecord
  2
_OPEN30
340
0
102
{BLKREFS
331
17367
331
173F6
102
}
  0
BLOCK_RECORD
  5
128DD
330
1
100
AcDbSymbolTableRecord
100
AcDbBlockTableRecord
  2
板1
340
0
102
{BLKREFS
331
16F35
331
16F38
102
}
  0
BLOCK_RECORD
  5
133CC
330
1
100
AcDbSymbolTableRecord
100
AcDbBlockTableRecord
  2
_NONE
340
0
  0
BLOCK_RECORD
  5
14A00
330
1
100
AcDbSymbolTableRecord
100
AcDbBlockTableRecord
  2
GENDOT
340
0
102
{BLKREFS
331
17E08
331
17E09
331
17E25
331
17E26
102
}
  0
BLOCK_RECORD
  5
15029
330
1
100
AcDbSymbolTableRecord
100
AcDbBlockTableRecord
  2
*D8
340
0
  0
BLOCK_RECORD
  5
15035
330
1
100
AcDbSymbolTableRecord
100
AcDbBlockTableRecord
  2
*D9
340
0
  0
BLOCK_RECORD
  5
15043
330
1
100
AcDbSymbolTableRecord
100
AcDbBlockTableRecord
  2
*D10
340
0
  0
BLOCK_RECORD
  5
1504F
330
1
100
AcDbSymbolTableRecord
100
AcDbBlockTableRecord
  2
*D11
340
0
  0
BLOCK_RECORD
  5
16FD4
330
1
100
AcDbSymbolTableRecord
100
AcDbBlockTableRecord
  2
*D12
340
0
  0
BLOCK_RECORD
  5
16FDF
330
1
100
AcDbSymbolTableRecord
100
AcDbBlockTableRecord
  2
*D13
340
0
  0
BLOCK_RECORD
  5
16FF5
330
1
100
AcDbSymbolTableRecord
100
AcDbBlockTableRecord
  2
*D14
340
0
  0
BLOCK_RECORD
  5
17001
330
1
100
AcDbSymbolTableRecord
100
AcDbBlockTableRecord
  2
*D15
340
0
  0
BLOCK_RECORD
  5
1700D
330
1
100
AcDbSymbolTableRecord
100
AcDbBlockTableRecord
  2
*D16
340
0
  0
BLOCK_RECORD
  5
17026
330
1
100
AcDbSymbolTableRecord
100
AcDbBlockTableRecord
  2
*D17
340
0
  0
BLOCK_RECORD
  5
17032
330
1
100
AcDbSymbolTableRecord
100
AcDbBlockTableRecord
  2
*D18
340
0
  0
BLOCK_RECORD
  5
1703E
330
1
100
AcDbSymbolTableRecord
100
AcDbBlockTableRecord
  2
*D19
340
0
  0
BLOCK_RECORD
  5
1704A
330
1
100
AcDbSymbolTableRecord
100
AcDbBlockTableRecord
  2
*D20
340
0
  0
BLOCK_RECORD
  5
17062
330
1
100
AcDbSymbolTableRecord
100
AcDbBlockTableRecord
  2
*D21
340
0
  0
BLOCK_RECORD
  5
1706D
330
1
100
AcDbSymbolTableRecord
100
AcDbBlockTableRecord
  2
*D22
340
0
  0
BLOCK_RECORD
  5
17078
330
1
100
AcDbSymbolTableRecord
100
AcDbBlockTableRecord
  2
*D23
340
0
  0
BLOCK_RECORD
  5
17083
330
1
100
AcDbSymbolTableRecord
100
AcDbBlockTableRecord
  2
*D24
340
0
  0
BLOCK_RECORD
  5
1730C
330
1
100
AcDbSymbolTableRecord
100
AcDbBlockTableRecord
  2
*D25
340
0
  0
BLOCK_RECORD
  5
173D5
330
1
100
AcDbSymbolTableRecord
100
AcDbBlockTableRecord
  2
*D26
340
0
  0
BLOCK_RECORD
  5
17882
330
1
100
AcDbSymbolTableRecord
100
AcDbBlockTableRecord
  2
*D27
340
0
  0
BLOCK_RECORD
  5
17DC5
330
1
100
AcDbSymbolTableRecord
100
AcDbBlockTableRecord
  2
*D28
340
0
  0
BLOCK_RECORD
  5
18154
330
1
100
AcDbSymbolTableRecord
100
AcDbBlockTableRecord
  2
*D29
340
0
  0
BLOCK_RECORD
  5
181E9
330
1
100
AcDbSymbolTableRecord
100
AcDbBlockTableRecord
  2
*D30
340
0
  0
BLOCK_RECORD
  5
18286
330
1
100
AcDbSymbolTableRecord
100
AcDbBlockTableRecord
  2
*D31
340
0
  0
ENDTAB
  0
ENDSEC
  0
SECTION
  2
BLOCKS
  0
BLOCK
  5
20
330
1F
100
AcDbEntity
  8
0
100
AcDbBlockBegin
  2
*Model_Space
 70
     0
 10
0.0
 20
0.0
 30
0.0
  3
*Model_Space
  1

  0
ENDBLK
  5
21
330
1F
100
AcDbEntity
  8
0
100
AcDbBlockEnd
  0
BLOCK
  5
1C
330
1B
100
AcDbEntity
 67
     1
  8
0
100
AcDbBlockBegin
  2
*Paper_Space
 70
     0
 10
0.0
 20
0.0
 30
0.0
  3
*Paper_Space
  1

  0
ENDBLK
  5
1D
330
1B
100
AcDbEntity
 67
     1
  8
0
100
AcDbBlockEnd
  0
BLOCK
  5
24
330
23
100
AcDbEntity
 67
     1
  8
0
100
AcDbBlockBegin
  2
*Paper_Space0
 70
     0
 10
0.0
 20
0.0
 30
0.0
  3
*Paper_Space0
  1

  0
ENDBLK
  5
25
330
23
100
AcDbEntity
 67
     1
  8
0
100
AcDbBlockEnd
  0
BLOCK
  5
74
330
72
100
AcDbEntity
  8
0
100
AcDbBlockBegin
  2
GENAXEH
 70
     0
 10
0.0
 20
0.0
 30
0.0
  3
GENAXEH
  1

  0
LINE
  5
73
330
72
100
AcDbEntity
  8
0
100
AcDbLine
 10
-1.0
 20
0.0
 30
0.0
 11
1.0
 21
0.0
 31
0.0
  0
ENDBLK
  5
75
330
72
100
AcDbEntity
  8
0
100
AcDbBlockEnd
  0
BLOCK
  5
6C7
330
6C4
100
AcDbEntity
  8
0
100
AcDbBlockBegin
  2
_Dot
 70
     0
 10
0.0
 20
0.0
 30
0.0
  3
_Dot
  1

  0
LWPOLYLINE
  5
6C5
330
6C4
100
AcDbEntity
  8
0
  6
ByBlock
 62
     0
100
AcDbPolyline
 90
        2
 70
     1
 43
0.5
 10
-0.25
 20
0.0
 42
1.0
 10
0.25
 20
0.0
 42
1.0
  0
LINE
  5
6C6
330
6C4
100
AcDbEntity
  8
0
  6
ByBlock
 62
     0
370
    -2
100
AcDbLine
 10
-0.5
 20
0.0
 30
0.0
 11
-1.0
 21
0.0
 31
0.0
  0
ENDBLK
  5
6C8
330
6C4
100
AcDbEntity
  8
0
100
AcDbBlockEnd
  0
BLOCK
  5
A6A
330
A66
100
AcDbEntity
  8
0
100
AcDbBlockBegin
  2
_OPEN30
 70
     0
 10
0.0
 20
0.0
 30
0.0
  3
_OPEN30
  1

  0
LINE
  5
A67
330
A66
100
AcDbEntity
  8
0
  6
ByBlock
 62
     0
100
AcDbLine
 10
-1.0
 20
0.26794919
 30
0.0
 11
0.0
 21
0.0
 31
0.0
  0
LINE
  5
A68
330
A66
100
AcDbEntity
  8
0
  6
ByBlock
 62
     0
100
AcDbLine
 10
0.0
 20
0.0
 30
0.0
 11
-1.0
 21
-0.26794919
 31
0.0
  0
LINE
  5
A69
330
A66
100
AcDbEntity
  8
0
  6
ByBlock
 62
     0
100
AcDbLine
 10
0.0
 20
0.0
 30
0.0
 11
-1.0
 21
0.0
 31
0.0
  0
ENDBLK
  5
A6B
330
A66
100
AcDbEntity
  8
0
100
AcDbBlockEnd
  0
BLOCK
  5
128DE
330
128DD
100
AcDbEntity
  8
0
100
AcDbBlockBegin
  2
板1
 70
     0
 10
0.0
 20
0.0
 30
0.0
  3
板1
  1

  0
LINE
  5
128DF
330
128DD
100
AcDbEntity
  8
AM_0
 48
0.5
100
AcDbLine
 10
7585.030691627174
 20
7483.487235664949
 30
0.0
 11
7585.030691627174
 21
7481.487235664947
 31
0.0
  0
LINE
  5
128E0
330
128DD
100
AcDbEntity
  8
AM_0
 48
0.5
100
AcDbLine
 10
7560.030691627175
 20
7483.487235664949
 30
0.0
 11
7560.030691627175
 21
7481.487235664947
 31
0.0
  0
LINE
  5
128E1
330
128DD
100
AcDbEntity
  8
AM_0
 48
0.5
100
AcDbLine
 10
7585.030691627174
 20
7481.487235664947
 30
0.0
 11
7560.030691627175
 21
7481.487235664947
 31
0.0
  0
LINE
  5
128E2
330
128DD
100
AcDbEntity
  8
AM_0
 48
0.5
100
AcDbLine
 10
7585.030691627174
 20
7483.487235664949
 30
0.0
 11
7560.030691627175
 21
7483.487235664949
 31
0.0
  0
LINE
  5
128E3
330
128DD
100
AcDbEntity
  8
AM_0
 48
0.5
100
AcDbLine
 10
7576.530691627175
 20
7492.98723566495
 30
0.0
 11
7576.530691627175
 21
7483.487235664949
 31
0.0
  0
LINE
  5
128E4
330
128DD
100
AcDbEntity
  8
AM_0
 48
0.5
100
AcDbLine
 10
7568.530691627175
 20
7492.98723566495
 30
0.0
 11
7568.530691627175
 21
7483.487235664949
 31
0.0
  0
LINE
  5
128E5
330
128DD
100
AcDbEntity
  8
AM_0
 48
0.5
100
AcDbLine
 10
7576.030691627171
 20
7493.487235664949
 30
0.0
 11
7569.030691627175
 21
7493.487235664949
 31
0.0
  0
LINE
  5
128E6
330
128DD
100
AcDbEntity
  8
AM_0
 48
0.5
100
AcDbLine
 10
7576.530691627175
 20
7492.98723566495
 30
0.0
 11
7568.530691627175
 21
7492.98723566495
 31
0.0
  0
LINE
  5
128E7
330
128DD
100
AcDbEntity
  8
AM_0
100
AcDbLine
 10
7568.530691627175
 20
7492.987235664948
 30
0.0
 11
7569.030691627175
 21
7493.487235664949
 31
0.0
  0
LINE
  5
128E8
330
128DD
100
AcDbEntity
  8
AM_0
100
AcDbLine
 10
7576.530691627175
 20
7492.98723566495
 30
0.0
 11
7576.030691627171
 21
7493.487235664949
 31
0.0
  0
ENDBLK
  5
128E9
330
128DD
100
AcDbEntity
  8
0
100
AcDbBlockEnd
  0
BLOCK
  5
133CD
330
133CC
100
AcDbEntity
  8
0
100
AcDbBlockBegin
  2
_NONE
 70
     0
 10
0.0
 20
0.0
 30
0.0
  3
_NONE
  1

  0
ENDBLK
  5
133CE
330
133CC
100
AcDbEntity
  8
0
100
AcDbBlockEnd
  0
BLOCK
  5
14A03
330
14A00
100
AcDbEntity
  8
0
100
AcDbBlockBegin
  2
GENDOT
 70
     0
 10
0.0
 20
0.0
 30
0.0
  3
GENDOT
  1

  0
LINE
  5
14A01
330
14A00
100
AcDbEntity
  8
0
100
AcDbLine
 10
0.0
 20
0.0
 30
0.0
 11
-1.0
 21
0.0
 31
0.0
  0
LWPOLYLINE
  5
14A02
330
14A00
100
AcDbEntity
  8
0
100
AcDbPolyline
 90
        2
 70
     1
 43
0.25
 10
-0.125
 20
0.0
 42
1.0
 10
0.125
 20
0.0
 42
1.0
  0
ENDBLK
  5
14A04
330
14A00
100
AcDbEntity
  8
0
100
AcDbBlockEnd
  0
BLOCK
  5
1502A
330
15029
100
AcDbEntity
  8
0
100
AcDbBlockBegin
  2
*D8
 70
     1
 10
0.0
 20
0.0
 30
0.0
  3
*D8
  1

  0
LINE
  5
17E2A
330
15029
100
AcDbEntity
  8
AM_5
100
AcDbLine
 10
108.1505941607713
 20
147.1517651457778
 30
0.0
 11
108.1505941607713
 21
159.1517661457778
 31
0.0
  0
LINE
  5
17E2B
330
15029
100
AcDbEntity
  8
AM_5
100
AcDbLine
 10
98.15059416076952
 20
136.1517651457781
 30
0.0
 11
98.15059416076952
 21
159.1517661457778
 31
0.0
  0
LINE
  5
17E2C
330
15029
100
AcDbEntity
  8
AM_5
100
AcDbLine
 10
107.1505941607713
 20
158.1517661457778
 30
0.0
 11
99.15059416076951
 21
158.1517661457778
 31
0.0
  0
INSERT
  5
17E2D
330
15029
100
AcDbEntity
  8
AM_5
100
AcDbBlockReference
  2
_Dot
 10
108.1505941607713
 20
158.1517661457778
 30
0.0
  0
INSERT
  5
17E2E
330
15029
100
AcDbEntity
  8
AM_5
100
AcDbBlockReference
  2
_Dot
 10
98.15059416076952
 20
158.1517661457778
 30
0.0
 50
180.0
  0
MTEXT
  5
17E2F
330
15029
100
AcDbEntity
  8
AM_5
 62
     2
100
AcDbMText
 10
103.1505941607704
 20
161.2517661457778
 30
0.0
 40
3.200000000000001
 41
0.0
 71
     5
 72
     1
  1
10
 73
     1
 44
1.0
  0
POINT
  5
17E30
330
15029
100
AcDbEntity
  8
Defpoints
 62
     0
100
AcDbPoint
 10
108.1505941607713
 20
146.1517651457778
 30
0.0
  0
POINT
  5
17E31
330
15029
100
AcDbEntity
  8
Defpoints
 62
     0
100
AcDbPoint
 10
98.15059416076952
 20
135.1517651457781
 30
0.0
  0
POINT
  5
17E32
330
15029
100
AcDbEntity
  8
Defpoints
 62
     0
100
AcDbPoint
 10
98.15059416076952
 20
158.1517661457778
 30
0.0
  0
ENDBLK
  5
1502B
330
15029
100
AcDbEntity
  8
0
100
AcDbBlockEnd
  0
BLOCK
  5
15036
330
15035
100
AcDbEntity
  8
0
100
AcDbBlockBegin
  2
*D9
 70
     1
 10
0.0
 20
0.0
 30
0.0
  3
*D9
  1

  0
LINE
  5
17E33
330
15035
100
AcDbEntity
  8
AM_5
100
AcDbLine
 10
108.1505941607713
 20
147.1517651457778
 30
0.0
 11
108.1505941607713
 21
159.1517651457778
 31
0.0
  0
LINE
  5
17E34
330
15035
100
AcDbEntity
  8
AM_5
100
AcDbLine
 10
110.1505941607713
 20
147.1517651457778
 30
0.0
 11
110.1505941607713
 21
159.1517651457778
 31
0.0
  0
LINE
  5
17E35
330
15035
100
AcDbEntity
  8
AM_5
100
AcDbLine
 10
107.1505941607713
 20
158.1517651457778
 30
0.0
 11
106.1505941607713
 21
158.1517651457778
 31
0.0
  0
LINE
  5
17E36
330
15035
100
AcDbEntity
  8
AM_5
100
AcDbLine
 10
111.1505941607713
 20
158.1517651457778
 30
0.0
 11
116.6439274941047
 21
158.1517651457778
 31
0.0
  0
LINE
  5
17E37
330
15035
100
AcDbEntity
  8
AM_5
100
AcDbLine
 10
108.1505941607713
 20
158.1517651457778
 30
0.0
 11
110.1505941607713
 21
158.1517651457778
 31
0.0
  0
INSERT
  5
17E38
330
15035
100
AcDbEntity
  8
AM_5
100
AcDbBlockReference
  2
_Dot
 10
108.1505941607713
 20
158.1517651457778
 30
0.0
  0
INSERT
  5
17E39
330
15035
100
AcDbEntity
  8
AM_5
100
AcDbBlockReference
  2
_Dot
 10
110.1505941607713
 20
158.1517651457778
 30
0.0
 50
180.0
  0
MTEXT
  5
17E3A
330
15035
100
AcDbEntity
  8
AM_5
 62
     2
100
AcDbMText
 10
114.397260827438
 20
161.2517651457778
 30
0.0
 40
3.200000000000001
 41
0.0
 71
     5
 72
     1
  1
2
 73
     1
 44
1.0
  0
POINT
  5
17E3B
330
15035
100
AcDbEntity
  8
Defpoints
 62
     0
100
AcDbPoint
 10
108.1505941607713
 20
146.1517651457778
 30
0.0
  0
POINT
  5
17E3C
330
15035
100
AcDbEntity
  8
Defpoints
 62
     0
100
AcDbPoint
 10
110.1505941607713
 20
146.1517651457778
 30
0.0
  0
POINT
  5
17E3D
330
15035
100
AcDbEntity
  8
Defpoints
 62
     0
100
AcDbPoint
 10
110.1505941607713
 20
158.1517651457778
 30
0.0
  0
ENDBLK
  5
15037
330
15035
100
AcDbEntity
  8
0
100
AcDbBlockEnd
  0
BLOCK
  5
15044
330
15043
100
AcDbEntity
  8
0
100
AcDbBlockBegin
  2
*D10
 70
     1
 10
0.0
 20
0.0
 30
0.0
  3
*D10
  1

  0
LINE
  5
17E3E
330
15043
100
AcDbEntity
  8
AM_5
100
AcDbLine
 10
137.860454980687
 20
147.1517651457778
 30
0.0
 11
137.860454980687
 21
159.1517651457778
 31
0.0
  0
LINE
  5
17E3F
330
15043
100
AcDbEntity
  8
AM_5
100
AcDbLine
 10
162.860454980687
 20
147.1517651457778
 30
0.0
 11
162.860454980687
 21
159.1517651457778
 31
0.0
  0
LINE
  5
17E40
330
15043
100
AcDbEntity
  8
AM_5
100
AcDbLine
 10
138.860454980687
 20
158.1517651457778
 30
0.0
 11
161.860454980687
 21
158.1517651457778
 31
0.0
  0
INSERT
  5
17E41
330
15043
100
AcDbEntity
  8
AM_5
100
AcDbBlockReference
  2
_Dot
 10
137.860454980687
 20
158.1517651457778
 30
0.0
 50
180.0
  0
INSERT
  5
17E42
330
15043
100
AcDbEntity
  8
AM_5
100
AcDbBlockReference
  2
_Dot
 10
162.860454980687
 20
158.1517651457778
 30
0.0
  0
MTEXT
  5
17E43
330
15043
100
AcDbEntity
  8
AM_5
 62
     2
100
AcDbMText
 10
150.360454980687
 20
161.2517651457778
 30
0.0
 40
3.200000000000001
 41
0.0
 71
     5
 72
     1
  1
25
 73
     1
 44
1.0
  0
POINT
  5
17E44
330
15043
100
AcDbEntity
  8
Defpoints
 62
     0
100
AcDbPoint
 10
137.860454980687
 20
146.1517651457778
 30
0.0
  0
POINT
  5
17E45
330
15043
100
AcDbEntity
  8
Defpoints
 62
     0
100
AcDbPoint
 10
162.860454980687
 20
146.1517651457778
 30
0.0
  0
POINT
  5
17E46
330
15043
100
AcDbEntity
  8
Defpoints
 62
     0
100
AcDbPoint
 10
162.860454980687
 20
158.1517651457778
 30
0.0
  0
ENDBLK
  5
15045
330
15043
100
AcDbEntity
  8
0
100
AcDbBlockEnd
  0
BLOCK
  5
15050
330
1504F
100
AcDbEntity
  8
0
100
AcDbBlockBegin
  2
*D11
 70
     1
 10
0.0
 20
0.0
 30
0.0
  3
*D11
  1

  0
LINE
  5
17E47
330
1504F
100
AcDbEntity
  8
AM_5
100
AcDbLine
 10
136.860454980687
 20
146.1517651457778
 30
0.0
 11
124.860454980687
 21
146.1517651457778
 31
0.0
  0
LINE
  5
17E48
330
1504F
100
AcDbEntity
  8
AM_5
100
AcDbLine
 10
136.860454980687
 20
57.15176514578686
 30
0.0
 11
124.860454980687
 21
57.15176514578686
 31
0.0
  0
LINE
  5
17E49
330
1504F
100
AcDbEntity
  8
AM_5
100
AcDbLine
 10
125.860454980687
 20
145.1517651457778
 30
0.0
 11
125.860454980687
 21
58.15176514578687
 31
0.0
  0
INSERT
  5
17E4A
330
1504F
100
AcDbEntity
  8
AM_5
100
AcDbBlockReference
  2
_Dot
 10
125.860454980687
 20
146.1517651457778
 30
0.0
 50
90.0
  0
INSERT
  5
17E4B
330
1504F
100
AcDbEntity
  8
AM_5
100
AcDbBlockReference
  2
_Dot
 10
125.860454980687
 20
57.15176514578686
 30
0.0
 50
270.0
  0
MTEXT
  5
17E4C
330
1504F
100
AcDbEntity
  8
AM_5
 62
     2
100
AcDbMText
 10
122.760454980687
 20
101.6517651457823
 30
0.0
 40
3.200000000000001
 41
0.0
 71
     5
 72
     1
  1
89
 11
0.0000000000000001
 21
1.0
 31
0.0
 73
     1
 44
1.0
  0
POINT
  5
17E4D
330
1504F
100
AcDbEntity
  8
Defpoints
 62
     0
100
AcDbPoint
 10
137.860454980687
 20
146.1517651457778
 30
0.0
  0
POINT
  5
17E4E
330
1504F
100
AcDbEntity
  8
Defpoints
 62
     0
100
AcDbPoint
 10
137.860454980687
 20
57.15176514578686
 30
0.0
  0
POINT
  5
17E4F
330
1504F
100
AcDbEntity
  8
Defpoints
 62
     0
100
AcDbPoint
 10
125.860454980687
 20
57.15176514578686
 30
0.0
  0
ENDBLK
  5
15051
330
1504F
100
AcDbEntity
  8
0
100
AcDbBlockEnd
  0
BLOCK
  5
16FD5
330
16FD4
100
AcDbEntity
  8
0
100
AcDbBlockBegin
  2
*D12
 70
     1
 10
0.0
 20
0.0
 30
0.0
  3
*D12
  1

  0
LINE
  5
17B13
330
16FD4
100
AcDbEntity
  8
AM_5
100
AcDbLine
 10
291.6663209874222
 20
234.7733440034133
 30
0.0
 11
277.1663199884628
 21
234.7733440034133
 31
0.0
  0
LINE
  5
17B14
330
16FD4
100
AcDbEntity
  8
AM_5
100
AcDbLine
 10
278.1663199884627
 20
233.7733440034134
 30
0.0
 11
278.1663199884627
 21
228.7733439999846
 31
0.0
  0
INSERT
  5
17B15
330
16FD4
100
AcDbEntity
  8
AM_5
100
AcDbBlockReference
  2
_Dot
 10
278.1663199884627
 20
234.7733440034133
 30
0.0
 50
90.0
  0
INSERT
  5
17B16
330
16FD4
100
AcDbEntity
  8
AM_5
100
AcDbBlockReference
  2
_Dot
 10
278.1663199884627
 20
227.7733439999845
 30
0.0
 50
270.0
  0
MTEXT
  5
17B17
330
16FD4
100
AcDbEntity
  8
AM_5
 62
     2
100
AcDbMText
 10
275.0663199884627
 20
231.273344001699
 30
0.0
 40
3.200000000000001
 41
0.0
 71
     5
 72
     1
  1
7
 11
0.0000000000000001
 21
1.0
 31
0.0
 73
     1
 44
1.0
  0
POINT
  5
17B18
330
16FD4
100
AcDbEntity
  8
Defpoints
 62
     0
100
AcDbPoint
 10
292.6663209874222
 20
234.7733440034133
 30
0.0
  0
POINT
  5
17B19
330
16FD4
100
AcDbEntity
  8
Defpoints
 62
     0
100
AcDbPoint
 10
299.1663209884637
 20
227.7733439999845
 30
0.0
  0
POINT
  5
17B1A
330
16FD4
100
AcDbEntity
  8
Defpoints
 62
     0
100
AcDbPoint
 10
278.1663199884627
 20
227.7733439999845
 30
0.0
  0
ENDBLK
  5
16FD6
330
16FD4
100
AcDbEntity
  8
0
100
AcDbBlockEnd
  0
BLOCK
  5
16FE0
330
16FDF
100
AcDbEntity
  8
0
100
AcDbBlockBegin
  2
*D13
 70
     1
 10
0.0
 20
0.0
 30
0.0
  3
*D13
  1

  0
LINE
  5
17B1B
330
16FDF
100
AcDbEntity
  8
AM_5
100
AcDbLine
 10
278.1663199884491
 20
226.7733439999781
 30
0.0
 11
278.1663199884491
 21
215.7733439999873
 31
0.0
  0
INSERT
  5
17B1C
330
16FDF
100
AcDbEntity
  8
AM_5
100
AcDbBlockReference
  2
_Dot
 10
278.1663199884491
 20
227.7733439999781
 30
0.0
 50
90.0
  0
INSERT
  5
17B1D
330
16FDF
100
AcDbEntity
  8
AM_5
100
AcDbBlockReference
  2
_Dot
 10
278.1663199884491
 20
214.7733439999873
 30
0.0
 50
270.0
  0
MTEXT
  5
17B1E
330
16FDF
100
AcDbEntity
  8
AM_5
 62
     2
100
AcDbMText
 10
275.0663199884491
 20
221.2733439999827
 30
0.0
 40
3.200000000000001
 41
0.0
 71
     5
 72
     1
  1
Dt
 11
0.0000000000000001
 21
1.0
 31
0.0
 73
     1
 44
1.0
  0
POINT
  5
17B1F
330
16FDF
100
AcDbEntity
  8
Defpoints
 62
     0
100
AcDbPoint
 10
290.5606798935456
 20
227.7733439999781
 30
0.0
  0
POINT
  5
17B20
330
16FDF
100
AcDbEntity
  8
Defpoints
 62
     0
100
AcDbPoint
 10
290.5606798935456
 20
214.7733439999873
 30
0.0
  0
POINT
  5
17B21
330
16FDF
100
AcDbEntity
  8
Defpoints
 62
     0
100
AcDbPoint
 10
278.1663199884491
 20
214.7733439999873
 30
0.0
  0
ENDBLK
  5
16FE1
330
16FDF
100
AcDbEntity
  8
0
100
AcDbBlockEnd
  0
BLOCK
  5
16FF6
330
16FF5
100
AcDbEntity
  8
0
100
AcDbBlockBegin
  2
*D14
 70
     1
 10
0.0
 20
0.0
 30
0.0
  3
*D14
  1

  0
LINE
  5
17AE5
330
16FF5
100
AcDbEntity
  8
AM_5
100
AcDbLine
 10
373.8663286254162
 20
131.6517651457824
 30
0.0
 11
393.5663286254144
 21
131.6517651457824
 31
0.0
  0
LINE
  5
17AE6
330
16FF5
100
AcDbEntity
  8
AM_5
100
AcDbLine
 10
373.866343884199
 20
71.65176514579056
 30
0.0
 11
393.5663286254144
 21
71.65176514579056
 31
0.0
  0
LINE
  5
17AE7
330
16FF5
100
AcDbEntity
  8
AM_5
100
AcDbLine
 10
392.5663286254144
 20
130.6517651457824
 30
0.0
 11
392.5663286254144
 21
72.65176514579056
 31
0.0
  0
INSERT
  5
17AE8
330
16FF5
100
AcDbEntity
  8
AM_5
100
AcDbBlockReference
  2
_Dot
 10
392.5663286254144
 20
131.6517651457824
 30
0.0
 50
90.0
  0
INSERT
  5
17AE9
330
16FF5
100
AcDbEntity
  8
AM_5
100
AcDbBlockReference
  2
_Dot
 10
392.5663286254144
 20
71.65176514579056
 30
0.0
 50
270.0
  0
MTEXT
  5
17AEA
330
16FF5
100
AcDbEntity
  8
AM_5
 62
     2
100
AcDbMText
 10
389.4663286254143
 20
101.6517651457867
 30
0.0
 40
3.200000000000001
 41
0.0
 71
     5
 72
     1
  1
60
 11
0.0000000000000001
 21
1.0
 31
0.0
 73
     1
 44
1.0
  0
POINT
  5
17AEB
330
16FF5
100
AcDbEntity
  8
Defpoints
 62
     0
100
AcDbPoint
 10
372.8663286254163
 20
131.6517651457824
 30
0.0
  0
POINT
  5
17AEC
330
16FF5
100
AcDbEntity
  8
Defpoints
 62
     0
100
AcDbPoint
 10
372.8663438841989
 20
71.65176514579056
 30
0.0
  0
POINT
  5
17AED
330
16FF5
100
AcDbEntity
  8
Defpoints
 62
     0
100
AcDbPoint
 10
392.5663286254144
 20
71.65176514579056
 30
0.0
  0
ENDBLK
  5
16FF7
330
16FF5
100
AcDbEntity
  8
0
100
AcDbBlockEnd
  0
BLOCK
  5
17002
330
17001
100
AcDbEntity
  8
0
100
AcDbBlockBegin
  2
*D15
 70
     1
 10
0.0
 20
0.0
 30
0.0
  3
*D15
  1

  0
LINE
  5
17AEE
330
17001
100
AcDbEntity
  8
AM_5
100
AcDbLine
 10
330.1663209970349
 20
56.15176514578237
 30
0.0
 11
330.1663209970349
 21
42.15176514579147
 31
0.0
  0
LINE
  5
17AEF
330
17001
100
AcDbEntity
  8
AM_5
100
AcDbLine
 10
348.1663133680426
 20
56.1517571846783
 30
0.0
 11
348.1663133680426
 21
42.15176514579147
 31
0.0
  0
LINE
  5
17AF0
330
17001
100
AcDbEntity
  8
AM_5
100
AcDbLine
 10
331.1663209970348
 20
43.15176514579147
 30
0.0
 11
347.1663133680426
 21
43.15176514579147
 31
0.0
  0
INSERT
  5
17AF1
330
17001
100
AcDbEntity
  8
AM_5
100
AcDbBlockReference
  2
_Dot
 10
330.1663209970349
 20
43.15176514579147
 30
0.0
 50
180.0
  0
INSERT
  5
17AF2
330
17001
100
AcDbEntity
  8
AM_5
100
AcDbBlockReference
  2
_Dot
 10
348.1663133680426
 20
43.15176514579147
 30
0.0
  0
MTEXT
  5
17AF3
330
17001
100
AcDbEntity
  8
AM_5
 62
     2
100
AcDbMText
 10
339.1663171825386
 20
46.25176514579147
 30
0.0
 40
3.200000000000001
 41
0.0
 71
     5
 72
     1
  1
%%c18
 73
     1
 44
1.0
  0
POINT
  5
17AF4
330
17001
100
AcDbEntity
  8
Defpoints
 62
     0
100
AcDbPoint
 10
330.1663209970349
 20
57.15176514578238
 30
0.0
  0
POINT
  5
17AF5
330
17001
100
AcDbEntity
  8
Defpoints
 62
     0
100
AcDbPoint
 10
348.1663133680426
 20
57.1517571846783
 30
0.0
  0
POINT
  5
17AF6
330
17001
100
AcDbEntity
  8
Defpoints
 62
     0
100
AcDbPoint
 10
348.1663133680426
 20
43.15176514579147
 30
0.0
  0
ENDBLK
  5
17003
330
17001
100
AcDbEntity
  8
0
100
AcDbBlockEnd
  0
BLOCK
  5
1700E
330
1700D
100
AcDbEntity
  8
0
100
AcDbBlockBegin
  2
*D16
 70
     1
 10
0.0
 20
0.0
 30
0.0
  3
*D16
  1

  0
LINE
  5
18104
330
1700D
100
AcDbEntity
  8
AM_5
100
AcDbLine
 10
355.2163209909203
 20
215.2733440015192
 30
0.0
 11
393.1663209948059
 21
215.2733440015192
 31
0.0
  0
LINE
  5
18105
330
1700D
100
AcDbEntity
  8
AM_5
100
AcDbLine
 10
392.1663209948059
 20
233.7733440000036
 30
0.0
 11
392.1663209948059
 21
216.2733440015192
 31
0.0
  0
INSERT
  5
18106
330
1700D
100
AcDbEntity
  8
AM_5
100
AcDbBlockReference
  2
_Dot
 10
392.1663209948059
 20
234.7733440000037
 30
0.0
 50
90.0
  0
INSERT
  5
18107
330
1700D
100
AcDbEntity
  8
AM_5
100
AcDbBlockReference
  2
_Dot
 10
392.1663209948059
 20
215.2733440015192
 30
0.0
 50
270.0
  0
MTEXT
  5
18108
330
1700D
100
AcDbEntity
  8
AM_5
 62
     2
100
AcDbMText
 10
389.0663209948058
 20
225.0233440007615
 30
0.0
 40
3.200000000000001
 41
0.0
 71
     5
 72
     1
  1
19.5
 11
0.0000000000000001
 21
1.0
 31
0.0
 73
     1
 44
1.0
  0
POINT
  5
18109
330
1700D
100
AcDbEntity
  8
Defpoints
 62
     0
100
AcDbPoint
 10
380.3663209874267
 20
234.7733440000037
 30
0.0
  0
POINT
  5
1810A
330
1700D
100
AcDbEntity
  8
Defpoints
 62
     0
100
AcDbPoint
 10
354.2163209909203
 20
215.2733440015192
 30
0.0
  0
POINT
  5
1810B
330
1700D
100
AcDbEntity
  8
Defpoints
 62
     0
100
AcDbPoint
 10
392.1663209948059
 20
215.2733440015192
 30
0.0
  0
ENDBLK
  5
1700F
330
1700D
100
AcDbEntity
  8
0
100
AcDbBlockEnd
  0
BLOCK
  5
17027
330
17026
100
AcDbEntity
  8
0
100
AcDbBlockBegin
  2
*D17
 70
     1
 10
0.0
 20
0.0
 30
0.0
  3
*D17
  1

  0
LINE
  5
17B0A
330
17026
100
AcDbEntity
  8
AM_5
100
AcDbLine
 10
300.1663179974379
 20
146.1517651457819
 30
0.0
 11
288.1663179974379
 21
146.1517651457819
 31
0.0
  0
LINE
  5
17B0B
330
17026
100
AcDbEntity
  8
AM_5
100
AcDbLine
 10
300.1663179974379
 20
57.15176514579124
 30
0.0
 11
288.1663179974379
 21
57.15176514579124
 31
0.0
  0
LINE
  5
17B0C
330
17026
100
AcDbEntity
  8
AM_5
100
AcDbLine
 10
289.1663179974379
 20
145.1517651457819
 30
0.0
 11
289.1663179974379
 21
58.15176514579125
 31
0.0
  0
INSERT
  5
17B0D
330
17026
100
AcDbEntity
  8
AM_5
100
AcDbBlockReference
  2
_Dot
 10
289.1663179974379
 20
146.1517651457819
 30
0.0
 50
90.0
  0
INSERT
  5
17B0E
330
17026
100
AcDbEntity
  8
AM_5
100
AcDbBlockReference
  2
_Dot
 10
289.1663179974379
 20
57.15176514579124
 30
0.0
 50
270.0
  0
MTEXT
  5
17B0F
330
17026
100
AcDbEntity
  8
AM_5
 62
     2
100
AcDbMText
 10
286.0663179974379
 20
101.6517651457866
 30
0.0
 40
3.200000000000001
 41
0.0
 71
     5
 72
     1
  1
89
 11
0.0000000000000001
 21
1.0
 31
0.0
 73
     1
 44
1.0
  0
POINT
  5
17B10
330
17026
100
AcDbEntity
  8
Defpoints
 62
     0
100
AcDbPoint
 10
301.1663179974379
 20
146.1517651457819
 30
0.0
  0
POINT
  5
17B11
330
17026
100
AcDbEntity
  8
Defpoints
 62
     0
100
AcDbPoint
 10
301.1663179974379
 20
57.15176514579124
 30
0.0
  0
POINT
  5
17B12
330
17026
100
AcDbEntity
  8
Defpoints
 62
     0
100
AcDbPoint
 10
289.1663179974379
 20
57.15176514579124
 30
0.0
  0
ENDBLK
  5
17028
330
17026
100
AcDbEntity
  8
0
100
AcDbBlockEnd
  0
BLOCK
  5
17033
330
17032
100
AcDbEntity
  8
0
100
AcDbBlockBegin
  2
*D18
 70
     1
 10
0.0
 20
0.0
 30
0.0
  3
*D18
  1

  0
LINE
  5
1808A
330
17032
100
AcDbEntity
  8
AM_5
100
AcDbLine
 10
299.1663179974379
 20
145.1517651457819
 30
0.0
 11
299.1663179974379
 21
169.1517651457778
 31
0.0
  0
LINE
  5
1808B
330
17032
100
AcDbEntity
  8
AM_5
100
AcDbLine
 10
379.1663209960217
 20
144.1517651457828
 30
0.0
 11
379.1663209960217
 21
169.1517651457778
 31
0.0
  0
LINE
  5
1808C
330
17032
100
AcDbEntity
  8
AM_5
100
AcDbLine
 10
300.1663179974379
 20
168.1517651457778
 30
0.0
 11
378.1663209960217
 21
168.1517651457778
 31
0.0
  0
INSERT
  5
1808D
330
17032
100
AcDbEntity
  8
AM_5
100
AcDbBlockReference
  2
_Dot
 10
299.1663179974379
 20
168.1517651457778
 30
0.0
 50
180.0
  0
INSERT
  5
1808E
330
17032
100
AcDbEntity
  8
AM_5
100
AcDbBlockReference
  2
_Dot
 10
379.1663209960217
 20
168.1517651457778
 30
0.0
  0
MTEXT
  5
1808F
330
17032
100
AcDbEntity
  8
AM_5
 62
     2
100
AcDbMText
 10
339.1663194967298
 20
171.2517651457778
 30
0.0
 40
3.200000000000001
 41
0.0
 71
     5
 72
     1
  1
80
 73
     1
 44
1.0
  0
POINT
  5
18090
330
17032
100
AcDbEntity
  8
Defpoints
 62
     0
100
AcDbPoint
 10
299.1663179974379
 20
144.1517651457819
 30
0.0
  0
POINT
  5
18091
330
17032
100
AcDbEntity
  8
Defpoints
 62
     0
100
AcDbPoint
 10
379.1663209960217
 20
143.1517651457828
 30
0.0
  0
POINT
  5
18092
330
17032
100
AcDbEntity
  8
Defpoints
 62
     0
100
AcDbPoint
 10
379.1663209960217
 20
168.1517651457778
 30
0.0
  0
ENDBLK
  5
17034
330
17032
100
AcDbEntity
  8
0
100
AcDbBlockEnd
  0
BLOCK
  5
1703F
330
1703E
100
AcDbEntity
  8
0
100
AcDbBlockBegin
  2
*D19
 70
     1
 10
0.0
 20
0.0
 30
0.0
  3
*D19
  1

  0
LINE
  5
1809C
330
1703E
100
AcDbEntity
  8
AM_5
100
AcDbLine
 10
366.6663286254165
 20
138.8517651457824
 30
0.0
 11
366.6663286254165
 21
159.1517651457778
 31
0.0
  0
LINE
  5
1809D
330
1703E
100
AcDbEntity
  8
AM_5
100
AcDbLine
 10
339.1663209974405
 20
152.1517651457824
 30
0.0
 11
339.1663209974405
 21
159.1517651457778
 31
0.0
  0
LINE
  5
1809E
330
1703E
100
AcDbEntity
  8
AM_5
100
AcDbLine
 10
365.6663286254164
 20
158.1517651457778
 30
0.0
 11
340.1663209974405
 21
158.1517651457778
 31
0.0
  0
INSERT
  5
1809F
330
1703E
100
AcDbEntity
  8
AM_5
100
AcDbBlockReference
  2
_Dot
 10
366.6663286254165
 20
158.1517651457778
 30
0.0
  0
INSERT
  5
180A0
330
1703E
100
AcDbEntity
  8
AM_5
100
AcDbBlockReference
  2
_Dot
 10
339.1663209974405
 20
158.1517651457778
 30
0.0
 50
180.0
  0
MTEXT
  5
180A1
330
1703E
100
AcDbEntity
  8
AM_5
 62
     2
100
AcDbMText
 10
352.9163248114285
 20
161.2517651457778
 30
0.0
 40
3.200000000000001
 41
0.0
 71
     5
 72
     1
  1
27.5
 73
     1
 44
1.0
  0
POINT
  5
180A2
330
1703E
100
AcDbEntity
  8
Defpoints
 62
     0
100
AcDbPoint
 10
366.6663286254165
 20
137.8517651457824
 30
0.0
  0
POINT
  5
180A3
330
1703E
100
AcDbEntity
  8
Defpoints
 62
     0
100
AcDbPoint
 10
339.1663209974405
 20
151.1517651457824
 30
0.0
  0
POINT
  5
180A4
330
1703E
100
AcDbEntity
  8
Defpoints
 62
     0
100
AcDbPoint
 10
339.1663209974405
 20
158.1517651457778
 30
0.0
  0
ENDBLK
  5
17040
330
1703E
100
AcDbEntity
  8
0
100
AcDbBlockEnd
  0
BLOCK
  5
1704B
330
1704A
100
AcDbEntity
  8
0
100
AcDbBlockBegin
  2
*D20
 70
     1
 10
0.0
 20
0.0
 30
0.0
  3
*D20
  1

  0
LINE
  5
180A5
330
1704A
100
AcDbEntity
  8
AM_5
100
AcDbLine
 10
366.6663286254165
 20
138.8517651457824
 30
0.0
 11
366.6663286254165
 21
159.1517651457774
 31
0.0
  0
LINE
  5
180A6
330
1704A
100
AcDbEntity
  8
AM_5
100
AcDbLine
 10
379.1663239974431
 20
145.1517651457819
 30
0.0
 11
379.1663239974431
 21
159.1517651457774
 31
0.0
  0
LINE
  5
180A7
330
1704A
100
AcDbEntity
  8
AM_5
100
AcDbLine
 10
367.6663286254164
 20
158.1517651457774
 30
0.0
 11
378.1663239974431
 21
158.1517651457774
 31
0.0
  0
INSERT
  5
180A8
330
1704A
100
AcDbEntity
  8
AM_5
100
AcDbBlockReference
  2
_Dot
 10
366.6663286254165
 20
158.1517651457774
 30
0.0
 50
180.0
  0
INSERT
  5
180A9
330
1704A
100
AcDbEntity
  8
AM_5
100
AcDbBlockReference
  2
_Dot
 10
379.1663239974431
 20
158.1517651457774
 30
0.0
  0
MTEXT
  5
180AA
330
1704A
100
AcDbEntity
  8
AM_5
 62
     2
100
AcDbMText
 10
372.9163263114298
 20
161.2517651457774
 30
0.0
 40
3.200000000000001
 41
0.0
 71
     5
 72
     1
  1
12.5
 73
     1
 44
1.0
  0
POINT
  5
180AB
330
1704A
100
AcDbEntity
  8
Defpoints
 62
     0
100
AcDbPoint
 10
366.6663286254165
 20
137.8517651457824
 30
0.0
  0
POINT
  5
180AC
330
1704A
100
AcDbEntity
  8
Defpoints
 62
     0
100
AcDbPoint
 10
379.1663239974431
 20
144.1517651457819
 30
0.0
  0
POINT
  5
180AD
330
1704A
100
AcDbEntity
  8
Defpoints
 62
     0
100
AcDbPoint
 10
379.1663239974431
 20
158.1517651457774
 30
0.0
  0
ENDBLK
  5
1704C
330
1704A
100
AcDbEntity
  8
0
100
AcDbBlockEnd
  0
BLOCK
  5
17063
330
17062
100
AcDbEntity
  8
0
100
AcDbBlockBegin
  2
*D21
 70
     1
 10
0.0
 20
0.0
 30
0.0
  3
*D21
  1

  0
LINE
  5
1818F
330
17062
100
AcDbEntity
  8
AM_5
100
AcDbLine
 10
204.0074236417629
 20
139.9017727751718
 30
0.0
 11
204.0074236417629
 21
149.1517651457778
 31
0.0
  0
LINE
  5
18190
330
17062
100
AcDbEntity
  8
AM_5
100
AcDbLine
 10
217.0074236417629
 20
150.1517651457778
 30
0.0
 11
217.0074236417629
 21
147.1517651457778
 31
0.0
  0
LINE
  5
18191
330
17062
100
AcDbEntity
  8
AM_5
100
AcDbLine
 10
205.0074236417629
 20
148.1517651457778
 30
0.0
 11
216.0074236417629
 21
148.1517651457778
 31
0.0
  0
INSERT
  5
18192
330
17062
100
AcDbEntity
  8
AM_5
100
AcDbBlockReference
  2
_Dot
 10
204.0074236417629
 20
148.1517651457778
 30
0.0
 50
180.0
  0
INSERT
  5
18193
330
17062
100
AcDbEntity
  8
AM_5
100
AcDbBlockReference
  2
_Dot
 10
217.0074236417629
 20
148.1517651457778
 30
0.0
  0
MTEXT
  5
18194
330
17062
100
AcDbEntity
  8
AM_5
 62
     2
100
AcDbMText
 10
210.5074236417629
 20
151.2517651457778
 30
0.0
 40
3.200000000000001
 41
0.0
 71
     5
 72
     1
  1
13
 73
     1
 44
1.0
  0
POINT
  5
18195
330
17062
100
AcDbEntity
  8
Defpoints
 62
     0
100
AcDbPoint
 10
204.0074236417629
 20
138.9017727751718
 30
0.0
  0
POINT
  5
18196
330
17062
100
AcDbEntity
  8
Defpoints
 62
     0
100
AcDbPoint
 10
217.0074236417629
 20
151.1517651457778
 30
0.0
  0
POINT
  5
18197
330
17062
100
AcDbEntity
  8
Defpoints
 62
     0
100
AcDbPoint
 10
217.0074236417629
 20
148.1517651457778
 30
0.0
  0
ENDBLK
  5
17064
330
17062
100
AcDbEntity
  8
0
100
AcDbBlockEnd
  0
BLOCK
  5
1706E
330
1706D
100
AcDbEntity
  8
0
100
AcDbBlockBegin
  2
*D22
 70
     1
 10
0.0
 20
0.0
 30
0.0
  3
*D22
  1

  0
LINE
  5
182A4
330
1706D
100
AcDbEntity
  8
AM_5
100
AcDbLine
 10
185.0074236417629
 20
152.1517651457778
 30
0.0
 11
185.0074236417629
 21
169.1517651457778
 31
0.0
  0
LINE
  5
182A5
330
1706D
100
AcDbEntity
  8
AM_5
100
AcDbLine
 10
259.0074236417629
 20
139.9017727751718
 30
0.0
 11
259.0074236417629
 21
169.1517651457778
 31
0.0
  0
LINE
  5
182A6
330
1706D
100
AcDbEntity
  8
AM_5
100
AcDbLine
 10
186.0074236417629
 20
168.1517651457778
 30
0.0
 11
258.0074236417629
 21
168.1517651457778
 31
0.0
  0
INSERT
  5
182A7
330
1706D
100
AcDbEntity
  8
AM_5
100
AcDbBlockReference
  2
_Dot
 10
185.0074236417629
 20
168.1517651457778
 30
0.0
 50
180.0
  0
INSERT
  5
182A8
330
1706D
100
AcDbEntity
  8
AM_5
100
AcDbBlockReference
  2
_Dot
 10
259.0074236417629
 20
168.1517651457778
 30
0.0
  0
MTEXT
  5
182A9
330
1706D
100
AcDbEntity
  8
AM_5
 62
     2
100
AcDbMText
 10
222.0074236417629
 20
171.2517651457778
 30
0.0
 40
3.200000000000001
 41
0.0
 71
     5
 72
     1
  1
74
 73
     1
 44
1.0
  0
POINT
  5
182AA
330
1706D
100
AcDbEntity
  8
Defpoints
 62
     0
100
AcDbPoint
 10
185.0074236417629
 20
151.1517651457778
 30
0.0
  0
POINT
  5
182AB
330
1706D
100
AcDbEntity
  8
Defpoints
 62
     0
100
AcDbPoint
 10
259.0074236417629
 20
138.9017727751718
 30
0.0
  0
POINT
  5
182AC
330
1706D
100
AcDbEntity
  8
Defpoints
 62
     0
100
AcDbPoint
 10
259.0074236417629
 20
168.1517651457778
 30
0.0
  0
ENDBLK
  5
1706F
330
1706D
100
AcDbEntity
  8
0
100
AcDbBlockEnd
  0
BLOCK
  5
17079
330
17078
100
AcDbEntity
  8
0
100
AcDbBlockBegin
  2
*D23
 70
     1
 10
0.0
 20
0.0
 30
0.0
  3
*D23
  1

  0
LINE
  5
17E22
330
17078
100
AcDbEntity
  8
AM_5
100
AcDbLine
 10
205.6796985872101
 20
130.1464424206362
 30
0.0
 11
202.3351486963136
 21
133.157087870918
 31
0.0
  0
LINE
  5
17E23
330
17078
100
AcDbEntity
  8
AM_5
100
AcDbLine
 10
200.8486820781373
 20
134.4951525154877
 30
0.0
 11
197.1848575101376
 21
137.7931977311693
 31
0.0
  0
LINE
  5
17E24
330
17078
100
AcDbEntity
  8
AM_5
100
AcDbLine
 10
197.1848575101376
 20
137.7931977311693
 30
0.0
 11
182.9681908434709
 21
137.7931977311692
 31
0.0
  0
INSERT
  5
17E25
330
17078
100
AcDbEntity
  8
AM_5
100
AcDbBlockReference
  2
GENDOT
 10
207.1661652053863
 20
128.8083777760664
 30
0.0
 41
2.0
 42
2.0
 43
2.0
 50
318.0075771602033
  0
INSERT
  5
17E26
330
17078
100
AcDbEntity
  8
AM_5
100
AcDbBlockReference
  2
GENDOT
 10
200.8486820781373
 20
134.4951525154877
 30
0.0
 41
2.0
 42
2.0
 43
2.0
 50
138.0075771602033
  0
MTEXT
  5
17E27
102
{ACAD_XDICTIONARY
360
18853
102
}
330
17078
100
AcDbEntity
  8
AM_5
 62
     2
100
AcDbMText
 10
189.3265241768042
 20
141.0431977311692
 30
0.0
 40
3.5
 41
0.0
 71
     5
 72
     1
  1
2-\U+22058.5
 73
     1
 44
1.0
  0
POINT
  5
17E28
330
17078
100
AcDbEntity
  8
Defpoints
 62
     0
100
AcDbPoint
 10
200.8486820781373
 20
134.4951525154877
 30
0.0
  0
POINT
  5
17E29
330
17078
100
AcDbEntity
  8
Defpoints
 62
     0
100
AcDbPoint
 10
207.1661652053863
 20
128.8083777760664
 30
0.0
  0
ENDBLK
  5
1707A
330
17078
100
AcDbEntity
  8
0
100
AcDbBlockEnd
  0
BLOCK
  5
17084
330
17083
100
AcDbEntity
  8
0
100
AcDbBlockBegin
  2
*D24
 70
     1
 10
0.0
 20
0.0
 30
0.0
  3
*D24
  1

  0
LINE
  5
17E05
330
17083
100
AcDbEntity
  8
AM_5
100
AcDbLine
 10
260.4804256993412
 20
129.9509653381324
 30
0.0
 11
257.5343910666074
 21
133.3525649534222
 31
0.0
  0
LINE
  5
17E06
330
17083
100
AcDbEntity
  8
AM_5
100
AcDbLine
 10
256.2250423409482
 20
134.8643870046619
 30
0.0
 11
252.7161380864922
 21
138.9158965250949
 31
0.0
  0
LINE
  5
17E07
330
17083
100
AcDbEntity
  8
AM_5
100
AcDbLine
 10
252.7161380864922
 20
138.9158965250949
 30
0.0
 11
238.4994714198256
 21
138.9158965250949
 31
0.0
  0
INSERT
  5
17E08
330
17083
100
AcDbEntity
  8
AM_5
100
AcDbBlockReference
  2
GENDOT
 10
261.7897744250005
 20
128.4391432868927
 30
0.0
 41
2.0
 42
2.0
 43
2.0
 50
310.8949630310517
  0
INSERT
  5
17E09
330
17083
100
AcDbEntity
  8
AM_5
100
AcDbBlockReference
  2
GENDOT
 10
256.2250423409482
 20
134.8643870046619
 30
0.0
 41
2.0
 42
2.0
 43
2.0
 50
130.8949630310516
  0
MTEXT
  5
17E0A
102
{ACAD_XDICTIONARY
360
18851
102
}
330
17083
100
AcDbEntity
  8
AM_5
 62
     2
100
AcDbMText
 10
244.8578047531589
 20
142.165896525095
 30
0.0
 40
3.5
 41
0.0
 71
     5
 72
     1
  1
2-\U+22058.5
 73
     1
 44
1.0
  0
POINT
  5
17E0B
330
17083
100
AcDbEntity
  8
Defpoints
 62
     0
100
AcDbPoint
 10
256.2250423409482
 20
134.8643870046619
 30
0.0
  0
POINT
  5
17E0C
330
17083
100
AcDbEntity
  8
Defpoints
 62
     0
100
AcDbPoint
 10
261.7897744250005
 20
128.4391432868927
 30
0.0
  0
ENDBLK
  5
17085
330
17083
100
AcDbEntity
  8
0
100
AcDbBlockEnd
  0
BLOCK
  5
1730D
330
1730C
100
AcDbEntity
  8
0
100
AcDbBlockBegin
  2
*D25
 70
     1
 10
0.0
 20
0.0
 30
0.0
  3
*D25
  1

  0
ARC
  5
17366
330
1730C
100
AcDbEntity
  8
AM_5
100
AcDbCircle
 10
133.1788311213822
 20
230.8369638413288
 30
0.0
 40
27.29529640998587
100
AcDbArc
 50
0.000003173260321
 51
40.80084712259258
  0
INSERT
  5
17367
330
1730C
100
AcDbEntity
  8
AM_5
100
AcDbBlockReference
  2
_OPEN30
 10
152.4795192384337
 20
250.1376540962729
 30
0.0
 41
2.0
 42
2.0
 43
2.0
 50
132.9004251479265
  0
POINT
  5
17368
330
1730C
100
AcDbEntity
  8
Defpoints
 62
     0
100
AcDbPoint
 10
159.5440624687413
 20
237.9015078541594
 30
0.0
  0
POINT
  5
17369
330
1730C
100
AcDbEntity
  8
Defpoints
 62
     0
100
AcDbPoint
 10
133.2702490110849
 20
230.9283817411576
 30
0.0
  0
POINT
  5
1736A
330
1730C
100
AcDbEntity
  8
Defpoints
 62
     0
100
AcDbPoint
 10
132.8110594066957
 20
230.8369638209602
 30
0.0
  0
POINT
  5
1736B
330
1730C
100
AcDbEntity
  8
Defpoints
 62
     0
100
AcDbPoint
 10
168.9110594075799
 20
230.8369658203168
 30
0.0
  0
POINT
  5
1736C
330
1730C
100
AcDbEntity
  8
Defpoints
 62
     0
100
AcDbPoint
 10
158.7968023987858
 20
256.4549379563759
 30
0.0
  0
ENDBLK
  5
1730E
330
1730C
100
AcDbEntity
  8
0
100
AcDbBlockEnd
  0
BLOCK
  5
173D6
330
173D5
100
AcDbEntity
  8
0
100
AcDbBlockBegin
  2
*D26
 70
     1
 10
0.0
 20
0.0
 30
0.0
  3
*D26
  1

  0
ARC
  5
173F5
330
173D5
100
AcDbEntity
  8
AM_5
100
AcDbCircle
 10
241.5024565922584
 20
230.8369638413287
 30
0.0
 40
27.29529640998585
100
AcDbArc
 50
139.1991528774072
 51
179.9999968267395
  0
INSERT
  5
173F6
330
173D5
100
AcDbEntity
  8
AM_5
100
AcDbBlockReference
  2
_OPEN30
 10
222.201768475207
 20
250.1376540962728
 30
0.0
 41
2.0
 42
2.0
 43
2.0
 50
47.09957485207338
  0
POINT
  5
173F7
330
173D5
100
AcDbEntity
  8
Defpoints
 62
     0
100
AcDbPoint
 10
217.8640372532437
 20
244.4846133555081
 30
0.0
  0
POINT
  5
173F8
330
173D5
100
AcDbEntity
  8
Defpoints
 62
     0
100
AcDbPoint
 10
241.4110387025557
 20
230.9283817411576
 30
0.0
  0
POINT
  5
173F9
330
173D5
100
AcDbEntity
  8
Defpoints
 62
     0
100
AcDbPoint
 10
241.8702283069448
 20
230.8369638209601
 30
0.0
  0
POINT
  5
173FA
330
173D5
100
AcDbEntity
  8
Defpoints
 62
     0
100
AcDbPoint
 10
205.7702283060607
 20
230.8369658203168
 30
0.0
  0
POINT
  5
173FB
330
173D5
100
AcDbEntity
  8
Defpoints
 62
     0
100
AcDbPoint
 10
215.8844853148548
 20
256.4549379563759
 30
0.0
  0
ENDBLK
  5
173D7
330
173D5
100
AcDbEntity
  8
0
100
AcDbBlockEnd
  0
BLOCK
  5
17883
330
17882
100
AcDbEntity
  8
0
100
AcDbBlockBegin
  2
*D27
 70
     1
 10
0.0
 20
0.0
 30
0.0
  3
*D27
  1

  0
LINE
  5
17B6F
330
17882
100
AcDbEntity
  8
AM_5
100
AcDbLine
 10
298.1663209884628
 20
230.2733439999836
 30
0.0
 11
287.1663199883837
 21
230.2733439999836
 31
0.0
  0
LINE
  5
17B70
330
17882
100
AcDbEntity
  8
AM_5
100
AcDbLine
 10
288.1663199883838
 20
231.2733439999836
 30
0.0
 11
288.1663199883838
 21
232.2733439999836
 31
0.0
  0
LINE
  5
17B71
330
17882
100
AcDbEntity
  8
AM_5
100
AcDbLine
 10
288.1663199883838
 20
226.7733439999846
 30
0.0
 11
288.1663199883838
 21
218.0800106666512
 31
0.0
  0
LINE
  5
17B72
330
17882
100
AcDbEntity
  8
AM_5
100
AcDbLine
 10
288.1663199883838
 20
230.2733439999836
 30
0.0
 11
288.1663199883838
 21
227.7733439999845
 31
0.0
  0
INSERT
  5
17B73
330
17882
100
AcDbEntity
  8
AM_5
100
AcDbBlockReference
  2
_Dot
 10
288.1663199883838
 20
230.2733439999836
 30
0.0
 50
270.0
  0
INSERT
  5
17B74
330
17882
100
AcDbEntity
  8
AM_5
100
AcDbBlockReference
  2
_Dot
 10
288.1663199883838
 20
227.7733439999845
 30
0.0
 50
90.0
  0
MTEXT
  5
17B75
330
17882
100
AcDbEntity
  8
AM_5
 62
     2
100
AcDbMText
 10
285.0663199883836
 20
221.9266773333179
 30
0.0
 40
3.200000000000001
 41
0.0
 71
     5
 72
     1
  1
2.5
 11
0.0000000000000001
 21
1.0
 31
0.0
 73
     1
 44
1.0
  0
POINT
  5
17B76
330
17882
100
AcDbEntity
  8
Defpoints
 62
     0
100
AcDbPoint
 10
299.1663209884628
 20
230.2733439999836
 30
0.0
  0
POINT
  5
17B77
330
17882
100
AcDbEntity
  8
Defpoints
 62
     0
100
AcDbPoint
 10
299.1663209884637
 20
227.7733439999845
 30
0.0
  0
POINT
  5
17B78
330
17882
100
AcDbEntity
  8
Defpoints
 62
     0
100
AcDbPoint
 10
288.1663199883838
 20
227.7733439999845
 30
0.0
  0
ENDBLK
  5
17884
330
17882
100
AcDbEntity
  8
0
100
AcDbBlockEnd
  0
BLOCK
  5
17DC6
330
17DC5
100
AcDbEntity
  8
0
100
AcDbBlockBegin
  2
*D28
 70
     1
 10
0.0
 20
0.0
 30
0.0
  3
*D28
  1

  0
LINE
  5
17E0D
330
17DC5
100
AcDbEntity
  8
AM_5
100
AcDbLine
 10
267.2574236417629
 20
131.6517651457773
 30
0.0
 11
276.257424651763
 21
131.6517651457773
 31
0.0
  0
LINE
  5
17E0E
330
17DC5
100
AcDbEntity
  8
AM_5
100
AcDbLine
 10
267.2574236417629
 20
71.65176514577733
 30
0.0
 11
276.2574246517629
 21
71.65176514577733
 31
0.0
  0
LINE
  5
17E0F
330
17DC5
100
AcDbEntity
  8
AM_5
100
AcDbLine
 10
275.2574246517629
 20
130.6517651457773
 30
0.0
 11
275.2574246517629
 21
72.65176514577733
 31
0.0
  0
INSERT
  5
17E10
330
17DC5
100
AcDbEntity
  8
AM_5
100
AcDbBlockReference
  2
_Dot
 10
275.2574246517629
 20
131.6517651457773
 30
0.0
 50
90.0
  0
INSERT
  5
17E11
330
17DC5
100
AcDbEntity
  8
AM_5
100
AcDbBlockReference
  2
_Dot
 10
275.2574246517629
 20
71.65176514577733
 30
0.0
 50
270.0
  0
MTEXT
  5
17E12
330
17DC5
100
AcDbEntity
  8
AM_5
 62
     2
100
AcDbMText
 10
272.1574246517629
 20
101.6517651457773
 30
0.0
 40
3.200000000000001
 41
0.0
 71
     5
 72
     1
  1
60
 11
0.0000000000000001
 21
1.0
 31
0.0
 73
     1
 44
1.0
  0
POINT
  5
17E13
330
17DC5
100
AcDbEntity
  8
Defpoints
 62
     0
100
AcDbPoint
 10
266.2574236417629
 20
131.6517651457773
 30
0.0
  0
POINT
  5
17E14
330
17DC5
100
AcDbEntity
  8
Defpoints
 62
     0
100
AcDbPoint
 10
266.2574236417629
 20
71.65176514577733
 30
0.0
  0
POINT
  5
17E15
330
17DC5
100
AcDbEntity
  8
Defpoints
 62
     0
100
AcDbPoint
 10
275.2574246517629
 20
71.65176514577733
 30
0.0
  0
ENDBLK
  5
17DC7
330
17DC5
100
AcDbEntity
  8
0
100
AcDbBlockEnd
  0
BLOCK
  5
18155
330
18154
100
AcDbEntity
  8
0
100
AcDbBlockBegin
  2
*D29
 70
     1
 10
0.0
 20
0.0
 30
0.0
  3
*D29
  1

  0
LINE
  5
18172
330
18154
100
AcDbEntity
  8
AM_5
100
AcDbLine
 10
324.1663179974561
 20
58.15176514579125
 30
0.0
 11
324.1663179974561
 21
42.15176514579186
 31
0.0
  0
LINE
  5
18173
330
18154
100
AcDbEntity
  8
AM_5
100
AcDbLine
 10
299.1663179974379
 20
58.15176514579125
 30
0.0
 11
299.1663179974379
 21
42.15176514579186
 31
0.0
  0
LINE
  5
18174
330
18154
100
AcDbEntity
  8
AM_5
100
AcDbLine
 10
323.1663179974561
 20
43.15176514579186
 30
0.0
 11
300.1663179974379
 21
43.15176514579186
 31
0.0
  0
INSERT
  5
18175
330
18154
100
AcDbEntity
  8
AM_5
100
AcDbBlockReference
  2
_Dot
 10
324.1663179974561
 20
43.15176514579186
 30
0.0
  0
INSERT
  5
18176
330
18154
100
AcDbEntity
  8
AM_5
100
AcDbBlockReference
  2
_Dot
 10
299.1663179974379
 20
43.15176514579186
 30
0.0
 50
180.0
  0
MTEXT
  5
18177
330
18154
100
AcDbEntity
  8
AM_5
 62
     2
100
AcDbMText
 10
311.666317997447
 20
46.25176514579186
 30
0.0
 40
3.200000000000001
 41
0.0
 71
     5
 72
     1
  1
25
 73
     1
 44
1.0
  0
POINT
  5
18178
330
18154
100
AcDbEntity
  8
Defpoints
 62
     0
100
AcDbPoint
 10
324.1663179974561
 20
59.15176514579124
 30
0.0
  0
POINT
  5
18179
330
18154
100
AcDbEntity
  8
Defpoints
 62
     0
100
AcDbPoint
 10
299.1663179974379
 20
59.15176514579124
 30
0.0
  0
POINT
  5
1817A
330
18154
100
AcDbEntity
  8
Defpoints
 62
     0
100
AcDbPoint
 10
299.1663179974379
 20
43.15176514579186
 30
0.0
  0
ENDBLK
  5
18156
330
18154
100
AcDbEntity
  8
0
100
AcDbBlockEnd
  0
BLOCK
  5
181EA
330
181E9
100
AcDbEntity
  8
0
100
AcDbBlockBegin
  2
*D30
 70
     1
 10
0.0
 20
0.0
 30
0.0
  3
*D30
  1

  0
LINE
  5
181EC
330
181E9
100
AcDbEntity
  8
AM_5
100
AcDbLine
 10
325.8007264788401
 20
228.7733440018676
 30
0.0
 11
325.8007264788401
 21
256.2733440018675
 31
0.0
  0
LINE
  5
181ED
330
181E9
100
AcDbEntity
  8
AM_5
100
AcDbLine
 10
352.5319194952243
 20
228.7733440018676
 30
0.0
 11
352.5319194952243
 21
256.2733440018675
 31
0.0
  0
LINE
  5
181EE
330
181E9
100
AcDbEntity
  8
AM_5
100
AcDbLine
 10
326.8007264788401
 20
255.2733440018676
 30
0.0
 11
351.5319194952243
 21
255.2733440018676
 31
0.0
  0
INSERT
  5
181EF
330
181E9
100
AcDbEntity
  8
AM_5
100
AcDbBlockReference
  2
_Dot
 10
325.8007264788401
 20
255.2733440018676
 30
0.0
 50
180.0
  0
INSERT
  5
181F0
330
181E9
100
AcDbEntity
  8
AM_5
100
AcDbBlockReference
  2
_Dot
 10
352.5319194952243
 20
255.2733440018676
 30
0.0
  0
MTEXT
  5
181F1
330
181E9
100
AcDbEntity
  8
AM_5
 62
     2
100
AcDbMText
 10
339.1663229870322
 20
258.3733440018676
 30
0.0
 40
3.200000000000001
 41
0.0
 71
     5
 72
     1
  1
（30）
 73
     1
 44
1.0
  0
POINT
  5
181F2
330
181E9
100
AcDbEntity
  8
Defpoints
 62
     0
100
AcDbPoint
 10
325.8007264788401
 20
227.7733440018676
 30
0.0
  0
POINT
  5
181F3
330
181E9
100
AcDbEntity
  8
Defpoints
 62
     0
100
AcDbPoint
 10
352.5319194952243
 20
227.7733440018676
 30
0.0
  0
POINT
  5
181F4
330
181E9
100
AcDbEntity
  8
Defpoints
 62
     0
100
AcDbPoint
 10
352.5319194952243
 20
255.2733440018676
 30
0.0
  0
ENDBLK
  5
181EB
330
181E9
100
AcDbEntity
  8
0
100
AcDbBlockEnd
  0
BLOCK
  5
18287
330
18286
100
AcDbEntity
  8
0
100
AcDbBlockBegin
  2
*D31
 70
     1
 10
0.0
 20
0.0
 30
0.0
  3
*D31
  1

  0
LINE
  5
182B6
330
18286
100
AcDbEntity
  8
AM_5
100
AcDbLine
 10
217.0074236417629
 20
152.1517651457778
 30
0.0
 11
217.0074236417629
 21
159.1517651457779
 31
0.0
  0
LINE
  5
182B7
330
18286
100
AcDbEntity
  8
AM_5
100
AcDbLine
 10
185.0074236417629
 20
152.1517651457778
 30
0.0
 11
185.0074236417629
 21
159.1517651457779
 31
0.0
  0
LINE
  5
182B8
330
18286
100
AcDbEntity
  8
AM_5
100
AcDbLine
 10
216.0074236417629
 20
158.1517651457779
 30
0.0
 11
186.0074236417629
 21
158.1517651457779
 31
0.0
  0
INSERT
  5
182B9
330
18286
100
AcDbEntity
  8
AM_5
100
AcDbBlockReference
  2
_Dot
 10
217.0074236417629
 20
158.1517651457779
 30
0.0
  0
INSERT
  5
182BA
330
18286
100
AcDbEntity
  8
AM_5
100
AcDbBlockReference
  2
_Dot
 10
185.0074236417629
 20
158.1517651457779
 30
0.0
 50
180.0
  0
MTEXT
  5
182BB
330
18286
100
AcDbEntity
  8
AM_5
 62
     2
100
AcDbMText
 10
201.0074236417629
 20
161.2517651457778
 30
0.0
 40
3.200000000000001
 41
0.0
 71
     5
 72
     1
  1
32
 73
     1
 44
1.0
  0
POINT
  5
182BC
330
18286
100
AcDbEntity
  8
Defpoints
 62
     0
100
AcDbPoint
 10
217.0074236417629
 20
151.1517651457778
 30
0.0
  0
POINT
  5
182BD
330
18286
100
AcDbEntity
  8
Defpoints
 62
     0
100
AcDbPoint
 10
185.0074236417629
 20
151.1517651457778
 30
0.0
  0
POINT
  5
182BE
330
18286
100
AcDbEntity
  8
Defpoints
 62
     0
100
AcDbPoint
 10
185.0074236417629
 20
158.1517651457779
 30
0.0
  0
ENDBLK
  5
18288
330
18286
100
AcDbEntity
  8
0
100
AcDbBlockEnd
  0
ENDSEC
  0
SECTION
  2
ENTITIES
  0
TEXT
  5
BF47
330
1F
100
AcDbEntity
  8
AM_6
 60
     1
100
AcDbText
 10
408.4999999999999
 20
8.5
 30
0.0
 40
2.5
  1
!GENTITLE-INSERT
100
AcDbText
  0
TEXT
  5
BF48
330
1F
100
AcDbEntity
  8
AM_6
 60
     1
100
AcDbText
 10
0.0
 20
0.0
 30
0.0
 40
2.5
  1
!GENTITLE-LL
100
AcDbText
  0
TEXT
  5
BF49
330
1F
100
AcDbEntity
  8
AM_6
 60
     1
100
AcDbText
 10
420.0
 20
297.0
 30
0.0
 40
2.5
  1
!GENTITLE-RU
100
AcDbText
  0
TEXT
  5
BF4A
330
1F
100
AcDbEntity
  8
AM_6
 60
     1
100
AcDbText
 10
420.0
 20
297.0
 30
0.0
 40
2.5
  1
!GENTITLE-MAX
100
AcDbText
  0
TEXT
  5
BF52
330
1F
100
AcDbEntity
  8
AM_6
 60
     1
100
AcDbText
 10
0.0
 20
0.0
 30
0.0
 40
2.5
  1
!GENTITLE-LL
100
AcDbText
  0
TEXT
  5
BF53
330
1F
100
AcDbEntity
  8
AM_6
 60
     1
100
AcDbText
 10
408.4999999999999
 20
288.5
 30
0.0
 40
2.5
  1
!GENTITLE-RU
100
AcDbText
  0
TEXT
  5
BF54
330
1F
100
AcDbEntity
  8
AM_6
 60
     1
100
AcDbText
 10
420.0
 20
297.0
 30
0.0
 40
2.5
  1
!GENTITLE-MAX
100
AcDbText
  0
TEXT
  5
BF55
330
1F
100
AcDbEntity
  8
AM_6
 60
     1
100
AcDbText
 10
408.4999999999999
 20
8.5
 30
0.0
 40
2.5
  1
!GENTITLE-INSERT
100
AcDbText
  0
LINE
  5
14C53
330
1F
100
AcDbEntity
  8
size
100
AcDbLine
 10
0.0
 20
0.0
 30
0.0
 11
419.9999999999999
 21
0.0
 31
0.0
1001
GENIUS_GENREC_14
1002
{
1000
PYDIR
1011
0.0
1021
297.0
1031
0.0
1002
}
1002
{
1000
PXDIR
1011
419.9999999999999
1021
0.0
1031
0.0
1002
}
1002
{
1000
PORI
1011
0.0
1021
0.0
1031
0.0
1002
}
1002
{
1000
PINS
1011
210.0
1021
148.4999999999999
1031
0.0
1002
}
1002
{
1000
HVAL
1000
297
1002
}
1002
{
1000
H
1070
     2
1002
}
1002
{
1000
WVAL
1000
420
1002
}
1002
{
1000
W
1070
     2
1002
}
1002
{
1000
C
1070
     4
1002
}
1001
GENIUS_GENOBJ-N-REC_13
1002
{
1000
OWNER
1000
GEN
1002
}
1001
GENIUS_GENODEF_13
1002
{
1000
HIER
1070
     0
1002
}
1002
{
1000
MANEDIT
1070
     0
1002
}
1002
{
1000
NOSEL
1070
     0
1002
}
1002
{
1000
BEHIND
1070
     0
1002
}
1002
{
1000
OTHER
1070
     0
1002
}
1002
{
1000
REACTOR
1002
}
  0
LINE
  5
14C54
330
1F
100
AcDbEntity
  8
size
100
AcDbLine
 10
419.9999999999999
 20
0.0
 30
0.0
 11
419.9999999999999
 21
297.0
 31
0.0
1001
GENIUS_GENREC_14
1002
{
1000
PYDIR
1011
0.0
1021
297.0
1031
0.0
1002
}
1002
{
1000
PXDIR
1011
419.9999999999999
1021
0.0
1031
0.0
1002
}
1002
{
1000
PORI
1011
0.0
1021
0.0
1031
0.0
1002
}
1002
{
1000
PINS
1011
210.0
1021
148.4999999999999
1031
0.0
1002
}
1002
{
1000
HVAL
1000
297
1002
}
1002
{
1000
H
1070
     2
1002
}
1002
{
1000
WVAL
1000
420
1002
}
1002
{
1000
W
1070
     2
1002
}
1002
{
1000
C
1070
     4
1002
}
1001
GENIUS_GENOBJ-N-REC_13
1002
{
1000
OWNER
1000
GEN
1002
}
1001
GENIUS_GENODEF_13
1002
{
1000
HIER
1070
     0
1002
}
1002
{
1000
MANEDIT
1070
     0
1002
}
1002
{
1000
NOSEL
1070
     0
1002
}
1002
{
1000
BEHIND
1070
     0
1002
}
1002
{
1000
OTHER
1070
     0
1002
}
1002
{
1000
REACTOR
1002
}
  0
LINE
  5
14C55
330
1F
100
AcDbEntity
  8
size
100
AcDbLine
 10
419.9999999999999
 20
297.0
 30
0.0
 11
0.0
 21
297.0
 31
0.0
1001
GENIUS_GENREC_14
1002
{
1000
PYDIR
1011
0.0
1021
297.0
1031
0.0
1002
}
1002
{
1000
PXDIR
1011
419.9999999999999
1021
0.0
1031
0.0
1002
}
1002
{
1000
PORI
1011
0.0
1021
0.0
1031
0.0
1002
}
1002
{
1000
PINS
1011
210.0
1021
148.4999999999999
1031
0.0
1002
}
1002
{
1000
HVAL
1000
297
1002
}
1002
{
1000
H
1070
     2
1002
}
1002
{
1000
WVAL
1000
420
1002
}
1002
{
1000
W
1070
     2
1002
}
1002
{
1000
C
1070
     4
1002
}
1001
GENIUS_GENOBJ-N-REC_13
1002
{
1000
OWNER
1000
GEN
1002
}
1001
GENIUS_GENODEF_13
1002
{
1000
HIER
1070
     0
1002
}
1002
{
1000
MANEDIT
1070
     0
1002
}
1002
{
1000
NOSEL
1070
     0
1002
}
1002
{
1000
BEHIND
1070
     0
1002
}
1002
{
1000
OTHER
1070
     0
1002
}
1002
{
1000
REACTOR
1002
}
  0
LINE
  5
14C56
330
1F
100
AcDbEntity
  8
size
100
AcDbLine
 10
0.0
 20
297.0
 30
0.0
 11
0.0
 21
0.0
 31
0.0
1001
GENIUS_GENREC_14
1002
{
1000
PYDIR
1011
0.0
1021
297.0
1031
0.0
1002
}
1002
{
1000
PXDIR
1011
419.9999999999999
1021
0.0
1031
0.0
1002
}
1002
{
1000
PORI
1011
0.0
1021
0.0
1031
0.0
1002
}
1002
{
1000
PINS
1011
210.0
1021
148.4999999999999
1031
0.0
1002
}
1002
{
1000
HVAL
1000
297
1002
}
1002
{
1000
H
1070
     2
1002
}
1002
{
1000
WVAL
1000
420
1002
}
1002
{
1000
W
1070
     2
1002
}
1002
{
1000
C
1070
     4
1002
}
1001
GENIUS_GENOBJ-N-REC_13
1002
{
1000
OWNER
1000
GEN
1002
}
1001
GENIUS_GENODEF_13
1002
{
1000
HIER
1070
     0
1002
}
1002
{
1000
MANEDIT
1070
     0
1002
}
1002
{
1000
NOSEL
1070
     0
1002
}
1002
{
1000
BEHIND
1070
     0
1002
}
1002
{
1000
OTHER
1070
     0
1002
}
1002
{
1000
REACTOR
1002
}
  0
LINE
  5
14C57
330
1F
100
AcDbEntity
  8
waku
100
AcDbLine
 10
408.4999999999999
 20
8.5
 30
0.0
 11
408.4999999999999
 21
288.5
 31
0.0
1001
GENIUS_GENREC_14
1002
{
1000
PYDIR
1011
0.0
1021
297.0
1031
0.0
1002
}
1002
{
1000
PXDIR
1011
419.9999999999999
1021
0.0
1031
0.0
1002
}
1002
{
1000
PORI
1011
0.0
1021
0.0
1031
0.0
1002
}
1002
{
1000
PINS
1011
210.0
1021
148.4999999999999
1031
0.0
1002
}
1002
{
1000
HVAL
1000
297
1002
}
1002
{
1000
H
1070
     2
1002
}
1002
{
1000
WVAL
1000
420
1002
}
1002
{
1000
W
1070
     2
1002
}
1002
{
1000
C
1070
     4
1002
}
1001
GENIUS_GENOBJ-N-REC_13
1002
{
1000
OWNER
1000
GEN
1002
}
1001
GENIUS_GENODEF_13
1002
{
1000
HIER
1070
     0
1002
}
1002
{
1000
MANEDIT
1070
     0
1002
}
1002
{
1000
NOSEL
1070
     0
1002
}
1002
{
1000
BEHIND
1070
     0
1002
}
1002
{
1000
OTHER
1070
     0
1002
}
1002
{
1000
REACTOR
1002
}
  0
LINE
  5
14C58
330
1F
100
AcDbEntity
  8
waku
100
AcDbLine
 10
11.5
 20
288.5
 30
0.0
 11
11.5
 21
8.5
 31
0.0
1001
GENIUS_GENREC_14
1002
{
1000
PYDIR
1011
0.0
1021
297.0
1031
0.0
1002
}
1002
{
1000
PXDIR
1011
419.9999999999999
1021
0.0
1031
0.0
1002
}
1002
{
1000
PORI
1011
0.0
1021
0.0
1031
0.0
1002
}
1002
{
1000
PINS
1011
210.0
1021
148.4999999999999
1031
0.0
1002
}
1002
{
1000
HVAL
1000
297
1002
}
1002
{
1000
H
1070
     2
1002
}
1002
{
1000
WVAL
1000
420
1002
}
1002
{
1000
W
1070
     2
1002
}
1002
{
1000
C
1070
     4
1002
}
1001
GENIUS_GENOBJ-N-REC_13
1002
{
1000
OWNER
1000
GEN
1002
}
1001
GENIUS_GENODEF_13
1002
{
1000
HIER
1070
     0
1002
}
1002
{
1000
MANEDIT
1070
     0
1002
}
1002
{
1000
NOSEL
1070
     0
1002
}
1002
{
1000
BEHIND
1070
     0
1002
}
1002
{
1000
OTHER
1070
     0
1002
}
1002
{
1000
REACTOR
1002
}
  0
LINE
  5
14C59
330
1F
100
AcDbEntity
  8
waku
100
AcDbLine
 10
408.4999999999999
 20
288.5
 30
0.0
 11
11.5
 21
288.5
 31
0.0
1001
GENIUS_GENREC_14
1002
{
1000
PYDIR
1011
0.0
1021
297.0
1031
0.0
1002
}
1002
{
1000
PXDIR
1011
419.9999999999999
1021
0.0
1031
0.0
1002
}
1002
{
1000
PORI
1011
0.0
1021
0.0
1031
0.0
1002
}
1002
{
1000
PINS
1011
210.0
1021
148.4999999999999
1031
0.0
1002
}
1002
{
1000
HVAL
1000
297
1002
}
1002
{
1000
H
1070
     2
1002
}
1002
{
1000
WVAL
1000
420
1002
}
1002
{
1000
W
1070
     2
1002
}
1002
{
1000
C
1070
     4
1002
}
1001
GENIUS_GENOBJ-N-REC_13
1002
{
1000
OWNER
1000
GEN
1002
}
1001
GENIUS_GENODEF_13
1002
{
1000
HIER
1070
     0
1002
}
1002
{
1000
MANEDIT
1070
     0
1002
}
1002
{
1000
NOSEL
1070
     0
1002
}
1002
{
1000
BEHIND
1070
     0
1002
}
1002
{
1000
OTHER
1070
     0
1002
}
1002
{
1000
REACTOR
1002
}
  0
LINE
  5
14C5A
330
1F
100
AcDbEntity
  8
waku
100
AcDbLine
 10
11.5
 20
8.5
 30
0.0
 11
408.4999999999999
 21
8.5
 31
0.0
  0
LINE
  5
14C5B
330
1F
100
AcDbEntity
  8
AM_2
100
AcDbLine
 10
169.4909836197703
 20
228.8369618206176
 30
0.0
 11
181.4909836197703
 21
228.8369618206176
 31
0.0
  0
LINE
  5
14C62
330
1F
100
AcDbEntity
  8
AM_2
100
AcDbLine
 10
208.7702283060608
 20
228.8369618206176
 30
0.0
 11
194.0202253064541
 21
228.8369618206176
 31
0.0
  0
LINE
  5
14C70
330
1F
100
AcDbEntity
  8
AM_2
100
AcDbLine
 10
169.4909836197703
 20
227.5369578206176
 30
0.0
 11
181.4909836197703
 21
227.5369578206176
 31
0.0
  0
LINE
  5
14C73
330
1F
100
AcDbEntity
  8
AM_2
100
AcDbLine
 10
208.7702283060608
 20
227.5369578206176
 30
0.0
 11
194.0202253064541
 21
227.5369578206176
 31
0.0
  0
LINE
  5
14C74
330
1F
100
AcDbEntity
  8
AM_2
100
AcDbLine
 10
154.8610694071865
 20
219.8369538206176
 30
0.0
 11
152.8610694071865
 21
219.8369538206176
 31
0.0
  0
LINE
  5
14C75
330
1F
100
AcDbEntity
  8
AM_2
100
AcDbLine
 10
152.8610694071865
 20
211.8369538206176
 30
0.0
 11
146.8610694071865
 21
211.8369538206176
 31
0.0
  0
LINE
  5
14C76
330
1F
100
AcDbEntity
  8
AM_2
100
AcDbLine
 10
152.8610694071865
 20
211.8369538206176
 30
0.0
 11
152.8610694071865
 21
219.8369538206176
 31
0.0
  0
LINE
  5
14C77
330
1F
100
AcDbEntity
  8
AM_2
100
AcDbLine
 10
149.8610694071865
 20
224.8369618206176
 30
0.0
 11
154.8610694071865
 21
219.8369618206176
 31
0.0
  0
LINE
  5
14C78
330
1F
100
AcDbEntity
  8
AM_2
100
AcDbLine
 10
144.8610694071865
 20
219.8369538206176
 30
0.0
 11
149.8610694071865
 21
224.8369618206176
 31
0.0
  0
LINE
  5
14C79
330
1F
100
AcDbEntity
  8
AM_2
100
AcDbLine
 10
146.8610694071865
 20
211.8369538206176
 30
0.0
 11
146.8610694071865
 21
219.8369538206176
 31
0.0
  0
LINE
  5
14C7A
330
1F
100
AcDbEntity
  8
AM_2
100
AcDbLine
 10
146.8610694071865
 20
219.8369538206176
 30
0.0
 11
144.8610694071865
 21
219.8369538206176
 31
0.0
  0
LINE
  5
14C7B
330
1F
100
AcDbEntity
  8
AM_2
100
AcDbLine
 10
227.8202283064542
 20
211.8369538206176
 30
0.0
 11
227.8202283064542
 21
219.8369538206176
 31
0.0
  0
LINE
  5
14C7C
330
1F
100
AcDbEntity
  8
AM_2
100
AcDbLine
 10
221.8202283064542
 20
211.8369538206176
 30
0.0
 11
221.8202283064542
 21
219.8369538206176
 31
0.0
  0
LINE
  5
14C7D
330
1F
100
AcDbEntity
  8
AM_2
100
AcDbLine
 10
227.8202283064542
 20
219.8369538206176
 30
0.0
 11
229.8202283064542
 21
219.8369538206176
 31
0.0
  0
LINE
  5
14C7E
330
1F
100
AcDbEntity
  8
AM_2
100
AcDbLine
 10
219.8202283064542
 20
219.8369538206176
 30
0.0
 11
221.8202283064542
 21
219.8369538206176
 31
0.0
  0
LINE
  5
14C7F
330
1F
100
AcDbEntity
  8
AM_2
100
AcDbLine
 10
221.8202283064542
 20
211.8369538206176
 30
0.0
 11
227.8202283064542
 21
211.8369538206176
 31
0.0
  0
LINE
  5
14C80
330
1F
100
AcDbEntity
  8
AM_2
100
AcDbLine
 10
224.8202353064542
 20
224.8369618206176
 30
0.0
 11
219.8202283064542
 21
219.8369618206176
 31
0.0
  0
LINE
  5
14C81
330
1F
100
AcDbEntity
  8
AM_2
100
AcDbLine
 10
229.8202353064541
 20
219.8369618206176
 30
0.0
 11
224.8202353064542
 21
224.8369618206176
 31
0.0
  0
TEXT
  5
14C82
330
1F
100
AcDbEntity
  8
AM_6
100
AcDbText
 10
147.9056311625903
 20
266.0060942104385
 30
0.0
 40
4.0
  1
丁番吊グレビティヒンジ　左右勝手決定方法
 41
0.8423746600000001
100
AcDbText
  0
TEXT
  5
14C83
330
1F
100
AcDbEntity
  8
AM_6
100
AcDbText
 10
123.7488836803626
 20
251.3548658206176
 30
0.0
 40
3.2
  1
左勝手
 41
0.85537027
100
AcDbText
  0
TEXT
  5
14C84
330
1F
100
AcDbEntity
  8
AM_6
100
AcDbText
 10
130.271632675282
 20
203.3726102938854
 30
0.0
 40
3.2
  1
ドアを押す側から見た時に吊元が左側（右側）の場合は左勝手（右勝手）となります。
 41
0.8413729699999999
100
AcDbText
  0
TEXT
  5
14C85
330
1F
100
AcDbEntity
  8
AM_6
100
AcDbText
 10
130.271632675282
 20
198.1963882093922
 30
0.0
 40
3.2
  1
（通常の丁番の勝手とは逆になります。）
 41
0.84248387
100
AcDbText
  0
TEXT
  5
14C86
330
1F
100
AcDbEntity
  8
AM_6
100
AcDbText
 10
244.3795041193113
 20
251.3548658206176
 30
0.0
 40
3.2
  1
右勝手
 41
0.85537027
100
AcDbText
  0
LINE
  5
14CA3
330
1F
100
AcDbEntity
  8
AM_2
100
AcDbLine
 10
132.8110594066958
 20
230.8369638209602
 30
0.0
 11
132.8110594066958
 21
229.5369598209603
 31
0.0
  0
LINE
  5
14CA4
330
1F
100
AcDbEntity
  8
AM_2
100
AcDbLine
 10
136.0110594075362
 20
227.5369598206176
 30
0.0
 11
136.0110594075362
 21
228.8369638206176
 31
0.0
  0
LINE
  5
14CA5
330
1F
100
AcDbEntity
  8
AM_2
100
AcDbLine
 10
165.9110594075799
 20
228.8369618206176
 30
0.0
 11
180.6610624071865
 21
228.8369618206176
 31
0.0
  0
LINE
  5
14CA6
330
1F
100
AcDbEntity
  8
AM_2
100
AcDbLine
 10
132.8110594066958
 20
230.8369638209602
 30
0.0
 11
168.9110594075799
 21
230.8369658203169
 31
0.0
  0
LINE
  5
14CA7
330
1F
100
AcDbEntity
  8
AM_2
100
AcDbLine
 10
123.7110824071866
 20
228.8369618206176
 30
0.0
 11
136.0110594075362
 21
228.8369638206176
 31
0.0
  0
LINE
  5
14CA8
330
1F
100
AcDbEntity
  8
AM_2
100
AcDbLine
 10
165.9110594075799
 20
227.5369578206176
 30
0.0
 11
165.9110594075799
 21
228.8369618206176
 31
0.0
  0
LINE
  5
14CA9
330
1F
100
AcDbEntity
  8
AM_2
100
AcDbLine
 10
168.9110594075799
 20
229.5369618203169
 30
0.0
 11
168.9110594075799
 21
230.8369658203169
 31
0.0
  0
LINE
  5
14CB3
330
1F
100
AcDbEntity
  8
AM_2
100
AcDbLine
 10
123.7110824071866
 20
227.5369578206176
 30
0.0
 11
136.0110594075362
 21
227.5369598206176
 31
0.0
  0
LINE
  5
14CB4
330
1F
100
AcDbEntity
  8
AM_2
100
AcDbLine
 10
132.8110594066958
 20
229.5369598209603
 30
0.0
 11
168.9110594075799
 21
229.5369618203169
 31
0.0
  0
LINE
  5
14CB5
330
1F
100
AcDbEntity
  8
AM_2
100
AcDbLine
 10
165.9110594075799
 20
227.5369578206176
 30
0.0
 11
180.6610624071865
 21
227.5369578206176
 31
0.0
  0
LINE
  5
14CD0
330
1F
100
AcDbEntity
  8
AM_2
100
AcDbLine
 10
29.5
 20
288.5
 30
0.0
 11
29.5
 21
176.5000000000001
 31
0.0
  0
LINE
  5
14CD1
330
1F
100
AcDbEntity
  8
AM_2
100
AcDbLine
 10
11.5
 20
280.5
 30
0.0
 11
116.5
 21
280.5
 31
0.0
  0
LINE
  5
14CD2
330
1F
100
AcDbEntity
  8
AM_2
100
AcDbLine
 10
11.5
 20
272.5
 30
0.0
 11
116.5
 21
272.5
 31
0.0
  0
LINE
  5
14CD3
330
1F
100
AcDbEntity
  8
AM_2
100
AcDbLine
 10
11.5
 20
264.5
 30
0.0
 11
116.5
 21
264.5
 31
0.0
  0
LINE
  5
14CD4
330
1F
100
AcDbEntity
  8
AM_2
100
AcDbLine
 10
11.5
 20
256.5
 30
0.0
 11
116.5
 21
256.5
 31
0.0
  0
LINE
  5
14CD5
330
1F
100
AcDbEntity
  8
AM_2
100
AcDbLine
 10
11.5
 20
240.5
 30
0.0
 11
116.5
 21
240.5
 31
0.0
  0
LINE
  5
14CD6
330
1F
100
AcDbEntity
  8
AM_2
100
AcDbLine
 10
29.5
 20
216.5000000000001
 30
0.0
 11
116.5
 21
216.5000000000001
 31
0.0
  0
LINE
  5
14CD7
330
1F
100
AcDbEntity
  8
AM_2
100
AcDbLine
 10
29.5
 20
192.5000000000001
 30
0.0
 11
116.5
 21
192.5000000000001
 31
0.0
  0
LINE
  5
14CD8
330
1F
100
AcDbEntity
  8
AM_2
100
AcDbLine
 10
29.5
 20
184.5000000000001
 30
0.0
 11
116.5
 21
184.5000000000001
 31
0.0
  0
LINE
  5
14CD9
330
1F
100
AcDbEntity
  8
AM_0
100
AcDbLine
 10
11.5
 20
288.5
 30
0.0
 11
11.5
 21
176.5000000000001
 31
0.0
  0
LINE
  5
14CDA
330
1F
100
AcDbEntity
  8
AM_0
100
AcDbLine
 10
11.5
 20
288.5
 30
0.0
 11
116.5
 21
288.5
 31
0.0
  0
LINE
  5
14CDB
330
1F
100
AcDbEntity
  8
AM_0
100
AcDbLine
 10
116.5
 20
288.5
 30
0.0
 11
116.5
 21
176.5000000000001
 31
0.0
  0
LINE
  5
14CDC
330
1F
100
AcDbEntity
  8
AM_0
100
AcDbLine
 10
11.5
 20
176.5000000000001
 30
0.0
 11
116.5
 21
176.5000000000001
 31
0.0
  0
TEXT
  5
14CDD
330
1F
100
AcDbEntity
  8
AM_6
100
AcDbText
 10
16.72849994897854
 20
282.9
 30
0.0
 40
3.2
  1
品　名
 41
0.7
100
AcDbText
  0
TEXT
  5
14CDE
330
1F
100
AcDbEntity
  8
AM_6
100
AcDbText
 10
16.72849994897854
 20
274.9
 30
0.0
 40
3.2
  1
品　番
 41
0.7
100
AcDbText
  0
TEXT
  5
14CDF
330
1F
100
AcDbEntity
  8
AM_6
100
AcDbText
 10
32.72930469336882
 20
282.9
 30
0.0
 40
3.2
  1
丁番吊グレビティヒンジ（パブリック仕様）
 41
0.7
100
AcDbText
  0
TEXT
  5
14CE0
330
1F
100
AcDbEntity
  8
AM_6
100
AcDbText
 10
16.72849994897854
 20
266.9
 30
0.0
 40
3.2
  1
材　質
 41
0.7
100
AcDbText
  0
TEXT
  5
14CE1
330
1F
100
AcDbEntity
  8
AM_6
100
AcDbText
 10
16.72849994897854
 20
258.9
 30
0.0
 40
3.2
  1
仕上げ
 41
0.7
100
AcDbText
  0
TEXT
  5
14CE2
330
1F
100
AcDbEntity
  8
AM_6
100
AcDbText
 10
14.0888059668847
 20
250.9
 30
0.0
 40
3.2
  1
セットビス
 41
0.7
100
AcDbText
  0
TEXT
  5
14CE3
330
1F
100
AcDbEntity
  8
AM_6
100
AcDbText
 10
32.33283382366119
 20
250.9
 30
0.0
 40
3.2
  1
13mm用（扉側）：M5×10六角穴付サラボルト   SUS：4本
 41
0.7
100
AcDbText
  0
TEXT
  5
14CE4
330
1F
100
AcDbEntity
  8
AM_6
100
AcDbText
 10
32.92849999666226
 20
258.9
 30
0.0
 40
3.2
  1
ヘアーライン
 41
0.7
100
AcDbText
  0
TEXT
  5
14CE5
330
1F
100
AcDbEntity
  8
AM_6
100
AcDbText
 10
18.32849997282039
 20
218.9000000000001
 30
0.0
 40
3.2
  1
備考
 41
0.7
100
AcDbText
  0
TEXT
  5
14CE6
330
1F
100
AcDbEntity
  8
AM_6
100
AcDbText
 10
32.92849999666226
 20
266.9
 30
0.0
 40
3.2
  1
ステンレス
 41
0.7
100
AcDbText
  0
TEXT
  5
14CE7
330
1F
100
AcDbEntity
  8
AM_6
100
AcDbText
 10
32.92849999666226
 20
274.9
 30
0.0
 40
3.2
  1
LHR-74TN
 41
0.7
100
AcDbText
  0
TEXT
  5
14CE8
330
1F
100
AcDbEntity
  8
AM_6
100
AcDbText
 10
32.18339725200065
 20
218.9000000000001
 30
0.0
 40
3.2
  1
ドア閉止位置は閉止、開放45°、90°の組替ができます。
 41
0.7
100
AcDbText
  0
TEXT
  5
14CE9
330
1F
100
AcDbEntity
  8
AM_6
100
AcDbText
 10
32.20292176667579
 20
210.9000000000001
 30
0.0
 40
3.2
  1
ドアは静止位置より90°回転で約4.5mmせり上がります。
 41
0.7
100
AcDbText
  0
TEXT
  5
14CEA
330
1F
100
AcDbEntity
  8
AM_6
100
AcDbText
 10
32.92849999666226
 20
186.9000000000001
 30
0.0
 40
3.2
  1
適用扉重量：20kg
 41
0.7
100
AcDbText
  0
TEXT
  5
14CEB
330
1F
100
AcDbEntity
  8
AM_6
100
AcDbText
 10
32.92849999666226
 20
178.9000000000001
 30
0.0
 40
3.2
  1
図は左勝手です。
 41
0.7
100
AcDbText
  0
LINE
  5
14CEC
330
1F
100
AcDbEntity
  8
AM_2
100
AcDbLine
 10
29.5
 20
248.5
 30
0.0
 11
116.5
 21
248.5000000000001
 31
0.0
  0
TEXT
  5
14CEE
330
1F
100
AcDbEntity
  8
AM_6
100
AcDbText
 10
32.33283382366119
 20
242.9
 30
0.0
 40
3.2
  1
13mm用（枠側）：M5×14六角穴付ボタンボルト SUS：4本
 41
0.7
100
AcDbText
  0
LINE
  5
1500A
330
1F
100
AcDbEntity
  8
AM_0
 48
0.5
100
AcDbLine
 10
108.1505941607713
 20
57.15176514578686
 30
0.0
 11
110.1505941607713
 21
57.15176514578686
 31
0.0
  0
LINE
  5
1500B
330
1F
100
AcDbEntity
  8
AM_0
 48
0.5
100
AcDbLine
 10
108.1505941607713
 20
146.1517651457778
 30
0.0
 11
110.1505941607713
 21
146.1517651457778
 31
0.0
  0
LINE
  5
1500C
330
1F
100
AcDbEntity
  8
AM_0
 48
0.5
100
AcDbLine
 10
110.1505941607713
 20
57.15176514578686
 30
0.0
 11
110.1505941607713
 21
146.1517651457778
 31
0.0
  0
LINE
  5
1500D
330
1F
100
AcDbEntity
  8
AM_0
 48
0.5
100
AcDbLine
 10
108.1505941607713
 20
57.15176514578686
 30
0.0
 11
108.1505941607713
 21
146.1517651457778
 31
0.0
  0
LINE
  5
1500E
330
1F
100
AcDbEntity
  8
AM_0
 48
0.5
100
AcDbLine
 10
98.65059416076952
 20
127.651765145779
 30
0.0
 11
108.1505941607695
 21
127.651765145779
 31
0.0
  0
LINE
  5
1500F
330
1F
100
AcDbEntity
  8
AM_0
 48
0.5
100
AcDbLine
 10
98.65059416076952
 20
135.651765145779
 30
0.0
 11
108.1505941607695
 21
135.651765145779
 31
0.0
  0
LINE
  5
15010
330
1F
100
AcDbEntity
  8
AM_0
 48
0.5
100
AcDbLine
 10
98.15059416076952
 20
128.1517651457817
 30
0.0
 11
98.15059416076952
 21
135.1517651457781
 31
0.0
  0
LINE
  5
15011
330
1F
100
AcDbEntity
  8
AM_0
 48
0.5
100
AcDbLine
 10
98.65059416076952
 20
127.651765145779
 30
0.0
 11
98.65059416076952
 21
135.651765145779
 31
0.0
  0
LINE
  5
15012
330
1F
100
AcDbEntity
  8
AM_0
100
AcDbLine
 10
98.65059416077043
 20
135.651765145779
 30
0.0
 11
98.15059416076952
 21
135.1517651457781
 31
0.0
  0
LINE
  5
15013
330
1F
100
AcDbEntity
  8
AM_0
100
AcDbLine
 10
98.65059416076952
 20
127.651765145779
 30
0.0
 11
98.15059416076952
 21
128.1517651457817
 31
0.0
  0
LINE
  5
15014
330
1F
100
AcDbEntity
  8
AM_0
100
AcDbLine
 10
160.8604549806869
 20
146.1517651457778
 30
0.0
 11
139.860454980687
 21
146.1517651457778
 31
0.0
  0
LINE
  5
15015
330
1F
100
AcDbEntity
  8
AM_0
100
AcDbLine
 10
160.8604549806869
 20
57.15176514578686
 30
0.0
 11
139.860454980687
 21
57.15176514578686
 31
0.0
  0
LINE
  5
15016
330
1F
100
AcDbEntity
  8
AM_0
 48
0.5
100
AcDbLine
 10
98.65059416076952
 20
67.65176514578809
 30
0.0
 11
108.1505941607695
 21
67.65176514578809
 31
0.0
  0
LINE
  5
15017
330
1F
100
AcDbEntity
  8
AM_0
 48
0.5
100
AcDbLine
 10
98.65059416076952
 20
75.65176514578809
 30
0.0
 11
108.1505941607695
 21
75.65176514578809
 31
0.0
  0
LINE
  5
15018
330
1F
100
AcDbEntity
  8
AM_0
 48
0.5
100
AcDbLine
 10
98.15059416076952
 20
68.15176514579082
 30
0.0
 11
98.15059416076952
 21
75.15176514578718
 31
0.0
  0
LINE
  5
15019
330
1F
100
AcDbEntity
  8
AM_0
 48
0.5
100
AcDbLine
 10
98.65059416076952
 20
67.65176514578809
 30
0.0
 11
98.65059416076952
 21
75.65176514578809
 31
0.0
  0
LINE
  5
1501A
330
1F
100
AcDbEntity
  8
AM_0
100
AcDbLine
 10
98.65059416077043
 20
75.65176514578809
 30
0.0
 11
98.15059416076952
 21
75.15176514578718
 31
0.0
  0
LINE
  5
1501B
330
1F
100
AcDbEntity
  8
AM_0
100
AcDbLine
 10
98.65059416076952
 20
67.65176514578809
 30
0.0
 11
98.15059416076952
 21
68.15176514579082
 31
0.0
  0
LINE
  5
1501C
330
1F
100
AcDbEntity
  8
AM_7
100
AcDbLine
 10
95.15059416076951
 20
131.6517651457804
 30
0.0
 11
113.1505941607713
 21
131.6517651457772
 31
0.0
1001
GENIUS_GENODEF_13
1002
{
1000
HIER
1070
     0
1002
}
1002
{
1000
MANEDIT
1070
     0
1002
}
1002
{
1000
NOSEL
1070
     0
1002
}
1002
{
1000
BEHIND
1070
     0
1002
}
1002
{
1000
OTHER
1070
     0
1002
}
1002
{
1000
REACTOR
1002
}
1001
GENIUS_GENOBJ-N-CEN_13
1002
{
1000
OWNER
1000
GEN
1002
}
1001
GENIUS_GENCEN_19
1002
{
1040
3.0
1002
}
  0
LINE
  5
1501D
330
1F
100
AcDbEntity
  8
AM_7
100
AcDbLine
 10
95.15059416076951
 20
71.65176514578686
 30
0.0
 11
113.1505941607713
 21
71.65176514578686
 31
0.0
1001
GENIUS_GENODEF_13
1002
{
1000
HIER
1070
     0
1002
}
1002
{
1000
MANEDIT
1070
     0
1002
}
1002
{
1000
NOSEL
1070
     0
1002
}
1002
{
1000
BEHIND
1070
     0
1002
}
1002
{
1000
OTHER
1070
     0
1002
}
1002
{
1000
REACTOR
1002
}
1001
GENIUS_GENOBJ-N-CEN_13
1002
{
1000
OWNER
1000
GEN
1002
}
1001
GENIUS_GENCEN_19
1002
{
1040
3.0
1002
}
  0
LINE
  5
1501E
330
1F
100
AcDbEntity
  8
AM_0
100
AcDbLine
 10
137.860454980687
 20
59.15176514578686
 30
0.0
 11
137.860454980687
 21
144.1517651457778
 31
0.0
  0
LINE
  5
1501F
330
1F
100
AcDbEntity
  8
AM_0
100
AcDbLine
 10
162.8604549806869
 20
59.15176514578686
 30
0.0
 11
162.8604549806869
 21
144.1517651457778
 31
0.0
  0
LINE
  5
15020
330
1F
100
AcDbEntity
  8
AM_7
100
AcDbLine
 10
150.360454980687
 20
149.1517651457778
 30
0.0
 11
150.360454980687
 21
54.15176514578686
 31
0.0
1001
GENIUS_GENODEF_13
1002
{
1000
HIER
1070
     0
1002
}
1002
{
1000
MANEDIT
1070
     0
1002
}
1002
{
1000
NOSEL
1070
     0
1002
}
1002
{
1000
BEHIND
1070
     0
1002
}
1002
{
1000
OTHER
1070
     0
1002
}
1002
{
1000
REACTOR
1002
}
1001
GENIUS_GENOBJ-N-CEN_13
1002
{
1000
OWNER
1000
GEN
1002
}
1001
GENIUS_GENCEN_19
1002
{
1040
3.0
1002
}
  0
DIMENSION
  5
15025
330
1F
100
AcDbEntity
  8
AM_5
100
AcDbDimension
  2
*D8
 10
98.15059416076952
 20
158.1517661457778
 30
0.0
 11
103.1505941607704
 21
161.2517661457778
 31
0.0
 70
    32
 71
     5
 42
10.00000000000182
  3
SYS$0
100
AcDbAlignedDimension
 13
108.1505941607713
 23
146.1517651457778
 33
0.0
 14
98.15059416076952
 24
135.1517651457781
 34
0.0
100
AcDbRotatedDimension
1001
ACAD_DSTYLE_DIMINSPECT
1070
   396
1000
100%
1070
   395
1000

1070
   394
1070
    33
1070
   393
1070
     0
  0
DIMENSION
  5
15026
330
1F
100
AcDbEntity
  8
AM_5
100
AcDbDimension
  2
*D9
 10
110.1505941607713
 20
158.1517651457778
 30
0.0
 11
114.397260827438
 21
161.2517651457778
 31
0.0
 70
    32
 71
     5
 42
2.0
  3
SYS$0
100
AcDbAlignedDimension
 13
108.1505941607713
 23
146.1517651457778
 33
0.0
 14
110.1505941607713
 24
146.1517651457778
 34
0.0
100
AcDbRotatedDimension
1001
ACAD_DSTYLE_DIMINSPECT
1070
   396
1000
100%
1070
   395
1000

1070
   394
1070
    33
1070
   393
1070
     0
  0
DIMENSION
  5
15027
330
1F
100
AcDbEntity
  8
AM_5
100
AcDbDimension
  2
*D10
 10
162.860454980687
 20
158.1517651457778
 30
0.0
 11
150.360454980687
 21
161.2517651457778
 31
0.0
 70
    32
 71
     5
 42
25.0
  3
SYS$0
100
AcDbAlignedDimension
 13
137.860454980687
 23
146.1517651457778
 33
0.0
 14
162.860454980687
 24
146.1517651457778
 34
0.0
100
AcDbRotatedDimension
1001
ACAD_DSTYLE_DIMINSPECT
1070
   396
1000
100%
1070
   395
1000

1070
   394
1070
    33
1070
   393
1070
     0
  0
DIMENSION
  5
15028
330
1F
100
AcDbEntity
  8
AM_5
100
AcDbDimension
  2
*D11
 10
125.860454980687
 20
57.15176514578686
 30
0.0
 11
122.760454980687
 21
101.6517651457823
 31
0.0
 70
    32
 71
     5
 42
88.99999999999094
  3
SYS$0
100
AcDbAlignedDimension
 13
137.860454980687
 23
146.1517651457778
 33
0.0
 14
137.860454980687
 24
57.15176514578686
 34
0.0
 50
90.0
100
AcDbRotatedDimension
1001
ACAD_DSTYLE_DIMINSPECT
1070
   396
1000
100%
1070
   395
1000

1070
   394
1070
    33
1070
   393
1070
     0
  0
TEXT
  5
156A7
330
1F
100
AcDbEntity
  8
AM_6
100
AcDbText
 10
116.4444307136363
 20
41.29148183546063
 30
0.0
 40
4.0
  1
取付プレート
 41
0.8
100
AcDbText
  0
LINE
  5
16EE8
330
1F
100
AcDbEntity
  8
AM_7
 48
0.5
100
AcDbLine
 10
360.4663438841989
 20
71.65176514579147
 30
0.0
 11
372.8663438841989
 21
71.65176514579147
 31
0.0
  0
LINE
  5
16EE9
330
1F
100
AcDbEntity
  8
AM_7
 48
0.5
100
AcDbLine
 10
360.4663286254162
 20
131.6517651457824
 30
0.0
 11
372.8663286254163
 21
131.6517651457824
 31
0.0
  0
LINE
  5
16EEA
330
1F
100
AcDbEntity
  8
AM_7
 48
0.5
100
AcDbLine
 10
366.6663286254165
 20
137.8517651457824
 30
0.0
 11
366.666328625416
 21
125.4517651457824
 31
0.0
  0
LINE
  5
16EEB
330
1F
100
AcDbEntity
  8
AM_7
 48
0.5
100
AcDbLine
 10
366.6663286254142
 20
77.85176514577179
 30
0.0
 11
366.6663286254138
 21
65.45176514580934
 31
0.0
  0
LINE
  5
16EEC
330
1F
100
AcDbEntity
  8
AM_0
 48
0.5
100
AcDbLine
 10
347.666328626835
 20
56.15176514579147
 30
0.0
 11
347.666328626835
 21
57.15176514579147
 31
0.0
  0
ARC
  5
16EED
330
1F
100
AcDbEntity
  8
AM_0
 48
0.5
100
AcDbCircle
 10
346.666328626835
 20
56.15176514579147
 30
0.0
 40
1.0
100
AcDbArc
 50
270.0
 51
0.0
1001
GENIUS_GENODEF_13
1002
{
1000
HIER
1070
     0
1002
}
1002
{
1000
MANEDIT
1070
     0
1002
}
1002
{
1000
NOSEL
1070
     0
1002
}
1002
{
1000
BEHIND
1070
     0
1002
}
1002
{
1000
OTHER
1070
     0
1002
}
1002
{
1000
REACTOR
1002
}
1001
GENIUS_GENOBJ-N-FIL_13
1002
{
1000
OWNER
1000
GEN
1002
}
  0
LINE
  5
16EEE
330
1F
100
AcDbEntity
  8
AM_0
 48
0.5
100
AcDbLine
 10
327.1163057386515
 20
108.651765145783
 30
0.0
 11
324.1663179974561
 21
108.6517651457835
 31
0.0
  0
LINE
  5
16EEF
330
1F
100
AcDbEntity
  8
AM_0
100
AcDbLine
 10
299.1663179974379
 20
59.15176514579124
 30
0.0
 11
299.1663179974379
 21
144.1517651457819
 31
0.0
  0
ARC
  5
16EF0
330
1F
100
AcDbEntity
  8
AM_0
100
AcDbCircle
 10
301.1663179974379
 20
144.1517651457819
 30
0.0
 40
2.0
100
AcDbArc
 50
90.0
 51
180.0
1001
GENIUS_GENODEF_13
1002
{
1000
HIER
1070
     0
1002
}
1002
{
1000
MANEDIT
1070
     0
1002
}
1002
{
1000
NOSEL
1070
     0
1002
}
1002
{
1000
BEHIND
1070
     0
1002
}
1002
{
1000
OTHER
1070
     0
1002
}
1002
{
1000
REACTOR
1002
}
1001
GENIUS_GENOBJ-N-FIL_13
1002
{
1000
OWNER
1000
GEN
1002
}
  0
LINE
  5
16EF1
330
1F
100
AcDbEntity
  8
AM_0
100
AcDbLine
 10
324.1663179974561
 20
59.15176514579124
 30
0.0
 11
324.1663179974561
 21
108.6517651457821
 31
0.0
  0
LINE
  5
16EF2
330
1F
100
AcDbEntity
  8
AM_0
 48
0.5
100
AcDbLine
 10
330.6663133680459
 20
56.15176514579147
 30
0.0
 11
330.6663133680459
 21
57.15176514579147
 31
0.0
  0
LINE
  5
16EF3
330
1F
100
AcDbEntity
  8
AM_0
 48
0.5
100
AcDbLine
 10
327.1163057386515
 20
92.65176514578328
 30
0.0
 11
327.1163057386515
 21
101.1517651457823
 31
0.0
  0
ARC
  5
16EF4
330
1F
100
AcDbEntity
  8
AM_0
 48
0.5
100
AcDbCircle
 10
328.1163057386515
 20
92.65176514578328
 30
0.0
 40
1.0
100
AcDbArc
 50
180.0
 51
270.0
1001
GENIUS_GENODEF_13
1002
{
1000
HIER
1070
     0
1002
}
1002
{
1000
MANEDIT
1070
     0
1002
}
1002
{
1000
NOSEL
1070
     0
1002
}
1002
{
1000
BEHIND
1070
     0
1002
}
1002
{
1000
OTHER
1070
     0
1002
}
1002
{
1000
REACTOR
1002
}
1001
GENIUS_GENOBJ-N-FIL_13
1002
{
1000
OWNER
1000
GEN
1002
}
  0
LINE
  5
16EF5
330
1F
100
AcDbEntity
  8
AM_0
 48
0.5
100
AcDbLine
 10
354.1663438856241
 20
94.65176514578237
 30
0.0
 11
351.2163209974405
 21
94.65176514578237
 31
0.0
  0
LINE
  5
16EF8
330
1F
100
AcDbEntity
  8
AM_0
 48
0.5
100
AcDbLine
 10
351.2163209974405
 20
102.1517651457823
 30
0.0
 11
351.2163209974402
 21
110.6517651457824
 31
0.0
  0
LINE
  5
16EF9
330
1F
100
AcDbEntity
  8
AM_0
 48
0.5
100
AcDbLine
 10
328.1163057386515
 20
91.65176514578329
 30
0.0
 11
350.2163362562295
 21
91.65176514578238
 31
0.0
  0
LINE
  5
16EFA
330
1F
100
AcDbEntity
  8
AM_0
 48
0.5
100
AcDbLine
 10
327.1163209974405
 20
102.1517651457823
 30
0.0
 11
351.2163209974405
 21
102.1517651457823
 31
0.0
  0
LINE
  5
16EFB
330
1F
100
AcDbEntity
  8
AM_0
 48
0.5
100
AcDbLine
 10
327.1163209974405
 20
101.1517651457823
 30
0.0
 11
351.2163209974405
 21
101.1517651457823
 31
0.0
  0
LINE
  5
16EFC
330
1F
100
AcDbEntity
  8
AM_0
 48
0.5
100
AcDbLine
 10
331.666313368046
 20
55.15176514579147
 30
0.0
 11
346.666328626835
 21
55.15176514579147
 31
0.0
  0
ARC
  5
16EFD
330
1F
100
AcDbEntity
  8
AM_0
 48
0.5
100
AcDbCircle
 10
331.666313368046
 20
56.15176514579147
 30
0.0
 40
1.0
100
AcDbArc
 50
180.0
 51
270.0
1001
GENIUS_GENODEF_13
1002
{
1000
HIER
1070
     0
1002
}
1002
{
1000
MANEDIT
1070
     0
1002
}
1002
{
1000
NOSEL
1070
     0
1002
}
1002
{
1000
BEHIND
1070
     0
1002
}
1002
{
1000
OTHER
1070
     0
1002
}
1002
{
1000
REACTOR
1002
}
1001
GENIUS_GENOBJ-N-FIL_13
1002
{
1000
OWNER
1000
GEN
1002
}
  0
LINE
  5
16EFE
330
1F
100
AcDbEntity
  8
AM_0
 48
0.5
100
AcDbLine
 10
347.666328626835
 20
146.1517651457824
 30
0.0
 11
347.666328626835
 21
147.1517651457824
 31
0.0
  0
ARC
  5
16EFF
330
1F
100
AcDbEntity
  8
AM_0
 48
0.5
100
AcDbCircle
 10
346.666328626835
 20
147.1517651457824
 30
0.0
 40
1.0
100
AcDbArc
 50
0.0
 51
90.0
1001
GENIUS_GENODEF_13
1002
{
1000
HIER
1070
     0
1002
}
1002
{
1000
MANEDIT
1070
     0
1002
}
1002
{
1000
NOSEL
1070
     0
1002
}
1002
{
1000
BEHIND
1070
     0
1002
}
1002
{
1000
OTHER
1070
     0
1002
}
1002
{
1000
REACTOR
1002
}
1001
GENIUS_GENOBJ-N-FIL_13
1002
{
1000
OWNER
1000
GEN
1002
}
  0
LINE
  5
16F00
330
1F
100
AcDbEntity
  8
AM_0
 48
0.5
100
AcDbLine
 10
330.6663133680459
 20
146.1517651457824
 30
0.0
 11
330.6663133680459
 21
147.1517651457824
 31
0.0
  0
LINE
  5
16F01
330
1F
100
AcDbEntity
  8
AM_0
 48
0.5
100
AcDbLine
 10
331.666313368046
 20
148.1517651457824
 30
0.0
 11
346.666328626835
 21
148.1517651457824
 31
0.0
  0
ARC
  5
16F02
330
1F
100
AcDbEntity
  8
AM_0
 48
0.5
100
AcDbCircle
 10
331.666313368046
 20
147.1517651457824
 30
0.0
 40
1.0
100
AcDbArc
 50
90.0
 51
180.0
1001
GENIUS_GENODEF_13
1002
{
1000
HIER
1070
     0
1002
}
1002
{
1000
MANEDIT
1070
     0
1002
}
1002
{
1000
NOSEL
1070
     0
1002
}
1002
{
1000
BEHIND
1070
     0
1002
}
1002
{
1000
OTHER
1070
     0
1002
}
1002
{
1000
REACTOR
1002
}
1001
GENIUS_GENOBJ-N-FIL_13
1002
{
1000
OWNER
1000
GEN
1002
}
  0
LINE
  5
16F03
330
1F
100
AcDbEntity
  8
AM_0
100
AcDbLine
 10
332.5823610875369
 20
111.6517651457824
 30
0.0
 11
332.582376346326
 21
146.1517651457824
 31
0.0
  0
LINE
  5
16F04
330
1F
100
AcDbEntity
  8
AM_0
100
AcDbLine
 10
354.1663438856241
 20
94.65176514578237
 30
0.0
 11
354.1663438856241
 21
145.1572893964369
 31
0.0
  0
LINE
  5
16F05
330
1F
100
AcDbEntity
  8
AM_0
100
AcDbLine
 10
348.1663209978461
 20
91.65176514578238
 30
0.0
 11
348.1663209978461
 21
57.15176514579147
 31
0.0
  0
LINE
  5
16F06
330
1F
100
AcDbEntity
  8
AM_0
100
AcDbLine
 10
348.1663209978461
 20
146.1517651457824
 30
0.0
 11
348.1663209978461
 21
111.6517651457824
 31
0.0
  0
LINE
  5
16F07
330
1F
100
AcDbEntity
  8
AM_0
100
AcDbLine
 10
330.166328626835
 20
57.15176514579147
 30
0.0
 11
330.166328626835
 21
91.65176514578329
 31
0.0
  0
LINE
  5
16F0A
330
1F
100
AcDbEntity
  8
AM_0
100
AcDbLine
 10
301.1663179974379
 20
146.1517651457819
 30
0.0
 11
348.166313368046
 21
146.1517651457824
 31
0.0
  0
LINE
  5
16F0B
330
1F
100
AcDbEntity
  8
AM_0
100
AcDbLine
 10
328.6163286268348
 20
102.1517651457823
 30
0.0
 11
328.6163286268348
 21
101.1517651457823
 31
0.0
  0
LINE
  5
16F0C
330
1F
100
AcDbEntity
  8
AM_0
100
AcDbLine
 10
349.7163286268352
 20
102.1517651457823
 30
0.0
 11
349.7163286268352
 21
101.1517651457823
 31
0.0
  0
LINE
  5
16F0D
330
1F
100
AcDbEntity
  8
AM_7
100
AcDbLine
 10
339.1663209974405
 20
151.1517651457824
 30
0.0
 11
339.1663209974405
 21
52.15176514579147
 31
0.0
  0
LINE
  5
16F0E
330
1F
100
AcDbEntity
  8
AM_0
 48
0.5
100
AcDbLine
 10
351.2163209974405
 20
92.65176514578284
 30
0.0
 11
351.2163209974405
 21
101.1517651457823
 31
0.0
  0
LINE
  5
16F0F
330
1F
100
AcDbEntity
  8
AM_0
 48
0.5
100
AcDbLine
 10
327.1163057386515
 20
102.1517651457823
 30
0.0
 11
327.1163057386516
 21
110.6517651457816
 31
0.0
  0
ARC
  5
16F10
330
1F
100
AcDbEntity
  8
AM_0
 48
0.8
100
AcDbCircle
 10
355.166328626835
 20
145.1517651457824
 30
0.0
 40
1.0
100
AcDbArc
 50
90.0
 51
180.0
1001
GENIUS_GENODEF_13
1002
{
1000
HIER
1070
     0
1002
}
1002
{
1000
MANEDIT
1070
     0
1002
}
1002
{
1000
NOSEL
1070
     0
1002
}
1002
{
1000
BEHIND
1070
     0
1002
}
1002
{
1000
OTHER
1070
     0
1002
}
1002
{
1000
REACTOR
1002
}
1001
GENIUS_GENOBJ-N-FIL_13
1002
{
1000
OWNER
1000
GEN
1002
}
  0
LINE
  5
16F11
330
1F
100
AcDbEntity
  8
AM_0
 48
0.8
100
AcDbLine
 10
379.1663209960217
 20
60.15176514579329
 30
0.0
 11
379.1663209960217
 21
143.1517651457828
 31
0.0
  0
ARC
  5
16F12
330
1F
100
AcDbEntity
  8
AM_0
100
AcDbCircle
 10
376.1663209960217
 20
60.15176514579329
 30
0.0
 40
3.0
100
AcDbArc
 50
270.0
 51
0.0
1001
GENIUS_GENOBJ-N-FIL_13
1002
{
1000
OWNER
1000
GEN
1002
}
1001
GENIUS_GENODEF_13
1002
{
1000
HIER
1070
     0
1002
}
1002
{
1000
MANEDIT
1070
     0
1002
}
1002
{
1000
NOSEL
1070
     0
1002
}
1002
{
1000
BEHIND
1070
     0
1002
}
1002
{
1000
OTHER
1070
     0
1002
}
1002
{
1000
REACTOR
1002
}
  0
ARC
  5
16F13
330
1F
100
AcDbEntity
  8
AM_0
 48
0.5
100
AcDbCircle
 10
376.1663209960217
 20
143.1517651457828
 30
0.0
 40
3.0
100
AcDbArc
 50
359.9999776881807
 51
90.00002800402569
  0
LINE
  5
16F14
330
1F
100
AcDbEntity
  8
AM_0
100
AcDbLine
 10
301.1663179974379
 20
57.15176514579124
 30
0.0
 11
322.1663179974561
 21
57.15176514579124
 31
0.0
  0
ARC
  5
16F15
330
1F
100
AcDbEntity
  8
AM_0
100
AcDbCircle
 10
301.1663179974379
 20
59.15176514579124
 30
0.0
 40
2.0
100
AcDbArc
 50
180.0
 51
270.0
1001
GENIUS_GENODEF_13
1002
{
1000
HIER
1070
     0
1002
}
1002
{
1000
MANEDIT
1070
     0
1002
}
1002
{
1000
NOSEL
1070
     0
1002
}
1002
{
1000
BEHIND
1070
     0
1002
}
1002
{
1000
OTHER
1070
     0
1002
}
1002
{
1000
REACTOR
1002
}
1001
GENIUS_GENOBJ-N-FIL_13
1002
{
1000
OWNER
1000
GEN
1002
}
  0
LINE
  5
16F16
330
1F
100
AcDbEntity
  8
AM_0
 48
0.8
100
AcDbLine
 10
376.1663195297343
 20
146.1517651457824
 30
0.0
 11
355.166328626835
 21
146.1517651457824
 31
0.0
  0
ARC
  5
16F17
330
1F
100
AcDbEntity
  8
AM_0
 48
0.5
100
AcDbCircle
 10
350.2163362562295
 20
92.65176514578374
 30
0.0
 40
1.0
100
AcDbArc
 50
270.0
 51
0.0
1001
GENIUS_GENODEF_13
1002
{
1000
HIER
1070
     0
1002
}
1002
{
1000
MANEDIT
1070
     0
1002
}
1002
{
1000
NOSEL
1070
     0
1002
}
1002
{
1000
BEHIND
1070
     0
1002
}
1002
{
1000
OTHER
1070
     0
1002
}
1002
{
1000
REACTOR
1002
}
1001
GENIUS_GENOBJ-N-FIL_13
1002
{
1000
OWNER
1000
GEN
1002
}
  0
CIRCLE
  5
16F18
330
1F
100
AcDbEntity
  8
AM_0
 48
0.5
100
AcDbCircle
 10
366.6663286254162
 20
131.6517651457824
 30
0.0
 40
3.2
  0
CIRCLE
  5
16F19
330
1F
100
AcDbEntity
  8
AM_0
100
AcDbCircle
 10
366.6663438841989
 20
71.65176514579056
 30
0.0
 40
3.2
  0
DIMENSION
  5
16F1A
330
1F
100
AcDbEntity
  8
AM_5
100
AcDbDimension
  2
*D14
 10
392.5663286254144
 20
71.65176514579056
 30
0.0
 11
392.5663286254144
 21
101.6517651457867
 31
0.0
 70
   160
  1
<>
 71
     5
 42
59.99999999999184
  3
SYS$0
100
AcDbAlignedDimension
 13
372.8663286254163
 23
131.6517651457824
 33
0.0
 14
372.8663438841989
 24
71.65176514579056
 34
0.0
 50
90.0
100
AcDbRotatedDimension
1001
ACAD
1000
DSTYLE
1002
{
1070
   286
1070
     0
1070
   284
1070
     8
1070
   274
1070
     2
1070
   272
1070
     2
1070
    47
1040
0.2
1070
    48
1040
0.2
1002
}
1001
ACAD_DSTYLE_DIMINSPECT
1070
   396
1000
100%
1070
   395
1000

1070
   394
1070
    33
1070
   393
1070
     0
  0
DIMENSION
  5
16F1B
330
1F
100
AcDbEntity
  8
AM_5
100
AcDbDimension
  2
*D15
 10
348.1663133680426
 20
43.15176514579147
 30
0.0
 11
339.1663171825386
 21
43.15176514579147
 31
0.0
 70
   160
 71
     5
 42
17.99999237100769
  3
SYS$0
100
AcDbAlignedDimension
 13
330.1663209970349
 23
57.15176514578238
 33
0.0
 14
348.1663133680426
 24
57.1517571846783
 34
0.0
100
AcDbRotatedDimension
1001
ACAD_DSTYLE_DIMINSPECT
1070
   396
1000
100%
1070
   395
1000

1070
   394
1070
    33
1070
   393
1070
     0
1001
ACAD
1000
DSTYLE
1002
{
1070
     3
1000
%%c<>
1070
    47
1040
0.2
1070
    48
1040
0.2
1002
}
  0
LINE
  5
16F1C
330
1F
100
AcDbEntity
  8
AM_0
 48
0.5
100
AcDbLine
 10
350.216328626835
 20
111.6517651457816
 30
0.0
 11
328.1163057386516
 21
111.6517651457816
 31
0.0
  0
ARC
  5
16F1D
330
1F
100
AcDbEntity
  8
AM_0
 48
0.5
100
AcDbCircle
 10
328.1163057386516
 20
110.6517651457816
 30
0.0
 40
1.0
100
AcDbArc
 50
90.0
 51
180.0
1001
GENIUS_GENOBJ-N-FIL_13
1002
{
1000
OWNER
1000
GEN
1002
}
1001
GENIUS_GENODEF_13
1002
{
1000
HIER
1070
     0
1002
}
1002
{
1000
MANEDIT
1070
     0
1002
}
1002
{
1000
NOSEL
1070
     0
1002
}
1002
{
1000
BEHIND
1070
     0
1002
}
1002
{
1000
OTHER
1070
     0
1002
}
1002
{
1000
REACTOR
1002
}
  0
ARC
  5
16F1E
330
1F
100
AcDbEntity
  8
AM_0
 48
0.5
100
AcDbCircle
 10
350.216328626835
 20
110.6517651457816
 30
0.0
 40
1.0
100
AcDbArc
 50
0.0
 51
90.0
1001
GENIUS_GENODEF_13
1002
{
1000
HIER
1070
     0
1002
}
1002
{
1000
MANEDIT
1070
     0
1002
}
1002
{
1000
NOSEL
1070
     0
1002
}
1002
{
1000
BEHIND
1070
     0
1002
}
1002
{
1000
OTHER
1070
     0
1002
}
1002
{
1000
REACTOR
1002
}
1001
GENIUS_GENOBJ-N-FIL_13
1002
{
1000
OWNER
1000
GEN
1002
}
  0
LINE
  5
16F1F
330
1F
100
AcDbEntity
  8
AM_0
 48
0.5
100
AcDbLine
 10
376.1663209960217
 20
57.15176514579136
 30
0.0
 11
330.166328626835
 21
57.15176514579136
 31
0.0
  0
CIRCLE
  5
16F21
330
1F
100
AcDbEntity
  8
AM_0
100
AcDbCircle
 10
339.1663209870324
 20
215.2733440015206
 30
0.0
 40
8.500015258789971
  0
LINE
  5
16F22
330
1F
100
AcDbEntity
  8
AM_7
100
AcDbLine
 10
354.2163209909203
 20
215.2733440015192
 30
0.0
 11
324.1163209909206
 21
215.2733440015206
 31
0.0
1001
GENIUS_GENODEF_13
1002
{
1000
HIER
1070
     0
1002
}
1002
{
1000
MANEDIT
1070
     0
1002
}
1002
{
1000
NOSEL
1070
     0
1002
}
1002
{
1000
BEHIND
1070
     0
1002
}
1002
{
1000
OTHER
1070
     0
1002
}
1002
{
1000
REACTOR
1002
}
1001
GENIUS_GENOBJ-N-CEN_13
1002
{
1000
OWNER
1000
GEN
1002
}
1001
GENIUS_GENCEN_19
1002
{
1040
4.0
1002
}
  0
LINE
  5
16F23
330
1F
100
AcDbEntity
  8
AM_7
100
AcDbLine
 10
339.1663209870297
 20
200.2233439995209
 30
0.0
 11
339.1663209870348
 21
230.3233440042145
 31
0.0
1001
GENIUS_GENOBJ-N-CEN_13
1002
{
1000
OWNER
1000
GEN
1002
}
1001
GENIUS_GENODEF_13
1002
{
1000
HIER
1070
     0
1002
}
1002
{
1000
MANEDIT
1070
     0
1002
}
1002
{
1000
NOSEL
1070
     0
1002
}
1002
{
1000
BEHIND
1070
     0
1002
}
1002
{
1000
OTHER
1070
     0
1002
}
1002
{
1000
REACTOR
1002
}
1001
GENIUS_GENCEN_19
1002
{
1040
4.0
1002
}
  0
CIRCLE
  5
16F24
330
1F
100
AcDbEntity
  8
AM_0
100
AcDbCircle
 10
339.1663209911389
 20
215.2733439994087
 30
0.0
 40
8.5
  0
DIMENSION
  5
16F25
330
1F
100
AcDbEntity
  8
AM_5
100
AcDbDimension
  2
*D16
 10
392.1663209948059
 20
215.2733440015192
 30
0.0
 11
389.0663209948058
 21
225.0233440007615
 31
0.0
 70
    32
 71
     5
 42
19.49999999848444
  3
SYS$0
100
AcDbAlignedDimension
 13
380.3663209874267
 23
234.7733440000037
 33
0.0
 14
354.2163209909203
 24
215.2733440015192
 34
0.0
 50
90.0
100
AcDbRotatedDimension
1001
ACAD_DSTYLE_DIMINSPECT
1070
   396
1000
100%
1070
   395
1000

1070
   394
1070
    33
1070
   393
1070
     0
1001
ACAD
1000
DSTYLE
1002
{
1070
    75
1070
     1
1002
}
  0
CIRCLE
  5
16F26
330
1F
100
AcDbEntity
  8
AM_0
100
AcDbCircle
 10
339.1663209869598
 20
215.273344001528
 30
0.0
 40
8.500015258789971
  0
LINE
  5
16F27
330
1F
100
AcDbEntity
  8
AM_7
100
AcDbLine
 10
324.1163209831442
 20
215.2733440015191
 30
0.0
 11
354.2163209831441
 21
215.2733440015205
 31
0.0
1001
GENIUS_GENODEF_13
1002
{
1000
HIER
1070
     0
1002
}
1002
{
1000
MANEDIT
1070
     0
1002
}
1002
{
1000
NOSEL
1070
     0
1002
}
1002
{
1000
BEHIND
1070
     0
1002
}
1002
{
1000
OTHER
1070
     0
1002
}
1002
{
1000
REACTOR
1002
}
1001
GENIUS_GENOBJ-N-CEN_13
1002
{
1000
OWNER
1000
GEN
1002
}
1001
GENIUS_GENCEN_19
1002
{
1040
4.0
1002
}
  0
LINE
  5
16F28
330
1F
100
AcDbEntity
  8
AM_7
100
AcDbLine
 10
339.1663209870348
 20
200.2233439995208
 30
0.0
 11
339.1663209870297
 21
230.3233440042143
 31
0.0
1001
GENIUS_GENOBJ-N-CEN_13
1002
{
1000
OWNER
1000
GEN
1002
}
1001
GENIUS_GENODEF_13
1002
{
1000
HIER
1070
     0
1002
}
1002
{
1000
MANEDIT
1070
     0
1002
}
1002
{
1000
NOSEL
1070
     0
1002
}
1002
{
1000
BEHIND
1070
     0
1002
}
1002
{
1000
OTHER
1070
     0
1002
}
1002
{
1000
REACTOR
1002
}
1001
GENIUS_GENCEN_19
1002
{
1040
4.0
1002
}
  0
ARC
  5
16F29
330
1F
100
AcDbEntity
  8
AM_0
100
AcDbCircle
 10
331.5599806710691
 20
220.8641567643761
 30
0.0
 40
2.999999999999998
100
AcDbArc
 50
26.51371420275144
 51
42.99999999996495
1001
GENIUS_GENODEF_13
1002
{
1000
HIER
1070
     0
1002
}
1002
{
1000
MANEDIT
1070
     0
1002
}
1002
{
1000
NOSEL
1070
     0
1002
}
1002
{
1000
BEHIND
1070
     0
1002
}
1002
{
1000
OTHER
1070
     0
1002
}
1002
{
1000
REACTOR
1002
}
1001
GENIUS_GENOBJ-N-FIL_13
1002
{
1000
OWNER
1000
GEN
1002
}
  0
LINE
  5
16F2A
330
1F
100
AcDbEntity
  8
AM_0
100
AcDbLine
 10
334.0020173881327
 20
222.6442305571843
 30
0.0
 11
334.288914389036
 21
222.2347493536727
 31
0.0
  0
ARC
  5
16F2B
330
1F
100
AcDbEntity
  8
AM_0
100
AcDbCircle
 10
339.1663209878503
 20
215.2733440025234
 30
0.0
 40
9.00000000040745
100
AcDbArc
 50
143.6151078581582
 51
125.0164439415601
  0
ARC
  5
16F2C
330
1F
100
AcDbEntity
  8
AM_0
100
AcDbCircle
 10
331.5183436773774
 20
220.9088069884932
 30
0.0
 40
0.5
100
AcDbArc
 50
323.6151078581581
 51
42.99999999990302
1001
GENIUS_GENODEF_13
1002
{
1000
HIER
1070
     0
1002
}
1002
{
1000
MANEDIT
1070
     0
1002
}
1002
{
1000
NOSEL
1070
     0
1002
}
1002
{
1000
BEHIND
1070
     0
1002
}
1002
{
1000
OTHER
1070
     0
1002
}
1002
{
1000
REACTOR
1002
}
1001
GENIUS_GENOBJ-N-FIL_13
1002
{
1000
OWNER
1000
GEN
1002
}
  0
LINE
  5
16F2D
330
1F
100
AcDbEntity
  8
AM_0
 48
0.5
100
AcDbLine
 10
379.1663209855997
 20
227.7733440000027
 30
0.0
 11
379.1663209855997
 21
228.7733440000035
 31
0.0
  0
LINE
  5
16F2E
330
1F
100
AcDbEntity
  8
AM_0
 48
0.5
100
AcDbLine
 10
352.9667312636575
 20
227.7733440000036
 30
0.0
 11
379.1663209855997
 21
227.7733439999982
 31
0.0
  0
LINE
  5
16F2F
330
1F
100
AcDbEntity
  8
AM_0
 48
0.5
100
AcDbLine
 10
352.7493250761799
 20
230.2733440000018
 30
0.0
 11
353.9663362476344
 21
230.2733440000036
 31
0.0
  0
LINE
  5
16F30
330
1F
100
AcDbEntity
  8
AM_0
100
AcDbLine
 10
350.5552639713205
 20
229.3193390801878
 30
0.0
 11
346.4258728036284
 21
224.8911092004945
 31
0.0
  0
LINE
  5
16F31
330
1F
100
AcDbEntity
  8
AM_0
100
AcDbLine
 10
352.2353775620359
 20
227.4553423600654
 30
0.0
 11
348.2542570582564
 21
223.1861133009587
 31
0.0
  0
ARC
  5
16F32
330
1F
100
AcDbEntity
  8
AM_0
 48
0.5
100
AcDbCircle
 10
352.7493250761799
 20
227.2733440000018
 30
0.0
 40
3.0
100
AcDbArc
 50
90.0
 51
137.0000000000537
1001
GENIUS_GENODEF_13
1002
{
1000
HIER
1070
     0
1002
}
1002
{
1000
MANEDIT
1070
     0
1002
}
1002
{
1000
NOSEL
1070
     0
1002
}
1002
{
1000
BEHIND
1070
     0
1002
}
1002
{
1000
OTHER
1070
     0
1002
}
1002
{
1000
REACTOR
1002
}
1001
GENIUS_GENOBJ-N-FIL_13
1002
{
1000
OWNER
1000
GEN
1002
}
  0
ARC
  5
16F33
330
1F
100
AcDbEntity
  8
AM_0
100
AcDbCircle
 10
352.9667312636575
 20
226.7733440000037
 30
0.0
 40
1.0
100
AcDbArc
 50
90.0
 51
137.0000000000537
1001
GENIUS_GENODEF_13
1002
{
1000
HIER
1070
     0
1002
}
1002
{
1000
MANEDIT
1070
     0
1002
}
1002
{
1000
NOSEL
1070
     0
1002
}
1002
{
1000
BEHIND
1070
     0
1002
}
1002
{
1000
OTHER
1070
     0
1002
}
1002
{
1000
REACTOR
1002
}
1001
GENIUS_GENOBJ-N-FIL_13
1002
{
1000
OWNER
1000
GEN
1002
}
  0
LINE
  5
16F34
330
1F
100
AcDbEntity
  8
AM_7
100
AcDbLine
 10
366.6663209874273
 20
224.7733440000008
 30
0.0
 11
366.6663209874222
 21
252.7733440127052
 31
0.0
  0
INSERT
  5
16F35
330
1F
100
AcDbEntity
  8
AM_0
100
AcDbBlockReference
  2
板1
 10
7939.197012614599
 20
7731.260579678586
 30
0.0
 50
180.0
  0
LINE
  5
16F36
330
1F
100
AcDbEntity
  8
AM_11
100
AcDbLine
 10
292.6663209874222
 20
247.7733440034038
 30
0.0
 11
403.7798449877782
 21
247.7733440034156
 31
0.0
  0
LINE
  5
16F37
330
1F
100
AcDbEntity
  8
AM_11
100
AcDbLine
 10
292.6663209874222
 20
234.7733440034133
 30
0.0
 11
403.7798449877782
 21
234.7733440034133
 31
0.0
  0
INSERT
  5
16F38
330
1F
100
AcDbEntity
  8
AM_0
100
AcDbBlockReference
  2
板1
 10
7884.197012613821
 20
-7268.713891650303
 30
0.0
 41
-1.0
  0
LINE
  5
16F55
330
1F
100
AcDbEntity
  8
AM_7
100
AcDbLine
 10
311.6663209866435
 20
208.9733439892669
 30
0.0
 11
311.6663209866392
 21
233.3733440003468
 31
0.0
  0
LINE
  5
16F56
330
1F
100
AcDbEntity
  8
AM_11
100
AcDbLine
 10
268.4584135487404
 20
227.7733439999837
 30
0.0
 11
324.6663209958271
 21
227.7733439999873
 31
0.0
  0
LINE
  5
16F57
330
1F
100
AcDbEntity
  8
AM_11
 48
0.8
100
AcDbLine
 10
324.6663209958271
 20
227.7733439999873
 30
0.0
 11
324.6663209958271
 21
214.7733439999873
 31
0.0
  0
LINE
  5
16F58
330
1F
100
AcDbEntity
  8
AM_11
100
AcDbLine
 10
268.4584135487404
 20
214.7733439999873
 30
0.0
 11
324.6663209958271
 21
214.7733439999873
 31
0.0
  0
LINE
  5
16F59
330
1F
100
AcDbEntity
  8
AM_11
 48
0.8
100
AcDbLine
 10
292.6663209874222
 20
247.7733440034133
 30
0.0
 11
292.6663209874222
 21
234.7733440034133
 31
0.0
  0
LINE
  5
16F5A
330
1F
100
AcDbEntity
  8
AM_0
100
AcDbLine
 10
379.1663209874246
 20
234.7733440034133
 30
0.0
 11
354.1663209874246
 21
234.7733440034133
 31
0.0
  0
LINE
  5
16F5B
330
1F
100
AcDbEntity
  8
AM_0
 48
0.5
100
AcDbLine
 10
299.1663209884637
 20
227.7733439999845
 30
0.0
 11
299.1663209884628
 21
230.2733439999845
 31
0.0
  0
LINE
  5
16F5C
330
1F
100
AcDbEntity
  8
AM_0
 48
0.5
100
AcDbLine
 10
325.3659107104062
 20
227.7733439999945
 30
0.0
 11
309.6163209866464
 21
227.7733439999857
 31
0.0
  0
LINE
  5
16F5D
330
1F
100
AcDbEntity
  8
AM_0
 48
0.5
100
AcDbLine
 10
309.6163209866464
 20
227.7733439999857
 30
0.0
 11
299.1663209884637
 21
227.77334399998
 31
0.0
  0
LINE
  5
16F5E
330
1F
100
AcDbEntity
  8
AM_0
 48
0.5
100
AcDbLine
 10
325.5833168978825
 20
230.2733439999927
 30
0.0
 11
299.1663209884628
 21
230.2733439999836
 31
0.0
  0
LINE
  5
16F5F
330
1F
100
AcDbEntity
  8
AM_0
100
AcDbLine
 10
327.7773780027428
 20
229.3193390801796
 30
0.0
 11
334.0020174066577
 21
222.6442305522281
 31
0.0
  0
LINE
  5
16F60
330
1F
100
AcDbEntity
  8
AM_0
100
AcDbLine
 10
326.0972644120284
 20
227.4553423600571
 30
0.0
 11
331.8840205281875
 21
221.2498061685236
 31
0.0
  0
ARC
  5
16F61
330
1F
100
AcDbEntity
  8
AM_0
 48
0.5
100
AcDbCircle
 10
325.5833168978843
 20
227.2733439999927
 30
0.0
 40
3.0
100
AcDbArc
 50
42.99999999994623
 51
90.0
1001
GENIUS_GENODEF_13
1002
{
1000
HIER
1070
     0
1002
}
1002
{
1000
MANEDIT
1070
     0
1002
}
1002
{
1000
NOSEL
1070
     0
1002
}
1002
{
1000
BEHIND
1070
     0
1002
}
1002
{
1000
OTHER
1070
     0
1002
}
1002
{
1000
REACTOR
1002
}
1001
GENIUS_GENOBJ-N-FIL_13
1002
{
1000
OWNER
1000
GEN
1002
}
  0
ARC
  5
16F62
330
1F
100
AcDbEntity
  8
AM_0
100
AcDbCircle
 10
325.3659107104068
 20
226.7733439999946
 30
0.0
 40
1.0
100
AcDbArc
 50
42.99999999994623
 51
90.0
1001
GENIUS_GENODEF_13
1002
{
1000
HIER
1070
     0
1002
}
1002
{
1000
MANEDIT
1070
     0
1002
}
1002
{
1000
NOSEL
1070
     0
1002
}
1002
{
1000
BEHIND
1070
     0
1002
}
1002
{
1000
OTHER
1070
     0
1002
}
1002
{
1000
REACTOR
1002
}
1001
GENIUS_GENOBJ-N-FIL_13
1002
{
1000
OWNER
1000
GEN
1002
}
  0
LINE
  5
16F79
330
1F
100
AcDbEntity
  8
AM_CL
100
AcDbLine
 10
325.800723085371
 20
144.1517651457823
 30
0.0
 11
325.800723085371
 21
110.6517651457833
 31
0.0
  0
LINE
  5
16F7A
330
1F
100
AcDbEntity
  8
AM_CL
100
AcDbLine
 10
352.5319189095101
 20
59.15176514578249
 30
0.0
 11
352.5319189095101
 21
92.65176514578147
 31
0.0
  0
ARC
  5
16F7B
330
1F
100
AcDbEntity
  8
AM_0
 48
0.5
100
AcDbCircle
 10
322.1663179974389
 20
144.1517651457836
 30
0.0
 40
2.0
100
AcDbArc
 50
0.0
 51
89.99998201390118
  0
LINE
  5
16F7C
330
1F
100
AcDbEntity
  8
AM_0
100
AcDbLine
 10
324.1663179974561
 20
59.15176514579124
 30
0.0
 11
324.1663179974561
 21
144.1517651457836
 31
0.0
  0
ARC
  5
16F7D
330
1F
100
AcDbEntity
  8
AM_0
100
AcDbCircle
 10
322.1663179974561
 20
59.15176514579124
 30
0.0
 40
2.0
100
AcDbArc
 50
270.0
 51
0.0
1001
GENIUS_GENODEF_13
1002
{
1000
HIER
1070
     0
1002
}
1002
{
1000
MANEDIT
1070
     0
1002
}
1002
{
1000
NOSEL
1070
     0
1002
}
1002
{
1000
BEHIND
1070
     0
1002
}
1002
{
1000
OTHER
1070
     0
1002
}
1002
{
1000
REACTOR
1002
}
1001
GENIUS_GENOBJ-N-FIL_13
1002
{
1000
OWNER
1000
GEN
1002
}
  0
LINE
  5
16F7F
330
1F
100
AcDbEntity
  8
0スペーサー
100
AcDbLine
 10
353.9663362476344
 20
230.2733440000036
 30
0.0
 11
353.9663362476344
 21
234.7733440000037
 31
0.0
  0
LINE
  5
16F80
330
1F
100
AcDbEntity
  8
0スペーサー
100
AcDbLine
 10
380.3663209874267
 20
228.7733440000037
 30
0.0
 11
380.3663209874267
 21
234.7733440000037
 31
0.0
  0
LINE
  5
16F82
330
1F
100
AcDbEntity
  8
0スペーサー
100
AcDbLine
 10
354.9663362476345
 20
228.7733440000037
 30
0.0
 11
380.3663209874267
 21
228.7733440000037
 31
0.0
  0
LINE
  5
16F83
330
1F
100
AcDbEntity
  8
0スペーサー
100
AcDbLine
 10
353.9663362476344
 20
234.7733440000037
 30
0.0
 11
380.3663209874267
 21
234.7733440000037
 31
0.0
  0
LINE
  5
16F84
330
1F
100
AcDbEntity
  8
0スペーサー
100
AcDbLine
 10
353.9663362476344
 20
230.2733440000036
 30
0.0
 11
354.9663362476345
 21
230.2733440000036
 31
0.0
  0
LINE
  5
16F86
330
1F
100
AcDbEntity
  8
0スペーサー
100
AcDbLine
 10
354.9663362476345
 20
230.2733440000036
 30
0.0
 11
354.9663362476345
 21
228.7733440000037
 31
0.0
  0
LINE
  5
16F87
330
1F
100
AcDbEntity
  8
0スペーサー
100
AcDbLine
 10
379.3663286254143
 20
59.6517651457934
 30
0.0
 11
379.3663286254143
 21
143.6517651457824
 31
0.0
  0
LINE
  5
16F88
330
1F
100
AcDbEntity
  8
0スペーサー
100
AcDbLine
 10
380.5663286254144
 20
59.6517651457934
 30
0.0
 11
380.5663286254144
 21
143.6517651457824
 31
0.0
  0
ARC
  5
16F89
330
1F
100
AcDbEntity
  8
0スペーサー
100
AcDbCircle
 10
376.3663286254143
 20
143.6517651457824
 30
0.0
 40
3.0
100
AcDbArc
 50
0.0
 51
90.0
1001
GENIUS_GENODEF_13
1002
{
1000
HIER
1070
     0
1002
}
1002
{
1000
MANEDIT
1070
     0
1002
}
1002
{
1000
NOSEL
1070
     0
1002
}
1002
{
1000
BEHIND
1070
     0
1002
}
1002
{
1000
OTHER
1070
     0
1002
}
1002
{
1000
REACTOR
1002
}
1001
GENIUS_GENOBJ-N-FIL_13
1002
{
1000
OWNER
1000
GEN
1002
}
  0
ARC
  5
16F8A
330
1F
100
AcDbEntity
  8
0スペーサー
100
AcDbCircle
 10
376.3663286254143
 20
143.6517651457824
 30
0.0
 40
4.2
100
AcDbArc
 50
0.0
 51
90.0
1001
GENIUS_GENODEF_13
1002
{
1000
HIER
1070
     0
1002
}
1002
{
1000
MANEDIT
1070
     0
1002
}
1002
{
1000
NOSEL
1070
     0
1002
}
1002
{
1000
BEHIND
1070
     0
1002
}
1002
{
1000
OTHER
1070
     0
1002
}
1002
{
1000
REACTOR
1002
}
1001
GENIUS_GENOBJ-N-FIL_13
1002
{
1000
OWNER
1000
GEN
1002
}
  0
LINE
  5
16F8B
330
1F
100
AcDbEntity
  8
0スペーサー
100
AcDbLine
 10
355.1663438856222
 20
56.6517651457925
 30
0.0
 11
376.3663286254145
 21
56.6517651457934
 31
0.0
  0
LINE
  5
16F8C
330
1F
100
AcDbEntity
  8
0スペーサー
100
AcDbLine
 10
355.1663438856222
 20
55.45176514579257
 30
0.0
 11
376.3663286254145
 21
55.45176514579336
 31
0.0
  0
ARC
  5
16F8D
330
1F
100
AcDbEntity
  8
0スペーサー
100
AcDbCircle
 10
376.3663286254143
 20
59.6517651457934
 30
0.0
 40
3.0
100
AcDbArc
 50
270.0000000000033
 51
0.0
1001
GENIUS_GENODEF_13
1002
{
1000
HIER
1070
     0
1002
}
1002
{
1000
MANEDIT
1070
     0
1002
}
1002
{
1000
NOSEL
1070
     0
1002
}
1002
{
1000
BEHIND
1070
     0
1002
}
1002
{
1000
OTHER
1070
     0
1002
}
1002
{
1000
REACTOR
1002
}
1001
GENIUS_GENOBJ-N-FIL_13
1002
{
1000
OWNER
1000
GEN
1002
}
  0
ARC
  5
16F8E
330
1F
100
AcDbEntity
  8
0スペーサー
100
AcDbCircle
 10
376.3663286254143
 20
59.6517651457934
 30
0.0
 40
4.2
100
AcDbArc
 50
270.0000000000033
 51
0.0
1001
GENIUS_GENODEF_13
1002
{
1000
HIER
1070
     0
1002
}
1002
{
1000
MANEDIT
1070
     0
1002
}
1002
{
1000
NOSEL
1070
     0
1002
}
1002
{
1000
BEHIND
1070
     0
1002
}
1002
{
1000
OTHER
1070
     0
1002
}
1002
{
1000
REACTOR
1002
}
1001
GENIUS_GENOBJ-N-FIL_13
1002
{
1000
OWNER
1000
GEN
1002
}
  0
LINE
  5
16F8F
330
1F
100
AcDbEntity
  8
0スペーサー
100
AcDbLine
 10
355.1663438856222
 20
146.6517651457824
 30
0.0
 11
376.3663286254143
 21
146.6517651457824
 31
0.0
  0
LINE
  5
16F90
330
1F
100
AcDbEntity
  8
0スペーサー
100
AcDbLine
 10
355.1663438856222
 20
147.8517651457824
 30
0.0
 11
376.3663286254143
 21
147.8517651457824
 31
0.0
  0
LINE
  5
16F91
330
1F
100
AcDbEntity
  8
0スペーサー
100
AcDbLine
 10
355.1663438856222
 20
56.65176514589865
 30
0.0
 11
355.1663438856223
 21
55.45176514579257
 31
0.0
  0
LINE
  5
16F92
330
1F
100
AcDbEntity
  8
0スペーサー
100
AcDbLine
 10
355.1663438856222
 20
147.8517651457824
 30
0.0
 11
355.1663438856222
 21
146.6517651456661
 31
0.0
  0
LINE
  5
16F93
330
1F
100
AcDbEntity
  8
0スペーサー
100
AcDbLine
 10
355.1663438856222
 20
146.1517651457824
 30
0.0
 11
355.166343885622
 21
146.1517651457825
 31
0.0
  0
ARC
  5
16F94
330
1F
100
AcDbEntity
  8
0スペーサー
100
AcDbCircle
 10
355.1663591444092
 20
145.6517651457825
 30
0.0
 40
1.0
100
AcDbArc
 50
90.0
 51
180.0
1001
GENIUS_GENODEF_13
1002
{
1000
HIER
1070
     0
1002
}
1002
{
1000
MANEDIT
1070
     0
1002
}
1002
{
1000
NOSEL
1070
     0
1002
}
1002
{
1000
BEHIND
1070
     0
1002
}
1002
{
1000
OTHER
1070
     0
1002
}
1002
{
1000
REACTOR
1002
}
1001
GENIUS_GENOBJ-N-FIL_13
1002
{
1000
OWNER
1000
GEN
1002
}
  0
LINE
  5
16F95
330
1F
100
AcDbEntity
  8
0スペーサー
100
AcDbLine
 10
355.1663438856222
 20
57.15176514579249
 30
0.0
 11
355.1663438856222
 21
57.15176514579249
 31
0.0
  0
LINE
  5
16F96
330
1F
100
AcDbEntity
  8
0スペーサー
100
AcDbLine
 10
354.1663591444092
 20
145.6517651457825
 30
0.0
 11
354.1663438856222
 21
94.65176514578226
 31
0.0
  0
DIMENSION
  5
16F97
330
1F
100
AcDbEntity
  8
AM_5
100
AcDbDimension
  2
*D17
 10
289.1663179974379
 20
57.15176514579124
 30
0.0
 11
286.0663179974379
 21
101.6517651457866
 31
0.0
 70
    32
  1
<>
 71
     5
 42
88.99999999999071
  3
SYS$0
100
AcDbAlignedDimension
 13
301.1663179974379
 23
146.1517651457819
 33
0.0
 14
301.1663179974379
 24
57.15176514579124
 34
0.0
 50
90.0
100
AcDbRotatedDimension
1001
ACAD
1000
DSTYLE
1002
{
1070
   286
1070
     0
1070
   284
1070
     8
1070
   274
1070
     2
1070
   272
1070
     2
1070
    47
1040
0.2
1070
    48
1040
0.2
1002
}
1001
ACAD_DSTYLE_DIMINSPECT
1070
   396
1000
100%
1070
   395
1000

1070
   394
1070
    33
1070
   393
1070
     0
  0
DIMENSION
  5
16F98
330
1F
100
AcDbEntity
  8
AM_5
100
AcDbDimension
  2
*D12
 10
278.1663199884627
 20
227.7733439999845
 30
0.0
 11
275.0663199884627
 21
231.273344001699
 31
0.0
 70
    32
 71
     5
 42
7.000000003428795
  3
SYS$0
100
AcDbAlignedDimension
 13
292.6663209874222
 23
234.7733440034133
 33
0.0
 14
299.1663209884637
 24
227.7733439999845
 34
0.0
 50
90.0
100
AcDbRotatedDimension
1001
ACAD_DSTYLE_DIMINSPECT
1070
   396
1000
100%
1070
   395
1000

1070
   394
1070
    33
1070
   393
1070
     0
1001
ACAD
1000
DSTYLE
1002
{
1070
    76
1070
     1
1002
}
  0
DIMENSION
  5
16F99
330
1F
100
AcDbEntity
  8
AM_5
100
AcDbDimension
  2
*D13
 10
278.1663199884491
 20
214.7733439999873
 30
0.0
 11
275.0663199884491
 21
221.2733439999827
 31
0.0
 70
    32
  1
Dt
 71
     5
 42
12.99999999999079
  3
SYS$0
100
AcDbAlignedDimension
 13
290.5606798935456
 23
227.7733439999781
 33
0.0
 14
290.5606798935456
 24
214.7733439999873
 34
0.0
 50
90.00000000000325
100
AcDbRotatedDimension
1001
ACAD_DSTYLE_DIMINSPECT
1070
   396
1000
100%
1070
   395
1000

1070
   394
1070
    33
1070
   393
1070
     0
1001
ACAD
1000
DSTYLE
1002
{
1070
    75
1070
     1
1070
    76
1070
     1
1002
}
  0
DIMENSION
  5
16F9B
330
1F
100
AcDbEntity
  8
AM_5
100
AcDbDimension
  2
*D18
 10
379.1663209960217
 20
168.1517651457778
 30
0.0
 11
339.1663194967298
 21
171.2517651457778
 31
0.0
 70
    32
 71
     5
 42
80.00000299858379
  3
SYS$0
100
AcDbAlignedDimension
 13
299.1663179974379
 23
144.1517651457819
 33
0.0
 14
379.1663209960217
 24
143.1517651457828
 34
0.0
100
AcDbRotatedDimension
1001
ACAD_DSTYLE_DIMINSPECT
1070
   396
1000
100%
1070
   395
1000

1070
   394
1070
    33
1070
   393
1070
     0
  0
DIMENSION
  5
16F9C
330
1F
100
AcDbEntity
  8
AM_5
100
AcDbDimension
  2
*D19
 10
339.1663209974405
 20
158.1517651457778
 30
0.0
 11
352.9163248114285
 21
161.2517651457778
 31
0.0
 70
    32
 71
     5
 42
27.50000762797595
  3
SYS$0
100
AcDbAlignedDimension
 13
366.6663286254165
 23
137.8517651457824
 33
0.0
 14
339.1663209974405
 24
151.1517651457824
 34
0.0
 50
180.0
100
AcDbRotatedDimension
1001
ACAD_DSTYLE_DIMINSPECT
1070
   396
1000
100%
1070
   395
1000

1070
   394
1070
    33
1070
   393
1070
     0
  0
DIMENSION
  5
16F9D
330
1F
100
AcDbEntity
  8
AM_5
100
AcDbDimension
  2
*D20
 10
379.1663239974431
 20
158.1517651457774
 30
0.0
 11
372.9163263114298
 21
161.2517651457774
 31
0.0
 70
    32
 71
     5
 42
12.49999537202666
  3
SYS$0
100
AcDbAlignedDimension
 13
366.6663286254165
 23
137.8517651457824
 33
0.0
 14
379.1663239974431
 24
144.1517651457819
 34
0.0
 50
180.0
100
AcDbRotatedDimension
1001
ACAD_DSTYLE_DIMINSPECT
1070
   396
1000
100%
1070
   395
1000

1070
   394
1070
    33
1070
   393
1070
     0
  0
CIRCLE
  5
16F9F
330
1F
100
AcDbEntity
  8
AM_0
 48
0.5
100
AcDbCircle
 10
259.0074236417629
 20
131.6517651457773
 30
0.0
 40
4.25
  0
HATCH
  5
16FA0
330
1F
100
AcDbEntity
  8
AM_8
100
AcDbHatch
 10
0.0
 20
0.0
 30
0.0
210
0.0
220
0.0
230
1.0
  2
ANSI31
 70
     0
 71
     0
 91
        1
 92
        1
 93
        1
 72
     2
 10
259.0074236417629
 20
131.6517651457768
 40
4.25
 50
0.0
 51
359.9999826971567
 73
     1
 97
        0
 75
     0
 76
     1
 52
0.0
 41
0.5
 77
     0
 78
     1
 53
45.0
 43
215.2173693204738
 44
136.1042950530034
 45
-1.122532015133643
 46
1.122532015133644
 79
     0
 98
        1
 10
215.2173693204738
 20
136.1042950530034
  0
LINE
  5
16FA1
330
1F
100
AcDbEntity
  8
AM_7
 48
0.8
100
AcDbLine
 10
196.7574083829738
 20
131.6517651457773
 30
0.0
 11
211.2574083829729
 21
131.6517651457773
 31
0.0
  0
CIRCLE
  5
16FA2
330
1F
100
AcDbEntity
  8
AM_0
 48
0.5
100
AcDbCircle
 10
204.0074236417629
 20
131.6517651457773
 30
0.0
 40
4.25
  0
LINE
  5
16FA3
330
1F
100
AcDbEntity
  8
AM_7
 48
0.8
100
AcDbLine
 10
266.2574236417629
 20
131.6517651457773
 30
0.0
 11
251.7574236417629
 21
131.6517651457773
 31
0.0
  0
CIRCLE
  5
16FA4
330
1F
100
AcDbEntity
  8
AM_0
 48
0.5
100
AcDbCircle
 10
259.0074236417629
 20
71.65176514577733
 30
0.0
 40
4.25
  0
HATCH
  5
16FA5
330
1F
100
AcDbEntity
  8
AM_8
100
AcDbHatch
 10
0.0
 20
0.0
 30
0.0
210
0.0
220
0.0
230
1.0
  2
ANSI31
 70
     0
 71
     0
 91
        1
 92
        1
 93
        1
 72
     2
 10
259.0074236417629
 20
71.65176514577677
 40
4.25
 50
0.0
 51
359.9999826971567
 73
     1
 97
        0
 75
     0
 76
     1
 52
0.0
 41
0.5
 77
     0
 78
     1
 53
45.0
 43
215.2173693204738
 44
136.1042950530034
 45
-1.122532015133643
 46
1.122532015133644
 79
     0
 98
        1
 10
215.2173693204738
 20
136.1042950530034
  0
CIRCLE
  5
16FA6
330
1F
100
AcDbEntity
  8
AM_0
 48
0.5
100
AcDbCircle
 10
204.0074236417629
 20
71.65176514577734
 30
0.0
 40
4.25
  0
LINE
  5
16FA7
330
1F
100
AcDbEntity
  8
AM_7
 48
0.8
100
AcDbLine
 10
196.7574083829738
 20
71.65176514577734
 30
0.0
 11
211.2574083829729
 21
71.65176514577734
 31
0.0
  0
LINE
  5
16FA8
330
1F
100
AcDbEntity
  8
AM_7
 48
0.8
100
AcDbLine
 10
266.2574236417629
 20
71.65176514577733
 30
0.0
 11
251.7574236417629
 21
71.65176514577733
 31
0.0
  0
LINE
  5
16FA9
330
1F
100
AcDbEntity
  8
AM_7
100
AcDbLine
 10
204.0074236417629
 20
138.9017727751718
 30
0.0
 11
204.0074236417629
 21
64.40177277517188
 31
0.0
  0
LINE
  5
16FAA
330
1F
100
AcDbEntity
  8
AM_7
100
AcDbLine
 10
259.0074236417629
 20
138.9017727751718
 30
0.0
 11
259.0074236417629
 21
64.40177277517186
 31
0.0
  0
LINE
  5
16FAB
330
1F
100
AcDbEntity
  8
AM_11
 48
0.8
100
AcDbLine
 10
185.0074236417629
 20
151.1517651457778
 30
0.0
 11
185.0074236417629
 21
143.6243641137223
 31
0.0
  0
DIMENSION
  5
16FAC
330
1F
100
AcDbEntity
  8
AM_5
100
AcDbDimension
  2
*D21
 10
217.0074236417629
 20
148.1517651457778
 30
0.0
 11
210.5074236417629
 21
148.1517651457778
 31
0.0
 70
   160
 71
     5
 42
13.0
  3
SYS$0
100
AcDbAlignedDimension
 13
204.0074236417629
 23
138.9017727751718
 33
0.0
 14
217.0074236417629
 24
151.1517651457778
 34
0.0
 50
0.000000000000007
100
AcDbRotatedDimension
1001
ACAD_DSTYLE_DIMINSPECT
1070
   396
1000
100%
1070
   395
1000

1070
   394
1070
    33
1070
   393
1070
     0
1001
ACAD
1000
DSTYLE
1002
{
1070
    47
1040
0.2
1070
    48
1040
0.2
1002
}
  0
DIMENSION
  5
16FAD
330
1F
100
AcDbEntity
  8
AM_5
100
AcDbDimension
  2
*D22
 10
259.0074236417629
 20
168.1517651457778
 30
0.0
 11
222.0074236417629
 21
171.2517651457778
 31
0.0
 70
    32
 71
     5
 42
74.0
  3
SYS$0
100
AcDbAlignedDimension
 13
185.0074236417629
 23
151.1517651457778
 33
0.0
 14
259.0074236417629
 24
138.9017727751718
 34
0.0
 50
180.0
100
AcDbRotatedDimension
1001
ACAD_DSTYLE_DIMINSPECT
1070
   396
1000
100%
1070
   395
1000

1070
   394
1070
    33
1070
   393
1070
     0
1001
ACAD
1000
DSTYLE
1002
{
1070
    47
1040
0.2
1070
    48
1040
0.2
1002
}
  0
MTEXT
  5
16FAE
330
1F
100
AcDbEntity
  8
AM_6
100
AcDbMText
 10
221.5888225652491
 20
106.5866473316418
 30
0.0
 40
3.2
 41
0.0
 71
     6
 72
     5
  1
{\W0.8;扉端部}
 11
0.0000000000000001
 21
1.0
 31
0.0
 73
     1
 44
1.0
  0
TEXT
  5
16FAF
330
1F
100
AcDbEntity
  8
AM_6
100
AcDbText
 10
219.1848608094209
 20
42.60419054347083
 30
0.0
 40
4.0
  1
切欠推奨寸法
 41
0.8
100
AcDbText
  0
MTEXT
  5
16FB0
330
1F
100
AcDbEntity
  8
AM_6
100
AcDbMText
 10
180.6501392245352
 20
112.0152424070641
 30
0.0
 40
3.2
 41
0.0
 71
     6
 72
     5
  1
{\W0.8;スクリーン端部}
 11
0.0000000000000001
 21
1.0
 31
0.0
 73
     1
 44
1.0
  0
DIMENSION
  5
16FB1
330
1F
100
AcDbEntity
  8
AM_5
100
AcDbDimension
  2
*D23
 10
207.1661652053863
 20
128.8083777760664
 30
0.0
 11
189.3265241768042
 21
137.7931977311692
 31
0.0
 70
   163
  1
2-<>
 71
     5
 42
8.499999999999772
  3
SYS$3
100
AcDbDiametricDimension
 15
200.8486820781373
 25
134.4951525154877
 35
0.0
 40
0.0
1001
ACAD_DSTYLE_DIMRADIAL_EXTENSION
1070
   387
1070
     1
1070
   388
1040
0.0
1070
   390
1040
0.0
1001
ACAD
1000
DSTYLE
1002
{
1070
   172
1070
     1
1070
   289
1070
     2
1070
   342
1005
14A00
1002
}
1001
ACAD_DSTYLE_DIMINSPECT
1070
   396
1000
100%
1070
   395
1000

1070
   394
1070
    33
1070
   393
1070
     0
  0
DIMENSION
  5
16FB2
330
1F
100
AcDbEntity
  8
AM_5
100
AcDbDimension
  2
*D24
 10
261.7897744250005
 20
128.4391432868927
 30
0.0
 11
244.8578047531589
 21
138.9158965250949
 31
0.0
 70
   163
  1
2-<>
 71
     5
 42
8.500000000000724
  3
SYS$3
100
AcDbDiametricDimension
 15
256.2250423409482
 25
134.8643870046619
 35
0.0
 40
0.0
1001
ACAD_DSTYLE_DIMRADIAL_EXTENSION
1070
   387
1070
     1
1070
   388
1040
0.0
1070
   390
1040
0.0
1001
ACAD
1000
DSTYLE
1002
{
1070
   172
1070
     1
1070
   289
1070
     2
1070
   342
1005
14A00
1002
}
1001
ACAD_DSTYLE_DIMINSPECT
1070
   396
1000
100%
1070
   395
1000

1070
   394
1070
    33
1070
   393
1070
     0
  0
HATCH
  5
16FB4
330
1F
100
AcDbEntity
  8
AM_8
100
AcDbHatch
 10
0.0
 20
0.0
 30
0.0
210
0.0
220
0.0
230
1.0
  2
ANSI31
 70
     0
 71
     0
 91
        1
 92
        1
 93
        1
 72
     2
 10
204.0074236417629
 20
131.6517651457768
 40
4.25
 50
0.0
 51
359.9999826971567
 73
     1
 97
        0
 75
     0
 76
     1
 52
0.0
 41
0.5
 77
     0
 78
     1
 53
45.0
 43
215.2173540616839
 44
136.1042950530034
 45
-1.122532015133643
 46
1.122532015133644
 79
     0
 98
        1
 10
215.2173540616839
 20
136.1042950530034
  0
HATCH
  5
16FB5
330
1F
100
AcDbEntity
  8
AM_8
100
AcDbHatch
 10
0.0
 20
0.0
 30
0.0
210
0.0
220
0.0
230
1.0
  2
ANSI31
 70
     0
 71
     0
 91
        1
 92
        1
 93
        1
 72
     2
 10
204.0074236417629
 20
71.65176514577678
 40
4.25
 50
0.0
 51
359.9999826971567
 73
     1
 97
        0
 75
     0
 76
     1
 52
0.0
 41
0.5
 77
     0
 78
     1
 53
45.0
 43
215.2173540616839
 44
136.1042950530034
 45
-1.122532015133643
 46
1.122532015133644
 79
     0
 98
        1
 10
215.2173540616839
 20
136.1042950530034
  0
LINE
  5
16FB6
330
1F
100
AcDbEntity
  8
AM_11
100
AcDbLine
 10
217.0074236417629
 20
51.37666200759854
 30
0.0
 11
217.0074236417629
 21
151.1517651457778
 31
0.0
  0
LINE
  5
16FBB
330
1F
100
AcDbEntity
  8
AM_0
100
AcDbLine
 10
334.2681804511424
 20
204.2090706516959
 30
0.0
 11
335.8815637033194
 21
206.8941864691037
 31
0.0
  0
LINE
  5
16FBC
330
1F
100
AcDbEntity
  8
AM_0
100
AcDbLine
 10
331.6966875115886
 20
205.7541907761309
 30
0.0
 11
333.31006353929
 21
208.4392987956578
 31
0.0
  0
LINE
  5
16FBD
330
1F
100
AcDbEntity
  8
AM_0
100
AcDbLine
 10
344.1214242478757
 20
207.760230710335
 30
0.0
 11
346.2578171801738
 21
205.4692322512139
 31
0.0
  0
LINE
  5
16FBE
330
1F
100
AcDbEntity
  8
AM_0
100
AcDbLine
 10
346.315491008944
 20
209.806224304159
 30
0.0
 11
348.4518769795889
 21
207.5152251133385
 31
0.0
  0
LINE
  5
16FBF
330
1F
100
AcDbEntity
  8
AM_0
100
AcDbLine
 10
327.0686345729741
 20
215.5100883421793
 30
0.0
 11
330.1840191637004
 21
215.8375284571461
 31
0.0
  0
LINE
  5
16FC0
330
1F
100
AcDbEntity
  8
AM_0
100
AcDbLine
 10
327.3822199627771
 20
212.5265226560745
 30
0.0
 11
330.4976045535034
 21
212.8539627710412
 31
0.0
  0
LINE
  5
16FC1
330
1F
100
AcDbEntity
  8
AM_0
100
AcDbLine
 10
348.1486158487107
 20
214.7091588148899
 30
0.0
 11
351.2640083956124
 21
215.0365997660844
 31
0.0
  0
LINE
  5
16FC2
330
1F
100
AcDbEntity
  8
AM_0
100
AcDbLine
 10
347.8350304589078
 20
217.6927245009947
 30
0.0
 11
350.9504230058094
 21
218.0201654521892
 31
0.0
  0
LINE
  5
16FC3
330
1F
100
AcDbEntity
  8
AM_0
100
AcDbLine
 10
345.0225786438314
 20
222.1073872190336
 30
0.0
 11
346.6359621050656
 21
224.7925010473977
 31
0.0
  0
LINE
  5
16FC4
330
1F
100
AcDbEntity
  8
AM_0
100
AcDbLine
 10
342.451079787909
 20
223.6524966665505
 30
0.0
 11
344.0644612093365
 21
226.3376203356052
 31
0.0
  0
LINE
  5
16FC5
330
1F
100
AcDbEntity
  8
AM_0
100
AcDbLine
 10
332.0171601248744
 20
220.7404626512886
 30
0.0
 11
329.8807664071114
 21
223.0314590168374
 31
0.0
  0
LINE
  5
16FC6
330
1F
100
AcDbEntity
  8
AM_0
100
AcDbLine
 10
334.2112192433528
 20
222.786452425319
 30
0.0
 11
332.0748254748271
 21
225.0774588406155
 31
0.0
  0
ARC
  5
16FC7
330
1F
100
AcDbEntity
  8
AM_0
100
AcDbCircle
 10
339.1663213275005
 20
215.2733455459148
 30
0.0
 40
12.09999849999999
100
AcDbArc
 50
138.9295646955004
 51
127.0704345066853
  0
LINE
  5
16FC8
330
1F
100
AcDbEntity
  8
AM_0
100
AcDbLine
 10
331.696695521997
 20
108.6517649457869
 30
0.0
 11
334.2681884615507
 21
108.6517649457869
 31
0.0
  0
LINE
  5
16FC9
330
1F
100
AcDbEntity
  8
AM_0
100
AcDbLine
 10
329.8807753918168
 20
94.65176464578687
 30
0.0
 11
332.0748265033575
 21
94.65176464578687
 31
0.0
  0
LINE
  5
16FCA
330
1F
100
AcDbEntity
  8
AM_0
100
AcDbLine
 10
346.2578251905821
 20
108.6517649457869
 30
0.0
 11
348.4518846288986
 21
108.6517649457869
 31
0.0
  0
LINE
  5
16FCB
330
1F
100
AcDbEntity
  8
AM_0
100
AcDbLine
 10
344.0644632323888
 20
94.65176464578687
 30
0.0
 11
346.6359633964186
 21
94.65176464578687
 31
0.0
  0
LINE
  5
16FCC
330
1F
100
AcDbEntity
  8
AM_0
100
AcDbLine
 10
331.696695521997
 20
111.6517651457869
 30
0.0
 11
331.696695521997
 21
108.6517649457869
 31
0.0
  0
LINE
  5
16FCD
330
1F
100
AcDbEntity
  8
AM_0
100
AcDbLine
 10
334.2681884615507
 20
111.6517651457869
 30
0.0
 11
334.2681884615507
 21
108.6517649457869
 31
0.0
  0
LINE
  5
16FCE
330
1F
100
AcDbEntity
  8
AM_0
100
AcDbLine
 10
346.2578251905821
 20
111.6517651457869
 30
0.0
 11
346.2578251905821
 21
108.6517649457869
 31
0.0
  0
LINE
  5
16FCF
330
1F
100
AcDbEntity
  8
AM_0
100
AcDbLine
 10
348.4518846288986
 20
111.6517651457869
 30
0.0
 11
348.4518846288986
 21
108.6517649457869
 31
0.0
  0
LINE
  5
16FD0
330
1F
100
AcDbEntity
  8
AM_0
100
AcDbLine
 10
329.8807753918168
 20
94.65176464578687
 30
0.0
 11
329.8807753918168
 21
91.65176514578694
 31
0.0
  0
LINE
  5
16FD1
330
1F
100
AcDbEntity
  8
AM_0
100
AcDbLine
 10
332.0748265033575
 20
94.65176464578687
 30
0.0
 11
332.0748265033575
 21
91.65176514578694
 31
0.0
  0
LINE
  5
16FD2
330
1F
100
AcDbEntity
  8
AM_0
100
AcDbLine
 10
344.0644632323888
 20
94.65176464578687
 30
0.0
 11
344.0644632323888
 21
91.65176514578694
 31
0.0
  0
LINE
  5
16FD3
330
1F
100
AcDbEntity
  8
AM_0
100
AcDbLine
 10
346.6359633964186
 20
94.65176464578687
 30
0.0
 11
346.6359633964186
 21
91.65176514578694
 31
0.0
  0
CIRCLE
  5
1717F
330
1F
100
AcDbEntity
  8
AM_0
100
AcDbCircle
 10
131.3610594075752
 20
230.7869618208069
 30
0.0
 40
0.8500015258789971
  0
CIRCLE
  5
17182
330
1F
100
AcDbEntity
  8
AM_0
100
AcDbCircle
 10
131.3610594071646
 20
230.7869618210181
 30
0.0
 40
0.85
  0
CIRCLE
  5
17184
330
1F
100
AcDbEntity
  8
AM_0
100
AcDbCircle
 10
131.3610594075825
 20
230.7869618208062
 30
0.0
 40
0.8500015258789971
  0
LINE
  5
1718B
330
1F
100
AcDbEntity
  8
AM_0
 48
0.5
100
AcDbLine
 10
127.3610594077184
 20
229.5369618209587
 30
0.0
 11
127.3610594077184
 21
229.4369618209586
 31
0.0
  0
LINE
  5
1718C
330
1F
100
AcDbEntity
  8
AM_0
 48
0.5
100
AcDbLine
 10
129.9810183799127
 20
229.5369618209586
 30
0.0
 11
127.3610594077184
 21
229.5369618209591
 31
0.0
  0
LINE
  5
1718D
330
1F
100
AcDbEntity
  8
AM_0
 48
0.5
100
AcDbLine
 10
130.0027589986604
 20
229.2869618209588
 30
0.0
 11
129.881057881515
 21
229.2869618209588
 31
0.0
  0
LINE
  5
1718E
330
1F
100
AcDbEntity
  8
AM_0
100
AcDbLine
 10
130.2221651091464
 20
229.3823623129402
 30
0.0
 11
130.6351042259156
 21
229.8251853009095
 31
0.0
  0
LINE
  5
1718F
330
1F
100
AcDbEntity
  8
AM_0
100
AcDbLine
 10
130.0541537500748
 20
229.5687619849524
 30
0.0
 11
130.4522658004528
 21
229.9956848908631
 31
0.0
  0
ARC
  5
17190
330
1F
100
AcDbEntity
  8
AM_0
 48
0.5
100
AcDbCircle
 10
130.0027589986604
 20
229.5869618209588
 30
0.0
 40
0.3
100
AcDbArc
 50
270.0
 51
317.0000000000513
1001
GENIUS_GENODEF_13
1002
{
1000
HIER
1070
     0
1002
}
1002
{
1000
MANEDIT
1070
     0
1002
}
1002
{
1000
NOSEL
1070
     0
1002
}
1002
{
1000
BEHIND
1070
     0
1002
}
1002
{
1000
OTHER
1070
     0
1002
}
1002
{
1000
REACTOR
1002
}
1001
GENIUS_GENOBJ-N-FIL_13
1002
{
1000
OWNER
1000
GEN
1002
}
  0
ARC
  5
17191
330
1F
100
AcDbEntity
  8
AM_0
100
AcDbCircle
 10
129.9810183799127
 20
229.6369618209586
 30
0.0
 40
0.1
100
AcDbArc
 50
270.0
 51
317.0000000000513
1001
GENIUS_GENODEF_13
1002
{
1000
HIER
1070
     0
1002
}
1002
{
1000
MANEDIT
1070
     0
1002
}
1002
{
1000
NOSEL
1070
     0
1002
}
1002
{
1000
BEHIND
1070
     0
1002
}
1002
{
1000
OTHER
1070
     0
1002
}
1002
{
1000
REACTOR
1002
}
1001
GENIUS_GENOBJ-N-FIL_13
1002
{
1000
OWNER
1000
GEN
1002
}
  0
LINE
  5
171B9
330
1F
100
AcDbEntity
  8
AM_0
 48
0.5
100
AcDbLine
 10
135.3610594074321
 20
229.5369618209605
 30
0.0
 11
135.3610594074322
 21
229.2869618209605
 31
0.0
  0
LINE
  5
171BA
330
1F
100
AcDbEntity
  8
AM_0
 48
0.5
100
AcDbLine
 10
132.7411004352378
 20
229.5369618209595
 30
0.0
 11
134.3160594076138
 21
229.5369618209604
 31
0.0
  0
LINE
  5
171BB
330
1F
100
AcDbEntity
  8
AM_0
 48
0.5
100
AcDbLine
 10
134.3160594076138
 20
229.5369618209604
 30
0.0
 11
135.3610594074321
 21
229.536961820961
 31
0.0
  0
LINE
  5
171BC
330
1F
100
AcDbEntity
  8
AM_0
 48
0.5
100
AcDbLine
 10
132.7193598164902
 20
229.2869618209597
 30
0.0
 11
135.3610594074322
 21
229.2869618209606
 31
0.0
  0
LINE
  5
171BD
330
1F
100
AcDbEntity
  8
AM_0
100
AcDbLine
 10
132.4999537060042
 20
229.382362312941
 30
0.0
 11
131.8430372238496
 21
230.0868189935038
 31
0.0
  0
LINE
  5
171BE
330
1F
100
AcDbEntity
  8
AM_0
100
AcDbLine
 10
132.6679650650756
 20
229.5687619849532
 30
0.0
 11
132.0258756492557
 21
230.2573185835189
 31
0.0
  0
ARC
  5
171BF
330
1F
100
AcDbEntity
  8
AM_0
 48
0.5
100
AcDbCircle
 10
132.71935981649
 20
229.5869618209597
 30
0.0
 40
0.3
100
AcDbArc
 50
222.9999999999487
 51
270.0
1001
GENIUS_GENODEF_13
1002
{
1000
HIER
1070
     0
1002
}
1002
{
1000
MANEDIT
1070
     0
1002
}
1002
{
1000
NOSEL
1070
     0
1002
}
1002
{
1000
BEHIND
1070
     0
1002
}
1002
{
1000
OTHER
1070
     0
1002
}
1002
{
1000
REACTOR
1002
}
1001
GENIUS_GENOBJ-N-FIL_13
1002
{
1000
OWNER
1000
GEN
1002
}
  0
ARC
  5
171C0
330
1F
100
AcDbEntity
  8
AM_0
100
AcDbCircle
 10
132.7411004352378
 20
229.6369618209595
 30
0.0
 40
0.1
100
AcDbArc
 50
222.9999999999487
 51
270.0
1001
GENIUS_GENODEF_13
1002
{
1000
HIER
1070
     0
1002
}
1002
{
1000
MANEDIT
1070
     0
1002
}
1002
{
1000
NOSEL
1070
     0
1002
}
1002
{
1000
BEHIND
1070
     0
1002
}
1002
{
1000
OTHER
1070
     0
1002
}
1002
{
1000
REACTOR
1002
}
1001
GENIUS_GENOBJ-N-FIL_13
1002
{
1000
OWNER
1000
GEN
1002
}
  0
LINE
  5
171D7
330
1F
100
AcDbEntity
  8
0スペーサー
100
AcDbLine
 10
129.881057881515
 20
229.2869618209586
 30
0.0
 11
129.881057881515
 21
228.8369618209586
 31
0.0
  0
LINE
  5
171D8
330
1F
100
AcDbEntity
  8
0スペーサー
100
AcDbLine
 10
127.2410594075358
 20
229.4369618209586
 30
0.0
 11
127.2410594075358
 21
228.8369618209586
 31
0.0
  0
LINE
  5
171DA
330
1F
100
AcDbEntity
  8
0スペーサー
100
AcDbLine
 10
127.3610594077184
 20
229.4369618209586
 30
0.0
 11
127.2410594075358
 21
229.4369618209586
 31
0.0
  0
LINE
  5
171DB
330
1F
100
AcDbEntity
  8
0スペーサー
100
AcDbLine
 10
129.881057881515
 20
228.8369618209586
 30
0.0
 11
127.2410594075358
 21
228.8369618209586
 31
0.0
  0
ARC
  5
171EE
330
1F
100
AcDbEntity
  8
AM_0
100
AcDbCircle
 10
131.3610593735284
 20
230.7869616663675
 30
0.0
 40
1.209999849999999
100
AcDbArc
 50
318.9295646955027
 51
307.0704345066853
  0
LINE
  5
172BA
330
1F
100
AcDbEntity
  8
AM_0
 48
0.5
100
AcDbLine
 10
135.3610594077864
 20
230.8369618193244
 30
0.0
 11
135.3610594077864
 21
231.0369618193245
 31
0.0
  0
LINE
  5
172BB
330
1F
100
AcDbEntity
  8
AM_0
 48
0.5
100
AcDbLine
 10
132.8610594077858
 20
230.8369618193244
 30
0.0
 11
132.8610594077858
 21
231.0369618193245
 31
0.0
  0
LINE
  5
172BC
330
1F
100
AcDbEntity
  8
AM_0
 48
0.5
100
AcDbLine
 10
135.3610594077864
 20
231.0369618193245
 30
0.0
 11
132.8610594077858
 21
231.0369618193245
 31
0.0
  0
LINE
  5
172BD
330
1F
100
AcDbEntity
  8
AM_0
 48
0.5
100
AcDbLine
 10
135.3610594077864
 20
230.8369618193244
 30
0.0
 11
132.8610594077858
 21
230.8369618193244
 31
0.0
  0
LINE
  5
172C4
330
1F
100
AcDbEntity
  8
AM_0
 48
0.5
100
AcDbLine
 10
129.8610594077084
 20
227.5369618197653
 30
0.0
 11
129.8610594077084
 21
227.3369618197653
 31
0.0
  0
LINE
  5
172C5
330
1F
100
AcDbEntity
  8
AM_0
 48
0.5
100
AcDbLine
 10
127.3610594077078
 20
227.5369618197653
 30
0.0
 11
127.3610594077078
 21
227.3369618197653
 31
0.0
  0
LINE
  5
172C6
330
1F
100
AcDbEntity
  8
AM_0
 48
0.5
100
AcDbLine
 10
129.8610594077084
 20
227.3369618197653
 30
0.0
 11
127.3610594077078
 21
227.3369618197653
 31
0.0
  0
LINE
  5
172C7
330
1F
100
AcDbEntity
  8
AM_0
 48
0.5
100
AcDbLine
 10
129.8610594077084
 20
227.5369618197653
 30
0.0
 11
127.3610594077078
 21
227.5369618197653
 31
0.0
  0
LINE
  5
172D2
330
1F
100
AcDbEntity
  8
AM_11
100
AcDbLine
 10
132.3510073671153
 20
231.8476233851272
 30
0.0
 11
133.2702490110849
 21
230.9283817411577
 31
0.0
  0
LINE
  5
172D3
330
1F
100
AcDbEntity
  8
AM_11
100
AcDbLine
 10
132.3510073671153
 20
231.8476233851272
 30
0.0
 11
157.8775607548162
 21
257.3741796003456
 31
0.0
  0
LINE
  5
172D4
330
1F
100
AcDbEntity
  8
AM_11
100
AcDbLine
 10
133.2702490110849
 20
230.9283817411577
 30
0.0
 11
158.7968023987858
 21
256.4549379563759
 31
0.0
  0
LINE
  5
172D5
330
1F
100
AcDbEntity
  8
AM_11
 48
0.5
100
AcDbLine
 10
134.1541310752824
 20
233.6507442625539
 30
0.0
 11
134.0127097190451
 21
233.7921656187913
 31
0.0
  0
LINE
  5
172D6
330
1F
100
AcDbEntity
  8
AM_11
 48
0.5
100
AcDbLine
 10
132.3863641223157
 20
231.8829773095871
 30
0.0
 11
132.2449427660783
 21
232.0243986658244
 31
0.0
  0
LINE
  5
172D7
330
1F
100
AcDbEntity
  8
AM_11
 48
0.5
100
AcDbLine
 10
134.0127097190451
 20
233.7921656187913
 30
0.0
 11
132.2449427660783
 21
232.0243986658244
 31
0.0
  0
LINE
  5
172D8
330
1F
100
AcDbEntity
  8
AM_11
 48
0.5
100
AcDbLine
 10
134.1541310752824
 20
233.6507442625539
 30
0.0
 11
132.3863641223157
 21
231.8829773095871
 31
0.0
  0
LINE
  5
172D9
330
1F
100
AcDbEntity
  8
AM_11
 48
0.5
100
AcDbLine
 10
135.0733698894175
 20
232.7315054479177
 30
0.0
 11
135.2501465847143
 21
232.5547287526212
 31
0.0
  0
LINE
  5
172DA
330
1F
100
AcDbEntity
  8
AM_11
 48
0.5
100
AcDbLine
 10
133.2207791337491
 20
230.8789146922479
 30
0.0
 11
134.3344433032061
 21
231.9925788617062
 31
0.0
  0
LINE
  5
172DB
330
1F
100
AcDbEntity
  8
AM_11
 48
0.5
100
AcDbLine
 10
134.3344433032061
 20
231.9925788617062
 30
0.0
 11
135.0733698894172
 21
232.7315054479181
 31
0.0
  0
LINE
  5
172DC
330
1F
100
AcDbEntity
  8
AM_11
 48
0.5
100
AcDbLine
 10
133.382182890102
 20
230.6867650580078
 30
0.0
 11
135.2501465847142
 21
232.5547287526212
 31
0.0
  0
LINE
  5
172DD
330
1F
100
AcDbEntity
  8
AM_11
100
AcDbLine
 10
133.1595810067351
 20
230.5990798442579
 30
0.0
 11
132.1969448116522
 21
230.6326958409313
 31
0.0
  0
LINE
  5
172DE
330
1F
100
AcDbEntity
  8
AM_11
100
AcDbLine
 10
133.1465785059601
 20
230.8496862876644
 30
0.0
 11
132.2056696858291
 21
230.8825435476867
 31
0.0
  0
ARC
  5
172DF
330
1F
100
AcDbEntity
  8
AM_11
 48
0.5
100
AcDbCircle
 10
133.1700508557459
 20
230.8988970923637
 30
0.0
 40
0.3
100
AcDbArc
 50
267.9999999999491
 51
315.0000000000003
1001
GENIUS_GENODEF_13
1002
{
1000
HIER
1070
     0
1002
}
1002
{
1000
MANEDIT
1070
     0
1002
}
1002
{
1000
NOSEL
1070
     0
1002
}
1002
{
1000
BEHIND
1070
     0
1002
}
1002
{
1000
OTHER
1070
     0
1002
}
1002
{
1000
REACTOR
1002
}
1001
GENIUS_GENOBJ-N-FIL_13
1002
{
1000
OWNER
1000
GEN
1002
}
  0
ARC
  5
172E0
330
1F
100
AcDbEntity
  8
AM_11
100
AcDbCircle
 10
133.1500684556305
 20
230.9496253703666
 30
0.0
 40
0.1
100
AcDbArc
 50
267.9999999999491
 51
315.0000000000003
1001
GENIUS_GENODEF_13
1002
{
1000
HIER
1070
     0
1002
}
1002
{
1000
MANEDIT
1070
     0
1002
}
1002
{
1000
NOSEL
1070
     0
1002
}
1002
{
1000
BEHIND
1070
     0
1002
}
1002
{
1000
OTHER
1070
     0
1002
}
1002
{
1000
REACTOR
1002
}
1001
GENIUS_GENOBJ-N-FIL_13
1002
{
1000
OWNER
1000
GEN
1002
}
  0
LINE
  5
172E1
330
1F
100
AcDbEntity
  8
AM_11
100
AcDbLine
 10
158.7968025179647
 20
256.4549379775301
 30
0.0
 11
157.8775608739951
 21
257.3741796214997
 31
0.0
  0
DIMENSION
  5
1730B
330
1F
100
AcDbEntity
  8
AM_5
100
AcDbDimension
  2
*D25
 10
158.7968023987858
 20
256.4549379563759
 30
0.0
 11
-158.7374512152737
 21
238.4404682305226
 31
0.0
 70
    34
  1
 
 71
     5
 42
0.7853981633974497
  3
SYS$2
100
AcDb2LineAngularDimension
 13
132.8110594066958
 23
230.8369638209602
 33
0.0
 14
168.9110594075799
 24
230.8369658203169
 34
0.0
 15
133.2702490110849
 25
230.9283817411577
 35
0.0
 16
159.5440624687413
 26
237.9015078541594
 36
0.0
1001
ACAD_DSTYLE_DIMINSPECT
1070
   396
1000
100%
1070
   395
1000

1070
   394
1070
    33
1070
   393
1070
     0
1001
ACAD
1000
DSTYLE
1002
{
1070
    41
1040
2.0
1070
   173
1070
     1
1070
   342
1005
0
1070
   343
1005
133CC
1070
   344
1005
A66
1002
}
  0
LINE
  5
17397
330
1F
100
AcDbEntity
  8
AM_2
100
AcDbLine
 10
241.8702283069449
 20
230.8369638209602
 30
0.0
 11
241.8702283069449
 21
229.5369598209603
 31
0.0
  0
LINE
  5
17398
330
1F
100
AcDbEntity
  8
AM_2
100
AcDbLine
 10
238.6702283061045
 20
227.5369598206176
 30
0.0
 11
238.6702283061045
 21
228.8369638206176
 31
0.0
  0
LINE
  5
17399
330
1F
100
AcDbEntity
  8
AM_2
100
AcDbLine
 10
241.8702283069449
 20
230.8369638209602
 30
0.0
 11
205.7702283060607
 21
230.8369658203169
 31
0.0
  0
LINE
  5
1739A
330
1F
100
AcDbEntity
  8
AM_2
100
AcDbLine
 10
250.9702053064541
 20
228.8369618206176
 30
0.0
 11
238.6702283061045
 21
228.8369638206176
 31
0.0
  0
LINE
  5
1739B
330
1F
100
AcDbEntity
  8
AM_2
100
AcDbLine
 10
208.7702283060608
 20
227.5369578206176
 30
0.0
 11
208.7702283060608
 21
228.8369618206176
 31
0.0
  0
LINE
  5
1739C
330
1F
100
AcDbEntity
  8
AM_2
100
AcDbLine
 10
205.7702283060607
 20
229.5369618203169
 30
0.0
 11
205.7702283060607
 21
230.8369658203169
 31
0.0
  0
LINE
  5
173A1
330
1F
100
AcDbEntity
  8
AM_2
100
AcDbLine
 10
250.9702053064541
 20
227.5369578206176
 30
0.0
 11
238.6702283061045
 21
227.5369598206176
 31
0.0
  0
LINE
  5
173A2
330
1F
100
AcDbEntity
  8
AM_2
100
AcDbLine
 10
241.8702283069449
 20
229.5369598209603
 30
0.0
 11
205.7702283060607
 21
229.5369618203169
 31
0.0
  0
CIRCLE
  5
173A3
330
1F
100
AcDbEntity
  8
AM_0
100
AcDbCircle
 10
243.3202283060655
 20
230.7869618208069
 30
0.0
 40
0.8500015258789971
  0
CIRCLE
  5
173A4
330
1F
100
AcDbEntity
  8
AM_0
100
AcDbCircle
 10
243.3202283064761
 20
230.7869618210181
 30
0.0
 40
0.85
  0
CIRCLE
  5
173A5
330
1F
100
AcDbEntity
  8
AM_0
100
AcDbCircle
 10
243.3202283060582
 20
230.7869618208062
 30
0.0
 40
0.8500015258789971
  0
LINE
  5
173A6
330
1F
100
AcDbEntity
  8
AM_0
 48
0.5
100
AcDbLine
 10
247.3202283059222
 20
229.5369618209587
 30
0.0
 11
247.3202283059222
 21
229.4369618209586
 31
0.0
  0
LINE
  5
173A7
330
1F
100
AcDbEntity
  8
AM_0
 48
0.5
100
AcDbLine
 10
244.700269333728
 20
229.5369618209586
 30
0.0
 11
247.3202283059222
 21
229.5369618209591
 31
0.0
  0
LINE
  5
173A8
330
1F
100
AcDbEntity
  8
AM_0
 48
0.5
100
AcDbLine
 10
244.6785287149802
 20
229.2869618209588
 30
0.0
 11
244.8002298321257
 21
229.2869618209588
 31
0.0
  0
LINE
  5
173A9
330
1F
100
AcDbEntity
  8
AM_0
100
AcDbLine
 10
244.4591226044943
 20
229.3823623129402
 30
0.0
 11
244.0461834877251
 21
229.8251853009095
 31
0.0
  0
LINE
  5
173AA
330
1F
100
AcDbEntity
  8
AM_0
100
AcDbLine
 10
244.6271339635658
 20
229.5687619849524
 30
0.0
 11
244.2290219131879
 21
229.9956848908631
 31
0.0
  0
ARC
  5
173AB
330
1F
100
AcDbEntity
  8
AM_0
 48
0.5
100
AcDbCircle
 10
244.6785287149802
 20
229.5869618209588
 30
0.0
 40
0.3
100
AcDbArc
 50
222.9999999999476
 51
270.0
1001
GENIUS_GENODEF_13
1002
{
1000
HIER
1070
     0
1002
}
1002
{
1000
MANEDIT
1070
     0
1002
}
1002
{
1000
NOSEL
1070
     0
1002
}
1002
{
1000
BEHIND
1070
     0
1002
}
1002
{
1000
OTHER
1070
     0
1002
}
1002
{
1000
REACTOR
1002
}
1001
GENIUS_GENOBJ-N-FIL_13
1002
{
1000
OWNER
1000
GEN
1002
}
  0
ARC
  5
173AC
330
1F
100
AcDbEntity
  8
AM_0
100
AcDbCircle
 10
244.700269333728
 20
229.6369618209586
 30
0.0
 40
0.1
100
AcDbArc
 50
222.9999999999476
 51
270.0
1001
GENIUS_GENODEF_13
1002
{
1000
HIER
1070
     0
1002
}
1002
{
1000
MANEDIT
1070
     0
1002
}
1002
{
1000
NOSEL
1070
     0
1002
}
1002
{
1000
BEHIND
1070
     0
1002
}
1002
{
1000
OTHER
1070
     0
1002
}
1002
{
1000
REACTOR
1002
}
1001
GENIUS_GENOBJ-N-FIL_13
1002
{
1000
OWNER
1000
GEN
1002
}
  0
LINE
  5
173AD
330
1F
100
AcDbEntity
  8
AM_0
 48
0.5
100
AcDbLine
 10
244.8202283059323
 20
227.5369618197653
 30
0.0
 11
244.8202283059323
 21
227.3369618197653
 31
0.0
  0
LINE
  5
173AE
330
1F
100
AcDbEntity
  8
AM_0
 48
0.5
100
AcDbLine
 10
247.3202283059328
 20
227.5369618197653
 30
0.0
 11
247.3202283059328
 21
227.3369618197653
 31
0.0
  0
LINE
  5
173AF
330
1F
100
AcDbEntity
  8
AM_0
 48
0.5
100
AcDbLine
 10
244.8202283059323
 20
227.3369618197653
 30
0.0
 11
247.3202283059328
 21
227.3369618197653
 31
0.0
  0
LINE
  5
173B0
330
1F
100
AcDbEntity
  8
AM_0
 48
0.5
100
AcDbLine
 10
244.8202283059323
 20
227.5369618197653
 30
0.0
 11
247.3202283059328
 21
227.5369618197653
 31
0.0
  0
LINE
  5
173B1
330
1F
100
AcDbEntity
  8
AM_0
 48
0.5
100
AcDbLine
 10
239.3202283058543
 20
230.8369618193244
 30
0.0
 11
239.3202283058543
 21
231.0369618193245
 31
0.0
  0
LINE
  5
173B2
330
1F
100
AcDbEntity
  8
AM_0
 48
0.5
100
AcDbLine
 10
241.8202283058549
 20
230.8369618193244
 30
0.0
 11
241.8202283058549
 21
231.0369618193245
 31
0.0
  0
LINE
  5
173B3
330
1F
100
AcDbEntity
  8
AM_0
 48
0.5
100
AcDbLine
 10
239.3202283058543
 20
231.0369618193245
 30
0.0
 11
241.8202283058549
 21
231.0369618193245
 31
0.0
  0
LINE
  5
173B4
330
1F
100
AcDbEntity
  8
AM_0
 48
0.5
100
AcDbLine
 10
239.3202283058543
 20
230.8369618193244
 30
0.0
 11
241.8202283058549
 21
230.8369618193244
 31
0.0
  0
LINE
  5
173B5
330
1F
100
AcDbEntity
  8
AM_0
 48
0.5
100
AcDbLine
 10
239.3202283062086
 20
229.5369618209605
 30
0.0
 11
239.3202283062085
 21
229.2869618209605
 31
0.0
  0
LINE
  5
173B6
330
1F
100
AcDbEntity
  8
AM_0
 48
0.5
100
AcDbLine
 10
241.9401872784028
 20
229.5369618209595
 30
0.0
 11
240.3652283060269
 21
229.5369618209604
 31
0.0
  0
LINE
  5
173B7
330
1F
100
AcDbEntity
  8
AM_0
 48
0.5
100
AcDbLine
 10
240.3652283060269
 20
229.5369618209604
 30
0.0
 11
239.3202283062086
 21
229.536961820961
 31
0.0
  0
LINE
  5
173B8
330
1F
100
AcDbEntity
  8
AM_0
 48
0.5
100
AcDbLine
 10
241.9619278971505
 20
229.2869618209597
 30
0.0
 11
239.3202283062085
 21
229.2869618209606
 31
0.0
  0
LINE
  5
173B9
330
1F
100
AcDbEntity
  8
AM_0
100
AcDbLine
 10
242.1813340076365
 20
229.382362312941
 30
0.0
 11
242.8382504897911
 21
230.0868189935038
 31
0.0
  0
LINE
  5
173BA
330
1F
100
AcDbEntity
  8
AM_0
100
AcDbLine
 10
242.0133226485651
 20
229.5687619849532
 30
0.0
 11
242.6554120643849
 21
230.2573185835189
 31
0.0
  0
ARC
  5
173BB
330
1F
100
AcDbEntity
  8
AM_0
 48
0.5
100
AcDbCircle
 10
241.9619278971506
 20
229.5869618209597
 30
0.0
 40
0.3
100
AcDbArc
 50
270.0
 51
317.0000000000525
1001
GENIUS_GENODEF_13
1002
{
1000
HIER
1070
     0
1002
}
1002
{
1000
MANEDIT
1070
     0
1002
}
1002
{
1000
NOSEL
1070
     0
1002
}
1002
{
1000
BEHIND
1070
     0
1002
}
1002
{
1000
OTHER
1070
     0
1002
}
1002
{
1000
REACTOR
1002
}
1001
GENIUS_GENOBJ-N-FIL_13
1002
{
1000
OWNER
1000
GEN
1002
}
  0
ARC
  5
173BC
330
1F
100
AcDbEntity
  8
AM_0
100
AcDbCircle
 10
241.9401872784029
 20
229.6369618209595
 30
0.0
 40
0.1
100
AcDbArc
 50
270.0
 51
317.0000000000525
1001
GENIUS_GENODEF_13
1002
{
1000
HIER
1070
     0
1002
}
1002
{
1000
MANEDIT
1070
     0
1002
}
1002
{
1000
NOSEL
1070
     0
1002
}
1002
{
1000
BEHIND
1070
     0
1002
}
1002
{
1000
OTHER
1070
     0
1002
}
1002
{
1000
REACTOR
1002
}
1001
GENIUS_GENOBJ-N-FIL_13
1002
{
1000
OWNER
1000
GEN
1002
}
  0
LINE
  5
173BD
330
1F
100
AcDbEntity
  8
0スペーサー
100
AcDbLine
 10
244.8002298321257
 20
229.2869618209586
 30
0.0
 11
244.8002298321257
 21
228.8369618209586
 31
0.0
  0
LINE
  5
173BE
330
1F
100
AcDbEntity
  8
0スペーサー
100
AcDbLine
 10
247.4402283061049
 20
229.4369618209586
 30
0.0
 11
247.4402283061049
 21
228.8369618209586
 31
0.0
  0
LINE
  5
173BF
330
1F
100
AcDbEntity
  8
0スペーサー
100
AcDbLine
 10
247.3202283059222
 20
229.4369618209586
 30
0.0
 11
247.4402283061049
 21
229.4369618209586
 31
0.0
  0
LINE
  5
173C0
330
1F
100
AcDbEntity
  8
0スペーサー
100
AcDbLine
 10
244.8002298321257
 20
228.8369618209586
 30
0.0
 11
247.4402283061049
 21
228.8369618209586
 31
0.0
  0
ARC
  5
173C3
330
1F
100
AcDbEntity
  8
AM_0
100
AcDbCircle
 10
243.3202283401123
 20
230.7869616663675
 30
0.0
 40
1.209999849999999
100
AcDbArc
 50
232.9295654933147
 51
221.0704353044983
  0
LINE
  5
173C4
330
1F
100
AcDbEntity
  8
AM_11
100
AcDbLine
 10
242.3302803465253
 20
231.8476233851272
 30
0.0
 11
241.4110387025557
 21
230.9283817411577
 31
0.0
  0
LINE
  5
173C5
330
1F
100
AcDbEntity
  8
AM_11
100
AcDbLine
 10
242.3302803465253
 20
231.8476233851272
 30
0.0
 11
216.8037269588245
 21
257.3741796003456
 31
0.0
  0
LINE
  5
173C6
330
1F
100
AcDbEntity
  8
AM_11
100
AcDbLine
 10
241.4110387025557
 20
230.9283817411577
 30
0.0
 11
215.8844853148548
 21
256.4549379563759
 31
0.0
  0
LINE
  5
173C7
330
1F
100
AcDbEntity
  8
AM_11
 48
0.5
100
AcDbLine
 10
240.5271566383582
 20
233.6507442625539
 30
0.0
 11
240.6685779945956
 21
233.7921656187913
 31
0.0
  0
LINE
  5
173C8
330
1F
100
AcDbEntity
  8
AM_11
 48
0.5
100
AcDbLine
 10
242.294923591325
 20
231.8829773095871
 30
0.0
 11
242.4363449475624
 21
232.0243986658244
 31
0.0
  0
LINE
  5
173C9
330
1F
100
AcDbEntity
  8
AM_11
 48
0.5
100
AcDbLine
 10
240.6685779945956
 20
233.7921656187913
 30
0.0
 11
242.4363449475624
 21
232.0243986658244
 31
0.0
  0
LINE
  5
173CA
330
1F
100
AcDbEntity
  8
AM_11
 48
0.5
100
AcDbLine
 10
240.5271566383582
 20
233.6507442625539
 30
0.0
 11
242.294923591325
 21
231.8829773095871
 31
0.0
  0
LINE
  5
173CB
330
1F
100
AcDbEntity
  8
AM_11
 48
0.5
100
AcDbLine
 10
239.6079178242231
 20
232.7315054479177
 30
0.0
 11
239.4311411289264
 21
232.5547287526212
 31
0.0
  0
LINE
  5
173CC
330
1F
100
AcDbEntity
  8
AM_11
 48
0.5
100
AcDbLine
 10
241.4605085798915
 20
230.8789146922479
 30
0.0
 11
240.3468444104345
 21
231.9925788617062
 31
0.0
  0
LINE
  5
173CD
330
1F
100
AcDbEntity
  8
AM_11
 48
0.5
100
AcDbLine
 10
240.3468444104345
 20
231.9925788617062
 30
0.0
 11
239.6079178242235
 21
232.7315054479181
 31
0.0
  0
LINE
  5
173CE
330
1F
100
AcDbEntity
  8
AM_11
 48
0.5
100
AcDbLine
 10
241.2991048235387
 20
230.6867650580078
 30
0.0
 11
239.4311411289265
 21
232.5547287526212
 31
0.0
  0
LINE
  5
173CF
330
1F
100
AcDbEntity
  8
AM_11
100
AcDbLine
 10
241.5217067069056
 20
230.5990798442579
 30
0.0
 11
242.4843429019885
 21
230.6326958409313
 31
0.0
  0
LINE
  5
173D0
330
1F
100
AcDbEntity
  8
AM_11
100
AcDbLine
 10
241.5347092076806
 20
230.8496862876644
 30
0.0
 11
242.4756180278115
 21
230.8825435476867
 31
0.0
  0
ARC
  5
173D1
330
1F
100
AcDbEntity
  8
AM_11
 48
0.5
100
AcDbCircle
 10
241.5112368578947
 20
230.8988970923637
 30
0.0
 40
0.3
100
AcDbArc
 50
224.9999999999996
 51
272.0000000000525
1001
GENIUS_GENODEF_13
1002
{
1000
HIER
1070
     0
1002
}
1002
{
1000
MANEDIT
1070
     0
1002
}
1002
{
1000
NOSEL
1070
     0
1002
}
1002
{
1000
BEHIND
1070
     0
1002
}
1002
{
1000
OTHER
1070
     0
1002
}
1002
{
1000
REACTOR
1002
}
1001
GENIUS_GENOBJ-N-FIL_13
1002
{
1000
OWNER
1000
GEN
1002
}
  0
ARC
  5
173D2
330
1F
100
AcDbEntity
  8
AM_11
100
AcDbCircle
 10
241.5312192580102
 20
230.9496253703666
 30
0.0
 40
0.1
100
AcDbArc
 50
224.9999999999996
 51
272.0000000000525
1001
GENIUS_GENODEF_13
1002
{
1000
HIER
1070
     0
1002
}
1002
{
1000
MANEDIT
1070
     0
1002
}
1002
{
1000
NOSEL
1070
     0
1002
}
1002
{
1000
BEHIND
1070
     0
1002
}
1002
{
1000
OTHER
1070
     0
1002
}
1002
{
1000
REACTOR
1002
}
1001
GENIUS_GENOBJ-N-FIL_13
1002
{
1000
OWNER
1000
GEN
1002
}
  0
LINE
  5
173D3
330
1F
100
AcDbEntity
  8
AM_11
100
AcDbLine
 10
215.884485195676
 20
256.4549379775301
 30
0.0
 11
216.8037268396456
 21
257.3741796214997
 31
0.0
  0
DIMENSION
  5
173D4
330
1F
100
AcDbEntity
  8
AM_5
100
AcDbDimension
  2
*D26
 10
215.8844853148548
 20
256.4549379563759
 30
0.0
 11
309.2472938240188
 21
-107.7198967619076
 31
0.0
 70
    34
  1
 
 71
     5
 42
0.7853981633974499
  3
SYS$2
100
AcDb2LineAngularDimension
 13
241.8702283069449
 23
230.8369638209602
 33
0.0
 14
205.7702283060607
 24
230.8369658203169
 34
0.0
 15
241.4110387025557
 25
230.9283817411577
 35
0.0
 16
217.8640372532437
 26
244.4846133555081
 36
0.0
1001
ACAD_DSTYLE_DIMINSPECT
1070
   396
1000
100%
1070
   395
1000

1070
   394
1070
    33
1070
   393
1070
     0
1001
ACAD
1000
DSTYLE
1002
{
1070
    41
1040
2.0
1070
   173
1070
     1
1070
   342
1005
0
1070
   343
1005
A66
1070
   344
1005
133CC
1002
}
  0
DIMENSION
  5
17881
330
1F
100
AcDbEntity
  8
AM_5
100
AcDbDimension
  2
*D27
 10
288.1663199883838
 20
227.7733439999845
 30
0.0
 11
285.0663199883836
 21
221.9266773333179
 31
0.0
 70
    32
 71
     5
 42
2.49999999999909
  3
SYS$0
100
AcDbAlignedDimension
 13
299.1663209884628
 23
230.2733439999836
 33
0.0
 14
299.1663209884637
 24
227.7733439999845
 34
0.0
 50
90.00000000001973
100
AcDbRotatedDimension
1001
ACAD_DSTYLE_DIMINSPECT
1070
   396
1000
100%
1070
   395
1000

1070
   394
1070
    33
1070
   393
1070
     0
1001
ACAD
1000
DSTYLE
1002
{
1070
    76
1070
     1
1002
}
  0
TEXT
  5
17980
330
1F
100
AcDbEntity
  8
AM_6
100
AcDbText
 10
13.74241902147753
 20
234.9000000000001
 30
0.0
 40
3.2
  1
セット部品
 41
0.7
100
AcDbText
  0
TEXT
  5
17981
330
1F
100
AcDbEntity
  8
AM_6
100
AcDbText
 10
32.18339725200065
 20
234.9000000000001
 30
0.0
 40
3.2
  1
取付プレート　4枚
 41
0.7
100
AcDbText
  0
LINE
  5
17982
330
1F
100
AcDbEntity
  8
AM_2
100
AcDbLine
 10
11.5
 20
224.5
 30
0.0
 11
116.5
 21
224.5000000000001
 31
0.0
  0
LINE
  5
17A1A
330
1F
100
AcDbEntity
  8
AM_2
100
AcDbLine
 10
28.5
 20
68.50000000000001
 30
0.0
 11
28.5
 21
14.50000000000001
 31
0.0
  0
LINE
  5
17A1B
330
1F
100
AcDbEntity
  8
AM_2
100
AcDbLine
 10
11.5
 20
56.50000000000002
 30
0.0
 11
88.49999999999988
 21
56.50000000000002
 31
0.0
  0
LINE
  5
17A1C
330
1F
100
AcDbEntity
  8
AM_2
100
AcDbLine
 10
11.5
 20
68.50000000000001
 30
0.0
 11
88.49999999999988
 21
68.50000000000007
 31
0.0
  0
LINE
  5
17A1D
330
1F
100
AcDbEntity
  8
AM_2
100
AcDbLine
 10
58.49999999999994
 20
68.50000000000001
 30
0.0
 11
58.49999999999993
 21
14.50000000000001
 31
0.0
  0
LINE
  5
17A1E
330
1F
100
AcDbEntity
  8
AM_2
100
AcDbLine
 10
11.5
 20
26.50000000000002
 30
0.0
 11
88.49999999999988
 21
26.50000000000002
 31
0.0
  0
LINE
  5
17A1F
330
1F
100
AcDbEntity
  8
AM_2
100
AcDbLine
 10
11.5
 20
32.50000000000002
 30
0.0
 11
88.49999999999988
 21
32.50000000000002
 31
0.0
  0
LINE
  5
17A20
330
1F
100
AcDbEntity
  8
AM_2
100
AcDbLine
 10
11.5
 20
44.50000000000001
 30
0.0
 11
88.49999999999988
 21
44.50000000000001
 31
0.0
  0
LINE
  5
17A21
330
1F
100
AcDbEntity
  8
AM_2
100
AcDbLine
 10
11.5
 20
50.50000000000001
 30
0.0
 11
88.49999999999988
 21
50.50000000000001
 31
0.0
  0
LINE
  5
17A22
330
1F
100
AcDbEntity
  8
AM_2
100
AcDbLine
 10
11.5
 20
20.50000000000002
 30
0.0
 11
88.49999999999988
 21
20.50000000000002
 31
0.0
  0
LINE
  5
17A23
330
1F
100
AcDbEntity
  8
AM_0
100
AcDbLine
 10
11.5
 20
14.50000000000001
 30
0.0
 11
88.49999999999988
 21
14.50000000000001
 31
0.0
  0
LINE
  5
17A24
330
1F
100
AcDbEntity
  8
AM_0
100
AcDbLine
 10
11.5
 20
8.500000000000014
 30
0.0
 11
88.49999999999988
 21
8.500000000000071
 31
0.0
  0
LINE
  5
17A25
330
1F
100
AcDbEntity
  8
AM_2
100
AcDbLine
 10
11.5
 20
38.50000000000001
 30
0.0
 11
88.49999999999988
 21
38.50000000000001
 31
0.0
  0
LINE
  5
17A26
330
1F
100
AcDbEntity
  8
AM_0
100
AcDbLine
 10
11.5
 20
74.50000000000001
 30
0.0
 11
88.49999999999988
 21
74.50000000000001
 31
0.0
  0
LINE
  5
17A27
330
1F
100
AcDbEntity
  8
AM_0
100
AcDbLine
 10
11.5
 20
74.50000000000001
 30
0.0
 11
11.5
 21
8.500000000000014
 31
0.0
  0
TEXT
  5
17A28
330
1F
100
AcDbEntity
  8
AM_6
100
AcDbText
 10
38.60157190379141
 20
69.89999999999999
 30
0.0
 40
3.2
  1
ビス選定一覧表
 41
0.84634979
100
AcDbText
  0
TEXT
  5
17A29
330
1F
100
AcDbEntity
  8
AM_6
100
AcDbText
 10
13.44721492587882
 20
63.30000000000002
 30
0.0
 40
3.2
  1
パネル厚
 41
0.8512700499999999
100
AcDbText
  0
TEXT
  5
17A2D
330
1F
100
AcDbEntity
  8
AM_6
100
AcDbText
 10
17.25700000000006
 20
51.89999999999999
 30
0.0
 40
3.2
  1
13
 41
0.85
100
AcDbText
  0
TEXT
  5
17A2E
330
1F
100
AcDbEntity
  8
AM_6
100
AcDbText
 10
17.25700000000006
 20
45.89999999999998
 30
0.0
 40
3.2
  1
16
 41
0.85
100
AcDbText
  0
TEXT
  5
17A2F
330
1F
100
AcDbEntity
  8
AM_6
100
AcDbText
 10
17.25700000000006
 20
33.89999999999999
 30
0.0
 40
3.2
  1
25
 41
0.85
100
AcDbText
  0
TEXT
  5
17A30
330
1F
100
AcDbEntity
  8
AM_6
100
AcDbText
 10
17.25700000000006
 20
27.89999999999999
 30
0.0
 40
3.2
  1
30
 41
0.85
100
AcDbText
  0
TEXT
  5
17A31
330
1F
100
AcDbEntity
  8
AM_6
100
AcDbText
 10
17.25700000000006
 20
21.89999999999999
 30
0.0
 40
3.2
  1
36
 41
0.85
100
AcDbText
  0
TEXT
  5
17A32
330
1F
100
AcDbEntity
  8
AM_6
100
AcDbText
 10
17.25700000000006
 20
15.89999998000003
 30
0.0
 40
3.2
  1
40
 41
0.85
100
AcDbText
  0
TEXT
  5
17A33
330
1F
100
AcDbEntity
  8
AM_6
100
AcDbText
 10
12.25742030413505
 20
9.899999999999991
 30
0.0
 40
3.2
  1
（　）内ビス寸法は市販ビスよりカットしてご使用下さい。
 41
0.7
100
AcDbText
  0
TEXT
  5
17A34
330
1F
100
AcDbEntity
  8
AM_6
100
AcDbText
 10
17.25700000000006
 20
39.89999999999999
 30
0.0
 40
3.2
  1
20
 41
0.85
100
AcDbText
  0
TEXT
  5
17A35
330
1F
100
AcDbEntity
  8
AM_6
100
AcDbText
 10
70.51970789675052
 20
51.89999999999999
 30
0.0
 40
3.2
  1
14
 41
0.85
100
AcDbText
  0
TEXT
  5
17A36
330
1F
100
AcDbEntity
  8
AM_6
100
AcDbText
 10
70.51970789675052
 20
45.89999999999998
 30
0.0
 40
3.2
  1
18
 41
0.85
100
AcDbText
  0
TEXT
  5
17A37
330
1F
100
AcDbEntity
  8
AM_6
100
AcDbText
 10
67.63115277050196
 20
33.89999999999999
 30
0.0
 40
3.2
  1
（27）
 41
0.85
100
AcDbText
  0
TEXT
  5
17A38
330
1F
100
AcDbEntity
  8
AM_6
100
AcDbText
 10
67.63115277050196
 20
27.89999999999999
 30
0.0
 40
3.2
  1
（32）
 41
0.85
100
AcDbText
  0
TEXT
  5
17A39
330
1F
100
AcDbEntity
  8
AM_6
100
AcDbText
 10
67.63115277050196
 20
21.89999999999999
 30
0.0
 40
3.2
  1
（38）
 41
0.85
100
AcDbText
  0
TEXT
  5
17A3A
330
1F
100
AcDbEntity
  8
AM_6
100
AcDbText
 10
67.63115277050196
 20
15.89999998000003
 30
0.0
 40
3.2
  1
（42）
 41
0.85
100
AcDbText
  0
TEXT
  5
17A3B
330
1F
100
AcDbEntity
  8
AM_6
100
AcDbText
 10
70.51970789675052
 20
39.89999999999999
 30
0.0
 40
3.2
  1
22
 41
0.85
100
AcDbText
  0
LINE
  5
17A3C
330
1F
100
AcDbEntity
  8
AM_0
100
AcDbLine
 10
88.49999999999988
 20
74.50000000000001
 30
0.0
 11
88.49999999999988
 21
8.500000000000014
 31
0.0
  0
TEXT
  5
17A3F
330
1F
100
AcDbEntity
  8
AM_6
100
AcDbText
 10
40.51970789675055
 20
51.89999999999996
 30
0.0
 40
3.2
  1
10
 41
0.85
100
AcDbText
  0
TEXT
  5
17A40
330
1F
100
AcDbEntity
  8
AM_6
100
AcDbText
 10
40.51970789675055
 20
45.89999999999996
 30
0.0
 40
3.2
  1
12
 41
0.85
100
AcDbText
  0
TEXT
  5
17A41
330
1F
100
AcDbEntity
  8
AM_6
100
AcDbText
 10
37.63115277050201
 20
33.89999999999997
 30
0.0
 40
3.2
  1
（23）
 41
0.85
100
AcDbText
  0
TEXT
  5
17A42
330
1F
100
AcDbEntity
  8
AM_6
100
AcDbText
 10
37.63115277050201
 20
27.89999999999996
 30
0.0
 40
3.2
  1
（27）
 41
0.85
100
AcDbText
  0
TEXT
  5
17A43
330
1F
100
AcDbEntity
  8
AM_6
100
AcDbText
 10
37.63115277050201
 20
21.89999999999996
 30
0.0
 40
3.2
  1
（33）
 41
0.85
100
AcDbText
  0
TEXT
  5
17A44
330
1F
100
AcDbEntity
  8
AM_6
100
AcDbText
 10
37.63115277050201
 20
15.89999998
 30
0.0
 40
3.2
  1
（37）
 41
0.85
100
AcDbText
  0
TEXT
  5
17A45
330
1F
100
AcDbEntity
  8
AM_6
100
AcDbText
 10
40.51970789675055
 20
39.89999999999997
 30
0.0
 40
3.2
  1
16
 41
0.85
100
AcDbText
  0
MTEXT
  5
17A6E
102
{ACAD_XDICTIONARY
360
18844
102
}
330
1F
100
AcDbEntity
  8
AM_6
100
AcDbMText
 10
58.49999999999996
 20
62.61660099174368
 30
0.0
 40
3.2
 41
29.99999999999995
 71
     4
 72
     5
  1
\pi2.0827;六角穴付ボタンボルト\P\pi7;（枠側）L寸法
 73
     1
 44
1.0
  0
MTEXT
  5
17A6F
102
{ACAD_XDICTIONARY
360
18846
102
}
330
1F
100
AcDbEntity
  8
AM_6
100
AcDbMText
 10
28.5
 20
62.61660099174365
 30
0.0
 40
3.2
 41
29.99999999999995
 71
     4
 72
     5
  1
\pi3.4267;六角穴付サラボルト\P\pi7;（扉側）L寸法
 73
     1
 44
1.0
  0
ARC
  5
17D96
330
1F
100
AcDbEntity
  8
0スペーサー
100
AcDbCircle
 10
355.1663591444092
 20
57.65176514578223
 30
0.0
 40
1.0
100
AcDbArc
 50
209.9999999993964
 51
270.0
1001
GENIUS_GENODEF_13
1002
{
1000
HIER
1070
     0
1002
}
1002
{
1000
MANEDIT
1070
     0
1002
}
1002
{
1000
NOSEL
1070
     0
1002
}
1002
{
1000
BEHIND
1070
     0
1002
}
1002
{
1000
OTHER
1070
     0
1002
}
1002
{
1000
REACTOR
1002
}
1001
GENIUS_GENOBJ-N-FIL_13
1002
{
1000
OWNER
1000
GEN
1002
}
  0
DIMENSION
  5
17DC4
330
1F
100
AcDbEntity
  8
AM_5
100
AcDbDimension
  2
*D28
 10
275.2574246517629
 20
71.65176514577733
 30
0.0
 11
272.1574246517629
 21
101.6517651457773
 31
0.0
 70
    32
 71
     5
 42
59.99999999999996
  3
SYS$0
100
AcDbAlignedDimension
 13
266.2574236417629
 23
131.6517651457773
 33
0.0
 14
266.2574236417629
 24
71.65176514577733
 34
0.0
 50
90.00000000000003
100
AcDbRotatedDimension
1001
ACAD_DSTYLE_DIMINSPECT
1070
   396
1000
100%
1070
   395
1000

1070
   394
1070
    33
1070
   393
1070
     0
  0
LINE
  5
17E21
330
1F
100
AcDbEntity
  8
AM_11
100
AcDbLine
 10
185.0074236417629
 20
136.9475352883568
 30
0.0
 11
185.0074236417629
 21
51.37666200759849
 31
0.0
  0
DIMENSION
  5
18153
330
1F
100
AcDbEntity
  8
AM_5
100
AcDbDimension
  2
*D29
 10
299.1663179974379
 20
43.15176514579186
 30
0.0
 11
311.666317997447
 21
46.25176514579186
 31
0.0
 70
    32
 71
     5
 42
25.00000000001819
  3
SYS$0
100
AcDbAlignedDimension
 13
324.1663179974561
 23
59.15176514579124
 33
0.0
 14
299.1663179974379
 24
59.15176514579124
 34
0.0
 50
0.0000000000001132
100
AcDbRotatedDimension
1001
ACAD_DSTYLE_DIMINSPECT
1070
   396
1000
100%
1070
   395
1000

1070
   394
1070
    33
1070
   393
1070
     0
  0
DIMENSION
  5
181E8
330
1F
100
AcDbEntity
  8
AM_5
100
AcDbDimension
  2
*D30
 10
352.5319194952243
 20
255.2733440018676
 30
0.0
 11
339.1663229870322
 21
258.3733440018676
 31
0.0
 70
    32
  1
（30）
 71
     5
 42
26.73119301638422
  3
SYS$0
100
AcDbAlignedDimension
 13
325.8007264788401
 23
227.7733440018676
 33
0.0
 14
352.5319194952243
 24
227.7733440018676
 34
0.0
100
AcDbRotatedDimension
1001
ACAD_DSTYLE_DIMINSPECT
1070
   396
1000
100%
1070
   395
1000

1070
   394
1070
    33
1070
   393
1070
     0
  0
ARC
  5
1827E
330
1F
100
AcDbEntity
  8
AM_0
100
AcDbCircle
 10
160.8604549806869
 20
144.1517651457778
 30
0.0
 40
2.0
100
AcDbArc
 50
0.0
 51
90.0
1001
GENIUS_GENOBJ-N-FIL_13
1002
{
1000
OWNER
1000
GEN
1002
}
1001
GENIUS_GENODEF_13
1002
{
1000
HIER
1070
     0
1002
}
1002
{
1000
MANEDIT
1070
     0
1002
}
1002
{
1000
NOSEL
1070
     0
1002
}
1002
{
1000
BEHIND
1070
     0
1002
}
1002
{
1000
OTHER
1070
     0
1002
}
1002
{
1000
REACTOR
1002
}
  0
ARC
  5
1827F
330
1F
100
AcDbEntity
  8
AM_0
100
AcDbCircle
 10
160.8604549806869
 20
59.15176514578686
 30
0.0
 40
2.0
100
AcDbArc
 50
270.0
 51
0.0000000000000127
1001
GENIUS_GENODEF_13
1002
{
1000
HIER
1070
     0
1002
}
1002
{
1000
MANEDIT
1070
     0
1002
}
1002
{
1000
NOSEL
1070
     0
1002
}
1002
{
1000
BEHIND
1070
     0
1002
}
1002
{
1000
OTHER
1070
     0
1002
}
1002
{
1000
REACTOR
1002
}
1001
GENIUS_GENOBJ-N-FIL_13
1002
{
1000
OWNER
1000
GEN
1002
}
  0
ARC
  5
18280
330
1F
100
AcDbEntity
  8
AM_0
100
AcDbCircle
 10
139.860454980687
 20
59.15176514578686
 30
0.0
 40
2.0
100
AcDbArc
 50
180.0
 51
270.0
1001
GENIUS_GENODEF_13
1002
{
1000
HIER
1070
     0
1002
}
1002
{
1000
MANEDIT
1070
     0
1002
}
1002
{
1000
NOSEL
1070
     0
1002
}
1002
{
1000
BEHIND
1070
     0
1002
}
1002
{
1000
OTHER
1070
     0
1002
}
1002
{
1000
REACTOR
1002
}
1001
GENIUS_GENOBJ-N-FIL_13
1002
{
1000
OWNER
1000
GEN
1002
}
  0
ARC
  5
18281
330
1F
100
AcDbEntity
  8
AM_0
100
AcDbCircle
 10
139.860454980687
 20
144.1517651457778
 30
0.0
 40
2.0
100
AcDbArc
 50
90.0
 51
180.0
1001
GENIUS_GENOBJ-N-FIL_13
1002
{
1000
OWNER
1000
GEN
1002
}
1001
GENIUS_GENODEF_13
1002
{
1000
HIER
1070
     0
1002
}
1002
{
1000
MANEDIT
1070
     0
1002
}
1002
{
1000
NOSEL
1070
     0
1002
}
1002
{
1000
BEHIND
1070
     0
1002
}
1002
{
1000
OTHER
1070
     0
1002
}
1002
{
1000
REACTOR
1002
}
  0
LINE
  5
18282
330
1F
100
AcDbEntity
  8
AM_2
100
AcDbLine
 10
29.5
 20
232.5000000000001
 30
0.0
 11
116.5
 21
232.5000000000001
 31
0.0
  0
TEXT
  5
18283
330
1F
100
AcDbEntity
  8
AM_6
100
AcDbText
 10
32.18339725200065
 20
226.9000000000001
 30
0.0
 40
3.2
  1
スペーサー　2枚
 41
0.7
100
AcDbText
  0
DIMENSION
  5
18285
330
1F
100
AcDbEntity
  8
AM_5
100
AcDbDimension
  2
*D31
 10
185.0074236417629
 20
158.1517651457779
 30
0.0
 11
201.0074236417629
 21
161.2517651457778
 31
0.0
 70
    32
 71
     5
 42
32.0
  3
SYS$0
100
AcDbAlignedDimension
 13
217.0074236417629
 23
151.1517651457778
 33
0.0
 14
185.0074236417629
 24
151.1517651457778
 34
0.0
100
AcDbRotatedDimension
1001
ACAD_DSTYLE_DIMINSPECT
1070
   396
1000
100%
1070
   395
1000

1070
   394
1070
    33
1070
   393
1070
     0
  0
LINE
  5
182BF
330
1F
100
AcDbEntity
  8
AM_0
100
AcDbLine
 10
354.1663438856241
 20
230.2733440000036
 30
0.0
 11
354.1663438856241
 21
227.7733440000034
 31
0.0
  0
LINE
  5
187A3
330
1F
100
AcDbEntity
  8
AM_2
100
AcDbLine
 10
29.5
 20
208.5000000000001
 30
0.0
 11
116.5
 21
208.5000000000001
 31
0.0
  0
LINE
  5
187A4
330
1F
100
AcDbEntity
  8
AM_2
100
AcDbLine
 10
29.5
 20
200.5000000000001
 30
0.0
 11
116.5
 21
200.5000000000001
 31
0.0
  0
TEXT
  5
187A5
330
1F
100
AcDbEntity
  8
AM_6
100
AcDbText
 10
32.18339725200065
 20
194.9000000000001
 30
0.0
 40
3.2
  1
上記以外のパネル厚も取付可能です。（ビス選定一覧表参照）
 41
0.7
100
AcDbText
  0
TEXT
  5
187A6
330
1F
100
AcDbEntity
  8
AM_6
100
AcDbText
 10
32.18339725200065
 20
202.9000000000001
 30
0.0
 40
3.2
  1
適用パネル厚：13mm
 41
0.7
100
AcDbText
  0
ENDSEC
  0
SECTION
  2
OBJECTS
  0
DICTIONARY
  5
C
330
0
100
AcDbDictionary
281
     1
  3
ACAD_2007HEADERVARS_RT
350
18848
  3
ACAD_BGPLOT_KEY
350
AB06
  3
ACAD_COLOR
350
A91D
  3
ACAD_GROUP
350
D
  3
ACAD_LAYOUT
350
1A
  3
ACAD_MATERIAL
350
A91C
  3
ACAD_MLEADERSTYLE
350
B595
  3
ACAD_MLINESTYLE
350
17
  3
ACAD_PLOTSETTINGS
350
19
  3
ACAD_PLOTSTYLENAME
350
E
  3
ACAD_SCALELIST
350
B573
  3
ACAD_TABLESTYLE
350
AAB9
  3
ACAD_VISUALSTYLE
350
B0F1
  3
AcAsAppObject
350
3DA1
  3
ACASGREF_MASTER
350
3DE9
  3
ACDB_RECOMPOSE_DATA
350
B5B7
  3
AcDbVariableDictionary
350
34
  3
AcmDictionary
350
47
  3
AD_GREF_MODULE
350
3DEA
  3
AD_MAPI_MODULE
350
3E06
  3
AMG
350
2B
  3
AMGSNAPSETTINGS
350
7D
  3
ASE_INDEX_DICTIONARY
350
B570
  3
MAPISURF_MODULE
350
3DEB
  0
DICTIONARY
  5
3F95
330
2
100
AcDbDictionary
280
     1
281
     1
  3
ACAD_LAYERFILTERS
360
B4F7
  3
ACAD_LAYERSTATES
360
3F96
  3
ACLYDICTIONARY
360
B4F6
  3
AMLAYER_GROUPCOLORS
360
AAB4
  0
DICTIONARY
  5
C26F
330
10
100
AcDbDictionary
280
     1
281
     1
  3
ADSK_XREC_LAYER_RECONCILED
360
C270
  0
DICTIONARY
  5
C271
330
5F85
100
AcDbDictionary
280
     1
281
     1
  3
ADSK_XREC_LAYER_RECONCILED
360
C272
  0
DICTIONARY
  5
C273
330
AC9F
100
AcDbDictionary
280
     1
281
     1
  3
ADSK_XREC_LAYER_RECONCILED
360
C274
  0
DICTIONARY
  5
C275
330
ACA0
100
AcDbDictionary
280
     1
281
     1
  3
ADSK_XREC_LAYER_RECONCILED
360
C276
  0
DICTIONARY
  5
C277
330
ACA1
100
AcDbDictionary
280
     1
281
     1
  3
ADSK_XREC_LAYER_RECONCILED
360
C278
  0
DICTIONARY
  5
C279
330
ACC8
100
AcDbDictionary
280
     1
281
     1
  3
ADSK_XREC_LAYER_RECONCILED
360
C27A
  0
DICTIONARY
  5
C27B
330
ACC9
100
AcDbDictionary
280
     1
281
     1
  3
ADSK_XREC_LAYER_RECONCILED
360
C27C
  0
DICTIONARY
  5
C27D
330
ACCA
100
AcDbDictionary
280
     1
281
     1
  3
ADSK_XREC_LAYER_RECONCILED
360
C27E
  0
DICTIONARY
  5
C27F
330
AD60
100
AcDbDictionary
280
     1
281
     1
  3
ADSK_XREC_LAYER_RECONCILED
360
C280
  0
DICTIONARY
  5
C281
330
AD64
100
AcDbDictionary
280
     1
281
     1
  3
ADSK_XREC_LAYER_RECONCILED
360
C282
  0
DICTIONARY
  5
C283
330
AD67
100
AcDbDictionary
280
     1
281
     1
  3
ADSK_XREC_LAYER_RECONCILED
360
C284
  0
DICTIONARY
  5
C285
330
AD68
100
AcDbDictionary
280
     1
281
     1
  3
ADSK_XREC_LAYER_RECONCILED
360
C286
  0
DICTIONARY
  5
C287
330
AD69
100
AcDbDictionary
280
     1
281
     1
  3
ADSK_XREC_LAYER_RECONCILED
360
C288
  0
DICTIONARY
  5
C289
330
AD6A
100
AcDbDictionary
280
     1
281
     1
  3
ADSK_XREC_LAYER_RECONCILED
360
C28A
  0
DICTIONARY
  5
C28B
330
AD6E
100
AcDbDictionary
280
     1
281
     1
  3
ADSK_XREC_LAYER_RECONCILED
360
C28C
  0
DICTIONARY
  5
C28D
330
AD6F
100
AcDbDictionary
280
     1
281
     1
  3
ADSK_XREC_LAYER_RECONCILED
360
C28E
  0
DICTIONARY
  5
C28F
330
B1B6
100
AcDbDictionary
280
     1
281
     1
  3
ADSK_XREC_LAYER_RECONCILED
360
C290
  0
DICTIONARY
  5
C291
330
B2EB
100
AcDbDictionary
280
     1
281
     1
  3
ADSK_XREC_LAYER_RECONCILED
360
C292
  0
DICTIONARY
  5
C293
330
B2EC
100
AcDbDictionary
280
     1
281
     1
  3
ADSK_XREC_LAYER_RECONCILED
360
C294
  0
DICTIONARY
  5
159E9
330
159E8
100
AcDbDictionary
280
     1
281
     1
  0
DICTIONARY
  5
8A
330
1F
100
AcDbDictionary
280
     1
281
     1
  3
ACAD_SORTENTS
360
B1BA
  0
DICTIONARY
  5
18853
330
17E27
100
AcDbDictionary
280
     1
281
     1
  3
ACAD_MTEXT_2008_RT
360
18854
  0
DICTIONARY
  5
18851
330
17E0A
100
AcDbDictionary
280
     1
281
     1
  3
ACAD_MTEXT_2008_RT
360
18852
  0
DICTIONARY
  5
18844
330
17A6E
100
AcDbDictionary
280
     1
281
     1
  3
ACAD_MTEXT_2008_RT
360
18845
  0
DICTIONARY
  5
18846
330
17A6F
100
AcDbDictionary
280
     1
281
     1
  3
ACAD_MTEXT_2008_RT
360
18847
  0
DICTIONARY
  5
18848
102
{ACAD_REACTORS
330
C
102
}
330
C
100
AcDbDictionary
281
     1
  3
DIMARCSYM
350
18849
  0
DICTIONARY
  5
AB06
102
{ACAD_REACTORS
330
C
102
}
330
C
100
AcDbDictionary
280
     1
281
     1
  0
DICTIONARY
  5
A91D
102
{ACAD_REACTORS
330
C
102
}
330
C
100
AcDbDictionary
281
     1
  0
DICTIONARY
  5
D
102
{ACAD_REACTORS
330
C
102
}
330
C
100
AcDbDictionary
281
     1
  0
DICTIONARY
  5
1A
102
{ACAD_REACTORS
330
C
102
}
330
C
100
AcDbDictionary
281
     1
  3
Model
350
22
  3
ﾚｲｱｳﾄ1
350
1E
  3
ﾚｲｱｳﾄ2
350
26
  0
DICTIONARY
  5
A91C
102
{ACAD_REACTORS
330
C
102
}
330
C
100
AcDbDictionary
281
     1
  3
ByBlock
350
B0EF
  3
ByLayer
350
B0EE
  3
Global
350
B0F0
  0
DICTIONARY
  5
B595
102
{ACAD_REACTORS
330
C
102
}
330
C
100
AcDbDictionary
281
     1
  3
Standard
350
B596
  0
DICTIONARY
  5
17
102
{ACAD_REACTORS
330
C
102
}
330
C
100
AcDbDictionary
281
     1
  3
Standard
350
18
  0
DICTIONARY
  5
19
102
{ACAD_REACTORS
330
C
102
}
330
C
100
AcDbDictionary
281
     1
  0
ACDBDICTIONARYWDFLT
  5
E
102
{ACAD_REACTORS
330
C
102
}
330
C
100
AcDbDictionary
281
     1
  3
Normal
350
F
100
AcDbDictionaryWithDefault
340
F
  0
DICTIONARY
  5
B573
102
{ACAD_REACTORS
330
C
102
}
330
C
100
AcDbDictionary
281
     1
  3
A0
350
B574
  3
A1
350
B575
  3
A2
350
B576
  3
A3
350
B577
  3
A4
350
B578
  3
A5
350
B579
  3
A6
350
B57A
  3
A7
350
B57B
  3
A8
350
B57C
  3
A9
350
B57D
  3
B0
350
B57E
  3
B1
350
B57F
  3
B2
350
B580
  3
B3
350
B581
  3
B4
350
B582
  3
B5
350
B583
  3
B6
350
B584
  3
B7
350
B585
  3
B8
350
B586
  3
B9
350
B587
  3
C0
350
B588
  3
C1
350
B589
  3
C2
350
B58A
  3
C3
350
B58B
  3
C4
350
B58C
  3
C5
350
B58D
  3
C6
350
B58E
  3
C7
350
B58F
  3
C8
350
B590
  3
C9
350
B591
  3
D0
350
B592
  3
D1
350
B593
  3
D2
350
B594
  0
DICTIONARY
  5
AAB9
102
{ACAD_REACTORS
330
C
102
}
330
C
100
AcDbDictionary
281
     1
  3
Standard
350
AABA
  0
DICTIONARY
  5
B0F1
102
{ACAD_REACTORS
330
C
102
}
330
C
100
AcDbDictionary
281
     1
  3
2dWireframe
350
B0F7
  3
3D Hidden
350
B0F9
  3
3dWireframe
350
B0F8
  3
Basic
350
B0F6
  3
Brighten
350
B0FD
  3
ColorChange
350
B101
  3
Conceptual
350
B0FA
  3
Dim
350
B0FC
  3
Facepattern
350
B100
  3
Flat
350
B0F2
  3
FlatWithEdges
350
B0F3
  3
Gouraud
350
B0F4
  3
GouraudWithEdges
350
B0F5
  3
Linepattern
350
B0FF
  3
Realistic
350
B0FB
  3
Thicken
350
B0FE
  0
ACAD_PROXY_OBJECT
  5
3DA1
102
{ACAD_REACTORS
330
C
102
}
330
C
100
AcDbProxyObject
 90
      499
 91
      576
 95
   917527
 70
     0
 93
       10
310
407F
 94
        0
  0
ACAD_PROXY_OBJECT
  5
3DE9
102
{ACAD_REACTORS
330
C
102
}
330
C
100
AcDbProxyObject
 90
      499
 91
      581
 95
   917527
 70
     0
 93
       34
310
010000407F
 94
        0
  0
XRECORD
  5
B5B7
102
{ACAD_REACTORS
330
C
102
}
330
C
100
AcDbXrecord
280
     1
 90
        1
330
AABA
330
17A6E
330
17A6F
  0
DICTIONARY
  5
34
102
{ACAD_REACTORS
330
C
102
}
330
C
100
AcDbDictionary
281
     1
  3
CANNOSCALE
350
B5BA
  3
CMLEADERSTYLE
350
B5B8
  3
CTABLESTYLE
350
AAF3
  3
DIMASSOC
350
A10C
  3
FIELDEVAL
350
AB07
  3
INDEXCTL
350
35
  3
LIGHTINGUNITS
350
B5BB
  3
MSLTSCALE
350
B5B9
  3
SORTENTS
350
194C
  0
DICTIONARY
  5
47
102
{ACAD_REACTORS
330
C
102
}
330
C
100
AcDbDictionary
281
     1
  3
AcmBOM
350
7E8
  3
AcmStdDictionary
350
4C
  3
AMDTSECTSYM_ARROWCOLOR
350
A929
  0
ACAD_PROXY_OBJECT
  5
3DEA
102
{ACAD_REACTORS
330
C
102
}
330
C
100
AcDbProxyObject
 90
      499
 91
      582
 95
   917527
 70
     0
 93
      114
310
00000043800000000000000000003F
 94
        0
  0
ACAD_PROXY_OBJECT
  5
3E06
102
{ACAD_REACTORS
330
C
102
}
330
C
100
AcDbProxyObject
 90
      499
 91
      594
 95
   917527
 70
     0
 93
       34
310
05000044FF
 94
        0
  0
DICTIONARY
  5
2B
102
{ACAD_REACTORS
330
C
102
}
330
C
100
AcDbDictionary
281
     1
  0
DICTIONARY
  5
7D
102
{ACAD_REACTORS
330
C
102
}
330
C
100
AcDbDictionary
281
     1
  0
DICTIONARY
  5
B570
102
{ACAD_REACTORS
330
C
102
}
330
C
100
AcDbDictionary
281
     1
  3
ASEBlockHierarchyIndexRecord
350
B571
1001
DCO15
1040
1706332604.97
  0
ACAD_PROXY_OBJECT
  5
3DEB
102
{ACAD_REACTORS
330
C
102
}
330
C
100
AcDbProxyObject
 90
      499
 91
      583
 95
   917527
 70
     0
 93
        8
310
047E
 94
        0
  0
DICTIONARY
  5
B4F7
102
{ACAD_REACTORS
330
3F95
102
}
330
3F95
100
AcDbDictionary
281
     1
  0
DICTIONARY
  5
3F96
102
{ACAD_REACTORS
330
3F95
102
}
330
3F95
100
AcDbDictionary
281
     1
  3
20011210
350
3FB7
  0
DICTIONARY
  5
B4F6
102
{ACAD_REACTORS
330
3F95
102
}
330
3F95
100
AcDbDictionary
281
     1
1001
ACAD
1000
<All
  0
DICTIONARY
  5
AAB4
102
{ACAD_REACTORS
330
3F95
102
}
330
3F95
100
AcDbDictionary
280
     1
281
     1
  0
XRECORD
  5
C270
102
{ACAD_REACTORS
330
C26F
102
}
330
C26F
100
AcDbXrecord
280
     1
290
     1
  0
XRECORD
  5
C272
102
{ACAD_REACTORS
330
C271
102
}
330
C271
100
AcDbXrecord
280
     1
290
     1
  0
XRECORD
  5
C274
102
{ACAD_REACTORS
330
C273
102
}
330
C273
100
AcDbXrecord
280
     1
290
     1
  0
XRECORD
  5
C276
102
{ACAD_REACTORS
330
C275
102
}
330
C275
100
AcDbXrecord
280
     1
290
     1
  0
XRECORD
  5
C278
102
{ACAD_REACTORS
330
C277
102
}
330
C277
100
AcDbXrecord
280
     1
290
     1
  0
XRECORD
  5
C27A
102
{ACAD_REACTORS
330
C279
102
}
330
C279
100
AcDbXrecord
280
     1
290
     1
  0
XRECORD
  5
C27C
102
{ACAD_REACTORS
330
C27B
102
}
330
C27B
100
AcDbXrecord
280
     1
290
     1
  0
XRECORD
  5
C27E
102
{ACAD_REACTORS
330
C27D
102
}
330
C27D
100
AcDbXrecord
280
     1
290
     1
  0
XRECORD
  5
C280
102
{ACAD_REACTORS
330
C27F
102
}
330
C27F
100
AcDbXrecord
280
     1
290
     1
  0
XRECORD
  5
C282
102
{ACAD_REACTORS
330
C281
102
}
330
C281
100
AcDbXrecord
280
     1
290
     1
  0
XRECORD
  5
C284
102
{ACAD_REACTORS
330
C283
102
}
330
C283
100
AcDbXrecord
280
     1
290
     1
  0
XRECORD
  5
C286
102
{ACAD_REACTORS
330
C285
102
}
330
C285
100
AcDbXrecord
280
     1
290
     1
  0
XRECORD
  5
C288
102
{ACAD_REACTORS
330
C287
102
}
330
C287
100
AcDbXrecord
280
     1
290
     1
  0
XRECORD
  5
C28A
102
{ACAD_REACTORS
330
C289
102
}
330
C289
100
AcDbXrecord
280
     1
290
     1
  0
XRECORD
  5
C28C
102
{ACAD_REACTORS
330
C28B
102
}
330
C28B
100
AcDbXrecord
280
     1
290
     1
  0
XRECORD
  5
C28E
102
{ACAD_REACTORS
330
C28D
102
}
330
C28D
100
AcDbXrecord
280
     1
290
     1
  0
XRECORD
  5
C290
102
{ACAD_REACTORS
330
C28F
102
}
330
C28F
100
AcDbXrecord
280
     1
290
     1
  0
XRECORD
  5
C292
102
{ACAD_REACTORS
330
C291
102
}
330
C291
100
AcDbXrecord
280
     1
290
     1
  0
XRECORD
  5
C294
102
{ACAD_REACTORS
330
C293
102
}
330
C293
100
AcDbXrecord
280
     1
290
     1
  0
SORTENTSTABLE
  5
B1BA
102
{ACAD_REACTORS
330
8A
102
}
330
8A
100
AcDbSortentsTable
330
1F
331
18280
  5
15025
331
16F21
  5
16F28
331
1500C
  5
1500C
331
16FBF
  5
16FC9
331
16F80
  5
16F8A
331
16F29
  5
16F30
331
16EEA
  5
16EEE
331
15014
  5
15014
331
16FC7
  5
16FD1
331
16F88
  5
16F91
331
16F31
  5
16F39
331
16EF2
  5
16EF9
331
1501C
  5
1501E
331
16FCF
  5
1718D
331
16F90
  5
16F99
331
16EFA
  5
16F00
331
1739C
  5
173AA
331
14CA7
  5
14CA7
331
172D5
  5
172DF
331
17A32
  5
17A37
331
173A4
  5
173AE
331
172DD
  5
1739B
331
BF54
  5
B92B
331
171BE
  5
172D4
331
17A3A
  5
17A41
331
14C58
  5
14C58
331
173AC
  5
173B6
331
17A42
  5
17A6F
331
173B4
  5
173BE
331
16F98
  5
16FA3
331
16F02
  5
16F09
331
14CD5
  5
14CD5
331
16FA0
  5
16FA9
331
16F0A
  5
16F11
331
14CDD
  5
14CDD
331
16FA8
  5
16FB1
331
16F59
  5
16F61
331
16F12
  5
16F19
331
14CE5
  5
14CE5
331
16FB0
  5
16FBB
331
16F61
  5
16F7F
331
16F1A
  5
16F21
331
173BC
  5
173C8
331
14C70
  5
14C70
331
173C4
  5
173CE
331
171EE
  5
172DB
331
1717F
  5
17194
331
17A1B
  5
17A20
331
14C78
  5
14C78
331
173CC
  5
17448
331
17A23
  5
17A28
331
14C80
  5
14C80
331
173D4
  5
17981
331
172C6
  5
172C3
331
1718F
  5
171B8
331
18153
  5
1827F
331
18281
  5
15015
331
16F79
  5
16F81
331
16F22
  5
16F29
331
1500D
  5
1500D
331
16FC0
  5
16FCA
331
16F2A
  5
16F31
331
16EEB
  5
16EEF
331
15015
  5
15016
331
16FC8
  5
16FD2
331
16F89
  5
16F92
331
16F32
  5
16F56
331
16EF3
  5
16EFA
331
1501D
  5
1501F
331
16F91
  5
16F9A
331
16EFB
  5
16F01
331
15025
  5
156A7
331
172D6
  5
172E0
331
17A33
  5
17A38
331
14CA8
  5
14CA8
331
173A5
  5
173AF
331
172DE
  5
1739C
331
171BF
  5
172D5
331
17A3B
  5
17A42
331
BF55
  5
B92C
331
173AD
  5
173B7
331
17A43
  5
17CC0
331
14C59
  5
14C59
331
173B5
  5
173BF
331
171D7
  5
172D7
331
16FD0
  5
1718E
331
16F99
  5
16FA4
331
16F03
  5
16F0A
331
14CD6
  5
14CD6
331
16FA1
  5
16FAA
331
16F0B
  5
16F12
331
14CDE
  5
14CDE
331
16FA9
  5
16FB2
331
16F5A
  5
16F62
331
16F13
  5
16F1A
331
14CE6
  5
14CE6
331
16FB1
  5
16FC0
331
16F62
  5
16F80
331
16F1B
  5
16F22
331
14CEE
  5
14CEE
331
173BD
  5
173C9
331
173C5
  5
173CF
331
17A1C
  5
17A21
331
14C79
  5
14C79
331
173CD
  5
17452
331
17A24
  5
17A29
331
14C81
  5
14C81
331
172C7
  5
172C4
331
16F7A
  5
16F83
331
16F23
  5
16F2A
331
1500E
  5
1500E
331
16FC1
  5
16FCB
331
16F82
  5
16F8B
331
16F2B
  5
16F33
331
16EEC
  5
16EF1
331
15016
  5
15018
331
16FC9
  5
16FD3
331
16F8A
  5
16F93
331
16F33
  5
16F57
331
16EF4
  5
16EFB
331
1501E
  5
15020
331
16F92
  5
16F9B
331
16EFC
  5
16F03
331
15026
  5
16EE8
331
17190
  5
172BE
331
172D7
  5
172E1
331
17A34
  5
17A39
331
14CA9
  5
14CA9
331
173A6
  5
173B0
331
172DF
  5
173A1
331
171C0
  5
172D6
331
17A3C
  5
17A43
331
17E21
  5
16FB5
331
173AE
  5
173B8
331
17A44
  5
17DC4
331
14C5A
  5
14C5A
331
173B6
  5
173C0
331
16FD1
  5
1718F
331
16F04
  5
16F0D
331
14CD7
  5
14CD7
331
16FA2
  5
16FAB
331
16F0C
  5
16F13
331
14CDF
  5
14CDF
331
16FAA
  5
16FB3
331
16F5B
  5
16F63
331
16F14
  5
16F1B
331
14CE7
  5
14CE7
331
16FB2
  5
16FC1
331
16F1C
  5
16F24
331
171D8
  5
172D8
331
14C62
  5
14C62
331
173BE
  5
173CA
331
173C6
  5
173D0
331
17A1D
  5
17A22
331
14C7A
  5
14C7A
331
173CE
  5
17453
331
17A25
  5
17A2A
331
14C82
  5
14C82
331
17397
  5
173A5
331
17A2D
  5
17A32
331
16F7B
  5
16F84
331
16F24
  5
16F2B
331
1500F
  5
1500F
331
16FC2
  5
16FCC
331
16F83
  5
16F8D
331
16F2C
  5
16F34
331
16EED
  5
16EF2
331
15017
  5
15019
331
16FCA
  5
1717F
331
16F8B
  5
16F94
331
16F34
  5
16F58
331
16EF5
  5
16EFC
331
1501F
  5
15026
331
16F93
  5
16F9C
331
16EFD
  5
16F04
331
15027
  5
16EE9
331
17191
  5
172BF
331
BF47
  5
B91E
331
172D8
  5
1730B
331
171B9
  5
172C9
331
17A35
  5
17A3A
331
173A7
  5
173B1
331
172E0
  5
173A2
331
14C53
  5
14C53
331
173AF
  5
173B9
331
17A45
  5
17E1F
331
14C5B
  5
14C5B
331
173B7
  5
173C3
331
14CD0
  5
14CD0
331
16FD2
  5
17190
331
16F9B
  5
16FA5
331
16F05
  5
16F0E
331
14CD8
  5
14CD8
331
16FA3
  5
16FAC
331
16F0D
  5
16F14
331
14CE0
  5
14CE0
331
16FAB
  5
16FB4
331
16F5C
  5
16F79
331
16F15
  5
16F1C
331
14CE8
  5
14CE8
331
16F1D
  5
16F25
331
173BF
  5
173CB
331
14C73
  5
14C73
331
173C7
  5
173D1
331
17182
  5
17195
331
17A1E
  5
17A23
331
14C7B
  5
14C7B
331
173CF
  5
17454
331
17A26
  5
17A2D
331
14C83
  5
14C83
331
17A2E
  5
17A33
331
16FBB
  5
16FC5
331
16F7C
  5
16F86
331
16F25
  5
16F2C
331
15010
  5
15010
331
16FC3
  5
16FCD
331
16F84
  5
16F8E
331
16F2D
  5
16F35
331
16EEE
  5
16EF3
331
156A7
  5
16EEB
331
15018
  5
1501A
331
16FCB
  5
17182
331
16F8C
  5
16F95
331
16F35
  5
16F59
331
15020
  5
15028
331
16F94
  5
16F9D
331
16EFE
  5
16F05
331
17398
  5
173A6
331
BF48
  5
B91F
331
14CA3
  5
14CA3
331
172D9
  5
17397
331
171BA
  5
172CA
331
17A36
  5
17A3B
331
173A8
  5
173B2
331
172E1
  5
173A3
331
14C54
  5
14C54
331
14CB3
  5
14CB3
331
173B0
  5
173BA
331
17A6E
  5
18153
331
15028
  5
16EEA
331
14CD1
  5
14CD1
331
16FD3
  5
17191
331
16F9C
  5
16FA6
331
16F06
  5
16F0F
331
14CD9
  5
14CD9
331
16FA4
  5
16FAD
331
16F55
  5
16F5D
331
16F0E
  5
16F15
331
14CE1
  5
14CE1
331
16FAC
  5
16FB6
331
16F5D
  5
16F7A
331
16F16
  5
16F1D
331
14CE9
  5
14CE9
331
16FB4
  5
16FC2
331
16F1E
  5
16F26
331
173B8
  5
173C4
331
171DA
  5
172D9
331
173C0
  5
173CC
331
14C74
  5
14C74
331
17DC4
  5
1827E
331
173C8
  5
173D2
331
172BA
  5
172C5
331
17A1F
  5
17A24
331
14C7C
  5
14C7C
331
173D0
  5
17455
331
1718B
  5
17198
331
17A27
  5
17A2E
331
14C84
  5
14C84
331
17A2F
  5
17A34
331
16FBC
  5
16FC6
331
16F7D
  5
16F87
331
16F26
  5
16F2D
331
15011
  5
15011
331
16FC4
  5
16FCE
331
16F2E
  5
16F36
331
16EEF
  5
16EF4
331
15019
  5
1501B
331
16FCC
  5
17184
331
16F8D
  5
16F96
331
16F36
  5
16F5A
331
16F95
  5
16F9F
331
16EFF
  5
16F06
331
17399
  5
173A7
331
172D2
  5
172DC
331
BF49
  5
B920
331
14CA4
  5
14CA4
331
173A1
  5
173AB
331
172DA
  5
17398
331
171BB
  5
172CD
331
17A37
  5
17A3C
331
173A9
  5
173B3
331
17A3F
  5
17A44
331
14C55
  5
14C55
331
14CB4
  5
14CB4
331
173B1
  5
173BB
331
17A6F
  5
18199
331
14CD2
  5
14CD2
331
16F9D
  5
16FA7
331
16F07
  5
16F10
331
14CDA
  5
14CDA
331
16FA5
  5
16FAE
331
16F56
  5
16F5E
331
16F0F
  5
16F16
331
14CE2
  5
14CE2
331
16FAD
  5
16FB7
331
16F5E
  5
16F7B
331
16F17
  5
16F1E
331
14CEA
  5
14CEA
331
16FB5
  5
16FC3
331
16F1F
  5
16F27
331
173B9
  5
173C5
331
171DB
  5
172DA
331
17980
  5
17A1C
331
14C75
  5
14C75
331
173C9
  5
173D3
331
172BB
  5
172C6
331
17184
  5
17197
331
17A20
  5
17A25
331
14C7D
  5
14C7D
331
173D1
  5
178E7
331
1718C
  5
171B4
331
17A28
  5
17A2F
331
14C85
  5
14C85
331
1827E
  5
15027
331
1500A
  5
1500A
331
16FBD
  5
16FC7
331
16F27
  5
16F2E
331
16EE8
  5
16EEC
331
15012
  5
15012
331
16FC5
  5
16FCF
331
16F86
  5
16F8F
331
16F2F
  5
16F37
331
16EF0
  5
16EF5
331
1501A
  5
1501C
331
16FCD
  5
1718B
331
16F8E
  5
16F97
331
16F37
  5
16F5B
331
16EF8
  5
16EFE
331
16F96
  5
16FA1
331
1739A
  5
173A8
331
172D3
  5
172DD
331
17A30
  5
17A35
331
BF4A
  5
B921
331
14CA5
  5
14CA5
331
173A2
  5
173AC
331
172DB
  5
17399
331
171BC
  5
172D2
331
17A38
  5
17A3F
331
BF52
  5
B929
331
17881
  5
17982
331
173AA
  5
173B4
331
17A40
  5
17A45
331
14C56
  5
14C56
331
14CB5
  5
14CB5
331
173B2
  5
173BC
331
181E8
  5
18281
331
16F00
  5
16F07
331
14CD3
  5
14CD3
331
14CDB
  5
14CDB
331
16FA6
  5
16FAF
331
16F57
  5
16F5F
331
16F10
  5
16F17
331
14CE3
  5
14CE3
331
16FAE
  5
16FB9
331
16F5F
  5
16F7D
331
16F18
  5
16F1F
331
14CEB
  5
14CEB
331
16FB6
  5
16FC4
331
173BA
  5
173C6
331
1730B
  5
173A4
331
17981
  5
17A1D
331
14C76
  5
14C76
331
17D96
  5
181E8
331
173CA
  5
173D4
331
14C7E
  5
14C7E
331
172BC
  5
172C7
331
17A21
  5
17A26
331
173D2
  5
1797E
331
172C4
  5
172C0
331
14C86
  5
14C86
331
1718D
  5
171B6
331
17A29
  5
17A30
331
1827F
  5
15017
331
1500B
  5
1500B
331
16FBE
  5
16FC8
331
16F7F
  5
16F88
331
16F28
  5
16F2F
331
16EE9
  5
16EED
331
15013
  5
15013
331
16FC6
  5
16FD0
331
16F87
  5
16F90
331
16F30
  5
16F38
331
16EF1
  5
16EF6
331
1501B
  5
1501D
331
16FCE
  5
1718C
331
16F8F
  5
16F98
331
16EF9
  5
16EFF
331
16F97
  5
16FA2
331
1739B
  5
173A9
331
14CA6
  5
14CA6
331
172D4
  5
172DE
331
17A31
  5
17A36
331
173A3
  5
173AD
331
172DC
  5
1739A
331
BF53
  5
B92A
331
171BD
  5
172D3
331
17A39
  5
17A40
331
14C57
  5
14C57
331
173AB
  5
173B5
331
17A41
  5
17A6E
331
173B3
  5
173BD
331
16F38
  5
16F5C
331
16F01
  5
16F08
331
14CD4
  5
14CD4
331
16F9F
  5
16FA8
331
14CDC
  5
14CDC
331
16FA7
  5
16FB0
331
16F58
  5
16F60
331
16F11
  5
16F18
331
14CE4
  5
14CE4
331
16FAF
  5
16FBA
331
16F60
  5
16F7E
331
16F19
  5
16F20
331
14CEC
  5
14CEC
331
173BB
  5
173C7
331
17982
  5
17A1E
331
14C77
  5
14C77
331
173C3
  5
173CD
331
17A1A
  5
17A1F
331
173CB
  5
17416
331
14C7F
  5
14C7F
331
172BD
  5
172C8
331
17A22
  5
17A27
331
173D3
  5
17980
331
172C5
  5
172C2
331
1718E
  5
171B7
  0
XRECORD
  5
18854
102
{ACAD_REACTORS
330
18853
102
}
330
18853
100
AcDbXrecord
280
     1
 40
4184.0
  1
2-\U+22058.5
  0
XRECORD
  5
18852
102
{ACAD_REACTORS
330
18851
102
}
330
18851
100
AcDbXrecord
280
     1
 40
4184.0
  1
2-\U+22058.5
  0
XRECORD
  5
18845
102
{ACAD_REACTORS
330
18844
102
}
330
18844
100
AcDbXrecord
280
     1
 40
9639174.0
  1
\pxqc;六角穴付ボタンボルト\P（枠側）L寸法
  0
XRECORD
  5
18847
102
{ACAD_REACTORS
330
18846
102
}
330
18846
100
AcDbXrecord
280
     1
 40
9120680.0
  1
\pxqc;六角穴付サラボルト\P（扉側）L寸法
  0
XRECORD
  5
18849
102
{ACAD_REACTORS
330
18848
102
}
330
18848
100
AcDbXrecord
280
     1
 70
     1
  0
LAYOUT
  5
22
102
{ACAD_REACTORS
330
1A
102
}
330
1A
100
AcDbPlotSettings
  1

  2
Adobe PDF
  4
A3
  6
AM_VIEW1
 40
3.174999952316284
 41
3.174999952316284
 42
3.17498779296875
 43
3.17498779296875
 44
297.0318298339844
 45
420.1583251953125
 46
-3.159078955650329
 47
-3.09583127498621
 48
0.0
 49
0.0
140
419.9999999999999
141
297.0
142
1.0
143
1.0
 70
  3748
 72
     1
 73
     1
 74
     4
  7
monochrome.ctb
 75
     0
147
0.9670387807518544
 76
     0
 77
     2
 78
   200
148
0.0
149
0.0
100
AcDbLayout
  1
Model
 70
     1
 71
     0
 10
0.0
 20
0.0
 11
12.0
 21
9.0
 12
0.0
 22
0.0
 32
0.0
 14
0.0
 24
0.0
 34
0.0
 15
0.0
 25
0.0
 35
0.0
146
0.0
 13
0.0
 23
0.0
 33
0.0
 16
1.0
 26
0.0
 36
0.0
 17
0.0
 27
1.0
 37
0.0
 76
     0
330
1F
331
B0EC
1001
ACAD_PSEXT
1000
Adobe PDF
1000
Adobe PDF Converter
1000
My Documents\*.pdf
1000

1070
     0
  0
LAYOUT
  5
1E
102
{ACAD_REACTORS
330
1A
102
}
330
1A
100
AcDbPlotSettings
  1

  2
\\ML370\XEROX
  4
A4
  6

 40
3.174999952316284
 41
3.174999952316284
 42
3.175003051757812
 43
3.17498779296875
 44
209.8674926757813
 45
296.6719970703125
 46
0.0
 47
0.0
 48
0.0
 49
0.0
140
0.0
141
0.0
142
1.0
143
1.0
 70
   688
 72
     1
 73
     1
 74
     5
  7
monochrome.ctb
 75
    16
147
1.0
 76
     0
 77
     2
 78
   300
148
0.0
149
0.0
100
AcDbLayout
  1
ﾚｲｱｳﾄ1
 70
     1
 71
     1
 10
-3.17498779296875
 20
-3.174999952316284
 11
293.4970092773438
 21
206.692492723465
 12
0.0
 22
0.0
 32
0.0
 14
1.000000000000000E+20
 24
1.000000000000000E+20
 34
1.000000000000000E+20
 15
-1.000000000000000E+20
 25
-1.000000000000000E+20
 35
-1.000000000000000E+20
146
0.0
 13
0.0
 23
0.0
 33
0.0
 16
1.0
 26
0.0
 36
0.0
 17
0.0
 27
1.0
 37
0.0
 76
     0
330
1B
  0
LAYOUT
  5
26
102
{ACAD_REACTORS
330
1A
102
}
330
1A
100
AcDbPlotSettings
  1

  2
\\ML370\XEROX
  4

  6

 40
0.0
 41
0.0
 42
0.0
 43
0.0
 44
0.0
 45
0.0
 46
0.0
 47
0.0
 48
0.0
 49
0.0
140
0.0
141
0.0
142
1.0
143
1.0
 70
   688
 72
     0
 73
     0
 74
     5
  7
monochrome.ctb
 75
    16
147
1.0
 76
     0
 77
     2
 78
   300
148
0.0
149
0.0
100
AcDbLayout
  1
ﾚｲｱｳﾄ2
 70
     1
 71
     2
 10
0.0
 20
0.0
 11
12.0
 21
9.0
 12
0.0
 22
0.0
 32
0.0
 14
0.0
 24
0.0
 34
0.0
 15
0.0
 25
0.0
 35
0.0
146
0.0
 13
0.0
 23
0.0
 33
0.0
 16
1.0
 26
0.0
 36
0.0
 17
0.0
 27
1.0
 37
0.0
 76
     0
330
23
  0
MATERIAL
  5
B0EF
102
{ACAD_XDICTIONARY
360
1884D
102
}
102
{ACAD_REACTORS
330
A91C
102
}
330
A91C
100
AcDbMaterial
  1
ByBlock
 73
     1
 78
     1
172
     1
176
     1
270
     1
274
     1
  0
MATERIAL
  5
B0EE
102
{ACAD_XDICTIONARY
360
1884B
102
}
102
{ACAD_REACTORS
330
A91C
102
}
330
A91C
100
AcDbMaterial
  1
ByLayer
 73
     1
 78
     1
172
     1
176
     1
270
     1
274
     1
  0
MATERIAL
  5
B0F0
102
{ACAD_XDICTIONARY
360
1884F
102
}
102
{ACAD_REACTORS
330
A91C
102
}
330
A91C
100
AcDbMaterial
  1
Global
 73
     1
 78
     1
172
     1
176
     1
270
     1
274
     1
  0
MLEADERSTYLE
  5
B596
102
{ACAD_REACTORS
330
B595
102
}
330
B595
100
AcDbMLeaderStyle
170
     2
171
     1
172
     0
 90
        2
 40
0.0
 41
0.0
173
     1
 91
-1056964608
340
14
 92
       -2
290
     1
 42
2.0
291
     1
 43
0.36
  3
Standard
 44
4.0
300

342
11
174
     1
178
     6
175
     1
176
     0
 93
-1056964608
 45
4.0
292
     0
297
     0
 46
4.0
 94
-1056964608
 47
1.0
 49
1.0
140
1.0
293
     1
141
0.0
294
     1
177
     0
142
1.0
295
     0
296
     0
143
0.125
1001
ACAD_MLEADERVER
1070
     2
  0
MLINESTYLE
  5
18
102
{ACAD_REACTORS
330
17
102
}
330
17
100
AcDbMlineStyle
  2
STANDARD
 70
     0
  3

 62
   256
 51
90.0
 52
90.0
 71
     2
 49
0.5
 62
   256
  6
BYLAYER
 49
-0.5
 62
   256
  6
BYLAYER
  0
ACDBPLACEHOLDER
  5
F
102
{ACAD_REACTORS
330
E
102
}
330
E
  0
SCALE
  5
B574
102
{ACAD_REACTORS
330
B573
102
}
330
B573
100
AcDbScale
 70
     0
300
1:1
140
1.0
141
1.0
290
     1
  0
SCALE
  5
B575
102
{ACAD_REACTORS
330
B573
102
}
330
B573
100
AcDbScale
 70
     0
300
1:2
140
1.0
141
2.0
290
     0
  0
SCALE
  5
B576
102
{ACAD_REACTORS
330
B573
102
}
330
B573
100
AcDbScale
 70
     0
300
1:4
140
1.0
141
4.0
290
     0
  0
SCALE
  5
B577
102
{ACAD_REACTORS
330
B573
102
}
330
B573
100
AcDbScale
 70
     0
300
1:5
140
1.0
141
5.0
290
     0
  0
SCALE
  5
B578
102
{ACAD_REACTORS
330
B573
102
}
330
B573
100
AcDbScale
 70
     0
300
1:8
140
1.0
141
8.0
290
     0
  0
SCALE
  5
B579
102
{ACAD_REACTORS
330
B573
102
}
330
B573
100
AcDbScale
 70
     0
300
1:10
140
1.0
141
10.0
290
     0
  0
SCALE
  5
B57A
102
{ACAD_REACTORS
330
B573
102
}
330
B573
100
AcDbScale
 70
     0
300
1:16
140
1.0
141
16.0
290
     0
  0
SCALE
  5
B57B
102
{ACAD_REACTORS
330
B573
102
}
330
B573
100
AcDbScale
 70
     0
300
1:20
140
1.0
141
20.0
290
     0
  0
SCALE
  5
B57C
102
{ACAD_REACTORS
330
B573
102
}
330
B573
100
AcDbScale
 70
     0
300
1:30
140
1.0
141
30.0
290
     0
  0
SCALE
  5
B57D
102
{ACAD_REACTORS
330
B573
102
}
330
B573
100
AcDbScale
 70
     0
300
1:40
140
1.0
141
40.0
290
     0
  0
SCALE
  5
B57E
102
{ACAD_REACTORS
330
B573
102
}
330
B573
100
AcDbScale
 70
     0
300
1:50
140
1.0
141
50.0
290
     0
  0
SCALE
  5
B57F
102
{ACAD_REACTORS
330
B573
102
}
330
B573
100
AcDbScale
 70
     0
300
1:100
140
1.0
141
100.0
290
     0
  0
SCALE
  5
B580
102
{ACAD_REACTORS
330
B573
102
}
330
B573
100
AcDbScale
 70
     0
300
2:1
140
2.0
141
1.0
290
     0
  0
SCALE
  5
B581
102
{ACAD_REACTORS
330
B573
102
}
330
B573
100
AcDbScale
 70
     0
300
4:1
140
4.0
141
1.0
290
     0
  0
SCALE
  5
B582
102
{ACAD_REACTORS
330
B573
102
}
330
B573
100
AcDbScale
 70
     0
300
8:1
140
8.0
141
1.0
290
     0
  0
SCALE
  5
B583
102
{ACAD_REACTORS
330
B573
102
}
330
B573
100
AcDbScale
 70
     0
300
10:1
140
10.0
141
1.0
290
     0
  0
SCALE
  5
B584
102
{ACAD_REACTORS
330
B573
102
}
330
B573
100
AcDbScale
 70
     0
300
100:1
140
100.0
141
1.0
290
     0
  0
SCALE
  5
B585
102
{ACAD_REACTORS
330
B573
102
}
330
B573
100
AcDbScale
 70
     0
300
1/128" = 1'-0"
140
0.0078125
141
12.0
290
     0
  0
SCALE
  5
B586
102
{ACAD_REACTORS
330
B573
102
}
330
B573
100
AcDbScale
 70
     0
300
1/64" = 1'-0"
140
0.015625
141
12.0
290
     0
  0
SCALE
  5
B587
102
{ACAD_REACTORS
330
B573
102
}
330
B573
100
AcDbScale
 70
     0
300
1/32" = 1'-0"
140
0.03125
141
12.0
290
     0
  0
SCALE
  5
B588
102
{ACAD_REACTORS
330
B573
102
}
330
B573
100
AcDbScale
 70
     0
300
1/16" = 1'-0"
140
0.0625
141
12.0
290
     0
  0
SCALE
  5
B589
102
{ACAD_REACTORS
330
B573
102
}
330
B573
100
AcDbScale
 70
     0
300
3/32" = 1'-0"
140
0.09375
141
12.0
290
     0
  0
SCALE
  5
B58A
102
{ACAD_REACTORS
330
B573
102
}
330
B573
100
AcDbScale
 70
     0
300
1/8" = 1'-0"
140
0.125
141
12.0
290
     0
  0
SCALE
  5
B58B
102
{ACAD_REACTORS
330
B573
102
}
330
B573
100
AcDbScale
 70
     0
300
3/16" = 1'-0"
140
0.1875
141
12.0
290
     0
  0
SCALE
  5
B58C
102
{ACAD_REACTORS
330
B573
102
}
330
B573
100
AcDbScale
 70
     0
300
1/4" = 1'-0"
140
0.25
141
12.0
290
     0
  0
SCALE
  5
B58D
102
{ACAD_REACTORS
330
B573
102
}
330
B573
100
AcDbScale
 70
     0
300
3/8" = 1'-0"
140
0.375
141
12.0
290
     0
  0
SCALE
  5
B58E
102
{ACAD_REACTORS
330
B573
102
}
330
B573
100
AcDbScale
 70
     0
300
1/2" = 1'-0"
140
0.5
141
12.0
290
     0
  0
SCALE
  5
B58F
102
{ACAD_REACTORS
330
B573
102
}
330
B573
100
AcDbScale
 70
     0
300
3/4" = 1'-0"
140
0.75
141
12.0
290
     0
  0
SCALE
  5
B590
102
{ACAD_REACTORS
330
B573
102
}
330
B573
100
AcDbScale
 70
     0
300
1" = 1'-0"
140
1.0
141
12.0
290
     0
  0
SCALE
  5
B591
102
{ACAD_REACTORS
330
B573
102
}
330
B573
100
AcDbScale
 70
     0
300
1-1/2" = 1'-0"
140
1.5
141
12.0
290
     0
  0
SCALE
  5
B592
102
{ACAD_REACTORS
330
B573
102
}
330
B573
100
AcDbScale
 70
     0
300
3" = 1'-0"
140
3.0
141
12.0
290
     0
  0
SCALE
  5
B593
102
{ACAD_REACTORS
330
B573
102
}
330
B573
100
AcDbScale
 70
     0
300
6" = 1'-0"
140
6.0
141
12.0
290
     0
  0
SCALE
  5
B594
102
{ACAD_REACTORS
330
B573
102
}
330
B573
100
AcDbScale
 70
     0
300
1'-0" = 1'-0"
140
12.0
141
12.0
290
     0
  0
TABLESTYLE
  5
AABA
102
{ACAD_XDICTIONARY
360
B5B5
102
}
102
{ACAD_REACTORS
330
AAB9
102
}
330
AAB9
100
AcDbTableStyle
  3
Standard
 70
     0
 71
     0
 40
1.5
 41
1.5
280
     0
281
     0
  7
STANDARD
140
4.5
170
     2
 62
     0
 63
     7
283
     0
274
    -2
284
     1
 64
     0
275
    -2
285
     1
 65
     0
276
    -2
286
     1
 66
     0
277
    -2
287
     1
 67
     0
278
    -2
288
     1
 68
     0
279
    -2
289
     1
 69
     0
  7
STANDARD
140
6.0
170
     5
 62
     0
 63
     7
283
     0
274
    -2
284
     1
 64
     0
275
    -2
285
     1
 65
     0
276
    -2
286
     1
 66
     0
277
    -2
287
     1
 67
     0
278
    -2
288
     1
 68
     0
279
    -2
289
     1
 69
     0
  7
STANDARD
140
4.5
170
     5
 62
     0
 63
     7
283
     0
274
    -2
284
     1
 64
     0
275
    -2
285
     1
 65
     0
276
    -2
286
     1
 66
     0
277
    -2
287
     1
 67
     0
278
    -2
288
     1
 68
     0
279
    -2
289
     1
 69
     0
  0
VISUALSTYLE
  5
B0F7
102
{ACAD_REACTORS
330
B0F1
102
}
330
B0F1
100
AcDbVisualStyle
  2
2dWireframe
 70
     4
 71
     0
 72
     2
 73
     0
 90
        0
 40
-0.6
 41
-30.0
 62
     5
 63
     7
421
 16777215
 74
     1
 91
        4
 64
     7
 65
   257
 75
     1
175
     1
 42
1.0
 92
        0
 66
   257
 43
1.0
 76
     1
 77
     6
 78
     2
 67
     7
 79
     5
170
     0
171
     0
290
     0
174
     0
 93
        1
 44
0.0
173
     0
291
     0
 45
0.0
1001
ACAD
1000
AcDbSavedByObjectVersion
1070
     0
  0
VISUALSTYLE
  5
B0F9
102
{ACAD_REACTORS
330
B0F1
102
}
330
B0F1
100
AcDbVisualStyle
  2
3D Hidden
 70
     6
 71
     1
 72
     2
 73
     2
 90
        0
 40
-0.6
 41
-30.0
 62
     5
 63
     7
421
 16777215
 74
     2
 91
        2
 64
     7
 65
   257
 75
     2
175
     1
 42
40.0
 92
        0
 66
   257
 43
1.0
 76
     1
 77
     6
 78
     2
 67
     7
 79
     3
170
     0
171
     0
290
     0
174
     0
 93
        1
 44
0.0
173
     0
291
     0
 45
0.0
1001
ACAD
1000
AcDbSavedByObjectVersion
1070
     0
  0
VISUALSTYLE
  5
B0F8
102
{ACAD_REACTORS
330
B0F1
102
}
330
B0F1
100
AcDbVisualStyle
  2
3dWireframe
 70
     5
 71
     0
 72
     2
 73
     0
 90
        0
 40
-0.6
 41
-30.0
 62
     5
 63
     7
421
 16777215
 74
     1
 91
        4
 64
     7
 65
   257
 75
     1
175
     1
 42
1.0
 92
        0
 66
   257
 43
1.0
 76
     1
 77
     6
 78
     2
 67
     7
 79
     5
170
     0
171
     0
290
     0
174
     0
 93
        1
 44
0.0
173
     0
291
     0
 45
0.0
1001
ACAD
1000
AcDbSavedByObjectVersion
1070
     0
  0
VISUALSTYLE
  5
B0F6
102
{ACAD_REACTORS
330
B0F1
102
}
330
B0F1
100
AcDbVisualStyle
  2
Basic
 70
     7
 71
     1
 72
     0
 73
     1
 90
        0
 40
-0.6
 41
-30.0
 62
     5
 63
     7
421
 16777215
 74
     0
 91
        4
 64
     7
 65
   257
 75
     1
175
     1
 42
1.0
 92
        8
 66
     7
 43
1.0
 76
     1
 77
     6
 78
     2
 67
     7
 79
     5
170
     0
171
     0
290
     0
174
     0
 93
        1
 44
0.0
173
     0
291
     1
 45
0.0
1001
ACAD
1000
AcDbSavedByObjectVersion
1070
     0
  0
VISUALSTYLE
  5
B0FD
102
{ACAD_REACTORS
330
B0F1
102
}
330
B0F1
100
AcDbVisualStyle
  2
Brighten
 70
    12
 71
     2
 72
     2
 73
     0
 90
        0
 40
-0.6
 41
-30.0
 62
     5
 63
     7
421
 16777215
 74
     1
 91
        4
 64
     7
 65
   257
 75
     1
175
     1
 42
1.0
 92
        8
 66
     7
 43
1.0
 76
     1
 77
     6
 78
     2
 67
     7
 79
     5
170
     0
171
     0
290
     0
174
     0
 93
        1
 44
50.0
173
     0
291
     1
 45
0.0
1001
ACAD
1000
AcDbSavedByObjectVersion
1070
     0
  0
VISUALSTYLE
  5
B101
102
{ACAD_REACTORS
330
B0F1
102
}
330
B0F1
100
AcDbVisualStyle
  2
ColorChange
 70
    16
 71
     2
 72
     2
 73
     3
 90
        0
 40
-0.6
 41
-30.0
 62
     5
 63
     8
421
  8421504
 74
     1
 91
        4
 64
     7
 65
   257
 75
     1
175
     1
 42
1.0
 92
        8
 66
     8
424
  8421504
 43
1.0
 76
     1
 77
     6
 78
     2
 67
     7
 79
     5
170
     0
171
     0
290
     0
174
     0
 93
        1
 44
0.0
173
     0
291
     1
 45
0.0
1001
ACAD
1000
AcDbSavedByObjectVersion
1070
     0
  0
VISUALSTYLE
  5
B0FA
102
{ACAD_REACTORS
330
B0F1
102
}
330
B0F1
100
AcDbVisualStyle
  2
Conceptual
 70
     9
 71
     3
 72
     2
 73
     0
 90
        0
 40
-0.6
 41
-30.0
 62
     5
 63
     7
421
 16777215
 74
     2
 91
        2
 64
     7
 65
   257
 75
     1
175
     1
 42
40.0
 92
        8
 66
     7
 43
1.0
 76
     1
 77
     6
 78
     2
 67
     7
 79
     3
170
     0
171
     0
290
     0
174
     0
 93
        1
 44
0.0
173
     0
291
     0
 45
0.0
1001
ACAD
1000
AcDbSavedByObjectVersion
1070
     0
  0
VISUALSTYLE
  5
B0FC
102
{ACAD_REACTORS
330
B0F1
102
}
330
B0F1
100
AcDbVisualStyle
  2
Dim
 70
    11
 71
     2
 72
     2
 73
     0
 90
        0
 40
-0.6
 41
-30.0
 62
     5
 63
     7
421
 16777215
 74
     1
 91
        4
 64
     7
 65
   257
 75
     1
175
     1
 42
1.0
 92
        8
 66
     7
 43
1.0
 76
     1
 77
     6
 78
     2
 67
     7
 79
     5
170
     0
171
     0
290
     0
174
     0
 93
        1
 44
-50.0
173
     0
291
     1
 45
0.0
1001
ACAD
1000
AcDbSavedByObjectVersion
1070
     0
  0
VISUALSTYLE
  5
B100
102
{ACAD_REACTORS
330
B0F1
102
}
330
B0F1
100
AcDbVisualStyle
  2
Facepattern
 70
    15
 71
     2
 72
     2
 73
     0
 90
        0
 40
-0.6
 41
-30.0
 62
     5
 63
     7
421
 16777215
 74
     1
 91
        4
 64
     7
 65
   257
 75
     1
175
     1
 42
1.0
 92
        8
 66
     7
 43
1.0
 76
     1
 77
     6
 78
     2
 67
     7
 79
     5
170
     0
171
     0
290
     0
174
     0
 93
        1
 44
0.0
173
     0
291
     1
 45
0.0
1001
ACAD
1000
AcDbSavedByObjectVersion
1070
     0
  0
VISUALSTYLE
  5
B0F2
102
{ACAD_REACTORS
330
B0F1
102
}
330
B0F1
100
AcDbVisualStyle
  2
Flat
 70
     0
 71
     2
 72
     1
 73
     1
 90
        2
 40
-0.6
 41
30.0
 62
     5
 63
     7
421
 16777215
 74
     0
 91
        4
 64
     7
 65
   257
 75
     1
175
     1
 42
1.0
 92
        8
 66
     7
 43
1.0
 76
     1
 77
     6
 78
     2
 67
     7
 79
     5
170
     0
171
     0
290
     0
174
     0
 93
       13
 44
0.0
173
     0
291
     1
 45
0.0
1001
ACAD
1000
AcDbSavedByObjectVersion
1070
     0
  0
VISUALSTYLE
  5
B0F3
102
{ACAD_REACTORS
330
B0F1
102
}
330
B0F1
100
AcDbVisualStyle
  2
FlatWithEdges
 70
     1
 71
     2
 72
     1
 73
     1
 90
        2
 40
-0.6
 41
30.0
 62
     5
 63
     7
421
 16777215
 74
     1
 91
        4
 64
     7
 65
   257
 75
     1
175
     1
 42
1.0
 92
        0
 66
   257
 43
1.0
 76
     1
 77
     6
 78
     2
 67
     7
 79
     5
170
     0
171
     0
290
     0
174
     0
 93
       13
 44
0.0
173
     0
291
     1
 45
0.0
1001
ACAD
1000
AcDbSavedByObjectVersion
1070
     0
  0
VISUALSTYLE
  5
B0F4
102
{ACAD_REACTORS
330
B0F1
102
}
330
B0F1
100
AcDbVisualStyle
  2
Gouraud
 70
     2
 71
     2
 72
     2
 73
     1
 90
        2
 40
-0.6
 41
30.0
 62
     5
 63
     7
421
 16777215
 74
     0
 91
        4
 64
     7
 65
   257
 75
     1
175
     1
 42
1.0
 92
        0
 66
     7
 43
1.0
 76
     1
 77
     6
 78
     2
 67
     7
 79
     5
170
     0
171
     0
290
     0
174
     0
 93
       13
 44
0.0
173
     0
291
     1
 45
0.0
1001
ACAD
1000
AcDbSavedByObjectVersion
1070
     0
  0
VISUALSTYLE
  5
B0F5
102
{ACAD_REACTORS
330
B0F1
102
}
330
B0F1
100
AcDbVisualStyle
  2
GouraudWithEdges
 70
     3
 71
     2
 72
     2
 73
     1
 90
        2
 40
-0.6
 41
30.0
 62
     5
 63
     7
421
 16777215
 74
     1
 91
        4
 64
     7
 65
   257
 75
     1
175
     1
 42
1.0
 92
        0
 66
   257
 43
1.0
 76
     1
 77
     6
 78
     2
 67
     7
 79
     5
170
     0
171
     0
290
     0
174
     0
 93
       13
 44
0.0
173
     0
291
     1
 45
0.0
1001
ACAD
1000
AcDbSavedByObjectVersion
1070
     0
  0
VISUALSTYLE
  5
B0FF
102
{ACAD_REACTORS
330
B0F1
102
}
330
B0F1
100
AcDbVisualStyle
  2
Linepattern
 70
    14
 71
     2
 72
     2
 73
     0
 90
        0
 40
-0.6
 41
-30.0
 62
     5
 63
     7
421
 16777215
 74
     1
 91
        4
 64
     7
 65
   257
 75
     7
175
     7
 42
1.0
 92
        8
 66
     7
 43
1.0
 76
     1
 77
     6
 78
     2
 67
     7
 79
     5
170
     0
171
     0
290
     0
174
     0
 93
        1
 44
0.0
173
     0
291
     1
 45
0.0
1001
ACAD
1000
AcDbSavedByObjectVersion
1070
     0
  0
VISUALSTYLE
  5
B0FB
102
{ACAD_REACTORS
330
B0F1
102
}
330
B0F1
100
AcDbVisualStyle
  2
Realistic
 70
     8
 71
     2
 72
     2
 73
     0
 90
        0
 40
-0.6
 41
-30.0
 62
     5
 63
     7
421
 16777215
 74
     1
 91
        0
 64
     7
 65
   257
 75
     1
175
     1
 42
1.0
 92
        8
 66
     8
424
  7895160
 43
1.0
 76
     1
 77
     6
 78
     2
 67
     7
 79
     5
170
     0
171
     0
290
     0
174
     0
 93
       13
 44
0.0
173
     0
291
     0
 45
0.0
1001
ACAD
1000
AcDbSavedByObjectVersion
1070
     0
  0
VISUALSTYLE
  5
B0FE
102
{ACAD_REACTORS
330
B0F1
102
}
330
B0F1
100
AcDbVisualStyle
  2
Thicken
 70
    13
 71
     2
 72
     2
 73
     0
 90
        0
 40
-0.6
 41
-30.0
 62
     5
 63
     7
421
 16777215
 74
     1
 91
        4
 64
     7
 65
   257
 75
     1
175
     1
 42
1.0
 92
       12
 66
     7
 43
1.0
 76
     1
 77
     6
 78
     2
 67
     7
 79
     5
170
     0
171
     0
290
     0
174
     0
 93
        1
 44
0.0
173
     0
291
     1
 45
0.0
1001
ACAD
1000
AcDbSavedByObjectVersion
1070
     0
  0
DICTIONARYVAR
  5
B5BA
102
{ACAD_REACTORS
330
34
102
}
330
34
100
DictionaryVariables
280
     0
  1
1:1
  0
DICTIONARYVAR
  5
B5B8
102
{ACAD_REACTORS
330
34
102
}
330
34
100
DictionaryVariables
280
     0
  1
STANDARD
  0
DICTIONARYVAR
  5
AAF3
102
{ACAD_REACTORS
330
34
102
}
330
34
100
DictionaryVariables
280
     0
  1
STANDARD
  0
DICTIONARYVAR
  5
A10C
102
{ACAD_REACTORS
330
34
102
}
330
34
100
DictionaryVariables
280
     0
  1
1
  0
DICTIONARYVAR
  5
AB07
102
{ACAD_REACTORS
330
34
102
}
330
34
100
DictionaryVariables
280
     0
  1
4
  0
DICTIONARYVAR
  5
35
102
{ACAD_REACTORS
330
34
102
}
330
34
100
DictionaryVariables
280
     0
  1
1
  0
DICTIONARYVAR
  5
B5BB
102
{ACAD_REACTORS
330
34
102
}
330
34
100
DictionaryVariables
280
     0
  1
0
  0
DICTIONARYVAR
  5
B5B9
102
{ACAD_REACTORS
330
34
102
}
330
34
100
DictionaryVariables
280
     0
  1
0
  0
DICTIONARYVAR
  5
194C
102
{ACAD_REACTORS
330
34
102
}
330
34
100
DictionaryVariables
280
     0
  1
96
  0
DICTIONARY
  5
7E8
102
{ACAD_REACTORS
330
47
102
}
330
47
100
AcDbDictionary
281
     1
  0
DICTIONARY
  5
4C
102
{ACAD_REACTORS
330
47
102
}
330
47
100
AcDbDictionary
281
     1
  0
XRECORD
  5
A929
102
{ACAD_REACTORS
330
47
102
}
330
47
100
AcDbXrecord
280
     1
 90
-1023410169
  0
XRECORD
  5
B571
102
{ACAD_REACTORS
330
B570
102
}
330
B570
100
AcDbXrecord
280
     1
  0
XRECORD
  5
3FB7
102
{ACAD_REACTORS
330
3F96
102
}
330
3F96
100
AcDbXrecord
280
     1
 91
        3
330
0
 90
        8
 62
     7
370
    40
331
16
  1
Color_7
330
0
 90
        0
 62
    14
370
    -3
331
16
  1
Color_14
330
0
 90
        8
 62
     7
370
    20
331
16
  1
Color_7
330
6D1
 90
        0
 62
     7
370
    -3
331
16
  1
Color_7
330
0
 90
        8
 62
     7
370
    50
331
16
  1
Color_7
330
0
 90
        8
 62
     2
370
    35
331
16
  1
Color_2
330
0
 90
        8
 62
     7
370
    -3
331
16
  1
Color_7
330
10
 90
        8
 62
     7
370
    -3
331
16
  1
Color_7
  0
DICTIONARY
  5
1884D
330
B0EF
100
AcDbDictionary
280
     1
281
     1
  3
ACAD_XREC_ROUNDTRIP
360
1884E
  0
DICTIONARY
  5
1884B
330
B0EE
100
AcDbDictionary
280
     1
281
     1
  3
ACAD_XREC_ROUNDTRIP
360
1884C
  0
DICTIONARY
  5
1884F
330
B0F0
100
AcDbDictionary
280
     1
281
     1
  3
ACAD_XREC_ROUNDTRIP
360
18850
  0
DICTIONARY
  5
B5B5
330
AABA
100
AcDbDictionary
280
     1
281
     1
  3
ACAD_ROUNDTRIP_2008_TABLESTYLE_CELLSTYLEMAP
360
18843
  3
ACAD_XREC_ROUNDTRIP
360
1884A
  0
XRECORD
  5
1884E
102
{ACAD_REACTORS
330
1884D
102
}
330
1884D
100
AcDbXrecord
280
     1
102
MATERIAL
148
0.0
149
0.0
149
0.0
 93
        0
 94
       63
282
     0
 72
     1
 77
     1
171
     1
175
     1
179
     1
273
     0
  0
XRECORD
  5
1884C
102
{ACAD_REACTORS
330
1884B
102
}
330
1884B
100
AcDbXrecord
280
     1
102
MATERIAL
148
0.0
149
0.0
149
0.0
 93
        0
 94
       63
282
     0
 72
     1
 77
     1
171
     1
175
     1
179
     1
273
     0
  0
XRECORD
  5
18850
102
{ACAD_REACTORS
330
1884F
102
}
330
1884F
100
AcDbXrecord
280
     1
102
MATERIAL
148
0.0
149
0.0
149
0.0
 93
        0
 94
       63
282
     0
 72
     1
 77
     1
171
     1
175
     1
179
     1
273
     0
  0
CELLSTYLEMAP
  5
18843
102
{ACAD_REACTORS
330
B5B5
102
}
330
B5B5
100
AcDbCellStyleMap
 90
        3
300
CELLSTYLE
  1
TABLEFORMAT_BEGIN
 90
        5
170
     1
 91
        0
 92
    32768
 62
   257
 93
        1
300
CONTENTFORMAT
  1
CONTENTFORMAT_BEGIN
 90
        0
 91
        0
 92
        4
 93
        0
300

 40
0.0
140
1.0
 94
        5
 62
     0
340
11
144
6.0
309
CONTENTFORMAT_END
171
     1
301
MARGIN
  1
CELLMARGIN_BEGIN
 40
1.5
 40
1.5
 40
1.5
 40
1.5
 40
0.18
 40
0.18
309
CELLMARGIN_END
 94
        6
 95
        1
302
GRIDFORMAT
  1
GRIDFORMAT_BEGIN
 90
        0
 91
        1
 62
     0
 92
       -2
340
0
 93
        0
 40
0.045
309
GRIDFORMAT_END
 95
        2
302
GRIDFORMAT
  1
GRIDFORMAT_BEGIN
 90
        0
 91
        1
 62
     0
 92
       -2
340
0
 93
        0
 40
0.045
309
GRIDFORMAT_END
 95
        4
302
GRIDFORMAT
  1
GRIDFORMAT_BEGIN
 90
        0
 91
        1
 62
     0
 92
       -2
340
0
 93
        0
 40
0.045
309
GRIDFORMAT_END
 95
        8
302
GRIDFORMAT
  1
GRIDFORMAT_BEGIN
 90
        0
 91
        1
 62
     0
 92
       -2
340
0
 93
        0
 40
0.045
309
GRIDFORMAT_END
 95
       16
302
GRIDFORMAT
  1
GRIDFORMAT_BEGIN
 90
        0
 91
        1
 62
     0
 92
       -2
340
0
 93
        0
 40
0.045
309
GRIDFORMAT_END
 95
       32
302
GRIDFORMAT
  1
GRIDFORMAT_BEGIN
 90
        0
 91
        1
 62
     0
 92
       -2
340
0
 93
        0
 40
0.045
309
GRIDFORMAT_END
309
TABLEFORMAT_END
  1
CELLSTYLE_BEGIN
 90
        1
 91
        1
300
_TITLE
309
CELLSTYLE_END
300
CELLSTYLE
  1
TABLEFORMAT_BEGIN
 90
        5
170
     1
 91
        0
 92
        0
 62
   257
 93
        1
300
CONTENTFORMAT
  1
CONTENTFORMAT_BEGIN
 90
        0
 91
        0
 92
        4
 93
        0
300

 40
0.0
140
1.0
 94
        5
 62
     0
340
11
144
4.5
309
CONTENTFORMAT_END
171
     1
301
MARGIN
  1
CELLMARGIN_BEGIN
 40
1.5
 40
1.5
 40
1.5
 40
1.5
 40
0.18
 40
0.18
309
CELLMARGIN_END
 94
        6
 95
        1
302
GRIDFORMAT
  1
GRIDFORMAT_BEGIN
 90
        0
 91
        1
 62
     0
 92
       -2
340
0
 93
        0
 40
0.045
309
GRIDFORMAT_END
 95
        2
302
GRIDFORMAT
  1
GRIDFORMAT_BEGIN
 90
        0
 91
        1
 62
     0
 92
       -2
340
0
 93
        0
 40
0.045
309
GRIDFORMAT_END
 95
        4
302
GRIDFORMAT
  1
GRIDFORMAT_BEGIN
 90
        0
 91
        1
 62
     0
 92
       -2
340
0
 93
        0
 40
0.045
309
GRIDFORMAT_END
 95
        8
302
GRIDFORMAT
  1
GRIDFORMAT_BEGIN
 90
        0
 91
        1
 62
     0
 92
       -2
340
0
 93
        0
 40
0.045
309
GRIDFORMAT_END
 95
       16
302
GRIDFORMAT
  1
GRIDFORMAT_BEGIN
 90
        0
 91
        1
 62
     0
 92
       -2
340
0
 93
        0
 40
0.045
309
GRIDFORMAT_END
 95
       32
302
GRIDFORMAT
  1
GRIDFORMAT_BEGIN
 90
        0
 91
        1
 62
     0
 92
       -2
340
0
 93
        0
 40
0.045
309
GRIDFORMAT_END
309
TABLEFORMAT_END
  1
CELLSTYLE_BEGIN
 90
        2
 91
        1
300
_HEADER
309
CELLSTYLE_END
300
CELLSTYLE
  1
TABLEFORMAT_BEGIN
 90
        5
170
     1
 91
        0
 92
        0
 62
   257
 93
        1
300
CONTENTFORMAT
  1
CONTENTFORMAT_BEGIN
 90
        0
 91
        0
 92
        4
 93
        0
300

 40
0.0
140
1.0
 94
        2
 62
     0
340
11
144
4.5
309
CONTENTFORMAT_END
171
     1
301
MARGIN
  1
CELLMARGIN_BEGIN
 40
1.5
 40
1.5
 40
1.5
 40
1.5
 40
0.18
 40
0.18
309
CELLMARGIN_END
 94
        6
 95
        1
302
GRIDFORMAT
  1
GRIDFORMAT_BEGIN
 90
        0
 91
        1
 62
     0
 92
       -2
340
0
 93
        0
 40
0.045
309
GRIDFORMAT_END
 95
        2
302
GRIDFORMAT
  1
GRIDFORMAT_BEGIN
 90
        0
 91
        1
 62
     0
 92
       -2
340
0
 93
        0
 40
0.045
309
GRIDFORMAT_END
 95
        4
302
GRIDFORMAT
  1
GRIDFORMAT_BEGIN
 90
        0
 91
        1
 62
     0
 92
       -2
340
0
 93
        0
 40
0.045
309
GRIDFORMAT_END
 95
        8
302
GRIDFORMAT
  1
GRIDFORMAT_BEGIN
 90
        0
 91
        1
 62
     0
 92
       -2
340
0
 93
        0
 40
0.045
309
GRIDFORMAT_END
 95
       16
302
GRIDFORMAT
  1
GRIDFORMAT_BEGIN
 90
        0
 91
        1
 62
     0
 92
       -2
340
0
 93
        0
 40
0.045
309
GRIDFORMAT_END
 95
       32
302
GRIDFORMAT
  1
GRIDFORMAT_BEGIN
 90
        0
 91
        1
 62
     0
 92
       -2
340
0
 93
        0
 40
0.045
309
GRIDFORMAT_END
309
TABLEFORMAT_END
  1
CELLSTYLE_BEGIN
 90
        3
 91
        2
300
_DATA
309
CELLSTYLE_END
  0
XRECORD
  5
1884A
102
{ACAD_REACTORS
330
B5B5
102
}
330
B5B5
100
AcDbXrecord
280
     1
102
ACAD_ROUNDTRIP_PRE2007_TABLESTYLE
 90
        4
 91
        0
  1

 92
        4
 93
        0
  2

 94
        4
 95
        0
  3

  0
ENDSEC
  0
EOF
