  0
SECTION
  2
HEADER
  9
$ACADVER
  1
AC1018
  9
$ACADMAINTVER
 70
   104
  9
$DWGCODEPAGE
  3
ANSI_932
  9
$LASTSAVEDBY
  1
Administrator
  9
$CUSTOMPROPERTYTAG
  1
AmdtFileType
  9
$CUSTOMPROPERTY
  1
84
  9
$INSBASE
 10
0.0
 20
0.0
 30
0.0
  9
$EXTMIN
 10
-0.0128100481842921
 20
-0.0090585340732332
 30
-0.0000000000000053
  9
$EXTMAX
 10
420.0128212946065
 20
297.0090664869001
 30
0.0000000000000099
  9
$LIMMIN
 10
0.0
 20
0.0
  9
$LIMMAX
 10
420.0
 20
297.0
  9
$ORTHOMODE
 70
     0
  9
$REGENMODE
 70
     1
  9
$FILLMODE
 70
     1
  9
$QTEXTMODE
 70
     0
  9
$MIRRTEXT
 70
     0
  9
$LTSCALE
 40
1.0
  9
$ATTMODE
 70
     1
  9
$TEXTSIZE
 40
3.2
  9
$TRACEWID
 40
1.0
  9
$TEXTSTYLE
  7
STANDARD
  9
$CLAYER
  8
AM_0
  9
$CELTYPE
  6
ByLayer
  9
$CECOLOR
 62
   256
  9
$CELTSCALE
 40
1.0
  9
$DISPSILH
 70
     0
  9
$DIMSCALE
 40
1.0
  9
$DIMASZ
 40
1.0
  9
$DIMEXO
 40
1.0
  9
$DIMDLI
 40
10.0
  9
$DIMRND
 40
0.0
  9
$DIMDLE
 40
0.0
  9
$DIMEXE
 40
1.0
  9
$DIMTP
 40
0.1
  9
$DIMTM
 40
0.1
  9
$DIMTXT
 40
3.5
  9
$DIMCEN
 40
0.0
  9
$DIMTSZ
 40
0.0
  9
$DIMTOL
 70
     0
  9
$DIMLIM
 70
     0
  9
$DIMTIH
 70
     0
  9
$DIMTOH
 70
     0
  9
$DIMSE1
 70
     0
  9
$DIMSE2
 70
     0
  9
$DIMTAD
 70
     1
  9
$DIMZIN
 70
     8
  9
$DIMBLK
  1

  9
$DIMASO
 70
     1
  9
$DIMSHO
 70
     1
  9
$DIMPOST
  1

  9
$DIMAPOST
  1
"
  9
$DIMALT
 70
     0
  9
$DIMALTD
 70
     2
  9
$DIMALTF
 40
0.0393701
  9
$DIMLFAC
 40
1.0
  9
$DIMTOFL
 70
     1
  9
$DIMTVP
 40
0.0
  9
$DIMTIX
 70
     0
  9
$DIMSOXD
 70
     0
  9
$DIMSAH
 70
     0
  9
$DIMBLK1
  1

  9
$DIMBLK2
  1

  9
$DIMSTYLE
  2
SYS
  9
$DIMCLRD
 70
   256
  9
$DIMCLRE
 70
   256
  9
$DIMCLRT
 70
     7
  9
$DIMTFAC
 40
0.71
  9
$DIMGAP
 40
1.5
  9
$DIMJUST
 70
     0
  9
$DIMSD1
 70
     0
  9
$DIMSD2
 70
     0
  9
$DIMTOLJ
 70
     0
  9
$DIMTZIN
 70
     8
  9
$DIMALTZ
 70
     0
  9
$DIMALTTZ
 70
     0
  9
$DIMUPT
 70
     0
  9
$DIMDEC
 70
     2
  9
$DIMTDEC
 70
     2
  9
$DIMALTU
 70
     2
  9
$DIMALTTD
 70
     2
  9
$DIMTXSTY
  7
STANDARD
  9
$DIMAUNIT
 70
     0
  9
$DIMADEC
 70
     0
  9
$DIMALTRND
 40
0.0
  9
$DIMAZIN
 70
     2
  9
$DIMDSEP
 70
    46
  9
$DIMATFIT
 70
     3
  9
$DIMFRAC
 70
     0
  9
$DIMLDRBLK
  1

  9
$DIMLUNIT
 70
     2
  9
$DIMLWD
 70
    -1
  9
$DIMLWE
 70
    -1
  9
$DIMTMOVE
 70
     0
  9
$LUNITS
 70
     2
  9
$LUPREC
 70
     2
  9
$SKETCHINC
 40
1.0
  9
$FILLETRAD
 40
2.0
  9
$AUNITS
 70
     0
  9
$AUPREC
 70
     0
  9
$MENU
  1
.
  9
$ELEVATION
 40
0.0
  9
$PELEVATION
 40
0.0
  9
$THICKNESS
 40
0.0
  9
$LIMCHECK
 70
     0
  9
$CHAMFERA
 40
0.5
  9
$CHAMFERB
 40
0.5
  9
$CHAMFERC
 40
20.0
  9
$CHAMFERD
 40
0.0
  9
$SKPOLY
 70
     0
  9
$TDCREATE
 40
2455586.676808449
  9
$TDUCREATE
 40
2455586.301808449
  9
$TDUPDATE
 40
2455631.793030590
  9
$TDUUPDATE
 40
2455631.418030590
  9
$TDINDWG
 40
0.2930895486
  9
$TDUSRTIMER
 40
0.2930895486
  9
$USRTIMER
 70
     1
  9
$ANGBASE
 50
0.0
  9
$ANGDIR
 70
     0
  9
$PDMODE
 70
     0
  9
$PDSIZE
 40
-3.0
  9
$PLINEWID
 40
0.0
  9
$SPLFRAME
 70
     0
  9
$SPLINETYPE
 70
     6
  9
$SPLINESEGS
 70
     8
  9
$HANDSEED
  5
13E40
  9
$SURFTAB1
 70
     6
  9
$SURFTAB2
 70
     6
  9
$SURFTYPE
 70
     6
  9
$SURFU
 70
     6
  9
$SURFV
 70
     6
  9
$UCSBASE
  2

  9
$UCSNAME
  2

  9
$UCSORG
 10
0.0
 20
0.0
 30
0.0
  9
$UCSXDIR
 10
1.0
 20
0.0
 30
0.0
  9
$UCSYDIR
 10
0.0
 20
1.0
 30
0.0
  9
$UCSORTHOREF
  2

  9
$UCSORTHOVIEW
 70
     0
  9
$UCSORGTOP
 10
0.0
 20
0.0
 30
0.0
  9
$UCSORGBOTTOM
 10
0.0
 20
0.0
 30
0.0
  9
$UCSORGLEFT
 10
0.0
 20
0.0
 30
0.0
  9
$UCSORGRIGHT
 10
0.0
 20
0.0
 30
0.0
  9
$UCSORGFRONT
 10
0.0
 20
0.0
 30
0.0
  9
$UCSORGBACK
 10
0.0
 20
0.0
 30
0.0
  9
$PUCSBASE
  2

  9
$PUCSNAME
  2

  9
$PUCSORG
 10
0.0
 20
0.0
 30
0.0
  9
$PUCSXDIR
 10
1.0
 20
0.0
 30
0.0
  9
$PUCSYDIR
 10
0.0
 20
1.0
 30
0.0
  9
$PUCSORTHOREF
  2

  9
$PUCSORTHOVIEW
 70
     0
  9
$PUCSORGTOP
 10
0.0
 20
0.0
 30
0.0
  9
$PUCSORGBOTTOM
 10
0.0
 20
0.0
 30
0.0
  9
$PUCSORGLEFT
 10
0.0
 20
0.0
 30
0.0
  9
$PUCSORGRIGHT
 10
0.0
 20
0.0
 30
0.0
  9
$PUCSORGFRONT
 10
0.0
 20
0.0
 30
0.0
  9
$PUCSORGBACK
 10
0.0
 20
0.0
 30
0.0
  9
$USERI1
 70
     0
  9
$USERI2
 70
     0
  9
$USERI3
 70
     0
  9
$USERI4
 70
     0
  9
$USERI5
 70
     0
  9
$USERR1
 40
0.0
  9
$USERR2
 40
0.0
  9
$USERR3
 40
0.0
  9
$USERR4
 40
0.0
  9
$USERR5
 40
0.0
  9
$WORLDVIEW
 70
     1
  9
$SHADEDGE
 70
     3
  9
$SHADEDIF
 70
    70
  9
$TILEMODE
 70
     1
  9
$MAXACTVP
 70
    64
  9
$PINSBASE
 10
0.0
 20
0.0
 30
0.0
  9
$PLIMCHECK
 70
     0
  9
$PEXTMIN
 10
1.000000000000000E+20
 20
1.000000000000000E+20
 30
1.000000000000000E+20
  9
$PEXTMAX
 10
-1.000000000000000E+20
 20
-1.000000000000000E+20
 30
-1.000000000000000E+20
  9
$PLIMMIN
 10
-3.17498779296875
 20
-3.174999952316284
  9
$PLIMMAX
 10
293.4970092773438
 20
206.692492723465
  9
$UNITMODE
 70
     0
  9
$VISRETAIN
 70
     1
  9
$PLINEGEN
 70
     0
  9
$PSLTSCALE
 70
     1
  9
$TREEDEPTH
 70
  3020
  9
$CMLSTYLE
  2
Standard
  9
$CMLJUST
 70
     0
  9
$CMLSCALE
 40
20.0
  9
$PROXYGRAPHICS
 70
     1
  9
$MEASUREMENT
 70
     1
  9
$CELWEIGHT
370
    -1
  9
$ENDCAPS
280
     0
  9
$JOINSTYLE
280
     0
  9
$LWDISPLAY
290
     1
  9
$INSUNITS
 70
     4
  9
$HYPERLINKBASE
  1

  9
$STYLESHEET
  1
monochrome.ctb
  9
$XEDIT
290
     1
  9
$CEPSNTYPE
380
     0
  9
$PSTYLEMODE
290
     1
  9
$FINGERPRINTGUID
  2
{55437959-1424-4180-A3A3-0250141FF14A}
  9
$VERSIONGUID
  2
{4054163E-9241-4D72-94B5-BAB4AD68E4AE}
  9
$EXTNAMES
290
     1
  9
$PSVPSCALE
 40
0.0
  9
$OLESTARTUP
290
     0
  9
$SORTENTS
280
    96
  9
$INDEXCTL
280
     0
  9
$HIDETEXT
280
     0
  9
$XCLIPFRAME
290
     0
  9
$HALOGAP
280
     0
  9
$OBSCOLOR
 70
   257
  9
$OBSLTYPE
280
     0
  9
$INTERSECTIONDISPLAY
280
     0
  9
$INTERSECTIONCOLOR
 70
   257
  9
$DIMASSOC
280
     1
  9
$PROJECTNAME
  1

  0
ENDSEC
  0
SECTION
  2
CLASSES
  0
CLASS
  1
ACDBDICTIONARYWDFLT
  2
AcDbDictionaryWithDefault
  3
ObjectDBX Classes
 90
        0
 91
        1
280
     0
281
     0
  0
CLASS
  1
ACDBPLACEHOLDER
  2
AcDbPlaceHolder
  3
ObjectDBX Classes
 90
        0
 91
        1
280
     0
281
     0
  0
CLASS
  1
LAYOUT
  2
AcDbLayout
  3
ObjectDBX Classes
 90
        0
 91
        3
280
     0
281
     0
  0
CLASS
  1
AMGSETTINGSOBJ
  2
AmgSettingsObj
  3
"AcadM|Product Description: AutoCAD Mechanical|Company: Autodesk, Inc."
 90
     1024
 91
        4
280
     0
281
     0
  0
CLASS
  1
ACME_DOCUMENT
  2
AcMeDbDoc
  3
AcMeServices
 90
     1024
 91
        2
280
     0
281
     0
  0
CLASS
  1
ACMESCOPE
  2
AcMeScope
  3
AcMeServices
 90
     1024
 91
        1
280
     0
281
     0
  0
CLASS
  1
ACMECOMMANDHISTORY
  2
AcMeCommandHistory
  3
AcMeServices
 90
     1024
 91
        1
280
     0
281
     0
  0
CLASS
  1
DICTIONARYVAR
  2
AcDbDictionaryVar
  3
ObjectDBX Classes
 90
        0
 91
        9
280
     0
281
     0
  0
CLASS
  1
ACIMSYSVARMAN
  2
AcImSysVarManager
  3
AcMeServices
 90
     1024
 91
        6
280
     0
281
     0
  0
CLASS
  1
ACIMREALSYSVAR
  2
AcImRealSysVar
  3
AcMeServices
 90
     1024
 91
       22
280
     0
281
     0
  0
CLASS
  1
ACIMINTSYSVAR
  2
AcImIntSysVar
  3
AcMeServices
 90
     1024
 91
      198
280
     0
281
     0
  0
CLASS
  1
ACMEDRAWINGMAN
  2
AcMeDrawingMan
  3
AcMeServices
 90
     1024
 91
        1
280
     0
281
     0
  0
CLASS
  1
ACMEVIEW
  2
AcMeView
  3
AcMeServices
 90
     1024
 91
        1
280
     0
281
     0
  0
CLASS
  1
ACDBENTITYCACHE
  2
AcMeEntityCache
  3
AcMeServices
 90
     1024
 91
        1
280
     0
281
     0
  0
CLASS
  1
GSMANAGER
  2
AcMeGSManager
  3
AcMeServices
 90
     1024
 91
        1
280
     0
281
     0
  0
CLASS
  1
AMDTINTERNALREACTOR
  2
AmdtInternalReactor
  3
AcMeServices
 90
     1024
 91
        3
280
     0
281
     0
  0
CLASS
  1
ACMESTATEMGR
  2
AcMeStateMgr
  3
AcMeServices
 90
     1024
 91
        1
280
     0
281
     0
  0
CLASS
  1
ACGREFMASTER
  2
AcGrefMaster
  3
AcAttribServices
 90
     1024
 91
        1
280
     0
281
     0
  0
CLASS
  1
ACME_DATABASE
  2
AcMeDbDatabase
  3
AcMeServices
 90
     1024
 91
        1
280
     0
281
     0
  0
CLASS
  1
ACRFINSADJUSTERMGR
  2
AcRfInsAdjusterMgr
  3
AcMeServices
 90
     1024
 91
        1
280
     0
281
     0
  0
CLASS
  1
ACGREFACADMASTER
  2
AcGrefacadMaster
  3
AcGrefServices
 90
     1024
 91
        1
280
     0
281
     0
  0
CLASS
  1
AMIMASTER
  2
AmiMaster
  3
AmiServices
 90
     1024
 91
        1
280
     0
281
     0
  0
CLASS
  1
ACMDATADICTIONARY
  2
AcmDataDictionary
  3
"AcmSymBB|Product Description: AutoCAD Mechanical|Company: Autodesk, Inc."
 90
     1024
 91
        1
280
     0
281
     0
  0
CLASS
  1
ACMDATAENTRYBLOCK
  2
AcmDataEntryBlock
  3
AcmSymBB|Product Description: AutoCAD Mechanical|Company: Autodesk, Inc.
 90
     1024
 91
        6
280
     0
281
     0
  0
CLASS
  1
ACIMSTRSYSVAR
  2
AcImStrSysVar
  3
AcMeServices
 90
     1024
 91
       11
280
     0
281
     0
  0
CLASS
  1
ACMSTANDARDISO
  2
AcmStandardISO
  3
"Amdt_StdImp|Product Description: AutoCAD Mechanical|Company: Autodesk, Inc."
 90
     1024
 91
        1
280
     0
281
     0
  0
CLASS
  1
AMGOBJPROPCFG
  2
AmgObjPropCfg
  3
"AmgLay|Product Description: AutoCAD Mechanical|Company: Autodesk, Inc."
 90
     1025
 91
        1
280
     0
281
     0
  0
CLASS
  1
AMDTEDGESTANDARDISO
  2
AmdtEdgeStdISO
  3
"Amdt_StdImp|Product Description: AutoCAD Mechanical|Company: Autodesk, Inc."
 90
     1024
 91
        1
280
     0
281
     0
  0
CLASS
  1
ACMSURFSTANDARDISO
  2
AcmSurfTextStdISO
  3
"Amdt_StdImp|Product Description: AutoCAD Mechanical|Company: Autodesk, Inc."
 90
     1024
 91
        1
280
     0
281
     0
  0
CLASS
  1
ACMFCFSTANDARDISO
  2
AcmFCFStdISO
  3
"Amdt_StdImp|Product Description: AutoCAD Mechanical|Company: Autodesk, Inc."
 90
     1024
 91
        1
280
     0
281
     0
  0
CLASS
  1
ACMWELDSTANDARDISO
  2
AcmWeldingStdISO
  3
"Amdt_StdImp|Product Description: AutoCAD Mechanical|Company: Autodesk, Inc."
 90
     1024
 91
        1
280
     0
281
     0
  0
CLASS
  1
ACMIDSTANDARDISO
  2
AcmIdStdISO
  3
"Amdt_StdImp|Product Description: AutoCAD Mechanical|Company: Autodesk, Inc."
 90
     1024
 91
        1
280
     0
281
     0
  0
CLASS
  1
ACMDATUMSTANDARDISO
  2
AcmDatumStdISO
  3
"Amdt_StdImp|Product Description: AutoCAD Mechanical|Company: Autodesk, Inc."
 90
     1024
 91
        1
280
     0
281
     0
  0
CLASS
  1
ACMBOMSTANDARDISO
  2
AcmBOMStdISO
  3
"Amdt_StdImp|Product Description: AutoCAD Mechanical|Company: Autodesk, Inc."
 90
     1024
 91
        1
280
     0
281
     0
  0
CLASS
  1
ACMDETAILSTANDARDISO
  2
AmdtDetailSymStdISO
  3
"Amdt_StdImp|Product Description: AutoCAD Mechanical|Company: Autodesk, Inc."
 90
     1024
 91
        1
280
     0
281
     0
  0
CLASS
  1
ACMSECTIONSTANDARDISO
  2
AmdtSectionSymStdISO
  3
"Amdt_StdImp|Product Description: AutoCAD Mechanical|Company: Autodesk, Inc."
 90
     1024
 91
        1
280
     0
281
     0
  0
CLASS
  1
ACMCENTERLINESTANDARDISO
  2
AmdtCenterLineStdISO
  3
"Amdt_StdImp|Product Description: AutoCAD Mechanical|Company: Autodesk, Inc."
 90
     1024
 91
        1
280
     0
281
     0
  0
CLASS
  1
ACAMGLAYSTD
  2
AcAmgLayStd
  3
"AmgLay|Product Description: AutoCAD Mechanical|Company: Autodesk, Inc."
 90
     1024
 91
        2
280
     0
281
     0
  0
CLASS
  1
ACAMGDIMSTD
  2
AcAmgDimStd
  3
"AmgDim|Product Description: AutoCAD Mechanical|Company: Autodesk, Inc."
 90
     1024
 91
        2
280
     0
281
     0
  0
CLASS
  1
ACAMGTITLESTD
  2
AcAmgTitleStd
  3
"AmgTitle|Product Description: AutoCAD Mechanical|Company: Autodesk, Inc."
 90
     4095
 91
        2
280
     0
281
     0
  0
CLASS
  1
ACAMGFILTERDAT
  2
AcAmgFilterDat
  3
"AcadM|Product Description: AutoCAD Mechanical|Company: Autodesk, Inc."
 90
     1024
 91
        6
280
     0
281
     0
  0
CLASS
  1
LAYER_INDEX
  2
AcDbLayerIndex
  3
ObjectDBX Classes
 90
        0
 91
        0
280
     0
281
     0
  0
CLASS
  1
IDBUFFER
  2
AcDbIdBuffer
  3
ObjectDBX Classes
 90
        0
 91
        0
280
     0
281
     0
  0
CLASS
  1
PLOTSETTINGS
  2
AcDbPlotSettings
  3
ObjectDBX Classes
 90
        0
 91
        0
280
     0
281
     0
  0
CLASS
  1
AMDTFORMULAUPDATEDISPATCHER
  2
AmdtFormulaUpdateDispatcher
  3
AcMeServices
 90
     1024
 91
        1
280
     0
281
     0
  0
CLASS
  1
ACMSTANDARDANSI
  2
AcmStandardANSI
  3
"Amdt_StdImp|Product Description: AutoCAD Mechanical|Company: Autodesk, Inc."
 90
     1024
 91
        1
280
     0
281
     0
  0
CLASS
  1
ACMSURFSTANDARDANSI
  2
AcmSurfTextStdANSI
  3
"Amdt_StdImp|Product Description: AutoCAD Mechanical|Company: Autodesk, Inc."
 90
     1024
 91
        1
280
     0
281
     0
  0
CLASS
  1
ACMFCFSTANDARDANSI
  2
AcmFCFStdANSI
  3
"Amdt_StdImp|Product Description: AutoCAD Mechanical|Company: Autodesk, Inc."
 90
     1024
 91
        1
280
     0
281
     0
  0
CLASS
  1
ACMWELDSTANDARDANSI
  2
AcmWeldingStdANSI
  3
"Amdt_StdImp|Product Description: AutoCAD Mechanical|Company: Autodesk, Inc."
 90
     1024
 91
        1
280
     0
281
     0
  0
CLASS
  1
ACMIDSTANDARDANSI
  2
AcmIdStdANSI
  3
"Amdt_StdImp|Product Description: AutoCAD Mechanical|Company: Autodesk, Inc."
 90
     1024
 91
        1
280
     0
281
     0
  0
CLASS
  1
ACMDATUMSTANDARDANSI
  2
AcmDatumStdANSI
  3
"Amdt_StdImp|Product Description: AutoCAD Mechanical|Company: Autodesk, Inc."
 90
     1024
 91
        1
280
     0
281
     0
  0
CLASS
  1
ACMBOMSTANDARDANSI
  2
AcmBOMStdANSI
  3
"Amdt_StdImp|Product Description: AutoCAD Mechanical|Company: Autodesk, Inc."
 90
     1024
 91
        1
280
     0
281
     0
  0
CLASS
  1
ACMDETAILSTANDARDANSI
  2
AmdtDetailSymStdANSI
  3
"Amdt_StdImp|Product Description: AutoCAD Mechanical|Company: Autodesk, Inc."
 90
     1024
 91
        1
280
     0
281
     0
  0
CLASS
  1
ACMSECTIONSTANDARDANSI
  2
AmdtSectionSymStdANSI
  3
"Amdt_StdImp|Product Description: AutoCAD Mechanical|Company: Autodesk, Inc."
 90
     1024
 91
        1
280
     0
281
     0
  0
CLASS
  1
ACMCENTERLINESTANDARDANSI
  2
AmdtCenterLineStdANSI
  3
"Amdt_StdImp|Product Description: AutoCAD Mechanical|Company: Autodesk, Inc."
 90
     1024
 91
        1
280
     0
281
     0
  0
CLASS
  1
ACMBOM
  2
AcmBom
  3
"AcmSymBB|Product Description: AutoCAD Mechanical|Company: Autodesk, Inc."
 90
     1024
 91
        1
280
     0
281
     0
  0
CLASS
  1
ACMDATAENTRYPART
  2
AcmDataEntryPart
  3
AcmSymBB|Product Description: AutoCAD Mechanical|Company: Autodesk, Inc.
 90
     1024
 91
        0
280
     0
281
     0
  0
CLASS
  1
ACMPARTREF
  2
AcmPartRef
  3
"AcmSymBB|Product Description: AutoCAD Mechanical|Company: Autodesk, Inc."
 90
     4095
 91
        0
280
     0
281
     1
  0
CLASS
  1
ACDBCIRCARCRES
  2
AcDbCircArcRes
  3
AcGrefServices
 90
     1024
 91
        0
280
     0
281
     0
  0
CLASS
  1
ACMBOMROW
  2
AcmBomRow
  3
"AcmSymBB|Product Description: AutoCAD Mechanical|Company: Autodesk, Inc."
 90
     1024
 91
        0
280
     0
281
     0
  0
CLASS
  1
ACMBALLOON
  2
AcmBalloon
  3
"AcmSymBB|Product Description: AutoCAD Mechanical|Company: Autodesk, Inc."
 90
     4095
 91
        0
280
     0
281
     1
  0
CLASS
  1
AMDTNOTE
  2
AmdtNote
  3
"AcmSymBB|Product Description: AutoCAD Mechanical|Company: Autodesk, Inc."
 90
     4095
 91
        1
280
     0
281
     1
  0
CLASS
  1
STDPART2D
  2
AmgStdPart
  3
AmgStdPart|Product Description: AutoCAD Mechanical|Company: Autodesk, Inc.
 90
     4095
 91
        0
280
     0
281
     1
  0
CLASS
  1
ACDBSTDPARTRES_LINE
  2
AcDbStdPartRes_Line
  3
AmgStdPart|Product Description: AutoCAD Mechanical|Company: Autodesk, Inc.
 90
     1024
 91
        0
280
     0
281
     0
  0
CLASS
  1
ACMDATAENTRY
  2
AcmDataEntry
  3
AcmSymBB|Product Description: AutoCAD Mechanical|Company: Autodesk, Inc.
 90
     1024
 91
        9
280
     0
281
     0
  0
CLASS
  1
ACDBOPPOLYLINERES
  2
AcDbOpPolylineRes
  3
AcGrefServices
 90
     1024
 91
        0
280
     0
281
     0
  0
CLASS
  1
ACMPARTLIST
  2
AcmPartList
  3
"AcmSymBB|Product Description: AutoCAD Mechanical|Company: Autodesk, Inc."
 90
     4095
 91
        0
280
     0
281
     1
  0
CLASS
  1
ACDBLINERES
  2
AcDbLineRes
  3
AcGrefServices
 90
     1024
 91
        1
280
     0
281
     0
  0
CLASS
  1
ACRFINSADJ
  2
AcRfInsAdjuster
  3
AcMeServices
 90
     1024
 91
        0
280
     0
281
     0
  0
CLASS
  1
AM_DRAWING_MGR
  2
AcDmDwgMgr
  3
AcMechDwgViewMgmt
 90
     1024
 91
        1
280
     0
281
     0
  0
CLASS
  1
AM_DWG_DOCUMENT
  2
AcDmDwgDocument
  3
AcMechDwgViewMgmt
 90
     1024
 91
        1
280
     0
281
     0
  0
CLASS
  1
AM_DWG_SHEET
  2
AcDmSheet
  3
AcMechDwgViewMgmt
 90
     1024
 91
        2
280
     0
281
     0
  0
CLASS
  1
AM_VIEWDIMPARMAP
  2
AcDmViewDimParMap
  3
AcMechDwgViewMgmt
 90
     1024
 91
        2
280
     0
281
     0
  0
CLASS
  1
AM_DWGMGR_NAME
  2
AcDmDwgMgrName
  3
AcMechDwgViewMgmt
 90
     1024
 91
        1
280
     0
281
     0
  0
CLASS
  1
AMDTMENUSTATEMGR
  2
AmdtMenuStateMgr
  3
McadcomServices
 90
     1024
 91
        1
280
     0
281
     0
  0
CLASS
  1
AMDTMCOMMENUSTATE
  2
AmdtMcomMenuState
  3
McadcomServices
 90
     1024
 91
        1
280
     0
281
     0
  0
CLASS
  1
ASAPP
  2
AcAsAppObject
  3
AutoSurfServices
 90
        0
 91
        2
280
     0
281
     0
  0
CLASS
  1
IM_STATIC_MAN
  2
AcImStaticVarManager
  3
AcMeServices
 90
     1024
 91
        1
280
     0
281
     0
  0
CLASS
  1
ACIMDBLSTATICVAR
  2
AcImDblStaticVar
  3
AcMeServices
 90
     1024
 91
       20
280
     0
281
     0
  0
CLASS
  1
ACIMSTRSTATICVAR
  2
AcImStrStaticVar
  3
AcMeServices
 90
     1024
 91
       12
280
     0
281
     0
  0
CLASS
  1
ACIMINTSTATICVAR
  2
AcImIntStaticVar
  3
AcMeServices
 90
     1024
 91
       17
280
     0
281
     0
  0
CLASS
  1
ACASGREFMASTER
  2
AcAsGrefMaster
  3
AutoSurfResolverServices
 90
        0
 91
        2
280
     0
281
     0
  0
CLASS
  1
ACADGREFMODULE
  2
AcAdGrefModule
  3
AdGrefServices
 90
        0
 91
        2
280
     0
281
     0
  0
CLASS
  1
AMDTMAPISURFMOUDULE
  2
AmdtMApiSurfModule
  3
MApiSurfServices
 90
        0
 91
        2
280
     0
281
     0
  0
CLASS
  1
MAPIAMMOUDLE
  2
MApiAmModule
  3
MApiAmServices
 90
     1024
 91
        1
280
     0
281
     0
  0
CLASS
  1
AMDTADMENUSTATE
  2
AmdtAdMenuState
  3
DesignerServices
 90
     1024
 91
        1
280
     0
281
     0
  0
CLASS
  1
ADAPPL
  2
AcAdAppl
  3
DesignerServices
 90
     1024
 91
        1
280
     0
281
     0
  0
CLASS
  1
DEPMGR
  2
AcAdDepMgr
  3
DesignerServices
 90
     1024
 91
        1
280
     0
281
     0
  0
CLASS
  1
PARAMMGR
  2
AcAdParamMgr
  3
DesignerServices
 90
     1024
 91
        1
280
     0
281
     0
  0
CLASS
  1
PARAMSCOPE
  2
AcAdParamScope
  3
DesignerServices
 90
     1024
 91
        1
280
     0
281
     0
  0
CLASS
  1
NAMEDAPPL
  2
AcAdNamedAppl
  3
DesignerServices
 90
     1024
 91
        1
280
     0
281
     0
  0
CLASS
  1
ADHNTMPLT
  2
AdHoleNoteTemplateMgr
  3
DesignerServices
 90
     1024
 91
        0
280
     0
281
     0
  0
CLASS
  1
AM_HNTEMPLATE_MGR_NAME
  2
AdHoleNoteTemplateMgrName
  3
DesignerServices
 90
     1024
 91
        0
280
     0
281
     0
  0
CLASS
  1
AMDTDMMENUSTATE
  2
AmdtDmMenuState
  3
AcMechDwgViewMgmt
 90
     1024
 91
        1
280
     0
281
     0
  0
CLASS
  1
MAPIADMODULE
  2
MApiAdModule
  3
MApiAdServices
 90
        0
 91
        2
280
     0
281
     0
  0
CLASS
  1
AMDTAMMENUSTATE
  2
AmdtAmMenuState
  3
DesignerAssemblies
 90
     1024
 91
        1
280
     0
281
     0
  0
CLASS
  1
ACAMPROJECT
  2
AcAmProject
  3
DesignerAssemblies
 90
     1024
 91
        1
280
     0
281
     0
  0
CLASS
  1
ACAMGRCOMPDEF
  2
AcAmGrCompDef
  3
DesignerAssemblies
 90
     1024
 91
        1
280
     0
281
     0
  0
CLASS
  1
ACCMCONTEXT
  2
AcCmContext
  3
DesignerAssemblies
 90
     1024
 91
        1
280
     0
281
     0
  0
CLASS
  1
ACAMCOMPDEF
  2
AcAmCompDef
  3
DesignerAssemblies
 90
     1024
 91
        1
280
     0
281
     0
  0
CLASS
  1
ACAMCOMPDEFMGR
  2
AcAmCompDefMgr
  3
DesignerAssemblies
 90
     1024
 91
        1
280
     0
281
     0
  0
CLASS
  1
AMCONTEXTMGR
  2
AcAmContextMgr
  3
DesignerAssemblies
 90
     1024
 91
        1
280
     0
281
     0
  0
CLASS
  1
ACAMCONTEXTMODELER
  2
AcAmContextModeler
  3
DesignerAssemblies
 90
     1024
 91
        1
280
     0
281
     0
  0
CLASS
  1
CATALOGSTATE
  2
AcAmCatalogState
  3
DesignerAssemblies
 90
     1024
 91
        1
280
     0
281
     0
  0
CLASS
  1
ACAMGRCOMPDEFSET
  2
AcAmGrCompDefSet
  3
DesignerAssemblies
 90
     1024
 91
        1
280
     0
281
     0
  0
CLASS
  1
AMDTBROWSERDBTAB
  2
AmdtBrowserDbTab
  3
McadcomServices
 90
     1024
 91
        1
280
     0
281
     0
  0
CLASS
  1
CBROWSERAPPOBJECT
  2
CBrowserAppObject
  3
McadcomServices
 90
     1024
 91
        3
280
     0
281
     0
  0
CLASS
  1
DM_PLACEHOLDER
  2
AcDmSelsetPlaceholder
  3
AcMechDwgViewMgmt
 90
     1024
 91
        1
280
     0
281
     0
  0
CLASS
  1
ACMPICKOBJ
  2
AcmPickEnt
  3
"AcmSymBB|Product Description: AutoCAD Mechanical|Company: Autodesk, Inc."
 90
     1024
 91
        0
280
     0
281
     1
  0
CLASS
  1
ACMNOTESTANDARDISO
  2
AmdtNoteStdISO
  3
"Amdt_StdImp|Product Description: AutoCAD Mechanical|Company: Autodesk, Inc."
 90
     1024
 91
        1
280
     0
281
     0
  0
CLASS
  1
ACMNOTESTANDARDANSI
  2
AmdtNoteStdANSI
  3
"Amdt_StdImp|Product Description: AutoCAD Mechanical|Company: Autodesk, Inc."
 90
     1024
 91
        1
280
     0
281
     0
  0
CLASS
  1
ACMTHREADLINESTANDARDISO
  2
AmdtThreadLineStdISO
  3
"Amdt_StdImp|Product Description: AutoCAD Mechanical|Company: Autodesk, Inc."
 90
     1024
 91
        1
280
     0
281
     0
  0
CLASS
  1
ACMTHREADLINESTANDARDANSI
  2
AmdtThreadLineStdANSI
  3
"Amdt_StdImp|Product Description: AutoCAD Mechanical|Company: Autodesk, Inc."
 90
     1024
 91
        1
280
     0
281
     0
  0
CLASS
  1
TABLESTYLE
  2
AcDbTableStyle
  3
ObjectDBX Classes
 90
     4095
 91
        1
280
     0
281
     0
  0
CLASS
  1
SORTENTSTABLE
  2
AcDbSortentsTable
  3
ObjectDBX Classes
 90
        0
 91
        1
280
     0
281
     0
  0
CLASS
  1
MATERIAL
  2
AcDbMaterial
  3
ObjectDBX Classes
 90
     1153
 91
        3
280
     0
281
     0
  0
CLASS
  1
VISUALSTYLE
  2
AcDbVisualStyle
  3
ObjectDBX Classes
 90
     4095
 91
       16
280
     0
281
     0
  0
CLASS
  1
ACRFATTGENMGR
  2
AcRfAttGeneralMgr
  3
AcAttribServices
 90
     1024
 91
        1
280
     0
281
     0
  0
CLASS
  1
ACRFOBJATTMGR
  2
AcRfObjAttGroupMgr
  3
AcAttribServices
 90
     1024
 91
        1
280
     0
281
     0
  0
CLASS
  1
ACRFMCADAPIATTHOLDER
  2
AcRfMCADAPIAttHolder
  3
AcAttribServices
 90
     1024
 91
        1
280
     0
281
     0
  0
CLASS
  1
AMDTSYSATTR
  2
AmdtSystemAttribute
  3
AcAttribServices
 90
     1024
 91
        3
280
     0
281
     0
  0
CLASS
  1
ACMTAPERSTANDARDISO
  2
AcmTaperStdISO
  3
"Amdt_StdImp|Product Description: AutoCAD Mechanical|Company: Autodesk, Inc."
 90
     1024
 91
        1
280
     0
281
     0
  0
CLASS
  1
CAMSSTRUCTBTNSTATE
  2
StructBtnState
  3
DesignerAssemblies
 90
     1024
 91
        1
280
     0
281
     0
  0
CLASS
  1
DIMASSOC
  2
AcDbDimAssoc
  3
"AcDbDimAssoc|Product Desc:     AcDim ARX App For Dimension|Company:          Autodesk, Inc.|WEB Address:      www.autodesk.com"
 90
        0
 91
        0
280
     0
281
     0
  0
CLASS
  1
AMDTNOTETEMPLATEDB
  2
AmdtNoteTemplateDB
  3
AcmSymBB|Product Description: AutoCAD Mechanical|Company: Autodesk, Inc.
 90
     1024
 91
       10
280
     0
281
     0
  0
CLASS
  1
SCALE
  2
AcDbScale
  3
ObjectDBX Classes
 90
     1153
 91
       33
280
     0
281
     0
  0
CLASS
  1
MLEADERSTYLE
  2
AcDbMLeaderStyle
  3
ACDB_MLEADERSTYLE_CLASS
 90
     4095
 91
        1
280
     0
281
     0
  0
CLASS
  1
ACMANOOTATIONVIEWSTANDARDISO
  2
AmdtAnViewStdISO
  3
"Amdt_StdImp|Product Description: AutoCAD Mechanical|Company: Autodesk, Inc."
 90
     1024
 91
        1
280
     0
281
     0
  0
CLASS
  1
CELLSTYLEMAP
  2
AcDbCellStyleMap
  3
ObjectDBX Classes
 90
     1152
 91
        2
280
     0
281
     0
  0
CLASS
  1
ACMTAPERSTANDARDANSI
  2
AcmTaperStdANSI
  3
"Amdt_StdImp|Product Description: AutoCAD Mechanical|Company: Autodesk, Inc."
 90
     1024
 91
        1
280
     0
281
     0
  0
CLASS
  1
ACAMGHOLECHARTSTDANSI
  2
AcAmgHoleChartStdANSI
  3
AmgDim|Product Description: AutoCAD Mechanical|Company: Autodesk, Inc.
 90
     1024
 91
        1
280
     0
281
     0
  0
CLASS
  1
ACMANOOTATIONVIEWSTANDARDANSI
  2
AmdtAnViewStdANSI
  3
"Amdt_StdImp|Product Description: AutoCAD Mechanical|Company: Autodesk, Inc."
 90
     1024
 91
        1
280
     0
281
     0
  0
ENDSEC
  0
SECTION
  2
TABLES
  0
TABLE
  2
VPORT
  5
8
330
0
100
AcDbSymbolTable
 70
     1
  0
VPORT
  5
B0EC
330
8
100
AcDbSymbolTableRecord
100
AcDbViewportTableRecord
  2
*Active
 70
     0
 10
0.0
 20
0.0
 11
1.0
 21
1.0
 12
209.9839816944645
 22
148.4886727696569
 13
0.0
 23
0.0
 14
2.5
 24
2.5
 15
10.0
 25
10.0
 16
0.0
 26
0.0
 36
1.0
 17
0.0
 27
0.0
 37
0.0
 40
298.8848682441495
 41
1.624476987447698
 42
50.0
 43
-1370.695619172058
 44
-1370.695619172058
 50
0.0
 51
0.0
 71
     0
 72
   100
 73
     1
 74
     3
 75
     0
 76
     0
 77
     0
 78
     0
281
     0
 65
     0
110
0.0
120
0.0
130
0.0
111
1.0
121
0.0
131
0.0
112
0.0
122
1.0
132
0.0
 79
     0
146
0.0
  0
ENDTAB
  0
TABLE
  2
LTYPE
  5
5
330
0
100
AcDbSymbolTable
 70
    33
  0
LTYPE
  5
14
330
5
100
AcDbSymbolTableRecord
100
AcDbLinetypeTableRecord
  2
ByBlock
 70
     0
  3

 72
    65
 73
     0
 40
0.0
  0
LTYPE
  5
15
330
5
100
AcDbSymbolTableRecord
100
AcDbLinetypeTableRecord
  2
ByLayer
 70
     0
  3

 72
    65
 73
     0
 40
0.0
  0
LTYPE
  5
16
330
5
100
AcDbSymbolTableRecord
100
AcDbLinetypeTableRecord
  2
Continuous
 70
     0
  3
Solid line
 72
    65
 73
     0
 40
0.0
  0
LTYPE
  5
4F
330
5
100
AcDbSymbolTableRecord
100
AcDbLinetypeTableRecord
  2
AM_ISO02W050
 70
     0
  3
__ __ __ __ __ __ __ __ __ __ __ __ __ __ __
 72
    65
 73
     2
 40
7.5
 49
6.0
 74
     0
 49
-1.5
 74
     0
  0
LTYPE
  5
52
330
5
100
AcDbSymbolTableRecord
100
AcDbLinetypeTableRecord
  2
Amconstr
 70
     0
  3
_______________________
 72
    65
 73
     2
 40
9999.0
 49
9999.0
 74
     0
 49
0.0
 74
     0
  0
LTYPE
  5
64
330
5
100
AcDbSymbolTableRecord
100
AcDbLinetypeTableRecord
  2
ACISOWELD
 70
     0
  3
_ _ _ _ _
 72
    65
 73
     2
 40
2.0
 49
2.0
 74
     0
 49
-1.0
 74
     0
  0
LTYPE
  5
65
330
5
100
AcDbSymbolTableRecord
100
AcDbLinetypeTableRecord
  2
ACISOTGB
 70
     0
  3
__ . . __ . .
 72
    65
 73
     6
 40
9.0
 49
4.0
 74
     0
 49
-1.0
 74
     0
 49
1.0
 74
     0
 49
-1.0
 74
     0
 49
1.0
 74
     0
 49
-1.0
 74
     0
  0
LTYPE
  5
66
330
5
100
AcDbSymbolTableRecord
100
AcDbLinetypeTableRecord
  2
ACISOTGL
 70
     0
  3
_ _ _ _ _
 72
    65
 73
     2
 40
3.0
 49
2.0
 74
     0
 49
-1.0
 74
     0
  0
LTYPE
  5
69
330
5
100
AcDbSymbolTableRecord
100
AcDbLinetypeTableRecord
  2
CENTER
 70
     0
  3
__ . __
 72
    65
 73
     4
 40
7.0
 49
4.0
 74
     0
 49
-1.0
 74
     0
 49
1.0
 74
     0
 49
-1.0
 74
     0
  0
LTYPE
  5
A6E
330
5
100
AcDbSymbolTableRecord
100
AcDbLinetypeTableRecord
  2
PHANTOM2
 70
     0
  3
Phantom (.5x) ___ _ _ ___ _ _ ___ _ _ ___ _ _
 72
    65
 73
     6
 40
31.75
 49
15.875
 74
     0
 49
-3.174999999999999
 74
     0
 49
3.174999999999999
 74
     0
 49
-3.174999999999999
 74
     0
 49
3.174999999999999
 74
     0
 49
-3.174999999999999
 74
     0
  0
LTYPE
  5
4DED
330
5
100
AcDbSymbolTableRecord
100
AcDbLinetypeTableRecord
  2
中線
 70
     0
  3
___________________
 72
    65
 73
     2
 40
2.0
 49
1.0
 74
     0
 49
1.0
 74
     0
  0
LTYPE
  5
4DF6
330
5
100
AcDbSymbolTableRecord
100
AcDbLinetypeTableRecord
  2
細線
 70
     0
  3
___________________
 72
    65
 73
     2
 40
2.0
 49
1.0
 74
     0
 49
1.0
 74
     0
  0
LTYPE
  5
4DF7
330
5
100
AcDbSymbolTableRecord
100
AcDbLinetypeTableRecord
  2
太線
 70
     0
  3
___________________
 72
    65
 73
     2
 40
2.0
 49
1.0
 74
     0
 49
1.0
 74
     0
  0
LTYPE
  5
4EA7
330
5
100
AcDbSymbolTableRecord
100
AcDbLinetypeTableRecord
  2
文字
 70
     0
  3
_________________
 72
    65
 73
     2
 40
2.0
 49
1.0
 74
     0
 49
1.0
 74
     0
  0
LTYPE
  5
4EA9
330
5
100
AcDbSymbolTableRecord
100
AcDbLinetypeTableRecord
  2
寸法線
 70
     0
  3
________________
 72
    65
 73
     2
 40
2.0
 49
1.0
 74
     0
 49
1.0
 74
     0
  0
LTYPE
  5
4F12
330
5
100
AcDbSymbolTableRecord
100
AcDbLinetypeTableRecord
  2
ハッチング
 70
     0
  3
_________________
 72
    65
 73
     2
 40
2.0
 49
1.0
 74
     0
 49
1.0
 74
     0
  0
LTYPE
  5
5180
330
5
100
AcDbSymbolTableRecord
100
AcDbLinetypeTableRecord
  2
陰線1
 70
     0
  3
__ __ __ __
 72
    65
 73
     2
 40
4.0
 49
2.2
 74
     0
 49
-1.8
 74
     0
  0
LTYPE
  5
5182
330
5
100
AcDbSymbolTableRecord
100
AcDbLinetypeTableRecord
  2
切断線
 70
     0
  3
/\/-/\/-/\/-/\/-/\/-/\/
 72
    65
 73
     2
 40
11.0001
 49
0.0001
 74
     4
 75
   135
340
56
 46
0.04
 50
0.0
 44
0.0
 45
0.0
 49
-11.0
 74
     0
  0
LTYPE
  5
5183
330
5
100
AcDbSymbolTableRecord
100
AcDbLinetypeTableRecord
  2
想像線1
 70
     0
  3
__ __ __ _____ __ __ ____
 72
    65
 73
     6
 40
14.5
 49
6.0
 74
     0
 49
-1.5
 74
     0
 49
2.0
 74
     0
 49
-1.5
 74
     0
 49
2.0
 74
     0
 49
-1.5
 74
     0
  0
LTYPE
  5
5185
330
5
100
AcDbSymbolTableRecord
100
AcDbLinetypeTableRecord
  2
中心線1
 70
     0
  3
___ _ ___ _ ___
 72
    65
 73
     4
 40
18.0
 49
12.0
 74
     0
 49
-2.0
 74
     0
 49
2.0
 74
     0
 49
-2.0
 74
     0
  0
LTYPE
  5
5188
330
5
100
AcDbSymbolTableRecord
100
AcDbLinetypeTableRecord
  2
補助線
 70
     0
  3
______________
 72
    65
 73
     2
 40
2.0
 49
1.0
 74
     0
 49
1.0
 74
     0
  0
LTYPE
  5
6427
330
5
100
AcDbSymbolTableRecord
100
AcDbLinetypeTableRecord
  2
HIDDEN
 70
     0
  3
Hidden __ __ __ __ __ __ __ __ __ __ __ __ __ _
 72
    65
 73
     2
 40
0.375
 49
0.25
 74
     0
 49
-0.125
 74
     0
  0
LTYPE
  5
AC81
330
5
100
AcDbSymbolTableRecord
100
AcDbLinetypeTableRecord
  2
破断線
 70
     0
  3
/\/-/\/-/\/-/\/-/\/-/\/
 72
    65
 73
     2
 40
0.4401
 49
0.0001
 74
     4
 75
   136
340
AC80
 46
0.0016
 50
0.0
 44
0.0
 45
0.0
 49
-0.4400000000000001
 74
     0
  0
LTYPE
  5
AC9E
330
5
100
AcDbSymbolTableRecord
100
AcDbLinetypeTableRecord
  2
Amzigzag
 70
     0
  3
/\/-/\/-/\/-/\/-/\/-/\/
 72
    65
 73
     2
 40
11.0001
 49
0.0001
 74
     4
 75
   135
340
56
 46
0.04
 50
0.0
 44
0.0
 45
0.0
 49
-11.0
 74
     0
  0
LTYPE
  5
AF0F
330
5
100
AcDbSymbolTableRecord
100
AcDbLinetypeTableRecord
  2
genzigzag
 70
     0
  3
/\/-/\/-/\/-/\/-/\/-/\/
 72
    65
 73
     2
 40
12.0001
 49
0.0001
 74
     4
 75
   135
340
AC80
 46
2.0
 50
0.0
 44
0.0
 45
0.0
 49
-12.0
 74
     0
  0
LTYPE
  5
AF95
330
5
100
AcDbSymbolTableRecord
100
AcDbLinetypeTableRecord
  2
AM_ISO08W050
 70
     0
  3
____ . ____ . ____ . ____ . ____ . ____ . ____
 72
    65
 73
     4
 40
18.0
 49
12.0
 74
     0
 49
-1.5
 74
     0
 49
3.0
 74
     0
 49
-1.5
 74
     0
  0
LTYPE
  5
AF96
330
5
100
AcDbSymbolTableRecord
100
AcDbLinetypeTableRecord
  2
AM_ISO09W050
 70
     0
  3
_____ . . _____ . . _____ . . ____ .. ____
 72
    65
 73
     6
 40
22.5
 49
12.0
 74
     0
 49
-1.5
 74
     0
 49
3.0
 74
     0
 49
-1.5
 74
     0
 49
3.0
 74
     0
 49
-1.5
 74
     0
  0
LTYPE
  5
AF97
330
5
100
AcDbSymbolTableRecord
100
AcDbLinetypeTableRecord
  2
AM_ISO08W050x2
 70
     0
  3
__ . __ . __ . __ . __ . __
 72
    65
 73
     4
 40
9.0
 49
6.0
 74
     0
 49
-0.75
 74
     0
 49
1.5
 74
     0
 49
-0.75
 74
     0
  0
LTYPE
  5
AF98
330
5
100
AcDbSymbolTableRecord
100
AcDbLinetypeTableRecord
  2
AM_ISO02W050x2
 70
     0
  3
 _ _ _ _ _ _ _ _ _ _ _ _
 72
    65
 73
     2
 40
3.75
 49
3.0
 74
     0
 49
-0.75
 74
     0
  0
LTYPE
  5
B7EC
330
5
100
AcDbSymbolTableRecord
100
AcDbLinetypeTableRecord
  2
ACANSTGB
 70
     0
  3
__ . . __ . .
 72
    65
 73
     6
 40
0.35433070866
 49
0.15748031496
 74
     0
 49
-0.03937007874
 74
     0
 49
0.03937007874
 74
     0
 49
-0.03937007874
 74
     0
 49
0.03937007874
 74
     0
 49
-0.03937007874
 74
     0
  0
LTYPE
  5
B7ED
330
5
100
AcDbSymbolTableRecord
100
AcDbLinetypeTableRecord
  2
ACANSTGL
 70
     0
  3
_ _ _ _ _
 72
    65
 73
     2
 40
0.11811023622
 49
0.07874015748
 74
     0
 49
-0.03937007874
 74
     0
  0
LTYPE
  5
B7EE
330
5
100
AcDbSymbolTableRecord
100
AcDbLinetypeTableRecord
  2
CENTER2
 70
     0
  3
Center (.5x) ___ _ ___ _ ___ _ ___ _ ___ _ ___
 72
    65
 73
     4
 40
1.125
 49
0.75
 74
     0
 49
-0.125
 74
     0
 49
0.125
 74
     0
 49
-0.125
 74
     0
  0
LTYPE
  5
B7EF
330
5
100
AcDbSymbolTableRecord
100
AcDbLinetypeTableRecord
  2
HIDDEN2
 70
     0
  3
Hidden (.5x) _ _ _ _ _ _ _ _ _ _ _ _ _ _ _ _ _
 72
    65
 73
     2
 40
0.1875
 49
0.125
 74
     0
 49
-0.0625
 74
     0
  0
LTYPE
  5
B7F0
330
5
100
AcDbSymbolTableRecord
100
AcDbLinetypeTableRecord
  2
AMZIGZAG2
 70
     0
  3
/\/-/\/-/\/-/\/-/\/-/\/
 72
    65
 73
     2
 40
0.4401
 49
0.0001
 74
     0
 49
-0.4400000000000003
 74
     0
  0
LTYPE
  5
C649
330
5
100
AcDbSymbolTableRecord
100
AcDbLinetypeTableRecord
  2
PHANTOM
 70
     0
  3
_____ _ _ _____ _ _ _____ _ _ _____ _ _ ____  
 72
    65
 73
     6
 40
15.5
 49
8.0
 74
     0
 49
-1.5
 74
     0
 49
1.5
 74
     0
 49
-1.5
 74
     0
 49
1.5
 74
     0
 49
-1.5
 74
     0
  0
ENDTAB
  0
TABLE
  2
LAYER
  5
2
102
{ACAD_XDICTIONARY
360
3F95
102
}
330
0
100
AcDbSymbolTable
 70
    21
  0
LAYER
  5
10
102
{ACAD_XDICTIONARY
360
C26F
102
}
330
2
100
AcDbSymbolTableRecord
100
AcDbLayerTableRecord
  2
0
 70
     0
 62
     7
  6
Continuous
370
    -3
390
F
  0
LAYER
  5
6D1
330
2
100
AcDbSymbolTableRecord
100
AcDbLayerTableRecord
  2
Defpoints
 70
     0
 62
     7
  6
Continuous
290
     0
370
    -3
390
F
  0
LAYER
  5
5F85
102
{ACAD_XDICTIONARY
360
C271
102
}
330
2
100
AcDbSymbolTableRecord
100
AcDbLayerTableRecord
  2
AM_0
 70
     0
 62
     7
  6
中線
370
    30
390
F
1001
AcAecLayerStandard
1000

1000

  0
LAYER
  5
AC9F
102
{ACAD_XDICTIONARY
360
C273
102
}
330
2
100
AcDbSymbolTableRecord
100
AcDbLayerTableRecord
  2
size
 70
     0
 62
     5
  6
Continuous
290
     0
370
    25
390
F
  0
LAYER
  5
ACA0
102
{ACAD_XDICTIONARY
360
C275
102
}
330
2
100
AcDbSymbolTableRecord
100
AcDbLayerTableRecord
  2
waku
 70
     0
 62
     7
  6
Continuous
370
    35
390
F
  0
LAYER
  5
ACA1
102
{ACAD_XDICTIONARY
360
C277
102
}
330
2
100
AcDbSymbolTableRecord
100
AcDbLayerTableRecord
  2
AM_6
 70
     0
 62
     2
  6
文字
370
    13
390
F
1001
AcAecLayerStandard
1000

1000

  0
LAYER
  5
ACC8
102
{ACAD_XDICTIONARY
360
C279
102
}
330
2
100
AcDbSymbolTableRecord
100
AcDbLayerTableRecord
  2
hyomoji
 70
     0
 62
     2
  6
Continuous
370
    13
390
F
  0
LAYER
  5
ACC9
102
{ACAD_XDICTIONARY
360
C27B
102
}
330
2
100
AcDbSymbolTableRecord
100
AcDbLayerTableRecord
  2
hyosen1
 70
     0
 62
    12
  6
Continuous
370
    25
390
F
  0
LAYER
  5
ACCA
102
{ACAD_XDICTIONARY
360
C27D
102
}
330
2
100
AcDbSymbolTableRecord
100
AcDbLayerTableRecord
  2
hyosen2
 70
     0
 62
    12
  6
Continuous
370
    13
390
F
  0
LAYER
  5
AD60
102
{ACAD_XDICTIONARY
360
C27F
102
}
330
2
100
AcDbSymbolTableRecord
100
AcDbLayerTableRecord
  2
AM_1
 70
     0
 62
    30
  6
太線
370
    40
390
F
1001
AcAecLayerStandard
1000

1000

  0
LAYER
  5
AD64
102
{ACAD_XDICTIONARY
360
C281
102
}
330
2
100
AcDbSymbolTableRecord
100
AcDbLayerTableRecord
  2
AM_2
 70
     0
 62
     1
  6
細線
370
    13
390
F
1001
AcAecLayerStandard
1000

1000

  0
LAYER
  5
AD67
102
{ACAD_XDICTIONARY
360
C283
102
}
330
2
100
AcDbSymbolTableRecord
100
AcDbLayerTableRecord
  2
AM_3
 70
     0
 62
     6
  6
陰線1
370
    13
390
F
1001
AcAecLayerStandard
1000

1000

  0
LAYER
  5
AD68
102
{ACAD_XDICTIONARY
360
C285
102
}
330
2
100
AcDbSymbolTableRecord
100
AcDbLayerTableRecord
  2
AM_5
 70
     0
 62
     3
  6
寸法線
370
    13
390
F
1001
AcAecLayerStandard
1000

1000

  0
LAYER
  5
AD69
102
{ACAD_XDICTIONARY
360
C287
102
}
330
2
100
AcDbSymbolTableRecord
100
AcDbLayerTableRecord
  2
AM_7
 70
     0
 62
     4
  6
中心線1
370
    13
390
F
1001
AcAecLayerStandard
1000

1000

  0
LAYER
  5
AD6A
102
{ACAD_XDICTIONARY
360
C289
102
}
330
2
100
AcDbSymbolTableRecord
100
AcDbLayerTableRecord
  2
AM_8
 70
     0
 62
     1
  6
ハッチング
370
    13
390
F
1001
AcAecLayerStandard
1000

1000

  0
LAYER
  5
AD6E
102
{ACAD_XDICTIONARY
360
C28B
102
}
330
2
100
AcDbSymbolTableRecord
100
AcDbLayerTableRecord
  2
AM_10
 70
     0
 62
     7
  6
切断線
370
    13
390
F
1001
AcAecLayerStandard
1000

1000

  0
LAYER
  5
AD6F
102
{ACAD_XDICTIONARY
360
C28D
102
}
330
2
100
AcDbSymbolTableRecord
100
AcDbLayerTableRecord
  2
AM_11
 70
     0
 62
     2
  6
想像線1
370
    13
390
F
1001
AcAecLayerStandard
1000

1000

  0
LAYER
  5
B1B6
102
{ACAD_XDICTIONARY
360
C28F
102
}
330
2
100
AcDbSymbolTableRecord
100
AcDbLayerTableRecord
  2
AM_CL
 70
     0
 62
     1
  6
Amconstr
370
    15
390
F
1001
AcAecLayerStandard
1000

1000

  0
LAYER
  5
B2EB
102
{ACAD_XDICTIONARY
360
C291
102
}
330
2
100
AcDbSymbolTableRecord
100
AcDbLayerTableRecord
  2
AM_14
 70
     0
 62
     5
  6
細線
370
     9
390
F
1001
AcAecLayerStandard
1000

1000

  0
LAYER
  5
B2EC
102
{ACAD_XDICTIONARY
360
C293
102
}
330
2
100
AcDbSymbolTableRecord
100
AcDbLayerTableRecord
  2
AM_15
 70
     0
 62
     6
  6
陰線1
370
     9
390
F
1001
AcAecLayerStandard
1000

1000

  0
LAYER
  5
11EBD
330
2
100
AcDbSymbolTableRecord
100
AcDbLayerTableRecord
  2
AM_4
 70
     0
 62
     3
  6
補助線
370
    13
390
F
1001
AcAecLayerStandard
1000

1000

  0
ENDTAB
  0
TABLE
  2
STYLE
  5
3
330
0
100
AcDbSymbolTable
 70
     9
  0
STYLE
  5
11
330
3
100
AcDbSymbolTableRecord
100
AcDbTextStyleTableRecord
  2
STANDARD
 70
     0
 40
0.0
 41
0.7
 50
0.0
 71
     0
 42
3.2
  3
romans.shx
  4
extfont.shx
  0
STYLE
  5
56
330
3
100
AcDbSymbolTableRecord
100
AcDbTextStyleTableRecord
  2

 70
     1
 40
0.0
 41
1.0
 50
0.0
 71
     0
 42
2.5
  3
ltypeshp.shx
  4

  0
STYLE
  5
58
330
3
100
AcDbSymbolTableRecord
100
AcDbTextStyleTableRecord
  2
ACISOTS
 70
     0
 40
1.0
 41
1.0
 50
0.0
 71
     0
 42
2.5
  3
isocp.shx
  4
extfont.shx
  0
STYLE
  5
63
330
3
100
AcDbSymbolTableRecord
100
AcDbTextStyleTableRecord
  2
ACISOGDT
 70
     0
 40
0.0
 41
1.0
 50
0.0
 71
     0
 42
2.5
  3
amgdt.shx
  4

  0
STYLE
  5
A74
330
3
100
AcDbSymbolTableRecord
100
AcDbTextStyleTableRecord
  2
DIM
 70
     0
 40
0.0
 41
1.0
 50
0.0
 71
     0
 42
2.5
  3
monotxt.shx
  4
extfont.shx
  0
STYLE
  5
AC80
330
3
100
AcDbSymbolTableRecord
100
AcDbTextStyleTableRecord
  2

 70
     1
 40
0.0
 41
1.0
 50
0.0
 71
     0
 42
3.2
  3
genltshp.shx
  4

  0
STYLE
  5
B7F1
330
3
100
AcDbSymbolTableRecord
100
AcDbTextStyleTableRecord
  2
ACANSTS
 70
     0
 40
1.0
 41
1.0
 50
0.0
 71
     0
 42
0.2
  3
romans.shx
  4
extfont.shx
  0
STYLE
  5
B7F2
330
3
100
AcDbSymbolTableRecord
100
AcDbTextStyleTableRecord
  2
ACANSGDT
 70
     0
 40
0.0
 41
1.0
 50
0.0
 71
     0
 42
0.2
  3
amgdt.shx
  4

  0
ENDTAB
  0
TABLE
  2
VIEW
  5
6
330
0
100
AcDbSymbolTable
 70
     6
  0
VIEW
  5
AE1
330
6
100
AcDbSymbolTableRecord
100
AcDbViewTableRecord
  2
AM_VIEW1
 70
     0
 40
148.5
 10
120.5689655172414
 20
222.75
 41
241.1379310344828
 11
0.0
 21
0.0
 31
1.0
 12
0.0
 22
0.0
 32
0.0
 42
50.0
 43
-1370.695619172058
 44
-1370.695619172058
 50
0.0
 71
     0
281
     0
 72
     0
  0
VIEW
  5
AE2
330
6
100
AcDbSymbolTableRecord
100
AcDbViewTableRecord
  2
AM_VIEW2
 70
     0
 40
148.5
 10
299.4310344827586
 20
222.75
 41
241.1379310344828
 11
0.0
 21
0.0
 31
1.0
 12
0.0
 22
0.0
 32
0.0
 42
50.0
 43
-1370.695619172058
 44
-1370.695619172058
 50
0.0
 71
     0
281
     0
 72
     0
  0
VIEW
  5
AE3
330
6
100
AcDbSymbolTableRecord
100
AcDbViewTableRecord
  2
AM_VIEW3
 70
     0
 40
148.5
 10
120.5689655172414
 20
74.25
 41
241.1379310344828
 11
0.0
 21
0.0
 31
1.0
 12
0.0
 22
0.0
 32
0.0
 42
50.0
 43
-1370.695619172058
 44
-1370.695619172058
 50
0.0
 71
     0
281
     0
 72
     0
  0
VIEW
  5
AE4
330
6
100
AcDbSymbolTableRecord
100
AcDbViewTableRecord
  2
AM_VIEW4
 70
     0
 40
148.5
 10
299.4310344827586
 20
74.25
 41
241.1379310344828
 11
0.0
 21
0.0
 31
1.0
 12
0.0
 22
0.0
 32
0.0
 42
50.0
 43
-1370.695619172058
 44
-1370.695619172058
 50
0.0
 71
     0
281
     0
 72
     0
  0
VIEW
  5
AE5
330
6
100
AcDbSymbolTableRecord
100
AcDbViewTableRecord
  2
AM_VIEW5
 70
     0
 40
148.5
 10
210.0
 20
148.5
 41
241.1379310344828
 11
0.0
 21
0.0
 31
1.0
 12
0.0
 22
0.0
 32
0.0
 42
50.0
 43
-1370.695619172058
 44
-1370.695619172058
 50
0.0
 71
     0
281
     0
 72
     0
  0
VIEW
  5
AE6
330
6
100
AcDbSymbolTableRecord
100
AcDbViewTableRecord
  2
AM_VIEW6
 70
     0
 40
296.99703
 10
210.0
 20
148.5
 41
482.2710393103448
 11
0.0
 21
0.0
 31
1.0
 12
0.0
 22
0.0
 32
0.0
 42
50.0
 43
-1370.695619172058
 44
-1370.695619172058
 50
0.0
 71
     0
281
     0
 72
     0
  0
ENDTAB
  0
TABLE
  2
UCS
  5
7
330
0
100
AcDbSymbolTable
 70
     0
  0
ENDTAB
  0
TABLE
  2
APPID
  5
9
330
0
100
AcDbSymbolTable
 70
    58
  0
APPID
  5
12
330
9
100
AcDbSymbolTableRecord
100
AcDbRegAppTableRecord
  2
ACAD
 70
     0
  0
APPID
  5
30
330
9
100
AcDbSymbolTableRecord
100
AcDbRegAppTableRecord
  2
MCAD_NO_VIS
 70
     0
  0
APPID
  5
31
330
9
100
AcDbSymbolTableRecord
100
AcDbRegAppTableRecord
  2
ACAD_TEMP_GRAPHIC
 70
     0
  0
APPID
  5
44
330
9
100
AcDbSymbolTableRecord
100
AcDbRegAppTableRecord
  2
ACATTRIBSERVICES
 70
     0
  0
APPID
  5
7A1
330
9
100
AcDbSymbolTableRecord
100
AcDbRegAppTableRecord
  2
GENIUS_GENDIMSH_14
 70
     0
  0
APPID
  5
A49
330
9
100
AcDbSymbolTableRecord
100
AcDbRegAppTableRecord
  2
GENIUS_GENREC_14
 70
     0
  0
APPID
  5
A4A
330
9
100
AcDbSymbolTableRecord
100
AcDbRegAppTableRecord
  2
GENIUS_GENOBJ-N-REC_13
 70
     0
  0
APPID
  5
A4B
330
9
100
AcDbSymbolTableRecord
100
AcDbRegAppTableRecord
  2
GENIUS_GENODEF_13
 70
     0
  0
APPID
  5
A4C
330
9
100
AcDbSymbolTableRecord
100
AcDbRegAppTableRecord
  2
DCO15
 70
     0
  0
APPID
  5
ADC
330
9
100
AcDbSymbolTableRecord
100
AcDbRegAppTableRecord
  2
GENIUS_GENOLIS_13
 70
     0
  0
APPID
  5
ADD
330
9
100
AcDbSymbolTableRecord
100
AcDbRegAppTableRecord
  2
GENIUS_GENOENT_13
 70
     0
  0
APPID
  5
ADE
330
9
100
AcDbSymbolTableRecord
100
AcDbRegAppTableRecord
  2
GENIUS_GENOBJ-N-TIT_13
 70
     0
  0
APPID
  5
ADF
330
9
100
AcDbSymbolTableRecord
100
AcDbRegAppTableRecord
  2
GENIUS_GENTITLE_13
 70
     0
  0
APPID
  5
AE0
330
9
100
AcDbSymbolTableRecord
100
AcDbRegAppTableRecord
  2
GENIUS_GENOREF_13
 70
     0
  0
APPID
  5
AE7
330
9
100
AcDbSymbolTableRecord
100
AcDbRegAppTableRecord
  2
GENIUS_GENSCREG_15
 70
     0
  0
APPID
  5
AE8
330
9
100
AcDbSymbolTableRecord
100
AcDbRegAppTableRecord
  2
GENIUS_GENOBJ-N-SDF_13
 70
     0
  0
APPID
  5
FAF
330
9
100
AcDbSymbolTableRecord
100
AcDbRegAppTableRecord
  2
GENIUS_GENBLLY_14
 70
     0
  0
APPID
  5
FB0
330
9
100
AcDbSymbolTableRecord
100
AcDbRegAppTableRecord
  2
GENIUS_GENTRA_14
 70
     0
  0
APPID
  5
1285
330
9
100
AcDbSymbolTableRecord
100
AcDbRegAppTableRecord
  2
GENIUS_GENDTOL_13
 70
     0
  0
APPID
  5
142D
330
9
100
AcDbSymbolTableRecord
100
AcDbRegAppTableRecord
  2
GENIUS_GENOBJ-N-CEN_13
 70
     0
  0
APPID
  5
1AB5
330
9
100
AcDbSymbolTableRecord
100
AcDbRegAppTableRecord
  2
GENIUS_GENOBJ-N-CRS_13
 70
     0
  0
APPID
  5
1B36
330
9
100
AcDbSymbolTableRecord
100
AcDbRegAppTableRecord
  2
GENIUS_GENOBJ-N-HTC_13
 70
     0
  0
APPID
  5
1B37
330
9
100
AcDbSymbolTableRecord
100
AcDbRegAppTableRecord
  2
GENIUS_GENHATCH_13
 70
     0
  0
APPID
  5
216D
330
9
100
AcDbSymbolTableRecord
100
AcDbRegAppTableRecord
  2
GENIUS_GENOBJ-N-FIL_13
 70
     0
  0
APPID
  5
2356
330
9
100
AcDbSymbolTableRecord
100
AcDbRegAppTableRecord
  2
GEVID990412420
 70
     0
  0
APPID
  5
2357
330
9
100
AcDbSymbolTableRecord
100
AcDbRegAppTableRecord
  2
GEVDC
 70
     0
  0
APPID
  5
2358
330
9
100
AcDbSymbolTableRecord
100
AcDbRegAppTableRecord
  2
GEVCON
 70
     0
  0
APPID
  5
235B
330
9
100
AcDbSymbolTableRecord
100
AcDbRegAppTableRecord
  2
GEVRADREF
 70
     0
  0
APPID
  5
2360
330
9
100
AcDbSymbolTableRecord
100
AcDbRegAppTableRecord
  2
GENIUS_GENBH_13
 70
     0
  0
APPID
  5
2362
330
9
100
AcDbSymbolTableRecord
100
AcDbRegAppTableRecord
  2
GENIUS_GENOBJ-NBEHI-BHF_13
 70
     0
  0
APPID
  5
2364
330
9
100
AcDbSymbolTableRecord
100
AcDbRegAppTableRecord
  2
GENIUS_GENOBJ-NBEHI-BHB_13
 70
     0
  0
APPID
  5
2379
330
9
100
AcDbSymbolTableRecord
100
AcDbRegAppTableRecord
  2
GENIUS_GENOBJ-F-SCPASSM_13
 70
     0
  0
APPID
  5
3D74
330
9
100
AcDbSymbolTableRecord
100
AcDbRegAppTableRecord
  2
GENIUS_GENDIM_13
 70
     0
  0
APPID
  5
3D76
330
9
100
AcDbSymbolTableRecord
100
AcDbRegAppTableRecord
  2
GENIUS_GE3DTOL_13
 70
     0
  0
APPID
  5
3D9C
330
9
100
AcDbSymbolTableRecord
100
AcDbRegAppTableRecord
  2
AD_DRAW
 70
     0
  0
APPID
  5
3DE8
330
9
100
AcDbSymbolTableRecord
100
AcDbRegAppTableRecord
  2
ASURF_PCURVE_APPNAME
 70
     0
  0
APPID
  5
3DED
330
9
100
AcDbSymbolTableRecord
100
AcDbRegAppTableRecord
  2
AMG_3D2D_5.0
 70
     0
  0
APPID
  5
3E1B
330
9
100
AcDbSymbolTableRecord
100
AcDbRegAppTableRecord
  2
DESIGNERASSEMBLIES
 70
     0
  0
APPID
  5
3E20
330
9
100
AcDbSymbolTableRecord
100
AcDbRegAppTableRecord
  2
ACADM_DIM_EDIT
 70
     0
  0
APPID
  5
3E21
330
9
100
AcDbSymbolTableRecord
100
AcDbRegAppTableRecord
  2
AMDT_DM_ADJ
 70
     0
  0
APPID
  5
4143
330
9
100
AcDbSymbolTableRecord
100
AcDbRegAppTableRecord
  2
GENIUS_GENFIL_13
 70
     0
  0
APPID
  5
4144
330
9
100
AcDbSymbolTableRecord
100
AcDbRegAppTableRecord
  2
GENIUS_GENOBJ-N-CHA_13
 70
     0
  0
APPID
  5
4E17
330
9
100
AcDbSymbolTableRecord
100
AcDbRegAppTableRecord
  2
GEVID1008153417
 70
     0
  0
APPID
  5
4E58
330
9
100
AcDbSymbolTableRecord
100
AcDbRegAppTableRecord
  2
GEVID1008153418
 70
     0
  0
APPID
  5
4E5E
330
9
100
AcDbSymbolTableRecord
100
AcDbRegAppTableRecord
  2
GEVID1008153419
 70
     0
  0
APPID
  5
4E64
330
9
100
AcDbSymbolTableRecord
100
AcDbRegAppTableRecord
  2
GEVID1008153420
 70
     0
  0
APPID
  5
4E75
330
9
100
AcDbSymbolTableRecord
100
AcDbRegAppTableRecord
  2
GEVID1008153421
 70
     0
  0
APPID
  5
4EB7
330
9
100
AcDbSymbolTableRecord
100
AcDbRegAppTableRecord
  2
GENIUS_AMGTXT_16
 70
     0
  0
APPID
  5
7645
330
9
100
AcDbSymbolTableRecord
100
AcDbRegAppTableRecord
  2
GENIUS_GENOBJ-N-DIM_13
 70
     0
  0
APPID
  5
AAD0
330
9
100
AcDbSymbolTableRecord
100
AcDbRegAppTableRecord
  2
ACAD_DSTYLE_DIMARC_LENGTH_SYMBOL
 70
     0
  0
APPID
  5
AAD1
330
9
100
AcDbSymbolTableRecord
100
AcDbRegAppTableRecord
  2
ACAD_DSTYLE_DIMJOGGED_JOGANGLE_SYMBOL
 70
     0
  0
APPID
  5
AAFD
330
9
100
AcDbSymbolTableRecord
100
AcDbRegAppTableRecord
  2
ACAD_PSEXT
 70
     0
  0
APPID
  5
AD61
330
9
100
AcDbSymbolTableRecord
100
AcDbRegAppTableRecord
  2
AcAecLayerStandard
 70
     0
  0
APPID
  5
AEE3
330
9
100
AcDbSymbolTableRecord
100
AcDbRegAppTableRecord
  2
ACAD_EXEMPT_FROM_CAD_STANDARDS
 70
     0
  0
APPID
  5
B1BE
330
9
100
AcDbSymbolTableRecord
100
AcDbRegAppTableRecord
  2
GENIUS_GENCEN_19
 70
     0
  0
APPID
  5
B597
330
9
100
AcDbSymbolTableRecord
100
AcDbRegAppTableRecord
  2
ACAD_MLEADERVER
 70
     0
  0
APPID
  5
BBD6
330
9
100
AcDbSymbolTableRecord
100
AcDbRegAppTableRecord
  2
ACAD_DSTYLE_DIMINSPECT
 70
     0
  0
APPID
  5
BE09
330
9
100
AcDbSymbolTableRecord
100
AcDbRegAppTableRecord
  2
ACAD_DSTYLE_DIMRADIAL_EXTENSION
 70
     0
  0
ENDTAB
  0
TABLE
  2
DIMSTYLE
  5
A
330
0
100
AcDbSymbolTable
 70
    25
100
AcDbDimStyleTable
 71
     1
340
2515
  0
DIMSTYLE
105
A76
330
A
100
AcDbSymbolTableRecord
100
AcDbDimStyleTableRecord
  2
STANDARD
 70
     0
 41
3.0
 42
1.0
 43
7.0
 44
2.0
 73
     0
 74
     0
 77
     1
140
2.799999999999999
141
0.0
143
0.0394
147
0.7
171
     4
172
     1
173
     1
176
     3
177
     3
178
     2
271
     3
272
     3
273
     8
274
     4
289
     0
340
A74
341
A66
343
A66
344
A66
  0
DIMSTYLE
105
2515
330
A
100
AcDbSymbolTableRecord
100
AcDbDimStyleTableRecord
  2
SYS
 70
     0
  4
"
 41
1.0
 42
1.0
 43
10.0
 44
1.0
 47
0.1
 48
0.1
 73
     0
 74
     0
 77
     1
 78
     8
 79
     2
140
3.5
141
0.0
143
0.0393701
146
0.71
147
1.5
172
     1
176
   256
177
   256
178
     7
271
     2
272
     2
283
     0
284
     8
340
11
371
    -1
372
    -1
1001
ACAD_DSTYLE_DIMJOGGED_JOGANGLE_SYMBOL
1070
   384
1040
0.7853981633974483
1001
ACAD_DSTYLE_DIMARC_LENGTH_SYMBOL
1070
   379
1070
     1
  0
DIMSTYLE
105
2516
330
A
100
AcDbSymbolTableRecord
100
AcDbDimStyleTableRecord
  2
SYS$3
 70
     0
  4
"
 41
2.0
 42
1.0
 43
10.0
 44
1.0
 47
0.1
 48
0.1
 73
     0
 77
     1
 78
     8
 79
     2
140
3.5
141
0.0
143
0.0393701
146
0.71
147
1.5
176
   256
177
   256
178
     2
271
     2
272
     2
283
     0
284
     8
288
     1
340
11
342
A66
371
    -1
372
    -1
1001
ACAD_DSTYLE_DIMJOGGED_JOGANGLE_SYMBOL
1070
   384
1040
0.7853981633974483
1001
ACAD_DSTYLE_DIMARC_LENGTH_SYMBOL
1070
   379
1070
     1
  0
DIMSTYLE
105
2517
330
A
100
AcDbSymbolTableRecord
100
AcDbDimStyleTableRecord
  2
SYS$4
 70
     0
  4
"
 41
2.0
 42
1.0
 43
10.0
 44
1.0
 47
0.1
 48
0.1
 73
     0
 77
     1
 78
     8
 79
     2
140
3.5
141
0.0
143
0.0393701
146
0.71
147
1.5
173
     1
176
   256
177
   256
178
     2
271
     2
272
     2
283
     0
284
     8
288
     1
340
11
344
A66
371
    -1
372
    -1
1001
ACAD_DSTYLE_DIMJOGGED_JOGANGLE_SYMBOL
1070
   384
1040
0.7853981633974483
1001
ACAD_DSTYLE_DIMARC_LENGTH_SYMBOL
1070
   379
1070
     1
  0
DIMSTYLE
105
2518
330
A
100
AcDbSymbolTableRecord
100
AcDbDimStyleTableRecord
  2
SYS$6
 70
     0
  4
"
 41
2.0
 42
1.0
 43
10.0
 44
1.0
 47
0.1
 48
0.1
 73
     0
 74
     0
 78
     8
 79
     2
140
3.5
141
0.0
143
0.0393701
146
0.71
147
1.5
172
     1
176
   256
177
   256
178
     2
271
     2
272
     2
283
     0
284
     8
340
11
341
A66
371
    -1
372
    -1
1001
ACAD_DSTYLE_DIMJOGGED_JOGANGLE_SYMBOL
1070
   384
1040
0.7853981633974483
1001
ACAD_DSTYLE_DIMARC_LENGTH_SYMBOL
1070
   379
1070
     1
  0
DIMSTYLE
105
2519
330
A
100
AcDbSymbolTableRecord
100
AcDbDimStyleTableRecord
  2
SYS$7
 70
     0
  4
"
 41
2.0
 42
1.0
 43
10.0
 44
1.0
 47
0.1
 48
0.1
 73
     0
 74
     0
 77
     1
 78
     8
 79
     2
140
5.0
141
0.0
143
0.0393701
146
0.71
147
1.5
172
     1
176
   256
177
   256
178
     2
271
     2
272
     2
283
     0
284
     8
340
11
341
A66
342
A66
371
    -1
372
    -1
1001
ACAD_DSTYLE_DIMJOGGED_JOGANGLE_SYMBOL
1070
   384
1040
0.7853981633974483
1001
ACAD_DSTYLE_DIMARC_LENGTH_SYMBOL
1070
   379
1070
     1
  0
DIMSTYLE
105
251A
330
A
100
AcDbSymbolTableRecord
100
AcDbDimStyleTableRecord
  2
SYS$SF
 70
     0
  4
"
 41
2.5
 42
1.0
 43
10.0
 44
1.0
 47
0.1
 48
0.1
 73
     0
 74
     0
 75
     1
 76
     1
 77
     1
 78
     8
 79
     2
140
3.5
141
0.0
143
0.0393701
146
0.71
147
1.5
172
     1
176
   256
177
   256
178
     2
271
     2
272
     3
283
     0
284
     8
340
11
341
6C4
342
6C4
371
    -1
372
    -1
1001
ACAD_DSTYLE_DIMJOGGED_JOGANGLE_SYMBOL
1070
   384
1040
0.7853981633974483
1001
ACAD_DSTYLE_DIMARC_LENGTH_SYMBOL
1070
   379
1070
     1
  0
DIMSTYLE
105
251B
330
A
100
AcDbSymbolTableRecord
100
AcDbDimStyleTableRecord
  2
SYS$SH
 70
     0
  4
"
 41
2.5
 42
1.0
 43
10.0
 44
1.0
 47
0.1
 48
0.1
 73
     0
 74
     0
 75
     1
 76
     1
 77
     1
 78
     8
 79
     2
140
3.5
141
0.0
143
0.0393701
144
2.0
146
0.71
147
1.5
172
     1
173
     1
176
   256
177
   256
178
     2
271
     2
272
     3
283
     0
284
     8
340
11
341
6C4
343
72
344
6C4
371
    -1
372
    -1
1001
ACAD_DSTYLE_DIMJOGGED_JOGANGLE_SYMBOL
1070
   384
1040
0.7853981633974483
1001
ACAD_DSTYLE_DIMARC_LENGTH_SYMBOL
1070
   379
1070
     1
  0
DIMSTYLE
105
2A59
102
{ACAD_REACTORS
330
13213
330
1322A
102
}
330
A
100
AcDbSymbolTableRecord
100
AcDbDimStyleTableRecord
  2
SYS$2
 70
     0
  4
"
 41
1.0
 42
1.0
 43
10.0
 44
1.0
 47
0.1
 48
0.1
 73
     0
 74
     0
 77
     1
 78
     8
 79
     2
140
3.5
141
0.0
143
0.0393701
146
0.71
147
1.5
172
     1
176
   256
177
   256
178
     2
271
     2
272
     2
283
     0
284
     8
340
11
342
6C4
371
    -1
372
    -1
1001
ACAD_DSTYLE_DIMJOGGED_JOGANGLE_SYMBOL
1070
   384
1040
0.7853981633974483
1001
ACAD_DSTYLE_DIMARC_LENGTH_SYMBOL
1070
   379
1070
     1
  0
DIMSTYLE
105
2AAB
102
{ACAD_REACTORS
330
11F4B
330
12094
330
1240F
330
12437
330
12B7B
330
12BB9
330
12BE1
330
12C30
330
13027
330
13028
330
13029
330
1302A
330
12B9A
330
12B53
330
11EC6
330
13536
102
}
330
A
100
AcDbSymbolTableRecord
100
AcDbDimStyleTableRecord
  2
SYS$0
 70
     0
  4
"
 41
1.0
 42
1.0
 43
10.0
 44
1.0
 47
0.1
 48
0.1
 73
     0
 74
     0
 77
     1
 78
     8
 79
     2
140
3.200000000000001
141
0.0
143
0.0393701
146
0.71
147
1.5
172
     1
176
   256
177
   256
178
     2
271
     2
272
     2
283
     0
284
     8
340
11
341
A66
342
6C4
371
    -1
372
    -1
1001
ACAD_DSTYLE_DIMJOGGED_JOGANGLE_SYMBOL
1070
   384
1040
0.7853981633974483
1001
ACAD_DSTYLE_DIMARC_LENGTH_SYMBOL
1070
   379
1070
     1
  0
DIMSTYLE
105
AF99
330
A
100
AcDbSymbolTableRecord
100
AcDbDimStyleTableRecord
  2
AM_ISO
 70
     0
  4
"
 41
2.5
 42
1.0
 43
10.0
 44
1.0
 47
0.1
 48
0.1
 73
     0
 74
     0
 77
     1
 78
     8
 79
     2
140
3.5
141
0.0
143
0.0393701
146
0.71
147
1.5
172
     1
176
   256
177
   256
178
     2
271
     2
272
     3
274
     4
283
     0
284
     8
340
11
371
    -1
372
    -1
  0
DIMSTYLE
105
AF9A
330
A
100
AcDbSymbolTableRecord
100
AcDbDimStyleTableRecord
  2
AM_ISO$3
 70
     0
  4
"
 41
2.5
 42
1.0
 43
10.0
 44
1.0
 47
0.1
 48
0.1
 73
     0
 77
     1
 78
     8
 79
     2
140
3.5
141
0.0
143
0.0393701
146
0.71
147
1.5
176
   256
177
   256
178
     2
271
     2
272
     3
274
     4
283
     0
284
     8
288
     1
289
     0
340
11
371
    -1
372
    -1
  0
DIMSTYLE
105
AF9B
330
A
100
AcDbSymbolTableRecord
100
AcDbDimStyleTableRecord
  2
AM_ISO$4
 70
     0
  4
"
 41
2.5
 42
1.0
 43
10.0
 44
1.0
 47
0.1
 48
0.1
 73
     0
 77
     1
 78
     8
 79
     2
140
3.5
141
0.0
143
0.0393701
146
0.71
147
1.5
176
   256
177
   256
178
     2
271
     2
272
     3
274
     4
283
     0
284
     8
288
     1
289
     0
340
11
371
    -1
372
    -1
  0
DIMSTYLE
105
AF9C
330
A
100
AcDbSymbolTableRecord
100
AcDbDimStyleTableRecord
  2
AM_ISO$6
 70
     0
  4
"
 41
2.5
 42
1.0
 43
10.0
 44
1.0
 47
0.1
 48
0.1
 73
     0
 74
     0
 78
     8
 79
     2
140
3.5
141
0.0
143
0.0393701
146
0.71
147
1.5
172
     1
176
   256
177
   256
178
     2
271
     2
272
     3
274
     4
283
     0
284
     8
340
11
371
    -1
372
    -1
  0
DIMSTYLE
105
AF9D
330
A
100
AcDbSymbolTableRecord
100
AcDbDimStyleTableRecord
  2
AM_ISO$7
 70
     0
  4
"
 41
2.5
 42
1.0
 43
10.0
 44
1.0
 47
0.1
 48
0.1
 73
     0
 74
     0
 77
     1
 78
     8
 79
     2
140
5.0
141
0.0
143
0.0393701
146
0.71
147
1.5
172
     1
176
   256
177
   256
178
     2
271
     2
272
     3
274
     4
283
     0
284
     8
340
11
371
    -1
372
    -1
  0
DIMSTYLE
105
AF9E
330
A
100
AcDbSymbolTableRecord
100
AcDbDimStyleTableRecord
  2
AM_ISO$SF
 70
     0
  4
"
 41
2.5
 42
1.0
 43
10.0
 44
1.0
 47
0.1
 48
0.1
 73
     0
 74
     0
 75
     1
 76
     1
 77
     1
 78
     8
 79
     2
140
3.5
141
0.0
143
0.0393701
146
0.71
147
1.5
172
     1
176
   256
177
   256
178
     2
271
     2
272
     3
274
     4
283
     0
284
     8
340
11
371
    -1
372
    -1
  0
DIMSTYLE
105
AF9F
330
A
100
AcDbSymbolTableRecord
100
AcDbDimStyleTableRecord
  2
AM_ISO$SH
 70
     0
  4
"
 41
2.5
 42
1.0
 43
10.0
 44
1.0
 47
0.1
 48
0.1
 73
     0
 74
     0
 75
     1
 76
     1
 77
     1
 78
     8
 79
     2
140
3.5
141
0.0
143
0.0393701
144
2.0
146
0.71
147
1.5
172
     1
173
     1
176
   256
177
   256
178
     2
271
     2
272
     3
274
     4
283
     0
284
     8
340
11
343
72
371
    -1
372
    -1
  0
DIMSTYLE
105
B7F3
330
A
100
AcDbSymbolTableRecord
100
AcDbDimStyleTableRecord
  2
AM_ANSI
 70
     0
  4
mm
 41
0.1
 42
0.05
 43
0.5
 44
0.1
 47
0.1
 48
0.1
 78
     7
140
0.12
141
0.0
146
0.71
147
0.06
176
   256
177
   256
178
     2
271
     2
272
     2
279
     2
284
     8
285
     8
286
     8
340
11
  0
DIMSTYLE
105
B7F4
330
A
100
AcDbSymbolTableRecord
100
AcDbDimStyleTableRecord
  2
AM_ANSI$3
 70
     0
  4
mm
 41
0.1
 42
0.05
 43
0.5
 44
0.1
 47
0.1
 48
0.1
 78
     7
140
0.12
141
0.0
146
0.71
147
0.06
176
   256
177
   256
178
     2
271
     2
272
     2
279
     2
284
     8
285
     8
286
     8
340
11
  0
DIMSTYLE
105
B7F5
330
A
100
AcDbSymbolTableRecord
100
AcDbDimStyleTableRecord
  2
AM_ANSI$4
 70
     0
  4
mm
 41
0.1
 42
0.05
 43
0.5
 44
0.1
 47
0.1
 48
0.1
 78
     7
140
0.12
141
0.0
146
0.71
147
0.06
176
   256
177
   256
178
     2
271
     2
272
     2
279
     2
284
     8
285
     8
286
     8
340
11
  0
DIMSTYLE
105
B7F6
330
A
100
AcDbSymbolTableRecord
100
AcDbDimStyleTableRecord
  2
AM_ANSI$7
 70
     0
  4
mm
 41
0.1
 42
0.05
 43
0.5
 44
0.1
 47
0.1
 48
0.1
 78
     7
140
0.24
141
0.0
146
0.71
147
0.06
176
   256
177
   256
178
     2
271
     2
272
     2
279
     2
284
     8
285
     8
286
     8
340
11
  0
DIMSTYLE
105
B7F7
330
A
100
AcDbSymbolTableRecord
100
AcDbDimStyleTableRecord
  2
AM_ANSI$SF
 70
     0
  4
mm
 41
0.1
 42
0.05
 43
0.5
 44
0.1
 47
0.1
 48
0.1
 75
     1
 76
     1
 78
     7
140
0.12
141
0.0
146
0.71
147
0.06
176
   256
177
   256
178
     2
271
     2
272
     2
279
     2
284
     8
285
     8
286
     8
340
11
  0
DIMSTYLE
105
B7F8
330
A
100
AcDbSymbolTableRecord
100
AcDbDimStyleTableRecord
  2
AM_ANSI$SH
 70
     0
  4
mm
 41
0.1
 42
0.05
 43
0.5
 44
0.1
 47
0.1
 48
0.1
 75
     1
 76
     1
 78
     7
140
0.12
141
0.0
146
0.71
147
0.06
173
     1
176
   256
177
   256
178
     2
271
     2
272
     2
279
     2
284
     8
285
     8
286
     8
340
11
  0
DIMSTYLE
105
C64A
330
A
100
AcDbSymbolTableRecord
100
AcDbDimStyleTableRecord
  2
DIMSTYLE
 70
     0
 41
1.0
 42
2.54
 44
2.54
 73
     0
 74
     0
140
3.2
147
1.6
173
     1
279
     2
340
11
  0
ENDTAB
  0
TABLE
  2
BLOCK_RECORD
  5
1
330
0
100
AcDbSymbolTable
 70
    27
  0
BLOCK_RECORD
  5
1F
102
{ACAD_XDICTIONARY
360
8A
102
}
330
1
100
AcDbSymbolTableRecord
100
AcDbBlockTableRecord
  2
*Model_Space
340
22
  0
BLOCK_RECORD
  5
1B
330
1
100
AcDbSymbolTableRecord
100
AcDbBlockTableRecord
  2
*Paper_Space
340
1E
  0
BLOCK_RECORD
  5
23
330
1
100
AcDbSymbolTableRecord
100
AcDbBlockTableRecord
  2
*Paper_Space0
340
26
  0
BLOCK_RECORD
  5
72
330
1
100
AcDbSymbolTableRecord
100
AcDbBlockTableRecord
  2
GENAXEH
340
0
  0
BLOCK_RECORD
  5
6C4
330
1
100
AcDbSymbolTableRecord
100
AcDbBlockTableRecord
  2
_Dot
340
0
102
{BLKREFS
331
13130
331
13131
331
13139
331
1313A
331
13142
331
13143
331
1314B
331
1314C
331
13154
331
13155
331
1315D
331
1315E
331
13166
331
13167
331
1316F
331
13170
331
13178
331
13179
331
13181
331
13182
331
1318C
331
1318D
331
13195
331
13196
331
1319E
331
1319F
331
133D5
331
133D6
331
133F9
331
133FA
331
1356B
331
1356C
102
}
  0
BLOCK_RECORD
  5
A66
330
1
100
AcDbSymbolTableRecord
100
AcDbBlockTableRecord
  2
_OPEN30
340
0
102
{BLKREFS
331
13219
331
1324C
102
}
  0
BLOCK_RECORD
  5
BF27
330
1
100
AcDbSymbolTableRecord
100
AcDbBlockTableRecord
  2
GENDOT
340
0
102
{BLKREFS
331
12AD7
102
}
  0
BLOCK_RECORD
  5
11EC7
330
1
100
AcDbSymbolTableRecord
100
AcDbBlockTableRecord
  2
*D6
340
0
  0
BLOCK_RECORD
  5
11F4C
330
1
100
AcDbSymbolTableRecord
100
AcDbBlockTableRecord
  2
*D7
340
0
  0
BLOCK_RECORD
  5
12095
330
1
100
AcDbSymbolTableRecord
100
AcDbBlockTableRecord
  2
*D8
340
0
  0
BLOCK_RECORD
  5
12410
330
1
100
AcDbSymbolTableRecord
100
AcDbBlockTableRecord
  2
*D9
340
0
  0
BLOCK_RECORD
  5
12438
330
1
100
AcDbSymbolTableRecord
100
AcDbBlockTableRecord
  2
*D10
340
0
  0
BLOCK_RECORD
  5
12AE3
330
1
100
AcDbSymbolTableRecord
100
AcDbBlockTableRecord
  2
_NONE
340
0
  0
BLOCK_RECORD
  5
12B54
330
1
100
AcDbSymbolTableRecord
100
AcDbBlockTableRecord
  2
*D12
340
0
  0
BLOCK_RECORD
  5
12B7C
330
1
100
AcDbSymbolTableRecord
100
AcDbBlockTableRecord
  2
*D13
340
0
  0
BLOCK_RECORD
  5
12B9B
330
1
100
AcDbSymbolTableRecord
100
AcDbBlockTableRecord
  2
*D14
340
0
  0
BLOCK_RECORD
  5
12BBA
330
1
100
AcDbSymbolTableRecord
100
AcDbBlockTableRecord
  2
*D15
340
0
  0
BLOCK_RECORD
  5
12BE2
330
1
100
AcDbSymbolTableRecord
100
AcDbBlockTableRecord
  2
*D16
340
0
  0
BLOCK_RECORD
  5
12C31
330
1
100
AcDbSymbolTableRecord
100
AcDbBlockTableRecord
  2
*D17
340
0
  0
BLOCK_RECORD
  5
1302C
330
1
100
AcDbSymbolTableRecord
100
AcDbBlockTableRecord
  2
*D18
340
0
  0
BLOCK_RECORD
  5
13038
330
1
100
AcDbSymbolTableRecord
100
AcDbBlockTableRecord
  2
*D19
340
0
  0
BLOCK_RECORD
  5
13046
330
1
100
AcDbSymbolTableRecord
100
AcDbBlockTableRecord
  2
*D20
340
0
  0
BLOCK_RECORD
  5
13052
330
1
100
AcDbSymbolTableRecord
100
AcDbBlockTableRecord
  2
*D21
340
0
  0
BLOCK_RECORD
  5
13215
330
1
100
AcDbSymbolTableRecord
100
AcDbBlockTableRecord
  2
*D22
340
0
  0
BLOCK_RECORD
  5
1322B
330
1
100
AcDbSymbolTableRecord
100
AcDbBlockTableRecord
  2
*D23
340
0
  0
BLOCK_RECORD
  5
13537
330
1
100
AcDbSymbolTableRecord
100
AcDbBlockTableRecord
  2
*D24
340
0
  0
BLOCK_RECORD
  5
13E2A
330
1
100
AcDbSymbolTableRecord
100
AcDbBlockTableRecord
  2
*S26
340
0
  0
ENDTAB
  0
ENDSEC
  0
SECTION
  2
BLOCKS
  0
BLOCK
  5
20
330
1F
100
AcDbEntity
  8
0
100
AcDbBlockBegin
  2
*Model_Space
 70
     0
 10
0.0
 20
0.0
 30
0.0
  3
*Model_Space
  1

  0
ENDBLK
  5
21
330
1F
100
AcDbEntity
  8
0
100
AcDbBlockEnd
  0
BLOCK
  5
1C
330
1B
100
AcDbEntity
 67
     1
  8
0
100
AcDbBlockBegin
  2
*Paper_Space
 70
     0
 10
0.0
 20
0.0
 30
0.0
  3
*Paper_Space
  1

  0
ENDBLK
  5
1D
330
1B
100
AcDbEntity
 67
     1
  8
0
100
AcDbBlockEnd
  0
BLOCK
  5
24
330
23
100
AcDbEntity
 67
     1
  8
0
100
AcDbBlockBegin
  2
*Paper_Space0
 70
     0
 10
0.0
 20
0.0
 30
0.0
  3
*Paper_Space0
  1

  0
ENDBLK
  5
25
330
23
100
AcDbEntity
 67
     1
  8
0
100
AcDbBlockEnd
  0
BLOCK
  5
74
330
72
100
AcDbEntity
  8
0
100
AcDbBlockBegin
  2
GENAXEH
 70
     0
 10
0.0
 20
0.0
 30
0.0
  3
GENAXEH
  1

  0
LINE
  5
73
330
72
100
AcDbEntity
  8
0
100
AcDbLine
 10
-1.0
 20
0.0
 30
0.0
 11
1.0
 21
0.0
 31
0.0
  0
ENDBLK
  5
75
330
72
100
AcDbEntity
  8
0
100
AcDbBlockEnd
  0
BLOCK
  5
6C7
330
6C4
100
AcDbEntity
  8
0
100
AcDbBlockBegin
  2
_Dot
 70
     0
 10
0.0
 20
0.0
 30
0.0
  3
_Dot
  1

  0
LWPOLYLINE
  5
6C5
330
6C4
100
AcDbEntity
  8
0
  6
ByBlock
 62
     0
100
AcDbPolyline
 90
        2
 70
     1
 43
0.5
 10
-0.25
 20
0.0
 42
1.0
 10
0.25
 20
0.0
 42
1.0
  0
LINE
  5
6C6
330
6C4
100
AcDbEntity
  8
0
  6
ByBlock
 62
     0
370
    -2
100
AcDbLine
 10
-0.5
 20
0.0
 30
0.0
 11
-1.0
 21
0.0
 31
0.0
  0
ENDBLK
  5
6C8
330
6C4
100
AcDbEntity
  8
0
100
AcDbBlockEnd
  0
BLOCK
  5
A6A
330
A66
100
AcDbEntity
  8
0
100
AcDbBlockBegin
  2
_OPEN30
 70
     0
 10
0.0
 20
0.0
 30
0.0
  3
_OPEN30
  1

  0
LINE
  5
A67
330
A66
100
AcDbEntity
  8
0
  6
ByBlock
 62
     0
100
AcDbLine
 10
-1.0
 20
0.26794919
 30
0.0
 11
0.0
 21
0.0
 31
0.0
  0
LINE
  5
A68
330
A66
100
AcDbEntity
  8
0
  6
ByBlock
 62
     0
100
AcDbLine
 10
0.0
 20
0.0
 30
0.0
 11
-1.0
 21
-0.26794919
 31
0.0
  0
LINE
  5
A69
330
A66
100
AcDbEntity
  8
0
  6
ByBlock
 62
     0
100
AcDbLine
 10
0.0
 20
0.0
 30
0.0
 11
-1.0
 21
0.0
 31
0.0
  0
ENDBLK
  5
A6B
330
A66
100
AcDbEntity
  8
0
100
AcDbBlockEnd
  0
BLOCK
  5
BF2A
330
BF27
100
AcDbEntity
  8
0
100
AcDbBlockBegin
  2
GENDOT
 70
     0
 10
0.0
 20
0.0
 30
0.0
  3
GENDOT
  1

  0
LINE
  5
BF28
330
BF27
100
AcDbEntity
  8
0
100
AcDbLine
 10
0.0
 20
0.0
 30
0.0
 11
-1.0
 21
0.0
 31
0.0
  0
LWPOLYLINE
  5
BF29
330
BF27
100
AcDbEntity
  8
0
100
AcDbPolyline
 90
        2
 70
     1
 43
0.25
 10
-0.125
 20
0.0
 42
1.0
 10
0.125
 20
0.0
 42
1.0
  0
ENDBLK
  5
BF2B
330
BF27
100
AcDbEntity
  8
0
100
AcDbBlockEnd
  0
BLOCK
  5
11EC8
330
11EC7
100
AcDbEntity
  8
0
100
AcDbBlockBegin
  2
*D6
 70
     1
 10
0.0
 20
0.0
 30
0.0
  3
*D6
  1

  0
LINE
  5
1312D
330
11EC7
100
AcDbEntity
  8
AM_5
100
AcDbLine
 10
343.1239529749017
 20
152.5545733646612
 30
0.0
 11
343.1239529749017
 21
161.5545743746612
 31
0.0
  0
LINE
  5
1312E
330
11EC7
100
AcDbEntity
  8
AM_5
100
AcDbLine
 10
315.6239379749016
 20
139.2545733646612
 30
0.0
 11
315.6239379749016
 21
161.5545743746612
 31
0.0
  0
LINE
  5
1312F
330
11EC7
100
AcDbEntity
  8
AM_5
100
AcDbLine
 10
342.1239529749017
 20
160.5545743746612
 30
0.0
 11
316.6239379749017
 21
160.5545743746612
 31
0.0
  0
INSERT
  5
13130
330
11EC7
100
AcDbEntity
  8
AM_5
100
AcDbBlockReference
  2
_Dot
 10
343.1239529749017
 20
160.5545743746612
 30
0.0
  0
INSERT
  5
13131
330
11EC7
100
AcDbEntity
  8
AM_5
100
AcDbBlockReference
  2
_Dot
 10
315.6239379749016
 20
160.5545743746612
 30
0.0
 50
180.0
  0
MTEXT
  5
13132
330
11EC7
100
AcDbEntity
  8
AM_5
 62
     2
100
AcDbMText
 10
329.3739454749017
 20
163.6545743746611
 30
0.0
 40
3.200000000000001
 41
0.0
 71
     5
 72
     1
  1
27.5
 73
     1
 44
1.0
  0
POINT
  5
13133
330
11EC7
100
AcDbEntity
  8
Defpoints
 62
     0
100
AcDbPoint
 10
343.1239529749017
 20
151.5545733646612
 30
0.0
  0
POINT
  5
13134
330
11EC7
100
AcDbEntity
  8
Defpoints
 62
     0
100
AcDbPoint
 10
315.6239379749016
 20
138.2545733646612
 30
0.0
  0
POINT
  5
13135
330
11EC7
100
AcDbEntity
  8
Defpoints
 62
     0
100
AcDbPoint
 10
315.6239379749016
 20
160.5545743746612
 30
0.0
  0
ENDBLK
  5
11EC9
330
11EC7
100
AcDbEntity
  8
0
100
AcDbBlockEnd
  0
BLOCK
  5
11F4D
330
11F4C
100
AcDbEntity
  8
0
100
AcDbBlockBegin
  2
*D7
 70
     1
 10
0.0
 20
0.0
 30
0.0
  3
*D7
  1

  0
LINE
  5
13136
330
11F4C
100
AcDbEntity
  8
AM_5
100
AcDbLine
 10
334.1239379749016
 20
56.5545733646612
 30
0.0
 11
334.1239379749016
 21
44.55457336466118
 31
0.0
  0
LINE
  5
13137
330
11F4C
100
AcDbEntity
  8
AM_5
100
AcDbLine
 10
352.1239559749016
 20
56.5545733646612
 30
0.0
 11
352.1239559749016
 21
44.55457336466118
 31
0.0
  0
LINE
  5
13138
330
11F4C
100
AcDbEntity
  8
AM_5
100
AcDbLine
 10
335.1239379749017
 20
45.55457336466118
 30
0.0
 11
351.1239559749016
 21
45.55457336466118
 31
0.0
  0
INSERT
  5
13139
330
11F4C
100
AcDbEntity
  8
AM_5
100
AcDbBlockReference
  2
_Dot
 10
334.1239379749016
 20
45.55457336466118
 30
0.0
 50
180.0
  0
INSERT
  5
1313A
330
11F4C
100
AcDbEntity
  8
AM_5
100
AcDbBlockReference
  2
_Dot
 10
352.1239559749016
 20
45.55457336466118
 30
0.0
  0
MTEXT
  5
1313B
330
11F4C
100
AcDbEntity
  8
AM_5
 62
     2
100
AcDbMText
 10
343.1239469749016
 20
48.65457336466119
 30
0.0
 40
3.200000000000001
 41
0.0
 71
     5
 72
     1
  1
%%c18
 73
     1
 44
1.0
  0
POINT
  5
1313C
330
11F4C
100
AcDbEntity
  8
Defpoints
 62
     0
100
AcDbPoint
 10
334.1239379749016
 20
57.55457336466119
 30
0.0
  0
POINT
  5
1313D
330
11F4C
100
AcDbEntity
  8
Defpoints
 62
     0
100
AcDbPoint
 10
352.1239559749016
 20
57.55457336466119
 30
0.0
  0
POINT
  5
1313E
330
11F4C
100
AcDbEntity
  8
Defpoints
 62
     0
100
AcDbPoint
 10
352.1239559749016
 20
45.55457336466118
 30
0.0
  0
ENDBLK
  5
11F4E
330
11F4C
100
AcDbEntity
  8
0
100
AcDbBlockEnd
  0
BLOCK
  5
12096
330
12095
100
AcDbEntity
  8
0
100
AcDbBlockBegin
  2
*D8
 70
     1
 10
0.0
 20
0.0
 30
0.0
  3
*D8
  1

  0
LINE
  5
133F7
330
12095
100
AcDbEntity
  8
AM_5
100
AcDbLine
 10
359.1239559749016
 20
210.7048360263029
 30
0.0
 11
396.1239559749016
 21
210.7048360263029
 31
0.0
  0
LINE
  5
133F8
330
12095
100
AcDbEntity
  8
AM_5
100
AcDbLine
 10
395.1239559749016
 20
211.7048360263029
 30
0.0
 11
395.1239559749016
 21
224.7048360263029
 31
0.0
  0
INSERT
  5
133F9
330
12095
100
AcDbEntity
  8
AM_5
100
AcDbBlockReference
  2
_Dot
 10
395.1239559749016
 20
210.7048360263029
 30
0.0
 50
270.0
  0
INSERT
  5
133FA
330
12095
100
AcDbEntity
  8
AM_5
100
AcDbBlockReference
  2
_Dot
 10
395.1239559749016
 20
225.7048360263029
 30
0.0
 50
90.0
  0
MTEXT
  5
133FB
330
12095
100
AcDbEntity
  8
AM_5
 62
     2
100
AcDbMText
 10
392.0239559749015
 20
218.204836026303
 30
0.0
 40
3.200000000000001
 41
0.0
 71
     5
 72
     1
  1
15
 11
0.0000000000000001
 21
1.0
 31
0.0
 73
     1
 44
1.0
  0
POINT
  5
133FC
330
12095
100
AcDbEntity
  8
Defpoints
 62
     0
100
AcDbPoint
 10
358.1239559749016
 20
210.7048360263029
 30
0.0
  0
POINT
  5
133FD
330
12095
100
AcDbEntity
  8
Defpoints
 62
     0
100
AcDbPoint
 10
383.1239559749016
 20
225.7048360263029
 30
0.0
  0
POINT
  5
133FE
330
12095
100
AcDbEntity
  8
Defpoints
 62
     0
100
AcDbPoint
 10
395.1239559749016
 20
225.7048360263029
 30
0.0
  0
ENDBLK
  5
12097
330
12095
100
AcDbEntity
  8
0
100
AcDbBlockEnd
  0
BLOCK
  5
12411
330
12410
100
AcDbEntity
  8
0
100
AcDbBlockBegin
  2
*D9
 70
     1
 10
0.0
 20
0.0
 30
0.0
  3
*D9
  1

  0
LINE
  5
1313F
330
12410
100
AcDbEntity
  8
AM_5
100
AcDbLine
 10
259.6618804695015
 20
140.3045803646612
 30
0.0
 11
259.6618804695015
 21
152.3045803646612
 31
0.0
  0
LINE
  5
13140
330
12410
100
AcDbEntity
  8
AM_5
100
AcDbLine
 10
204.6618954695015
 20
140.3045803646612
 30
0.0
 11
204.6618954695015
 21
152.3045803646612
 31
0.0
  0
LINE
  5
13141
330
12410
100
AcDbEntity
  8
AM_5
100
AcDbLine
 10
258.6618804695015
 20
151.3045803646612
 30
0.0
 11
205.6618954695015
 21
151.3045803646612
 31
0.0
  0
INSERT
  5
13142
330
12410
100
AcDbEntity
  8
AM_5
100
AcDbBlockReference
  2
_Dot
 10
259.6618804695015
 20
151.3045803646612
 30
0.0
  0
INSERT
  5
13143
330
12410
100
AcDbEntity
  8
AM_5
100
AcDbBlockReference
  2
_Dot
 10
204.6618954695015
 20
151.3045803646612
 30
0.0
 50
180.0
  0
MTEXT
  5
13144
330
12410
100
AcDbEntity
  8
AM_5
 62
     2
100
AcDbMText
 10
232.1618879695015
 20
154.4045803646612
 30
0.0
 40
3.200000000000001
 41
0.0
 71
     5
 72
     1
  1
55
 73
     1
 44
1.0
  0
POINT
  5
13145
330
12410
100
AcDbEntity
  8
Defpoints
 62
     0
100
AcDbPoint
 10
259.6618804695015
 20
139.3045803646612
 30
0.0
  0
POINT
  5
13146
330
12410
100
AcDbEntity
  8
Defpoints
 62
     0
100
AcDbPoint
 10
204.6618954695015
 20
139.3045803646612
 30
0.0
  0
POINT
  5
13147
330
12410
100
AcDbEntity
  8
Defpoints
 62
     0
100
AcDbPoint
 10
204.6618954695015
 20
151.3045803646612
 30
0.0
  0
ENDBLK
  5
12412
330
12410
100
AcDbEntity
  8
0
100
AcDbBlockEnd
  0
BLOCK
  5
12439
330
12438
100
AcDbEntity
  8
0
100
AcDbBlockBegin
  2
*D10
 70
     1
 10
0.0
 20
0.0
 30
0.0
  3
*D10
  1

  0
LINE
  5
13148
330
12438
100
AcDbEntity
  8
AM_5
100
AcDbLine
 10
196.4118804695015
 20
132.0545733646612
 30
0.0
 11
184.4118804695014
 21
132.0545733646612
 31
0.0
  0
LINE
  5
13149
330
12438
100
AcDbEntity
  8
AM_5
100
AcDbLine
 10
196.4118804695015
 20
72.05457336466119
 30
0.0
 11
184.4118804695014
 21
72.05457336466119
 31
0.0
  0
LINE
  5
1314A
330
12438
100
AcDbEntity
  8
AM_5
100
AcDbLine
 10
185.4118804695014
 20
131.0545733646612
 30
0.0
 11
185.4118804695014
 21
73.05457336466119
 31
0.0
  0
INSERT
  5
1314B
330
12438
100
AcDbEntity
  8
AM_5
100
AcDbBlockReference
  2
_Dot
 10
185.4118804695014
 20
132.0545733646612
 30
0.0
 50
90.0
  0
INSERT
  5
1314C
330
12438
100
AcDbEntity
  8
AM_5
100
AcDbBlockReference
  2
_Dot
 10
185.4118804695014
 20
72.05457336466119
 30
0.0
 50
270.0
  0
MTEXT
  5
1314D
330
12438
100
AcDbEntity
  8
AM_5
 62
     2
100
AcDbMText
 10
182.3118804695013
 20
102.0545733646612
 30
0.0
 40
3.200000000000001
 41
0.0
 71
     5
 72
     1
  1
60
 11
0.0000000000000001
 21
1.0
 31
0.0
 73
     1
 44
1.0
  0
POINT
  5
1314E
330
12438
100
AcDbEntity
  8
Defpoints
 62
     0
100
AcDbPoint
 10
197.4118804695015
 20
132.0545733646612
 30
0.0
  0
POINT
  5
1314F
330
12438
100
AcDbEntity
  8
Defpoints
 62
     0
100
AcDbPoint
 10
197.4118804695015
 20
72.05457336466119
 30
0.0
  0
POINT
  5
13150
330
12438
100
AcDbEntity
  8
Defpoints
 62
     0
100
AcDbPoint
 10
185.4118804695014
 20
72.05457336466119
 30
0.0
  0
ENDBLK
  5
1243A
330
12438
100
AcDbEntity
  8
0
100
AcDbBlockEnd
  0
BLOCK
  5
12AE4
330
12AE3
100
AcDbEntity
  8
0
100
AcDbBlockBegin
  2
_NONE
 70
     0
 10
0.0
 20
0.0
 30
0.0
  3
_NONE
  1

  0
ENDBLK
  5
12AE5
330
12AE3
100
AcDbEntity
  8
0
100
AcDbBlockEnd
  0
BLOCK
  5
12B55
330
12B54
100
AcDbEntity
  8
0
100
AcDbBlockBegin
  2
*D12
 70
     1
 10
0.0
 20
0.0
 30
0.0
  3
*D12
  1

  0
LINE
  5
13151
330
12B54
100
AcDbEntity
  8
AM_5
100
AcDbLine
 10
315.6239379749016
 20
139.2545733646612
 30
0.0
 11
315.6239379749016
 21
161.554574374661
 31
0.0
  0
LINE
  5
13152
330
12B54
100
AcDbEntity
  8
AM_5
100
AcDbLine
 10
303.1239419749017
 20
144.5545733646612
 30
0.0
 11
303.1239419749017
 21
161.554574374661
 31
0.0
  0
LINE
  5
13153
330
12B54
100
AcDbEntity
  8
AM_5
100
AcDbLine
 10
314.6239379749017
 20
160.554574374661
 30
0.0
 11
304.1239419749016
 21
160.554574374661
 31
0.0
  0
INSERT
  5
13154
330
12B54
100
AcDbEntity
  8
AM_5
100
AcDbBlockReference
  2
_Dot
 10
315.6239379749016
 20
160.554574374661
 30
0.0
  0
INSERT
  5
13155
330
12B54
100
AcDbEntity
  8
AM_5
100
AcDbBlockReference
  2
_Dot
 10
303.1239419749017
 20
160.554574374661
 30
0.0
 50
180.0
  0
MTEXT
  5
13156
330
12B54
100
AcDbEntity
  8
AM_5
 62
     2
100
AcDbMText
 10
309.3739399749016
 20
163.654574374661
 30
0.0
 40
3.200000000000001
 41
0.0
 71
     5
 72
     1
  1
12.5
 73
     1
 44
1.0
  0
POINT
  5
13157
330
12B54
100
AcDbEntity
  8
Defpoints
 62
     0
100
AcDbPoint
 10
315.6239379749016
 20
138.2545733646612
 30
0.0
  0
POINT
  5
13158
330
12B54
100
AcDbEntity
  8
Defpoints
 62
     0
100
AcDbPoint
 10
303.1239419749017
 20
143.5545733646612
 30
0.0
  0
POINT
  5
13159
330
12B54
100
AcDbEntity
  8
Defpoints
 62
     0
100
AcDbPoint
 10
303.1239419749017
 20
160.554574374661
 30
0.0
  0
ENDBLK
  5
12B56
330
12B54
100
AcDbEntity
  8
0
100
AcDbBlockEnd
  0
BLOCK
  5
12B7D
330
12B7C
100
AcDbEntity
  8
0
100
AcDbBlockBegin
  2
*D13
 70
     1
 10
0.0
 20
0.0
 30
0.0
  3
*D13
  1

  0
LINE
  5
1315A
330
12B7C
100
AcDbEntity
  8
AM_5
100
AcDbLine
 10
303.1239419749017
 20
144.5545733646612
 30
0.0
 11
303.1239419749017
 21
171.554574374661
 31
0.0
  0
LINE
  5
1315B
330
12B7C
100
AcDbEntity
  8
AM_5
100
AcDbLine
 10
383.1239559749016
 20
144.5545733646612
 30
0.0
 11
383.1239559749016
 21
171.554574374661
 31
0.0
  0
LINE
  5
1315C
330
12B7C
100
AcDbEntity
  8
AM_5
100
AcDbLine
 10
304.1239419749016
 20
170.554574374661
 30
0.0
 11
382.1239559749016
 21
170.554574374661
 31
0.0
  0
INSERT
  5
1315D
330
12B7C
100
AcDbEntity
  8
AM_5
100
AcDbBlockReference
  2
_Dot
 10
303.1239419749017
 20
170.554574374661
 30
0.0
 50
180.0
  0
INSERT
  5
1315E
330
12B7C
100
AcDbEntity
  8
AM_5
100
AcDbBlockReference
  2
_Dot
 10
383.1239559749016
 20
170.554574374661
 30
0.0
  0
MTEXT
  5
1315F
330
12B7C
100
AcDbEntity
  8
AM_5
 62
     2
100
AcDbMText
 10
343.1239489749016
 20
173.654574374661
 30
0.0
 40
3.200000000000001
 41
0.0
 71
     5
 72
     1
  1
80
 73
     1
 44
1.0
  0
POINT
  5
13160
330
12B7C
100
AcDbEntity
  8
Defpoints
 62
     0
100
AcDbPoint
 10
303.1239419749017
 20
143.5545733646612
 30
0.0
  0
POINT
  5
13161
330
12B7C
100
AcDbEntity
  8
Defpoints
 62
     0
100
AcDbPoint
 10
383.1239559749016
 20
143.5545733646612
 30
0.0
  0
POINT
  5
13162
330
12B7C
100
AcDbEntity
  8
Defpoints
 62
     0
100
AcDbPoint
 10
383.1239559749016
 20
170.554574374661
 30
0.0
  0
ENDBLK
  5
12B7E
330
12B7C
100
AcDbEntity
  8
0
100
AcDbBlockEnd
  0
BLOCK
  5
12B9C
330
12B9B
100
AcDbEntity
  8
0
100
AcDbBlockBegin
  2
*D14
 70
     1
 10
0.0
 20
0.0
 30
0.0
  3
*D14
  1

  0
LINE
  5
13163
330
12B9B
100
AcDbEntity
  8
AM_5
100
AcDbLine
 10
358.1239559749016
 20
147.5545733646612
 30
0.0
 11
358.1239559749016
 21
161.554574374661
 31
0.0
  0
LINE
  5
13164
330
12B9B
100
AcDbEntity
  8
AM_5
100
AcDbLine
 10
383.1239559749016
 20
144.5545733646612
 30
0.0
 11
383.1239559749016
 21
161.554574374661
 31
0.0
  0
LINE
  5
13165
330
12B9B
100
AcDbEntity
  8
AM_5
100
AcDbLine
 10
359.1239559749016
 20
160.554574374661
 30
0.0
 11
382.1239559749016
 21
160.554574374661
 31
0.0
  0
INSERT
  5
13166
330
12B9B
100
AcDbEntity
  8
AM_5
100
AcDbBlockReference
  2
_Dot
 10
358.1239559749016
 20
160.554574374661
 30
0.0
 50
180.0
  0
INSERT
  5
13167
330
12B9B
100
AcDbEntity
  8
AM_5
100
AcDbBlockReference
  2
_Dot
 10
383.1239559749016
 20
160.554574374661
 30
0.0
  0
MTEXT
  5
13168
330
12B9B
100
AcDbEntity
  8
AM_5
 62
     2
100
AcDbMText
 10
370.6239559749016
 20
163.654574374661
 30
0.0
 40
3.200000000000001
 41
0.0
 71
     5
 72
     1
  1
25
 73
     1
 44
1.0
  0
POINT
  5
13169
330
12B9B
100
AcDbEntity
  8
Defpoints
 62
     0
100
AcDbPoint
 10
358.1239559749016
 20
146.5545733646612
 30
0.0
  0
POINT
  5
1316A
330
12B9B
100
AcDbEntity
  8
Defpoints
 62
     0
100
AcDbPoint
 10
383.1239559749016
 20
143.5545733646612
 30
0.0
  0
POINT
  5
1316B
330
12B9B
100
AcDbEntity
  8
Defpoints
 62
     0
100
AcDbPoint
 10
383.1239559749016
 20
160.554574374661
 30
0.0
  0
ENDBLK
  5
12B9D
330
12B9B
100
AcDbEntity
  8
0
100
AcDbBlockEnd
  0
BLOCK
  5
12BBB
330
12BBA
100
AcDbEntity
  8
0
100
AcDbBlockBegin
  2
*D15
 70
     1
 10
0.0
 20
0.0
 30
0.0
  3
*D15
  1

  0
LINE
  5
1316C
330
12BBA
100
AcDbEntity
  8
AM_5
100
AcDbLine
 10
381.1239559749016
 20
146.5545733646612
 30
0.0
 11
396.1239569849017
 21
146.5545733646612
 31
0.0
  0
LINE
  5
1316D
330
12BBA
100
AcDbEntity
  8
AM_5
100
AcDbLine
 10
381.1239559749016
 20
57.55457336466119
 30
0.0
 11
396.1239569849016
 21
57.55457336466119
 31
0.0
  0
LINE
  5
1316E
330
12BBA
100
AcDbEntity
  8
AM_5
100
AcDbLine
 10
395.1239569849017
 20
145.5545733646612
 30
0.0
 11
395.1239569849016
 21
58.5545733646612
 31
0.0
  0
INSERT
  5
1316F
330
12BBA
100
AcDbEntity
  8
AM_5
100
AcDbBlockReference
  2
_Dot
 10
395.1239569849017
 20
146.5545733646612
 30
0.0
 50
90.0
  0
INSERT
  5
13170
330
12BBA
100
AcDbEntity
  8
AM_5
100
AcDbBlockReference
  2
_Dot
 10
395.1239569849016
 20
57.55457336466119
 30
0.0
 50
270.0
  0
MTEXT
  5
13171
330
12BBA
100
AcDbEntity
  8
AM_5
 62
     2
100
AcDbMText
 10
392.0239569849016
 20
102.0545733646612
 30
0.0
 40
3.200000000000001
 41
0.0
 71
     5
 72
     1
  1
89
 11
0.0000000000000001
 21
1.0
 31
0.0
 73
     1
 44
1.0
  0
POINT
  5
13172
330
12BBA
100
AcDbEntity
  8
Defpoints
 62
     0
100
AcDbPoint
 10
380.1239559749016
 20
146.5545733646612
 30
0.0
  0
POINT
  5
13173
330
12BBA
100
AcDbEntity
  8
Defpoints
 62
     0
100
AcDbPoint
 10
380.1239559749016
 20
57.55457336466119
 30
0.0
  0
POINT
  5
13174
330
12BBA
100
AcDbEntity
  8
Defpoints
 62
     0
100
AcDbPoint
 10
395.1239569849016
 20
57.55457336466119
 30
0.0
  0
ENDBLK
  5
12BBC
330
12BBA
100
AcDbEntity
  8
0
100
AcDbBlockEnd
  0
BLOCK
  5
12BE3
330
12BE2
100
AcDbEntity
  8
0
100
AcDbBlockBegin
  2
*D16
 70
     1
 10
0.0
 20
0.0
 30
0.0
  3
*D16
  1

  0
LINE
  5
13175
330
12BE2
100
AcDbEntity
  8
AM_5
100
AcDbLine
 10
308.4239379749016
 20
132.0545733646612
 30
0.0
 11
290.1239409749017
 21
132.0545733646612
 31
0.0
  0
LINE
  5
13176
330
12BE2
100
AcDbEntity
  8
AM_5
100
AcDbLine
 10
308.4239379749016
 20
72.05457336466119
 30
0.0
 11
290.1239409749016
 21
72.05457336466119
 31
0.0
  0
LINE
  5
13177
330
12BE2
100
AcDbEntity
  8
AM_5
100
AcDbLine
 10
291.1239409749017
 20
131.0545733646612
 30
0.0
 11
291.1239409749017
 21
73.05457336466119
 31
0.0
  0
INSERT
  5
13178
330
12BE2
100
AcDbEntity
  8
AM_5
100
AcDbBlockReference
  2
_Dot
 10
291.1239409749017
 20
132.0545733646612
 30
0.0
 50
90.0
  0
INSERT
  5
13179
330
12BE2
100
AcDbEntity
  8
AM_5
100
AcDbBlockReference
  2
_Dot
 10
291.1239409749017
 20
72.05457336466119
 30
0.0
 50
270.0
  0
MTEXT
  5
1317A
330
12BE2
100
AcDbEntity
  8
AM_5
 62
     2
100
AcDbMText
 10
288.0239409749016
 20
102.0545733646612
 30
0.0
 40
3.200000000000001
 41
0.0
 71
     5
 72
     1
  1
60
 11
0.0000000000000001
 21
1.0
 31
0.0
 73
     1
 44
1.0
  0
POINT
  5
1317B
330
12BE2
100
AcDbEntity
  8
Defpoints
 62
     0
100
AcDbPoint
 10
309.4239379749016
 20
132.0545733646612
 30
0.0
  0
POINT
  5
1317C
330
12BE2
100
AcDbEntity
  8
Defpoints
 62
     0
100
AcDbPoint
 10
309.4239379749016
 20
72.05457336466119
 30
0.0
  0
POINT
  5
1317D
330
12BE2
100
AcDbEntity
  8
Defpoints
 62
     0
100
AcDbPoint
 10
291.1239409749017
 20
72.05457336466119
 30
0.0
  0
ENDBLK
  5
12BE4
330
12BE2
100
AcDbEntity
  8
0
100
AcDbBlockEnd
  0
BLOCK
  5
12C32
330
12C31
100
AcDbEntity
  8
0
100
AcDbBlockBegin
  2
*D17
 70
     1
 10
0.0
 20
0.0
 30
0.0
  3
*D17
  1

  0
LINE
  5
133D1
330
12C31
100
AcDbEntity
  8
AM_5
100
AcDbLine
 10
302.1239569749017
 20
223.2048360263029
 30
0.0
 11
290.1239569749017
 21
223.2048360263029
 31
0.0
  0
LINE
  5
133D2
330
12C31
100
AcDbEntity
  8
AM_5
100
AcDbLine
 10
291.1239569749017
 20
226.7048360263029
 30
0.0
 11
291.1239569749017
 21
227.7048360263029
 31
0.0
  0
LINE
  5
133D3
330
12C31
100
AcDbEntity
  8
AM_5
100
AcDbLine
 10
291.1239569749017
 20
222.2048360263029
 30
0.0
 11
291.1239569749017
 21
213.5115026929696
 31
0.0
  0
LINE
  5
133D4
330
12C31
100
AcDbEntity
  8
AM_5
100
AcDbLine
 10
291.1239569749017
 20
225.7048360263029
 30
0.0
 11
291.1239569749017
 21
223.2048360263029
 31
0.0
  0
INSERT
  5
133D5
330
12C31
100
AcDbEntity
  8
AM_5
100
AcDbBlockReference
  2
_Dot
 10
291.1239569749017
 20
225.7048360263029
 30
0.0
 50
270.0
  0
INSERT
  5
133D6
330
12C31
100
AcDbEntity
  8
AM_5
100
AcDbBlockReference
  2
_Dot
 10
291.1239569749017
 20
223.2048360263029
 30
0.0
 50
90.0
  0
MTEXT
  5
133D7
330
12C31
100
AcDbEntity
  8
AM_5
 62
     2
100
AcDbMText
 10
288.0239569749016
 20
217.3581693596362
 30
0.0
 40
3.200000000000001
 41
0.0
 71
     5
 72
     1
  1
2.5
 11
0.0000000000000001
 21
1.0
 31
0.0
 73
     1
 44
1.0
  0
POINT
  5
133D8
330
12C31
100
AcDbEntity
  8
Defpoints
 62
     0
100
AcDbPoint
 10
303.1239569749017
 20
225.7048360263029
 30
0.0
  0
POINT
  5
133D9
330
12C31
100
AcDbEntity
  8
Defpoints
 62
     0
100
AcDbPoint
 10
303.1239569749017
 20
223.2048360263029
 30
0.0
  0
POINT
  5
133DA
330
12C31
100
AcDbEntity
  8
Defpoints
 62
     0
100
AcDbPoint
 10
291.1239569749017
 20
223.2048360263029
 30
0.0
  0
ENDBLK
  5
12C33
330
12C31
100
AcDbEntity
  8
0
100
AcDbBlockEnd
  0
BLOCK
  5
1302D
330
1302C
100
AcDbEntity
  8
0
100
AcDbBlockBegin
  2
*D18
 70
     1
 10
0.0
 20
0.0
 30
0.0
  3
*D18
  1

  0
LINE
  5
1317E
330
1302C
100
AcDbEntity
  8
AM_5
100
AcDbLine
 10
102.9863770387281
 20
143.4313092839576
 30
0.0
 11
102.9863770387281
 21
155.4313102839576
 31
0.0
  0
LINE
  5
1317F
330
1302C
100
AcDbEntity
  8
AM_5
100
AcDbLine
 10
92.98637703872634
 20
132.4313092839579
 30
0.0
 11
92.98637703872634
 21
155.4313102839576
 31
0.0
  0
LINE
  5
13180
330
1302C
100
AcDbEntity
  8
AM_5
100
AcDbLine
 10
101.9863770387281
 20
154.4313102839576
 30
0.0
 11
93.98637703872635
 21
154.4313102839576
 31
0.0
  0
INSERT
  5
13181
330
1302C
100
AcDbEntity
  8
AM_5
100
AcDbBlockReference
  2
_Dot
 10
102.9863770387281
 20
154.4313102839576
 30
0.0
  0
INSERT
  5
13182
330
1302C
100
AcDbEntity
  8
AM_5
100
AcDbBlockReference
  2
_Dot
 10
92.98637703872634
 20
154.4313102839576
 30
0.0
 50
180.0
  0
MTEXT
  5
13183
330
1302C
100
AcDbEntity
  8
AM_5
 62
     2
100
AcDbMText
 10
97.98637703872726
 20
157.5313102839576
 30
0.0
 40
3.200000000000001
 41
0.0
 71
     5
 72
     1
  1
10
 73
     1
 44
1.0
  0
POINT
  5
13184
330
1302C
100
AcDbEntity
  8
Defpoints
 62
     0
100
AcDbPoint
 10
102.9863770387281
 20
142.4313092839576
 30
0.0
  0
POINT
  5
13185
330
1302C
100
AcDbEntity
  8
Defpoints
 62
     0
100
AcDbPoint
 10
92.98637703872634
 20
131.4313092839579
 30
0.0
  0
POINT
  5
13186
330
1302C
100
AcDbEntity
  8
Defpoints
 62
     0
100
AcDbPoint
 10
92.98637703872634
 20
154.4313102839576
 30
0.0
  0
ENDBLK
  5
1302E
330
1302C
100
AcDbEntity
  8
0
100
AcDbBlockEnd
  0
BLOCK
  5
13039
330
13038
100
AcDbEntity
  8
0
100
AcDbBlockBegin
  2
*D19
 70
     1
 10
0.0
 20
0.0
 30
0.0
  3
*D19
  1

  0
LINE
  5
13187
330
13038
100
AcDbEntity
  8
AM_5
100
AcDbLine
 10
102.9863770387281
 20
143.4313092839576
 30
0.0
 11
102.9863770387281
 21
155.4313092839576
 31
0.0
  0
LINE
  5
13188
330
13038
100
AcDbEntity
  8
AM_5
100
AcDbLine
 10
104.9863770387281
 20
143.4313092839576
 30
0.0
 11
104.9863770387281
 21
155.4313092839576
 31
0.0
  0
LINE
  5
13189
330
13038
100
AcDbEntity
  8
AM_5
100
AcDbLine
 10
101.9863770387281
 20
154.4313092839576
 30
0.0
 11
100.9863770387281
 21
154.4313092839576
 31
0.0
  0
LINE
  5
1318A
330
13038
100
AcDbEntity
  8
AM_5
100
AcDbLine
 10
105.9863770387281
 20
154.4313092839576
 30
0.0
 11
111.4797103720615
 21
154.4313092839576
 31
0.0
  0
LINE
  5
1318B
330
13038
100
AcDbEntity
  8
AM_5
100
AcDbLine
 10
102.9863770387281
 20
154.4313092839576
 30
0.0
 11
104.9863770387281
 21
154.4313092839576
 31
0.0
  0
INSERT
  5
1318C
330
13038
100
AcDbEntity
  8
AM_5
100
AcDbBlockReference
  2
_Dot
 10
102.9863770387281
 20
154.4313092839576
 30
0.0
  0
INSERT
  5
1318D
330
13038
100
AcDbEntity
  8
AM_5
100
AcDbBlockReference
  2
_Dot
 10
104.9863770387281
 20
154.4313092839576
 30
0.0
 50
180.0
  0
MTEXT
  5
1318E
330
13038
100
AcDbEntity
  8
AM_5
 62
     2
100
AcDbMText
 10
109.2330437053948
 20
157.5313092839576
 30
0.0
 40
3.200000000000001
 41
0.0
 71
     5
 72
     1
  1
2
 73
     1
 44
1.0
  0
POINT
  5
1318F
330
13038
100
AcDbEntity
  8
Defpoints
 62
     0
100
AcDbPoint
 10
102.9863770387281
 20
142.4313092839576
 30
0.0
  0
POINT
  5
13190
330
13038
100
AcDbEntity
  8
Defpoints
 62
     0
100
AcDbPoint
 10
104.9863770387281
 20
142.4313092839576
 30
0.0
  0
POINT
  5
13191
330
13038
100
AcDbEntity
  8
Defpoints
 62
     0
100
AcDbPoint
 10
104.9863770387281
 20
154.4313092839576
 30
0.0
  0
ENDBLK
  5
1303A
330
13038
100
AcDbEntity
  8
0
100
AcDbBlockEnd
  0
BLOCK
  5
13047
330
13046
100
AcDbEntity
  8
0
100
AcDbBlockBegin
  2
*D20
 70
     1
 10
0.0
 20
0.0
 30
0.0
  3
*D20
  1

  0
LINE
  5
13192
330
13046
100
AcDbEntity
  8
AM_5
100
AcDbLine
 10
134.9689135556248
 20
143.4313092839576
 30
0.0
 11
134.9689135556248
 21
155.4313092839576
 31
0.0
  0
LINE
  5
13193
330
13046
100
AcDbEntity
  8
AM_5
100
AcDbLine
 10
159.9689135556248
 20
143.4313092839576
 30
0.0
 11
159.9689135556248
 21
155.4313092839576
 31
0.0
  0
LINE
  5
13194
330
13046
100
AcDbEntity
  8
AM_5
100
AcDbLine
 10
135.9689135556248
 20
154.4313092839576
 30
0.0
 11
158.9689135556248
 21
154.4313092839576
 31
0.0
  0
INSERT
  5
13195
330
13046
100
AcDbEntity
  8
AM_5
100
AcDbBlockReference
  2
_Dot
 10
134.9689135556248
 20
154.4313092839576
 30
0.0
 50
180.0
  0
INSERT
  5
13196
330
13046
100
AcDbEntity
  8
AM_5
100
AcDbBlockReference
  2
_Dot
 10
159.9689135556248
 20
154.4313092839576
 30
0.0
  0
MTEXT
  5
13197
330
13046
100
AcDbEntity
  8
AM_5
 62
     2
100
AcDbMText
 10
147.4689135556248
 20
157.5313092839576
 30
0.0
 40
3.200000000000001
 41
0.0
 71
     5
 72
     1
  1
25
 73
     1
 44
1.0
  0
POINT
  5
13198
330
13046
100
AcDbEntity
  8
Defpoints
 62
     0
100
AcDbPoint
 10
134.9689135556248
 20
142.4313092839576
 30
0.0
  0
POINT
  5
13199
330
13046
100
AcDbEntity
  8
Defpoints
 62
     0
100
AcDbPoint
 10
159.9689135556248
 20
142.4313092839576
 30
0.0
  0
POINT
  5
1319A
330
13046
100
AcDbEntity
  8
Defpoints
 62
     0
100
AcDbPoint
 10
159.9689135556248
 20
154.4313092839576
 30
0.0
  0
ENDBLK
  5
13048
330
13046
100
AcDbEntity
  8
0
100
AcDbBlockEnd
  0
BLOCK
  5
13053
330
13052
100
AcDbEntity
  8
0
100
AcDbBlockBegin
  2
*D21
 70
     1
 10
0.0
 20
0.0
 30
0.0
  3
*D21
  1

  0
LINE
  5
1319B
330
13052
100
AcDbEntity
  8
AM_5
100
AcDbLine
 10
133.9689135556248
 20
142.4313092839576
 30
0.0
 11
121.9689135556248
 21
142.4313092839576
 31
0.0
  0
LINE
  5
1319C
330
13052
100
AcDbEntity
  8
AM_5
100
AcDbLine
 10
133.9689135556248
 20
53.43130928396667
 30
0.0
 11
121.9689135556248
 21
53.43130928396667
 31
0.0
  0
LINE
  5
1319D
330
13052
100
AcDbEntity
  8
AM_5
100
AcDbLine
 10
122.9689135556248
 20
141.4313092839576
 30
0.0
 11
122.9689135556248
 21
54.43130928396667
 31
0.0
  0
INSERT
  5
1319E
330
13052
100
AcDbEntity
  8
AM_5
100
AcDbBlockReference
  2
_Dot
 10
122.9689135556248
 20
142.4313092839576
 30
0.0
 50
90.0
  0
INSERT
  5
1319F
330
13052
100
AcDbEntity
  8
AM_5
100
AcDbBlockReference
  2
_Dot
 10
122.9689135556248
 20
53.43130928396667
 30
0.0
 50
270.0
  0
MTEXT
  5
131A0
330
13052
100
AcDbEntity
  8
AM_5
 62
     2
100
AcDbMText
 10
119.8689135556248
 20
97.93130928396216
 30
0.0
 40
3.200000000000001
 41
0.0
 71
     5
 72
     1
  1
89
 11
0.0000000000000001
 21
1.0
 31
0.0
 73
     1
 44
1.0
  0
POINT
  5
131A1
330
13052
100
AcDbEntity
  8
Defpoints
 62
     0
100
AcDbPoint
 10
134.9689135556248
 20
142.4313092839576
 30
0.0
  0
POINT
  5
131A2
330
13052
100
AcDbEntity
  8
Defpoints
 62
     0
100
AcDbPoint
 10
134.9689135556248
 20
53.43130928396667
 30
0.0
  0
POINT
  5
131A3
330
13052
100
AcDbEntity
  8
Defpoints
 62
     0
100
AcDbPoint
 10
122.9689135556248
 20
53.43130928396667
 30
0.0
  0
ENDBLK
  5
13054
330
13052
100
AcDbEntity
  8
0
100
AcDbBlockEnd
  0
BLOCK
  5
13216
330
13215
100
AcDbEntity
  8
0
100
AcDbBlockBegin
  2
*D22
 70
     1
 10
0.0
 20
0.0
 30
0.0
  3
*D22
  1

  0
ARC
  5
13218
330
13215
100
AcDbEntity
  8
AM_5
100
AcDbCircle
 10
145.4167213860808
 20
231.657018516589
 30
0.0
 40
26.94402447643106
100
AcDbArc
 50
360.0
 51
40.74608667703494
  0
INSERT
  5
13219
330
13215
100
AcDbEntity
  8
AM_5
100
AcDbBlockReference
  2
_OPEN30
 10
164.4690196349169
 20
250.7093251072335
 30
0.0
 41
2.0
 42
2.0
 43
2.0
 50
132.8730496100746
  0
POINT
  5
1321A
330
13215
100
AcDbEntity
  8
Defpoints
 62
     0
100
AcDbPoint
 10
171.4426499831447
 20
238.6306471019849
 30
0.0
  0
POINT
  5
1321B
330
13215
100
AcDbEntity
  8
Defpoints
 62
     0
100
AcDbPoint
 10
143.2569103578071
 20
231.6570185165891
 30
0.0
  0
POINT
  5
1321C
330
13215
100
AcDbEntity
  8
Defpoints
 62
     0
100
AcDbPoint
 10
145.1489609305648
 20
231.3892579438376
 30
0.0
  0
POINT
  5
1321D
330
13215
100
AcDbEntity
  8
Defpoints
 62
     0
100
AcDbPoint
 10
170.604780357807
 20
256.8450885165891
 30
0.0
  0
POINT
  5
1321E
330
13215
100
AcDbEntity
  8
Defpoints
 62
     0
100
AcDbPoint
 10
179.2569103578071
 20
231.6570185165891
 30
0.0
  0
ENDBLK
  5
13217
330
13215
100
AcDbEntity
  8
0
100
AcDbBlockEnd
  0
BLOCK
  5
1322C
330
1322B
100
AcDbEntity
  8
0
100
AcDbBlockBegin
  2
*D23
 70
     1
 10
0.0
 20
0.0
 30
0.0
  3
*D23
  1

  0
ARC
  5
1324B
330
1322B
100
AcDbEntity
  8
AM_5
100
AcDbCircle
 10
251.100841123927
 20
231.6570185165891
 30
0.0
 40
26.944024476431
100
AcDbArc
 50
139.2539133229651
 51
180.0000000000001
  0
INSERT
  5
1324C
330
1322B
100
AcDbEntity
  8
AM_5
100
AcDbBlockReference
  2
_OPEN30
 10
232.048542875091
 20
250.7093251072335
 30
0.0
 41
2.0
 42
2.0
 43
2.0
 50
47.12695038992539
  0
POINT
  5
1324D
330
1322B
100
AcDbEntity
  8
Defpoints
 62
     0
100
AcDbPoint
 10
227.7666334133314
 20
245.1290341603335
 30
0.0
  0
POINT
  5
1324E
330
1322B
100
AcDbEntity
  8
Defpoints
 62
     0
100
AcDbPoint
 10
253.2606521522009
 20
231.6570185165891
 30
0.0
  0
POINT
  5
1324F
330
1322B
100
AcDbEntity
  8
Defpoints
 62
     0
100
AcDbPoint
 10
251.368601579443
 20
231.3892579438375
 30
0.0
  0
POINT
  5
13250
330
1322B
100
AcDbEntity
  8
Defpoints
 62
     0
100
AcDbPoint
 10
225.9127821522008
 20
256.8450885165891
 30
0.0
  0
POINT
  5
13251
330
1322B
100
AcDbEntity
  8
Defpoints
 62
     0
100
AcDbPoint
 10
217.2606521522008
 20
231.657018516589
 30
0.0
  0
ENDBLK
  5
1322D
330
1322B
100
AcDbEntity
  8
0
100
AcDbBlockEnd
  0
BLOCK
  5
13538
330
13537
100
AcDbEntity
  8
0
100
AcDbBlockBegin
  2
*D24
 70
     1
 10
0.0
 20
0.0
 30
0.0
  3
*D24
  1

  0
LINE
  5
13568
330
13537
100
AcDbEntity
  8
AM_5
100
AcDbLine
 10
329.7583584667096
 20
224.2048360263029
 30
0.0
 11
329.7583584667096
 21
251.7048360263029
 31
0.0
  0
LINE
  5
13569
330
13537
100
AcDbEntity
  8
AM_5
100
AcDbLine
 10
356.4895514830938
 20
224.204836026303
 30
0.0
 11
356.4895514830938
 21
251.7048360263029
 31
0.0
  0
LINE
  5
1356A
330
13537
100
AcDbEntity
  8
AM_5
100
AcDbLine
 10
330.7583584667096
 20
250.7048360263029
 30
0.0
 11
355.4895514830938
 21
250.7048360263029
 31
0.0
  0
INSERT
  5
1356B
330
13537
100
AcDbEntity
  8
AM_5
100
AcDbBlockReference
  2
_Dot
 10
329.7583584667096
 20
250.7048360263029
 30
0.0
 50
180.0
  0
INSERT
  5
1356C
330
13537
100
AcDbEntity
  8
AM_5
100
AcDbBlockReference
  2
_Dot
 10
356.4895514830938
 20
250.7048360263029
 30
0.0
  0
MTEXT
  5
1356D
330
13537
100
AcDbEntity
  8
AM_5
 62
     2
100
AcDbMText
 10
343.1239549749017
 20
253.8048360263029
 30
0.0
 40
3.200000000000001
 41
0.0
 71
     5
 72
     1
  1
（30）
 73
     1
 44
1.0
  0
POINT
  5
1356E
330
13537
100
AcDbEntity
  8
Defpoints
 62
     0
100
AcDbPoint
 10
329.7583584667096
 20
223.2048360263029
 30
0.0
  0
POINT
  5
1356F
330
13537
100
AcDbEntity
  8
Defpoints
 62
     0
100
AcDbPoint
 10
356.4895514830938
 20
223.2048360263029
 30
0.0
  0
POINT
  5
13570
330
13537
100
AcDbEntity
  8
Defpoints
 62
     0
100
AcDbPoint
 10
356.4895514830938
 20
250.7048360263029
 30
0.0
  0
ENDBLK
  5
13539
330
13537
100
AcDbEntity
  8
0
100
AcDbBlockEnd
  0
BLOCK
  5
13E31
330
13E2A
100
AcDbEntity
  8
0
100
AcDbBlockBegin
  2
*S26
 70
     1
 10
0.0
 20
0.0
 30
0.0
  3
*S26
  1

  0
LINE
  5
13E2B
330
13E2A
100
AcDbEntity
  8
AM_5
  6
寸法線
 62
     3
100
AcDbLine
 10
199.9647266504002
 20
53.68034585462343
 30
0.0
 11
220.6367266504002
 21
53.68034585462343
 31
0.0
  0
LINE
  5
13E2C
330
13E2A
100
AcDbEntity
  8
AM_5
  6
寸法線
 62
     3
100
AcDbLine
 10
220.6367266504002
 20
53.68034585462343
 30
0.0
 11
230.7476669071284
 21
63.79128611135159
 31
0.0
  0
LINE
  5
13E2D
330
13E2A
100
AcDbEntity
  8
AM_5
  6
Continuous
 62
     3
100
AcDbLine
 10
230.7476669071284
 20
63.79128611135159
 30
0.0
 11
232.1618804695015
 21
65.20549967372469
 31
0.0
  0
LINE
  5
13E2E
330
13E2A
100
AcDbEntity
  8
AM_5
  6
Continuous
 62
     3
100
AcDbLine
 10
231.1266042856533
 20
63.41234873282671
 30
0.0
 11
232.1618804695015
 21
65.20549967372469
 31
0.0
  0
LINE
  5
13E2F
330
13E2A
100
AcDbEntity
  8
AM_5
  6
Continuous
 62
     3
100
AcDbLine
 10
232.1618804695015
 20
65.20549967372469
 30
0.0
 11
230.3687295286035
 21
64.17022348987647
 31
0.0
  0
MTEXT
  5
13E30
330
13E2A
100
AcDbEntity
  8
AM_5
 62
     2
100
AcDbMText
 10
217.4367266504002
 20
55.28034585462343
 30
0.0
 40
3.2
 41
0.0
 71
     9
 72
     5
  1
ヒンジセンター
 73
     1
 44
1.0
  0
ENDBLK
  5
13E32
330
13E2A
100
AcDbEntity
  8
0
100
AcDbBlockEnd
  0
ENDSEC
  0
SECTION
  2
ENTITIES
  0
TEXT
  5
BF47
330
1F
100
AcDbEntity
  8
AM_6
 60
     1
100
AcDbText
 10
408.4999999999999
 20
8.5
 30
0.0
 40
2.5
  1
!GENTITLE-INSERT
100
AcDbText
  0
TEXT
  5
BF48
330
1F
100
AcDbEntity
  8
AM_6
 60
     1
100
AcDbText
 10
0.0
 20
0.0
 30
0.0
 40
2.5
  1
!GENTITLE-LL
100
AcDbText
  0
TEXT
  5
BF49
330
1F
100
AcDbEntity
  8
AM_6
 60
     1
100
AcDbText
 10
420.0
 20
297.0
 30
0.0
 40
2.5
  1
!GENTITLE-RU
100
AcDbText
  0
TEXT
  5
BF4A
330
1F
100
AcDbEntity
  8
AM_6
 60
     1
100
AcDbText
 10
420.0
 20
297.0
 30
0.0
 40
2.5
  1
!GENTITLE-MAX
100
AcDbText
  0
TEXT
  5
BF52
330
1F
100
AcDbEntity
  8
AM_6
 60
     1
100
AcDbText
 10
0.0
 20
0.0
 30
0.0
 40
2.5
  1
!GENTITLE-LL
100
AcDbText
  0
TEXT
  5
BF53
330
1F
100
AcDbEntity
  8
AM_6
 60
     1
100
AcDbText
 10
408.4999999999999
 20
288.5
 30
0.0
 40
2.5
  1
!GENTITLE-RU
100
AcDbText
  0
TEXT
  5
BF54
330
1F
100
AcDbEntity
  8
AM_6
 60
     1
100
AcDbText
 10
420.0
 20
297.0
 30
0.0
 40
2.5
  1
!GENTITLE-MAX
100
AcDbText
  0
TEXT
  5
BF55
330
1F
100
AcDbEntity
  8
AM_6
 60
     1
100
AcDbText
 10
408.4999999999999
 20
8.5
 30
0.0
 40
2.5
  1
!GENTITLE-INSERT
100
AcDbText
  0
LINE
  5
11C2B
330
1F
100
AcDbEntity
  8
AM_0
100
AcDbLine
 10
334.1239379749016
 20
146.5545733646612
 30
0.0
 11
334.1239439749017
 21
112.0545733646612
 31
0.0
  0
LINE
  5
11C2C
330
1F
100
AcDbEntity
  8
AM_0
100
AcDbLine
 10
352.1239559749016
 20
146.5545733646612
 30
0.0
 11
352.1239619749017
 21
112.0545733646612
 31
0.0
  0
LINE
  5
11C2D
330
1F
100
AcDbEntity
  8
AM_0
100
AcDbLine
 10
355.1239559749016
 20
95.55457256466118
 30
0.0
 11
358.1239559749016
 21
95.55457256466118
 31
0.0
  0
LINE
  5
11C2E
330
1F
100
AcDbEntity
  8
AM_0
100
AcDbLine
 10
328.1239529749016
 20
108.5545733646612
 30
0.0
 11
331.1239529749016
 21
108.5545733646612
 31
0.0
  0
LINE
  5
11C2F
330
1F
100
AcDbEntity
  8
AM_0
100
AcDbLine
 10
332.1239379749016
 20
92.05457336466119
 30
0.0
 11
354.1239559749016
 21
92.05457336466119
 31
0.0
  0
LINE
  5
11C30
330
1F
100
AcDbEntity
  8
AM_0
100
AcDbLine
 10
332.1239439749017
 20
112.0545733646612
 30
0.0
 11
354.1239619749018
 21
112.0545733646612
 31
0.0
  0
LINE
  5
11C31
330
1F
100
AcDbEntity
  8
AM_0
100
AcDbLine
 10
331.1239439749016
 20
111.0545733646612
 30
0.0
 11
331.1239379749017
 21
102.5545723646612
 31
0.0
  0
LINE
  5
11C32
330
1F
100
AcDbEntity
  8
AM_0
100
AcDbLine
 10
331.1239529749016
 20
101.5545723646612
 30
0.0
 11
355.1239559749016
 21
101.5545723646612
 31
0.0
  0
LINE
  5
11C33
330
1F
100
AcDbEntity
  8
AM_0
100
AcDbLine
 10
331.1239529749016
 20
102.5545723646612
 30
0.0
 11
355.1239559749016
 21
102.5545723646612
 31
0.0
  0
LINE
  5
11C34
330
1F
100
AcDbEntity
  8
AM_0
100
AcDbLine
 10
355.1239559749016
 20
101.5545723646612
 30
0.0
 11
355.1239559749016
 21
93.05457336466119
 31
0.0
  0
LINE
  5
11C35
330
1F
100
AcDbEntity
  8
AM_0
100
AcDbLine
 10
355.1239619749018
 20
111.0545733646612
 30
0.0
 11
355.1239559749016
 21
102.5545723646612
 31
0.0
  0
LINE
  5
11C36
330
1F
100
AcDbEntity
  8
AM_0
100
AcDbLine
 10
331.1239379749017
 20
101.5545723646612
 30
0.0
 11
331.1239379749015
 21
93.05457336466119
 31
0.0
  0
LINE
  5
11C37
330
1F
100
AcDbEntity
  8
AM_0
100
AcDbLine
 10
352.1239559749016
 20
92.05457336466119
 30
0.0
 11
352.1239559749016
 21
57.55457336466119
 31
0.0
  0
LINE
  5
11C38
330
1F
100
AcDbEntity
  8
AM_0
100
AcDbLine
 10
334.1239379749016
 20
92.05457336466119
 30
0.0
 11
334.1239379749016
 21
57.55457336466119
 31
0.0
  0
LINE
  5
11C39
330
1F
100
AcDbEntity
  8
AM_0
100
AcDbLine
 10
336.1239529749017
 20
55.55457336466119
 30
0.0
 11
350.1239559749016
 21
55.55457336466119
 31
0.0
  0
LINE
  5
11C3A
330
1F
100
AcDbEntity
  8
AM_0
100
AcDbLine
 10
336.1239529749017
 20
148.5545733646612
 30
0.0
 11
350.1239559749016
 21
148.5545733646612
 31
0.0
  0
LINE
  5
11C3B
330
1F
100
AcDbEntity
  8
AM_0
100
AcDbLine
 10
351.6239559749016
 20
57.55457336466119
 30
0.0
 11
351.6239559749016
 21
57.05457336466119
 31
0.0
  0
LINE
  5
11C3C
330
1F
100
AcDbEntity
  8
AM_0
100
AcDbLine
 10
334.6239379749016
 20
57.55457336466119
 30
0.0
 11
334.6239379749016
 21
57.05457336466119
 31
0.0
  0
LINE
  5
11C3D
330
1F
100
AcDbEntity
  8
AM_0
100
AcDbLine
 10
334.6239379749016
 20
147.0545733646612
 30
0.0
 11
334.6239379749016
 21
146.5545733646612
 31
0.0
  0
LINE
  5
11C3E
330
1F
100
AcDbEntity
  8
AM_0
100
AcDbLine
 10
351.6239559749016
 20
147.0545733646612
 30
0.0
 11
351.6239559749016
 21
146.5545733646612
 31
0.0
  0
LINE
  5
11C44
330
1F
100
AcDbEntity
  8
AM_7
 48
0.6
100
AcDbLine
 10
370.6239559749016
 20
138.2545733646612
 30
0.0
 11
370.6239559749016
 21
125.8545733646612
 31
0.0
  0
LINE
  5
11C45
330
1F
100
AcDbEntity
  8
AM_7
100
AcDbLine
 10
343.1239529749017
 20
151.5545733646612
 30
0.0
 11
343.1239529749017
 21
52.55457336466119
 31
0.0
  0
LINE
  5
11C46
330
1F
100
AcDbEntity
  8
AM_0
100
AcDbLine
 10
306.1239569749017
 20
146.5545733646612
 30
0.0
 11
352.1239559749016
 21
146.5545733646612
 31
0.0
  0
LINE
  5
11C47
330
1F
100
AcDbEntity
  8
AM_0
100
AcDbLine
 10
303.1239419749017
 20
143.5545733646612
 30
0.0
 11
303.1239419749017
 21
60.55457336466119
 31
0.0
  0
LINE
  5
11C48
330
1F
100
AcDbEntity
  8
AM_0
100
AcDbLine
 10
306.1239569749017
 20
57.55457336466119
 30
0.0
 11
327.1239379749017
 21
57.5545733646612
 31
0.0
  0
LINE
  5
11C49
330
1F
100
AcDbEntity
  8
AM_0
100
AcDbLine
 10
328.1239379749016
 20
108.5545733646612
 30
0.0
 11
328.1239379749016
 21
58.5545733646612
 31
0.0
  0
LINE
  5
11C4A
330
1F
100
AcDbEntity
  8
AM_0
100
AcDbLine
 10
383.1239559749016
 20
143.5545733646612
 30
0.0
 11
383.1239559749016
 21
60.55457336466119
 31
0.0
  0
LINE
  5
11C4B
330
1F
100
AcDbEntity
  8
AM_0
100
AcDbLine
 10
334.1239529749016
 20
57.55457336466119
 30
0.0
 11
380.1239559749016
 21
57.55457336466119
 31
0.0
  0
LINE
  5
11C4C
330
1F
100
AcDbEntity
  8
AM_0
100
AcDbLine
 10
359.1239559749016
 20
146.5545733646612
 30
0.0
 11
380.1239559749016
 21
146.5545733646612
 31
0.0
  0
LINE
  5
11C4D
330
1F
100
AcDbEntity
  8
AM_0
100
AcDbLine
 10
358.1239559749016
 20
145.5545733646611
 30
0.0
 11
358.1239559749016
 21
95.55457256466118
 31
0.0
  0
LINE
  5
11C4E
330
1F
100
AcDbEntity
  8
AM_0
100
AcDbLine
 10
383.1239559749016
 20
223.2048360263029
 30
0.0
 11
383.1239559749016
 21
225.7048360263029
 31
0.0
  0
LINE
  5
11C4F
330
1F
100
AcDbEntity
  8
AM_0
100
AcDbLine
 10
356.922634080079
 20
223.204836026303
 30
0.0
 11
383.1239559749016
 21
223.2048360263029
 31
0.0
  0
LINE
  5
11C50
330
1F
100
AcDbEntity
  8
AM_7
100
AcDbLine
 10
328.1239529749016
 20
210.7048360263029
 30
0.0
 11
358.1239559749016
 21
210.7048360263029
 31
0.0
  0
LINE
  5
11C59
330
1F
100
AcDbEntity
  8
AM_0
100
AcDbLine
 10
329.3252758697467
 20
223.2048360263029
 30
0.0
 11
303.1239569749017
 21
223.2048360263029
 31
0.0
  0
LINE
  5
11C5A
330
1F
100
AcDbEntity
  8
AM_0
100
AcDbLine
 10
303.1239569749017
 20
223.2048360263029
 30
0.0
 11
303.1239569749017
 21
225.7048360263029
 31
0.0
  0
LINE
  5
11C5B
330
1F
100
AcDbEntity
  8
AM_0
100
AcDbLine
 10
303.1239569749017
 20
225.7048360263029
 30
0.0
 11
329.5439493645235
 21
225.7048360263029
 31
0.0
  0
LINE
  5
11C5C
330
1F
100
AcDbEntity
  8
AM_0
100
AcDbLine
 10
356.7039605852703
 20
225.7048360263029
 30
0.0
 11
383.1239559749016
 21
225.7048360263029
 31
0.0
  0
LINE
  5
11C5D
330
1F
100
AcDbEntity
  8
AM_0
100
AcDbLine
 10
303.1239569749017
 20
240.7048360263029
 30
0.0
 11
328.1239529749016
 21
240.7048360263029
 31
0.0
  0
LINE
  5
11C5E
330
1F
100
AcDbEntity
  8
AM_7
100
AcDbLine
 10
315.6239529749016
 20
220.2048360263029
 30
0.0
 11
315.6239529749016
 21
243.7048360263029
 31
0.0
  0
LINE
  5
11C5F
330
1F
100
AcDbEntity
  8
AM_0
100
AcDbLine
 10
328.1239529749016
 20
238.7048360263029
 30
0.0
 11
328.1239529749016
 21
240.7048360263029
 31
0.0
  0
LINE
  5
11C60
330
1F
100
AcDbEntity
  8
AM_0
100
AcDbLine
 10
303.1239569749017
 20
238.7048360263029
 30
0.0
 11
303.1239569749017
 21
240.7048360263029
 31
0.0
  0
LINE
  5
11C61
330
1F
100
AcDbEntity
  8
AM_0
100
AcDbLine
 10
319.6239529749016
 20
229.2048360263029
 30
0.0
 11
319.6239529749016
 21
238.7048360263029
 31
0.0
  0
LINE
  5
11C62
330
1F
100
AcDbEntity
  8
AM_0
100
AcDbLine
 10
311.6239529749016
 20
229.2048360263029
 30
0.0
 11
311.6239529749016
 21
238.7048360263029
 31
0.0
  0
LINE
  5
11C63
330
1F
100
AcDbEntity
  8
AM_0
100
AcDbLine
 10
303.1239569749017
 20
238.7048360263029
 30
0.0
 11
328.1239529749016
 21
238.7048360263029
 31
0.0
  0
LINE
  5
11C64
330
1F
100
AcDbEntity
  8
AM_0
100
AcDbLine
 10
383.1239559749016
 20
240.7048360263029
 30
0.0
 11
358.1239559749016
 21
240.7048360263029
 31
0.0
  0
LINE
  5
11C65
330
1F
100
AcDbEntity
  8
AM_7
100
AcDbLine
 10
370.6239559749016
 20
220.2048360263029
 30
0.0
 11
370.6239559749016
 21
243.7048360263029
 31
0.0
  0
LINE
  5
11C66
330
1F
100
AcDbEntity
  8
AM_0
100
AcDbLine
 10
383.1239559749016
 20
238.7048360263029
 30
0.0
 11
383.1239559749016
 21
240.7048360263029
 31
0.0
  0
LINE
  5
11C67
330
1F
100
AcDbEntity
  8
AM_0
100
AcDbLine
 10
358.1239559749016
 20
238.7048360263029
 30
0.0
 11
358.1239559749016
 21
240.7048360263029
 31
0.0
  0
LINE
  5
11C68
330
1F
100
AcDbEntity
  8
AM_0
100
AcDbLine
 10
366.6239559749016
 20
229.2048360263029
 30
0.0
 11
366.6239559749016
 21
238.7048360263029
 31
0.0
  0
LINE
  5
11C69
330
1F
100
AcDbEntity
  8
AM_0
100
AcDbLine
 10
374.6239559749016
 20
229.2048360263029
 30
0.0
 11
374.6239559749016
 21
238.7048360263029
 31
0.0
  0
LINE
  5
11C6A
330
1F
100
AcDbEntity
  8
AM_0
100
AcDbLine
 10
383.1239559749016
 20
238.7048360263029
 30
0.0
 11
358.1239559749016
 21
238.7048360263029
 31
0.0
  0
LINE
  5
11C6B
330
1F
100
AcDbEntity
  8
AM_0
100
AcDbLine
 10
312.1239529749016
 20
228.7048360263029
 30
0.0
 11
319.1239529749016
 21
228.7048360263029
 31
0.0
  0
LINE
  5
11C6C
330
1F
100
AcDbEntity
  8
AM_0
100
AcDbLine
 10
374.1239559749015
 20
228.7048360263029
 30
0.0
 11
367.1239559749016
 21
228.7048360263029
 31
0.0
  0
LINE
  5
11C6D
330
1F
100
AcDbEntity
  8
AM_7
100
AcDbLine
 10
343.1239529749017
 20
195.7048360263029
 30
0.0
 11
343.1239529749017
 21
225.7048360263029
 31
0.0
  0
LINE
  5
11C6E
330
1F
100
AcDbEntity
  8
AM_7
 48
0.8
100
AcDbLine
 10
259.6618804695015
 20
139.3045803646612
 30
0.0
 11
259.6618804695015
 21
124.8045733646612
 31
0.0
  0
LINE
  5
11C6F
330
1F
100
AcDbEntity
  8
AM_7
 48
0.8
100
AcDbLine
 10
204.6618954695015
 20
139.3045803646612
 30
0.0
 11
204.6618954695015
 21
124.8045733646612
 31
0.0
  0
LINE
  5
11C70
330
1F
100
AcDbEntity
  8
AM_7
 48
0.8
100
AcDbLine
 10
197.4118804695015
 20
72.05457336466119
 30
0.0
 11
211.9118804695015
 21
72.05457336466119
 31
0.0
  0
LINE
  5
11C71
330
1F
100
AcDbEntity
  8
AM_7
 48
0.8
100
AcDbLine
 10
197.4118804695015
 20
132.0545733646612
 30
0.0
 11
211.9118804695015
 21
132.0545733646612
 31
0.0
  0
LINE
  5
11C72
330
1F
100
AcDbEntity
  8
AM_7
 48
0.8
100
AcDbLine
 10
252.4118804695015
 20
72.05457336466119
 30
0.0
 11
266.9118804695015
 21
72.05457336466119
 31
0.0
  0
LINE
  5
11C73
330
1F
100
AcDbEntity
  8
AM_7
 48
0.8
100
AcDbLine
 10
252.4118804695015
 20
132.0545733646612
 30
0.0
 11
266.9118804695015
 21
132.0545733646612
 31
0.0
  0
LINE
  5
11C74
330
1F
100
AcDbEntity
  8
AM_7
100
AcDbLine
 10
232.1618804695015
 20
139.3045733646612
 30
0.0
 11
232.1618804695015
 21
64.8045733646612
 31
0.0
  0
LINE
  5
11C79
330
1F
100
AcDbEntity
  8
AM_7
 48
0.6
100
AcDbLine
 10
364.4239559749016
 20
72.05457336466119
 30
0.0
 11
376.8239559749016
 21
72.05457336466119
 31
0.0
  0
LINE
  5
11C7A
330
1F
100
AcDbEntity
  8
AM_7
 48
0.6
100
AcDbLine
 10
364.4239559749016
 20
132.0545733646612
 30
0.0
 11
376.8239559749016
 21
132.0545733646612
 31
0.0
  0
LINE
  5
11C7B
330
1F
100
AcDbEntity
  8
AM_2
100
AcDbLine
 10
329.7583584667097
 20
144.5545733646612
 30
0.0
 11
329.7583584667098
 21
110.5545733646612
 31
0.0
  0
ARC
  5
11C8F
330
1F
100
AcDbEntity
  8
AM_0
100
AcDbCircle
 10
350.1239359749017
 20
57.05457336466119
 30
0.0
 40
1.5
100
AcDbArc
 50
270.0
 51
0.0
  0
ARC
  5
11C90
330
1F
100
AcDbEntity
  8
AM_0
100
AcDbCircle
 10
336.1239379749016
 20
57.05457336466119
 30
0.0
 40
1.5
100
AcDbArc
 50
180.0
 51
270.0
  0
ARC
  5
11C91
330
1F
100
AcDbEntity
  8
AM_0
100
AcDbCircle
 10
350.1239359749017
 20
147.0545733646612
 30
0.0
 40
1.5
100
AcDbArc
 50
0.0
 51
90.0
  0
ARC
  5
11C92
330
1F
100
AcDbEntity
  8
AM_0
100
AcDbCircle
 10
336.1239379749016
 20
147.0545733646612
 30
0.0
 40
1.5
100
AcDbArc
 50
90.0
 51
180.0
  0
ARC
  5
11C93
330
1F
100
AcDbEntity
  8
AM_0
100
AcDbCircle
 10
306.1239419749016
 20
143.5545733646612
 30
0.0
 40
3.0
100
AcDbArc
 50
90.0
 51
180.0
  0
ARC
  5
11C94
330
1F
100
AcDbEntity
  8
AM_0
100
AcDbCircle
 10
306.1239419749016
 20
60.55457336466119
 30
0.0
 40
3.0
100
AcDbArc
 50
179.9999599999992
 51
270.0
  0
ARC
  5
11C95
330
1F
100
AcDbEntity
  8
AM_0
100
AcDbCircle
 10
380.1239559749016
 20
60.55457336466119
 30
0.0
 40
3.0
100
AcDbArc
 50
270.0
 51
0.0
  0
ARC
  5
11C96
330
1F
100
AcDbEntity
  8
AM_0
100
AcDbCircle
 10
380.1239559749016
 20
143.5545733646612
 30
0.0
 40
3.0
100
AcDbArc
 50
0.0
 51
90.0
  0
CIRCLE
  5
11C9A
330
1F
100
AcDbEntity
  8
AM_0
100
AcDbCircle
 10
204.6618954695015
 20
72.05457336466119
 30
0.0
 40
4.25
  0
CIRCLE
  5
11C9B
330
1F
100
AcDbEntity
  8
AM_0
100
AcDbCircle
 10
204.6618954695015
 20
132.0545733646612
 30
0.0
 40
4.25
  0
CIRCLE
  5
11C9C
330
1F
100
AcDbEntity
  8
AM_0
100
AcDbCircle
 10
259.6618804695015
 20
132.0545733646612
 30
0.0
 40
4.25
  0
CIRCLE
  5
11C9D
330
1F
100
AcDbEntity
  8
AM_0
100
AcDbCircle
 10
259.6618804695015
 20
72.05457336466119
 30
0.0
 40
4.25
  0
CIRCLE
  5
11C9E
330
1F
100
AcDbEntity
  8
AM_0
100
AcDbCircle
 10
315.6239379749016
 20
132.0545733646612
 30
0.0
 40
3.2
  0
CIRCLE
  5
11C9F
330
1F
100
AcDbEntity
  8
AM_0
100
AcDbCircle
 10
315.6239379749016
 20
72.05457336466119
 30
0.0
 40
3.2
  0
CIRCLE
  5
11CA0
330
1F
100
AcDbEntity
  8
AM_0
100
AcDbCircle
 10
370.6239559749016
 20
132.0545733646612
 30
0.0
 40
3.2
  0
CIRCLE
  5
11CA1
330
1F
100
AcDbEntity
  8
AM_0
100
AcDbCircle
 10
370.6239559749016
 20
72.05457336466119
 30
0.0
 40
3.2
  0
TEXT
  5
11CA2
330
1F
100
AcDbEntity
  8
AM_6
100
AcDbText
 10
221.6613304695016
 20
40.11284191674692
 30
0.0
 40
4.0
  1
切欠推奨寸法
 41
0.8
100
AcDbText
  0
ARC
  5
11EB1
330
1F
100
AcDbEntity
  8
AM_0
100
AcDbCircle
 10
332.1239439749017
 20
111.0545733646612
 30
0.0
 40
1.0
100
AcDbArc
 50
90.0
 51
180.0
1001
GENIUS_GENODEF_13
1002
{
1000
HIER
1070
     0
1002
}
1002
{
1000
MANEDIT
1070
     0
1002
}
1002
{
1000
NOSEL
1070
     0
1002
}
1002
{
1000
BEHIND
1070
     0
1002
}
1002
{
1000
OTHER
1070
     0
1002
}
1002
{
1000
REACTOR
1002
}
1001
GENIUS_GENOBJ-N-FIL_13
1002
{
1000
OWNER
1000
GEN
1002
}
  0
ARC
  5
11EB2
330
1F
100
AcDbEntity
  8
AM_0
100
AcDbCircle
 10
354.1239619749018
 20
111.0545733646612
 30
0.0
 40
1.0
100
AcDbArc
 50
0.0
 51
90.0
1001
GENIUS_GENODEF_13
1002
{
1000
HIER
1070
     0
1002
}
1002
{
1000
MANEDIT
1070
     0
1002
}
1002
{
1000
NOSEL
1070
     0
1002
}
1002
{
1000
BEHIND
1070
     0
1002
}
1002
{
1000
OTHER
1070
     0
1002
}
1002
{
1000
REACTOR
1002
}
1001
GENIUS_GENOBJ-N-FIL_13
1002
{
1000
OWNER
1000
GEN
1002
}
  0
ARC
  5
11EB3
330
1F
100
AcDbEntity
  8
AM_0
100
AcDbCircle
 10
354.1239559749016
 20
93.05457336466119
 30
0.0
 40
1.0
100
AcDbArc
 50
270.0
 51
0.0
1001
GENIUS_GENOBJ-N-FIL_13
1002
{
1000
OWNER
1000
GEN
1002
}
1001
GENIUS_GENODEF_13
1002
{
1000
HIER
1070
     0
1002
}
1002
{
1000
MANEDIT
1070
     0
1002
}
1002
{
1000
NOSEL
1070
     0
1002
}
1002
{
1000
BEHIND
1070
     0
1002
}
1002
{
1000
OTHER
1070
     0
1002
}
1002
{
1000
REACTOR
1002
}
  0
ARC
  5
11EB4
330
1F
100
AcDbEntity
  8
AM_0
100
AcDbCircle
 10
332.1239379749016
 20
93.05457336466119
 30
0.0
 40
1.0
100
AcDbArc
 50
180.0
 51
270.0
1001
GENIUS_GENODEF_13
1002
{
1000
HIER
1070
     0
1002
}
1002
{
1000
MANEDIT
1070
     0
1002
}
1002
{
1000
NOSEL
1070
     0
1002
}
1002
{
1000
BEHIND
1070
     0
1002
}
1002
{
1000
OTHER
1070
     0
1002
}
1002
{
1000
REACTOR
1002
}
1001
GENIUS_GENOBJ-N-FIL_13
1002
{
1000
OWNER
1000
GEN
1002
}
  0
LINE
  5
11EB7
330
1F
100
AcDbEntity
  8
AM_7
 48
0.6
100
AcDbLine
 10
370.6239559749016
 20
78.25457336466119
 30
0.0
 11
370.6239559749016
 21
65.85457336466119
 31
0.0
  0
LINE
  5
11EB8
330
1F
100
AcDbEntity
  8
AM_7
 48
0.6
100
AcDbLine
 10
315.6239379749016
 20
78.25457336466119
 30
0.0
 11
315.6239379749016
 21
65.85457336466119
 31
0.0
  0
LINE
  5
11EB9
330
1F
100
AcDbEntity
  8
AM_7
 48
0.6
100
AcDbLine
 10
309.4239379749016
 20
72.05457336466119
 30
0.0
 11
321.8239379749017
 21
72.05457336466119
 31
0.0
  0
LINE
  5
11EBA
330
1F
100
AcDbEntity
  8
AM_7
 48
0.6
100
AcDbLine
 10
315.6239379749016
 20
138.2545733646612
 30
0.0
 11
315.6239379749016
 21
125.8545733646612
 31
0.0
  0
LINE
  5
11EBB
330
1F
100
AcDbEntity
  8
AM_7
 48
0.6
100
AcDbLine
 10
309.4239379749016
 20
132.0545733646612
 30
0.0
 11
321.8239379749017
 21
132.0545733646612
 31
0.0
  0
HATCH
  5
11EBE
330
1F
100
AcDbEntity
  8
AM_8
100
AcDbHatch
 10
0.0
 20
0.0
 30
0.0
210
0.0
220
0.0
230
1.0
  2
_U
 70
     0
 71
     0
 91
        1
 92
        1
 93
        2
 72
     2
 10
204.6618954695015
 20
132.0545733646612
 40
4.250000000000027
 50
11.45915590261545
 51
313.9958024260742
 73
     1
 72
     2
 10
204.6618954695015
 20
132.0545733646612
 40
4.250000000000018
 50
313.9958024260742
 51
371.4591559026155
 73
     1
 97
        0
 75
     0
 76
     0
 52
45.0
 41
1.5
 77
     0
 78
     1
 53
45.0
 43
-364.8395448841437
 44
17.21722175477484
 45
-1.060660171779821
 46
1.060660171779821
 79
     0
 98
        1
 10
-364.8395448841437
 20
17.21722175477484
1001
GENIUS_GENODEF_13
1002
{
1000
HIER
1070
     0
1002
}
1002
{
1000
MANEDIT
1070
     0
1002
}
1002
{
1000
NOSEL
1070
     0
1002
}
1002
{
1000
BEHIND
1070
     0
1002
}
1002
{
1000
OTHER
1070
     0
1002
}
1002
{
1000
REACTOR
1002
}
1001
GENIUS_GENOBJ-N-HTC_13
1002
{
1000
OWNER
1000
GEN
1002
}
1001
GENIUS_GENHATCH_13
1002
{
1000
DATA
1040
45.0
1042
2.5
1000
_U
1070
     0
1011
206.2312769044177
1021
130.4291930310408
1031
0.0
1002
}
1002
{
1000
UCS
1010
0.0
1020
0.0
1030
0.0
1010
1.0
1020
0.0
1030
0.0
1010
0.0
1020
1.0
1030
0.0
1002
}
  0
HATCH
  5
11EC0
330
1F
100
AcDbEntity
  8
AM_8
100
AcDbHatch
 10
0.0
 20
0.0
 30
0.0
210
0.0
220
0.0
230
1.0
  2
_U
 70
     0
 71
     0
 91
        1
 92
        1
 93
        2
 72
     2
 10
259.6618804695015
 20
132.0545733646611
 40
4.250000000000033
 50
191.4591559026158
 51
496.3518489044308
 73
     1
 72
     2
 10
259.6618804695015
 20
132.0545733646611
 40
4.250000000000033
 50
136.3518489044307
 51
191.4591559026156
 73
     1
 97
        0
 75
     0
 76
     0
 52
45.0
 41
1.5
 77
     0
 78
     1
 53
45.0
 43
-364.8395448841437
 44
17.21722175477484
 45
-1.060660171779821
 46
1.060660171779821
 79
     0
 98
        1
 10
-364.8395448841437
 20
17.21722175477484
1001
GENIUS_GENODEF_13
1002
{
1000
HIER
1070
     0
1002
}
1002
{
1000
MANEDIT
1070
     0
1002
}
1002
{
1000
NOSEL
1070
     0
1002
}
1002
{
1000
BEHIND
1070
     0
1002
}
1002
{
1000
OTHER
1070
     0
1002
}
1002
{
1000
REACTOR
1002
}
1001
GENIUS_GENOBJ-N-HTC_13
1002
{
1000
OWNER
1000
GEN
1002
}
1001
GENIUS_GENHATCH_13
1002
{
1000
DATA
1040
45.0
1042
2.5
1000
_U
1070
     0
1011
258.0606065820202
1021
133.5820139900382
1031
0.0
1002
}
1002
{
1000
UCS
1010
0.0
1020
0.0
1030
0.0
1010
1.0
1020
0.0
1030
0.0
1010
0.0
1020
1.0
1030
0.0
1002
}
  0
HATCH
  5
11EC2
330
1F
100
AcDbEntity
  8
AM_8
100
AcDbHatch
 10
0.0
 20
0.0
 30
0.0
210
0.0
220
0.0
230
1.0
  2
_U
 70
     0
 71
     0
 91
        1
 92
        1
 93
        2
 72
     2
 10
259.6618804695015
 20
72.05457336466119
 40
4.250000000000039
 50
11.45915590261629
 51
247.0453162125085
 73
     1
 72
     2
 10
259.6618804695015
 20
72.05457336466119
 40
4.250000000000024
 50
247.0453162125086
 51
371.4591559026162
 73
     1
 97
        0
 75
     0
 76
     0
 52
45.0
 41
1.5
 77
     0
 78
     1
 53
45.0
 43
-364.8395448841437
 44
17.21722175477484
 45
-1.060660171779821
 46
1.060660171779821
 79
     0
 98
        1
 10
-364.8395448841437
 20
17.21722175477484
1001
GENIUS_GENODEF_13
1002
{
1000
HIER
1070
     0
1002
}
1002
{
1000
MANEDIT
1070
     0
1002
}
1002
{
1000
NOSEL
1070
     0
1002
}
1002
{
1000
BEHIND
1070
     0
1002
}
1002
{
1000
OTHER
1070
     0
1002
}
1002
{
1000
REACTOR
1002
}
1001
GENIUS_GENOBJ-N-HTC_13
1002
{
1000
OWNER
1000
GEN
1002
}
1001
GENIUS_GENHATCH_13
1002
{
1000
DATA
1040
45.0
1042
2.5
1000
_U
1070
     0
1011
258.7924953530451
1021
70.00191808910549
1031
0.0
1002
}
1002
{
1000
UCS
1010
0.0
1020
0.0
1030
0.0
1010
1.0
1020
0.0
1030
0.0
1010
0.0
1020
1.0
1030
0.0
1002
}
  0
HATCH
  5
11EC4
330
1F
100
AcDbEntity
  8
AM_8
100
AcDbHatch
 10
0.0
 20
0.0
 30
0.0
210
0.0
220
0.0
230
1.0
  2
_U
 70
     0
 71
     0
 91
        1
 92
        1
 93
        2
 72
     2
 10
204.6618954695015
 20
72.05457336466125
 40
4.25000000000003
 50
11.45915590261564
 51
304.7019069515624
 73
     1
 72
     2
 10
204.6618954695015
 20
72.05457336466125
 40
4.25000000000002
 50
304.7019069515624
 51
371.4591559026156
 73
     1
 97
        0
 75
     0
 76
     0
 52
45.0
 41
1.5
 77
     0
 78
     1
 53
45.0
 43
-364.8395448841437
 44
17.21722175477484
 45
-1.060660171779821
 46
1.060660171779821
 79
     0
 98
        1
 10
-364.8395448841437
 20
17.21722175477484
1001
GENIUS_GENODEF_13
1002
{
1000
HIER
1070
     0
1002
}
1002
{
1000
MANEDIT
1070
     0
1002
}
1002
{
1000
NOSEL
1070
     0
1002
}
1002
{
1000
BEHIND
1070
     0
1002
}
1002
{
1000
OTHER
1070
     0
1002
}
1002
{
1000
REACTOR
1002
}
1001
GENIUS_GENOBJ-N-HTC_13
1002
{
1000
OWNER
1000
GEN
1002
}
1001
GENIUS_GENHATCH_13
1002
{
1000
DATA
1040
45.0
1042
2.5
1000
_U
1070
     0
1011
205.9061864415337
1021
70.25771677200473
1031
0.0
1002
}
1002
{
1000
UCS
1010
0.0
1020
0.0
1030
0.0
1010
1.0
1020
0.0
1030
0.0
1010
0.0
1020
1.0
1030
0.0
1002
}
  0
DIMENSION
  5
11EC6
330
1F
100
AcDbEntity
  8
AM_5
100
AcDbDimension
  2
*D6
 10
315.6239379749016
 20
160.5545743746612
 30
0.0
 11
329.3739454749017
 21
163.6545743746611
 31
0.0
 70
    32
 71
     5
 42
27.50001500000008
  3
SYS$0
100
AcDbAlignedDimension
 13
343.1239529749017
 23
151.5545733646612
 33
0.0
 14
315.6239379749016
 24
138.2545733646612
 34
0.0
100
AcDbRotatedDimension
1001
ACAD_DSTYLE_DIMINSPECT
1070
   396
1000
100%
1070
   395
1000

1070
   394
1070
    33
1070
   393
1070
     0
  0
DIMENSION
  5
11F4B
330
1F
100
AcDbEntity
  8
AM_5
100
AcDbDimension
  2
*D7
 10
352.1239559749016
 20
45.55457336466118
 30
0.0
 11
343.1239469749016
 21
48.65457336466119
 31
0.0
 70
    32
  1
%%c<>
 71
     5
 42
18.00001799999995
  3
SYS$0
100
AcDbAlignedDimension
 13
334.1239379749016
 23
57.55457336466119
 33
0.0
 14
352.1239559749016
 24
57.55457336466119
 34
0.0
 50
0.0000000000001018
100
AcDbRotatedDimension
1001
ACAD_DSTYLE_DIMINSPECT
1070
   396
1000
100%
1070
   395
1000

1070
   394
1070
    33
1070
   393
1070
     0
  0
DIMENSION
  5
12094
330
1F
100
AcDbEntity
  8
AM_5
100
AcDbDimension
  2
*D8
 10
395.1239559749016
 20
225.7048360263029
 30
0.0
 11
392.0239559749015
 21
218.204836026303
 31
0.0
 70
    32
 71
     5
 42
15.0
  3
SYS$0
100
AcDbAlignedDimension
 13
358.1239559749016
 23
210.7048360263029
 33
0.0
 14
383.1239559749016
 24
225.7048360263029
 34
0.0
 50
90.0
100
AcDbRotatedDimension
1001
ACAD_DSTYLE_DIMINSPECT
1070
   396
1000
100%
1070
   395
1000

1070
   394
1070
    33
1070
   393
1070
     0
1001
ACAD
1000
DSTYLE
1002
{
1070
    76
1070
     1
1002
}
  0
DIMENSION
  5
1240F
330
1F
100
AcDbEntity
  8
AM_5
100
AcDbDimension
  2
*D9
 10
204.6618954695015
 20
151.3045803646612
 30
0.0
 11
232.1618879695015
 21
154.4045803646612
 31
0.0
 70
    32
 71
     5
 42
54.99998500000003
  3
SYS$0
100
AcDbAlignedDimension
 13
259.6618804695015
 23
139.3045803646612
 33
0.0
 14
204.6618954695015
 24
139.3045803646612
 34
0.0
100
AcDbRotatedDimension
1001
ACAD_DSTYLE_DIMINSPECT
1070
   396
1000
100%
1070
   395
1000

1070
   394
1070
    33
1070
   393
1070
     0
  0
DIMENSION
  5
12437
330
1F
100
AcDbEntity
  8
AM_5
100
AcDbDimension
  2
*D10
 10
185.4118804695014
 20
72.05457336466119
 30
0.0
 11
182.3118804695013
 21
102.0545733646612
 31
0.0
 70
    32
 71
     5
 42
60.00000000000001
  3
SYS$0
100
AcDbAlignedDimension
 13
197.4118804695015
 23
132.0545733646612
 33
0.0
 14
197.4118804695015
 24
72.05457336466119
 34
0.0
 50
90.0
100
AcDbRotatedDimension
1001
ACAD_DSTYLE_DIMINSPECT
1070
   396
1000
100%
1070
   395
1000

1070
   394
1070
    33
1070
   393
1070
     0
  0
INSERT
  5
12460
330
1F
100
AcDbEntity
  8
AM_5
100
AcDbBlockReference
  2
*S26
 10
0.0
 20
0.0
 30
0.0
  0
LINE
  5
12462
330
1F
100
AcDbEntity
  8
size
100
AcDbLine
 10
0.0
 20
0.0
 30
0.0
 11
420.0
 21
0.0
 31
0.0
1001
GENIUS_GENREC_14
1002
{
1000
PYDIR
1011
0.0
1021
297.0
1031
0.0
1002
}
1002
{
1000
PXDIR
1011
420.0
1021
0.0
1031
0.0
1002
}
1002
{
1000
PORI
1011
0.0
1021
0.0
1031
0.0
1002
}
1002
{
1000
PINS
1011
210.0
1021
148.4999999999999
1031
0.0
1002
}
1002
{
1000
HVAL
1000
297
1002
}
1002
{
1000
H
1070
     2
1002
}
1002
{
1000
WVAL
1000
420
1002
}
1002
{
1000
W
1070
     2
1002
}
1002
{
1000
C
1070
     4
1002
}
1001
GENIUS_GENOBJ-N-REC_13
1002
{
1000
OWNER
1000
GEN
1002
}
1001
GENIUS_GENODEF_13
1002
{
1000
HIER
1070
     0
1002
}
1002
{
1000
MANEDIT
1070
     0
1002
}
1002
{
1000
NOSEL
1070
     0
1002
}
1002
{
1000
BEHIND
1070
     0
1002
}
1002
{
1000
OTHER
1070
     0
1002
}
1002
{
1000
REACTOR
1002
}
  0
LINE
  5
12463
330
1F
100
AcDbEntity
  8
size
100
AcDbLine
 10
420.0
 20
0.0
 30
0.0
 11
420.0
 21
297.0
 31
0.0
1001
GENIUS_GENREC_14
1002
{
1000
PYDIR
1011
0.0
1021
297.0
1031
0.0
1002
}
1002
{
1000
PXDIR
1011
420.0
1021
0.0
1031
0.0
1002
}
1002
{
1000
PORI
1011
0.0
1021
0.0
1031
0.0
1002
}
1002
{
1000
PINS
1011
210.0
1021
148.4999999999999
1031
0.0
1002
}
1002
{
1000
HVAL
1000
297
1002
}
1002
{
1000
H
1070
     2
1002
}
1002
{
1000
WVAL
1000
420
1002
}
1002
{
1000
W
1070
     2
1002
}
1002
{
1000
C
1070
     4
1002
}
1001
GENIUS_GENOBJ-N-REC_13
1002
{
1000
OWNER
1000
GEN
1002
}
1001
GENIUS_GENODEF_13
1002
{
1000
HIER
1070
     0
1002
}
1002
{
1000
MANEDIT
1070
     0
1002
}
1002
{
1000
NOSEL
1070
     0
1002
}
1002
{
1000
BEHIND
1070
     0
1002
}
1002
{
1000
OTHER
1070
     0
1002
}
1002
{
1000
REACTOR
1002
}
  0
LINE
  5
12464
330
1F
100
AcDbEntity
  8
size
100
AcDbLine
 10
420.0
 20
297.0
 30
0.0
 11
0.0
 21
297.0
 31
0.0
1001
GENIUS_GENREC_14
1002
{
1000
PYDIR
1011
0.0
1021
297.0
1031
0.0
1002
}
1002
{
1000
PXDIR
1011
420.0
1021
0.0
1031
0.0
1002
}
1002
{
1000
PORI
1011
0.0
1021
0.0
1031
0.0
1002
}
1002
{
1000
PINS
1011
210.0
1021
148.4999999999999
1031
0.0
1002
}
1002
{
1000
HVAL
1000
297
1002
}
1002
{
1000
H
1070
     2
1002
}
1002
{
1000
WVAL
1000
420
1002
}
1002
{
1000
W
1070
     2
1002
}
1002
{
1000
C
1070
     4
1002
}
1001
GENIUS_GENOBJ-N-REC_13
1002
{
1000
OWNER
1000
GEN
1002
}
1001
GENIUS_GENODEF_13
1002
{
1000
HIER
1070
     0
1002
}
1002
{
1000
MANEDIT
1070
     0
1002
}
1002
{
1000
NOSEL
1070
     0
1002
}
1002
{
1000
BEHIND
1070
     0
1002
}
1002
{
1000
OTHER
1070
     0
1002
}
1002
{
1000
REACTOR
1002
}
  0
LINE
  5
12465
330
1F
100
AcDbEntity
  8
size
100
AcDbLine
 10
0.0
 20
297.0
 30
0.0
 11
0.0
 21
0.0
 31
0.0
1001
GENIUS_GENREC_14
1002
{
1000
PYDIR
1011
0.0
1021
297.0
1031
0.0
1002
}
1002
{
1000
PXDIR
1011
420.0
1021
0.0
1031
0.0
1002
}
1002
{
1000
PORI
1011
0.0
1021
0.0
1031
0.0
1002
}
1002
{
1000
PINS
1011
210.0
1021
148.4999999999999
1031
0.0
1002
}
1002
{
1000
HVAL
1000
297
1002
}
1002
{
1000
H
1070
     2
1002
}
1002
{
1000
WVAL
1000
420
1002
}
1002
{
1000
W
1070
     2
1002
}
1002
{
1000
C
1070
     4
1002
}
1001
GENIUS_GENOBJ-N-REC_13
1002
{
1000
OWNER
1000
GEN
1002
}
1001
GENIUS_GENODEF_13
1002
{
1000
HIER
1070
     0
1002
}
1002
{
1000
MANEDIT
1070
     0
1002
}
1002
{
1000
NOSEL
1070
     0
1002
}
1002
{
1000
BEHIND
1070
     0
1002
}
1002
{
1000
OTHER
1070
     0
1002
}
1002
{
1000
REACTOR
1002
}
  0
LINE
  5
12466
330
1F
100
AcDbEntity
  8
waku
100
AcDbLine
 10
408.4999999999999
 20
8.5
 30
0.0
 11
408.4999999999999
 21
288.5
 31
0.0
1001
GENIUS_GENREC_14
1002
{
1000
PYDIR
1011
0.0
1021
297.0
1031
0.0
1002
}
1002
{
1000
PXDIR
1011
420.0
1021
0.0
1031
0.0
1002
}
1002
{
1000
PORI
1011
0.0
1021
0.0
1031
0.0
1002
}
1002
{
1000
PINS
1011
210.0
1021
148.4999999999999
1031
0.0
1002
}
1002
{
1000
HVAL
1000
297
1002
}
1002
{
1000
H
1070
     2
1002
}
1002
{
1000
WVAL
1000
420
1002
}
1002
{
1000
W
1070
     2
1002
}
1002
{
1000
C
1070
     4
1002
}
1001
GENIUS_GENOBJ-N-REC_13
1002
{
1000
OWNER
1000
GEN
1002
}
1001
GENIUS_GENODEF_13
1002
{
1000
HIER
1070
     0
1002
}
1002
{
1000
MANEDIT
1070
     0
1002
}
1002
{
1000
NOSEL
1070
     0
1002
}
1002
{
1000
BEHIND
1070
     0
1002
}
1002
{
1000
OTHER
1070
     0
1002
}
1002
{
1000
REACTOR
1002
}
  0
LINE
  5
12467
330
1F
100
AcDbEntity
  8
waku
100
AcDbLine
 10
11.5
 20
288.5
 30
0.0
 11
11.5
 21
8.5
 31
0.0
1001
GENIUS_GENREC_14
1002
{
1000
PYDIR
1011
0.0
1021
297.0
1031
0.0
1002
}
1002
{
1000
PXDIR
1011
420.0
1021
0.0
1031
0.0
1002
}
1002
{
1000
PORI
1011
0.0
1021
0.0
1031
0.0
1002
}
1002
{
1000
PINS
1011
210.0
1021
148.4999999999999
1031
0.0
1002
}
1002
{
1000
HVAL
1000
297
1002
}
1002
{
1000
H
1070
     2
1002
}
1002
{
1000
WVAL
1000
420
1002
}
1002
{
1000
W
1070
     2
1002
}
1002
{
1000
C
1070
     4
1002
}
1001
GENIUS_GENOBJ-N-REC_13
1002
{
1000
OWNER
1000
GEN
1002
}
1001
GENIUS_GENODEF_13
1002
{
1000
HIER
1070
     0
1002
}
1002
{
1000
MANEDIT
1070
     0
1002
}
1002
{
1000
NOSEL
1070
     0
1002
}
1002
{
1000
BEHIND
1070
     0
1002
}
1002
{
1000
OTHER
1070
     0
1002
}
1002
{
1000
REACTOR
1002
}
  0
LINE
  5
12468
330
1F
100
AcDbEntity
  8
waku
100
AcDbLine
 10
408.4999999999999
 20
288.5
 30
0.0
 11
11.5
 21
288.5
 31
0.0
1001
GENIUS_GENREC_14
1002
{
1000
PYDIR
1011
0.0
1021
297.0
1031
0.0
1002
}
1002
{
1000
PXDIR
1011
420.0
1021
0.0
1031
0.0
1002
}
1002
{
1000
PORI
1011
0.0
1021
0.0
1031
0.0
1002
}
1002
{
1000
PINS
1011
210.0
1021
148.4999999999999
1031
0.0
1002
}
1002
{
1000
HVAL
1000
297
1002
}
1002
{
1000
H
1070
     2
1002
}
1002
{
1000
WVAL
1000
420
1002
}
1002
{
1000
W
1070
     2
1002
}
1002
{
1000
C
1070
     4
1002
}
1001
GENIUS_GENOBJ-N-REC_13
1002
{
1000
OWNER
1000
GEN
1002
}
1001
GENIUS_GENODEF_13
1002
{
1000
HIER
1070
     0
1002
}
1002
{
1000
MANEDIT
1070
     0
1002
}
1002
{
1000
NOSEL
1070
     0
1002
}
1002
{
1000
BEHIND
1070
     0
1002
}
1002
{
1000
OTHER
1070
     0
1002
}
1002
{
1000
REACTOR
1002
}
  0
LINE
  5
12469
330
1F
100
AcDbEntity
  8
waku
100
AcDbLine
 10
11.5
 20
8.5
 30
0.0
 11
408.4999999999999
 21
8.5
 31
0.0
  0
LINE
  5
1246A
330
1F
100
AcDbEntity
  8
AM_2
100
AcDbLine
 10
31.5
 20
288.5
 30
0.0
 11
31.5
 21
192.5
 31
0.0
  0
LINE
  5
1246B
330
1F
100
AcDbEntity
  8
AM_2
100
AcDbLine
 10
11.5
 20
280.5
 30
0.0
 11
123.5
 21
280.5
 31
0.0
  0
LINE
  5
1246C
330
1F
100
AcDbEntity
  8
AM_2
100
AcDbLine
 10
11.5
 20
272.5
 30
0.0
 11
123.5
 21
272.5
 31
0.0
  0
LINE
  5
1246D
330
1F
100
AcDbEntity
  8
AM_2
100
AcDbLine
 10
11.5
 20
264.5
 30
0.0
 11
123.5
 21
264.5
 31
0.0
  0
LINE
  5
1246E
330
1F
100
AcDbEntity
  8
AM_2
100
AcDbLine
 10
11.5
 20
256.5
 30
0.0
 11
123.5
 21
256.5
 31
0.0
  0
LINE
  5
1246F
330
1F
100
AcDbEntity
  8
AM_2
100
AcDbLine
 10
11.5
 20
240.5
 30
0.0
 11
123.5
 21
240.5
 31
0.0
  0
LINE
  5
12470
330
1F
100
AcDbEntity
  8
AM_2
100
AcDbLine
 10
31.5
 20
232.5
 30
0.0
 11
123.5
 21
232.5
 31
0.0
  0
LINE
  5
12471
330
1F
100
AcDbEntity
  8
AM_2
100
AcDbLine
 10
31.5
 20
224.5
 30
0.0
 11
123.5
 21
224.5
 31
0.0
  0
LINE
  5
12472
330
1F
100
AcDbEntity
  8
AM_2
100
AcDbLine
 10
31.5
 20
216.5
 30
0.0
 11
123.5
 21
216.5
 31
0.0
  0
LINE
  5
12473
330
1F
100
AcDbEntity
  8
AM_0
100
AcDbLine
 10
11.5
 20
288.5
 30
0.0
 11
11.5
 21
192.5
 31
0.0
  0
LINE
  5
12474
330
1F
100
AcDbEntity
  8
AM_0
100
AcDbLine
 10
11.5
 20
288.5
 30
0.0
 11
123.5
 21
288.5
 31
0.0
  0
LINE
  5
12475
330
1F
100
AcDbEntity
  8
AM_0
100
AcDbLine
 10
123.5
 20
288.5
 30
0.0
 11
123.5
 21
192.5
 31
0.0
  0
LINE
  5
12476
330
1F
100
AcDbEntity
  8
AM_0
100
AcDbLine
 10
11.5
 20
192.5
 30
0.0
 11
123.5
 21
192.5
 31
0.0
  0
TEXT
  5
12478
330
1F
100
AcDbEntity
  8
AM_6
100
AcDbText
 10
17.72849994897853
 20
282.9
 30
0.0
 40
3.2
  1
品　名
 41
0.7
100
AcDbText
  0
TEXT
  5
12479
330
1F
100
AcDbEntity
  8
AM_6
100
AcDbText
 10
17.72849994897853
 20
274.9
 30
0.0
 40
3.2
  1
品　番
 41
0.7
100
AcDbText
  0
TEXT
  5
1247A
330
1F
100
AcDbEntity
  8
AM_6
100
AcDbText
 10
34.72930469336876
 20
282.9
 30
0.0
 40
3.2
  1
丁番吊グレビティヒンジ
 41
0.7
100
AcDbText
  0
TEXT
  5
1247B
330
1F
100
AcDbEntity
  8
AM_6
100
AcDbText
 10
17.72849994897853
 20
266.9
 30
0.0
 40
3.2
  1
材　質
 41
0.7
100
AcDbText
  0
TEXT
  5
1247C
330
1F
100
AcDbEntity
  8
AM_6
100
AcDbText
 10
17.72849994897853
 20
258.9
 30
0.0
 40
3.2
  1
仕上げ
 41
0.7
100
AcDbText
  0
TEXT
  5
1247D
330
1F
100
AcDbEntity
  8
AM_6
100
AcDbText
 10
14.52849990129482
 20
250.9
 30
0.0
 40
3.2
  1
セットビス
 41
0.7
100
AcDbText
  0
TEXT
  5
1247E
330
1F
100
AcDbEntity
  8
AM_6
100
AcDbText
 10
34.9284999966622
 20
250.9
 30
0.0
 40
3.2
  1
13mm用：M5×10六角穴付ボタンボルト SUS：8本
 41
0.7
100
AcDbText
  0
TEXT
  5
1247F
330
1F
100
AcDbEntity
  8
AM_6
100
AcDbText
 10
34.9284999966622
 20
258.9
 30
0.0
 40
3.2
  1
ヘアーライン
 41
0.7
100
AcDbText
  0
TEXT
  5
12480
330
1F
100
AcDbEntity
  8
AM_6
100
AcDbText
 10
19.32849997282039
 20
234.9
 30
0.0
 40
3.2
  1
備考
 41
0.7
100
AcDbText
  0
TEXT
  5
12481
330
1F
100
AcDbEntity
  8
AM_6
100
AcDbText
 10
34.9284999966622
 20
266.9
 30
0.0
 40
3.2
  1
ステンレス
 41
0.7
100
AcDbText
  0
TEXT
  5
12482
330
1F
100
AcDbEntity
  8
AM_6
100
AcDbText
 10
34.9284999966622
 20
274.9
 30
0.0
 40
3.2
  1
LHR-71TN
 41
0.7
100
AcDbText
  0
TEXT
  5
12483
330
1F
100
AcDbEntity
  8
AM_6
100
AcDbText
 10
34.18339725200065
 20
234.9
 30
0.0
 40
3.2
  1
ドア閉止位置は閉止、開放45°、90°の組替ができます。
 41
0.7
100
AcDbText
  0
TEXT
  5
12484
330
1F
100
AcDbEntity
  8
AM_6
100
AcDbText
 10
34.20292176667579
 20
226.9
 30
0.0
 40
3.2
  1
ドアは静止位置より90°回転で約4.5mmせり上がります。
 41
0.7
100
AcDbText
  0
TEXT
  5
12485
330
1F
100
AcDbEntity
  8
AM_6
100
AcDbText
 10
34.9284999966622
 20
202.9
 30
0.0
 40
3.2
  1
適用扉重量：20kg
 41
0.7
100
AcDbText
  0
TEXT
  5
12486
330
1F
100
AcDbEntity
  8
AM_6
100
AcDbText
 10
34.9284999966622
 20
194.9
 30
0.0
 40
3.2
  1
図は左勝手です。
 41
0.7
100
AcDbText
  0
LINE
  5
124CB
330
1F
100
AcDbEntity
  8
AM_2
100
AcDbLine
 10
31.5
 20
208.5
 30
0.0
 11
123.5
 21
208.5
 31
0.0
  0
LINE
  5
124CC
330
1F
100
AcDbEntity
  8
AM_2
100
AcDbLine
 10
31.5
 20
200.5
 30
0.0
 11
123.5
 21
200.5
 31
0.0
  0
TEXT
  5
124CD
330
1F
100
AcDbEntity
  8
AM_6
100
AcDbText
 10
34.18339725200065
 20
210.9
 30
0.0
 40
3.2
  1
上記以外のパネル厚も取付可能です。（ビス選定一覧表参照）
 41
0.7
100
AcDbText
  0
LINE
  5
1277E
330
1F
100
AcDbEntity
  8
AM_7
 48
0.8
100
AcDbLine
 10
259.6618804695015
 20
79.30457336466119
 30
0.0
 11
259.6618804695015
 21
64.80458036466117
 31
0.0
  0
LINE
  5
1277F
330
1F
100
AcDbEntity
  8
AM_7
 48
0.8
100
AcDbLine
 10
204.6618954695015
 20
79.30457336466119
 30
0.0
 11
204.6618954695015
 21
64.80458036466117
 31
0.0
  0
LINE
  5
1284B
330
1F
100
AcDbEntity
  8
AM_2
100
AcDbLine
 10
142.6569203578071
 20
230.357014516589
 30
0.0
 11
142.6569203578071
 21
231.6570185165891
 31
0.0
  0
LINE
  5
1284C
330
1F
100
AcDbEntity
  8
AM_0
100
AcDbLine
 10
143.8604603578071
 20
232.352208516589
 30
0.0
 11
144.4569203578071
 21
231.9070105165891
 31
0.0
  0
LINE
  5
1284D
330
1F
100
AcDbEntity
  8
AM_2
100
AcDbLine
 10
179.2569103578071
 20
230.357014516589
 30
0.0
 11
179.2569103578071
 21
231.6570185165891
 31
0.0
  0
LINE
  5
1284E
330
1F
100
AcDbEntity
  8
AM_2
100
AcDbLine
 10
130.6569203578071
 20
231.6570185165891
 30
0.0
 11
142.6569203578071
 21
231.6570185165891
 31
0.0
  0
LINE
  5
1284F
330
1F
100
AcDbEntity
  8
AM_2
100
AcDbLine
 10
143.2569103578071
 20
231.6570185165891
 30
0.0
 11
143.2569103578071
 21
230.357014516589
 31
0.0
  0
LINE
  5
12850
330
1F
100
AcDbEntity
  8
AM_2
100
AcDbLine
 10
143.2569103578071
 20
231.6570185165891
 30
0.0
 11
179.2569103578071
 21
231.6570185165891
 31
0.0
  0
LINE
  5
12851
330
1F
100
AcDbEntity
  8
AM_0
100
AcDbLine
 10
252.8887111522008
 20
232.150727516589
 30
0.0
 11
252.2272391522008
 21
231.6570145165891
 31
0.0
  0
LINE
  5
12852
330
1F
100
AcDbEntity
  8
AM_0
100
AcDbLine
 10
253.9177721522008
 20
232.3856905165891
 30
0.0
 11
254.8940331522008
 21
231.657021516589
 31
0.0
  0
LINE
  5
12853
330
1F
100
AcDbEntity
  8
AM_0
100
AcDbLine
 10
252.0606401522008
 20
231.9070185165891
 30
0.0
 11
249.5606401522008
 21
231.9070185165891
 31
0.0
  0
LINE
  5
12854
330
1F
100
AcDbEntity
  8
AM_0
100
AcDbLine
 10
257.5606401522008
 20
231.9070185165891
 30
0.0
 11
257.5606401522008
 21
231.6570185165891
 31
0.0
  0
LINE
  5
12855
330
1F
100
AcDbEntity
  8
AM_0
100
AcDbLine
 10
252.2272501522008
 20
231.6570185165891
 30
0.0
 11
249.5606401522008
 21
231.6570185165891
 31
0.0
  0
LINE
  5
12856
330
1F
100
AcDbEntity
  8
AM_0
100
AcDbLine
 10
257.5606401522008
 20
231.9070185165891
 30
0.0
 11
255.0606401522008
 21
231.9070185165891
 31
0.0
  0
LINE
  5
12857
330
1F
100
AcDbEntity
  8
AM_0
100
AcDbLine
 10
249.5606401522008
 20
231.9070185165891
 30
0.0
 11
249.5606401522008
 21
231.6570185165891
 31
0.0
  0
LINE
  5
12858
330
1F
100
AcDbEntity
  8
AM_11
100
AcDbLine
 10
144.9014603578071
 20
233.3337875165891
 30
0.0
 11
146.6692203578072
 21
235.1015565165891
 31
0.0
  0
LINE
  5
12859
330
1F
100
AcDbEntity
  8
AM_11
100
AcDbLine
 10
144.1649203578071
 20
233.2268235165891
 30
0.0
 11
144.9014603578071
 21
233.3337875165891
 31
0.0
  0
LINE
  5
1285A
330
1F
100
AcDbEntity
  8
AM_11
100
AcDbLine
 10
144.1436003578071
 20
232.920579516589
 30
0.0
 11
144.9604503578071
 21
233.0392015165891
 31
0.0
  0
LINE
  5
1285B
330
1F
100
AcDbEntity
  8
0
  6
Continuous
 62
     7
100
AcDbLine
 10
146.9569103578071
 20
231.9070185165891
 30
0.0
 11
146.9569103578071
 21
231.6570185165891
 31
0.0
  0
LINE
  5
1285C
330
1F
100
AcDbEntity
  8
AM_0
100
AcDbLine
 10
138.9569103578071
 20
231.9070185165891
 30
0.0
 11
141.4569103578071
 21
231.9070185165891
 31
0.0
  0
LINE
  5
1285D
330
1F
100
AcDbEntity
  8
0
  6
Continuous
 62
     7
100
AcDbLine
 10
144.2903103578071
 20
231.6570185165891
 30
0.0
 11
146.9569103578071
 21
231.6570185165891
 31
0.0
  0
LINE
  5
1285E
330
1F
100
AcDbEntity
  8
AM_0
100
AcDbLine
 10
138.9569103578071
 20
231.9070185165891
 30
0.0
 11
138.9569103578071
 21
231.6570185165891
 31
0.0
  0
LINE
  5
1285F
330
1F
100
AcDbEntity
  8
0
  6
Continuous
 62
     7
100
AcDbLine
 10
144.4569103578071
 20
231.9070185165891
 30
0.0
 11
146.9569103578071
 21
231.9070185165891
 31
0.0
  0
LINE
  5
12860
330
1F
100
AcDbEntity
  8
AM_11
100
AcDbLine
 10
252.3739601522008
 20
232.9205835165891
 30
0.0
 11
251.5571151522008
 21
233.039204516589
 31
0.0
  0
LINE
  5
12861
330
1F
100
AcDbEntity
  8
AM_0
100
AcDbLine
 10
142.5997803578071
 20
232.385682516589
 30
0.0
 11
141.6235203578071
 21
231.6570105165891
 31
0.0
  0
LINE
  5
12862
330
1F
100
AcDbEntity
  8
AM_0
100
AcDbLine
 10
143.6288503578071
 20
232.1507235165891
 30
0.0
 11
144.290330357807
 21
231.6570105165891
 31
0.0
  0
LINE
  5
12863
330
1F
100
AcDbEntity
  8
AM_11
100
AcDbLine
 10
252.3526401522008
 20
233.226830516589
 30
0.0
 11
251.6160901522008
 21
233.3337915165891
 31
0.0
  0
LINE
  5
12864
330
1F
100
AcDbEntity
  8
AM_11
100
AcDbLine
 10
251.6160901522008
 20
233.3337915165891
 30
0.0
 11
249.8483211522008
 21
235.1015565165891
 31
0.0
  0
LINE
  5
12865
330
1F
100
AcDbEntity
  8
AM_2
100
AcDbLine
 10
180.2569103578071
 20
230.357014516589
 30
0.0
 11
180.2569103578071
 21
231.6570185165891
 31
0.0
  0
LINE
  5
12866
330
1F
100
AcDbEntity
  8
AM_0
100
AcDbLine
 10
257.5606401522008
 20
231.6570185165891
 30
0.0
 11
254.8940441522008
 21
231.6570185165891
 31
0.0
  0
LINE
  5
12867
330
1F
100
AcDbEntity
  8
AM_11
100
AcDbLine
 10
225.9127521522008
 20
256.8450905165891
 30
0.0
 11
226.8319941522008
 21
257.7643335165891
 31
0.0
  0
LINE
  5
12868
330
1F
100
AcDbEntity
  8
AM_11
100
AcDbLine
 10
252.2878391522008
 20
232.3084885165891
 30
0.0
 11
226.8319941522008
 21
257.7643335165891
 31
0.0
  0
LINE
  5
12869
330
1F
100
AcDbEntity
  8
AM_0
100
AcDbLine
 10
142.343430357807
 20
232.5686815165891
 30
0.0
 11
141.4569203578071
 21
231.9070025165891
 31
0.0
  0
LINE
  5
1286A
330
1F
100
AcDbEntity
  8
AM_2
100
AcDbLine
 10
180.2569103578071
 20
231.6570185165891
 30
0.0
 11
192.2569303578071
 21
231.6570185165891
 31
0.0
  0
LINE
  5
1286B
330
1F
100
AcDbEntity
  8
AM_11
100
AcDbLine
 10
145.1489434305547
 20
231.3892464438247
 30
0.0
 11
144.2297103578071
 21
232.3084845165891
 31
0.0
  0
LINE
  5
1286C
330
1F
100
AcDbEntity
  8
AM_0
100
AcDbLine
 10
254.1741311522008
 20
232.5687005165891
 30
0.0
 11
255.0606401522008
 21
231.907021516589
 31
0.0
  0
LINE
  5
1286D
330
1F
100
AcDbEntity
  8
AM_2
100
AcDbLine
 10
253.2606521522008
 20
231.6570185165891
 30
0.0
 11
253.2606521522008
 21
230.357014516589
 31
0.0
  0
LINE
  5
1286E
330
1F
100
AcDbEntity
  8
AM_11
100
AcDbLine
 10
251.3685999230991
 20
231.3892452874863
 30
0.0
 11
252.2878391522008
 21
232.3084885165891
 31
0.0
  0
LINE
  5
1286F
330
1F
100
AcDbEntity
  8
AM_2
100
AcDbLine
 10
253.8606431522008
 20
230.357014516589
 30
0.0
 11
253.8606431522008
 21
231.6570185165891
 31
0.0
  0
LINE
  5
12870
330
1F
100
AcDbEntity
  8
AM_2
100
AcDbLine
 10
216.2606521522008
 20
231.6570185165891
 30
0.0
 11
204.2606371522008
 21
231.6570185165891
 31
0.0
  0
LINE
  5
12871
330
1F
100
AcDbEntity
  8
AM_2
100
AcDbLine
 10
253.2606521522008
 20
231.6570185165891
 30
0.0
 11
217.2606521522008
 21
231.6570185165891
 31
0.0
  0
LINE
  5
12872
330
1F
100
AcDbEntity
  8
AM_2
100
AcDbLine
 10
265.8606201522008
 20
231.6570185165891
 30
0.0
 11
253.8606431522008
 21
231.6570185165891
 31
0.0
  0
LINE
  5
12873
330
1F
100
AcDbEntity
  8
AM_2
100
AcDbLine
 10
216.2606521522008
 20
230.357014516589
 30
0.0
 11
216.2606521522008
 21
231.6570185165891
 31
0.0
  0
LINE
  5
12874
330
1F
100
AcDbEntity
  8
AM_11
100
AcDbLine
 10
170.6047803578071
 20
256.845094516589
 30
0.0
 11
169.6855503578071
 21
257.764329516589
 31
0.0
  0
LINE
  5
12875
330
1F
100
AcDbEntity
  8
AM_2
100
AcDbLine
 10
217.2606521522008
 20
230.357014516589
 30
0.0
 11
217.2606521522008
 21
231.6570185165891
 31
0.0
  0
LINE
  5
12876
330
1F
100
AcDbEntity
  8
AM_11
100
AcDbLine
 10
144.2297103578071
 20
232.3084845165891
 30
0.0
 11
169.6855503578071
 21
257.764329516589
 31
0.0
  0
LINE
  5
12877
330
1F
100
AcDbEntity
  8
AM_11
100
AcDbLine
 10
249.8483211522008
 20
235.1015565165891
 30
0.0
 11
249.6715481522008
 21
234.924779516589
 31
0.0
  0
LINE
  5
12878
330
1F
100
AcDbEntity
  8
AM_0
100
AcDbLine
 10
138.9569103578071
 20
231.6570185165891
 30
0.0
 11
141.6235203578071
 21
231.6570185165891
 31
0.0
  0
LINE
  5
12879
330
1F
100
AcDbEntity
  8
AM_0
100
AcDbLine
 10
252.6570981522008
 20
232.3521895165891
 30
0.0
 11
252.0606441522008
 21
231.9070025165891
 31
0.0
  0
LINE
  5
1287A
330
1F
100
AcDbEntity
  8
AM_11
100
AcDbLine
 10
146.6692203578072
 20
235.1015565165891
 30
0.0
 11
146.8460103578071
 21
234.924779516589
 31
0.0
  0
LINE
  5
1287B
330
1F
100
AcDbEntity
  8
AM_11
100
AcDbLine
 10
144.9604303578071
 20
233.0392125165891
 30
0.0
 11
146.8460103578071
 21
234.924779516589
 31
0.0
  0
LINE
  5
1287C
330
1F
100
AcDbEntity
  8
AM_0
100
AcDbLine
 10
257.5606401522008
 20
230.157018516589
 30
0.0
 11
255.0606401522008
 21
230.157018516589
 31
0.0
  0
LINE
  5
1287D
330
1F
100
AcDbEntity
  8
AM_0
100
AcDbLine
 10
255.0606401522008
 20
230.357014516589
 30
0.0
 11
255.0606401522008
 21
230.157018516589
 31
0.0
  0
LINE
  5
1287E
330
1F
100
AcDbEntity
  8
AM_0
100
AcDbLine
 10
257.5606401522008
 20
230.357014516589
 30
0.0
 11
257.5606401522008
 21
230.157018516589
 31
0.0
  0
LINE
  5
1287F
330
1F
100
AcDbEntity
  8
AM_0
100
AcDbLine
 10
257.5606401522008
 20
230.357014516589
 30
0.0
 11
255.0606401522008
 21
230.357014516589
 31
0.0
  0
LINE
  5
12880
330
1F
100
AcDbEntity
  8
AM_0
100
AcDbLine
 10
249.5606401522008
 20
230.157018516589
 30
0.0
 11
252.0606401522008
 21
230.157018516589
 31
0.0
  0
LINE
  5
12881
330
1F
100
AcDbEntity
  8
AM_0
100
AcDbLine
 10
249.5606401522008
 20
230.357014516589
 30
0.0
 11
249.5606401522008
 21
230.157018516589
 31
0.0
  0
LINE
  5
12882
330
1F
100
AcDbEntity
  8
AM_0
100
AcDbLine
 10
252.0606401522008
 20
230.357014516589
 30
0.0
 11
252.0606401522008
 21
230.157018516589
 31
0.0
  0
LINE
  5
12883
330
1F
100
AcDbEntity
  8
AM_0
100
AcDbLine
 10
249.5606401522008
 20
230.357014516589
 30
0.0
 11
252.0606401522008
 21
230.357014516589
 31
0.0
  0
LINE
  5
12884
330
1F
100
AcDbEntity
  8
0
  6
Continuous
 62
     7
100
AcDbLine
 10
146.9569103578071
 20
230.157018516589
 30
0.0
 11
144.4569103578071
 21
230.157018516589
 31
0.0
  0
LINE
  5
12885
330
1F
100
AcDbEntity
  8
0
  6
Continuous
 62
     7
100
AcDbLine
 10
144.4569103578071
 20
230.357014516589
 30
0.0
 11
144.4569103578071
 21
230.157018516589
 31
0.0
  0
LINE
  5
12886
330
1F
100
AcDbEntity
  8
0
  6
Continuous
 62
     7
100
AcDbLine
 10
146.9569103578071
 20
230.357014516589
 30
0.0
 11
144.4569103578071
 21
230.357014516589
 31
0.0
  0
LINE
  5
12887
330
1F
100
AcDbEntity
  8
0
  6
Continuous
 62
     7
100
AcDbLine
 10
146.9569103578071
 20
230.357014516589
 30
0.0
 11
146.9569103578071
 21
230.157018516589
 31
0.0
  0
LINE
  5
12888
330
1F
100
AcDbEntity
  8
0
  6
Continuous
 62
     7
100
AcDbLine
 10
138.9569103578071
 20
230.157018516589
 30
0.0
 11
141.4569103578071
 21
230.157018516589
 31
0.0
  0
LINE
  5
12889
330
1F
100
AcDbEntity
  8
0
  6
Continuous
 62
     7
100
AcDbLine
 10
138.9569103578071
 20
230.357014516589
 30
0.0
 11
138.9569103578071
 21
230.157018516589
 31
0.0
  0
LINE
  5
1288A
330
1F
100
AcDbEntity
  8
0
  6
Continuous
 62
     7
100
AcDbLine
 10
141.4569103578071
 20
230.357014516589
 30
0.0
 11
141.4569103578071
 21
230.157018516589
 31
0.0
  0
LINE
  5
1288B
330
1F
100
AcDbEntity
  8
0
  6
Continuous
 62
     7
100
AcDbLine
 10
138.9569103578071
 20
230.357014516589
 30
0.0
 11
141.4569103578071
 21
230.357014516589
 31
0.0
  0
LINE
  5
1288C
330
1F
100
AcDbEntity
  8
AM_2
100
AcDbLine
 10
130.6569203578071
 20
230.357014516589
 30
0.0
 11
142.6569203578071
 21
230.357014516589
 31
0.0
  0
LINE
  5
1288D
330
1F
100
AcDbEntity
  8
AM_2
100
AcDbLine
 10
265.8606201522008
 20
230.357014516589
 30
0.0
 11
253.8606431522008
 21
230.357014516589
 31
0.0
  0
LINE
  5
1288E
330
1F
100
AcDbEntity
  8
AM_2
100
AcDbLine
 10
253.2606521522008
 20
230.357014516589
 30
0.0
 11
217.2606521522008
 21
230.357014516589
 31
0.0
  0
LINE
  5
1288F
330
1F
100
AcDbEntity
  8
AM_2
100
AcDbLine
 10
216.2606521522008
 20
230.357014516589
 30
0.0
 11
204.2606371522008
 21
230.357014516589
 31
0.0
  0
LINE
  5
12890
330
1F
100
AcDbEntity
  8
AM_2
100
AcDbLine
 10
143.2569103578071
 20
230.357014516589
 30
0.0
 11
179.2569103578071
 21
230.357014516589
 31
0.0
  0
LINE
  5
12891
330
1F
100
AcDbEntity
  8
AM_2
100
AcDbLine
 10
180.2569103578071
 20
230.357014516589
 30
0.0
 11
192.2569303578071
 21
230.357014516589
 31
0.0
  0
LINE
  5
12892
330
1F
100
AcDbEntity
  8
AM_11
100
AcDbLine
 10
251.3685999230991
 20
231.3892452874863
 30
0.0
 11
225.9127671522008
 21
256.8450825165891
 31
0.0
  0
LINE
  5
12893
330
1F
100
AcDbEntity
  8
AM_11
100
AcDbLine
 10
248.6108871522008
 20
233.8641175165891
 30
0.0
 11
250.3786561522008
 21
232.0963525165891
 31
0.0
  0
LINE
  5
12894
330
1F
100
AcDbEntity
  8
AM_11
100
AcDbLine
 10
248.7523051522008
 20
234.0055405165891
 30
0.0
 11
248.6108871522008
 21
233.8641175165891
 31
0.0
  0
LINE
  5
12895
330
1F
100
AcDbEntity
  8
AM_11
100
AcDbLine
 10
250.5200741522008
 20
232.237771516589
 30
0.0
 11
250.3786561522008
 21
232.0963525165891
 31
0.0
  0
LINE
  5
12897
330
1F
100
AcDbEntity
  8
AM_11
100
AcDbLine
 10
147.9066603578071
 20
233.8641175165891
 30
0.0
 11
146.1389003578071
 21
232.0963525165891
 31
0.0
  0
LINE
  5
12898
330
1F
100
AcDbEntity
  8
AM_11
100
AcDbLine
 10
145.9974703578071
 20
232.2377755165891
 30
0.0
 11
146.1389003578071
 21
232.0963525165891
 31
0.0
  0
LINE
  5
1289A
330
1F
100
AcDbEntity
  8
AM_11
100
AcDbLine
 10
147.7652403578071
 20
234.0055445165891
 30
0.0
 11
147.9066603578071
 21
233.8641175165891
 31
0.0
  0
LINE
  5
1289B
330
1F
100
AcDbEntity
  8
AM_11
100
AcDbLine
 10
145.1489434305547
 20
231.3892464438247
 30
0.0
 11
170.6047803578071
 21
256.845094516589
 31
0.0
  0
LINE
  5
1289C
330
1F
100
AcDbEntity
  8
AM_2
100
AcDbLine
 10
166.4569203578071
 20
222.6570105165891
 30
0.0
 11
164.4569203578071
 21
222.6570105165891
 31
0.0
  0
LINE
  5
1289D
330
1F
100
AcDbEntity
  8
AM_2
100
AcDbLine
 10
164.4569203578071
 20
214.6570105165891
 30
0.0
 11
158.4569203578071
 21
214.6570105165891
 31
0.0
  0
LINE
  5
1289E
330
1F
100
AcDbEntity
  8
AM_2
100
AcDbLine
 10
164.4569203578071
 20
214.6570105165891
 30
0.0
 11
164.4569203578071
 21
222.6570105165891
 31
0.0
  0
LINE
  5
1289F
330
1F
100
AcDbEntity
  8
AM_2
100
AcDbLine
 10
161.4569203578071
 20
227.6570185165891
 30
0.0
 11
166.4569203578071
 21
222.6570185165891
 31
0.0
  0
LINE
  5
128A0
330
1F
100
AcDbEntity
  8
AM_2
100
AcDbLine
 10
156.4569203578071
 20
222.6570105165891
 30
0.0
 11
161.4569203578071
 21
227.6570185165891
 31
0.0
  0
LINE
  5
128A1
330
1F
100
AcDbEntity
  8
AM_2
100
AcDbLine
 10
158.4569203578071
 20
214.6570105165891
 30
0.0
 11
158.4569203578071
 21
222.6570105165891
 31
0.0
  0
LINE
  5
128A2
330
1F
100
AcDbEntity
  8
AM_2
100
AcDbLine
 10
158.4569203578071
 20
222.6570105165891
 30
0.0
 11
156.4569203578071
 21
222.6570105165891
 31
0.0
  0
LINE
  5
128A3
330
1F
100
AcDbEntity
  8
AM_2
100
AcDbLine
 10
238.0606401522008
 20
214.6570105165891
 30
0.0
 11
238.0606401522008
 21
222.6570105165891
 31
0.0
  0
LINE
  5
128A4
330
1F
100
AcDbEntity
  8
AM_2
100
AcDbLine
 10
232.0606401522008
 20
214.6570105165891
 30
0.0
 11
232.0606401522008
 21
222.6570105165891
 31
0.0
  0
LINE
  5
128A5
330
1F
100
AcDbEntity
  8
AM_2
100
AcDbLine
 10
238.0606401522008
 20
222.6570105165891
 30
0.0
 11
240.0606401522008
 21
222.6570105165891
 31
0.0
  0
LINE
  5
128A6
330
1F
100
AcDbEntity
  8
AM_2
100
AcDbLine
 10
230.0606401522008
 20
222.6570105165891
 30
0.0
 11
232.0606401522008
 21
222.6570105165891
 31
0.0
  0
LINE
  5
128A7
330
1F
100
AcDbEntity
  8
AM_2
100
AcDbLine
 10
232.0606401522008
 20
214.6570105165891
 30
0.0
 11
238.0606401522008
 21
214.6570105165891
 31
0.0
  0
LINE
  5
128A8
330
1F
100
AcDbEntity
  8
AM_2
100
AcDbLine
 10
235.0606471522008
 20
227.6570185165891
 30
0.0
 11
230.0606401522008
 21
222.6570185165891
 31
0.0
  0
LINE
  5
128A9
330
1F
100
AcDbEntity
  8
AM_2
100
AcDbLine
 10
240.0606471522008
 20
222.6570185165891
 30
0.0
 11
235.0606471522008
 21
227.6570185165891
 31
0.0
  0
ARC
  5
128AA
330
1F
100
AcDbEntity
  8
AM_0
100
AcDbCircle
 10
142.9569103578071
 20
233.1570185165891
 30
0.0
 40
0.8500000199999997
100
AcDbArc
 50
0.0
 51
358.314500000001
  0
ARC
  5
128AB
330
1F
100
AcDbEntity
  8
AM_0
100
AcDbCircle
 10
142.9569103578071
 20
233.1570185165891
 30
0.0
 40
1.209999999999998
100
AcDbArc
 50
0.0
 51
221.6925800000003
  0
ARC
  5
128AC
330
1F
100
AcDbEntity
  8
AM_0
100
AcDbCircle
 10
253.5606401522008
 20
233.1570185165891
 30
0.0
 40
1.209999999999998
100
AcDbArc
 50
180.0
 51
303.7322500000001
  0
ARC
  5
128AD
330
1F
100
AcDbEntity
  8
AM_0
100
AcDbCircle
 10
142.9569103578071
 20
233.1570185165891
 30
0.0
 40
1.209999999999998
100
AcDbArc
 50
236.2680500000004
 51
0.0
  0
ARC
  5
128AE
330
1F
100
AcDbEntity
  8
AM_0
100
AcDbCircle
 10
253.5606401522008
 20
233.1570185165891
 30
0.0
 40
1.209999999999998
100
AcDbArc
 50
318.3075400000003
 51
180.0
  0
ARC
  5
128AF
330
1F
100
AcDbEntity
  8
AM_0
100
AcDbCircle
 10
253.5606401522008
 20
233.1570185165891
 30
0.0
 40
0.8500000199999997
100
AcDbArc
 50
181.6855200000008
 51
180.0
  0
TEXT
  5
128B0
330
1F
100
AcDbEntity
  8
AM_6
100
AcDbText
 10
156.7063324591537
 20
264.418620881972
 30
0.0
 40
4.0
  1
丁番吊グレビティヒンジ　左右勝手決定方法
 41
0.8423746600000001
100
AcDbText
  0
TEXT
  5
128B1
330
1F
100
AcDbEntity
  8
AM_6
100
AcDbText
 10
131.4692653932164
 20
254.1749225165891
 30
0.0
 40
3.2
  1
左勝手
 41
0.85537027
100
AcDbText
  0
TEXT
  5
128B2
330
1F
100
AcDbEntity
  8
AM_6
100
AcDbText
 10
144.3139103578071
 20
208.8279366648661
 30
0.0
 40
3.2
  1
ドアを押す側から見た時に吊元が左側（右側）の場合は左勝手（右勝手）となります。
 41
0.8413729699999999
100
AcDbText
  0
TEXT
  5
128B3
330
1F
100
AcDbEntity
  8
AM_6
100
AcDbText
 10
144.3139103578071
 20
203.4779535729985
 30
0.0
 40
3.2
  1
（通常の丁番の勝手とは逆になります。）
 41
0.84248387
100
AcDbText
  0
TEXT
  5
128CA
330
1F
100
AcDbEntity
  8
AM_6
100
AcDbText
 10
257.3329502769512
 20
254.1749225165891
 30
0.0
 40
3.2
  1
右勝手
 41
0.85537027
100
AcDbText
  0
LINE
  5
12AD2
330
1F
100
AcDbEntity
  8
AM_5
100
AcDbLine
 10
181.5868891868103
 20
142.3287707962451
 30
0.0
 11
195.803555853477
 21
142.3287707962451
 31
0.0
  0
LINE
  5
12AD3
330
1F
100
AcDbEntity
  8
AM_5
100
AcDbLine
 10
195.803555853477
 20
142.3287707962451
 30
0.0
 11
200.5806856252006
 21
136.788098408584
 31
0.0
  0
MTEXT
  5
12AD4
102
{ACAD_XDICTIONARY
360
13E3E
102
}
330
1F
100
AcDbEntity
  8
AM_5
 62
     2
100
AcDbMText
 10
187.9452225201436
 20
145.5787707962451
 30
0.0
 40
3.5
 41
0.0
 71
     5
 72
     1
  1
4-\U+22058.5
 73
     1
 44
1.0
  0
LINE
  5
12AD5
330
1F
100
AcDbEntity
  8
AM_5
100
AcDbLine
 10
207.4371181636261
 20
128.8357822147936
 30
0.0
 11
201.8866727753769
 21
135.2733715145287
 31
0.0
  0
LWPOLYLINE
  5
12AD6
330
1F
100
AcDbEntity
  8
AM_5
100
AcDbPolyline
 90
        2
 70
     1
 43
0.5
 10
207.6003665573981
 20
128.6464413530367
 42
1.0
 10
207.2738697698541
 20
129.0251230765506
 42
1.0
  0
INSERT
  5
12AD7
330
1F
100
AcDbEntity
  8
AM_5
100
AcDbBlockReference
  2
GENDOT
 10
201.8866727753769
 20
135.2733715145287
 30
0.0
 41
2.000000000000013
 42
2.0
 43
2.0
 50
310.7676867094274
  0
DIMENSION
  5
12B53
330
1F
100
AcDbEntity
  8
AM_5
100
AcDbDimension
  2
*D12
 10
303.1239419749017
 20
160.554574374661
 30
0.0
 11
309.3739399749016
 21
163.654574374661
 31
0.0
 70
    32
 71
     5
 42
12.49999600000001
  3
SYS$0
100
AcDbAlignedDimension
 13
315.6239379749016
 23
138.2545733646612
 33
0.0
 14
303.1239419749017
 24
143.5545733646612
 34
0.0
100
AcDbRotatedDimension
1001
ACAD_DSTYLE_DIMINSPECT
1070
   396
1000
100%
1070
   395
1000

1070
   394
1070
    33
1070
   393
1070
     0
  0
DIMENSION
  5
12B7B
330
1F
100
AcDbEntity
  8
AM_5
100
AcDbDimension
  2
*D13
 10
383.1239559749016
 20
170.554574374661
 30
0.0
 11
343.1239489749016
 21
173.654574374661
 31
0.0
 70
    32
 71
     5
 42
80.00001399999996
  3
SYS$0
100
AcDbAlignedDimension
 13
303.1239419749017
 23
143.5545733646612
 33
0.0
 14
383.1239559749016
 24
143.5545733646612
 34
0.0
100
AcDbRotatedDimension
1001
ACAD_DSTYLE_DIMINSPECT
1070
   396
1000
100%
1070
   395
1000

1070
   394
1070
    33
1070
   393
1070
     0
  0
DIMENSION
  5
12B9A
330
1F
100
AcDbEntity
  8
AM_5
100
AcDbDimension
  2
*D14
 10
383.1239559749016
 20
160.554574374661
 30
0.0
 11
370.6239559749016
 21
163.654574374661
 31
0.0
 70
    32
 71
     5
 42
25.0
  3
SYS$0
100
AcDbAlignedDimension
 13
358.1239559749016
 23
146.5545733646612
 33
0.0
 14
383.1239559749016
 24
143.5545733646612
 34
0.0
100
AcDbRotatedDimension
1001
ACAD_DSTYLE_DIMINSPECT
1070
   396
1000
100%
1070
   395
1000

1070
   394
1070
    33
1070
   393
1070
     0
  0
DIMENSION
  5
12BB9
330
1F
100
AcDbEntity
  8
AM_5
100
AcDbDimension
  2
*D15
 10
395.1239569849016
 20
57.55457336466119
 30
0.0
 11
392.0239569849016
 21
102.0545733646612
 31
0.0
 70
    32
 71
     5
 42
89.0
  3
SYS$0
100
AcDbAlignedDimension
 13
380.1239559749016
 23
146.5545733646612
 33
0.0
 14
380.1239559749016
 24
57.55457336466119
 34
0.0
 50
90.0
100
AcDbRotatedDimension
1001
ACAD_DSTYLE_DIMINSPECT
1070
   396
1000
100%
1070
   395
1000

1070
   394
1070
    33
1070
   393
1070
     0
  0
DIMENSION
  5
12BE1
330
1F
100
AcDbEntity
  8
AM_5
100
AcDbDimension
  2
*D16
 10
291.1239409749017
 20
72.05457336466119
 30
0.0
 11
288.0239409749016
 21
102.0545733646612
 31
0.0
 70
    32
 71
     5
 42
59.99999999999999
  3
SYS$0
100
AcDbAlignedDimension
 13
309.4239379749016
 23
132.0545733646612
 33
0.0
 14
309.4239379749016
 24
72.05457336466119
 34
0.0
 50
90.0
100
AcDbRotatedDimension
1001
ACAD_DSTYLE_DIMINSPECT
1070
   396
1000
100%
1070
   395
1000

1070
   394
1070
    33
1070
   393
1070
     0
  0
DIMENSION
  5
12C30
330
1F
100
AcDbEntity
  8
AM_5
100
AcDbDimension
  2
*D17
 10
291.1239569749017
 20
223.2048360263029
 30
0.0
 11
288.0239569749016
 21
217.3581693596362
 31
0.0
 70
    32
 71
     5
 42
2.5
  3
SYS$0
100
AcDbAlignedDimension
 13
303.1239569749017
 23
225.7048360263029
 33
0.0
 14
303.1239569749017
 24
223.2048360263029
 34
0.0
 50
90.0
100
AcDbRotatedDimension
1001
ACAD_DSTYLE_DIMINSPECT
1070
   396
1000
100%
1070
   395
1000

1070
   394
1070
    33
1070
   393
1070
     0
1001
ACAD
1000
DSTYLE
1002
{
1070
    75
1070
     1
1002
}
  0
LINE
  5
12EA9
330
1F
100
AcDbEntity
  8
AM_0
100
AcDbLine
 10
331.7350119867227
 20
224.7508326049723
 30
0.0
 11
338.3041869528557
 21
217.7062549206009
 31
0.0
  0
LINE
  5
12EAA
330
1F
100
AcDbEntity
  8
AM_0
100
AcDbLine
 10
330.0548983960072
 20
222.8868358848502
 30
0.0
 11
336.1312677653935
 21
216.3707275025434
 31
0.0
  0
ARC
  5
12EAB
330
1F
100
AcDbEntity
  8
AM_0
 48
0.5
100
AcDbCircle
 10
329.5409508818632
 20
222.7048375247863
 30
0.0
 40
3.0
100
AcDbArc
 50
42.99999999994175
 51
90.0
1001
GENIUS_GENODEF_13
1002
{
1000
HIER
1070
     0
1002
}
1002
{
1000
MANEDIT
1070
     0
1002
}
1002
{
1000
NOSEL
1070
     0
1002
}
1002
{
1000
BEHIND
1070
     0
1002
}
1002
{
1000
OTHER
1070
     0
1002
}
1002
{
1000
REACTOR
1002
}
1001
GENIUS_GENOBJ-N-FIL_13
1002
{
1000
OWNER
1000
GEN
1002
}
  0
ARC
  5
12EAC
330
1F
100
AcDbEntity
  8
AM_0
100
AcDbCircle
 10
329.3235446943857
 20
222.2048375247881
 30
0.0
 40
1.0
100
AcDbArc
 50
42.99999999994175
 51
90.0
1001
GENIUS_GENODEF_13
1002
{
1000
HIER
1070
     0
1002
}
1002
{
1000
MANEDIT
1070
     0
1002
}
1002
{
1000
NOSEL
1070
     0
1002
}
1002
{
1000
BEHIND
1070
     0
1002
}
1002
{
1000
OTHER
1070
     0
1002
}
1002
{
1000
REACTOR
1002
}
1001
GENIUS_GENOBJ-N-FIL_13
1002
{
1000
OWNER
1000
GEN
1002
}
  0
LINE
  5
12EAE
330
1F
100
AcDbEntity
  8
AM_0
100
AcDbLine
 10
356.1930115537962
 20
222.8868358848501
 30
0.0
 11
352.2118910500165
 21
218.6176068257431
 31
0.0
  0
ARC
  5
12EB0
330
1F
100
AcDbEntity
  8
AM_0
100
AcDbCircle
 10
356.9243652554176
 20
222.2048375247881
 30
0.0
 40
1.0
100
AcDbArc
 50
90.0
 51
137.0000000000561
1001
GENIUS_GENODEF_13
1002
{
1000
HIER
1070
     0
1002
}
1002
{
1000
MANEDIT
1070
     0
1002
}
1002
{
1000
NOSEL
1070
     0
1002
}
1002
{
1000
BEHIND
1070
     0
1002
}
1002
{
1000
OTHER
1070
     0
1002
}
1002
{
1000
REACTOR
1002
}
1001
GENIUS_GENOBJ-N-FIL_13
1002
{
1000
OWNER
1000
GEN
1002
}
  0
LINE
  5
12EB1
330
1F
100
AcDbEntity
  8
AM_0
100
AcDbLine
 10
338.2258139390119
 20
199.6405626761311
 30
0.0
 11
339.8391971911889
 21
202.3256784935389
 31
0.0
  0
LINE
  5
12EB2
330
1F
100
AcDbEntity
  8
AM_0
100
AcDbLine
 10
335.654320999458
 20
201.1856828005661
 30
0.0
 11
337.2676970271594
 21
203.870790820093
 31
0.0
  0
LINE
  5
12EB3
330
1F
100
AcDbEntity
  8
AM_0
100
AcDbLine
 10
348.0790577357451
 20
203.1917227347704
 30
0.0
 11
350.2154506680433
 21
200.9007242756492
 31
0.0
  0
LINE
  5
12EB4
330
1F
100
AcDbEntity
  8
AM_0
100
AcDbLine
 10
350.2731244968135
 20
205.2377163285942
 30
0.0
 11
352.4095104674583
 21
202.9467171377739
 31
0.0
  0
LINE
  5
12EB5
330
1F
100
AcDbEntity
  8
AM_0
100
AcDbLine
 10
331.0262680608435
 20
210.9415803666147
 30
0.0
 11
334.1416526515699
 21
211.2690204815814
 31
0.0
  0
LINE
  5
12EB6
330
1F
100
AcDbEntity
  8
AM_0
100
AcDbLine
 10
331.3398534506465
 20
207.9580146805098
 30
0.0
 11
334.4552380413729
 21
208.2854547954766
 31
0.0
  0
LINE
  5
12EB7
330
1F
100
AcDbEntity
  8
AM_0
100
AcDbLine
 10
352.1062493365801
 20
210.1406508393252
 30
0.0
 11
355.2216418834817
 21
210.4680917905196
 31
0.0
  0
LINE
  5
12EB8
330
1F
100
AcDbEntity
  8
AM_0
100
AcDbLine
 10
351.7926639467771
 20
213.12421652543
 30
0.0
 11
354.9080564936787
 21
213.4516574766245
 31
0.0
  0
LINE
  5
12EB9
330
1F
100
AcDbEntity
  8
AM_0
100
AcDbLine
 10
348.9802121317008
 20
217.5388792434689
 30
0.0
 11
350.5935955929349
 21
220.223993071833
 31
0.0
  0
LINE
  5
12EBA
330
1F
100
AcDbEntity
  8
AM_0
100
AcDbLine
 10
346.4087132757784
 20
219.0839886909857
 30
0.0
 11
348.022094697206
 21
221.7691123600404
 31
0.0
  0
ARC
  5
12EBC
330
1F
100
AcDbEntity
  8
AM_0
100
AcDbCircle
 10
343.1239549721626
 20
210.7048360785671
 30
0.0
 40
8.999999999999998
100
AcDbArc
 50
140.9835498037831
 51
125.0164375126472
  0
LINE
  5
12EBD
330
1F
100
AcDbEntity
  8
AM_0
100
AcDbLine
 10
335.9747936127439
 20
216.1719546757239
 30
0.0
 11
333.8383998949808
 21
218.4629510412728
 31
0.0
  0
LINE
  5
12EBE
330
1F
100
AcDbEntity
  8
AM_0
100
AcDbLine
 10
338.1688527312223
 20
218.2179444497544
 30
0.0
 11
336.0324589626965
 21
220.5089508650508
 31
0.0
  0
ARC
  5
12EBF
330
1F
100
AcDbEntity
  8
AM_0
100
AcDbCircle
 10
343.1239548153699
 20
210.70483757035
 30
0.0
 40
12.09999849999999
100
AcDbArc
 50
138.9295646955002
 51
127.0704345066855
  0
CIRCLE
  5
12EC1
330
1F
100
AcDbEntity
  8
AM_0
100
AcDbCircle
 10
343.1239544749016
 20
210.7048360263029
 30
0.0
 40
8.500001499999996
  0
LINE
  5
12EC2
330
1F
100
AcDbEntity
  8
AM_0
100
AcDbLine
 10
332.4239584749017
 20
102.5545723646612
 30
0.0
 11
332.4239584749017
 21
101.5545723446612
 31
0.0
  0
LINE
  5
12EC3
330
1F
100
AcDbEntity
  8
AM_0
100
AcDbLine
 10
353.8239524749017
 20
102.5545723646612
 30
0.0
 11
353.8239524749017
 21
101.5545723446612
 31
0.0
  0
LINE
  5
12EC4
330
1F
100
AcDbEntity
  8
AM_0
100
AcDbLine
 10
335.6543274994582
 20
109.0545731646612
 30
0.0
 11
338.225820439012
 21
109.0545731646612
 31
0.0
  0
LINE
  5
12EC5
330
1F
100
AcDbEntity
  8
AM_0
100
AcDbLine
 10
333.838407369278
 20
95.05457286466119
 30
0.0
 11
336.0324584808187
 21
95.05457286466119
 31
0.0
  0
LINE
  5
12EC6
330
1F
100
AcDbEntity
  8
AM_0
100
AcDbLine
 10
350.2154571680434
 20
109.0545731646612
 30
0.0
 11
352.4095166063598
 21
109.0545731646612
 31
0.0
  0
LINE
  5
12EC7
330
1F
100
AcDbEntity
  8
AM_0
100
AcDbLine
 10
348.02209520985
 20
95.05457286466119
 30
0.0
 11
350.5935953738798
 21
95.05457286466119
 31
0.0
  0
LINE
  5
12EC8
330
1F
100
AcDbEntity
  8
AM_0
100
AcDbLine
 10
335.6543274994582
 20
112.0545733646612
 30
0.0
 11
335.6543274994582
 21
109.0545731646612
 31
0.0
  0
LINE
  5
12EC9
330
1F
100
AcDbEntity
  8
AM_0
100
AcDbLine
 10
338.225820439012
 20
112.0545733646612
 30
0.0
 11
338.225820439012
 21
109.0545731646612
 31
0.0
  0
LINE
  5
12ECA
330
1F
100
AcDbEntity
  8
AM_0
100
AcDbLine
 10
350.2154571680434
 20
112.0545733646612
 30
0.0
 11
350.2154571680434
 21
109.0545731646612
 31
0.0
  0
LINE
  5
12ECB
330
1F
100
AcDbEntity
  8
AM_0
100
AcDbLine
 10
352.4095166063598
 20
112.0545733646612
 30
0.0
 11
352.4095166063598
 21
109.0545731646612
 31
0.0
  0
LINE
  5
12ECC
330
1F
100
AcDbEntity
  8
AM_0
100
AcDbLine
 10
333.838407369278
 20
95.05457286466119
 30
0.0
 11
333.838407369278
 21
92.05457336466119
 31
0.0
  0
LINE
  5
12ECD
330
1F
100
AcDbEntity
  8
AM_0
100
AcDbLine
 10
336.0324584808187
 20
95.05457286466119
 30
0.0
 11
336.0324584808187
 21
92.05457336466119
 31
0.0
  0
LINE
  5
12ECE
330
1F
100
AcDbEntity
  8
AM_0
100
AcDbLine
 10
348.02209520985
 20
95.05457286466119
 30
0.0
 11
348.02209520985
 21
92.05457336466119
 31
0.0
  0
LINE
  5
12ECF
330
1F
100
AcDbEntity
  8
AM_0
100
AcDbLine
 10
350.5935953738798
 20
95.05457286466119
 30
0.0
 11
350.5935953738798
 21
92.05457336466119
 31
0.0
  0
LINE
  5
12F9A
330
1F
100
AcDbEntity
  8
AM_2
100
AcDbLine
 10
356.4895474830938
 20
59.55457336466119
 30
0.0
 11
356.4895474830937
 21
93.5545733646612
 31
0.0
  0
LINE
  5
13010
330
1F
100
AcDbEntity
  8
AM_0
 48
0.5
100
AcDbLine
 10
102.9863770387281
 20
53.43130928396667
 30
0.0
 11
104.9863770387281
 21
53.43130928396667
 31
0.0
  0
LINE
  5
13011
330
1F
100
AcDbEntity
  8
AM_0
 48
0.5
100
AcDbLine
 10
102.9863770387281
 20
142.4313092839576
 30
0.0
 11
104.9863770387281
 21
142.4313092839576
 31
0.0
  0
LINE
  5
13012
330
1F
100
AcDbEntity
  8
AM_0
 48
0.5
100
AcDbLine
 10
104.9863770387281
 20
53.43130928396667
 30
0.0
 11
104.9863770387281
 21
142.4313092839576
 31
0.0
  0
LINE
  5
13013
330
1F
100
AcDbEntity
  8
AM_0
 48
0.5
100
AcDbLine
 10
102.9863770387281
 20
53.43130928396667
 30
0.0
 11
102.9863770387281
 21
142.4313092839576
 31
0.0
  0
LINE
  5
13014
330
1F
100
AcDbEntity
  8
AM_0
 48
0.5
100
AcDbLine
 10
93.48637703872634
 20
123.9313092839588
 30
0.0
 11
102.9863770387263
 21
123.9313092839588
 31
0.0
  0
LINE
  5
13015
330
1F
100
AcDbEntity
  8
AM_0
 48
0.5
100
AcDbLine
 10
93.48637703872634
 20
131.9313092839588
 30
0.0
 11
102.9863770387263
 21
131.9313092839588
 31
0.0
  0
LINE
  5
13016
330
1F
100
AcDbEntity
  8
AM_0
 48
0.5
100
AcDbLine
 10
92.98637703872634
 20
124.4313092839615
 30
0.0
 11
92.98637703872634
 21
131.4313092839579
 31
0.0
  0
LINE
  5
13017
330
1F
100
AcDbEntity
  8
AM_0
 48
0.5
100
AcDbLine
 10
93.48637703872634
 20
123.9313092839588
 30
0.0
 11
93.48637703872634
 21
131.9313092839588
 31
0.0
  0
LINE
  5
13018
330
1F
100
AcDbEntity
  8
AM_0
100
AcDbLine
 10
93.48637703872725
 20
131.9313092839588
 30
0.0
 11
92.98637703872634
 21
131.4313092839579
 31
0.0
  0
LINE
  5
13019
330
1F
100
AcDbEntity
  8
AM_0
100
AcDbLine
 10
93.48637703872634
 20
123.9313092839588
 30
0.0
 11
92.98637703872634
 21
124.4313092839615
 31
0.0
  0
LINE
  5
1301A
330
1F
100
AcDbEntity
  8
AM_0
100
AcDbLine
 10
157.9689135556247
 20
142.4313092839575
 30
0.0
 11
136.9689135556248
 21
142.4313092839576
 31
0.0
  0
LINE
  5
1301B
330
1F
100
AcDbEntity
  8
AM_0
100
AcDbLine
 10
157.9689135556248
 20
53.43130928396668
 30
0.0
 11
136.9689135556248
 21
53.43130928396665
 31
0.0
  0
LINE
  5
1301C
330
1F
100
AcDbEntity
  8
AM_0
 48
0.5
100
AcDbLine
 10
93.48637703872634
 20
63.93130928396789
 30
0.0
 11
102.9863770387263
 21
63.93130928396789
 31
0.0
  0
LINE
  5
1301D
330
1F
100
AcDbEntity
  8
AM_0
 48
0.5
100
AcDbLine
 10
93.48637703872634
 20
71.93130928396789
 30
0.0
 11
102.9863770387263
 21
71.93130928396789
 31
0.0
  0
LINE
  5
1301E
330
1F
100
AcDbEntity
  8
AM_0
 48
0.5
100
AcDbLine
 10
92.98637703872634
 20
64.43130928397062
 30
0.0
 11
92.98637703872634
 21
71.43130928396698
 31
0.0
  0
LINE
  5
1301F
330
1F
100
AcDbEntity
  8
AM_0
 48
0.5
100
AcDbLine
 10
93.48637703872634
 20
63.93130928396789
 30
0.0
 11
93.48637703872634
 21
71.93130928396789
 31
0.0
  0
LINE
  5
13020
330
1F
100
AcDbEntity
  8
AM_0
100
AcDbLine
 10
93.48637703872725
 20
71.93130928396789
 30
0.0
 11
92.98637703872634
 21
71.43130928396698
 31
0.0
  0
LINE
  5
13021
330
1F
100
AcDbEntity
  8
AM_0
100
AcDbLine
 10
93.48637703872634
 20
63.93130928396789
 30
0.0
 11
92.98637703872634
 21
64.43130928397062
 31
0.0
  0
LINE
  5
13022
330
1F
100
AcDbEntity
  8
AM_7
100
AcDbLine
 10
89.98637703872635
 20
127.9313092839602
 30
0.0
 11
107.9863770387281
 21
127.931309283957
 31
0.0
1001
GENIUS_GENODEF_13
1002
{
1000
HIER
1070
     0
1002
}
1002
{
1000
MANEDIT
1070
     0
1002
}
1002
{
1000
NOSEL
1070
     0
1002
}
1002
{
1000
BEHIND
1070
     0
1002
}
1002
{
1000
OTHER
1070
     0
1002
}
1002
{
1000
REACTOR
1002
}
1001
GENIUS_GENOBJ-N-CEN_13
1002
{
1000
OWNER
1000
GEN
1002
}
1001
GENIUS_GENCEN_19
1002
{
1040
3.0
1002
}
  0
LINE
  5
13023
330
1F
100
AcDbEntity
  8
AM_7
100
AcDbLine
 10
89.98637703872635
 20
67.93130928396667
 30
0.0
 11
107.9863770387281
 21
67.93130928396667
 31
0.0
1001
GENIUS_GENODEF_13
1002
{
1000
HIER
1070
     0
1002
}
1002
{
1000
MANEDIT
1070
     0
1002
}
1002
{
1000
NOSEL
1070
     0
1002
}
1002
{
1000
BEHIND
1070
     0
1002
}
1002
{
1000
OTHER
1070
     0
1002
}
1002
{
1000
REACTOR
1002
}
1001
GENIUS_GENOBJ-N-CEN_13
1002
{
1000
OWNER
1000
GEN
1002
}
1001
GENIUS_GENCEN_19
1002
{
1040
3.0
1002
}
  0
LINE
  5
13024
330
1F
100
AcDbEntity
  8
AM_0
100
AcDbLine
 10
134.9689135556248
 20
55.43130928396665
 30
0.0
 11
134.9689135556248
 21
140.4313092839576
 31
0.0
  0
LINE
  5
13025
330
1F
100
AcDbEntity
  8
AM_0
100
AcDbLine
 10
159.9689135556248
 20
55.43130928396667
 30
0.0
 11
159.9689135556247
 21
140.4313092839575
 31
0.0
  0
LINE
  5
13026
330
1F
100
AcDbEntity
  8
AM_7
100
AcDbLine
 10
147.4689135556248
 20
145.4313092839576
 30
0.0
 11
147.4689135556248
 21
50.43130928396667
 31
0.0
1001
GENIUS_GENODEF_13
1002
{
1000
HIER
1070
     0
1002
}
1002
{
1000
MANEDIT
1070
     0
1002
}
1002
{
1000
NOSEL
1070
     0
1002
}
1002
{
1000
BEHIND
1070
     0
1002
}
1002
{
1000
OTHER
1070
     0
1002
}
1002
{
1000
REACTOR
1002
}
1001
GENIUS_GENOBJ-N-CEN_13
1002
{
1000
OWNER
1000
GEN
1002
}
1001
GENIUS_GENCEN_19
1002
{
1040
3.0
1002
}
  0
DIMENSION
  5
13027
330
1F
100
AcDbEntity
  8
AM_5
100
AcDbDimension
  2
*D18
 10
92.98637703872634
 20
154.4313102839576
 30
0.0
 11
97.98637703872726
 21
157.5313102839576
 31
0.0
 70
    32
 71
     5
 42
10.00000000000182
  3
SYS$0
100
AcDbAlignedDimension
 13
102.9863770387281
 23
142.4313092839576
 33
0.0
 14
92.98637703872634
 24
131.4313092839579
 34
0.0
100
AcDbRotatedDimension
1001
ACAD_DSTYLE_DIMINSPECT
1070
   396
1000
100%
1070
   395
1000

1070
   394
1070
    33
1070
   393
1070
     0
  0
DIMENSION
  5
13028
330
1F
100
AcDbEntity
  8
AM_5
100
AcDbDimension
  2
*D19
 10
104.9863770387281
 20
154.4313092839576
 30
0.0
 11
109.2330437053948
 21
157.5313092839576
 31
0.0
 70
    32
 71
     5
 42
2.0
  3
SYS$0
100
AcDbAlignedDimension
 13
102.9863770387281
 23
142.4313092839576
 33
0.0
 14
104.9863770387281
 24
142.4313092839576
 34
0.0
100
AcDbRotatedDimension
1001
ACAD_DSTYLE_DIMINSPECT
1070
   396
1000
100%
1070
   395
1000

1070
   394
1070
    33
1070
   393
1070
     0
  0
DIMENSION
  5
13029
330
1F
100
AcDbEntity
  8
AM_5
100
AcDbDimension
  2
*D20
 10
159.9689135556248
 20
154.4313092839576
 30
0.0
 11
147.4689135556248
 21
157.5313092839576
 31
0.0
 70
    32
 71
     5
 42
25.0
  3
SYS$0
100
AcDbAlignedDimension
 13
134.9689135556248
 23
142.4313092839576
 33
0.0
 14
159.9689135556248
 24
142.4313092839576
 34
0.0
100
AcDbRotatedDimension
1001
ACAD_DSTYLE_DIMINSPECT
1070
   396
1000
100%
1070
   395
1000

1070
   394
1070
    33
1070
   393
1070
     0
  0
DIMENSION
  5
1302A
330
1F
100
AcDbEntity
  8
AM_5
100
AcDbDimension
  2
*D21
 10
122.9689135556248
 20
53.43130928396667
 30
0.0
 11
119.8689135556248
 21
97.93130928396216
 31
0.0
 70
    32
 71
     5
 42
88.99999999999094
  3
SYS$0
100
AcDbAlignedDimension
 13
134.9689135556248
 23
142.4313092839576
 33
0.0
 14
134.9689135556248
 24
53.43130928396667
 34
0.0
 50
90.0
100
AcDbRotatedDimension
1001
ACAD_DSTYLE_DIMINSPECT
1070
   396
1000
100%
1070
   395
1000

1070
   394
1070
    33
1070
   393
1070
     0
  0
TEXT
  5
1302B
330
1F
100
AcDbEntity
  8
AM_6
100
AcDbText
 10
113.552889288574
 20
37.57102597364043
 30
0.0
 40
4.0
  1
取付プレート
 41
0.8
100
AcDbText
  0
ARC
  5
131D4
330
1F
100
AcDbEntity
  8
AM_0
100
AcDbCircle
 10
327.1239379749017
 20
58.5545733646612
 30
0.0
 40
1.0
100
AcDbArc
 50
270.0
 51
0.0
1001
GENIUS_GENOBJ-N-FIL_13
1002
{
1000
OWNER
1000
GEN
1002
}
1001
GENIUS_GENODEF_13
1002
{
1000
HIER
1070
     0
1002
}
1002
{
1000
MANEDIT
1070
     0
1002
}
1002
{
1000
NOSEL
1070
     0
1002
}
1002
{
1000
BEHIND
1070
     0
1002
}
1002
{
1000
OTHER
1070
     0
1002
}
1002
{
1000
REACTOR
1002
}
  0
ARC
  5
131D5
330
1F
100
AcDbEntity
  8
AM_0
100
AcDbCircle
 10
359.1239559749016
 20
145.5545733646611
 30
0.0
 40
1.0
100
AcDbArc
 50
90.0
 51
180.0
1001
GENIUS_GENOBJ-N-FIL_13
1002
{
1000
OWNER
1000
GEN
1002
}
1001
GENIUS_GENODEF_13
1002
{
1000
HIER
1070
     0
1002
}
1002
{
1000
MANEDIT
1070
     0
1002
}
1002
{
1000
NOSEL
1070
     0
1002
}
1002
{
1000
BEHIND
1070
     0
1002
}
1002
{
1000
OTHER
1070
     0
1002
}
1002
{
1000
REACTOR
1002
}
  0
DIMENSION
  5
13213
330
1F
100
AcDbEntity
  8
AM_5
100
AcDbDimension
  2
*D22
 10
179.2569103578071
 20
231.6570185165891
 30
0.0
 11
-154.8576816047857
 21
249.7123673700322
 31
0.0
 70
    34
  1
 
 71
     5
 42
0.7853983823160929
  3
SYS$2
100
AcDb2LineAngularDimension
 13
145.1489609305648
 23
231.3892579438376
 33
0.0
 14
170.604780357807
 24
256.8450885165891
 34
0.0
 15
143.2569103578071
 25
231.6570185165891
 35
0.0
 16
171.4426499831447
 26
238.6306471019849
 36
0.0
1001
ACAD_DSTYLE_DIMINSPECT
1070
   396
1000
100%
1070
   395
1000

1070
   394
1070
    33
1070
   393
1070
     0
1001
ACAD
1000
DSTYLE
1002
{
1070
    41
1040
2.0
1070
   173
1070
     1
1070
   342
1005
0
1070
   343
1005
12AE3
1070
   344
1005
A66
1002
}
  0
DIMENSION
  5
1322A
330
1F
100
AcDbEntity
  8
AM_5
100
AcDbDimension
  2
*D23
 10
217.2606521522008
 20
231.6570185165891
 30
0.0
 11
313.6322273032223
 21
-116.6220763047921
 31
0.0
 70
    34
  1
 
 71
     5
 42
0.7853983823160929
  3
SYS$2
100
AcDb2LineAngularDimension
 13
251.368601579443
 23
231.3892579438376
 33
0.0
 14
225.9127821522008
 24
256.8450885165891
 34
0.0
 15
253.2606521522008
 25
231.6570185165891
 35
0.0
 16
227.7666334133314
 26
245.1290341603335
 36
0.0
1001
ACAD_DSTYLE_DIMINSPECT
1070
   396
1000
100%
1070
   395
1000

1070
   394
1070
    33
1070
   393
1070
     0
1001
ACAD
1000
DSTYLE
1002
{
1070
    41
1040
2.0
1070
   173
1070
     1
1070
   342
1005
0
1070
   343
1005
A66
1070
   344
1005
12AE3
1002
}
  0
LINE
  5
1335A
330
1F
100
AcDbEntity
  8
AM_11
 48
0.8
100
AcDbLine
 10
282.7783650495552
 20
225.7048360266395
 30
0.0
 11
341.6239514744999
 21
225.7048360266394
 31
0.0
  0
LINE
  5
1335B
330
1F
100
AcDbEntity
  8
AM_11
 48
0.5
100
AcDbLine
 10
344.6239514744998
 20
225.7048360266394
 30
0.0
 11
344.6239514744998
 21
230.7048360266394
 31
0.0
  0
LINE
  5
1335C
330
1F
100
AcDbEntity
  8
AM_11
 48
0.5
100
AcDbLine
 10
341.6239514744999
 20
225.7048360266394
 30
0.0
 11
341.6239514744999
 21
233.7048360266394
 31
0.0
  0
LINE
  5
1335D
330
1F
100
AcDbEntity
  8
AM_11
 48
0.5
100
AcDbLine
 10
354.6239514744998
 20
233.7048360266394
 30
0.0
 11
354.6239514744998
 21
238.7048360266394
 31
0.0
  0
LINE
  5
1335E
330
1F
100
AcDbEntity
  8
AM_11
 48
0.5
100
AcDbLine
 10
357.6239514744998
 20
230.7048360266394
 30
0.0
 11
357.6239514744998
 21
238.7048360266394
 31
0.0
  0
LINE
  5
1335F
330
1F
100
AcDbEntity
  8
AM_11
 48
0.8
100
AcDbLine
 10
282.7783650495552
 20
238.7048360266394
 30
0.0
 11
354.6239514744998
 21
238.7048360266393
 31
0.0
  0
LINE
  5
13360
330
1F
100
AcDbEntity
  8
AM_11
 48
0.8
100
AcDbLine
 10
341.6239514744999
 20
233.7048360266394
 30
0.0
 11
354.6239514744998
 21
233.7048360266394
 31
0.0
  0
LINE
  5
13361
330
1F
100
AcDbEntity
  8
AM_11
 48
0.8
100
AcDbLine
 10
402.9766613310766
 20
225.7048360266394
 30
0.0
 11
344.6239514744998
 21
225.7048360266394
 31
0.0
  0
LINE
  5
13362
330
1F
100
AcDbEntity
  8
AM_11
 48
0.8
100
AcDbLine
 10
357.6239514744998
 20
230.7048360266394
 30
0.0
 11
344.6239514744998
 21
230.7048360266394
 31
0.0
  0
LINE
  5
133DC
330
1F
100
AcDbEntity
  8
AM_11
 48
0.8
100
AcDbLine
 10
357.6239514744998
 20
238.7048360266394
 30
0.0
 11
402.9766613310766
 21
238.7048360266393
 31
0.0
  0
LINE
  5
134E3
330
1F
100
AcDbEntity
  8
AM_0
100
AcDbLine
 10
354.5128939630808
 20
224.7508326049723
 30
0.0
 11
350.4177874900977
 21
220.3593685591177
 31
0.0
  0
ARC
  5
134E4
330
1F
100
AcDbEntity
  8
AM_0
 48
0.5
100
AcDbCircle
 10
356.7069550679402
 20
222.7048375247863
 30
0.0
 40
3.0
100
AcDbArc
 50
90.0
 51
137.0000000000561
1001
GENIUS_GENODEF_13
1002
{
1000
HIER
1070
     0
1002
}
1002
{
1000
MANEDIT
1070
     0
1002
}
1002
{
1000
NOSEL
1070
     0
1002
}
1002
{
1000
BEHIND
1070
     0
1002
}
1002
{
1000
OTHER
1070
     0
1002
}
1002
{
1000
REACTOR
1002
}
1001
GENIUS_GENOBJ-N-FIL_13
1002
{
1000
OWNER
1000
GEN
1002
}
  0
DIMENSION
  5
13536
330
1F
100
AcDbEntity
  8
AM_5
100
AcDbDimension
  2
*D24
 10
356.4895514830938
 20
250.7048360263029
 30
0.0
 11
343.1239549749017
 21
253.8048360263029
 31
0.0
 70
    32
  1
（30）
 71
     5
 42
26.73119301638422
  3
SYS$0
100
AcDbAlignedDimension
 13
329.7583584667096
 23
223.2048360263029
 33
0.0
 14
356.4895514830938
 24
223.2048360263029
 34
0.0
 50
0.0000000000000623
100
AcDbRotatedDimension
1001
ACAD_DSTYLE_DIMINSPECT
1070
   396
1000
100%
1070
   395
1000

1070
   394
1070
    33
1070
   393
1070
     0
  0
LINE
  5
13CD0
330
1F
100
AcDbEntity
  8
AM_1
100
AcDbLine
 10
11.5
 20
77.25
 30
0.0
 11
50.5625
 21
77.25
 31
0.0
  0
LINE
  5
13CD1
330
1F
100
AcDbEntity
  8
AM_1
100
AcDbLine
 10
50.5625
 20
77.25
 30
0.0
 11
50.5625
 21
8.5
 31
0.0
  0
LINE
  5
13CD2
330
1F
100
AcDbEntity
  8
AM_1
100
AcDbLine
 10
11.5
 20
77.25
 30
0.0
 11
11.5
 21
8.5
 31
0.0
  0
LINE
  5
13CD3
330
1F
100
AcDbEntity
  8
AM_2
100
AcDbLine
 10
27.125
 20
71.0
 30
0.0
 11
27.12499999999999
 21
21.0
 31
0.0
  0
MTEXT
  5
13CD4
330
1F
100
AcDbEntity
  8
AM_6
100
AcDbMText
 10
31.03125
 20
74.125
 30
0.0
 40
2.5
 41
39.06250000000018
 71
     5
 72
     5
  1
ビス選定一覧表
 73
     1
 44
1.0
1001
ACAD
1000
ACAD_MTEXT_DEFINED_HEIGHT_BEGIN
1070
    46
1040
7.999999999999955
1000
ACAD_MTEXT_DEFINED_HEIGHT_END
  0
MTEXT
  5
13CD5
330
1F
100
AcDbEntity
  8
AM_6
100
AcDbMText
 10
19.3125
 20
68.18750000000045
 30
0.0
 40
2.5
 41
31.25000000000018
 71
     5
 72
     5
  1
パネル厚
 73
     1
 44
1.0
  0
MTEXT
  5
13CD6
330
1F
100
AcDbEntity
  8
AM_6
100
AcDbMText
 10
38.84375
 20
68.18750000000045
 30
0.0
 40
2.5
 41
46.87499999999982
 71
     5
 72
     5
  1
取付ビスL寸法
 73
     1
 44
1.0
  0
LINE
  5
13CD7
330
1F
100
AcDbEntity
  8
AM_2
100
AcDbLine
 10
11.5
 20
71.0
 30
0.0
 11
50.5625
 21
71.0
 31
0.0
  0
LINE
  5
13CD8
330
1F
100
AcDbEntity
  8
AM_0
100
AcDbLine
 10
11.5
 20
64.75
 30
0.0
 11
50.5625
 21
64.75
 31
0.0
  0
LINE
  5
13CD9
330
1F
100
AcDbEntity
  8
AM_2
100
AcDbLine
 10
11.5
 20
58.5
 30
0.0
 11
50.5625
 21
58.5
 31
0.0
  0
LINE
  5
13CDA
330
1F
100
AcDbEntity
  8
AM_2
100
AcDbLine
 10
11.5
 20
52.25
 30
0.0
 11
50.5625
 21
52.25
 31
0.0
  0
LINE
  5
13CDB
330
1F
100
AcDbEntity
  8
AM_2
100
AcDbLine
 10
11.5
 20
46.0
 30
0.0
 11
50.5625
 21
46.0
 31
0.0
  0
LINE
  5
13CDC
330
1F
100
AcDbEntity
  8
AM_2
100
AcDbLine
 10
11.5
 20
39.75
 30
0.0
 11
50.5625
 21
39.75
 31
0.0
  0
LINE
  5
13CDD
330
1F
100
AcDbEntity
  8
AM_2
100
AcDbLine
 10
11.5
 20
33.5
 30
0.0
 11
50.5625
 21
33.5
 31
0.0
  0
LINE
  5
13CDE
330
1F
100
AcDbEntity
  8
AM_2
100
AcDbLine
 10
11.5
 20
27.25
 30
0.0
 11
50.5625
 21
27.25
 31
0.0
  0
MTEXT
  5
13CDF
330
1F
100
AcDbEntity
  8
AM_6
100
AcDbMText
 10
19.3125
 20
61.625
 30
0.0
 40
2.5
 41
31.25000000000018
 71
     5
 72
     5
  1
13
 73
     1
 44
1.0
  0
MTEXT
  5
13CE0
330
1F
100
AcDbEntity
  8
AM_6
100
AcDbMText
 10
19.3125
 20
55.375
 30
0.0
 40
2.5
 41
31.25000000000018
 71
     5
 72
     5
  1
16
 73
     1
 44
1.0
  0
MTEXT
  5
13CE1
330
1F
100
AcDbEntity
  8
AM_6
100
AcDbMText
 10
19.3125
 20
49.125
 30
0.0
 40
2.5
 41
31.25000000000018
 71
     5
 72
     5
  1
20
 73
     1
 44
1.0
  0
MTEXT
  5
13CE2
330
1F
100
AcDbEntity
  8
AM_6
100
AcDbMText
 10
19.3125
 20
42.875
 30
0.0
 40
2.5
 41
31.25000000000018
 71
     5
 72
     5
  1
25
 73
     1
 44
1.0
  0
MTEXT
  5
13CE3
330
1F
100
AcDbEntity
  8
AM_6
100
AcDbMText
 10
19.3125
 20
36.625
 30
0.0
 40
2.5
 41
31.25000000000018
 71
     5
 72
     5
  1
30
 73
     1
 44
1.0
  0
MTEXT
  5
13CE4
330
1F
100
AcDbEntity
  8
AM_6
100
AcDbMText
 10
19.3125
 20
30.375
 30
0.0
 40
2.5
 41
31.25000000000018
 71
     5
 72
     5
  1
36
 73
     1
 44
1.0
  0
LINE
  5
13CE5
330
1F
100
AcDbEntity
  8
AM_1
100
AcDbLine
 10
11.5
 20
8.5
 30
0.0
 11
50.5625
 21
8.5
 31
0.0
  0
MTEXT
  5
13CE6
330
1F
100
AcDbEntity
  8
AM_6
100
AcDbMText
 10
19.3125
 20
24.125
 30
0.0
 40
2.5
 41
31.25000000000018
 71
     5
 72
     5
  1
40
 73
     1
 44
1.0
  0
MTEXT
  5
13CE7
330
1F
100
AcDbEntity
  8
AM_6
100
AcDbMText
 10
38.84375
 20
61.625
 30
0.0
 40
2.5
 41
46.87500000000017
 71
     5
 72
     5
  1
10
 73
     1
 44
1.0
1001
ACAD
1000
ACAD_MTEXT_DEFINED_HEIGHT_BEGIN
1070
    46
1040
7.999999999999727
1000
ACAD_MTEXT_DEFINED_HEIGHT_END
  0
MTEXT
  5
13CE8
330
1F
100
AcDbEntity
  8
AM_6
100
AcDbMText
 10
38.84375
 20
55.375
 30
0.0
 40
2.5
 41
46.87500000000017
 71
     5
 72
     5
  1
12
 73
     1
 44
1.0
1001
ACAD
1000
ACAD_MTEXT_DEFINED_HEIGHT_BEGIN
1070
    46
1040
7.999999999999728
1000
ACAD_MTEXT_DEFINED_HEIGHT_END
  0
MTEXT
  5
13CE9
330
1F
100
AcDbEntity
  8
AM_6
100
AcDbMText
 10
38.84375
 20
49.125
 30
0.0
 40
2.5
 41
46.87500000000017
 71
     5
 72
     5
  1
16
 73
     1
 44
1.0
1001
ACAD
1000
ACAD_MTEXT_DEFINED_HEIGHT_BEGIN
1070
    46
1040
7.999999999999955
1000
ACAD_MTEXT_DEFINED_HEIGHT_END
  0
MTEXT
  5
13CEA
330
1F
100
AcDbEntity
  8
AM_6
100
AcDbMText
 10
38.84375
 20
36.625
 30
0.0
 40
2.5
 41
46.87500000000017
 71
     5
 72
     5
  1
（27）
 73
     1
 44
1.0
1001
ACAD
1000
ACAD_MTEXT_DEFINED_HEIGHT_BEGIN
1070
    46
1040
7.999999999999728
1000
ACAD_MTEXT_DEFINED_HEIGHT_END
  0
MTEXT
  5
13CEB
330
1F
100
AcDbEntity
  8
AM_6
100
AcDbMText
 10
38.84375
 20
30.375
 30
0.0
 40
2.5
 41
46.87500000000017
 71
     5
 72
     5
  1
（32）
 73
     1
 44
1.0
1001
ACAD
1000
ACAD_MTEXT_DEFINED_HEIGHT_BEGIN
1070
    46
1040
7.999999999999954
1000
ACAD_MTEXT_DEFINED_HEIGHT_END
  0
MTEXT
  5
13CEC
330
1F
100
AcDbEntity
  8
AM_6
100
AcDbMText
 10
38.84375
 20
24.125
 30
0.0
 40
2.5
 41
46.87500000000017
 71
     5
 72
     5
  1
（37）
 73
     1
 44
1.0
1001
ACAD
1000
ACAD_MTEXT_DEFINED_HEIGHT_BEGIN
1070
    46
1040
7.999999999999955
1000
ACAD_MTEXT_DEFINED_HEIGHT_END
  0
MTEXT
  5
13CED
330
1F
100
AcDbEntity
  8
AM_6
100
AcDbMText
 10
38.84375
 20
42.875
 30
0.0
 40
2.5
 41
46.87500000000017
 71
     5
 72
     5
  1
22
 73
     1
 44
1.0
1001
ACAD
1000
ACAD_MTEXT_DEFINED_HEIGHT_BEGIN
1070
    46
1040
7.999999999999728
1000
ACAD_MTEXT_DEFINED_HEIGHT_END
  0
LINE
  5
13CEE
330
1F
100
AcDbEntity
  8
AM_1
100
AcDbLine
 10
11.5
 20
21.0
 30
0.0
 11
50.5625
 21
21.0
 31
0.0
  0
MTEXT
  5
13CF0
330
1F
100
AcDbEntity
  8
AM_6
100
AcDbMText
 10
31.03125
 20
14.75
 30
0.0
 40
2.5
 41
39.06250000000018
 71
     5
 72
     5
  1
（　）内ビス寸法は市販ビスより\Pカットしてご使用下さい。
 73
     1
 44
1.0
1001
ACAD
1000
ACAD_MTEXT_DEFINED_HEIGHT_BEGIN
1070
    46
1040
14.24999999999995
1000
ACAD_MTEXT_DEFINED_HEIGHT_END
  0
LINE
  5
13D1B
330
1F
100
AcDbEntity
  8
AM_2
100
AcDbLine
 10
11.5
 20
248.5
 30
0.0
 11
123.5
 21
248.5
 31
0.0
  0
TEXT
  5
13D1C
330
1F
100
AcDbEntity
  8
AM_6
100
AcDbText
 10
14.52849990129482
 20
242.9
 30
0.0
 40
3.2
  1
セット部品
 41
0.7
100
AcDbText
  0
TEXT
  5
13D1D
330
1F
100
AcDbEntity
  8
AM_6
100
AcDbText
 10
34.9284999966622
 20
242.9
 30
0.0
 40
3.2
  1
取付プレート　4枚
 41
0.7
100
AcDbText
  0
TEXT
  5
13D1E
330
1F
100
AcDbEntity
  8
AM_6
100
AcDbText
 10
34.18339725200065
 20
218.9
 30
0.0
 40
3.2
  1
適用パネル厚：13mm
 41
0.7
100
AcDbText
  0
LINE
  5
13D1F
330
1F
100
AcDbEntity
  8
AM_0
100
AcDbLine
 10
311.6239529749016
 20
229.2048360263029
 30
0.0
 11
312.1239529749016
 21
228.7048360263029
 31
0.0
1001
GENIUS_GENFIL_13
1070
     0
1040
0.5
1040
0.5
1040
20.0
1040
0.0
1002
{
1002
}
1001
GENIUS_GENODEF_13
1002
{
1000
HIER
1070
     0
1002
}
1002
{
1000
MANEDIT
1070
     0
1002
}
1002
{
1000
NOSEL
1070
     0
1002
}
1002
{
1000
BEHIND
1070
     0
1002
}
1002
{
1000
OTHER
1070
     0
1002
}
1002
{
1000
REACTOR
1002
}
1001
GENIUS_GENOBJ-N-CHA_13
1002
{
1000
OWNER
1000
GEN
1002
}
  0
LINE
  5
13D20
330
1F
100
AcDbEntity
  8
AM_0
100
AcDbLine
 10
319.6239529749016
 20
229.2048360263029
 30
0.0
 11
319.1239529749016
 21
228.7048360263029
 31
0.0
1001
GENIUS_GENFIL_13
1070
     0
1040
0.5
1040
0.5
1040
20.0
1040
0.0
1002
{
1002
}
1001
GENIUS_GENODEF_13
1002
{
1000
HIER
1070
     0
1002
}
1002
{
1000
MANEDIT
1070
     0
1002
}
1002
{
1000
NOSEL
1070
     0
1002
}
1002
{
1000
BEHIND
1070
     0
1002
}
1002
{
1000
OTHER
1070
     0
1002
}
1002
{
1000
REACTOR
1002
}
1001
GENIUS_GENOBJ-N-CHA_13
1002
{
1000
OWNER
1000
GEN
1002
}
  0
LINE
  5
13D21
330
1F
100
AcDbEntity
  8
AM_0
100
AcDbLine
 10
366.6239559749016
 20
229.2048360263029
 30
0.0
 11
367.1239559749016
 21
228.7048360263029
 31
0.0
1001
GENIUS_GENFIL_13
1070
     0
1040
0.5
1040
0.5
1040
20.0
1040
0.0
1002
{
1002
}
1001
GENIUS_GENOBJ-N-CHA_13
1002
{
1000
OWNER
1000
GEN
1002
}
1001
GENIUS_GENODEF_13
1002
{
1000
HIER
1070
     0
1002
}
1002
{
1000
MANEDIT
1070
     0
1002
}
1002
{
1000
NOSEL
1070
     0
1002
}
1002
{
1000
BEHIND
1070
     0
1002
}
1002
{
1000
OTHER
1070
     0
1002
}
1002
{
1000
REACTOR
1002
}
  0
LINE
  5
13D22
330
1F
100
AcDbEntity
  8
AM_0
100
AcDbLine
 10
374.1239559749015
 20
228.7048360263029
 30
0.0
 11
374.6239559749016
 21
229.2048360263029
 31
0.0
1001
GENIUS_GENFIL_13
1070
     0
1040
0.5
1040
0.5
1040
20.0
1040
0.0
1002
{
1002
}
1001
GENIUS_GENODEF_13
1002
{
1000
HIER
1070
     0
1002
}
1002
{
1000
MANEDIT
1070
     0
1002
}
1002
{
1000
NOSEL
1070
     0
1002
}
1002
{
1000
BEHIND
1070
     0
1002
}
1002
{
1000
OTHER
1070
     0
1002
}
1002
{
1000
REACTOR
1002
}
1001
GENIUS_GENOBJ-N-CHA_13
1002
{
1000
OWNER
1000
GEN
1002
}
  0
LINE
  5
13D23
330
1F
100
AcDbEntity
  8
AM_0
100
AcDbLine
 10
374.6239559749016
 20
229.2048360263029
 30
0.0
 11
366.6239559749016
 21
229.2048360263029
 31
0.0
  0
LINE
  5
13D24
330
1F
100
AcDbEntity
  8
AM_0
100
AcDbLine
 10
319.6239529749016
 20
229.2048360263029
 30
0.0
 11
311.6239529749016
 21
229.2048360263029
 31
0.0
  0
ARC
  5
13D4B
330
1F
100
AcDbEntity
  8
AM_0
100
AcDbCircle
 10
157.9689135556247
 20
140.4313092839575
 30
0.0
 40
2.0
100
AcDbArc
 50
0.0
 51
90.0
1001
GENIUS_GENOBJ-N-FIL_13
1002
{
1000
OWNER
1000
GEN
1002
}
1001
GENIUS_GENODEF_13
1002
{
1000
HIER
1070
     0
1002
}
1002
{
1000
MANEDIT
1070
     0
1002
}
1002
{
1000
NOSEL
1070
     0
1002
}
1002
{
1000
BEHIND
1070
     0
1002
}
1002
{
1000
OTHER
1070
     0
1002
}
1002
{
1000
REACTOR
1002
}
  0
ARC
  5
13D4C
330
1F
100
AcDbEntity
  8
AM_0
100
AcDbCircle
 10
136.9689135556248
 20
140.4313092839576
 30
0.0
 40
2.0
100
AcDbArc
 50
89.99999999999992
 51
180.0
1001
GENIUS_GENOBJ-N-FIL_13
1002
{
1000
OWNER
1000
GEN
1002
}
1001
GENIUS_GENODEF_13
1002
{
1000
HIER
1070
     0
1002
}
1002
{
1000
MANEDIT
1070
     0
1002
}
1002
{
1000
NOSEL
1070
     0
1002
}
1002
{
1000
BEHIND
1070
     0
1002
}
1002
{
1000
OTHER
1070
     0
1002
}
1002
{
1000
REACTOR
1002
}
  0
ARC
  5
13D4D
330
1F
100
AcDbEntity
  8
AM_0
100
AcDbCircle
 10
136.9689135556248
 20
55.43130928396665
 30
0.0
 40
2.0
100
AcDbArc
 50
180.0
 51
270.0
1001
GENIUS_GENODEF_13
1002
{
1000
HIER
1070
     0
1002
}
1002
{
1000
MANEDIT
1070
     0
1002
}
1002
{
1000
NOSEL
1070
     0
1002
}
1002
{
1000
BEHIND
1070
     0
1002
}
1002
{
1000
OTHER
1070
     0
1002
}
1002
{
1000
REACTOR
1002
}
1001
GENIUS_GENOBJ-N-FIL_13
1002
{
1000
OWNER
1000
GEN
1002
}
  0
ARC
  5
13D4E
330
1F
100
AcDbEntity
  8
AM_0
100
AcDbCircle
 10
157.9689135556248
 20
55.43130928396667
 30
0.0
 40
2.0
100
AcDbArc
 50
270.0
 51
0.0000000000000127
1001
GENIUS_GENODEF_13
1002
{
1000
HIER
1070
     0
1002
}
1002
{
1000
MANEDIT
1070
     0
1002
}
1002
{
1000
NOSEL
1070
     0
1002
}
1002
{
1000
BEHIND
1070
     0
1002
}
1002
{
1000
OTHER
1070
     0
1002
}
1002
{
1000
REACTOR
1002
}
1001
GENIUS_GENOBJ-N-FIL_13
1002
{
1000
OWNER
1000
GEN
1002
}
  0
LINE
  5
13D94
330
1F
100
AcDbEntity
  8
AM_0
100
AcDbLine
 10
358.1239559749016
 20
225.7048360266394
 30
0.0
 11
358.1239559749016
 21
223.204836026303
 31
0.0
  0
ENDSEC
  0
SECTION
  2
OBJECTS
  0
DICTIONARY
  5
C
330
0
100
AcDbDictionary
281
     1
  3
ACAD_2007HEADERVARS_RT
350
13E35
  3
ACAD_BGPLOT_KEY
350
AB06
  3
ACAD_COLOR
350
A91D
  3
ACAD_GROUP
350
D
  3
ACAD_LAYOUT
350
1A
  3
ACAD_MATERIAL
350
A91C
  3
ACAD_MLEADERSTYLE
350
B595
  3
ACAD_MLINESTYLE
350
17
  3
ACAD_PLOTSETTINGS
350
19
  3
ACAD_PLOTSTYLENAME
350
E
  3
ACAD_SCALELIST
350
B573
  3
ACAD_TABLESTYLE
350
AAB9
  3
ACAD_VISUALSTYLE
350
B0F1
  3
AcAsAppObject
350
3DA1
  3
ACASGREF_MASTER
350
3DE9
  3
ACDB_RECOMPOSE_DATA
350
B5B7
  3
AcDbVariableDictionary
350
34
  3
AcmDictionary
350
47
  3
AD_GREF_MODULE
350
3DEA
  3
AD_MAPI_MODULE
350
3E06
  3
AMG
350
2B
  3
AMGSNAPSETTINGS
350
7D
  3
ASE_INDEX_DICTIONARY
350
B570
  3
MAPISURF_MODULE
350
3DEB
  0
DICTIONARY
  5
3F95
330
2
100
AcDbDictionary
280
     1
281
     1
  3
ACAD_LAYERFILTERS
360
B4F7
  3
ACAD_LAYERSTATES
360
3F96
  3
ACLYDICTIONARY
360
B4F6
  3
AMLAYER_GROUPCOLORS
360
AAB4
  0
DICTIONARY
  5
C26F
330
10
100
AcDbDictionary
280
     1
281
     1
  3
ADSK_XREC_LAYER_RECONCILED
360
C270
  0
DICTIONARY
  5
C271
330
5F85
100
AcDbDictionary
280
     1
281
     1
  3
ADSK_XREC_LAYER_RECONCILED
360
C272
  0
DICTIONARY
  5
C273
330
AC9F
100
AcDbDictionary
280
     1
281
     1
  3
ADSK_XREC_LAYER_RECONCILED
360
C274
  0
DICTIONARY
  5
C275
330
ACA0
100
AcDbDictionary
280
     1
281
     1
  3
ADSK_XREC_LAYER_RECONCILED
360
C276
  0
DICTIONARY
  5
C277
330
ACA1
100
AcDbDictionary
280
     1
281
     1
  3
ADSK_XREC_LAYER_RECONCILED
360
C278
  0
DICTIONARY
  5
C279
330
ACC8
100
AcDbDictionary
280
     1
281
     1
  3
ADSK_XREC_LAYER_RECONCILED
360
C27A
  0
DICTIONARY
  5
C27B
330
ACC9
100
AcDbDictionary
280
     1
281
     1
  3
ADSK_XREC_LAYER_RECONCILED
360
C27C
  0
DICTIONARY
  5
C27D
330
ACCA
100
AcDbDictionary
280
     1
281
     1
  3
ADSK_XREC_LAYER_RECONCILED
360
C27E
  0
DICTIONARY
  5
C27F
330
AD60
100
AcDbDictionary
280
     1
281
     1
  3
ADSK_XREC_LAYER_RECONCILED
360
C280
  0
DICTIONARY
  5
C281
330
AD64
100
AcDbDictionary
280
     1
281
     1
  3
ADSK_XREC_LAYER_RECONCILED
360
C282
  0
DICTIONARY
  5
C283
330
AD67
100
AcDbDictionary
280
     1
281
     1
  3
ADSK_XREC_LAYER_RECONCILED
360
C284
  0
DICTIONARY
  5
C285
330
AD68
100
AcDbDictionary
280
     1
281
     1
  3
ADSK_XREC_LAYER_RECONCILED
360
C286
  0
DICTIONARY
  5
C287
330
AD69
100
AcDbDictionary
280
     1
281
     1
  3
ADSK_XREC_LAYER_RECONCILED
360
C288
  0
DICTIONARY
  5
C289
330
AD6A
100
AcDbDictionary
280
     1
281
     1
  3
ADSK_XREC_LAYER_RECONCILED
360
C28A
  0
DICTIONARY
  5
C28B
330
AD6E
100
AcDbDictionary
280
     1
281
     1
  3
ADSK_XREC_LAYER_RECONCILED
360
C28C
  0
DICTIONARY
  5
C28D
330
AD6F
100
AcDbDictionary
280
     1
281
     1
  3
ADSK_XREC_LAYER_RECONCILED
360
C28E
  0
DICTIONARY
  5
C28F
330
B1B6
100
AcDbDictionary
280
     1
281
     1
  3
ADSK_XREC_LAYER_RECONCILED
360
C290
  0
DICTIONARY
  5
C291
330
B2EB
100
AcDbDictionary
280
     1
281
     1
  3
ADSK_XREC_LAYER_RECONCILED
360
C292
  0
DICTIONARY
  5
C293
330
B2EC
100
AcDbDictionary
280
     1
281
     1
  3
ADSK_XREC_LAYER_RECONCILED
360
C294
  0
DICTIONARY
  5
8A
330
1F
100
AcDbDictionary
280
     1
281
     1
  3
ACAD_SORTENTS
360
B1BA
  0
DICTIONARY
  5
13E3E
330
12AD4
100
AcDbDictionary
280
     1
281
     1
  3
ACAD_MTEXT_2008_RT
360
13E3F
  0
DICTIONARY
  5
13E35
102
{ACAD_REACTORS
330
C
102
}
330
C
100
AcDbDictionary
281
     1
  3
DIMARCSYM
350
13E36
  0
DICTIONARY
  5
AB06
102
{ACAD_REACTORS
330
C
102
}
330
C
100
AcDbDictionary
280
     1
281
     1
  0
DICTIONARY
  5
A91D
102
{ACAD_REACTORS
330
C
102
}
330
C
100
AcDbDictionary
281
     1
  0
DICTIONARY
  5
D
102
{ACAD_REACTORS
330
C
102
}
330
C
100
AcDbDictionary
281
     1
  0
DICTIONARY
  5
1A
102
{ACAD_REACTORS
330
C
102
}
330
C
100
AcDbDictionary
281
     1
  3
Model
350
22
  3
ﾚｲｱｳﾄ1
350
1E
  3
ﾚｲｱｳﾄ2
350
26
  0
DICTIONARY
  5
A91C
102
{ACAD_REACTORS
330
C
102
}
330
C
100
AcDbDictionary
281
     1
  3
ByBlock
350
B0EF
  3
ByLayer
350
B0EE
  3
Global
350
B0F0
  0
DICTIONARY
  5
B595
102
{ACAD_REACTORS
330
C
102
}
330
C
100
AcDbDictionary
281
     1
  3
Standard
350
B596
  0
DICTIONARY
  5
17
102
{ACAD_REACTORS
330
C
102
}
330
C
100
AcDbDictionary
281
     1
  3
Standard
350
18
  0
DICTIONARY
  5
19
102
{ACAD_REACTORS
330
C
102
}
330
C
100
AcDbDictionary
281
     1
  0
ACDBDICTIONARYWDFLT
  5
E
102
{ACAD_REACTORS
330
C
102
}
330
C
100
AcDbDictionary
281
     1
  3
Normal
350
F
100
AcDbDictionaryWithDefault
340
F
  0
DICTIONARY
  5
B573
102
{ACAD_REACTORS
330
C
102
}
330
C
100
AcDbDictionary
281
     1
  3
A0
350
B574
  3
A1
350
B575
  3
A2
350
B576
  3
A3
350
B577
  3
A4
350
B578
  3
A5
350
B579
  3
A6
350
B57A
  3
A7
350
B57B
  3
A8
350
B57C
  3
A9
350
B57D
  3
B0
350
B57E
  3
B1
350
B57F
  3
B2
350
B580
  3
B3
350
B581
  3
B4
350
B582
  3
B5
350
B583
  3
B6
350
B584
  3
B7
350
B585
  3
B8
350
B586
  3
B9
350
B587
  3
C0
350
B588
  3
C1
350
B589
  3
C2
350
B58A
  3
C3
350
B58B
  3
C4
350
B58C
  3
C5
350
B58D
  3
C6
350
B58E
  3
C7
350
B58F
  3
C8
350
B590
  3
C9
350
B591
  3
D0
350
B592
  3
D1
350
B593
  3
D2
350
B594
  0
DICTIONARY
  5
AAB9
102
{ACAD_REACTORS
330
C
102
}
330
C
100
AcDbDictionary
281
     1
  3
Standard
350
AABA
  0
DICTIONARY
  5
B0F1
102
{ACAD_REACTORS
330
C
102
}
330
C
100
AcDbDictionary
281
     1
  3
2dWireframe
350
B0F7
  3
3D Hidden
350
B0F9
  3
3dWireframe
350
B0F8
  3
Basic
350
B0F6
  3
Brighten
350
B0FD
  3
ColorChange
350
B101
  3
Conceptual
350
B0FA
  3
Dim
350
B0FC
  3
Facepattern
350
B100
  3
Flat
350
B0F2
  3
FlatWithEdges
350
B0F3
  3
Gouraud
350
B0F4
  3
GouraudWithEdges
350
B0F5
  3
Linepattern
350
B0FF
  3
Realistic
350
B0FB
  3
Thicken
350
B0FE
  0
ACAD_PROXY_OBJECT
  5
3DA1
102
{ACAD_REACTORS
330
C
102
}
330
C
100
AcDbProxyObject
 90
      499
 91
      576
 95
   917527
 70
     0
 93
       10
310
407F
 94
        0
  0
ACAD_PROXY_OBJECT
  5
3DE9
102
{ACAD_REACTORS
330
C
102
}
330
C
100
AcDbProxyObject
 90
      499
 91
      581
 95
   917527
 70
     0
 93
       34
310
010000407F
 94
        0
  0
XRECORD
  5
B5B7
102
{ACAD_REACTORS
330
C
102
}
330
C
100
AcDbXrecord
280
     1
 90
        1
330
AABA
  0
DICTIONARY
  5
34
102
{ACAD_REACTORS
330
C
102
}
330
C
100
AcDbDictionary
281
     1
  3
CANNOSCALE
350
B5BA
  3
CMLEADERSTYLE
350
B5B8
  3
CTABLESTYLE
350
AAF3
  3
DIMASSOC
350
A10C
  3
FIELDEVAL
350
AB07
  3
INDEXCTL
350
35
  3
LIGHTINGUNITS
350
B5BB
  3
MSLTSCALE
350
B5B9
  3
SORTENTS
350
194C
  0
DICTIONARY
  5
47
102
{ACAD_REACTORS
330
C
102
}
330
C
100
AcDbDictionary
281
     1
  3
AcmBOM
350
7E8
  3
AcmStdDictionary
350
4C
  3
AMDTSECTSYM_ARROWCOLOR
350
A929
  0
ACAD_PROXY_OBJECT
  5
3DEA
102
{ACAD_REACTORS
330
C
102
}
330
C
100
AcDbProxyObject
 90
      499
 91
      582
 95
   917527
 70
     0
 93
      114
310
00000043800000000000000000003F
 94
        0
  0
ACAD_PROXY_OBJECT
  5
3E06
102
{ACAD_REACTORS
330
C
102
}
330
C
100
AcDbProxyObject
 90
      499
 91
      594
 95
   917527
 70
     0
 93
       34
310
05000044FF
 94
        0
  0
DICTIONARY
  5
2B
102
{ACAD_REACTORS
330
C
102
}
330
C
100
AcDbDictionary
281
     1
  0
DICTIONARY
  5
7D
102
{ACAD_REACTORS
330
C
102
}
330
C
100
AcDbDictionary
281
     1
  0
DICTIONARY
  5
B570
102
{ACAD_REACTORS
330
C
102
}
330
C
100
AcDbDictionary
281
     1
  3
ASEBlockHierarchyIndexRecord
350
B571
1001
DCO15
1040
1706332604.97
  0
ACAD_PROXY_OBJECT
  5
3DEB
102
{ACAD_REACTORS
330
C
102
}
330
C
100
AcDbProxyObject
 90
      499
 91
      583
 95
   917527
 70
     0
 93
        8
310
047E
 94
        0
  0
DICTIONARY
  5
B4F7
102
{ACAD_REACTORS
330
3F95
102
}
330
3F95
100
AcDbDictionary
281
     1
  0
DICTIONARY
  5
3F96
102
{ACAD_REACTORS
330
3F95
102
}
330
3F95
100
AcDbDictionary
281
     1
  3
20011210
350
3FB7
  0
DICTIONARY
  5
B4F6
102
{ACAD_REACTORS
330
3F95
102
}
330
3F95
100
AcDbDictionary
281
     1
1001
ACAD
1000
<All
  0
DICTIONARY
  5
AAB4
102
{ACAD_REACTORS
330
3F95
102
}
330
3F95
100
AcDbDictionary
280
     1
281
     1
  0
XRECORD
  5
C270
102
{ACAD_REACTORS
330
C26F
102
}
330
C26F
100
AcDbXrecord
280
     1
290
     1
  0
XRECORD
  5
C272
102
{ACAD_REACTORS
330
C271
102
}
330
C271
100
AcDbXrecord
280
     1
290
     1
  0
XRECORD
  5
C274
102
{ACAD_REACTORS
330
C273
102
}
330
C273
100
AcDbXrecord
280
     1
290
     1
  0
XRECORD
  5
C276
102
{ACAD_REACTORS
330
C275
102
}
330
C275
100
AcDbXrecord
280
     1
290
     1
  0
XRECORD
  5
C278
102
{ACAD_REACTORS
330
C277
102
}
330
C277
100
AcDbXrecord
280
     1
290
     1
  0
XRECORD
  5
C27A
102
{ACAD_REACTORS
330
C279
102
}
330
C279
100
AcDbXrecord
280
     1
290
     1
  0
XRECORD
  5
C27C
102
{ACAD_REACTORS
330
C27B
102
}
330
C27B
100
AcDbXrecord
280
     1
290
     1
  0
XRECORD
  5
C27E
102
{ACAD_REACTORS
330
C27D
102
}
330
C27D
100
AcDbXrecord
280
     1
290
     1
  0
XRECORD
  5
C280
102
{ACAD_REACTORS
330
C27F
102
}
330
C27F
100
AcDbXrecord
280
     1
290
     1
  0
XRECORD
  5
C282
102
{ACAD_REACTORS
330
C281
102
}
330
C281
100
AcDbXrecord
280
     1
290
     1
  0
XRECORD
  5
C284
102
{ACAD_REACTORS
330
C283
102
}
330
C283
100
AcDbXrecord
280
     1
290
     1
  0
XRECORD
  5
C286
102
{ACAD_REACTORS
330
C285
102
}
330
C285
100
AcDbXrecord
280
     1
290
     1
  0
XRECORD
  5
C288
102
{ACAD_REACTORS
330
C287
102
}
330
C287
100
AcDbXrecord
280
     1
290
     1
  0
XRECORD
  5
C28A
102
{ACAD_REACTORS
330
C289
102
}
330
C289
100
AcDbXrecord
280
     1
290
     1
  0
XRECORD
  5
C28C
102
{ACAD_REACTORS
330
C28B
102
}
330
C28B
100
AcDbXrecord
280
     1
290
     1
  0
XRECORD
  5
C28E
102
{ACAD_REACTORS
330
C28D
102
}
330
C28D
100
AcDbXrecord
280
     1
290
     1
  0
XRECORD
  5
C290
102
{ACAD_REACTORS
330
C28F
102
}
330
C28F
100
AcDbXrecord
280
     1
290
     1
  0
XRECORD
  5
C292
102
{ACAD_REACTORS
330
C291
102
}
330
C291
100
AcDbXrecord
280
     1
290
     1
  0
XRECORD
  5
C294
102
{ACAD_REACTORS
330
C293
102
}
330
C293
100
AcDbXrecord
280
     1
290
     1
  0
SORTENTSTABLE
  5
B1BA
102
{ACAD_REACTORS
330
8A
102
}
330
8A
100
AcDbSortentsTable
330
1F
331
1286A
  5
12870
331
1247B
  5
1249B
331
128A1
  5
128A7
331
13360
  5
13978
331
12872
  5
12878
331
12483
  5
124A3
331
128A9
  5
128AF
331
12EC7
  5
12ECD
331
11C66
  5
11C71
331
13CED
  5
13D20
331
1287A
  5
12880
331
124CB
  5
1277C
331
128B1
  5
12AD4
331
12ECF
  5
13014
331
11C2F
  5
11C31
331
11C6E
  5
11C7F
331
12882
  5
12888
331
12C30
  5
12EAE
331
11C37
  5
11C3D
331
13017
  5
1301D
331
13D1D
  5
13D4B
331
1284B
  5
12851
331
12464
  5
12474
331
1288A
  5
12890
331
1301F
  5
13026
331
12892
  5
1289A
331
1246C
  5
1247D
331
12853
  5
12859
331
12EB0
  5
12EB6
331
11C47
  5
11C4F
331
13CD6
  5
13CDE
331
13D4D
  5
13022
331
1289A
  5
128A0
331
12474
  5
12485
331
1285B
  5
12861
331
12EB8
  5
12EBF
331
13027
  5
1335B
331
11C4F
  5
11C62
331
11C96
  5
11EC3
331
13CDE
  5
13CE6
331
12863
  5
12869
331
BF49
  5
B920
331
11C9E
  5
11F2C
331
13CE6
  5
13CEE
331
11C5F
  5
11C6A
331
1247C
  5
1249C
331
1286B
  5
12871
331
128A2
  5
128A8
331
13361
  5
13979
331
1322A
  5
13361
331
12BB9
  5
12EAC
331
12484
  5
124A4
331
12873
  5
12879
331
128AA
  5
128B0
331
12EC8
  5
12ECE
331
11C67
  5
11C72
331
13CEE
  5
13D21
331
12BE1
  5
12EAD
331
1287B
  5
12881
331
11EBE
  5
12262
331
124CC
  5
1277D
331
128B2
  5
12AD5
331
11C30
  5
11C33
331
11C6F
  5
11C81
331
11EC6
  5
1246C
331
12883
  5
12889
331
128CA
  5
12AD7
331
13010
  5
13016
331
11C38
  5
11C3E
331
13D1E
  5
13D4C
331
12EA9
  5
12EB0
331
1288B
  5
12891
331
1284C
  5
12852
331
12465
  5
12475
331
12AD2
  5
12B01
331
13018
  5
1301E
331
12893
  5
1289B
331
12854
  5
1285A
331
1246D
  5
1247E
331
12EB1
  5
12EB7
331
13020
  5
13027
331
11C48
  5
11C50
331
11C8F
  5
11CA0
331
13D4E
  5
13213
331
13213
  5
13360
331
13CD7
  5
13CDF
331
1289B
  5
128A1
331
1285C
  5
12862
331
12475
  5
12486
331
12EB9
  5
12EC1
331
13028
  5
1335C
331
11C50
  5
11C63
331
13CDF
  5
13CE7
331
12864
  5
1286A
331
BF4A
  5
B921
331
11C9F
  5
11F4B
331
1335A
  5
13362
331
13CE7
  5
13CF0
331
11C60
  5
11C6B
331
BF52
  5
B929
331
12B9A
  5
12EAB
331
1286C
  5
12872
331
1247D
  5
1249D
331
128A3
  5
128A9
331
12EC1
  5
12EC7
331
13362
  5
13CD4
331
11C68
  5
11C73
331
12874
  5
1287A
331
11EB7
  5
11C4B
331
12485
  5
124B1
331
128AB
  5
128B1
331
12EC9
  5
12ECF
331
11C31
  5
11C35
331
11C70
  5
11C83
331
1287C
  5
12882
331
124CD
  5
1277E
331
128B3
  5
12AD6
331
11C39
  5
11C3F
331
12884
  5
1288A
331
13011
  5
13017
331
13D1F
  5
11C79
331
12EAA
  5
12EB2
331
1288C
  5
12892
331
1284D
  5
12853
331
12466
  5
12476
331
12AD3
  5
12B02
331
13019
  5
1301F
331
13CD0
  5
13CD8
331
131D4
  5
11C52
331
11C49
  5
11C51
331
11C90
  5
11CA1
331
12894
  5
1289C
331
12855
  5
1285B
331
1246E
  5
1247F
331
12EB2
  5
12EB8
331
13021
  5
13028
331
13CD8
  5
13CE0
331
12EBA
  5
12EC2
331
1289C
  5
128A2
331
1285D
  5
12863
331
12476
  5
12497
331
12B53
  5
12C30
331
13029
  5
1335D
331
13CE0
  5
13CE8
331
11C59
  5
11C64
331
12865
  5
1286B
331
1240F
  5
1246F
331
12B7B
  5
12EAA
331
1335B
  5
133DB
331
11CA0
  5
11F7C
331
11C61
  5
11C6C
331
BF53
  5
B92A
331
1286D
  5
12873
331
1247E
  5
1249E
331
128A4
  5
128AA
331
12EC2
  5
12EC8
331
13CE8
  5
13CF1
331
11C69
  5
11C74
331
12875
  5
1287B
331
11EB8
  5
1200A
331
12437
  5
12470
331
12486
  5
124B2
331
128AC
  5
128B2
331
12ECA
  5
12F9A
331
13CF0
  5
13D22
331
11C32
  5
11C36
331
11C71
  5
11C84
331
1287D
  5
12883
331
11EC0
  5
12263
331
12F9A
  5
13015
331
11C3A
  5
11C40
331
11C79
  5
11C9D
331
12885
  5
1288B
331
1277E
  5
11C80
331
13012
  5
13018
331
13D20
  5
11C78
331
12EAB
  5
12EB3
331
1288D
  5
12893
331
1284E
  5
12854
331
12467
  5
12478
331
12AD4
  5
12B9A
331
1301A
  5
13020
331
131D5
  5
11C58
331
13CD1
  5
13CD9
331
11C4A
  5
11C53
331
11C91
  5
11CC9
331
12895
  5
1289D
331
12856
  5
1285C
331
1246F
  5
12480
331
12EB3
  5
12EB9
331
13022
  5
13029
331
134E3
  5
13CD5
331
13CD9
  5
13CE1
331
1289D
  5
128A3
331
1285E
  5
12864
331
1302A
  5
1335E
331
13CE1
  5
13CE9
331
11C5A
  5
11C65
331
12866
  5
1286C
331
1335C
  5
134E3
331
11CA1
  5
11FA4
331
11C62
  5
11C6D
331
BF54
  5
B92B
331
1286E
  5
12874
331
11EB1
  5
11C34
331
1247F
  5
1249F
331
128A5
  5
128AB
331
12EC3
  5
12EC9
331
13CE9
  5
13CF2
331
11C2B
  5
11C2B
331
11C6A
  5
11C76
331
12876
  5
1287C
331
11EB9
  5
1203B
331
128AD
  5
128B3
331
12ECB
  5
13010
331
11C33
  5
11C37
331
11C72
  5
11C85
331
1287E
  5
12884
331
133DC
  5
13977
331
11C3B
  5
11C41
331
11C7A
  5
11C9E
331
12886
  5
1288C
331
1277F
  5
11C82
331
13013
  5
13019
331
13D21
  5
11C7B
331
12460
  5
12471
331
12EAC
  5
12EB4
331
1288E
  5
12894
331
1284F
  5
12855
331
12468
  5
12479
331
12AD5
  5
12BB9
331
1301B
  5
13021
331
13CD2
  5
13CDA
331
11C4B
  5
11C55
331
11C92
  5
11EB8
331
12EB4
  5
12EBA
331
12857
  5
1285D
331
12470
  5
12481
331
13023
  5
1302A
331
134E4
  5
13CD6
331
13CDA
  5
13CE2
331
11C9A
  5
11EC5
331
1289E
  5
128A4
331
1285F
  5
12865
331
12EBC
  5
12EC3
331
1302B
  5
1335F
331
13CE2
  5
13CEA
331
11C5B
  5
11C66
331
12867
  5
1286D
331
1335D
  5
134E4
331
11CA2
  5
11FE2
331
12478
  5
12498
331
11C63
  5
11C6E
331
BF55
  5
B92C
331
1286F
  5
12875
331
11EB2
  5
11C3A
331
12480
  5
124A0
331
128A6
  5
128AC
331
12EC4
  5
12ECA
331
13CEA
  5
13CF3
331
11C2C
  5
11C2C
331
11C6B
  5
11C77
331
12877
  5
1287D
331
11EBA
  5
1206C
331
128AE
  5
128CA
331
12ECC
  5
13011
331
11C34
  5
11C38
331
11C73
  5
11C86
331
1287F
  5
12885
331
11EC2
  5
12469
331
11C3C
  5
11C42
331
11C7B
  5
11C9F
331
12887
  5
1288D
331
13014
  5
1301A
331
13D22
  5
11C75
331
11C44
  5
11C4A
331
1288F
  5
12895
331
12850
  5
12856
331
12469
  5
1247A
331
12AD6
  5
12BE1
331
1301C
  5
13023
331
13CD3
  5
13CDB
331
11C4C
  5
11C56
331
11C93
  5
11EBA
331
12897
  5
1289E
331
12858
  5
1285E
331
12471
  5
12482
331
12EB5
  5
12EBC
331
13024
  5
1302B
331
13CDB
  5
13CE3
331
11C9B
  5
11EC6
331
1289F
  5
128A5
331
12860
  5
12866
331
12EBD
  5
12EC4
331
13CE3
  5
13CEB
331
11C5C
  5
11C67
331
1335E
  5
13536
331
12868
  5
1286E
331
12479
  5
12499
331
11C64
  5
11C6F
331
12870
  5
12876
331
11EB3
  5
11C32
331
12481
  5
124A1
331
128A7
  5
128AD
331
12EC5
  5
12ECB
331
11C2D
  5
11C2D
331
11C6C
  5
11C7A
331
12878
  5
1287E
331
11EBB
  5
1214B
331
128AF
  5
12AD2
331
12ECD
  5
13012
331
13CEB
  5
13CF4
331
11C35
  5
11C39
331
11C74
  5
11C9A
331
12880
  5
12886
331
11C3D
  5
11C43
331
13015
  5
1301B
331
13D1B
  5
13D23
331
13D23
  5
13D4D
331
12888
  5
1288E
331
12462
  5
12472
331
11C45
  5
11C4C
331
12EAE
  5
12EB5
331
12890
  5
12897
331
12851
  5
12857
331
11F4B
  5
1246D
331
1246A
  5
1247B
331
12AD7
  5
12C00
331
1301D
  5
13024
331
13D4B
  5
1322A
331
11C4D
  5
11C57
331
11C94
  5
11EBC
331
12898
  5
1289F
331
12859
  5
1285F
331
12472
  5
12483
331
12EB6
  5
12EBD
331
13025
  5
131D5
331
13CD4
  5
13CDC
331
11C9C
  5
11EEE
331
BF47
  5
B91E
331
12EBE
  5
12EC5
331
12861
  5
12867
331
13CDC
  5
13CE4
331
11C5D
  5
11C68
331
13536
  5
13CD7
331
13CE4
  5
13CEC
331
1335F
  5
13976
331
12869
  5
1286F
331
1247A
  5
1249A
331
128A0
  5
128A6
331
11C65
  5
11C70
331
12871
  5
12877
331
11EB4
  5
11C3C
331
12482
  5
124A2
331
128A8
  5
128AE
331
12EC6
  5
12ECC
331
11C2E
  5
11C2F
331
11C6D
  5
11C7E
331
12879
  5
1287F
331
128B0
  5
12AD3
331
12ECE
  5
13013
331
13CEC
  5
13D1F
331
11C36
  5
11C3B
331
12881
  5
12887
331
11EC4
  5
1246B
331
11C3E
  5
11C44
331
13016
  5
1301C
331
13D1C
  5
13D24
331
13D24
  5
13D4E
331
12889
  5
1288F
331
12463
  5
12473
331
11C46
  5
11C4D
331
12891
  5
12898
331
12852
  5
12858
331
1246B
  5
1247C
331
1301E
  5
13025
331
13D4C
  5
131D4
331
11C4E
  5
11C59
331
11C95
  5
11EC1
331
12EB7
  5
12EBE
331
1285A
  5
12860
331
12094
  5
1246E
331
12473
  5
12484
331
13026
  5
1335A
331
13CD5
  5
13CDD
331
11C9D
  5
11F0D
331
BF48
  5
B91F
331
12EBF
  5
12EC6
331
12862
  5
12868
331
13CDD
  5
13CE5
331
11C5E
  5
11C69
331
13CE5
  5
13CED
  0
XRECORD
  5
13E3F
102
{ACAD_REACTORS
330
13E3E
102
}
330
13E3E
100
AcDbXrecord
280
     1
 40
4186.0
  1
4-\U+22058.5
  0
XRECORD
  5
13E36
102
{ACAD_REACTORS
330
13E35
102
}
330
13E35
100
AcDbXrecord
280
     1
 70
     1
  0
LAYOUT
  5
22
102
{ACAD_REACTORS
330
1A
102
}
330
1A
100
AcDbPlotSettings
  1

  2
Adobe PDF
  4
A3
  6
AM_VIEW1
 40
3.174999952316284
 41
3.174999952316284
 42
3.17498779296875
 43
3.17498779296875
 44
297.0318298339844
 45
420.1583251953125
 46
-3.159078955650329
 47
-3.095831274986267
 48
214.3704939521119
 49
367.5855324241176
140
275.6727856380065
141
407.629191407817
142
1.0
143
1.0
 70
  3748
 72
     1
 73
     1
 74
     2
  7
monochrome.ctb
 75
     0
147
0.9670387807518544
 76
     0
 77
     2
 78
   200
148
0.0
149
0.0
100
AcDbLayout
  1
Model
 70
     1
 71
     0
 10
0.0
 20
0.0
 11
12.0
 21
9.0
 12
0.0
 22
0.0
 32
0.0
 14
0.0
 24
0.0
 34
0.0
 15
0.0
 25
0.0
 35
0.0
146
0.0
 13
0.0
 23
0.0
 33
0.0
 16
1.0
 26
0.0
 36
0.0
 17
0.0
 27
1.0
 37
0.0
 76
     0
330
1F
331
B0EC
1001
ACAD_PSEXT
1000
Adobe PDF
1000
Adobe PDF Converter
1000
My Documents\*.pdf
1000

1070
     0
  0
LAYOUT
  5
1E
102
{ACAD_REACTORS
330
1A
102
}
330
1A
100
AcDbPlotSettings
  1

  2
\\ML370\XEROX
  4
A4
  6

 40
3.174999952316284
 41
3.174999952316284
 42
3.175003051757812
 43
3.17498779296875
 44
209.8674926757813
 45
296.6719970703125
 46
0.0
 47
0.0
 48
0.0
 49
0.0
140
0.0
141
0.0
142
1.0
143
1.0
 70
   688
 72
     1
 73
     1
 74
     5
  7
monochrome.ctb
 75
    16
147
1.0
 76
     0
 77
     2
 78
   300
148
0.0
149
0.0
100
AcDbLayout
  1
ﾚｲｱｳﾄ1
 70
     1
 71
     1
 10
-3.17498779296875
 20
-3.174999952316284
 11
293.4970092773438
 21
206.692492723465
 12
0.0
 22
0.0
 32
0.0
 14
1.000000000000000E+20
 24
1.000000000000000E+20
 34
1.000000000000000E+20
 15
-1.000000000000000E+20
 25
-1.000000000000000E+20
 35
-1.000000000000000E+20
146
0.0
 13
0.0
 23
0.0
 33
0.0
 16
1.0
 26
0.0
 36
0.0
 17
0.0
 27
1.0
 37
0.0
 76
     0
330
1B
  0
LAYOUT
  5
26
102
{ACAD_REACTORS
330
1A
102
}
330
1A
100
AcDbPlotSettings
  1

  2
\\ML370\XEROX
  4

  6

 40
0.0
 41
0.0
 42
0.0
 43
0.0
 44
0.0
 45
0.0
 46
0.0
 47
0.0
 48
0.0
 49
0.0
140
0.0
141
0.0
142
1.0
143
1.0
 70
   688
 72
     0
 73
     0
 74
     5
  7
monochrome.ctb
 75
    16
147
1.0
 76
     0
 77
     2
 78
   300
148
0.0
149
0.0
100
AcDbLayout
  1
ﾚｲｱｳﾄ2
 70
     1
 71
     2
 10
0.0
 20
0.0
 11
12.0
 21
9.0
 12
0.0
 22
0.0
 32
0.0
 14
0.0
 24
0.0
 34
0.0
 15
0.0
 25
0.0
 35
0.0
146
0.0
 13
0.0
 23
0.0
 33
0.0
 16
1.0
 26
0.0
 36
0.0
 17
0.0
 27
1.0
 37
0.0
 76
     0
330
23
  0
MATERIAL
  5
B0EF
102
{ACAD_XDICTIONARY
360
13E3A
102
}
102
{ACAD_REACTORS
330
A91C
102
}
330
A91C
100
AcDbMaterial
  1
ByBlock
 73
     1
 78
     1
172
     1
176
     1
270
     1
274
     1
  0
MATERIAL
  5
B0EE
102
{ACAD_XDICTIONARY
360
13E38
102
}
102
{ACAD_REACTORS
330
A91C
102
}
330
A91C
100
AcDbMaterial
  1
ByLayer
 73
     1
 78
     1
172
     1
176
     1
270
     1
274
     1
  0
MATERIAL
  5
B0F0
102
{ACAD_XDICTIONARY
360
13E3C
102
}
102
{ACAD_REACTORS
330
A91C
102
}
330
A91C
100
AcDbMaterial
  1
Global
 73
     1
 78
     1
172
     1
176
     1
270
     1
274
     1
  0
MLEADERSTYLE
  5
B596
102
{ACAD_REACTORS
330
B595
102
}
330
B595
100
AcDbMLeaderStyle
170
     2
171
     1
172
     0
 90
        2
 40
0.0
 41
0.0
173
     1
 91
-1056964608
340
14
 92
       -2
290
     1
 42
2.0
291
     1
 43
0.36
  3
Standard
 44
4.0
300

342
11
174
     1
178
     6
175
     1
176
     0
 93
-1056964608
 45
4.0
292
     0
297
     0
 46
4.0
 94
-1056964608
 47
1.0
 49
1.0
140
1.0
293
     1
141
0.0
294
     1
177
     0
142
1.0
295
     0
296
     0
143
0.125
1001
ACAD_MLEADERVER
1070
     2
  0
MLINESTYLE
  5
18
102
{ACAD_REACTORS
330
17
102
}
330
17
100
AcDbMlineStyle
  2
STANDARD
 70
     0
  3

 62
   256
 51
90.0
 52
90.0
 71
     2
 49
0.5
 62
   256
  6
BYLAYER
 49
-0.5
 62
   256
  6
BYLAYER
  0
ACDBPLACEHOLDER
  5
F
102
{ACAD_REACTORS
330
E
102
}
330
E
  0
SCALE
  5
B574
102
{ACAD_REACTORS
330
B573
102
}
330
B573
100
AcDbScale
 70
     0
300
1:1
140
1.0
141
1.0
290
     1
  0
SCALE
  5
B575
102
{ACAD_REACTORS
330
B573
102
}
330
B573
100
AcDbScale
 70
     0
300
1:2
140
1.0
141
2.0
290
     0
  0
SCALE
  5
B576
102
{ACAD_REACTORS
330
B573
102
}
330
B573
100
AcDbScale
 70
     0
300
1:4
140
1.0
141
4.0
290
     0
  0
SCALE
  5
B577
102
{ACAD_REACTORS
330
B573
102
}
330
B573
100
AcDbScale
 70
     0
300
1:5
140
1.0
141
5.0
290
     0
  0
SCALE
  5
B578
102
{ACAD_REACTORS
330
B573
102
}
330
B573
100
AcDbScale
 70
     0
300
1:8
140
1.0
141
8.0
290
     0
  0
SCALE
  5
B579
102
{ACAD_REACTORS
330
B573
102
}
330
B573
100
AcDbScale
 70
     0
300
1:10
140
1.0
141
10.0
290
     0
  0
SCALE
  5
B57A
102
{ACAD_REACTORS
330
B573
102
}
330
B573
100
AcDbScale
 70
     0
300
1:16
140
1.0
141
16.0
290
     0
  0
SCALE
  5
B57B
102
{ACAD_REACTORS
330
B573
102
}
330
B573
100
AcDbScale
 70
     0
300
1:20
140
1.0
141
20.0
290
     0
  0
SCALE
  5
B57C
102
{ACAD_REACTORS
330
B573
102
}
330
B573
100
AcDbScale
 70
     0
300
1:30
140
1.0
141
30.0
290
     0
  0
SCALE
  5
B57D
102
{ACAD_REACTORS
330
B573
102
}
330
B573
100
AcDbScale
 70
     0
300
1:40
140
1.0
141
40.0
290
     0
  0
SCALE
  5
B57E
102
{ACAD_REACTORS
330
B573
102
}
330
B573
100
AcDbScale
 70
     0
300
1:50
140
1.0
141
50.0
290
     0
  0
SCALE
  5
B57F
102
{ACAD_REACTORS
330
B573
102
}
330
B573
100
AcDbScale
 70
     0
300
1:100
140
1.0
141
100.0
290
     0
  0
SCALE
  5
B580
102
{ACAD_REACTORS
330
B573
102
}
330
B573
100
AcDbScale
 70
     0
300
2:1
140
2.0
141
1.0
290
     0
  0
SCALE
  5
B581
102
{ACAD_REACTORS
330
B573
102
}
330
B573
100
AcDbScale
 70
     0
300
4:1
140
4.0
141
1.0
290
     0
  0
SCALE
  5
B582
102
{ACAD_REACTORS
330
B573
102
}
330
B573
100
AcDbScale
 70
     0
300
8:1
140
8.0
141
1.0
290
     0
  0
SCALE
  5
B583
102
{ACAD_REACTORS
330
B573
102
}
330
B573
100
AcDbScale
 70
     0
300
10:1
140
10.0
141
1.0
290
     0
  0
SCALE
  5
B584
102
{ACAD_REACTORS
330
B573
102
}
330
B573
100
AcDbScale
 70
     0
300
100:1
140
100.0
141
1.0
290
     0
  0
SCALE
  5
B585
102
{ACAD_REACTORS
330
B573
102
}
330
B573
100
AcDbScale
 70
     0
300
1/128" = 1'-0"
140
0.0078125
141
12.0
290
     0
  0
SCALE
  5
B586
102
{ACAD_REACTORS
330
B573
102
}
330
B573
100
AcDbScale
 70
     0
300
1/64" = 1'-0"
140
0.015625
141
12.0
290
     0
  0
SCALE
  5
B587
102
{ACAD_REACTORS
330
B573
102
}
330
B573
100
AcDbScale
 70
     0
300
1/32" = 1'-0"
140
0.03125
141
12.0
290
     0
  0
SCALE
  5
B588
102
{ACAD_REACTORS
330
B573
102
}
330
B573
100
AcDbScale
 70
     0
300
1/16" = 1'-0"
140
0.0625
141
12.0
290
     0
  0
SCALE
  5
B589
102
{ACAD_REACTORS
330
B573
102
}
330
B573
100
AcDbScale
 70
     0
300
3/32" = 1'-0"
140
0.09375
141
12.0
290
     0
  0
SCALE
  5
B58A
102
{ACAD_REACTORS
330
B573
102
}
330
B573
100
AcDbScale
 70
     0
300
1/8" = 1'-0"
140
0.125
141
12.0
290
     0
  0
SCALE
  5
B58B
102
{ACAD_REACTORS
330
B573
102
}
330
B573
100
AcDbScale
 70
     0
300
3/16" = 1'-0"
140
0.1875
141
12.0
290
     0
  0
SCALE
  5
B58C
102
{ACAD_REACTORS
330
B573
102
}
330
B573
100
AcDbScale
 70
     0
300
1/4" = 1'-0"
140
0.25
141
12.0
290
     0
  0
SCALE
  5
B58D
102
{ACAD_REACTORS
330
B573
102
}
330
B573
100
AcDbScale
 70
     0
300
3/8" = 1'-0"
140
0.375
141
12.0
290
     0
  0
SCALE
  5
B58E
102
{ACAD_REACTORS
330
B573
102
}
330
B573
100
AcDbScale
 70
     0
300
1/2" = 1'-0"
140
0.5
141
12.0
290
     0
  0
SCALE
  5
B58F
102
{ACAD_REACTORS
330
B573
102
}
330
B573
100
AcDbScale
 70
     0
300
3/4" = 1'-0"
140
0.75
141
12.0
290
     0
  0
SCALE
  5
B590
102
{ACAD_REACTORS
330
B573
102
}
330
B573
100
AcDbScale
 70
     0
300
1" = 1'-0"
140
1.0
141
12.0
290
     0
  0
SCALE
  5
B591
102
{ACAD_REACTORS
330
B573
102
}
330
B573
100
AcDbScale
 70
     0
300
1-1/2" = 1'-0"
140
1.5
141
12.0
290
     0
  0
SCALE
  5
B592
102
{ACAD_REACTORS
330
B573
102
}
330
B573
100
AcDbScale
 70
     0
300
3" = 1'-0"
140
3.0
141
12.0
290
     0
  0
SCALE
  5
B593
102
{ACAD_REACTORS
330
B573
102
}
330
B573
100
AcDbScale
 70
     0
300
6" = 1'-0"
140
6.0
141
12.0
290
     0
  0
SCALE
  5
B594
102
{ACAD_REACTORS
330
B573
102
}
330
B573
100
AcDbScale
 70
     0
300
1'-0" = 1'-0"
140
12.0
141
12.0
290
     0
  0
TABLESTYLE
  5
AABA
102
{ACAD_XDICTIONARY
360
B5B5
102
}
102
{ACAD_REACTORS
330
AAB9
102
}
330
AAB9
100
AcDbTableStyle
  3
Standard
 70
     0
 71
     0
 40
1.5
 41
1.5
280
     0
281
     0
  7
STANDARD
140
4.5
170
     2
 62
     0
 63
     7
283
     0
274
    -2
284
     1
 64
     0
275
    -2
285
     1
 65
     0
276
    -2
286
     1
 66
     0
277
    -2
287
     1
 67
     0
278
    -2
288
     1
 68
     0
279
    -2
289
     1
 69
     0
  7
STANDARD
140
6.0
170
     5
 62
     0
 63
     7
283
     0
274
    -2
284
     1
 64
     0
275
    -2
285
     1
 65
     0
276
    -2
286
     1
 66
     0
277
    -2
287
     1
 67
     0
278
    -2
288
     1
 68
     0
279
    -2
289
     1
 69
     0
  7
STANDARD
140
4.5
170
     5
 62
     0
 63
     7
283
     0
274
    -2
284
     1
 64
     0
275
    -2
285
     1
 65
     0
276
    -2
286
     1
 66
     0
277
    -2
287
     1
 67
     0
278
    -2
288
     1
 68
     0
279
    -2
289
     1
 69
     0
  0
VISUALSTYLE
  5
B0F7
102
{ACAD_REACTORS
330
B0F1
102
}
330
B0F1
100
AcDbVisualStyle
  2
2dWireframe
 70
     4
 71
     0
 72
     2
 73
     0
 90
        0
 40
-0.6
 41
-30.0
 62
     5
 63
     7
421
 16777215
 74
     1
 91
        4
 64
     7
 65
   257
 75
     1
175
     1
 42
1.0
 92
        0
 66
   257
 43
1.0
 76
     1
 77
     6
 78
     2
 67
     7
 79
     5
170
     0
171
     0
290
     0
174
     0
 93
        1
 44
0.0
173
     0
291
     0
 45
0.0
1001
ACAD
1000
AcDbSavedByObjectVersion
1070
     0
  0
VISUALSTYLE
  5
B0F9
102
{ACAD_REACTORS
330
B0F1
102
}
330
B0F1
100
AcDbVisualStyle
  2
3D Hidden
 70
     6
 71
     1
 72
     2
 73
     2
 90
        0
 40
-0.6
 41
-30.0
 62
     5
 63
     7
421
 16777215
 74
     2
 91
        2
 64
     7
 65
   257
 75
     2
175
     1
 42
40.0
 92
        0
 66
   257
 43
1.0
 76
     1
 77
     6
 78
     2
 67
     7
 79
     3
170
     0
171
     0
290
     0
174
     0
 93
        1
 44
0.0
173
     0
291
     0
 45
0.0
1001
ACAD
1000
AcDbSavedByObjectVersion
1070
     0
  0
VISUALSTYLE
  5
B0F8
102
{ACAD_REACTORS
330
B0F1
102
}
330
B0F1
100
AcDbVisualStyle
  2
3dWireframe
 70
     5
 71
     0
 72
     2
 73
     0
 90
        0
 40
-0.6
 41
-30.0
 62
     5
 63
     7
421
 16777215
 74
     1
 91
        4
 64
     7
 65
   257
 75
     1
175
     1
 42
1.0
 92
        0
 66
   257
 43
1.0
 76
     1
 77
     6
 78
     2
 67
     7
 79
     5
170
     0
171
     0
290
     0
174
     0
 93
        1
 44
0.0
173
     0
291
     0
 45
0.0
1001
ACAD
1000
AcDbSavedByObjectVersion
1070
     0
  0
VISUALSTYLE
  5
B0F6
102
{ACAD_REACTORS
330
B0F1
102
}
330
B0F1
100
AcDbVisualStyle
  2
Basic
 70
     7
 71
     1
 72
     0
 73
     1
 90
        0
 40
-0.6
 41
-30.0
 62
     5
 63
     7
421
 16777215
 74
     0
 91
        4
 64
     7
 65
   257
 75
     1
175
     1
 42
1.0
 92
        8
 66
     7
 43
1.0
 76
     1
 77
     6
 78
     2
 67
     7
 79
     5
170
     0
171
     0
290
     0
174
     0
 93
        1
 44
0.0
173
     0
291
     1
 45
0.0
1001
ACAD
1000
AcDbSavedByObjectVersion
1070
     0
  0
VISUALSTYLE
  5
B0FD
102
{ACAD_REACTORS
330
B0F1
102
}
330
B0F1
100
AcDbVisualStyle
  2
Brighten
 70
    12
 71
     2
 72
     2
 73
     0
 90
        0
 40
-0.6
 41
-30.0
 62
     5
 63
     7
421
 16777215
 74
     1
 91
        4
 64
     7
 65
   257
 75
     1
175
     1
 42
1.0
 92
        8
 66
     7
 43
1.0
 76
     1
 77
     6
 78
     2
 67
     7
 79
     5
170
     0
171
     0
290
     0
174
     0
 93
        1
 44
50.0
173
     0
291
     1
 45
0.0
1001
ACAD
1000
AcDbSavedByObjectVersion
1070
     0
  0
VISUALSTYLE
  5
B101
102
{ACAD_REACTORS
330
B0F1
102
}
330
B0F1
100
AcDbVisualStyle
  2
ColorChange
 70
    16
 71
     2
 72
     2
 73
     3
 90
        0
 40
-0.6
 41
-30.0
 62
     5
 63
     8
421
  8421504
 74
     1
 91
        4
 64
     7
 65
   257
 75
     1
175
     1
 42
1.0
 92
        8
 66
     8
424
  8421504
 43
1.0
 76
     1
 77
     6
 78
     2
 67
     7
 79
     5
170
     0
171
     0
290
     0
174
     0
 93
        1
 44
0.0
173
     0
291
     1
 45
0.0
1001
ACAD
1000
AcDbSavedByObjectVersion
1070
     0
  0
VISUALSTYLE
  5
B0FA
102
{ACAD_REACTORS
330
B0F1
102
}
330
B0F1
100
AcDbVisualStyle
  2
Conceptual
 70
     9
 71
     3
 72
     2
 73
     0
 90
        0
 40
-0.6
 41
-30.0
 62
     5
 63
     7
421
 16777215
 74
     2
 91
        2
 64
     7
 65
   257
 75
     1
175
     1
 42
40.0
 92
        8
 66
     7
 43
1.0
 76
     1
 77
     6
 78
     2
 67
     7
 79
     3
170
     0
171
     0
290
     0
174
     0
 93
        1
 44
0.0
173
     0
291
     0
 45
0.0
1001
ACAD
1000
AcDbSavedByObjectVersion
1070
     0
  0
VISUALSTYLE
  5
B0FC
102
{ACAD_REACTORS
330
B0F1
102
}
330
B0F1
100
AcDbVisualStyle
  2
Dim
 70
    11
 71
     2
 72
     2
 73
     0
 90
        0
 40
-0.6
 41
-30.0
 62
     5
 63
     7
421
 16777215
 74
     1
 91
        4
 64
     7
 65
   257
 75
     1
175
     1
 42
1.0
 92
        8
 66
     7
 43
1.0
 76
     1
 77
     6
 78
     2
 67
     7
 79
     5
170
     0
171
     0
290
     0
174
     0
 93
        1
 44
-50.0
173
     0
291
     1
 45
0.0
1001
ACAD
1000
AcDbSavedByObjectVersion
1070
     0
  0
VISUALSTYLE
  5
B100
102
{ACAD_REACTORS
330
B0F1
102
}
330
B0F1
100
AcDbVisualStyle
  2
Facepattern
 70
    15
 71
     2
 72
     2
 73
     0
 90
        0
 40
-0.6
 41
-30.0
 62
     5
 63
     7
421
 16777215
 74
     1
 91
        4
 64
     7
 65
   257
 75
     1
175
     1
 42
1.0
 92
        8
 66
     7
 43
1.0
 76
     1
 77
     6
 78
     2
 67
     7
 79
     5
170
     0
171
     0
290
     0
174
     0
 93
        1
 44
0.0
173
     0
291
     1
 45
0.0
1001
ACAD
1000
AcDbSavedByObjectVersion
1070
     0
  0
VISUALSTYLE
  5
B0F2
102
{ACAD_REACTORS
330
B0F1
102
}
330
B0F1
100
AcDbVisualStyle
  2
Flat
 70
     0
 71
     2
 72
     1
 73
     1
 90
        2
 40
-0.6
 41
30.0
 62
     5
 63
     7
421
 16777215
 74
     0
 91
        4
 64
     7
 65
   257
 75
     1
175
     1
 42
1.0
 92
        8
 66
     7
 43
1.0
 76
     1
 77
     6
 78
     2
 67
     7
 79
     5
170
     0
171
     0
290
     0
174
     0
 93
       13
 44
0.0
173
     0
291
     1
 45
0.0
1001
ACAD
1000
AcDbSavedByObjectVersion
1070
     0
  0
VISUALSTYLE
  5
B0F3
102
{ACAD_REACTORS
330
B0F1
102
}
330
B0F1
100
AcDbVisualStyle
  2
FlatWithEdges
 70
     1
 71
     2
 72
     1
 73
     1
 90
        2
 40
-0.6
 41
30.0
 62
     5
 63
     7
421
 16777215
 74
     1
 91
        4
 64
     7
 65
   257
 75
     1
175
     1
 42
1.0
 92
        0
 66
   257
 43
1.0
 76
     1
 77
     6
 78
     2
 67
     7
 79
     5
170
     0
171
     0
290
     0
174
     0
 93
       13
 44
0.0
173
     0
291
     1
 45
0.0
1001
ACAD
1000
AcDbSavedByObjectVersion
1070
     0
  0
VISUALSTYLE
  5
B0F4
102
{ACAD_REACTORS
330
B0F1
102
}
330
B0F1
100
AcDbVisualStyle
  2
Gouraud
 70
     2
 71
     2
 72
     2
 73
     1
 90
        2
 40
-0.6
 41
30.0
 62
     5
 63
     7
421
 16777215
 74
     0
 91
        4
 64
     7
 65
   257
 75
     1
175
     1
 42
1.0
 92
        0
 66
     7
 43
1.0
 76
     1
 77
     6
 78
     2
 67
     7
 79
     5
170
     0
171
     0
290
     0
174
     0
 93
       13
 44
0.0
173
     0
291
     1
 45
0.0
1001
ACAD
1000
AcDbSavedByObjectVersion
1070
     0
  0
VISUALSTYLE
  5
B0F5
102
{ACAD_REACTORS
330
B0F1
102
}
330
B0F1
100
AcDbVisualStyle
  2
GouraudWithEdges
 70
     3
 71
     2
 72
     2
 73
     1
 90
        2
 40
-0.6
 41
30.0
 62
     5
 63
     7
421
 16777215
 74
     1
 91
        4
 64
     7
 65
   257
 75
     1
175
     1
 42
1.0
 92
        0
 66
   257
 43
1.0
 76
     1
 77
     6
 78
     2
 67
     7
 79
     5
170
     0
171
     0
290
     0
174
     0
 93
       13
 44
0.0
173
     0
291
     1
 45
0.0
1001
ACAD
1000
AcDbSavedByObjectVersion
1070
     0
  0
VISUALSTYLE
  5
B0FF
102
{ACAD_REACTORS
330
B0F1
102
}
330
B0F1
100
AcDbVisualStyle
  2
Linepattern
 70
    14
 71
     2
 72
     2
 73
     0
 90
        0
 40
-0.6
 41
-30.0
 62
     5
 63
     7
421
 16777215
 74
     1
 91
        4
 64
     7
 65
   257
 75
     7
175
     7
 42
1.0
 92
        8
 66
     7
 43
1.0
 76
     1
 77
     6
 78
     2
 67
     7
 79
     5
170
     0
171
     0
290
     0
174
     0
 93
        1
 44
0.0
173
     0
291
     1
 45
0.0
1001
ACAD
1000
AcDbSavedByObjectVersion
1070
     0
  0
VISUALSTYLE
  5
B0FB
102
{ACAD_REACTORS
330
B0F1
102
}
330
B0F1
100
AcDbVisualStyle
  2
Realistic
 70
     8
 71
     2
 72
     2
 73
     0
 90
        0
 40
-0.6
 41
-30.0
 62
     5
 63
     7
421
 16777215
 74
     1
 91
        0
 64
     7
 65
   257
 75
     1
175
     1
 42
1.0
 92
        8
 66
     8
424
  7895160
 43
1.0
 76
     1
 77
     6
 78
     2
 67
     7
 79
     5
170
     0
171
     0
290
     0
174
     0
 93
       13
 44
0.0
173
     0
291
     0
 45
0.0
1001
ACAD
1000
AcDbSavedByObjectVersion
1070
     0
  0
VISUALSTYLE
  5
B0FE
102
{ACAD_REACTORS
330
B0F1
102
}
330
B0F1
100
AcDbVisualStyle
  2
Thicken
 70
    13
 71
     2
 72
     2
 73
     0
 90
        0
 40
-0.6
 41
-30.0
 62
     5
 63
     7
421
 16777215
 74
     1
 91
        4
 64
     7
 65
   257
 75
     1
175
     1
 42
1.0
 92
       12
 66
     7
 43
1.0
 76
     1
 77
     6
 78
     2
 67
     7
 79
     5
170
     0
171
     0
290
     0
174
     0
 93
        1
 44
0.0
173
     0
291
     1
 45
0.0
1001
ACAD
1000
AcDbSavedByObjectVersion
1070
     0
  0
DICTIONARYVAR
  5
B5BA
102
{ACAD_REACTORS
330
34
102
}
330
34
100
DictionaryVariables
280
     0
  1
1:1
  0
DICTIONARYVAR
  5
B5B8
102
{ACAD_REACTORS
330
34
102
}
330
34
100
DictionaryVariables
280
     0
  1
STANDARD
  0
DICTIONARYVAR
  5
AAF3
102
{ACAD_REACTORS
330
34
102
}
330
34
100
DictionaryVariables
280
     0
  1
STANDARD
  0
DICTIONARYVAR
  5
A10C
102
{ACAD_REACTORS
330
34
102
}
330
34
100
DictionaryVariables
280
     0
  1
1
  0
DICTIONARYVAR
  5
AB07
102
{ACAD_REACTORS
330
34
102
}
330
34
100
DictionaryVariables
280
     0
  1
4
  0
DICTIONARYVAR
  5
35
102
{ACAD_REACTORS
330
34
102
}
330
34
100
DictionaryVariables
280
     0
  1
1
  0
DICTIONARYVAR
  5
B5BB
102
{ACAD_REACTORS
330
34
102
}
330
34
100
DictionaryVariables
280
     0
  1
0
  0
DICTIONARYVAR
  5
B5B9
102
{ACAD_REACTORS
330
34
102
}
330
34
100
DictionaryVariables
280
     0
  1
0
  0
DICTIONARYVAR
  5
194C
102
{ACAD_REACTORS
330
34
102
}
330
34
100
DictionaryVariables
280
     0
  1
96
  0
DICTIONARY
  5
7E8
102
{ACAD_REACTORS
330
47
102
}
330
47
100
AcDbDictionary
281
     1
  0
DICTIONARY
  5
4C
102
{ACAD_REACTORS
330
47
102
}
330
47
100
AcDbDictionary
281
     1
  0
XRECORD
  5
A929
102
{ACAD_REACTORS
330
47
102
}
330
47
100
AcDbXrecord
280
     1
 90
-1023410169
  0
XRECORD
  5
B571
102
{ACAD_REACTORS
330
B570
102
}
330
B570
100
AcDbXrecord
280
     1
  0
XRECORD
  5
3FB7
102
{ACAD_REACTORS
330
3F96
102
}
330
3F96
100
AcDbXrecord
280
     1
 91
        3
330
0
 90
        8
 62
     7
370
    40
331
16
  1
Color_7
330
0
 90
        0
 62
    14
370
    -3
331
16
  1
Color_14
330
0
 90
        8
 62
     7
370
    20
331
16
  1
Color_7
330
6D1
 90
        0
 62
     7
370
    -3
331
16
  1
Color_7
330
0
 90
        8
 62
     7
370
    50
331
16
  1
Color_7
330
0
 90
        8
 62
     2
370
    35
331
16
  1
Color_2
330
0
 90
        8
 62
     7
370
    -3
331
16
  1
Color_7
330
10
 90
        8
 62
     7
370
    -3
331
16
  1
Color_7
  0
DICTIONARY
  5
13E3A
330
B0EF
100
AcDbDictionary
280
     1
281
     1
  3
ACAD_XREC_ROUNDTRIP
360
13E3B
  0
DICTIONARY
  5
13E38
330
B0EE
100
AcDbDictionary
280
     1
281
     1
  3
ACAD_XREC_ROUNDTRIP
360
13E39
  0
DICTIONARY
  5
13E3C
330
B0F0
100
AcDbDictionary
280
     1
281
     1
  3
ACAD_XREC_ROUNDTRIP
360
13E3D
  0
DICTIONARY
  5
B5B5
330
AABA
100
AcDbDictionary
280
     1
281
     1
  3
ACAD_ROUNDTRIP_2008_TABLESTYLE_CELLSTYLEMAP
360
13E34
  3
ACAD_XREC_ROUNDTRIP
360
13E37
  0
XRECORD
  5
13E3B
102
{ACAD_REACTORS
330
13E3A
102
}
330
13E3A
100
AcDbXrecord
280
     1
102
MATERIAL
148
0.0
149
0.0
149
0.0
 93
        0
 94
       63
282
     0
 72
     1
 77
     1
171
     1
175
     1
179
     1
273
     0
  0
XRECORD
  5
13E39
102
{ACAD_REACTORS
330
13E38
102
}
330
13E38
100
AcDbXrecord
280
     1
102
MATERIAL
148
0.0
149
0.0
149
0.0
 93
        0
 94
       63
282
     0
 72
     1
 77
     1
171
     1
175
     1
179
     1
273
     0
  0
XRECORD
  5
13E3D
102
{ACAD_REACTORS
330
13E3C
102
}
330
13E3C
100
AcDbXrecord
280
     1
102
MATERIAL
148
0.0
149
0.0
149
0.0
 93
        0
 94
       63
282
     0
 72
     1
 77
     1
171
     1
175
     1
179
     1
273
     0
  0
CELLSTYLEMAP
  5
13E34
102
{ACAD_REACTORS
330
B5B5
102
}
330
B5B5
100
AcDbCellStyleMap
 90
        3
300
CELLSTYLE
  1
TABLEFORMAT_BEGIN
 90
        5
170
     1
 91
        0
 92
    32768
 62
   257
 93
        1
300
CONTENTFORMAT
  1
CONTENTFORMAT_BEGIN
 90
        0
 91
        0
 92
        4
 93
        0
300

 40
0.0
140
1.0
 94
        5
 62
     0
340
11
144
6.0
309
CONTENTFORMAT_END
171
     1
301
MARGIN
  1
CELLMARGIN_BEGIN
 40
1.5
 40
1.5
 40
1.5
 40
1.5
 40
0.18
 40
0.18
309
CELLMARGIN_END
 94
        6
 95
        1
302
GRIDFORMAT
  1
GRIDFORMAT_BEGIN
 90
        0
 91
        1
 62
     0
 92
       -2
340
0
 93
        0
 40
0.045
309
GRIDFORMAT_END
 95
        2
302
GRIDFORMAT
  1
GRIDFORMAT_BEGIN
 90
        0
 91
        1
 62
     0
 92
       -2
340
0
 93
        0
 40
0.045
309
GRIDFORMAT_END
 95
        4
302
GRIDFORMAT
  1
GRIDFORMAT_BEGIN
 90
        0
 91
        1
 62
     0
 92
       -2
340
0
 93
        0
 40
0.045
309
GRIDFORMAT_END
 95
        8
302
GRIDFORMAT
  1
GRIDFORMAT_BEGIN
 90
        0
 91
        1
 62
     0
 92
       -2
340
0
 93
        0
 40
0.045
309
GRIDFORMAT_END
 95
       16
302
GRIDFORMAT
  1
GRIDFORMAT_BEGIN
 90
        0
 91
        1
 62
     0
 92
       -2
340
0
 93
        0
 40
0.045
309
GRIDFORMAT_END
 95
       32
302
GRIDFORMAT
  1
GRIDFORMAT_BEGIN
 90
        0
 91
        1
 62
     0
 92
       -2
340
0
 93
        0
 40
0.045
309
GRIDFORMAT_END
309
TABLEFORMAT_END
  1
CELLSTYLE_BEGIN
 90
        1
 91
        1
300
_TITLE
309
CELLSTYLE_END
300
CELLSTYLE
  1
TABLEFORMAT_BEGIN
 90
        5
170
     1
 91
        0
 92
        0
 62
   257
 93
        1
300
CONTENTFORMAT
  1
CONTENTFORMAT_BEGIN
 90
        0
 91
        0
 92
        4
 93
        0
300

 40
0.0
140
1.0
 94
        5
 62
     0
340
11
144
4.5
309
CONTENTFORMAT_END
171
     1
301
MARGIN
  1
CELLMARGIN_BEGIN
 40
1.5
 40
1.5
 40
1.5
 40
1.5
 40
0.18
 40
0.18
309
CELLMARGIN_END
 94
        6
 95
        1
302
GRIDFORMAT
  1
GRIDFORMAT_BEGIN
 90
        0
 91
        1
 62
     0
 92
       -2
340
0
 93
        0
 40
0.045
309
GRIDFORMAT_END
 95
        2
302
GRIDFORMAT
  1
GRIDFORMAT_BEGIN
 90
        0
 91
        1
 62
     0
 92
       -2
340
0
 93
        0
 40
0.045
309
GRIDFORMAT_END
 95
        4
302
GRIDFORMAT
  1
GRIDFORMAT_BEGIN
 90
        0
 91
        1
 62
     0
 92
       -2
340
0
 93
        0
 40
0.045
309
GRIDFORMAT_END
 95
        8
302
GRIDFORMAT
  1
GRIDFORMAT_BEGIN
 90
        0
 91
        1
 62
     0
 92
       -2
340
0
 93
        0
 40
0.045
309
GRIDFORMAT_END
 95
       16
302
GRIDFORMAT
  1
GRIDFORMAT_BEGIN
 90
        0
 91
        1
 62
     0
 92
       -2
340
0
 93
        0
 40
0.045
309
GRIDFORMAT_END
 95
       32
302
GRIDFORMAT
  1
GRIDFORMAT_BEGIN
 90
        0
 91
        1
 62
     0
 92
       -2
340
0
 93
        0
 40
0.045
309
GRIDFORMAT_END
309
TABLEFORMAT_END
  1
CELLSTYLE_BEGIN
 90
        2
 91
        1
300
_HEADER
309
CELLSTYLE_END
300
CELLSTYLE
  1
TABLEFORMAT_BEGIN
 90
        5
170
     1
 91
        0
 92
        0
 62
   257
 93
        1
300
CONTENTFORMAT
  1
CONTENTFORMAT_BEGIN
 90
        0
 91
        0
 92
        4
 93
        0
300

 40
0.0
140
1.0
 94
        2
 62
     0
340
11
144
4.5
309
CONTENTFORMAT_END
171
     1
301
MARGIN
  1
CELLMARGIN_BEGIN
 40
1.5
 40
1.5
 40
1.5
 40
1.5
 40
0.18
 40
0.18
309
CELLMARGIN_END
 94
        6
 95
        1
302
GRIDFORMAT
  1
GRIDFORMAT_BEGIN
 90
        0
 91
        1
 62
     0
 92
       -2
340
0
 93
        0
 40
0.045
309
GRIDFORMAT_END
 95
        2
302
GRIDFORMAT
  1
GRIDFORMAT_BEGIN
 90
        0
 91
        1
 62
     0
 92
       -2
340
0
 93
        0
 40
0.045
309
GRIDFORMAT_END
 95
        4
302
GRIDFORMAT
  1
GRIDFORMAT_BEGIN
 90
        0
 91
        1
 62
     0
 92
       -2
340
0
 93
        0
 40
0.045
309
GRIDFORMAT_END
 95
        8
302
GRIDFORMAT
  1
GRIDFORMAT_BEGIN
 90
        0
 91
        1
 62
     0
 92
       -2
340
0
 93
        0
 40
0.045
309
GRIDFORMAT_END
 95
       16
302
GRIDFORMAT
  1
GRIDFORMAT_BEGIN
 90
        0
 91
        1
 62
     0
 92
       -2
340
0
 93
        0
 40
0.045
309
GRIDFORMAT_END
 95
       32
302
GRIDFORMAT
  1
GRIDFORMAT_BEGIN
 90
        0
 91
        1
 62
     0
 92
       -2
340
0
 93
        0
 40
0.045
309
GRIDFORMAT_END
309
TABLEFORMAT_END
  1
CELLSTYLE_BEGIN
 90
        3
 91
        2
300
_DATA
309
CELLSTYLE_END
  0
XRECORD
  5
13E37
102
{ACAD_REACTORS
330
B5B5
102
}
330
B5B5
100
AcDbXrecord
280
     1
102
ACAD_ROUNDTRIP_PRE2007_TABLESTYLE
 90
        4
 91
        0
  1

 92
        4
 93
        0
  2

 94
        4
 95
        0
  3

  0
ENDSEC
  0
EOF
