  0
SECTION
  2
HEADER
  9
$ACADVER
  1
AC1018
  9
$ACADMAINTVER
 70
   104
  9
$DWGCODEPAGE
  3
ANSI_932
  9
$LASTSAVEDBY
  1
Administrator
  9
$CUSTOMPROPERTYTAG
  1
AmdtFileType
  9
$CUSTOMPROPERTY
  1
84
  9
$INSBASE
 10
0.0
 20
0.0
 30
0.0
  9
$EXTMIN
 10
0.0
 20
0.0
 30
0.0
  9
$EXTMAX
 10
420.0
 20
297.0
 30
0.0
  9
$LIMMIN
 10
0.0
 20
0.0
  9
$LIMMAX
 10
420.0
 20
297.0
  9
$ORTHOMODE
 70
     0
  9
$REGENMODE
 70
     1
  9
$FILLMODE
 70
     1
  9
$QTEXTMODE
 70
     0
  9
$MIRRTEXT
 70
     0
  9
$LTSCALE
 40
1.0
  9
$ATTMODE
 70
     1
  9
$TEXTSIZE
 40
3.2
  9
$TRACEWID
 40
1.0
  9
$TEXTSTYLE
  7
STANDARD
  9
$CLAYER
  8
AM_0
  9
$CELTYPE
  6
ByLayer
  9
$CECOLOR
 62
   256
  9
$CELTSCALE
 40
1.0
  9
$DISPSILH
 70
     0
  9
$DIMSCALE
 40
1.0
  9
$DIMASZ
 40
1.0
  9
$DIMEXO
 40
1.0
  9
$DIMDLI
 40
10.0
  9
$DIMRND
 40
0.0
  9
$DIMDLE
 40
0.0
  9
$DIMEXE
 40
1.0
  9
$DIMTP
 40
0.1
  9
$DIMTM
 40
0.1
  9
$DIMTXT
 40
3.5
  9
$DIMCEN
 40
0.0
  9
$DIMTSZ
 40
0.0
  9
$DIMTOL
 70
     0
  9
$DIMLIM
 70
     0
  9
$DIMTIH
 70
     0
  9
$DIMTOH
 70
     0
  9
$DIMSE1
 70
     0
  9
$DIMSE2
 70
     0
  9
$DIMTAD
 70
     1
  9
$DIMZIN
 70
     8
  9
$DIMBLK
  1

  9
$DIMASO
 70
     1
  9
$DIMSHO
 70
     1
  9
$DIMPOST
  1

  9
$DIMAPOST
  1
"
  9
$DIMALT
 70
     0
  9
$DIMALTD
 70
     2
  9
$DIMALTF
 40
0.0393701
  9
$DIMLFAC
 40
1.0
  9
$DIMTOFL
 70
     1
  9
$DIMTVP
 40
0.0
  9
$DIMTIX
 70
     0
  9
$DIMSOXD
 70
     0
  9
$DIMSAH
 70
     0
  9
$DIMBLK1
  1

  9
$DIMBLK2
  1

  9
$DIMSTYLE
  2
SYS
  9
$DIMCLRD
 70
   256
  9
$DIMCLRE
 70
   256
  9
$DIMCLRT
 70
     7
  9
$DIMTFAC
 40
0.71
  9
$DIMGAP
 40
1.5
  9
$DIMJUST
 70
     0
  9
$DIMSD1
 70
     0
  9
$DIMSD2
 70
     0
  9
$DIMTOLJ
 70
     0
  9
$DIMTZIN
 70
     8
  9
$DIMALTZ
 70
     0
  9
$DIMALTTZ
 70
     0
  9
$DIMUPT
 70
     0
  9
$DIMDEC
 70
     2
  9
$DIMTDEC
 70
     2
  9
$DIMALTU
 70
     2
  9
$DIMALTTD
 70
     2
  9
$DIMTXSTY
  7
STANDARD
  9
$DIMAUNIT
 70
     0
  9
$DIMADEC
 70
     0
  9
$DIMALTRND
 40
0.0
  9
$DIMAZIN
 70
     2
  9
$DIMDSEP
 70
    46
  9
$DIMATFIT
 70
     3
  9
$DIMFRAC
 70
     0
  9
$DIMLDRBLK
  1

  9
$DIMLUNIT
 70
     2
  9
$DIMLWD
 70
    -1
  9
$DIMLWE
 70
    -1
  9
$DIMTMOVE
 70
     0
  9
$LUNITS
 70
     2
  9
$LUPREC
 70
     2
  9
$SKETCHINC
 40
1.0
  9
$FILLETRAD
 40
1.0
  9
$AUNITS
 70
     0
  9
$AUPREC
 70
     0
  9
$MENU
  1
.
  9
$ELEVATION
 40
0.0
  9
$PELEVATION
 40
0.0
  9
$THICKNESS
 40
0.0
  9
$LIMCHECK
 70
     0
  9
$CHAMFERA
 40
0.0
  9
$CHAMFERB
 40
0.0
  9
$CHAMFERC
 40
20.0
  9
$CHAMFERD
 40
0.0
  9
$SKPOLY
 70
     0
  9
$TDCREATE
 40
2455586.676808449
  9
$TDUCREATE
 40
2455586.301808449
  9
$TDUPDATE
 40
2455590.919144780
  9
$TDUUPDATE
 40
2455590.544144780
  9
$TDINDWG
 40
0.3136588310
  9
$TDUSRTIMER
 40
0.3136588310
  9
$USRTIMER
 70
     1
  9
$ANGBASE
 50
0.0
  9
$ANGDIR
 70
     0
  9
$PDMODE
 70
     0
  9
$PDSIZE
 40
-3.0
  9
$PLINEWID
 40
0.0
  9
$SPLFRAME
 70
     0
  9
$SPLINETYPE
 70
     6
  9
$SPLINESEGS
 70
     8
  9
$HANDSEED
  5
11BA2
  9
$SURFTAB1
 70
     6
  9
$SURFTAB2
 70
     6
  9
$SURFTYPE
 70
     6
  9
$SURFU
 70
     6
  9
$SURFV
 70
     6
  9
$UCSBASE
  2

  9
$UCSNAME
  2

  9
$UCSORG
 10
0.0
 20
0.0
 30
0.0
  9
$UCSXDIR
 10
1.0
 20
0.0
 30
0.0
  9
$UCSYDIR
 10
0.0
 20
1.0
 30
0.0
  9
$UCSORTHOREF
  2

  9
$UCSORTHOVIEW
 70
     0
  9
$UCSORGTOP
 10
0.0
 20
0.0
 30
0.0
  9
$UCSORGBOTTOM
 10
0.0
 20
0.0
 30
0.0
  9
$UCSORGLEFT
 10
0.0
 20
0.0
 30
0.0
  9
$UCSORGRIGHT
 10
0.0
 20
0.0
 30
0.0
  9
$UCSORGFRONT
 10
0.0
 20
0.0
 30
0.0
  9
$UCSORGBACK
 10
0.0
 20
0.0
 30
0.0
  9
$PUCSBASE
  2

  9
$PUCSNAME
  2

  9
$PUCSORG
 10
0.0
 20
0.0
 30
0.0
  9
$PUCSXDIR
 10
1.0
 20
0.0
 30
0.0
  9
$PUCSYDIR
 10
0.0
 20
1.0
 30
0.0
  9
$PUCSORTHOREF
  2

  9
$PUCSORTHOVIEW
 70
     0
  9
$PUCSORGTOP
 10
0.0
 20
0.0
 30
0.0
  9
$PUCSORGBOTTOM
 10
0.0
 20
0.0
 30
0.0
  9
$PUCSORGLEFT
 10
0.0
 20
0.0
 30
0.0
  9
$PUCSORGRIGHT
 10
0.0
 20
0.0
 30
0.0
  9
$PUCSORGFRONT
 10
0.0
 20
0.0
 30
0.0
  9
$PUCSORGBACK
 10
0.0
 20
0.0
 30
0.0
  9
$USERI1
 70
     0
  9
$USERI2
 70
     0
  9
$USERI3
 70
     0
  9
$USERI4
 70
     0
  9
$USERI5
 70
     0
  9
$USERR1
 40
0.0
  9
$USERR2
 40
0.0
  9
$USERR3
 40
0.0
  9
$USERR4
 40
0.0
  9
$USERR5
 40
0.0
  9
$WORLDVIEW
 70
     1
  9
$SHADEDGE
 70
     3
  9
$SHADEDIF
 70
    70
  9
$TILEMODE
 70
     1
  9
$MAXACTVP
 70
    64
  9
$PINSBASE
 10
0.0
 20
0.0
 30
0.0
  9
$PLIMCHECK
 70
     0
  9
$PEXTMIN
 10
1.000000000000000E+20
 20
1.000000000000000E+20
 30
1.000000000000000E+20
  9
$PEXTMAX
 10
-1.000000000000000E+20
 20
-1.000000000000000E+20
 30
-1.000000000000000E+20
  9
$PLIMMIN
 10
-3.17498779296875
 20
-3.174999952316284
  9
$PLIMMAX
 10
293.4970092773438
 20
206.692492723465
  9
$UNITMODE
 70
     0
  9
$VISRETAIN
 70
     1
  9
$PLINEGEN
 70
     0
  9
$PSLTSCALE
 70
     1
  9
$TREEDEPTH
 70
  3020
  9
$CMLSTYLE
  2
Standard
  9
$CMLJUST
 70
     0
  9
$CMLSCALE
 40
20.0
  9
$PROXYGRAPHICS
 70
     1
  9
$MEASUREMENT
 70
     1
  9
$CELWEIGHT
370
    -1
  9
$ENDCAPS
280
     0
  9
$JOINSTYLE
280
     0
  9
$LWDISPLAY
290
     1
  9
$INSUNITS
 70
     4
  9
$HYPERLINKBASE
  1

  9
$STYLESHEET
  1
monochrome.ctb
  9
$XEDIT
290
     1
  9
$CEPSNTYPE
380
     0
  9
$PSTYLEMODE
290
     1
  9
$FINGERPRINTGUID
  2
{55437959-1424-4180-A3A3-0250141FF14A}
  9
$VERSIONGUID
  2
{F90A3719-DFB2-4CEC-AC80-ECE30CECDA8C}
  9
$EXTNAMES
290
     1
  9
$PSVPSCALE
 40
0.0
  9
$OLESTARTUP
290
     0
  9
$SORTENTS
280
    96
  9
$INDEXCTL
280
     0
  9
$HIDETEXT
280
     0
  9
$XCLIPFRAME
290
     0
  9
$HALOGAP
280
     0
  9
$OBSCOLOR
 70
   257
  9
$OBSLTYPE
280
     0
  9
$INTERSECTIONDISPLAY
280
     0
  9
$INTERSECTIONCOLOR
 70
   257
  9
$DIMASSOC
280
     1
  9
$PROJECTNAME
  1

  0
ENDSEC
  0
SECTION
  2
CLASSES
  0
CLASS
  1
ACDBDICTIONARYWDFLT
  2
AcDbDictionaryWithDefault
  3
ObjectDBX Classes
 90
        0
 91
        1
280
     0
281
     0
  0
CLASS
  1
ACDBPLACEHOLDER
  2
AcDbPlaceHolder
  3
ObjectDBX Classes
 90
        0
 91
        1
280
     0
281
     0
  0
CLASS
  1
LAYOUT
  2
AcDbLayout
  3
ObjectDBX Classes
 90
        0
 91
        3
280
     0
281
     0
  0
CLASS
  1
AMGSETTINGSOBJ
  2
AmgSettingsObj
  3
"AcadM|Product Description: AutoCAD Mechanical|Company: Autodesk, Inc."
 90
     1024
 91
        4
280
     0
281
     0
  0
CLASS
  1
ACME_DOCUMENT
  2
AcMeDbDoc
  3
AcMeServices
 90
     1024
 91
        2
280
     0
281
     0
  0
CLASS
  1
ACMESCOPE
  2
AcMeScope
  3
AcMeServices
 90
     1024
 91
        1
280
     0
281
     0
  0
CLASS
  1
ACMECOMMANDHISTORY
  2
AcMeCommandHistory
  3
AcMeServices
 90
     1024
 91
        1
280
     0
281
     0
  0
CLASS
  1
DICTIONARYVAR
  2
AcDbDictionaryVar
  3
ObjectDBX Classes
 90
        0
 91
        9
280
     0
281
     0
  0
CLASS
  1
ACIMSYSVARMAN
  2
AcImSysVarManager
  3
AcMeServices
 90
     1024
 91
        6
280
     0
281
     0
  0
CLASS
  1
ACIMREALSYSVAR
  2
AcImRealSysVar
  3
AcMeServices
 90
     1024
 91
       17
280
     0
281
     0
  0
CLASS
  1
ACIMINTSYSVAR
  2
AcImIntSysVar
  3
AcMeServices
 90
     1024
 91
       73
280
     0
281
     0
  0
CLASS
  1
ACMEDRAWINGMAN
  2
AcMeDrawingMan
  3
AcMeServices
 90
     1024
 91
        1
280
     0
281
     0
  0
CLASS
  1
ACMEVIEW
  2
AcMeView
  3
AcMeServices
 90
     1024
 91
        1
280
     0
281
     0
  0
CLASS
  1
ACDBENTITYCACHE
  2
AcMeEntityCache
  3
AcMeServices
 90
     1024
 91
        1
280
     0
281
     0
  0
CLASS
  1
GSMANAGER
  2
AcMeGSManager
  3
AcMeServices
 90
     1024
 91
        1
280
     0
281
     0
  0
CLASS
  1
AMDTINTERNALREACTOR
  2
AmdtInternalReactor
  3
AcMeServices
 90
     1024
 91
        2
280
     0
281
     0
  0
CLASS
  1
ACMESTATEMGR
  2
AcMeStateMgr
  3
AcMeServices
 90
     1024
 91
        1
280
     0
281
     0
  0
CLASS
  1
ACGREFMASTER
  2
AcGrefMaster
  3
AcAttribServices
 90
     1024
 91
        1
280
     0
281
     0
  0
CLASS
  1
ACME_DATABASE
  2
AcMeDbDatabase
  3
AcMeServices
 90
     1024
 91
        1
280
     0
281
     0
  0
CLASS
  1
ACRFINSADJUSTERMGR
  2
AcRfInsAdjusterMgr
  3
AcMeServices
 90
     1024
 91
        1
280
     0
281
     0
  0
CLASS
  1
ACGREFACADMASTER
  2
AcGrefacadMaster
  3
AcGrefServices
 90
     1024
 91
        1
280
     0
281
     0
  0
CLASS
  1
AMIMASTER
  2
AmiMaster
  3
AmiServices
 90
     1024
 91
        1
280
     0
281
     0
  0
CLASS
  1
ACMDATADICTIONARY
  2
AcmDataDictionary
  3
"AcmSymBB|Product Description: AutoCAD Mechanical|Company: Autodesk, Inc."
 90
     1024
 91
        1
280
     0
281
     0
  0
CLASS
  1
ACMDATAENTRYBLOCK
  2
AcmDataEntryBlock
  3
AcmSymBB|Product Description: AutoCAD Mechanical|Company: Autodesk, Inc.
 90
     1024
 91
        6
280
     0
281
     0
  0
CLASS
  1
ACIMSTRSYSVAR
  2
AcImStrSysVar
  3
AcMeServices
 90
     1024
 91
       11
280
     0
281
     0
  0
CLASS
  1
ACMSTANDARDISO
  2
AcmStandardISO
  3
"Amdt_StdImp|Product Description: AutoCAD Mechanical|Company: Autodesk, Inc."
 90
     1024
 91
        1
280
     0
281
     0
  0
CLASS
  1
AMGOBJPROPCFG
  2
AmgObjPropCfg
  3
"AmgLay|Product Description: AutoCAD Mechanical|Company: Autodesk, Inc."
 90
     1025
 91
        1
280
     0
281
     0
  0
CLASS
  1
AMDTEDGESTANDARDISO
  2
AmdtEdgeStdISO
  3
"Amdt_StdImp|Product Description: AutoCAD Mechanical|Company: Autodesk, Inc."
 90
     1024
 91
        1
280
     0
281
     0
  0
CLASS
  1
ACMSURFSTANDARDISO
  2
AcmSurfTextStdISO
  3
"Amdt_StdImp|Product Description: AutoCAD Mechanical|Company: Autodesk, Inc."
 90
     1024
 91
        1
280
     0
281
     0
  0
CLASS
  1
ACMFCFSTANDARDISO
  2
AcmFCFStdISO
  3
"Amdt_StdImp|Product Description: AutoCAD Mechanical|Company: Autodesk, Inc."
 90
     1024
 91
        1
280
     0
281
     0
  0
CLASS
  1
ACMWELDSTANDARDISO
  2
AcmWeldingStdISO
  3
"Amdt_StdImp|Product Description: AutoCAD Mechanical|Company: Autodesk, Inc."
 90
     1024
 91
        1
280
     0
281
     0
  0
CLASS
  1
ACMIDSTANDARDISO
  2
AcmIdStdISO
  3
"Amdt_StdImp|Product Description: AutoCAD Mechanical|Company: Autodesk, Inc."
 90
     1024
 91
        1
280
     0
281
     0
  0
CLASS
  1
ACMDATUMSTANDARDISO
  2
AcmDatumStdISO
  3
"Amdt_StdImp|Product Description: AutoCAD Mechanical|Company: Autodesk, Inc."
 90
     1024
 91
        1
280
     0
281
     0
  0
CLASS
  1
ACMBOMSTANDARDISO
  2
AcmBOMStdISO
  3
"Amdt_StdImp|Product Description: AutoCAD Mechanical|Company: Autodesk, Inc."
 90
     1024
 91
        1
280
     0
281
     0
  0
CLASS
  1
ACMDETAILSTANDARDISO
  2
AmdtDetailSymStdISO
  3
"Amdt_StdImp|Product Description: AutoCAD Mechanical|Company: Autodesk, Inc."
 90
     1024
 91
        1
280
     0
281
     0
  0
CLASS
  1
ACMSECTIONSTANDARDISO
  2
AmdtSectionSymStdISO
  3
"Amdt_StdImp|Product Description: AutoCAD Mechanical|Company: Autodesk, Inc."
 90
     1024
 91
        1
280
     0
281
     0
  0
CLASS
  1
ACMCENTERLINESTANDARDISO
  2
AmdtCenterLineStdISO
  3
"Amdt_StdImp|Product Description: AutoCAD Mechanical|Company: Autodesk, Inc."
 90
     1024
 91
        1
280
     0
281
     0
  0
CLASS
  1
ACAMGLAYSTD
  2
AcAmgLayStd
  3
"AmgLay|Product Description: AutoCAD Mechanical|Company: Autodesk, Inc."
 90
     1024
 91
        2
280
     0
281
     0
  0
CLASS
  1
ACAMGDIMSTD
  2
AcAmgDimStd
  3
"AmgDim|Product Description: AutoCAD Mechanical|Company: Autodesk, Inc."
 90
     1024
 91
        2
280
     0
281
     0
  0
CLASS
  1
ACAMGTITLESTD
  2
AcAmgTitleStd
  3
"AmgTitle|Product Description: AutoCAD Mechanical|Company: Autodesk, Inc."
 90
     4095
 91
        2
280
     0
281
     0
  0
CLASS
  1
ACAMGFILTERDAT
  2
AcAmgFilterDat
  3
"AcadM|Product Description: AutoCAD Mechanical|Company: Autodesk, Inc."
 90
     1024
 91
        6
280
     0
281
     0
  0
CLASS
  1
LAYER_INDEX
  2
AcDbLayerIndex
  3
ObjectDBX Classes
 90
        0
 91
        0
280
     0
281
     0
  0
CLASS
  1
IDBUFFER
  2
AcDbIdBuffer
  3
ObjectDBX Classes
 90
        0
 91
        0
280
     0
281
     0
  0
CLASS
  1
PLOTSETTINGS
  2
AcDbPlotSettings
  3
ObjectDBX Classes
 90
        0
 91
        0
280
     0
281
     0
  0
CLASS
  1
AMDTFORMULAUPDATEDISPATCHER
  2
AmdtFormulaUpdateDispatcher
  3
AcMeServices
 90
     1024
 91
        1
280
     0
281
     0
  0
CLASS
  1
ACMSTANDARDANSI
  2
AcmStandardANSI
  3
"Amdt_StdImp|Product Description: AutoCAD Mechanical|Company: Autodesk, Inc."
 90
     1024
 91
        1
280
     0
281
     0
  0
CLASS
  1
ACMSURFSTANDARDANSI
  2
AcmSurfTextStdANSI
  3
"Amdt_StdImp|Product Description: AutoCAD Mechanical|Company: Autodesk, Inc."
 90
     1024
 91
        1
280
     0
281
     0
  0
CLASS
  1
ACMFCFSTANDARDANSI
  2
AcmFCFStdANSI
  3
"Amdt_StdImp|Product Description: AutoCAD Mechanical|Company: Autodesk, Inc."
 90
     1024
 91
        1
280
     0
281
     0
  0
CLASS
  1
ACMWELDSTANDARDANSI
  2
AcmWeldingStdANSI
  3
"Amdt_StdImp|Product Description: AutoCAD Mechanical|Company: Autodesk, Inc."
 90
     1024
 91
        1
280
     0
281
     0
  0
CLASS
  1
ACMIDSTANDARDANSI
  2
AcmIdStdANSI
  3
"Amdt_StdImp|Product Description: AutoCAD Mechanical|Company: Autodesk, Inc."
 90
     1024
 91
        1
280
     0
281
     0
  0
CLASS
  1
ACMDATUMSTANDARDANSI
  2
AcmDatumStdANSI
  3
"Amdt_StdImp|Product Description: AutoCAD Mechanical|Company: Autodesk, Inc."
 90
     1024
 91
        1
280
     0
281
     0
  0
CLASS
  1
ACMBOMSTANDARDANSI
  2
AcmBOMStdANSI
  3
"Amdt_StdImp|Product Description: AutoCAD Mechanical|Company: Autodesk, Inc."
 90
     1024
 91
        1
280
     0
281
     0
  0
CLASS
  1
ACMDETAILSTANDARDANSI
  2
AmdtDetailSymStdANSI
  3
"Amdt_StdImp|Product Description: AutoCAD Mechanical|Company: Autodesk, Inc."
 90
     1024
 91
        1
280
     0
281
     0
  0
CLASS
  1
ACMSECTIONSTANDARDANSI
  2
AmdtSectionSymStdANSI
  3
"Amdt_StdImp|Product Description: AutoCAD Mechanical|Company: Autodesk, Inc."
 90
     1024
 91
        1
280
     0
281
     0
  0
CLASS
  1
ACMCENTERLINESTANDARDANSI
  2
AmdtCenterLineStdANSI
  3
"Amdt_StdImp|Product Description: AutoCAD Mechanical|Company: Autodesk, Inc."
 90
     1024
 91
        1
280
     0
281
     0
  0
CLASS
  1
ACMBOM
  2
AcmBom
  3
"AcmSymBB|Product Description: AutoCAD Mechanical|Company: Autodesk, Inc."
 90
     1024
 91
        1
280
     0
281
     0
  0
CLASS
  1
ACMDATAENTRYPART
  2
AcmDataEntryPart
  3
AcmSymBB|Product Description: AutoCAD Mechanical|Company: Autodesk, Inc.
 90
     1024
 91
        0
280
     0
281
     0
  0
CLASS
  1
ACMPARTREF
  2
AcmPartRef
  3
"AcmSymBB|Product Description: AutoCAD Mechanical|Company: Autodesk, Inc."
 90
     4095
 91
        0
280
     0
281
     1
  0
CLASS
  1
ACDBCIRCARCRES
  2
AcDbCircArcRes
  3
AcGrefServices
 90
     1024
 91
        0
280
     0
281
     0
  0
CLASS
  1
ACMBOMROW
  2
AcmBomRow
  3
"AcmSymBB|Product Description: AutoCAD Mechanical|Company: Autodesk, Inc."
 90
     1024
 91
        0
280
     0
281
     0
  0
CLASS
  1
ACMBALLOON
  2
AcmBalloon
  3
"AcmSymBB|Product Description: AutoCAD Mechanical|Company: Autodesk, Inc."
 90
     4095
 91
        0
280
     0
281
     1
  0
CLASS
  1
AMDTNOTE
  2
AmdtNote
  3
"AcmSymBB|Product Description: AutoCAD Mechanical|Company: Autodesk, Inc."
 90
     4095
 91
        0
280
     0
281
     1
  0
CLASS
  1
STDPART2D
  2
AmgStdPart
  3
AmgStdPart|Product Description: AutoCAD Mechanical|Company: Autodesk, Inc.
 90
     4095
 91
        0
280
     0
281
     1
  0
CLASS
  1
ACDBSTDPARTRES_LINE
  2
AcDbStdPartRes_Line
  3
AmgStdPart|Product Description: AutoCAD Mechanical|Company: Autodesk, Inc.
 90
     1024
 91
        0
280
     0
281
     0
  0
CLASS
  1
ACMDATAENTRY
  2
AcmDataEntry
  3
AcmSymBB|Product Description: AutoCAD Mechanical|Company: Autodesk, Inc.
 90
     1024
 91
        9
280
     0
281
     0
  0
CLASS
  1
ACDBOPPOLYLINERES
  2
AcDbOpPolylineRes
  3
AcGrefServices
 90
     1024
 91
        0
280
     0
281
     0
  0
CLASS
  1
ACMPARTLIST
  2
AcmPartList
  3
"AcmSymBB|Product Description: AutoCAD Mechanical|Company: Autodesk, Inc."
 90
     4095
 91
        0
280
     0
281
     1
  0
CLASS
  1
ACDBLINERES
  2
AcDbLineRes
  3
AcGrefServices
 90
     1024
 91
        0
280
     0
281
     0
  0
CLASS
  1
ACRFINSADJ
  2
AcRfInsAdjuster
  3
AcMeServices
 90
     1024
 91
        0
280
     0
281
     0
  0
CLASS
  1
AM_DRAWING_MGR
  2
AcDmDwgMgr
  3
AcMechDwgViewMgmt
 90
     1024
 91
        1
280
     0
281
     0
  0
CLASS
  1
AM_DWG_DOCUMENT
  2
AcDmDwgDocument
  3
AcMechDwgViewMgmt
 90
     1024
 91
        1
280
     0
281
     0
  0
CLASS
  1
AM_DWG_SHEET
  2
AcDmSheet
  3
AcMechDwgViewMgmt
 90
     1024
 91
        2
280
     0
281
     0
  0
CLASS
  1
AM_VIEWDIMPARMAP
  2
AcDmViewDimParMap
  3
AcMechDwgViewMgmt
 90
     1024
 91
        2
280
     0
281
     0
  0
CLASS
  1
AM_DWGMGR_NAME
  2
AcDmDwgMgrName
  3
AcMechDwgViewMgmt
 90
     1024
 91
        1
280
     0
281
     0
  0
CLASS
  1
AMDTMENUSTATEMGR
  2
AmdtMenuStateMgr
  3
McadcomServices
 90
     1024
 91
        1
280
     0
281
     0
  0
CLASS
  1
AMDTMCOMMENUSTATE
  2
AmdtMcomMenuState
  3
McadcomServices
 90
     1024
 91
        1
280
     0
281
     0
  0
CLASS
  1
ASAPP
  2
AcAsAppObject
  3
AutoSurfServices
 90
        0
 91
        2
280
     0
281
     0
  0
CLASS
  1
IM_STATIC_MAN
  2
AcImStaticVarManager
  3
AcMeServices
 90
     1024
 91
        1
280
     0
281
     0
  0
CLASS
  1
ACIMDBLSTATICVAR
  2
AcImDblStaticVar
  3
AcMeServices
 90
     1024
 91
       20
280
     0
281
     0
  0
CLASS
  1
ACIMSTRSTATICVAR
  2
AcImStrStaticVar
  3
AcMeServices
 90
     1024
 91
       12
280
     0
281
     0
  0
CLASS
  1
ACIMINTSTATICVAR
  2
AcImIntStaticVar
  3
AcMeServices
 90
     1024
 91
       17
280
     0
281
     0
  0
CLASS
  1
ACASGREFMASTER
  2
AcAsGrefMaster
  3
AutoSurfResolverServices
 90
        0
 91
        2
280
     0
281
     0
  0
CLASS
  1
ACADGREFMODULE
  2
AcAdGrefModule
  3
AdGrefServices
 90
        0
 91
        2
280
     0
281
     0
  0
CLASS
  1
AMDTMAPISURFMOUDULE
  2
AmdtMApiSurfModule
  3
MApiSurfServices
 90
        0
 91
        2
280
     0
281
     0
  0
CLASS
  1
MAPIAMMOUDLE
  2
MApiAmModule
  3
MApiAmServices
 90
     1024
 91
        1
280
     0
281
     0
  0
CLASS
  1
AMDTADMENUSTATE
  2
AmdtAdMenuState
  3
DesignerServices
 90
     1024
 91
        1
280
     0
281
     0
  0
CLASS
  1
ADAPPL
  2
AcAdAppl
  3
DesignerServices
 90
     1024
 91
        1
280
     0
281
     0
  0
CLASS
  1
DEPMGR
  2
AcAdDepMgr
  3
DesignerServices
 90
     1024
 91
        1
280
     0
281
     0
  0
CLASS
  1
PARAMMGR
  2
AcAdParamMgr
  3
DesignerServices
 90
     1024
 91
        1
280
     0
281
     0
  0
CLASS
  1
PARAMSCOPE
  2
AcAdParamScope
  3
DesignerServices
 90
     1024
 91
        1
280
     0
281
     0
  0
CLASS
  1
NAMEDAPPL
  2
AcAdNamedAppl
  3
DesignerServices
 90
     1024
 91
        1
280
     0
281
     0
  0
CLASS
  1
ADHNTMPLT
  2
AdHoleNoteTemplateMgr
  3
DesignerServices
 90
     1024
 91
        0
280
     0
281
     0
  0
CLASS
  1
AM_HNTEMPLATE_MGR_NAME
  2
AdHoleNoteTemplateMgrName
  3
DesignerServices
 90
     1024
 91
        0
280
     0
281
     0
  0
CLASS
  1
AMDTDMMENUSTATE
  2
AmdtDmMenuState
  3
AcMechDwgViewMgmt
 90
     1024
 91
        1
280
     0
281
     0
  0
CLASS
  1
MAPIADMODULE
  2
MApiAdModule
  3
MApiAdServices
 90
        0
 91
        2
280
     0
281
     0
  0
CLASS
  1
AMDTAMMENUSTATE
  2
AmdtAmMenuState
  3
DesignerAssemblies
 90
     1024
 91
        1
280
     0
281
     0
  0
CLASS
  1
ACAMPROJECT
  2
AcAmProject
  3
DesignerAssemblies
 90
     1024
 91
        1
280
     0
281
     0
  0
CLASS
  1
ACAMGRCOMPDEF
  2
AcAmGrCompDef
  3
DesignerAssemblies
 90
     1024
 91
        1
280
     0
281
     0
  0
CLASS
  1
ACCMCONTEXT
  2
AcCmContext
  3
DesignerAssemblies
 90
     1024
 91
        1
280
     0
281
     0
  0
CLASS
  1
ACAMCOMPDEF
  2
AcAmCompDef
  3
DesignerAssemblies
 90
     1024
 91
        1
280
     0
281
     0
  0
CLASS
  1
ACAMCOMPDEFMGR
  2
AcAmCompDefMgr
  3
DesignerAssemblies
 90
     1024
 91
        1
280
     0
281
     0
  0
CLASS
  1
AMCONTEXTMGR
  2
AcAmContextMgr
  3
DesignerAssemblies
 90
     1024
 91
        1
280
     0
281
     0
  0
CLASS
  1
ACAMCONTEXTMODELER
  2
AcAmContextModeler
  3
DesignerAssemblies
 90
     1024
 91
        1
280
     0
281
     0
  0
CLASS
  1
CATALOGSTATE
  2
AcAmCatalogState
  3
DesignerAssemblies
 90
     1024
 91
        1
280
     0
281
     0
  0
CLASS
  1
ACAMGRCOMPDEFSET
  2
AcAmGrCompDefSet
  3
DesignerAssemblies
 90
     1024
 91
        1
280
     0
281
     0
  0
CLASS
  1
AMDTBROWSERDBTAB
  2
AmdtBrowserDbTab
  3
McadcomServices
 90
     1024
 91
        1
280
     0
281
     0
  0
CLASS
  1
CBROWSERAPPOBJECT
  2
CBrowserAppObject
  3
McadcomServices
 90
     1024
 91
        3
280
     0
281
     0
  0
CLASS
  1
DM_PLACEHOLDER
  2
AcDmSelsetPlaceholder
  3
AcMechDwgViewMgmt
 90
     1024
 91
        1
280
     0
281
     0
  0
CLASS
  1
ACMPICKOBJ
  2
AcmPickEnt
  3
"AcmSymBB|Product Description: AutoCAD Mechanical|Company: Autodesk, Inc."
 90
     1024
 91
        0
280
     0
281
     1
  0
CLASS
  1
ACMNOTESTANDARDISO
  2
AmdtNoteStdISO
  3
"Amdt_StdImp|Product Description: AutoCAD Mechanical|Company: Autodesk, Inc."
 90
     1024
 91
        1
280
     0
281
     0
  0
CLASS
  1
ACMNOTESTANDARDANSI
  2
AmdtNoteStdANSI
  3
"Amdt_StdImp|Product Description: AutoCAD Mechanical|Company: Autodesk, Inc."
 90
     1024
 91
        1
280
     0
281
     0
  0
CLASS
  1
ACMTHREADLINESTANDARDISO
  2
AmdtThreadLineStdISO
  3
"Amdt_StdImp|Product Description: AutoCAD Mechanical|Company: Autodesk, Inc."
 90
     1024
 91
        1
280
     0
281
     0
  0
CLASS
  1
ACMTHREADLINESTANDARDANSI
  2
AmdtThreadLineStdANSI
  3
"Amdt_StdImp|Product Description: AutoCAD Mechanical|Company: Autodesk, Inc."
 90
     1024
 91
        1
280
     0
281
     0
  0
CLASS
  1
TABLESTYLE
  2
AcDbTableStyle
  3
ObjectDBX Classes
 90
     4095
 91
        1
280
     0
281
     0
  0
CLASS
  1
SORTENTSTABLE
  2
AcDbSortentsTable
  3
ObjectDBX Classes
 90
        0
 91
        1
280
     0
281
     0
  0
CLASS
  1
MATERIAL
  2
AcDbMaterial
  3
ObjectDBX Classes
 90
     1153
 91
        3
280
     0
281
     0
  0
CLASS
  1
VISUALSTYLE
  2
AcDbVisualStyle
  3
ObjectDBX Classes
 90
     4095
 91
       16
280
     0
281
     0
  0
CLASS
  1
ACRFATTGENMGR
  2
AcRfAttGeneralMgr
  3
AcAttribServices
 90
     1024
 91
        1
280
     0
281
     0
  0
CLASS
  1
ACRFOBJATTMGR
  2
AcRfObjAttGroupMgr
  3
AcAttribServices
 90
     1024
 91
        1
280
     0
281
     0
  0
CLASS
  1
ACRFMCADAPIATTHOLDER
  2
AcRfMCADAPIAttHolder
  3
AcAttribServices
 90
     1024
 91
        1
280
     0
281
     0
  0
CLASS
  1
AMDTSYSATTR
  2
AmdtSystemAttribute
  3
AcAttribServices
 90
     1024
 91
        3
280
     0
281
     0
  0
CLASS
  1
ACMTAPERSTANDARDISO
  2
AcmTaperStdISO
  3
"Amdt_StdImp|Product Description: AutoCAD Mechanical|Company: Autodesk, Inc."
 90
     1024
 91
        1
280
     0
281
     0
  0
CLASS
  1
CAMSSTRUCTBTNSTATE
  2
StructBtnState
  3
DesignerAssemblies
 90
     1024
 91
        1
280
     0
281
     0
  0
CLASS
  1
DIMASSOC
  2
AcDbDimAssoc
  3
"AcDbDimAssoc|Product Desc:     AcDim ARX App For Dimension|Company:          Autodesk, Inc.|WEB Address:      www.autodesk.com"
 90
        0
 91
        0
280
     0
281
     0
  0
CLASS
  1
AMDTNOTETEMPLATEDB
  2
AmdtNoteTemplateDB
  3
AcmSymBB|Product Description: AutoCAD Mechanical|Company: Autodesk, Inc.
 90
     1024
 91
       10
280
     0
281
     0
  0
CLASS
  1
SCALE
  2
AcDbScale
  3
ObjectDBX Classes
 90
     1153
 91
       33
280
     0
281
     0
  0
CLASS
  1
MLEADERSTYLE
  2
AcDbMLeaderStyle
  3
ACDB_MLEADERSTYLE_CLASS
 90
     4095
 91
        1
280
     0
281
     0
  0
CLASS
  1
ACMANOOTATIONVIEWSTANDARDISO
  2
AmdtAnViewStdISO
  3
"Amdt_StdImp|Product Description: AutoCAD Mechanical|Company: Autodesk, Inc."
 90
     1024
 91
        1
280
     0
281
     0
  0
CLASS
  1
CELLSTYLEMAP
  2
AcDbCellStyleMap
  3
ObjectDBX Classes
 90
     1152
 91
        2
280
     0
281
     0
  0
CLASS
  1
ACMTAPERSTANDARDANSI
  2
AcmTaperStdANSI
  3
"Amdt_StdImp|Product Description: AutoCAD Mechanical|Company: Autodesk, Inc."
 90
     1024
 91
        1
280
     0
281
     0
  0
CLASS
  1
ACAMGHOLECHARTSTDANSI
  2
AcAmgHoleChartStdANSI
  3
AmgDim|Product Description: AutoCAD Mechanical|Company: Autodesk, Inc.
 90
     1024
 91
        1
280
     0
281
     0
  0
CLASS
  1
ACMANOOTATIONVIEWSTANDARDANSI
  2
AmdtAnViewStdANSI
  3
"Amdt_StdImp|Product Description: AutoCAD Mechanical|Company: Autodesk, Inc."
 90
     1024
 91
        1
280
     0
281
     0
  0
ENDSEC
  0
SECTION
  2
TABLES
  0
TABLE
  2
VPORT
  5
8
330
0
100
AcDbSymbolTable
 70
     1
  0
VPORT
  5
B0EC
330
8
100
AcDbSymbolTableRecord
100
AcDbViewportTableRecord
  2
*Active
 70
     0
 10
0.0
 20
0.0
 11
1.0
 21
1.0
 12
210.0000056232111
 22
148.5000039764134
 13
0.0
 23
0.0
 14
2.5
 24
2.5
 15
10.0
 25
10.0
 16
0.0
 26
0.0
 36
1.0
 17
0.0
 27
0.0
 37
0.0
 40
298.8803076229857
 41
1.624476987447698
 42
50.0
 43
-1370.695619172058
 44
-1370.695619172058
 50
0.0
 51
0.0
 71
     0
 72
   100
 73
     1
 74
     3
 75
     0
 76
     0
 77
     0
 78
     0
281
     0
 65
     0
110
0.0
120
0.0
130
0.0
111
1.0
121
0.0
131
0.0
112
0.0
122
1.0
132
0.0
 79
     0
146
0.0
  0
ENDTAB
  0
TABLE
  2
LTYPE
  5
5
330
0
100
AcDbSymbolTable
 70
    33
  0
LTYPE
  5
14
330
5
100
AcDbSymbolTableRecord
100
AcDbLinetypeTableRecord
  2
ByBlock
 70
     0
  3

 72
    65
 73
     0
 40
0.0
  0
LTYPE
  5
15
330
5
100
AcDbSymbolTableRecord
100
AcDbLinetypeTableRecord
  2
ByLayer
 70
     0
  3

 72
    65
 73
     0
 40
0.0
  0
LTYPE
  5
16
330
5
100
AcDbSymbolTableRecord
100
AcDbLinetypeTableRecord
  2
Continuous
 70
     0
  3
Solid line
 72
    65
 73
     0
 40
0.0
  0
LTYPE
  5
4F
330
5
100
AcDbSymbolTableRecord
100
AcDbLinetypeTableRecord
  2
AM_ISO02W050
 70
     0
  3
__ __ __ __ __ __ __ __ __ __ __ __ __ __ __
 72
    65
 73
     2
 40
7.5
 49
6.0
 74
     0
 49
-1.5
 74
     0
  0
LTYPE
  5
52
330
5
100
AcDbSymbolTableRecord
100
AcDbLinetypeTableRecord
  2
Amconstr
 70
     0
  3
_______________________
 72
    65
 73
     2
 40
9999.0
 49
9999.0
 74
     0
 49
0.0
 74
     0
  0
LTYPE
  5
64
330
5
100
AcDbSymbolTableRecord
100
AcDbLinetypeTableRecord
  2
ACISOWELD
 70
     0
  3
_ _ _ _ _
 72
    65
 73
     2
 40
2.0
 49
2.0
 74
     0
 49
-1.0
 74
     0
  0
LTYPE
  5
65
330
5
100
AcDbSymbolTableRecord
100
AcDbLinetypeTableRecord
  2
ACISOTGB
 70
     0
  3
__ . . __ . .
 72
    65
 73
     6
 40
9.0
 49
4.0
 74
     0
 49
-1.0
 74
     0
 49
1.0
 74
     0
 49
-1.0
 74
     0
 49
1.0
 74
     0
 49
-1.0
 74
     0
  0
LTYPE
  5
66
330
5
100
AcDbSymbolTableRecord
100
AcDbLinetypeTableRecord
  2
ACISOTGL
 70
     0
  3
_ _ _ _ _
 72
    65
 73
     2
 40
3.0
 49
2.0
 74
     0
 49
-1.0
 74
     0
  0
LTYPE
  5
69
330
5
100
AcDbSymbolTableRecord
100
AcDbLinetypeTableRecord
  2
CENTER
 70
     0
  3
__ . __
 72
    65
 73
     4
 40
7.0
 49
4.0
 74
     0
 49
-1.0
 74
     0
 49
1.0
 74
     0
 49
-1.0
 74
     0
  0
LTYPE
  5
A6E
330
5
100
AcDbSymbolTableRecord
100
AcDbLinetypeTableRecord
  2
PHANTOM2
 70
     0
  3
Phantom (.5x) ___ _ _ ___ _ _ ___ _ _ ___ _ _
 72
    65
 73
     6
 40
31.75
 49
15.875
 74
     0
 49
-3.174999999999999
 74
     0
 49
3.174999999999999
 74
     0
 49
-3.174999999999999
 74
     0
 49
3.174999999999999
 74
     0
 49
-3.174999999999999
 74
     0
  0
LTYPE
  5
4DED
330
5
100
AcDbSymbolTableRecord
100
AcDbLinetypeTableRecord
  2
中線
 70
     0
  3
___________________
 72
    65
 73
     2
 40
2.0
 49
1.0
 74
     0
 49
1.0
 74
     0
  0
LTYPE
  5
4DF6
330
5
100
AcDbSymbolTableRecord
100
AcDbLinetypeTableRecord
  2
細線
 70
     0
  3
___________________
 72
    65
 73
     2
 40
2.0
 49
1.0
 74
     0
 49
1.0
 74
     0
  0
LTYPE
  5
4DF7
330
5
100
AcDbSymbolTableRecord
100
AcDbLinetypeTableRecord
  2
太線
 70
     0
  3
___________________
 72
    65
 73
     2
 40
2.0
 49
1.0
 74
     0
 49
1.0
 74
     0
  0
LTYPE
  5
4EA7
330
5
100
AcDbSymbolTableRecord
100
AcDbLinetypeTableRecord
  2
文字
 70
     0
  3
_________________
 72
    65
 73
     2
 40
2.0
 49
1.0
 74
     0
 49
1.0
 74
     0
  0
LTYPE
  5
4EA9
330
5
100
AcDbSymbolTableRecord
100
AcDbLinetypeTableRecord
  2
寸法線
 70
     0
  3
________________
 72
    65
 73
     2
 40
2.0
 49
1.0
 74
     0
 49
1.0
 74
     0
  0
LTYPE
  5
4F12
330
5
100
AcDbSymbolTableRecord
100
AcDbLinetypeTableRecord
  2
ハッチング
 70
     0
  3
_________________
 72
    65
 73
     2
 40
2.0
 49
1.0
 74
     0
 49
1.0
 74
     0
  0
LTYPE
  5
5180
330
5
100
AcDbSymbolTableRecord
100
AcDbLinetypeTableRecord
  2
陰線1
 70
     0
  3
__ __ __ __
 72
    65
 73
     2
 40
4.0
 49
2.2
 74
     0
 49
-1.8
 74
     0
  0
LTYPE
  5
5182
330
5
100
AcDbSymbolTableRecord
100
AcDbLinetypeTableRecord
  2
切断線
 70
     0
  3
/\/-/\/-/\/-/\/-/\/-/\/
 72
    65
 73
     2
 40
11.0001
 49
0.0001
 74
     4
 75
   135
340
56
 46
0.04
 50
0.0
 44
0.0
 45
0.0
 49
-11.0
 74
     0
  0
LTYPE
  5
5183
330
5
100
AcDbSymbolTableRecord
100
AcDbLinetypeTableRecord
  2
想像線1
 70
     0
  3
__ __ __ _____ __ __ ____
 72
    65
 73
     6
 40
14.5
 49
6.0
 74
     0
 49
-1.5
 74
     0
 49
2.0
 74
     0
 49
-1.5
 74
     0
 49
2.0
 74
     0
 49
-1.5
 74
     0
  0
LTYPE
  5
5185
330
5
100
AcDbSymbolTableRecord
100
AcDbLinetypeTableRecord
  2
中心線1
 70
     0
  3
___ _ ___ _ ___
 72
    65
 73
     4
 40
18.0
 49
12.0
 74
     0
 49
-2.0
 74
     0
 49
2.0
 74
     0
 49
-2.0
 74
     0
  0
LTYPE
  5
5188
330
5
100
AcDbSymbolTableRecord
100
AcDbLinetypeTableRecord
  2
補助線
 70
     0
  3
______________
 72
    65
 73
     2
 40
2.0
 49
1.0
 74
     0
 49
1.0
 74
     0
  0
LTYPE
  5
6427
330
5
100
AcDbSymbolTableRecord
100
AcDbLinetypeTableRecord
  2
HIDDEN
 70
     0
  3
Hidden __ __ __ __ __ __ __ __ __ __ __ __ __ _
 72
    65
 73
     2
 40
0.375
 49
0.25
 74
     0
 49
-0.125
 74
     0
  0
LTYPE
  5
AC81
330
5
100
AcDbSymbolTableRecord
100
AcDbLinetypeTableRecord
  2
破断線
 70
     0
  3
/\/-/\/-/\/-/\/-/\/-/\/
 72
    65
 73
     2
 40
0.4401
 49
0.0001
 74
     4
 75
   136
340
AC80
 46
0.0016
 50
0.0
 44
0.0
 45
0.0
 49
-0.4400000000000001
 74
     0
  0
LTYPE
  5
AC9E
330
5
100
AcDbSymbolTableRecord
100
AcDbLinetypeTableRecord
  2
Amzigzag
 70
     0
  3
/\/-/\/-/\/-/\/-/\/-/\/
 72
    65
 73
     2
 40
11.0001
 49
0.0001
 74
     4
 75
   135
340
56
 46
0.04
 50
0.0
 44
0.0
 45
0.0
 49
-11.0
 74
     0
  0
LTYPE
  5
AF0F
330
5
100
AcDbSymbolTableRecord
100
AcDbLinetypeTableRecord
  2
genzigzag
 70
     0
  3
/\/-/\/-/\/-/\/-/\/-/\/
 72
    65
 73
     2
 40
12.0001
 49
0.0001
 74
     4
 75
   135
340
AC80
 46
2.0
 50
0.0
 44
0.0
 45
0.0
 49
-12.0
 74
     0
  0
LTYPE
  5
AF95
330
5
100
AcDbSymbolTableRecord
100
AcDbLinetypeTableRecord
  2
AM_ISO08W050
 70
     0
  3
____ . ____ . ____ . ____ . ____ . ____ . ____
 72
    65
 73
     4
 40
18.0
 49
12.0
 74
     0
 49
-1.5
 74
     0
 49
3.0
 74
     0
 49
-1.5
 74
     0
  0
LTYPE
  5
AF96
330
5
100
AcDbSymbolTableRecord
100
AcDbLinetypeTableRecord
  2
AM_ISO09W050
 70
     0
  3
_____ . . _____ . . _____ . . ____ .. ____
 72
    65
 73
     6
 40
22.5
 49
12.0
 74
     0
 49
-1.5
 74
     0
 49
3.0
 74
     0
 49
-1.5
 74
     0
 49
3.0
 74
     0
 49
-1.5
 74
     0
  0
LTYPE
  5
AF97
330
5
100
AcDbSymbolTableRecord
100
AcDbLinetypeTableRecord
  2
AM_ISO08W050x2
 70
     0
  3
__ . __ . __ . __ . __ . __
 72
    65
 73
     4
 40
9.0
 49
6.0
 74
     0
 49
-0.75
 74
     0
 49
1.5
 74
     0
 49
-0.75
 74
     0
  0
LTYPE
  5
AF98
330
5
100
AcDbSymbolTableRecord
100
AcDbLinetypeTableRecord
  2
AM_ISO02W050x2
 70
     0
  3
 _ _ _ _ _ _ _ _ _ _ _ _
 72
    65
 73
     2
 40
3.75
 49
3.0
 74
     0
 49
-0.75
 74
     0
  0
LTYPE
  5
B7EC
330
5
100
AcDbSymbolTableRecord
100
AcDbLinetypeTableRecord
  2
ACANSTGB
 70
     0
  3
__ . . __ . .
 72
    65
 73
     6
 40
0.35433070866
 49
0.15748031496
 74
     0
 49
-0.03937007874
 74
     0
 49
0.03937007874
 74
     0
 49
-0.03937007874
 74
     0
 49
0.03937007874
 74
     0
 49
-0.03937007874
 74
     0
  0
LTYPE
  5
B7ED
330
5
100
AcDbSymbolTableRecord
100
AcDbLinetypeTableRecord
  2
ACANSTGL
 70
     0
  3
_ _ _ _ _
 72
    65
 73
     2
 40
0.11811023622
 49
0.07874015748
 74
     0
 49
-0.03937007874
 74
     0
  0
LTYPE
  5
B7EE
330
5
100
AcDbSymbolTableRecord
100
AcDbLinetypeTableRecord
  2
CENTER2
 70
     0
  3
Center (.5x) ___ _ ___ _ ___ _ ___ _ ___ _ ___
 72
    65
 73
     4
 40
1.125
 49
0.75
 74
     0
 49
-0.125
 74
     0
 49
0.125
 74
     0
 49
-0.125
 74
     0
  0
LTYPE
  5
B7EF
330
5
100
AcDbSymbolTableRecord
100
AcDbLinetypeTableRecord
  2
HIDDEN2
 70
     0
  3
Hidden (.5x) _ _ _ _ _ _ _ _ _ _ _ _ _ _ _ _ _
 72
    65
 73
     2
 40
0.1875
 49
0.125
 74
     0
 49
-0.0625
 74
     0
  0
LTYPE
  5
B7F0
330
5
100
AcDbSymbolTableRecord
100
AcDbLinetypeTableRecord
  2
AMZIGZAG2
 70
     0
  3
/\/-/\/-/\/-/\/-/\/-/\/
 72
    65
 73
     2
 40
0.4401
 49
0.0001
 74
     0
 49
-0.4400000000000003
 74
     0
  0
LTYPE
  5
C649
330
5
100
AcDbSymbolTableRecord
100
AcDbLinetypeTableRecord
  2
PHANTOM
 70
     0
  3
_____ _ _ _____ _ _ _____ _ _ _____ _ _ ____  
 72
    65
 73
     6
 40
15.5
 49
8.0
 74
     0
 49
-1.5
 74
     0
 49
1.5
 74
     0
 49
-1.5
 74
     0
 49
1.5
 74
     0
 49
-1.5
 74
     0
  0
ENDTAB
  0
TABLE
  2
LAYER
  5
2
102
{ACAD_XDICTIONARY
360
3F95
102
}
330
0
100
AcDbSymbolTable
 70
    20
  0
LAYER
  5
10
102
{ACAD_XDICTIONARY
360
C26F
102
}
330
2
100
AcDbSymbolTableRecord
100
AcDbLayerTableRecord
  2
0
 70
     0
 62
     7
  6
Continuous
370
    -3
390
F
  0
LAYER
  5
6D1
330
2
100
AcDbSymbolTableRecord
100
AcDbLayerTableRecord
  2
Defpoints
 70
     0
 62
     7
  6
Continuous
290
     0
370
    -3
390
F
  0
LAYER
  5
5F85
102
{ACAD_XDICTIONARY
360
C271
102
}
330
2
100
AcDbSymbolTableRecord
100
AcDbLayerTableRecord
  2
AM_0
 70
     0
 62
     7
  6
中線
370
    30
390
F
1001
AcAecLayerStandard
1000

1000

  0
LAYER
  5
AC9F
102
{ACAD_XDICTIONARY
360
C273
102
}
330
2
100
AcDbSymbolTableRecord
100
AcDbLayerTableRecord
  2
size
 70
     0
 62
     5
  6
Continuous
290
     0
370
    25
390
F
  0
LAYER
  5
ACA0
102
{ACAD_XDICTIONARY
360
C275
102
}
330
2
100
AcDbSymbolTableRecord
100
AcDbLayerTableRecord
  2
waku
 70
     0
 62
     7
  6
Continuous
370
    35
390
F
  0
LAYER
  5
ACA1
102
{ACAD_XDICTIONARY
360
C277
102
}
330
2
100
AcDbSymbolTableRecord
100
AcDbLayerTableRecord
  2
AM_6
 70
     0
 62
     2
  6
文字
370
    13
390
F
1001
AcAecLayerStandard
1000

1000

  0
LAYER
  5
ACC8
102
{ACAD_XDICTIONARY
360
C279
102
}
330
2
100
AcDbSymbolTableRecord
100
AcDbLayerTableRecord
  2
hyomoji
 70
     0
 62
     2
  6
Continuous
370
    13
390
F
  0
LAYER
  5
ACC9
102
{ACAD_XDICTIONARY
360
C27B
102
}
330
2
100
AcDbSymbolTableRecord
100
AcDbLayerTableRecord
  2
hyosen1
 70
     0
 62
    12
  6
Continuous
370
    25
390
F
  0
LAYER
  5
ACCA
102
{ACAD_XDICTIONARY
360
C27D
102
}
330
2
100
AcDbSymbolTableRecord
100
AcDbLayerTableRecord
  2
hyosen2
 70
     0
 62
    12
  6
Continuous
370
    13
390
F
  0
LAYER
  5
AD60
102
{ACAD_XDICTIONARY
360
C27F
102
}
330
2
100
AcDbSymbolTableRecord
100
AcDbLayerTableRecord
  2
AM_1
 70
     0
 62
    30
  6
太線
370
    40
390
F
1001
AcAecLayerStandard
1000

1000

  0
LAYER
  5
AD64
102
{ACAD_XDICTIONARY
360
C281
102
}
330
2
100
AcDbSymbolTableRecord
100
AcDbLayerTableRecord
  2
AM_2
 70
     0
 62
     1
  6
細線
370
    13
390
F
1001
AcAecLayerStandard
1000

1000

  0
LAYER
  5
AD67
102
{ACAD_XDICTIONARY
360
C283
102
}
330
2
100
AcDbSymbolTableRecord
100
AcDbLayerTableRecord
  2
AM_3
 70
     0
 62
     6
  6
陰線1
370
    13
390
F
1001
AcAecLayerStandard
1000

1000

  0
LAYER
  5
AD68
102
{ACAD_XDICTIONARY
360
C285
102
}
330
2
100
AcDbSymbolTableRecord
100
AcDbLayerTableRecord
  2
AM_5
 70
     0
 62
     3
  6
寸法線
370
    13
390
F
1001
AcAecLayerStandard
1000

1000

  0
LAYER
  5
AD69
102
{ACAD_XDICTIONARY
360
C287
102
}
330
2
100
AcDbSymbolTableRecord
100
AcDbLayerTableRecord
  2
AM_7
 70
     0
 62
     4
  6
中心線1
370
    13
390
F
1001
AcAecLayerStandard
1000

1000

  0
LAYER
  5
AD6A
102
{ACAD_XDICTIONARY
360
C289
102
}
330
2
100
AcDbSymbolTableRecord
100
AcDbLayerTableRecord
  2
AM_8
 70
     0
 62
     1
  6
ハッチング
370
    13
390
F
1001
AcAecLayerStandard
1000

1000

  0
LAYER
  5
AD6E
102
{ACAD_XDICTIONARY
360
C28B
102
}
330
2
100
AcDbSymbolTableRecord
100
AcDbLayerTableRecord
  2
AM_10
 70
     0
 62
     7
  6
切断線
370
    13
390
F
1001
AcAecLayerStandard
1000

1000

  0
LAYER
  5
AD6F
102
{ACAD_XDICTIONARY
360
C28D
102
}
330
2
100
AcDbSymbolTableRecord
100
AcDbLayerTableRecord
  2
AM_11
 70
     0
 62
     2
  6
想像線1
370
    13
390
F
1001
AcAecLayerStandard
1000

1000

  0
LAYER
  5
B1B6
102
{ACAD_XDICTIONARY
360
C28F
102
}
330
2
100
AcDbSymbolTableRecord
100
AcDbLayerTableRecord
  2
AM_CL
 70
     0
 62
     1
  6
Amconstr
370
    15
390
F
1001
AcAecLayerStandard
1000

1000

  0
LAYER
  5
B2EB
102
{ACAD_XDICTIONARY
360
C291
102
}
330
2
100
AcDbSymbolTableRecord
100
AcDbLayerTableRecord
  2
AM_14
 70
     0
 62
     5
  6
細線
370
     9
390
F
1001
AcAecLayerStandard
1000

1000

  0
LAYER
  5
B2EC
102
{ACAD_XDICTIONARY
360
C293
102
}
330
2
100
AcDbSymbolTableRecord
100
AcDbLayerTableRecord
  2
AM_15
 70
     0
 62
     6
  6
陰線1
370
     9
390
F
1001
AcAecLayerStandard
1000

1000

  0
ENDTAB
  0
TABLE
  2
STYLE
  5
3
330
0
100
AcDbSymbolTable
 70
     8
  0
STYLE
  5
11
330
3
100
AcDbSymbolTableRecord
100
AcDbTextStyleTableRecord
  2
STANDARD
 70
     0
 40
0.0
 41
0.7
 50
0.0
 71
     0
 42
3.2
  3
romans.shx
  4
extfont.shx
  0
STYLE
  5
56
330
3
100
AcDbSymbolTableRecord
100
AcDbTextStyleTableRecord
  2

 70
     1
 40
0.0
 41
1.0
 50
0.0
 71
     0
 42
2.5
  3
ltypeshp.shx
  4

  0
STYLE
  5
58
330
3
100
AcDbSymbolTableRecord
100
AcDbTextStyleTableRecord
  2
ACISOTS
 70
     0
 40
1.0
 41
1.0
 50
0.0
 71
     0
 42
2.5
  3
isocp.shx
  4
extfont.shx
  0
STYLE
  5
63
330
3
100
AcDbSymbolTableRecord
100
AcDbTextStyleTableRecord
  2
ACISOGDT
 70
     0
 40
0.0
 41
1.0
 50
0.0
 71
     0
 42
2.5
  3
amgdt.shx
  4

  0
STYLE
  5
A74
330
3
100
AcDbSymbolTableRecord
100
AcDbTextStyleTableRecord
  2
DIM
 70
     0
 40
0.0
 41
1.0
 50
0.0
 71
     0
 42
2.5
  3
monotxt.shx
  4
extfont.shx
  0
STYLE
  5
AC80
330
3
100
AcDbSymbolTableRecord
100
AcDbTextStyleTableRecord
  2

 70
     1
 40
0.0
 41
1.0
 50
0.0
 71
     0
 42
3.2
  3
genltshp.shx
  4

  0
STYLE
  5
B7F1
330
3
100
AcDbSymbolTableRecord
100
AcDbTextStyleTableRecord
  2
ACANSTS
 70
     0
 40
1.0
 41
1.0
 50
0.0
 71
     0
 42
0.2
  3
romans.shx
  4
extfont.shx
  0
STYLE
  5
B7F2
330
3
100
AcDbSymbolTableRecord
100
AcDbTextStyleTableRecord
  2
ACANSGDT
 70
     0
 40
0.0
 41
1.0
 50
0.0
 71
     0
 42
0.2
  3
amgdt.shx
  4

  0
ENDTAB
  0
TABLE
  2
VIEW
  5
6
330
0
100
AcDbSymbolTable
 70
     6
  0
VIEW
  5
AE1
330
6
100
AcDbSymbolTableRecord
100
AcDbViewTableRecord
  2
AM_VIEW1
 70
     0
 40
148.5
 10
120.5689655172414
 20
222.75
 41
241.1379310344828
 11
0.0
 21
0.0
 31
1.0
 12
0.0
 22
0.0
 32
0.0
 42
50.0
 43
-1370.695619172058
 44
-1370.695619172058
 50
0.0
 71
     0
281
     0
 72
     0
  0
VIEW
  5
AE2
330
6
100
AcDbSymbolTableRecord
100
AcDbViewTableRecord
  2
AM_VIEW2
 70
     0
 40
148.5
 10
299.4310344827586
 20
222.75
 41
241.1379310344828
 11
0.0
 21
0.0
 31
1.0
 12
0.0
 22
0.0
 32
0.0
 42
50.0
 43
-1370.695619172058
 44
-1370.695619172058
 50
0.0
 71
     0
281
     0
 72
     0
  0
VIEW
  5
AE3
330
6
100
AcDbSymbolTableRecord
100
AcDbViewTableRecord
  2
AM_VIEW3
 70
     0
 40
148.5
 10
120.5689655172414
 20
74.25
 41
241.1379310344828
 11
0.0
 21
0.0
 31
1.0
 12
0.0
 22
0.0
 32
0.0
 42
50.0
 43
-1370.695619172058
 44
-1370.695619172058
 50
0.0
 71
     0
281
     0
 72
     0
  0
VIEW
  5
AE4
330
6
100
AcDbSymbolTableRecord
100
AcDbViewTableRecord
  2
AM_VIEW4
 70
     0
 40
148.5
 10
299.4310344827586
 20
74.25
 41
241.1379310344828
 11
0.0
 21
0.0
 31
1.0
 12
0.0
 22
0.0
 32
0.0
 42
50.0
 43
-1370.695619172058
 44
-1370.695619172058
 50
0.0
 71
     0
281
     0
 72
     0
  0
VIEW
  5
AE5
330
6
100
AcDbSymbolTableRecord
100
AcDbViewTableRecord
  2
AM_VIEW5
 70
     0
 40
148.5
 10
210.0
 20
148.5
 41
241.1379310344828
 11
0.0
 21
0.0
 31
1.0
 12
0.0
 22
0.0
 32
0.0
 42
50.0
 43
-1370.695619172058
 44
-1370.695619172058
 50
0.0
 71
     0
281
     0
 72
     0
  0
VIEW
  5
AE6
330
6
100
AcDbSymbolTableRecord
100
AcDbViewTableRecord
  2
AM_VIEW6
 70
     0
 40
296.99703
 10
210.0
 20
148.5
 41
482.2710393103448
 11
0.0
 21
0.0
 31
1.0
 12
0.0
 22
0.0
 32
0.0
 42
50.0
 43
-1370.695619172058
 44
-1370.695619172058
 50
0.0
 71
     0
281
     0
 72
     0
  0
ENDTAB
  0
TABLE
  2
UCS
  5
7
330
0
100
AcDbSymbolTable
 70
     0
  0
ENDTAB
  0
TABLE
  2
APPID
  5
9
330
0
100
AcDbSymbolTable
 70
    58
  0
APPID
  5
12
330
9
100
AcDbSymbolTableRecord
100
AcDbRegAppTableRecord
  2
ACAD
 70
     0
  0
APPID
  5
30
330
9
100
AcDbSymbolTableRecord
100
AcDbRegAppTableRecord
  2
MCAD_NO_VIS
 70
     0
  0
APPID
  5
31
330
9
100
AcDbSymbolTableRecord
100
AcDbRegAppTableRecord
  2
ACAD_TEMP_GRAPHIC
 70
     0
  0
APPID
  5
44
330
9
100
AcDbSymbolTableRecord
100
AcDbRegAppTableRecord
  2
ACATTRIBSERVICES
 70
     0
  0
APPID
  5
7A1
330
9
100
AcDbSymbolTableRecord
100
AcDbRegAppTableRecord
  2
GENIUS_GENDIMSH_14
 70
     0
  0
APPID
  5
A49
330
9
100
AcDbSymbolTableRecord
100
AcDbRegAppTableRecord
  2
GENIUS_GENREC_14
 70
     0
  0
APPID
  5
A4A
330
9
100
AcDbSymbolTableRecord
100
AcDbRegAppTableRecord
  2
GENIUS_GENOBJ-N-REC_13
 70
     0
  0
APPID
  5
A4B
330
9
100
AcDbSymbolTableRecord
100
AcDbRegAppTableRecord
  2
GENIUS_GENODEF_13
 70
     0
  0
APPID
  5
A4C
330
9
100
AcDbSymbolTableRecord
100
AcDbRegAppTableRecord
  2
DCO15
 70
     0
  0
APPID
  5
ADC
330
9
100
AcDbSymbolTableRecord
100
AcDbRegAppTableRecord
  2
GENIUS_GENOLIS_13
 70
     0
  0
APPID
  5
ADD
330
9
100
AcDbSymbolTableRecord
100
AcDbRegAppTableRecord
  2
GENIUS_GENOENT_13
 70
     0
  0
APPID
  5
ADE
330
9
100
AcDbSymbolTableRecord
100
AcDbRegAppTableRecord
  2
GENIUS_GENOBJ-N-TIT_13
 70
     0
  0
APPID
  5
ADF
330
9
100
AcDbSymbolTableRecord
100
AcDbRegAppTableRecord
  2
GENIUS_GENTITLE_13
 70
     0
  0
APPID
  5
AE0
330
9
100
AcDbSymbolTableRecord
100
AcDbRegAppTableRecord
  2
GENIUS_GENOREF_13
 70
     0
  0
APPID
  5
AE7
330
9
100
AcDbSymbolTableRecord
100
AcDbRegAppTableRecord
  2
GENIUS_GENSCREG_15
 70
     0
  0
APPID
  5
AE8
330
9
100
AcDbSymbolTableRecord
100
AcDbRegAppTableRecord
  2
GENIUS_GENOBJ-N-SDF_13
 70
     0
  0
APPID
  5
FAF
330
9
100
AcDbSymbolTableRecord
100
AcDbRegAppTableRecord
  2
GENIUS_GENBLLY_14
 70
     0
  0
APPID
  5
FB0
330
9
100
AcDbSymbolTableRecord
100
AcDbRegAppTableRecord
  2
GENIUS_GENTRA_14
 70
     0
  0
APPID
  5
1285
330
9
100
AcDbSymbolTableRecord
100
AcDbRegAppTableRecord
  2
GENIUS_GENDTOL_13
 70
     0
  0
APPID
  5
142D
330
9
100
AcDbSymbolTableRecord
100
AcDbRegAppTableRecord
  2
GENIUS_GENOBJ-N-CEN_13
 70
     0
  0
APPID
  5
1AB5
330
9
100
AcDbSymbolTableRecord
100
AcDbRegAppTableRecord
  2
GENIUS_GENOBJ-N-CRS_13
 70
     0
  0
APPID
  5
1B36
330
9
100
AcDbSymbolTableRecord
100
AcDbRegAppTableRecord
  2
GENIUS_GENOBJ-N-HTC_13
 70
     0
  0
APPID
  5
1B37
330
9
100
AcDbSymbolTableRecord
100
AcDbRegAppTableRecord
  2
GENIUS_GENHATCH_13
 70
     0
  0
APPID
  5
216D
330
9
100
AcDbSymbolTableRecord
100
AcDbRegAppTableRecord
  2
GENIUS_GENOBJ-N-FIL_13
 70
     0
  0
APPID
  5
2356
330
9
100
AcDbSymbolTableRecord
100
AcDbRegAppTableRecord
  2
GEVID990412420
 70
     0
  0
APPID
  5
2357
330
9
100
AcDbSymbolTableRecord
100
AcDbRegAppTableRecord
  2
GEVDC
 70
     0
  0
APPID
  5
2358
330
9
100
AcDbSymbolTableRecord
100
AcDbRegAppTableRecord
  2
GEVCON
 70
     0
  0
APPID
  5
235B
330
9
100
AcDbSymbolTableRecord
100
AcDbRegAppTableRecord
  2
GEVRADREF
 70
     0
  0
APPID
  5
2360
330
9
100
AcDbSymbolTableRecord
100
AcDbRegAppTableRecord
  2
GENIUS_GENBH_13
 70
     0
  0
APPID
  5
2362
330
9
100
AcDbSymbolTableRecord
100
AcDbRegAppTableRecord
  2
GENIUS_GENOBJ-NBEHI-BHF_13
 70
     0
  0
APPID
  5
2364
330
9
100
AcDbSymbolTableRecord
100
AcDbRegAppTableRecord
  2
GENIUS_GENOBJ-NBEHI-BHB_13
 70
     0
  0
APPID
  5
2379
330
9
100
AcDbSymbolTableRecord
100
AcDbRegAppTableRecord
  2
GENIUS_GENOBJ-F-SCPASSM_13
 70
     0
  0
APPID
  5
3D74
330
9
100
AcDbSymbolTableRecord
100
AcDbRegAppTableRecord
  2
GENIUS_GENDIM_13
 70
     0
  0
APPID
  5
3D76
330
9
100
AcDbSymbolTableRecord
100
AcDbRegAppTableRecord
  2
GENIUS_GE3DTOL_13
 70
     0
  0
APPID
  5
3D9C
330
9
100
AcDbSymbolTableRecord
100
AcDbRegAppTableRecord
  2
AD_DRAW
 70
     0
  0
APPID
  5
3DE8
330
9
100
AcDbSymbolTableRecord
100
AcDbRegAppTableRecord
  2
ASURF_PCURVE_APPNAME
 70
     0
  0
APPID
  5
3DED
330
9
100
AcDbSymbolTableRecord
100
AcDbRegAppTableRecord
  2
AMG_3D2D_5.0
 70
     0
  0
APPID
  5
3E1B
330
9
100
AcDbSymbolTableRecord
100
AcDbRegAppTableRecord
  2
DESIGNERASSEMBLIES
 70
     0
  0
APPID
  5
3E20
330
9
100
AcDbSymbolTableRecord
100
AcDbRegAppTableRecord
  2
ACADM_DIM_EDIT
 70
     0
  0
APPID
  5
3E21
330
9
100
AcDbSymbolTableRecord
100
AcDbRegAppTableRecord
  2
AMDT_DM_ADJ
 70
     0
  0
APPID
  5
4143
330
9
100
AcDbSymbolTableRecord
100
AcDbRegAppTableRecord
  2
GENIUS_GENFIL_13
 70
     0
  0
APPID
  5
4144
330
9
100
AcDbSymbolTableRecord
100
AcDbRegAppTableRecord
  2
GENIUS_GENOBJ-N-CHA_13
 70
     0
  0
APPID
  5
4E17
330
9
100
AcDbSymbolTableRecord
100
AcDbRegAppTableRecord
  2
GEVID1008153417
 70
     0
  0
APPID
  5
4E58
330
9
100
AcDbSymbolTableRecord
100
AcDbRegAppTableRecord
  2
GEVID1008153418
 70
     0
  0
APPID
  5
4E5E
330
9
100
AcDbSymbolTableRecord
100
AcDbRegAppTableRecord
  2
GEVID1008153419
 70
     0
  0
APPID
  5
4E64
330
9
100
AcDbSymbolTableRecord
100
AcDbRegAppTableRecord
  2
GEVID1008153420
 70
     0
  0
APPID
  5
4E75
330
9
100
AcDbSymbolTableRecord
100
AcDbRegAppTableRecord
  2
GEVID1008153421
 70
     0
  0
APPID
  5
4EB7
330
9
100
AcDbSymbolTableRecord
100
AcDbRegAppTableRecord
  2
GENIUS_AMGTXT_16
 70
     0
  0
APPID
  5
7645
330
9
100
AcDbSymbolTableRecord
100
AcDbRegAppTableRecord
  2
GENIUS_GENOBJ-N-DIM_13
 70
     0
  0
APPID
  5
AAD0
330
9
100
AcDbSymbolTableRecord
100
AcDbRegAppTableRecord
  2
ACAD_DSTYLE_DIMARC_LENGTH_SYMBOL
 70
     0
  0
APPID
  5
AAD1
330
9
100
AcDbSymbolTableRecord
100
AcDbRegAppTableRecord
  2
ACAD_DSTYLE_DIMJOGGED_JOGANGLE_SYMBOL
 70
     0
  0
APPID
  5
AAFD
330
9
100
AcDbSymbolTableRecord
100
AcDbRegAppTableRecord
  2
ACAD_PSEXT
 70
     0
  0
APPID
  5
AD61
330
9
100
AcDbSymbolTableRecord
100
AcDbRegAppTableRecord
  2
AcAecLayerStandard
 70
     0
  0
APPID
  5
AEE3
330
9
100
AcDbSymbolTableRecord
100
AcDbRegAppTableRecord
  2
ACAD_EXEMPT_FROM_CAD_STANDARDS
 70
     0
  0
APPID
  5
B1BE
330
9
100
AcDbSymbolTableRecord
100
AcDbRegAppTableRecord
  2
GENIUS_GENCEN_19
 70
     0
  0
APPID
  5
B597
330
9
100
AcDbSymbolTableRecord
100
AcDbRegAppTableRecord
  2
ACAD_MLEADERVER
 70
     0
  0
APPID
  5
BBD6
330
9
100
AcDbSymbolTableRecord
100
AcDbRegAppTableRecord
  2
ACAD_DSTYLE_DIMINSPECT
 70
     0
  0
APPID
  5
BE09
330
9
100
AcDbSymbolTableRecord
100
AcDbRegAppTableRecord
  2
ACAD_DSTYLE_DIMRADIAL_EXTENSION
 70
     0
  0
ENDTAB
  0
TABLE
  2
DIMSTYLE
  5
A
330
0
100
AcDbSymbolTable
 70
    24
100
AcDbDimStyleTable
 71
     1
340
2515
  0
DIMSTYLE
105
A76
330
A
100
AcDbSymbolTableRecord
100
AcDbDimStyleTableRecord
  2
STANDARD
 70
     0
 41
3.0
 42
1.0
 43
7.0
 44
2.0
 73
     0
 74
     0
 77
     1
140
2.799999999999999
141
0.0
143
0.0394
147
0.7
171
     4
172
     1
173
     1
176
     3
177
     3
178
     2
271
     3
272
     3
273
     8
274
     4
289
     0
340
A74
341
A66
343
A66
344
A66
  0
DIMSTYLE
105
2515
330
A
100
AcDbSymbolTableRecord
100
AcDbDimStyleTableRecord
  2
SYS
 70
     0
  4
"
 41
1.0
 42
1.0
 43
10.0
 44
1.0
 47
0.1
 48
0.1
 73
     0
 74
     0
 77
     1
 78
     8
 79
     2
140
3.5
141
0.0
143
0.0393701
146
0.71
147
1.5
172
     1
176
   256
177
   256
178
     7
271
     2
272
     2
283
     0
284
     8
340
11
371
    -1
372
    -1
1001
ACAD_DSTYLE_DIMJOGGED_JOGANGLE_SYMBOL
1070
   384
1040
0.7853981633974483
1001
ACAD_DSTYLE_DIMARC_LENGTH_SYMBOL
1070
   379
1070
     1
  0
DIMSTYLE
105
2516
330
A
100
AcDbSymbolTableRecord
100
AcDbDimStyleTableRecord
  2
SYS$3
 70
     0
  4
"
 41
2.0
 42
1.0
 43
10.0
 44
1.0
 47
0.1
 48
0.1
 73
     0
 77
     1
 78
     8
 79
     2
140
3.5
141
0.0
143
0.0393701
146
0.71
147
1.5
176
   256
177
   256
178
     2
271
     2
272
     2
283
     0
284
     8
288
     1
340
11
342
A66
371
    -1
372
    -1
1001
ACAD_DSTYLE_DIMJOGGED_JOGANGLE_SYMBOL
1070
   384
1040
0.7853981633974483
1001
ACAD_DSTYLE_DIMARC_LENGTH_SYMBOL
1070
   379
1070
     1
  0
DIMSTYLE
105
2517
330
A
100
AcDbSymbolTableRecord
100
AcDbDimStyleTableRecord
  2
SYS$4
 70
     0
  4
"
 41
2.0
 42
1.0
 43
10.0
 44
1.0
 47
0.1
 48
0.1
 73
     0
 77
     1
 78
     8
 79
     2
140
3.5
141
0.0
143
0.0393701
146
0.71
147
1.5
173
     1
176
   256
177
   256
178
     2
271
     2
272
     2
283
     0
284
     8
288
     1
340
11
344
A66
371
    -1
372
    -1
1001
ACAD_DSTYLE_DIMJOGGED_JOGANGLE_SYMBOL
1070
   384
1040
0.7853981633974483
1001
ACAD_DSTYLE_DIMARC_LENGTH_SYMBOL
1070
   379
1070
     1
  0
DIMSTYLE
105
2518
330
A
100
AcDbSymbolTableRecord
100
AcDbDimStyleTableRecord
  2
SYS$6
 70
     0
  4
"
 41
2.0
 42
1.0
 43
10.0
 44
1.0
 47
0.1
 48
0.1
 73
     0
 74
     0
 78
     8
 79
     2
140
3.5
141
0.0
143
0.0393701
146
0.71
147
1.5
172
     1
176
   256
177
   256
178
     2
271
     2
272
     2
283
     0
284
     8
340
11
341
A66
371
    -1
372
    -1
1001
ACAD_DSTYLE_DIMJOGGED_JOGANGLE_SYMBOL
1070
   384
1040
0.7853981633974483
1001
ACAD_DSTYLE_DIMARC_LENGTH_SYMBOL
1070
   379
1070
     1
  0
DIMSTYLE
105
2519
330
A
100
AcDbSymbolTableRecord
100
AcDbDimStyleTableRecord
  2
SYS$7
 70
     0
  4
"
 41
2.0
 42
1.0
 43
10.0
 44
1.0
 47
0.1
 48
0.1
 73
     0
 74
     0
 77
     1
 78
     8
 79
     2
140
5.0
141
0.0
143
0.0393701
146
0.71
147
1.5
172
     1
176
   256
177
   256
178
     2
271
     2
272
     2
283
     0
284
     8
340
11
341
A66
342
A66
371
    -1
372
    -1
1001
ACAD_DSTYLE_DIMJOGGED_JOGANGLE_SYMBOL
1070
   384
1040
0.7853981633974483
1001
ACAD_DSTYLE_DIMARC_LENGTH_SYMBOL
1070
   379
1070
     1
  0
DIMSTYLE
105
251A
330
A
100
AcDbSymbolTableRecord
100
AcDbDimStyleTableRecord
  2
SYS$SF
 70
     0
  4
"
 41
2.5
 42
1.0
 43
10.0
 44
1.0
 47
0.1
 48
0.1
 73
     0
 74
     0
 75
     1
 76
     1
 77
     1
 78
     8
 79
     2
140
3.5
141
0.0
143
0.0393701
146
0.71
147
1.5
172
     1
176
   256
177
   256
178
     2
271
     2
272
     3
283
     0
284
     8
340
11
341
6C4
342
6C4
371
    -1
372
    -1
1001
ACAD_DSTYLE_DIMJOGGED_JOGANGLE_SYMBOL
1070
   384
1040
0.7853981633974483
1001
ACAD_DSTYLE_DIMARC_LENGTH_SYMBOL
1070
   379
1070
     1
  0
DIMSTYLE
105
251B
330
A
100
AcDbSymbolTableRecord
100
AcDbDimStyleTableRecord
  2
SYS$SH
 70
     0
  4
"
 41
2.5
 42
1.0
 43
10.0
 44
1.0
 47
0.1
 48
0.1
 73
     0
 74
     0
 75
     1
 76
     1
 77
     1
 78
     8
 79
     2
140
3.5
141
0.0
143
0.0393701
144
2.0
146
0.71
147
1.5
172
     1
173
     1
176
   256
177
   256
178
     2
271
     2
272
     3
283
     0
284
     8
340
11
341
6C4
343
72
344
6C4
371
    -1
372
    -1
1001
ACAD_DSTYLE_DIMJOGGED_JOGANGLE_SYMBOL
1070
   384
1040
0.7853981633974483
1001
ACAD_DSTYLE_DIMARC_LENGTH_SYMBOL
1070
   379
1070
     1
  0
DIMSTYLE
105
2A59
102
{ACAD_REACTORS
330
11A30
330
11A8C
102
}
330
A
100
AcDbSymbolTableRecord
100
AcDbDimStyleTableRecord
  2
SYS$2
 70
     0
  4
"
 41
1.0
 42
1.0
 43
10.0
 44
1.0
 47
0.1
 48
0.1
 73
     0
 74
     0
 77
     1
 78
     8
 79
     2
140
3.5
141
0.0
143
0.0393701
146
0.71
147
1.5
172
     1
176
   256
177
   256
178
     2
271
     2
272
     2
283
     0
284
     8
340
11
342
6C4
371
    -1
372
    -1
1001
ACAD_DSTYLE_DIMJOGGED_JOGANGLE_SYMBOL
1070
   384
1040
0.7853981633974483
1001
ACAD_DSTYLE_DIMARC_LENGTH_SYMBOL
1070
   379
1070
     1
  0
DIMSTYLE
105
2AAB
102
{ACAD_REACTORS
330
C415
330
11825
330
1184D
330
1186C
330
1189E
330
118C6
330
11904
330
1195C
102
}
330
A
100
AcDbSymbolTableRecord
100
AcDbDimStyleTableRecord
  2
SYS$0
 70
     0
  4
"
 41
1.0
 42
1.0
 43
10.0
 44
1.0
 47
0.1
 48
0.1
 73
     0
 74
     0
 77
     1
 78
     8
 79
     2
140
3.200000000000001
141
0.0
143
0.0393701
146
0.71
147
1.5
172
     1
176
   256
177
   256
178
     2
271
     2
272
     2
283
     0
284
     8
340
11
341
A66
342
6C4
371
    -1
372
    -1
1001
ACAD_DSTYLE_DIMJOGGED_JOGANGLE_SYMBOL
1070
   384
1040
0.7853981633974483
1001
ACAD_DSTYLE_DIMARC_LENGTH_SYMBOL
1070
   379
1070
     1
  0
DIMSTYLE
105
AF99
102
{ACAD_REACTORS
330
B92E
330
B920
330
B930
330
B91F
330
B92A
102
}
330
A
100
AcDbSymbolTableRecord
100
AcDbDimStyleTableRecord
  2
AM_ISO
 70
     0
  4
"
 41
2.5
 42
1.0
 43
10.0
 44
1.0
 47
0.1
 48
0.1
 73
     0
 74
     0
 77
     1
 78
     8
 79
     2
140
3.5
141
0.0
143
0.0393701
146
0.71
147
1.5
172
     1
176
   256
177
   256
178
     2
271
     2
272
     3
274
     4
283
     0
284
     8
340
11
371
    -1
372
    -1
  0
DIMSTYLE
105
AF9A
330
A
100
AcDbSymbolTableRecord
100
AcDbDimStyleTableRecord
  2
AM_ISO$3
 70
     0
  4
"
 41
2.5
 42
1.0
 43
10.0
 44
1.0
 47
0.1
 48
0.1
 73
     0
 77
     1
 78
     8
 79
     2
140
3.5
141
0.0
143
0.0393701
146
0.71
147
1.5
176
   256
177
   256
178
     2
271
     2
272
     3
274
     4
283
     0
284
     8
288
     1
289
     0
340
11
371
    -1
372
    -1
  0
DIMSTYLE
105
AF9B
330
A
100
AcDbSymbolTableRecord
100
AcDbDimStyleTableRecord
  2
AM_ISO$4
 70
     0
  4
"
 41
2.5
 42
1.0
 43
10.0
 44
1.0
 47
0.1
 48
0.1
 73
     0
 77
     1
 78
     8
 79
     2
140
3.5
141
0.0
143
0.0393701
146
0.71
147
1.5
176
   256
177
   256
178
     2
271
     2
272
     3
274
     4
283
     0
284
     8
288
     1
289
     0
340
11
371
    -1
372
    -1
  0
DIMSTYLE
105
AF9C
330
A
100
AcDbSymbolTableRecord
100
AcDbDimStyleTableRecord
  2
AM_ISO$6
 70
     0
  4
"
 41
2.5
 42
1.0
 43
10.0
 44
1.0
 47
0.1
 48
0.1
 73
     0
 74
     0
 78
     8
 79
     2
140
3.5
141
0.0
143
0.0393701
146
0.71
147
1.5
172
     1
176
   256
177
   256
178
     2
271
     2
272
     3
274
     4
283
     0
284
     8
340
11
371
    -1
372
    -1
  0
DIMSTYLE
105
AF9D
330
A
100
AcDbSymbolTableRecord
100
AcDbDimStyleTableRecord
  2
AM_ISO$7
 70
     0
  4
"
 41
2.5
 42
1.0
 43
10.0
 44
1.0
 47
0.1
 48
0.1
 73
     0
 74
     0
 77
     1
 78
     8
 79
     2
140
5.0
141
0.0
143
0.0393701
146
0.71
147
1.5
172
     1
176
   256
177
   256
178
     2
271
     2
272
     3
274
     4
283
     0
284
     8
340
11
371
    -1
372
    -1
  0
DIMSTYLE
105
AF9E
330
A
100
AcDbSymbolTableRecord
100
AcDbDimStyleTableRecord
  2
AM_ISO$SF
 70
     0
  4
"
 41
2.5
 42
1.0
 43
10.0
 44
1.0
 47
0.1
 48
0.1
 73
     0
 74
     0
 75
     1
 76
     1
 77
     1
 78
     8
 79
     2
140
3.5
141
0.0
143
0.0393701
146
0.71
147
1.5
172
     1
176
   256
177
   256
178
     2
271
     2
272
     3
274
     4
283
     0
284
     8
340
11
371
    -1
372
    -1
  0
DIMSTYLE
105
AF9F
330
A
100
AcDbSymbolTableRecord
100
AcDbDimStyleTableRecord
  2
AM_ISO$SH
 70
     0
  4
"
 41
2.5
 42
1.0
 43
10.0
 44
1.0
 47
0.1
 48
0.1
 73
     0
 74
     0
 75
     1
 76
     1
 77
     1
 78
     8
 79
     2
140
3.5
141
0.0
143
0.0393701
144
2.0
146
0.71
147
1.5
172
     1
173
     1
176
   256
177
   256
178
     2
271
     2
272
     3
274
     4
283
     0
284
     8
340
11
343
72
371
    -1
372
    -1
  0
DIMSTYLE
105
B7F3
330
A
100
AcDbSymbolTableRecord
100
AcDbDimStyleTableRecord
  2
AM_ANSI
 70
     0
  4
mm
 41
0.1
 42
0.05
 43
0.5
 44
0.1
 47
0.1
 48
0.1
 78
     7
140
0.12
141
0.0
146
0.71
147
0.06
176
   256
177
   256
178
     2
271
     2
272
     2
279
     2
284
     8
285
     8
286
     8
340
11
  0
DIMSTYLE
105
B7F4
330
A
100
AcDbSymbolTableRecord
100
AcDbDimStyleTableRecord
  2
AM_ANSI$3
 70
     0
  4
mm
 41
0.1
 42
0.05
 43
0.5
 44
0.1
 47
0.1
 48
0.1
 78
     7
140
0.12
141
0.0
146
0.71
147
0.06
176
   256
177
   256
178
     2
271
     2
272
     2
279
     2
284
     8
285
     8
286
     8
340
11
  0
DIMSTYLE
105
B7F5
330
A
100
AcDbSymbolTableRecord
100
AcDbDimStyleTableRecord
  2
AM_ANSI$4
 70
     0
  4
mm
 41
0.1
 42
0.05
 43
0.5
 44
0.1
 47
0.1
 48
0.1
 78
     7
140
0.12
141
0.0
146
0.71
147
0.06
176
   256
177
   256
178
     2
271
     2
272
     2
279
     2
284
     8
285
     8
286
     8
340
11
  0
DIMSTYLE
105
B7F6
330
A
100
AcDbSymbolTableRecord
100
AcDbDimStyleTableRecord
  2
AM_ANSI$7
 70
     0
  4
mm
 41
0.1
 42
0.05
 43
0.5
 44
0.1
 47
0.1
 48
0.1
 78
     7
140
0.24
141
0.0
146
0.71
147
0.06
176
   256
177
   256
178
     2
271
     2
272
     2
279
     2
284
     8
285
     8
286
     8
340
11
  0
DIMSTYLE
105
B7F7
330
A
100
AcDbSymbolTableRecord
100
AcDbDimStyleTableRecord
  2
AM_ANSI$SF
 70
     0
  4
mm
 41
0.1
 42
0.05
 43
0.5
 44
0.1
 47
0.1
 48
0.1
 75
     1
 76
     1
 78
     7
140
0.12
141
0.0
146
0.71
147
0.06
176
   256
177
   256
178
     2
271
     2
272
     2
279
     2
284
     8
285
     8
286
     8
340
11
  0
DIMSTYLE
105
B7F8
330
A
100
AcDbSymbolTableRecord
100
AcDbDimStyleTableRecord
  2
AM_ANSI$SH
 70
     0
  4
mm
 41
0.1
 42
0.05
 43
0.5
 44
0.1
 47
0.1
 48
0.1
 75
     1
 76
     1
 78
     7
140
0.12
141
0.0
146
0.71
147
0.06
173
     1
176
   256
177
   256
178
     2
271
     2
272
     2
279
     2
284
     8
285
     8
286
     8
340
11
  0
DIMSTYLE
105
C64A
330
A
100
AcDbSymbolTableRecord
100
AcDbDimStyleTableRecord
  2
DIMSTYLE
 70
     0
 41
1.0
 42
2.54
 44
2.54
 73
     0
 74
     0
140
3.2
147
1.6
173
     1
279
     2
340
11
  0
ENDTAB
  0
TABLE
  2
BLOCK_RECORD
  5
1
330
0
100
AcDbSymbolTable
 70
    26
  0
BLOCK_RECORD
  5
1F
102
{ACAD_XDICTIONARY
360
8A
102
}
330
1
100
AcDbSymbolTableRecord
100
AcDbBlockTableRecord
  2
*Model_Space
340
22
  0
BLOCK_RECORD
  5
1B
330
1
100
AcDbSymbolTableRecord
100
AcDbBlockTableRecord
  2
*Paper_Space
340
1E
  0
BLOCK_RECORD
  5
23
330
1
100
AcDbSymbolTableRecord
100
AcDbBlockTableRecord
  2
*Paper_Space0
340
26
  0
BLOCK_RECORD
  5
72
330
1
100
AcDbSymbolTableRecord
100
AcDbBlockTableRecord
  2
GENAXEH
340
0
  0
BLOCK_RECORD
  5
6C4
330
1
100
AcDbSymbolTableRecord
100
AcDbBlockTableRecord
  2
_Dot
340
0
102
{BLKREFS
331
114D0
331
114D1
331
11502
331
11503
331
11543
331
11544
331
1155E
331
1155F
331
11847
331
11848
331
11866
331
11867
331
11885
331
11886
331
11897
331
11898
331
118C0
331
118C1
331
118DF
331
118E0
331
1192E
331
1192F
331
1197E
331
1197F
331
11B12
331
11B13
102
}
  0
BLOCK_RECORD
  5
A66
330
1
100
AcDbSymbolTableRecord
100
AcDbBlockTableRecord
  2
_OPEN30
340
0
102
{BLKREFS
331
11A85
331
11AB8
102
}
  0
BLOCK_RECORD
  5
B7D8
330
1
100
AcDbSymbolTableRecord
100
AcDbBlockTableRecord
  2
*U5
340
0
102
{BLKREFS
331
BA22
102
}
  0
BLOCK_RECORD
  5
B7DC
330
1
100
AcDbSymbolTableRecord
100
AcDbBlockTableRecord
  2
*U6
340
0
102
{BLKREFS
331
BA23
102
}
  0
BLOCK_RECORD
  5
B7E0
330
1
100
AcDbSymbolTableRecord
100
AcDbBlockTableRecord
  2
*U7
340
0
102
{BLKREFS
331
BA24
102
}
  0
BLOCK_RECORD
  5
B7E4
330
1
100
AcDbSymbolTableRecord
100
AcDbBlockTableRecord
  2
*U8
340
0
102
{BLKREFS
331
BA25
102
}
  0
BLOCK_RECORD
  5
B7E8
330
1
100
AcDbSymbolTableRecord
100
AcDbBlockTableRecord
  2
*U9
340
0
102
{BLKREFS
331
BA26
102
}
  0
BLOCK_RECORD
  5
BA33
330
1
100
AcDbSymbolTableRecord
100
AcDbBlockTableRecord
  2
*D10
340
0
  0
BLOCK_RECORD
  5
BA3D
330
1
100
AcDbSymbolTableRecord
100
AcDbBlockTableRecord
  2
*D11
340
0
  0
BLOCK_RECORD
  5
BAA3
330
1
100
AcDbSymbolTableRecord
100
AcDbBlockTableRecord
  2
*D12
340
0
  0
BLOCK_RECORD
  5
BACF
330
1
100
AcDbSymbolTableRecord
100
AcDbBlockTableRecord
  2
*D13
340
0
  0
BLOCK_RECORD
  5
BAE7
330
1
100
AcDbSymbolTableRecord
100
AcDbBlockTableRecord
  2
*D14
340
0
  0
BLOCK_RECORD
  5
C416
330
1
100
AcDbSymbolTableRecord
100
AcDbBlockTableRecord
  2
*D15
340
0
  0
BLOCK_RECORD
  5
11686
330
1
100
AcDbSymbolTableRecord
100
AcDbBlockTableRecord
  2
_NONE
340
0
  0
BLOCK_RECORD
  5
11826
330
1
100
AcDbSymbolTableRecord
100
AcDbBlockTableRecord
  2
*D17
340
0
  0
BLOCK_RECORD
  5
1184E
330
1
100
AcDbSymbolTableRecord
100
AcDbBlockTableRecord
  2
*D18
340
0
  0
BLOCK_RECORD
  5
1186D
330
1
100
AcDbSymbolTableRecord
100
AcDbBlockTableRecord
  2
*D19
340
0
  0
BLOCK_RECORD
  5
1189F
330
1
100
AcDbSymbolTableRecord
100
AcDbBlockTableRecord
  2
*D20
340
0
  0
BLOCK_RECORD
  5
118C7
330
1
100
AcDbSymbolTableRecord
100
AcDbBlockTableRecord
  2
*D21
340
0
  0
BLOCK_RECORD
  5
11905
330
1
100
AcDbSymbolTableRecord
100
AcDbBlockTableRecord
  2
*D22
340
0
  0
BLOCK_RECORD
  5
1195D
330
1
100
AcDbSymbolTableRecord
100
AcDbBlockTableRecord
  2
*D23
340
0
  0
BLOCK_RECORD
  5
11A31
330
1
100
AcDbSymbolTableRecord
100
AcDbBlockTableRecord
  2
*D24
340
0
  0
BLOCK_RECORD
  5
11A8D
330
1
100
AcDbSymbolTableRecord
100
AcDbBlockTableRecord
  2
*D25
340
0
  0
ENDTAB
  0
ENDSEC
  0
SECTION
  2
BLOCKS
  0
BLOCK
  5
20
330
1F
100
AcDbEntity
  8
0
100
AcDbBlockBegin
  2
*Model_Space
 70
     0
 10
0.0
 20
0.0
 30
0.0
  3
*Model_Space
  1

  0
ENDBLK
  5
21
330
1F
100
AcDbEntity
  8
0
100
AcDbBlockEnd
  0
BLOCK
  5
1C
330
1B
100
AcDbEntity
 67
     1
  8
0
100
AcDbBlockBegin
  2
*Paper_Space
 70
     0
 10
0.0
 20
0.0
 30
0.0
  3
*Paper_Space
  1

  0
ENDBLK
  5
1D
330
1B
100
AcDbEntity
 67
     1
  8
0
100
AcDbBlockEnd
  0
BLOCK
  5
24
330
23
100
AcDbEntity
 67
     1
  8
0
100
AcDbBlockBegin
  2
*Paper_Space0
 70
     0
 10
0.0
 20
0.0
 30
0.0
  3
*Paper_Space0
  1

  0
ENDBLK
  5
25
330
23
100
AcDbEntity
 67
     1
  8
0
100
AcDbBlockEnd
  0
BLOCK
  5
74
330
72
100
AcDbEntity
  8
0
100
AcDbBlockBegin
  2
GENAXEH
 70
     0
 10
0.0
 20
0.0
 30
0.0
  3
GENAXEH
  1

  0
LINE
  5
73
330
72
100
AcDbEntity
  8
0
100
AcDbLine
 10
-1.0
 20
0.0
 30
0.0
 11
1.0
 21
0.0
 31
0.0
  0
ENDBLK
  5
75
330
72
100
AcDbEntity
  8
0
100
AcDbBlockEnd
  0
BLOCK
  5
6C7
330
6C4
100
AcDbEntity
  8
0
100
AcDbBlockBegin
  2
_Dot
 70
     0
 10
0.0
 20
0.0
 30
0.0
  3
_Dot
  1

  0
LWPOLYLINE
  5
6C5
330
6C4
100
AcDbEntity
  8
0
  6
ByBlock
 62
     0
100
AcDbPolyline
 90
        2
 70
     1
 43
0.5
 10
-0.25
 20
0.0
 42
1.0
 10
0.25
 20
0.0
 42
1.0
  0
LINE
  5
6C6
330
6C4
100
AcDbEntity
  8
0
  6
ByBlock
 62
     0
370
    -2
100
AcDbLine
 10
-0.5
 20
0.0
 30
0.0
 11
-1.0
 21
0.0
 31
0.0
  0
ENDBLK
  5
6C8
330
6C4
100
AcDbEntity
  8
0
100
AcDbBlockEnd
  0
BLOCK
  5
A6A
330
A66
100
AcDbEntity
  8
0
100
AcDbBlockBegin
  2
_OPEN30
 70
     0
 10
0.0
 20
0.0
 30
0.0
  3
_OPEN30
  1

  0
LINE
  5
A67
330
A66
100
AcDbEntity
  8
0
  6
ByBlock
 62
     0
100
AcDbLine
 10
-1.0
 20
0.26794919
 30
0.0
 11
0.0
 21
0.0
 31
0.0
  0
LINE
  5
A68
330
A66
100
AcDbEntity
  8
0
  6
ByBlock
 62
     0
100
AcDbLine
 10
0.0
 20
0.0
 30
0.0
 11
-1.0
 21
-0.26794919
 31
0.0
  0
LINE
  5
A69
330
A66
100
AcDbEntity
  8
0
  6
ByBlock
 62
     0
100
AcDbLine
 10
0.0
 20
0.0
 30
0.0
 11
-1.0
 21
0.0
 31
0.0
  0
ENDBLK
  5
A6B
330
A66
100
AcDbEntity
  8
0
100
AcDbBlockEnd
  0
BLOCK
  5
B7D9
330
B7D8
100
AcDbEntity
  8
0
100
AcDbBlockBegin
  2
*U5
 70
     1
 10
0.0
 20
0.0
 30
0.0
  3
*U5
  1

  0
TEXT
  5
B7DA
330
B7D8
100
AcDbEntity
  8
AM_6
100
AcDbText
 10
-146.9595761299034
 20
12.814413070678
 30
0.0
 40
4.0
  1
丁番吊グレビティヒンジ　左右勝手決定方法
 41
0.7
100
AcDbText
  0
ENDBLK
  5
B7DB
330
B7D8
100
AcDbEntity
  8
0
100
AcDbBlockEnd
  0
BLOCK
  5
B7DD
330
B7DC
100
AcDbEntity
  8
0
100
AcDbBlockBegin
  2
*U6
 70
     1
 10
0.0
 20
0.0
 30
0.0
  3
*U6
  1

  0
TEXT
  5
B7DE
330
B7DC
100
AcDbEntity
  8
AM_6
100
AcDbText
 10
-188.7465061545315
 20
5.224999809265102
 30
0.0
 40
3.2
  1
左勝手
 41
0.7
100
AcDbText
  0
ENDBLK
  5
B7DF
330
B7DC
100
AcDbEntity
  8
0
100
AcDbBlockEnd
  0
BLOCK
  5
B7E1
330
B7E0
100
AcDbEntity
  8
0
100
AcDbBlockBegin
  2
*U7
 70
     1
 10
0.0
 20
0.0
 30
0.0
  3
*U7
  1

  0
TEXT
  5
B7E2
330
B7E0
100
AcDbEntity
  8
AM_6
100
AcDbText
 10
-35.28690189123155
 20
5.224999809265102
 30
0.0
 40
3.2
  1
右勝手
 41
0.7
100
AcDbText
  0
ENDBLK
  5
B7E3
330
B7E0
100
AcDbEntity
  8
0
100
AcDbBlockEnd
  0
BLOCK
  5
B7E5
330
B7E4
100
AcDbEntity
  8
0
100
AcDbBlockBegin
  2
*U8
 70
     1
 10
0.0
 20
0.0
 30
0.0
  3
*U8
  1

  0
TEXT
  5
B7E6
330
B7E4
100
AcDbEntity
  8
AM_6
100
AcDbText
 10
-169.6167096495581
 20
-41.49290380477855
 30
0.0
 40
3.2
  1
ドアを押す側から見た時に吊元が左側（右側）の場合は左勝手（右勝手）となります。
 41
0.7
100
AcDbText
  0
ENDBLK
  5
B7E7
330
B7E4
100
AcDbEntity
  8
0
100
AcDbBlockEnd
  0
BLOCK
  5
B7E9
330
B7E8
100
AcDbEntity
  8
0
100
AcDbBlockBegin
  2
*U9
 70
     1
 10
0.0
 20
0.0
 30
0.0
  3
*U9
  1

  0
TEXT
  5
B7EA
330
B7E8
100
AcDbEntity
  8
AM_6
100
AcDbText
 10
-137.6167091727211
 20
-46.29290399551344
 30
0.0
 40
3.2
  1
（通常の丁番の勝手とは逆になります。）
 41
0.7
100
AcDbText
  0
ENDBLK
  5
B7EB
330
B7E8
100
AcDbEntity
  8
0
100
AcDbBlockEnd
  0
BLOCK
  5
BA34
330
BA33
100
AcDbEntity
  8
0
100
AcDbBlockBegin
  2
*D10
 70
     1
 10
0.0
 20
0.0
 30
0.0
  3
*D10
  1

  0
LINE
  5
1155B
330
BA33
100
AcDbEntity
  8
AM_5
100
AcDbLine
 10
254.9533847989926
 20
165.7637605369401
 30
0.0
 11
254.9533847989926
 21
178.4637567222431
 31
0.0
  0
LINE
  5
1155C
330
BA33
100
AcDbEntity
  8
AM_5
100
AcDbLine
 10
263.9533847989927
 20
141.7637605369401
 30
0.0
 11
263.9533847989927
 21
178.4637567222431
 31
0.0
  0
LINE
  5
1155D
330
BA33
100
AcDbEntity
  8
AM_5
100
AcDbLine
 10
255.9533847989927
 20
177.4637567222431
 30
0.0
 11
262.9533847989927
 21
177.4637567222431
 31
0.0
  0
INSERT
  5
1155E
330
BA33
100
AcDbEntity
  8
AM_5
100
AcDbBlockReference
  2
_Dot
 10
254.9533847989926
 20
177.4637567222431
 30
0.0
 50
180.0
  0
INSERT
  5
1155F
330
BA33
100
AcDbEntity
  8
AM_5
100
AcDbBlockReference
  2
_Dot
 10
263.9533847989927
 20
177.4637567222431
 30
0.0
  0
MTEXT
  5
11560
330
BA33
100
AcDbEntity
  8
AM_5
 62
     2
100
AcDbMText
 10
259.4533809842947
 20
180.5637567222431
 30
0.0
 40
3.2
 41
0.0
 71
     5
 72
     1
  1
9
 73
     1
 44
1.0
  0
POINT
  5
11561
330
BA33
100
AcDbEntity
  8
Defpoints
 62
     0
100
AcDbPoint
 10
254.9533847989926
 20
164.7637605369401
 30
0.0
  0
POINT
  5
11562
330
BA33
100
AcDbEntity
  8
Defpoints
 62
     0
100
AcDbPoint
 10
263.9533847989927
 20
140.7637605369401
 30
0.0
  0
POINT
  5
11563
330
BA33
100
AcDbEntity
  8
Defpoints
 62
     0
100
AcDbPoint
 10
263.9533847989927
 20
177.4637567222431
 30
0.0
  0
ENDBLK
  5
BA35
330
BA33
100
AcDbEntity
  8
0
100
AcDbBlockEnd
  0
BLOCK
  5
BA3E
330
BA3D
100
AcDbEntity
  8
0
100
AcDbBlockBegin
  2
*D11
 70
     1
 10
0.0
 20
0.0
 30
0.0
  3
*D11
  1

  0
LINE
  5
11541
330
BA3D
100
AcDbEntity
  8
AM_5
100
AcDbLine
 10
292.9533886136896
 20
171.4637567222431
 30
0.0
 11
292.9533886136896
 21
178.4637567222431
 31
0.0
  0
LINE
  5
11542
330
BA3D
100
AcDbEntity
  8
AM_5
100
AcDbLine
 10
264.9533809842946
 20
177.4637567222431
 30
0.0
 11
291.9533886136896
 21
177.4637567222431
 31
0.0
  0
INSERT
  5
11543
330
BA3D
100
AcDbEntity
  8
AM_5
100
AcDbBlockReference
  2
_Dot
 10
263.9533809842947
 20
177.4637567222431
 30
0.0
 50
180.0
  0
INSERT
  5
11544
330
BA3D
100
AcDbEntity
  8
AM_5
100
AcDbBlockReference
  2
_Dot
 10
292.9533886136896
 20
177.4637567222431
 30
0.0
  0
MTEXT
  5
11545
330
BA3D
100
AcDbEntity
  8
AM_5
 62
     2
100
AcDbMText
 10
278.4533886136896
 20
180.5637567222431
 30
0.0
 40
3.2
 41
0.0
 71
     5
 72
     1
  1
29
 73
     1
 44
1.0
  0
POINT
  5
11546
330
BA3D
100
AcDbEntity
  8
Defpoints
 62
     0
100
AcDbPoint
 10
263.9533809842947
 20
162.46376053694
 30
0.0
  0
POINT
  5
11547
330
BA3D
100
AcDbEntity
  8
Defpoints
 62
     0
100
AcDbPoint
 10
292.9533886136896
 20
170.4637567222431
 30
0.0
  0
POINT
  5
11548
330
BA3D
100
AcDbEntity
  8
Defpoints
 62
     0
100
AcDbPoint
 10
292.9533886136896
 20
177.4637567222431
 30
0.0
  0
ENDBLK
  5
BA3F
330
BA3D
100
AcDbEntity
  8
0
100
AcDbBlockEnd
  0
BLOCK
  5
BAA4
330
BAA3
100
AcDbEntity
  8
0
100
AcDbBlockBegin
  2
*D12
 70
     1
 10
0.0
 20
0.0
 30
0.0
  3
*D12
  1

  0
LINE
  5
11894
330
BAA3
100
AcDbEntity
  8
AM_5
100
AcDbLine
 10
339.9533886136816
 20
76.46376053694109
 30
0.0
 11
351.9533886136815
 21
76.46376053694109
 31
0.0
  0
LINE
  5
11895
330
BAA3
100
AcDbEntity
  8
AM_5
100
AcDbLine
 10
339.9533886136816
 20
165.4637567222431
 30
0.0
 11
351.9533886136816
 21
165.4637567222431
 31
0.0
  0
LINE
  5
11896
330
BAA3
100
AcDbEntity
  8
AM_5
100
AcDbLine
 10
350.9533886136815
 20
77.4637605369411
 30
0.0
 11
350.9533886136816
 21
164.4637567222431
 31
0.0
  0
INSERT
  5
11897
330
BAA3
100
AcDbEntity
  8
AM_5
100
AcDbBlockReference
  2
_Dot
 10
350.9533886136815
 20
76.46376053694109
 30
0.0
 50
270.0
  0
INSERT
  5
11898
330
BAA3
100
AcDbEntity
  8
AM_5
100
AcDbBlockReference
  2
_Dot
 10
350.9533886136816
 20
165.4637567222431
 30
0.0
 50
90.0
  0
MTEXT
  5
11899
330
BAA3
100
AcDbEntity
  8
AM_5
 62
     2
100
AcDbMText
 10
347.8533886136815
 20
120.9637605369401
 30
0.0
 40
3.2
 41
0.0
 71
     5
 72
     1
  1
89
 11
0.0000000000000001
 21
1.0
 31
0.0
 73
     1
 44
1.0
  0
POINT
  5
1189A
330
BAA3
100
AcDbEntity
  8
Defpoints
 62
     0
100
AcDbPoint
 10
338.9533886136816
 20
76.46376053694109
 30
0.0
  0
POINT
  5
1189B
330
BAA3
100
AcDbEntity
  8
Defpoints
 62
     0
100
AcDbPoint
 10
338.9533886136816
 20
165.4637567222431
 30
0.0
  0
POINT
  5
1189C
330
BAA3
100
AcDbEntity
  8
Defpoints
 62
     0
100
AcDbPoint
 10
350.9533886136816
 20
165.4637567222431
 30
0.0
  0
ENDBLK
  5
BAA5
330
BAA3
100
AcDbEntity
  8
0
100
AcDbBlockEnd
  0
BLOCK
  5
BAD0
330
BACF
100
AcDbEntity
  8
0
100
AcDbBlockBegin
  2
*D13
 70
     1
 10
0.0
 20
0.0
 30
0.0
  3
*D13
  1

  0
LINE
  5
114FF
330
BACF
100
AcDbEntity
  8
AM_5
100
AcDbLine
 10
245.9533886136896
 20
222.2137567222381
 30
0.0
 11
235.9533886136897
 21
222.2137567222381
 31
0.0
  0
LINE
  5
11500
330
BACF
100
AcDbEntity
  8
AM_5
100
AcDbLine
 10
245.9533886136896
 20
228.213764351628
 30
0.0
 11
235.9533886136897
 21
228.213764351628
 31
0.0
  0
LINE
  5
11501
330
BACF
100
AcDbEntity
  8
AM_5
100
AcDbLine
 10
236.9533886136898
 20
223.2137567222381
 30
0.0
 11
236.9533886136898
 21
227.213764351628
 31
0.0
  0
INSERT
  5
11502
330
BACF
100
AcDbEntity
  8
AM_5
100
AcDbBlockReference
  2
_Dot
 10
236.9533886136898
 20
222.2137567222381
 30
0.0
 50
270.0
  0
INSERT
  5
11503
330
BACF
100
AcDbEntity
  8
AM_5
100
AcDbBlockReference
  2
_Dot
 10
236.9533886136898
 20
228.213764351628
 30
0.0
 50
90.0
  0
MTEXT
  5
11504
330
BACF
100
AcDbEntity
  8
AM_5
 62
     2
100
AcDbMText
 10
233.8533886136897
 20
225.2137567222381
 30
0.0
 40
3.2
 41
0.0
 71
     5
 72
     1
  1
6
 11
0.0000000000000001
 21
1.0
 31
0.0
 73
     1
 44
1.0
  0
POINT
  5
11505
330
BACF
100
AcDbEntity
  8
Defpoints
 62
     0
100
AcDbPoint
 10
246.9533886136896
 20
222.2137567222381
 30
0.0
  0
POINT
  5
11506
330
BACF
100
AcDbEntity
  8
Defpoints
 62
     0
100
AcDbPoint
 10
246.9533886136896
 20
228.213764351628
 30
0.0
  0
POINT
  5
11507
330
BACF
100
AcDbEntity
  8
Defpoints
 62
     0
100
AcDbPoint
 10
236.9533886136898
 20
228.213764351628
 30
0.0
  0
ENDBLK
  5
BAD1
330
BACF
100
AcDbEntity
  8
0
100
AcDbBlockEnd
  0
BLOCK
  5
BAE8
330
BAE7
100
AcDbEntity
  8
0
100
AcDbBlockBegin
  2
*D14
 70
     1
 10
0.0
 20
0.0
 30
0.0
  3
*D14
  1

  0
LINE
  5
11B0F
330
BAE7
100
AcDbEntity
  8
AM_5
100
AcDbLine
 10
307.9533657255057
 20
229.213764351628
 30
0.0
 11
307.9533657255057
 21
248.313755196358
 31
0.0
  0
LINE
  5
11B10
330
BAE7
100
AcDbEntity
  8
AM_5
100
AcDbLine
 10
277.9534115018737
 20
229.213764351628
 30
0.0
 11
277.9534115018737
 21
248.313755196358
 31
0.0
  0
LINE
  5
11B11
330
BAE7
100
AcDbEntity
  8
AM_5
100
AcDbLine
 10
306.9533657255056
 20
247.313755196358
 30
0.0
 11
278.9534115018737
 21
247.313755196358
 31
0.0
  0
INSERT
  5
11B12
330
BAE7
100
AcDbEntity
  8
AM_5
100
AcDbBlockReference
  2
_Dot
 10
307.9533657255057
 20
247.313755196358
 30
0.0
  0
INSERT
  5
11B13
330
BAE7
100
AcDbEntity
  8
AM_5
100
AcDbBlockReference
  2
_Dot
 10
277.9534115018737
 20
247.313755196358
 30
0.0
 50
180.0
  0
MTEXT
  5
11B14
330
BAE7
100
AcDbEntity
  8
AM_5
 62
     2
100
AcDbMText
 10
292.9533886136896
 20
250.413755196358
 30
0.0
 40
3.2
 41
0.0
 71
     5
 72
     1
  1
（30）
 73
     1
 44
1.0
  0
POINT
  5
11B15
330
BAE7
100
AcDbEntity
  8
Defpoints
 62
     0
100
AcDbPoint
 10
307.9533657255057
 20
228.213764351628
 30
0.0
  0
POINT
  5
11B16
330
BAE7
100
AcDbEntity
  8
Defpoints
 62
     0
100
AcDbPoint
 10
277.9534115018737
 20
228.213764351628
 30
0.0
  0
POINT
  5
11B17
330
BAE7
100
AcDbEntity
  8
Defpoints
 62
     0
100
AcDbPoint
 10
277.9534115018737
 20
247.313755196358
 30
0.0
  0
ENDBLK
  5
BAE9
330
BAE7
100
AcDbEntity
  8
0
100
AcDbBlockEnd
  0
BLOCK
  5
C417
330
C416
100
AcDbEntity
  8
0
100
AcDbBlockBegin
  2
*D15
 70
     1
 10
0.0
 20
0.0
 30
0.0
  3
*D15
  1

  0
LINE
  5
114CD
330
C416
100
AcDbEntity
  8
AM_5
100
AcDbLine
 10
283.9533886136896
 20
75.4637605369411
 30
0.0
 11
283.9533886136896
 21
61.46376053694108
 31
0.0
  0
LINE
  5
114CE
330
C416
100
AcDbEntity
  8
AM_5
100
AcDbLine
 10
301.9533886136896
 20
75.4637605369411
 30
0.0
 11
301.9533886136896
 21
61.46376053694108
 31
0.0
  0
LINE
  5
114CF
330
C416
100
AcDbEntity
  8
AM_5
100
AcDbLine
 10
284.9533886136896
 20
62.46376053694108
 30
0.0
 11
300.9533886136896
 21
62.46376053694108
 31
0.0
  0
INSERT
  5
114D0
330
C416
100
AcDbEntity
  8
AM_5
100
AcDbBlockReference
  2
_Dot
 10
283.9533886136896
 20
62.46376053694108
 30
0.0
 50
180.0
  0
INSERT
  5
114D1
330
C416
100
AcDbEntity
  8
AM_5
100
AcDbBlockReference
  2
_Dot
 10
301.9533886136896
 20
62.46376053694108
 30
0.0
  0
MTEXT
  5
114D2
330
C416
100
AcDbEntity
  8
AM_5
 62
     2
100
AcDbMText
 10
292.9533886136896
 20
65.56376053694108
 30
0.0
 40
3.200000000000001
 41
0.0
 71
     5
 72
     1
  1
%%c18
 73
     1
 44
1.0
  0
POINT
  5
114D3
330
C416
100
AcDbEntity
  8
Defpoints
 62
     0
100
AcDbPoint
 10
283.9533886136896
 20
76.46376053694109
 30
0.0
  0
POINT
  5
114D4
330
C416
100
AcDbEntity
  8
Defpoints
 62
     0
100
AcDbPoint
 10
301.9533886136896
 20
76.46376053694109
 30
0.0
  0
POINT
  5
114D5
330
C416
100
AcDbEntity
  8
Defpoints
 62
     0
100
AcDbPoint
 10
301.9533886136896
 20
62.46376053694108
 30
0.0
  0
ENDBLK
  5
C418
330
C416
100
AcDbEntity
  8
0
100
AcDbBlockEnd
  0
BLOCK
  5
11687
330
11686
100
AcDbEntity
  8
0
100
AcDbBlockBegin
  2
_NONE
 70
     0
 10
0.0
 20
0.0
 30
0.0
  3
_NONE
  1

  0
ENDBLK
  5
11688
330
11686
100
AcDbEntity
  8
0
100
AcDbBlockEnd
  0
BLOCK
  5
11827
330
11826
100
AcDbEntity
  8
0
100
AcDbBlockBegin
  2
*D17
 70
     1
 10
0.0
 20
0.0
 30
0.0
  3
*D17
  1

  0
LINE
  5
11844
330
11826
100
AcDbEntity
  8
AM_5
100
AcDbLine
 10
246.6533847989926
 20
157.46376053694
 30
0.0
 11
234.6533847989927
 21
157.46376053694
 31
0.0
  0
LINE
  5
11845
330
11826
100
AcDbEntity
  8
AM_5
100
AcDbLine
 10
255.6533847989926
 20
133.46376053694
 30
0.0
 11
234.6533847989927
 21
133.46376053694
 31
0.0
  0
LINE
  5
11846
330
11826
100
AcDbEntity
  8
AM_5
100
AcDbLine
 10
235.6533847989926
 20
156.46376053694
 30
0.0
 11
235.6533847989926
 21
134.46376053694
 31
0.0
  0
INSERT
  5
11847
330
11826
100
AcDbEntity
  8
AM_5
100
AcDbBlockReference
  2
_Dot
 10
235.6533847989926
 20
157.46376053694
 30
0.0
 50
90.0
  0
INSERT
  5
11848
330
11826
100
AcDbEntity
  8
AM_5
100
AcDbBlockReference
  2
_Dot
 10
235.6533847989926
 20
133.46376053694
 30
0.0
 50
270.0
  0
MTEXT
  5
11849
330
11826
100
AcDbEntity
  8
AM_5
 62
     2
100
AcDbMText
 10
232.5533847989926
 20
145.4637605369401
 30
0.0
 40
3.200000000000001
 41
0.0
 71
     5
 72
     1
  1
24
 11
0.0000000000000001
 21
1.0
 31
0.0
 73
     1
 44
1.0
  0
POINT
  5
1184A
330
11826
100
AcDbEntity
  8
Defpoints
 62
     0
100
AcDbPoint
 10
247.6533847989927
 20
157.46376053694
 30
0.0
  0
POINT
  5
1184B
330
11826
100
AcDbEntity
  8
Defpoints
 62
     0
100
AcDbPoint
 10
256.6533847989926
 20
133.46376053694
 30
0.0
  0
POINT
  5
1184C
330
11826
100
AcDbEntity
  8
Defpoints
 62
     0
100
AcDbPoint
 10
235.6533847989926
 20
133.46376053694
 30
0.0
  0
ENDBLK
  5
11828
330
11826
100
AcDbEntity
  8
0
100
AcDbBlockEnd
  0
BLOCK
  5
1184F
330
1184E
100
AcDbEntity
  8
0
100
AcDbBlockBegin
  2
*D18
 70
     1
 10
0.0
 20
0.0
 30
0.0
  3
*D18
  1

  0
LINE
  5
11863
330
1184E
100
AcDbEntity
  8
AM_5
100
AcDbLine
 10
255.6533847989926
 20
133.46376053694
 30
0.0
 11
234.6533847989927
 21
133.46376053694
 31
0.0
  0
LINE
  5
11864
330
1184E
100
AcDbEntity
  8
AM_5
100
AcDbLine
 10
246.6533847989926
 20
108.4637605369405
 30
0.0
 11
234.6533847989927
 21
108.4637605369405
 31
0.0
  0
LINE
  5
11865
330
1184E
100
AcDbEntity
  8
AM_5
100
AcDbLine
 10
235.6533847989926
 20
132.46376053694
 30
0.0
 11
235.6533847989926
 21
109.4637605369405
 31
0.0
  0
INSERT
  5
11866
330
1184E
100
AcDbEntity
  8
AM_5
100
AcDbBlockReference
  2
_Dot
 10
235.6533847989926
 20
133.46376053694
 30
0.0
 50
90.0
  0
INSERT
  5
11867
330
1184E
100
AcDbEntity
  8
AM_5
100
AcDbBlockReference
  2
_Dot
 10
235.6533847989926
 20
108.4637605369405
 30
0.0
 50
270.0
  0
MTEXT
  5
11868
330
1184E
100
AcDbEntity
  8
AM_5
 62
     2
100
AcDbMText
 10
232.5533847989926
 20
120.9637605369403
 30
0.0
 40
3.200000000000001
 41
0.0
 71
     5
 72
     1
  1
25
 11
0.0000000000000001
 21
1.0
 31
0.0
 73
     1
 44
1.0
  0
POINT
  5
11869
330
1184E
100
AcDbEntity
  8
Defpoints
 62
     0
100
AcDbPoint
 10
256.6533847989926
 20
133.46376053694
 30
0.0
  0
POINT
  5
1186A
330
1184E
100
AcDbEntity
  8
Defpoints
 62
     0
100
AcDbPoint
 10
247.6533847989927
 20
108.4637605369405
 30
0.0
  0
POINT
  5
1186B
330
1184E
100
AcDbEntity
  8
Defpoints
 62
     0
100
AcDbPoint
 10
235.6533847989926
 20
108.4637605369405
 30
0.0
  0
ENDBLK
  5
11850
330
1184E
100
AcDbEntity
  8
0
100
AcDbBlockEnd
  0
BLOCK
  5
1186E
330
1186D
100
AcDbEntity
  8
0
100
AcDbBlockBegin
  2
*D19
 70
     1
 10
0.0
 20
0.0
 30
0.0
  3
*D19
  1

  0
LINE
  5
11882
330
1186D
100
AcDbEntity
  8
AM_5
100
AcDbLine
 10
246.6533847989926
 20
108.4637605369405
 30
0.0
 11
234.6533847989927
 21
108.4637605369405
 31
0.0
  0
LINE
  5
11883
330
1186D
100
AcDbEntity
  8
AM_5
100
AcDbLine
 10
255.6533847989927
 20
84.46376053694109
 30
0.0
 11
234.6533847989927
 21
84.46376053694109
 31
0.0
  0
LINE
  5
11884
330
1186D
100
AcDbEntity
  8
AM_5
100
AcDbLine
 10
235.6533847989926
 20
107.4637605369405
 30
0.0
 11
235.6533847989926
 21
85.46376053694109
 31
0.0
  0
INSERT
  5
11885
330
1186D
100
AcDbEntity
  8
AM_5
100
AcDbBlockReference
  2
_Dot
 10
235.6533847989926
 20
108.4637605369405
 30
0.0
 50
90.0
  0
INSERT
  5
11886
330
1186D
100
AcDbEntity
  8
AM_5
100
AcDbBlockReference
  2
_Dot
 10
235.6533847989926
 20
84.46376053694109
 30
0.0
 50
270.0
  0
MTEXT
  5
11887
330
1186D
100
AcDbEntity
  8
AM_5
 62
     2
100
AcDbMText
 10
232.5533847989926
 20
96.46376053694085
 30
0.0
 40
3.200000000000001
 41
0.0
 71
     5
 72
     1
  1
24
 11
0.0000000000000001
 21
1.0
 31
0.0
 73
     1
 44
1.0
  0
POINT
  5
11888
330
1186D
100
AcDbEntity
  8
Defpoints
 62
     0
100
AcDbPoint
 10
247.6533847989927
 20
108.4637605369405
 30
0.0
  0
POINT
  5
11889
330
1186D
100
AcDbEntity
  8
Defpoints
 62
     0
100
AcDbPoint
 10
256.6533847989926
 20
84.46376053694109
 30
0.0
  0
POINT
  5
1188A
330
1186D
100
AcDbEntity
  8
Defpoints
 62
     0
100
AcDbPoint
 10
235.6533847989926
 20
84.46376053694109
 30
0.0
  0
ENDBLK
  5
1186F
330
1186D
100
AcDbEntity
  8
0
100
AcDbBlockEnd
  0
BLOCK
  5
118A0
330
1189F
100
AcDbEntity
  8
0
100
AcDbBlockBegin
  2
*D20
 70
     1
 10
0.0
 20
0.0
 30
0.0
  3
*D20
  1

  0
LINE
  5
118BD
330
1189F
100
AcDbEntity
  8
AM_5
100
AcDbLine
 10
254.9533847989926
 20
165.7637605369401
 30
0.0
 11
254.9533847989926
 21
178.4637567222431
 31
0.0
  0
LINE
  5
118BE
330
1189F
100
AcDbEntity
  8
AM_5
100
AcDbLine
 10
246.9533847989926
 20
166.4637567222431
 30
0.0
 11
246.9533847989926
 21
178.4637567222431
 31
0.0
  0
LINE
  5
118BF
330
1189F
100
AcDbEntity
  8
AM_5
100
AcDbLine
 10
253.9533847989927
 20
177.4637567222431
 30
0.0
 11
247.9533847989927
 21
177.4637567222431
 31
0.0
  0
INSERT
  5
118C0
330
1189F
100
AcDbEntity
  8
AM_5
100
AcDbBlockReference
  2
_Dot
 10
254.9533847989926
 20
177.4637567222431
 30
0.0
  0
INSERT
  5
118C1
330
1189F
100
AcDbEntity
  8
AM_5
100
AcDbBlockReference
  2
_Dot
 10
246.9533847989926
 20
177.4637567222431
 30
0.0
 50
180.0
  0
MTEXT
  5
118C2
330
1189F
100
AcDbEntity
  8
AM_5
 62
     2
100
AcDbMText
 10
250.9533847989926
 20
180.5637567222431
 30
0.0
 40
3.200000000000001
 41
0.0
 71
     5
 72
     1
  1
8
 73
     1
 44
1.0
  0
POINT
  5
118C3
330
1189F
100
AcDbEntity
  8
Defpoints
 62
     0
100
AcDbPoint
 10
254.9533847989926
 20
164.7637605369401
 30
0.0
  0
POINT
  5
118C4
330
1189F
100
AcDbEntity
  8
Defpoints
 62
     0
100
AcDbPoint
 10
246.9533847989926
 20
165.4637567222431
 30
0.0
  0
POINT
  5
118C5
330
1189F
100
AcDbEntity
  8
Defpoints
 62
     0
100
AcDbPoint
 10
246.9533847989926
 20
177.4637567222431
 30
0.0
  0
ENDBLK
  5
118A1
330
1189F
100
AcDbEntity
  8
0
100
AcDbBlockEnd
  0
BLOCK
  5
118C8
330
118C7
100
AcDbEntity
  8
0
100
AcDbBlockBegin
  2
*D21
 70
     1
 10
0.0
 20
0.0
 30
0.0
  3
*D21
  1

  0
LINE
  5
118DC
330
118C7
100
AcDbEntity
  8
AM_5
100
AcDbLine
 10
246.9533847989926
 20
166.4637567222431
 30
0.0
 11
246.9533847989926
 21
188.4637567222429
 31
0.0
  0
LINE
  5
118DD
330
118C7
100
AcDbEntity
  8
AM_5
100
AcDbLine
 10
338.9533886136816
 20
166.4637567222431
 30
0.0
 11
338.9533886136816
 21
188.4637567222429
 31
0.0
  0
LINE
  5
118DE
330
118C7
100
AcDbEntity
  8
AM_5
100
AcDbLine
 10
247.9533847989927
 20
187.4637567222429
 30
0.0
 11
337.9533886136816
 21
187.4637567222429
 31
0.0
  0
INSERT
  5
118DF
330
118C7
100
AcDbEntity
  8
AM_5
100
AcDbBlockReference
  2
_Dot
 10
246.9533847989926
 20
187.4637567222429
 30
0.0
 50
180.0
  0
INSERT
  5
118E0
330
118C7
100
AcDbEntity
  8
AM_5
100
AcDbBlockReference
  2
_Dot
 10
338.9533886136816
 20
187.4637567222429
 30
0.0
  0
MTEXT
  5
118E1
330
118C7
100
AcDbEntity
  8
AM_5
 62
     2
100
AcDbMText
 10
292.9533867063371
 20
190.5637567222429
 30
0.0
 40
3.200000000000001
 41
0.0
 71
     5
 72
     1
  1
92
 73
     1
 44
1.0
  0
POINT
  5
118E2
330
118C7
100
AcDbEntity
  8
Defpoints
 62
     0
100
AcDbPoint
 10
246.9533847989926
 20
165.4637567222431
 30
0.0
  0
POINT
  5
118E3
330
118C7
100
AcDbEntity
  8
Defpoints
 62
     0
100
AcDbPoint
 10
338.9533886136816
 20
165.4637567222431
 30
0.0
  0
POINT
  5
118E4
330
118C7
100
AcDbEntity
  8
Defpoints
 62
     0
100
AcDbPoint
 10
338.9533886136816
 20
187.4637567222429
 30
0.0
  0
ENDBLK
  5
118C9
330
118C7
100
AcDbEntity
  8
0
100
AcDbBlockEnd
  0
BLOCK
  5
11906
330
11905
100
AcDbEntity
  8
0
100
AcDbBlockBegin
  2
*D22
 70
     1
 10
0.0
 20
0.0
 30
0.0
  3
*D22
  1

  0
LINE
  5
11929
330
11905
100
AcDbEntity
  8
AM_5
100
AcDbLine
 10
339.9533886136816
 20
228.213764351628
 30
0.0
 11
351.9533886136816
 21
228.213764351628
 31
0.0
  0
LINE
  5
1192A
330
11905
100
AcDbEntity
  8
AM_5
100
AcDbLine
 10
339.9533886136816
 20
225.7137567222382
 30
0.0
 11
351.9533886136816
 21
225.7137567222382
 31
0.0
  0
LINE
  5
1192B
330
11905
100
AcDbEntity
  8
AM_5
100
AcDbLine
 10
350.9533886136816
 20
229.213764351628
 30
0.0
 11
350.9533886136816
 21
230.213764351628
 31
0.0
  0
LINE
  5
1192C
330
11905
100
AcDbEntity
  8
AM_5
100
AcDbLine
 10
350.9533886136816
 20
224.7137567222381
 30
0.0
 11
350.9533886136816
 21
216.0204233889048
 31
0.0
  0
LINE
  5
1192D
330
11905
100
AcDbEntity
  8
AM_5
100
AcDbLine
 10
350.9533886136816
 20
228.213764351628
 30
0.0
 11
350.9533886136816
 21
225.7137567222382
 31
0.0
  0
INSERT
  5
1192E
330
11905
100
AcDbEntity
  8
AM_5
100
AcDbBlockReference
  2
_Dot
 10
350.9533886136816
 20
228.213764351628
 30
0.0
 50
270.0
  0
INSERT
  5
1192F
330
11905
100
AcDbEntity
  8
AM_5
100
AcDbBlockReference
  2
_Dot
 10
350.9533886136816
 20
225.7137567222382
 30
0.0
 50
90.0
  0
MTEXT
  5
11930
330
11905
100
AcDbEntity
  8
AM_5
 62
     2
100
AcDbMText
 10
347.8533886136815
 20
219.8670900555715
 30
0.0
 40
3.200000000000001
 41
0.0
 71
     5
 72
     1
  1
2.5
 11
0.0000000000000001
 21
1.0
 31
0.0
 73
     1
 44
1.0
  0
POINT
  5
11931
330
11905
100
AcDbEntity
  8
Defpoints
 62
     0
100
AcDbPoint
 10
338.9533886136816
 20
228.213764351628
 30
0.0
  0
POINT
  5
11932
330
11905
100
AcDbEntity
  8
Defpoints
 62
     0
100
AcDbPoint
 10
338.9533886136816
 20
225.7137567222382
 30
0.0
  0
POINT
  5
11933
330
11905
100
AcDbEntity
  8
Defpoints
 62
     0
100
AcDbPoint
 10
350.9533886136816
 20
225.7137567222382
 30
0.0
  0
ENDBLK
  5
11907
330
11905
100
AcDbEntity
  8
0
100
AcDbBlockEnd
  0
BLOCK
  5
1195E
330
1195D
100
AcDbEntity
  8
0
100
AcDbBlockBegin
  2
*D23
 70
     1
 10
0.0
 20
0.0
 30
0.0
  3
*D23
  1

  0
LINE
  5
1197B
330
1195D
100
AcDbEntity
  8
AM_5
100
AcDbLine
 10
313.9533886136817
 20
75.4637605369411
 30
0.0
 11
313.9533886136817
 21
61.46376053694091
 31
0.0
  0
LINE
  5
1197C
330
1195D
100
AcDbEntity
  8
AM_5
100
AcDbLine
 10
338.9533886136816
 20
75.4637605369411
 30
0.0
 11
338.9533886136816
 21
61.46376053694091
 31
0.0
  0
LINE
  5
1197D
330
1195D
100
AcDbEntity
  8
AM_5
100
AcDbLine
 10
314.9533886136817
 20
62.4637605369409
 30
0.0
 11
337.9533886136816
 21
62.4637605369409
 31
0.0
  0
INSERT
  5
1197E
330
1195D
100
AcDbEntity
  8
AM_5
100
AcDbBlockReference
  2
_Dot
 10
313.9533886136817
 20
62.4637605369409
 30
0.0
 50
180.0
  0
INSERT
  5
1197F
330
1195D
100
AcDbEntity
  8
AM_5
100
AcDbBlockReference
  2
_Dot
 10
338.9533886136816
 20
62.4637605369409
 30
0.0
  0
MTEXT
  5
11980
330
1195D
100
AcDbEntity
  8
AM_5
 62
     2
100
AcDbMText
 10
326.4533886136816
 20
65.56376053694091
 30
0.0
 40
3.200000000000001
 41
0.0
 71
     5
 72
     1
  1
25
 73
     1
 44
1.0
  0
POINT
  5
11981
330
1195D
100
AcDbEntity
  8
Defpoints
 62
     0
100
AcDbPoint
 10
313.9533886136817
 20
76.46376053694109
 30
0.0
  0
POINT
  5
11982
330
1195D
100
AcDbEntity
  8
Defpoints
 62
     0
100
AcDbPoint
 10
338.9533886136816
 20
76.46376053694109
 30
0.0
  0
POINT
  5
11983
330
1195D
100
AcDbEntity
  8
Defpoints
 62
     0
100
AcDbPoint
 10
338.9533886136816
 20
62.4637605369409
 30
0.0
  0
ENDBLK
  5
1195F
330
1195D
100
AcDbEntity
  8
0
100
AcDbBlockEnd
  0
BLOCK
  5
11A32
330
11A31
100
AcDbEntity
  8
0
100
AcDbBlockBegin
  2
*D24
 70
     1
 10
0.0
 20
0.0
 30
0.0
  3
*D24
  1

  0
ARC
  5
11A84
330
11A31
100
AcDbEntity
  8
AM_5
100
AcDbCircle
 10
166.9027937561816
 20
86.96463566692489
 30
0.0
 40
23.74944716417585
100
AcDbArc
 50
139.8264506987392
 51
179.9999999999999
  0
INSERT
  5
11A85
330
11A31
100
AcDbEntity
  8
AM_5
100
AcDbBlockReference
  2
_OPEN30
 10
150.1093975159566
 20
103.7580297051405
 30
0.0
 41
2.0
 42
2.0
 43
2.0
 50
47.41322722757597
  0
POINT
  5
11A86
330
11A31
100
AcDbEntity
  8
Defpoints
 62
     0
100
AcDbPoint
 10
146.3351686671504
 20
98.83935835004624
 30
0.0
  0
POINT
  5
11A87
330
11A31
100
AcDbEntity
  8
Defpoints
 62
     0
100
AcDbPoint
 10
169.0797502183898
 20
84.78767949016692
 30
0.0
  0
POINT
  5
11A88
330
11A31
100
AcDbEntity
  8
Defpoints
 62
     0
100
AcDbPoint
 10
172.8809701585748
 20
86.96463566692489
 30
0.0
  0
POINT
  5
11A89
330
11A31
100
AcDbEntity
  8
Defpoints
 62
     0
100
AcDbPoint
 10
136.8809739732728
 20
86.96463566692489
 30
0.0
  0
POINT
  5
11A8A
330
11A31
100
AcDbEntity
  8
Defpoints
 62
     0
100
AcDbPoint
 10
143.6239015245418
 20
110.2435248461542
 30
0.0
  0
ENDBLK
  5
11A33
330
11A31
100
AcDbEntity
  8
0
100
AcDbBlockEnd
  0
BLOCK
  5
11A8E
330
11A8D
100
AcDbEntity
  8
0
100
AcDbBlockBegin
  2
*D25
 70
     1
 10
0.0
 20
0.0
 30
0.0
  3
*D25
  1

  0
ARC
  5
11AB7
330
11A8D
100
AcDbEntity
  8
AM_5
100
AcDbCircle
 10
52.85914656097298
 20
86.96463566692491
 30
0.0
 40
23.74944716417584
100
AcDbArc
 50
359.9999999999999
 51
40.17354930126077
  0
INSERT
  5
11AB8
330
11A8D
100
AcDbEntity
  8
AM_5
100
AcDbBlockReference
  2
_OPEN30
 10
69.65254280119802
 20
103.7580297051405
 30
0.0
 41
2.0
 42
2.0
 43
2.0
 50
132.586772772424
  0
POINT
  5
11AB9
330
11A8D
100
AcDbEntity
  8
Defpoints
 62
     0
100
AcDbPoint
 10
75.79935107126999
 20
93.11144440233617
 30
0.0
  0
POINT
  5
11ABA
330
11A8D
100
AcDbEntity
  8
Defpoints
 62
     0
100
AcDbPoint
 10
50.68219009876477
 20
84.7876794901669
 30
0.0
  0
POINT
  5
11ABB
330
11A8D
100
AcDbEntity
  8
Defpoints
 62
     0
100
AcDbPoint
 10
46.88097015857978
 20
86.96463566692491
 30
0.0
  0
POINT
  5
11ABC
330
11A8D
100
AcDbEntity
  8
Defpoints
 62
     0
100
AcDbPoint
 10
82.8809663438818
 20
86.96463566692489
 30
0.0
  0
POINT
  5
11ABD
330
11A8D
100
AcDbEntity
  8
Defpoints
 62
     0
100
AcDbPoint
 10
76.13803879261279
 20
110.2435248461542
 30
0.0
  0
ENDBLK
  5
11A8F
330
11A8D
100
AcDbEntity
  8
0
100
AcDbBlockEnd
  0
ENDSEC
  0
SECTION
  2
ENTITIES
  0
DIMENSION
  5
B91F
330
1F
100
AcDbEntity
  8
AM_5
100
AcDbDimension
  2
*D10
 10
263.9533847989927
 20
177.4637567222431
 30
0.0
 11
259.4533809842947
 21
177.4637567222431
 31
0.0
 70
   160
  1
<>
 71
     5
 42
9.0
  3
AM_ISO
100
AcDbAlignedDimension
 13
254.9533847989926
 23
164.7637605369401
 33
0.0
 14
263.9533847989927
 24
140.7637605369401
 34
0.0
100
AcDbRotatedDimension
1001
ACAD_DSTYLE_DIMINSPECT
1070
   396
1000
100%
1070
   395
1000

1070
   394
1070
    33
1070
   393
1070
     0
1001
ACAD
1000
DSTYLE
1002
{
1070
    41
1040
1.0
1070
    45
1040
1.0
1070
   140
1040
3.2
1070
   271
1070
     0
1070
   279
1070
     0
1070
   341
1005
A66
1070
   342
1005
6C4
1070
   343
1005
6C4
1070
   344
1005
6C4
1002
}
  0
DIMENSION
  5
B920
330
1F
100
AcDbEntity
  8
AM_5
100
AcDbDimension
  2
*D11
 10
292.9533886136896
 20
177.4637567222431
 30
0.0
 11
278.4533886136896
 21
177.4637567222431
 31
0.0
 70
   160
  1
<>
 71
     5
 42
29.00000762939498
  3
AM_ISO
100
AcDbAlignedDimension
 13
263.9533809842947
 23
162.46376053694
 33
0.0
 14
292.9533886136896
 24
170.4637567222431
 34
0.0
100
AcDbRotatedDimension
1001
ACAD
1000
DSTYLE
1002
{
1070
    40
1040
1.0
1070
    41
1040
1.0
1070
    45
1040
1.0
1070
    75
1070
     1
1070
   140
1040
3.2
1070
   173
1070
     1
1070
   271
1070
     0
1070
   279
1070
     0
1070
   284
1070
     8
1070
   341
1005
A66
1070
   343
1005
6C4
1070
   344
1005
6C4
1002
}
  0
DIMENSION
  5
B92A
330
1F
100
AcDbEntity
  8
AM_5
100
AcDbDimension
  2
*D12
 10
350.9533886136816
 20
165.4637567222431
 30
0.0
 11
350.9533886136815
 21
120.96376053694
 31
0.0
 70
   160
  1
<>
 71
     5
 42
88.999996185302
  3
AM_ISO
100
AcDbAlignedDimension
 13
338.9533886136816
 23
76.46376053694109
 33
0.0
 14
338.9533886136816
 24
165.4637567222431
 34
0.0
 50
90.0
100
AcDbRotatedDimension
1001
ACAD_DSTYLE_DIMINSPECT
1070
   396
1000
100%
1070
   395
1000

1070
   394
1070
    33
1070
   393
1070
     0
1001
ACAD
1000
DSTYLE
1002
{
1070
    41
1040
1.0
1070
    45
1040
1.0
1070
   140
1040
3.2
1070
   271
1070
     0
1070
   279
1070
     0
1070
   341
1005
A66
1070
   342
1005
6C4
1070
   343
1005
6C4
1070
   344
1005
6C4
1002
}
  0
DIMENSION
  5
B92E
330
1F
100
AcDbEntity
  8
AM_5
100
AcDbDimension
  2
*D13
 10
236.9533886136898
 20
228.213764351628
 30
0.0
 11
236.9533886136897
 21
225.2137567222381
 31
0.0
 70
   160
  1
<>
 71
     5
 42
6.00000762938987
  3
AM_ISO
100
AcDbAlignedDimension
 13
246.9533886136896
 23
222.2137567222381
 33
0.0
 14
246.9533886136896
 24
228.213764351628
 34
0.0
 50
90.0
100
AcDbRotatedDimension
1001
ACAD_DSTYLE_DIMINSPECT
1070
   396
1000
100%
1070
   395
1000

1070
   394
1070
    33
1070
   393
1070
     0
1001
ACAD
1000
DSTYLE
1002
{
1070
    41
1040
1.0
1070
    45
1040
1.0
1070
   140
1040
3.2
1070
   271
1070
     0
1070
   279
1070
     0
1070
   341
1005
A66
1070
   342
1005
6C4
1070
   343
1005
6C4
1070
   344
1005
6C4
1002
}
  0
DIMENSION
  5
B930
330
1F
100
AcDbEntity
  8
AM_5
100
AcDbDimension
  2
*D14
 10
277.9534115018737
 20
247.313755196358
 30
0.0
 11
292.9533886136896
 21
247.313755196358
 31
0.0
 70
   160
  1
（<>）
 71
     5
 42
29.99995422363196
  3
AM_ISO
100
AcDbAlignedDimension
 13
307.9533657255057
 23
228.213764351628
 33
0.0
 14
277.9534115018737
 24
228.213764351628
 34
0.0
100
AcDbRotatedDimension
1001
ACAD
1000
DSTYLE
1002
{
1070
    41
1040
1.0
1070
    45
1040
1.0
1070
   140
1040
3.2
1070
   271
1070
     0
1070
   279
1070
     0
1070
   341
1005
A66
1070
   342
1005
6C4
1070
   343
1005
6C4
1070
   344
1005
6C4
1002
}
1001
ACAD_DSTYLE_DIMINSPECT
1070
   396
1000
100%
1070
   395
1000

1070
   394
1070
    33
1070
   393
1070
     0
  0
LINE
  5
B939
330
1F
100
AcDbEntity
  8
AM_7
100
AcDbLine
 10
292.9533886136896
 20
170.4637567222431
 30
0.0
 11
292.9533886136896
 21
71.46376053694109
 31
0.0
  0
LINE
  5
B93A
330
1F
100
AcDbEntity
  8
AM_7
100
AcDbLine
 10
277.8533882322207
 20
225.2137567222381
 30
0.0
 11
308.0533889951586
 21
225.2137567222381
 31
0.0
  0
LINE
  5
B93B
330
1F
100
AcDbEntity
  8
AM_0
100
AcDbLine
 10
338.9533886136816
 20
165.4637567222431
 30
0.0
 11
283.9533886136896
 21
165.4637567222431
 31
0.0
  0
LINE
  5
B93C
330
1F
100
AcDbEntity
  8
AM_0
100
AcDbLine
 10
338.9533886136816
 20
76.46376053694109
 30
0.0
 11
313.9533886136817
 21
76.46376053694109
 31
0.0
  0
LINE
  5
B93D
330
1F
100
AcDbEntity
  8
AM_0
100
AcDbLine
 10
338.9533886136816
 20
165.4637567222431
 30
0.0
 11
338.9533886136816
 21
76.46376053694109
 31
0.0
  0
LINE
  5
B93E
330
1F
100
AcDbEntity
  8
AM_0
100
AcDbLine
 10
246.9533847989926
 20
165.4637567222431
 30
0.0
 11
246.9533847989926
 21
76.46376053694109
 31
0.0
  0
LINE
  5
B93F
330
1F
100
AcDbEntity
  8
AM_11
100
AcDbLine
 10
246.9533886136896
 20
222.2137567222381
 30
0.0
 11
246.9533886136896
 21
224.713756722238
 31
0.0
  0
LINE
  5
B940
330
1F
100
AcDbEntity
  8
AM_0
100
AcDbLine
 10
338.9533886136816
 20
225.7137567222382
 30
0.0
 11
338.9533886136816
 21
228.213764351628
 31
0.0
  0
LINE
  5
B941
330
1F
100
AcDbEntity
  8
AM_0
100
AcDbLine
 10
313.9533886136817
 20
113.9637529075451
 30
0.0
 11
313.9533886136817
 21
76.46376053694109
 31
0.0
  0
LINE
  5
B942
330
1F
100
AcDbEntity
  8
AM_0
100
AcDbLine
 10
271.9533847989926
 20
165.4637567222431
 30
0.0
 11
271.9533847989926
 21
127.96376053694
 31
0.0
  0
LINE
  5
B943
330
1F
100
AcDbEntity
  8
AM_2
100
AcDbLine
 10
307.9533886136896
 20
163.4637567222431
 30
0.0
 11
307.9533886136896
 21
129.96376053694
 31
0.0
  0
LINE
  5
B944
330
1F
100
AcDbEntity
  8
AM_0
100
AcDbLine
 10
307.9533886136896
 20
127.9637662589861
 30
0.0
 11
313.9533886136817
 21
113.9637595832661
 31
0.0
  0
LINE
  5
B945
330
1F
100
AcDbEntity
  8
AM_0
100
AcDbLine
 10
301.9533886136896
 20
76.46376053694109
 30
0.0
 11
246.9533847989926
 21
76.46376053694109
 31
0.0
  0
LINE
  5
B946
330
1F
100
AcDbEntity
  8
AM_0
100
AcDbLine
 10
271.9533847989926
 20
165.4637567222431
 30
0.0
 11
246.9533847989926
 21
165.4637567222431
 31
0.0
  0
LINE
  5
B947
330
1F
100
AcDbEntity
  8
AM_0
100
AcDbLine
 10
283.9533886136896
 20
165.4637567222431
 30
0.0
 11
283.9533886136896
 21
130.96376053694
 31
0.0
  0
LINE
  5
B948
330
1F
100
AcDbEntity
  8
AM_0
100
AcDbLine
 10
301.9533886136896
 20
165.4637567222431
 30
0.0
 11
301.9533886136896
 21
130.96376053694
 31
0.0
  0
LINE
  5
B949
330
1F
100
AcDbEntity
  8
AM_0
100
AcDbLine
 10
300.4533886136897
 20
167.4637567222431
 30
0.0
 11
285.4533886136896
 21
167.4637567222431
 31
0.0
  0
LINE
  5
B94A
330
1F
100
AcDbEntity
  8
AM_0
100
AcDbLine
 10
284.4533886136897
 20
166.4637567222431
 30
0.0
 11
284.4533886136897
 21
165.4637567222431
 31
0.0
  0
LINE
  5
B94B
330
1F
100
AcDbEntity
  8
AM_0
100
AcDbLine
 10
301.4533886136896
 20
166.4637567222431
 30
0.0
 11
301.4533886136896
 21
165.4637567222431
 31
0.0
  0
LINE
  5
B94C
330
1F
100
AcDbEntity
  8
AM_0
100
AcDbLine
 10
301.4533886136896
 20
76.46376053694109
 30
0.0
 11
301.4533886136896
 21
75.4637605369411
 31
0.0
  0
LINE
  5
B94D
330
1F
100
AcDbEntity
  8
AM_0
100
AcDbLine
 10
284.4533886136897
 20
76.46376053694109
 30
0.0
 11
284.4533886136897
 21
75.4637605369411
 31
0.0
  0
LINE
  5
B94E
330
1F
100
AcDbEntity
  8
AM_0
100
AcDbLine
 10
300.4533886136897
 20
74.46376053694109
 30
0.0
 11
285.4533886136896
 21
74.46376053694109
 31
0.0
  0
LINE
  5
B94F
330
1F
100
AcDbEntity
  8
AM_2
100
AcDbLine
 10
277.9533886136897
 20
111.9637605369401
 30
0.0
 11
277.9533886136897
 21
78.46376053694109
 31
0.0
  0
LINE
  5
B950
330
1F
100
AcDbEntity
  8
AM_0
100
AcDbLine
 10
271.9533924283866
 20
127.9637643516371
 30
0.0
 11
277.9533886136897
 21
113.9637653053121
 31
0.0
  0
LINE
  5
B951
330
1F
100
AcDbEntity
  8
AM_0
100
AcDbLine
 10
305.0033916654477
 20
121.4637605369401
 30
0.0
 11
280.9033931913266
 21
121.4637605369401
 31
0.0
  0
LINE
  5
B952
330
1F
100
AcDbEntity
  8
AM_0
100
AcDbLine
 10
305.0033916654477
 20
120.4637605369401
 30
0.0
 11
280.9033931913266
 21
120.4637605369401
 31
0.0
  0
LINE
  5
B953
330
1F
100
AcDbEntity
  8
AM_0
100
AcDbLine
 10
305.0033916654477
 20
129.96376053694
 30
0.0
 11
305.0033916654477
 21
121.4637605369401
 31
0.0
  0
LINE
  5
B954
330
1F
100
AcDbEntity
  8
AM_0
100
AcDbLine
 10
280.9033931913266
 20
129.96376053694
 30
0.0
 11
280.9033931913266
 21
121.4637605369401
 31
0.0
  0
LINE
  5
B955
330
1F
100
AcDbEntity
  8
AM_0
100
AcDbLine
 10
304.0033916654477
 20
130.96376053694
 30
0.0
 11
281.9033931913267
 21
130.96376053694
 31
0.0
  0
LINE
  5
B956
330
1F
100
AcDbEntity
  8
AM_0
100
AcDbLine
 10
304.0033916654477
 20
110.9637605369401
 30
0.0
 11
281.9033931913267
 21
110.96376053694
 31
0.0
  0
LINE
  5
B957
330
1F
100
AcDbEntity
  8
AM_0
100
AcDbLine
 10
305.0033916654477
 20
120.4637605369401
 30
0.0
 11
305.0033916654477
 21
111.9637605369401
 31
0.0
  0
LINE
  5
B958
330
1F
100
AcDbEntity
  8
AM_0
100
AcDbLine
 10
280.9033931913266
 20
120.4637605369401
 30
0.0
 11
280.9033931913267
 21
111.96376053694
 31
0.0
  0
LINE
  5
B959
330
1F
100
AcDbEntity
  8
AM_0
100
AcDbLine
 10
301.9533886136896
 20
110.9637605369401
 30
0.0
 11
301.9533886136896
 21
76.46376053694109
 31
0.0
  0
LINE
  5
B95A
330
1F
100
AcDbEntity
  8
AM_0
100
AcDbLine
 10
283.9533886136896
 20
110.9637605369401
 30
0.0
 11
283.9533886136896
 21
76.46376053694109
 31
0.0
  0
LINE
  5
B95B
330
1F
100
AcDbEntity
  8
AM_0
100
AcDbLine
 10
307.9533886136896
 20
127.96376053694
 30
0.0
 11
305.0033916654477
 21
127.96376053694
 31
0.0
  0
LINE
  5
B95C
330
1F
100
AcDbEntity
  8
AM_0
100
AcDbLine
 10
280.9033931913266
 20
113.9637605369401
 30
0.0
 11
277.9533886136897
 21
113.9637605369401
 31
0.0
  0
LINE
  5
B95D
330
1F
100
AcDbEntity
  8
AM_0
100
AcDbLine
 10
303.6533855619317
 20
121.4637605369401
 30
0.0
 11
303.6533855619317
 21
120.4637605369401
 31
0.0
  0
LINE
  5
B95E
330
1F
100
AcDbEntity
  8
AM_0
100
AcDbLine
 10
282.2533916654477
 20
121.4637605369401
 30
0.0
 11
282.2533916654477
 21
120.4637605369401
 31
0.0
  0
LINE
  5
B95F
330
1F
100
AcDbEntity
  8
AM_0
100
AcDbLine
 10
296.9033855619316
 20
113.9637605369401
 30
0.0
 11
293.9682125272636
 21
113.9637605369401
 31
0.0
  0
LINE
  5
B960
330
1F
100
AcDbEntity
  8
AM_0
100
AcDbLine
 10
296.9033855619316
 20
113.9637605369401
 30
0.0
 11
296.9033855619316
 21
110.9637605369401
 31
0.0
  0
LINE
  5
B961
330
1F
100
AcDbEntity
  8
AM_0
100
AcDbLine
 10
286.1964763822447
 20
113.9637605369401
 30
0.0
 11
283.9346813382987
 21
113.9637605369401
 31
0.0
  0
LINE
  5
B962
330
1F
100
AcDbEntity
  8
AM_7
 48
0.8
100
AcDbLine
 10
254.9533847989926
 20
164.7637605369401
 30
0.0
 11
254.9533847989926
 21
150.16376053694
 31
0.0
  0
LINE
  5
B966
330
1F
100
AcDbEntity
  8
AM_7
 48
0.8
100
AcDbLine
 10
262.2533847989927
 20
157.46376053694
 30
0.0
 11
247.6533847989927
 21
157.46376053694
 31
0.0
  0
LINE
  5
B972
330
1F
100
AcDbEntity
  8
AM_0
100
AcDbLine
 10
246.9533886136896
 20
228.213764351628
 30
0.0
 11
277.9533886136897
 21
228.213764351628
 31
0.0
  0
LINE
  5
B973
330
1F
100
AcDbEntity
  8
AM_11
100
AcDbLine
 10
246.9533886136896
 20
222.2137567222381
 30
0.0
 11
275.9533886136896
 21
222.2137567222381
 31
0.0
  0
LINE
  5
B974
330
1F
100
AcDbEntity
  8
AM_11
100
AcDbLine
 10
246.9533886136977
 20
224.713756722238
 30
0.0
 11
273.3097009865602
 21
224.7137567222379
 31
0.0
  0
LINE
  5
B975
330
1F
100
AcDbEntity
  8
AM_0
100
AcDbLine
 10
307.9533886136896
 20
228.213764351628
 30
0.0
 11
338.9533886136816
 21
228.213764351628
 31
0.0
  0
LINE
  5
B976
330
1F
100
AcDbEntity
  8
AM_0
100
AcDbLine
 10
246.9533886136896
 20
225.7137567222382
 30
0.0
 11
246.9533886136896
 21
228.213764351628
 31
0.0
  0
LINE
  5
B977
330
1F
100
AcDbEntity
  8
AM_0
100
AcDbLine
 10
303.3095440091977
 20
227.713764351628
 30
0.0
 11
307.9533886136896
 21
228.213764351628
 31
0.0
  0
LINE
  5
B978
330
1F
100
AcDbEntity
  8
AM_0
100
AcDbLine
 10
303.3095440091977
 20
225.213764351628
 30
0.0
 11
312.5972179593916
 21
225.7137643516281
 31
0.0
  0
LINE
  5
B979
330
1F
100
AcDbEntity
  8
AM_0
100
AcDbLine
 10
281.1484722318537
 20
227.8697473228279
 30
0.0
 11
277.9533886136897
 21
228.213764351628
 31
0.0
  0
LINE
  5
B97A
330
1F
100
AcDbEntity
  8
AM_0
100
AcDbLine
 10
280.8537487211116
 20
225.3076211631579
 30
0.0
 11
273.3095363798026
 21
225.7137643516281
 31
0.0
  0
LINE
  5
B97B
330
1F
100
AcDbEntity
  8
AM_0
100
AcDbLine
 10
283.9346737089046
 20
233.280521553778
 30
0.0
 11
285.9926037015807
 21
230.9188119590581
 31
0.0
  0
LINE
  5
B97C
330
1F
100
AcDbEntity
  8
AM_0
100
AcDbLine
 10
286.1964687528496
 20
235.2513925254581
 30
0.0
 11
288.2543987455257
 21
232.889667671948
 31
0.0
  0
LINE
  5
B97D
330
1F
100
AcDbEntity
  8
AM_0
100
AcDbLine
 10
291.9385647001156
 20
213.1563989341481
 30
0.0
 11
292.5862240018737
 21
216.221256417058
 31
0.0
  0
LINE
  5
B97E
330
1F
100
AcDbEntity
  8
AM_0
100
AcDbLine
 10
289.0033840360526
 20
213.7766534507581
 30
0.0
 11
289.6510433378106
 21
216.8415109336681
 31
0.0
  0
LINE
  5
B97F
330
1F
100
AcDbEntity
  8
AM_0
100
AcDbLine
 10
297.6523708524597
 20
217.5378457725281
 30
0.0
 11
299.7103008451347
 21
215.1761285484081
 31
0.0
  0
LINE
  5
B980
330
1F
100
AcDbEntity
  8
AM_0
100
AcDbLine
 10
299.9141658964047
 20
219.5087091148181
 30
0.0
 11
301.9720958890807
 21
217.1469842612982
 31
0.0
  0
LINE
  5
B981
330
1F
100
AcDbEntity
  8
AM_0
100
AcDbLine
 10
296.2557110013847
 20
233.586002510808
 30
0.0
 11
296.9033779325376
 21
236.6508676231182
 31
0.0
  0
LINE
  5
B982
330
1F
100
AcDbEntity
  8
AM_0
100
AcDbLine
 10
293.3205379667167
 20
234.2062570274181
 30
0.0
 11
293.9681972684746
 21
237.271137398508
 31
0.0
  0
LINE
  5
B983
330
1F
100
AcDbEntity
  8
AM_0
100
AcDbLine
 10
271.9533886136896
 20
225.7137567222382
 30
0.0
 11
271.9533886136896
 21
228.213764351628
 31
0.0
  0
LINE
  5
B984
330
1F
100
AcDbEntity
  8
AM_0
100
AcDbLine
 10
246.9533886136896
 20
225.7137567222382
 30
0.0
 11
273.3095363798026
 21
225.7137567222382
 31
0.0
  0
LINE
  5
B985
330
1F
100
AcDbEntity
  8
AM_0
100
AcDbLine
 10
312.5972179593916
 20
225.7137567222382
 30
0.0
 11
338.9533886136816
 21
225.7137567222382
 31
0.0
  0
LINE
  5
B986
330
1F
100
AcDbEntity
  8
AM_2
100
AcDbLine
 10
31.50000000000003
 20
288.5
 30
0.0
 11
31.50000000000003
 21
216.5
 31
0.0
  0
LINE
  5
B987
330
1F
100
AcDbEntity
  8
AM_2
100
AcDbLine
 10
11.50000000000002
 20
280.5
 30
0.0
 11
121.5
 21
280.5
 31
0.0
  0
LINE
  5
B988
330
1F
100
AcDbEntity
  8
AM_2
100
AcDbLine
 10
11.50000000000002
 20
272.5
 30
0.0
 11
121.5
 21
272.5
 31
0.0
  0
LINE
  5
B989
330
1F
100
AcDbEntity
  8
AM_2
100
AcDbLine
 10
11.50000000000002
 20
264.5
 30
0.0
 11
121.5
 21
264.5
 31
0.0
  0
LINE
  5
B98A
330
1F
100
AcDbEntity
  8
AM_2
100
AcDbLine
 10
11.50000000000002
 20
256.5
 30
0.0
 11
121.5
 21
256.5
 31
0.0
  0
LINE
  5
B98D
330
1F
100
AcDbEntity
  8
AM_2
100
AcDbLine
 10
11.50000000000002
 20
248.5
 30
0.0
 11
121.5
 21
248.5
 31
0.0
  0
LINE
  5
B98E
330
1F
100
AcDbEntity
  8
AM_2
100
AcDbLine
 10
31.50000000000003
 20
240.5
 30
0.0
 11
121.5
 21
240.5
 31
0.0
  0
LINE
  5
B98F
330
1F
100
AcDbEntity
  8
AM_2
100
AcDbLine
 10
31.50000000000003
 20
232.5
 30
0.0
 11
121.5
 21
232.5
 31
0.0
  0
LINE
  5
B990
330
1F
100
AcDbEntity
  8
AM_2
100
AcDbLine
 10
31.50000000000003
 20
224.5
 30
0.0
 11
121.5
 21
224.5
 31
0.0
  0
LINE
  5
B991
330
1F
100
AcDbEntity
  8
AM_0
100
AcDbLine
 10
11.50000000000002
 20
288.5
 30
0.0
 11
11.50000000000002
 21
216.5
 31
0.0
  0
LINE
  5
B992
330
1F
100
AcDbEntity
  8
AM_0
100
AcDbLine
 10
11.50000000000002
 20
288.5
 30
0.0
 11
121.5
 21
288.5
 31
0.0
  0
LINE
  5
B993
330
1F
100
AcDbEntity
  8
AM_0
100
AcDbLine
 10
121.5
 20
288.5
 30
0.0
 11
121.5
 21
216.5
 31
0.0
  0
LINE
  5
B994
330
1F
100
AcDbEntity
  8
AM_7
100
AcDbLine
 10
292.9533886136896
 20
210.1137582481181
 30
0.0
 11
292.9533886136896
 21
240.313755196358
 31
0.0
  0
LINE
  5
B995
330
1F
100
AcDbEntity
  8
AM_0
100
AcDbLine
 10
11.50000000000002
 20
216.5
 30
0.0
 11
121.5
 21
216.5
 31
0.0
  0
LINE
  5
B996
330
1F
100
AcDbEntity
  8
AM_0
100
AcDbLine
 10
283.9346813382987
 20
113.9637605369401
 30
0.0
 11
283.9346813382987
 21
110.9637605369401
 31
0.0
  0
LINE
  5
B997
330
1F
100
AcDbEntity
  8
AM_0
100
AcDbLine
 10
286.1964763822447
 20
113.9637605369401
 30
0.0
 11
286.1964763822447
 21
110.9637605369401
 31
0.0
  0
LINE
  5
B998
330
1F
100
AcDbEntity
  8
AM_0
100
AcDbLine
 10
293.9682125272636
 20
113.9637605369401
 30
0.0
 11
293.9682125272636
 21
110.9637605369401
 31
0.0
  0
LINE
  5
B999
330
1F
100
AcDbEntity
  8
AM_0
100
AcDbLine
 10
289.0033916654476
 20
127.96376053694
 30
0.0
 11
291.9385723295096
 21
127.96376053694
 31
0.0
  0
LINE
  5
B99A
330
1F
100
AcDbEntity
  8
AM_0
100
AcDbLine
 10
289.0033916654476
 20
127.96376053694
 30
0.0
 11
289.0033916654476
 21
130.96376053694
 31
0.0
  0
LINE
  5
B99B
330
1F
100
AcDbEntity
  8
AM_0
100
AcDbLine
 10
299.7103084745297
 20
127.96376053694
 30
0.0
 11
301.9721035184747
 21
127.96376053694
 31
0.0
  0
LINE
  5
B99C
330
1F
100
AcDbEntity
  8
AM_0
100
AcDbLine
 10
291.9385723295096
 20
127.96376053694
 30
0.0
 11
291.9385723295096
 21
130.96376053694
 31
0.0
  0
LINE
  5
B99D
330
1F
100
AcDbEntity
  8
AM_0
100
AcDbLine
 10
301.9721035184747
 20
127.96376053694
 30
0.0
 11
301.9721035184747
 21
130.96376053694
 31
0.0
  0
LINE
  5
B99E
330
1F
100
AcDbEntity
  8
AM_0
100
AcDbLine
 10
299.7103084745297
 20
127.96376053694
 30
0.0
 11
299.7103084745297
 21
130.96376053694
 31
0.0
  0
LINE
  5
B99F
330
1F
100
AcDbEntity
  8
AM_2
100
AcDbLine
 10
185.4809686326958
 20
82.96463566692489
 30
0.0
 11
173.4809686326958
 21
82.96463566692489
 31
0.0
  0
LINE
  5
B9A0
330
1F
100
AcDbEntity
  8
AM_2
100
AcDbLine
 10
173.4809686326958
 20
82.96463566692489
 30
0.0
 11
173.4809686326958
 21
86.96463566692489
 31
0.0
  0
LINE
  5
B9A1
330
1F
100
AcDbEntity
  8
AM_2
100
AcDbLine
 10
172.8809701585748
 20
82.96463566692489
 30
0.0
 11
172.8809701585748
 21
86.96463566692489
 31
0.0
  0
LINE
  5
B9A2
330
1F
100
AcDbEntity
  8
AM_2
100
AcDbLine
 10
136.8809739732727
 20
82.96463566692489
 30
0.0
 11
136.8809739732727
 21
86.96463566692489
 31
0.0
  0
LINE
  5
B9A3
330
1F
100
AcDbEntity
  8
AM_2
100
AcDbLine
 10
135.8809739732727
 20
82.96463566692489
 30
0.0
 11
135.8809739732727
 21
86.96463566692489
 31
0.0
  0
LINE
  5
B9A4
330
1F
100
AcDbEntity
  8
AM_2
100
AcDbLine
 10
185.4809686326958
 20
86.96463566692489
 30
0.0
 11
173.4809686326958
 21
86.96463566692489
 31
0.0
  0
LINE
  5
B9A5
330
1F
100
AcDbEntity
  8
AM_2
100
AcDbLine
 10
172.8809701585748
 20
82.96463566692489
 30
0.0
 11
136.8809739732727
 21
82.96463566692489
 31
0.0
  0
LINE
  5
B9A6
330
1F
100
AcDbEntity
  8
AM_2
100
AcDbLine
 10
135.8809739732727
 20
82.96463566692489
 30
0.0
 11
123.8809739732728
 21
82.96463566692489
 31
0.0
  0
LINE
  5
B9A7
330
1F
100
AcDbEntity
  8
AM_2
100
AcDbLine
 10
135.8809739732727
 20
86.96463566692489
 30
0.0
 11
123.8809739732728
 21
86.96463566692489
 31
0.0
  0
LINE
  5
B9A8
330
1F
100
AcDbEntity
  8
AM_2
100
AcDbLine
 10
172.8809701585748
 20
86.96463566692489
 30
0.0
 11
136.8809739732727
 21
86.96463566692489
 31
0.0
  0
LINE
  5
B9A9
330
1F
100
AcDbEntity
  8
AM_0
100
AcDbLine
 10
172.8809701585748
 20
83.86463528545494
 30
0.0
 11
173.1559716844538
 21
83.86463528545494
 31
0.0
  0
LINE
  5
B9AA
330
1F
100
AcDbEntity
  8
AM_0
100
AcDbLine
 10
173.4809686326958
 20
83.86463528545494
 30
0.0
 11
173.4809686326958
 21
86.96463566692489
 31
0.0
  0
LINE
  5
B9AB
330
1F
100
AcDbEntity
  8
AM_0
100
AcDbLine
 10
172.8809701585748
 20
86.96463566692489
 30
0.0
 11
172.8809701585748
 21
83.86463528545494
 31
0.0
  0
LINE
  5
B9AC
330
1F
100
AcDbEntity
  8
AM_0
100
AcDbLine
 10
173.2309686326958
 20
83.86463528545494
 30
0.0
 11
173.4809686326958
 21
83.86463528545494
 31
0.0
  0
LINE
  5
B9AD
330
1F
100
AcDbEntity
  8
AM_0
100
AcDbLine
 10
172.9309732103328
 20
87.42901974590393
 30
0.0
 11
172.8809701585748
 21
86.96463566692489
 31
0.0
  0
LINE
  5
B9AE
330
1F
100
AcDbEntity
  8
AM_0
100
AcDbLine
 10
173.1809732103328
 20
87.4290216532529
 30
0.0
 11
173.1309701585748
 21
86.50025540264289
 31
0.0
  0
LINE
  5
B9AF
330
1F
100
AcDbEntity
  8
AM_0
100
AcDbLine
 10
173.4465676927548
 20
87.28414517315092
 30
0.0
 11
173.4809686326958
 21
86.96463566692489
 31
0.0
  0
LINE
  5
B9B0
330
1F
100
AcDbEntity
  8
AM_0
100
AcDbLine
 10
173.1903535509088
 20
87.25467282207592
 30
0.0
 11
173.2309686326958
 21
86.50024968059694
 31
0.0
  0
LINE
  5
B9B1
330
1F
100
AcDbEntity
  8
AM_0
100
AcDbLine
 10
173.2309686326958
 20
83.86463528545494
 30
0.0
 11
173.2309686326958
 21
86.50025158794495
 31
0.0
  0
LINE
  5
B9B2
330
1F
100
AcDbEntity
  8
AM_0
100
AcDbLine
 10
173.1309701585748
 20
86.50025349529391
 30
0.0
 11
173.1309701585748
 21
83.86463528545494
 31
0.0
  0
LINE
  5
B9B3
330
1F
100
AcDbEntity
  8
AM_11
100
AcDbLine
 10
143.6239015245418
 20
110.2435248461542
 30
0.0
 11
146.4523317003228
 21
113.0719516840753
 31
0.0
  0
LINE
  5
B9B4
330
1F
100
AcDbEntity
  8
AM_11
100
AcDbLine
 10
169.0797502183898
 20
84.7876794901669
 30
0.0
 11
171.9081765794738
 21
87.61610585125096
 31
0.0
  0
LINE
  5
B9B5
330
1F
100
AcDbEntity
  8
AM_11
100
AcDbLine
 10
169.0797502183898
 20
84.7876794901669
 30
0.0
 11
143.6239015245418
 21
110.2435248461542
 31
0.0
  0
LINE
  5
B9B6
330
1F
100
AcDbEntity
  8
AM_11
100
AcDbLine
 10
171.9081765794738
 20
87.61610585125096
 30
0.0
 11
146.4523317003228
 21
113.0719516840753
 31
0.0
  0
LINE
  5
B9B7
330
1F
100
AcDbEntity
  8
AM_11
100
AcDbLine
 10
169.7161485338188
 20
85.4240758982479
 30
0.0
 11
169.9106027269348
 21
85.2296217051329
 31
0.0
  0
LINE
  5
B9B8
330
1F
100
AcDbEntity
  8
AM_11
100
AcDbLine
 10
171.9081765794738
 20
87.61610585125096
 30
0.0
 11
169.7161485338188
 21
85.4240758982479
 31
0.0
  0
LINE
  5
B9B9
330
1F
100
AcDbEntity
  8
AM_11
100
AcDbLine
 10
172.2719041490538
 20
87.9091203776179
 30
0.0
 11
171.9081803941708
 21
87.61610775859992
 31
0.0
  0
LINE
  5
B9BA
330
1F
100
AcDbEntity
  8
AM_11
100
AcDbLine
 10
172.4486810350398
 20
87.73234539898089
 30
0.0
 11
171.7565881395318
 21
87.11096363933689
 31
0.0
  0
LINE
  5
B9BB
330
1F
100
AcDbEntity
  8
AM_11
100
AcDbLine
 10
171.7565843248348
 20
87.11096173198791
 30
0.0
 11
169.8929254198058
 21
85.24730091961094
 31
0.0
  0
LINE
  5
B9BC
330
1F
100
AcDbEntity
  8
AM_2
100
AcDbLine
 10
34.28097549915193
 20
82.96463566692489
 30
0.0
 11
46.28097549915176
 21
82.96463566692489
 31
0.0
  0
LINE
  5
B9BD
330
1F
100
AcDbEntity
  8
AM_2
100
AcDbLine
 10
46.28097549915176
 20
82.96463566692489
 30
0.0
 11
46.28097549915176
 21
86.96463566692489
 31
0.0
  0
LINE
  5
B9BE
330
1F
100
AcDbEntity
  8
AM_2
100
AcDbLine
 10
82.8809663438818
 20
82.96463566692489
 30
0.0
 11
82.8809663438818
 21
86.96463566692489
 31
0.0
  0
LINE
  5
B9BF
330
1F
100
AcDbEntity
  8
AM_2
100
AcDbLine
 10
46.88096634388188
 20
82.96463566692489
 30
0.0
 11
46.88096634388188
 21
86.96463566692489
 31
0.0
  0
LINE
  5
B9C0
330
1F
100
AcDbEntity
  8
AM_2
100
AcDbLine
 10
83.8809663438818
 20
82.96463566692489
 30
0.0
 11
83.8809663438818
 21
86.96463566692489
 31
0.0
  0
LINE
  5
B9C1
330
1F
100
AcDbEntity
  8
AM_2
100
AcDbLine
 10
34.28097549915193
 20
86.96463566692489
 30
0.0
 11
46.28097549915176
 21
86.96463566692489
 31
0.0
  0
LINE
  5
B9C2
330
1F
100
AcDbEntity
  8
AM_2
100
AcDbLine
 10
46.88096634388188
 20
82.96463566692489
 30
0.0
 11
82.8809663438818
 21
82.96463566692489
 31
0.0
  0
LINE
  5
B9C3
330
1F
100
AcDbEntity
  8
AM_2
100
AcDbLine
 10
83.8809663438818
 20
82.96463566692489
 30
0.0
 11
95.88097397328189
 21
82.96463566692489
 31
0.0
  0
LINE
  5
B9C4
330
1F
100
AcDbEntity
  8
AM_2
100
AcDbLine
 10
83.8809663438818
 20
86.96463566692489
 30
0.0
 11
95.88097397328189
 21
86.96463566692489
 31
0.0
  0
LINE
  5
B9C5
330
1F
100
AcDbEntity
  8
AM_2
100
AcDbLine
 10
46.88096634388188
 20
86.96463566692489
 30
0.0
 11
82.8809663438818
 21
86.96463566692489
 31
0.0
  0
LINE
  5
B9C6
330
1F
100
AcDbEntity
  8
AM_11
100
AcDbLine
 10
50.04579178333179
 20
85.42407780559694
 30
0.0
 11
49.8513337755218
 21
85.22961789043591
 31
0.0
  0
LINE
  5
B9C7
330
1F
100
AcDbEntity
  8
AM_0
100
AcDbLine
 10
46.88096634388188
 20
83.86463528545494
 30
0.0
 11
46.60597244740188
 21
83.86463528545494
 31
0.0
  0
LINE
  5
B9C8
330
1F
100
AcDbEntity
  8
AM_0
100
AcDbLine
 10
46.28097549915176
 20
83.86463528545494
 30
0.0
 11
46.28097549915176
 21
86.96463566692489
 31
0.0
  0
LINE
  5
B9C9
330
1F
100
AcDbEntity
  8
AM_0
100
AcDbLine
 10
46.88096634388188
 20
86.96463566692489
 30
0.0
 11
46.88096634388188
 21
83.86463528545494
 31
0.0
  0
LINE
  5
B9CA
330
1F
100
AcDbEntity
  8
AM_0
100
AcDbLine
 10
46.53097549915179
 20
83.86463528545494
 30
0.0
 11
46.28097549915176
 21
83.86463528545494
 31
0.0
  0
LINE
  5
B9CB
330
1F
100
AcDbEntity
  8
AM_11
100
AcDbLine
 10
48.00535599232188
 20
87.11096554668591
 30
0.0
 11
49.86901871204191
 21
85.24730091961094
 31
0.0
  0
LINE
  5
B9CC
330
1F
100
AcDbEntity
  8
AM_11
100
AcDbLine
 10
47.85375992298179
 20
87.61610775859992
 30
0.0
 11
73.3096162462219
 21
113.0719516840753
 31
0.0
  0
LINE
  5
B9CD
330
1F
100
AcDbEntity
  8
AM_11
100
AcDbLine
 10
76.1380311632218
 20
110.2435248461542
 30
0.0
 11
73.3096162462219
 21
113.0719516840753
 31
0.0
  0
LINE
  5
B9CE
330
1F
100
AcDbEntity
  8
AM_11
100
AcDbLine
 10
47.49003616810187
 20
87.90912419231592
 30
0.0
 11
47.85375992298179
 21
87.61611157329696
 31
0.0
  0
LINE
  5
B9CF
330
1F
100
AcDbEntity
  8
AM_11
100
AcDbLine
 10
47.31326309681188
 20
87.73235302837491
 30
0.0
 11
48.00535599232188
 21
87.11096745403393
 31
0.0
  0
LINE
  5
B9D0
330
1F
100
AcDbEntity
  8
AM_0
100
AcDbLine
 10
46.83097855091179
 20
87.4290216532529
 30
0.0
 11
46.8809816026718
 21
86.96463757427393
 31
0.0
  0
LINE
  5
B9D1
330
1F
100
AcDbEntity
  8
AM_0
100
AcDbLine
 10
46.58096329212179
 20
87.42901974590393
 30
0.0
 11
46.63096634388179
 21
86.50025349529391
 31
0.0
  0
LINE
  5
B9D2
330
1F
100
AcDbEntity
  8
AM_0
100
AcDbLine
 10
46.3153840684918
 20
87.28414517315092
 30
0.0
 11
46.28097549915176
 21
86.96463566692489
 31
0.0
  0
LINE
  5
B9D3
330
1F
100
AcDbEntity
  8
AM_0
100
AcDbLine
 10
46.57157913685188
 20
87.25467091472792
 30
0.0
 11
46.53096024036179
 21
86.50025158794495
 31
0.0
  0
LINE
  5
B9D4
330
1F
100
AcDbEntity
  8
AM_11
100
AcDbLine
 10
47.85375992298179
 20
87.61610775859992
 30
0.0
 11
50.04579178333179
 21
85.42407780559694
 31
0.0
  0
LINE
  5
B9D5
330
1F
100
AcDbEntity
  8
AM_11
100
AcDbLine
 10
50.68219009876179
 20
84.78768139751593
 30
0.0
 11
47.85375992298179
 21
87.61610775859992
 31
0.0
  0
LINE
  5
B9D6
330
1F
100
AcDbEntity
  8
AM_11
100
AcDbLine
 10
50.68219009876179
 20
84.78768139751593
 30
0.0
 11
76.1380311632218
 21
110.2435248461542
 31
0.0
  0
LINE
  5
B9D7
330
1F
100
AcDbEntity
  8
AM_0
100
AcDbLine
 10
46.53097549915179
 20
83.86463528545494
 30
0.0
 11
46.53097549915179
 21
86.50025158794495
 31
0.0
  0
LINE
  5
B9D8
330
1F
100
AcDbEntity
  8
AM_0
100
AcDbLine
 10
46.63096634388179
 20
86.50025349529391
 30
0.0
 11
46.63096634388179
 21
83.86463528545494
 31
0.0
  0
LINE
  5
B9D9
330
1F
100
AcDbEntity
  8
AM_2
100
AcDbLine
 10
68.0809785509118
 20
67.96463566692489
 30
0.0
 11
68.0809785509118
 21
75.96463566692489
 31
0.0
  0
LINE
  5
B9DA
330
1F
100
AcDbEntity
  8
AM_2
100
AcDbLine
 10
62.08097855091188
 20
67.96463566692489
 30
0.0
 11
62.08097855091188
 21
75.96463566692489
 31
0.0
  0
LINE
  5
B9DB
330
1F
100
AcDbEntity
  8
AM_2
100
AcDbLine
 10
60.08097855091188
 20
75.96463566692489
 30
0.0
 11
62.08097855091188
 21
75.96463566692489
 31
0.0
  0
LINE
  5
B9DC
330
1F
100
AcDbEntity
  8
AM_2
100
AcDbLine
 10
62.08097855091188
 20
67.96463566692489
 30
0.0
 11
68.0809785509118
 21
67.96463566692489
 31
0.0
  0
LINE
  5
B9DD
330
1F
100
AcDbEntity
  8
AM_2
100
AcDbLine
 10
65.08097855091179
 20
80.96463185222791
 30
0.0
 11
60.08097855091188
 21
75.96463185222791
 31
0.0
  0
LINE
  5
B9DE
330
1F
100
AcDbEntity
  8
AM_2
100
AcDbLine
 10
70.08097855091179
 20
75.96463185222791
 30
0.0
 11
65.08097855091179
 21
80.96463185222791
 31
0.0
  0
LINE
  5
B9DF
330
1F
100
AcDbEntity
  8
AM_2
100
AcDbLine
 10
68.0809785509118
 20
75.96463566692489
 30
0.0
 11
70.08097855091179
 21
75.96463566692489
 31
0.0
  0
LINE
  5
B9E0
330
1F
100
AcDbEntity
  8
AM_2
100
AcDbLine
 10
151.6809693956358
 20
67.96463566692489
 30
0.0
 11
151.6809693956358
 21
75.96463566692489
 31
0.0
  0
LINE
  5
B9E1
330
1F
100
AcDbEntity
  8
AM_2
100
AcDbLine
 10
157.6809655809388
 20
67.96463566692489
 30
0.0
 11
157.6809655809388
 21
75.96463566692489
 31
0.0
  0
LINE
  5
B9E2
330
1F
100
AcDbEntity
  8
AM_2
100
AcDbLine
 10
151.6809693956358
 20
75.96463566692489
 30
0.0
 11
149.6809693956358
 21
75.96463566692489
 31
0.0
  0
LINE
  5
B9E3
330
1F
100
AcDbEntity
  8
AM_2
100
AcDbLine
 10
159.6809655809388
 20
75.96463566692489
 30
0.0
 11
157.6809655809388
 21
75.96463566692489
 31
0.0
  0
LINE
  5
B9E4
330
1F
100
AcDbEntity
  8
AM_2
100
AcDbLine
 10
157.6809655809388
 20
67.96463566692489
 30
0.0
 11
151.6809693956358
 21
67.96463566692489
 31
0.0
  0
LINE
  5
B9E5
330
1F
100
AcDbEntity
  8
AM_2
100
AcDbLine
 10
154.6809655809388
 20
80.96463757427391
 30
0.0
 11
159.6809655809388
 21
75.96463757427392
 31
0.0
  0
LINE
  5
B9E6
330
1F
100
AcDbEntity
  8
AM_2
100
AcDbLine
 10
149.6809693956358
 20
75.96463757427392
 30
0.0
 11
154.6809655809388
 21
80.96463757427391
 31
0.0
  0
LINE
  5
B9E7
330
1F
100
AcDbEntity
  8
AM_0
100
AcDbLine
 10
281.0833858671076
 20
222.865795296458
 30
0.0
 11
284.2080272855646
 21
223.0880166709679
 31
0.0
  0
LINE
  5
B9E8
330
1F
100
AcDbEntity
  8
AM_0
100
AcDbLine
 10
280.8705715360527
 20
225.858242195868
 30
0.0
 11
283.9952129545096
 21
226.0804559409881
 31
0.0
  0
ARC
  5
B9E9
330
1F
100
AcDbEntity
  8
AM_0
100
AcDbCircle
 10
300.4533886136897
 20
166.4637567222431
 30
0.0
 40
1.0
100
AcDbArc
 50
0.000035972174818
 51
90.00001616485841
  0
ARC
  5
B9EA
330
1F
100
AcDbEntity
  8
AM_0
100
AcDbCircle
 10
285.4533886136896
 20
166.4637567222431
 30
0.0
 40
1.0
100
AcDbArc
 50
90.00001616485841
 51
180.0000050089569
  0
ARC
  5
B9EB
330
1F
100
AcDbEntity
  8
AM_0
100
AcDbCircle
 10
300.4533886136897
 20
75.4637605369411
 30
0.0
 40
1.0
100
AcDbArc
 50
269.9999701747681
 51
0.0000223118029917
  0
ARC
  5
B9EC
330
1F
100
AcDbEntity
  8
AM_0
100
AcDbCircle
 10
285.4533886136896
 20
75.4637605369411
 30
0.0
 40
1.0
100
AcDbArc
 50
179.9999913485786
 51
269.9999733624879
  0
CIRCLE
  5
B9F1
330
1F
100
AcDbEntity
  8
AM_0
100
AcDbCircle
 10
330.9533886136815
 20
84.46376053694109
 30
0.0
 40
4.299999999999999
  0
CIRCLE
  5
B9F2
330
1F
100
AcDbEntity
  8
AM_0
100
AcDbCircle
 10
330.9533886136815
 20
84.46376053694109
 30
0.0
 40
2.099999904632599
  0
CIRCLE
  5
B9F3
330
1F
100
AcDbEntity
  8
AM_0
100
AcDbCircle
 10
321.9533886136816
 20
157.46376053694
 30
0.0
 40
2.099999904632599
  0
CIRCLE
  5
B9F4
330
1F
100
AcDbEntity
  8
AM_0
100
AcDbCircle
 10
254.9533847989926
 20
157.46376053694
 30
0.0
 40
2.099999904632599
  0
CIRCLE
  5
B9F5
330
1F
100
AcDbEntity
  8
AM_0
100
AcDbCircle
 10
263.9533847989927
 20
84.46376053694109
 30
0.0
 40
2.099999904632599
  0
CIRCLE
  5
B9F6
330
1F
100
AcDbEntity
  8
AM_0
100
AcDbCircle
 10
263.9533847989927
 20
84.46376053694109
 30
0.0
 40
4.299999999999999
  0
CIRCLE
  5
B9F7
330
1F
100
AcDbEntity
  8
AM_0
100
AcDbCircle
 10
254.9533847989926
 20
157.46376053694
 30
0.0
 40
4.299999999999999
  0
CIRCLE
  5
B9F8
330
1F
100
AcDbEntity
  8
AM_0
100
AcDbCircle
 10
321.9533886136816
 20
157.46376053694
 30
0.0
 40
4.299999999999999
  0
CIRCLE
  5
B9F9
330
1F
100
AcDbEntity
  8
AM_0
100
AcDbCircle
 10
330.9533886136815
 20
133.46376053694
 30
0.0
 40
4.299999999999999
  0
CIRCLE
  5
B9FA
330
1F
100
AcDbEntity
  8
AM_0
100
AcDbCircle
 10
330.9533886136815
 20
133.46376053694
 30
0.0
 40
2.099999904632599
  0
CIRCLE
  5
B9FB
330
1F
100
AcDbEntity
  8
AM_0
100
AcDbCircle
 10
321.9533886136816
 20
108.4637605369405
 30
0.0
 40
2.099999904632599
  0
CIRCLE
  5
B9FC
330
1F
100
AcDbEntity
  8
AM_0
100
AcDbCircle
 10
321.9533886136816
 20
108.4637605369405
 30
0.0
 40
4.299999999999999
  0
CIRCLE
  5
B9FD
330
1F
100
AcDbEntity
  8
AM_0
100
AcDbCircle
 10
254.9533847989926
 20
108.4637605369405
 30
0.0
 40
4.299999999999999
  0
CIRCLE
  5
B9FE
330
1F
100
AcDbEntity
  8
AM_0
100
AcDbCircle
 10
254.9533847989926
 20
108.4637605369405
 30
0.0
 40
2.099999904632599
  0
CIRCLE
  5
B9FF
330
1F
100
AcDbEntity
  8
AM_0
100
AcDbCircle
 10
263.9533847989927
 20
133.46376053694
 30
0.0
 40
2.099999904632599
  0
CIRCLE
  5
BA00
330
1F
100
AcDbEntity
  8
AM_0
100
AcDbCircle
 10
263.9533847989927
 20
133.46376053694
 30
0.0
 40
4.299999999999999
  0
ARC
  5
BA01
330
1F
100
AcDbEntity
  8
AM_0
100
AcDbCircle
 10
292.9533886136896
 20
225.2137567222381
 30
0.0
 40
8.5
100
AcDbArc
 50
1.685416092213075
 51
0.0000100179106335
  0
ARC
  5
BA02
330
1F
100
AcDbEntity
  8
AM_0
100
AcDbCircle
 10
292.9533886136896
 20
225.2137567222381
 30
0.0
 40
9.0
100
AcDbArc
 50
25.77150414420236
 51
1.196823085038591
  0
ARC
  5
BA03
330
1F
100
AcDbEntity
  8
AM_0
100
AcDbCircle
 10
292.9533886136896
 20
225.2137567222381
 30
0.0
 40
12.100000381469
100
AcDbArc
 50
12.67986967994842
 51
0.4444640875833845
  0
ARC
  5
BA04
330
1F
100
AcDbEntity
  8
AM_0
100
AcDbCircle
 10
303.3095440091977
 20
230.2137643516281
 30
0.0
 40
5.0
100
AcDbArc
 50
248.1140974701283
 51
270.0000179860907
  0
ARC
  5
BA05
330
1F
100
AcDbEntity
  8
AM_0
100
AcDbCircle
 10
303.3095440091977
 20
230.2137643516281
 30
0.0
 40
2.5
100
AcDbArc
 50
205.7714325409035
 51
270.0000179860907
  0
CIRCLE
  5
BA06
330
1F
100
AcDbEntity
  8
AM_2
100
AcDbCircle
 10
70.1048728024365
 20
252.283887923598
 30
0.0
 40
2.0
  0
ARC
  5
BA07
330
1F
100
AcDbEntity
  8
AM_0
100
AcDbCircle
 10
173.1809693956358
 20
88.46463662059893
 30
0.0
 40
0.8500000238419001
100
AcDbArc
 50
90.00000250447842
 51
88.31457455223048
  0
CIRCLE
  5
BA08
330
1F
100
AcDbEntity
  8
AM_0
100
AcDbCircle
 10
173.1809693956358
 20
88.46463662059893
 30
0.0
 40
1.210000038146999
  0
ARC
  5
BA09
330
1F
100
AcDbEntity
  8
AM_0
100
AcDbCircle
 10
172.6809693956358
 20
87.42901974590393
 30
0.0
 40
0.25
100
AcDbArc
 50
359.9999820139077
 51
64.22856495461532
  0
ARC
  5
BA0A
330
1F
100
AcDbEntity
  8
AM_0
100
AcDbCircle
 10
172.6809693956358
 20
87.42901974590393
 30
0.0
 40
0.5
100
AcDbArc
 50
359.9999820139077
 51
21.88590173293882
  0
ARC
  5
BA0B
330
1F
100
AcDbEntity
  8
AM_11
100
AcDbCircle
 10
172.0951272630678
 20
88.08589917095293
 30
0.0
 40
0.25
100
AcDbArc
 50
314.9999816722854
 51
19.22856711747315
  0
ARC
  5
BA0C
330
1F
100
AcDbEntity
  8
AM_11
100
AcDbCircle
 10
172.0951272630678
 20
88.08589917095293
 30
0.0
 40
0.5
100
AcDbArc
 50
314.9999816722854
 51
336.8859021882477
  0
ARC
  5
BA0D
330
1F
100
AcDbEntity
  8
AM_11
100
AcDbCircle
 10
47.66680923939188
 20
88.08589917095293
 30
0.0
 40
0.25
100
AcDbArc
 50
160.7714378914808
 51
225.0000233366663
  0
ARC
  5
BA0E
330
1F
100
AcDbEntity
  8
AM_0
100
AcDbCircle
 10
46.58096329212179
 20
88.46463662059893
 30
0.0
 40
0.8500000238419001
100
AcDbArc
 50
91.6854336444473
 51
89.99999203182484
  0
CIRCLE
  5
BA0F
330
1F
100
AcDbEntity
  8
AM_0
100
AcDbCircle
 10
46.58096329212179
 20
88.46463662059893
 30
0.0
 40
1.210000038146999
  0
ARC
  5
BA10
330
1F
100
AcDbEntity
  8
AM_11
100
AcDbCircle
 10
47.66680923939188
 20
88.08589917095293
 30
0.0
 40
0.5
100
AcDbArc
 50
203.114092802793
 51
225.0000133187547
  0
ARC
  5
BA11
330
1F
100
AcDbEntity
  8
AM_0
100
AcDbCircle
 10
47.08096329212199
 20
87.42901974590393
 30
0.0
 40
0.25
100
AcDbArc
 50
115.7714332241515
 51
180.0000186693385
  0
ARC
  5
BA12
330
1F
100
AcDbEntity
  8
AM_0
100
AcDbCircle
 10
47.08096329212199
 20
87.42901974590393
 30
0.0
 40
0.5
100
AcDbArc
 50
158.1140981533771
 51
180.0000186693385
  0
INSERT
  5
BA22
330
1F
100
AcDbEntity
  8
AM_0
100
AcDbBlockReference
  2
*U5
 10
218.1261750841118
 20
104.2575395670709
 30
0.0
  0
INSERT
  5
BA23
330
1F
100
AcDbEntity
  8
AM_0
100
AcDbBlockReference
  2
*U6
 10
218.1261750841118
 20
104.2575395670709
 30
0.0
  0
INSERT
  5
BA24
330
1F
100
AcDbEntity
  8
AM_0
100
AcDbBlockReference
  2
*U7
 10
218.1261750841118
 20
104.2575395670709
 30
0.0
  0
INSERT
  5
BA25
330
1F
100
AcDbEntity
  8
AM_0
100
AcDbBlockReference
  2
*U8
 10
218.1261750841118
 20
104.2575395670709
 30
0.0
  0
INSERT
  5
BA26
330
1F
100
AcDbEntity
  8
AM_0
100
AcDbBlockReference
  2
*U9
 10
218.1261750841118
 20
104.2575395670709
 30
0.0
  0
LINE
  5
BE2D
330
1F
100
AcDbEntity
  8
AM_7
 48
0.8
100
AcDbLine
 10
263.9533847989927
 20
140.7637605369401
 30
0.0
 11
263.9533847989927
 21
126.16376053694
 31
0.0
  0
LINE
  5
BE2E
330
1F
100
AcDbEntity
  8
AM_7
 48
0.8
100
AcDbLine
 10
271.2533847989927
 20
133.46376053694
 30
0.0
 11
256.6533847989926
 21
133.46376053694
 31
0.0
  0
LINE
  5
BE2F
330
1F
100
AcDbEntity
  8
AM_7
 48
0.8
100
AcDbLine
 10
254.9533847989926
 20
115.7637605369405
 30
0.0
 11
254.9533847989926
 21
101.1637605369405
 31
0.0
  0
LINE
  5
BE30
330
1F
100
AcDbEntity
  8
AM_7
 48
0.8
100
AcDbLine
 10
262.2533847989927
 20
108.4637605369405
 30
0.0
 11
247.6533847989927
 21
108.4637605369405
 31
0.0
  0
LINE
  5
BE31
330
1F
100
AcDbEntity
  8
AM_7
 48
0.8
100
AcDbLine
 10
263.9533847989927
 20
91.76376053694111
 30
0.0
 11
263.9533847989927
 21
77.16376053694109
 31
0.0
  0
LINE
  5
BE32
330
1F
100
AcDbEntity
  8
AM_7
 48
0.8
100
AcDbLine
 10
271.2533847989927
 20
84.46376053694109
 30
0.0
 11
256.6533847989926
 21
84.46376053694109
 31
0.0
  0
LINE
  5
BE33
330
1F
100
AcDbEntity
  8
AM_7
 48
0.8
100
AcDbLine
 10
330.9533886136815
 20
91.76376053694111
 30
0.0
 11
330.9533886136815
 21
77.16376053694109
 31
0.0
  0
LINE
  5
BE34
330
1F
100
AcDbEntity
  8
AM_7
 48
0.8
100
AcDbLine
 10
338.2533886136816
 20
84.46376053694109
 30
0.0
 11
323.6533886136816
 21
84.46376053694109
 31
0.0
  0
LINE
  5
BE35
330
1F
100
AcDbEntity
  8
AM_7
 48
0.8
100
AcDbLine
 10
321.9533886136816
 20
115.7637605369405
 30
0.0
 11
321.9533886136816
 21
101.1637605369405
 31
0.0
  0
LINE
  5
BE36
330
1F
100
AcDbEntity
  8
AM_7
 48
0.8
100
AcDbLine
 10
329.2533886136816
 20
108.4637605369405
 30
0.0
 11
314.6533886136816
 21
108.4637605369405
 31
0.0
  0
LINE
  5
BE37
330
1F
100
AcDbEntity
  8
AM_7
 48
0.8
100
AcDbLine
 10
330.9533886136815
 20
140.7637605369401
 30
0.0
 11
330.9533886136815
 21
126.16376053694
 31
0.0
  0
LINE
  5
BE38
330
1F
100
AcDbEntity
  8
AM_7
 48
0.8
100
AcDbLine
 10
338.2533886136816
 20
133.46376053694
 30
0.0
 11
323.6533886136816
 21
133.46376053694
 31
0.0
  0
LINE
  5
BE39
330
1F
100
AcDbEntity
  8
AM_7
 48
0.8
100
AcDbLine
 10
321.9533886136816
 20
164.7637605369401
 30
0.0
 11
321.9533886136816
 21
150.16376053694
 31
0.0
  0
LINE
  5
BE3A
330
1F
100
AcDbEntity
  8
AM_7
 48
0.8
100
AcDbLine
 10
329.2533886136816
 20
157.46376053694
 30
0.0
 11
314.6533886136816
 21
157.46376053694
 31
0.0
  0
TEXT
  5
BF47
330
1F
100
AcDbEntity
  8
AM_6
 60
     1
100
AcDbText
 10
408.4999999999999
 20
8.5
 30
0.0
 40
2.5
  1
!GENTITLE-INSERT
100
AcDbText
  0
TEXT
  5
BF48
330
1F
100
AcDbEntity
  8
AM_6
 60
     1
100
AcDbText
 10
0.0
 20
0.0
 30
0.0
 40
2.5
  1
!GENTITLE-LL
100
AcDbText
  0
TEXT
  5
BF49
330
1F
100
AcDbEntity
  8
AM_6
 60
     1
100
AcDbText
 10
420.0
 20
297.0
 30
0.0
 40
2.5
  1
!GENTITLE-RU
100
AcDbText
  0
TEXT
  5
BF4A
330
1F
100
AcDbEntity
  8
AM_6
 60
     1
100
AcDbText
 10
420.0
 20
297.0
 30
0.0
 40
2.5
  1
!GENTITLE-MAX
100
AcDbText
  0
LINE
  5
BF4B
330
1F
100
AcDbEntity
  8
size
100
AcDbLine
 10
0.0
 20
0.0
 30
0.0
 11
420.0
 21
0.0
 31
0.0
1001
GENIUS_GENREC_14
1002
{
1000
PYDIR
1011
0.0000000000000178
1021
297.0
1031
0.0
1002
}
1002
{
1000
PXDIR
1011
420.0
1021
0.0
1031
0.0
1002
}
1002
{
1000
PORI
1011
0.0
1021
0.0
1031
0.0
1002
}
1002
{
1000
PINS
1011
210.0
1021
148.4999999999999
1031
0.0
1002
}
1002
{
1000
HVAL
1000
297
1002
}
1002
{
1000
H
1070
     2
1002
}
1002
{
1000
WVAL
1000
420
1002
}
1002
{
1000
W
1070
     2
1002
}
1002
{
1000
C
1070
     4
1002
}
1001
GENIUS_GENOBJ-N-REC_13
1002
{
1000
OWNER
1000
GEN
1002
}
1001
GENIUS_GENODEF_13
1002
{
1000
HIER
1070
     0
1002
}
1002
{
1000
MANEDIT
1070
     0
1002
}
1002
{
1000
NOSEL
1070
     0
1002
}
1002
{
1000
BEHIND
1070
     0
1002
}
1002
{
1000
OTHER
1070
     0
1002
}
1002
{
1000
REACTOR
1002
}
  0
LINE
  5
BF4C
330
1F
100
AcDbEntity
  8
size
100
AcDbLine
 10
420.0
 20
0.0
 30
0.0
 11
420.0
 21
297.0
 31
0.0
1001
GENIUS_GENREC_14
1002
{
1000
PYDIR
1011
0.0000000000000178
1021
297.0
1031
0.0
1002
}
1002
{
1000
PXDIR
1011
420.0
1021
0.0
1031
0.0
1002
}
1002
{
1000
PORI
1011
0.0
1021
0.0
1031
0.0
1002
}
1002
{
1000
PINS
1011
210.0
1021
148.4999999999999
1031
0.0
1002
}
1002
{
1000
HVAL
1000
297
1002
}
1002
{
1000
H
1070
     2
1002
}
1002
{
1000
WVAL
1000
420
1002
}
1002
{
1000
W
1070
     2
1002
}
1002
{
1000
C
1070
     4
1002
}
1001
GENIUS_GENOBJ-N-REC_13
1002
{
1000
OWNER
1000
GEN
1002
}
1001
GENIUS_GENODEF_13
1002
{
1000
HIER
1070
     0
1002
}
1002
{
1000
MANEDIT
1070
     0
1002
}
1002
{
1000
NOSEL
1070
     0
1002
}
1002
{
1000
BEHIND
1070
     0
1002
}
1002
{
1000
OTHER
1070
     0
1002
}
1002
{
1000
REACTOR
1002
}
  0
LINE
  5
BF4D
330
1F
100
AcDbEntity
  8
size
100
AcDbLine
 10
420.0
 20
297.0
 30
0.0
 11
0.0000000000000275
 21
297.0
 31
0.0
1001
GENIUS_GENREC_14
1002
{
1000
PYDIR
1011
0.0000000000000178
1021
297.0
1031
0.0
1002
}
1002
{
1000
PXDIR
1011
420.0
1021
0.0
1031
0.0
1002
}
1002
{
1000
PORI
1011
0.0
1021
0.0
1031
0.0
1002
}
1002
{
1000
PINS
1011
210.0
1021
148.4999999999999
1031
0.0
1002
}
1002
{
1000
HVAL
1000
297
1002
}
1002
{
1000
H
1070
     2
1002
}
1002
{
1000
WVAL
1000
420
1002
}
1002
{
1000
W
1070
     2
1002
}
1002
{
1000
C
1070
     4
1002
}
1001
GENIUS_GENOBJ-N-REC_13
1002
{
1000
OWNER
1000
GEN
1002
}
1001
GENIUS_GENODEF_13
1002
{
1000
HIER
1070
     0
1002
}
1002
{
1000
MANEDIT
1070
     0
1002
}
1002
{
1000
NOSEL
1070
     0
1002
}
1002
{
1000
BEHIND
1070
     0
1002
}
1002
{
1000
OTHER
1070
     0
1002
}
1002
{
1000
REACTOR
1002
}
  0
LINE
  5
BF4E
330
1F
100
AcDbEntity
  8
size
100
AcDbLine
 10
0.0000000000000275
 20
297.0
 30
0.0
 11
0.0
 21
0.0
 31
0.0
1001
GENIUS_GENREC_14
1002
{
1000
PYDIR
1011
0.0000000000000178
1021
297.0
1031
0.0
1002
}
1002
{
1000
PXDIR
1011
420.0
1021
0.0
1031
0.0
1002
}
1002
{
1000
PORI
1011
0.0
1021
0.0
1031
0.0
1002
}
1002
{
1000
PINS
1011
210.0
1021
148.4999999999999
1031
0.0
1002
}
1002
{
1000
HVAL
1000
297
1002
}
1002
{
1000
H
1070
     2
1002
}
1002
{
1000
WVAL
1000
420
1002
}
1002
{
1000
W
1070
     2
1002
}
1002
{
1000
C
1070
     4
1002
}
1001
GENIUS_GENOBJ-N-REC_13
1002
{
1000
OWNER
1000
GEN
1002
}
1001
GENIUS_GENODEF_13
1002
{
1000
HIER
1070
     0
1002
}
1002
{
1000
MANEDIT
1070
     0
1002
}
1002
{
1000
NOSEL
1070
     0
1002
}
1002
{
1000
BEHIND
1070
     0
1002
}
1002
{
1000
OTHER
1070
     0
1002
}
1002
{
1000
REACTOR
1002
}
  0
LINE
  5
BF4F
330
1F
100
AcDbEntity
  8
waku
100
AcDbLine
 10
408.4999999999999
 20
8.5
 30
0.0
 11
408.4999999999999
 21
288.5
 31
0.0
1001
GENIUS_GENREC_14
1002
{
1000
PYDIR
1011
0.0000000000000178
1021
297.0
1031
0.0
1002
}
1002
{
1000
PXDIR
1011
420.0
1021
0.0
1031
0.0
1002
}
1002
{
1000
PORI
1011
0.0
1021
0.0
1031
0.0
1002
}
1002
{
1000
PINS
1011
210.0
1021
148.4999999999999
1031
0.0
1002
}
1002
{
1000
HVAL
1000
297
1002
}
1002
{
1000
H
1070
     2
1002
}
1002
{
1000
WVAL
1000
420
1002
}
1002
{
1000
W
1070
     2
1002
}
1002
{
1000
C
1070
     4
1002
}
1001
GENIUS_GENOBJ-N-REC_13
1002
{
1000
OWNER
1000
GEN
1002
}
1001
GENIUS_GENODEF_13
1002
{
1000
HIER
1070
     0
1002
}
1002
{
1000
MANEDIT
1070
     0
1002
}
1002
{
1000
NOSEL
1070
     0
1002
}
1002
{
1000
BEHIND
1070
     0
1002
}
1002
{
1000
OTHER
1070
     0
1002
}
1002
{
1000
REACTOR
1002
}
  0
LINE
  5
BF50
330
1F
100
AcDbEntity
  8
waku
100
AcDbLine
 10
11.50000000000002
 20
288.5
 30
0.0
 11
11.5
 21
8.5
 31
0.0
1001
GENIUS_GENREC_14
1002
{
1000
PYDIR
1011
0.0000000000000178
1021
297.0
1031
0.0
1002
}
1002
{
1000
PXDIR
1011
420.0
1021
0.0
1031
0.0
1002
}
1002
{
1000
PORI
1011
0.0
1021
0.0
1031
0.0
1002
}
1002
{
1000
PINS
1011
210.0
1021
148.4999999999999
1031
0.0
1002
}
1002
{
1000
HVAL
1000
297
1002
}
1002
{
1000
H
1070
     2
1002
}
1002
{
1000
WVAL
1000
420
1002
}
1002
{
1000
W
1070
     2
1002
}
1002
{
1000
C
1070
     4
1002
}
1001
GENIUS_GENOBJ-N-REC_13
1002
{
1000
OWNER
1000
GEN
1002
}
1001
GENIUS_GENODEF_13
1002
{
1000
HIER
1070
     0
1002
}
1002
{
1000
MANEDIT
1070
     0
1002
}
1002
{
1000
NOSEL
1070
     0
1002
}
1002
{
1000
BEHIND
1070
     0
1002
}
1002
{
1000
OTHER
1070
     0
1002
}
1002
{
1000
REACTOR
1002
}
  0
LINE
  5
BF51
330
1F
100
AcDbEntity
  8
waku
100
AcDbLine
 10
408.4999999999999
 20
288.5
 30
0.0
 11
11.50000000000002
 21
288.5
 31
0.0
1001
GENIUS_GENREC_14
1002
{
1000
PYDIR
1011
0.0000000000000178
1021
297.0
1031
0.0
1002
}
1002
{
1000
PXDIR
1011
420.0
1021
0.0
1031
0.0
1002
}
1002
{
1000
PORI
1011
0.0
1021
0.0
1031
0.0
1002
}
1002
{
1000
PINS
1011
210.0
1021
148.4999999999999
1031
0.0
1002
}
1002
{
1000
HVAL
1000
297
1002
}
1002
{
1000
H
1070
     2
1002
}
1002
{
1000
WVAL
1000
420
1002
}
1002
{
1000
W
1070
     2
1002
}
1002
{
1000
C
1070
     4
1002
}
1001
GENIUS_GENOBJ-N-REC_13
1002
{
1000
OWNER
1000
GEN
1002
}
1001
GENIUS_GENODEF_13
1002
{
1000
HIER
1070
     0
1002
}
1002
{
1000
MANEDIT
1070
     0
1002
}
1002
{
1000
NOSEL
1070
     0
1002
}
1002
{
1000
BEHIND
1070
     0
1002
}
1002
{
1000
OTHER
1070
     0
1002
}
1002
{
1000
REACTOR
1002
}
  0
TEXT
  5
BF52
330
1F
100
AcDbEntity
  8
AM_6
 60
     1
100
AcDbText
 10
0.0
 20
0.0
 30
0.0
 40
2.5
  1
!GENTITLE-LL
100
AcDbText
  0
TEXT
  5
BF53
330
1F
100
AcDbEntity
  8
AM_6
 60
     1
100
AcDbText
 10
408.4999999999999
 20
288.5
 30
0.0
 40
2.5
  1
!GENTITLE-RU
100
AcDbText
  0
TEXT
  5
BF54
330
1F
100
AcDbEntity
  8
AM_6
 60
     1
100
AcDbText
 10
420.0
 20
297.0
 30
0.0
 40
2.5
  1
!GENTITLE-MAX
100
AcDbText
  0
TEXT
  5
BF55
330
1F
100
AcDbEntity
  8
AM_6
 60
     1
100
AcDbText
 10
408.4999999999999
 20
8.5
 30
0.0
 40
2.5
  1
!GENTITLE-INSERT
100
AcDbText
  0
LINE
  5
BF56
330
1F
100
AcDbEntity
  8
waku
100
AcDbLine
 10
11.5
 20
8.5
 30
0.0
 11
408.4999999999999
 21
8.5
 31
0.0
  0
TEXT
  5
C317
330
1F
100
AcDbEntity
  8
AM_6
100
AcDbText
 10
19.32849997282042
 20
242.9
 30
0.0
 40
3.2
  1
備考
 41
0.7
100
AcDbText
  0
TEXT
  5
C318
330
1F
100
AcDbEntity
  8
AM_6
100
AcDbText
 10
14.52849990129485
 20
250.9
 30
0.0
 40
3.2
  1
セットビス
 41
0.7
100
AcDbText
  0
TEXT
  5
C319
330
1F
100
AcDbEntity
  8
AM_6
100
AcDbText
 10
17.72849994897856
 20
258.9
 30
0.0
 40
3.2
  1
仕上げ
 41
0.7
100
AcDbText
  0
TEXT
  5
C31A
330
1F
100
AcDbEntity
  8
AM_6
100
AcDbText
 10
17.72849994897856
 20
274.9
 30
0.0
 40
3.2
  1
品　番
 41
0.7
100
AcDbText
  0
TEXT
  5
C31B
330
1F
100
AcDbEntity
  8
AM_6
100
AcDbText
 10
17.72849994897856
 20
266.9
 30
0.0
 40
3.2
  1
材　質
 41
0.7
100
AcDbText
  0
TEXT
  5
C31C
330
1F
100
AcDbEntity
  8
AM_6
100
AcDbText
 10
17.72849994897856
 20
282.9
 30
0.0
 40
3.2
  1
品　名
 41
0.7
100
AcDbText
  0
TEXT
  5
C31D
330
1F
100
AcDbEntity
  8
AM_6
100
AcDbText
 10
34.72930469336876
 20
282.9
 30
0.0
 40
3.2
  1
丁番吊グレビティヒンジ
 41
0.7
100
AcDbText
  0
TEXT
  5
C31E
330
1F
100
AcDbEntity
  8
AM_6
100
AcDbText
 10
34.9284999966622
 20
274.9
 30
0.0
 40
3.2
  1
LH-70
 41
0.7
100
AcDbText
  0
TEXT
  5
C31F
330
1F
100
AcDbEntity
  8
AM_6
100
AcDbText
 10
34.9284999966622
 20
266.9
 30
0.0
 40
3.2
  1
ステンレス
 41
0.7
100
AcDbText
  0
TEXT
  5
C320
330
1F
100
AcDbEntity
  8
AM_6
100
AcDbText
 10
34.9284999966622
 20
258.9
 30
0.0
 40
3.2
  1
ヘアーライン
 41
0.7
100
AcDbText
  0
TEXT
  5
C321
330
1F
100
AcDbEntity
  8
AM_6
100
AcDbText
 10
34.9284999966622
 20
250.9
 30
0.0
 40
3.2
  1
呼び3.8×32サラ木ネジ　+　SUS：16本
 41
0.7
100
AcDbText
  0
TEXT
  5
C322
330
1F
100
AcDbEntity
  8
AM_6
100
AcDbText
 10
34.18339725200068
 20
242.9
 30
0.0
 40
3.2
  1
ドア閉止位置は閉止、開放45°、90°の組替ができます。
 41
0.7
100
AcDbText
  0
TEXT
  5
C323
330
1F
100
AcDbEntity
  8
AM_6
100
AcDbText
 10
34.20292176667579
 20
234.9
 30
0.0
 40
3.2
  1
ドアは静止位置より90°回転で約4.5mmせり上がります。
 41
0.7
100
AcDbText
  0
TEXT
  5
C324
330
1F
100
AcDbEntity
  8
AM_6
100
AcDbText
 10
34.9284999966622
 20
226.9
 30
0.0
 40
3.2
  1
適用扉重量：20kg
 41
0.7
100
AcDbText
  0
TEXT
  5
C325
330
1F
100
AcDbEntity
  8
AM_6
100
AcDbText
 10
34.9284999966622
 20
218.9
 30
0.0
 40
3.2
  1
図は左勝手です。
 41
0.7
100
AcDbText
  0
LINE
  5
C34A
330
1F
100
AcDbEntity
  8
AM_11
100
AcDbLine
 10
275.9533886136896
 20
224.8560790971031
 30
0.0
 11
273.3095592679877
 21
224.713749092848
 31
0.0
  0
DIMENSION
  5
C415
330
1F
100
AcDbEntity
  8
AM_5
100
AcDbDimension
  2
*D15
 10
301.9533886136896
 20
62.46376053694108
 30
0.0
 11
292.9533886136896
 21
65.56376053694108
 31
0.0
 70
    32
  1
%%c<>
 71
     5
 42
18.0
  3
SYS$0
100
AcDbAlignedDimension
 13
283.9533886136896
 23
76.46376053694109
 33
0.0
 14
301.9533886136896
 24
76.46376053694109
 34
0.0
 50
0.0000000000001132
100
AcDbRotatedDimension
1001
ACAD_DSTYLE_DIMINSPECT
1070
   396
1000
100%
1070
   395
1000

1070
   394
1070
    33
1070
   393
1070
     0
1001
ACAD
1000
DSTYLE
1002
{
1070
    41
1040
1.0
1070
   279
1070
     0
1070
   341
1005
A66
1070
   343
1005
6C4
1070
   344
1005
6C4
1002
}
  0
ARC
  5
C496
330
1F
100
AcDbEntity
  8
AM_0
100
AcDbCircle
 10
281.9033931913267
 20
129.96376053694
 30
0.0
 40
1.0
100
AcDbArc
 50
90.0
 51
180.0
1001
GENIUS_GENOBJ-N-FIL_13
1002
{
1000
OWNER
1000
GEN
1002
}
1001
GENIUS_GENODEF_13
1002
{
1000
HIER
1070
     0
1002
}
1002
{
1000
MANEDIT
1070
     0
1002
}
1002
{
1000
NOSEL
1070
     0
1002
}
1002
{
1000
BEHIND
1070
     0
1002
}
1002
{
1000
OTHER
1070
     0
1002
}
1002
{
1000
REACTOR
1002
}
  0
ARC
  5
C497
330
1F
100
AcDbEntity
  8
AM_0
100
AcDbCircle
 10
304.0033916654477
 20
129.96376053694
 30
0.0
 40
1.0
100
AcDbArc
 50
0.0
 51
90.0
1001
GENIUS_GENOBJ-N-FIL_13
1002
{
1000
OWNER
1000
GEN
1002
}
1001
GENIUS_GENODEF_13
1002
{
1000
HIER
1070
     0
1002
}
1002
{
1000
MANEDIT
1070
     0
1002
}
1002
{
1000
NOSEL
1070
     0
1002
}
1002
{
1000
BEHIND
1070
     0
1002
}
1002
{
1000
OTHER
1070
     0
1002
}
1002
{
1000
REACTOR
1002
}
  0
ARC
  5
C498
330
1F
100
AcDbEntity
  8
AM_0
100
AcDbCircle
 10
304.0033916654477
 20
111.9637605369401
 30
0.0
 40
1.0
100
AcDbArc
 50
270.0
 51
0.0
1001
GENIUS_GENOBJ-N-FIL_13
1002
{
1000
OWNER
1000
GEN
1002
}
1001
GENIUS_GENODEF_13
1002
{
1000
HIER
1070
     0
1002
}
1002
{
1000
MANEDIT
1070
     0
1002
}
1002
{
1000
NOSEL
1070
     0
1002
}
1002
{
1000
BEHIND
1070
     0
1002
}
1002
{
1000
OTHER
1070
     0
1002
}
1002
{
1000
REACTOR
1002
}
  0
ARC
  5
C499
330
1F
100
AcDbEntity
  8
AM_0
100
AcDbCircle
 10
281.9033931913267
 20
111.96376053694
 30
0.0
 40
1.0
100
AcDbArc
 50
180.0
 51
270.0000000000001
1001
GENIUS_GENODEF_13
1002
{
1000
HIER
1070
     0
1002
}
1002
{
1000
MANEDIT
1070
     0
1002
}
1002
{
1000
NOSEL
1070
     0
1002
}
1002
{
1000
BEHIND
1070
     0
1002
}
1002
{
1000
OTHER
1070
     0
1002
}
1002
{
1000
REACTOR
1002
}
1001
GENIUS_GENOBJ-N-FIL_13
1002
{
1000
OWNER
1000
GEN
1002
}
  0
LINE
  5
C49A
330
1F
100
AcDbEntity
  8
AM_0
100
AcDbLine
 10
277.9533886136897
 20
225.4637622483299
 30
0.0
 11
277.9533886136897
 21
228.213764351628
 31
0.0
  0
LINE
  5
C49B
330
1F
100
AcDbEntity
  8
AM_3
 48
0.5
100
AcDbLine
 10
307.9533886136896
 20
225.463764762355
 30
0.0
 11
307.9533886136896
 21
228.213764351628
 31
0.0
  0
LINE
  5
C517
330
1F
100
AcDbEntity
  8
AM_3
 48
0.5
100
AcDbLine
 10
313.9533886136817
 20
225.7137567222381
 30
0.0
 11
313.9533886136817
 21
228.213764351628
 31
0.0
  0
DIMENSION
  5
11825
330
1F
100
AcDbEntity
  8
AM_5
100
AcDbDimension
  2
*D17
 10
235.6533847989926
 20
133.46376053694
 30
0.0
 11
232.5533847989926
 21
145.4637605369401
 31
0.0
 70
    32
 71
     5
 42
24.0
  3
SYS$0
100
AcDbAlignedDimension
 13
247.6533847989927
 23
157.46376053694
 33
0.0
 14
256.6533847989926
 24
133.46376053694
 34
0.0
 50
90.00000000000003
100
AcDbRotatedDimension
1001
ACAD_DSTYLE_DIMINSPECT
1070
   396
1000
100%
1070
   395
1000

1070
   394
1070
    33
1070
   393
1070
     0
  0
DIMENSION
  5
1184D
330
1F
100
AcDbEntity
  8
AM_5
100
AcDbDimension
  2
*D18
 10
235.6533847989926
 20
108.4637605369405
 30
0.0
 11
232.5533847989926
 21
120.9637605369403
 31
0.0
 70
    32
 71
     5
 42
24.99999999999955
  3
SYS$0
100
AcDbAlignedDimension
 13
256.6533847989926
 23
133.46376053694
 33
0.0
 14
247.6533847989927
 24
108.4637605369405
 34
0.0
 50
90.00000000000003
100
AcDbRotatedDimension
1001
ACAD_DSTYLE_DIMINSPECT
1070
   396
1000
100%
1070
   395
1000

1070
   394
1070
    33
1070
   393
1070
     0
  0
DIMENSION
  5
1186C
330
1F
100
AcDbEntity
  8
AM_5
100
AcDbDimension
  2
*D19
 10
235.6533847989926
 20
84.46376053694109
 30
0.0
 11
232.5533847989926
 21
96.46376053694085
 31
0.0
 70
    32
 71
     5
 42
23.99999999999943
  3
SYS$0
100
AcDbAlignedDimension
 13
247.6533847989927
 23
108.4637605369405
 33
0.0
 14
256.6533847989926
 24
84.46376053694109
 34
0.0
 50
90.00000000000003
100
AcDbRotatedDimension
1001
ACAD_DSTYLE_DIMINSPECT
1070
   396
1000
100%
1070
   395
1000

1070
   394
1070
    33
1070
   393
1070
     0
  0
DIMENSION
  5
1189E
330
1F
100
AcDbEntity
  8
AM_5
100
AcDbDimension
  2
*D20
 10
246.9533847989926
 20
177.4637567222431
 30
0.0
 11
250.9533847989926
 21
180.5637567222431
 31
0.0
 70
    32
 71
     5
 42
8.0
  3
SYS$0
100
AcDbAlignedDimension
 13
254.9533847989926
 23
164.7637605369401
 33
0.0
 14
246.9533847989926
 24
165.4637567222431
 34
0.0
100
AcDbRotatedDimension
1001
ACAD_DSTYLE_DIMINSPECT
1070
   396
1000
100%
1070
   395
1000

1070
   394
1070
    33
1070
   393
1070
     0
  0
DIMENSION
  5
118C6
330
1F
100
AcDbEntity
  8
AM_5
100
AcDbDimension
  2
*D21
 10
338.9533886136816
 20
187.4637567222429
 30
0.0
 11
292.9533867063371
 21
190.5637567222429
 31
0.0
 70
    32
 71
     5
 42
92.00000381468891
  3
SYS$0
100
AcDbAlignedDimension
 13
246.9533847989926
 23
165.4637567222431
 33
0.0
 14
338.9533886136816
 24
165.4637567222431
 34
0.0
100
AcDbRotatedDimension
1001
ACAD_DSTYLE_DIMINSPECT
1070
   396
1000
100%
1070
   395
1000

1070
   394
1070
    33
1070
   393
1070
     0
  0
DIMENSION
  5
11904
330
1F
100
AcDbEntity
  8
AM_5
100
AcDbDimension
  2
*D22
 10
350.9533886136816
 20
225.7137567222382
 30
0.0
 11
347.8533886136815
 21
219.8670900555715
 31
0.0
 70
    32
 71
     5
 42
2.50000762938987
  3
SYS$0
100
AcDbAlignedDimension
 13
338.9533886136816
 23
228.213764351628
 33
0.0
 14
338.9533886136816
 24
225.7137567222382
 34
0.0
 50
90.00000000000003
100
AcDbRotatedDimension
1001
ACAD_DSTYLE_DIMINSPECT
1070
   396
1000
100%
1070
   395
1000

1070
   394
1070
    33
1070
   393
1070
     0
  0
DIMENSION
  5
1195C
330
1F
100
AcDbEntity
  8
AM_5
100
AcDbDimension
  2
*D23
 10
338.9533886136816
 20
62.4637605369409
 30
0.0
 11
326.4533886136816
 21
65.56376053694091
 31
0.0
 70
    32
 71
     5
 42
24.99999999999989
  3
SYS$0
100
AcDbAlignedDimension
 13
313.9533886136817
 23
76.46376053694109
 33
0.0
 14
338.9533886136816
 24
76.46376053694109
 34
0.0
 50
0.0000000000001132
100
AcDbRotatedDimension
1001
ACAD_DSTYLE_DIMINSPECT
1070
   396
1000
100%
1070
   395
1000

1070
   394
1070
    33
1070
   393
1070
     0
  0
DIMENSION
  5
11A30
330
1F
100
AcDbEntity
  8
AM_5
100
AcDbDimension
  2
*D24
 10
143.6239015245418
 20
110.2435248461542
 30
0.0
 11
147.3157016154893
 21
-97.37188714114751
 31
0.0
 70
    34
  1
 
 71
     5
 42
0.7853980978356772
  3
SYS$2
100
AcDb2LineAngularDimension
 13
172.8809701585748
 23
86.96463566692489
 33
0.0
 14
136.8809739732727
 24
86.96463566692489
 34
0.0
 15
169.0797502183898
 25
84.7876794901669
 35
0.0
 16
146.3351686671504
 26
98.83935835004624
 36
0.0
1001
ACAD_DSTYLE_DIMINSPECT
1070
   396
1000
100%
1070
   395
1000

1070
   394
1070
    33
1070
   393
1070
     0
1001
ACAD
1000
DSTYLE
1002
{
1070
    41
1040
2.0
1070
   173
1070
     1
1070
   342
1005
0
1070
   343
1005
A66
1070
   344
1005
11686
1002
}
  0
DIMENSION
  5
11A8C
330
1F
100
AcDbEntity
  8
AM_5
100
AcDbDimension
  2
*D25
 10
76.13803879261277
 20
110.2435248461542
 30
0.0
 11
-57.01660535056412
 21
105.6616742996864
 31
0.0
 70
    34
  1
 
 71
     5
 42
0.78539809783568
  3
SYS$2
100
AcDb2LineAngularDimension
 13
46.88097015857977
 23
86.96463566692489
 33
0.0
 14
82.8809663438818
 24
86.96463566692489
 34
0.0
 15
50.68219009876478
 25
84.7876794901669
 35
0.0
 16
75.79935107126999
 26
93.11144440233617
 36
0.0
1001
ACAD_DSTYLE_DIMINSPECT
1070
   396
1000
100%
1070
   395
1000

1070
   394
1070
    33
1070
   393
1070
     0
1001
ACAD
1000
DSTYLE
1002
{
1070
    41
1040
2.0
1070
   173
1070
     1
1070
   342
1005
0
1070
   343
1005
11686
1070
   344
1005
A66
1002
}
  0
ENDSEC
  0
SECTION
  2
OBJECTS
  0
DICTIONARY
  5
C
330
0
100
AcDbDictionary
281
     1
  3
ACAD_2007HEADERVARS_RT
350
11B99
  3
ACAD_BGPLOT_KEY
350
AB06
  3
ACAD_COLOR
350
A91D
  3
ACAD_GROUP
350
D
  3
ACAD_LAYOUT
350
1A
  3
ACAD_MATERIAL
350
A91C
  3
ACAD_MLEADERSTYLE
350
B595
  3
ACAD_MLINESTYLE
350
17
  3
ACAD_PLOTSETTINGS
350
19
  3
ACAD_PLOTSTYLENAME
350
E
  3
ACAD_SCALELIST
350
B573
  3
ACAD_TABLESTYLE
350
AAB9
  3
ACAD_VISUALSTYLE
350
B0F1
  3
AcAsAppObject
350
3DA1
  3
ACASGREF_MASTER
350
3DE9
  3
ACDB_RECOMPOSE_DATA
350
B5B7
  3
AcDbVariableDictionary
350
34
  3
AcmDictionary
350
47
  3
AD_GREF_MODULE
350
3DEA
  3
AD_MAPI_MODULE
350
3E06
  3
AMG
350
2B
  3
AMGSNAPSETTINGS
350
7D
  3
ASE_INDEX_DICTIONARY
350
B570
  3
MAPISURF_MODULE
350
3DEB
  0
DICTIONARY
  5
3F95
330
2
100
AcDbDictionary
280
     1
281
     1
  3
ACAD_LAYERFILTERS
360
B4F7
  3
ACAD_LAYERSTATES
360
3F96
  3
ACLYDICTIONARY
360
B4F6
  3
AMLAYER_GROUPCOLORS
360
AAB4
  0
DICTIONARY
  5
C26F
330
10
100
AcDbDictionary
280
     1
281
     1
  3
ADSK_XREC_LAYER_RECONCILED
360
C270
  0
DICTIONARY
  5
C271
330
5F85
100
AcDbDictionary
280
     1
281
     1
  3
ADSK_XREC_LAYER_RECONCILED
360
C272
  0
DICTIONARY
  5
C273
330
AC9F
100
AcDbDictionary
280
     1
281
     1
  3
ADSK_XREC_LAYER_RECONCILED
360
C274
  0
DICTIONARY
  5
C275
330
ACA0
100
AcDbDictionary
280
     1
281
     1
  3
ADSK_XREC_LAYER_RECONCILED
360
C276
  0
DICTIONARY
  5
C277
330
ACA1
100
AcDbDictionary
280
     1
281
     1
  3
ADSK_XREC_LAYER_RECONCILED
360
C278
  0
DICTIONARY
  5
C279
330
ACC8
100
AcDbDictionary
280
     1
281
     1
  3
ADSK_XREC_LAYER_RECONCILED
360
C27A
  0
DICTIONARY
  5
C27B
330
ACC9
100
AcDbDictionary
280
     1
281
     1
  3
ADSK_XREC_LAYER_RECONCILED
360
C27C
  0
DICTIONARY
  5
C27D
330
ACCA
100
AcDbDictionary
280
     1
281
     1
  3
ADSK_XREC_LAYER_RECONCILED
360
C27E
  0
DICTIONARY
  5
C27F
330
AD60
100
AcDbDictionary
280
     1
281
     1
  3
ADSK_XREC_LAYER_RECONCILED
360
C280
  0
DICTIONARY
  5
C281
330
AD64
100
AcDbDictionary
280
     1
281
     1
  3
ADSK_XREC_LAYER_RECONCILED
360
C282
  0
DICTIONARY
  5
C283
330
AD67
100
AcDbDictionary
280
     1
281
     1
  3
ADSK_XREC_LAYER_RECONCILED
360
C284
  0
DICTIONARY
  5
C285
330
AD68
100
AcDbDictionary
280
     1
281
     1
  3
ADSK_XREC_LAYER_RECONCILED
360
C286
  0
DICTIONARY
  5
C287
330
AD69
100
AcDbDictionary
280
     1
281
     1
  3
ADSK_XREC_LAYER_RECONCILED
360
C288
  0
DICTIONARY
  5
C289
330
AD6A
100
AcDbDictionary
280
     1
281
     1
  3
ADSK_XREC_LAYER_RECONCILED
360
C28A
  0
DICTIONARY
  5
C28B
330
AD6E
100
AcDbDictionary
280
     1
281
     1
  3
ADSK_XREC_LAYER_RECONCILED
360
C28C
  0
DICTIONARY
  5
C28D
330
AD6F
100
AcDbDictionary
280
     1
281
     1
  3
ADSK_XREC_LAYER_RECONCILED
360
C28E
  0
DICTIONARY
  5
C28F
330
B1B6
100
AcDbDictionary
280
     1
281
     1
  3
ADSK_XREC_LAYER_RECONCILED
360
C290
  0
DICTIONARY
  5
C291
330
B2EB
100
AcDbDictionary
280
     1
281
     1
  3
ADSK_XREC_LAYER_RECONCILED
360
C292
  0
DICTIONARY
  5
C293
330
B2EC
100
AcDbDictionary
280
     1
281
     1
  3
ADSK_XREC_LAYER_RECONCILED
360
C294
  0
DICTIONARY
  5
8A
330
1F
100
AcDbDictionary
280
     1
281
     1
  3
ACAD_SORTENTS
360
B1BA
  0
DICTIONARY
  5
11B99
102
{ACAD_REACTORS
330
C
102
}
330
C
100
AcDbDictionary
281
     1
  3
DIMARCSYM
350
11B9A
  0
DICTIONARY
  5
AB06
102
{ACAD_REACTORS
330
C
102
}
330
C
100
AcDbDictionary
280
     1
281
     1
  0
DICTIONARY
  5
A91D
102
{ACAD_REACTORS
330
C
102
}
330
C
100
AcDbDictionary
281
     1
  0
DICTIONARY
  5
D
102
{ACAD_REACTORS
330
C
102
}
330
C
100
AcDbDictionary
281
     1
  0
DICTIONARY
  5
1A
102
{ACAD_REACTORS
330
C
102
}
330
C
100
AcDbDictionary
281
     1
  3
Model
350
22
  3
ﾚｲｱｳﾄ1
350
1E
  3
ﾚｲｱｳﾄ2
350
26
  0
DICTIONARY
  5
A91C
102
{ACAD_REACTORS
330
C
102
}
330
C
100
AcDbDictionary
281
     1
  3
ByBlock
350
B0EF
  3
ByLayer
350
B0EE
  3
Global
350
B0F0
  0
DICTIONARY
  5
B595
102
{ACAD_REACTORS
330
C
102
}
330
C
100
AcDbDictionary
281
     1
  3
Standard
350
B596
  0
DICTIONARY
  5
17
102
{ACAD_REACTORS
330
C
102
}
330
C
100
AcDbDictionary
281
     1
  3
Standard
350
18
  0
DICTIONARY
  5
19
102
{ACAD_REACTORS
330
C
102
}
330
C
100
AcDbDictionary
281
     1
  0
ACDBDICTIONARYWDFLT
  5
E
102
{ACAD_REACTORS
330
C
102
}
330
C
100
AcDbDictionary
281
     1
  3
Normal
350
F
100
AcDbDictionaryWithDefault
340
F
  0
DICTIONARY
  5
B573
102
{ACAD_REACTORS
330
C
102
}
330
C
100
AcDbDictionary
281
     1
  3
A0
350
B574
  3
A1
350
B575
  3
A2
350
B576
  3
A3
350
B577
  3
A4
350
B578
  3
A5
350
B579
  3
A6
350
B57A
  3
A7
350
B57B
  3
A8
350
B57C
  3
A9
350
B57D
  3
B0
350
B57E
  3
B1
350
B57F
  3
B2
350
B580
  3
B3
350
B581
  3
B4
350
B582
  3
B5
350
B583
  3
B6
350
B584
  3
B7
350
B585
  3
B8
350
B586
  3
B9
350
B587
  3
C0
350
B588
  3
C1
350
B589
  3
C2
350
B58A
  3
C3
350
B58B
  3
C4
350
B58C
  3
C5
350
B58D
  3
C6
350
B58E
  3
C7
350
B58F
  3
C8
350
B590
  3
C9
350
B591
  3
D0
350
B592
  3
D1
350
B593
  3
D2
350
B594
  0
DICTIONARY
  5
AAB9
102
{ACAD_REACTORS
330
C
102
}
330
C
100
AcDbDictionary
281
     1
  3
Standard
350
AABA
  0
DICTIONARY
  5
B0F1
102
{ACAD_REACTORS
330
C
102
}
330
C
100
AcDbDictionary
281
     1
  3
2dWireframe
350
B0F7
  3
3D Hidden
350
B0F9
  3
3dWireframe
350
B0F8
  3
Basic
350
B0F6
  3
Brighten
350
B0FD
  3
ColorChange
350
B101
  3
Conceptual
350
B0FA
  3
Dim
350
B0FC
  3
Facepattern
350
B100
  3
Flat
350
B0F2
  3
FlatWithEdges
350
B0F3
  3
Gouraud
350
B0F4
  3
GouraudWithEdges
350
B0F5
  3
Linepattern
350
B0FF
  3
Realistic
350
B0FB
  3
Thicken
350
B0FE
  0
ACAD_PROXY_OBJECT
  5
3DA1
102
{ACAD_REACTORS
330
C
102
}
330
C
100
AcDbProxyObject
 90
      499
 91
      576
 95
   917527
 70
     0
 93
       10
310
404C
 94
        0
  0
ACAD_PROXY_OBJECT
  5
3DE9
102
{ACAD_REACTORS
330
C
102
}
330
C
100
AcDbProxyObject
 90
      499
 91
      581
 95
   917527
 70
     0
 93
       34
310
010000404C
 94
        0
  0
XRECORD
  5
B5B7
102
{ACAD_REACTORS
330
C
102
}
330
C
100
AcDbXrecord
280
     1
 90
        1
330
AABA
  0
DICTIONARY
  5
34
102
{ACAD_REACTORS
330
C
102
}
330
C
100
AcDbDictionary
281
     1
  3
CANNOSCALE
350
B5BA
  3
CMLEADERSTYLE
350
B5B8
  3
CTABLESTYLE
350
AAF3
  3
DIMASSOC
350
A10C
  3
FIELDEVAL
350
AB07
  3
INDEXCTL
350
35
  3
LIGHTINGUNITS
350
B5BB
  3
MSLTSCALE
350
B5B9
  3
SORTENTS
350
194C
  0
DICTIONARY
  5
47
102
{ACAD_REACTORS
330
C
102
}
330
C
100
AcDbDictionary
281
     1
  3
AcmBOM
350
7E8
  3
AcmStdDictionary
350
4C
  3
AMDTSECTSYM_ARROWCOLOR
350
A929
  0
ACAD_PROXY_OBJECT
  5
3DEA
102
{ACAD_REACTORS
330
C
102
}
330
C
100
AcDbProxyObject
 90
      499
 91
      582
 95
   917527
 70
     0
 93
      114
310
00000043800000000000000000000C
 94
        0
  0
ACAD_PROXY_OBJECT
  5
3E06
102
{ACAD_REACTORS
330
C
102
}
330
C
100
AcDbProxyObject
 90
      499
 91
      594
 95
   917527
 70
     0
 93
       34
310
05000044CC
 94
        0
  0
DICTIONARY
  5
2B
102
{ACAD_REACTORS
330
C
102
}
330
C
100
AcDbDictionary
281
     1
  0
DICTIONARY
  5
7D
102
{ACAD_REACTORS
330
C
102
}
330
C
100
AcDbDictionary
281
     1
  0
DICTIONARY
  5
B570
102
{ACAD_REACTORS
330
C
102
}
330
C
100
AcDbDictionary
281
     1
  3
ASEBlockHierarchyIndexRecord
350
B571
1001
DCO15
1040
1706332604.97
  0
ACAD_PROXY_OBJECT
  5
3DEB
102
{ACAD_REACTORS
330
C
102
}
330
C
100
AcDbProxyObject
 90
      499
 91
      583
 95
   917527
 70
     0
 93
        8
310
047E
 94
        0
  0
DICTIONARY
  5
B4F7
102
{ACAD_REACTORS
330
3F95
102
}
330
3F95
100
AcDbDictionary
281
     1
  0
DICTIONARY
  5
3F96
102
{ACAD_REACTORS
330
3F95
102
}
330
3F95
100
AcDbDictionary
281
     1
  3
20011210
350
3FB7
  0
DICTIONARY
  5
B4F6
102
{ACAD_REACTORS
330
3F95
102
}
330
3F95
100
AcDbDictionary
281
     1
1001
ACAD
1000
<All
  0
DICTIONARY
  5
AAB4
102
{ACAD_REACTORS
330
3F95
102
}
330
3F95
100
AcDbDictionary
280
     1
281
     1
  0
XRECORD
  5
C270
102
{ACAD_REACTORS
330
C26F
102
}
330
C26F
100
AcDbXrecord
280
     1
290
     1
  0
XRECORD
  5
C272
102
{ACAD_REACTORS
330
C271
102
}
330
C271
100
AcDbXrecord
280
     1
290
     1
  0
XRECORD
  5
C274
102
{ACAD_REACTORS
330
C273
102
}
330
C273
100
AcDbXrecord
280
     1
290
     1
  0
XRECORD
  5
C276
102
{ACAD_REACTORS
330
C275
102
}
330
C275
100
AcDbXrecord
280
     1
290
     1
  0
XRECORD
  5
C278
102
{ACAD_REACTORS
330
C277
102
}
330
C277
100
AcDbXrecord
280
     1
290
     1
  0
XRECORD
  5
C27A
102
{ACAD_REACTORS
330
C279
102
}
330
C279
100
AcDbXrecord
280
     1
290
     1
  0
XRECORD
  5
C27C
102
{ACAD_REACTORS
330
C27B
102
}
330
C27B
100
AcDbXrecord
280
     1
290
     1
  0
XRECORD
  5
C27E
102
{ACAD_REACTORS
330
C27D
102
}
330
C27D
100
AcDbXrecord
280
     1
290
     1
  0
XRECORD
  5
C280
102
{ACAD_REACTORS
330
C27F
102
}
330
C27F
100
AcDbXrecord
280
     1
290
     1
  0
XRECORD
  5
C282
102
{ACAD_REACTORS
330
C281
102
}
330
C281
100
AcDbXrecord
280
     1
290
     1
  0
XRECORD
  5
C284
102
{ACAD_REACTORS
330
C283
102
}
330
C283
100
AcDbXrecord
280
     1
290
     1
  0
XRECORD
  5
C286
102
{ACAD_REACTORS
330
C285
102
}
330
C285
100
AcDbXrecord
280
     1
290
     1
  0
XRECORD
  5
C288
102
{ACAD_REACTORS
330
C287
102
}
330
C287
100
AcDbXrecord
280
     1
290
     1
  0
XRECORD
  5
C28A
102
{ACAD_REACTORS
330
C289
102
}
330
C289
100
AcDbXrecord
280
     1
290
     1
  0
XRECORD
  5
C28C
102
{ACAD_REACTORS
330
C28B
102
}
330
C28B
100
AcDbXrecord
280
     1
290
     1
  0
XRECORD
  5
C28E
102
{ACAD_REACTORS
330
C28D
102
}
330
C28D
100
AcDbXrecord
280
     1
290
     1
  0
XRECORD
  5
C290
102
{ACAD_REACTORS
330
C28F
102
}
330
C28F
100
AcDbXrecord
280
     1
290
     1
  0
XRECORD
  5
C292
102
{ACAD_REACTORS
330
C291
102
}
330
C291
100
AcDbXrecord
280
     1
290
     1
  0
XRECORD
  5
C294
102
{ACAD_REACTORS
330
C293
102
}
330
C293
100
AcDbXrecord
280
     1
290
     1
  0
SORTENTSTABLE
  5
B1BA
102
{ACAD_REACTORS
330
8A
102
}
330
8A
100
AcDbSortentsTable
330
1F
331
B944
  5
B957
331
B983
  5
B99A
331
B9C2
  5
B9D9
331
B9F9
  5
BA12
331
BE35
  5
C31D
331
B94C
  5
B95F
331
B9CA
  5
B9E1
331
BA01
  5
BA1A
331
B954
  5
B976
331
B993
  5
B9AA
331
B9D2
  5
B9E9
331
BA09
  5
BA23
331
B9DA
  5
B9F1
331
BA11
  5
BE36
331
B95C
  5
B981
331
B99B
  5
B9B2
331
BF4D
  5
B924
331
C49B
  5
C517
331
1189E
  5
118C6
331
B9E2
  5
B9FA
331
B9A3
  5
B9BA
331
BF55
  5
B92C
331
C31C
  5
BE38
331
B9EA
  5
BA03
331
B9AB
  5
B9C2
331
B974
  5
B98B
331
C324
  5
BF53
331
B9F2
  5
BA0B
331
B97C
  5
B993
331
B9B3
  5
B9CA
331
B93D
  5
B950
331
B9BB
  5
B9D2
331
118C6
  5
11903
331
B945
  5
B958
331
B984
  5
B99B
331
B9C3
  5
B9DA
331
B9FA
  5
BA13
331
BE36
  5
C31E
331
B94D
  5
B960
331
B9CB
  5
B9E2
331
BA02
  5
BA1B
331
B955
  5
B977
331
B994
  5
B9AB
331
B9D3
  5
B9EA
331
BA0A
  5
BA24
331
B95D
  5
B982
331
B99C
  5
B9B3
331
B9DB
  5
B9F2
331
BA12
  5
BE37
331
BF4E
  5
B925
331
B9E3
  5
B9FB
331
B9A4
  5
B9BB
331
BA22
  5
BF55
331
BF56
  5
B92D
331
C31D
  5
BF42
331
B9EB
  5
BA04
331
B9AC
  5
B9C3
331
B975
  5
B98C
331
B92E
  5
B946
331
C325
  5
BF54
331
B9F3
  5
BA0C
331
B97D
  5
B994
331
B9B4
  5
B9CB
331
B93E
  5
B951
331
B9BC
  5
B9D3
331
B9C4
  5
B9DB
331
B9FB
  5
BA14
331
B946
  5
B959
331
B985
  5
B99C
331
BE37
  5
C31F
331
C415
  5
C49A
331
B94E
  5
B961
331
B98D
  5
B9A4
331
B9CC
  5
B9E3
331
BA03
  5
BA1C
331
B956
  5
B979
331
B995
  5
B9AC
331
B9D4
  5
B9EB
331
BA0B
  5
BA25
331
BF47
  5
B91E
331
B95E
  5
B983
331
B99D
  5
B9B4
331
B9DC
  5
B9F3
331
B91F
  5
B933
331
BF4F
  5
B926
331
B9E4
  5
B9FC
331
B9A5
  5
B9BC
331
BA23
  5
BF56
331
B966
  5
B988
331
C31E
  5
BF50
331
B9EC
  5
BA05
331
B976
  5
B98D
331
B9AD
  5
B9C4
331
B9F4
  5
BA0D
331
B97E
  5
B995
331
B9B5
  5
B9CC
331
B93F
  5
B952
331
B9BD
  5
B9D4
331
BE30
  5
C318
331
B947
  5
B95A
331
B986
  5
B99D
331
B9C5
  5
B9DC
331
B9FC
  5
BA15
331
BE38
  5
C320
331
B94F
  5
B962
331
B98E
  5
B9A5
331
B9CD
  5
B9E4
331
BA04
  5
BA1E
331
B9D5
  5
B9EC
331
BA0C
  5
BA26
331
B957
  5
B97B
331
B996
  5
B9AD
331
BF48
  5
B91F
331
C496
  5
B978
331
B99E
  5
B9B5
331
B9DD
  5
B9F4
331
B95F
  5
B984
331
C317
  5
BF4D
331
B920
  5
B934
331
BF50
  5
B927
331
B9E5
  5
B9FD
331
B9A6
  5
B9BD
331
BA24
  5
BF57
331
C31F
  5
BF4F
331
B9AE
  5
B9C5
331
B977
  5
B98E
331
B930
  5
B948
331
B9F5
  5
BA0E
331
B97F
  5
B996
331
B9B6
  5
B9CD
331
B9BE
  5
B9D5
331
BE31
  5
C319
331
B940
  5
B953
331
BE39
  5
C321
331
B948
  5
B95B
331
B987
  5
B9A0
331
B9C6
  5
B9DD
331
B9FD
  5
BA16
331
B950
  5
B966
331
B98F
  5
B9A6
331
B9CE
  5
B9E5
331
BA05
  5
BA1F
331
C497
  5
B975
331
BF49
  5
B920
331
B958
  5
B97C
331
B997
  5
B9AE
331
B9D6
  5
B9ED
331
BA0D
  5
BE22
331
B99F
  5
B9B6
331
B9DE
  5
B9F5
331
C318
  5
BF47
331
BF51
  5
B928
331
B960
  5
B985
331
C517
  5
1169A
331
B9E6
  5
B9FE
331
C320
  5
BF4B
331
B9A7
  5
B9BE
331
BA25
  5
BF58
331
B978
  5
B98F
331
B9AF
  5
B9C6
331
B9F6
  5
BA0F
331
B939
  5
B94C
331
B9B7
  5
B9CE
331
B9BF
  5
B9D6
331
BE32
  5
C31A
331
B941
  5
B954
331
B980
  5
B997
331
BE3A
  5
C496
331
B949
  5
B95C
331
B988
  5
B9A1
331
B9C7
  5
B9DE
331
B9FE
  5
BA17
331
B951
  5
B972
331
B990
  5
B9A7
331
B9CF
  5
B9E6
331
BA06
  5
BA20
331
C498
  5
B97A
331
BF4A
  5
B921
331
B959
  5
B97E
331
B998
  5
B9AF
331
B9D7
  5
B9EE
331
BA0E
  5
BE2E
331
B9DF
  5
B9F6
331
C319
  5
BF46
331
B9A0
  5
B9B7
331
BF52
  5
B929
331
B961
  5
B986
331
B9E7
  5
B9FF
331
C321
  5
BF49
331
B92A
  5
B942
331
B9A8
  5
B9BF
331
BA26
  5
BF59
331
B979
  5
B990
331
B9B0
  5
B9C7
331
B9F7
  5
BA10
331
B93A
  5
B94D
331
B9B8
  5
B9CF
331
BE2D
  5
C2C7
331
1186C
  5
1189E
331
BE33
  5
C31B
331
B942
  5
B955
331
B981
  5
B998
331
B9C0
  5
B9D7
331
B94A
  5
B95D
331
B989
  5
B9A2
331
B9C8
  5
B9DF
331
B9FF
  5
BA18
331
11825
  5
1184D
331
B952
  5
B973
331
B991
  5
B9A8
331
B9D0
  5
B9E7
331
BA07
  5
BA21
331
C499
  5
B97D
331
BF4B
  5
B922
331
B95A
  5
B97F
331
B999
  5
B9B0
331
B9D8
  5
B9EF
331
BA0F
  5
BE2F
331
B9E0
  5
B9F7
331
C31A
  5
BF3E
331
BF53
  5
B92A
331
B962
  5
B987
331
B9A1
  5
B9B8
331
1184D
  5
1186C
331
B9E8
  5
BA00
331
C322
  5
BF51
331
B972
  5
B989
331
B9A9
  5
B9C0
331
C34A
  5
C499
331
B97A
  5
B991
331
B9B1
  5
B9C8
331
B93B
  5
B94E
331
B9B9
  5
B9D0
331
BE2E
  5
C2F8
331
BE34
  5
C31C
331
B943
  5
B956
331
B982
  5
B999
331
B9C1
  5
B9D8
331
B9F8
  5
BA11
331
B94B
  5
B95E
331
B98A
  5
B9A3
331
B9C9
  5
B9E0
331
BA00
  5
BA19
331
B953
  5
B974
331
B992
  5
B9A9
331
B9D1
  5
B9E8
331
BA08
  5
BA22
331
C49A
  5
C49B
331
BF4C
  5
B923
331
B95B
  5
B980
331
B99A
  5
B9B1
331
B9D9
  5
B9F0
331
BA10
  5
BE35
331
B9E1
  5
B9F9
331
BF54
  5
B92B
331
C31B
  5
BF45
331
B9A2
  5
B9B9
331
B9E9
  5
BA01
331
B9AA
  5
B9C1
331
B973
  5
B98A
331
C323
  5
BF52
331
B9F1
  5
BA0A
331
B97B
  5
B992
331
B9B2
  5
B9C9
331
B93C
  5
B94F
331
B9BA
  5
B9D1
331
BE2F
  5
C317
  0
XRECORD
  5
11B9A
102
{ACAD_REACTORS
330
11B99
102
}
330
11B99
100
AcDbXrecord
280
     1
 70
     1
  0
LAYOUT
  5
22
102
{ACAD_REACTORS
330
1A
102
}
330
1A
100
AcDbPlotSettings
  1

  2
DocuCentre-II C5400
  4
A3
  6
AM_VIEW1
 40
4.857749938964843
 41
4.942420959472656
 42
4.9423828125
 43
4.857757568359375
 44
297.0106506347656
 45
420.0313415527343
 46
-4.894741058349609
 47
-4.884418487548828
 48
214.3704939521119
 49
367.5855324241176
140
275.6727856380065
141
407.629191407817
142
1.0
143
1.0
 70
  3748
 72
     1
 73
     1
 74
     2
  7
monochrome.ctb
 75
     0
147
0.9670387807518544
 76
     0
 77
     2
 78
   200
148
0.0
149
0.0
100
AcDbLayout
  1
Model
 70
     1
 71
     0
 10
0.0
 20
0.0
 11
12.0
 21
9.0
 12
0.0
 22
0.0
 32
0.0
 14
0.0
 24
0.0
 34
0.0
 15
0.0
 25
0.0
 35
0.0
146
0.0
 13
0.0
 23
0.0
 33
0.0
 16
1.0
 26
0.0
 36
0.0
 17
0.0
 27
1.0
 37
0.0
 76
     0
330
1F
331
B0EC
1001
ACAD_PSEXT
1000
DocuCentre-II C5400
1000
FX DocuCentre-II C5400
1000
192.168.2.200
1000

1070
     0
  0
LAYOUT
  5
1E
102
{ACAD_REACTORS
330
1A
102
}
330
1A
100
AcDbPlotSettings
  1

  2
\\ML370\XEROX
  4
A4
  6

 40
3.174999952316284
 41
3.174999952316284
 42
3.175003051757812
 43
3.17498779296875
 44
209.8674926757813
 45
296.6719970703125
 46
0.0
 47
0.0
 48
0.0
 49
0.0
140
0.0
141
0.0
142
1.0
143
1.0
 70
   688
 72
     1
 73
     1
 74
     5
  7
monochrome.ctb
 75
    16
147
1.0
 76
     0
 77
     2
 78
   300
148
0.0
149
0.0
100
AcDbLayout
  1
ﾚｲｱｳﾄ1
 70
     1
 71
     1
 10
-3.17498779296875
 20
-3.174999952316284
 11
293.4970092773438
 21
206.692492723465
 12
0.0
 22
0.0
 32
0.0
 14
1.000000000000000E+20
 24
1.000000000000000E+20
 34
1.000000000000000E+20
 15
-1.000000000000000E+20
 25
-1.000000000000000E+20
 35
-1.000000000000000E+20
146
0.0
 13
0.0
 23
0.0
 33
0.0
 16
1.0
 26
0.0
 36
0.0
 17
0.0
 27
1.0
 37
0.0
 76
     0
330
1B
  0
LAYOUT
  5
26
102
{ACAD_REACTORS
330
1A
102
}
330
1A
100
AcDbPlotSettings
  1

  2
\\ML370\XEROX
  4

  6

 40
0.0
 41
0.0
 42
0.0
 43
0.0
 44
0.0
 45
0.0
 46
0.0
 47
0.0
 48
0.0
 49
0.0
140
0.0
141
0.0
142
1.0
143
1.0
 70
   688
 72
     0
 73
     0
 74
     5
  7
monochrome.ctb
 75
    16
147
1.0
 76
     0
 77
     2
 78
   300
148
0.0
149
0.0
100
AcDbLayout
  1
ﾚｲｱｳﾄ2
 70
     1
 71
     2
 10
0.0
 20
0.0
 11
12.0
 21
9.0
 12
0.0
 22
0.0
 32
0.0
 14
0.0
 24
0.0
 34
0.0
 15
0.0
 25
0.0
 35
0.0
146
0.0
 13
0.0
 23
0.0
 33
0.0
 16
1.0
 26
0.0
 36
0.0
 17
0.0
 27
1.0
 37
0.0
 76
     0
330
23
  0
MATERIAL
  5
B0EF
102
{ACAD_XDICTIONARY
360
11B9E
102
}
102
{ACAD_REACTORS
330
A91C
102
}
330
A91C
100
AcDbMaterial
  1
ByBlock
 73
     1
 78
     1
172
     1
176
     1
270
     1
274
     1
  0
MATERIAL
  5
B0EE
102
{ACAD_XDICTIONARY
360
11B9C
102
}
102
{ACAD_REACTORS
330
A91C
102
}
330
A91C
100
AcDbMaterial
  1
ByLayer
 73
     1
 78
     1
172
     1
176
     1
270
     1
274
     1
  0
MATERIAL
  5
B0F0
102
{ACAD_XDICTIONARY
360
11BA0
102
}
102
{ACAD_REACTORS
330
A91C
102
}
330
A91C
100
AcDbMaterial
  1
Global
 73
     1
 78
     1
172
     1
176
     1
270
     1
274
     1
  0
MLEADERSTYLE
  5
B596
102
{ACAD_REACTORS
330
B595
102
}
330
B595
100
AcDbMLeaderStyle
170
     2
171
     1
172
     0
 90
        2
 40
0.0
 41
0.0
173
     1
 91
-1056964608
340
14
 92
       -2
290
     1
 42
2.0
291
     1
 43
0.36
  3
Standard
 44
4.0
300

342
11
174
     1
178
     6
175
     1
176
     0
 93
-1056964608
 45
4.0
292
     0
297
     0
 46
4.0
 94
-1056964608
 47
1.0
 49
1.0
140
1.0
293
     1
141
0.0
294
     1
177
     0
142
1.0
295
     0
296
     0
143
0.125
1001
ACAD_MLEADERVER
1070
     2
  0
MLINESTYLE
  5
18
102
{ACAD_REACTORS
330
17
102
}
330
17
100
AcDbMlineStyle
  2
STANDARD
 70
     0
  3

 62
   256
 51
90.0
 52
90.0
 71
     2
 49
0.5
 62
   256
  6
BYLAYER
 49
-0.5
 62
   256
  6
BYLAYER
  0
ACDBPLACEHOLDER
  5
F
102
{ACAD_REACTORS
330
E
102
}
330
E
  0
SCALE
  5
B574
102
{ACAD_REACTORS
330
B573
102
}
330
B573
100
AcDbScale
 70
     0
300
1:1
140
1.0
141
1.0
290
     1
  0
SCALE
  5
B575
102
{ACAD_REACTORS
330
B573
102
}
330
B573
100
AcDbScale
 70
     0
300
1:2
140
1.0
141
2.0
290
     0
  0
SCALE
  5
B576
102
{ACAD_REACTORS
330
B573
102
}
330
B573
100
AcDbScale
 70
     0
300
1:4
140
1.0
141
4.0
290
     0
  0
SCALE
  5
B577
102
{ACAD_REACTORS
330
B573
102
}
330
B573
100
AcDbScale
 70
     0
300
1:5
140
1.0
141
5.0
290
     0
  0
SCALE
  5
B578
102
{ACAD_REACTORS
330
B573
102
}
330
B573
100
AcDbScale
 70
     0
300
1:8
140
1.0
141
8.0
290
     0
  0
SCALE
  5
B579
102
{ACAD_REACTORS
330
B573
102
}
330
B573
100
AcDbScale
 70
     0
300
1:10
140
1.0
141
10.0
290
     0
  0
SCALE
  5
B57A
102
{ACAD_REACTORS
330
B573
102
}
330
B573
100
AcDbScale
 70
     0
300
1:16
140
1.0
141
16.0
290
     0
  0
SCALE
  5
B57B
102
{ACAD_REACTORS
330
B573
102
}
330
B573
100
AcDbScale
 70
     0
300
1:20
140
1.0
141
20.0
290
     0
  0
SCALE
  5
B57C
102
{ACAD_REACTORS
330
B573
102
}
330
B573
100
AcDbScale
 70
     0
300
1:30
140
1.0
141
30.0
290
     0
  0
SCALE
  5
B57D
102
{ACAD_REACTORS
330
B573
102
}
330
B573
100
AcDbScale
 70
     0
300
1:40
140
1.0
141
40.0
290
     0
  0
SCALE
  5
B57E
102
{ACAD_REACTORS
330
B573
102
}
330
B573
100
AcDbScale
 70
     0
300
1:50
140
1.0
141
50.0
290
     0
  0
SCALE
  5
B57F
102
{ACAD_REACTORS
330
B573
102
}
330
B573
100
AcDbScale
 70
     0
300
1:100
140
1.0
141
100.0
290
     0
  0
SCALE
  5
B580
102
{ACAD_REACTORS
330
B573
102
}
330
B573
100
AcDbScale
 70
     0
300
2:1
140
2.0
141
1.0
290
     0
  0
SCALE
  5
B581
102
{ACAD_REACTORS
330
B573
102
}
330
B573
100
AcDbScale
 70
     0
300
4:1
140
4.0
141
1.0
290
     0
  0
SCALE
  5
B582
102
{ACAD_REACTORS
330
B573
102
}
330
B573
100
AcDbScale
 70
     0
300
8:1
140
8.0
141
1.0
290
     0
  0
SCALE
  5
B583
102
{ACAD_REACTORS
330
B573
102
}
330
B573
100
AcDbScale
 70
     0
300
10:1
140
10.0
141
1.0
290
     0
  0
SCALE
  5
B584
102
{ACAD_REACTORS
330
B573
102
}
330
B573
100
AcDbScale
 70
     0
300
100:1
140
100.0
141
1.0
290
     0
  0
SCALE
  5
B585
102
{ACAD_REACTORS
330
B573
102
}
330
B573
100
AcDbScale
 70
     0
300
1/128" = 1'-0"
140
0.0078125
141
12.0
290
     0
  0
SCALE
  5
B586
102
{ACAD_REACTORS
330
B573
102
}
330
B573
100
AcDbScale
 70
     0
300
1/64" = 1'-0"
140
0.015625
141
12.0
290
     0
  0
SCALE
  5
B587
102
{ACAD_REACTORS
330
B573
102
}
330
B573
100
AcDbScale
 70
     0
300
1/32" = 1'-0"
140
0.03125
141
12.0
290
     0
  0
SCALE
  5
B588
102
{ACAD_REACTORS
330
B573
102
}
330
B573
100
AcDbScale
 70
     0
300
1/16" = 1'-0"
140
0.0625
141
12.0
290
     0
  0
SCALE
  5
B589
102
{ACAD_REACTORS
330
B573
102
}
330
B573
100
AcDbScale
 70
     0
300
3/32" = 1'-0"
140
0.09375
141
12.0
290
     0
  0
SCALE
  5
B58A
102
{ACAD_REACTORS
330
B573
102
}
330
B573
100
AcDbScale
 70
     0
300
1/8" = 1'-0"
140
0.125
141
12.0
290
     0
  0
SCALE
  5
B58B
102
{ACAD_REACTORS
330
B573
102
}
330
B573
100
AcDbScale
 70
     0
300
3/16" = 1'-0"
140
0.1875
141
12.0
290
     0
  0
SCALE
  5
B58C
102
{ACAD_REACTORS
330
B573
102
}
330
B573
100
AcDbScale
 70
     0
300
1/4" = 1'-0"
140
0.25
141
12.0
290
     0
  0
SCALE
  5
B58D
102
{ACAD_REACTORS
330
B573
102
}
330
B573
100
AcDbScale
 70
     0
300
3/8" = 1'-0"
140
0.375
141
12.0
290
     0
  0
SCALE
  5
B58E
102
{ACAD_REACTORS
330
B573
102
}
330
B573
100
AcDbScale
 70
     0
300
1/2" = 1'-0"
140
0.5
141
12.0
290
     0
  0
SCALE
  5
B58F
102
{ACAD_REACTORS
330
B573
102
}
330
B573
100
AcDbScale
 70
     0
300
3/4" = 1'-0"
140
0.75
141
12.0
290
     0
  0
SCALE
  5
B590
102
{ACAD_REACTORS
330
B573
102
}
330
B573
100
AcDbScale
 70
     0
300
1" = 1'-0"
140
1.0
141
12.0
290
     0
  0
SCALE
  5
B591
102
{ACAD_REACTORS
330
B573
102
}
330
B573
100
AcDbScale
 70
     0
300
1-1/2" = 1'-0"
140
1.5
141
12.0
290
     0
  0
SCALE
  5
B592
102
{ACAD_REACTORS
330
B573
102
}
330
B573
100
AcDbScale
 70
     0
300
3" = 1'-0"
140
3.0
141
12.0
290
     0
  0
SCALE
  5
B593
102
{ACAD_REACTORS
330
B573
102
}
330
B573
100
AcDbScale
 70
     0
300
6" = 1'-0"
140
6.0
141
12.0
290
     0
  0
SCALE
  5
B594
102
{ACAD_REACTORS
330
B573
102
}
330
B573
100
AcDbScale
 70
     0
300
1'-0" = 1'-0"
140
12.0
141
12.0
290
     0
  0
TABLESTYLE
  5
AABA
102
{ACAD_XDICTIONARY
360
B5B5
102
}
102
{ACAD_REACTORS
330
AAB9
102
}
330
AAB9
100
AcDbTableStyle
  3
Standard
 70
     0
 71
     0
 40
1.5
 41
1.5
280
     0
281
     0
  7
STANDARD
140
4.5
170
     2
 62
     0
 63
     7
283
     0
274
    -2
284
     1
 64
     0
275
    -2
285
     1
 65
     0
276
    -2
286
     1
 66
     0
277
    -2
287
     1
 67
     0
278
    -2
288
     1
 68
     0
279
    -2
289
     1
 69
     0
  7
STANDARD
140
6.0
170
     5
 62
     0
 63
     7
283
     0
274
    -2
284
     1
 64
     0
275
    -2
285
     1
 65
     0
276
    -2
286
     1
 66
     0
277
    -2
287
     1
 67
     0
278
    -2
288
     1
 68
     0
279
    -2
289
     1
 69
     0
  7
STANDARD
140
4.5
170
     5
 62
     0
 63
     7
283
     0
274
    -2
284
     1
 64
     0
275
    -2
285
     1
 65
     0
276
    -2
286
     1
 66
     0
277
    -2
287
     1
 67
     0
278
    -2
288
     1
 68
     0
279
    -2
289
     1
 69
     0
  0
VISUALSTYLE
  5
B0F7
102
{ACAD_REACTORS
330
B0F1
102
}
330
B0F1
100
AcDbVisualStyle
  2
2dWireframe
 70
     4
 71
     0
 72
     2
 73
     0
 90
        0
 40
-0.6
 41
-30.0
 62
     5
 63
     7
421
 16777215
 74
     1
 91
        4
 64
     7
 65
   257
 75
     1
175
     1
 42
1.0
 92
        0
 66
   257
 43
1.0
 76
     1
 77
     6
 78
     2
 67
     7
 79
     5
170
     0
171
     0
290
     0
174
     0
 93
        1
 44
0.0
173
     0
291
     0
 45
0.0
1001
ACAD
1000
AcDbSavedByObjectVersion
1070
     0
  0
VISUALSTYLE
  5
B0F9
102
{ACAD_REACTORS
330
B0F1
102
}
330
B0F1
100
AcDbVisualStyle
  2
3D Hidden
 70
     6
 71
     1
 72
     2
 73
     2
 90
        0
 40
-0.6
 41
-30.0
 62
     5
 63
     7
421
 16777215
 74
     2
 91
        2
 64
     7
 65
   257
 75
     2
175
     1
 42
40.0
 92
        0
 66
   257
 43
1.0
 76
     1
 77
     6
 78
     2
 67
     7
 79
     3
170
     0
171
     0
290
     0
174
     0
 93
        1
 44
0.0
173
     0
291
     0
 45
0.0
1001
ACAD
1000
AcDbSavedByObjectVersion
1070
     0
  0
VISUALSTYLE
  5
B0F8
102
{ACAD_REACTORS
330
B0F1
102
}
330
B0F1
100
AcDbVisualStyle
  2
3dWireframe
 70
     5
 71
     0
 72
     2
 73
     0
 90
        0
 40
-0.6
 41
-30.0
 62
     5
 63
     7
421
 16777215
 74
     1
 91
        4
 64
     7
 65
   257
 75
     1
175
     1
 42
1.0
 92
        0
 66
   257
 43
1.0
 76
     1
 77
     6
 78
     2
 67
     7
 79
     5
170
     0
171
     0
290
     0
174
     0
 93
        1
 44
0.0
173
     0
291
     0
 45
0.0
1001
ACAD
1000
AcDbSavedByObjectVersion
1070
     0
  0
VISUALSTYLE
  5
B0F6
102
{ACAD_REACTORS
330
B0F1
102
}
330
B0F1
100
AcDbVisualStyle
  2
Basic
 70
     7
 71
     1
 72
     0
 73
     1
 90
        0
 40
-0.6
 41
-30.0
 62
     5
 63
     7
421
 16777215
 74
     0
 91
        4
 64
     7
 65
   257
 75
     1
175
     1
 42
1.0
 92
        8
 66
     7
 43
1.0
 76
     1
 77
     6
 78
     2
 67
     7
 79
     5
170
     0
171
     0
290
     0
174
     0
 93
        1
 44
0.0
173
     0
291
     1
 45
0.0
1001
ACAD
1000
AcDbSavedByObjectVersion
1070
     0
  0
VISUALSTYLE
  5
B0FD
102
{ACAD_REACTORS
330
B0F1
102
}
330
B0F1
100
AcDbVisualStyle
  2
Brighten
 70
    12
 71
     2
 72
     2
 73
     0
 90
        0
 40
-0.6
 41
-30.0
 62
     5
 63
     7
421
 16777215
 74
     1
 91
        4
 64
     7
 65
   257
 75
     1
175
     1
 42
1.0
 92
        8
 66
     7
 43
1.0
 76
     1
 77
     6
 78
     2
 67
     7
 79
     5
170
     0
171
     0
290
     0
174
     0
 93
        1
 44
50.0
173
     0
291
     1
 45
0.0
1001
ACAD
1000
AcDbSavedByObjectVersion
1070
     0
  0
VISUALSTYLE
  5
B101
102
{ACAD_REACTORS
330
B0F1
102
}
330
B0F1
100
AcDbVisualStyle
  2
ColorChange
 70
    16
 71
     2
 72
     2
 73
     3
 90
        0
 40
-0.6
 41
-30.0
 62
     5
 63
     8
421
  8421504
 74
     1
 91
        4
 64
     7
 65
   257
 75
     1
175
     1
 42
1.0
 92
        8
 66
     8
424
  8421504
 43
1.0
 76
     1
 77
     6
 78
     2
 67
     7
 79
     5
170
     0
171
     0
290
     0
174
     0
 93
        1
 44
0.0
173
     0
291
     1
 45
0.0
1001
ACAD
1000
AcDbSavedByObjectVersion
1070
     0
  0
VISUALSTYLE
  5
B0FA
102
{ACAD_REACTORS
330
B0F1
102
}
330
B0F1
100
AcDbVisualStyle
  2
Conceptual
 70
     9
 71
     3
 72
     2
 73
     0
 90
        0
 40
-0.6
 41
-30.0
 62
     5
 63
     7
421
 16777215
 74
     2
 91
        2
 64
     7
 65
   257
 75
     1
175
     1
 42
40.0
 92
        8
 66
     7
 43
1.0
 76
     1
 77
     6
 78
     2
 67
     7
 79
     3
170
     0
171
     0
290
     0
174
     0
 93
        1
 44
0.0
173
     0
291
     0
 45
0.0
1001
ACAD
1000
AcDbSavedByObjectVersion
1070
     0
  0
VISUALSTYLE
  5
B0FC
102
{ACAD_REACTORS
330
B0F1
102
}
330
B0F1
100
AcDbVisualStyle
  2
Dim
 70
    11
 71
     2
 72
     2
 73
     0
 90
        0
 40
-0.6
 41
-30.0
 62
     5
 63
     7
421
 16777215
 74
     1
 91
        4
 64
     7
 65
   257
 75
     1
175
     1
 42
1.0
 92
        8
 66
     7
 43
1.0
 76
     1
 77
     6
 78
     2
 67
     7
 79
     5
170
     0
171
     0
290
     0
174
     0
 93
        1
 44
-50.0
173
     0
291
     1
 45
0.0
1001
ACAD
1000
AcDbSavedByObjectVersion
1070
     0
  0
VISUALSTYLE
  5
B100
102
{ACAD_REACTORS
330
B0F1
102
}
330
B0F1
100
AcDbVisualStyle
  2
Facepattern
 70
    15
 71
     2
 72
     2
 73
     0
 90
        0
 40
-0.6
 41
-30.0
 62
     5
 63
     7
421
 16777215
 74
     1
 91
        4
 64
     7
 65
   257
 75
     1
175
     1
 42
1.0
 92
        8
 66
     7
 43
1.0
 76
     1
 77
     6
 78
     2
 67
     7
 79
     5
170
     0
171
     0
290
     0
174
     0
 93
        1
 44
0.0
173
     0
291
     1
 45
0.0
1001
ACAD
1000
AcDbSavedByObjectVersion
1070
     0
  0
VISUALSTYLE
  5
B0F2
102
{ACAD_REACTORS
330
B0F1
102
}
330
B0F1
100
AcDbVisualStyle
  2
Flat
 70
     0
 71
     2
 72
     1
 73
     1
 90
        2
 40
-0.6
 41
30.0
 62
     5
 63
     7
421
 16777215
 74
     0
 91
        4
 64
     7
 65
   257
 75
     1
175
     1
 42
1.0
 92
        8
 66
     7
 43
1.0
 76
     1
 77
     6
 78
     2
 67
     7
 79
     5
170
     0
171
     0
290
     0
174
     0
 93
       13
 44
0.0
173
     0
291
     1
 45
0.0
1001
ACAD
1000
AcDbSavedByObjectVersion
1070
     0
  0
VISUALSTYLE
  5
B0F3
102
{ACAD_REACTORS
330
B0F1
102
}
330
B0F1
100
AcDbVisualStyle
  2
FlatWithEdges
 70
     1
 71
     2
 72
     1
 73
     1
 90
        2
 40
-0.6
 41
30.0
 62
     5
 63
     7
421
 16777215
 74
     1
 91
        4
 64
     7
 65
   257
 75
     1
175
     1
 42
1.0
 92
        0
 66
   257
 43
1.0
 76
     1
 77
     6
 78
     2
 67
     7
 79
     5
170
     0
171
     0
290
     0
174
     0
 93
       13
 44
0.0
173
     0
291
     1
 45
0.0
1001
ACAD
1000
AcDbSavedByObjectVersion
1070
     0
  0
VISUALSTYLE
  5
B0F4
102
{ACAD_REACTORS
330
B0F1
102
}
330
B0F1
100
AcDbVisualStyle
  2
Gouraud
 70
     2
 71
     2
 72
     2
 73
     1
 90
        2
 40
-0.6
 41
30.0
 62
     5
 63
     7
421
 16777215
 74
     0
 91
        4
 64
     7
 65
   257
 75
     1
175
     1
 42
1.0
 92
        0
 66
     7
 43
1.0
 76
     1
 77
     6
 78
     2
 67
     7
 79
     5
170
     0
171
     0
290
     0
174
     0
 93
       13
 44
0.0
173
     0
291
     1
 45
0.0
1001
ACAD
1000
AcDbSavedByObjectVersion
1070
     0
  0
VISUALSTYLE
  5
B0F5
102
{ACAD_REACTORS
330
B0F1
102
}
330
B0F1
100
AcDbVisualStyle
  2
GouraudWithEdges
 70
     3
 71
     2
 72
     2
 73
     1
 90
        2
 40
-0.6
 41
30.0
 62
     5
 63
     7
421
 16777215
 74
     1
 91
        4
 64
     7
 65
   257
 75
     1
175
     1
 42
1.0
 92
        0
 66
   257
 43
1.0
 76
     1
 77
     6
 78
     2
 67
     7
 79
     5
170
     0
171
     0
290
     0
174
     0
 93
       13
 44
0.0
173
     0
291
     1
 45
0.0
1001
ACAD
1000
AcDbSavedByObjectVersion
1070
     0
  0
VISUALSTYLE
  5
B0FF
102
{ACAD_REACTORS
330
B0F1
102
}
330
B0F1
100
AcDbVisualStyle
  2
Linepattern
 70
    14
 71
     2
 72
     2
 73
     0
 90
        0
 40
-0.6
 41
-30.0
 62
     5
 63
     7
421
 16777215
 74
     1
 91
        4
 64
     7
 65
   257
 75
     7
175
     7
 42
1.0
 92
        8
 66
     7
 43
1.0
 76
     1
 77
     6
 78
     2
 67
     7
 79
     5
170
     0
171
     0
290
     0
174
     0
 93
        1
 44
0.0
173
     0
291
     1
 45
0.0
1001
ACAD
1000
AcDbSavedByObjectVersion
1070
     0
  0
VISUALSTYLE
  5
B0FB
102
{ACAD_REACTORS
330
B0F1
102
}
330
B0F1
100
AcDbVisualStyle
  2
Realistic
 70
     8
 71
     2
 72
     2
 73
     0
 90
        0
 40
-0.6
 41
-30.0
 62
     5
 63
     7
421
 16777215
 74
     1
 91
        0
 64
     7
 65
   257
 75
     1
175
     1
 42
1.0
 92
        8
 66
     8
424
  7895160
 43
1.0
 76
     1
 77
     6
 78
     2
 67
     7
 79
     5
170
     0
171
     0
290
     0
174
     0
 93
       13
 44
0.0
173
     0
291
     0
 45
0.0
1001
ACAD
1000
AcDbSavedByObjectVersion
1070
     0
  0
VISUALSTYLE
  5
B0FE
102
{ACAD_REACTORS
330
B0F1
102
}
330
B0F1
100
AcDbVisualStyle
  2
Thicken
 70
    13
 71
     2
 72
     2
 73
     0
 90
        0
 40
-0.6
 41
-30.0
 62
     5
 63
     7
421
 16777215
 74
     1
 91
        4
 64
     7
 65
   257
 75
     1
175
     1
 42
1.0
 92
       12
 66
     7
 43
1.0
 76
     1
 77
     6
 78
     2
 67
     7
 79
     5
170
     0
171
     0
290
     0
174
     0
 93
        1
 44
0.0
173
     0
291
     1
 45
0.0
1001
ACAD
1000
AcDbSavedByObjectVersion
1070
     0
  0
DICTIONARYVAR
  5
B5BA
102
{ACAD_REACTORS
330
34
102
}
330
34
100
DictionaryVariables
280
     0
  1
1:1
  0
DICTIONARYVAR
  5
B5B8
102
{ACAD_REACTORS
330
34
102
}
330
34
100
DictionaryVariables
280
     0
  1
STANDARD
  0
DICTIONARYVAR
  5
AAF3
102
{ACAD_REACTORS
330
34
102
}
330
34
100
DictionaryVariables
280
     0
  1
STANDARD
  0
DICTIONARYVAR
  5
A10C
102
{ACAD_REACTORS
330
34
102
}
330
34
100
DictionaryVariables
280
     0
  1
1
  0
DICTIONARYVAR
  5
AB07
102
{ACAD_REACTORS
330
34
102
}
330
34
100
DictionaryVariables
280
     0
  1
4
  0
DICTIONARYVAR
  5
35
102
{ACAD_REACTORS
330
34
102
}
330
34
100
DictionaryVariables
280
     0
  1
1
  0
DICTIONARYVAR
  5
B5BB
102
{ACAD_REACTORS
330
34
102
}
330
34
100
DictionaryVariables
280
     0
  1
0
  0
DICTIONARYVAR
  5
B5B9
102
{ACAD_REACTORS
330
34
102
}
330
34
100
DictionaryVariables
280
     0
  1
0
  0
DICTIONARYVAR
  5
194C
102
{ACAD_REACTORS
330
34
102
}
330
34
100
DictionaryVariables
280
     0
  1
96
  0
DICTIONARY
  5
7E8
102
{ACAD_REACTORS
330
47
102
}
330
47
100
AcDbDictionary
281
     1
  0
DICTIONARY
  5
4C
102
{ACAD_REACTORS
330
47
102
}
330
47
100
AcDbDictionary
281
     1
  0
XRECORD
  5
A929
102
{ACAD_REACTORS
330
47
102
}
330
47
100
AcDbXrecord
280
     1
 90
-1023410169
  0
XRECORD
  5
B571
102
{ACAD_REACTORS
330
B570
102
}
330
B570
100
AcDbXrecord
280
     1
  0
XRECORD
  5
3FB7
102
{ACAD_REACTORS
330
3F96
102
}
330
3F96
100
AcDbXrecord
280
     1
 91
        3
330
0
 90
        8
 62
     7
370
    40
331
16
  1
Color_7
330
0
 90
        0
 62
    14
370
    -3
331
16
  1
Color_14
330
0
 90
        8
 62
     7
370
    20
331
16
  1
Color_7
330
6D1
 90
        0
 62
     7
370
    -3
331
16
  1
Color_7
330
0
 90
        8
 62
     7
370
    50
331
16
  1
Color_7
330
0
 90
        8
 62
     2
370
    35
331
16
  1
Color_2
330
0
 90
        8
 62
     7
370
    -3
331
16
  1
Color_7
330
10
 90
        8
 62
     7
370
    -3
331
16
  1
Color_7
  0
DICTIONARY
  5
11B9E
330
B0EF
100
AcDbDictionary
280
     1
281
     1
  3
ACAD_XREC_ROUNDTRIP
360
11B9F
  0
DICTIONARY
  5
11B9C
330
B0EE
100
AcDbDictionary
280
     1
281
     1
  3
ACAD_XREC_ROUNDTRIP
360
11B9D
  0
DICTIONARY
  5
11BA0
330
B0F0
100
AcDbDictionary
280
     1
281
     1
  3
ACAD_XREC_ROUNDTRIP
360
11BA1
  0
DICTIONARY
  5
B5B5
330
AABA
100
AcDbDictionary
280
     1
281
     1
  3
ACAD_ROUNDTRIP_2008_TABLESTYLE_CELLSTYLEMAP
360
11B98
  3
ACAD_XREC_ROUNDTRIP
360
11B9B
  0
XRECORD
  5
11B9F
102
{ACAD_REACTORS
330
11B9E
102
}
330
11B9E
100
AcDbXrecord
280
     1
102
MATERIAL
148
0.0
149
0.0
149
0.0
 93
        0
 94
       63
282
     0
 72
     1
 77
     1
171
     1
175
     1
179
     1
273
     0
  0
XRECORD
  5
11B9D
102
{ACAD_REACTORS
330
11B9C
102
}
330
11B9C
100
AcDbXrecord
280
     1
102
MATERIAL
148
0.0
149
0.0
149
0.0
 93
        0
 94
       63
282
     0
 72
     1
 77
     1
171
     1
175
     1
179
     1
273
     0
  0
XRECORD
  5
11BA1
102
{ACAD_REACTORS
330
11BA0
102
}
330
11BA0
100
AcDbXrecord
280
     1
102
MATERIAL
148
0.0
149
0.0
149
0.0
 93
        0
 94
       63
282
     0
 72
     1
 77
     1
171
     1
175
     1
179
     1
273
     0
  0
CELLSTYLEMAP
  5
11B98
102
{ACAD_REACTORS
330
B5B5
102
}
330
B5B5
100
AcDbCellStyleMap
 90
        3
300
CELLSTYLE
  1
TABLEFORMAT_BEGIN
 90
        5
170
     1
 91
        0
 92
    32768
 62
   257
 93
        1
300
CONTENTFORMAT
  1
CONTENTFORMAT_BEGIN
 90
        0
 91
        0
 92
        4
 93
        0
300

 40
0.0
140
1.0
 94
        5
 62
     0
340
11
144
6.0
309
CONTENTFORMAT_END
171
     1
301
MARGIN
  1
CELLMARGIN_BEGIN
 40
1.5
 40
1.5
 40
1.5
 40
1.5
 40
0.18
 40
0.18
309
CELLMARGIN_END
 94
        6
 95
        1
302
GRIDFORMAT
  1
GRIDFORMAT_BEGIN
 90
        0
 91
        1
 62
     0
 92
       -2
340
0
 93
        0
 40
0.045
309
GRIDFORMAT_END
 95
        2
302
GRIDFORMAT
  1
GRIDFORMAT_BEGIN
 90
        0
 91
        1
 62
     0
 92
       -2
340
0
 93
        0
 40
0.045
309
GRIDFORMAT_END
 95
        4
302
GRIDFORMAT
  1
GRIDFORMAT_BEGIN
 90
        0
 91
        1
 62
     0
 92
       -2
340
0
 93
        0
 40
0.045
309
GRIDFORMAT_END
 95
        8
302
GRIDFORMAT
  1
GRIDFORMAT_BEGIN
 90
        0
 91
        1
 62
     0
 92
       -2
340
0
 93
        0
 40
0.045
309
GRIDFORMAT_END
 95
       16
302
GRIDFORMAT
  1
GRIDFORMAT_BEGIN
 90
        0
 91
        1
 62
     0
 92
       -2
340
0
 93
        0
 40
0.045
309
GRIDFORMAT_END
 95
       32
302
GRIDFORMAT
  1
GRIDFORMAT_BEGIN
 90
        0
 91
        1
 62
     0
 92
       -2
340
0
 93
        0
 40
0.045
309
GRIDFORMAT_END
309
TABLEFORMAT_END
  1
CELLSTYLE_BEGIN
 90
        1
 91
        1
300
_TITLE
309
CELLSTYLE_END
300
CELLSTYLE
  1
TABLEFORMAT_BEGIN
 90
        5
170
     1
 91
        0
 92
        0
 62
   257
 93
        1
300
CONTENTFORMAT
  1
CONTENTFORMAT_BEGIN
 90
        0
 91
        0
 92
        4
 93
        0
300

 40
0.0
140
1.0
 94
        5
 62
     0
340
11
144
4.5
309
CONTENTFORMAT_END
171
     1
301
MARGIN
  1
CELLMARGIN_BEGIN
 40
1.5
 40
1.5
 40
1.5
 40
1.5
 40
0.18
 40
0.18
309
CELLMARGIN_END
 94
        6
 95
        1
302
GRIDFORMAT
  1
GRIDFORMAT_BEGIN
 90
        0
 91
        1
 62
     0
 92
       -2
340
0
 93
        0
 40
0.045
309
GRIDFORMAT_END
 95
        2
302
GRIDFORMAT
  1
GRIDFORMAT_BEGIN
 90
        0
 91
        1
 62
     0
 92
       -2
340
0
 93
        0
 40
0.045
309
GRIDFORMAT_END
 95
        4
302
GRIDFORMAT
  1
GRIDFORMAT_BEGIN
 90
        0
 91
        1
 62
     0
 92
       -2
340
0
 93
        0
 40
0.045
309
GRIDFORMAT_END
 95
        8
302
GRIDFORMAT
  1
GRIDFORMAT_BEGIN
 90
        0
 91
        1
 62
     0
 92
       -2
340
0
 93
        0
 40
0.045
309
GRIDFORMAT_END
 95
       16
302
GRIDFORMAT
  1
GRIDFORMAT_BEGIN
 90
        0
 91
        1
 62
     0
 92
       -2
340
0
 93
        0
 40
0.045
309
GRIDFORMAT_END
 95
       32
302
GRIDFORMAT
  1
GRIDFORMAT_BEGIN
 90
        0
 91
        1
 62
     0
 92
       -2
340
0
 93
        0
 40
0.045
309
GRIDFORMAT_END
309
TABLEFORMAT_END
  1
CELLSTYLE_BEGIN
 90
        2
 91
        1
300
_HEADER
309
CELLSTYLE_END
300
CELLSTYLE
  1
TABLEFORMAT_BEGIN
 90
        5
170
     1
 91
        0
 92
        0
 62
   257
 93
        1
300
CONTENTFORMAT
  1
CONTENTFORMAT_BEGIN
 90
        0
 91
        0
 92
        4
 93
        0
300

 40
0.0
140
1.0
 94
        2
 62
     0
340
11
144
4.5
309
CONTENTFORMAT_END
171
     1
301
MARGIN
  1
CELLMARGIN_BEGIN
 40
1.5
 40
1.5
 40
1.5
 40
1.5
 40
0.18
 40
0.18
309
CELLMARGIN_END
 94
        6
 95
        1
302
GRIDFORMAT
  1
GRIDFORMAT_BEGIN
 90
        0
 91
        1
 62
     0
 92
       -2
340
0
 93
        0
 40
0.045
309
GRIDFORMAT_END
 95
        2
302
GRIDFORMAT
  1
GRIDFORMAT_BEGIN
 90
        0
 91
        1
 62
     0
 92
       -2
340
0
 93
        0
 40
0.045
309
GRIDFORMAT_END
 95
        4
302
GRIDFORMAT
  1
GRIDFORMAT_BEGIN
 90
        0
 91
        1
 62
     0
 92
       -2
340
0
 93
        0
 40
0.045
309
GRIDFORMAT_END
 95
        8
302
GRIDFORMAT
  1
GRIDFORMAT_BEGIN
 90
        0
 91
        1
 62
     0
 92
       -2
340
0
 93
        0
 40
0.045
309
GRIDFORMAT_END
 95
       16
302
GRIDFORMAT
  1
GRIDFORMAT_BEGIN
 90
        0
 91
        1
 62
     0
 92
       -2
340
0
 93
        0
 40
0.045
309
GRIDFORMAT_END
 95
       32
302
GRIDFORMAT
  1
GRIDFORMAT_BEGIN
 90
        0
 91
        1
 62
     0
 92
       -2
340
0
 93
        0
 40
0.045
309
GRIDFORMAT_END
309
TABLEFORMAT_END
  1
CELLSTYLE_BEGIN
 90
        3
 91
        2
300
_DATA
309
CELLSTYLE_END
  0
XRECORD
  5
11B9B
102
{ACAD_REACTORS
330
B5B5
102
}
330
B5B5
100
AcDbXrecord
280
     1
102
ACAD_ROUNDTRIP_PRE2007_TABLESTYLE
 90
        4
 91
        0
  1

 92
        4
 93
        0
  2

 94
        4
 95
        0
  3

  0
ENDSEC
  0
EOF
