  0
SECTION
  2
HEADER
  9
$ACADVER
  1
AC1015
  9
$ACADMAINTVER
 70
    20
  9
$DWGCODEPAGE
  3
ANSI_932
  9
$INSBASE
 10
0.0
 20
0.0
 30
0.0
  9
$EXTMIN
 10
419.9859030372302
 20
86.97999652030409
 30
-0.0015258207003583
  9
$EXTMAX
 10
717.0218827729367
 20
297.0090644122207
 30
0.0000000349246037
  9
$LIMMIN
 10
0.0
 20
0.0
  9
$LIMMAX
 10
420.0
 20
297.0
  9
$ORTHOMODE
 70
     0
  9
$REGENMODE
 70
     1
  9
$FILLMODE
 70
     1
  9
$QTEXTMODE
 70
     0
  9
$MIRRTEXT
 70
     0
  9
$LTSCALE
 40
1.0
  9
$ATTMODE
 70
     1
  9
$TEXTSIZE
 40
3.2
  9
$TRACEWID
 40
1.0
  9
$TEXTSTYLE
  7
STANDARD
  9
$CLAYER
  8
AM_0
  9
$CELTYPE
  6
ByLayer
  9
$CECOLOR
 62
   256
  9
$CELTSCALE
 40
10.0
  9
$DISPSILH
 70
     0
  9
$DIMSCALE
 40
1.0
  9
$DIMASZ
 40
1.0
  9
$DIMEXO
 40
1.0
  9
$DIMDLI
 40
10.0
  9
$DIMRND
 40
0.0
  9
$DIMDLE
 40
0.0
  9
$DIMEXE
 40
1.0
  9
$DIMTP
 40
0.1
  9
$DIMTM
 40
0.1
  9
$DIMTXT
 40
3.5
  9
$DIMCEN
 40
0.0
  9
$DIMTSZ
 40
0.0
  9
$DIMTOL
 70
     0
  9
$DIMLIM
 70
     0
  9
$DIMTIH
 70
     0
  9
$DIMTOH
 70
     0
  9
$DIMSE1
 70
     0
  9
$DIMSE2
 70
     0
  9
$DIMTAD
 70
     1
  9
$DIMZIN
 70
     8
  9
$DIMBLK
  1

  9
$DIMASO
 70
     1
  9
$DIMSHO
 70
     1
  9
$DIMPOST
  1

  9
$DIMAPOST
  1
"
  9
$DIMALT
 70
     0
  9
$DIMALTD
 70
     2
  9
$DIMALTF
 40
0.0393701
  9
$DIMLFAC
 40
1.0
  9
$DIMTOFL
 70
     1
  9
$DIMTVP
 40
0.0
  9
$DIMTIX
 70
     0
  9
$DIMSOXD
 70
     0
  9
$DIMSAH
 70
     0
  9
$DIMBLK1
  1

  9
$DIMBLK2
  1

  9
$DIMSTYLE
  2
SYS
  9
$DIMCLRD
 70
   256
  9
$DIMCLRE
 70
   256
  9
$DIMCLRT
 70
     7
  9
$DIMTFAC
 40
0.71
  9
$DIMGAP
 40
1.5
  9
$DIMJUST
 70
     0
  9
$DIMSD1
 70
     0
  9
$DIMSD2
 70
     0
  9
$DIMTOLJ
 70
     0
  9
$DIMTZIN
 70
     8
  9
$DIMALTZ
 70
     0
  9
$DIMALTTZ
 70
     0
  9
$DIMUPT
 70
     0
  9
$DIMDEC
 70
     2
  9
$DIMTDEC
 70
     2
  9
$DIMALTU
 70
     2
  9
$DIMALTTD
 70
     2
  9
$DIMTXSTY
  7
STANDARD
  9
$DIMAUNIT
 70
     0
  9
$DIMADEC
 70
     0
  9
$DIMALTRND
 40
0.0
  9
$DIMAZIN
 70
     2
  9
$DIMDSEP
 70
    46
  9
$DIMATFIT
 70
     3
  9
$DIMFRAC
 70
     0
  9
$DIMLDRBLK
  1

  9
$DIMLUNIT
 70
     2
  9
$DIMLWD
 70
    -1
  9
$DIMLWE
 70
    -1
  9
$DIMTMOVE
 70
     0
  9
$LUNITS
 70
     2
  9
$LUPREC
 70
     2
  9
$SKETCHINC
 40
1.0
  9
$FILLETRAD
 40
1.0
  9
$AUNITS
 70
     0
  9
$AUPREC
 70
     0
  9
$MENU
  1
.
  9
$ELEVATION
 40
0.0
  9
$PELEVATION
 40
0.0
  9
$THICKNESS
 40
0.0
  9
$LIMCHECK
 70
     0
  9
$CHAMFERA
 40
0.0
  9
$CHAMFERB
 40
0.0
  9
$CHAMFERC
 40
20.0
  9
$CHAMFERD
 40
0.0
  9
$SKPOLY
 70
     0
  9
$TDCREATE
 40
2454123.447246817
  9
$TDUCREATE
 40
2454123.072246817
  9
$TDUPDATE
 40
2456722.728864109
  9
$TDUUPDATE
 40
2456722.353864109
  9
$TDINDWG
 40
0.1596364699
  9
$TDUSRTIMER
 40
0.1596364699
  9
$USRTIMER
 70
     1
  9
$ANGBASE
 50
0.0
  9
$ANGDIR
 70
     0
  9
$PDMODE
 70
     0
  9
$PDSIZE
 40
-3.0
  9
$PLINEWID
 40
0.0
  9
$SPLFRAME
 70
     0
  9
$SPLINETYPE
 70
     6
  9
$SPLINESEGS
 70
     8
  9
$HANDSEED
  5
F126
  9
$SURFTAB1
 70
     6
  9
$SURFTAB2
 70
     6
  9
$SURFTYPE
 70
     6
  9
$SURFU
 70
     6
  9
$SURFV
 70
     6
  9
$UCSBASE
  2

  9
$UCSNAME
  2

  9
$UCSORG
 10
0.0
 20
0.0
 30
0.0
  9
$UCSXDIR
 10
1.0
 20
0.0
 30
0.0
  9
$UCSYDIR
 10
0.0
 20
1.0
 30
0.0
  9
$UCSORTHOREF
  2

  9
$UCSORTHOVIEW
 70
     0
  9
$UCSORGTOP
 10
0.0
 20
0.0
 30
0.0
  9
$UCSORGBOTTOM
 10
0.0
 20
0.0
 30
0.0
  9
$UCSORGLEFT
 10
0.0
 20
0.0
 30
0.0
  9
$UCSORGRIGHT
 10
0.0
 20
0.0
 30
0.0
  9
$UCSORGFRONT
 10
0.0
 20
0.0
 30
0.0
  9
$UCSORGBACK
 10
0.0
 20
0.0
 30
0.0
  9
$PUCSBASE
  2

  9
$PUCSNAME
  2

  9
$PUCSORG
 10
0.0
 20
0.0
 30
0.0
  9
$PUCSXDIR
 10
1.0
 20
0.0
 30
0.0
  9
$PUCSYDIR
 10
0.0
 20
1.0
 30
0.0
  9
$PUCSORTHOREF
  2

  9
$PUCSORTHOVIEW
 70
     0
  9
$PUCSORGTOP
 10
0.0
 20
0.0
 30
0.0
  9
$PUCSORGBOTTOM
 10
0.0
 20
0.0
 30
0.0
  9
$PUCSORGLEFT
 10
0.0
 20
0.0
 30
0.0
  9
$PUCSORGRIGHT
 10
0.0
 20
0.0
 30
0.0
  9
$PUCSORGFRONT
 10
0.0
 20
0.0
 30
0.0
  9
$PUCSORGBACK
 10
0.0
 20
0.0
 30
0.0
  9
$USERI1
 70
     0
  9
$USERI2
 70
     0
  9
$USERI3
 70
     0
  9
$USERI4
 70
     0
  9
$USERI5
 70
     0
  9
$USERR1
 40
0.0
  9
$USERR2
 40
0.0
  9
$USERR3
 40
0.0
  9
$USERR4
 40
0.0
  9
$USERR5
 40
0.0
  9
$WORLDVIEW
 70
     1
  9
$SHADEDGE
 70
     3
  9
$SHADEDIF
 70
    70
  9
$TILEMODE
 70
     1
  9
$MAXACTVP
 70
    64
  9
$PINSBASE
 10
0.0
 20
0.0
 30
0.0
  9
$PLIMCHECK
 70
     0
  9
$PEXTMIN
 10
1.000000000000000E+20
 20
1.000000000000000E+20
 30
1.000000000000000E+20
  9
$PEXTMAX
 10
-1.000000000000000E+20
 20
-1.000000000000000E+20
 30
-1.000000000000000E+20
  9
$PLIMMIN
 10
-3.17498779296875
 20
-3.174999952316284
  9
$PLIMMAX
 10
293.4970092773438
 20
206.692492723465
  9
$UNITMODE
 70
     0
  9
$VISRETAIN
 70
     1
  9
$PLINEGEN
 70
     0
  9
$PSLTSCALE
 70
     1
  9
$TREEDEPTH
 70
  3020
  9
$CMLSTYLE
  2
Standard
  9
$CMLJUST
 70
     0
  9
$CMLSCALE
 40
20.0
  9
$PROXYGRAPHICS
 70
     1
  9
$MEASUREMENT
 70
     1
  9
$CELWEIGHT
370
    -1
  9
$ENDCAPS
280
     0
  9
$JOINSTYLE
280
     0
  9
$LWDISPLAY
290
     1
  9
$INSUNITS
 70
     4
  9
$HYPERLINKBASE
  1

  9
$STYLESHEET
  1
monochrome.ctb
  9
$XEDIT
290
     1
  9
$CEPSNTYPE
380
     0
  9
$PSTYLEMODE
290
     1
  9
$FINGERPRINTGUID
  2
{85A85AB9-09C0-4C05-9FB8-B4F7807E4A17}
  9
$VERSIONGUID
  2
{B58428EA-B822-4940-A249-62F53EE2A3AC}
  9
$EXTNAMES
290
     1
  9
$PSVPSCALE
 40
0.0
  9
$OLESTARTUP
290
     0
  0
ENDSEC
  0
SECTION
  2
CLASSES
  0
CLASS
  1
ACDBDICTIONARYWDFLT
  2
AcDbDictionaryWithDefault
  3
ObjectDBX Classes
 90
        0
280
     0
281
     0
  0
CLASS
  1
ACDBPLACEHOLDER
  2
AcDbPlaceHolder
  3
ObjectDBX Classes
 90
        0
280
     0
281
     0
  0
CLASS
  1
LAYOUT
  2
AcDbLayout
  3
ObjectDBX Classes
 90
        0
280
     0
281
     0
  0
CLASS
  1
AMGSETTINGSOBJ
  2
AmgSettingsObj
  3
"AcadM|Product Description: AutoCAD Mechanical|Company: Autodesk"
 90
        0
280
     0
281
     0
  0
CLASS
  1
ACME_DOCUMENT
  2
AcMeDbDoc
  3
AcMeServices
 90
        0
280
     0
281
     0
  0
CLASS
  1
ACMESCOPE
  2
AcMeScope
  3
AcMeServices
 90
        0
280
     0
281
     0
  0
CLASS
  1
ACMECOMMANDHISTORY
  2
AcMeCommandHistory
  3
AcMeServices
 90
        0
280
     0
281
     0
  0
CLASS
  1
DICTIONARYVAR
  2
AcDbDictionaryVar
  3
ObjectDBX Classes
 90
        0
280
     0
281
     0
  0
CLASS
  1
ACIMSYSVARMAN
  2
AcImSysVarManager
  3
AcMeServices
 90
        0
280
     0
281
     0
  0
CLASS
  1
ACIMREALSYSVAR
  2
AcImRealSysVar
  3
AcMeServices
 90
        0
280
     0
281
     0
  0
CLASS
  1
ACIMINTSYSVAR
  2
AcImIntSysVar
  3
AcMeServices
 90
        0
280
     0
281
     0
  0
CLASS
  1
ACMEDRAWINGMAN
  2
AcMeDrawingMan
  3
AcMeServices
 90
        0
280
     0
281
     0
  0
CLASS
  1
ACMEVIEW
  2
AcMeView
  3
AcMeServices
 90
        0
280
     0
281
     0
  0
CLASS
  1
ACDBENTITYCACHE
  2
AcMeEntityCache
  3
AcMeServices
 90
        0
280
     0
281
     0
  0
CLASS
  1
GSMANAGER
  2
AcMeGSManager
  3
AcMeServices
 90
        0
280
     0
281
     0
  0
CLASS
  1
AMDTINTERNALREACTOR
  2
AmdtInternalReactor
  3
AcMeServices
 90
        0
280
     0
281
     0
  0
CLASS
  1
ACMESTATEMGR
  2
AcMeStateMgr
  3
AcMeServices
 90
        0
280
     0
281
     0
  0
CLASS
  1
ACGREFMASTER
  2
AcGrefMaster
  3
AcAttribServices
 90
        0
280
     0
281
     0
  0
CLASS
  1
ACME_DATABASE
  2
AcMeDbDatabase
  3
AcMeServices
 90
        0
280
     0
281
     0
  0
CLASS
  1
ACRFINSADJUSTERMGR
  2
AcRfInsAdjusterMgr
  3
AcMeServices
 90
        0
280
     0
281
     0
  0
CLASS
  1
ACGREFACADMASTER
  2
AcGrefacadMaster
  3
AcGrefServices
 90
        0
280
     0
281
     0
  0
CLASS
  1
AMIMASTER
  2
AmiMaster
  3
AmiServices
 90
        0
280
     0
281
     0
  0
CLASS
  1
ACMDATADICTIONARY
  2
AcmDataDictionary
  3
"AcmSymBB|Product Description: AutoCAD Mechanical|Company: Autodesk"
 90
        0
280
     0
281
     0
  0
CLASS
  1
ACMDATAENTRYBLOCK
  2
AcmDataEntryBlock
  3
"AcmSymBB|Product Description: AutoCAD Mechanical|Company: Autodesk"
 90
        0
280
     0
281
     0
  0
CLASS
  1
ACIMSTRSYSVAR
  2
AcImStrSysVar
  3
AcMeServices
 90
        0
280
     0
281
     0
  0
CLASS
  1
ACMSTANDARDISO
  2
AcmStandardISO
  3
"Amdt_StdImp|Product Description: AutoCAD Mechanical|Company: Autodesk"
 90
        0
280
     0
281
     0
  0
CLASS
  1
AMGOBJPROPCFG
  2
AmgObjPropCfg
  3
"AmgLay|Product Description: AutoCAD Mechanical|Company: Autodesk"
 90
        1
280
     0
281
     0
  0
CLASS
  1
AMDTEDGESTANDARDISO
  2
AmdtEdgeStdISO
  3
"Amdt_StdImp|Product Description: AutoCAD Mechanical|Company: Autodesk"
 90
        0
280
     0
281
     0
  0
CLASS
  1
ACMSURFSTANDARDISO
  2
AcmSurfTextStdISO
  3
"Amdt_StdImp|Product Description: AutoCAD Mechanical|Company: Autodesk"
 90
        0
280
     0
281
     0
  0
CLASS
  1
ACMFCFSTANDARDISO
  2
AcmFCFStdISO
  3
"Amdt_StdImp|Product Description: AutoCAD Mechanical|Company: Autodesk"
 90
        0
280
     0
281
     0
  0
CLASS
  1
ACMWELDSTANDARDISO
  2
AcmWeldingStdISO
  3
"Amdt_StdImp|Product Description: AutoCAD Mechanical|Company: Autodesk"
 90
        0
280
     0
281
     0
  0
CLASS
  1
ACMIDSTANDARDISO
  2
AcmIdStdISO
  3
"Amdt_StdImp|Product Description: AutoCAD Mechanical|Company: Autodesk"
 90
        0
280
     0
281
     0
  0
CLASS
  1
ACMDATUMSTANDARDISO
  2
AcmDatumStdISO
  3
"Amdt_StdImp|Product Description: AutoCAD Mechanical|Company: Autodesk"
 90
        0
280
     0
281
     0
  0
CLASS
  1
ACMBOMSTANDARDISO
  2
AcmBOMStdISO
  3
"Amdt_StdImp|Product Description: AutoCAD Mechanical|Company: Autodesk"
 90
        0
280
     0
281
     0
  0
CLASS
  1
ACMDETAILSTANDARDISO
  2
AmdtDetailSymStdISO
  3
"Amdt_StdImp|Product Description: AutoCAD Mechanical|Company: Autodesk"
 90
        0
280
     0
281
     0
  0
CLASS
  1
ACMSECTIONSTANDARDISO
  2
AmdtSectionSymStdISO
  3
"Amdt_StdImp|Product Description: AutoCAD Mechanical|Company: Autodesk"
 90
        0
280
     0
281
     0
  0
CLASS
  1
ACMCENTERLINESTANDARDISO
  2
AmdtCenterLineStdISO
  3
"Amdt_StdImp|Product Description: AutoCAD Mechanical|Company: Autodesk"
 90
        0
280
     0
281
     0
  0
CLASS
  1
ACAMGLAYSTD
  2
AcAmgLayStd
  3
"AmgLay|Product Description: AutoCAD Mechanical|Company: Autodesk"
 90
        0
280
     0
281
     0
  0
CLASS
  1
ACAMGDIMSTD
  2
AcAmgDimStd
  3
"AmgDim|Product Description: AutoCAD Mechanical|Company: Autodesk"
 90
        0
280
     0
281
     0
  0
CLASS
  1
ACAMGTITLESTD
  2
AcAmgTitleStd
  3
"AmgTitle|Product Description: AutoCAD Mechanical|Company: Autodesk"
 90
        0
280
     0
281
     0
  0
CLASS
  1
ACAMGFILTERDAT
  2
AcAmgFilterDat
  3
"AcadM|Product Description: AutoCAD Mechanical|Company: Autodesk"
 90
        0
280
     0
281
     0
  0
CLASS
  1
LAYER_INDEX
  2
AcDbLayerIndex
  3
ObjectDBX Classes
 90
    32768
280
     0
281
     0
  0
CLASS
  1
IDBUFFER
  2
AcDbIdBuffer
  3
ObjectDBX Classes
 90
    32768
280
     0
281
     0
  0
CLASS
  1
PLOTSETTINGS
  2
AcDbPlotSettings
  3
ObjectDBX Classes
 90
        0
280
     0
281
     0
  0
CLASS
  1
AMDTFORMULAUPDATEDISPATCHER
  2
AmdtFormulaUpdateDispatcher
  3
AcMeServices
 90
        0
280
     0
281
     0
  0
CLASS
  1
ACMSTANDARDANSI
  2
AcmStandardANSI
  3
"Amdt_StdImp|Product Description: AutoCAD Mechanical|Company: Autodesk"
 90
        0
280
     0
281
     0
  0
CLASS
  1
ACMSURFSTANDARDANSI
  2
AcmSurfTextStdANSI
  3
"Amdt_StdImp|Product Description: AutoCAD Mechanical|Company: Autodesk"
 90
        0
280
     0
281
     0
  0
CLASS
  1
ACMFCFSTANDARDANSI
  2
AcmFCFStdANSI
  3
"Amdt_StdImp|Product Description: AutoCAD Mechanical|Company: Autodesk"
 90
        0
280
     0
281
     0
  0
CLASS
  1
ACMWELDSTANDARDANSI
  2
AcmWeldingStdANSI
  3
"Amdt_StdImp|Product Description: AutoCAD Mechanical|Company: Autodesk"
 90
        0
280
     0
281
     0
  0
CLASS
  1
ACMIDSTANDARDANSI
  2
AcmIdStdANSI
  3
"Amdt_StdImp|Product Description: AutoCAD Mechanical|Company: Autodesk"
 90
        0
280
     0
281
     0
  0
CLASS
  1
ACMDATUMSTANDARDANSI
  2
AcmDatumStdANSI
  3
"Amdt_StdImp|Product Description: AutoCAD Mechanical|Company: Autodesk"
 90
        0
280
     0
281
     0
  0
CLASS
  1
ACMBOMSTANDARDANSI
  2
AcmBOMStdANSI
  3
"Amdt_StdImp|Product Description: AutoCAD Mechanical|Company: Autodesk"
 90
        0
280
     0
281
     0
  0
CLASS
  1
ACMDETAILSTANDARDANSI
  2
AmdtDetailSymStdANSI
  3
"Amdt_StdImp|Product Description: AutoCAD Mechanical|Company: Autodesk"
 90
        0
280
     0
281
     0
  0
CLASS
  1
ACMSECTIONSTANDARDANSI
  2
AmdtSectionSymStdANSI
  3
"Amdt_StdImp|Product Description: AutoCAD Mechanical|Company: Autodesk"
 90
        0
280
     0
281
     0
  0
CLASS
  1
ACMCENTERLINESTANDARDANSI
  2
AmdtCenterLineStdANSI
  3
"Amdt_StdImp|Product Description: AutoCAD Mechanical|Company: Autodesk"
 90
        0
280
     0
281
     0
  0
CLASS
  1
ACMBOM
  2
AcmBom
  3
"AcmSymBB|Product Description: AutoCAD Mechanical|Company: Autodesk"
 90
        0
280
     0
281
     0
  0
CLASS
  1
ACMDATAENTRYPART
  2
AcmDataEntryPart
  3
"AcmSymBB|Product Description: AutoCAD Mechanical|Company: Autodesk"
 90
    32768
280
     0
281
     0
  0
CLASS
  1
ACMPARTREF
  2
AcmPartRef
  3
"AcmSymBB|Product Description: AutoCAD Mechanical|Company: Autodesk"
 90
    35839
280
     0
281
     1
  0
CLASS
  1
ACDBCIRCARCRES
  2
AcDbCircArcRes
  3
AcGrefServices
 90
    32768
280
     0
281
     0
  0
CLASS
  1
ACMBOMROW
  2
AcmBomRow
  3
"AcmSymBB|Product Description: AutoCAD Mechanical|Company: Autodesk"
 90
    32768
280
     0
281
     0
  0
CLASS
  1
ACMBALLOON
  2
AcmBalloon
  3
"AcmSymBB|Product Description: AutoCAD Mechanical|Company: Autodesk"
 90
    35839
280
     0
281
     1
  0
CLASS
  1
AMDTNOTE
  2
AmdtNote
  3
"AcmSymBB|Product Description: AutoCAD Mechanical|Company: Autodesk"
 90
    35839
280
     0
281
     1
  0
CLASS
  1
STDPART2D
  2
AmgStdPart
  3
"g3vace|Class: AmgStdPart|Product Description: AutoCAD Mechanical|Company: Autodesk"
 90
    35839
280
     0
281
     1
  0
CLASS
  1
ACDBSTDPARTRES_LINE
  2
AcDbStdPartRes_Line
  3
"g3vace|Class: AcDbStdPartRes_Line|Product Description: AutoCAD Mechanical|Company: Autodesk"
 90
    32768
280
     0
281
     0
  0
CLASS
  1
ACMDATAENTRY
  2
AcmDataEntry
  3
"AcmSymBB|Product Description: AutoCAD Mechanical|Company: Autodesk"
 90
        0
280
     0
281
     0
  0
CLASS
  1
ACDBOPPOLYLINERES
  2
AcDbOpPolylineRes
  3
AcGrefServices
 90
    32768
280
     0
281
     0
  0
CLASS
  1
ACMPARTLIST
  2
AcmPartList
  3
"AcmSymBB|Product Description: AutoCAD Mechanical|Company: Autodesk"
 90
    35839
280
     0
281
     1
  0
CLASS
  1
ACDBLINERES
  2
AcDbLineRes
  3
AcGrefServices
 90
    32768
280
     0
281
     0
  0
CLASS
  1
ACRFINSADJ
  2
AcRfInsAdjuster
  3
AcMeServices
 90
    32768
280
     0
281
     0
  0
CLASS
  1
AM_DRAWING_MGR
  2
AcDmDwgMgr
  3
AcMechDwgViewMgmt
 90
        0
280
     0
281
     0
  0
CLASS
  1
AM_DWG_DOCUMENT
  2
AcDmDwgDocument
  3
AcMechDwgViewMgmt
 90
        0
280
     0
281
     0
  0
CLASS
  1
AM_DWG_SHEET
  2
AcDmSheet
  3
AcMechDwgViewMgmt
 90
        0
280
     0
281
     0
  0
CLASS
  1
AM_VIEWDIMPARMAP
  2
AcDmViewDimParMap
  3
AcMechDwgViewMgmt
 90
        0
280
     0
281
     0
  0
CLASS
  1
AM_DWGMGR_NAME
  2
AcDmDwgMgrName
  3
AcMechDwgViewMgmt
 90
        0
280
     0
281
     0
  0
CLASS
  1
AMDTMENUSTATEMGR
  2
AmdtMenuStateMgr
  3
McadcomServices
 90
        0
280
     0
281
     0
  0
CLASS
  1
AMDTMCOMMENUSTATE
  2
AmdtMcomMenuState
  3
McadcomServices
 90
        0
280
     0
281
     0
  0
CLASS
  1
ASAPP
  2
AcAsAppObject
  3
AutoSurfServices
 90
        0
280
     0
281
     0
  0
CLASS
  1
IM_STATIC_MAN
  2
AcImStaticVarManager
  3
AcMeServices
 90
        0
280
     0
281
     0
  0
CLASS
  1
ACIMDBLSTATICVAR
  2
AcImDblStaticVar
  3
AcMeServices
 90
        0
280
     0
281
     0
  0
CLASS
  1
ACIMSTRSTATICVAR
  2
AcImStrStaticVar
  3
AcMeServices
 90
        0
280
     0
281
     0
  0
CLASS
  1
ACIMINTSTATICVAR
  2
AcImIntStaticVar
  3
AcMeServices
 90
        0
280
     0
281
     0
  0
CLASS
  1
ACASGREFMASTER
  2
AcAsGrefMaster
  3
AutoSurfResolverServices
 90
        0
280
     0
281
     0
  0
CLASS
  1
ACADGREFMODULE
  2
AcAdGrefModule
  3
AdGrefServices
 90
        0
280
     0
281
     0
  0
CLASS
  1
AMDTMAPISURFMOUDULE
  2
AmdtMApiSurfModule
  3
MApiSurfServices
 90
        0
280
     0
281
     0
  0
CLASS
  1
MAPIAMMOUDLE
  2
MApiAmModule
  3
MApiAmServices
 90
        0
280
     0
281
     0
  0
CLASS
  1
AMDTADMENUSTATE
  2
AmdtAdMenuState
  3
DesignerServices
 90
        0
280
     0
281
     0
  0
CLASS
  1
ADAPPL
  2
AcAdAppl
  3
DesignerServices
 90
        0
280
     0
281
     0
  0
CLASS
  1
DEPMGR
  2
AcAdDepMgr
  3
DesignerServices
 90
        0
280
     0
281
     0
  0
CLASS
  1
PARAMMGR
  2
AcAdParamMgr
  3
DesignerServices
 90
        0
280
     0
281
     0
  0
CLASS
  1
PARAMSCOPE
  2
AcAdParamScope
  3
DesignerServices
 90
        0
280
     0
281
     0
  0
CLASS
  1
NAMEDAPPL
  2
AcAdNamedAppl
  3
DesignerServices
 90
        0
280
     0
281
     0
  0
CLASS
  1
ADHNTMPLT
  2
AdHoleNoteTemplateMgr
  3
DesignerServices
 90
    32768
280
     0
281
     0
  0
CLASS
  1
AM_HNTEMPLATE_MGR_NAME
  2
AdHoleNoteTemplateMgrName
  3
DesignerServices
 90
    32768
280
     0
281
     0
  0
CLASS
  1
AMDTDMMENUSTATE
  2
AmdtDmMenuState
  3
AcMechDwgViewMgmt
 90
        0
280
     0
281
     0
  0
CLASS
  1
MAPIADMODULE
  2
MApiAdModule
  3
MApiAdServices
 90
        0
280
     0
281
     0
  0
CLASS
  1
AMDTAMMENUSTATE
  2
AmdtAmMenuState
  3
DesignerAssemblies
 90
        0
280
     0
281
     0
  0
CLASS
  1
ACAMPROJECT
  2
AcAmProject
  3
DesignerAssemblies
 90
        0
280
     0
281
     0
  0
CLASS
  1
ACAMGRCOMPDEF
  2
AcAmGrCompDef
  3
DesignerAssemblies
 90
        0
280
     0
281
     0
  0
CLASS
  1
ACCMCONTEXT
  2
AcCmContext
  3
DesignerAssemblies
 90
        0
280
     0
281
     0
  0
CLASS
  1
ACAMCOMPDEF
  2
AcAmCompDef
  3
DesignerAssemblies
 90
        0
280
     0
281
     0
  0
CLASS
  1
ACAMCOMPDEFMGR
  2
AcAmCompDefMgr
  3
DesignerAssemblies
 90
        0
280
     0
281
     0
  0
CLASS
  1
AMCONTEXTMGR
  2
AcAmContextMgr
  3
DesignerAssemblies
 90
        0
280
     0
281
     0
  0
CLASS
  1
ACAMCONTEXTMODELER
  2
AcAmContextModeler
  3
DesignerAssemblies
 90
        0
280
     0
281
     0
  0
CLASS
  1
CATALOGSTATE
  2
AcAmCatalogState
  3
DesignerAssemblies
 90
        0
280
     0
281
     0
  0
CLASS
  1
ACAMGRCOMPDEFSET
  2
AcAmGrCompDefSet
  3
DesignerAssemblies
 90
        0
280
     0
281
     0
  0
CLASS
  1
AMDTBROWSERDBTAB
  2
AmdtBrowserDbTab
  3
McadcomServices
 90
        0
280
     0
281
     0
  0
CLASS
  1
CBROWSERAPPOBJECT
  2
CBrowserAppObject
  3
McadcomServices
 90
        0
280
     0
281
     0
  0
CLASS
  1
DM_PLACEHOLDER
  2
AcDmSelsetPlaceholder
  3
AcMechDwgViewMgmt
 90
        0
280
     0
281
     0
  0
CLASS
  1
ACMPICKOBJ
  2
AcmPickEnt
  3
"AcmSymBB|Product Description: AutoCAD Mechanical|Company: Autodesk"
 90
    32768
280
     0
281
     1
  0
CLASS
  1
ACMNOTESTANDARDISO
  2
AmdtNoteStdISO
  3
"Amdt_StdImp|Product Description: AutoCAD Mechanical|Company: Autodesk"
 90
        0
280
     0
281
     0
  0
CLASS
  1
ACMNOTESTANDARDANSI
  2
AmdtNoteStdANSI
  3
"Amdt_StdImp|Product Description: AutoCAD Mechanical|Company: Autodesk"
 90
        0
280
     0
281
     0
  0
CLASS
  1
ACMTHREADLINESTANDARDISO
  2
AmdtThreadLineStdISO
  3
"Amdt_StdImp|Product Description: AutoCAD Mechanical|Company: Autodesk"
 90
        0
280
     0
281
     0
  0
CLASS
  1
ACMTHREADLINESTANDARDANSI
  2
AmdtThreadLineStdANSI
  3
"Amdt_StdImp|Product Description: AutoCAD Mechanical|Company: Autodesk"
 90
        0
280
     0
281
     0
  0
CLASS
  1
TABLESTYLE
  2
AcDbTableStyle
  3
ObjectDBX Classes
 90
     4095
280
     0
281
     0
  0
CLASS
  1
AMDTNOTETEMPLATEDB
  2
AmdtNoteTemplateDB
  3
AMDT_STDIMP_MODULE_NAME
 90
        0
280
     0
281
     0
  0
CLASS
  1
ACAMGHOLECHARTSTDANSI
  2
AcAmgHoleChartStdANSI
  3
ACMSYMBB_MODULE_NAME
 90
        0
280
     0
281
     0
  0
CLASS
  1
SORTENTSTABLE
  2
AcDbSortentsTable
  3
ObjectDBX Classes
 90
        0
280
     0
281
     0
  0
CLASS
  1
MATERIAL
  2
AcDbMaterial
  3
ObjectDBX Classes
 90
     1024
280
     0
281
     0
  0
CLASS
  1
VISUALSTYLE
  2
AcDbVisualStyle
  3
ObjectDBX Classes
 90
     4095
280
     0
281
     0
  0
CLASS
  1
ACRFATTGENMGR
  2
AcRfAttGeneralMgr
  3
AcAttribServices
 90
        0
280
     0
281
     0
  0
CLASS
  1
ACRFOBJATTMGR
  2
AcRfObjAttGroupMgr
  3
AcAttribServices
 90
        0
280
     0
281
     0
  0
CLASS
  1
ACRFMCADAPIATTHOLDER
  2
AcRfMCADAPIAttHolder
  3
AcAttribServices
 90
        0
280
     0
281
     0
  0
CLASS
  1
AMDTSYSATTR
  2
AmdtSystemAttribute
  3
AcAttribServices
 90
        0
280
     0
281
     0
  0
CLASS
  1
ACMTAPERSTANDARDISO
  2
AcmTaperStdISO
  3
"Amdt_StdImp|Product Description: AutoCAD Mechanical|Company: Autodesk"
 90
        0
280
     0
281
     0
  0
CLASS
  1
ACMTAPERSTANDARDANSI
  2
AcmTaperStdANSI
  3
"Amdt_StdImp|Product Description: AutoCAD Mechanical|Company: Autodesk"
 90
        0
280
     0
281
     0
  0
CLASS
  1
CAMSSTRUCTBTNSTATE
  2
StructBtnState
  3
L"DesignerAssemblies"
 90
        0
280
     0
281
     0
  0
ENDSEC
  0
SECTION
  2
TABLES
  0
TABLE
  2
VPORT
  5
8
330
0
100
AcDbSymbolTable
 70
     1
  0
VPORT
  5
B43F
330
8
100
AcDbSymbolTableRecord
100
AcDbViewportTableRecord
  2
*Active
 70
     0
 10
0.0
 20
0.0
 11
1.0
 21
1.0
 12
568.5038929050834
 22
191.9945304662624
 13
0.0
 23
0.0
 14
2.5
 24
2.5
 15
10.0
 25
10.0
 16
0.0
 26
0.0
 36
1.0
 17
0.0
 27
0.0
 37
0.0
 40
211.5752941586055
 41
1.648648648648648
 42
50.0
 43
-1370.695619172058
 44
-1370.695619172058
 50
0.0
 51
0.0
 71
    16
 72
   100
 73
     1
 74
     3
 75
     0
 76
     0
 77
     0
 78
     0
281
     0
 65
     0
110
0.0
120
0.0
130
0.0
111
1.0
121
0.0
131
0.0
112
0.0
122
1.0
132
0.0
 79
     0
146
0.0
  0
ENDTAB
  0
TABLE
  2
LTYPE
  5
5
330
0
100
AcDbSymbolTable
 70
    22
  0
LTYPE
  5
14
330
5
100
AcDbSymbolTableRecord
100
AcDbLinetypeTableRecord
  2
ByBlock
 70
     0
  3

 72
    65
 73
     0
 40
0.0
  0
LTYPE
  5
15
330
5
100
AcDbSymbolTableRecord
100
AcDbLinetypeTableRecord
  2
ByLayer
 70
     0
  3

 72
    65
 73
     0
 40
0.0
  0
LTYPE
  5
16
330
5
100
AcDbSymbolTableRecord
100
AcDbLinetypeTableRecord
  2
Continuous
 70
     0
  3
Solid line
 72
    65
 73
     0
 40
0.0
  0
LTYPE
  5
4F
330
5
100
AcDbSymbolTableRecord
100
AcDbLinetypeTableRecord
  2
AM_ISO02W050
 70
     0
  3
__ __ __ __ __ __ __ __ __ __ __ __ __ __ __
 72
    65
 73
     2
 40
7.5
 49
6.0
 74
     0
 49
-1.5
 74
     0
  0
LTYPE
  5
52
330
5
100
AcDbSymbolTableRecord
100
AcDbLinetypeTableRecord
  2
Amconstr
 70
     0
  3
_______________________
 72
    65
 73
     2
 40
9999.0
 49
9999.0
 74
     0
 49
0.0
 74
     0
  0
LTYPE
  5
64
330
5
100
AcDbSymbolTableRecord
100
AcDbLinetypeTableRecord
  2
ACISOWELD
 70
     0
  3
_ _ _ _ _
 72
    65
 73
     2
 40
2.0
 49
2.0
 74
     0
 49
-1.0
 74
     0
  0
LTYPE
  5
65
330
5
100
AcDbSymbolTableRecord
100
AcDbLinetypeTableRecord
  2
ACISOTGB
 70
     0
  3
__ . . __ . .
 72
    65
 73
     6
 40
9.0
 49
4.0
 74
     0
 49
-1.0
 74
     0
 49
1.0
 74
     0
 49
-1.0
 74
     0
 49
1.0
 74
     0
 49
-1.0
 74
     0
  0
LTYPE
  5
66
330
5
100
AcDbSymbolTableRecord
100
AcDbLinetypeTableRecord
  2
ACISOTGL
 70
     0
  3
_ _ _ _ _
 72
    65
 73
     2
 40
3.0
 49
2.0
 74
     0
 49
-1.0
 74
     0
  0
LTYPE
  5
69
330
5
100
AcDbSymbolTableRecord
100
AcDbLinetypeTableRecord
  2
CENTER
 70
     0
  3
__ . __
 72
    65
 73
     4
 40
7.0
 49
4.0
 74
     0
 49
-1.0
 74
     0
 49
1.0
 74
     0
 49
-1.0
 74
     0
  0
LTYPE
  5
A6E
330
5
100
AcDbSymbolTableRecord
100
AcDbLinetypeTableRecord
  2
PHANTOM2
 70
     0
  3
Phantom (.5x) ___ _ _ ___ _ _ ___ _ _ ___ _ _
 72
    65
 73
     6
 40
31.75
 49
15.875
 74
     0
 49
-3.174999999999999
 74
     0
 49
3.174999999999999
 74
     0
 49
-3.174999999999999
 74
     0
 49
3.174999999999999
 74
     0
 49
-3.174999999999999
 74
     0
  0
LTYPE
  5
4DED
330
5
100
AcDbSymbolTableRecord
100
AcDbLinetypeTableRecord
  2
中線
 70
     0
  3
___________________
 72
    65
 73
     2
 40
2.0
 49
1.0
 74
     0
 49
1.0
 74
     0
  0
LTYPE
  5
4DF6
330
5
100
AcDbSymbolTableRecord
100
AcDbLinetypeTableRecord
  2
細線
 70
     0
  3
___________________
 72
    65
 73
     2
 40
2.0
 49
1.0
 74
     0
 49
1.0
 74
     0
  0
LTYPE
  5
4DF7
330
5
100
AcDbSymbolTableRecord
100
AcDbLinetypeTableRecord
  2
太線
 70
     0
  3
___________________
 72
    65
 73
     2
 40
2.0
 49
1.0
 74
     0
 49
1.0
 74
     0
  0
LTYPE
  5
4EA7
330
5
100
AcDbSymbolTableRecord
100
AcDbLinetypeTableRecord
  2
文字
 70
     0
  3
_________________
 72
    65
 73
     2
 40
2.0
 49
1.0
 74
     0
 49
1.0
 74
     0
  0
LTYPE
  5
4EA9
330
5
100
AcDbSymbolTableRecord
100
AcDbLinetypeTableRecord
  2
寸法線
 70
     0
  3
________________
 72
    65
 73
     2
 40
2.0
 49
1.0
 74
     0
 49
1.0
 74
     0
  0
LTYPE
  5
4F12
330
5
100
AcDbSymbolTableRecord
100
AcDbLinetypeTableRecord
  2
ハッチング
 70
     0
  3
_________________
 72
    65
 73
     2
 40
2.0
 49
1.0
 74
     0
 49
1.0
 74
     0
  0
LTYPE
  5
5180
330
5
100
AcDbSymbolTableRecord
100
AcDbLinetypeTableRecord
  2
陰線1
 70
     0
  3
__ __ __ __
 72
    65
 73
     2
 40
4.0
 49
2.2
 74
     0
 49
-1.8
 74
     0
  0
LTYPE
  5
5182
330
5
100
AcDbSymbolTableRecord
100
AcDbLinetypeTableRecord
  2
切断線
 70
     0
  3
/\/-/\/-/\/-/\/-/\/-/\/
 72
    65
 73
     2
 40
11.0001
 49
0.0001
 74
     4
 75
   135
340
56
 46
0.04
 50
0.0
 44
0.0
 45
0.0
 49
-11.0
 74
     0
  0
LTYPE
  5
5183
330
5
100
AcDbSymbolTableRecord
100
AcDbLinetypeTableRecord
  2
想像線1
 70
     0
  3
__ __ __ _____ __ __ ____
 72
    65
 73
     6
 40
14.5
 49
6.0
 74
     0
 49
-1.5
 74
     0
 49
2.0
 74
     0
 49
-1.5
 74
     0
 49
2.0
 74
     0
 49
-1.5
 74
     0
  0
LTYPE
  5
5185
330
5
100
AcDbSymbolTableRecord
100
AcDbLinetypeTableRecord
  2
中心線1
 70
     0
  3
___ _ ___ _ ___
 72
    65
 73
     4
 40
18.0
 49
12.0
 74
     0
 49
-2.0
 74
     0
 49
2.0
 74
     0
 49
-2.0
 74
     0
  0
LTYPE
  5
5188
330
5
100
AcDbSymbolTableRecord
100
AcDbLinetypeTableRecord
  2
補助線
 70
     0
  3
______________
 72
    65
 73
     2
 40
2.0
 49
1.0
 74
     0
 49
1.0
 74
     0
  0
LTYPE
  5
6427
330
5
100
AcDbSymbolTableRecord
100
AcDbLinetypeTableRecord
  2
HIDDEN
 70
     0
  3
Hidden __ __ __ __ __ __ __ __ __ __ __ __ __ _
 72
    65
 73
     2
 40
0.375
 49
0.25
 74
     0
 49
-0.125
 74
     0
  0
LTYPE
  5
AF65
330
5
100
AcDbSymbolTableRecord
100
AcDbLinetypeTableRecord
  2
ACANSTGB
 70
     0
  3
__ . . __ . .
 72
    65
 73
     6
 40
0.35433070866
 49
0.15748031496
 74
     0
 49
-0.03937007874
 74
     0
 49
0.03937007874
 74
     0
 49
-0.03937007874
 74
     0
 49
0.03937007874
 74
     0
 49
-0.03937007874
 74
     0
  0
LTYPE
  5
AF66
330
5
100
AcDbSymbolTableRecord
100
AcDbLinetypeTableRecord
  2
ACANSTGL
 70
     0
  3
_ _ _ _ _
 72
    65
 73
     2
 40
0.11811023622
 49
0.07874015748
 74
     0
 49
-0.03937007874
 74
     0
  0
ENDTAB
  0
TABLE
  2
LAYER
  5
2
102
{ACAD_XDICTIONARY
360
3F95
102
}
330
0
100
AcDbSymbolTable
 70
    10
  0
LAYER
  5
10
330
2
100
AcDbSymbolTableRecord
100
AcDbLayerTableRecord
  2
0
 70
     0
 62
     7
  6
Continuous
370
    -3
390
F
  0
LAYER
  5
6D1
330
2
100
AcDbSymbolTableRecord
100
AcDbLayerTableRecord
  2
Defpoints
 70
     0
 62
     7
  6
Continuous
290
     0
370
    -3
390
F
  0
LAYER
  5
5F85
330
2
100
AcDbSymbolTableRecord
100
AcDbLayerTableRecord
  2
AM_0
 70
     0
 62
     7
  6
中線
370
    30
390
F
  0
LAYER
  5
AC9F
330
2
100
AcDbSymbolTableRecord
100
AcDbLayerTableRecord
  2
size
 70
     0
 62
     5
  6
Continuous
290
     0
370
    30
390
F
  0
LAYER
  5
ACA0
330
2
100
AcDbSymbolTableRecord
100
AcDbLayerTableRecord
  2
waku
 70
     0
 62
     7
  6
Continuous
370
    40
390
F
  0
LAYER
  5
ACA1
330
2
100
AcDbSymbolTableRecord
100
AcDbLayerTableRecord
  2
AM_6
 70
     0
 62
     2
  6
文字
370
    20
390
F
  0
LAYER
  5
AD64
330
2
100
AcDbSymbolTableRecord
100
AcDbLayerTableRecord
  2
AM_2
 70
     0
 62
     1
  6
細線
370
    20
390
F
1001
AcAecLayerStandard
1000

1000

  0
LAYER
  5
AD67
330
2
100
AcDbSymbolTableRecord
100
AcDbLayerTableRecord
  2
AM_3
 70
     0
 62
     6
  6
陰線1
370
    18
390
F
1001
AcAecLayerStandard
1000

1000

  0
LAYER
  5
AD68
330
2
100
AcDbSymbolTableRecord
100
AcDbLayerTableRecord
  2
AM_5
 70
     0
 62
     3
  6
寸法線
370
    20
390
F
1001
AcAecLayerStandard
1000

1000

  0
LAYER
  5
AD69
330
2
100
AcDbSymbolTableRecord
100
AcDbLayerTableRecord
  2
AM_7
 70
     0
 62
     4
  6
中心線1
370
    20
390
F
1001
AcAecLayerStandard
1000

1000

  0
ENDTAB
  0
TABLE
  2
STYLE
  5
3
330
0
100
AcDbSymbolTable
 70
     8
  0
STYLE
  5
11
330
3
100
AcDbSymbolTableRecord
100
AcDbTextStyleTableRecord
  2
STANDARD
 70
     0
 40
0.0
 41
0.7
 50
0.0
 71
     0
 42
3.2
  3
romans.shx
  4
extfont.shx
  0
STYLE
  5
56
330
3
100
AcDbSymbolTableRecord
100
AcDbTextStyleTableRecord
  2

 70
     1
 40
0.0
 41
1.0
 50
0.0
 71
     0
 42
2.5
  3
ltypeshp.shx
  4

  0
STYLE
  5
58
330
3
100
AcDbSymbolTableRecord
100
AcDbTextStyleTableRecord
  2
ACISOTS
 70
     0
 40
1.0
 41
1.0
 50
0.0
 71
     0
 42
2.5
  3
isocp.shx
  4
extfont.shx
  0
STYLE
  5
63
330
3
100
AcDbSymbolTableRecord
100
AcDbTextStyleTableRecord
  2
ACISOGDT
 70
     0
 40
0.0
 41
1.0
 50
0.0
 71
     0
 42
2.5
  3
amgdt.shx
  4

  0
STYLE
  5
A74
330
3
100
AcDbSymbolTableRecord
100
AcDbTextStyleTableRecord
  2
DIM
 70
     0
 40
0.0
 41
1.0
 50
0.0
 71
     0
 42
2.5
  3
monotxt.shx
  4
extfont.shx
  0
STYLE
  5
AF67
330
3
100
AcDbSymbolTableRecord
100
AcDbTextStyleTableRecord
  2
ACANSTS
 70
     0
 40
1.0
 41
1.0
 50
0.0
 71
     0
 42
3.2
  3
romans.shx
  4
extfont.shx
  0
STYLE
  5
AF68
330
3
100
AcDbSymbolTableRecord
100
AcDbTextStyleTableRecord
  2
ACANSGDT
 70
     0
 40
0.0
 41
1.0
 50
0.0
 71
     0
 42
3.2
  3
AMGDT
  4

  0
ENDTAB
  0
TABLE
  2
VIEW
  5
6
330
0
100
AcDbSymbolTable
 70
     6
  0
VIEW
  5
AE1
330
6
100
AcDbSymbolTableRecord
100
AcDbViewTableRecord
  2
AM_VIEW1
 70
     0
 40
149.3945509586276
 10
105.0
 20
222.3027245206862
 41
210.0
 11
0.0
 21
0.0
 31
1.0
 12
0.0
 22
0.0
 32
0.0
 42
50.0
 43
-1370.695619172058
 44
-1370.695619172058
 50
0.0
 71
    16
281
     0
 72
     0
  0
VIEW
  5
AE2
330
6
100
AcDbSymbolTableRecord
100
AcDbViewTableRecord
  2
AM_VIEW2
 70
     0
 40
149.3945509586276
 10
315.0
 20
222.3027245206862
 41
210.0
 11
0.0
 21
0.0
 31
1.0
 12
0.0
 22
0.0
 32
0.0
 42
50.0
 43
-1370.695619172058
 44
-1370.695619172058
 50
0.0
 71
    16
281
     0
 72
     0
  0
VIEW
  5
AE3
330
6
100
AcDbSymbolTableRecord
100
AcDbViewTableRecord
  2
AM_VIEW3
 70
     0
 40
149.3945509586276
 10
105.0
 20
74.69727547931383
 41
210.0
 11
0.0
 21
0.0
 31
1.0
 12
0.0
 22
0.0
 32
0.0
 42
50.0
 43
-1370.695619172058
 44
-1370.695619172058
 50
0.0
 71
    16
281
     0
 72
     0
  0
VIEW
  5
AE4
330
6
100
AcDbSymbolTableRecord
100
AcDbViewTableRecord
  2
AM_VIEW4
 70
     0
 40
149.3945509586276
 10
315.0
 20
74.69727547931383
 41
210.0
 11
0.0
 21
0.0
 31
1.0
 12
0.0
 22
0.0
 32
0.0
 42
50.0
 43
-1370.695619172058
 44
-1370.695619172058
 50
0.0
 71
    16
281
     0
 72
     0
  0
VIEW
  5
AE5
330
6
100
AcDbSymbolTableRecord
100
AcDbViewTableRecord
  2
AM_VIEW5
 70
     0
 40
149.3945509586276
 10
210.0
 20
148.5
 41
210.0
 11
0.0
 21
0.0
 31
1.0
 12
0.0
 22
0.0
 32
0.0
 42
50.0
 43
-1370.695619172058
 44
-1370.695619172058
 50
0.0
 71
    16
281
     0
 72
     0
  0
VIEW
  5
AE6
330
6
100
AcDbSymbolTableRecord
100
AcDbViewTableRecord
  2
AM_VIEW6
 70
     0
 40
298.7861140262362
 10
210.0
 20
148.5
 41
419.9958
 11
0.0
 21
0.0
 31
1.0
 12
0.0
 22
0.0
 32
0.0
 42
50.0
 43
-1370.695619172058
 44
-1370.695619172058
 50
0.0
 71
    16
281
     0
 72
     0
  0
ENDTAB
  0
TABLE
  2
UCS
  5
7
330
0
100
AcDbSymbolTable
 70
     0
  0
ENDTAB
  0
TABLE
  2
APPID
  5
9
330
0
100
AcDbSymbolTable
 70
    53
  0
APPID
  5
12
330
9
100
AcDbSymbolTableRecord
100
AcDbRegAppTableRecord
  2
ACAD
 70
     0
  0
APPID
  5
30
330
9
100
AcDbSymbolTableRecord
100
AcDbRegAppTableRecord
  2
MCAD_NO_VIS
 70
     0
  0
APPID
  5
31
330
9
100
AcDbSymbolTableRecord
100
AcDbRegAppTableRecord
  2
ACAD_TEMP_GRAPHIC
 70
     0
  0
APPID
  5
44
330
9
100
AcDbSymbolTableRecord
100
AcDbRegAppTableRecord
  2
ACATTRIBSERVICES
 70
     0
  0
APPID
  5
7A1
330
9
100
AcDbSymbolTableRecord
100
AcDbRegAppTableRecord
  2
GENIUS_GENDIMSH_14
 70
     0
  0
APPID
  5
A49
330
9
100
AcDbSymbolTableRecord
100
AcDbRegAppTableRecord
  2
GENIUS_GENREC_14
 70
     0
  0
APPID
  5
A4A
330
9
100
AcDbSymbolTableRecord
100
AcDbRegAppTableRecord
  2
GENIUS_GENOBJ-N-REC_13
 70
     0
  0
APPID
  5
A4B
330
9
100
AcDbSymbolTableRecord
100
AcDbRegAppTableRecord
  2
GENIUS_GENODEF_13
 70
     0
  0
APPID
  5
A4C
330
9
100
AcDbSymbolTableRecord
100
AcDbRegAppTableRecord
  2
DCO15
 70
     0
  0
APPID
  5
ADC
330
9
100
AcDbSymbolTableRecord
100
AcDbRegAppTableRecord
  2
GENIUS_GENOLIS_13
 70
     0
  0
APPID
  5
ADD
330
9
100
AcDbSymbolTableRecord
100
AcDbRegAppTableRecord
  2
GENIUS_GENOENT_13
 70
     0
  0
APPID
  5
ADE
330
9
100
AcDbSymbolTableRecord
100
AcDbRegAppTableRecord
  2
GENIUS_GENOBJ-N-TIT_13
 70
     0
  0
APPID
  5
ADF
330
9
100
AcDbSymbolTableRecord
100
AcDbRegAppTableRecord
  2
GENIUS_GENTITLE_13
 70
     0
  0
APPID
  5
AE0
330
9
100
AcDbSymbolTableRecord
100
AcDbRegAppTableRecord
  2
GENIUS_GENOREF_13
 70
     0
  0
APPID
  5
AE7
330
9
100
AcDbSymbolTableRecord
100
AcDbRegAppTableRecord
  2
GENIUS_GENSCREG_15
 70
     0
  0
APPID
  5
AE8
330
9
100
AcDbSymbolTableRecord
100
AcDbRegAppTableRecord
  2
GENIUS_GENOBJ-N-SDF_13
 70
     0
  0
APPID
  5
FAF
330
9
100
AcDbSymbolTableRecord
100
AcDbRegAppTableRecord
  2
GENIUS_GENBLLY_14
 70
     0
  0
APPID
  5
FB0
330
9
100
AcDbSymbolTableRecord
100
AcDbRegAppTableRecord
  2
GENIUS_GENTRA_14
 70
     0
  0
APPID
  5
1285
330
9
100
AcDbSymbolTableRecord
100
AcDbRegAppTableRecord
  2
GENIUS_GENDTOL_13
 70
     0
  0
APPID
  5
142D
330
9
100
AcDbSymbolTableRecord
100
AcDbRegAppTableRecord
  2
GENIUS_GENOBJ-N-CEN_13
 70
     0
  0
APPID
  5
1AB5
330
9
100
AcDbSymbolTableRecord
100
AcDbRegAppTableRecord
  2
GENIUS_GENOBJ-N-CRS_13
 70
     0
  0
APPID
  5
1B36
330
9
100
AcDbSymbolTableRecord
100
AcDbRegAppTableRecord
  2
GENIUS_GENOBJ-N-HTC_13
 70
     0
  0
APPID
  5
1B37
330
9
100
AcDbSymbolTableRecord
100
AcDbRegAppTableRecord
  2
GENIUS_GENHATCH_13
 70
     0
  0
APPID
  5
216D
330
9
100
AcDbSymbolTableRecord
100
AcDbRegAppTableRecord
  2
GENIUS_GENOBJ-N-FIL_13
 70
     0
  0
APPID
  5
2356
330
9
100
AcDbSymbolTableRecord
100
AcDbRegAppTableRecord
  2
GEVID990412420
 70
     0
  0
APPID
  5
2357
330
9
100
AcDbSymbolTableRecord
100
AcDbRegAppTableRecord
  2
GEVDC
 70
     0
  0
APPID
  5
2358
330
9
100
AcDbSymbolTableRecord
100
AcDbRegAppTableRecord
  2
GEVCON
 70
     0
  0
APPID
  5
235B
330
9
100
AcDbSymbolTableRecord
100
AcDbRegAppTableRecord
  2
GEVRADREF
 70
     0
  0
APPID
  5
2360
330
9
100
AcDbSymbolTableRecord
100
AcDbRegAppTableRecord
  2
GENIUS_GENBH_13
 70
     0
  0
APPID
  5
2362
330
9
100
AcDbSymbolTableRecord
100
AcDbRegAppTableRecord
  2
GENIUS_GENOBJ-NBEHI-BHF_13
 70
     0
  0
APPID
  5
2364
330
9
100
AcDbSymbolTableRecord
100
AcDbRegAppTableRecord
  2
GENIUS_GENOBJ-NBEHI-BHB_13
 70
     0
  0
APPID
  5
2379
330
9
100
AcDbSymbolTableRecord
100
AcDbRegAppTableRecord
  2
GENIUS_GENOBJ-F-SCPASSM_13
 70
     0
  0
APPID
  5
3D74
330
9
100
AcDbSymbolTableRecord
100
AcDbRegAppTableRecord
  2
GENIUS_GENDIM_13
 70
     0
  0
APPID
  5
3D76
330
9
100
AcDbSymbolTableRecord
100
AcDbRegAppTableRecord
  2
GENIUS_GE3DTOL_13
 70
     0
  0
APPID
  5
3D9C
330
9
100
AcDbSymbolTableRecord
100
AcDbRegAppTableRecord
  2
AD_DRAW
 70
     0
  0
APPID
  5
3DE8
330
9
100
AcDbSymbolTableRecord
100
AcDbRegAppTableRecord
  2
ASURF_PCURVE_APPNAME
 70
     0
  0
APPID
  5
3DED
330
9
100
AcDbSymbolTableRecord
100
AcDbRegAppTableRecord
  2
AMG_3D2D_5.0
 70
     0
  0
APPID
  5
3E1B
330
9
100
AcDbSymbolTableRecord
100
AcDbRegAppTableRecord
  2
DESIGNERASSEMBLIES
 70
     0
  0
APPID
  5
3E20
330
9
100
AcDbSymbolTableRecord
100
AcDbRegAppTableRecord
  2
ACADM_DIM_EDIT
 70
     0
  0
APPID
  5
3E21
330
9
100
AcDbSymbolTableRecord
100
AcDbRegAppTableRecord
  2
AMDT_DM_ADJ
 70
     0
  0
APPID
  5
4143
330
9
100
AcDbSymbolTableRecord
100
AcDbRegAppTableRecord
  2
GENIUS_GENFIL_13
 70
     0
  0
APPID
  5
4144
330
9
100
AcDbSymbolTableRecord
100
AcDbRegAppTableRecord
  2
GENIUS_GENOBJ-N-CHA_13
 70
     0
  0
APPID
  5
4E17
330
9
100
AcDbSymbolTableRecord
100
AcDbRegAppTableRecord
  2
GEVID1008153417
 70
     0
  0
APPID
  5
4E58
330
9
100
AcDbSymbolTableRecord
100
AcDbRegAppTableRecord
  2
GEVID1008153418
 70
     0
  0
APPID
  5
4E5E
330
9
100
AcDbSymbolTableRecord
100
AcDbRegAppTableRecord
  2
GEVID1008153419
 70
     0
  0
APPID
  5
4E64
330
9
100
AcDbSymbolTableRecord
100
AcDbRegAppTableRecord
  2
GEVID1008153420
 70
     0
  0
APPID
  5
4E75
330
9
100
AcDbSymbolTableRecord
100
AcDbRegAppTableRecord
  2
GEVID1008153421
 70
     0
  0
APPID
  5
4EB7
330
9
100
AcDbSymbolTableRecord
100
AcDbRegAppTableRecord
  2
GENIUS_AMGTXT_16
 70
     0
  0
APPID
  5
7645
330
9
100
AcDbSymbolTableRecord
100
AcDbRegAppTableRecord
  2
GENIUS_GENOBJ-N-DIM_13
 70
     0
  0
APPID
  5
AAD0
330
9
100
AcDbSymbolTableRecord
100
AcDbRegAppTableRecord
  2
ACAD_DSTYLE_DIMARC_LENGTH_SYMBOL
 70
     0
  0
APPID
  5
AAD1
330
9
100
AcDbSymbolTableRecord
100
AcDbRegAppTableRecord
  2
ACAD_DSTYLE_DIMJOGGED_JOGANGLE_SYMBOL
 70
     0
  0
APPID
  5
AAFD
330
9
100
AcDbSymbolTableRecord
100
AcDbRegAppTableRecord
  2
ACAD_PSEXT
 70
     0
  0
APPID
  5
AD61
330
9
100
AcDbSymbolTableRecord
100
AcDbRegAppTableRecord
  2
AcAecLayerStandard
 70
     0
  0
ENDTAB
  0
TABLE
  2
DIMSTYLE
  5
A
330
0
100
AcDbSymbolTable
 70
    18
100
AcDbDimStyleTable
 71
     1
340
2515
  0
DIMSTYLE
105
A76
330
A
100
AcDbSymbolTableRecord
100
AcDbDimStyleTableRecord
  2
STANDARD
 70
     0
 41
3.0
 42
1.0
 43
7.0
 44
2.0
 73
     0
 74
     0
 77
     1
140
2.799999999999999
141
0.0
143
0.0394
147
0.7
171
     4
172
     1
173
     1
176
     3
177
     3
178
     2
271
     3
272
     3
273
     8
274
     4
289
     0
340
A74
341
A66
343
A66
344
A66
  0
DIMSTYLE
105
2515
330
A
100
AcDbSymbolTableRecord
100
AcDbDimStyleTableRecord
  2
SYS
 70
     0
  4
"
 41
1.0
 42
1.0
 43
10.0
 44
1.0
 47
0.1
 48
0.1
 73
     0
 74
     0
 77
     1
 78
     8
 79
     2
140
3.5
141
0.0
143
0.0393701
146
0.71
147
1.5
172
     1
176
   256
177
   256
178
     7
271
     2
272
     2
283
     0
284
     8
340
11
371
    -1
372
    -1
1001
ACAD_DSTYLE_DIMJOGGED_JOGANGLE_SYMBOL
1070
   384
1040
0.7853981633974483
1001
ACAD_DSTYLE_DIMARC_LENGTH_SYMBOL
1070
   379
1070
     1
  0
DIMSTYLE
105
2516
102
{ACAD_REACTORS
330
C957
102
}
330
A
100
AcDbSymbolTableRecord
100
AcDbDimStyleTableRecord
  2
SYS$3
 70
     0
  4
"
 41
2.0
 42
1.0
 43
10.0
 44
1.0
 47
0.1
 48
0.1
 73
     0
 77
     1
 78
     8
 79
     2
140
3.5
141
0.0
143
0.0393701
146
0.71
147
1.5
176
   256
177
   256
178
     2
271
     2
272
     2
283
     0
284
     8
288
     1
340
11
342
A66
371
    -1
372
    -1
1001
ACAD_DSTYLE_DIMJOGGED_JOGANGLE_SYMBOL
1070
   384
1040
0.7853981633974483
1001
ACAD_DSTYLE_DIMARC_LENGTH_SYMBOL
1070
   379
1070
     1
  0
DIMSTYLE
105
2517
330
A
100
AcDbSymbolTableRecord
100
AcDbDimStyleTableRecord
  2
SYS$4
 70
     0
  4
"
 41
2.0
 42
1.0
 43
10.0
 44
1.0
 47
0.1
 48
0.1
 73
     0
 77
     1
 78
     8
 79
     2
140
3.5
141
0.0
143
0.0393701
146
0.71
147
1.5
173
     1
176
   256
177
   256
178
     2
271
     2
272
     2
283
     0
284
     8
288
     1
340
11
344
A66
371
    -1
372
    -1
1001
ACAD_DSTYLE_DIMJOGGED_JOGANGLE_SYMBOL
1070
   384
1040
0.7853981633974483
1001
ACAD_DSTYLE_DIMARC_LENGTH_SYMBOL
1070
   379
1070
     1
  0
DIMSTYLE
105
2518
330
A
100
AcDbSymbolTableRecord
100
AcDbDimStyleTableRecord
  2
SYS$6
 70
     0
  4
"
 41
2.0
 42
1.0
 43
10.0
 44
1.0
 47
0.1
 48
0.1
 73
     0
 74
     0
 78
     8
 79
     2
140
3.5
141
0.0
143
0.0393701
146
0.71
147
1.5
172
     1
176
   256
177
   256
178
     2
271
     2
272
     2
283
     0
284
     8
340
11
341
A66
371
    -1
372
    -1
1001
ACAD_DSTYLE_DIMJOGGED_JOGANGLE_SYMBOL
1070
   384
1040
0.7853981633974483
1001
ACAD_DSTYLE_DIMARC_LENGTH_SYMBOL
1070
   379
1070
     1
  0
DIMSTYLE
105
2519
330
A
100
AcDbSymbolTableRecord
100
AcDbDimStyleTableRecord
  2
SYS$7
 70
     0
  4
"
 41
2.0
 42
1.0
 43
10.0
 44
1.0
 47
0.1
 48
0.1
 73
     0
 74
     0
 77
     1
 78
     8
 79
     2
140
5.0
141
0.0
143
0.0393701
146
0.71
147
1.5
172
     1
176
   256
177
   256
178
     2
271
     2
272
     2
283
     0
284
     8
340
11
341
A66
342
A66
371
    -1
372
    -1
1001
ACAD_DSTYLE_DIMJOGGED_JOGANGLE_SYMBOL
1070
   384
1040
0.7853981633974483
1001
ACAD_DSTYLE_DIMARC_LENGTH_SYMBOL
1070
   379
1070
     1
  0
DIMSTYLE
105
251A
330
A
100
AcDbSymbolTableRecord
100
AcDbDimStyleTableRecord
  2
SYS$SF
 70
     0
  4
"
 41
2.5
 42
1.0
 43
10.0
 44
1.0
 47
0.1
 48
0.1
 73
     0
 74
     0
 75
     1
 76
     1
 77
     1
 78
     8
 79
     2
140
3.5
141
0.0
143
0.0393701
146
0.71
147
1.5
172
     1
176
   256
177
   256
178
     2
271
     2
272
     3
283
     0
284
     8
340
11
341
6C4
342
6C4
371
    -1
372
    -1
1001
ACAD_DSTYLE_DIMJOGGED_JOGANGLE_SYMBOL
1070
   384
1040
0.7853981633974483
1001
ACAD_DSTYLE_DIMARC_LENGTH_SYMBOL
1070
   379
1070
     1
  0
DIMSTYLE
105
251B
330
A
100
AcDbSymbolTableRecord
100
AcDbDimStyleTableRecord
  2
SYS$SH
 70
     0
  4
"
 41
2.5
 42
1.0
 43
10.0
 44
1.0
 47
0.1
 48
0.1
 73
     0
 74
     0
 75
     1
 76
     1
 77
     1
 78
     8
 79
     2
140
3.5
141
0.0
143
0.0393701
144
2.0
146
0.71
147
1.5
172
     1
173
     1
176
   256
177
   256
178
     2
271
     2
272
     3
283
     0
284
     8
340
11
341
6C4
343
72
344
6C4
371
    -1
372
    -1
1001
ACAD_DSTYLE_DIMJOGGED_JOGANGLE_SYMBOL
1070
   384
1040
0.7853981633974483
1001
ACAD_DSTYLE_DIMARC_LENGTH_SYMBOL
1070
   379
1070
     1
  0
DIMSTYLE
105
2A59
330
A
100
AcDbSymbolTableRecord
100
AcDbDimStyleTableRecord
  2
SYS$2
 70
     0
  4
"
 41
1.0
 42
1.0
 43
10.0
 44
1.0
 47
0.1
 48
0.1
 73
     0
 74
     0
 77
     1
 78
     8
 79
     2
140
3.5
141
0.0
143
0.0393701
146
0.71
147
1.5
172
     1
176
   256
177
   256
178
     2
271
     2
272
     2
283
     0
284
     8
340
11
342
6C4
371
    -1
372
    -1
1001
ACAD_DSTYLE_DIMJOGGED_JOGANGLE_SYMBOL
1070
   384
1040
0.7853981633974483
1001
ACAD_DSTYLE_DIMARC_LENGTH_SYMBOL
1070
   379
1070
     1
  0
DIMSTYLE
105
2AAB
102
{ACAD_REACTORS
330
C807
330
C956
330
ECBA
330
ECDF
330
ED00
330
EDBC
330
EF35
330
EF4B
102
}
330
A
100
AcDbSymbolTableRecord
100
AcDbDimStyleTableRecord
  2
SYS$0
 70
     0
  4
"
 41
1.0
 42
1.0
 43
10.0
 44
1.0
 47
0.1
 48
0.1
 73
     0
 74
     0
 77
     1
 78
     8
 79
     2
140
3.200000000000001
141
0.0
143
0.0393701
146
0.71
147
1.5
172
     1
176
   256
177
   256
178
     2
271
     2
272
     2
283
     0
284
     8
340
11
341
A66
342
6C4
371
    -1
372
    -1
1001
ACAD_DSTYLE_DIMJOGGED_JOGANGLE_SYMBOL
1070
   384
1040
0.7853981633974483
1001
ACAD_DSTYLE_DIMARC_LENGTH_SYMBOL
1070
   379
1070
     1
  0
DIMSTYLE
105
AF6A
330
A
100
AcDbSymbolTableRecord
100
AcDbDimStyleTableRecord
  2
AM_ANSI
 70
     0
  4
mm
 41
0.1
 42
0.05
 43
0.5
 44
0.1
 47
0.1
 48
0.1
 78
     7
 79
     2
140
0.12
141
0.0
146
0.71
147
0.06
176
   256
177
   256
178
     2
274
     4
284
     7
340
11
371
    -1
372
    -1
1001
ACAD_DSTYLE_DIMJOGGED_JOGANGLE_SYMBOL
1070
   384
1040
0.7853981633974483
1001
ACAD_DSTYLE_DIMARC_LENGTH_SYMBOL
1070
   379
1070
     1
  0
DIMSTYLE
105
AF6B
330
A
100
AcDbSymbolTableRecord
100
AcDbDimStyleTableRecord
  2
AM_ANSI$3
 70
     0
  4
mm
 41
0.1
 42
0.05
 43
0.5
 44
0.1
 47
0.1
 48
0.1
 78
     7
 79
     2
140
0.12
141
0.0
146
0.71
147
0.06
176
   256
177
   256
178
     2
274
     4
284
     7
288
     1
289
     0
340
11
371
    -1
372
    -1
1001
ACAD_DSTYLE_DIMJOGGED_JOGANGLE_SYMBOL
1070
   384
1040
0.7853981633974483
1001
ACAD_DSTYLE_DIMARC_LENGTH_SYMBOL
1070
   379
1070
     1
  0
DIMSTYLE
105
AF6C
330
A
100
AcDbSymbolTableRecord
100
AcDbDimStyleTableRecord
  2
AM_ANSI$4
 70
     0
  4
mm
 41
0.1
 42
0.05
 43
0.5
 44
0.1
 47
0.1
 48
0.1
 78
     7
 79
     2
140
0.12
141
0.0
146
0.71
147
0.06
176
   256
177
   256
178
     2
274
     4
284
     7
288
     1
289
     0
340
11
371
    -1
372
    -1
1001
ACAD_DSTYLE_DIMJOGGED_JOGANGLE_SYMBOL
1070
   384
1040
0.7853981633974483
1001
ACAD_DSTYLE_DIMARC_LENGTH_SYMBOL
1070
   379
1070
     1
  0
DIMSTYLE
105
AF6D
330
A
100
AcDbSymbolTableRecord
100
AcDbDimStyleTableRecord
  2
AM_ANSI$7
 70
     0
  4
mm
 41
0.1
 42
0.05
 43
0.5
 44
0.1
 47
0.1
 48
0.1
 78
     7
 79
     2
140
0.24
141
0.0
146
0.71
147
0.06
176
   256
177
   256
178
     2
274
     4
284
     7
340
11
371
    -1
372
    -1
1001
ACAD_DSTYLE_DIMJOGGED_JOGANGLE_SYMBOL
1070
   384
1040
0.7853981633974483
1001
ACAD_DSTYLE_DIMARC_LENGTH_SYMBOL
1070
   379
1070
     1
  0
DIMSTYLE
105
AF6E
330
A
100
AcDbSymbolTableRecord
100
AcDbDimStyleTableRecord
  2
AM_ANSI$SF
 70
     0
  4
mm
 41
0.1
 42
0.05
 43
0.5
 44
0.1
 47
0.1
 48
0.1
 75
     1
 76
     1
 78
     7
 79
     2
140
0.12
141
0.0
146
0.71
147
0.06
176
   256
177
   256
178
     2
274
     4
284
     7
340
11
371
    -1
372
    -1
1001
ACAD_DSTYLE_DIMJOGGED_JOGANGLE_SYMBOL
1070
   384
1040
0.7853981633974483
1001
ACAD_DSTYLE_DIMARC_LENGTH_SYMBOL
1070
   379
1070
     1
  0
DIMSTYLE
105
AF6F
330
A
100
AcDbSymbolTableRecord
100
AcDbDimStyleTableRecord
  2
AM_ANSI$SH
 70
     0
  4
mm
 41
0.1
 42
0.05
 43
0.5
 44
0.1
 47
0.1
 48
0.1
 75
     1
 76
     1
 78
     7
 79
     2
140
0.12
141
0.0
146
0.71
147
0.06
173
     1
176
   256
177
   256
178
     2
274
     4
284
     7
340
11
343
72
371
    -1
372
    -1
1001
ACAD_DSTYLE_DIMJOGGED_JOGANGLE_SYMBOL
1070
   384
1040
0.7853981633974483
1001
ACAD_DSTYLE_DIMARC_LENGTH_SYMBOL
1070
   379
1070
     1
  0
DIMSTYLE
105
B2E4
102
{ACAD_REACTORS
330
DA17
330
DA18
330
E21A
330
E21B
102
}
330
A
100
AcDbSymbolTableRecord
100
AcDbDimStyleTableRecord
  2
AM_ISO
 70
     0
  4
"
 41
2.5
 42
1.0
 43
10.0
 44
1.0
 47
0.1
 48
0.1
 73
     0
 74
     0
 77
     1
 78
     8
 79
     2
140
3.5
141
0.0
143
0.0393701
146
0.71
147
1.5
172
     1
176
   256
177
   256
178
     2
271
     2
272
     3
274
     4
283
     0
284
     8
340
11
371
    -1
372
    -1
  0
ENDTAB
  0
TABLE
  2
BLOCK_RECORD
  5
1
330
0
100
AcDbSymbolTable
 70
    21
  0
BLOCK_RECORD
  5
1F
102
{ACAD_XDICTIONARY
360
8A
102
}
330
1
100
AcDbSymbolTableRecord
100
AcDbBlockTableRecord
  2
*Model_Space
340
22
  0
BLOCK_RECORD
  5
1B
330
1
100
AcDbSymbolTableRecord
100
AcDbBlockTableRecord
  2
*Paper_Space
340
1E
  0
BLOCK_RECORD
  5
23
330
1
100
AcDbSymbolTableRecord
100
AcDbBlockTableRecord
  2
*Paper_Space0
340
26
  0
BLOCK_RECORD
  5
72
330
1
100
AcDbSymbolTableRecord
100
AcDbBlockTableRecord
  2
GENAXEH
340
0
  0
BLOCK_RECORD
  5
6C4
330
1
100
AcDbSymbolTableRecord
100
AcDbBlockTableRecord
  2
_Dot
340
0
102
{BLKREFS
331
F089
331
F08A
331
F092
331
F093
331
F0A3
331
F0A4
331
F0AC
331
F0AD
331
F0B5
331
F0B6
331
F0BE
331
F0BF
331
F0C9
331
F0CA
331
F0D2
331
F0D3
331
F0DB
331
F0DC
331
F0E4
331
F0E5
331
F0ED
331
F0EE
331
F0F6
331
F0F7
102
}
  0
BLOCK_RECORD
  5
A66
330
1
100
AcDbSymbolTableRecord
100
AcDbBlockTableRecord
  2
_OPEN30
340
0
102
{BLKREFS
331
EED5
102
}
  0
BLOCK_RECORD
  5
C808
330
1
100
AcDbSymbolTableRecord
100
AcDbBlockTableRecord
  2
*D5
340
0
  0
BLOCK_RECORD
  5
C95B
330
1
100
AcDbSymbolTableRecord
100
AcDbBlockTableRecord
  2
*D7
340
0
  0
BLOCK_RECORD
  5
C967
330
1
100
AcDbSymbolTableRecord
100
AcDbBlockTableRecord
  2
*D8
340
0
  0
BLOCK_RECORD
  5
E0CB
330
1
100
AcDbSymbolTableRecord
100
AcDbBlockTableRecord
  2
*D9
340
0
  0
BLOCK_RECORD
  5
E0D7
330
1
100
AcDbSymbolTableRecord
100
AcDbBlockTableRecord
  2
*D10
340
0
  0
BLOCK_RECORD
  5
EBA3
330
1
100
AcDbSymbolTableRecord
100
AcDbBlockTableRecord
  2
*D11
340
0
  0
BLOCK_RECORD
  5
EBAF
330
1
100
AcDbSymbolTableRecord
100
AcDbBlockTableRecord
  2
*D12
340
0
  0
BLOCK_RECORD
  5
ECBB
330
1
100
AcDbSymbolTableRecord
100
AcDbBlockTableRecord
  2
*D13
340
0
  0
BLOCK_RECORD
  5
ECE0
330
1
100
AcDbSymbolTableRecord
100
AcDbBlockTableRecord
  2
*D14
340
0
  0
BLOCK_RECORD
  5
ED01
330
1
100
AcDbSymbolTableRecord
100
AcDbBlockTableRecord
  2
*D15
340
0
  0
BLOCK_RECORD
  5
EDBD
330
1
100
AcDbSymbolTableRecord
100
AcDbBlockTableRecord
  2
*D16
340
0
  0
BLOCK_RECORD
  5
EF36
330
1
100
AcDbSymbolTableRecord
100
AcDbBlockTableRecord
  2
*D17
340
0
  0
BLOCK_RECORD
  5
EF4C
330
1
100
AcDbSymbolTableRecord
100
AcDbBlockTableRecord
  2
*D18
340
0
  0
BLOCK_RECORD
  5
F03F
330
1
100
AcDbSymbolTableRecord
100
AcDbBlockTableRecord
  2
_DotSmall
340
0
102
{BLKREFS
331
F09C
331
F09D
102
}
  0
ENDTAB
  0
ENDSEC
  0
SECTION
  2
BLOCKS
  0
BLOCK
  5
20
330
1F
100
AcDbEntity
  8
0
100
AcDbBlockBegin
  2
*Model_Space
 70
     0
 10
0.0
 20
0.0
 30
0.0
  3
*Model_Space
  1

  0
ENDBLK
  5
21
330
1F
100
AcDbEntity
  8
0
100
AcDbBlockEnd
  0
BLOCK
  5
1C
330
1B
100
AcDbEntity
 67
     1
  8
0
100
AcDbBlockBegin
  2
*Paper_Space
 70
     0
 10
0.0
 20
0.0
 30
0.0
  3
*Paper_Space
  1

  0
ENDBLK
  5
1D
330
1B
100
AcDbEntity
 67
     1
  8
0
100
AcDbBlockEnd
  0
BLOCK
  5
24
330
23
100
AcDbEntity
 67
     1
  8
0
100
AcDbBlockBegin
  2
*Paper_Space0
 70
     0
 10
0.0
 20
0.0
 30
0.0
  3
*Paper_Space0
  1

  0
ENDBLK
  5
25
330
23
100
AcDbEntity
 67
     1
  8
0
100
AcDbBlockEnd
  0
BLOCK
  5
74
330
72
100
AcDbEntity
  8
0
100
AcDbBlockBegin
  2
GENAXEH
 70
     0
 10
0.0
 20
0.0
 30
0.0
  3
GENAXEH
  1

  0
LINE
  5
73
330
72
100
AcDbEntity
  8
0
100
AcDbLine
 10
-1.0
 20
0.0
 30
0.0
 11
1.0
 21
0.0
 31
0.0
  0
ENDBLK
  5
75
330
72
100
AcDbEntity
  8
0
100
AcDbBlockEnd
  0
BLOCK
  5
6C7
330
6C4
100
AcDbEntity
  8
0
100
AcDbBlockBegin
  2
_Dot
 70
     0
 10
0.0
 20
0.0
 30
0.0
  3
_Dot
  1

  0
LWPOLYLINE
  5
6C5
330
6C4
100
AcDbEntity
  8
0
  6
ByBlock
 62
     0
100
AcDbPolyline
 90
        2
 70
     1
 43
0.5
 10
-0.25
 20
0.0
 42
1.0
 10
0.25
 20
0.0
 42
1.0
  0
LINE
  5
6C6
330
6C4
100
AcDbEntity
  8
0
  6
ByBlock
 62
     0
370
    -2
100
AcDbLine
 10
-0.5
 20
0.0
 30
0.0
 11
-1.0
 21
0.0
 31
0.0
  0
ENDBLK
  5
6C8
330
6C4
100
AcDbEntity
  8
0
100
AcDbBlockEnd
  0
BLOCK
  5
A6A
330
A66
100
AcDbEntity
  8
0
100
AcDbBlockBegin
  2
_OPEN30
 70
     0
 10
0.0
 20
0.0
 30
0.0
  3
_OPEN30
  1

  0
LINE
  5
A67
330
A66
100
AcDbEntity
  8
0
  6
ByBlock
 62
     0
100
AcDbLine
 10
-1.0
 20
0.26794919
 30
0.0
 11
0.0
 21
0.0
 31
0.0
  0
LINE
  5
A68
330
A66
100
AcDbEntity
  8
0
  6
ByBlock
 62
     0
100
AcDbLine
 10
0.0
 20
0.0
 30
0.0
 11
-1.0
 21
-0.26794919
 31
0.0
  0
LINE
  5
A69
330
A66
100
AcDbEntity
  8
0
  6
ByBlock
 62
     0
100
AcDbLine
 10
0.0
 20
0.0
 30
0.0
 11
-1.0
 21
0.0
 31
0.0
  0
ENDBLK
  5
A6B
330
A66
100
AcDbEntity
  8
0
100
AcDbBlockEnd
  0
BLOCK
  5
C812
330
C808
100
AcDbEntity
  8
0
 48
10.0
100
AcDbBlockBegin
  2
*D5
 70
     1
 10
0.0
 20
0.0
 30
0.0
  3
*D5
  1

  0
LINE
  5
F086
330
C808
100
AcDbEntity
  8
AM_5
100
AcDbLine
 10
464.2662035149222
 20
133.7872846527293
 30
0.0
 11
458.2662035149223
 21
133.7872846527293
 31
0.0
  0
LINE
  5
F087
330
C808
100
AcDbEntity
  8
AM_5
100
AcDbLine
 10
464.2662035149222
 20
118.7872846527293
 30
0.0
 11
458.2662035149223
 21
118.7872846527293
 31
0.0
  0
LINE
  5
F088
330
C808
100
AcDbEntity
  8
AM_5
100
AcDbLine
 10
459.2662035149223
 20
132.7872846527293
 30
0.0
 11
459.2662035149222
 21
119.7872846527293
 31
0.0
  0
INSERT
  5
F089
330
C808
100
AcDbEntity
  8
AM_5
100
AcDbBlockReference
  2
_Dot
 10
459.2662035149223
 20
133.7872846527293
 30
0.0
 50
90.0
  0
INSERT
  5
F08A
330
C808
100
AcDbEntity
  8
AM_5
100
AcDbBlockReference
  2
_Dot
 10
459.2662035149222
 20
118.7872846527293
 30
0.0
 50
270.0
  0
MTEXT
  5
F08B
330
C808
100
AcDbEntity
  8
AM_5
 62
     2
100
AcDbMText
 10
456.1662035149222
 20
126.2872846527294
 30
0.0
 40
3.200000000000001
 41
0.0
 71
     5
 72
     1
  1
15
 11
0.0000000000000001
 21
1.0
 31
0.0
 73
     1
 44
1.0
1001
ACAD
1000
MTEXTBEGIN
1070
    73
1070
     1
1070
    44
1040
1.0
1070
    74
1070
     0
1000
MTEXTEND
  0
POINT
  5
F08C
330
C808
100
AcDbEntity
  8
Defpoints
 62
     0
100
AcDbPoint
 10
465.2662035149222
 20
133.7872846527293
 30
0.0
  0
POINT
  5
F08D
330
C808
100
AcDbEntity
  8
Defpoints
 62
     0
100
AcDbPoint
 10
465.2662035149222
 20
118.7872846527293
 30
0.0
  0
POINT
  5
F08E
330
C808
100
AcDbEntity
  8
Defpoints
 62
     0
100
AcDbPoint
 10
459.2662035149222
 20
118.7872846527293
 30
0.0
  0
ENDBLK
  5
C813
330
C808
100
AcDbEntity
  8
0
 48
10.0
100
AcDbBlockEnd
  0
BLOCK
  5
C965
330
C95B
100
AcDbEntity
  8
0
 48
10.0
100
AcDbBlockBegin
  2
*D7
 70
     1
 10
0.0
 20
0.0
 30
0.0
  3
*D7
  1

  0
LINE
  5
F08F
330
C95B
100
AcDbEntity
  8
AM_5
100
AcDbLine
 10
464.2662035149222
 20
133.7872846527293
 30
0.0
 11
458.2662035149223
 21
133.7872846527293
 31
0.0
  0
LINE
  5
F090
330
C95B
100
AcDbEntity
  8
AM_5
100
AcDbLine
 10
464.2662035149222
 20
118.7872846527293
 30
0.0
 11
458.2662035149223
 21
118.7872846527293
 31
0.0
  0
LINE
  5
F091
330
C95B
100
AcDbEntity
  8
AM_5
100
AcDbLine
 10
459.2662035149223
 20
132.7872846527293
 30
0.0
 11
459.2662035149222
 21
119.7872846527293
 31
0.0
  0
INSERT
  5
F092
330
C95B
100
AcDbEntity
  8
AM_5
100
AcDbBlockReference
  2
_Dot
 10
459.2662035149223
 20
133.7872846527293
 30
0.0
 50
90.0
  0
INSERT
  5
F093
330
C95B
100
AcDbEntity
  8
AM_5
100
AcDbBlockReference
  2
_Dot
 10
459.2662035149222
 20
118.7872846527293
 30
0.0
 50
270.0
  0
MTEXT
  5
F094
330
C95B
100
AcDbEntity
  8
AM_5
 62
     2
100
AcDbMText
 10
456.1662035149222
 20
126.2872846527294
 30
0.0
 40
3.200000000000001
 41
0.0
 71
     5
 72
     1
  1
15
 11
0.0000000000000001
 21
1.0
 31
0.0
 73
     1
 44
1.0
1001
ACAD
1000
MTEXTBEGIN
1070
    73
1070
     1
1070
    44
1040
1.0
1070
    74
1070
     0
1000
MTEXTEND
  0
POINT
  5
F095
330
C95B
100
AcDbEntity
  8
Defpoints
 62
     0
100
AcDbPoint
 10
465.2662035149222
 20
133.7872846527293
 30
0.0
  0
POINT
  5
F096
330
C95B
100
AcDbEntity
  8
Defpoints
 62
     0
100
AcDbPoint
 10
465.2662035149222
 20
118.7872846527293
 30
0.0
  0
POINT
  5
F097
330
C95B
100
AcDbEntity
  8
Defpoints
 62
     0
100
AcDbPoint
 10
459.2662035149222
 20
118.7872846527293
 30
0.0
  0
ENDBLK
  5
C966
330
C95B
100
AcDbEntity
  8
0
 48
10.0
100
AcDbBlockEnd
  0
BLOCK
  5
C96E
330
C967
100
AcDbEntity
  8
0
 48
10.0
100
AcDbBlockBegin
  2
*D8
 70
     1
 10
0.0
 20
0.0
 30
0.0
  3
*D8
  1

  0
LINE
  5
F098
330
C967
100
AcDbEntity
  8
AM_5
100
AcDbLine
 10
489.8649937551835
 20
142.194645375742
 30
0.0
 11
482.1816604218502
 21
142.194645375742
 31
0.0
  0
LINE
  5
F099
330
C967
100
AcDbEntity
  8
AM_5
100
AcDbLine
 10
482.1816604218502
 20
142.194645375742
 30
0.0
 11
476.0798407868177
 21
137.0208849308111
 31
0.0
  0
MTEXT
  5
F09A
330
C967
100
AcDbEntity
  8
AM_5
 62
     2
100
AcDbMText
 10
486.7733270885168
 20
145.4446453757421
 30
0.0
 40
3.5
 41
0.0
 71
     5
 72
     1
  1
\U+220510
 73
     1
 44
1.0
1001
ACAD
1000
MTEXTBEGIN
1070
    73
1070
     1
1070
    44
1040
1.0
1070
    74
1070
     0
1000
MTEXTEND
  0
LINE
  5
F09B
330
C967
100
AcDbEntity
  8
AM_5
100
AcDbLine
 10
468.4525662430271
 20
130.5536843746474
 30
0.0
 11
476.0798407868177
 21
137.0208849308111
 31
0.0
  0
INSERT
  5
F09C
330
C967
100
AcDbEntity
  8
AM_5
100
AcDbBlockReference
  2
_DotSmall
 10
468.4525662430271
 20
130.5536843746474
 30
0.0
 41
4.0
 42
4.0
 43
4.0
 50
40.29476216611904
  0
INSERT
  5
F09D
330
C967
100
AcDbEntity
  8
AM_5
100
AcDbBlockReference
  2
_DotSmall
 10
476.0798407868177
 20
137.0208849308111
 30
0.0
 41
4.0
 42
4.0
 43
4.0
 50
220.294762166119
  0
POINT
  5
F09E
330
C967
100
AcDbEntity
  8
Defpoints
 62
     0
100
AcDbPoint
 10
476.0798407868177
 20
137.0208849308111
 30
0.0
  0
POINT
  5
F09F
330
C967
100
AcDbEntity
  8
Defpoints
 62
     0
100
AcDbPoint
 10
468.4525662430271
 20
130.5536843746474
 30
0.0
  0
ENDBLK
  5
C96F
330
C967
100
AcDbEntity
  8
0
 48
10.0
100
AcDbBlockEnd
  0
BLOCK
  5
E0D5
330
E0CB
100
AcDbEntity
  8
0
 48
10.0
100
AcDbBlockBegin
  2
*D9
 70
     1
 10
0.0
 20
0.0
 30
0.0
  3
*D9
  1

  0
LINE
  5
F0A0
330
E0CB
100
AcDbEntity
  8
AM_5
100
AcDbLine
 10
462.2662035149223
 20
188.8240758147453
 30
0.0
 11
462.2662035149223
 21
208.3240758147454
 31
0.0
  0
LINE
  5
F0A1
330
E0CB
100
AcDbEntity
  8
AM_5
100
AcDbLine
 10
482.2662035149221
 20
188.8240758147453
 30
0.0
 11
482.2662035149221
 21
208.3240758147454
 31
0.0
  0
LINE
  5
F0A2
330
E0CB
100
AcDbEntity
  8
AM_5
100
AcDbLine
 10
463.2662035149222
 20
207.3240758147453
 30
0.0
 11
481.2662035149221
 21
207.3240758147453
 31
0.0
  0
INSERT
  5
F0A3
330
E0CB
100
AcDbEntity
  8
AM_5
100
AcDbBlockReference
  2
_Dot
 10
462.2662035149223
 20
207.3240758147453
 30
0.0
 50
180.0
  0
INSERT
  5
F0A4
330
E0CB
100
AcDbEntity
  8
AM_5
100
AcDbBlockReference
  2
_Dot
 10
482.2662035149221
 20
207.3240758147453
 30
0.0
  0
MTEXT
  5
F0A5
330
E0CB
100
AcDbEntity
  8
AM_5
 62
     2
100
AcDbMText
 10
472.2662035149221
 20
210.4240758147454
 30
0.0
 40
3.2
 41
0.0
 71
     5
 72
     1
  1
20
 73
     1
 44
1.0
1001
ACAD
1000
MTEXTBEGIN
1070
    73
1070
     1
1070
    44
1040
1.0
1070
    74
1070
     0
1000
MTEXTEND
  0
POINT
  5
F0A6
330
E0CB
100
AcDbEntity
  8
Defpoints
 62
     0
100
AcDbPoint
 10
462.2662035149223
 20
186.8240758147453
 30
0.0
  0
POINT
  5
F0A7
330
E0CB
100
AcDbEntity
  8
Defpoints
 62
     0
100
AcDbPoint
 10
482.2662035149221
 20
186.8240758147453
 30
0.0
  0
POINT
  5
F0A8
330
E0CB
100
AcDbEntity
  8
Defpoints
 62
     0
100
AcDbPoint
 10
482.2662035149221
 20
207.3240758147453
 30
0.0
  0
ENDBLK
  5
E0D6
330
E0CB
100
AcDbEntity
  8
0
 48
10.0
100
AcDbBlockEnd
  0
BLOCK
  5
E0E1
330
E0D7
100
AcDbEntity
  8
0
 48
10.0
100
AcDbBlockBegin
  2
*D10
 70
     1
 10
0.0
 20
0.0
 30
0.0
  3
*D10
  1

  0
LINE
  5
F0A9
330
E0D7
100
AcDbEntity
  8
AM_5
100
AcDbLine
 10
470.2662035149223
 20
196.8240758147453
 30
0.0
 11
453.2662035149222
 21
196.8240758147453
 31
0.0
  0
LINE
  5
F0AA
330
E0D7
100
AcDbEntity
  8
AM_5
100
AcDbLine
 10
470.2662035149223
 20
161.8240758147453
 30
0.0
 11
453.2662035149222
 21
161.8240758147453
 31
0.0
  0
LINE
  5
F0AB
330
E0D7
100
AcDbEntity
  8
AM_5
100
AcDbLine
 10
454.2662035149223
 20
195.8240758147453
 30
0.0
 11
454.2662035149223
 21
162.8240758147453
 31
0.0
  0
INSERT
  5
F0AC
330
E0D7
100
AcDbEntity
  8
AM_5
100
AcDbBlockReference
  2
_Dot
 10
454.2662035149223
 20
196.8240758147453
 30
0.0
 50
90.0
  0
INSERT
  5
F0AD
330
E0D7
100
AcDbEntity
  8
AM_5
100
AcDbBlockReference
  2
_Dot
 10
454.2662035149223
 20
161.8240758147453
 30
0.0
 50
270.0
  0
MTEXT
  5
F0AE
330
E0D7
100
AcDbEntity
  8
AM_5
 62
     2
100
AcDbMText
 10
451.1662035149221
 20
179.3240758147454
 30
0.0
 40
3.2
 41
0.0
 71
     5
 72
     1
  1
35
 11
0.0000000000000001
 21
1.0
 31
0.0
 73
     1
 44
1.0
1001
ACAD
1000
MTEXTBEGIN
1070
    73
1070
     1
1070
    44
1040
1.0
1070
    74
1070
     0
1000
MTEXTEND
  0
POINT
  5
F0AF
330
E0D7
100
AcDbEntity
  8
Defpoints
 62
     0
100
AcDbPoint
 10
472.2662035149222
 20
196.8240758147453
 30
0.0
  0
POINT
  5
F0B0
330
E0D7
100
AcDbEntity
  8
Defpoints
 62
     0
100
AcDbPoint
 10
472.2662035149222
 20
161.8240758147453
 30
0.0
  0
POINT
  5
F0B1
330
E0D7
100
AcDbEntity
  8
Defpoints
 62
     0
100
AcDbPoint
 10
454.2662035149223
 20
161.8240758147453
 30
0.0
  0
ENDBLK
  5
E0E2
330
E0D7
100
AcDbEntity
  8
0
 48
10.0
100
AcDbBlockEnd
  0
BLOCK
  5
EBAD
330
EBA3
100
AcDbEntity
  8
0
 48
10.0
100
AcDbBlockBegin
  2
*D11
 70
     1
 10
0.0
 20
0.0
 30
0.0
  3
*D11
  1

  0
LINE
  5
F0B2
330
EBA3
100
AcDbEntity
  8
AM_5
100
AcDbLine
 10
621.2979472985558
 20
199.3240758147446
 30
0.0
 11
642.7979472985558
 21
199.3240758147446
 31
0.0
  0
LINE
  5
F0B3
330
EBA3
100
AcDbEntity
  8
AM_5
100
AcDbLine
 10
621.2979472985558
 20
174.3240758147456
 30
0.0
 11
642.7979472985558
 21
174.3240758147456
 31
0.0
  0
LINE
  5
F0B4
330
EBA3
100
AcDbEntity
  8
AM_5
100
AcDbLine
 10
641.7979472985559
 20
198.3240758147446
 30
0.0
 11
641.7979472985559
 21
175.3240758147456
 31
0.0
  0
INSERT
  5
F0B5
330
EBA3
100
AcDbEntity
  8
AM_5
100
AcDbBlockReference
  2
_Dot
 10
641.7979472985559
 20
199.3240758147446
 30
0.0
 50
90.0
  0
INSERT
  5
F0B6
330
EBA3
100
AcDbEntity
  8
AM_5
100
AcDbBlockReference
  2
_Dot
 10
641.7979472985559
 20
174.3240758147456
 30
0.0
 50
270.0
  0
MTEXT
  5
F0B7
330
EBA3
100
AcDbEntity
  8
AM_5
 62
     2
100
AcDbMText
 10
638.6979472985558
 20
186.8240758296464
 30
0.0
 40
3.2
 41
0.0
 71
     5
 72
     1
  1
\U+220525
 11
0.0000000000000001
 21
1.0
 31
0.0
 73
     1
 44
1.0
1001
ACAD
1000
MTEXTBEGIN
1070
    73
1070
     1
1070
    44
1040
1.0
1070
    74
1070
     0
1000
MTEXTEND
  0
POINT
  5
F0B8
330
EBA3
100
AcDbEntity
  8
Defpoints
 62
     0
100
AcDbPoint
 10
619.2979472985558
 20
199.3240758147446
 30
0.0
  0
POINT
  5
F0B9
330
EBA3
100
AcDbEntity
  8
Defpoints
 62
     0
100
AcDbPoint
 10
619.2979472985558
 20
174.3240758147456
 30
0.0
  0
POINT
  5
F0BA
330
EBA3
100
AcDbEntity
  8
Defpoints
 62
     0
100
AcDbPoint
 10
641.7979472985559
 20
174.3240758147456
 30
0.0
  0
ENDBLK
  5
EBAE
330
EBA3
100
AcDbEntity
  8
0
 48
10.0
100
AcDbBlockEnd
  0
BLOCK
  5
EBB9
330
EBAF
100
AcDbEntity
  8
0
 48
10.0
100
AcDbBlockBegin
  2
*D12
 70
     1
 10
0.0
 20
0.0
 30
0.0
  3
*D12
  1

  0
LINE
  5
F0BB
330
EBAF
100
AcDbEntity
  8
AM_5
100
AcDbLine
 10
631.7979472985558
 20
188.8240758296464
 30
0.0
 11
631.7979472985558
 21
208.3240758147454
 31
0.0
  0
LINE
  5
F0BC
330
EBAF
100
AcDbEntity
  8
AM_5
100
AcDbLine
 10
531.7979549279547
 20
198.8240758147453
 30
0.0
 11
531.7979549279547
 21
208.3240758147454
 31
0.0
  0
LINE
  5
F0BD
330
EBAF
100
AcDbEntity
  8
AM_5
100
AcDbLine
 10
630.7979472985558
 20
207.3240758147453
 30
0.0
 11
532.7979549279547
 21
207.3240758147453
 31
0.0
  0
INSERT
  5
F0BE
330
EBAF
100
AcDbEntity
  8
AM_5
100
AcDbBlockReference
  2
_Dot
 10
631.7979472985558
 20
207.3240758147453
 30
0.0
  0
INSERT
  5
F0BF
330
EBAF
100
AcDbEntity
  8
AM_5
100
AcDbBlockReference
  2
_Dot
 10
531.7979549279547
 20
207.3240758147453
 30
0.0
 50
180.0
  0
MTEXT
  5
F0C0
330
EBAF
100
AcDbEntity
  8
AM_5
 62
     2
100
AcDbMText
 10
581.7979549279497
 20
210.4240758147454
 30
0.0
 40
3.2
 41
0.0
 71
     5
 72
     1
  1
100
 73
     1
 44
1.0
1001
ACAD
1000
MTEXTBEGIN
1070
    73
1070
     1
1070
    44
1040
1.0
1070
    74
1070
     0
1000
MTEXTEND
  0
POINT
  5
F0C1
330
EBAF
100
AcDbEntity
  8
Defpoints
 62
     0
100
AcDbPoint
 10
631.7979472985558
 20
186.8240758296464
 30
0.0
  0
POINT
  5
F0C2
330
EBAF
100
AcDbEntity
  8
Defpoints
 62
     0
100
AcDbPoint
 10
531.7979549279547
 20
196.8240758147453
 30
0.0
  0
POINT
  5
F0C3
330
EBAF
100
AcDbEntity
  8
Defpoints
 62
     0
100
AcDbPoint
 10
531.7979549279547
 20
207.3240758147453
 30
0.0
  0
ENDBLK
  5
EBBA
330
EBAF
100
AcDbEntity
  8
0
 48
10.0
100
AcDbBlockEnd
  0
BLOCK
  5
ECC7
330
ECBB
100
AcDbEntity
  8
0
 48
10.0
100
AcDbBlockBegin
  2
*D13
 70
     1
 10
0.0
 20
0.0
 30
0.0
  3
*D13
  1

  0
LINE
  5
F0C4
330
ECBB
100
AcDbEntity
  8
AM_5
100
AcDbLine
 10
518.7979549279547
 20
198.8240758147453
 30
0.0
 11
518.7979549279547
 21
208.3466927195648
 31
0.0
  0
LINE
  5
F0C5
330
ECBB
100
AcDbEntity
  8
AM_5
100
AcDbLine
 10
516.7979549279547
 20
197.8240758147453
 30
0.0
 11
516.7979549279547
 21
208.3466927195648
 31
0.0
  0
LINE
  5
F0C6
330
ECBB
100
AcDbEntity
  8
AM_5
100
AcDbLine
 10
519.7979549279547
 20
207.3466927195648
 30
0.0
 11
520.7979549279547
 21
207.3466927195648
 31
0.0
  0
LINE
  5
F0C7
330
ECBB
100
AcDbEntity
  8
AM_5
100
AcDbLine
 10
515.7979549279547
 20
207.3466927195648
 30
0.0
 11
510.3046215946213
 21
207.3466927195648
 31
0.0
  0
LINE
  5
F0C8
330
ECBB
100
AcDbEntity
  8
AM_5
100
AcDbLine
 10
518.7979549279547
 20
207.3466927195648
 30
0.0
 11
516.7979549279547
 21
207.3466927195648
 31
0.0
  0
INSERT
  5
F0C9
330
ECBB
100
AcDbEntity
  8
AM_5
100
AcDbBlockReference
  2
_Dot
 10
518.7979549279547
 20
207.3466927195648
 30
0.0
 50
180.0
  0
INSERT
  5
F0CA
330
ECBB
100
AcDbEntity
  8
AM_5
100
AcDbBlockReference
  2
_Dot
 10
516.7979549279547
 20
207.3466927195648
 30
0.0
  0
MTEXT
  5
F0CB
330
ECBB
100
AcDbEntity
  8
AM_5
 62
     2
100
AcDbMText
 10
512.551288261288
 20
210.4466927195648
 30
0.0
 40
3.200000000000001
 41
0.0
 71
     5
 72
     1
  1
2
 73
     1
 44
1.0
1001
ACAD
1000
MTEXTBEGIN
1070
    73
1070
     1
1070
    44
1040
1.0
1070
    74
1070
     0
1000
MTEXTEND
  0
POINT
  5
F0CC
330
ECBB
100
AcDbEntity
  8
Defpoints
 62
     0
100
AcDbPoint
 10
518.7979549279547
 20
196.8240758147453
 30
0.0
  0
POINT
  5
F0CD
330
ECBB
100
AcDbEntity
  8
Defpoints
 62
     0
100
AcDbPoint
 10
516.7979549279547
 20
195.8240758147453
 30
0.0
  0
POINT
  5
F0CE
330
ECBB
100
AcDbEntity
  8
Defpoints
 62
     0
100
AcDbPoint
 10
516.7979549279547
 20
207.3466927195648
 30
0.0
  0
ENDBLK
  5
ECC8
330
ECBB
100
AcDbEntity
  8
0
 48
10.0
100
AcDbBlockEnd
  0
BLOCK
  5
ECEA
330
ECE0
100
AcDbEntity
  8
0
 48
10.0
100
AcDbBlockBegin
  2
*D14
 70
     1
 10
0.0
 20
0.0
 30
0.0
  3
*D14
  1

  0
LINE
  5
F0CF
330
ECE0
100
AcDbEntity
  8
AM_5
100
AcDbLine
 10
528.7979549279547
 20
192.8240758147453
 30
0.0
 11
528.7979549279547
 21
208.3466927195647
 31
0.0
  0
LINE
  5
F0D0
330
ECE0
100
AcDbEntity
  8
AM_5
100
AcDbLine
 10
518.7979549279547
 20
198.8240758147453
 30
0.0
 11
518.7979549279547
 21
208.3466927195647
 31
0.0
  0
LINE
  5
F0D1
330
ECE0
100
AcDbEntity
  8
AM_5
100
AcDbLine
 10
527.7979549279547
 20
207.3466927195648
 30
0.0
 11
519.7979549279547
 21
207.3466927195648
 31
0.0
  0
INSERT
  5
F0D2
330
ECE0
100
AcDbEntity
  8
AM_5
100
AcDbBlockReference
  2
_Dot
 10
528.7979549279547
 20
207.3466927195648
 30
0.0
  0
INSERT
  5
F0D3
330
ECE0
100
AcDbEntity
  8
AM_5
100
AcDbBlockReference
  2
_Dot
 10
518.7979549279547
 20
207.3466927195648
 30
0.0
 50
180.0
  0
MTEXT
  5
F0D4
330
ECE0
100
AcDbEntity
  8
AM_5
 62
     2
100
AcDbMText
 10
523.7979549279547
 20
210.4466927195647
 30
0.0
 40
3.200000000000001
 41
0.0
 71
     5
 72
     1
  1
10
 73
     1
 44
1.0
1001
ACAD
1000
MTEXTBEGIN
1070
    73
1070
     1
1070
    44
1040
1.0
1070
    74
1070
     0
1000
MTEXTEND
  0
POINT
  5
F0D5
330
ECE0
100
AcDbEntity
  8
Defpoints
 62
     0
100
AcDbPoint
 10
528.7979549279547
 20
190.8240758147453
 30
0.0
  0
POINT
  5
F0D6
330
ECE0
100
AcDbEntity
  8
Defpoints
 62
     0
100
AcDbPoint
 10
518.7979549279547
 20
196.8240758147453
 30
0.0
  0
POINT
  5
F0D7
330
ECE0
100
AcDbEntity
  8
Defpoints
 62
     0
100
AcDbPoint
 10
518.7979549279547
 20
207.3466927195648
 30
0.0
  0
ENDBLK
  5
ECEB
330
ECE0
100
AcDbEntity
  8
0
 48
10.0
100
AcDbBlockEnd
  0
BLOCK
  5
ED0B
330
ED01
100
AcDbEntity
  8
0
 48
10.0
100
AcDbBlockBegin
  2
*D15
 70
     1
 10
0.0
 20
0.0
 30
0.0
  3
*D15
  1

  0
LINE
  5
F0D8
330
ED01
100
AcDbEntity
  8
AM_5
100
AcDbLine
 10
529.7979549279546
 20
196.8240758147453
 30
0.0
 11
499.7979549279547
 21
196.8240758147453
 31
0.0
  0
LINE
  5
F0D9
330
ED01
100
AcDbEntity
  8
AM_5
100
AcDbLine
 10
529.7979549279546
 20
136.8240758147457
 30
0.0
 11
499.7979549279547
 21
136.8240758147457
 31
0.0
  0
LINE
  5
F0DA
330
ED01
100
AcDbEntity
  8
AM_5
100
AcDbLine
 10
500.7979549279546
 20
195.8240758147453
 30
0.0
 11
500.7979549279546
 21
137.8240758147457
 31
0.0
  0
INSERT
  5
F0DB
330
ED01
100
AcDbEntity
  8
AM_5
100
AcDbBlockReference
  2
_Dot
 10
500.7979549279546
 20
196.8240758147453
 30
0.0
 50
90.0
  0
INSERT
  5
F0DC
330
ED01
100
AcDbEntity
  8
AM_5
100
AcDbBlockReference
  2
_Dot
 10
500.7979549279546
 20
136.8240758147457
 30
0.0
 50
270.0
  0
MTEXT
  5
F0DD
330
ED01
100
AcDbEntity
  8
AM_5
 62
     2
100
AcDbMText
 10
497.6979549279546
 20
166.8240758147456
 30
0.0
 40
3.200000000000001
 41
0.0
 71
     5
 72
     1
  1
60
 11
0.0000000000000001
 21
1.0
 31
0.0
 73
     1
 44
1.0
1001
ACAD
1000
MTEXTBEGIN
1070
    73
1070
     1
1070
    44
1040
1.0
1070
    74
1070
     0
1000
MTEXTEND
  0
POINT
  5
F0DE
330
ED01
100
AcDbEntity
  8
Defpoints
 62
     0
100
AcDbPoint
 10
531.7979549279547
 20
196.8240758147453
 30
0.0
  0
POINT
  5
F0DF
330
ED01
100
AcDbEntity
  8
Defpoints
 62
     0
100
AcDbPoint
 10
531.7979549279547
 20
136.8240758147457
 30
0.0
  0
POINT
  5
F0E0
330
ED01
100
AcDbEntity
  8
Defpoints
 62
     0
100
AcDbPoint
 10
500.7979549279546
 20
136.8240758147457
 30
0.0
  0
ENDBLK
  5
ED0C
330
ED01
100
AcDbEntity
  8
0
 48
10.0
100
AcDbBlockEnd
  0
BLOCK
  5
EDC7
330
EDBD
100
AcDbEntity
  8
0
 48
10.0
100
AcDbBlockBegin
  2
*D16
 70
     1
 10
0.0
 20
0.0
 30
0.0
  3
*D16
  1

  0
LINE
  5
F0E1
330
EDBD
100
AcDbEntity
  8
AM_5
100
AcDbLine
 10
657.7979520669265
 20
189.8240758147453
 30
0.0
 11
657.7979520669265
 21
208.3240758147451
 31
0.0
  0
LINE
  5
F0E2
330
EDBD
100
AcDbEntity
  8
AM_5
100
AcDbLine
 10
687.7979511132517
 20
189.8240758147453
 30
0.0
 11
687.7979511132517
 21
208.3240758147451
 31
0.0
  0
LINE
  5
F0E3
330
EDBD
100
AcDbEntity
  8
AM_5
100
AcDbLine
 10
658.7979520669265
 20
207.3240758147451
 30
0.0
 11
686.7979511132517
 21
207.3240758147451
 31
0.0
  0
INSERT
  5
F0E4
330
EDBD
100
AcDbEntity
  8
AM_5
100
AcDbBlockReference
  2
_Dot
 10
657.7979520669265
 20
207.3240758147451
 30
0.0
 50
180.0
  0
INSERT
  5
F0E5
330
EDBD
100
AcDbEntity
  8
AM_5
100
AcDbBlockReference
  2
_Dot
 10
687.7979511132517
 20
207.3240758147451
 30
0.0
  0
MTEXT
  5
F0E6
330
EDBD
100
AcDbEntity
  8
AM_5
 62
     2
100
AcDbMText
 10
672.7979515900891
 20
210.4240758147451
 30
0.0
 40
3.200000000000001
 41
0.0
 71
     5
 72
     1
  1
30
 73
     1
 44
1.0
1001
ACAD
1000
MTEXTBEGIN
1070
    73
1070
     1
1070
    44
1040
1.0
1070
    74
1070
     0
1000
MTEXTEND
  0
POINT
  5
F0E7
330
EDBD
100
AcDbEntity
  8
Defpoints
 62
     0
100
AcDbPoint
 10
657.7979520669265
 20
188.8240758147453
 30
0.0
  0
POINT
  5
F0E8
330
EDBD
100
AcDbEntity
  8
Defpoints
 62
     0
100
AcDbPoint
 10
687.7979511132517
 20
188.8240758147453
 30
0.0
  0
POINT
  5
F0E9
330
EDBD
100
AcDbEntity
  8
Defpoints
 62
     0
100
AcDbPoint
 10
687.7979511132517
 20
207.3240758147451
 30
0.0
  0
ENDBLK
  5
EDC8
330
EDBD
100
AcDbEntity
  8
0
 48
10.0
100
AcDbBlockEnd
  0
BLOCK
  5
EF40
330
EF36
100
AcDbEntity
  8
0
 48
10.0
100
AcDbBlockBegin
  2
*D17
 70
     1
 10
0.0
 20
0.0
 30
0.0
  3
*D17
  1

  0
LINE
  5
F0EA
330
EF36
100
AcDbEntity
  8
AM_5
100
AcDbLine
 10
529.7979549279546
 20
196.8240758147453
 30
0.0
 11
507.7979549279547
 21
196.8240758147453
 31
0.0
  0
LINE
  5
F0EB
330
EF36
100
AcDbEntity
  8
AM_5
100
AcDbLine
 10
512.7979549279547
 20
186.8240758296464
 30
0.0
 11
507.7979549279547
 21
186.8240758296464
 31
0.0
  0
LINE
  5
F0EC
330
EF36
100
AcDbEntity
  8
AM_5
100
AcDbLine
 10
508.7979549279546
 20
195.8240758147453
 30
0.0
 11
508.7979549279546
 21
187.8240758296464
 31
0.0
  0
INSERT
  5
F0ED
330
EF36
100
AcDbEntity
  8
AM_5
100
AcDbBlockReference
  2
_Dot
 10
508.7979549279546
 20
196.8240758147453
 30
0.0
 50
90.0
  0
INSERT
  5
F0EE
330
EF36
100
AcDbEntity
  8
AM_5
100
AcDbBlockReference
  2
_Dot
 10
508.7979549279546
 20
186.8240758296464
 30
0.0
 50
270.0
  0
MTEXT
  5
F0EF
330
EF36
100
AcDbEntity
  8
AM_5
 62
     2
100
AcDbMText
 10
505.6979549279546
 20
191.824075822196
 30
0.0
 40
3.200000000000001
 41
0.0
 71
     5
 72
     1
  1
10
 11
0.0000000000000001
 21
1.0
 31
0.0
 73
     1
 44
1.0
1001
ACAD
1000
MTEXTBEGIN
1070
    73
1070
     1
1070
    44
1040
1.0
1070
    74
1070
     0
1000
MTEXTEND
  0
POINT
  5
F0F0
330
EF36
100
AcDbEntity
  8
Defpoints
 62
     0
100
AcDbPoint
 10
531.7979549279547
 20
196.8240758147453
 30
0.0
  0
POINT
  5
F0F1
330
EF36
100
AcDbEntity
  8
Defpoints
 62
     0
100
AcDbPoint
 10
514.7979549279547
 20
186.8240758296464
 30
0.0
  0
POINT
  5
F0F2
330
EF36
100
AcDbEntity
  8
Defpoints
 62
     0
100
AcDbPoint
 10
508.7979549279546
 20
186.8240758296464
 30
0.0
  0
ENDBLK
  5
EF41
330
EF36
100
AcDbEntity
  8
0
 48
10.0
100
AcDbBlockEnd
  0
BLOCK
  5
EF56
330
EF4C
100
AcDbEntity
  8
0
 48
10.0
100
AcDbBlockBegin
  2
*D18
 70
     1
 10
0.0
 20
0.0
 30
0.0
  3
*D18
  1

  0
LINE
  5
F0F3
330
EF4C
100
AcDbEntity
  8
AM_5
100
AcDbLine
 10
512.7979549279547
 20
186.8240758296464
 30
0.0
 11
507.7979549279546
 21
186.8240758296464
 31
0.0
  0
LINE
  5
F0F4
330
EF4C
100
AcDbEntity
  8
AM_5
100
AcDbLine
 10
512.7979549279547
 20
171.8240758147453
 30
0.0
 11
507.7979549279546
 21
171.8240758147453
 31
0.0
  0
LINE
  5
F0F5
330
EF4C
100
AcDbEntity
  8
AM_5
100
AcDbLine
 10
508.7979549279546
 20
185.8240758296464
 30
0.0
 11
508.7979549279546
 21
172.8240758147453
 31
0.0
  0
INSERT
  5
F0F6
330
EF4C
100
AcDbEntity
  8
AM_5
100
AcDbBlockReference
  2
_Dot
 10
508.7979549279546
 20
186.8240758296464
 30
0.0
 50
90.0
  0
INSERT
  5
F0F7
330
EF4C
100
AcDbEntity
  8
AM_5
100
AcDbBlockReference
  2
_Dot
 10
508.7979549279546
 20
171.8240758147453
 30
0.0
 50
270.0
  0
MTEXT
  5
F0F8
330
EF4C
100
AcDbEntity
  8
AM_5
 62
     2
100
AcDbMText
 10
505.6979549279545
 20
179.324075822196
 30
0.0
 40
3.200000000000001
 41
0.0
 71
     5
 72
     1
  1
15
 11
0.0000000000000001
 21
1.0
 31
0.0
 73
     1
 44
1.0
1001
ACAD
1000
MTEXTBEGIN
1070
    73
1070
     1
1070
    44
1040
1.0
1070
    74
1070
     0
1000
MTEXTEND
  0
POINT
  5
F0F9
330
EF4C
100
AcDbEntity
  8
Defpoints
 62
     0
100
AcDbPoint
 10
514.7979549279547
 20
186.8240758296464
 30
0.0
  0
POINT
  5
F0FA
330
EF4C
100
AcDbEntity
  8
Defpoints
 62
     0
100
AcDbPoint
 10
514.7979549279547
 20
171.8240758147453
 30
0.0
  0
POINT
  5
F0FB
330
EF4C
100
AcDbEntity
  8
Defpoints
 62
     0
100
AcDbPoint
 10
508.7979549279546
 20
171.8240758147453
 30
0.0
  0
ENDBLK
  5
EF57
330
EF4C
100
AcDbEntity
  8
0
 48
10.0
100
AcDbBlockEnd
  0
BLOCK
  5
F041
330
F03F
100
AcDbEntity
  8
0
 48
10.0
100
AcDbBlockBegin
  2
_DotSmall
 70
     0
 10
0.0
 20
0.0
 30
0.0
  3
_DotSmall
  1

  0
LWPOLYLINE
  5
F040
330
F03F
100
AcDbEntity
  8
0
  6
ByBlock
 62
     0
100
AcDbPolyline
 90
        2
 70
     1
 43
0.5
 10
-0.0625
 20
0.0
 42
1.0
 10
0.0625
 20
0.0
 42
1.0
  0
ENDBLK
  5
F042
330
F03F
100
AcDbEntity
  8
0
 48
10.0
100
AcDbBlockEnd
  0
ENDSEC
  0
SECTION
  2
ENTITIES
  0
TEXT
  5
B42C
330
1F
100
AcDbEntity
  8
AM_6
 60
     1
100
AcDbText
 10
408.4999999999999
 20
8.5
 30
0.0
 40
2.5
  1
!GENTITLE-INSERT
100
AcDbText
  0
TEXT
  5
B42D
330
1F
100
AcDbEntity
  8
AM_6
 60
     1
100
AcDbText
 10
0.0
 20
0.0
 30
0.0
 40
2.5
  1
!GENTITLE-LL
100
AcDbText
  0
TEXT
  5
B42E
330
1F
100
AcDbEntity
  8
AM_6
 60
     1
100
AcDbText
 10
420.0
 20
297.0
 30
0.0
 40
2.5
  1
!GENTITLE-RU
100
AcDbText
  0
TEXT
  5
B42F
330
1F
100
AcDbEntity
  8
AM_6
 60
     1
100
AcDbText
 10
420.0
 20
297.0
 30
0.0
 40
2.5
  1
!GENTITLE-MAX
100
AcDbText
  0
TEXT
  5
B439
330
1F
100
AcDbEntity
  8
AM_6
 60
     1
100
AcDbText
 10
0.0
 20
0.0
 30
0.0
 40
2.5
  1
!GENTITLE-LL
100
AcDbText
  0
TEXT
  5
B43A
330
1F
100
AcDbEntity
  8
AM_6
 60
     1
100
AcDbText
 10
408.4999999999999
 20
288.5
 30
0.0
 40
2.5
  1
!GENTITLE-RU
100
AcDbText
  0
TEXT
  5
B43B
330
1F
100
AcDbEntity
  8
AM_6
 60
     1
100
AcDbText
 10
420.0
 20
297.0
 30
0.0
 40
2.5
  1
!GENTITLE-MAX
100
AcDbText
  0
TEXT
  5
B43C
330
1F
100
AcDbEntity
  8
AM_6
 60
     1
100
AcDbText
 10
408.4999999999999
 20
8.5
 30
0.0
 40
2.5
  1
!GENTITLE-INSERT
100
AcDbText
  0
LINE
  5
B95E
330
1F
100
AcDbEntity
  8
size
100
AcDbLine
 10
420.0
 20
87.0
 30
0.0
 11
717.0
 21
87.0
 31
0.0
1001
GENIUS_GENREC_14
1002
{
1000
PYDIR
1011
420.0
1021
384.0
1031
0.0
1002
}
1002
{
1000
PXDIR
1011
840.0
1021
87.0
1031
0.0
1002
}
1002
{
1000
PORI
1011
420.0
1021
87.0
1031
0.0
1002
}
1002
{
1000
PINS
1011
630.0
1021
235.5
1031
0.0
1002
}
1002
{
1000
HVAL
1000
297
1002
}
1002
{
1000
H
1070
     2
1002
}
1002
{
1000
WVAL
1000
420
1002
}
1002
{
1000
W
1070
     2
1002
}
1002
{
1000
C
1070
     4
1002
}
1001
GENIUS_GENOBJ-N-REC_13
1002
{
1000
OWNER
1000
GEN
1002
}
1001
GENIUS_GENODEF_13
1002
{
1000
HIER
1070
     0
1002
}
1002
{
1000
MANEDIT
1070
     0
1002
}
1002
{
1000
NOSEL
1070
     0
1002
}
1002
{
1000
BEHIND
1070
     0
1002
}
1002
{
1000
OTHER
1070
     0
1002
}
1002
{
1000
REACTOR
1002
}
  0
LINE
  5
B95F
330
1F
100
AcDbEntity
  8
size
100
AcDbLine
 10
420.0
 20
297.0
 30
0.0
 11
420.0
 21
87.0
 31
0.0
1001
GENIUS_GENREC_14
1002
{
1000
PYDIR
1011
420.0
1021
384.0
1031
0.0
1002
}
1002
{
1000
PXDIR
1011
840.0
1021
87.0
1031
0.0
1002
}
1002
{
1000
PORI
1011
420.0
1021
87.0
1031
0.0
1002
}
1002
{
1000
PINS
1011
630.0
1021
235.5
1031
0.0
1002
}
1002
{
1000
HVAL
1000
297
1002
}
1002
{
1000
H
1070
     2
1002
}
1002
{
1000
WVAL
1000
420
1002
}
1002
{
1000
W
1070
     2
1002
}
1002
{
1000
C
1070
     4
1002
}
1001
GENIUS_GENOBJ-N-REC_13
1002
{
1000
OWNER
1000
GEN
1002
}
1001
GENIUS_GENODEF_13
1002
{
1000
HIER
1070
     0
1002
}
1002
{
1000
MANEDIT
1070
     0
1002
}
1002
{
1000
NOSEL
1070
     0
1002
}
1002
{
1000
BEHIND
1070
     0
1002
}
1002
{
1000
OTHER
1070
     0
1002
}
1002
{
1000
REACTOR
1002
}
  0
LINE
  5
B960
330
1F
100
AcDbEntity
  8
waku
100
AcDbLine
 10
705.4999999999999
 20
95.5
 30
0.0
 11
705.4999999999999
 21
288.5
 31
0.0
1001
GENIUS_GENREC_14
1002
{
1000
PYDIR
1011
297.0
1021
303.0
1031
0.0
1002
}
1002
{
1000
PXDIR
1011
717.0
1021
6.0
1031
0.0
1002
}
1002
{
1000
PORI
1011
297.0
1021
6.0
1031
0.0
1002
}
1002
{
1000
PINS
1011
507.0
1021
154.4999999999999
1031
0.0
1002
}
1002
{
1000
HVAL
1000
297
1002
}
1002
{
1000
H
1070
     2
1002
}
1002
{
1000
WVAL
1000
420
1002
}
1002
{
1000
W
1070
     2
1002
}
1002
{
1000
C
1070
     4
1002
}
1001
GENIUS_GENOBJ-N-REC_13
1002
{
1000
OWNER
1000
GEN
1002
}
1001
GENIUS_GENODEF_13
1002
{
1000
HIER
1070
     0
1002
}
1002
{
1000
MANEDIT
1070
     0
1002
}
1002
{
1000
NOSEL
1070
     0
1002
}
1002
{
1000
BEHIND
1070
     0
1002
}
1002
{
1000
OTHER
1070
     0
1002
}
1002
{
1000
REACTOR
1002
}
  0
LINE
  5
B961
330
1F
100
AcDbEntity
  8
waku
100
AcDbLine
 10
431.5
 20
288.5
 30
0.0
 11
431.5
 21
95.5
 31
0.0
1001
GENIUS_GENREC_14
1002
{
1000
PYDIR
1011
420.0
1021
384.0
1031
0.0
1002
}
1002
{
1000
PXDIR
1011
840.0
1021
87.0
1031
0.0
1002
}
1002
{
1000
PORI
1011
420.0
1021
87.0
1031
0.0
1002
}
1002
{
1000
PINS
1011
630.0
1021
235.5
1031
0.0
1002
}
1002
{
1000
HVAL
1000
297
1002
}
1002
{
1000
H
1070
     2
1002
}
1002
{
1000
WVAL
1000
420
1002
}
1002
{
1000
W
1070
     2
1002
}
1002
{
1000
C
1070
     4
1002
}
1001
GENIUS_GENOBJ-N-REC_13
1002
{
1000
OWNER
1000
GEN
1002
}
1001
GENIUS_GENODEF_13
1002
{
1000
HIER
1070
     0
1002
}
1002
{
1000
MANEDIT
1070
     0
1002
}
1002
{
1000
NOSEL
1070
     0
1002
}
1002
{
1000
BEHIND
1070
     0
1002
}
1002
{
1000
OTHER
1070
     0
1002
}
1002
{
1000
REACTOR
1002
}
  0
LINE
  5
B962
330
1F
100
AcDbEntity
  8
waku
100
AcDbLine
 10
705.4999999999999
 20
288.5
 30
0.0
 11
431.5
 21
288.5
 31
0.0
1001
GENIUS_GENREC_14
1002
{
1000
PYDIR
1011
297.0
1021
297.0
1031
0.0
1002
}
1002
{
1000
PXDIR
1011
717.0
1021
0.0
1031
0.0
1002
}
1002
{
1000
PORI
1011
297.0
1021
0.0
1031
0.0
1002
}
1002
{
1000
PINS
1011
507.0
1021
148.4999999999999
1031
0.0
1002
}
1002
{
1000
HVAL
1000
297
1002
}
1002
{
1000
H
1070
     2
1002
}
1002
{
1000
WVAL
1000
420
1002
}
1002
{
1000
W
1070
     2
1002
}
1002
{
1000
C
1070
     4
1002
}
1001
GENIUS_GENOBJ-N-REC_13
1002
{
1000
OWNER
1000
GEN
1002
}
1001
GENIUS_GENODEF_13
1002
{
1000
HIER
1070
     0
1002
}
1002
{
1000
MANEDIT
1070
     0
1002
}
1002
{
1000
NOSEL
1070
     0
1002
}
1002
{
1000
BEHIND
1070
     0
1002
}
1002
{
1000
OTHER
1070
     0
1002
}
1002
{
1000
REACTOR
1002
}
  0
LINE
  5
B963
330
1F
100
AcDbEntity
  8
waku
100
AcDbLine
 10
431.5
 20
95.5
 30
0.0
 11
705.4999999999999
 21
95.5
 31
0.0
1001
GENIUS_GENREC_14
1002
{
1000
PYDIR
1011
420.0
1021
384.0
1031
0.0
1002
}
1002
{
1000
PXDIR
1011
840.0
1021
87.0
1031
0.0
1002
}
1002
{
1000
PORI
1011
420.0
1021
87.0
1031
0.0
1002
}
1002
{
1000
PINS
1011
630.0
1021
235.5
1031
0.0
1002
}
1002
{
1000
HVAL
1000
297
1002
}
1002
{
1000
H
1070
     2
1002
}
1002
{
1000
WVAL
1000
420
1002
}
1002
{
1000
W
1070
     2
1002
}
1002
{
1000
C
1070
     4
1002
}
  0
LINE
  5
B964
330
1F
100
AcDbEntity
  8
size
100
AcDbLine
 10
717.0
 20
297.0
 30
0.0
 11
717.0
 21
86.99999999999997
 31
0.0
1001
GENIUS_GENREC_14
1002
{
1000
PYDIR
1011
420.0
1021
384.0
1031
0.0
1002
}
1002
{
1000
PXDIR
1011
840.0
1021
87.0
1031
0.0
1002
}
1002
{
1000
PORI
1011
420.0
1021
87.0
1031
0.0
1002
}
1002
{
1000
PINS
1011
630.0
1021
235.5
1031
0.0
1002
}
1002
{
1000
HVAL
1000
297
1002
}
1002
{
1000
H
1070
     2
1002
}
1002
{
1000
WVAL
1000
420
1002
}
1002
{
1000
W
1070
     2
1002
}
1002
{
1000
C
1070
     4
1002
}
1001
GENIUS_GENOBJ-N-REC_13
1002
{
1000
OWNER
1000
GEN
1002
}
1001
GENIUS_GENODEF_13
1002
{
1000
HIER
1070
     0
1002
}
1002
{
1000
MANEDIT
1070
     0
1002
}
1002
{
1000
NOSEL
1070
     0
1002
}
1002
{
1000
BEHIND
1070
     0
1002
}
1002
{
1000
OTHER
1070
     0
1002
}
1002
{
1000
REACTOR
1002
}
  0
TEXT
  5
B965
330
1F
100
AcDbEntity
  8
AM_6
 60
     1
100
AcDbText
 10
420.0
 20
87.0
 30
0.0
 40
2.5
  1
!GENTITLE-LL
100
AcDbText
  0
LINE
  5
B966
330
1F
100
AcDbEntity
  8
size
100
AcDbLine
 10
420.0
 20
297.0
 30
0.0
 11
717.0
 21
297.0
 31
0.0
1001
GENIUS_GENREC_14
1002
{
1000
PYDIR
1011
420.0
1021
384.0
1031
0.0
1002
}
1002
{
1000
PXDIR
1011
840.0
1021
87.0
1031
0.0
1002
}
1002
{
1000
PORI
1011
420.0
1021
87.0
1031
0.0
1002
}
1002
{
1000
PINS
1011
630.0
1021
235.5
1031
0.0
1002
}
1002
{
1000
HVAL
1000
297
1002
}
1002
{
1000
H
1070
     2
1002
}
1002
{
1000
WVAL
1000
420
1002
}
1002
{
1000
W
1070
     2
1002
}
1002
{
1000
C
1070
     4
1002
}
1001
GENIUS_GENOBJ-N-REC_13
1002
{
1000
OWNER
1000
GEN
1002
}
1001
GENIUS_GENODEF_13
1002
{
1000
HIER
1070
     0
1002
}
1002
{
1000
MANEDIT
1070
     0
1002
}
1002
{
1000
NOSEL
1070
     0
1002
}
1002
{
1000
BEHIND
1070
     0
1002
}
1002
{
1000
OTHER
1070
     0
1002
}
1002
{
1000
REACTOR
1002
}
  0
TEXT
  5
B967
330
1F
100
AcDbEntity
  8
AM_6
 60
     1
100
AcDbText
 10
705.4999999999999
 20
288.5
 30
0.0
 40
2.5
  1
!GENTITLE-RU
100
AcDbText
  0
TEXT
  5
B968
330
1F
100
AcDbEntity
  8
AM_6
 60
     1
100
AcDbText
 10
717.0
 20
297.0
 30
0.0
 40
2.5
  1
!GENTITLE-MAX
100
AcDbText
  0
TEXT
  5
B969
330
1F
100
AcDbEntity
  8
AM_6
 60
     1
100
AcDbText
 10
705.4999999999999
 20
95.5
 30
0.0
 40
2.5
  1
!GENTITLE-INSERT
100
AcDbText
  0
LINE
  5
B96C
330
1F
100
AcDbEntity
  8
AM_2
100
AcDbLine
 10
451.4999999999999
 20
288.5
 30
0.0
 11
451.4999999999999
 21
216.5
 31
0.0
  0
LINE
  5
B96D
330
1F
100
AcDbEntity
  8
AM_2
100
AcDbLine
 10
431.5
 20
280.5
 30
0.0
 11
541.5
 21
280.5
 31
0.0
  0
LINE
  5
B96E
330
1F
100
AcDbEntity
  8
AM_2
100
AcDbLine
 10
431.5
 20
272.5
 30
0.0
 11
541.5
 21
272.5
 31
0.0
  0
LINE
  5
B96F
330
1F
100
AcDbEntity
  8
AM_2
100
AcDbLine
 10
431.5
 20
264.5
 30
0.0
 11
541.5
 21
264.5
 31
0.0
  0
LINE
  5
B970
330
1F
100
AcDbEntity
  8
AM_2
100
AcDbLine
 10
431.5
 20
256.5
 30
0.0
 11
541.5
 21
256.5
 31
0.0
  0
LINE
  5
B971
330
1F
100
AcDbEntity
  8
AM_2
100
AcDbLine
 10
451.4999999999999
 20
232.5
 30
0.0
 11
541.5
 21
232.5
 31
0.0
  0
LINE
  5
B972
330
1F
100
AcDbEntity
  8
AM_0
100
AcDbLine
 10
431.5
 20
216.5
 30
0.0
 11
541.5
 21
216.5
 31
0.0
  0
LINE
  5
B977
330
1F
100
AcDbEntity
  8
AM_0
100
AcDbLine
 10
431.5
 20
288.5
 30
0.0
 11
431.5
 21
192.5
 31
0.0
  0
LINE
  5
B978
330
1F
100
AcDbEntity
  8
AM_0
100
AcDbLine
 10
431.5
 20
288.5
 30
0.0
 11
541.5
 21
288.5
 31
0.0
  0
LINE
  5
B979
330
1F
100
AcDbEntity
  8
AM_0
100
AcDbLine
 10
541.5
 20
288.5
 30
0.0
 11
541.5
 21
216.5
 31
0.0
  0
LINE
  5
B97B
330
1F
100
AcDbEntity
  8
AM_2
100
AcDbLine
 10
451.4999999999999
 20
240.5
 30
0.0
 11
541.5
 21
240.5
 31
0.0
  0
LINE
  5
B97C
330
1F
100
AcDbEntity
  8
AM_2
100
AcDbLine
 10
451.4999999999999
 20
232.5
 30
0.0
 11
541.5
 21
232.5
 31
0.0
  0
MTEXT
  5
B97D
330
1F
100
AcDbEntity
  8
AM_6
 48
10.0
100
AcDbMText
 10
441.5
 20
284.5
 30
0.0
 40
3.2
 41
20.00000000000003
 71
     5
 72
     5
  1
品　名
 73
     1
 44
1.0
1001
ACAD
1000
MTEXTBEGIN
1070
    73
1070
     1
1070
    44
1040
1.0
1070
    74
1070
     0
1000
MTEXTEND
  0
MTEXT
  5
B97F
330
1F
100
AcDbEntity
  8
AM_6
 48
10.0
100
AcDbMText
 10
441.5
 20
276.5
 30
0.0
 40
3.2
 41
20.00000000000003
 71
     5
 72
     5
  1
品　番
 73
     1
 44
1.0
1001
ACAD
1000
MTEXTBEGIN
1070
    73
1070
     1
1070
    44
1040
1.0
1070
    74
1070
     0
1000
MTEXTEND
  0
MTEXT
  5
B980
330
1F
100
AcDbEntity
  8
AM_6
 48
10.0
100
AcDbMText
 10
441.5
 20
268.5
 30
0.0
 40
3.2
 41
20.00000000000003
 71
     5
 72
     5
  1
材　質
 73
     1
 44
1.0
1001
ACAD
1000
MTEXTBEGIN
1070
    73
1070
     1
1070
    44
1040
1.0
1070
    74
1070
     0
1000
MTEXTEND
  0
MTEXT
  5
B981
330
1F
100
AcDbEntity
  8
AM_6
 48
10.0
100
AcDbMText
 10
441.5
 20
260.5
 30
0.0
 40
3.2
 41
20.00000000000003
 71
     5
 72
     5
  1
仕上げ
 73
     1
 44
1.0
1001
ACAD
1000
MTEXTBEGIN
1070
    73
1070
     1
1070
    44
1040
1.0
1070
    74
1070
     0
1000
MTEXTEND
  0
MTEXT
  5
BBEA
330
1F
100
AcDbEntity
  8
AM_6
 48
10.0
100
AcDbMText
 10
451.4999999999999
 20
284.5
 30
0.0
 40
3.2
 41
90.0
 71
     4
 72
     5
  1
　戸当り
 73
     1
 44
1.0
1001
ACAD
1000
MTEXTBEGIN
1070
    73
1070
     1
1070
    44
1040
1.0
1070
    74
1070
     0
1000
MTEXTEND
  0
MTEXT
  5
BBEB
330
1F
100
AcDbEntity
  8
AM_6
 48
10.0
100
AcDbMText
 10
451.4999999999999
 20
276.5
 30
0.0
 40
3.2
 41
90.0
 71
     4
 72
     5
  1
　LC-740TN
 73
     1
 44
1.0
1001
ACAD
1000
MTEXTBEGIN
1070
    73
1070
     1
1070
    44
1040
1.0
1070
    74
1070
     0
1000
MTEXTEND
  0
MTEXT
  5
BBEC
330
1F
100
AcDbEntity
  8
AM_6
 48
10.0
100
AcDbMText
 10
451.4999999999999
 20
268.5
 30
0.0
 40
3.2
 41
90.0
 71
     4
 72
     5
  1
　アルミダイキャスト
 73
     1
 44
1.0
1001
ACAD
1000
MTEXTBEGIN
1070
    73
1070
     1
1070
    44
1040
1.0
1070
    74
1070
     0
1000
MTEXTEND
  0
MTEXT
  5
BBED
330
1F
100
AcDbEntity
  8
AM_6
 48
10.0
100
AcDbMText
 10
451.4999999999999
 20
260.5
 30
0.0
 40
3.2
 41
90.0
 71
     4
 72
     5
  1
　焼付塗装
 73
     1
 44
1.0
1001
ACAD
1000
MTEXTBEGIN
1070
    73
1070
     1
1070
    44
1040
1.0
1070
    74
1070
     0
1000
MTEXTEND
  0
LINE
  5
BBEE
330
1F
100
AcDbEntity
  8
AM_2
100
AcDbLine
 10
451.4999999999999
 20
248.5
 30
0.0
 11
541.5
 21
248.5
 31
0.0
  0
MTEXT
  5
BBEF
330
1F
100
AcDbEntity
  8
AM_6
 48
10.0
100
AcDbMText
 10
441.5
 20
252.5
 30
0.0
 40
3.2
 41
20.00000000000003
 71
     5
 72
     5
  1
セットビス
 73
     1
 44
1.0
1001
ACAD
1000
MTEXTBEGIN
1070
    73
1070
     1
1070
    44
1040
1.0
1070
    74
1070
     0
1000
MTEXTEND
  0
MTEXT
  5
BBF2
330
1F
100
AcDbEntity
  8
AM_6
 48
10.0
100
AcDbMText
 10
451.4999999999999
 20
252.5
 30
0.0
 40
3.2
 41
90.0
 71
     4
 72
     5
  1
　M4×10 ナベ小ネジ　+　SUS　2本 （パネル厚13ｍｍ用）
 73
     1
 44
1.0
1001
ACAD
1000
MTEXTBEGIN
1070
    73
1070
     1
1070
    44
1040
1.0
1070
    74
1070
     0
1000
MTEXTEND
  0
CIRCLE
  5
BBF3
330
1F
100
AcDbEntity
  8
AM_2
 48
10.0
100
AcDbCircle
 10
484.6647996476551
 20
252.2593137237846
 30
0.0
 40
1.8
  0
LINE
  5
C78C
102
{ACAD_REACTORS
330
C893
102
}
330
1F
100
AcDbEntity
  8
AM_7
 48
0.5
100
AcDbLine
 10
465.2662035149222
 20
133.7872846527293
 30
0.0
 11
479.2662035149223
 21
133.7872846527293
 31
0.0
  0
LINE
  5
C78D
102
{ACAD_REACTORS
330
C893
102
}
330
1F
100
AcDbEntity
  8
AM_7
 48
0.5
100
AcDbLine
 10
465.2662035149222
 20
118.7872846527293
 30
0.0
 11
479.2662035149223
 21
118.7872846527293
 31
0.0
  0
CIRCLE
  5
C78E
102
{ACAD_REACTORS
330
C893
102
}
330
1F
100
AcDbEntity
  8
AM_0
 48
0.5
100
AcDbCircle
 10
472.2662035149222
 20
118.7872846527293
 30
0.0
 40
5.0
  0
CIRCLE
  5
C78F
102
{ACAD_REACTORS
330
C893
102
}
330
1F
100
AcDbEntity
  8
AM_0
 48
0.5
100
AcDbCircle
 10
472.2662035149222
 20
133.7872846527293
 30
0.0
 40
5.0
  0
LINE
  5
C790
102
{ACAD_REACTORS
330
C893
102
}
330
1F
100
AcDbEntity
  8
AM_7
 48
0.5
100
AcDbLine
 10
472.2662035149222
 20
140.7872846527293
 30
0.0
 11
472.2662035149222
 21
111.7872846527293
 31
0.0
  0
MTEXT
  5
C804
330
1F
100
AcDbEntity
  8
AM_6
 48
10.0
100
AcDbMText
 10
472.2662035149222
 20
108.0021320289156
 30
0.0
 40
3.2
 41
20.0
 71
     5
 72
     5
  1
切欠推奨寸法
 73
     1
 44
1.0
1001
ACAD
1000
MTEXTBEGIN
1070
    73
1070
     1
1070
    44
1040
1.0
1070
    74
1070
     0
1000
MTEXTEND
  0
DIMENSION
  5
C807
330
1F
100
AcDbEntity
  8
AM_5
100
AcDbDimension
  2
*D5
 10
459.2662035149222
 20
118.7872846527293
 30
0.0
 11
456.1662035149222
 21
126.2872846527294
 31
0.0
 70
    32
 71
     5
 42
15.00000000000001
  3
SYS$0
100
AcDbAlignedDimension
 13
465.2662035149222
 23
133.7872846527293
 33
0.0
 14
465.2662035149222
 24
118.7872846527293
 34
0.0
 50
90.0
100
AcDbRotatedDimension
  0
HATCH
  5
C893
330
1F
100
AcDbEntity
  8
AM_2
 48
10.0
100
AcDbHatch
 10
0.0
 20
0.0
 30
0.0
210
0.0
220
0.0
230
1.0
  2
ANSI31
 70
     0
 71
     1
 91
        8
 92
        7
 72
     1
 73
     1
 93
        3
 10
472.2662035149221
 20
133.7872846527293
 42
0.0
 10
472.2662035149221
 20
128.7872846527293
 42
0.4142135623730984
 10
477.2662035149222
 20
133.7872846527293
 42
0.0
 97
        3
330
C78C
330
C790
330
C78F
 92
        7
 72
     1
 73
     1
 93
        3
 10
472.2662035149222
 20
138.7872846527293
 42
0.0
 10
472.2662035149222
 20
133.7872846527293
 42
0.0
 10
477.2662035149222
 20
133.7872846527293
 42
0.4142135623730951
 97
        3
330
C790
330
C78C
330
C78F
 92
        7
 72
     1
 73
     1
 93
        3
 10
467.2662035149222
 20
133.7872846527293
 42
0.0
 10
472.2662035149222
 20
133.7872846527293
 42
0.0
 10
472.2662035149222
 20
138.7872846527293
 42
0.4142135623730951
 97
        3
330
C78F
330
C78C
330
C790
 92
        7
 72
     1
 73
     1
 93
        3
 10
467.2662035149222
 20
133.7872846527293
 42
0.4142135623730951
 10
472.2662035149222
 20
128.7872846527293
 42
0.0
 10
472.2662035149221
 20
133.7872846527293
 42
0.0
 97
        3
330
C78C
330
C78F
330
C790
 92
        7
 72
     1
 73
     1
 93
        3
 10
472.2662035149222
 20
118.7872846527293
 42
0.0
 10
472.2662035149222
 20
123.7872846527293
 42
0.4142135623730951
 10
467.2662035149222
 20
118.7872846527293
 42
0.0
 97
        3
330
C78E
330
C78D
330
C790
 92
        7
 72
     1
 73
     1
 93
        3
 10
472.2662035149221
 20
118.7872846527293
 42
0.0
 10
477.2662035149222
 20
118.7872846527293
 42
0.4142135623730951
 10
472.2662035149222
 20
123.7872846527293
 42
0.0
 97
        3
330
C790
330
C78D
330
C78E
 92
        7
 72
     1
 73
     1
 93
        3
 10
472.2662035149222
 20
113.7872846527293
 42
0.4142135623730951
 10
477.2662035149222
 20
118.7872846527293
 42
0.0
 10
472.2662035149222
 20
118.7872846527293
 42
0.0
 97
        3
330
C78D
330
C790
330
C78E
 92
        7
 72
     1
 73
     1
 93
        3
 10
472.2662035149221
 20
118.7872846527293
 42
0.0
 10
467.2662035149222
 20
118.7872846527293
 42
0.4142135623730951
 10
472.2662035149222
 20
113.7872846527293
 42
0.0
 97
        3
330
C78D
330
C78E
330
C790
 75
     0
 76
     1
 52
0.0
 41
0.5
 77
     0
 78
     1
 53
45.0
 43
10.0
 44
-2.212187370871106
 45
-1.122532015133643
 46
1.122532015133644
 79
     0
 47
0.0579031474827523
 98
        8
 10
475.9292522665828
 20
132.9679085690009
 10
474.4806996993339
 20
136.1525811056836
 10
470.4247440970484
 20
136.4420977315308
 10
470.1350335835987
 20
133.6048420415736
 10
470.4247440970484
 20
119.8238935939384
 10
474.1330462417955
 20
120.6924408845707
 10
474.0171603536173
 20
116.0601878055608
 10
470.7144546104973
 20
115.9443821899858
1001
ACAD
1010
0.0
1020
0.0
1030
0.0
  0
HATCH
  5
C94F
330
1F
100
AcDbEntity
  8
AM_2
 48
10.0
100
AcDbHatch
 10
0.0
 20
0.0
 30
0.0
210
0.0
220
0.0
230
1.0
  2
ANSI31
 70
     0
 71
     1
 91
        8
 92
        7
 72
     1
 73
     1
 93
        3
 10
472.2662035149221
 20
133.7872846527293
 42
0.0
 10
472.2662035149221
 20
128.7872846527293
 42
0.4142135623730984
 10
477.2662035149222
 20
133.7872846527293
 42
0.0
 97
        3
330
C950
330
C954
330
C953
 92
        7
 72
     1
 73
     1
 93
        3
 10
472.2662035149222
 20
138.7872846527293
 42
0.0
 10
472.2662035149222
 20
133.7872846527293
 42
0.0
 10
477.2662035149222
 20
133.7872846527293
 42
0.4142135623730951
 97
        3
330
C954
330
C950
330
C953
 92
        7
 72
     1
 73
     1
 93
        3
 10
467.2662035149222
 20
133.7872846527293
 42
0.0
 10
472.2662035149222
 20
133.7872846527293
 42
0.0
 10
472.2662035149222
 20
138.7872846527293
 42
0.4142135623730951
 97
        3
330
C953
330
C950
330
C954
 92
        7
 72
     1
 73
     1
 93
        3
 10
467.2662035149222
 20
133.7872846527293
 42
0.4142135623730951
 10
472.2662035149222
 20
128.7872846527293
 42
0.0
 10
472.2662035149221
 20
133.7872846527293
 42
0.0
 97
        3
330
C950
330
C953
330
C954
 92
        7
 72
     1
 73
     1
 93
        3
 10
472.2662035149222
 20
118.7872846527293
 42
0.0
 10
472.2662035149222
 20
123.7872846527293
 42
0.4142135623730951
 10
467.2662035149222
 20
118.7872846527293
 42
0.0
 97
        3
330
C952
330
C951
330
C954
 92
        7
 72
     1
 73
     1
 93
        3
 10
472.2662035149221
 20
118.7872846527293
 42
0.0
 10
477.2662035149222
 20
118.7872846527293
 42
0.4142135623730951
 10
472.2662035149222
 20
123.7872846527293
 42
0.0
 97
        3
330
C954
330
C951
330
C952
 92
        7
 72
     1
 73
     1
 93
        3
 10
472.2662035149222
 20
113.7872846527293
 42
0.4142135623730951
 10
477.2662035149222
 20
118.7872846527293
 42
0.0
 10
472.2662035149222
 20
118.7872846527293
 42
0.0
 97
        3
330
C951
330
C954
330
C952
 92
        7
 72
     1
 73
     1
 93
        3
 10
472.2662035149221
 20
118.7872846527293
 42
0.0
 10
467.2662035149222
 20
118.7872846527293
 42
0.4142135623730951
 10
472.2662035149222
 20
113.7872846527293
 42
0.0
 97
        3
330
C951
330
C952
330
C954
 75
     0
 76
     1
 52
0.0
 41
0.5
 77
     0
 78
     1
 53
45.0
 43
10.0
 44
-2.212187370871106
 45
-1.122532015133643
 46
1.122532015133644
 79
     0
 47
0.0579031474827523
 98
        8
 10
475.9292522665828
 20
132.9679085690009
 10
474.4806996993339
 20
136.1525811056836
 10
470.4247440970484
 20
136.4420977315308
 10
470.1350335835987
 20
133.6048420415736
 10
470.4247440970484
 20
119.8238935939384
 10
474.1330462417955
 20
120.6924408845707
 10
474.0171603536173
 20
116.0601878055608
 10
470.7144546104973
 20
115.9443821899858
1001
ACAD
1010
0.0
1020
0.0
1030
0.0
  0
LINE
  5
C950
102
{ACAD_REACTORS
330
C94F
102
}
330
1F
100
AcDbEntity
  8
AM_7
 48
0.5
100
AcDbLine
 10
465.2662035149222
 20
133.7872846527293
 30
0.0
 11
479.2662035149223
 21
133.7872846527293
 31
0.0
  0
LINE
  5
C951
102
{ACAD_REACTORS
330
C94F
102
}
330
1F
100
AcDbEntity
  8
AM_7
 48
0.5
100
AcDbLine
 10
465.2662035149222
 20
118.7872846527293
 30
0.0
 11
479.2662035149223
 21
118.7872846527293
 31
0.0
  0
CIRCLE
  5
C952
102
{ACAD_REACTORS
330
C94F
102
}
330
1F
100
AcDbEntity
  8
AM_0
 48
0.5
100
AcDbCircle
 10
472.2662035149222
 20
118.7872846527293
 30
0.0
 40
5.0
  0
CIRCLE
  5
C953
102
{ACAD_REACTORS
330
C94F
102
}
330
1F
100
AcDbEntity
  8
AM_0
 48
0.5
100
AcDbCircle
 10
472.2662035149222
 20
133.7872846527293
 30
0.0
 40
5.0
  0
LINE
  5
C954
102
{ACAD_REACTORS
330
C94F
102
}
330
1F
100
AcDbEntity
  8
AM_7
 48
0.5
100
AcDbLine
 10
472.2662035149222
 20
140.7872846527293
 30
0.0
 11
472.2662035149222
 21
111.7872846527293
 31
0.0
  0
MTEXT
  5
C955
330
1F
100
AcDbEntity
  8
AM_6
 48
10.0
100
AcDbMText
 10
472.2662035149222
 20
108.0021320289156
 30
0.0
 40
3.2
 41
20.0
 71
     5
 72
     5
  1
切欠推奨寸法
 73
     1
 44
1.0
1001
ACAD
1000
MTEXTBEGIN
1070
    73
1070
     1
1070
    44
1040
1.0
1070
    74
1070
     0
1000
MTEXTEND
  0
DIMENSION
  5
C956
330
1F
100
AcDbEntity
  8
AM_5
100
AcDbDimension
  2
*D7
 10
459.2662035149222
 20
118.7872846527293
 30
0.0
 11
456.1662035149222
 21
126.2872846527294
 31
0.0
 70
    32
 71
     5
 42
15.00000000000001
  3
SYS$0
100
AcDbAlignedDimension
 13
465.2662035149222
 23
133.7872846527293
 33
0.0
 14
465.2662035149222
 24
118.7872846527293
 34
0.0
 50
90.0
100
AcDbRotatedDimension
  0
DIMENSION
  5
C957
330
1F
100
AcDbEntity
  8
AM_5
100
AcDbDimension
  2
*D8
 10
468.4525662430271
 20
130.5536843746474
 30
0.0
 11
486.7733270885168
 21
145.4446453757421
 31
0.0
 70
    35
 71
     5
 42
10.0
  3
SYS$3
100
AcDbDiametricDimension
 15
476.0798407868177
 25
137.0208849308111
 35
0.0
 40
0.0
1001
ACAD
1000
DSTYLE
1002
{
1070
    41
1040
4.0
1070
   172
1070
     1
1070
   342
1005
F03F
1002
}
  0
LINE
  5
DA08
330
1F
100
AcDbEntity
  8
AM_0
100
AcDbLine
 10
482.2662035149221
 20
186.8240758147453
 30
0.0
 11
482.2662035149221
 21
171.8240758147453
 31
0.0
  0
LINE
  5
DA09
330
1F
100
AcDbEntity
  8
AM_0
100
AcDbLine
 10
472.2662035149222
 20
161.8240758147453
 30
0.0
 11
472.2662035149222
 21
161.8240758147453
 31
0.0
  0
LINE
  5
DA0A
330
1F
100
AcDbEntity
  8
AM_0
100
AcDbLine
 10
462.2662035149223
 20
171.8240758147453
 30
0.0
 11
462.2662035149223
 21
186.8240758147453
 31
0.0
  0
LINE
  5
DA0B
330
1F
100
AcDbEntity
  8
AM_0
100
AcDbLine
 10
472.2662035149222
 20
196.8240758147453
 30
0.0
 11
472.2662035149222
 21
196.8240758147453
 31
0.0
  0
ARC
  5
DA0C
330
1F
100
AcDbEntity
  8
AM_0
100
AcDbCircle
 10
472.2662035149222
 20
186.8240758147453
 30
0.0
 40
10.0
100
AcDbArc
 50
90.0
 51
180.0
1001
GENIUS_GENOBJ-N-FIL_13
1002
{
1000
OWNER
1000
GEN
1002
}
1001
GENIUS_GENODEF_13
1002
{
1000
HIER
1070
     0
1002
}
1002
{
1000
MANEDIT
1070
     0
1002
}
1002
{
1000
NOSEL
1070
     0
1002
}
1002
{
1000
BEHIND
1070
     0
1002
}
1002
{
1000
OTHER
1070
     0
1002
}
1002
{
1000
REACTOR
1002
}
  0
ARC
  5
DA0D
330
1F
100
AcDbEntity
  8
AM_0
100
AcDbCircle
 10
472.2662035149222
 20
186.8240758147453
 30
0.0
 40
10.0
100
AcDbArc
 50
0.0
 51
90.0
1001
GENIUS_GENOBJ-N-FIL_13
1002
{
1000
OWNER
1000
GEN
1002
}
1001
GENIUS_GENODEF_13
1002
{
1000
HIER
1070
     0
1002
}
1002
{
1000
MANEDIT
1070
     0
1002
}
1002
{
1000
NOSEL
1070
     0
1002
}
1002
{
1000
BEHIND
1070
     0
1002
}
1002
{
1000
OTHER
1070
     0
1002
}
1002
{
1000
REACTOR
1002
}
  0
ARC
  5
DA0E
330
1F
100
AcDbEntity
  8
AM_0
100
AcDbCircle
 10
472.2662035149222
 20
171.8240758147453
 30
0.0
 40
10.0
100
AcDbArc
 50
270.0
 51
0.0
1001
GENIUS_GENOBJ-N-FIL_13
1002
{
1000
OWNER
1000
GEN
1002
}
1001
GENIUS_GENODEF_13
1002
{
1000
HIER
1070
     0
1002
}
1002
{
1000
MANEDIT
1070
     0
1002
}
1002
{
1000
NOSEL
1070
     0
1002
}
1002
{
1000
BEHIND
1070
     0
1002
}
1002
{
1000
OTHER
1070
     0
1002
}
1002
{
1000
REACTOR
1002
}
  0
ARC
  5
DA0F
330
1F
100
AcDbEntity
  8
AM_0
100
AcDbCircle
 10
472.2662035149222
 20
171.8240758147453
 30
0.0
 40
10.0
100
AcDbArc
 50
180.0
 51
270.0
1001
GENIUS_GENOBJ-N-FIL_13
1002
{
1000
OWNER
1000
GEN
1002
}
1001
GENIUS_GENODEF_13
1002
{
1000
HIER
1070
     0
1002
}
1002
{
1000
MANEDIT
1070
     0
1002
}
1002
{
1000
NOSEL
1070
     0
1002
}
1002
{
1000
BEHIND
1070
     0
1002
}
1002
{
1000
OTHER
1070
     0
1002
}
1002
{
1000
REACTOR
1002
}
  0
CIRCLE
  5
DA10
330
1F
100
AcDbEntity
  8
AM_3
100
AcDbCircle
 10
472.2662035149222
 20
186.8240758147453
 30
0.0
 40
4.0
  0
LINE
  5
DA11
330
1F
100
AcDbEntity
  8
AM_7
 48
0.5
100
AcDbLine
 10
467.2662035149222
 20
186.8240758296464
 30
0.0
 11
477.2662035149222
 21
186.8240758296464
 31
0.0
1001
GENIUS_GENODEF_13
1002
{
1000
HIER
1070
     0
1002
}
1002
{
1000
MANEDIT
1070
     0
1002
}
1002
{
1000
NOSEL
1070
     0
1002
}
1002
{
1000
BEHIND
1070
     0
1002
}
1002
{
1000
OTHER
1070
     0
1002
}
1002
{
1000
REACTOR
1002
}
1001
GENIUS_GENOBJ-N-CEN_13
1002
{
1000
OWNER
1000
GEN
1002
}
  0
CIRCLE
  5
DA13
330
1F
100
AcDbEntity
  8
AM_3
100
AcDbCircle
 10
472.2662035149222
 20
171.8240757998442
 30
0.0
 40
4.0
  0
LINE
  5
DA14
330
1F
100
AcDbEntity
  8
AM_7
 48
0.5
100
AcDbLine
 10
472.2662035149222
 20
198.8240758147453
 30
0.0
 11
472.2662035149222
 21
159.8240758147453
 31
0.0
1001
GENIUS_GENODEF_13
1002
{
1000
HIER
1070
     0
1002
}
1002
{
1000
MANEDIT
1070
     0
1002
}
1002
{
1000
NOSEL
1070
     0
1002
}
1002
{
1000
BEHIND
1070
     0
1002
}
1002
{
1000
OTHER
1070
     0
1002
}
1002
{
1000
REACTOR
1002
}
1001
GENIUS_GENOBJ-N-CEN_13
1002
{
1000
OWNER
1000
GEN
1002
}
  0
LINE
  5
DA15
330
1F
100
AcDbEntity
  8
AM_7
 48
0.5
100
AcDbLine
 10
467.2662035149222
 20
171.8240758147454
 30
0.0
 11
477.2662035149222
 21
171.8240758147453
 31
0.0
1001
GENIUS_GENODEF_13
1002
{
1000
HIER
1070
     0
1002
}
1002
{
1000
MANEDIT
1070
     0
1002
}
1002
{
1000
NOSEL
1070
     0
1002
}
1002
{
1000
BEHIND
1070
     0
1002
}
1002
{
1000
OTHER
1070
     0
1002
}
1002
{
1000
REACTOR
1002
}
1001
GENIUS_GENOBJ-N-CEN_13
1002
{
1000
OWNER
1000
GEN
1002
}
  0
LINE
  5
DA16
330
1F
100
AcDbEntity
  8
AM_0
100
AcDbLine
 10
472.2662035149222
 20
181.8240757998442
 30
0.0
 11
472.2662035149222
 21
181.8240757998442
 31
0.0
  0
DIMENSION
  5
DA17
330
1F
100
AcDbEntity
  8
AM_5
100
AcDbDimension
  2
*D9
 10
482.2662035149221
 20
207.3240758147453
 30
0.0
 11
472.2662035149221
 21
210.4240758147454
 31
0.0
 70
    32
 71
     5
 42
19.99999999999988
  3
AM_ISO
100
AcDbAlignedDimension
 13
462.2662035149223
 23
186.8240758147453
 33
0.0
 14
482.2662035149221
 24
186.8240758147453
 34
0.0
100
AcDbRotatedDimension
1001
ACAD
1000
DSTYLE
1002
{
1070
    42
1040
2.0
1070
    41
1040
1.0
1070
   140
1040
3.2
1070
   173
1070
     1
1070
   341
1005
0
1070
   343
1005
6C4
1070
   344
1005
6C4
1002
}
  0
DIMENSION
  5
DA18
330
1F
100
AcDbEntity
  8
AM_5
100
AcDbDimension
  2
*D10
 10
454.2662035149223
 20
161.8240758147453
 30
0.0
 11
451.1662035149221
 21
179.3240758147454
 31
0.0
 70
    32
 71
     5
 42
35.0
  3
AM_ISO
100
AcDbAlignedDimension
 13
472.2662035149222
 23
196.8240758147453
 33
0.0
 14
472.2662035149222
 24
161.8240758147453
 34
0.0
 50
90.0
100
AcDbRotatedDimension
1001
ACAD
1000
DSTYLE
1002
{
1070
    42
1040
2.0
1070
    41
1040
1.0
1070
   140
1040
3.2
1070
   173
1070
     1
1070
   341
1005
0
1070
   343
1005
6C4
1070
   344
1005
6C4
1002
}
  0
DIMENSION
  5
E21A
330
1F
100
AcDbEntity
  8
AM_5
100
AcDbDimension
  2
*D11
 10
641.7979472985559
 20
174.3240758147456
 30
0.0
 11
641.7979472985559
 21
186.8240758296464
 31
0.0
 70
   160
  1
\U+2205<>
 71
     5
 42
24.99999999999898
  3
AM_ISO
100
AcDbAlignedDimension
 13
619.2979472985558
 23
199.3240758147446
 33
0.0
 14
619.2979472985558
 24
174.3240758147456
 34
0.0
 50
90.0
100
AcDbRotatedDimension
1001
ACAD
1000
DSTYLE
1002
{
1070
    42
1040
2.0
1070
    40
1040
1.0
1070
    41
1040
1.0
1070
    45
1040
0.1
1070
   140
1040
3.2
1070
   173
1070
     1
1070
   271
1070
     0
1070
   284
1070
     8
1070
   341
1005
0
1070
   343
1005
6C4
1070
   344
1005
6C4
1002
}
  0
DIMENSION
  5
E21B
330
1F
100
AcDbEntity
  8
AM_5
100
AcDbDimension
  2
*D12
 10
531.7979549279547
 20
207.3240758147453
 30
0.0
 11
581.7979549279497
 21
207.3240758147453
 31
0.0
 70
   160
  1
<>
 71
     5
 42
99.99999237060116
  3
AM_ISO
100
AcDbAlignedDimension
 13
631.7979472985558
 23
186.8240758296464
 33
0.0
 14
531.7979549279547
 24
196.8240758147453
 34
0.0
100
AcDbRotatedDimension
1001
ACAD
1000
DSTYLE
1002
{
1070
    42
1040
2.0
1070
    40
1040
1.0
1070
    41
1040
1.0
1070
    45
1040
0.1
1070
   140
1040
3.2
1070
   173
1070
     1
1070
   271
1070
     0
1070
   284
1070
     8
1070
   341
1005
0
1070
   343
1005
6C4
1070
   344
1005
6C4
1002
}
  0
POLYLINE
  5
E220
330
1F
100
AcDbEntity
  8
AM_0
100
AcDb3dPolyline
 66
     1
 10
0.0
 20
0.0
 30
0.0
 70
     8
  0
VERTEX
  5
E221
330
E220
100
AcDbEntity
  8
AM_0
100
AcDbVertex
100
AcDb3dPolylineVertex
 10
611.797653705273
 20
176.8245111932224
 30
0.0
 70
    32
  0
VERTEX
  5
E222
330
E220
100
AcDbEntity
  8
AM_0
100
AcDbVertex
100
AcDb3dPolylineVertex
 10
610.889653705273
 20
176.8215111932224
 30
0.0
 70
    32
  0
VERTEX
  5
E223
330
E220
100
AcDbEntity
  8
AM_0
100
AcDbVertex
100
AcDb3dPolylineVertex
 10
609.981653705273
 20
176.8155111932224
 30
0.0
 70
    32
  0
VERTEX
  5
E224
330
E220
100
AcDbEntity
  8
AM_0
100
AcDbVertex
100
AcDb3dPolylineVertex
 10
609.0746537052731
 20
176.8035111932224
 30
0.0
 70
    32
  0
VERTEX
  5
E225
330
E220
100
AcDbEntity
  8
AM_0
100
AcDbVertex
100
AcDb3dPolylineVertex
 10
608.1666537052731
 20
176.7875111932224
 30
0.0
 70
    32
  0
VERTEX
  5
E226
330
E220
100
AcDbEntity
  8
AM_0
100
AcDbVertex
100
AcDb3dPolylineVertex
 10
607.260653705273
 20
176.7675111932224
 30
0.0
 70
    32
  0
VERTEX
  5
E227
330
E220
100
AcDbEntity
  8
AM_0
100
AcDbVertex
100
AcDb3dPolylineVertex
 10
606.354653705273
 20
176.7425111932224
 30
0.0
 70
    32
  0
VERTEX
  5
E228
330
E220
100
AcDbEntity
  8
AM_0
100
AcDbVertex
100
AcDb3dPolylineVertex
 10
605.448653705273
 20
176.7135111932224
 30
0.0
 70
    32
  0
VERTEX
  5
E229
330
E220
100
AcDbEntity
  8
AM_0
100
AcDbVertex
100
AcDb3dPolylineVertex
 10
604.544653705273
 20
176.6795111932224
 30
0.0
 70
    32
  0
VERTEX
  5
E22A
330
E220
100
AcDbEntity
  8
AM_0
100
AcDbVertex
100
AcDb3dPolylineVertex
 10
603.6416537052731
 20
176.6415111932224
 30
0.0
 70
    32
  0
VERTEX
  5
E22B
330
E220
100
AcDbEntity
  8
AM_0
100
AcDbVertex
100
AcDb3dPolylineVertex
 10
602.739653705273
 20
176.5985111932224
 30
0.0
 70
    32
  0
VERTEX
  5
E22C
330
E220
100
AcDbEntity
  8
AM_0
100
AcDbVertex
100
AcDb3dPolylineVertex
 10
601.838653705273
 20
176.5515111932224
 30
0.0
 70
    32
  0
VERTEX
  5
E22D
330
E220
100
AcDbEntity
  8
AM_0
100
AcDbVertex
100
AcDb3dPolylineVertex
 10
600.9396537052731
 20
176.4995111932224
 30
0.0
 70
    32
  0
VERTEX
  5
E22E
330
E220
100
AcDbEntity
  8
AM_0
100
AcDbVertex
100
AcDb3dPolylineVertex
 10
600.0426537052731
 20
176.4435111932224
 30
0.0
 70
    32
  0
VERTEX
  5
E22F
330
E220
100
AcDbEntity
  8
AM_0
100
AcDbVertex
100
AcDb3dPolylineVertex
 10
599.1466537052731
 20
176.3825111932224
 30
0.0
 70
    32
  0
VERTEX
  5
E230
330
E220
100
AcDbEntity
  8
AM_0
100
AcDbVertex
100
AcDb3dPolylineVertex
 10
598.252653705273
 20
176.3175111932224
 30
0.0
 70
    32
  0
VERTEX
  5
E231
330
E220
100
AcDbEntity
  8
AM_0
100
AcDbVertex
100
AcDb3dPolylineVertex
 10
597.361653705273
 20
176.2475111932224
 30
0.0
 70
    32
  0
VERTEX
  5
E232
330
E220
100
AcDbEntity
  8
AM_0
100
AcDbVertex
100
AcDb3dPolylineVertex
 10
596.471653705273
 20
176.1735111932224
 30
0.0
 70
    32
  0
VERTEX
  5
E233
330
E220
100
AcDbEntity
  8
AM_0
100
AcDbVertex
100
AcDb3dPolylineVertex
 10
595.5846537052731
 20
176.0955111932224
 30
0.0
 70
    32
  0
VERTEX
  5
E234
330
E220
100
AcDbEntity
  8
AM_0
100
AcDbVertex
100
AcDb3dPolylineVertex
 10
594.6996537052731
 20
176.0125111932224
 30
0.0
 70
    32
  0
VERTEX
  5
E235
330
E220
100
AcDbEntity
  8
AM_0
100
AcDbVertex
100
AcDb3dPolylineVertex
 10
593.817653705273
 20
175.9245111932224
 30
0.0
 70
    32
  0
VERTEX
  5
E236
330
E220
100
AcDbEntity
  8
AM_0
100
AcDbVertex
100
AcDb3dPolylineVertex
 10
592.937653705273
 20
175.8335111932224
 30
0.0
 70
    32
  0
VERTEX
  5
E237
330
E220
100
AcDbEntity
  8
AM_0
100
AcDbVertex
100
AcDb3dPolylineVertex
 10
592.0616537052731
 20
175.7375111932224
 30
0.0
 70
    32
  0
VERTEX
  5
E238
330
E220
100
AcDbEntity
  8
AM_0
100
AcDbVertex
100
AcDb3dPolylineVertex
 10
591.187653705273
 20
175.6365111932224
 30
0.0
 70
    32
  0
VERTEX
  5
E239
330
E220
100
AcDbEntity
  8
AM_0
100
AcDbVertex
100
AcDb3dPolylineVertex
 10
590.316653705273
 20
175.5325111932224
 30
0.0
 70
    32
  0
VERTEX
  5
E23A
330
E220
100
AcDbEntity
  8
AM_0
100
AcDbVertex
100
AcDb3dPolylineVertex
 10
589.4496537052731
 20
175.4235111932224
 30
0.0
 70
    32
  0
VERTEX
  5
E23B
330
E220
100
AcDbEntity
  8
AM_0
100
AcDbVertex
100
AcDb3dPolylineVertex
 10
588.585653705273
 20
175.3095111932224
 30
0.0
 70
    32
  0
VERTEX
  5
E23C
330
E220
100
AcDbEntity
  8
AM_0
100
AcDbVertex
100
AcDb3dPolylineVertex
 10
587.7246537052731
 20
175.1925111932224
 30
0.0
 70
    32
  0
VERTEX
  5
E23D
330
E220
100
AcDbEntity
  8
AM_0
100
AcDbVertex
100
AcDb3dPolylineVertex
 10
586.867653705273
 20
175.0705111932224
 30
0.0
 70
    32
  0
VERTEX
  5
E23E
330
E220
100
AcDbEntity
  8
AM_0
100
AcDbVertex
100
AcDb3dPolylineVertex
 10
586.014653705273
 20
174.9445111932224
 30
0.0
 70
    32
  0
VERTEX
  5
E23F
330
E220
100
AcDbEntity
  8
AM_0
100
AcDbVertex
100
AcDb3dPolylineVertex
 10
585.165653705273
 20
174.8135111932224
 30
0.0
 70
    32
  0
VERTEX
  5
E240
330
E220
100
AcDbEntity
  8
AM_0
100
AcDbVertex
100
AcDb3dPolylineVertex
 10
584.3206537052731
 20
174.6795111932224
 30
0.0
 70
    32
  0
VERTEX
  5
E241
330
E220
100
AcDbEntity
  8
AM_0
100
AcDbVertex
100
AcDb3dPolylineVertex
 10
583.4796537052731
 20
174.5405111932224
 30
0.0
 70
    32
  0
VERTEX
  5
E242
330
E220
100
AcDbEntity
  8
AM_0
100
AcDbVertex
100
AcDb3dPolylineVertex
 10
582.6426537052731
 20
174.3975111932224
 30
0.0
 70
    32
  0
VERTEX
  5
E243
330
E220
100
AcDbEntity
  8
AM_0
100
AcDbVertex
100
AcDb3dPolylineVertex
 10
581.809653705273
 20
174.2505111932224
 30
0.0
 70
    32
  0
VERTEX
  5
E244
330
E220
100
AcDbEntity
  8
AM_0
100
AcDbVertex
100
AcDb3dPolylineVertex
 10
580.982653705273
 20
174.0995111932224
 30
0.0
 70
    32
  0
VERTEX
  5
E245
330
E220
100
AcDbEntity
  8
AM_0
100
AcDbVertex
100
AcDb3dPolylineVertex
 10
580.158653705273
 20
173.9435111932224
 30
0.0
 70
    32
  0
VERTEX
  5
E246
330
E220
100
AcDbEntity
  8
AM_0
100
AcDbVertex
100
AcDb3dPolylineVertex
 10
579.3406537052731
 20
173.7845111932224
 30
0.0
 70
    32
  0
VERTEX
  5
E247
330
E220
100
AcDbEntity
  8
AM_0
100
AcDbVertex
100
AcDb3dPolylineVertex
 10
578.5266537052731
 20
173.6205111932224
 30
0.0
 70
    32
  0
VERTEX
  5
E248
330
E220
100
AcDbEntity
  8
AM_0
100
AcDbVertex
100
AcDb3dPolylineVertex
 10
577.7176537052731
 20
173.4535111932224
 30
0.0
 70
    32
  0
VERTEX
  5
E249
330
E220
100
AcDbEntity
  8
AM_0
100
AcDbVertex
100
AcDb3dPolylineVertex
 10
576.914653705273
 20
173.2815111932224
 30
0.0
 70
    32
  0
VERTEX
  5
E24A
330
E220
100
AcDbEntity
  8
AM_0
100
AcDbVertex
100
AcDb3dPolylineVertex
 10
576.116653705273
 20
173.1065111932224
 30
0.0
 70
    32
  0
VERTEX
  5
E24B
330
E220
100
AcDbEntity
  8
AM_0
100
AcDbVertex
100
AcDb3dPolylineVertex
 10
575.323653705273
 20
172.9265111932224
 30
0.0
 70
    32
  0
VERTEX
  5
E24C
330
E220
100
AcDbEntity
  8
AM_0
100
AcDbVertex
100
AcDb3dPolylineVertex
 10
574.535653705273
 20
172.7435111932224
 30
0.0
 70
    32
  0
VERTEX
  5
E24D
330
E220
100
AcDbEntity
  8
AM_0
100
AcDbVertex
100
AcDb3dPolylineVertex
 10
573.7546537052731
 20
172.5555111932224
 30
0.0
 70
    32
  0
VERTEX
  5
E24E
330
E220
100
AcDbEntity
  8
AM_0
100
AcDbVertex
100
AcDb3dPolylineVertex
 10
572.978653705273
 20
172.3645111932224
 30
0.0
 70
    32
  0
VERTEX
  5
E24F
330
E220
100
AcDbEntity
  8
AM_0
100
AcDbVertex
100
AcDb3dPolylineVertex
 10
572.207653705273
 20
172.1695111932224
 30
0.0
 70
    32
  0
VERTEX
  5
E250
330
E220
100
AcDbEntity
  8
AM_0
100
AcDbVertex
100
AcDb3dPolylineVertex
 10
571.443653705273
 20
171.9705111932224
 30
0.0
 70
    32
  0
VERTEX
  5
E251
330
E220
100
AcDbEntity
  8
AM_0
100
AcDbVertex
100
AcDb3dPolylineVertex
 10
570.685653705273
 20
171.7685111932224
 30
0.0
 70
    32
  0
VERTEX
  5
E252
330
E220
100
AcDbEntity
  8
AM_0
100
AcDbVertex
100
AcDb3dPolylineVertex
 10
569.933653705273
 20
171.5615111932224
 30
0.0
 70
    32
  0
VERTEX
  5
E253
330
E220
100
AcDbEntity
  8
AM_0
100
AcDbVertex
100
AcDb3dPolylineVertex
 10
569.187653705273
 20
171.3515111932224
 30
0.0
 70
    32
  0
VERTEX
  5
E254
330
E220
100
AcDbEntity
  8
AM_0
100
AcDbVertex
100
AcDb3dPolylineVertex
 10
568.448653705273
 20
171.1375111932224
 30
0.0
 70
    32
  0
VERTEX
  5
E255
330
E220
100
AcDbEntity
  8
AM_0
100
AcDbVertex
100
AcDb3dPolylineVertex
 10
567.716653705273
 20
170.9205111932224
 30
0.0
 70
    32
  0
VERTEX
  5
E256
330
E220
100
AcDbEntity
  8
AM_0
100
AcDbVertex
100
AcDb3dPolylineVertex
 10
566.989653705273
 20
170.6995111932224
 30
0.0
 70
    32
  0
VERTEX
  5
E257
330
E220
100
AcDbEntity
  8
AM_0
100
AcDbVertex
100
AcDb3dPolylineVertex
 10
566.270653705273
 20
170.4745111932224
 30
0.0
 70
    32
  0
VERTEX
  5
E258
330
E220
100
AcDbEntity
  8
AM_0
100
AcDbVertex
100
AcDb3dPolylineVertex
 10
565.558653705273
 20
170.2465111932224
 30
0.0
 70
    32
  0
VERTEX
  5
E259
330
E220
100
AcDbEntity
  8
AM_0
100
AcDbVertex
100
AcDb3dPolylineVertex
 10
564.852653705273
 20
170.0145111932224
 30
0.0
 70
    32
  0
VERTEX
  5
E25A
330
E220
100
AcDbEntity
  8
AM_0
100
AcDbVertex
100
AcDb3dPolylineVertex
 10
564.1546537052731
 20
169.7795111932224
 30
0.0
 70
    32
  0
VERTEX
  5
E25B
330
E220
100
AcDbEntity
  8
AM_0
100
AcDbVertex
100
AcDb3dPolylineVertex
 10
563.463653705273
 20
169.5405111932224
 30
0.0
 70
    32
  0
VERTEX
  5
E25C
330
E220
100
AcDbEntity
  8
AM_0
100
AcDbVertex
100
AcDb3dPolylineVertex
 10
562.779653705273
 20
169.2985111932224
 30
0.0
 70
    32
  0
VERTEX
  5
E25D
330
E220
100
AcDbEntity
  8
AM_0
100
AcDbVertex
100
AcDb3dPolylineVertex
 10
562.102653705273
 20
169.0525111932224
 30
0.0
 70
    32
  0
VERTEX
  5
E25E
330
E220
100
AcDbEntity
  8
AM_0
100
AcDbVertex
100
AcDb3dPolylineVertex
 10
561.433653705273
 20
168.8035111932224
 30
0.0
 70
    32
  0
VERTEX
  5
E25F
330
E220
100
AcDbEntity
  8
AM_0
100
AcDbVertex
100
AcDb3dPolylineVertex
 10
560.7716537052731
 20
168.5515111932224
 30
0.0
 70
    32
  0
VERTEX
  5
E260
330
E220
100
AcDbEntity
  8
AM_0
100
AcDbVertex
100
AcDb3dPolylineVertex
 10
560.1176537052729
 20
168.2955111932224
 30
0.0
 70
    32
  0
VERTEX
  5
E261
330
E220
100
AcDbEntity
  8
AM_0
100
AcDbVertex
100
AcDb3dPolylineVertex
 10
559.4716537052731
 20
168.0375111932224
 30
0.0
 70
    32
  0
VERTEX
  5
E262
330
E220
100
AcDbEntity
  8
AM_0
100
AcDbVertex
100
AcDb3dPolylineVertex
 10
558.833653705273
 20
167.7755111932224
 30
0.0
 70
    32
  0
VERTEX
  5
E263
330
E220
100
AcDbEntity
  8
AM_0
100
AcDbVertex
100
AcDb3dPolylineVertex
 10
558.203653705273
 20
167.5105111932224
 30
0.0
 70
    32
  0
VERTEX
  5
E264
330
E220
100
AcDbEntity
  8
AM_0
100
AcDbVertex
100
AcDb3dPolylineVertex
 10
557.581653705273
 20
167.2425111932224
 30
0.0
 70
    32
  0
VERTEX
  5
E265
330
E220
100
AcDbEntity
  8
AM_0
100
AcDbVertex
100
AcDb3dPolylineVertex
 10
556.967653705273
 20
166.9705111932224
 30
0.0
 70
    32
  0
VERTEX
  5
E266
330
E220
100
AcDbEntity
  8
AM_0
100
AcDbVertex
100
AcDb3dPolylineVertex
 10
556.361653705273
 20
166.6965111932224
 30
0.0
 70
    32
  0
VERTEX
  5
E267
330
E220
100
AcDbEntity
  8
AM_0
100
AcDbVertex
100
AcDb3dPolylineVertex
 10
555.7646537052731
 20
166.4195111932224
 30
0.0
 70
    32
  0
VERTEX
  5
E268
330
E220
100
AcDbEntity
  8
AM_0
100
AcDbVertex
100
AcDb3dPolylineVertex
 10
555.175653705273
 20
166.1395111932224
 30
0.0
 70
    32
  0
VERTEX
  5
E269
330
E220
100
AcDbEntity
  8
AM_0
100
AcDbVertex
100
AcDb3dPolylineVertex
 10
554.595653705273
 20
165.8555111932224
 30
0.0
 70
    32
  0
VERTEX
  5
E26A
330
E220
100
AcDbEntity
  8
AM_0
100
AcDbVertex
100
AcDb3dPolylineVertex
 10
554.0236537052731
 20
165.5695111932224
 30
0.0
 70
    32
  0
VERTEX
  5
E26B
330
E220
100
AcDbEntity
  8
AM_0
100
AcDbVertex
100
AcDb3dPolylineVertex
 10
553.4606537052731
 20
165.2815111932224
 30
0.0
 70
    32
  0
VERTEX
  5
E26C
330
E220
100
AcDbEntity
  8
AM_0
100
AcDbVertex
100
AcDb3dPolylineVertex
 10
552.905653705273
 20
164.9895111932224
 30
0.0
 70
    32
  0
VERTEX
  5
E26D
330
E220
100
AcDbEntity
  8
AM_0
100
AcDbVertex
100
AcDb3dPolylineVertex
 10
552.3606537052731
 20
164.6955111932224
 30
0.0
 70
    32
  0
VERTEX
  5
E26E
330
E220
100
AcDbEntity
  8
AM_0
100
AcDbVertex
100
AcDb3dPolylineVertex
 10
551.823653705273
 20
164.3975111932224
 30
0.0
 70
    32
  0
VERTEX
  5
E26F
330
E220
100
AcDbEntity
  8
AM_0
100
AcDbVertex
100
AcDb3dPolylineVertex
 10
551.2966537052731
 20
164.0985111932224
 30
0.0
 70
    32
  0
VERTEX
  5
E270
330
E220
100
AcDbEntity
  8
AM_0
100
AcDbVertex
100
AcDb3dPolylineVertex
 10
550.778653705273
 20
163.7965111932224
 30
0.0
 70
    32
  0
VERTEX
  5
E271
330
E220
100
AcDbEntity
  8
AM_0
100
AcDbVertex
100
AcDb3dPolylineVertex
 10
550.269653705273
 20
163.4915111932224
 30
0.0
 70
    32
  0
VERTEX
  5
E272
330
E220
100
AcDbEntity
  8
AM_0
100
AcDbVertex
100
AcDb3dPolylineVertex
 10
549.769653705273
 20
163.1835111932224
 30
0.0
 70
    32
  0
VERTEX
  5
E273
330
E220
100
AcDbEntity
  8
AM_0
100
AcDbVertex
100
AcDb3dPolylineVertex
 10
549.278653705273
 20
162.8735111932224
 30
0.0
 70
    32
  0
VERTEX
  5
E274
330
E220
100
AcDbEntity
  8
AM_0
100
AcDbVertex
100
AcDb3dPolylineVertex
 10
548.797653705273
 20
162.5615111932224
 30
0.0
 70
    32
  0
VERTEX
  5
E275
330
E220
100
AcDbEntity
  8
AM_0
100
AcDbVertex
100
AcDb3dPolylineVertex
 10
548.3256537052731
 20
162.2475111932224
 30
0.0
 70
    32
  0
VERTEX
  5
E276
330
E220
100
AcDbEntity
  8
AM_0
100
AcDbVertex
100
AcDb3dPolylineVertex
 10
547.8636537052731
 20
161.9305111932224
 30
0.0
 70
    32
  0
VERTEX
  5
E277
330
E220
100
AcDbEntity
  8
AM_0
100
AcDbVertex
100
AcDb3dPolylineVertex
 10
547.4116537052731
 20
161.6115111932224
 30
0.0
 70
    32
  0
VERTEX
  5
E278
330
E220
100
AcDbEntity
  8
AM_0
100
AcDbVertex
100
AcDb3dPolylineVertex
 10
546.968653705273
 20
161.2895111932224
 30
0.0
 70
    32
  0
VERTEX
  5
E279
330
E220
100
AcDbEntity
  8
AM_0
100
AcDbVertex
100
AcDb3dPolylineVertex
 10
546.535653705273
 20
160.9655111932224
 30
0.0
 70
    32
  0
VERTEX
  5
E27A
330
E220
100
AcDbEntity
  8
AM_0
100
AcDbVertex
100
AcDb3dPolylineVertex
 10
546.1126537052731
 20
160.6405111932224
 30
0.0
 70
    32
  0
VERTEX
  5
E27B
330
E220
100
AcDbEntity
  8
AM_0
100
AcDbVertex
100
AcDb3dPolylineVertex
 10
545.6996537052731
 20
160.3125111932224
 30
0.0
 70
    32
  0
VERTEX
  5
E27C
330
E220
100
AcDbEntity
  8
AM_0
100
AcDbVertex
100
AcDb3dPolylineVertex
 10
545.2956537052731
 20
159.9825111932224
 30
0.0
 70
    32
  0
VERTEX
  5
E27D
330
E220
100
AcDbEntity
  8
AM_0
100
AcDbVertex
100
AcDb3dPolylineVertex
 10
544.9026537052731
 20
159.6505111932224
 30
0.0
 70
    32
  0
VERTEX
  5
E27E
330
E220
100
AcDbEntity
  8
AM_0
100
AcDbVertex
100
AcDb3dPolylineVertex
 10
544.519653705273
 20
159.3165111932224
 30
0.0
 70
    32
  0
VERTEX
  5
E27F
330
E220
100
AcDbEntity
  8
AM_0
100
AcDbVertex
100
AcDb3dPolylineVertex
 10
544.1466537052731
 20
158.9815111932224
 30
0.0
 70
    32
  0
VERTEX
  5
E280
330
E220
100
AcDbEntity
  8
AM_0
100
AcDbVertex
100
AcDb3dPolylineVertex
 10
543.7836537052731
 20
158.6435111932224
 30
0.0
 70
    32
  0
VERTEX
  5
E281
330
E220
100
AcDbEntity
  8
AM_0
100
AcDbVertex
100
AcDb3dPolylineVertex
 10
543.4306537052731
 20
158.3045111932224
 30
0.0
 70
    32
  0
VERTEX
  5
E282
330
E220
100
AcDbEntity
  8
AM_0
100
AcDbVertex
100
AcDb3dPolylineVertex
 10
543.088653705273
 20
157.9635111932224
 30
0.0
 70
    32
  0
VERTEX
  5
E283
330
E220
100
AcDbEntity
  8
AM_0
100
AcDbVertex
100
AcDb3dPolylineVertex
 10
542.7566537052731
 20
157.6205111932224
 30
0.0
 70
    32
  0
VERTEX
  5
E284
330
E220
100
AcDbEntity
  8
AM_0
100
AcDbVertex
100
AcDb3dPolylineVertex
 10
542.434653705273
 20
157.2765111932224
 30
0.0
 70
    32
  0
VERTEX
  5
E285
330
E220
100
AcDbEntity
  8
AM_0
100
AcDbVertex
100
AcDb3dPolylineVertex
 10
542.1236537052731
 20
156.9305111932224
 30
0.0
 70
    32
  0
VERTEX
  5
E286
330
E220
100
AcDbEntity
  8
AM_0
100
AcDbVertex
100
AcDb3dPolylineVertex
 10
541.822653705273
 20
156.5835111932224
 30
0.0
 70
    32
  0
VERTEX
  5
E287
330
E220
100
AcDbEntity
  8
AM_0
100
AcDbVertex
100
AcDb3dPolylineVertex
 10
541.5326537052731
 20
156.2345111932224
 30
0.0
 70
    32
  0
VERTEX
  5
E288
330
E220
100
AcDbEntity
  8
AM_0
100
AcDbVertex
100
AcDb3dPolylineVertex
 10
541.2536537052731
 20
155.8845111932224
 30
0.0
 70
    32
  0
VERTEX
  5
E289
330
E220
100
AcDbEntity
  8
AM_0
100
AcDbVertex
100
AcDb3dPolylineVertex
 10
540.9846537052731
 20
155.5325111932224
 30
0.0
 70
    32
  0
VERTEX
  5
E28A
330
E220
100
AcDbEntity
  8
AM_0
100
AcDbVertex
100
AcDb3dPolylineVertex
 10
540.725653705273
 20
155.1795111932224
 30
0.0
 70
    32
  0
VERTEX
  5
E28B
330
E220
100
AcDbEntity
  8
AM_0
100
AcDbVertex
100
AcDb3dPolylineVertex
 10
540.4786537052731
 20
154.8255111932224
 30
0.0
 70
    32
  0
VERTEX
  5
E28C
330
E220
100
AcDbEntity
  8
AM_0
100
AcDbVertex
100
AcDb3dPolylineVertex
 10
540.241653705273
 20
154.4705111932224
 30
0.0
 70
    32
  0
VERTEX
  5
E28D
330
E220
100
AcDbEntity
  8
AM_0
100
AcDbVertex
100
AcDb3dPolylineVertex
 10
540.015653705273
 20
154.1135111932224
 30
0.0
 70
    32
  0
VERTEX
  5
E28E
330
E220
100
AcDbEntity
  8
AM_0
100
AcDbVertex
100
AcDb3dPolylineVertex
 10
539.8006537052729
 20
153.7555111932224
 30
0.0
 70
    32
  0
VERTEX
  5
E28F
330
E220
100
AcDbEntity
  8
AM_0
100
AcDbVertex
100
AcDb3dPolylineVertex
 10
539.5956537052731
 20
153.3975111932224
 30
0.0
 70
    32
  0
VERTEX
  5
E290
330
E220
100
AcDbEntity
  8
AM_0
100
AcDbVertex
100
AcDb3dPolylineVertex
 10
539.4026537052731
 20
153.0375111932224
 30
0.0
 70
    32
  0
VERTEX
  5
E291
330
E220
100
AcDbEntity
  8
AM_0
100
AcDbVertex
100
AcDb3dPolylineVertex
 10
539.2196537052731
 20
152.6765111932224
 30
0.0
 70
    32
  0
VERTEX
  5
E292
330
E220
100
AcDbEntity
  8
AM_0
100
AcDbVertex
100
AcDb3dPolylineVertex
 10
539.047653705273
 20
152.3155111932224
 30
0.0
 70
    32
  0
VERTEX
  5
E293
330
E220
100
AcDbEntity
  8
AM_0
100
AcDbVertex
100
AcDb3dPolylineVertex
 10
538.887653705273
 20
151.9525111932224
 30
0.0
 70
    32
  0
VERTEX
  5
E294
330
E220
100
AcDbEntity
  8
AM_0
100
AcDbVertex
100
AcDb3dPolylineVertex
 10
538.7376537052731
 20
151.5895111932224
 30
0.0
 70
    32
  0
VERTEX
  5
E295
330
E220
100
AcDbEntity
  8
AM_0
100
AcDbVertex
100
AcDb3dPolylineVertex
 10
538.598653705273
 20
151.2255111932224
 30
0.0
 70
    32
  0
VERTEX
  5
E296
330
E220
100
AcDbEntity
  8
AM_0
100
AcDbVertex
100
AcDb3dPolylineVertex
 10
538.4716537052731
 20
150.8615111932224
 30
0.0
 70
    32
  0
VERTEX
  5
E297
330
E220
100
AcDbEntity
  8
AM_0
100
AcDbVertex
100
AcDb3dPolylineVertex
 10
538.3546537052731
 20
150.4965111932224
 30
0.0
 70
    32
  0
VERTEX
  5
E298
330
E220
100
AcDbEntity
  8
AM_0
100
AcDbVertex
100
AcDb3dPolylineVertex
 10
538.2486537052731
 20
150.1305111932224
 30
0.0
 70
    32
  0
VERTEX
  5
E299
330
E220
100
AcDbEntity
  8
AM_0
100
AcDbVertex
100
AcDb3dPolylineVertex
 10
538.154653705273
 20
149.7645111932224
 30
0.0
 70
    32
  0
VERTEX
  5
E29A
330
E220
100
AcDbEntity
  8
AM_0
100
AcDbVertex
100
AcDb3dPolylineVertex
 10
538.0706537052731
 20
149.3975111932224
 30
0.0
 70
    32
  0
VERTEX
  5
E29B
330
E220
100
AcDbEntity
  8
AM_0
100
AcDbVertex
100
AcDb3dPolylineVertex
 10
537.998653705273
 20
149.0305111932224
 30
0.0
 70
    32
  0
VERTEX
  5
E29C
330
E220
100
AcDbEntity
  8
AM_0
100
AcDbVertex
100
AcDb3dPolylineVertex
 10
537.937653705273
 20
148.6635111932224
 30
0.0
 70
    32
  0
VERTEX
  5
E29D
330
E220
100
AcDbEntity
  8
AM_0
100
AcDbVertex
100
AcDb3dPolylineVertex
 10
537.886653705273
 20
148.2965111932224
 30
0.0
 70
    32
  0
VERTEX
  5
E29E
330
E220
100
AcDbEntity
  8
AM_0
100
AcDbVertex
100
AcDb3dPolylineVertex
 10
537.847653705273
 20
147.9285111932224
 30
0.0
 70
    32
  0
VERTEX
  5
E29F
330
E220
100
AcDbEntity
  8
AM_0
100
AcDbVertex
100
AcDb3dPolylineVertex
 10
537.8206537052731
 20
147.5605111932224
 30
0.0
 70
    32
  0
VERTEX
  5
E2A0
330
E220
100
AcDbEntity
  8
AM_0
100
AcDbVertex
100
AcDb3dPolylineVertex
 10
537.803653705273
 20
147.1925111932224
 30
0.0
 70
    32
  0
VERTEX
  5
E2A1
330
E220
100
AcDbEntity
  8
AM_0
100
AcDbVertex
100
AcDb3dPolylineVertex
 10
537.797653705273
 20
146.8245111932224
 30
0.0
 70
    32
  0
SEQEND
  5
E2A2
330
E220
100
AcDbEntity
  8
AM_0
  0
POLYLINE
  5
E2A3
330
1F
100
AcDbEntity
  8
AM_0
100
AcDb3dPolyline
 66
     1
 10
0.0
 20
0.0
 30
0.0
 70
     8
  0
VERTEX
  5
E2A4
330
E2A3
100
AcDbEntity
  8
AM_0
100
AcDbVertex
100
AcDb3dPolylineVertex
 10
582.520653705273
 20
195.1485111932224
 30
0.0
 70
    32
  0
VERTEX
  5
E2A5
330
E2A3
100
AcDbEntity
  8
AM_0
100
AcDbVertex
100
AcDb3dPolylineVertex
 10
582.5616537052731
 20
195.1025111932224
 30
0.0
 70
    32
  0
VERTEX
  5
E2A6
330
E2A3
100
AcDbEntity
  8
AM_0
100
AcDbVertex
100
AcDb3dPolylineVertex
 10
582.6036537052731
 20
195.0575111932224
 30
0.0
 70
    32
  0
VERTEX
  5
E2A7
330
E2A3
100
AcDbEntity
  8
AM_0
100
AcDbVertex
100
AcDb3dPolylineVertex
 10
582.6466537052731
 20
195.0135111932224
 30
0.0
 70
    32
  0
VERTEX
  5
E2A8
330
E2A3
100
AcDbEntity
  8
AM_0
100
AcDbVertex
100
AcDb3dPolylineVertex
 10
582.6906537052731
 20
194.9685111932224
 30
0.0
 70
    32
  0
VERTEX
  5
E2A9
330
E2A3
100
AcDbEntity
  8
AM_0
100
AcDbVertex
100
AcDb3dPolylineVertex
 10
582.7356537052731
 20
194.9245111932224
 30
0.0
 70
    32
  0
VERTEX
  5
E2AA
330
E2A3
100
AcDbEntity
  8
AM_0
100
AcDbVertex
100
AcDb3dPolylineVertex
 10
582.7816537052731
 20
194.8795111932224
 30
0.0
 70
    32
  0
VERTEX
  5
E2AB
330
E2A3
100
AcDbEntity
  8
AM_0
100
AcDbVertex
100
AcDb3dPolylineVertex
 10
582.828653705273
 20
194.8355111932224
 30
0.0
 70
    32
  0
VERTEX
  5
E2AC
330
E2A3
100
AcDbEntity
  8
AM_0
100
AcDbVertex
100
AcDb3dPolylineVertex
 10
582.877653705273
 20
194.7915111932224
 30
0.0
 70
    32
  0
VERTEX
  5
E2AD
330
E2A3
100
AcDbEntity
  8
AM_0
100
AcDbVertex
100
AcDb3dPolylineVertex
 10
582.926653705273
 20
194.7475111932224
 30
0.0
 70
    32
  0
VERTEX
  5
E2AE
330
E2A3
100
AcDbEntity
  8
AM_0
100
AcDbVertex
100
AcDb3dPolylineVertex
 10
582.976653705273
 20
194.7045111932224
 30
0.0
 70
    32
  0
VERTEX
  5
E2AF
330
E2A3
100
AcDbEntity
  8
AM_0
100
AcDbVertex
100
AcDb3dPolylineVertex
 10
583.0286537052731
 20
194.6605111932224
 30
0.0
 70
    32
  0
VERTEX
  5
E2B0
330
E2A3
100
AcDbEntity
  8
AM_0
100
AcDbVertex
100
AcDb3dPolylineVertex
 10
583.0806537052731
 20
194.6175111932224
 30
0.0
 70
    32
  0
VERTEX
  5
E2B1
330
E2A3
100
AcDbEntity
  8
AM_0
100
AcDbVertex
100
AcDb3dPolylineVertex
 10
583.1346537052731
 20
194.5745111932224
 30
0.0
 70
    32
  0
VERTEX
  5
E2B2
330
E2A3
100
AcDbEntity
  8
AM_0
100
AcDbVertex
100
AcDb3dPolylineVertex
 10
583.1886537052731
 20
194.5315111932224
 30
0.0
 70
    32
  0
VERTEX
  5
E2B3
330
E2A3
100
AcDbEntity
  8
AM_0
100
AcDbVertex
100
AcDb3dPolylineVertex
 10
583.2446537052731
 20
194.4895111932224
 30
0.0
 70
    32
  0
VERTEX
  5
E2B4
330
E2A3
100
AcDbEntity
  8
AM_0
100
AcDbVertex
100
AcDb3dPolylineVertex
 10
583.300653705273
 20
194.4475111932224
 30
0.0
 70
    32
  0
VERTEX
  5
E2B5
330
E2A3
100
AcDbEntity
  8
AM_0
100
AcDbVertex
100
AcDb3dPolylineVertex
 10
583.358653705273
 20
194.4045111932224
 30
0.0
 70
    32
  0
VERTEX
  5
E2B6
330
E2A3
100
AcDbEntity
  8
AM_0
100
AcDbVertex
100
AcDb3dPolylineVertex
 10
583.416653705273
 20
194.3635111932224
 30
0.0
 70
    32
  0
VERTEX
  5
E2B7
330
E2A3
100
AcDbEntity
  8
AM_0
100
AcDbVertex
100
AcDb3dPolylineVertex
 10
583.476653705273
 20
194.3215111932224
 30
0.0
 70
    32
  0
VERTEX
  5
E2B8
330
E2A3
100
AcDbEntity
  8
AM_0
100
AcDbVertex
100
AcDb3dPolylineVertex
 10
583.5366537052731
 20
194.2795111932224
 30
0.0
 70
    32
  0
VERTEX
  5
E2B9
330
E2A3
100
AcDbEntity
  8
AM_0
100
AcDbVertex
100
AcDb3dPolylineVertex
 10
583.598653705273
 20
194.2385111932224
 30
0.0
 70
    32
  0
VERTEX
  5
E2BA
330
E2A3
100
AcDbEntity
  8
AM_0
100
AcDbVertex
100
AcDb3dPolylineVertex
 10
583.6616537052731
 20
194.1975111932224
 30
0.0
 70
    32
  0
VERTEX
  5
E2BB
330
E2A3
100
AcDbEntity
  8
AM_0
100
AcDbVertex
100
AcDb3dPolylineVertex
 10
583.7246537052731
 20
194.1565111932224
 30
0.0
 70
    32
  0
VERTEX
  5
E2BC
330
E2A3
100
AcDbEntity
  8
AM_0
100
AcDbVertex
100
AcDb3dPolylineVertex
 10
583.789653705273
 20
194.1165111932224
 30
0.0
 70
    32
  0
VERTEX
  5
E2BD
330
E2A3
100
AcDbEntity
  8
AM_0
100
AcDbVertex
100
AcDb3dPolylineVertex
 10
583.8546537052731
 20
194.0765111932224
 30
0.0
 70
    32
  0
VERTEX
  5
E2BE
330
E2A3
100
AcDbEntity
  8
AM_0
100
AcDbVertex
100
AcDb3dPolylineVertex
 10
583.9216537052731
 20
194.0365111932224
 30
0.0
 70
    32
  0
VERTEX
  5
E2BF
330
E2A3
100
AcDbEntity
  8
AM_0
100
AcDbVertex
100
AcDb3dPolylineVertex
 10
583.9886537052731
 20
193.9965111932224
 30
0.0
 70
    32
  0
VERTEX
  5
E2C0
330
E2A3
100
AcDbEntity
  8
AM_0
100
AcDbVertex
100
AcDb3dPolylineVertex
 10
584.0566537052731
 20
193.9575111932224
 30
0.0
 70
    32
  0
VERTEX
  5
E2C1
330
E2A3
100
AcDbEntity
  8
AM_0
100
AcDbVertex
100
AcDb3dPolylineVertex
 10
584.126653705273
 20
193.9175111932224
 30
0.0
 70
    32
  0
VERTEX
  5
E2C2
330
E2A3
100
AcDbEntity
  8
AM_0
100
AcDbVertex
100
AcDb3dPolylineVertex
 10
584.1966537052731
 20
193.8785111932224
 30
0.0
 70
    32
  0
VERTEX
  5
E2C3
330
E2A3
100
AcDbEntity
  8
AM_0
100
AcDbVertex
100
AcDb3dPolylineVertex
 10
584.2676537052731
 20
193.8405111932224
 30
0.0
 70
    32
  0
VERTEX
  5
E2C4
330
E2A3
100
AcDbEntity
  8
AM_0
100
AcDbVertex
100
AcDb3dPolylineVertex
 10
584.3396537052731
 20
193.8015111932224
 30
0.0
 70
    32
  0
VERTEX
  5
E2C5
330
E2A3
100
AcDbEntity
  8
AM_0
100
AcDbVertex
100
AcDb3dPolylineVertex
 10
584.4126537052731
 20
193.7635111932224
 30
0.0
 70
    32
  0
VERTEX
  5
E2C6
330
E2A3
100
AcDbEntity
  8
AM_0
100
AcDbVertex
100
AcDb3dPolylineVertex
 10
584.486653705273
 20
193.7255111932224
 30
0.0
 70
    32
  0
VERTEX
  5
E2C7
330
E2A3
100
AcDbEntity
  8
AM_0
100
AcDbVertex
100
AcDb3dPolylineVertex
 10
584.561653705273
 20
193.6885111932224
 30
0.0
 70
    32
  0
VERTEX
  5
E2C8
330
E2A3
100
AcDbEntity
  8
AM_0
100
AcDbVertex
100
AcDb3dPolylineVertex
 10
584.6376537052731
 20
193.6515111932224
 30
0.0
 70
    32
  0
VERTEX
  5
E2C9
330
E2A3
100
AcDbEntity
  8
AM_0
100
AcDbVertex
100
AcDb3dPolylineVertex
 10
584.713653705273
 20
193.6145111932224
 30
0.0
 70
    32
  0
VERTEX
  5
E2CA
330
E2A3
100
AcDbEntity
  8
AM_0
100
AcDbVertex
100
AcDb3dPolylineVertex
 10
584.7916537052731
 20
193.5775111932224
 30
0.0
 70
    32
  0
VERTEX
  5
E2CB
330
E2A3
100
AcDbEntity
  8
AM_0
100
AcDbVertex
100
AcDb3dPolylineVertex
 10
584.869653705273
 20
193.5415111932224
 30
0.0
 70
    32
  0
VERTEX
  5
E2CC
330
E2A3
100
AcDbEntity
  8
AM_0
100
AcDbVertex
100
AcDb3dPolylineVertex
 10
584.948653705273
 20
193.5055111932224
 30
0.0
 70
    32
  0
VERTEX
  5
E2CD
330
E2A3
100
AcDbEntity
  8
AM_0
100
AcDbVertex
100
AcDb3dPolylineVertex
 10
585.028653705273
 20
193.4695111932224
 30
0.0
 70
    32
  0
VERTEX
  5
E2CE
330
E2A3
100
AcDbEntity
  8
AM_0
100
AcDbVertex
100
AcDb3dPolylineVertex
 10
585.1096537052731
 20
193.4335111932224
 30
0.0
 70
    32
  0
VERTEX
  5
E2CF
330
E2A3
100
AcDbEntity
  8
AM_0
100
AcDbVertex
100
AcDb3dPolylineVertex
 10
585.1916537052731
 20
193.3985111932224
 30
0.0
 70
    32
  0
VERTEX
  5
E2D0
330
E2A3
100
AcDbEntity
  8
AM_0
100
AcDbVertex
100
AcDb3dPolylineVertex
 10
585.274653705273
 20
193.3645111932224
 30
0.0
 70
    32
  0
VERTEX
  5
E2D1
330
E2A3
100
AcDbEntity
  8
AM_0
100
AcDbVertex
100
AcDb3dPolylineVertex
 10
585.357653705273
 20
193.3295111932224
 30
0.0
 70
    32
  0
VERTEX
  5
E2D2
330
E2A3
100
AcDbEntity
  8
AM_0
100
AcDbVertex
100
AcDb3dPolylineVertex
 10
585.441653705273
 20
193.2955111932224
 30
0.0
 70
    32
  0
VERTEX
  5
E2D3
330
E2A3
100
AcDbEntity
  8
AM_0
100
AcDbVertex
100
AcDb3dPolylineVertex
 10
585.5276537052731
 20
193.2615111932224
 30
0.0
 70
    32
  0
VERTEX
  5
E2D4
330
E2A3
100
AcDbEntity
  8
AM_0
100
AcDbVertex
100
AcDb3dPolylineVertex
 10
585.6126537052731
 20
193.2275111932224
 30
0.0
 70
    32
  0
VERTEX
  5
E2D5
330
E2A3
100
AcDbEntity
  8
AM_0
100
AcDbVertex
100
AcDb3dPolylineVertex
 10
585.6996537052731
 20
193.1945111932224
 30
0.0
 70
    32
  0
VERTEX
  5
E2D6
330
E2A3
100
AcDbEntity
  8
AM_0
100
AcDbVertex
100
AcDb3dPolylineVertex
 10
585.7876537052731
 20
193.1615111932224
 30
0.0
 70
    32
  0
VERTEX
  5
E2D7
330
E2A3
100
AcDbEntity
  8
AM_0
100
AcDbVertex
100
AcDb3dPolylineVertex
 10
585.875653705273
 20
193.1295111932224
 30
0.0
 70
    32
  0
VERTEX
  5
E2D8
330
E2A3
100
AcDbEntity
  8
AM_0
100
AcDbVertex
100
AcDb3dPolylineVertex
 10
585.9646537052731
 20
193.0975111932225
 30
0.0
 70
    32
  0
VERTEX
  5
E2D9
330
E2A3
100
AcDbEntity
  8
AM_0
100
AcDbVertex
100
AcDb3dPolylineVertex
 10
586.0546537052731
 20
193.0655111932224
 30
0.0
 70
    32
  0
VERTEX
  5
E2DA
330
E2A3
100
AcDbEntity
  8
AM_0
100
AcDbVertex
100
AcDb3dPolylineVertex
 10
586.145653705273
 20
193.0335111932224
 30
0.0
 70
    32
  0
VERTEX
  5
E2DB
330
E2A3
100
AcDbEntity
  8
AM_0
100
AcDbVertex
100
AcDb3dPolylineVertex
 10
586.236653705273
 20
193.0025111932224
 30
0.0
 70
    32
  0
VERTEX
  5
E2DC
330
E2A3
100
AcDbEntity
  8
AM_0
100
AcDbVertex
100
AcDb3dPolylineVertex
 10
586.328653705273
 20
192.9725111932224
 30
0.0
 70
    32
  0
VERTEX
  5
E2DD
330
E2A3
100
AcDbEntity
  8
AM_0
100
AcDbVertex
100
AcDb3dPolylineVertex
 10
586.4216537052731
 20
192.9415111932224
 30
0.0
 70
    32
  0
VERTEX
  5
E2DE
330
E2A3
100
AcDbEntity
  8
AM_0
100
AcDbVertex
100
AcDb3dPolylineVertex
 10
586.514653705273
 20
192.9115111932224
 30
0.0
 70
    32
  0
VERTEX
  5
E2DF
330
E2A3
100
AcDbEntity
  8
AM_0
100
AcDbVertex
100
AcDb3dPolylineVertex
 10
586.609653705273
 20
192.8815111932224
 30
0.0
 70
    32
  0
VERTEX
  5
E2E0
330
E2A3
100
AcDbEntity
  8
AM_0
100
AcDbVertex
100
AcDb3dPolylineVertex
 10
586.7046537052731
 20
192.8525111932224
 30
0.0
 70
    32
  0
VERTEX
  5
E2E1
330
E2A3
100
AcDbEntity
  8
AM_0
100
AcDbVertex
100
AcDb3dPolylineVertex
 10
586.799653705273
 20
192.8235111932224
 30
0.0
 70
    32
  0
VERTEX
  5
E2E2
330
E2A3
100
AcDbEntity
  8
AM_0
100
AcDbVertex
100
AcDb3dPolylineVertex
 10
586.8966537052731
 20
192.7945111932224
 30
0.0
 70
    32
  0
VERTEX
  5
E2E3
330
E2A3
100
AcDbEntity
  8
AM_0
100
AcDbVertex
100
AcDb3dPolylineVertex
 10
586.993653705273
 20
192.7665111932224
 30
0.0
 70
    32
  0
VERTEX
  5
E2E4
330
E2A3
100
AcDbEntity
  8
AM_0
100
AcDbVertex
100
AcDb3dPolylineVertex
 10
587.090653705273
 20
192.7385111932224
 30
0.0
 70
    32
  0
VERTEX
  5
E2E5
330
E2A3
100
AcDbEntity
  8
AM_0
100
AcDbVertex
100
AcDb3dPolylineVertex
 10
587.1896537052731
 20
192.7115111932224
 30
0.0
 70
    32
  0
VERTEX
  5
E2E6
330
E2A3
100
AcDbEntity
  8
AM_0
100
AcDbVertex
100
AcDb3dPolylineVertex
 10
587.288653705273
 20
192.6845111932224
 30
0.0
 70
    32
  0
VERTEX
  5
E2E7
330
E2A3
100
AcDbEntity
  8
AM_0
100
AcDbVertex
100
AcDb3dPolylineVertex
 10
587.388653705273
 20
192.6575111932224
 30
0.0
 70
    32
  0
VERTEX
  5
E2E8
330
E2A3
100
AcDbEntity
  8
AM_0
100
AcDbVertex
100
AcDb3dPolylineVertex
 10
587.4886537052731
 20
192.6315111932224
 30
0.0
 70
    32
  0
VERTEX
  5
E2E9
330
E2A3
100
AcDbEntity
  8
AM_0
100
AcDbVertex
100
AcDb3dPolylineVertex
 10
587.5896537052731
 20
192.6055111932224
 30
0.0
 70
    32
  0
VERTEX
  5
E2EA
330
E2A3
100
AcDbEntity
  8
AM_0
100
AcDbVertex
100
AcDb3dPolylineVertex
 10
587.6906537052731
 20
192.5795111932224
 30
0.0
 70
    32
  0
VERTEX
  5
E2EB
330
E2A3
100
AcDbEntity
  8
AM_0
100
AcDbVertex
100
AcDb3dPolylineVertex
 10
587.7936537052731
 20
192.5545111932224
 30
0.0
 70
    32
  0
VERTEX
  5
E2EC
330
E2A3
100
AcDbEntity
  8
AM_0
100
AcDbVertex
100
AcDb3dPolylineVertex
 10
587.895653705273
 20
192.5295111932224
 30
0.0
 70
    32
  0
VERTEX
  5
E2ED
330
E2A3
100
AcDbEntity
  8
AM_0
100
AcDbVertex
100
AcDb3dPolylineVertex
 10
587.9996537052731
 20
192.5055111932224
 30
0.0
 70
    32
  0
VERTEX
  5
E2EE
330
E2A3
100
AcDbEntity
  8
AM_0
100
AcDbVertex
100
AcDb3dPolylineVertex
 10
588.1036537052731
 20
192.4815111932224
 30
0.0
 70
    32
  0
VERTEX
  5
E2EF
330
E2A3
100
AcDbEntity
  8
AM_0
100
AcDbVertex
100
AcDb3dPolylineVertex
 10
588.207653705273
 20
192.4575111932224
 30
0.0
 70
    32
  0
VERTEX
  5
E2F0
330
E2A3
100
AcDbEntity
  8
AM_0
100
AcDbVertex
100
AcDb3dPolylineVertex
 10
588.3126537052731
 20
192.4345111932224
 30
0.0
 70
    32
  0
VERTEX
  5
E2F1
330
E2A3
100
AcDbEntity
  8
AM_0
100
AcDbVertex
100
AcDb3dPolylineVertex
 10
588.418653705273
 20
192.4115111932224
 30
0.0
 70
    32
  0
VERTEX
  5
E2F2
330
E2A3
100
AcDbEntity
  8
AM_0
100
AcDbVertex
100
AcDb3dPolylineVertex
 10
588.524653705273
 20
192.3895111932224
 30
0.0
 70
    32
  0
VERTEX
  5
E2F3
330
E2A3
100
AcDbEntity
  8
AM_0
100
AcDbVertex
100
AcDb3dPolylineVertex
 10
588.6316537052731
 20
192.3675111932224
 30
0.0
 70
    32
  0
VERTEX
  5
E2F4
330
E2A3
100
AcDbEntity
  8
AM_0
100
AcDbVertex
100
AcDb3dPolylineVertex
 10
588.7386537052731
 20
192.3455111932224
 30
0.0
 70
    32
  0
VERTEX
  5
E2F5
330
E2A3
100
AcDbEntity
  8
AM_0
100
AcDbVertex
100
AcDb3dPolylineVertex
 10
588.846653705273
 20
192.3245111932224
 30
0.0
 70
    32
  0
VERTEX
  5
E2F6
330
E2A3
100
AcDbEntity
  8
AM_0
100
AcDbVertex
100
AcDb3dPolylineVertex
 10
588.9546537052731
 20
192.3035111932224
 30
0.0
 70
    32
  0
VERTEX
  5
E2F7
330
E2A3
100
AcDbEntity
  8
AM_0
100
AcDbVertex
100
AcDb3dPolylineVertex
 10
589.063653705273
 20
192.2835111932224
 30
0.0
 70
    32
  0
VERTEX
  5
E2F8
330
E2A3
100
AcDbEntity
  8
AM_0
100
AcDbVertex
100
AcDb3dPolylineVertex
 10
589.1726537052731
 20
192.2635111932224
 30
0.0
 70
    32
  0
VERTEX
  5
E2F9
330
E2A3
100
AcDbEntity
  8
AM_0
100
AcDbVertex
100
AcDb3dPolylineVertex
 10
589.2826537052731
 20
192.2445111932224
 30
0.0
 70
    32
  0
VERTEX
  5
E2FA
330
E2A3
100
AcDbEntity
  8
AM_0
100
AcDbVertex
100
AcDb3dPolylineVertex
 10
589.3926537052731
 20
192.2255111932224
 30
0.0
 70
    32
  0
VERTEX
  5
E2FB
330
E2A3
100
AcDbEntity
  8
AM_0
100
AcDbVertex
100
AcDb3dPolylineVertex
 10
589.5036537052731
 20
192.2065111932224
 30
0.0
 70
    32
  0
VERTEX
  5
E2FC
330
E2A3
100
AcDbEntity
  8
AM_0
100
AcDbVertex
100
AcDb3dPolylineVertex
 10
589.6146537052731
 20
192.1885111932224
 30
0.0
 70
    32
  0
VERTEX
  5
E2FD
330
E2A3
100
AcDbEntity
  8
AM_0
100
AcDbVertex
100
AcDb3dPolylineVertex
 10
589.725653705273
 20
192.1705111932224
 30
0.0
 70
    32
  0
VERTEX
  5
E2FE
330
E2A3
100
AcDbEntity
  8
AM_0
100
AcDbVertex
100
AcDb3dPolylineVertex
 10
589.8376537052731
 20
192.1535111932224
 30
0.0
 70
    32
  0
VERTEX
  5
E2FF
330
E2A3
100
AcDbEntity
  8
AM_0
100
AcDbVertex
100
AcDb3dPolylineVertex
 10
589.9496537052731
 20
192.1365111932224
 30
0.0
 70
    32
  0
VERTEX
  5
E300
330
E2A3
100
AcDbEntity
  8
AM_0
100
AcDbVertex
100
AcDb3dPolylineVertex
 10
590.0626537052731
 20
192.1195111932224
 30
0.0
 70
    32
  0
VERTEX
  5
E301
330
E2A3
100
AcDbEntity
  8
AM_0
100
AcDbVertex
100
AcDb3dPolylineVertex
 10
590.175653705273
 20
192.1035111932224
 30
0.0
 70
    32
  0
VERTEX
  5
E302
330
E2A3
100
AcDbEntity
  8
AM_0
100
AcDbVertex
100
AcDb3dPolylineVertex
 10
590.289653705273
 20
192.0885111932224
 30
0.0
 70
    32
  0
VERTEX
  5
E303
330
E2A3
100
AcDbEntity
  8
AM_0
100
AcDbVertex
100
AcDb3dPolylineVertex
 10
590.403653705273
 20
192.0725111932224
 30
0.0
 70
    32
  0
VERTEX
  5
E304
330
E2A3
100
AcDbEntity
  8
AM_0
100
AcDbVertex
100
AcDb3dPolylineVertex
 10
590.5176537052731
 20
192.0585111932224
 30
0.0
 70
    32
  0
VERTEX
  5
E305
330
E2A3
100
AcDbEntity
  8
AM_0
100
AcDbVertex
100
AcDb3dPolylineVertex
 10
590.6316537052731
 20
192.0435111932224
 30
0.0
 70
    32
  0
VERTEX
  5
E306
330
E2A3
100
AcDbEntity
  8
AM_0
100
AcDbVertex
100
AcDb3dPolylineVertex
 10
590.7466537052731
 20
192.0305111932224
 30
0.0
 70
    32
  0
VERTEX
  5
E307
330
E2A3
100
AcDbEntity
  8
AM_0
100
AcDbVertex
100
AcDb3dPolylineVertex
 10
590.8626537052731
 20
192.0165111932224
 30
0.0
 70
    32
  0
VERTEX
  5
E308
330
E2A3
100
AcDbEntity
  8
AM_0
100
AcDbVertex
100
AcDb3dPolylineVertex
 10
590.977653705273
 20
192.0035111932224
 30
0.0
 70
    32
  0
VERTEX
  5
E309
330
E2A3
100
AcDbEntity
  8
AM_0
100
AcDbVertex
100
AcDb3dPolylineVertex
 10
591.093653705273
 20
191.9915111932224
 30
0.0
 70
    32
  0
VERTEX
  5
E30A
330
E2A3
100
AcDbEntity
  8
AM_0
100
AcDbVertex
100
AcDb3dPolylineVertex
 10
591.2096537052731
 20
191.9795111932224
 30
0.0
 70
    32
  0
VERTEX
  5
E30B
330
E2A3
100
AcDbEntity
  8
AM_0
100
AcDbVertex
100
AcDb3dPolylineVertex
 10
591.3266537052731
 20
191.9675111932224
 30
0.0
 70
    32
  0
VERTEX
  5
E30C
330
E2A3
100
AcDbEntity
  8
AM_0
100
AcDbVertex
100
AcDb3dPolylineVertex
 10
591.442653705273
 20
191.9565111932224
 30
0.0
 70
    32
  0
VERTEX
  5
E30D
330
E2A3
100
AcDbEntity
  8
AM_0
100
AcDbVertex
100
AcDb3dPolylineVertex
 10
591.559653705273
 20
191.9455111932224
 30
0.0
 70
    32
  0
VERTEX
  5
E30E
330
E2A3
100
AcDbEntity
  8
AM_0
100
AcDbVertex
100
AcDb3dPolylineVertex
 10
591.6766537052731
 20
191.9355111932224
 30
0.0
 70
    32
  0
VERTEX
  5
E30F
330
E2A3
100
AcDbEntity
  8
AM_0
100
AcDbVertex
100
AcDb3dPolylineVertex
 10
591.794653705273
 20
191.9255111932224
 30
0.0
 70
    32
  0
VERTEX
  5
E310
330
E2A3
100
AcDbEntity
  8
AM_0
100
AcDbVertex
100
AcDb3dPolylineVertex
 10
591.9126537052731
 20
191.9155111932224
 30
0.0
 70
    32
  0
VERTEX
  5
E311
330
E2A3
100
AcDbEntity
  8
AM_0
100
AcDbVertex
100
AcDb3dPolylineVertex
 10
592.030653705273
 20
191.9075111932224
 30
0.0
 70
    32
  0
VERTEX
  5
E312
330
E2A3
100
AcDbEntity
  8
AM_0
100
AcDbVertex
100
AcDb3dPolylineVertex
 10
592.148653705273
 20
191.8985111932224
 30
0.0
 70
    32
  0
VERTEX
  5
E313
330
E2A3
100
AcDbEntity
  8
AM_0
100
AcDbVertex
100
AcDb3dPolylineVertex
 10
592.2666537052731
 20
191.8905111932224
 30
0.0
 70
    32
  0
VERTEX
  5
E314
330
E2A3
100
AcDbEntity
  8
AM_0
100
AcDbVertex
100
AcDb3dPolylineVertex
 10
592.385653705273
 20
191.8825111932224
 30
0.0
 70
    32
  0
VERTEX
  5
E315
330
E2A3
100
AcDbEntity
  8
AM_0
100
AcDbVertex
100
AcDb3dPolylineVertex
 10
592.5036537052731
 20
191.8755111932224
 30
0.0
 70
    32
  0
VERTEX
  5
E316
330
E2A3
100
AcDbEntity
  8
AM_0
100
AcDbVertex
100
AcDb3dPolylineVertex
 10
592.6226537052731
 20
191.8695111932224
 30
0.0
 70
    32
  0
VERTEX
  5
E317
330
E2A3
100
AcDbEntity
  8
AM_0
100
AcDbVertex
100
AcDb3dPolylineVertex
 10
592.741653705273
 20
191.8625111932224
 30
0.0
 70
    32
  0
VERTEX
  5
E318
330
E2A3
100
AcDbEntity
  8
AM_0
100
AcDbVertex
100
AcDb3dPolylineVertex
 10
592.860653705273
 20
191.8575111932224
 30
0.0
 70
    32
  0
VERTEX
  5
E319
330
E2A3
100
AcDbEntity
  8
AM_0
100
AcDbVertex
100
AcDb3dPolylineVertex
 10
592.9806537052731
 20
191.8515111932224
 30
0.0
 70
    32
  0
VERTEX
  5
E31A
330
E2A3
100
AcDbEntity
  8
AM_0
100
AcDbVertex
100
AcDb3dPolylineVertex
 10
593.0996537052731
 20
191.8475111932224
 30
0.0
 70
    32
  0
VERTEX
  5
E31B
330
E2A3
100
AcDbEntity
  8
AM_0
100
AcDbVertex
100
AcDb3dPolylineVertex
 10
593.218653705273
 20
191.8425111932224
 30
0.0
 70
    32
  0
VERTEX
  5
E31C
330
E2A3
100
AcDbEntity
  8
AM_0
100
AcDbVertex
100
AcDb3dPolylineVertex
 10
593.338653705273
 20
191.8385111932224
 30
0.0
 70
    32
  0
VERTEX
  5
E31D
330
E2A3
100
AcDbEntity
  8
AM_0
100
AcDbVertex
100
AcDb3dPolylineVertex
 10
593.458653705273
 20
191.8355111932224
 30
0.0
 70
    32
  0
VERTEX
  5
E31E
330
E2A3
100
AcDbEntity
  8
AM_0
100
AcDbVertex
100
AcDb3dPolylineVertex
 10
593.578653705273
 20
191.8325111932224
 30
0.0
 70
    32
  0
VERTEX
  5
E31F
330
E2A3
100
AcDbEntity
  8
AM_0
100
AcDbVertex
100
AcDb3dPolylineVertex
 10
593.697653705273
 20
191.8295111932224
 30
0.0
 70
    32
  0
VERTEX
  5
E320
330
E2A3
100
AcDbEntity
  8
AM_0
100
AcDbVertex
100
AcDb3dPolylineVertex
 10
593.817653705273
 20
191.8275111932224
 30
0.0
 70
    32
  0
VERTEX
  5
E321
330
E2A3
100
AcDbEntity
  8
AM_0
100
AcDbVertex
100
AcDb3dPolylineVertex
 10
593.937653705273
 20
191.8265111932224
 30
0.0
 70
    32
  0
VERTEX
  5
E322
330
E2A3
100
AcDbEntity
  8
AM_0
100
AcDbVertex
100
AcDb3dPolylineVertex
 10
594.0576537052731
 20
191.8245111932224
 30
0.0
 70
    32
  0
VERTEX
  5
E323
330
E2A3
100
AcDbEntity
  8
AM_0
100
AcDbVertex
100
AcDb3dPolylineVertex
 10
594.1776537052731
 20
191.8245111932224
 30
0.0
 70
    32
  0
VERTEX
  5
E324
330
E2A3
100
AcDbEntity
  8
AM_0
100
AcDbVertex
100
AcDb3dPolylineVertex
 10
594.297653705273
 20
191.8245111932224
 30
0.0
 70
    32
  0
SEQEND
  5
E325
330
E2A3
100
AcDbEntity
  8
AM_0
  0
LINE
  5
E326
330
1F
100
AcDbEntity
  8
AM_0
100
AcDbLine
 10
531.7979549279547
 20
196.8240758147453
 30
0.0
 11
531.7979549279547
 21
136.8240758147457
 31
0.0
  0
POLYLINE
  5
E328
330
1F
100
AcDbEntity
  8
AM_0
100
AcDb3dPolyline
 66
     1
 10
0.0
 20
0.0
 30
0.0
 70
     8
  0
VERTEX
  5
E329
330
E328
100
AcDbEntity
  8
AM_0
100
AcDbVertex
100
AcDb3dPolylineVertex
 10
534.7976537052731
 20
136.8241111932224
 30
0.0
 70
    32
  0
VERTEX
  5
E32A
330
E328
100
AcDbEntity
  8
AM_0
100
AcDbVertex
100
AcDb3dPolylineVertex
 10
534.8346537052731
 20
136.8248111932224
 30
0.0
 70
    32
  0
VERTEX
  5
E32B
330
E328
100
AcDbEntity
  8
AM_0
100
AcDbVertex
100
AcDb3dPolylineVertex
 10
534.8716537052731
 20
136.8271111932224
 30
0.0
 70
    32
  0
VERTEX
  5
E32C
330
E328
100
AcDbEntity
  8
AM_0
100
AcDbVertex
100
AcDb3dPolylineVertex
 10
534.908653705273
 20
136.8308111932224
 30
0.0
 70
    32
  0
VERTEX
  5
E32D
330
E328
100
AcDbEntity
  8
AM_0
100
AcDbVertex
100
AcDb3dPolylineVertex
 10
534.9456537052731
 20
136.8361111932224
 30
0.0
 70
    32
  0
VERTEX
  5
E32E
330
E328
100
AcDbEntity
  8
AM_0
100
AcDbVertex
100
AcDb3dPolylineVertex
 10
534.981653705273
 20
136.8429111932224
 30
0.0
 70
    32
  0
VERTEX
  5
E32F
330
E328
100
AcDbEntity
  8
AM_0
100
AcDbVertex
100
AcDb3dPolylineVertex
 10
535.0186537052731
 20
136.8512111932224
 30
0.0
 70
    32
  0
VERTEX
  5
E330
330
E328
100
AcDbEntity
  8
AM_0
100
AcDbVertex
100
AcDb3dPolylineVertex
 10
535.0556537052731
 20
136.8609111932224
 30
0.0
 70
    32
  0
VERTEX
  5
E331
330
E328
100
AcDbEntity
  8
AM_0
100
AcDbVertex
100
AcDb3dPolylineVertex
 10
535.091653705273
 20
136.8722111932224
 30
0.0
 70
    32
  0
VERTEX
  5
E332
330
E328
100
AcDbEntity
  8
AM_0
100
AcDbVertex
100
AcDb3dPolylineVertex
 10
535.1286537052731
 20
136.8850111932224
 30
0.0
 70
    32
  0
VERTEX
  5
E333
330
E328
100
AcDbEntity
  8
AM_0
100
AcDbVertex
100
AcDb3dPolylineVertex
 10
535.165653705273
 20
136.8993111932224
 30
0.0
 70
    32
  0
VERTEX
  5
E334
330
E328
100
AcDbEntity
  8
AM_0
100
AcDbVertex
100
AcDb3dPolylineVertex
 10
535.2016537052731
 20
136.9150111932224
 30
0.0
 70
    32
  0
VERTEX
  5
E335
330
E328
100
AcDbEntity
  8
AM_0
100
AcDbVertex
100
AcDb3dPolylineVertex
 10
535.2376537052731
 20
136.9323111932224
 30
0.0
 70
    32
  0
VERTEX
  5
E336
330
E328
100
AcDbEntity
  8
AM_0
100
AcDbVertex
100
AcDb3dPolylineVertex
 10
535.274653705273
 20
136.9511111932224
 30
0.0
 70
    32
  0
VERTEX
  5
E337
330
E328
100
AcDbEntity
  8
AM_0
100
AcDbVertex
100
AcDb3dPolylineVertex
 10
535.310653705273
 20
136.9713111932224
 30
0.0
 70
    32
  0
VERTEX
  5
E338
330
E328
100
AcDbEntity
  8
AM_0
100
AcDbVertex
100
AcDb3dPolylineVertex
 10
535.3466537052731
 20
136.9930111932224
 30
0.0
 70
    32
  0
VERTEX
  5
E339
330
E328
100
AcDbEntity
  8
AM_0
100
AcDbVertex
100
AcDb3dPolylineVertex
 10
535.3836537052731
 20
137.0162111932224
 30
0.0
 70
    32
  0
VERTEX
  5
E33A
330
E328
100
AcDbEntity
  8
AM_0
100
AcDbVertex
100
AcDb3dPolylineVertex
 10
535.419653705273
 20
137.0409111932224
 30
0.0
 70
    32
  0
VERTEX
  5
E33B
330
E328
100
AcDbEntity
  8
AM_0
100
AcDbVertex
100
AcDb3dPolylineVertex
 10
535.455653705273
 20
137.0670111932224
 30
0.0
 70
    32
  0
VERTEX
  5
E33C
330
E328
100
AcDbEntity
  8
AM_0
100
AcDbVertex
100
AcDb3dPolylineVertex
 10
535.490653705273
 20
137.0947111932224
 30
0.0
 70
    32
  0
VERTEX
  5
E33D
330
E328
100
AcDbEntity
  8
AM_0
100
AcDbVertex
100
AcDb3dPolylineVertex
 10
535.5266537052731
 20
137.1238111932224
 30
0.0
 70
    32
  0
VERTEX
  5
E33E
330
E328
100
AcDbEntity
  8
AM_0
100
AcDbVertex
100
AcDb3dPolylineVertex
 10
535.5626537052731
 20
137.1543111932224
 30
0.0
 70
    32
  0
VERTEX
  5
E33F
330
E328
100
AcDbEntity
  8
AM_0
100
AcDbVertex
100
AcDb3dPolylineVertex
 10
535.597653705273
 20
137.1863111932224
 30
0.0
 70
    32
  0
VERTEX
  5
E340
330
E328
100
AcDbEntity
  8
AM_0
100
AcDbVertex
100
AcDb3dPolylineVertex
 10
535.633653705273
 20
137.2198111932224
 30
0.0
 70
    32
  0
VERTEX
  5
E341
330
E328
100
AcDbEntity
  8
AM_0
100
AcDbVertex
100
AcDb3dPolylineVertex
 10
535.6686537052731
 20
137.2547111932224
 30
0.0
 70
    32
  0
VERTEX
  5
E342
330
E328
100
AcDbEntity
  8
AM_0
100
AcDbVertex
100
AcDb3dPolylineVertex
 10
535.703653705273
 20
137.2910111932224
 30
0.0
 70
    32
  0
VERTEX
  5
E343
330
E328
100
AcDbEntity
  8
AM_0
100
AcDbVertex
100
AcDb3dPolylineVertex
 10
535.7386537052731
 20
137.3288111932224
 30
0.0
 70
    32
  0
VERTEX
  5
E344
330
E328
100
AcDbEntity
  8
AM_0
100
AcDbVertex
100
AcDb3dPolylineVertex
 10
535.7736537052731
 20
137.3680111932224
 30
0.0
 70
    32
  0
VERTEX
  5
E345
330
E328
100
AcDbEntity
  8
AM_0
100
AcDbVertex
100
AcDb3dPolylineVertex
 10
535.808653705273
 20
137.4086111932224
 30
0.0
 70
    32
  0
VERTEX
  5
E346
330
E328
100
AcDbEntity
  8
AM_0
100
AcDbVertex
100
AcDb3dPolylineVertex
 10
535.843653705273
 20
137.4507111932224
 30
0.0
 70
    32
  0
VERTEX
  5
E347
330
E328
100
AcDbEntity
  8
AM_0
100
AcDbVertex
100
AcDb3dPolylineVertex
 10
535.877653705273
 20
137.4941111932225
 30
0.0
 70
    32
  0
VERTEX
  5
E348
330
E328
100
AcDbEntity
  8
AM_0
100
AcDbVertex
100
AcDb3dPolylineVertex
 10
535.9116537052731
 20
137.5390111932224
 30
0.0
 70
    32
  0
VERTEX
  5
E349
330
E328
100
AcDbEntity
  8
AM_0
100
AcDbVertex
100
AcDb3dPolylineVertex
 10
535.945653705273
 20
137.5853111932224
 30
0.0
 70
    32
  0
VERTEX
  5
E34A
330
E328
100
AcDbEntity
  8
AM_0
100
AcDbVertex
100
AcDb3dPolylineVertex
 10
535.9796537052731
 20
137.6329111932224
 30
0.0
 70
    32
  0
VERTEX
  5
E34B
330
E328
100
AcDbEntity
  8
AM_0
100
AcDbVertex
100
AcDb3dPolylineVertex
 10
536.013653705273
 20
137.6820111932224
 30
0.0
 70
    32
  0
VERTEX
  5
E34C
330
E328
100
AcDbEntity
  8
AM_0
100
AcDbVertex
100
AcDb3dPolylineVertex
 10
536.0476537052731
 20
137.7324111932224
 30
0.0
 70
    32
  0
VERTEX
  5
E34D
330
E328
100
AcDbEntity
  8
AM_0
100
AcDbVertex
100
AcDb3dPolylineVertex
 10
536.0806537052731
 20
137.7842111932224
 30
0.0
 70
    32
  0
VERTEX
  5
E34E
330
E328
100
AcDbEntity
  8
AM_0
100
AcDbVertex
100
AcDb3dPolylineVertex
 10
536.1136537052731
 20
137.8373111932224
 30
0.0
 70
    32
  0
VERTEX
  5
E34F
330
E328
100
AcDbEntity
  8
AM_0
100
AcDbVertex
100
AcDb3dPolylineVertex
 10
536.1466537052731
 20
137.8918111932224
 30
0.0
 70
    32
  0
VERTEX
  5
E350
330
E328
100
AcDbEntity
  8
AM_0
100
AcDbVertex
100
AcDb3dPolylineVertex
 10
536.1796537052732
 20
137.9477111932224
 30
0.0
 70
    32
  0
VERTEX
  5
E351
330
E328
100
AcDbEntity
  8
AM_0
100
AcDbVertex
100
AcDb3dPolylineVertex
 10
536.211653705273
 20
138.0049111932224
 30
0.0
 70
    32
  0
VERTEX
  5
E352
330
E328
100
AcDbEntity
  8
AM_0
100
AcDbVertex
100
AcDb3dPolylineVertex
 10
536.2446537052731
 20
138.0634111932224
 30
0.0
 70
    32
  0
VERTEX
  5
E353
330
E328
100
AcDbEntity
  8
AM_0
100
AcDbVertex
100
AcDb3dPolylineVertex
 10
536.2766537052731
 20
138.1232111932224
 30
0.0
 70
    32
  0
VERTEX
  5
E354
330
E328
100
AcDbEntity
  8
AM_0
100
AcDbVertex
100
AcDb3dPolylineVertex
 10
536.308653705273
 20
138.1843111932224
 30
0.0
 70
    32
  0
VERTEX
  5
E355
330
E328
100
AcDbEntity
  8
AM_0
100
AcDbVertex
100
AcDb3dPolylineVertex
 10
536.3406537052731
 20
138.2468111932224
 30
0.0
 70
    32
  0
VERTEX
  5
E356
330
E328
100
AcDbEntity
  8
AM_0
100
AcDbVertex
100
AcDb3dPolylineVertex
 10
536.3716537052731
 20
138.3105111932224
 30
0.0
 70
    32
  0
VERTEX
  5
E357
330
E328
100
AcDbEntity
  8
AM_0
100
AcDbVertex
100
AcDb3dPolylineVertex
 10
536.4026537052731
 20
138.3755111932224
 30
0.0
 70
    32
  0
VERTEX
  5
E358
330
E328
100
AcDbEntity
  8
AM_0
100
AcDbVertex
100
AcDb3dPolylineVertex
 10
536.433653705273
 20
138.4418111932224
 30
0.0
 70
    32
  0
VERTEX
  5
E359
330
E328
100
AcDbEntity
  8
AM_0
100
AcDbVertex
100
AcDb3dPolylineVertex
 10
536.4646537052731
 20
138.5094111932224
 30
0.0
 70
    32
  0
VERTEX
  5
E35A
330
E328
100
AcDbEntity
  8
AM_0
100
AcDbVertex
100
AcDb3dPolylineVertex
 10
536.494653705273
 20
138.5782111932224
 30
0.0
 70
    32
  0
VERTEX
  5
E35B
330
E328
100
AcDbEntity
  8
AM_0
100
AcDbVertex
100
AcDb3dPolylineVertex
 10
536.525653705273
 20
138.6482111932224
 30
0.0
 70
    32
  0
VERTEX
  5
E35C
330
E328
100
AcDbEntity
  8
AM_0
100
AcDbVertex
100
AcDb3dPolylineVertex
 10
536.5556537052731
 20
138.7195111932224
 30
0.0
 70
    32
  0
VERTEX
  5
E35D
330
E328
100
AcDbEntity
  8
AM_0
100
AcDbVertex
100
AcDb3dPolylineVertex
 10
536.5846537052731
 20
138.7920111932224
 30
0.0
 70
    32
  0
VERTEX
  5
E35E
330
E328
100
AcDbEntity
  8
AM_0
100
AcDbVertex
100
AcDb3dPolylineVertex
 10
536.614653705273
 20
138.8657111932224
 30
0.0
 70
    32
  0
VERTEX
  5
E35F
330
E328
100
AcDbEntity
  8
AM_0
100
AcDbVertex
100
AcDb3dPolylineVertex
 10
536.6436537052731
 20
138.9406111932224
 30
0.0
 70
    32
  0
VERTEX
  5
E360
330
E328
100
AcDbEntity
  8
AM_0
100
AcDbVertex
100
AcDb3dPolylineVertex
 10
536.6726537052731
 20
139.0167111932224
 30
0.0
 70
    32
  0
VERTEX
  5
E361
330
E328
100
AcDbEntity
  8
AM_0
100
AcDbVertex
100
AcDb3dPolylineVertex
 10
536.7006537052731
 20
139.0940111932224
 30
0.0
 70
    32
  0
VERTEX
  5
E362
330
E328
100
AcDbEntity
  8
AM_0
100
AcDbVertex
100
AcDb3dPolylineVertex
 10
536.729653705273
 20
139.1724111932224
 30
0.0
 70
    32
  0
VERTEX
  5
E363
330
E328
100
AcDbEntity
  8
AM_0
100
AcDbVertex
100
AcDb3dPolylineVertex
 10
536.7576537052731
 20
139.2520111932224
 30
0.0
 70
    32
  0
VERTEX
  5
E364
330
E328
100
AcDbEntity
  8
AM_0
100
AcDbVertex
100
AcDb3dPolylineVertex
 10
536.785653705273
 20
139.3327111932224
 30
0.0
 70
    32
  0
VERTEX
  5
E365
330
E328
100
AcDbEntity
  8
AM_0
100
AcDbVertex
100
AcDb3dPolylineVertex
 10
536.812653705273
 20
139.4145111932224
 30
0.0
 70
    32
  0
VERTEX
  5
E366
330
E328
100
AcDbEntity
  8
AM_0
100
AcDbVertex
100
AcDb3dPolylineVertex
 10
536.839653705273
 20
139.4975111932224
 30
0.0
 70
    32
  0
VERTEX
  5
E367
330
E328
100
AcDbEntity
  8
AM_0
100
AcDbVertex
100
AcDb3dPolylineVertex
 10
536.866653705273
 20
139.5815111932224
 30
0.0
 70
    32
  0
VERTEX
  5
E368
330
E328
100
AcDbEntity
  8
AM_0
100
AcDbVertex
100
AcDb3dPolylineVertex
 10
536.8926537052731
 20
139.6665111932224
 30
0.0
 70
    32
  0
VERTEX
  5
E369
330
E328
100
AcDbEntity
  8
AM_0
100
AcDbVertex
100
AcDb3dPolylineVertex
 10
536.919653705273
 20
139.7525111932224
 30
0.0
 70
    32
  0
VERTEX
  5
E36A
330
E328
100
AcDbEntity
  8
AM_0
100
AcDbVertex
100
AcDb3dPolylineVertex
 10
536.944653705273
 20
139.8405111932224
 30
0.0
 70
    32
  0
VERTEX
  5
E36B
330
E328
100
AcDbEntity
  8
AM_0
100
AcDbVertex
100
AcDb3dPolylineVertex
 10
536.9706537052731
 20
139.9285111932224
 30
0.0
 70
    32
  0
VERTEX
  5
E36C
330
E328
100
AcDbEntity
  8
AM_0
100
AcDbVertex
100
AcDb3dPolylineVertex
 10
536.995653705273
 20
140.0185111932224
 30
0.0
 70
    32
  0
VERTEX
  5
E36D
330
E328
100
AcDbEntity
  8
AM_0
100
AcDbVertex
100
AcDb3dPolylineVertex
 10
537.020653705273
 20
140.1085111932224
 30
0.0
 70
    32
  0
VERTEX
  5
E36E
330
E328
100
AcDbEntity
  8
AM_0
100
AcDbVertex
100
AcDb3dPolylineVertex
 10
537.0456537052731
 20
140.1995111932224
 30
0.0
 70
    32
  0
VERTEX
  5
E36F
330
E328
100
AcDbEntity
  8
AM_0
100
AcDbVertex
100
AcDb3dPolylineVertex
 10
537.0696537052729
 20
140.2925111932224
 30
0.0
 70
    32
  0
VERTEX
  5
E370
330
E328
100
AcDbEntity
  8
AM_0
100
AcDbVertex
100
AcDb3dPolylineVertex
 10
537.093653705273
 20
140.3855111932224
 30
0.0
 70
    32
  0
VERTEX
  5
E371
330
E328
100
AcDbEntity
  8
AM_0
100
AcDbVertex
100
AcDb3dPolylineVertex
 10
537.116653705273
 20
140.4805111932224
 30
0.0
 70
    32
  0
VERTEX
  5
E372
330
E328
100
AcDbEntity
  8
AM_0
100
AcDbVertex
100
AcDb3dPolylineVertex
 10
537.140653705273
 20
140.5755111932224
 30
0.0
 70
    32
  0
VERTEX
  5
E373
330
E328
100
AcDbEntity
  8
AM_0
100
AcDbVertex
100
AcDb3dPolylineVertex
 10
537.1626537052731
 20
140.6715111932224
 30
0.0
 70
    32
  0
VERTEX
  5
E374
330
E328
100
AcDbEntity
  8
AM_0
100
AcDbVertex
100
AcDb3dPolylineVertex
 10
537.185653705273
 20
140.7685111932224
 30
0.0
 70
    32
  0
VERTEX
  5
E375
330
E328
100
AcDbEntity
  8
AM_0
100
AcDbVertex
100
AcDb3dPolylineVertex
 10
537.2076537052731
 20
140.8675111932224
 30
0.0
 70
    32
  0
VERTEX
  5
E376
330
E328
100
AcDbEntity
  8
AM_0
100
AcDbVertex
100
AcDb3dPolylineVertex
 10
537.2296537052731
 20
140.9665111932224
 30
0.0
 70
    32
  0
VERTEX
  5
E377
330
E328
100
AcDbEntity
  8
AM_0
100
AcDbVertex
100
AcDb3dPolylineVertex
 10
537.250653705273
 20
141.0655111932224
 30
0.0
 70
    32
  0
VERTEX
  5
E378
330
E328
100
AcDbEntity
  8
AM_0
100
AcDbVertex
100
AcDb3dPolylineVertex
 10
537.2716537052731
 20
141.1665111932224
 30
0.0
 70
    32
  0
VERTEX
  5
E379
330
E328
100
AcDbEntity
  8
AM_0
100
AcDbVertex
100
AcDb3dPolylineVertex
 10
537.292653705273
 20
141.2685111932224
 30
0.0
 70
    32
  0
VERTEX
  5
E37A
330
E328
100
AcDbEntity
  8
AM_0
100
AcDbVertex
100
AcDb3dPolylineVertex
 10
537.3126537052731
 20
141.3705111932224
 30
0.0
 70
    32
  0
VERTEX
  5
E37B
330
E328
100
AcDbEntity
  8
AM_0
100
AcDbVertex
100
AcDb3dPolylineVertex
 10
537.332653705273
 20
141.4745111932224
 30
0.0
 70
    32
  0
VERTEX
  5
E37C
330
E328
100
AcDbEntity
  8
AM_0
100
AcDbVertex
100
AcDb3dPolylineVertex
 10
537.351653705273
 20
141.5785111932224
 30
0.0
 70
    32
  0
VERTEX
  5
E37D
330
E328
100
AcDbEntity
  8
AM_0
100
AcDbVertex
100
AcDb3dPolylineVertex
 10
537.370653705273
 20
141.6835111932224
 30
0.0
 70
    32
  0
VERTEX
  5
E37E
330
E328
100
AcDbEntity
  8
AM_0
100
AcDbVertex
100
AcDb3dPolylineVertex
 10
537.389653705273
 20
141.7885111932224
 30
0.0
 70
    32
  0
VERTEX
  5
E37F
330
E328
100
AcDbEntity
  8
AM_0
100
AcDbVertex
100
AcDb3dPolylineVertex
 10
537.4086537052731
 20
141.8955111932224
 30
0.0
 70
    32
  0
VERTEX
  5
E380
330
E328
100
AcDbEntity
  8
AM_0
100
AcDbVertex
100
AcDb3dPolylineVertex
 10
537.4266537052731
 20
142.0025111932224
 30
0.0
 70
    32
  0
VERTEX
  5
E381
330
E328
100
AcDbEntity
  8
AM_0
100
AcDbVertex
100
AcDb3dPolylineVertex
 10
537.443653705273
 20
142.1105111932224
 30
0.0
 70
    32
  0
VERTEX
  5
E382
330
E328
100
AcDbEntity
  8
AM_0
100
AcDbVertex
100
AcDb3dPolylineVertex
 10
537.4606537052731
 20
142.2185111932224
 30
0.0
 70
    32
  0
VERTEX
  5
E383
330
E328
100
AcDbEntity
  8
AM_0
100
AcDbVertex
100
AcDb3dPolylineVertex
 10
537.477653705273
 20
142.3275111932224
 30
0.0
 70
    32
  0
VERTEX
  5
E384
330
E328
100
AcDbEntity
  8
AM_0
100
AcDbVertex
100
AcDb3dPolylineVertex
 10
537.493653705273
 20
142.4375111932224
 30
0.0
 70
    32
  0
VERTEX
  5
E385
330
E328
100
AcDbEntity
  8
AM_0
100
AcDbVertex
100
AcDb3dPolylineVertex
 10
537.5096537052731
 20
142.5485111932224
 30
0.0
 70
    32
  0
VERTEX
  5
E386
330
E328
100
AcDbEntity
  8
AM_0
100
AcDbVertex
100
AcDb3dPolylineVertex
 10
537.525653705273
 20
142.6595111932224
 30
0.0
 70
    32
  0
VERTEX
  5
E387
330
E328
100
AcDbEntity
  8
AM_0
100
AcDbVertex
100
AcDb3dPolylineVertex
 10
537.540653705273
 20
142.7715111932224
 30
0.0
 70
    32
  0
VERTEX
  5
E388
330
E328
100
AcDbEntity
  8
AM_0
100
AcDbVertex
100
AcDb3dPolylineVertex
 10
537.5556537052731
 20
142.8845111932224
 30
0.0
 70
    32
  0
VERTEX
  5
E389
330
E328
100
AcDbEntity
  8
AM_0
100
AcDbVertex
100
AcDb3dPolylineVertex
 10
537.569653705273
 20
142.9975111932224
 30
0.0
 70
    32
  0
VERTEX
  5
E38A
330
E328
100
AcDbEntity
  8
AM_0
100
AcDbVertex
100
AcDb3dPolylineVertex
 10
537.583653705273
 20
143.1105111932224
 30
0.0
 70
    32
  0
VERTEX
  5
E38B
330
E328
100
AcDbEntity
  8
AM_0
100
AcDbVertex
100
AcDb3dPolylineVertex
 10
537.5966537052731
 20
143.2255111932224
 30
0.0
 70
    32
  0
VERTEX
  5
E38C
330
E328
100
AcDbEntity
  8
AM_0
100
AcDbVertex
100
AcDb3dPolylineVertex
 10
537.609653705273
 20
143.3395111932224
 30
0.0
 70
    32
  0
VERTEX
  5
E38D
330
E328
100
AcDbEntity
  8
AM_0
100
AcDbVertex
100
AcDb3dPolylineVertex
 10
537.6226537052731
 20
143.4555111932224
 30
0.0
 70
    32
  0
VERTEX
  5
E38E
330
E328
100
AcDbEntity
  8
AM_0
100
AcDbVertex
100
AcDb3dPolylineVertex
 10
537.6346537052731
 20
143.5705111932224
 30
0.0
 70
    32
  0
VERTEX
  5
E38F
330
E328
100
AcDbEntity
  8
AM_0
100
AcDbVertex
100
AcDb3dPolylineVertex
 10
537.6466537052731
 20
143.6875111932224
 30
0.0
 70
    32
  0
VERTEX
  5
E390
330
E328
100
AcDbEntity
  8
AM_0
100
AcDbVertex
100
AcDb3dPolylineVertex
 10
537.6576537052731
 20
143.8045111932224
 30
0.0
 70
    32
  0
VERTEX
  5
E391
330
E328
100
AcDbEntity
  8
AM_0
100
AcDbVertex
100
AcDb3dPolylineVertex
 10
537.668653705273
 20
143.9215111932224
 30
0.0
 70
    32
  0
VERTEX
  5
E392
330
E328
100
AcDbEntity
  8
AM_0
100
AcDbVertex
100
AcDb3dPolylineVertex
 10
537.6796537052731
 20
144.0385111932224
 30
0.0
 70
    32
  0
VERTEX
  5
E393
330
E328
100
AcDbEntity
  8
AM_0
100
AcDbVertex
100
AcDb3dPolylineVertex
 10
537.6896537052731
 20
144.1565111932224
 30
0.0
 70
    32
  0
VERTEX
  5
E394
330
E328
100
AcDbEntity
  8
AM_0
100
AcDbVertex
100
AcDb3dPolylineVertex
 10
537.698653705273
 20
144.2755111932224
 30
0.0
 70
    32
  0
VERTEX
  5
E395
330
E328
100
AcDbEntity
  8
AM_0
100
AcDbVertex
100
AcDb3dPolylineVertex
 10
537.707653705273
 20
144.3945111932224
 30
0.0
 70
    32
  0
VERTEX
  5
E396
330
E328
100
AcDbEntity
  8
AM_0
100
AcDbVertex
100
AcDb3dPolylineVertex
 10
537.7166537052731
 20
144.5135111932224
 30
0.0
 70
    32
  0
VERTEX
  5
E397
330
E328
100
AcDbEntity
  8
AM_0
100
AcDbVertex
100
AcDb3dPolylineVertex
 10
537.7246537052731
 20
144.6335111932224
 30
0.0
 70
    32
  0
VERTEX
  5
E398
330
E328
100
AcDbEntity
  8
AM_0
100
AcDbVertex
100
AcDb3dPolylineVertex
 10
537.732653705273
 20
144.7525111932224
 30
0.0
 70
    32
  0
VERTEX
  5
E399
330
E328
100
AcDbEntity
  8
AM_0
100
AcDbVertex
100
AcDb3dPolylineVertex
 10
537.740653705273
 20
144.8735111932224
 30
0.0
 70
    32
  0
VERTEX
  5
E39A
330
E328
100
AcDbEntity
  8
AM_0
100
AcDbVertex
100
AcDb3dPolylineVertex
 10
537.7476537052731
 20
144.9935111932224
 30
0.0
 70
    32
  0
VERTEX
  5
E39B
330
E328
100
AcDbEntity
  8
AM_0
100
AcDbVertex
100
AcDb3dPolylineVertex
 10
537.7536537052731
 20
145.1145111932224
 30
0.0
 70
    32
  0
VERTEX
  5
E39C
330
E328
100
AcDbEntity
  8
AM_0
100
AcDbVertex
100
AcDb3dPolylineVertex
 10
537.759653705273
 20
145.2355111932224
 30
0.0
 70
    32
  0
VERTEX
  5
E39D
330
E328
100
AcDbEntity
  8
AM_0
100
AcDbVertex
100
AcDb3dPolylineVertex
 10
537.765653705273
 20
145.3565111932224
 30
0.0
 70
    32
  0
VERTEX
  5
E39E
330
E328
100
AcDbEntity
  8
AM_0
100
AcDbVertex
100
AcDb3dPolylineVertex
 10
537.770653705273
 20
145.4785111932224
 30
0.0
 70
    32
  0
VERTEX
  5
E39F
330
E328
100
AcDbEntity
  8
AM_0
100
AcDbVertex
100
AcDb3dPolylineVertex
 10
537.775653705273
 20
145.5995111932224
 30
0.0
 70
    32
  0
VERTEX
  5
E3A0
330
E328
100
AcDbEntity
  8
AM_0
100
AcDbVertex
100
AcDb3dPolylineVertex
 10
537.779653705273
 20
145.7215111932224
 30
0.0
 70
    32
  0
VERTEX
  5
E3A1
330
E328
100
AcDbEntity
  8
AM_0
100
AcDbVertex
100
AcDb3dPolylineVertex
 10
537.783653705273
 20
145.8435111932224
 30
0.0
 70
    32
  0
VERTEX
  5
E3A2
330
E328
100
AcDbEntity
  8
AM_0
100
AcDbVertex
100
AcDb3dPolylineVertex
 10
537.7866537052731
 20
145.9665111932224
 30
0.0
 70
    32
  0
VERTEX
  5
E3A3
330
E328
100
AcDbEntity
  8
AM_0
100
AcDbVertex
100
AcDb3dPolylineVertex
 10
537.789653705273
 20
146.0885111932225
 30
0.0
 70
    32
  0
VERTEX
  5
E3A4
330
E328
100
AcDbEntity
  8
AM_0
100
AcDbVertex
100
AcDb3dPolylineVertex
 10
537.792653705273
 20
146.2105111932224
 30
0.0
 70
    32
  0
VERTEX
  5
E3A5
330
E328
100
AcDbEntity
  8
AM_0
100
AcDbVertex
100
AcDb3dPolylineVertex
 10
537.794653705273
 20
146.3335111932224
 30
0.0
 70
    32
  0
VERTEX
  5
E3A6
330
E328
100
AcDbEntity
  8
AM_0
100
AcDbVertex
100
AcDb3dPolylineVertex
 10
537.7956537052731
 20
146.4555111932224
 30
0.0
 70
    32
  0
VERTEX
  5
E3A7
330
E328
100
AcDbEntity
  8
AM_0
100
AcDbVertex
100
AcDb3dPolylineVertex
 10
537.796653705273
 20
146.5785111932224
 30
0.0
 70
    32
  0
VERTEX
  5
E3A8
330
E328
100
AcDbEntity
  8
AM_0
100
AcDbVertex
100
AcDb3dPolylineVertex
 10
537.797653705273
 20
146.7015111932224
 30
0.0
 70
    32
  0
VERTEX
  5
E3A9
330
E328
100
AcDbEntity
  8
AM_0
100
AcDbVertex
100
AcDb3dPolylineVertex
 10
537.797653705273
 20
146.8245111932224
 30
0.0
 70
    32
  0
SEQEND
  5
E3AA
330
E328
100
AcDbEntity
  8
AM_0
  0
LINE
  5
E3AB
330
1F
100
AcDbEntity
  8
AM_0
100
AcDbLine
 10
531.7979549279547
 20
136.8240758147457
 30
0.0
 11
534.7979549279547
 21
136.8240758147457
 31
0.0
  0
LINE
  5
E3AC
330
1F
100
AcDbEntity
  8
AM_0
100
AcDbLine
 10
531.7979549279547
 20
196.8240758147453
 30
0.0
 11
578.7860530724807
 21
196.8240758147453
 31
0.0
  0
ARC
  5
E3AD
330
1F
100
AcDbEntity
  8
AM_0
100
AcDbCircle
 10
578.7860530724807
 20
191.824014779589
 30
0.0
 40
5.0
100
AcDbArc
 50
41.6603153707602
 51
90.00000250447842
  0
ARC
  5
E3AF
330
1F
100
AcDbEntity
  8
AM_0
100
AcDbCircle
 10
619.2979472985558
 20
186.8240758296464
 30
0.0
 40
12.5
100
AcDbArc
 50
233.1300967708469
 51
126.8699032291531
  0
LINE
  5
E3B0
330
1F
100
AcDbEntity
  8
AM_0
100
AcDbLine
 10
611.7979472985557
 20
196.8240758147453
 30
0.0
 11
611.7979472985557
 21
176.8240758147456
 31
0.0
  0
LINE
  5
E3B3
330
1F
100
AcDbEntity
  8
AM_0
100
AcDbLine
 10
603.4140132775597
 20
196.8240758147453
 30
0.0
 11
611.7979472985557
 21
196.8240758147453
 31
0.0
  0
POLYLINE
  5
E3B5
330
1F
100
AcDbEntity
  8
AM_0
100
AcDb3dPolyline
 66
     1
 10
0.0
 20
0.0
 30
0.0
 70
     8
  0
VERTEX
  5
E3B6
330
E3B5
100
AcDbEntity
  8
AM_0
100
AcDbVertex
100
AcDb3dPolylineVertex
 10
594.297653705273
 20
191.8245111932224
 30
0.0
 70
    32
  0
VERTEX
  5
E3B7
330
E3B5
100
AcDbEntity
  8
AM_0
100
AcDbVertex
100
AcDb3dPolylineVertex
 10
594.3746537052731
 20
191.8245111932224
 30
0.0
 70
    32
  0
VERTEX
  5
E3B8
330
E3B5
100
AcDbEntity
  8
AM_0
100
AcDbVertex
100
AcDb3dPolylineVertex
 10
594.4516537052731
 20
191.8255111932224
 30
0.0
 70
    32
  0
VERTEX
  5
E3B9
330
E3B5
100
AcDbEntity
  8
AM_0
100
AcDbVertex
100
AcDb3dPolylineVertex
 10
594.528653705273
 20
191.8265111932224
 30
0.0
 70
    32
  0
VERTEX
  5
E3BA
330
E3B5
100
AcDbEntity
  8
AM_0
100
AcDbVertex
100
AcDb3dPolylineVertex
 10
594.605653705273
 20
191.8285111932224
 30
0.0
 70
    32
  0
VERTEX
  5
E3BB
330
E3B5
100
AcDbEntity
  8
AM_0
100
AcDbVertex
100
AcDb3dPolylineVertex
 10
594.682653705273
 20
191.8305111932224
 30
0.0
 70
    32
  0
VERTEX
  5
E3BC
330
E3B5
100
AcDbEntity
  8
AM_0
100
AcDbVertex
100
AcDb3dPolylineVertex
 10
594.7596537052731
 20
191.8335111932224
 30
0.0
 70
    32
  0
VERTEX
  5
E3BD
330
E3B5
100
AcDbEntity
  8
AM_0
100
AcDbVertex
100
AcDb3dPolylineVertex
 10
594.8366537052731
 20
191.8365111932224
 30
0.0
 70
    32
  0
VERTEX
  5
E3BE
330
E3B5
100
AcDbEntity
  8
AM_0
100
AcDbVertex
100
AcDb3dPolylineVertex
 10
594.913653705273
 20
191.8405111932224
 30
0.0
 70
    32
  0
VERTEX
  5
E3BF
330
E3B5
100
AcDbEntity
  8
AM_0
100
AcDbVertex
100
AcDb3dPolylineVertex
 10
594.9896537052731
 20
191.8455111932224
 30
0.0
 70
    32
  0
VERTEX
  5
E3C0
330
E3B5
100
AcDbEntity
  8
AM_0
100
AcDbVertex
100
AcDb3dPolylineVertex
 10
595.0666537052731
 20
191.8505111932224
 30
0.0
 70
    32
  0
VERTEX
  5
E3C1
330
E3B5
100
AcDbEntity
  8
AM_0
100
AcDbVertex
100
AcDb3dPolylineVertex
 10
595.1436537052731
 20
191.8555111932224
 30
0.0
 70
    32
  0
VERTEX
  5
E3C2
330
E3B5
100
AcDbEntity
  8
AM_0
100
AcDbVertex
100
AcDb3dPolylineVertex
 10
595.219653705273
 20
191.8615111932224
 30
0.0
 70
    32
  0
VERTEX
  5
E3C3
330
E3B5
100
AcDbEntity
  8
AM_0
100
AcDbVertex
100
AcDb3dPolylineVertex
 10
595.2966537052731
 20
191.8685111932224
 30
0.0
 70
    32
  0
VERTEX
  5
E3C4
330
E3B5
100
AcDbEntity
  8
AM_0
100
AcDbVertex
100
AcDb3dPolylineVertex
 10
595.3726537052731
 20
191.8755111932224
 30
0.0
 70
    32
  0
VERTEX
  5
E3C5
330
E3B5
100
AcDbEntity
  8
AM_0
100
AcDbVertex
100
AcDb3dPolylineVertex
 10
595.448653705273
 20
191.8835111932224
 30
0.0
 70
    32
  0
VERTEX
  5
E3C6
330
E3B5
100
AcDbEntity
  8
AM_0
100
AcDbVertex
100
AcDb3dPolylineVertex
 10
595.524653705273
 20
191.8915111932224
 30
0.0
 70
    32
  0
VERTEX
  5
E3C7
330
E3B5
100
AcDbEntity
  8
AM_0
100
AcDbVertex
100
AcDb3dPolylineVertex
 10
595.600653705273
 20
191.9005111932224
 30
0.0
 70
    32
  0
VERTEX
  5
E3C8
330
E3B5
100
AcDbEntity
  8
AM_0
100
AcDbVertex
100
AcDb3dPolylineVertex
 10
595.6766537052731
 20
191.9095111932224
 30
0.0
 70
    32
  0
VERTEX
  5
E3C9
330
E3B5
100
AcDbEntity
  8
AM_0
100
AcDbVertex
100
AcDb3dPolylineVertex
 10
595.751653705273
 20
191.9185111932224
 30
0.0
 70
    32
  0
VERTEX
  5
E3CA
330
E3B5
100
AcDbEntity
  8
AM_0
100
AcDbVertex
100
AcDb3dPolylineVertex
 10
595.827653705273
 20
191.9295111932224
 30
0.0
 70
    32
  0
VERTEX
  5
E3CB
330
E3B5
100
AcDbEntity
  8
AM_0
100
AcDbVertex
100
AcDb3dPolylineVertex
 10
595.902653705273
 20
191.9395111932224
 30
0.0
 70
    32
  0
VERTEX
  5
E3CC
330
E3B5
100
AcDbEntity
  8
AM_0
100
AcDbVertex
100
AcDb3dPolylineVertex
 10
595.977653705273
 20
191.9515111932224
 30
0.0
 70
    32
  0
VERTEX
  5
E3CD
330
E3B5
100
AcDbEntity
  8
AM_0
100
AcDbVertex
100
AcDb3dPolylineVertex
 10
596.052653705273
 20
191.9625111932224
 30
0.0
 70
    32
  0
VERTEX
  5
E3CE
330
E3B5
100
AcDbEntity
  8
AM_0
100
AcDbVertex
100
AcDb3dPolylineVertex
 10
596.127653705273
 20
191.9755111932224
 30
0.0
 70
    32
  0
VERTEX
  5
E3CF
330
E3B5
100
AcDbEntity
  8
AM_0
100
AcDbVertex
100
AcDb3dPolylineVertex
 10
596.2026537052731
 20
191.9875111932224
 30
0.0
 70
    32
  0
VERTEX
  5
E3D0
330
E3B5
100
AcDbEntity
  8
AM_0
100
AcDbVertex
100
AcDb3dPolylineVertex
 10
596.2766537052731
 20
192.0015111932224
 30
0.0
 70
    32
  0
VERTEX
  5
E3D1
330
E3B5
100
AcDbEntity
  8
AM_0
100
AcDbVertex
100
AcDb3dPolylineVertex
 10
596.350653705273
 20
192.0155111932224
 30
0.0
 70
    32
  0
VERTEX
  5
E3D2
330
E3B5
100
AcDbEntity
  8
AM_0
100
AcDbVertex
100
AcDb3dPolylineVertex
 10
596.424653705273
 20
192.0295111932224
 30
0.0
 70
    32
  0
VERTEX
  5
E3D3
330
E3B5
100
AcDbEntity
  8
AM_0
100
AcDbVertex
100
AcDb3dPolylineVertex
 10
596.498653705273
 20
192.0445111932224
 30
0.0
 70
    32
  0
VERTEX
  5
E3D4
330
E3B5
100
AcDbEntity
  8
AM_0
100
AcDbVertex
100
AcDb3dPolylineVertex
 10
596.571653705273
 20
192.0595111932224
 30
0.0
 70
    32
  0
VERTEX
  5
E3D5
330
E3B5
100
AcDbEntity
  8
AM_0
100
AcDbVertex
100
AcDb3dPolylineVertex
 10
596.645653705273
 20
192.0755111932224
 30
0.0
 70
    32
  0
VERTEX
  5
E3D6
330
E3B5
100
AcDbEntity
  8
AM_0
100
AcDbVertex
100
AcDb3dPolylineVertex
 10
596.718653705273
 20
192.0915111932224
 30
0.0
 70
    32
  0
VERTEX
  5
E3D7
330
E3B5
100
AcDbEntity
  8
AM_0
100
AcDbVertex
100
AcDb3dPolylineVertex
 10
596.790653705273
 20
192.1085111932224
 30
0.0
 70
    32
  0
VERTEX
  5
E3D8
330
E3B5
100
AcDbEntity
  8
AM_0
100
AcDbVertex
100
AcDb3dPolylineVertex
 10
596.8636537052731
 20
192.1255111932224
 30
0.0
 70
    32
  0
VERTEX
  5
E3D9
330
E3B5
100
AcDbEntity
  8
AM_0
100
AcDbVertex
100
AcDb3dPolylineVertex
 10
596.935653705273
 20
192.1435111932224
 30
0.0
 70
    32
  0
VERTEX
  5
E3DA
330
E3B5
100
AcDbEntity
  8
AM_0
100
AcDbVertex
100
AcDb3dPolylineVertex
 10
597.0076537052731
 20
192.1615111932224
 30
0.0
 70
    32
  0
VERTEX
  5
E3DB
330
E3B5
100
AcDbEntity
  8
AM_0
100
AcDbVertex
100
AcDb3dPolylineVertex
 10
597.0796537052731
 20
192.1805111932224
 30
0.0
 70
    32
  0
VERTEX
  5
E3DC
330
E3B5
100
AcDbEntity
  8
AM_0
100
AcDbVertex
100
AcDb3dPolylineVertex
 10
597.150653705273
 20
192.1995111932224
 30
0.0
 70
    32
  0
VERTEX
  5
E3DD
330
E3B5
100
AcDbEntity
  8
AM_0
100
AcDbVertex
100
AcDb3dPolylineVertex
 10
597.221653705273
 20
192.2195111932224
 30
0.0
 70
    32
  0
VERTEX
  5
E3DE
330
E3B5
100
AcDbEntity
  8
AM_0
100
AcDbVertex
100
AcDb3dPolylineVertex
 10
597.2926537052731
 20
192.2395111932224
 30
0.0
 70
    32
  0
VERTEX
  5
E3DF
330
E3B5
100
AcDbEntity
  8
AM_0
100
AcDbVertex
100
AcDb3dPolylineVertex
 10
597.3626537052731
 20
192.2605111932224
 30
0.0
 70
    32
  0
VERTEX
  5
E3E0
330
E3B5
100
AcDbEntity
  8
AM_0
100
AcDbVertex
100
AcDb3dPolylineVertex
 10
597.433653705273
 20
192.2815111932224
 30
0.0
 70
    32
  0
VERTEX
  5
E3E1
330
E3B5
100
AcDbEntity
  8
AM_0
100
AcDbVertex
100
AcDb3dPolylineVertex
 10
597.502653705273
 20
192.3035111932224
 30
0.0
 70
    32
  0
VERTEX
  5
E3E2
330
E3B5
100
AcDbEntity
  8
AM_0
100
AcDbVertex
100
AcDb3dPolylineVertex
 10
597.5726537052731
 20
192.3255111932224
 30
0.0
 70
    32
  0
VERTEX
  5
E3E3
330
E3B5
100
AcDbEntity
  8
AM_0
100
AcDbVertex
100
AcDb3dPolylineVertex
 10
597.6416537052731
 20
192.3485111932224
 30
0.0
 70
    32
  0
VERTEX
  5
E3E4
330
E3B5
100
AcDbEntity
  8
AM_0
100
AcDbVertex
100
AcDb3dPolylineVertex
 10
597.7106537052731
 20
192.3715111932224
 30
0.0
 70
    32
  0
VERTEX
  5
E3E5
330
E3B5
100
AcDbEntity
  8
AM_0
100
AcDbVertex
100
AcDb3dPolylineVertex
 10
597.7786537052731
 20
192.3955111932224
 30
0.0
 70
    32
  0
VERTEX
  5
E3E6
330
E3B5
100
AcDbEntity
  8
AM_0
100
AcDbVertex
100
AcDb3dPolylineVertex
 10
597.8466537052731
 20
192.4195111932224
 30
0.0
 70
    32
  0
VERTEX
  5
E3E7
330
E3B5
100
AcDbEntity
  8
AM_0
100
AcDbVertex
100
AcDb3dPolylineVertex
 10
597.914653705273
 20
192.4435111932224
 30
0.0
 70
    32
  0
VERTEX
  5
E3E8
330
E3B5
100
AcDbEntity
  8
AM_0
100
AcDbVertex
100
AcDb3dPolylineVertex
 10
597.981653705273
 20
192.4685111932224
 30
0.0
 70
    32
  0
VERTEX
  5
E3E9
330
E3B5
100
AcDbEntity
  8
AM_0
100
AcDbVertex
100
AcDb3dPolylineVertex
 10
598.0486537052731
 20
192.4945111932224
 30
0.0
 70
    32
  0
VERTEX
  5
E3EA
330
E3B5
100
AcDbEntity
  8
AM_0
100
AcDbVertex
100
AcDb3dPolylineVertex
 10
598.1146537052731
 20
192.5205111932224
 30
0.0
 70
    32
  0
VERTEX
  5
E3EB
330
E3B5
100
AcDbEntity
  8
AM_0
100
AcDbVertex
100
AcDb3dPolylineVertex
 10
598.1816537052731
 20
192.5465111932224
 30
0.0
 70
    32
  0
VERTEX
  5
E3EC
330
E3B5
100
AcDbEntity
  8
AM_0
100
AcDbVertex
100
AcDb3dPolylineVertex
 10
598.2466537052731
 20
192.5735111932224
 30
0.0
 70
    32
  0
VERTEX
  5
E3ED
330
E3B5
100
AcDbEntity
  8
AM_0
100
AcDbVertex
100
AcDb3dPolylineVertex
 10
598.312653705273
 20
192.6005111932224
 30
0.0
 70
    32
  0
VERTEX
  5
E3EE
330
E3B5
100
AcDbEntity
  8
AM_0
100
AcDbVertex
100
AcDb3dPolylineVertex
 10
598.376653705273
 20
192.6285111932224
 30
0.0
 70
    32
  0
VERTEX
  5
E3EF
330
E3B5
100
AcDbEntity
  8
AM_0
100
AcDbVertex
100
AcDb3dPolylineVertex
 10
598.441653705273
 20
192.6565111932224
 30
0.0
 70
    32
  0
VERTEX
  5
E3F0
330
E3B5
100
AcDbEntity
  8
AM_0
100
AcDbVertex
100
AcDb3dPolylineVertex
 10
598.505653705273
 20
192.6845111932224
 30
0.0
 70
    32
  0
VERTEX
  5
E3F1
330
E3B5
100
AcDbEntity
  8
AM_0
100
AcDbVertex
100
AcDb3dPolylineVertex
 10
598.568653705273
 20
192.7135111932224
 30
0.0
 70
    32
  0
VERTEX
  5
E3F2
330
E3B5
100
AcDbEntity
  8
AM_0
100
AcDbVertex
100
AcDb3dPolylineVertex
 10
598.6316537052731
 20
192.7435111932224
 30
0.0
 70
    32
  0
VERTEX
  5
E3F3
330
E3B5
100
AcDbEntity
  8
AM_0
100
AcDbVertex
100
AcDb3dPolylineVertex
 10
598.694653705273
 20
192.7735111932224
 30
0.0
 70
    32
  0
VERTEX
  5
E3F4
330
E3B5
100
AcDbEntity
  8
AM_0
100
AcDbVertex
100
AcDb3dPolylineVertex
 10
598.7566537052731
 20
192.8035111932224
 30
0.0
 70
    32
  0
VERTEX
  5
E3F5
330
E3B5
100
AcDbEntity
  8
AM_0
100
AcDbVertex
100
AcDb3dPolylineVertex
 10
598.818653705273
 20
192.8345111932224
 30
0.0
 70
    32
  0
VERTEX
  5
E3F6
330
E3B5
100
AcDbEntity
  8
AM_0
100
AcDbVertex
100
AcDb3dPolylineVertex
 10
598.879653705273
 20
192.8655111932224
 30
0.0
 70
    32
  0
VERTEX
  5
E3F7
330
E3B5
100
AcDbEntity
  8
AM_0
100
AcDbVertex
100
AcDb3dPolylineVertex
 10
598.940653705273
 20
192.8975111932224
 30
0.0
 70
    32
  0
VERTEX
  5
E3F8
330
E3B5
100
AcDbEntity
  8
AM_0
100
AcDbVertex
100
AcDb3dPolylineVertex
 10
599.000653705273
 20
192.9295111932224
 30
0.0
 70
    32
  0
VERTEX
  5
E3F9
330
E3B5
100
AcDbEntity
  8
AM_0
100
AcDbVertex
100
AcDb3dPolylineVertex
 10
599.0606537052729
 20
192.9615111932224
 30
0.0
 70
    32
  0
VERTEX
  5
E3FA
330
E3B5
100
AcDbEntity
  8
AM_0
100
AcDbVertex
100
AcDb3dPolylineVertex
 10
599.119653705273
 20
192.9945111932224
 30
0.0
 70
    32
  0
VERTEX
  5
E3FB
330
E3B5
100
AcDbEntity
  8
AM_0
100
AcDbVertex
100
AcDb3dPolylineVertex
 10
599.178653705273
 20
193.0275111932224
 30
0.0
 70
    32
  0
VERTEX
  5
E3FC
330
E3B5
100
AcDbEntity
  8
AM_0
100
AcDbVertex
100
AcDb3dPolylineVertex
 10
599.236653705273
 20
193.0615111932224
 30
0.0
 70
    32
  0
VERTEX
  5
E3FD
330
E3B5
100
AcDbEntity
  8
AM_0
100
AcDbVertex
100
AcDb3dPolylineVertex
 10
599.2946537052731
 20
193.0955111932224
 30
0.0
 70
    32
  0
VERTEX
  5
E3FE
330
E3B5
100
AcDbEntity
  8
AM_0
100
AcDbVertex
100
AcDb3dPolylineVertex
 10
599.351653705273
 20
193.1295111932224
 30
0.0
 70
    32
  0
VERTEX
  5
E3FF
330
E3B5
100
AcDbEntity
  8
AM_0
100
AcDbVertex
100
AcDb3dPolylineVertex
 10
599.407653705273
 20
193.1645111932224
 30
0.0
 70
    32
  0
VERTEX
  5
E400
330
E3B5
100
AcDbEntity
  8
AM_0
100
AcDbVertex
100
AcDb3dPolylineVertex
 10
599.4646537052731
 20
193.1995111932224
 30
0.0
 70
    32
  0
VERTEX
  5
E401
330
E3B5
100
AcDbEntity
  8
AM_0
100
AcDbVertex
100
AcDb3dPolylineVertex
 10
599.5196537052731
 20
193.2355111932224
 30
0.0
 70
    32
  0
VERTEX
  5
E402
330
E3B5
100
AcDbEntity
  8
AM_0
100
AcDbVertex
100
AcDb3dPolylineVertex
 10
599.5746537052731
 20
193.2705111932224
 30
0.0
 70
    32
  0
VERTEX
  5
E403
330
E3B5
100
AcDbEntity
  8
AM_0
100
AcDbVertex
100
AcDb3dPolylineVertex
 10
599.6296537052731
 20
193.3075111932224
 30
0.0
 70
    32
  0
VERTEX
  5
E404
330
E3B5
100
AcDbEntity
  8
AM_0
100
AcDbVertex
100
AcDb3dPolylineVertex
 10
599.682653705273
 20
193.3435111932224
 30
0.0
 70
    32
  0
VERTEX
  5
E405
330
E3B5
100
AcDbEntity
  8
AM_0
100
AcDbVertex
100
AcDb3dPolylineVertex
 10
599.736653705273
 20
193.3815111932224
 30
0.0
 70
    32
  0
VERTEX
  5
E406
330
E3B5
100
AcDbEntity
  8
AM_0
100
AcDbVertex
100
AcDb3dPolylineVertex
 10
599.7896537052731
 20
193.4185111932224
 30
0.0
 70
    32
  0
VERTEX
  5
E407
330
E3B5
100
AcDbEntity
  8
AM_0
100
AcDbVertex
100
AcDb3dPolylineVertex
 10
599.841653705273
 20
193.4565111932224
 30
0.0
 70
    32
  0
VERTEX
  5
E408
330
E3B5
100
AcDbEntity
  8
AM_0
100
AcDbVertex
100
AcDb3dPolylineVertex
 10
599.8926537052731
 20
193.4945111932224
 30
0.0
 70
    32
  0
VERTEX
  5
E409
330
E3B5
100
AcDbEntity
  8
AM_0
100
AcDbVertex
100
AcDb3dPolylineVertex
 10
599.943653705273
 20
193.5325111932224
 30
0.0
 70
    32
  0
VERTEX
  5
E40A
330
E3B5
100
AcDbEntity
  8
AM_0
100
AcDbVertex
100
AcDb3dPolylineVertex
 10
599.994653705273
 20
193.5715111932224
 30
0.0
 70
    32
  0
VERTEX
  5
E40B
330
E3B5
100
AcDbEntity
  8
AM_0
100
AcDbVertex
100
AcDb3dPolylineVertex
 10
600.043653705273
 20
193.6105111932224
 30
0.0
 70
    32
  0
VERTEX
  5
E40C
330
E3B5
100
AcDbEntity
  8
AM_0
100
AcDbVertex
100
AcDb3dPolylineVertex
 10
600.093653705273
 20
193.6505111932224
 30
0.0
 70
    32
  0
VERTEX
  5
E40D
330
E3B5
100
AcDbEntity
  8
AM_0
100
AcDbVertex
100
AcDb3dPolylineVertex
 10
600.1416537052731
 20
193.6905111932224
 30
0.0
 70
    32
  0
VERTEX
  5
E40E
330
E3B5
100
AcDbEntity
  8
AM_0
100
AcDbVertex
100
AcDb3dPolylineVertex
 10
600.1896537052731
 20
193.7305111932224
 30
0.0
 70
    32
  0
VERTEX
  5
E40F
330
E3B5
100
AcDbEntity
  8
AM_0
100
AcDbVertex
100
AcDb3dPolylineVertex
 10
600.2376537052731
 20
193.7705111932224
 30
0.0
 70
    32
  0
VERTEX
  5
E410
330
E3B5
100
AcDbEntity
  8
AM_0
100
AcDbVertex
100
AcDb3dPolylineVertex
 10
600.283653705273
 20
193.8115111932224
 30
0.0
 70
    32
  0
VERTEX
  5
E411
330
E3B5
100
AcDbEntity
  8
AM_0
100
AcDbVertex
100
AcDb3dPolylineVertex
 10
600.3296537052731
 20
193.8525111932224
 30
0.0
 70
    32
  0
VERTEX
  5
E412
330
E3B5
100
AcDbEntity
  8
AM_0
100
AcDbVertex
100
AcDb3dPolylineVertex
 10
600.375653705273
 20
193.8945111932224
 30
0.0
 70
    32
  0
VERTEX
  5
E413
330
E3B5
100
AcDbEntity
  8
AM_0
100
AcDbVertex
100
AcDb3dPolylineVertex
 10
600.4206537052731
 20
193.9355111932224
 30
0.0
 70
    32
  0
VERTEX
  5
E414
330
E3B5
100
AcDbEntity
  8
AM_0
100
AcDbVertex
100
AcDb3dPolylineVertex
 10
600.4646537052731
 20
193.9785111932224
 30
0.0
 70
    32
  0
VERTEX
  5
E415
330
E3B5
100
AcDbEntity
  8
AM_0
100
AcDbVertex
100
AcDb3dPolylineVertex
 10
600.5076537052731
 20
194.0205111932224
 30
0.0
 70
    32
  0
VERTEX
  5
E416
330
E3B5
100
AcDbEntity
  8
AM_0
100
AcDbVertex
100
AcDb3dPolylineVertex
 10
600.550653705273
 20
194.0635111932224
 30
0.0
 70
    32
  0
VERTEX
  5
E417
330
E3B5
100
AcDbEntity
  8
AM_0
100
AcDbVertex
100
AcDb3dPolylineVertex
 10
600.592653705273
 20
194.1065111932224
 30
0.0
 70
    32
  0
VERTEX
  5
E418
330
E3B5
100
AcDbEntity
  8
AM_0
100
AcDbVertex
100
AcDb3dPolylineVertex
 10
600.634653705273
 20
194.1495111932224
 30
0.0
 70
    32
  0
VERTEX
  5
E419
330
E3B5
100
AcDbEntity
  8
AM_0
100
AcDbVertex
100
AcDb3dPolylineVertex
 10
600.675653705273
 20
194.1925111932224
 30
0.0
 70
    32
  0
VERTEX
  5
E41A
330
E3B5
100
AcDbEntity
  8
AM_0
100
AcDbVertex
100
AcDb3dPolylineVertex
 10
600.7156537052731
 20
194.2365111932224
 30
0.0
 70
    32
  0
VERTEX
  5
E41B
330
E3B5
100
AcDbEntity
  8
AM_0
100
AcDbVertex
100
AcDb3dPolylineVertex
 10
600.754653705273
 20
194.2805111932224
 30
0.0
 70
    32
  0
VERTEX
  5
E41C
330
E3B5
100
AcDbEntity
  8
AM_0
100
AcDbVertex
100
AcDb3dPolylineVertex
 10
600.7936537052731
 20
194.3245111932224
 30
0.0
 70
    32
  0
VERTEX
  5
E41D
330
E3B5
100
AcDbEntity
  8
AM_0
100
AcDbVertex
100
AcDb3dPolylineVertex
 10
600.831653705273
 20
194.3695111932224
 30
0.0
 70
    32
  0
VERTEX
  5
E41E
330
E3B5
100
AcDbEntity
  8
AM_0
100
AcDbVertex
100
AcDb3dPolylineVertex
 10
600.869653705273
 20
194.4145111932224
 30
0.0
 70
    32
  0
VERTEX
  5
E41F
330
E3B5
100
AcDbEntity
  8
AM_0
100
AcDbVertex
100
AcDb3dPolylineVertex
 10
600.9066537052731
 20
194.4595111932224
 30
0.0
 70
    32
  0
VERTEX
  5
E420
330
E3B5
100
AcDbEntity
  8
AM_0
100
AcDbVertex
100
AcDb3dPolylineVertex
 10
600.942653705273
 20
194.5045111932224
 30
0.0
 70
    32
  0
VERTEX
  5
E421
330
E3B5
100
AcDbEntity
  8
AM_0
100
AcDbVertex
100
AcDb3dPolylineVertex
 10
600.977653705273
 20
194.5505111932224
 30
0.0
 70
    32
  0
VERTEX
  5
E422
330
E3B5
100
AcDbEntity
  8
AM_0
100
AcDbVertex
100
AcDb3dPolylineVertex
 10
601.0126537052731
 20
194.5965111932224
 30
0.0
 70
    32
  0
VERTEX
  5
E423
330
E3B5
100
AcDbEntity
  8
AM_0
100
AcDbVertex
100
AcDb3dPolylineVertex
 10
601.0466537052731
 20
194.6425111932224
 30
0.0
 70
    32
  0
VERTEX
  5
E424
330
E3B5
100
AcDbEntity
  8
AM_0
100
AcDbVertex
100
AcDb3dPolylineVertex
 10
601.0796537052731
 20
194.6885111932224
 30
0.0
 70
    32
  0
VERTEX
  5
E425
330
E3B5
100
AcDbEntity
  8
AM_0
100
AcDbVertex
100
AcDb3dPolylineVertex
 10
601.1126537052732
 20
194.7355111932224
 30
0.0
 70
    32
  0
VERTEX
  5
E426
330
E3B5
100
AcDbEntity
  8
AM_0
100
AcDbVertex
100
AcDb3dPolylineVertex
 10
601.143653705273
 20
194.7825111932225
 30
0.0
 70
    32
  0
VERTEX
  5
E427
330
E3B5
100
AcDbEntity
  8
AM_0
100
AcDbVertex
100
AcDb3dPolylineVertex
 10
601.174653705273
 20
194.8295111932224
 30
0.0
 70
    32
  0
VERTEX
  5
E428
330
E3B5
100
AcDbEntity
  8
AM_0
100
AcDbVertex
100
AcDb3dPolylineVertex
 10
601.2056537052731
 20
194.8765111932224
 30
0.0
 70
    32
  0
VERTEX
  5
E429
330
E3B5
100
AcDbEntity
  8
AM_0
100
AcDbVertex
100
AcDb3dPolylineVertex
 10
601.2346537052731
 20
194.9235111932224
 30
0.0
 70
    32
  0
VERTEX
  5
E42A
330
E3B5
100
AcDbEntity
  8
AM_0
100
AcDbVertex
100
AcDb3dPolylineVertex
 10
601.263653705273
 20
194.9715111932224
 30
0.0
 70
    32
  0
VERTEX
  5
E42B
330
E3B5
100
AcDbEntity
  8
AM_0
100
AcDbVertex
100
AcDb3dPolylineVertex
 10
601.2916537052731
 20
195.0185111932224
 30
0.0
 70
    32
  0
VERTEX
  5
E42C
330
E3B5
100
AcDbEntity
  8
AM_0
100
AcDbVertex
100
AcDb3dPolylineVertex
 10
601.319653705273
 20
195.0665111932224
 30
0.0
 70
    32
  0
VERTEX
  5
E42D
330
E3B5
100
AcDbEntity
  8
AM_0
100
AcDbVertex
100
AcDb3dPolylineVertex
 10
601.346653705273
 20
195.1155111932224
 30
0.0
 70
    32
  0
VERTEX
  5
E42E
330
E3B5
100
AcDbEntity
  8
AM_0
100
AcDbVertex
100
AcDb3dPolylineVertex
 10
601.3726537052731
 20
195.1635111932224
 30
0.0
 70
    32
  0
VERTEX
  5
E42F
330
E3B5
100
AcDbEntity
  8
AM_0
100
AcDbVertex
100
AcDb3dPolylineVertex
 10
601.3976537052731
 20
195.2115111932224
 30
0.0
 70
    32
  0
VERTEX
  5
E430
330
E3B5
100
AcDbEntity
  8
AM_0
100
AcDbVertex
100
AcDb3dPolylineVertex
 10
601.4216537052731
 20
195.2605111932224
 30
0.0
 70
    32
  0
VERTEX
  5
E431
330
E3B5
100
AcDbEntity
  8
AM_0
100
AcDbVertex
100
AcDb3dPolylineVertex
 10
601.4456537052731
 20
195.3095111932224
 30
0.0
 70
    32
  0
VERTEX
  5
E432
330
E3B5
100
AcDbEntity
  8
AM_0
100
AcDbVertex
100
AcDb3dPolylineVertex
 10
601.468653705273
 20
195.3585111932224
 30
0.0
 70
    32
  0
VERTEX
  5
E433
330
E3B5
100
AcDbEntity
  8
AM_0
100
AcDbVertex
100
AcDb3dPolylineVertex
 10
601.4906537052731
 20
195.4075111932224
 30
0.0
 70
    32
  0
VERTEX
  5
E434
330
E3B5
100
AcDbEntity
  8
AM_0
100
AcDbVertex
100
AcDb3dPolylineVertex
 10
601.5126537052731
 20
195.4575111932224
 30
0.0
 70
    32
  0
VERTEX
  5
E435
330
E3B5
100
AcDbEntity
  8
AM_0
100
AcDbVertex
100
AcDb3dPolylineVertex
 10
601.5326537052731
 20
195.5065111932224
 30
0.0
 70
    32
  0
VERTEX
  5
E436
330
E3B5
100
AcDbEntity
  8
AM_0
100
AcDbVertex
100
AcDb3dPolylineVertex
 10
601.552653705273
 20
195.5565111932224
 30
0.0
 70
    32
  0
SEQEND
  5
E437
330
E3B5
100
AcDbEntity
  8
AM_0
  0
ARC
  5
E438
330
1F
100
AcDbEntity
  8
AM_0
100
AcDbCircle
 10
603.4140132775597
 20
194.8241215911125
 30
0.0
 40
2.0
100
AcDbArc
 50
90.00000250447842
 51
158.531559315443
  0
LINE
  5
E43B
330
1F
100
AcDbEntity
  8
AM_7
 48
0.5
100
AcDbLine
 10
672.7979511132518
 20
204.3240758147446
 30
0.0
 11
672.7979511132518
 21
131.8240758147456
 31
0.0
  0
CIRCLE
  5
E43C
330
1F
100
AcDbEntity
  8
AM_0
100
AcDbCircle
 10
672.7979511132518
 20
186.8240758296464
 30
0.0
 40
12.5
  0
LINE
  5
E43D
330
1F
100
AcDbEntity
  8
AM_0
100
AcDbLine
 10
687.7979511132517
 20
188.8240758147453
 30
0.0
 11
687.7979511132517
 21
166.8240758147456
 31
0.0
  0
LINE
  5
E43E
330
1F
100
AcDbEntity
  8
AM_0
100
AcDbLine
 10
657.7979520669265
 20
188.8240758147453
 30
0.0
 11
657.7979520669265
 21
166.8240758147456
 31
0.0
  0
POLYLINE
  5
E43F
330
1F
100
AcDbEntity
  8
AM_0
100
AcDb3dPolyline
 66
     1
 10
0.0
 20
0.0
 30
0.0
 70
     8
  0
VERTEX
  5
E440
330
E43F
100
AcDbEntity
  8
AM_0
100
AcDbVertex
100
AcDb3dPolylineVertex
 10
657.797653705273
 20
166.8245111932224
 30
0.0
 70
    32
  0
VERTEX
  5
E441
330
E43F
100
AcDbEntity
  8
AM_0
100
AcDbVertex
100
AcDb3dPolylineVertex
 10
657.802653705273
 20
166.0875111932224
 30
0.0
 70
    32
  0
VERTEX
  5
E442
330
E43F
100
AcDbEntity
  8
AM_0
100
AcDbVertex
100
AcDb3dPolylineVertex
 10
657.8156537052731
 20
165.3525111932224
 30
0.0
 70
    32
  0
VERTEX
  5
E443
330
E43F
100
AcDbEntity
  8
AM_0
100
AcDbVertex
100
AcDb3dPolylineVertex
 10
657.838653705273
 20
164.6175111932224
 30
0.0
 70
    32
  0
VERTEX
  5
E444
330
E43F
100
AcDbEntity
  8
AM_0
100
AcDbVertex
100
AcDb3dPolylineVertex
 10
657.8706537052731
 20
163.8835111932224
 30
0.0
 70
    32
  0
VERTEX
  5
E445
330
E43F
100
AcDbEntity
  8
AM_0
100
AcDbVertex
100
AcDb3dPolylineVertex
 10
657.9106537052731
 20
163.1515111932224
 30
0.0
 70
    32
  0
VERTEX
  5
E446
330
E43F
100
AcDbEntity
  8
AM_0
100
AcDbVertex
100
AcDb3dPolylineVertex
 10
657.9606537052731
 20
162.4225111932224
 30
0.0
 70
    32
  0
VERTEX
  5
E447
330
E43F
100
AcDbEntity
  8
AM_0
100
AcDbVertex
100
AcDb3dPolylineVertex
 10
658.0186537052731
 20
161.6955111932224
 30
0.0
 70
    32
  0
VERTEX
  5
E448
330
E43F
100
AcDbEntity
  8
AM_0
100
AcDbVertex
100
AcDb3dPolylineVertex
 10
658.086653705273
 20
160.9715111932224
 30
0.0
 70
    32
  0
VERTEX
  5
E449
330
E43F
100
AcDbEntity
  8
AM_0
100
AcDbVertex
100
AcDb3dPolylineVertex
 10
658.1626537052731
 20
160.2515111932224
 30
0.0
 70
    32
  0
VERTEX
  5
E44A
330
E43F
100
AcDbEntity
  8
AM_0
100
AcDbVertex
100
AcDb3dPolylineVertex
 10
658.2476537052731
 20
159.5345111932224
 30
0.0
 70
    32
  0
VERTEX
  5
E44B
330
E43F
100
AcDbEntity
  8
AM_0
100
AcDbVertex
100
AcDb3dPolylineVertex
 10
658.3416537052731
 20
158.8225111932224
 30
0.0
 70
    32
  0
VERTEX
  5
E44C
330
E43F
100
AcDbEntity
  8
AM_0
100
AcDbVertex
100
AcDb3dPolylineVertex
 10
658.443653705273
 20
158.1155111932224
 30
0.0
 70
    32
  0
VERTEX
  5
E44D
330
E43F
100
AcDbEntity
  8
AM_0
100
AcDbVertex
100
AcDb3dPolylineVertex
 10
658.5546537052731
 20
157.4135111932224
 30
0.0
 70
    32
  0
VERTEX
  5
E44E
330
E43F
100
AcDbEntity
  8
AM_0
100
AcDbVertex
100
AcDb3dPolylineVertex
 10
658.674653705273
 20
156.7175111932224
 30
0.0
 70
    32
  0
VERTEX
  5
E44F
330
E43F
100
AcDbEntity
  8
AM_0
100
AcDbVertex
100
AcDb3dPolylineVertex
 10
658.8026537052731
 20
156.0275111932224
 30
0.0
 70
    32
  0
VERTEX
  5
E450
330
E43F
100
AcDbEntity
  8
AM_0
100
AcDbVertex
100
AcDb3dPolylineVertex
 10
658.9396537052731
 20
155.3435111932224
 30
0.0
 70
    32
  0
VERTEX
  5
E451
330
E43F
100
AcDbEntity
  8
AM_0
100
AcDbVertex
100
AcDb3dPolylineVertex
 10
659.0846537052731
 20
154.6665111932224
 30
0.0
 70
    32
  0
VERTEX
  5
E452
330
E43F
100
AcDbEntity
  8
AM_0
100
AcDbVertex
100
AcDb3dPolylineVertex
 10
659.2376537052731
 20
153.9975111932224
 30
0.0
 70
    32
  0
VERTEX
  5
E453
330
E43F
100
AcDbEntity
  8
AM_0
100
AcDbVertex
100
AcDb3dPolylineVertex
 10
659.3996537052731
 20
153.3355111932224
 30
0.0
 70
    32
  0
VERTEX
  5
E454
330
E43F
100
AcDbEntity
  8
AM_0
100
AcDbVertex
100
AcDb3dPolylineVertex
 10
659.568653705273
 20
152.6825111932224
 30
0.0
 70
    32
  0
VERTEX
  5
E455
330
E43F
100
AcDbEntity
  8
AM_0
100
AcDbVertex
100
AcDb3dPolylineVertex
 10
659.7466537052731
 20
152.0375111932224
 30
0.0
 70
    32
  0
VERTEX
  5
E456
330
E43F
100
AcDbEntity
  8
AM_0
100
AcDbVertex
100
AcDb3dPolylineVertex
 10
659.9316537052731
 20
151.4005111932224
 30
0.0
 70
    32
  0
VERTEX
  5
E457
330
E43F
100
AcDbEntity
  8
AM_0
100
AcDbVertex
100
AcDb3dPolylineVertex
 10
660.124653705273
 20
150.7745111932224
 30
0.0
 70
    32
  0
VERTEX
  5
E458
330
E43F
100
AcDbEntity
  8
AM_0
100
AcDbVertex
100
AcDb3dPolylineVertex
 10
660.3256537052731
 20
150.1565111932224
 30
0.0
 70
    32
  0
VERTEX
  5
E459
330
E43F
100
AcDbEntity
  8
AM_0
100
AcDbVertex
100
AcDb3dPolylineVertex
 10
660.5346537052732
 20
149.5495111932224
 30
0.0
 70
    32
  0
VERTEX
  5
E45A
330
E43F
100
AcDbEntity
  8
AM_0
100
AcDbVertex
100
AcDb3dPolylineVertex
 10
660.7496537052731
 20
148.9535111932224
 30
0.0
 70
    32
  0
VERTEX
  5
E45B
330
E43F
100
AcDbEntity
  8
AM_0
100
AcDbVertex
100
AcDb3dPolylineVertex
 10
660.972653705273
 20
148.3675111932224
 30
0.0
 70
    32
  0
VERTEX
  5
E45C
330
E43F
100
AcDbEntity
  8
AM_0
100
AcDbVertex
100
AcDb3dPolylineVertex
 10
661.202653705273
 20
147.7925111932224
 30
0.0
 70
    32
  0
VERTEX
  5
E45D
330
E43F
100
AcDbEntity
  8
AM_0
100
AcDbVertex
100
AcDb3dPolylineVertex
 10
661.4396537052731
 20
147.2285111932224
 30
0.0
 70
    32
  0
VERTEX
  5
E45E
330
E43F
100
AcDbEntity
  8
AM_0
100
AcDbVertex
100
AcDb3dPolylineVertex
 10
661.683653705273
 20
146.6775111932224
 30
0.0
 70
    32
  0
VERTEX
  5
E45F
330
E43F
100
AcDbEntity
  8
AM_0
100
AcDbVertex
100
AcDb3dPolylineVertex
 10
661.934653705273
 20
146.1375111932224
 30
0.0
 70
    32
  0
VERTEX
  5
E460
330
E43F
100
AcDbEntity
  8
AM_0
100
AcDbVertex
100
AcDb3dPolylineVertex
 10
662.191653705273
 20
145.6105111932224
 30
0.0
 70
    32
  0
VERTEX
  5
E461
330
E43F
100
AcDbEntity
  8
AM_0
100
AcDbVertex
100
AcDb3dPolylineVertex
 10
662.4546537052731
 20
145.0965111932224
 30
0.0
 70
    32
  0
VERTEX
  5
E462
330
E43F
100
AcDbEntity
  8
AM_0
100
AcDbVertex
100
AcDb3dPolylineVertex
 10
662.7246537052731
 20
144.5955111932224
 30
0.0
 70
    32
  0
VERTEX
  5
E463
330
E43F
100
AcDbEntity
  8
AM_0
100
AcDbVertex
100
AcDb3dPolylineVertex
 10
663.0006537052731
 20
144.1075111932224
 30
0.0
 70
    32
  0
VERTEX
  5
E464
330
E43F
100
AcDbEntity
  8
AM_0
100
AcDbVertex
100
AcDb3dPolylineVertex
 10
663.2816537052731
 20
143.6335111932224
 30
0.0
 70
    32
  0
VERTEX
  5
E465
330
E43F
100
AcDbEntity
  8
AM_0
100
AcDbVertex
100
AcDb3dPolylineVertex
 10
663.5696537052731
 20
143.1735111932224
 30
0.0
 70
    32
  0
VERTEX
  5
E466
330
E43F
100
AcDbEntity
  8
AM_0
100
AcDbVertex
100
AcDb3dPolylineVertex
 10
663.8626537052731
 20
142.7275111932224
 30
0.0
 70
    32
  0
VERTEX
  5
E467
330
E43F
100
AcDbEntity
  8
AM_0
100
AcDbVertex
100
AcDb3dPolylineVertex
 10
664.1606537052731
 20
142.2965111932224
 30
0.0
 70
    32
  0
VERTEX
  5
E468
330
E43F
100
AcDbEntity
  8
AM_0
100
AcDbVertex
100
AcDb3dPolylineVertex
 10
664.464653705273
 20
141.8795111932224
 30
0.0
 70
    32
  0
VERTEX
  5
E469
330
E43F
100
AcDbEntity
  8
AM_0
100
AcDbVertex
100
AcDb3dPolylineVertex
 10
664.7726537052731
 20
141.4785111932224
 30
0.0
 70
    32
  0
VERTEX
  5
E46A
330
E43F
100
AcDbEntity
  8
AM_0
100
AcDbVertex
100
AcDb3dPolylineVertex
 10
665.086653705273
 20
141.0925111932224
 30
0.0
 70
    32
  0
VERTEX
  5
E46B
330
E43F
100
AcDbEntity
  8
AM_0
100
AcDbVertex
100
AcDb3dPolylineVertex
 10
665.404653705273
 20
140.7215111932224
 30
0.0
 70
    32
  0
VERTEX
  5
E46C
330
E43F
100
AcDbEntity
  8
AM_0
100
AcDbVertex
100
AcDb3dPolylineVertex
 10
665.7266537052731
 20
140.3665111932224
 30
0.0
 70
    32
  0
VERTEX
  5
E46D
330
E43F
100
AcDbEntity
  8
AM_0
100
AcDbVertex
100
AcDb3dPolylineVertex
 10
666.0536537052731
 20
140.0275111932224
 30
0.0
 70
    32
  0
VERTEX
  5
E46E
330
E43F
100
AcDbEntity
  8
AM_0
100
AcDbVertex
100
AcDb3dPolylineVertex
 10
666.384653705273
 20
139.7045111932224
 30
0.0
 70
    32
  0
VERTEX
  5
E46F
330
E43F
100
AcDbEntity
  8
AM_0
100
AcDbVertex
100
AcDb3dPolylineVertex
 10
666.7196537052731
 20
139.3975111932224
 30
0.0
 70
    32
  0
VERTEX
  5
E470
330
E43F
100
AcDbEntity
  8
AM_0
100
AcDbVertex
100
AcDb3dPolylineVertex
 10
667.057653705273
 20
139.1077111932224
 30
0.0
 70
    32
  0
VERTEX
  5
E471
330
E43F
100
AcDbEntity
  8
AM_0
100
AcDbVertex
100
AcDb3dPolylineVertex
 10
667.399653705273
 20
138.8343111932224
 30
0.0
 70
    32
  0
VERTEX
  5
E472
330
E43F
100
AcDbEntity
  8
AM_0
100
AcDbVertex
100
AcDb3dPolylineVertex
 10
667.744653705273
 20
138.5777111932224
 30
0.0
 70
    32
  0
VERTEX
  5
E473
330
E43F
100
AcDbEntity
  8
AM_0
100
AcDbVertex
100
AcDb3dPolylineVertex
 10
668.0926537052731
 20
138.3382111932224
 30
0.0
 70
    32
  0
VERTEX
  5
E474
330
E43F
100
AcDbEntity
  8
AM_0
100
AcDbVertex
100
AcDb3dPolylineVertex
 10
668.443653705273
 20
138.1159111932224
 30
0.0
 70
    32
  0
VERTEX
  5
E475
330
E43F
100
AcDbEntity
  8
AM_0
100
AcDbVertex
100
AcDb3dPolylineVertex
 10
668.7976537052731
 20
137.9108111932224
 30
0.0
 70
    32
  0
VERTEX
  5
E476
330
E43F
100
AcDbEntity
  8
AM_0
100
AcDbVertex
100
AcDb3dPolylineVertex
 10
669.1536537052731
 20
137.7231111932224
 30
0.0
 70
    32
  0
VERTEX
  5
E477
330
E43F
100
AcDbEntity
  8
AM_0
100
AcDbVertex
100
AcDb3dPolylineVertex
 10
669.5116537052731
 20
137.5530111932224
 30
0.0
 70
    32
  0
VERTEX
  5
E478
330
E43F
100
AcDbEntity
  8
AM_0
100
AcDbVertex
100
AcDb3dPolylineVertex
 10
669.8716537052732
 20
137.4005111932224
 30
0.0
 70
    32
  0
VERTEX
  5
E479
330
E43F
100
AcDbEntity
  8
AM_0
100
AcDbVertex
100
AcDb3dPolylineVertex
 10
670.233653705273
 20
137.2657111932224
 30
0.0
 70
    32
  0
VERTEX
  5
E47A
330
E43F
100
AcDbEntity
  8
AM_0
100
AcDbVertex
100
AcDb3dPolylineVertex
 10
670.5966537052731
 20
137.1488111932224
 30
0.0
 70
    32
  0
VERTEX
  5
E47B
330
E43F
100
AcDbEntity
  8
AM_0
100
AcDbVertex
100
AcDb3dPolylineVertex
 10
670.961653705273
 20
137.0497111932224
 30
0.0
 70
    32
  0
VERTEX
  5
E47C
330
E43F
100
AcDbEntity
  8
AM_0
100
AcDbVertex
100
AcDb3dPolylineVertex
 10
671.327653705273
 20
136.9685111932224
 30
0.0
 70
    32
  0
VERTEX
  5
E47D
330
E43F
100
AcDbEntity
  8
AM_0
100
AcDbVertex
100
AcDb3dPolylineVertex
 10
671.694653705273
 20
136.9054111932224
 30
0.0
 70
    32
  0
VERTEX
  5
E47E
330
E43F
100
AcDbEntity
  8
AM_0
100
AcDbVertex
100
AcDb3dPolylineVertex
 10
672.061653705273
 20
136.8602111932224
 30
0.0
 70
    32
  0
VERTEX
  5
E47F
330
E43F
100
AcDbEntity
  8
AM_0
100
AcDbVertex
100
AcDb3dPolylineVertex
 10
672.4296537052731
 20
136.8331111932224
 30
0.0
 70
    32
  0
VERTEX
  5
E480
330
E43F
100
AcDbEntity
  8
AM_0
100
AcDbVertex
100
AcDb3dPolylineVertex
 10
672.7976537052731
 20
136.8241111932224
 30
0.0
 70
    32
  0
VERTEX
  5
E481
330
E43F
100
AcDbEntity
  8
AM_0
100
AcDbVertex
100
AcDb3dPolylineVertex
 10
673.1656537052731
 20
136.8331111932224
 30
0.0
 70
    32
  0
VERTEX
  5
E482
330
E43F
100
AcDbEntity
  8
AM_0
100
AcDbVertex
100
AcDb3dPolylineVertex
 10
673.5336537052731
 20
136.8602111932224
 30
0.0
 70
    32
  0
VERTEX
  5
E483
330
E43F
100
AcDbEntity
  8
AM_0
100
AcDbVertex
100
AcDb3dPolylineVertex
 10
673.9016537052731
 20
136.9054111932224
 30
0.0
 70
    32
  0
VERTEX
  5
E484
330
E43F
100
AcDbEntity
  8
AM_0
100
AcDbVertex
100
AcDb3dPolylineVertex
 10
674.2686537052731
 20
136.9685111932224
 30
0.0
 70
    32
  0
VERTEX
  5
E485
330
E43F
100
AcDbEntity
  8
AM_0
100
AcDbVertex
100
AcDb3dPolylineVertex
 10
674.6336537052731
 20
137.0497111932224
 30
0.0
 70
    32
  0
VERTEX
  5
E486
330
E43F
100
AcDbEntity
  8
AM_0
100
AcDbVertex
100
AcDb3dPolylineVertex
 10
674.998653705273
 20
137.1488111932224
 30
0.0
 70
    32
  0
VERTEX
  5
E487
330
E43F
100
AcDbEntity
  8
AM_0
100
AcDbVertex
100
AcDb3dPolylineVertex
 10
675.3626537052731
 20
137.2657111932224
 30
0.0
 70
    32
  0
VERTEX
  5
E488
330
E43F
100
AcDbEntity
  8
AM_0
100
AcDbVertex
100
AcDb3dPolylineVertex
 10
675.7246537052729
 20
137.4005111932224
 30
0.0
 70
    32
  0
VERTEX
  5
E489
330
E43F
100
AcDbEntity
  8
AM_0
100
AcDbVertex
100
AcDb3dPolylineVertex
 10
676.0846537052731
 20
137.5530111932224
 30
0.0
 70
    32
  0
VERTEX
  5
E48A
330
E43F
100
AcDbEntity
  8
AM_0
100
AcDbVertex
100
AcDb3dPolylineVertex
 10
676.442653705273
 20
137.7231111932224
 30
0.0
 70
    32
  0
VERTEX
  5
E48B
330
E43F
100
AcDbEntity
  8
AM_0
100
AcDbVertex
100
AcDb3dPolylineVertex
 10
676.798653705273
 20
137.9108111932224
 30
0.0
 70
    32
  0
VERTEX
  5
E48C
330
E43F
100
AcDbEntity
  8
AM_0
100
AcDbVertex
100
AcDb3dPolylineVertex
 10
677.152653705273
 20
138.1159111932224
 30
0.0
 70
    32
  0
VERTEX
  5
E48D
330
E43F
100
AcDbEntity
  8
AM_0
100
AcDbVertex
100
AcDb3dPolylineVertex
 10
677.5036537052731
 20
138.3382111932224
 30
0.0
 70
    32
  0
VERTEX
  5
E48E
330
E43F
100
AcDbEntity
  8
AM_0
100
AcDbVertex
100
AcDb3dPolylineVertex
 10
677.8516537052731
 20
138.5777111932224
 30
0.0
 70
    32
  0
VERTEX
  5
E48F
330
E43F
100
AcDbEntity
  8
AM_0
100
AcDbVertex
100
AcDb3dPolylineVertex
 10
678.1966537052731
 20
138.8343111932224
 30
0.0
 70
    32
  0
VERTEX
  5
E490
330
E43F
100
AcDbEntity
  8
AM_0
100
AcDbVertex
100
AcDb3dPolylineVertex
 10
678.5386537052731
 20
139.1077111932224
 30
0.0
 70
    32
  0
VERTEX
  5
E491
330
E43F
100
AcDbEntity
  8
AM_0
100
AcDbVertex
100
AcDb3dPolylineVertex
 10
678.876653705273
 20
139.3975111932224
 30
0.0
 70
    32
  0
VERTEX
  5
E492
330
E43F
100
AcDbEntity
  8
AM_0
100
AcDbVertex
100
AcDb3dPolylineVertex
 10
679.2116537052731
 20
139.7045111932224
 30
0.0
 70
    32
  0
VERTEX
  5
E493
330
E43F
100
AcDbEntity
  8
AM_0
100
AcDbVertex
100
AcDb3dPolylineVertex
 10
679.5416537052731
 20
140.0275111932224
 30
0.0
 70
    32
  0
VERTEX
  5
E494
330
E43F
100
AcDbEntity
  8
AM_0
100
AcDbVertex
100
AcDb3dPolylineVertex
 10
679.8686537052731
 20
140.3665111932224
 30
0.0
 70
    32
  0
VERTEX
  5
E495
330
E43F
100
AcDbEntity
  8
AM_0
100
AcDbVertex
100
AcDb3dPolylineVertex
 10
680.1916537052731
 20
140.7215111932224
 30
0.0
 70
    32
  0
VERTEX
  5
E496
330
E43F
100
AcDbEntity
  8
AM_0
100
AcDbVertex
100
AcDb3dPolylineVertex
 10
680.509653705273
 20
141.0925111932224
 30
0.0
 70
    32
  0
VERTEX
  5
E497
330
E43F
100
AcDbEntity
  8
AM_0
100
AcDbVertex
100
AcDb3dPolylineVertex
 10
680.8226537052732
 20
141.4785111932224
 30
0.0
 70
    32
  0
VERTEX
  5
E498
330
E43F
100
AcDbEntity
  8
AM_0
100
AcDbVertex
100
AcDb3dPolylineVertex
 10
681.1316537052731
 20
141.8795111932224
 30
0.0
 70
    32
  0
VERTEX
  5
E499
330
E43F
100
AcDbEntity
  8
AM_0
100
AcDbVertex
100
AcDb3dPolylineVertex
 10
681.434653705273
 20
142.2965111932224
 30
0.0
 70
    32
  0
VERTEX
  5
E49A
330
E43F
100
AcDbEntity
  8
AM_0
100
AcDbVertex
100
AcDb3dPolylineVertex
 10
681.733653705273
 20
142.7275111932224
 30
0.0
 70
    32
  0
VERTEX
  5
E49B
330
E43F
100
AcDbEntity
  8
AM_0
100
AcDbVertex
100
AcDb3dPolylineVertex
 10
682.0266537052731
 20
143.1735111932224
 30
0.0
 70
    32
  0
VERTEX
  5
E49C
330
E43F
100
AcDbEntity
  8
AM_0
100
AcDbVertex
100
AcDb3dPolylineVertex
 10
682.3136537052731
 20
143.6335111932224
 30
0.0
 70
    32
  0
VERTEX
  5
E49D
330
E43F
100
AcDbEntity
  8
AM_0
100
AcDbVertex
100
AcDb3dPolylineVertex
 10
682.595653705273
 20
144.1075111932224
 30
0.0
 70
    32
  0
VERTEX
  5
E49E
330
E43F
100
AcDbEntity
  8
AM_0
100
AcDbVertex
100
AcDb3dPolylineVertex
 10
682.8716537052732
 20
144.5955111932224
 30
0.0
 70
    32
  0
VERTEX
  5
E49F
330
E43F
100
AcDbEntity
  8
AM_0
100
AcDbVertex
100
AcDb3dPolylineVertex
 10
683.1406537052731
 20
145.0965111932224
 30
0.0
 70
    32
  0
VERTEX
  5
E4A0
330
E43F
100
AcDbEntity
  8
AM_0
100
AcDbVertex
100
AcDb3dPolylineVertex
 10
683.4046537052731
 20
145.6105111932224
 30
0.0
 70
    32
  0
VERTEX
  5
E4A1
330
E43F
100
AcDbEntity
  8
AM_0
100
AcDbVertex
100
AcDb3dPolylineVertex
 10
683.6616537052731
 20
146.1375111932224
 30
0.0
 70
    32
  0
VERTEX
  5
E4A2
330
E43F
100
AcDbEntity
  8
AM_0
100
AcDbVertex
100
AcDb3dPolylineVertex
 10
683.9126537052731
 20
146.6775111932224
 30
0.0
 70
    32
  0
VERTEX
  5
E4A3
330
E43F
100
AcDbEntity
  8
AM_0
100
AcDbVertex
100
AcDb3dPolylineVertex
 10
684.1556537052731
 20
147.2285111932224
 30
0.0
 70
    32
  0
VERTEX
  5
E4A4
330
E43F
100
AcDbEntity
  8
AM_0
100
AcDbVertex
100
AcDb3dPolylineVertex
 10
684.392653705273
 20
147.7925111932224
 30
0.0
 70
    32
  0
VERTEX
  5
E4A5
330
E43F
100
AcDbEntity
  8
AM_0
100
AcDbVertex
100
AcDb3dPolylineVertex
 10
684.6226537052731
 20
148.3675111932224
 30
0.0
 70
    32
  0
VERTEX
  5
E4A6
330
E43F
100
AcDbEntity
  8
AM_0
100
AcDbVertex
100
AcDb3dPolylineVertex
 10
684.845653705273
 20
148.9535111932224
 30
0.0
 70
    32
  0
VERTEX
  5
E4A7
330
E43F
100
AcDbEntity
  8
AM_0
100
AcDbVertex
100
AcDb3dPolylineVertex
 10
685.061653705273
 20
149.5495111932224
 30
0.0
 70
    32
  0
VERTEX
  5
E4A8
330
E43F
100
AcDbEntity
  8
AM_0
100
AcDbVertex
100
AcDb3dPolylineVertex
 10
685.2696537052731
 20
150.1565111932224
 30
0.0
 70
    32
  0
VERTEX
  5
E4A9
330
E43F
100
AcDbEntity
  8
AM_0
100
AcDbVertex
100
AcDb3dPolylineVertex
 10
685.4706537052731
 20
150.7745111932224
 30
0.0
 70
    32
  0
VERTEX
  5
E4AA
330
E43F
100
AcDbEntity
  8
AM_0
100
AcDbVertex
100
AcDb3dPolylineVertex
 10
685.6636537052731
 20
151.4005111932224
 30
0.0
 70
    32
  0
VERTEX
  5
E4AB
330
E43F
100
AcDbEntity
  8
AM_0
100
AcDbVertex
100
AcDb3dPolylineVertex
 10
685.8496537052729
 20
152.0375111932224
 30
0.0
 70
    32
  0
VERTEX
  5
E4AC
330
E43F
100
AcDbEntity
  8
AM_0
100
AcDbVertex
100
AcDb3dPolylineVertex
 10
686.0266537052731
 20
152.6825111932224
 30
0.0
 70
    32
  0
VERTEX
  5
E4AD
330
E43F
100
AcDbEntity
  8
AM_0
100
AcDbVertex
100
AcDb3dPolylineVertex
 10
686.1966537052731
 20
153.3355111932224
 30
0.0
 70
    32
  0
VERTEX
  5
E4AE
330
E43F
100
AcDbEntity
  8
AM_0
100
AcDbVertex
100
AcDb3dPolylineVertex
 10
686.357653705273
 20
153.9975111932224
 30
0.0
 70
    32
  0
VERTEX
  5
E4AF
330
E43F
100
AcDbEntity
  8
AM_0
100
AcDbVertex
100
AcDb3dPolylineVertex
 10
686.5106537052731
 20
154.6665111932224
 30
0.0
 70
    32
  0
VERTEX
  5
E4B0
330
E43F
100
AcDbEntity
  8
AM_0
100
AcDbVertex
100
AcDb3dPolylineVertex
 10
686.6556537052731
 20
155.3435111932224
 30
0.0
 70
    32
  0
VERTEX
  5
E4B1
330
E43F
100
AcDbEntity
  8
AM_0
100
AcDbVertex
100
AcDb3dPolylineVertex
 10
686.792653705273
 20
156.0275111932224
 30
0.0
 70
    32
  0
VERTEX
  5
E4B2
330
E43F
100
AcDbEntity
  8
AM_0
100
AcDbVertex
100
AcDb3dPolylineVertex
 10
686.9206537052731
 20
156.7175111932224
 30
0.0
 70
    32
  0
VERTEX
  5
E4B3
330
E43F
100
AcDbEntity
  8
AM_0
100
AcDbVertex
100
AcDb3dPolylineVertex
 10
687.0406537052731
 20
157.4135111932224
 30
0.0
 70
    32
  0
VERTEX
  5
E4B4
330
E43F
100
AcDbEntity
  8
AM_0
100
AcDbVertex
100
AcDb3dPolylineVertex
 10
687.1516537052731
 20
158.1155111932224
 30
0.0
 70
    32
  0
VERTEX
  5
E4B5
330
E43F
100
AcDbEntity
  8
AM_0
100
AcDbVertex
100
AcDb3dPolylineVertex
 10
687.254653705273
 20
158.8225111932224
 30
0.0
 70
    32
  0
VERTEX
  5
E4B6
330
E43F
100
AcDbEntity
  8
AM_0
100
AcDbVertex
100
AcDb3dPolylineVertex
 10
687.348653705273
 20
159.5345111932224
 30
0.0
 70
    32
  0
VERTEX
  5
E4B7
330
E43F
100
AcDbEntity
  8
AM_0
100
AcDbVertex
100
AcDb3dPolylineVertex
 10
687.433653705273
 20
160.2515111932224
 30
0.0
 70
    32
  0
VERTEX
  5
E4B8
330
E43F
100
AcDbEntity
  8
AM_0
100
AcDbVertex
100
AcDb3dPolylineVertex
 10
687.5096537052731
 20
160.9715111932224
 30
0.0
 70
    32
  0
VERTEX
  5
E4B9
330
E43F
100
AcDbEntity
  8
AM_0
100
AcDbVertex
100
AcDb3dPolylineVertex
 10
687.576653705273
 20
161.6955111932224
 30
0.0
 70
    32
  0
VERTEX
  5
E4BA
330
E43F
100
AcDbEntity
  8
AM_0
100
AcDbVertex
100
AcDb3dPolylineVertex
 10
687.635653705273
 20
162.4225111932224
 30
0.0
 70
    32
  0
VERTEX
  5
E4BB
330
E43F
100
AcDbEntity
  8
AM_0
100
AcDbVertex
100
AcDb3dPolylineVertex
 10
687.684653705273
 20
163.1515111932224
 30
0.0
 70
    32
  0
VERTEX
  5
E4BC
330
E43F
100
AcDbEntity
  8
AM_0
100
AcDbVertex
100
AcDb3dPolylineVertex
 10
687.7256537052732
 20
163.8835111932224
 30
0.0
 70
    32
  0
VERTEX
  5
E4BD
330
E43F
100
AcDbEntity
  8
AM_0
100
AcDbVertex
100
AcDb3dPolylineVertex
 10
687.7576537052731
 20
164.6175111932224
 30
0.0
 70
    32
  0
VERTEX
  5
E4BE
330
E43F
100
AcDbEntity
  8
AM_0
100
AcDbVertex
100
AcDb3dPolylineVertex
 10
687.7796537052731
 20
165.3525111932224
 30
0.0
 70
    32
  0
VERTEX
  5
E4BF
330
E43F
100
AcDbEntity
  8
AM_0
100
AcDbVertex
100
AcDb3dPolylineVertex
 10
687.7936537052731
 20
166.0875111932224
 30
0.0
 70
    32
  0
VERTEX
  5
E4C0
330
E43F
100
AcDbEntity
  8
AM_0
100
AcDbVertex
100
AcDb3dPolylineVertex
 10
687.7976537052731
 20
166.8245111932224
 30
0.0
 70
    32
  0
SEQEND
  5
E4C1
330
E43F
100
AcDbEntity
  8
AM_0
  0
ARC
  5
E4C4
330
1F
100
AcDbEntity
  8
AM_0
100
AcDbCircle
 10
665.7979511132517
 20
188.8240758147453
 30
0.0
 40
8.0
100
AcDbArc
 50
93.74653201895744
 51
180.0000050089569
  0
ARC
  5
E4C6
330
1F
100
AcDbEntity
  8
AM_0
100
AcDbCircle
 10
679.7979511132517
 20
188.8240758147453
 30
0.0
 40
8.0
100
AcDbArc
 50
0.0
 51
86.25346615981012
  0
LINE
  5
E4C7
330
1F
100
AcDbEntity
  8
AM_0
100
AcDbLine
 10
528.7979549279547
 20
190.8240758147453
 30
0.0
 11
528.7979549279547
 21
182.8240758147453
 31
0.0
  0
LINE
  5
E4C8
330
1F
100
AcDbEntity
  8
AM_0
100
AcDbLine
 10
518.7979549279547
 20
196.8240758147453
 30
0.0
 11
518.7979549279547
 21
161.8240758147453
 31
0.0
  0
LINE
  5
E4C9
330
1F
100
AcDbEntity
  8
AM_0
100
AcDbLine
 10
516.7979549279547
 20
195.8240758147453
 30
0.0
 11
516.7979549279547
 21
162.8240758147453
 31
0.0
  0
LINE
  5
E4CA
330
1F
100
AcDbEntity
  8
AM_0
100
AcDbLine
 10
528.7979549279547
 20
175.8240758147453
 30
0.0
 11
528.7979549279547
 21
167.8240758147453
 31
0.0
  0
LINE
  5
E4CB
330
1F
100
AcDbEntity
  8
AM_0
100
AcDbLine
 10
528.7979549279547
 20
167.8240758147453
 30
0.0
 11
518.7979549279547
 21
167.8240758147453
 31
0.0
  0
LINE
  5
E4CC
330
1F
100
AcDbEntity
  8
AM_0
100
AcDbLine
 10
528.7979549279547
 20
175.8240758147453
 30
0.0
 11
518.7979549279547
 21
175.8240758147453
 31
0.0
  0
LINE
  5
E4CD
330
1F
100
AcDbEntity
  8
AM_0
100
AcDbLine
 10
528.7979549279547
 20
182.8240758147453
 30
0.0
 11
518.7979549279547
 21
182.8240758147453
 31
0.0
  0
LINE
  5
E4CE
330
1F
100
AcDbEntity
  8
AM_0
100
AcDbLine
 10
517.7979549279547
 20
196.8240758147453
 30
0.0
 11
518.7979549279547
 21
196.8240758147453
 31
0.0
  0
LINE
  5
E4CF
330
1F
100
AcDbEntity
  8
AM_0
100
AcDbLine
 10
528.7979549279547
 20
190.8240758147453
 30
0.0
 11
518.7979549279547
 21
190.8240758147453
 31
0.0
  0
ARC
  5
E4D0
330
1F
100
AcDbEntity
  8
AM_0
100
AcDbCircle
 10
517.7979549279547
 20
195.8240758147453
 30
0.0
 40
1.0
100
AcDbArc
 50
90.0
 51
180.0
1001
GENIUS_GENODEF_13
1002
{
1000
HIER
1070
     0
1002
}
1002
{
1000
MANEDIT
1070
     0
1002
}
1002
{
1000
NOSEL
1070
     0
1002
}
1002
{
1000
BEHIND
1070
     0
1002
}
1002
{
1000
OTHER
1070
     0
1002
}
1002
{
1000
REACTOR
1002
}
1001
GENIUS_GENOBJ-N-FIL_13
1002
{
1000
OWNER
1000
GEN
1002
}
  0
LINE
  5
E4D1
330
1F
100
AcDbEntity
  8
AM_0
100
AcDbLine
 10
517.7979549279547
 20
161.8240758147453
 30
0.0
 11
518.7979549279547
 21
161.8240758147453
 31
0.0
  0
ARC
  5
E4D2
330
1F
100
AcDbEntity
  8
AM_0
100
AcDbCircle
 10
517.7979549279547
 20
162.8240758147453
 30
0.0
 40
1.0
100
AcDbArc
 50
180.0
 51
270.0
1001
GENIUS_GENODEF_13
1002
{
1000
HIER
1070
     0
1002
}
1002
{
1000
MANEDIT
1070
     0
1002
}
1002
{
1000
NOSEL
1070
     0
1002
}
1002
{
1000
BEHIND
1070
     0
1002
}
1002
{
1000
OTHER
1070
     0
1002
}
1002
{
1000
REACTOR
1002
}
1001
GENIUS_GENOBJ-N-FIL_13
1002
{
1000
OWNER
1000
GEN
1002
}
  0
DIMENSION
  5
ECBA
330
1F
100
AcDbEntity
  8
AM_5
100
AcDbDimension
  2
*D13
 10
516.7979549279547
 20
207.3466927195648
 30
0.0
 11
512.551288261288
 21
210.4466927195648
 31
0.0
 70
    32
 71
     5
 42
2.0
  3
SYS$0
100
AcDbAlignedDimension
 13
518.7979549279547
 23
196.8240758147453
 33
0.0
 14
516.7979549279547
 24
195.8240758147453
 34
0.0
100
AcDbRotatedDimension
1001
ACAD
1000
DSTYLE
1002
{
1070
    42
1040
2.0
1002
}
  0
DIMENSION
  5
ECDF
330
1F
100
AcDbEntity
  8
AM_5
100
AcDbDimension
  2
*D14
 10
518.7979549279547
 20
207.3466927195648
 30
0.0
 11
523.7979549279547
 21
210.4466927195647
 31
0.0
 70
    32
 71
     5
 42
10.0
  3
SYS$0
100
AcDbAlignedDimension
 13
528.7979549279547
 23
190.8240758147453
 33
0.0
 14
518.7979549279547
 24
196.8240758147453
 34
0.0
100
AcDbRotatedDimension
1001
ACAD
1000
DSTYLE
1002
{
1070
    42
1040
2.0
1002
}
  0
DIMENSION
  5
ED00
330
1F
100
AcDbEntity
  8
AM_5
100
AcDbDimension
  2
*D15
 10
500.7979549279546
 20
136.8240758147457
 30
0.0
 11
497.6979549279546
 21
166.8240758147456
 31
0.0
 70
    32
 71
     5
 42
59.99999999999966
  3
SYS$0
100
AcDbAlignedDimension
 13
531.7979549279547
 23
196.8240758147453
 33
0.0
 14
531.7979549279547
 24
136.8240758147457
 34
0.0
 50
90.0
100
AcDbRotatedDimension
1001
ACAD
1000
DSTYLE
1002
{
1070
    42
1040
2.0
1002
}
  0
DIMENSION
  5
EDBC
330
1F
100
AcDbEntity
  8
AM_5
100
AcDbDimension
  2
*D16
 10
687.7979511132517
 20
207.3240758147451
 30
0.0
 11
672.7979515900891
 21
210.4240758147451
 31
0.0
 70
    32
 71
     5
 42
29.99999904632523
  3
SYS$0
100
AcDbAlignedDimension
 13
657.7979520669265
 23
188.8240758147453
 33
0.0
 14
687.7979511132517
 24
188.8240758147453
 34
0.0
100
AcDbRotatedDimension
  0
MTEXT
  5
EE79
330
1F
100
AcDbEntity
  8
AM_6
 48
10.0
100
AcDbMText
 10
451.4999999999999
 20
244.5
 30
0.0
 40
3.2
 41
90.0
 71
     4
 72
     5
  1
　M4×12 ナベ小ネジ　+　SUS　2本 （パネル厚16ｍｍ用）
 73
     1
 44
1.0
1001
ACAD
1000
MTEXTBEGIN
1070
    73
1070
     1
1070
    44
1040
1.0
1070
    74
1070
     0
1000
MTEXTEND
  0
CIRCLE
  5
EE7A
330
1F
100
AcDbEntity
  8
AM_2
 48
10.0
100
AcDbCircle
 10
484.6647996476551
 20
244.2593137237845
 30
0.0
 40
1.8
  0
MTEXT
  5
EE7B
330
1F
100
AcDbEntity
  8
AM_6
 48
10.0
100
AcDbMText
 10
451.4999999999999
 20
236.5
 30
0.0
 40
3.2
 41
90.0
 71
     4
 72
     5
  1
　M4×16 ナベ小ネジ　+　SUS　2本 （パネル厚20ｍｍ用）
 73
     1
 44
1.0
1001
ACAD
1000
MTEXTBEGIN
1070
    73
1070
     1
1070
    44
1040
1.0
1070
    74
1070
     0
1000
MTEXTEND
  0
CIRCLE
  5
EE7C
330
1F
100
AcDbEntity
  8
AM_2
 48
10.0
100
AcDbCircle
 10
484.6647996476551
 20
236.2593137237845
 30
0.0
 40
1.8
  0
MTEXT
  5
EE7D
330
1F
100
AcDbEntity
  8
AM_6
 48
10.0
100
AcDbMText
 10
451.4999999999999
 20
228.5
 30
0.0
 40
3.2
 41
90.0
 71
     4
 72
     5
  1
　M4×D7×10 サラ小ネジ　+　SUS　2本
 73
     1
 44
1.0
1001
ACAD
1000
MTEXTBEGIN
1070
    73
1070
     1
1070
    44
1040
1.0
1070
    74
1070
     0
1000
MTEXTEND
  0
CIRCLE
  5
EE7E
330
1F
100
AcDbEntity
  8
AM_2
 48
10.0
100
AcDbCircle
 10
491.6647996476552
 20
228.2593137237845
 30
0.0
 40
1.8
  0
LINE
  5
EF32
330
1F
100
AcDbEntity
  8
AM_7
 48
0.5
100
AcDbLine
 10
514.7979549279547
 20
186.8240758296464
 30
0.0
 11
537.7979549279547
 21
186.8240758296464
 31
0.0
  0
LINE
  5
EF33
330
1F
100
AcDbEntity
  8
AM_7
 48
0.5
100
AcDbLine
 10
514.7979549279547
 20
171.8240758147453
 30
0.0
 11
537.7979549279547
 21
171.8240758147453
 31
0.0
  0
DIMENSION
  5
EF35
330
1F
100
AcDbEntity
  8
AM_5
100
AcDbDimension
  2
*D17
 10
508.7979549279546
 20
186.8240758296464
 30
0.0
 11
505.6979549279546
 21
191.824075822196
 31
0.0
 70
    32
 71
     5
 42
9.999999985098895
  3
SYS$0
100
AcDbAlignedDimension
 13
531.7979549279547
 23
196.8240758147453
 33
0.0
 14
514.7979549279547
 24
186.8240758296464
 34
0.0
 50
90.0
100
AcDbRotatedDimension
1001
ACAD
1000
DSTYLE
1002
{
1070
    42
1040
2.0
1002
}
  0
DIMENSION
  5
EF4B
330
1F
100
AcDbEntity
  8
AM_5
100
AcDbDimension
  2
*D18
 10
508.7979549279546
 20
171.8240758147453
 30
0.0
 11
505.6979549279545
 21
179.324075822196
 31
0.0
 70
    32
 71
     5
 42
15.0000000149011
  3
SYS$0
100
AcDbAlignedDimension
 13
514.7979549279547
 23
186.8240758296464
 33
0.0
 14
514.7979549279547
 24
171.8240758147453
 34
0.0
 50
90.00000000000003
100
AcDbRotatedDimension
1001
ACAD
1000
DSTYLE
1002
{
1070
    42
1040
2.0
1002
}
  0
LINE
  5
F083
330
1F
100
AcDbEntity
  8
AM_2
100
AcDbLine
 10
431.5
 20
224.5
 30
0.0
 11
541.5
 21
224.5
 31
0.0
  0
MTEXT
  5
F084
330
1F
100
AcDbEntity
  8
AM_6
 48
10.0
100
AcDbMText
 10
441.5
 20
220.5
 30
0.0
 40
3.2
 41
20.00000000000003
 71
     5
 72
     5
  1
備　考
 73
     1
 44
1.0
1001
ACAD
1000
MTEXTBEGIN
1070
    73
1070
     1
1070
    44
1040
1.0
1070
    74
1070
     0
1000
MTEXTEND
  0
MTEXT
  5
F085
330
1F
100
AcDbEntity
  8
AM_6
 48
10.0
100
AcDbMText
 10
451.4999999999999
 20
220.1111218592941
 30
0.0
 40
3.2
 41
90.0
 71
     4
 72
     5
  1
　耐荷重：10kg
 73
     1
 44
1.0
1001
ACAD
1000
MTEXTBEGIN
1070
    73
1070
     1
1070
    44
1040
1.0
1070
    74
1070
     0
1000
MTEXTEND
1000
ACAD_MTEXT_DEFINED_HEIGHT_BEGIN
1070
    46
1040
5.044422948078464
1000
ACAD_MTEXT_DEFINED_HEIGHT_END
  0
ENDSEC
  0
SECTION
  2
OBJECTS
  0
DICTIONARY
  5
C
330
0
100
AcDbDictionary
281
     1
  3
ACAD_2007HEADERVARS_RT
350
F106
  3
ACAD_BGPLOT_KEY
350
AB06
  3
ACAD_COLOR
350
A91D
  3
ACAD_GROUP
350
D
  3
ACAD_LAYOUT
350
1A
  3
ACAD_MATERIAL
350
A91C
  3
ACAD_MLINESTYLE
350
17
  3
ACAD_PLOTSETTINGS
350
19
  3
ACAD_PLOTSTYLENAME
350
E
  3
ACAD_TABLESTYLE
350
AAB9
  3
ACAD_VISUALSTYLE
350
B444
  3
AcAsAppObject
350
3DA1
  3
ACASGREF_MASTER
350
3DE9
  3
AcDbVariableDictionary
350
34
  3
AcmDictionary
350
47
  3
AD_GREF_MODULE
350
3DEA
  3
AD_MAPI_MODULE
350
3E06
  3
AMG
350
2B
  3
AMGSNAPSETTINGS
350
7D
  3
ASE_INDEX_DICTIONARY
350
9F48
  3
DWGPROPS
350
F105
  3
MAPISURF_MODULE
350
3DEB
  0
DICTIONARY
  5
3F95
330
2
100
AcDbDictionary
280
     1
281
     1
  3
ACAD_LAYERFILTERS
360
AE5F
  3
ACAD_LAYERSTATES
360
3F96
  3
ACLYDICTIONARY
360
AE5E
  3
AMLAYER_GROUPCOLORS
360
AAB4
  0
DICTIONARY
  5
8A
330
1F
100
AcDbDictionary
280
     1
281
     1
  3
ACAD_SORTENTS
360
B431
  0
DICTIONARY
  5
F106
102
{ACAD_REACTORS
330
C
102
}
330
C
100
AcDbDictionary
281
     1
  3
DIMARCSYM
350
F107
  0
DICTIONARY
  5
AB06
102
{ACAD_REACTORS
330
C
102
}
330
C
100
AcDbDictionary
280
     1
281
     1
  0
DICTIONARY
  5
A91D
102
{ACAD_REACTORS
330
C
102
}
330
C
100
AcDbDictionary
281
     1
  0
DICTIONARY
  5
D
102
{ACAD_REACTORS
330
C
102
}
330
C
100
AcDbDictionary
281
     1
  0
DICTIONARY
  5
1A
102
{ACAD_REACTORS
330
C
102
}
330
C
100
AcDbDictionary
281
     1
  3
Model
350
22
  3
ﾚｲｱｳﾄ1
350
1E
  3
ﾚｲｱｳﾄ2
350
26
  0
DICTIONARY
  5
A91C
102
{ACAD_REACTORS
330
C
102
}
330
C
100
AcDbDictionary
281
     1
  3
ByBlock
350
B442
  3
ByLayer
350
B441
  3
Global
350
B443
  0
DICTIONARY
  5
17
102
{ACAD_REACTORS
330
C
102
}
330
C
100
AcDbDictionary
281
     1
  3
Standard
350
18
  0
DICTIONARY
  5
19
102
{ACAD_REACTORS
330
C
102
}
330
C
100
AcDbDictionary
281
     1
  3
01 A3フィット
350
AAFE
  3
02 A3
350
AAFF
  3
03 A2フィット
350
AB00
  3
04 A2
350
AB01
  3
05 A1フィット
350
AB04
  3
06 A1
350
AB05
  3
06 A4フィット
350
AB02
  3
07 A4
350
AB03
  0
ACDBDICTIONARYWDFLT
  5
E
102
{ACAD_REACTORS
330
C
102
}
330
C
100
AcDbDictionary
281
     1
  3
Normal
350
F
100
AcDbDictionaryWithDefault
340
F
  0
DICTIONARY
  5
AAB9
102
{ACAD_REACTORS
330
C
102
}
330
C
100
AcDbDictionary
281
     1
  3
Standard
350
AABA
  0
DICTIONARY
  5
B444
102
{ACAD_REACTORS
330
C
102
}
330
C
100
AcDbDictionary
281
     1
  3
2dWireframe
350
B44A
  3
3D Hidden
350
B44C
  3
3dWireframe
350
B44B
  3
Basic
350
B449
  3
Brighten
350
B450
  3
ColorChange
350
B454
  3
Conceptual
350
B44D
  3
Dim
350
B44F
  3
Facepattern
350
B453
  3
Flat
350
B445
  3
FlatWithEdges
350
B446
  3
Gouraud
350
B447
  3
GouraudWithEdges
350
B448
  3
Linepattern
350
B452
  3
Realistic
350
B44E
  3
Thicken
350
B451
  0
ACAD_PROXY_OBJECT
  5
3DA1
102
{ACAD_REACTORS
330
C
102
}
330
C
100
AcDbProxyObject
 90
      499
 91
      576
 95
   917527
 70
     0
 93
       10
310
407F
 94
        0
1001
ACAD
1000
AcRTDxfName
1000
ASAPP
  0
ACAD_PROXY_OBJECT
  5
3DE9
102
{ACAD_REACTORS
330
C
102
}
330
C
100
AcDbProxyObject
 90
      499
 91
      581
 95
   917527
 70
     0
 93
       34
310
010000407F
 94
        0
1001
ACAD
1000
AcRTDxfName
1000
ACASGREFMASTER
  0
DICTIONARY
  5
34
102
{ACAD_REACTORS
330
C
102
}
330
C
100
AcDbDictionary
281
     1
  3
CTABLESTYLE
350
AAF3
  3
DIMASSOC
350
A10C
  3
FIELDEVAL
350
AB07
  3
INDEXCTL
350
35
  3
SORTENTS
350
194C
  0
DICTIONARY
  5
47
102
{ACAD_REACTORS
330
C
102
}
330
C
100
AcDbDictionary
281
     1
  3
AcmBOM
350
7E8
  3
AcmStdDictionary
350
4C
  3
AMDTSECTSYM_ARROWCOLOR
350
A929
  0
ACAD_PROXY_OBJECT
  5
3DEA
102
{ACAD_REACTORS
330
C
102
}
330
C
100
AcDbProxyObject
 90
      499
 91
      582
 95
   917527
 70
     0
 93
      114
310
00000043800000000000000000003F
 94
        0
1001
ACAD
1000
AcRTDxfName
1000
ACADGREFMODULE
  0
ACAD_PROXY_OBJECT
  5
3E06
102
{ACAD_REACTORS
330
C
102
}
330
C
100
AcDbProxyObject
 90
      499
 91
      594
 95
   917527
 70
     0
 93
       34
310
05000044FF
 94
        0
1001
ACAD
1000
AcRTDxfName
1000
MAPIADMODULE
  0
DICTIONARY
  5
2B
102
{ACAD_REACTORS
330
C
102
}
330
C
100
AcDbDictionary
281
     1
  0
DICTIONARY
  5
7D
102
{ACAD_REACTORS
330
C
102
}
330
C
100
AcDbDictionary
281
     1
  0
DICTIONARY
  5
9F48
102
{ACAD_REACTORS
330
C
102
}
330
C
100
AcDbDictionary
281
     1
  3
ASEBlockHierarchyIndexRecord
350
9F49
1001
DCO15
1040
1425739953.442
  0
XRECORD
  5
F105
102
{ACAD_REACTORS
330
C
102
}
330
C
100
AcDbXrecord
280
     1
  1
DWGPROPS COOKIE
  2

  3

  4

  6

  7

  8
Administrator
  9

300
AmdtFileType=84
301
=
302
=
303
=
304
=
305
=
306
=
307
=
308
=
309
=
 40
0.1596361111111111
 41
2454123.447246817
 42
2456722.728864109
  1

 90
        1
  0
ACAD_PROXY_OBJECT
  5
3DEB
102
{ACAD_REACTORS
330
C
102
}
330
C
100
AcDbProxyObject
 90
      499
 91
      583
 95
   917527
 70
     0
 93
        8
310
047E
 94
        0
1001
ACAD
1000
AcRTDxfName
1000
AMDTMAPISURFMOUDULE
  0
DICTIONARY
  5
AE5F
102
{ACAD_REACTORS
330
3F95
102
}
330
3F95
100
AcDbDictionary
281
     1
  0
DICTIONARY
  5
3F96
102
{ACAD_REACTORS
330
3F95
102
}
330
3F95
100
AcDbDictionary
281
     1
  3
20011210
350
3FB7
  0
DICTIONARY
  5
AE5E
102
{ACAD_REACTORS
330
3F95
102
}
330
3F95
100
AcDbDictionary
281
     1
1001
ACAD
1000
<All
  0
DICTIONARY
  5
AAB4
102
{ACAD_REACTORS
330
3F95
102
}
330
3F95
100
AcDbDictionary
280
     1
281
     1
  0
SORTENTSTABLE
  5
B431
102
{ACAD_REACTORS
330
8A
102
}
330
8A
100
AcDbSortentsTable
330
1F
331
B980
  5
BA9A
331
E220
  5
E3AB
331
B960
  5
B95E
331
E328
  5
E438
331
B961
  5
B95F
331
EE79
  5
EE7C
331
B981
  5
BA9E
331
EE7A
  5
EE7D
331
B962
  5
B960
331
ECBA
  5
EE4A
331
EE7B
  5
EE7E
331
E43B
  5
E4C5
331
B964
  5
B962
331
EE7C
  5
EF2D
331
E43C
  5
E4C6
331
B965
  5
B963
331
EE7D
  5
EF2E
331
E43D
  5
E4C7
331
B966
  5
B964
331
EE7E
  5
EF2F
331
E43E
  5
E4C8
331
C78F
  5
C85E
331
ECDF
  5
EE79
331
C94F
  5
C950
331
B968
  5
B966
331
C790
  5
C87A
331
C951
  5
C952
331
C952
  5
C953
331
C893
  5
C790
331
C953
  5
C954
331
DA0B
  5
DA0C
331
E2A3
  5
E3AC
331
BBEB
  5
BBF0
331
B42C
  5
B42C
331
B96C
  5
B96C
331
C954
  5
C955
331
EDBC
  5
EE7B
331
DA0C
  5
DA0D
331
BBEC
  5
BBF1
331
B42D
  5
B42D
331
B96D
  5
B96E
331
C955
  5
C956
331
B42E
  5
B42E
331
B96E
  5
B96F
331
C956
  5
C957
331
B42F
  5
B42F
331
B96F
  5
B970
331
DA0F
  5
DA12
331
B970
  5
B971
331
DA10
  5
DA13
331
B971
  5
B972
331
B972
  5
B973
331
BBF2
  5
BC3F
331
DA11
  5
DA16
331
E3B0
  5
E43F
331
E3AF
  5
E43E
331
C957
  5
C958
331
BBEF
  5
BBF4
331
DA0E
  5
DA10
331
BBEE
  5
BBF3
331
E3AD
  5
E43D
331
DA0D
  5
DA0E
331
BBED
  5
BBF2
331
E3AC
  5
E43C
331
BBF3
  5
BFAE
331
DA13
  5
DA17
331
C804
  5
C894
331
E3B5
  5
E4C3
331
B95E
  5
B87D
331
E326
  5
E3AD
331
B95F
  5
B896
331
C807
  5
C8AC
331
DA17
  5
DA1D
331
B978
  5
B97B
331
DA18
  5
DA1E
331
E4C7
  5
E4D1
331
B977
  5
B979
331
E4C6
  5
E4D0
331
DA16
  5
DA1C
331
DA15
  5
DA1B
331
E4C4
  5
E4CF
331
DA14
  5
DA1A
331
E3B3
  5
E4C2
331
E4C8
  5
E4D2
331
E4C9
  5
E4D3
331
B979
  5
B97D
331
B43A
  5
B43A
331
B97B
  5
B97F
331
E4CB
  5
ECBA
331
E4CC
  5
ECDF
331
B97C
  5
B980
331
E4CD
  5
ECF5
331
B97D
  5
B981
331
E4CE
  5
ECFF
331
E4CF
  5
ED00
331
B97F
  5
B985
331
B43C
  5
B43C
331
E21B
  5
E328
331
B43B
  5
B43B
331
E4CA
  5
E4D9
331
E21A
  5
E327
331
B439
  5
B439
331
ED00
  5
EE7A
331
EF33
  5
EF33
331
EF32
  5
EF31
331
E3AB
  5
E439
331
DA0A
  5
DA0A
331
BBEA
  5
BBEF
331
DA09
  5
DA09
331
B969
  5
B967
331
DA08
  5
DA08
331
C950
  5
C951
331
E43F
  5
E4C9
331
B967
  5
B965
331
C78E
  5
C85D
331
C78D
  5
C831
331
C78C
  5
C806
331
B963
  5
B961
331
E4D2
  5
EE47
331
E4D1
  5
EE33
331
E4D0
  5
EDBC
331
E438
  5
E4C4
  0
XRECORD
  5
F107
102
{ACAD_REACTORS
330
F106
102
}
330
F106
100
AcDbXrecord
280
     1
 70
     1
  0
LAYOUT
  5
22
102
{ACAD_XDICTIONARY
360
F10A
102
}
102
{ACAD_REACTORS
330
1A
102
}
330
1A
100
AcDbPlotSettings
  1

  2
Adobe PDF
  4
A4
  6
AM_VIEW1
 40
3.174999952316284
 41
3.174999952316284
 42
3.175003051757812
 43
3.17498779296875
 44
209.9733276367187
 45
297.0318298339844
 46
-3.188337683677673
 47
-3.159078955650329
 48
420.0
 49
87.0
140
717.0
141
297.0
142
1.0
143
1.0
 70
  3764
 72
     1
 73
     1
 74
     4
  7
monochrome.ctb
 75
    16
147
1.0
148
-420.0
149
-87.0
100
AcDbLayout
  1
Model
 70
     1
 71
     0
 10
0.0
 20
0.0
 11
12.0
 21
9.0
 12
0.0
 22
0.0
 32
0.0
 14
0.0
 24
0.0
 34
0.0
 15
0.0
 25
0.0
 35
0.0
146
0.0
 13
0.0
 23
0.0
 33
0.0
 16
1.0
 26
0.0
 36
0.0
 17
0.0
 27
1.0
 37
0.0
 76
     0
330
1F
331
B43F
1001
ACAD_PSEXT
1000
Adobe PDF
1000
Adobe PDF Converter
1000
My Documents\*.pdf
1000

1070
     0
  0
LAYOUT
  5
1E
102
{ACAD_XDICTIONARY
360
F108
102
}
102
{ACAD_REACTORS
330
1A
102
}
330
1A
100
AcDbPlotSettings
  1

  2
\\ML370\XEROX
  4
A4
  6

 40
3.174999952316284
 41
3.174999952316284
 42
3.175003051757812
 43
3.17498779296875
 44
209.8674926757813
 45
296.6719970703125
 46
0.0
 47
0.0
 48
0.0
 49
0.0
140
0.0
141
0.0
142
1.0
143
1.0
 70
   688
 72
     1
 73
     1
 74
     5
  7
monochrome.ctb
 75
    16
147
1.0
148
0.0
149
0.0
100
AcDbLayout
  1
ﾚｲｱｳﾄ1
 70
     1
 71
     1
 10
-3.17498779296875
 20
-3.174999952316284
 11
293.4970092773438
 21
206.692492723465
 12
0.0
 22
0.0
 32
0.0
 14
1.000000000000000E+20
 24
1.000000000000000E+20
 34
1.000000000000000E+20
 15
-1.000000000000000E+20
 25
-1.000000000000000E+20
 35
-1.000000000000000E+20
146
0.0
 13
0.0
 23
0.0
 33
0.0
 16
1.0
 26
0.0
 36
0.0
 17
0.0
 27
1.0
 37
0.0
 76
     0
330
1B
  0
LAYOUT
  5
26
102
{ACAD_XDICTIONARY
360
F10C
102
}
102
{ACAD_REACTORS
330
1A
102
}
330
1A
100
AcDbPlotSettings
  1

  2
\\ML370\XEROX
  4

  6

 40
0.0
 41
0.0
 42
0.0
 43
0.0
 44
0.0
 45
0.0
 46
0.0
 47
0.0
 48
0.0
 49
0.0
140
0.0
141
0.0
142
1.0
143
1.0
 70
   688
 72
     0
 73
     0
 74
     5
  7
monochrome.ctb
 75
    16
147
1.0
148
0.0
149
0.0
100
AcDbLayout
  1
ﾚｲｱｳﾄ2
 70
     1
 71
     2
 10
0.0
 20
0.0
 11
12.0
 21
9.0
 12
0.0
 22
0.0
 32
0.0
 14
0.0
 24
0.0
 34
0.0
 15
0.0
 25
0.0
 35
0.0
146
0.0
 13
0.0
 23
0.0
 33
0.0
 16
1.0
 26
0.0
 36
0.0
 17
0.0
 27
1.0
 37
0.0
 76
     0
330
23
  0
MATERIAL
  5
B442
102
{ACAD_XDICTIONARY
360
F122
102
}
102
{ACAD_REACTORS
330
A91C
102
}
330
A91C
100
AcDbMaterial
  1
ByBlock
  0
MATERIAL
  5
B441
102
{ACAD_XDICTIONARY
360
F120
102
}
102
{ACAD_REACTORS
330
A91C
102
}
330
A91C
100
AcDbMaterial
  1
ByLayer
  0
MATERIAL
  5
B443
102
{ACAD_XDICTIONARY
360
F124
102
}
102
{ACAD_REACTORS
330
A91C
102
}
330
A91C
100
AcDbMaterial
  1
Global
  0
MLINESTYLE
  5
18
102
{ACAD_REACTORS
330
17
102
}
330
17
100
AcDbMlineStyle
  2
STANDARD
 70
     0
  3

 62
   256
 51
90.0
 52
90.0
 71
     2
 49
0.5
 62
   256
  6
BYLAYER
 49
-0.5
 62
   256
  6
BYLAYER
  0
PLOTSETTINGS
  5
AAFE
102
{ACAD_XDICTIONARY
360
F110
102
}
102
{ACAD_REACTORS
330
19
102
}
330
19
100
AcDbPlotSettings
  1
01 A3フィット
  2
FX DocuWide 2050/2051
  4
A3
  6
AM_VIEW1
 40
3.174999952316284
 41
3.174999952316284
 42
3.17498779296875
 43
3.17498779296875
 44
296.989501953125
 45
419.9889831542968
 46
0.0
 47
1.295841228961961
 48
214.3704939521119
 49
367.5855324241176
140
275.6727856380065
141
407.629191407817
142
1.0
143
1.445089120606129
 70
  3764
 72
     1
 73
     1
 74
     2
  7
monochrome.ctb
 75
     0
147
0.6919988433519999
148
0.0
149
0.0
1001
ACAD_PSEXT
1000
FX DocuWide 2050/2051
1000
FX DocuWide 2050/2051
1000
IP_192.200.15.252
1000

1070
     0
  0
PLOTSETTINGS
  5
AAFF
102
{ACAD_XDICTIONARY
360
F112
102
}
102
{ACAD_REACTORS
330
19
102
}
330
19
100
AcDbPlotSettings
  1
02 A3
  2
FX DocuWide 2050/2051
  4
A3
  6
AM_VIEW1
 40
3.174999952316284
 41
3.174999952316284
 42
3.17498779296875
 43
3.17498779296875
 44
296.989501953125
 45
419.9889831542968
 46
-64.68024289608002
 47
-90.18050229549407
 48
214.3704939521119
 49
367.5855324241176
140
275.6727856380065
141
407.629191407817
142
1.0
143
1.0
 70
  3764
 72
     1
 73
     1
 74
     2
  7
monochrome.ctb
 75
    16
147
1.0
148
0.0
149
0.0
1001
ACAD_PSEXT
1000
FX DocuWide 2050/2051
1000
FX DocuWide 2050/2051
1000
IP_192.200.15.252
1000

1070
     0
  0
PLOTSETTINGS
  5
AB00
102
{ACAD_XDICTIONARY
360
F114
102
}
102
{ACAD_REACTORS
330
19
102
}
330
19
100
AcDbPlotSettings
  1
03 A2フィット
  2
FX DocuWide 2050/2051
  4
User66
  6
AM_VIEW1
 40
3.174999952316284
 41
3.174999952316284
 42
3.17498779296875
 43
3.17498779296875
 44
419.9889831542968
 45
593.97900390625
 46
0.0
 47
1.312647041252716
 48
214.3704939521119
 49
367.5855324241176
140
275.6727856380065
141
407.629191407817
142
1.0
143
1.015378155013403
 70
  3764
 72
     1
 73
     1
 74
     2
  7
monochrome.ctb
 75
     0
147
0.9848547509738377
148
0.0
149
0.0
1001
ACAD_PSEXT
1000
FX DocuWide 2050/2051
1000
FX DocuWide 2050/2051
1000
IP_192.200.15.252
1000

1070
     0
  0
PLOTSETTINGS
  5
AB01
102
{ACAD_XDICTIONARY
360
F116
102
}
102
{ACAD_REACTORS
330
19
102
}
330
19
100
AcDbPlotSettings
  1
04 A2
  2
FX DocuWide 2050/2051
  4
User66
  6
AM_VIEW1
 40
3.174999952316284
 41
3.174999952316284
 42
3.17498779296875
 43
3.17498779296875
 44
419.9889831542968
 45
593.97900390625
 46
-3.180502295494079
 47
-3.185491919517517
 48
214.3704939521119
 49
367.5855324241176
140
275.6727856380065
141
407.629191407817
142
1.0
143
1.0
 70
  3764
 72
     1
 73
     1
 74
     2
  7
monochrome.ctb
 75
    16
147
1.0
148
0.0
149
0.0
1001
ACAD_PSEXT
1000
FX DocuWide 2050/2051
1000
FX DocuWide 2050/2051
1000
IP_192.200.15.252
1000

1070
     0
  0
PLOTSETTINGS
  5
AB04
102
{ACAD_XDICTIONARY
360
F11C
102
}
102
{ACAD_REACTORS
330
19
102
}
330
19
100
AcDbPlotSettings
  1
05 A1フィット
  2
FX DocuWide 2050/2051
  4
User139
  6
AM_VIEW1
 40
3.174999952316284
 41
3.174999952316284
 42
3.17498779296875
 43
3.17498779296875
 44
593.97900390625
 45
840.9939575195313
 46
0.0
 47
1.784323459012171
 48
214.3704939521119
 49
367.5855324241176
140
275.6727856380065
141
407.629191407817
142
1.0
143
0.7147366594384652
 70
  3764
 72
     1
 73
     1
 74
     2
  7
monochrome.ctb
 75
     0
147
1.399116705145154
148
0.0
149
0.0
1001
ACAD_PSEXT
1000
FX DocuWide 2050/2051
1000
FX DocuWide 2050/2051
1000
IP_192.200.15.252
1000

1070
     0
  0
PLOTSETTINGS
  5
AB05
102
{ACAD_XDICTIONARY
360
F11E
102
}
102
{ACAD_REACTORS
330
19
102
}
330
19
100
AcDbPlotSettings
  1
06 A1
  2
FX DocuWide 2050/2051
  4
User139
  6
AM_VIEW1
 40
3.174999952316284
 41
3.174999952316284
 42
3.17498779296875
 43
3.17498779296875
 44
593.97900390625
 45
840.9939575195313
 46
83.81450808048247
 47
120.3219848871231
 48
214.3704939521119
 49
367.5855324241176
140
275.6727856380065
141
407.629191407817
142
1.0
143
1.0
 70
  3764
 72
     1
 73
     1
 74
     2
  7
monochrome.ctb
 75
    16
147
1.0
148
0.0
149
0.0
1001
ACAD_PSEXT
1000
FX DocuWide 2050/2051
1000
FX DocuWide 2050/2051
1000
IP_192.200.15.252
1000

1070
     0
  0
PLOTSETTINGS
  5
AB02
102
{ACAD_XDICTIONARY
360
F118
102
}
102
{ACAD_REACTORS
330
19
102
}
330
19
100
AcDbPlotSettings
  1
06 A4フィット
  2
FX DocuWide 2050/2051
  4
A4
  6
AM_VIEW1
 40
3.174999952316284
 41
3.174999952316284
 42
3.175003051757812
 43
3.17498779296875
 44
209.9944915771484
 45
296.989501953125
 46
0.0
 47
1.314011612960285
 48
214.3704939521119
 49
367.5855324241176
140
275.6727856380065
141
407.629191407817
142
1.0
143
2.06241771109504
 70
  3764
 72
     1
 73
     1
 74
     2
  7
monochrome.ctb
 75
     0
147
0.4848678299358913
148
0.0
149
0.0
1001
ACAD_PSEXT
1000
FX DocuWide 2050/2051
1000
FX DocuWide 2050/2051
1000
IP_192.200.15.252
1000

1070
     0
  0
PLOTSETTINGS
  5
AB03
102
{ACAD_XDICTIONARY
360
F11A
102
}
102
{ACAD_REACTORS
330
19
102
}
330
19
100
AcDbPlotSettings
  1
07 A4
  2
FX DocuWide 2050/2051
  4
A4
  6
AM_VIEW1
 40
3.174999952316284
 41
3.174999952316284
 42
3.175003051757812
 43
3.17498779296875
 44
209.9944915771484
 45
296.989501953125
 46
-108.1777557134628
 47
-151.68024289608
 48
214.3704939521119
 49
367.5855324241176
140
275.6727856380065
141
407.629191407817
142
1.0
143
1.0
 70
  3764
 72
     1
 73
     1
 74
     2
  7
monochrome.ctb
 75
    16
147
1.0
148
0.0
149
0.0
1001
ACAD_PSEXT
1000
FX DocuWide 2050/2051
1000
FX DocuWide 2050/2051
1000
IP_192.200.15.252
1000

1070
     0
  0
ACDBPLACEHOLDER
  5
F
102
{ACAD_REACTORS
330
E
102
}
330
E
  0
TABLESTYLE
  5
AABA
102
{ACAD_XDICTIONARY
360
F10E
102
}
102
{ACAD_REACTORS
330
AAB9
102
}
330
AAB9
100
AcDbTableStyle
  3
Standard
 70
     0
 71
     0
 40
1.5
 41
1.5
280
     0
281
     0
  7
STANDARD
140
4.5
170
     2
 62
     0
 63
     7
283
     0
274
    -2
284
     1
 64
     0
275
    -2
285
     1
 65
     0
276
    -2
286
     1
 66
     0
277
    -2
287
     1
 67
     0
278
    -2
288
     1
 68
     0
279
    -2
289
     1
 69
     0
  7
STANDARD
140
6.0
170
     5
 62
     0
 63
     7
283
     0
274
    -2
284
     1
 64
     0
275
    -2
285
     1
 65
     0
276
    -2
286
     1
 66
     0
277
    -2
287
     1
 67
     0
278
    -2
288
     1
 68
     0
279
    -2
289
     1
 69
     0
  7
STANDARD
140
4.5
170
     5
 62
     0
 63
     7
283
     0
274
    -2
284
     1
 64
     0
275
    -2
285
     1
 65
     0
276
    -2
286
     1
 66
     0
277
    -2
287
     1
 67
     0
278
    -2
288
     1
 68
     0
279
    -2
289
     1
 69
     0
  0
VISUALSTYLE
  5
B44A
102
{ACAD_REACTORS
330
B444
102
}
330
B444
100
AcDbVisualStyle
  2
2dWireframe
 70
     4
 71
     0
 72
     2
 73
     0
 90
        0
 40
-0.6
 41
-30.0
 62
     5
 63
     7
 74
     1
 91
        4
 64
     7
 65
   257
 75
     1
175
     1
 42
1.0
 92
        0
 66
   257
 43
1.0
 76
     1
 77
     6
 78
     2
 67
     7
 79
     5
170
     0
171
     0
290
     0
174
     0
 93
        1
 44
0.0
173
     0
291
     0
 45
0.0
1001
ACAD
1000
AcDbSavedByObjectVersion
1070
     0
  0
VISUALSTYLE
  5
B44C
102
{ACAD_REACTORS
330
B444
102
}
330
B444
100
AcDbVisualStyle
  2
3D Hidden
 70
     6
 71
     1
 72
     2
 73
     2
 90
        0
 40
-0.6
 41
-30.0
 62
     5
 63
     7
 74
     2
 91
        2
 64
     7
 65
   257
 75
     2
175
     1
 42
40.0
 92
        0
 66
   257
 43
1.0
 76
     1
 77
     6
 78
     2
 67
     7
 79
     3
170
     0
171
     0
290
     0
174
     0
 93
        1
 44
0.0
173
     0
291
     0
 45
0.0
1001
ACAD
1000
AcDbSavedByObjectVersion
1070
     0
  0
VISUALSTYLE
  5
B44B
102
{ACAD_REACTORS
330
B444
102
}
330
B444
100
AcDbVisualStyle
  2
3dWireframe
 70
     5
 71
     0
 72
     2
 73
     0
 90
        0
 40
-0.6
 41
-30.0
 62
     5
 63
     7
 74
     1
 91
        4
 64
     7
 65
   257
 75
     1
175
     1
 42
1.0
 92
        0
 66
   257
 43
1.0
 76
     1
 77
     6
 78
     2
 67
     7
 79
     5
170
     0
171
     0
290
     0
174
     0
 93
        1
 44
0.0
173
     0
291
     0
 45
0.0
1001
ACAD
1000
AcDbSavedByObjectVersion
1070
     0
  0
VISUALSTYLE
  5
B449
102
{ACAD_REACTORS
330
B444
102
}
330
B444
100
AcDbVisualStyle
  2
Basic
 70
     7
 71
     1
 72
     0
 73
     1
 90
        0
 40
-0.6
 41
-30.0
 62
     5
 63
     7
 74
     0
 91
        4
 64
     7
 65
   257
 75
     1
175
     1
 42
1.0
 92
        8
 66
     7
 43
1.0
 76
     1
 77
     6
 78
     2
 67
     7
 79
     5
170
     0
171
     0
290
     0
174
     0
 93
        1
 44
0.0
173
     0
291
     1
 45
0.0
1001
ACAD
1000
AcDbSavedByObjectVersion
1070
     0
  0
VISUALSTYLE
  5
B450
102
{ACAD_REACTORS
330
B444
102
}
330
B444
100
AcDbVisualStyle
  2
Brighten
 70
    12
 71
     2
 72
     2
 73
     0
 90
        0
 40
-0.6
 41
-30.0
 62
     5
 63
     7
 74
     1
 91
        4
 64
     7
 65
   257
 75
     1
175
     1
 42
1.0
 92
        8
 66
     7
 43
1.0
 76
     1
 77
     6
 78
     2
 67
     7
 79
     5
170
     0
171
     0
290
     0
174
     0
 93
        1
 44
50.0
173
     0
291
     1
 45
0.0
1001
ACAD
1000
AcDbSavedByObjectVersion
1070
     0
  0
VISUALSTYLE
  5
B454
102
{ACAD_REACTORS
330
B444
102
}
330
B444
100
AcDbVisualStyle
  2
ColorChange
 70
    16
 71
     2
 72
     2
 73
     3
 90
        0
 40
-0.6
 41
-30.0
 62
     5
 63
     8
 74
     1
 91
        4
 64
     7
 65
   257
 75
     1
175
     1
 42
1.0
 92
        8
 66
     8
 43
1.0
 76
     1
 77
     6
 78
     2
 67
     7
 79
     5
170
     0
171
     0
290
     0
174
     0
 93
        1
 44
0.0
173
     0
291
     1
 45
0.0
1001
ACAD
1000
AcDbSavedByObjectVersion
1070
     0
  0
VISUALSTYLE
  5
B44D
102
{ACAD_REACTORS
330
B444
102
}
330
B444
100
AcDbVisualStyle
  2
Conceptual
 70
     9
 71
     3
 72
     2
 73
     0
 90
        0
 40
-0.6
 41
-30.0
 62
     5
 63
     7
 74
     2
 91
        2
 64
     7
 65
   257
 75
     1
175
     1
 42
40.0
 92
        8
 66
     7
 43
1.0
 76
     1
 77
     6
 78
     2
 67
     7
 79
     3
170
     0
171
     0
290
     0
174
     0
 93
        1
 44
0.0
173
     0
291
     0
 45
0.0
1001
ACAD
1000
AcDbSavedByObjectVersion
1070
     0
  0
VISUALSTYLE
  5
B44F
102
{ACAD_REACTORS
330
B444
102
}
330
B444
100
AcDbVisualStyle
  2
Dim
 70
    11
 71
     2
 72
     2
 73
     0
 90
        0
 40
-0.6
 41
-30.0
 62
     5
 63
     7
 74
     1
 91
        4
 64
     7
 65
   257
 75
     1
175
     1
 42
1.0
 92
        8
 66
     7
 43
1.0
 76
     1
 77
     6
 78
     2
 67
     7
 79
     5
170
     0
171
     0
290
     0
174
     0
 93
        1
 44
-50.0
173
     0
291
     1
 45
0.0
1001
ACAD
1000
AcDbSavedByObjectVersion
1070
     0
  0
VISUALSTYLE
  5
B453
102
{ACAD_REACTORS
330
B444
102
}
330
B444
100
AcDbVisualStyle
  2
Facepattern
 70
    15
 71
     2
 72
     2
 73
     0
 90
        0
 40
-0.6
 41
-30.0
 62
     5
 63
     7
 74
     1
 91
        4
 64
     7
 65
   257
 75
     1
175
     1
 42
1.0
 92
        8
 66
     7
 43
1.0
 76
     1
 77
     6
 78
     2
 67
     7
 79
     5
170
     0
171
     0
290
     0
174
     0
 93
        1
 44
0.0
173
     0
291
     1
 45
0.0
1001
ACAD
1000
AcDbSavedByObjectVersion
1070
     0
  0
VISUALSTYLE
  5
B445
102
{ACAD_REACTORS
330
B444
102
}
330
B444
100
AcDbVisualStyle
  2
Flat
 70
     0
 71
     2
 72
     1
 73
     1
 90
        2
 40
-0.6
 41
30.0
 62
     5
 63
     7
 74
     0
 91
        4
 64
     7
 65
   257
 75
     1
175
     1
 42
1.0
 92
        8
 66
     7
 43
1.0
 76
     1
 77
     6
 78
     2
 67
     7
 79
     5
170
     0
171
     0
290
     0
174
     0
 93
       13
 44
0.0
173
     0
291
     1
 45
0.0
1001
ACAD
1000
AcDbSavedByObjectVersion
1070
     0
  0
VISUALSTYLE
  5
B446
102
{ACAD_REACTORS
330
B444
102
}
330
B444
100
AcDbVisualStyle
  2
FlatWithEdges
 70
     1
 71
     2
 72
     1
 73
     1
 90
        2
 40
-0.6
 41
30.0
 62
     5
 63
     7
 74
     1
 91
        4
 64
     7
 65
   257
 75
     1
175
     1
 42
1.0
 92
        0
 66
   257
 43
1.0
 76
     1
 77
     6
 78
     2
 67
     7
 79
     5
170
     0
171
     0
290
     0
174
     0
 93
       13
 44
0.0
173
     0
291
     1
 45
0.0
1001
ACAD
1000
AcDbSavedByObjectVersion
1070
     0
  0
VISUALSTYLE
  5
B447
102
{ACAD_REACTORS
330
B444
102
}
330
B444
100
AcDbVisualStyle
  2
Gouraud
 70
     2
 71
     2
 72
     2
 73
     1
 90
        2
 40
-0.6
 41
30.0
 62
     5
 63
     7
 74
     0
 91
        4
 64
     7
 65
   257
 75
     1
175
     1
 42
1.0
 92
        0
 66
     7
 43
1.0
 76
     1
 77
     6
 78
     2
 67
     7
 79
     5
170
     0
171
     0
290
     0
174
     0
 93
       13
 44
0.0
173
     0
291
     1
 45
0.0
1001
ACAD
1000
AcDbSavedByObjectVersion
1070
     0
  0
VISUALSTYLE
  5
B448
102
{ACAD_REACTORS
330
B444
102
}
330
B444
100
AcDbVisualStyle
  2
GouraudWithEdges
 70
     3
 71
     2
 72
     2
 73
     1
 90
        2
 40
-0.6
 41
30.0
 62
     5
 63
     7
 74
     1
 91
        4
 64
     7
 65
   257
 75
     1
175
     1
 42
1.0
 92
        0
 66
   257
 43
1.0
 76
     1
 77
     6
 78
     2
 67
     7
 79
     5
170
     0
171
     0
290
     0
174
     0
 93
       13
 44
0.0
173
     0
291
     1
 45
0.0
1001
ACAD
1000
AcDbSavedByObjectVersion
1070
     0
  0
VISUALSTYLE
  5
B452
102
{ACAD_REACTORS
330
B444
102
}
330
B444
100
AcDbVisualStyle
  2
Linepattern
 70
    14
 71
     2
 72
     2
 73
     0
 90
        0
 40
-0.6
 41
-30.0
 62
     5
 63
     7
 74
     1
 91
        4
 64
     7
 65
   257
 75
     7
175
     7
 42
1.0
 92
        8
 66
     7
 43
1.0
 76
     1
 77
     6
 78
     2
 67
     7
 79
     5
170
     0
171
     0
290
     0
174
     0
 93
        1
 44
0.0
173
     0
291
     1
 45
0.0
1001
ACAD
1000
AcDbSavedByObjectVersion
1070
     0
  0
VISUALSTYLE
  5
B44E
102
{ACAD_REACTORS
330
B444
102
}
330
B444
100
AcDbVisualStyle
  2
Realistic
 70
     8
 71
     2
 72
     2
 73
     0
 90
        0
 40
-0.6
 41
-30.0
 62
     5
 63
     7
 74
     1
 91
        0
 64
     7
 65
   257
 75
     1
175
     1
 42
1.0
 92
        8
 66
     8
 43
1.0
 76
     1
 77
     6
 78
     2
 67
     7
 79
     5
170
     0
171
     0
290
     0
174
     0
 93
       13
 44
0.0
173
     0
291
     0
 45
0.0
1001
ACAD
1000
AcDbSavedByObjectVersion
1070
     0
  0
VISUALSTYLE
  5
B451
102
{ACAD_REACTORS
330
B444
102
}
330
B444
100
AcDbVisualStyle
  2
Thicken
 70
    13
 71
     2
 72
     2
 73
     0
 90
        0
 40
-0.6
 41
-30.0
 62
     5
 63
     7
 74
     1
 91
        4
 64
     7
 65
   257
 75
     1
175
     1
 42
1.0
 92
       12
 66
     7
 43
1.0
 76
     1
 77
     6
 78
     2
 67
     7
 79
     5
170
     0
171
     0
290
     0
174
     0
 93
        1
 44
0.0
173
     0
291
     1
 45
0.0
1001
ACAD
1000
AcDbSavedByObjectVersion
1070
     0
  0
DICTIONARYVAR
  5
AAF3
102
{ACAD_REACTORS
330
34
102
}
330
34
100
DictionaryVariables
280
     0
  1
STANDARD
  0
DICTIONARYVAR
  5
A10C
102
{ACAD_REACTORS
330
34
102
}
330
34
100
DictionaryVariables
280
     0
  1
1
  0
DICTIONARYVAR
  5
AB07
102
{ACAD_REACTORS
330
34
102
}
330
34
100
DictionaryVariables
280
     0
  1
4
  0
DICTIONARYVAR
  5
35
102
{ACAD_REACTORS
330
34
102
}
330
34
100
DictionaryVariables
280
     0
  1
0
  0
DICTIONARYVAR
  5
194C
102
{ACAD_REACTORS
330
34
102
}
330
34
100
DictionaryVariables
280
     0
  1
96
  0
DICTIONARY
  5
7E8
102
{ACAD_REACTORS
330
47
102
}
330
47
100
AcDbDictionary
281
     1
  0
DICTIONARY
  5
4C
102
{ACAD_REACTORS
330
47
102
}
330
47
100
AcDbDictionary
281
     1
  0
XRECORD
  5
A929
102
{ACAD_REACTORS
330
47
102
}
330
47
100
AcDbXrecord
280
     1
 90
-1023410169
  0
XRECORD
  5
9F49
102
{ACAD_REACTORS
330
9F48
102
}
330
9F48
100
AcDbXrecord
280
     1
330
0
330
0
330
0
330
0
330
0
330
0
330
0
330
0
  0
XRECORD
  5
3FB7
102
{ACAD_REACTORS
330
3F96
102
}
330
3F96
100
AcDbXrecord
280
     1
 91
        3
330
0
 90
        8
 62
     7
370
    40
331
16
  1
Color_7
330
0
 90
        0
 62
    14
370
    -3
331
16
  1
Color_14
330
0
 90
        8
 62
     7
370
    20
331
16
  1
Color_7
330
6D1
 90
        0
 62
     7
370
    -3
331
16
  1
Color_7
330
0
 90
        8
 62
     7
370
    50
331
16
  1
Color_7
330
0
 90
        8
 62
     2
370
    35
331
16
  1
Color_2
330
0
 90
        8
 62
     7
370
    -3
331
16
  1
Color_7
330
10
 90
        8
 62
     7
370
    -3
331
16
  1
Color_7
  0
DICTIONARY
  5
F10A
330
22
100
AcDbDictionary
280
     1
281
     1
  3
ACAD_XREC_ROUNDTRIP
360
F10B
  0
DICTIONARY
  5
F108
330
1E
100
AcDbDictionary
280
     1
281
     1
  3
ACAD_XREC_ROUNDTRIP
360
F109
  0
DICTIONARY
  5
F10C
330
26
100
AcDbDictionary
280
     1
281
     1
  3
ACAD_XREC_ROUNDTRIP
360
F10D
  0
DICTIONARY
  5
F122
330
B442
100
AcDbDictionary
280
     1
281
     1
  3
ACAD_XREC_ROUNDTRIP
360
F123
  0
DICTIONARY
  5
F120
330
B441
100
AcDbDictionary
280
     1
281
     1
  3
ACAD_XREC_ROUNDTRIP
360
F121
  0
DICTIONARY
  5
F124
330
B443
100
AcDbDictionary
280
     1
281
     1
  3
ACAD_XREC_ROUNDTRIP
360
F125
  0
DICTIONARY
  5
F110
330
AAFE
100
AcDbDictionary
280
     1
281
     1
  3
ACAD_XREC_ROUNDTRIP
360
F111
  0
DICTIONARY
  5
F112
330
AAFF
100
AcDbDictionary
280
     1
281
     1
  3
ACAD_XREC_ROUNDTRIP
360
F113
  0
DICTIONARY
  5
F114
330
AB00
100
AcDbDictionary
280
     1
281
     1
  3
ACAD_XREC_ROUNDTRIP
360
F115
  0
DICTIONARY
  5
F116
330
AB01
100
AcDbDictionary
280
     1
281
     1
  3
ACAD_XREC_ROUNDTRIP
360
F117
  0
DICTIONARY
  5
F11C
330
AB04
100
AcDbDictionary
280
     1
281
     1
  3
ACAD_XREC_ROUNDTRIP
360
F11D
  0
DICTIONARY
  5
F11E
330
AB05
100
AcDbDictionary
280
     1
281
     1
  3
ACAD_XREC_ROUNDTRIP
360
F11F
  0
DICTIONARY
  5
F118
330
AB02
100
AcDbDictionary
280
     1
281
     1
  3
ACAD_XREC_ROUNDTRIP
360
F119
  0
DICTIONARY
  5
F11A
330
AB03
100
AcDbDictionary
280
     1
281
     1
  3
ACAD_XREC_ROUNDTRIP
360
F11B
  0
DICTIONARY
  5
F10E
330
AABA
100
AcDbDictionary
280
     1
281
     1
  3
ACAD_XREC_ROUNDTRIP
360
F10F
  0
XRECORD
  5
F10B
102
{ACAD_REACTORS
330
F10A
102
}
330
F10A
100
AcDbXrecord
280
     1
102
SHADEPLOT
 70
     0
102
SHADEPLOTRESLEVEL
 70
     2
102
SHADEPLOTCUSTOMDPI
 70
   200
  0
XRECORD
  5
F109
102
{ACAD_REACTORS
330
F108
102
}
330
F108
100
AcDbXrecord
280
     1
102
SHADEPLOT
 70
     0
102
SHADEPLOTRESLEVEL
 70
     2
102
SHADEPLOTCUSTOMDPI
 70
   300
  0
XRECORD
  5
F10D
102
{ACAD_REACTORS
330
F10C
102
}
330
F10C
100
AcDbXrecord
280
     1
102
SHADEPLOT
 70
     0
102
SHADEPLOTRESLEVEL
 70
     2
102
SHADEPLOTCUSTOMDPI
 70
   300
  0
XRECORD
  5
F123
102
{ACAD_REACTORS
330
F122
102
}
330
F122
100
AcDbXrecord
280
     1
102
MATERIAL
148
0.0
149
0.0
149
0.0
 93
        0
 94
       63
282
     0
 72
     1
 77
     1
171
     1
175
     1
179
     1
273
     0
  0
XRECORD
  5
F121
102
{ACAD_REACTORS
330
F120
102
}
330
F120
100
AcDbXrecord
280
     1
102
MATERIAL
148
0.0
149
0.0
149
0.0
 93
        0
 94
       63
282
     0
 72
     1
 77
     1
171
     1
175
     1
179
     1
273
     0
  0
XRECORD
  5
F125
102
{ACAD_REACTORS
330
F124
102
}
330
F124
100
AcDbXrecord
280
     1
102
MATERIAL
148
0.0
149
0.0
149
0.0
 93
        0
 94
       63
282
     0
 72
     1
 77
     1
171
     1
175
     1
179
     1
273
     0
  0
XRECORD
  5
F111
102
{ACAD_REACTORS
330
F110
102
}
330
F110
100
AcDbXrecord
280
     1
102
SHADEPLOT
 70
     0
102
SHADEPLOTRESLEVEL
 70
     2
102
SHADEPLOTCUSTOMDPI
 70
   200
  0
XRECORD
  5
F113
102
{ACAD_REACTORS
330
F112
102
}
330
F112
100
AcDbXrecord
280
     1
102
SHADEPLOT
 70
     0
102
SHADEPLOTRESLEVEL
 70
     2
102
SHADEPLOTCUSTOMDPI
 70
   200
  0
XRECORD
  5
F115
102
{ACAD_REACTORS
330
F114
102
}
330
F114
100
AcDbXrecord
280
     1
102
SHADEPLOT
 70
     0
102
SHADEPLOTRESLEVEL
 70
     2
102
SHADEPLOTCUSTOMDPI
 70
   200
  0
XRECORD
  5
F117
102
{ACAD_REACTORS
330
F116
102
}
330
F116
100
AcDbXrecord
280
     1
102
SHADEPLOT
 70
     0
102
SHADEPLOTRESLEVEL
 70
     2
102
SHADEPLOTCUSTOMDPI
 70
   200
  0
XRECORD
  5
F11D
102
{ACAD_REACTORS
330
F11C
102
}
330
F11C
100
AcDbXrecord
280
     1
102
SHADEPLOT
 70
     0
102
SHADEPLOTRESLEVEL
 70
     2
102
SHADEPLOTCUSTOMDPI
 70
   200
  0
XRECORD
  5
F11F
102
{ACAD_REACTORS
330
F11E
102
}
330
F11E
100
AcDbXrecord
280
     1
102
SHADEPLOT
 70
     0
102
SHADEPLOTRESLEVEL
 70
     2
102
SHADEPLOTCUSTOMDPI
 70
   200
  0
XRECORD
  5
F119
102
{ACAD_REACTORS
330
F118
102
}
330
F118
100
AcDbXrecord
280
     1
102
SHADEPLOT
 70
     0
102
SHADEPLOTRESLEVEL
 70
     2
102
SHADEPLOTCUSTOMDPI
 70
   200
  0
XRECORD
  5
F11B
102
{ACAD_REACTORS
330
F11A
102
}
330
F11A
100
AcDbXrecord
280
     1
102
SHADEPLOT
 70
     0
102
SHADEPLOTRESLEVEL
 70
     2
102
SHADEPLOTCUSTOMDPI
 70
   200
  0
XRECORD
  5
F10F
102
{ACAD_REACTORS
330
F10E
102
}
330
F10E
100
AcDbXrecord
280
     1
102
ACAD_ROUNDTRIP_PRE2007_TABLESTYLE
 90
        4
 91
        0
  1

 92
        4
 93
        0
  2

 94
        4
 95
        0
  3

  0
ENDSEC
  0
EOF
