  0
SECTION
  2
HEADER
  9
$ACADVER
  1
AC1018
  9
$ACADMAINTVER
 70
   104
  9
$DWGCODEPAGE
  3
ANSI_932
  9
$LASTSAVEDBY
  1
Administrator
  9
$CUSTOMPROPERTYTAG
  1
AmdtFileType
  9
$CUSTOMPROPERTY
  1
84
  9
$INSBASE
 10
0.0
 20
0.0
 30
0.0
  9
$EXTMIN
 10
1457.407531989384
 20
-385.0449597795077
 30
-0.0000000000000053
  9
$EXTMAX
 10
1877.43728968403
 20
-87.91984641225372
 30
0.0000000000000099
  9
$LIMMIN
 10
1639.152524298923
 20
1723.453332028125
  9
$LIMMAX
 10
2479.152524298923
 20
2317.453332028124
  9
$ORTHOMODE
 70
     0
  9
$REGENMODE
 70
     1
  9
$FILLMODE
 70
     1
  9
$QTEXTMODE
 70
     0
  9
$MIRRTEXT
 70
     0
  9
$LTSCALE
 40
1.0
  9
$ATTMODE
 70
     1
  9
$TEXTSIZE
 40
3.2
  9
$TRACEWID
 40
1.0
  9
$TEXTSTYLE
  7
STANDARD
  9
$CLAYER
  8
AM_CL
  9
$CELTYPE
  6
Continuous
  9
$CECOLOR
 62
   256
  9
$CELTSCALE
 40
0.3
  9
$DISPSILH
 70
     0
  9
$DIMSCALE
 40
1.0
  9
$DIMASZ
 40
2.5
  9
$DIMEXO
 40
1.0
  9
$DIMDLI
 40
10.0
  9
$DIMRND
 40
0.0
  9
$DIMDLE
 40
0.0
  9
$DIMEXE
 40
1.0
  9
$DIMTP
 40
0.2
  9
$DIMTM
 40
0.0
  9
$DIMTXT
 40
3.5
  9
$DIMCEN
 40
0.0
  9
$DIMTSZ
 40
0.0
  9
$DIMTOL
 70
     0
  9
$DIMLIM
 70
     0
  9
$DIMTIH
 70
     0
  9
$DIMTOH
 70
     0
  9
$DIMSE1
 70
     0
  9
$DIMSE2
 70
     0
  9
$DIMTAD
 70
     1
  9
$DIMZIN
 70
     8
  9
$DIMBLK
  1

  9
$DIMASO
 70
     1
  9
$DIMSHO
 70
     1
  9
$DIMPOST
  1

  9
$DIMAPOST
  1
"
  9
$DIMALT
 70
     0
  9
$DIMALTD
 70
     2
  9
$DIMALTF
 40
0.0393701
  9
$DIMLFAC
 40
1.0
  9
$DIMTOFL
 70
     1
  9
$DIMTVP
 40
0.0
  9
$DIMTIX
 70
     0
  9
$DIMSOXD
 70
     0
  9
$DIMSAH
 70
     0
  9
$DIMBLK1
  1

  9
$DIMBLK2
  1

  9
$DIMSTYLE
  2
SYS
  9
$DIMCLRD
 70
   256
  9
$DIMCLRE
 70
   256
  9
$DIMCLRT
 70
     7
  9
$DIMTFAC
 40
0.71
  9
$DIMGAP
 40
1.5
  9
$DIMJUST
 70
     0
  9
$DIMSD1
 70
     0
  9
$DIMSD2
 70
     0
  9
$DIMTOLJ
 70
     0
  9
$DIMTZIN
 70
     8
  9
$DIMALTZ
 70
     0
  9
$DIMALTTZ
 70
     0
  9
$DIMUPT
 70
     0
  9
$DIMDEC
 70
     1
  9
$DIMTDEC
 70
     1
  9
$DIMALTU
 70
     2
  9
$DIMALTTD
 70
     2
  9
$DIMTXSTY
  7
STANDARD
  9
$DIMAUNIT
 70
     0
  9
$DIMADEC
 70
     1
  9
$DIMALTRND
 40
0.0
  9
$DIMAZIN
 70
     2
  9
$DIMDSEP
 70
    46
  9
$DIMATFIT
 70
     3
  9
$DIMFRAC
 70
     0
  9
$DIMLDRBLK
  1

  9
$DIMLUNIT
 70
     2
  9
$DIMLWD
 70
    -1
  9
$DIMLWE
 70
    -1
  9
$DIMTMOVE
 70
     0
  9
$LUNITS
 70
     2
  9
$LUPREC
 70
     2
  9
$SKETCHINC
 40
1.0
  9
$FILLETRAD
 40
1.5
  9
$AUNITS
 70
     0
  9
$AUPREC
 70
     0
  9
$MENU
  1
.
  9
$ELEVATION
 40
0.0
  9
$PELEVATION
 40
0.0
  9
$THICKNESS
 40
0.0
  9
$LIMCHECK
 70
     0
  9
$CHAMFERA
 40
1.5
  9
$CHAMFERB
 40
1.5
  9
$CHAMFERC
 40
20.0
  9
$CHAMFERD
 40
0.0
  9
$SKPOLY
 70
     0
  9
$TDCREATE
 40
2453049.654239965
  9
$TDUCREATE
 40
2453049.279239965
  9
$TDUPDATE
 40
2455939.567557141
  9
$TDUUPDATE
 40
2455939.192557141
  9
$TDINDWG
 40
97.1986471875
  9
$TDUSRTIMER
 40
97.1986426736
  9
$USRTIMER
 70
     1
  9
$ANGBASE
 50
0.0
  9
$ANGDIR
 70
     0
  9
$PDMODE
 70
     0
  9
$PDSIZE
 40
-3.0
  9
$PLINEWID
 40
0.0
  9
$SPLFRAME
 70
     0
  9
$SPLINETYPE
 70
     6
  9
$SPLINESEGS
 70
     8
  9
$HANDSEED
  5
DDA09
  9
$SURFTAB1
 70
     6
  9
$SURFTAB2
 70
     6
  9
$SURFTYPE
 70
     6
  9
$SURFU
 70
     6
  9
$SURFV
 70
     6
  9
$UCSBASE
  2

  9
$UCSNAME
  2

  9
$UCSORG
 10
0.0
 20
0.0
 30
0.0
  9
$UCSXDIR
 10
1.0
 20
0.0
 30
0.0
  9
$UCSYDIR
 10
0.0
 20
1.0
 30
0.0
  9
$UCSORTHOREF
  2

  9
$UCSORTHOVIEW
 70
     0
  9
$UCSORGTOP
 10
0.0
 20
0.0
 30
0.0
  9
$UCSORGBOTTOM
 10
0.0
 20
0.0
 30
0.0
  9
$UCSORGLEFT
 10
0.0
 20
0.0
 30
0.0
  9
$UCSORGRIGHT
 10
0.0
 20
0.0
 30
0.0
  9
$UCSORGFRONT
 10
0.0
 20
0.0
 30
0.0
  9
$UCSORGBACK
 10
0.0
 20
0.0
 30
0.0
  9
$PUCSBASE
  2

  9
$PUCSNAME
  2

  9
$PUCSORG
 10
0.0
 20
0.0
 30
0.0
  9
$PUCSXDIR
 10
1.0
 20
0.0
 30
0.0
  9
$PUCSYDIR
 10
0.0
 20
1.0
 30
0.0
  9
$PUCSORTHOREF
  2

  9
$PUCSORTHOVIEW
 70
     0
  9
$PUCSORGTOP
 10
0.0
 20
0.0
 30
0.0
  9
$PUCSORGBOTTOM
 10
0.0
 20
0.0
 30
0.0
  9
$PUCSORGLEFT
 10
0.0
 20
0.0
 30
0.0
  9
$PUCSORGRIGHT
 10
0.0
 20
0.0
 30
0.0
  9
$PUCSORGFRONT
 10
0.0
 20
0.0
 30
0.0
  9
$PUCSORGBACK
 10
0.0
 20
0.0
 30
0.0
  9
$USERI1
 70
     0
  9
$USERI2
 70
     0
  9
$USERI3
 70
     0
  9
$USERI4
 70
     0
  9
$USERI5
 70
     0
  9
$USERR1
 40
0.0
  9
$USERR2
 40
0.0
  9
$USERR3
 40
0.0
  9
$USERR4
 40
0.0
  9
$USERR5
 40
0.0
  9
$WORLDVIEW
 70
     1
  9
$SHADEDGE
 70
     3
  9
$SHADEDIF
 70
    70
  9
$TILEMODE
 70
     1
  9
$MAXACTVP
 70
    64
  9
$PINSBASE
 10
0.0
 20
0.0
 30
0.0
  9
$PLIMCHECK
 70
     0
  9
$PEXTMIN
 10
1.000000000000000E+20
 20
1.000000000000000E+20
 30
1.000000000000000E+20
  9
$PEXTMAX
 10
-1.000000000000000E+20
 20
-1.000000000000000E+20
 30
-1.000000000000000E+20
  9
$PLIMMIN
 10
-3.17498779296875
 20
-3.174999952316284
  9
$PLIMMAX
 10
293.4970092773438
 20
206.692492723465
  9
$UNITMODE
 70
     0
  9
$VISRETAIN
 70
     1
  9
$PLINEGEN
 70
     0
  9
$PSLTSCALE
 70
     1
  9
$TREEDEPTH
 70
  3020
  9
$CMLSTYLE
  2
Standard
  9
$CMLJUST
 70
     0
  9
$CMLSCALE
 40
20.0
  9
$PROXYGRAPHICS
 70
     1
  9
$MEASUREMENT
 70
     1
  9
$CELWEIGHT
370
    -1
  9
$ENDCAPS
280
     0
  9
$JOINSTYLE
280
     0
  9
$LWDISPLAY
290
     1
  9
$INSUNITS
 70
     4
  9
$HYPERLINKBASE
  1

  9
$STYLESHEET
  1
monochrome.ctb
  9
$XEDIT
290
     1
  9
$CEPSNTYPE
380
     0
  9
$PSTYLEMODE
290
     1
  9
$FINGERPRINTGUID
  2
{83FB3AA1-FF18-4BFE-AFE0-611B71DE056D}
  9
$VERSIONGUID
  2
{8F39F29F-A21B-4747-A04E-83DCCF94324C}
  9
$EXTNAMES
290
     1
  9
$PSVPSCALE
 40
0.0
  9
$OLESTARTUP
290
     0
  9
$SORTENTS
280
   127
  9
$INDEXCTL
280
     0
  9
$HIDETEXT
280
     0
  9
$XCLIPFRAME
290
     0
  9
$HALOGAP
280
     0
  9
$OBSCOLOR
 70
   257
  9
$OBSLTYPE
280
     0
  9
$INTERSECTIONDISPLAY
280
     0
  9
$INTERSECTIONCOLOR
 70
   257
  9
$DIMASSOC
280
     1
  9
$PROJECTNAME
  1

  0
ENDSEC
  0
SECTION
  2
CLASSES
  0
CLASS
  1
ACDBDICTIONARYWDFLT
  2
AcDbDictionaryWithDefault
  3
ObjectDBX Classes
 90
        0
 91
        1
280
     0
281
     0
  0
CLASS
  1
ACDBPLACEHOLDER
  2
AcDbPlaceHolder
  3
ObjectDBX Classes
 90
        0
 91
        1
280
     0
281
     0
  0
CLASS
  1
LAYOUT
  2
AcDbLayout
  3
ObjectDBX Classes
 90
        0
 91
        3
280
     0
281
     0
  0
CLASS
  1
AMGSETTINGSOBJ
  2
AmgSettingsObj
  3
"AcadM|Product Description: AutoCAD Mechanical|Company: Autodesk, Inc."
 90
     1024
 91
        2
280
     0
281
     0
  0
CLASS
  1
ACME_DOCUMENT
  2
AcMeDbDoc
  3
AcMeServices
 90
     1024
 91
        2
280
     0
281
     0
  0
CLASS
  1
ACMESCOPE
  2
AcMeScope
  3
AcMeServices
 90
     1024
 91
        1
280
     0
281
     0
  0
CLASS
  1
ACMECOMMANDHISTORY
  2
AcMeCommandHistory
  3
AcMeServices
 90
     1024
 91
        1
280
     0
281
     0
  0
CLASS
  1
DICTIONARYVAR
  2
AcDbDictionaryVar
  3
ObjectDBX Classes
 90
        0
 91
        9
280
     0
281
     0
  0
CLASS
  1
ACIMSYSVARMAN
  2
AcImSysVarManager
  3
AcMeServices
 90
     1024
 91
        5
280
     0
281
     0
  0
CLASS
  1
ACIMREALSYSVAR
  2
AcImRealSysVar
  3
AcMeServices
 90
     1024
 91
        3
280
     0
281
     0
  0
CLASS
  1
ACIMINTSYSVAR
  2
AcImIntSysVar
  3
AcMeServices
 90
     1024
 91
       77
280
     0
281
     0
  0
CLASS
  1
ACMEDRAWINGMAN
  2
AcMeDrawingMan
  3
AcMeServices
 90
     1024
 91
        1
280
     0
281
     0
  0
CLASS
  1
ACMEVIEW
  2
AcMeView
  3
AcMeServices
 90
     1024
 91
        1
280
     0
281
     0
  0
CLASS
  1
ACDBENTITYCACHE
  2
AcMeEntityCache
  3
AcMeServices
 90
     1024
 91
        1
280
     0
281
     0
  0
CLASS
  1
GSMANAGER
  2
AcMeGSManager
  3
AcMeServices
 90
     1024
 91
        1
280
     0
281
     0
  0
CLASS
  1
AMDTINTERNALREACTOR
  2
AmdtInternalReactor
  3
AcMeServices
 90
     1024
 91
        2
280
     0
281
     0
  0
CLASS
  1
ACMESTATEMGR
  2
AcMeStateMgr
  3
AcMeServices
 90
     1024
 91
        1
280
     0
281
     0
  0
CLASS
  1
ACGREFMASTER
  2
AcGrefMaster
  3
AcAttribServices
 90
     1024
 91
        1
280
     0
281
     0
  0
CLASS
  1
ACME_DATABASE
  2
AcMeDbDatabase
  3
AcMeServices
 90
     1024
 91
        1
280
     0
281
     0
  0
CLASS
  1
ACRFINSADJUSTERMGR
  2
AcRfInsAdjusterMgr
  3
AcMeServices
 90
     1024
 91
        1
280
     0
281
     0
  0
CLASS
  1
ACGREFACADMASTER
  2
AcGrefacadMaster
  3
AcGrefServices
 90
     1024
 91
        1
280
     0
281
     0
  0
CLASS
  1
AMIMASTER
  2
AmiMaster
  3
AmiServices
 90
     1024
 91
        1
280
     0
281
     0
  0
CLASS
  1
ACMDATADICTIONARY
  2
AcmDataDictionary
  3
"AcmSymBB|Product Description: AutoCAD Mechanical|Company: Autodesk, Inc."
 90
     1024
 91
        1
280
     0
281
     0
  0
CLASS
  1
ACMDATAENTRYBLOCK
  2
AcmDataEntryBlock
  3
AcmSymBB|Product Description: AutoCAD Mechanical|Company: Autodesk, Inc.
 90
     1024
 91
        0
280
     0
281
     0
  0
CLASS
  1
ACIMSTRSYSVAR
  2
AcImStrSysVar
  3
AcMeServices
 90
     1024
 91
        5
280
     0
281
     0
  0
CLASS
  1
ACMSTANDARDISO
  2
AcmStandardISO
  3
"Amdt_StdImp|Product Description: AutoCAD Mechanical|Company: Autodesk, Inc."
 90
     1024
 91
        1
280
     0
281
     0
  0
CLASS
  1
AMGOBJPROPCFG
  2
AmgObjPropCfg
  3
"AmgLay|Product Description: AutoCAD Mechanical|Company: Autodesk, Inc."
 90
     1025
 91
        1
280
     0
281
     0
  0
CLASS
  1
AMDTEDGESTANDARDISO
  2
AmdtEdgeStdISO
  3
"Amdt_StdImp|Product Description: AutoCAD Mechanical|Company: Autodesk, Inc."
 90
     1024
 91
        0
280
     0
281
     0
  0
CLASS
  1
ACMSURFSTANDARDISO
  2
AcmSurfTextStdISO
  3
"Amdt_StdImp|Product Description: AutoCAD Mechanical|Company: Autodesk, Inc."
 90
     1024
 91
        0
280
     0
281
     0
  0
CLASS
  1
ACMFCFSTANDARDISO
  2
AcmFCFStdISO
  3
"Amdt_StdImp|Product Description: AutoCAD Mechanical|Company: Autodesk, Inc."
 90
     1024
 91
        1
280
     0
281
     0
  0
CLASS
  1
ACMWELDSTANDARDISO
  2
AcmWeldingStdISO
  3
"Amdt_StdImp|Product Description: AutoCAD Mechanical|Company: Autodesk, Inc."
 90
     1024
 91
        1
280
     0
281
     0
  0
CLASS
  1
ACMIDSTANDARDISO
  2
AcmIdStdISO
  3
"Amdt_StdImp|Product Description: AutoCAD Mechanical|Company: Autodesk, Inc."
 90
     1024
 91
        1
280
     0
281
     0
  0
CLASS
  1
ACMDATUMSTANDARDISO
  2
AcmDatumStdISO
  3
"Amdt_StdImp|Product Description: AutoCAD Mechanical|Company: Autodesk, Inc."
 90
     1024
 91
        1
280
     0
281
     0
  0
CLASS
  1
ACMBOMSTANDARDISO
  2
AcmBOMStdISO
  3
"Amdt_StdImp|Product Description: AutoCAD Mechanical|Company: Autodesk, Inc."
 90
     1024
 91
        1
280
     0
281
     0
  0
CLASS
  1
ACMDETAILSTANDARDISO
  2
AmdtDetailSymStdISO
  3
"Amdt_StdImp|Product Description: AutoCAD Mechanical|Company: Autodesk, Inc."
 90
     1024
 91
        1
280
     0
281
     0
  0
CLASS
  1
ACMSECTIONSTANDARDISO
  2
AmdtSectionSymStdISO
  3
"Amdt_StdImp|Product Description: AutoCAD Mechanical|Company: Autodesk, Inc."
 90
     1024
 91
        0
280
     0
281
     0
  0
CLASS
  1
ACMCENTERLINESTANDARDISO
  2
AmdtCenterLineStdISO
  3
"Amdt_StdImp|Product Description: AutoCAD Mechanical|Company: Autodesk, Inc."
 90
     1024
 91
        1
280
     0
281
     0
  0
CLASS
  1
ACAMGLAYSTD
  2
AcAmgLayStd
  3
"AmgLay|Product Description: AutoCAD Mechanical|Company: Autodesk, Inc."
 90
     1024
 91
        1
280
     0
281
     0
  0
CLASS
  1
ACAMGDIMSTD
  2
AcAmgDimStd
  3
"AmgDim|Product Description: AutoCAD Mechanical|Company: Autodesk, Inc."
 90
     1024
 91
        1
280
     0
281
     0
  0
CLASS
  1
ACAMGTITLESTD
  2
AcAmgTitleStd
  3
"AmgTitle|Product Description: AutoCAD Mechanical|Company: Autodesk, Inc."
 90
     4095
 91
        1
280
     0
281
     0
  0
CLASS
  1
ACAMGFILTERDAT
  2
AcAmgFilterDat
  3
"AcadM|Product Description: AutoCAD Mechanical|Company: Autodesk, Inc."
 90
     1024
 91
        0
280
     0
281
     0
  0
CLASS
  1
LAYER_INDEX
  2
AcDbLayerIndex
  3
ObjectDBX Classes
 90
        0
 91
        0
280
     0
281
     0
  0
CLASS
  1
IDBUFFER
  2
AcDbIdBuffer
  3
ObjectDBX Classes
 90
        0
 91
        0
280
     0
281
     0
  0
CLASS
  1
PLOTSETTINGS
  2
AcDbPlotSettings
  3
ObjectDBX Classes
 90
        0
 91
        1
280
     0
281
     0
  0
CLASS
  1
AMDTFORMULAUPDATEDISPATCHER
  2
AmdtFormulaUpdateDispatcher
  3
AcMeServices
 90
     1024
 91
        0
280
     0
281
     0
  0
CLASS
  1
ACMSTANDARDANSI
  2
AcmStandardANSI
  3
"Amdt_StdImp|Product Description: AutoCAD Mechanical|Company: Autodesk, Inc."
 90
     1024
 91
        0
280
     0
281
     0
  0
CLASS
  1
ACMSURFSTANDARDANSI
  2
AcmSurfTextStdANSI
  3
"Amdt_StdImp|Product Description: AutoCAD Mechanical|Company: Autodesk, Inc."
 90
     1024
 91
        0
280
     0
281
     0
  0
CLASS
  1
ACMFCFSTANDARDANSI
  2
AcmFCFStdANSI
  3
"Amdt_StdImp|Product Description: AutoCAD Mechanical|Company: Autodesk, Inc."
 90
     1024
 91
        0
280
     0
281
     0
  0
CLASS
  1
ACMWELDSTANDARDANSI
  2
AcmWeldingStdANSI
  3
"Amdt_StdImp|Product Description: AutoCAD Mechanical|Company: Autodesk, Inc."
 90
     1024
 91
        0
280
     0
281
     0
  0
CLASS
  1
ACMIDSTANDARDANSI
  2
AcmIdStdANSI
  3
"Amdt_StdImp|Product Description: AutoCAD Mechanical|Company: Autodesk, Inc."
 90
     1024
 91
        0
280
     0
281
     0
  0
CLASS
  1
ACMDATUMSTANDARDANSI
  2
AcmDatumStdANSI
  3
"Amdt_StdImp|Product Description: AutoCAD Mechanical|Company: Autodesk, Inc."
 90
     1024
 91
        0
280
     0
281
     0
  0
CLASS
  1
ACMBOMSTANDARDANSI
  2
AcmBOMStdANSI
  3
"Amdt_StdImp|Product Description: AutoCAD Mechanical|Company: Autodesk, Inc."
 90
     1024
 91
        0
280
     0
281
     0
  0
CLASS
  1
ACMDETAILSTANDARDANSI
  2
AmdtDetailSymStdANSI
  3
"Amdt_StdImp|Product Description: AutoCAD Mechanical|Company: Autodesk, Inc."
 90
     1024
 91
        0
280
     0
281
     0
  0
CLASS
  1
ACMSECTIONSTANDARDANSI
  2
AmdtSectionSymStdANSI
  3
"Amdt_StdImp|Product Description: AutoCAD Mechanical|Company: Autodesk, Inc."
 90
     1024
 91
        0
280
     0
281
     0
  0
CLASS
  1
ACMCENTERLINESTANDARDANSI
  2
AmdtCenterLineStdANSI
  3
"Amdt_StdImp|Product Description: AutoCAD Mechanical|Company: Autodesk, Inc."
 90
     1024
 91
        0
280
     0
281
     0
  0
CLASS
  1
ACMBOM
  2
AcmBom
  3
"AcmSymBB|Product Description: AutoCAD Mechanical|Company: Autodesk, Inc."
 90
     1024
 91
        0
280
     0
281
     0
  0
CLASS
  1
ACMDATAENTRYPART
  2
AcmDataEntryPart
  3
AcmSymBB|Product Description: AutoCAD Mechanical|Company: Autodesk, Inc.
 90
     1024
 91
        0
280
     0
281
     0
  0
CLASS
  1
ACMPARTREF
  2
AcmPartRef
  3
"AcmSymBB|Product Description: AutoCAD Mechanical|Company: Autodesk, Inc."
 90
     4095
 91
        0
280
     0
281
     1
  0
CLASS
  1
ACDBCIRCARCRES
  2
AcDbCircArcRes
  3
AcGrefServices
 90
     1024
 91
        0
280
     0
281
     0
  0
CLASS
  1
ACMBOMROW
  2
AcmBomRow
  3
"AcmSymBB|Product Description: AutoCAD Mechanical|Company: Autodesk, Inc."
 90
     1024
 91
        0
280
     0
281
     0
  0
CLASS
  1
ACMBALLOON
  2
AcmBalloon
  3
"AcmSymBB|Product Description: AutoCAD Mechanical|Company: Autodesk, Inc."
 90
     4095
 91
        0
280
     0
281
     1
  0
CLASS
  1
AMDTNOTE
  2
AmdtNote
  3
"AcmSymBB|Product Description: AutoCAD Mechanical|Company: Autodesk, Inc."
 90
     4095
 91
        0
280
     0
281
     1
  0
CLASS
  1
STDPART2D
  2
AmgStdPart
  3
AmgStdPart|Product Description: AutoCAD Mechanical|Company: Autodesk, Inc.
 90
     4095
 91
        0
280
     0
281
     1
  0
CLASS
  1
ACDBSTDPARTRES_LINE
  2
AcDbStdPartRes_Line
  3
AmgStdPart|Product Description: AutoCAD Mechanical|Company: Autodesk, Inc.
 90
     1024
 91
        0
280
     0
281
     0
  0
CLASS
  1
ACMDATAENTRY
  2
AcmDataEntry
  3
AcmSymBB|Product Description: AutoCAD Mechanical|Company: Autodesk, Inc.
 90
     1024
 91
        0
280
     0
281
     0
  0
CLASS
  1
ACDBOPPOLYLINERES
  2
AcDbOpPolylineRes
  3
AcGrefServices
 90
     1024
 91
        0
280
     0
281
     0
  0
CLASS
  1
ACMPARTLIST
  2
AcmPartList
  3
"AcmSymBB|Product Description: AutoCAD Mechanical|Company: Autodesk, Inc."
 90
     4095
 91
        0
280
     0
281
     1
  0
CLASS
  1
ACDBLINERES
  2
AcDbLineRes
  3
AcGrefServices
 90
     1024
 91
        0
280
     0
281
     0
  0
CLASS
  1
ACRFINSADJ
  2
AcRfInsAdjuster
  3
AcMeServices
 90
     1024
 91
        0
280
     0
281
     0
  0
CLASS
  1
AM_DRAWING_MGR
  2
AcDmDwgMgr
  3
AcMechDwgViewMgmt
 90
     1024
 91
        1
280
     0
281
     0
  0
CLASS
  1
AM_DWG_DOCUMENT
  2
AcDmDwgDocument
  3
AcMechDwgViewMgmt
 90
     1024
 91
        1
280
     0
281
     0
  0
CLASS
  1
AM_DWG_SHEET
  2
AcDmSheet
  3
AcMechDwgViewMgmt
 90
     1024
 91
        2
280
     0
281
     0
  0
CLASS
  1
AM_VIEWDIMPARMAP
  2
AcDmViewDimParMap
  3
AcMechDwgViewMgmt
 90
     1024
 91
        2
280
     0
281
     0
  0
CLASS
  1
AM_DWGMGR_NAME
  2
AcDmDwgMgrName
  3
AcMechDwgViewMgmt
 90
     1024
 91
        1
280
     0
281
     0
  0
CLASS
  1
AMDTMENUSTATEMGR
  2
AmdtMenuStateMgr
  3
McadcomServices
 90
     1024
 91
        1
280
     0
281
     0
  0
CLASS
  1
AMDTMCOMMENUSTATE
  2
AmdtMcomMenuState
  3
McadcomServices
 90
     1024
 91
        1
280
     0
281
     0
  0
CLASS
  1
ASAPP
  2
AcAsAppObject
  3
AutoSurfServices
 90
        0
 91
        2
280
     0
281
     0
  0
CLASS
  1
IM_STATIC_MAN
  2
AcImStaticVarManager
  3
AcMeServices
 90
     1024
 91
        0
280
     0
281
     0
  0
CLASS
  1
ACIMDBLSTATICVAR
  2
AcImDblStaticVar
  3
AcMeServices
 90
     1024
 91
        0
280
     0
281
     0
  0
CLASS
  1
ACIMSTRSTATICVAR
  2
AcImStrStaticVar
  3
AcMeServices
 90
     1024
 91
        0
280
     0
281
     0
  0
CLASS
  1
ACIMINTSTATICVAR
  2
AcImIntStaticVar
  3
AcMeServices
 90
     1024
 91
        0
280
     0
281
     0
  0
CLASS
  1
ACASGREFMASTER
  2
AcAsGrefMaster
  3
AutoSurfResolverServices
 90
        0
 91
        2
280
     0
281
     0
  0
CLASS
  1
ACADGREFMODULE
  2
AcAdGrefModule
  3
AdGrefServices
 90
        0
 91
        2
280
     0
281
     0
  0
CLASS
  1
AMDTMAPISURFMOUDULE
  2
AmdtMApiSurfModule
  3
MApiSurfServices
 90
        0
 91
        2
280
     0
281
     0
  0
CLASS
  1
MAPIAMMOUDLE
  2
MApiAmModule
  3
MApiAmServices
 90
     1024
 91
        1
280
     0
281
     0
  0
CLASS
  1
AMDTADMENUSTATE
  2
AmdtAdMenuState
  3
DesignerServices
 90
     1024
 91
        1
280
     0
281
     0
  0
CLASS
  1
ADAPPL
  2
AcAdAppl
  3
DesignerServices
 90
     1024
 91
        1
280
     0
281
     0
  0
CLASS
  1
DEPMGR
  2
AcAdDepMgr
  3
DesignerServices
 90
     1024
 91
        1
280
     0
281
     0
  0
CLASS
  1
PARAMMGR
  2
AcAdParamMgr
  3
DesignerServices
 90
     1024
 91
        1
280
     0
281
     0
  0
CLASS
  1
PARAMSCOPE
  2
AcAdParamScope
  3
DesignerServices
 90
     1024
 91
        1
280
     0
281
     0
  0
CLASS
  1
NAMEDAPPL
  2
AcAdNamedAppl
  3
DesignerServices
 90
     1024
 91
        1
280
     0
281
     0
  0
CLASS
  1
ADHNTMPLT
  2
AdHoleNoteTemplateMgr
  3
DesignerServices
 90
     1024
 91
        0
280
     0
281
     0
  0
CLASS
  1
AM_HNTEMPLATE_MGR_NAME
  2
AdHoleNoteTemplateMgrName
  3
DesignerServices
 90
     1024
 91
        0
280
     0
281
     0
  0
CLASS
  1
AMDTDMMENUSTATE
  2
AmdtDmMenuState
  3
AcMechDwgViewMgmt
 90
     1024
 91
        1
280
     0
281
     0
  0
CLASS
  1
MAPIADMODULE
  2
MApiAdModule
  3
MApiAdServices
 90
        0
 91
        2
280
     0
281
     0
  0
CLASS
  1
AMDTAMMENUSTATE
  2
AmdtAmMenuState
  3
DesignerAssemblies
 90
     1024
 91
        1
280
     0
281
     0
  0
CLASS
  1
ACAMPROJECT
  2
AcAmProject
  3
DesignerAssemblies
 90
     1024
 91
        1
280
     0
281
     0
  0
CLASS
  1
ACAMGRCOMPDEF
  2
AcAmGrCompDef
  3
DesignerAssemblies
 90
     1024
 91
        1
280
     0
281
     0
  0
CLASS
  1
ACCMCONTEXT
  2
AcCmContext
  3
DesignerAssemblies
 90
     1024
 91
        1
280
     0
281
     0
  0
CLASS
  1
ACAMCOMPDEF
  2
AcAmCompDef
  3
DesignerAssemblies
 90
     1024
 91
        1
280
     0
281
     0
  0
CLASS
  1
ACAMCOMPDEFMGR
  2
AcAmCompDefMgr
  3
DesignerAssemblies
 90
     1024
 91
        1
280
     0
281
     0
  0
CLASS
  1
AMCONTEXTMGR
  2
AcAmContextMgr
  3
DesignerAssemblies
 90
     1024
 91
        1
280
     0
281
     0
  0
CLASS
  1
ACAMCONTEXTMODELER
  2
AcAmContextModeler
  3
DesignerAssemblies
 90
     1024
 91
        1
280
     0
281
     0
  0
CLASS
  1
CATALOGSTATE
  2
AcAmCatalogState
  3
DesignerAssemblies
 90
     1024
 91
        1
280
     0
281
     0
  0
CLASS
  1
ACAMGRCOMPDEFSET
  2
AcAmGrCompDefSet
  3
DesignerAssemblies
 90
     1024
 91
        1
280
     0
281
     0
  0
CLASS
  1
AMDTBROWSERDBTAB
  2
AmdtBrowserDbTab
  3
McadcomServices
 90
     1024
 91
        1
280
     0
281
     0
  0
CLASS
  1
CBROWSERAPPOBJECT
  2
CBrowserAppObject
  3
McadcomServices
 90
     1024
 91
        3
280
     0
281
     0
  0
CLASS
  1
DM_PLACEHOLDER
  2
AcDmSelsetPlaceholder
  3
AcMechDwgViewMgmt
 90
     1024
 91
        1
280
     0
281
     0
  0
CLASS
  1
ACMPICKOBJ
  2
AcmPickEnt
  3
"AcmSymBB|Product Description: AutoCAD Mechanical|Company: Autodesk, Inc."
 90
     1024
 91
        0
280
     0
281
     1
  0
CLASS
  1
ACMTHREADLINESTANDARDISO
  2
AmdtThreadLineStdISO
  3
"Amdt_StdImp|Product Description: AutoCAD Mechanical|Company: Autodesk, Inc."
 90
     1024
 91
        1
280
     0
281
     0
  0
CLASS
  1
ACMNOTESTANDARDISO
  2
AmdtNoteStdISO
  3
"Amdt_StdImp|Product Description: AutoCAD Mechanical|Company: Autodesk, Inc."
 90
     1024
 91
        1
280
     0
281
     0
  0
CLASS
  1
AMDTNOTETEMPLATEDB
  2
AmdtNoteTemplateDB
  3
AcmSymBB|Product Description: AutoCAD Mechanical|Company: Autodesk, Inc.
 90
     1024
 91
        6
280
     0
281
     0
  0
CLASS
  1
ACMTHREADLINESTANDARDANSI
  2
AmdtThreadLineStdANSI
  3
"Amdt_StdImp|Product Description: AutoCAD Mechanical|Company: Autodesk, Inc."
 90
     1024
 91
        0
280
     0
281
     0
  0
CLASS
  1
ACMNOTESTANDARDANSI
  2
AmdtNoteStdANSI
  3
"Amdt_StdImp|Product Description: AutoCAD Mechanical|Company: Autodesk, Inc."
 90
     1024
 91
        0
280
     0
281
     0
  0
CLASS
  1
AMDTDETAILSYM
  2
AmdtDetailSym
  3
"AcmSymBB|Product Description: AutoCAD Mechanical|Company: Autodesk, Inc."
 90
     4095
 91
        0
280
     0
281
     1
  0
CLASS
  1
AMDTDETAILSYMLABEL
  2
AmdtDetailSymLabel
  3
"AcmSymBB|Product Description: AutoCAD Mechanical|Company: Autodesk, Inc."
 90
     4095
 91
        0
280
     0
281
     1
  0
CLASS
  1
TABLESTYLE
  2
AcDbTableStyle
  3
ObjectDBX Classes
 90
     4095
 91
        1
280
     0
281
     0
  0
CLASS
  1
AMDTACMWBLOCKBOMENTITY
  2
AmdtAcmWblockBomEntity
  3
"AcmSymBB|Product Description: AutoCAD Mechanical|Company: Autodesk, Inc."
 90
     4095
 91
       18
280
     0
281
     1
  0
CLASS
  1
SORTENTSTABLE
  2
AcDbSortentsTable
  3
ObjectDBX Classes
 90
        0
 91
        1
280
     0
281
     0
  0
CLASS
  1
AC_AM_MVD_DEP_MGR
  2
AcAmMVDdepMgr
  3
DesignerAssemblies
 90
     1024
 91
        0
280
     0
281
     0
  0
CLASS
  1
AC_AM_MASTER_VIEW_DEF
  2
AcAmMasterViewDef
  3
DesignerAssemblies
 90
     1024
 91
        0
280
     0
281
     0
  0
CLASS
  1
AC_AM_DIRTY_NODES
  2
AcAmDirtyNodes
  3
DesignerAssemblies
 90
     1024
 91
        0
280
     0
281
     0
  0
CLASS
  1
AC_AM_MAPPER_CACHE
  2
AcAmMapperCache
  3
DesignerAssemblies
 90
     1024
 91
        0
280
     0
281
     0
  0
CLASS
  1
ACAMMVDBACKUPOBJECT
  2
AcAmMVDBackupObject
  3
DesignerAssemblies
 90
     1024
 91
        0
280
     0
281
     0
  0
CLASS
  1
ACAMSTDPCOMPDEF
  2
AcAmStdpCompDef
  3
DesignerAssemblies
 90
     1024
 91
        0
280
     0
281
     0
  0
CLASS
  1
ACRFATTGENMGR
  2
AcRfAttGeneralMgr
  3
AcAttribServices
 90
     1024
 91
        0
280
     0
281
     0
  0
CLASS
  1
ACRFOBJATTMGR
  2
AcRfObjAttGroupMgr
  3
AcAttribServices
 90
     1024
 91
        0
280
     0
281
     0
  0
CLASS
  1
ACRFMCADAPIATTHOLDER
  2
AcRfMCADAPIAttHolder
  3
AcAttribServices
 90
     1024
 91
        0
280
     0
281
     0
  0
CLASS
  1
AMDTSYSATTR
  2
AmdtSystemAttribute
  3
AcAttribServices
 90
     1024
 91
        0
280
     0
281
     0
  0
CLASS
  1
ACAMCOMP
  2
AcAmComp
  3
DesignerAssemblies
 90
     1024
 91
        0
280
     0
281
     0
  0
CLASS
  1
AC_AM_STDP_VIEW_DEF
  2
AcAmStdpViewDef
  3
DesignerAssemblies
 90
     1024
 91
        0
280
     0
281
     0
  0
CLASS
  1
AC_AM_COMP_VIEW_INST
  2
AcAmCompView
  3
DesignerAssemblies
 90
     1024
 91
        0
280
     0
281
     0
  0
CLASS
  1
AC_AM_PROPS_OVERRIDE
  2
AcAmPropertiesOverride
  3
DesignerAssemblies
 90
     1024
 91
        0
280
     0
281
     0
  0
CLASS
  1
AC_AM_OVERRIDE_FILTER
  2
AcAmOverrideFilter
  3
DesignerAssemblies
 90
     1024
 91
        0
280
     0
281
     0
  0
CLASS
  1
AC_AM_2D_XREF_MGR
  2
AcAmXrefMgr2d
  3
DesignerAssemblies
 90
     1024
 91
        0
280
     0
281
     0
  0
CLASS
  1
AC_AM_HIDE_SITUATION
  2
AcAmHideSituation
  3
DesignerAssemblies
 90
     1024
 91
        0
280
     0
281
     0
  0
CLASS
  1
AC_AM_TRANSFORM_GHOST
  2
AcDbTransformGhost
  3
DesignerAssemblies
 90
     1024
 91
        0
280
     0
281
     1
  0
CLASS
  1
OBJCLONER
  2
ObjCloner
  3
DesignerAssemblies
 90
     1024
 91
        0
280
     0
281
     1
  0
CLASS
  1
AC_AM_SPRING_ROD_HIDE_SITUATION
  2
AcAmSpringRodHideSituation
  3
DesignerAssemblies
 90
     1024
 91
        0
280
     0
281
     0
  0
CLASS
  1
ACAD_TABLE
  2
AcDbTable
  3
ObjectDBX Classes
 90
     1025
 91
        0
280
     0
281
     1
  0
CLASS
  1
ACAMWBLOCKTEMPENTS
  2
AcAmStructInOutTempObjsHolder
  3
DesignerAssemblies
 90
     1024
 91
        0
280
     0
281
     0
  0
CLASS
  1
ACDBNURBCURVERES
  2
AcDbNurbCurveRes
  3
AcGrefServices
 90
     1024
 91
        0
280
     0
281
     0
  0
CLASS
  1
MATERIAL
  2
AcDbMaterial
  3
ObjectDBX Classes
 90
     1153
 91
        3
280
     0
281
     0
  0
CLASS
  1
VISUALSTYLE
  2
AcDbVisualStyle
  3
ObjectDBX Classes
 90
     4095
 91
       16
280
     0
281
     0
  0
CLASS
  1
ACMTAPERSTANDARDISO
  2
AcmTaperStdISO
  3
"Amdt_StdImp|Product Description: AutoCAD Mechanical|Company: Autodesk, Inc."
 90
     1024
 91
        1
280
     0
281
     0
  0
CLASS
  1
ACMTAPERSTANDARDANSI
  2
AcmTaperStdANSI
  3
"Amdt_StdImp|Product Description: AutoCAD Mechanical|Company: Autodesk, Inc."
 90
     1024
 91
        0
280
     0
281
     0
  0
CLASS
  1
AC_AM_COMP_VIEW_DEF
  2
AcAmCompViewDef
  3
DesignerAssemblies
 90
     1024
 91
        0
280
     0
281
     0
  0
CLASS
  1
NEWSTDPARTPARLIST
  2
AmgNewParListFiler
  3
"AmgParList|Product Description: AutoCAD Mechanical|Company: Autodesk, Inc."
 90
     4095
 91
        0
280
     0
281
     0
  0
CLASS
  1
DIMASSOC
  2
AcDbDimAssoc
  3
"AcDbDimAssoc|Product Desc:     AcDim ARX App For Dimension|Company:          Autodesk, Inc.|WEB Address:      www.autodesk.com"
 90
        0
 91
        0
280
     0
281
     0
  0
CLASS
  1
CAMSSTRUCTBTNSTATE
  2
StructBtnState
  3
DesignerAssemblies
 90
     1024
 91
        1
280
     0
281
     0
  0
CLASS
  1
AMDTEDGESTANDARDISO13715
  2
AmdtEdgeStdISO13715
  3
"Amdt_StdImp|Product Description: AutoCAD Mechanical|Company: Autodesk, Inc."
 90
     1024
 91
        1
280
     0
281
     0
  0
CLASS
  1
ACAMGHOLECHARTSTDISO
  2
AcAmgHoleChartStdISO
  3
AmgDim|Product Description: AutoCAD Mechanical|Company: Autodesk, Inc.
 90
     1024
 91
        1
280
     0
281
     0
  0
CLASS
  1
SCALE
  2
AcDbScale
  3
ObjectDBX Classes
 90
     1153
 91
       33
280
     0
281
     0
  0
CLASS
  1
MLEADERSTYLE
  2
AcDbMLeaderStyle
  3
ACDB_MLEADERSTYLE_CLASS
 90
     4095
 91
        1
280
     0
281
     0
  0
CLASS
  1
ACMSURFSTANDARDISO2002
  2
AcmSurfTextStdISO2002
  3
"Amdt_StdImp|Product Description: AutoCAD Mechanical|Company: Autodesk, Inc."
 90
     1024
 91
        1
280
     0
281
     0
  0
CLASS
  1
ACMSECTIONSTANDARDISO2001
  2
AmdtSectionSymStdISO2001
  3
"Amdt_StdImp|Product Description: AutoCAD Mechanical|Company: Autodesk, Inc."
 90
     1024
 91
        1
280
     0
281
     0
  0
CLASS
  1
ACMANOOTATIONVIEWSTANDARDISO
  2
AmdtAnViewStdISO
  3
"Amdt_StdImp|Product Description: AutoCAD Mechanical|Company: Autodesk, Inc."
 90
     1024
 91
        1
280
     0
281
     0
  0
CLASS
  1
CELLSTYLEMAP
  2
AcDbCellStyleMap
  3
ObjectDBX Classes
 90
     1152
 91
        3
280
     0
281
     0
  0
ENDSEC
  0
SECTION
  2
TABLES
  0
TABLE
  2
VPORT
  5
8
102
{ACAD_XDICTIONARY
360
AEEE5
102
}
330
0
100
AcDbSymbolTable
 70
     1
  0
VPORT
  5
C4265
330
8
100
AcDbSymbolTableRecord
100
AcDbViewportTableRecord
  2
*Active
 70
     0
 10
0.0
 20
0.0
 11
1.0
 21
1.0
 12
1667.422410836707
 22
-236.4824030958807
 13
0.0
 23
0.0
 14
2.5
 24
2.5
 15
10.0
 25
10.0
 16
0.0
 26
0.0
 36
1.0
 17
0.0
 27
0.0
 37
0.0
 40
298.9957856444876
 41
1.631302521008403
 42
50.0
 43
-1370.695619172058
 44
-1370.695619172058
 50
0.0
 51
0.0
 71
    16
 72
   100
 73
     1
 74
     3
 75
     0
 76
     0
 77
     0
 78
     1
281
     0
 65
     0
110
0.0
120
0.0
130
0.0
111
1.0
121
0.0
131
0.0
112
0.0
122
1.0
132
0.0
 79
     0
146
0.0
  0
ENDTAB
  0
TABLE
  2
LTYPE
  5
5
330
0
100
AcDbSymbolTable
 70
    34
  0
LTYPE
  5
14
330
5
100
AcDbSymbolTableRecord
100
AcDbLinetypeTableRecord
  2
ByBlock
 70
     0
  3

 72
    65
 73
     0
 40
0.0
  0
LTYPE
  5
15
330
5
100
AcDbSymbolTableRecord
100
AcDbLinetypeTableRecord
  2
ByLayer
 70
     0
  3

 72
    65
 73
     0
 40
0.0
  0
LTYPE
  5
16
330
5
100
AcDbSymbolTableRecord
100
AcDbLinetypeTableRecord
  2
Continuous
 70
     0
  3
Solid line
 72
    65
 73
     0
 40
0.0
  0
LTYPE
  5
4F
330
5
100
AcDbSymbolTableRecord
100
AcDbLinetypeTableRecord
  2
AM_ISO02W050
 70
     0
  3
__ __ __ __ __ __ __ __ __ __ __ __ __ __ __
 72
    65
 73
     2
 40
7.5
 49
6.0
 74
     0
 49
-1.5
 74
     0
  0
LTYPE
  5
52
330
5
100
AcDbSymbolTableRecord
100
AcDbLinetypeTableRecord
  2
Amconstr
 70
     0
  3
_______________________
 72
    65
 73
     2
 40
9999.0
 49
9999.0
 74
     0
 49
0.0
 74
     0
  0
LTYPE
  5
64
330
5
100
AcDbSymbolTableRecord
100
AcDbLinetypeTableRecord
  2
ACISOWELD
 70
     0
  3
_ _ _ _ _
 72
    65
 73
     2
 40
2.0
 49
2.0
 74
     0
 49
-1.0
 74
     0
  0
LTYPE
  5
65
330
5
100
AcDbSymbolTableRecord
100
AcDbLinetypeTableRecord
  2
ACISOTGB
 70
     0
  3
__ . . __ . .
 72
    65
 73
     6
 40
9.0
 49
4.0
 74
     0
 49
-1.0
 74
     0
 49
1.0
 74
     0
 49
-1.0
 74
     0
 49
1.0
 74
     0
 49
-1.0
 74
     0
  0
LTYPE
  5
66
330
5
100
AcDbSymbolTableRecord
100
AcDbLinetypeTableRecord
  2
ACISOTGL
 70
     0
  3
_ _ _ _ _
 72
    65
 73
     2
 40
3.0
 49
2.0
 74
     0
 49
-1.0
 74
     0
  0
LTYPE
  5
69
330
5
100
AcDbSymbolTableRecord
100
AcDbLinetypeTableRecord
  2
CENTER
 70
     0
  3
__ . __
 72
    65
 73
     4
 40
7.0
 49
4.0
 74
     0
 49
-1.0
 74
     0
 49
1.0
 74
     0
 49
-1.0
 74
     0
  0
LTYPE
  5
A6E
330
5
100
AcDbSymbolTableRecord
100
AcDbLinetypeTableRecord
  2
PHANTOM2
 70
     0
  3
Phantom (.5x) ___ _ _ ___ _ _ ___ _ _ ___ _ _
 72
    65
 73
     6
 40
31.75
 49
15.875
 74
     0
 49
-3.174999999999999
 74
     0
 49
3.174999999999999
 74
     0
 49
-3.174999999999999
 74
     0
 49
3.174999999999999
 74
     0
 49
-3.174999999999999
 74
     0
  0
LTYPE
  5
FA3
330
5
100
AcDbSymbolTableRecord
100
AcDbLinetypeTableRecord
  2
ACANSTGB
 70
     0
  3
__ . . __ . .
 72
    65
 73
     6
 40
0.35433070866
 49
0.15748031496
 74
     0
 49
-0.03937007874
 74
     0
 49
0.03937007874
 74
     0
 49
-0.03937007874
 74
     0
 49
0.03937007874
 74
     0
 49
-0.03937007874
 74
     0
  0
LTYPE
  5
FA4
330
5
100
AcDbSymbolTableRecord
100
AcDbLinetypeTableRecord
  2
ACANSTGL
 70
     0
  3
_ _ _ _ _
 72
    65
 73
     2
 40
0.11811023622
 49
0.07874015748
 74
     0
 49
-0.03937007874
 74
     0
  0
LTYPE
  5
4DED
330
5
100
AcDbSymbolTableRecord
100
AcDbLinetypeTableRecord
  2
中線
 70
     0
  3
___________________
 72
    65
 73
     2
 40
2.0
 49
1.0
 74
     0
 49
1.0
 74
     0
  0
LTYPE
  5
4DF6
330
5
100
AcDbSymbolTableRecord
100
AcDbLinetypeTableRecord
  2
細線
 70
     0
  3
___________________
 72
    65
 73
     2
 40
2.0
 49
1.0
 74
     0
 49
1.0
 74
     0
  0
LTYPE
  5
4DF7
330
5
100
AcDbSymbolTableRecord
100
AcDbLinetypeTableRecord
  2
太線
 70
     0
  3
___________________
 72
    65
 73
     2
 40
2.0
 49
1.0
 74
     0
 49
1.0
 74
     0
  0
LTYPE
  5
4EA7
330
5
100
AcDbSymbolTableRecord
100
AcDbLinetypeTableRecord
  2
文字
 70
     0
  3
_________________
 72
    65
 73
     2
 40
2.0
 49
1.0
 74
     0
 49
1.0
 74
     0
  0
LTYPE
  5
4EA9
330
5
100
AcDbSymbolTableRecord
100
AcDbLinetypeTableRecord
  2
寸法線
 70
     0
  3
________________
 72
    65
 73
     2
 40
2.0
 49
1.0
 74
     0
 49
1.0
 74
     0
  0
LTYPE
  5
4F12
330
5
100
AcDbSymbolTableRecord
100
AcDbLinetypeTableRecord
  2
ハッチング
 70
     0
  3
_________________
 72
    65
 73
     2
 40
2.0
 49
1.0
 74
     0
 49
1.0
 74
     0
  0
LTYPE
  5
5180
330
5
100
AcDbSymbolTableRecord
100
AcDbLinetypeTableRecord
  2
陰線1
 70
     0
  3
__ __ __ __
 72
    65
 73
     2
 40
4.0
 49
2.2
 74
     0
 49
-1.8
 74
     0
  0
LTYPE
  5
5182
330
5
100
AcDbSymbolTableRecord
100
AcDbLinetypeTableRecord
  2
切断線
 70
     0
  3
/\/-/\/-/\/-/\/-/\/-/\/
 72
    65
 73
     2
 40
11.0001
 49
0.0001
 74
     4
 75
   135
340
56
 46
0.04
 50
0.0
 44
0.0
 45
0.0
 49
-11.0
 74
     0
  0
LTYPE
  5
5183
330
5
100
AcDbSymbolTableRecord
100
AcDbLinetypeTableRecord
  2
想像線1
 70
     0
  3
__ __ __ _____ __ __ ____
 72
    65
 73
     6
 40
14.5
 49
6.0
 74
     0
 49
-1.5
 74
     0
 49
2.0
 74
     0
 49
-1.5
 74
     0
 49
2.0
 74
     0
 49
-1.5
 74
     0
  0
LTYPE
  5
5185
330
5
100
AcDbSymbolTableRecord
100
AcDbLinetypeTableRecord
  2
中心線1
 70
     0
  3
___ _ ___ _ ___
 72
    65
 73
     4
 40
18.0
 49
12.0
 74
     0
 49
-2.0
 74
     0
 49
2.0
 74
     0
 49
-2.0
 74
     0
  0
LTYPE
  5
5188
330
5
100
AcDbSymbolTableRecord
100
AcDbLinetypeTableRecord
  2
補助線
 70
     0
  3
______________
 72
    65
 73
     2
 40
2.0
 49
1.0
 74
     0
 49
1.0
 74
     0
  0
LTYPE
  5
6427
330
5
100
AcDbSymbolTableRecord
100
AcDbLinetypeTableRecord
  2
HIDDEN
 70
     0
  3
Hidden __ __ __ __ __ __ __ __ __ __ __ __ __ _
 72
    65
 73
     2
 40
0.375
 49
0.25
 74
     0
 49
-0.125
 74
     0
  0
LTYPE
  5
1D541
330
5
100
AcDbSymbolTableRecord
100
AcDbLinetypeTableRecord
  2
PHANTOM
 70
     0
  3
_____ _ _ _____ _ _ _____ _ _ _____ _ _ ____  
 72
    65
 73
     6
 40
15.5
 49
8.0
 74
     0
 49
-1.5
 74
     0
 49
1.5
 74
     0
 49
-1.5
 74
     0
 49
1.5
 74
     0
 49
-1.5
 74
     0
  0
LTYPE
  5
1D542
330
5
100
AcDbSymbolTableRecord
100
AcDbLinetypeTableRecord
  2
CENTER2
 70
     0
  3
Center (.5x) ___ _ ___ _ ___ _ ___ _ ___ _ ___
 72
    65
 73
     4
 40
1.125
 49
0.75
 74
     0
 49
-0.125
 74
     0
 49
0.125
 74
     0
 49
-0.125
 74
     0
  0
LTYPE
  5
1D543
330
5
100
AcDbSymbolTableRecord
100
AcDbLinetypeTableRecord
  2
HIDDEN2
 70
     0
  3
Hidden (.5x) _ _ _ _ _ _ _ _ _ _ _ _ _ _ _ _ _
 72
    65
 73
     2
 40
0.1875
 49
0.125
 74
     0
 49
-0.0625
 74
     0
  0
LTYPE
  5
1D544
330
5
100
AcDbSymbolTableRecord
100
AcDbLinetypeTableRecord
  2
Amzigzag2
 70
     0
  3
/\/-/\/-/\/-/\/-/\/-/\/
 72
    65
 73
     2
 40
0.4401
 49
0.0001
 74
     4
 75
   136
340
1D545
 46
0.0016
 50
0.0
 44
0.0
 45
0.0
 49
-0.4400000000000001
 74
     0
  0
LTYPE
  5
6D407
330
5
100
AcDbSymbolTableRecord
100
AcDbLinetypeTableRecord
  2
AM_ISO08W050
 70
     0
  3
____ . ____ . ____ . ____ . ____ . ____ . ____
 72
    65
 73
     4
 40
18.0
 49
12.0
 74
     0
 49
-1.5
 74
     0
 49
3.0
 74
     0
 49
-1.5
 74
     0
  0
LTYPE
  5
6D408
330
5
100
AcDbSymbolTableRecord
100
AcDbLinetypeTableRecord
  2
AM_ISO09W050
 70
     0
  3
_____ . . _____ . . _____ . . ____ .. ____
 72
    65
 73
     6
 40
22.5
 49
12.0
 74
     0
 49
-1.5
 74
     0
 49
3.0
 74
     0
 49
-1.5
 74
     0
 49
3.0
 74
     0
 49
-1.5
 74
     0
  0
LTYPE
  5
6D409
330
5
100
AcDbSymbolTableRecord
100
AcDbLinetypeTableRecord
  2
AM_ISO08W050x2
 70
     0
  3
__ . __ . __ . __ . __ . __
 72
    65
 73
     4
 40
9.0
 49
6.0
 74
     0
 49
-0.75
 74
     0
 49
1.5
 74
     0
 49
-0.75
 74
     0
  0
LTYPE
  5
6D40A
330
5
100
AcDbSymbolTableRecord
100
AcDbLinetypeTableRecord
  2
AM_ISO02W050x2
 70
     0
  3
 _ _ _ _ _ _ _ _ _ _ _ _
 72
    65
 73
     2
 40
3.75
 49
3.0
 74
     0
 49
-0.75
 74
     0
  0
LTYPE
  5
6D40B
330
5
100
AcDbSymbolTableRecord
100
AcDbLinetypeTableRecord
  2
Amzigzag
 70
     0
  3
/\/-/\/-/\/-/\/-/\/-/\/
 72
    65
 73
     2
 40
11.0001
 49
0.0001
 74
     4
 75
   135
340
56
 46
0.04
 50
0.0
 44
0.0
 45
0.0
 49
-11.0
 74
     0
  0
LTYPE
  5
B3353
330
5
100
AcDbSymbolTableRecord
100
AcDbLinetypeTableRecord
  2
SYS陰線
 70
     0
  3
_ _ _ _ _
 72
    65
 73
     2
 40
1.0
 49
0.5
 74
     0
 49
-0.5
 74
     0
  0
LTYPE
  5
B3354
330
5
100
AcDbSymbolTableRecord
100
AcDbLinetypeTableRecord
  2
SYS一点鎖線
 70
     0
  3
__ _ __ _ __
 72
    65
 73
     4
 40
3.0
 49
1.5
 74
     0
 49
-0.5
 74
     0
 49
0.5
 74
     0
 49
-0.5
 74
     0
  0
LTYPE
  5
CBFD8
330
5
100
AcDbSymbolTableRecord
100
AcDbLinetypeTableRecord
  2
DASHED
 70
     0
  3
Dashed __ __ __ __ __ __ __ __ __ __ __ __ __ _
 72
    65
 73
     2
 40
0.2067
 49
0.1654
 74
     0
 49
-0.0413
 74
     0
  0
ENDTAB
  0
TABLE
  2
LAYER
  5
2
102
{ACAD_XDICTIONARY
360
3F95
102
}
330
0
100
AcDbSymbolTable
 70
    27
  0
LAYER
  5
10
102
{ACAD_XDICTIONARY
360
DD924
102
}
330
2
100
AcDbSymbolTableRecord
100
AcDbLayerTableRecord
  2
0
 70
     0
 62
     7
  6
Continuous
370
    -3
390
F
  0
LAYER
  5
6D1
330
2
100
AcDbSymbolTableRecord
100
AcDbLayerTableRecord
  2
Defpoints
 70
     0
 62
     7
  6
Continuous
290
     0
370
    -3
390
F
  0
LAYER
  5
A46
102
{ACAD_XDICTIONARY
360
DD926
102
}
330
2
100
AcDbSymbolTableRecord
100
AcDbLayerTableRecord
  2
size
 70
     0
 62
     5
  6
Continuous
290
     0
370
    25
390
F
  0
LAYER
  5
A47
102
{ACAD_XDICTIONARY
360
DD928
102
}
330
2
100
AcDbSymbolTableRecord
100
AcDbLayerTableRecord
  2
waku
 70
     0
 62
     7
  6
Continuous
370
    35
390
F
  0
LAYER
  5
A48
102
{ACAD_XDICTIONARY
360
DD92A
102
}
330
2
100
AcDbSymbolTableRecord
100
AcDbLayerTableRecord
  2
AM_6
 70
     0
 62
     2
  6
文字
370
    20
390
F
  0
LAYER
  5
5F85
102
{ACAD_XDICTIONARY
360
DD92C
102
}
330
2
100
AcDbSymbolTableRecord
100
AcDbLayerTableRecord
  2
AM_0
 70
     0
 62
     7
  6
中線
370
    30
390
F
  0
LAYER
  5
5F86
102
{ACAD_XDICTIONARY
360
DD92E
102
}
330
2
100
AcDbSymbolTableRecord
100
AcDbLayerTableRecord
  2
AM_1
 70
     0
 62
    30
  6
太線
370
    40
390
F
  0
LAYER
  5
5F87
102
{ACAD_XDICTIONARY
360
DD930
102
}
330
2
100
AcDbSymbolTableRecord
100
AcDbLayerTableRecord
  2
AM_2
 70
     0
 62
     1
  6
細線
370
    20
390
F
  0
LAYER
  5
5F88
102
{ACAD_XDICTIONARY
360
DD932
102
}
330
2
100
AcDbSymbolTableRecord
100
AcDbLayerTableRecord
  2
AM_3
 70
     0
 62
     6
  6
陰線1
370
    20
390
F
  0
LAYER
  5
5F8A
102
{ACAD_XDICTIONARY
360
DD934
102
}
330
2
100
AcDbSymbolTableRecord
100
AcDbLayerTableRecord
  2
AM_5
 70
     0
 62
     3
  6
寸法線
370
    20
390
F
  0
LAYER
  5
5F8B
102
{ACAD_XDICTIONARY
360
DD936
102
}
330
2
100
AcDbSymbolTableRecord
100
AcDbLayerTableRecord
  2
AM_7
 70
     0
 62
     4
  6
中心線1
370
    20
390
F
  0
LAYER
  5
5F8C
102
{ACAD_XDICTIONARY
360
DD938
102
}
330
2
100
AcDbSymbolTableRecord
100
AcDbLayerTableRecord
  2
AM_8
 70
     0
 62
     1
  6
ハッチング
370
    20
390
F
  0
LAYER
  5
112D7
102
{ACAD_XDICTIONARY
360
DD93A
102
}
330
2
100
AcDbSymbolTableRecord
100
AcDbLayerTableRecord
  2
AM_11
 70
     0
 62
     2
  6
想像線1
370
    20
390
F
  0
LAYER
  5
13616
102
{ACAD_XDICTIONARY
360
DD93C
102
}
330
2
100
AcDbSymbolTableRecord
100
AcDbLayerTableRecord
  2
AM_CL
 70
     0
 62
     1
  6
Amconstr
370
    20
390
F
1001
AcAecLayerStandard
1000

1000

  0
LAYER
  5
15B83
102
{ACAD_XDICTIONARY
360
DD93E
102
}
330
2
100
AcDbSymbolTableRecord
100
AcDbLayerTableRecord
  2
ケースＡ-AM_0
 70
     0
 62
    30
  6
中線
370
    30
390
F
1001
AcAecLayerStandard
1000

1000

  0
LAYER
  5
1684D
102
{ACAD_XDICTIONARY
360
DD940
102
}
330
2
100
AcDbSymbolTableRecord
100
AcDbLayerTableRecord
  2
カム-AM_0
 70
     0
 62
   160
  6
中線
370
    30
390
F
1001
AcAecLayerStandard
1000

1000

  0
LAYER
  5
16A5C
102
{ACAD_XDICTIONARY
360
DD942
102
}
330
2
100
AcDbSymbolTableRecord
100
AcDbLayerTableRecord
  2
ラッチボルト-AM_5
 70
     0
 62
     3
  6
寸法線
370
    20
390
F
1001
AcAecLayerStandard
1000

1000

  0
LAYER
  5
16A9B
102
{ACAD_XDICTIONARY
360
DD944
102
}
330
2
100
AcDbSymbolTableRecord
100
AcDbLayerTableRecord
  2
スライド樹脂-AM_0
 70
     0
 62
   125
  6
中線
370
    30
390
F
1001
AcAecLayerStandard
1000

1000

  0
LAYER
  5
16DEF
102
{ACAD_XDICTIONARY
360
DD946
102
}
330
2
100
AcDbSymbolTableRecord
100
AcDbLayerTableRecord
  2
フロントプレート-AM_0
 70
     0
 62
    50
  6
中線
370
    30
390
F
1001
AcAecLayerStandard
1000

1000

  0
LAYER
  5
17006
102
{ACAD_XDICTIONARY
360
DD948
102
}
330
2
100
AcDbSymbolTableRecord
100
AcDbLayerTableRecord
  2
AM_4
 70
     0
 62
     3
  6
補助線
370
    20
390
F
1001
AcAecLayerStandard
1000

1000

  0
LAYER
  5
17033
102
{ACAD_XDICTIONARY
360
DD94A
102
}
330
2
100
AcDbSymbolTableRecord
100
AcDbLayerTableRecord
  2
AM_0N
 70
     0
 62
     7
  6
中線
370
    30
390
F
1001
AcAecLayerStandard
1000

1000

  0
LAYER
  5
1706B
102
{ACAD_XDICTIONARY
360
DD94C
102
}
330
2
100
AcDbSymbolTableRecord
100
AcDbLayerTableRecord
  2
AM_7N
 70
     0
 62
     4
  6
中心線1
370
    30
390
F
1001
AcAecLayerStandard
1000

1000

  0
LAYER
  5
1706C
102
{ACAD_XDICTIONARY
360
DD94E
102
}
330
2
100
AcDbSymbolTableRecord
100
AcDbLayerTableRecord
  2
AM_9
 70
     0
 62
   253
  6
Continuous
370
     0
390
F
1001
AcAecLayerStandard
1000

1000

  0
LAYER
  5
17168
102
{ACAD_XDICTIONARY
360
DD950
102
}
330
2
100
AcDbSymbolTableRecord
100
AcDbLayerTableRecord
  2
フロントプレート-AM_5
 70
     0
 62
     3
  6
寸法線
370
    20
390
F
1001
AcAecLayerStandard
1000

1000

  0
LAYER
  5
C49A0
102
{ACAD_XDICTIONARY
360
C49A1
102
}
330
2
100
AcDbSymbolTableRecord
100
AcDbLayerTableRecord
  2
99その他
 70
     0
 62
     3
  6
Continuous
370
    35
390
F
1001
AcAecLayerStandard
1000

1000

  0
LAYER
  5
C8641
102
{ACAD_XDICTIONARY
360
DD952
102
}
330
2
100
AcDbSymbolTableRecord
100
AcDbLayerTableRecord
  2
フロントプレート-AM_8
 70
     0
 62
     1
  6
ハッチング
370
    20
390
F
1001
AcAecLayerStandard
1000

1000

  0
LAYER
  5
CA416
102
{ACAD_XDICTIONARY
360
DD954
102
}
330
2
100
AcDbSymbolTableRecord
100
AcDbLayerTableRecord
  2
PV0001_1
 70
     0
 62
     7
  6
Continuous
370
    -3
390
F
  0
ENDTAB
  0
TABLE
  2
STYLE
  5
3
330
0
100
AcDbSymbolTable
 70
    11
  0
STYLE
  5
11
330
3
100
AcDbSymbolTableRecord
100
AcDbTextStyleTableRecord
  2
STANDARD
 70
     0
 40
0.0
 41
0.7
 50
0.0
 71
     0
 42
3.2
  3
romans.shx
  4
extfont.shx
  0
STYLE
  5
56
330
3
100
AcDbSymbolTableRecord
100
AcDbTextStyleTableRecord
  2

 70
     1
 40
0.0
 41
1.0
 50
0.0
 71
     0
 42
2.5
  3
ltypeshp.shx
  4

  0
STYLE
  5
58
330
3
100
AcDbSymbolTableRecord
100
AcDbTextStyleTableRecord
  2
ACISOTS
 70
     0
 40
1.0
 41
1.0
 50
0.0
 71
     0
 42
2.5
  3
isocp.shx
  4
extfont.shx
  0
STYLE
  5
63
330
3
100
AcDbSymbolTableRecord
100
AcDbTextStyleTableRecord
  2
ACISOGDT
 70
     0
 40
0.0
 41
1.0
 50
0.0
 71
     0
 42
2.5
  3
amgdt.shx
  4

  0
STYLE
  5
FA7
330
3
100
AcDbSymbolTableRecord
100
AcDbTextStyleTableRecord
  2
ACANSTS
 70
     0
 40
1.0
 41
1.0
 50
0.0
 71
     0
 42
0.2
  3
romans.shx
  4
extfont.shx
  0
STYLE
  5
FA8
330
3
100
AcDbSymbolTableRecord
100
AcDbTextStyleTableRecord
  2
ACANSGDT
 70
     0
 40
0.0
 41
1.0
 50
0.0
 71
     0
 42
0.2
  3
amgdtans.shx
  4

  0
STYLE
  5
1D545
330
3
100
AcDbSymbolTableRecord
100
AcDbTextStyleTableRecord
  2

 70
     1
 40
0.0
 41
1.0
 50
0.0
 71
     0
 42
0.2
  3
genltshp.shx
  4

  0
STYLE
  5
B3355
330
3
100
AcDbSymbolTableRecord
100
AcDbTextStyleTableRecord
  2
DIM
 70
     0
 40
0.0
 41
1.0
 50
0.0
 71
     0
 42
2.5
  3
monotxt.shx
  4
extfont.shx
  0
STYLE
  5
B3356
330
3
100
AcDbSymbolTableRecord
100
AcDbTextStyleTableRecord
  2
CONVERT
 70
     0
 40
0.0
 41
1.0
 50
0.0
 71
     0
 42
2.5
  3
monotxt.shx
  4
extfont.shx
  0
STYLE
  5
D3542
330
3
100
AcDbSymbolTableRecord
100
AcDbTextStyleTableRecord
  2
横書き
 70
     0
 40
0.0
 41
1.0
 50
0.0
 71
     0
 42
6.0
  3
TXT.shx
  4
bigfont.shx
  0
ENDTAB
  0
TABLE
  2
VIEW
  5
6
330
0
100
AcDbSymbolTable
 70
     6
  0
VIEW
  5
AE1
330
6
100
AcDbSymbolTableRecord
100
AcDbViewTableRecord
  2
AM_VIEW1
 70
     0
 40
297.0
 10
1865.179636530953
 20
2168.953332028124
 41
452.0542244640605
 11
0.0
 21
0.0
 31
1.0
 12
0.0
 22
0.0
 32
0.0
 42
50.0
 43
-1370.695619172058
 44
-1370.695619172058
 50
0.0
 71
    16
281
     0
 72
     0
  0
VIEW
  5
AE2
330
6
100
AcDbSymbolTableRecord
100
AcDbViewTableRecord
  2
AM_VIEW2
 70
     0
 40
297.0
 10
2253.125412066893
 20
2168.953332028124
 41
452.0542244640603
 11
0.0
 21
0.0
 31
1.0
 12
0.0
 22
0.0
 32
0.0
 42
50.0
 43
-1370.695619172058
 44
-1370.695619172058
 50
0.0
 71
    16
281
     0
 72
     0
  0
VIEW
  5
AE3
330
6
100
AcDbSymbolTableRecord
100
AcDbViewTableRecord
  2
AM_VIEW3
 70
     0
 40
296.9999999999998
 10
1865.179636530953
 20
1871.953332028124
 41
452.0542244640605
 11
0.0
 21
0.0
 31
1.0
 12
0.0
 22
0.0
 32
0.0
 42
50.0
 43
-1370.695619172058
 44
-1370.695619172058
 50
0.0
 71
    16
281
     0
 72
     0
  0
VIEW
  5
AE4
330
6
100
AcDbSymbolTableRecord
100
AcDbViewTableRecord
  2
AM_VIEW4
 70
     0
 40
296.9999999999998
 10
2253.125412066893
 20
1871.953332028124
 41
452.0542244640603
 11
0.0
 21
0.0
 31
1.0
 12
0.0
 22
0.0
 32
0.0
 42
50.0
 43
-1370.695619172058
 44
-1370.695619172058
 50
0.0
 71
    16
281
     0
 72
     0
  0
VIEW
  5
AE5
330
6
100
AcDbSymbolTableRecord
100
AcDbViewTableRecord
  2
AM_VIEW5
 70
     0
 40
297.0
 10
2059.152524298923
 20
2020.453332028124
 41
452.0542244640603
 11
0.0
 21
0.0
 31
1.0
 12
0.0
 22
0.0
 32
0.0
 42
50.0
 43
-1370.695619172058
 44
-1370.695619172058
 50
0.0
 71
    16
281
     0
 72
     0
  0
VIEW
  5
AE6
330
6
100
AcDbSymbolTableRecord
100
AcDbViewTableRecord
  2
AM_VIEW6
 70
     0
 40
593.9940599999999
 10
2059.152524298923
 20
2020.453332028124
 41
904.0994078436314
 11
0.0
 21
0.0
 31
1.0
 12
0.0
 22
0.0
 32
0.0
 42
50.0
 43
-1370.695619172058
 44
-1370.695619172058
 50
0.0
 71
    16
281
     0
 72
     0
  0
ENDTAB
  0
TABLE
  2
UCS
  5
7
330
0
100
AcDbSymbolTable
 70
     0
  0
ENDTAB
  0
TABLE
  2
APPID
  5
9
330
0
100
AcDbSymbolTable
 70
   127
  0
APPID
  5
12
330
9
100
AcDbSymbolTableRecord
100
AcDbRegAppTableRecord
  2
ACAD
 70
     0
  0
APPID
  5
30
330
9
100
AcDbSymbolTableRecord
100
AcDbRegAppTableRecord
  2
MCAD_NO_VIS
 70
     0
  0
APPID
  5
31
330
9
100
AcDbSymbolTableRecord
100
AcDbRegAppTableRecord
  2
ACAD_TEMP_GRAPHIC
 70
     0
  0
APPID
  5
44
330
9
100
AcDbSymbolTableRecord
100
AcDbRegAppTableRecord
  2
ACATTRIBSERVICES
 70
     0
  0
APPID
  5
7A1
330
9
100
AcDbSymbolTableRecord
100
AcDbRegAppTableRecord
  2
GENIUS_GENDIMSH_14
 70
     0
  0
APPID
  5
A49
330
9
100
AcDbSymbolTableRecord
100
AcDbRegAppTableRecord
  2
GENIUS_GENREC_14
 70
     0
  0
APPID
  5
A4A
330
9
100
AcDbSymbolTableRecord
100
AcDbRegAppTableRecord
  2
GENIUS_GENOBJ-N-REC_13
 70
     0
  0
APPID
  5
A4B
330
9
100
AcDbSymbolTableRecord
100
AcDbRegAppTableRecord
  2
GENIUS_GENODEF_13
 70
     0
  0
APPID
  5
A4C
330
9
100
AcDbSymbolTableRecord
100
AcDbRegAppTableRecord
  2
DCO15
 70
     0
  0
APPID
  5
ADC
330
9
100
AcDbSymbolTableRecord
100
AcDbRegAppTableRecord
  2
GENIUS_GENOLIS_13
 70
     0
  0
APPID
  5
ADD
330
9
100
AcDbSymbolTableRecord
100
AcDbRegAppTableRecord
  2
GENIUS_GENOENT_13
 70
     0
  0
APPID
  5
ADE
330
9
100
AcDbSymbolTableRecord
100
AcDbRegAppTableRecord
  2
GENIUS_GENOBJ-N-TIT_13
 70
     0
  0
APPID
  5
ADF
330
9
100
AcDbSymbolTableRecord
100
AcDbRegAppTableRecord
  2
GENIUS_GENTITLE_13
 70
     0
  0
APPID
  5
AE0
330
9
100
AcDbSymbolTableRecord
100
AcDbRegAppTableRecord
  2
GENIUS_GENOREF_13
 70
     0
  0
APPID
  5
AE7
330
9
100
AcDbSymbolTableRecord
100
AcDbRegAppTableRecord
  2
GENIUS_GENSCREG_15
 70
     0
  0
APPID
  5
AE8
330
9
100
AcDbSymbolTableRecord
100
AcDbRegAppTableRecord
  2
GENIUS_GENOBJ-N-SDF_13
 70
     0
  0
APPID
  5
FAF
330
9
100
AcDbSymbolTableRecord
100
AcDbRegAppTableRecord
  2
GENIUS_GENBLLY_14
 70
     0
  0
APPID
  5
FB0
330
9
100
AcDbSymbolTableRecord
100
AcDbRegAppTableRecord
  2
GENIUS_GENTRA_14
 70
     0
  0
APPID
  5
1285
330
9
100
AcDbSymbolTableRecord
100
AcDbRegAppTableRecord
  2
GENIUS_GENDTOL_13
 70
     0
  0
APPID
  5
142D
330
9
100
AcDbSymbolTableRecord
100
AcDbRegAppTableRecord
  2
GENIUS_GENOBJ-N-CEN_13
 70
     0
  0
APPID
  5
1AB5
330
9
100
AcDbSymbolTableRecord
100
AcDbRegAppTableRecord
  2
GENIUS_GENOBJ-N-CRS_13
 70
     0
  0
APPID
  5
1B36
330
9
100
AcDbSymbolTableRecord
100
AcDbRegAppTableRecord
  2
GENIUS_GENOBJ-N-HTC_13
 70
     0
  0
APPID
  5
1B37
330
9
100
AcDbSymbolTableRecord
100
AcDbRegAppTableRecord
  2
GENIUS_GENHATCH_13
 70
     0
  0
APPID
  5
216D
330
9
100
AcDbSymbolTableRecord
100
AcDbRegAppTableRecord
  2
GENIUS_GENOBJ-N-FIL_13
 70
     0
  0
APPID
  5
2356
330
9
100
AcDbSymbolTableRecord
100
AcDbRegAppTableRecord
  2
GEVID990412420
 70
     0
  0
APPID
  5
2357
330
9
100
AcDbSymbolTableRecord
100
AcDbRegAppTableRecord
  2
GEVDC
 70
     0
  0
APPID
  5
2358
330
9
100
AcDbSymbolTableRecord
100
AcDbRegAppTableRecord
  2
GEVCON
 70
     0
  0
APPID
  5
235B
330
9
100
AcDbSymbolTableRecord
100
AcDbRegAppTableRecord
  2
GEVRADREF
 70
     0
  0
APPID
  5
2360
330
9
100
AcDbSymbolTableRecord
100
AcDbRegAppTableRecord
  2
GENIUS_GENBH_13
 70
     0
  0
APPID
  5
2362
330
9
100
AcDbSymbolTableRecord
100
AcDbRegAppTableRecord
  2
GENIUS_GENOBJ-NBEHI-BHF_13
 70
     0
  0
APPID
  5
2364
330
9
100
AcDbSymbolTableRecord
100
AcDbRegAppTableRecord
  2
GENIUS_GENOBJ-NBEHI-BHB_13
 70
     0
  0
APPID
  5
2379
330
9
100
AcDbSymbolTableRecord
100
AcDbRegAppTableRecord
  2
GENIUS_GENOBJ-F-SCPASSM_13
 70
     0
  0
APPID
  5
3D74
330
9
100
AcDbSymbolTableRecord
100
AcDbRegAppTableRecord
  2
GENIUS_GENDIM_13
 70
     0
  0
APPID
  5
3D76
330
9
100
AcDbSymbolTableRecord
100
AcDbRegAppTableRecord
  2
GENIUS_GE3DTOL_13
 70
     0
  0
APPID
  5
3D9C
330
9
100
AcDbSymbolTableRecord
100
AcDbRegAppTableRecord
  2
AD_DRAW
 70
     0
  0
APPID
  5
3DE8
330
9
100
AcDbSymbolTableRecord
100
AcDbRegAppTableRecord
  2
ASURF_PCURVE_APPNAME
 70
     0
  0
APPID
  5
3DED
330
9
100
AcDbSymbolTableRecord
100
AcDbRegAppTableRecord
  2
AMG_3D2D_5.0
 70
     0
  0
APPID
  5
3E1B
330
9
100
AcDbSymbolTableRecord
100
AcDbRegAppTableRecord
  2
DESIGNERASSEMBLIES
 70
     0
  0
APPID
  5
3E20
330
9
100
AcDbSymbolTableRecord
100
AcDbRegAppTableRecord
  2
ACADM_DIM_EDIT
 70
     0
  0
APPID
  5
3E21
330
9
100
AcDbSymbolTableRecord
100
AcDbRegAppTableRecord
  2
AMDT_DM_ADJ
 70
     0
  0
APPID
  5
4143
330
9
100
AcDbSymbolTableRecord
100
AcDbRegAppTableRecord
  2
GENIUS_GENFIL_13
 70
     0
  0
APPID
  5
4144
330
9
100
AcDbSymbolTableRecord
100
AcDbRegAppTableRecord
  2
GENIUS_GENOBJ-N-CHA_13
 70
     0
  0
APPID
  5
4E17
330
9
100
AcDbSymbolTableRecord
100
AcDbRegAppTableRecord
  2
GEVID1008153417
 70
     0
  0
APPID
  5
4E58
330
9
100
AcDbSymbolTableRecord
100
AcDbRegAppTableRecord
  2
GEVID1008153418
 70
     0
  0
APPID
  5
4E5E
330
9
100
AcDbSymbolTableRecord
100
AcDbRegAppTableRecord
  2
GEVID1008153419
 70
     0
  0
APPID
  5
4E64
330
9
100
AcDbSymbolTableRecord
100
AcDbRegAppTableRecord
  2
GEVID1008153420
 70
     0
  0
APPID
  5
4E75
330
9
100
AcDbSymbolTableRecord
100
AcDbRegAppTableRecord
  2
GEVID1008153421
 70
     0
  0
APPID
  5
4EB7
330
9
100
AcDbSymbolTableRecord
100
AcDbRegAppTableRecord
  2
GENIUS_AMGTXT_16
 70
     0
  0
APPID
  5
7645
330
9
100
AcDbSymbolTableRecord
100
AcDbRegAppTableRecord
  2
GENIUS_GENOBJ-N-DIM_13
 70
     0
  0
APPID
  5
E796
330
9
100
AcDbSymbolTableRecord
100
AcDbRegAppTableRecord
  2
GENIUS_GENOBJ-N-ZOO_13
 70
     0
  0
APPID
  5
E797
330
9
100
AcDbSymbolTableRecord
100
AcDbRegAppTableRecord
  2
GENIUS_GENZOO_16
 70
     0
  0
APPID
  5
FD37
330
9
100
AcDbSymbolTableRecord
100
AcDbRegAppTableRecord
  2
ACAD_DSTYLE_DIMARC_LENGTH_SYMBOL
 70
     0
  0
APPID
  5
FD38
330
9
100
AcDbSymbolTableRecord
100
AcDbRegAppTableRecord
  2
ACAD_DSTYLE_DIMJOGGED_JOGANGLE_SYMBOL
 70
     0
  0
APPID
  5
FD7F
330
9
100
AcDbSymbolTableRecord
100
AcDbRegAppTableRecord
  2
ACAD_PSEXT
 70
     0
  0
APPID
  5
13617
330
9
100
AcDbSymbolTableRecord
100
AcDbRegAppTableRecord
  2
AcAecLayerStandard
 70
     0
  0
APPID
  5
157D2
330
9
100
AcDbSymbolTableRecord
100
AcDbRegAppTableRecord
  2
GENIUS_GENCEN_19
 70
     0
  0
APPID
  5
15B8F
330
9
100
AcDbSymbolTableRecord
100
AcDbRegAppTableRecord
  2
GENLAYCOLOR
 70
     0
  0
APPID
  5
165A0
330
9
100
AcDbSymbolTableRecord
100
AcDbRegAppTableRecord
  2
ACAD_EXEMPT_FROM_CAD_STANDARDS
 70
     0
  0
APPID
  5
17011
330
9
100
AcDbSymbolTableRecord
100
AcDbRegAppTableRecord
  2
AMG_2DHIDE
 70
     0
  0
APPID
  5
17012
330
9
100
AcDbSymbolTableRecord
100
AcDbRegAppTableRecord
  2
AMG_2DSTRUCT_BTR
 70
     0
  0
APPID
  5
1701F
330
9
100
AcDbSymbolTableRecord
100
AcDbRegAppTableRecord
  2
GEVID1152152947
 70
     0
  0
APPID
  5
1703F
330
9
100
AcDbSymbolTableRecord
100
AcDbRegAppTableRecord
  2
ACADM_2DVIEW_IGN_NOTIFY
 70
     0
  0
APPID
  5
171EE
330
9
100
AcDbSymbolTableRecord
100
AcDbRegAppTableRecord
  2
GEVID1152152948
 70
     0
  0
APPID
  5
19B6A
330
9
100
AcDbSymbolTableRecord
100
AcDbRegAppTableRecord
  2
GEVID1152586001
 70
     0
  0
APPID
  5
19BEB
330
9
100
AcDbSymbolTableRecord
100
AcDbRegAppTableRecord
  2
GEVID1152586002
 70
     0
  0
APPID
  5
19BED
330
9
100
AcDbSymbolTableRecord
100
AcDbRegAppTableRecord
  2
GENIUS_GEFSPRING_13
 70
     0
  0
APPID
  5
31BE8
330
9
100
AcDbSymbolTableRecord
100
AcDbRegAppTableRecord
  2
GEVID1153219131
 70
     0
  0
APPID
  5
31BF3
330
9
100
AcDbSymbolTableRecord
100
AcDbRegAppTableRecord
  2
GEVID1153219132
 70
     0
  0
APPID
  5
31D4D
330
9
100
AcDbSymbolTableRecord
100
AcDbRegAppTableRecord
  2
GEVID1153219133
 70
     0
  0
APPID
  5
31D7C
330
9
100
AcDbSymbolTableRecord
100
AcDbRegAppTableRecord
  2
GEVID1153219134
 70
     0
  0
APPID
  5
31D8A
330
9
100
AcDbSymbolTableRecord
100
AcDbRegAppTableRecord
  2
GEVID1153219135
 70
     0
  0
APPID
  5
3219D
330
9
100
AcDbSymbolTableRecord
100
AcDbRegAppTableRecord
  2
GEVID1153219136
 70
     0
  0
APPID
  5
322D2
330
9
100
AcDbSymbolTableRecord
100
AcDbRegAppTableRecord
  2
GEVID1153219137
 70
     0
  0
APPID
  5
33905
330
9
100
AcDbSymbolTableRecord
100
AcDbRegAppTableRecord
  2
GEVID1154766077
 70
     0
  0
APPID
  5
33908
330
9
100
AcDbSymbolTableRecord
100
AcDbRegAppTableRecord
  2
GEVID1154766078
 70
     0
  0
APPID
  5
3397D
330
9
100
AcDbSymbolTableRecord
100
AcDbRegAppTableRecord
  2
GEVID1154766079
 70
     0
  0
APPID
  5
33980
330
9
100
AcDbSymbolTableRecord
100
AcDbRegAppTableRecord
  2
GEVID1154766080
 70
     0
  0
APPID
  5
33AF7
330
9
100
AcDbSymbolTableRecord
100
AcDbRegAppTableRecord
  2
GEVID1154766082
 70
     0
  0
APPID
  5
33BB4
330
9
100
AcDbSymbolTableRecord
100
AcDbRegAppTableRecord
  2
GEVID1154766083
 70
     0
  0
APPID
  5
3EE6B
330
9
100
AcDbSymbolTableRecord
100
AcDbRegAppTableRecord
  2
GEVID1158244683
 70
     0
  0
APPID
  5
3EEEA
330
9
100
AcDbSymbolTableRecord
100
AcDbRegAppTableRecord
  2
GEVID1158244684
 70
     0
  0
APPID
  5
437DF
330
9
100
AcDbSymbolTableRecord
100
AcDbRegAppTableRecord
  2
GEVID1158292150
 70
     0
  0
APPID
  5
43E72
330
9
100
AcDbSymbolTableRecord
100
AcDbRegAppTableRecord
  2
GEVID1158292151
 70
     0
  0
APPID
  5
43F51
330
9
100
AcDbSymbolTableRecord
100
AcDbRegAppTableRecord
  2
GEVID1158292152
 70
     0
  0
APPID
  5
43F6B
330
9
100
AcDbSymbolTableRecord
100
AcDbRegAppTableRecord
  2
GEVID1158292153
 70
     0
  0
APPID
  5
43FE9
330
9
100
AcDbSymbolTableRecord
100
AcDbRegAppTableRecord
  2
GEVID1158292154
 70
     0
  0
APPID
  5
4431E
330
9
100
AcDbSymbolTableRecord
100
AcDbRegAppTableRecord
  2
GEVID1158292155
 70
     0
  0
APPID
  5
44336
330
9
100
AcDbSymbolTableRecord
100
AcDbRegAppTableRecord
  2
GEVID1158292156
 70
     0
  0
APPID
  5
44341
330
9
100
AcDbSymbolTableRecord
100
AcDbRegAppTableRecord
  2
GEVID1158292157
 70
     0
  0
APPID
  5
4434D
330
9
100
AcDbSymbolTableRecord
100
AcDbRegAppTableRecord
  2
GEVID1158292158
 70
     0
  0
APPID
  5
44908
330
9
100
AcDbSymbolTableRecord
100
AcDbRegAppTableRecord
  2
GEVID1158292160
 70
     0
  0
APPID
  5
44B97
330
9
100
AcDbSymbolTableRecord
100
AcDbRegAppTableRecord
  2
GEVID1158292161
 70
     0
  0
APPID
  5
50A05
330
9
100
AcDbSymbolTableRecord
100
AcDbRegAppTableRecord
  2
GEVID1158565859
 70
     0
  0
APPID
  5
50AA9
330
9
100
AcDbSymbolTableRecord
100
AcDbRegAppTableRecord
  2
GEVID1158565860
 70
     0
  0
APPID
  5
50BD0
330
9
100
AcDbSymbolTableRecord
100
AcDbRegAppTableRecord
  2
GEVID1158565861
 70
     0
  0
APPID
  5
515ED
330
9
100
AcDbSymbolTableRecord
100
AcDbRegAppTableRecord
  2
GEVID1158565862
 70
     0
  0
APPID
  5
57A91
330
9
100
AcDbSymbolTableRecord
100
AcDbRegAppTableRecord
  2
GEVID1159925413
 70
     0
  0
APPID
  5
57B3D
330
9
100
AcDbSymbolTableRecord
100
AcDbRegAppTableRecord
  2
GEVID1159925934
 70
     0
  0
APPID
  5
57CAF
330
9
100
AcDbSymbolTableRecord
100
AcDbRegAppTableRecord
  2
GEVID1159925935
 70
     0
  0
APPID
  5
59C8E
330
9
100
AcDbSymbolTableRecord
100
AcDbRegAppTableRecord
  2
GEVID1159925936
 70
     0
  0
APPID
  5
59D0D
330
9
100
AcDbSymbolTableRecord
100
AcDbRegAppTableRecord
  2
GEVID1159925937
 70
     0
  0
APPID
  5
5A9D4
330
9
100
AcDbSymbolTableRecord
100
AcDbRegAppTableRecord
  2
GEVID1159925938
 70
     0
  0
APPID
  5
72661
330
9
100
AcDbSymbolTableRecord
100
AcDbRegAppTableRecord
  2
GEVID1160454489
 70
     0
  0
APPID
  5
72BD0
330
9
100
AcDbSymbolTableRecord
100
AcDbRegAppTableRecord
  2
GEVID1160454490
 70
     0
  0
APPID
  5
72CB4
330
9
100
AcDbSymbolTableRecord
100
AcDbRegAppTableRecord
  2
GEVID1160454491
 70
     0
  0
APPID
  5
72D12
330
9
100
AcDbSymbolTableRecord
100
AcDbRegAppTableRecord
  2
GEVID1160454492
 70
     0
  0
APPID
  5
72EF2
330
9
100
AcDbSymbolTableRecord
100
AcDbRegAppTableRecord
  2
GEVID1160454493
 70
     0
  0
APPID
  5
8F518
330
9
100
AcDbSymbolTableRecord
100
AcDbRegAppTableRecord
  2
GEVID1161094083
 70
     0
  0
APPID
  5
8F575
330
9
100
AcDbSymbolTableRecord
100
AcDbRegAppTableRecord
  2
GEVID1161094084
 70
     0
  0
APPID
  5
8F920
330
9
100
AcDbSymbolTableRecord
100
AcDbRegAppTableRecord
  2
GEVID1161094085
 70
     0
  0
APPID
  5
8F984
330
9
100
AcDbSymbolTableRecord
100
AcDbRegAppTableRecord
  2
GEVID1161094086
 70
     0
  0
APPID
  5
93CEC
330
9
100
AcDbSymbolTableRecord
100
AcDbRegAppTableRecord
  2
GEVID1161129444
 70
     0
  0
APPID
  5
94059
330
9
100
AcDbSymbolTableRecord
100
AcDbRegAppTableRecord
  2
GEVID1161129445
 70
     0
  0
APPID
  5
95700
330
9
100
AcDbSymbolTableRecord
100
AcDbRegAppTableRecord
  2
GEVID1161129446
 70
     0
  0
APPID
  5
958F5
330
9
100
AcDbSymbolTableRecord
100
AcDbRegAppTableRecord
  2
GEVID1161129447
 70
     0
  0
APPID
  5
9B4D8
330
9
100
AcDbSymbolTableRecord
100
AcDbRegAppTableRecord
  2
GEVID1161232736
 70
     0
  0
APPID
  5
AF7E7
330
9
100
AcDbSymbolTableRecord
100
AcDbRegAppTableRecord
  2
GEVID1162270285
 70
     0
  0
APPID
  5
AF896
330
9
100
AcDbSymbolTableRecord
100
AcDbRegAppTableRecord
  2
GEVID1162270286
 70
     0
  0
APPID
  5
AFEAE
330
9
100
AcDbSymbolTableRecord
100
AcDbRegAppTableRecord
  2
GEVID1162270287
 70
     0
  0
APPID
  5
B0EF8
330
9
100
AcDbSymbolTableRecord
100
AcDbRegAppTableRecord
  2
GEVID1162270288
 70
     0
  0
APPID
  5
B0F80
330
9
100
AcDbSymbolTableRecord
100
AcDbRegAppTableRecord
  2
GEVID1162270289
 70
     0
  0
APPID
  5
B1F00
330
9
100
AcDbSymbolTableRecord
100
AcDbRegAppTableRecord
  2
GEVID1162270290
 70
     0
  0
APPID
  5
CBE25
330
9
100
AcDbSymbolTableRecord
100
AcDbRegAppTableRecord
  2
GEVID1232520810
 70
     0
  0
APPID
  5
CBE3B
330
9
100
AcDbSymbolTableRecord
100
AcDbRegAppTableRecord
  2
GENIUS_GENCFG_13
 70
     0
1001
GENIUS_GENCFG0_13
1000
GEN
  0
APPID
  5
CBE3C
330
9
100
AcDbSymbolTableRecord
100
AcDbRegAppTableRecord
  2
GENIUS_GENCFG0_13
 70
     0
1001
GENIUS_GENCFG_13
1071
1232520816
1000
CBE3C
1000
GEN
1070
     0
  0
APPID
  5
D3545
330
9
100
AcDbSymbolTableRecord
100
AcDbRegAppTableRecord
  2
ACAD_DSTYLE_DIMRADIAL_EXTENSION
 70
     0
  0
APPID
  5
DD89D
330
9
100
AcDbSymbolTableRecord
100
AcDbRegAppTableRecord
  2
ACAD_MLEADERVER
 70
     0
  0
ENDTAB
  0
TABLE
  2
DIMSTYLE
  5
A
330
0
100
AcDbSymbolTable
 70
    33
100
AcDbDimStyleTable
 71
     4
340
2515
340
71
340
6C
340
FA9
  0
DIMSTYLE
105
6C
330
A
100
AcDbSymbolTableRecord
100
AcDbDimStyleTableRecord
  2
AM_ISO
 70
     0
  4
"
 41
2.5
 42
1.0
 43
10.0
 44
1.0
 47
0.1
 48
0.1
 73
     0
 74
     0
 77
     1
 78
     8
 79
     2
140
3.5
141
0.0
143
0.0393701
146
0.71
147
1.5
172
     1
176
   256
177
   256
178
     2
271
     2
272
     3
274
     4
283
     0
284
     8
340
11
371
    -1
372
    -1
1001
ACAD_DSTYLE_DIMJOGGED_JOGANGLE_SYMBOL
1070
   384
1040
0.7853981633974483
1001
ACAD_DSTYLE_DIMARC_LENGTH_SYMBOL
1070
   379
1070
     1
  0
DIMSTYLE
105
6D
330
A
100
AcDbSymbolTableRecord
100
AcDbDimStyleTableRecord
  2
AM_ISO$3
 70
     0
  4
"
 41
0.8
 42
1.0
 43
10.0
 44
1.0
 47
0.1
 48
0.1
 73
     0
 77
     1
 78
     8
 79
     2
140
3.2
141
0.0
143
0.0393701
146
0.71
147
0.9999999999999996
176
   256
177
   256
178
     2
271
     2
272
     2
283
     0
284
     8
288
     1
289
     0
340
11
342
6C4
371
    -1
372
    -1
1001
ACAD_DSTYLE_DIMJOGGED_JOGANGLE_SYMBOL
1070
   384
1040
0.7853981633974483
1001
ACAD_DSTYLE_DIMARC_LENGTH_SYMBOL
1070
   379
1070
     1
  0
DIMSTYLE
105
6E
330
A
100
AcDbSymbolTableRecord
100
AcDbDimStyleTableRecord
  2
AM_ISO$4
 70
     0
  4
"
 41
0.8
 42
1.0
 43
10.0
 44
1.0
 47
0.1
 48
0.1
 73
     0
 77
     1
 78
     8
 79
     2
140
3.2
141
0.0
143
0.0393701
146
0.71
147
1.0
173
     1
176
   256
177
   256
178
     2
271
     2
272
     2
283
     0
284
     8
288
     1
289
     0
340
11
344
6C4
371
    -1
372
    -1
1001
ACAD_DSTYLE_DIMJOGGED_JOGANGLE_SYMBOL
1070
   384
1040
0.7853981633974483
1001
ACAD_DSTYLE_DIMARC_LENGTH_SYMBOL
1070
   379
1070
     1
  0
DIMSTYLE
105
6F
330
A
100
AcDbSymbolTableRecord
100
AcDbDimStyleTableRecord
  2
AM_ISO$6
 70
     0
  4
"
 41
0.8
 42
1.0
 43
10.0
 44
1.0
 47
0.1
 48
0.1
 73
     0
 74
     0
 78
     8
 79
     2
140
3.2
141
0.0
143
0.0393701
146
0.71
147
1.0
172
     1
176
   256
177
   256
178
     2
271
     2
272
     2
283
     0
284
     8
340
11
341
6C4
371
    -1
372
    -1
1001
ACAD_DSTYLE_DIMJOGGED_JOGANGLE_SYMBOL
1070
   384
1040
0.7853981633974483
1001
ACAD_DSTYLE_DIMARC_LENGTH_SYMBOL
1070
   379
1070
     1
  0
DIMSTYLE
105
70
330
A
100
AcDbSymbolTableRecord
100
AcDbDimStyleTableRecord
  2
AM_ISO$7
 70
     0
  4
"
 41
0.8
 42
1.0
 43
10.0
 44
1.0
 47
0.1
 48
0.1
 73
     0
 74
     0
 77
     1
 78
     8
 79
     2
140
3.2
141
0.0
143
0.0393701
146
0.71
147
1.0
172
     1
176
   256
177
   256
178
     2
271
     2
272
     2
283
     0
284
     8
340
11
341
6C4
342
6C4
371
    -1
372
    -1
1001
ACAD_DSTYLE_DIMJOGGED_JOGANGLE_SYMBOL
1070
   384
1040
0.7853981633974483
1001
ACAD_DSTYLE_DIMARC_LENGTH_SYMBOL
1070
   379
1070
     1
  0
DIMSTYLE
105
71
330
A
100
AcDbSymbolTableRecord
100
AcDbDimStyleTableRecord
  2
AM_ISO$SF
 70
     0
  4
"
 41
0.8
 42
1.0
 43
10.0
 44
1.0
 47
0.1
 48
0.1
 73
     0
 74
     0
 75
     1
 76
     1
 77
     1
 78
     8
 79
     2
140
3.2
141
0.0
143
0.0393701
146
0.71
147
1.0
172
     1
176
   256
177
   256
178
     2
271
     2
272
     2
283
     0
284
     8
340
11
341
6C4
342
6C4
371
    -1
372
    -1
1001
ACAD_DSTYLE_DIMJOGGED_JOGANGLE_SYMBOL
1070
   384
1040
0.7853981633974483
1001
ACAD_DSTYLE_DIMARC_LENGTH_SYMBOL
1070
   379
1070
     1
  0
DIMSTYLE
105
76
330
A
100
AcDbSymbolTableRecord
100
AcDbDimStyleTableRecord
  2
AM_ISO$SH
 70
     0
  4
"
 41
0.8
 42
1.0
 43
10.0
 44
1.0
 47
0.1
 48
0.1
 73
     0
 74
     0
 75
     1
 76
     1
 77
     1
 78
     8
 79
     2
140
3.2
141
0.0
143
0.0393701
144
2.0
146
0.71
147
1.0
172
     1
176
   256
177
   256
178
     2
271
     2
272
     2
283
     0
284
     8
340
11
341
6C4
342
6C4
371
    -1
372
    -1
1001
ACAD_DSTYLE_DIMJOGGED_JOGANGLE_SYMBOL
1070
   384
1040
0.7853981633974483
1001
ACAD_DSTYLE_DIMARC_LENGTH_SYMBOL
1070
   379
1070
     1
  0
DIMSTYLE
105
6BE
330
A
100
AcDbSymbolTableRecord
100
AcDbDimStyleTableRecord
  2
AM_ISO$0
 70
     0
  4
"
 41
0.8
 42
1.0
 43
10.0
 44
1.0
 47
0.1
 48
0.1
 73
     0
 74
     0
 77
     1
 78
     8
 79
     2
140
3.2
141
0.0
143
0.0393701
146
0.71
147
0.9999999999999996
172
     1
176
   256
177
   256
178
     2
271
     2
272
     2
283
     0
284
     8
340
11
341
6C4
342
6C4
371
    -1
372
    -1
1001
ACAD_DSTYLE_DIMJOGGED_JOGANGLE_SYMBOL
1070
   384
1040
0.7853981633974483
1001
ACAD_DSTYLE_DIMARC_LENGTH_SYMBOL
1070
   379
1070
     1
  0
DIMSTYLE
105
6BF
330
A
100
AcDbSymbolTableRecord
100
AcDbDimStyleTableRecord
  2
AM_ISO$2
 70
     0
  4
"
 41
0.8
 42
1.0
 43
10.0
 44
1.0
 47
0.1
 48
0.1
 73
     0
 74
     0
 77
     3
 78
     8
 79
     2
140
3.200000000000001
141
0.0
143
0.0393701
146
0.71
147
0.9999999999999996
172
     1
176
   256
177
   256
178
     2
271
     2
272
     2
283
     0
284
     8
340
11
342
6C4
371
    -1
372
    -1
1001
ACAD_DSTYLE_DIMJOGGED_JOGANGLE_SYMBOL
1070
   384
1040
0.7853981633974483
1001
ACAD_DSTYLE_DIMARC_LENGTH_SYMBOL
1070
   379
1070
     1
  0
DIMSTYLE
105
FA9
330
A
100
AcDbSymbolTableRecord
100
AcDbDimStyleTableRecord
  2
AM_ANSI
 70
     0
  4
mm
 41
0.1
 42
0.05
 43
0.5
 44
0.1
 47
0.1
 48
0.1
 78
     7
 79
     2
140
0.12
141
0.0
146
0.71
147
0.06
176
   256
177
   256
178
     2
274
     4
284
     7
340
11
371
    -1
372
    -1
1001
ACAD_DSTYLE_DIMJOGGED_JOGANGLE_SYMBOL
1070
   384
1040
0.7853981633974483
1001
ACAD_DSTYLE_DIMARC_LENGTH_SYMBOL
1070
   379
1070
     1
  0
DIMSTYLE
105
FAA
330
A
100
AcDbSymbolTableRecord
100
AcDbDimStyleTableRecord
  2
AM_ANSI$3
 70
     0
  4
mm
 41
0.1
 42
0.05
 43
0.5
 44
0.1
 47
0.1
 48
0.1
 78
     7
 79
     2
140
0.12
141
0.0
146
0.71
147
0.06
176
   256
177
   256
178
     2
274
     4
284
     7
288
     1
289
     0
340
11
371
    -1
372
    -1
1001
ACAD_DSTYLE_DIMJOGGED_JOGANGLE_SYMBOL
1070
   384
1040
0.7853981633974483
1001
ACAD_DSTYLE_DIMARC_LENGTH_SYMBOL
1070
   379
1070
     1
  0
DIMSTYLE
105
FAB
330
A
100
AcDbSymbolTableRecord
100
AcDbDimStyleTableRecord
  2
AM_ANSI$4
 70
     0
  4
mm
 41
0.1
 42
0.05
 43
0.5
 44
0.1
 47
0.1
 48
0.1
 78
     7
 79
     2
140
0.12
141
0.0
146
0.71
147
0.06
176
   256
177
   256
178
     2
274
     4
284
     7
288
     1
289
     0
340
11
371
    -1
372
    -1
1001
ACAD_DSTYLE_DIMJOGGED_JOGANGLE_SYMBOL
1070
   384
1040
0.7853981633974483
1001
ACAD_DSTYLE_DIMARC_LENGTH_SYMBOL
1070
   379
1070
     1
  0
DIMSTYLE
105
FAC
330
A
100
AcDbSymbolTableRecord
100
AcDbDimStyleTableRecord
  2
AM_ANSI$7
 70
     0
  4
mm
 41
0.1
 42
0.05
 43
0.5
 44
0.1
 47
0.1
 48
0.1
 78
     7
 79
     2
140
0.24
141
0.0
146
0.71
147
0.06
176
   256
177
   256
178
     2
274
     4
284
     7
340
11
371
    -1
372
    -1
1001
ACAD_DSTYLE_DIMJOGGED_JOGANGLE_SYMBOL
1070
   384
1040
0.7853981633974483
1001
ACAD_DSTYLE_DIMARC_LENGTH_SYMBOL
1070
   379
1070
     1
  0
DIMSTYLE
105
FAD
330
A
100
AcDbSymbolTableRecord
100
AcDbDimStyleTableRecord
  2
AM_ANSI$SF
 70
     0
  4
mm
 41
0.1
 42
0.05
 43
0.5
 44
0.1
 47
0.1
 48
0.1
 75
     1
 76
     1
 78
     7
 79
     2
140
0.12
141
0.0
146
0.71
147
0.06
176
   256
177
   256
178
     2
274
     4
284
     7
340
11
371
    -1
372
    -1
1001
ACAD_DSTYLE_DIMJOGGED_JOGANGLE_SYMBOL
1070
   384
1040
0.7853981633974483
1001
ACAD_DSTYLE_DIMARC_LENGTH_SYMBOL
1070
   379
1070
     1
  0
DIMSTYLE
105
FAE
330
A
100
AcDbSymbolTableRecord
100
AcDbDimStyleTableRecord
  2
AM_ANSI$SH
 70
     0
  4
mm
 41
0.1
 42
0.05
 43
0.5
 44
0.1
 47
0.1
 48
0.1
 75
     1
 76
     1
 78
     7
 79
     2
140
0.12
141
0.0
146
0.71
147
0.06
173
     1
176
   256
177
   256
178
     2
274
     4
284
     7
340
11
343
72
371
    -1
372
    -1
1001
ACAD_DSTYLE_DIMJOGGED_JOGANGLE_SYMBOL
1070
   384
1040
0.7853981633974483
1001
ACAD_DSTYLE_DIMARC_LENGTH_SYMBOL
1070
   379
1070
     1
  0
DIMSTYLE
105
2515
330
A
100
AcDbSymbolTableRecord
100
AcDbDimStyleTableRecord
  2
SYS
 70
     0
  4
"
 41
1.0
 42
1.0
 43
10.0
 44
1.0
 47
0.1
 48
0.1
 73
     0
 74
     0
 77
     1
 78
     8
 79
     2
140
3.5
141
0.0
143
0.0393701
146
0.71
147
1.5
172
     1
176
   256
177
   256
178
     7
271
     2
272
     2
283
     0
284
     8
340
11
371
    -1
372
    -1
1001
ACAD_DSTYLE_DIMJOGGED_JOGANGLE_SYMBOL
1070
   384
1040
0.7853981633974483
1001
ACAD_DSTYLE_DIMARC_LENGTH_SYMBOL
1070
   379
1070
     1
  0
DIMSTYLE
105
2516
330
A
100
AcDbSymbolTableRecord
100
AcDbDimStyleTableRecord
  2
SYS$3
 70
     0
  4
"
 41
2.0
 42
1.0
 43
10.0
 44
1.0
 47
0.1
 48
0.1
 73
     0
 77
     1
 78
     8
 79
     2
140
3.5
141
0.0
143
0.0393701
146
0.71
147
1.5
176
   256
177
   256
178
     2
271
     2
272
     2
283
     0
284
     8
288
     1
340
11
342
A66
371
    -1
372
    -1
1001
ACAD_DSTYLE_DIMJOGGED_JOGANGLE_SYMBOL
1070
   384
1040
0.7853981633974483
1001
ACAD_DSTYLE_DIMARC_LENGTH_SYMBOL
1070
   379
1070
     1
  0
DIMSTYLE
105
2517
330
A
100
AcDbSymbolTableRecord
100
AcDbDimStyleTableRecord
  2
SYS$4
 70
     0
  4
"
 41
2.0
 42
1.0
 43
10.0
 44
1.0
 47
0.1
 48
0.1
 73
     0
 77
     1
 78
     8
 79
     2
140
3.5
141
0.0
143
0.0393701
146
0.71
147
1.5
173
     1
176
   256
177
   256
178
     2
271
     2
272
     2
283
     0
284
     8
288
     1
340
11
344
A66
371
    -1
372
    -1
1001
ACAD_DSTYLE_DIMJOGGED_JOGANGLE_SYMBOL
1070
   384
1040
0.7853981633974483
1001
ACAD_DSTYLE_DIMARC_LENGTH_SYMBOL
1070
   379
1070
     1
  0
DIMSTYLE
105
2518
330
A
100
AcDbSymbolTableRecord
100
AcDbDimStyleTableRecord
  2
SYS$6
 70
     0
  4
"
 41
2.0
 42
1.0
 43
10.0
 44
1.0
 47
0.1
 48
0.1
 73
     0
 74
     0
 78
     8
 79
     2
140
3.5
141
0.0
143
0.0393701
146
0.71
147
1.5
172
     1
176
   256
177
   256
178
     2
271
     2
272
     2
283
     0
284
     8
340
11
341
A66
371
    -1
372
    -1
1001
ACAD_DSTYLE_DIMJOGGED_JOGANGLE_SYMBOL
1070
   384
1040
0.7853981633974483
1001
ACAD_DSTYLE_DIMARC_LENGTH_SYMBOL
1070
   379
1070
     1
  0
DIMSTYLE
105
2519
330
A
100
AcDbSymbolTableRecord
100
AcDbDimStyleTableRecord
  2
SYS$7
 70
     0
  4
"
 41
2.0
 42
1.0
 43
10.0
 44
1.0
 47
0.1
 48
0.1
 73
     0
 74
     0
 77
     1
 78
     8
 79
     2
140
5.0
141
0.0
143
0.0393701
146
0.71
147
1.5
172
     1
176
   256
177
   256
178
     2
271
     2
272
     2
283
     0
284
     8
340
11
341
A66
342
A66
371
    -1
372
    -1
1001
ACAD_DSTYLE_DIMJOGGED_JOGANGLE_SYMBOL
1070
   384
1040
0.7853981633974483
1001
ACAD_DSTYLE_DIMARC_LENGTH_SYMBOL
1070
   379
1070
     1
  0
DIMSTYLE
105
251A
330
A
100
AcDbSymbolTableRecord
100
AcDbDimStyleTableRecord
  2
SYS$SF
 70
     0
  4
"
 41
2.5
 42
1.0
 43
10.0
 44
1.0
 47
0.1
 48
0.1
 73
     0
 74
     0
 75
     1
 76
     1
 77
     1
 78
     8
 79
     2
140
3.5
141
0.0
143
0.0393701
146
0.71
147
1.5
172
     1
176
   256
177
   256
178
     2
271
     2
272
     3
283
     0
284
     8
340
11
341
6C4
342
6C4
371
    -1
372
    -1
1001
ACAD_DSTYLE_DIMJOGGED_JOGANGLE_SYMBOL
1070
   384
1040
0.7853981633974483
1001
ACAD_DSTYLE_DIMARC_LENGTH_SYMBOL
1070
   379
1070
     1
  0
DIMSTYLE
105
251B
330
A
100
AcDbSymbolTableRecord
100
AcDbDimStyleTableRecord
  2
SYS$SH
 70
     0
  4
"
 41
2.5
 42
1.0
 43
10.0
 44
1.0
 47
0.1
 48
0.1
 73
     0
 74
     0
 75
     1
 76
     1
 77
     1
 78
     8
 79
     2
140
3.5
141
0.0
143
0.0393701
144
2.0
146
0.71
147
1.5
172
     1
173
     1
176
   256
177
   256
178
     2
271
     2
272
     3
283
     0
284
     8
340
11
341
6C4
343
72
344
6C4
371
    -1
372
    -1
1001
ACAD_DSTYLE_DIMJOGGED_JOGANGLE_SYMBOL
1070
   384
1040
0.7853981633974483
1001
ACAD_DSTYLE_DIMARC_LENGTH_SYMBOL
1070
   379
1070
     1
  0
DIMSTYLE
105
2A59
330
A
100
AcDbSymbolTableRecord
100
AcDbDimStyleTableRecord
  2
SYS$2
 70
     0
  4
"
 41
1.0
 42
1.0
 43
10.0
 44
1.0
 47
0.1
 48
0.1
 73
     0
 74
     0
 77
     1
 78
     8
 79
     2
140
3.5
141
0.0
143
0.0393701
146
0.71
147
1.5
172
     1
176
   256
177
   256
178
     2
271
     2
272
     2
283
     0
284
     8
340
11
342
6C4
371
    -1
372
    -1
1001
ACAD_DSTYLE_DIMJOGGED_JOGANGLE_SYMBOL
1070
   384
1040
0.7853981633974483
1001
ACAD_DSTYLE_DIMARC_LENGTH_SYMBOL
1070
   379
1070
     1
  0
DIMSTYLE
105
2AAB
102
{ACAD_REACTORS
330
DD6C9
330
DD6CA
330
DD6CB
330
DD7B8
330
DD7B9
102
}
330
A
100
AcDbSymbolTableRecord
100
AcDbDimStyleTableRecord
  2
SYS$0
 70
     0
  4
"
 41
1.0
 42
1.0
 43
10.0
 44
1.0
 47
0.1
 48
0.1
 73
     0
 74
     0
 77
     1
 78
     8
 79
     2
140
3.200000000000001
141
0.0
143
0.0393701
146
0.71
147
1.5
172
     1
176
   256
177
   256
178
     2
271
     2
272
     2
283
     0
284
     8
340
11
341
A66
342
6C4
371
    -1
372
    -1
1001
ACAD_DSTYLE_DIMJOGGED_JOGANGLE_SYMBOL
1070
   384
1040
0.7853981633974483
1001
ACAD_DSTYLE_DIMARC_LENGTH_SYMBOL
1070
   379
1070
     1
  0
DIMSTYLE
105
124EE
330
A
100
AcDbSymbolTableRecord
100
AcDbDimStyleTableRecord
  2
SYSORG0P5$0
 70
     0
  4
"
 41
1.0
 42
1.0
 43
10.0
 44
1.0
 47
0.1
 48
0.1
 73
     0
 74
     0
 77
     1
 78
     8
 79
     2
140
3.200000000000001
141
0.0
143
0.0393701
144
0.5
146
0.71
147
1.5
172
     1
176
   256
177
   256
178
     2
271
     2
272
     2
283
     0
284
     8
340
11
341
A66
342
6C4
371
    -1
372
    -1
  0
DIMSTYLE
105
124EF
330
A
100
AcDbSymbolTableRecord
100
AcDbDimStyleTableRecord
  2
SYSORG4358P72$4
 70
     0
  4
"
 41
2.0
 42
1.0
 43
10.0
 44
1.0
 47
0.1
 48
0.1
 73
     0
 77
     1
 78
     8
 79
     2
140
3.5
141
0.0
143
0.0393701
144
4358.720568330721
146
0.71
147
1.5
173
     1
176
   256
177
   256
178
     2
271
     2
272
     2
283
     0
284
     8
288
     1
340
11
344
A66
371
    -1
372
    -1
  0
DIMSTYLE
105
124F0
330
A
100
AcDbSymbolTableRecord
100
AcDbDimStyleTableRecord
  2
SYSORG297890P91$4
 70
     0
  4
"
 41
2.0
 42
1.0
 43
10.0
 44
1.0
 47
0.1
 48
0.1
 73
     0
 77
     1
 78
     8
 79
     2
140
3.5
141
0.0
143
0.0393701
144
297890.9090687243
146
0.71
147
1.5
173
     1
176
   256
177
   256
178
     2
271
     2
272
     2
283
     0
284
     8
288
     1
340
11
344
A66
371
    -1
372
    -1
  0
DIMSTYLE
105
1D546
330
A
100
AcDbSymbolTableRecord
100
AcDbDimStyleTableRecord
  2
Standard
 70
     0
340
11
  0
DIMSTYLE
105
C49A6
330
A
100
AcDbSymbolTableRecord
100
AcDbDimStyleTableRecord
  2
NAx2
 70
     0
 41
2.5
 42
1.0
 43
10.0
 44
1.0
 73
     0
 74
     0
 77
     1
 78
     8
 79
     2
140
3.200000000000001
141
0.0
143
0.0393701
144
0.5
147
0.9999999999999996
172
     1
176
     3
177
     3
178
   256
271
     3
272
     3
284
     8
340
11
371
    13
372
    13
  0
DIMSTYLE
105
C7D2A
330
A
100
AcDbSymbolTableRecord
100
AcDbDimStyleTableRecord
  2
SYS 中
 70
     0
  4
"
 41
1.0
 42
1.0
 43
7.0
 44
1.0
 47
0.1
 48
0.1
 73
     0
 74
     0
 77
     1
 78
     8
 79
     2
140
3.0
141
0.0
143
0.0393701
146
0.71
147
0.4999999999999992
172
     1
176
   256
177
   256
178
     2
271
     2
272
     2
283
     0
284
     8
340
11
341
A66
342
6C4
371
    -1
372
    -1
  0
DIMSTYLE
105
D3543
330
A
100
AcDbSymbolTableRecord
100
AcDbDimStyleTableRecord
  2
ISO-25
 70
     0
 41
2.5
 42
0.625
 43
3.75
 44
1.25
 45
0.01
 73
     0
 74
     0
 77
     1
 78
     8
140
2.5
141
2.5
143
0.03937007874016
147
0.625
171
     3
172
     1
271
     2
272
     2
274
     3
278
    44
283
     0
284
     8
340
11
  0
DIMSTYLE
105
D3544
330
A
100
AcDbSymbolTableRecord
100
AcDbDimStyleTableRecord
  2
原寸
 70
     0
 41
2.5
 42
1.0
 43
10.0
 44
0.7
 73
     0
 74
     0
 77
     3
 78
     8
 79
     2
140
3.5
141
0.0
147
1.0
172
     1
179
     1
271
     2
272
     2
340
D3542
341
A66
342
A66
  0
ENDTAB
  0
TABLE
  2
BLOCK_RECORD
  5
1
330
0
100
AcDbSymbolTable
 70
    11
  0
BLOCK_RECORD
  5
1F
102
{ACAD_XDICTIONARY
360
8A
102
}
330
1
100
AcDbSymbolTableRecord
100
AcDbBlockTableRecord
  2
*Model_Space
340
22
  0
BLOCK_RECORD
  5
1B
330
1
100
AcDbSymbolTableRecord
100
AcDbBlockTableRecord
  2
*Paper_Space
340
1E
  0
BLOCK_RECORD
  5
23
330
1
100
AcDbSymbolTableRecord
100
AcDbBlockTableRecord
  2
*Paper_Space0
340
26
  0
BLOCK_RECORD
  5
72
330
1
100
AcDbSymbolTableRecord
100
AcDbBlockTableRecord
  2
GENAXEH
340
0
  0
BLOCK_RECORD
  5
6C4
330
1
100
AcDbSymbolTableRecord
100
AcDbBlockTableRecord
  2
_Dot
340
0
102
{BLKREFS
331
DD81A
331
DD81B
331
DD823
331
DD824
331
DD82C
331
DD82D
331
DD835
331
DD836
331
DD83E
331
DD83F
102
}
  0
BLOCK_RECORD
  5
A66
330
1
100
AcDbSymbolTableRecord
100
AcDbBlockTableRecord
  2
_OPEN30
340
0
102
{BLKREFS
331
DD6DA
102
}
  0
BLOCK_RECORD
  5
DD6DF
330
1
100
AcDbSymbolTableRecord
100
AcDbBlockTableRecord
  2
*D4
340
0
  0
BLOCK_RECORD
  5
DD6EB
330
1
100
AcDbSymbolTableRecord
100
AcDbBlockTableRecord
  2
*D5
340
0
  0
BLOCK_RECORD
  5
DD6F7
330
1
100
AcDbSymbolTableRecord
100
AcDbBlockTableRecord
  2
*D6
340
0
  0
BLOCK_RECORD
  5
DD7BA
330
1
100
AcDbSymbolTableRecord
100
AcDbBlockTableRecord
  2
*D7
340
0
  0
BLOCK_RECORD
  5
DD7C6
330
1
100
AcDbSymbolTableRecord
100
AcDbBlockTableRecord
  2
*D8
340
0
  0
ENDTAB
  0
ENDSEC
  0
SECTION
  2
BLOCKS
  0
BLOCK
  5
20
330
1F
100
AcDbEntity
  8
0
100
AcDbBlockBegin
  2
*Model_Space
 70
     0
 10
0.0
 20
0.0
 30
0.0
  3
*Model_Space
  1

  0
ENDBLK
  5
21
330
1F
100
AcDbEntity
  8
0
100
AcDbBlockEnd
  0
BLOCK
  5
1C
330
1B
100
AcDbEntity
 67
     1
  8
0
100
AcDbBlockBegin
  2
*Paper_Space
 70
     0
 10
0.0
 20
0.0
 30
0.0
  3
*Paper_Space
  1

  0
ENDBLK
  5
1D
330
1B
100
AcDbEntity
 67
     1
  8
0
100
AcDbBlockEnd
  0
BLOCK
  5
24
330
23
100
AcDbEntity
 67
     1
  8
0
100
AcDbBlockBegin
  2
*Paper_Space0
 70
     0
 10
0.0
 20
0.0
 30
0.0
  3
*Paper_Space0
  1

  0
ENDBLK
  5
25
330
23
100
AcDbEntity
 67
     1
  8
0
100
AcDbBlockEnd
  0
BLOCK
  5
DCFF6
330
72
100
AcDbEntity
  8
0
100
AcDbBlockBegin
  2
GENAXEH
 70
     0
 10
0.0
 20
0.0
 30
0.0
  3
GENAXEH
  1

  0
LINE
  5
DCFF7
330
72
100
AcDbEntity
  8
0
100
AcDbLine
 10
-1.0
 20
0.0
 30
0.0
 11
1.0
 21
0.0
 31
0.0
  0
ENDBLK
  5
DCFF8
330
72
100
AcDbEntity
  8
0
100
AcDbBlockEnd
  0
BLOCK
  5
DCFEA
330
6C4
100
AcDbEntity
  8
0
100
AcDbBlockBegin
  2
_Dot
 70
     0
 10
0.0
 20
0.0
 30
0.0
  3
_Dot
  1

  0
LWPOLYLINE
  5
DCFEB
330
6C4
100
AcDbEntity
  8
0
  6
ByBlock
 62
     0
100
AcDbPolyline
 90
        2
 70
     1
 43
0.5
 10
-0.25
 20
0.0
 42
1.0
 10
0.25
 20
0.0
 42
1.0
  0
LINE
  5
DCFEC
330
6C4
100
AcDbEntity
  8
0
  6
ByBlock
 62
     0
370
    -2
100
AcDbLine
 10
-0.5
 20
0.0
 30
0.0
 11
-1.0
 21
0.0
 31
0.0
  0
ENDBLK
  5
DCFED
330
6C4
100
AcDbEntity
  8
0
100
AcDbBlockEnd
  0
BLOCK
  5
DCFE4
330
A66
100
AcDbEntity
  8
0
100
AcDbBlockBegin
  2
_OPEN30
 70
     0
 10
0.0
 20
0.0
 30
0.0
  3
_OPEN30
  1

  0
LINE
  5
DCFE5
330
A66
100
AcDbEntity
  8
0
  6
ByBlock
 62
     0
100
AcDbLine
 10
-1.0
 20
0.26794919
 30
0.0
 11
0.0
 21
0.0
 31
0.0
  0
LINE
  5
DCFE6
330
A66
100
AcDbEntity
  8
0
  6
ByBlock
 62
     0
100
AcDbLine
 10
0.0
 20
0.0
 30
0.0
 11
-1.0
 21
-0.26794919
 31
0.0
  0
LINE
  5
DCFE7
330
A66
100
AcDbEntity
  8
0
  6
ByBlock
 62
     0
100
AcDbLine
 10
0.0
 20
0.0
 30
0.0
 11
-1.0
 21
0.0
 31
0.0
  0
ENDBLK
  5
DCFE8
330
A66
100
AcDbEntity
  8
0
100
AcDbBlockEnd
  0
BLOCK
  5
DD6E9
330
DD6DF
100
AcDbEntity
  8
0
 48
0.3
100
AcDbBlockBegin
  2
*D4
 70
     1
 10
0.0
 20
0.0
 30
0.0
  3
*D4
  1

  0
LINE
  5
DD817
330
DD6DF
100
AcDbEntity
  8
AM_5
100
AcDbLine
 10
1713.466061464934
 20
-281.2528402671574
 30
0.0
 11
1713.466061464934
 21
-293.2528402671573
 31
0.0
  0
LINE
  5
DD818
330
DD6DF
100
AcDbEntity
  8
AM_5
100
AcDbLine
 10
1633.466061464934
 20
-281.2528402671574
 30
0.0
 11
1633.466061464934
 21
-293.2528402671573
 31
0.0
  0
LINE
  5
DD819
330
DD6DF
100
AcDbEntity
  8
AM_5
100
AcDbLine
 10
1712.466061464934
 20
-292.2528402671574
 30
0.0
 11
1634.466061464934
 21
-292.2528402671574
 31
0.0
  0
INSERT
  5
DD81A
330
DD6DF
100
AcDbEntity
  8
AM_5
100
AcDbBlockReference
  2
_Dot
 10
1713.466061464934
 20
-292.2528402671574
 30
0.0
  0
INSERT
  5
DD81B
330
DD6DF
100
AcDbEntity
  8
AM_5
100
AcDbBlockReference
  2
_Dot
 10
1633.466061464934
 20
-292.2528402671574
 30
0.0
 50
180.0
  0
MTEXT
  5
DD81C
330
DD6DF
100
AcDbEntity
  8
AM_5
 62
     2
100
AcDbMText
 10
1673.80095798132
 20
-289.1528402671573
 30
0.0
 40
3.200000000000001
 41
0.0
 71
     5
 72
     1
  1
P＝80
 73
     1
 44
1.0
  0
POINT
  5
DD81D
330
DD6DF
100
AcDbEntity
  8
Defpoints
 62
     0
100
AcDbPoint
 10
1713.466061464934
 20
-280.2528402671573
 30
0.0
  0
POINT
  5
DD81E
330
DD6DF
100
AcDbEntity
  8
Defpoints
 62
     0
100
AcDbPoint
 10
1633.466061464934
 20
-280.2528402671573
 30
0.0
  0
POINT
  5
DD81F
330
DD6DF
100
AcDbEntity
  8
Defpoints
 62
     0
100
AcDbPoint
 10
1633.466061464934
 20
-292.2528402671574
 30
0.0
  0
ENDBLK
  5
DD6EA
330
DD6DF
100
AcDbEntity
  8
0
 48
0.3
100
AcDbBlockEnd
  0
BLOCK
  5
DD6F5
330
DD6EB
100
AcDbEntity
  8
0
 48
0.3
100
AcDbBlockBegin
  2
*D5
 70
     1
 10
0.0
 20
0.0
 30
0.0
  3
*D5
  1

  0
LINE
  5
DD820
330
DD6EB
100
AcDbEntity
  8
AM_5
100
AcDbLine
 10
1718.466061464934
 20
-202.0255263009244
 30
0.0
 11
1718.466061464934
 21
-191.0255263009244
 31
0.0
  0
LINE
  5
DD821
330
DD6EB
100
AcDbEntity
  8
AM_5
100
AcDbLine
 10
1628.466061464934
 20
-202.0255263009244
 30
0.0
 11
1628.466061464934
 21
-191.0255263009244
 31
0.0
  0
LINE
  5
DD822
330
DD6EB
100
AcDbEntity
  8
AM_5
100
AcDbLine
 10
1717.466061464934
 20
-192.0255263009244
 30
0.0
 11
1629.466061464934
 21
-192.0255263009244
 31
0.0
  0
INSERT
  5
DD823
330
DD6EB
100
AcDbEntity
  8
AM_5
100
AcDbBlockReference
  2
_Dot
 10
1718.466061464934
 20
-192.0255263009244
 30
0.0
  0
INSERT
  5
DD824
330
DD6EB
100
AcDbEntity
  8
AM_5
100
AcDbBlockReference
  2
_Dot
 10
1628.466061464934
 20
-192.0255263009244
 30
0.0
 50
180.0
  0
MTEXT
  5
DD825
330
DD6EB
100
AcDbEntity
  8
AM_5
 62
     2
100
AcDbMText
 10
1673.466061464934
 20
-188.9255263009244
 30
0.0
 40
3.200000000000001
 41
0.0
 71
     5
 72
     1
  1
90
 73
     1
 44
1.0
  0
POINT
  5
DD826
330
DD6EB
100
AcDbEntity
  8
Defpoints
 62
     0
100
AcDbPoint
 10
1718.466061464934
 20
-203.0255263009244
 30
0.0
  0
POINT
  5
DD827
330
DD6EB
100
AcDbEntity
  8
Defpoints
 62
     0
100
AcDbPoint
 10
1628.466061464934
 20
-203.0255263009244
 30
0.0
  0
POINT
  5
DD828
330
DD6EB
100
AcDbEntity
  8
Defpoints
 62
     0
100
AcDbPoint
 10
1628.466061464934
 20
-192.0255263009244
 30
0.0
  0
ENDBLK
  5
DD6F6
330
DD6EB
100
AcDbEntity
  8
0
 48
0.3
100
AcDbBlockEnd
  0
BLOCK
  5
DD701
330
DD6F7
100
AcDbEntity
  8
0
 48
0.3
100
AcDbBlockBegin
  2
*D6
 70
     1
 10
0.0
 20
0.0
 30
0.0
  3
*D6
  1

  0
LINE
  5
DD829
330
DD6F7
100
AcDbEntity
  8
AM_5
100
AcDbLine
 10
1766.658195538375
 20
-278.2528402671573
 30
0.0
 11
1766.658195538375
 21
-293.2528402671572
 31
0.0
  0
LINE
  5
DD82A
330
DD6F7
100
AcDbEntity
  8
AM_5
100
AcDbLine
 10
1752.658195538374
 20
-278.2528402671573
 30
0.0
 11
1752.658195538374
 21
-293.2528402671572
 31
0.0
  0
LINE
  5
DD82B
330
DD6F7
100
AcDbEntity
  8
AM_5
100
AcDbLine
 10
1765.658195538375
 20
-292.2528402671572
 30
0.0
 11
1753.658195538374
 21
-292.2528402671572
 31
0.0
  0
INSERT
  5
DD82C
330
DD6F7
100
AcDbEntity
  8
AM_5
100
AcDbBlockReference
  2
_Dot
 10
1766.658195538375
 20
-292.2528402671572
 30
0.0
  0
INSERT
  5
DD82D
330
DD6F7
100
AcDbEntity
  8
AM_5
100
AcDbBlockReference
  2
_Dot
 10
1752.658195538374
 20
-292.2528402671572
 30
0.0
 50
180.0
  0
MTEXT
  5
DD82E
330
DD6F7
100
AcDbEntity
  8
AM_5
 62
     2
100
AcDbMText
 10
1760.118845607639
 20
-289.1528402671572
 30
0.0
 40
3.200000000000001
 41
0.0
 71
     5
 72
     1
  1
14
 73
     1
 44
1.0
  0
POINT
  5
DD82F
330
DD6F7
100
AcDbEntity
  8
Defpoints
 62
     0
100
AcDbPoint
 10
1766.658195538375
 20
-277.2528402671574
 30
0.0
  0
POINT
  5
DD830
330
DD6F7
100
AcDbEntity
  8
Defpoints
 62
     0
100
AcDbPoint
 10
1752.658195538374
 20
-277.2528402671574
 30
0.0
  0
POINT
  5
DD831
330
DD6F7
100
AcDbEntity
  8
Defpoints
 62
     0
100
AcDbPoint
 10
1752.658195538374
 20
-292.2528402671572
 30
0.0
  0
ENDBLK
  5
DD702
330
DD6F7
100
AcDbEntity
  8
0
 48
0.3
100
AcDbBlockEnd
  0
BLOCK
  5
DD7C4
330
DD7BA
100
AcDbEntity
  8
0
 48
0.3
100
AcDbBlockBegin
  2
*D7
 70
     1
 10
0.0
 20
0.0
 30
0.0
  3
*D7
  1

  0
LINE
  5
DD832
330
DD7BA
100
AcDbEntity
  8
AM_5
100
AcDbLine
 10
1628.966061464933
 20
-247.2528402671571
 30
0.0
 11
1617.466061464934
 21
-247.2528402671571
 31
0.0
  0
LINE
  5
DD833
330
DD7BA
100
AcDbEntity
  8
AM_5
100
AcDbLine
 10
1639.466061464933
 20
-256.2528402671558
 30
0.0
 11
1617.466061464934
 21
-256.2528402671558
 31
0.0
  0
LINE
  5
DD834
330
DD7BA
100
AcDbEntity
  8
AM_5
100
AcDbLine
 10
1618.466061464934
 20
-248.2528402671571
 30
0.0
 11
1618.466061464934
 21
-255.2528402671558
 31
0.0
  0
INSERT
  5
DD835
330
DD7BA
100
AcDbEntity
  8
AM_5
100
AcDbBlockReference
  2
_Dot
 10
1618.466061464934
 20
-247.2528402671571
 30
0.0
 50
90.0
  0
INSERT
  5
DD836
330
DD7BA
100
AcDbEntity
  8
AM_5
100
AcDbBlockReference
  2
_Dot
 10
1618.466061464934
 20
-256.2528402671558
 30
0.0
 50
270.0
  0
MTEXT
  5
DD837
330
DD7BA
100
AcDbEntity
  8
AM_5
 62
     2
100
AcDbMText
 10
1615.366061464934
 20
-252.3209759782998
 30
0.0
 40
3.200000000000001
 41
0.0
 71
     5
 72
     1
  1
9
 11
0.0000000000000001
 21
1.0
 31
0.0
 73
     1
 44
1.0
  0
POINT
  5
DD838
330
DD7BA
100
AcDbEntity
  8
Defpoints
 62
     0
100
AcDbPoint
 10
1629.966061464933
 20
-247.2528402671571
 30
0.0
  0
POINT
  5
DD839
330
DD7BA
100
AcDbEntity
  8
Defpoints
 62
     0
100
AcDbPoint
 10
1640.466061464933
 20
-256.2528402671558
 30
0.0
  0
POINT
  5
DD83A
330
DD7BA
100
AcDbEntity
  8
Defpoints
 62
     0
100
AcDbPoint
 10
1618.466061464934
 20
-256.2528402671558
 30
0.0
  0
ENDBLK
  5
DD7C5
330
DD7BA
100
AcDbEntity
  8
0
 48
0.3
100
AcDbBlockEnd
  0
BLOCK
  5
DD7D0
330
DD7C6
100
AcDbEntity
  8
0
 48
0.3
100
AcDbBlockBegin
  2
*D8
 70
     1
 10
0.0
 20
0.0
 30
0.0
  3
*D8
  1

  0
LINE
  5
DD83B
330
DD7C6
100
AcDbEntity
  8
AM_5
100
AcDbLine
 10
1627.466061464934
 20
-277.2528402671574
 30
0.0
 11
1607.466061464934
 21
-277.2528402671574
 31
0.0
  0
LINE
  5
DD83C
330
DD7C6
100
AcDbEntity
  8
AM_5
100
AcDbLine
 10
1627.466061464934
 20
-247.2528402671571
 30
0.0
 11
1607.466061464934
 21
-247.2528402671571
 31
0.0
  0
LINE
  5
DD83D
330
DD7C6
100
AcDbEntity
  8
AM_5
100
AcDbLine
 10
1608.466061464934
 20
-276.2528402671573
 30
0.0
 11
1608.466061464934
 21
-248.2528402671571
 31
0.0
  0
INSERT
  5
DD83E
330
DD7C6
100
AcDbEntity
  8
AM_5
100
AcDbBlockReference
  2
_Dot
 10
1608.466061464934
 20
-277.2528402671574
 30
0.0
 50
270.0
  0
INSERT
  5
DD83F
330
DD7C6
100
AcDbEntity
  8
AM_5
100
AcDbBlockReference
  2
_Dot
 10
1608.466061464934
 20
-247.2528402671571
 30
0.0
 50
90.0
  0
MTEXT
  5
DD840
330
DD7C6
100
AcDbEntity
  8
AM_5
 62
     2
100
AcDbMText
 10
1605.366061464934
 20
-262.252840267157
 30
0.0
 40
3.200000000000001
 41
0.0
 71
     5
 72
     1
  1
30
 11
0.0000000000000001
 21
1.0
 31
0.0
 73
     1
 44
1.0
  0
POINT
  5
DD841
330
DD7C6
100
AcDbEntity
  8
Defpoints
 62
     0
100
AcDbPoint
 10
1628.466061464934
 20
-277.2528402671574
 30
0.0
  0
POINT
  5
DD842
330
DD7C6
100
AcDbEntity
  8
Defpoints
 62
     0
100
AcDbPoint
 10
1628.466061464934
 20
-247.2528402671571
 30
0.0
  0
POINT
  5
DD843
330
DD7C6
100
AcDbEntity
  8
Defpoints
 62
     0
100
AcDbPoint
 10
1608.466061464934
 20
-247.2528402671571
 30
0.0
  0
ENDBLK
  5
DD7D1
330
DD7C6
100
AcDbEntity
  8
0
 48
0.3
100
AcDbBlockEnd
  0
ENDSEC
  0
SECTION
  2
ENTITIES
  0
ARC
  5
1976C
330
1F
100
AcDbEntity
  8
カム-AM_0
 48
0.5
 60
     1
100
AcDbCircle
 10
1073.836906068311
 20
96.73112248225136
 30
0.0
 40
1.0
100
AcDbArc
 50
157.9999999999991
 51
270.0
  0
ARC
  5
2AFFE
330
1F
100
AcDbEntity
  8
フロントプレート-AM_0
 48
0.5
 60
     1
100
AcDbCircle
 10
2940.140904158748
 20
-685.3979332481855
 30
0.0
 40
0.5
100
AcDbArc
 50
180.0000000000133
 51
269.9999999999799
  0
ARC
  5
2B000
330
1F
100
AcDbEntity
  8
フロントプレート-AM_0
 48
0.5
 60
     1
100
AcDbCircle
 10
2940.140904158746
 20
-693.6979332481854
 30
0.0
 40
0.5
100
AcDbArc
 50
90.0
 51
180.0
  0
ARC
  5
2B003
330
1F
100
AcDbEntity
  8
フロントプレート-AM_0
 48
0.5
 60
     1
100
AcDbCircle
 10
2940.140904158747
 20
-800.4479332481846
 30
0.0
 40
0.5
100
AcDbArc
 50
180.0000000000002
 51
270.000000000005
  0
ARC
  5
2B006
330
1F
100
AcDbEntity
  8
フロントプレート-AM_0
 48
0.5
 60
     1
100
AcDbCircle
 10
2940.140904158747
 20
-808.6479332481845
 30
0.0
 40
0.5
100
AcDbArc
 50
89.99999999999495
 51
180.0
  0
ARC
  5
35DDA
330
1F
100
AcDbEntity
  8
フロントプレート-AM_0
 48
0.7121444702145028
 60
     1
100
AcDbCircle
 10
3415.425665362851
 20
-491.1707550332581
 30
0.0
 40
5.0
100
AcDbArc
 50
89.9999999999992
 51
180.0
  0
ARC
  5
36164
330
1F
100
AcDbEntity
  8
フロントプレート-AM_0
 48
0.7121444702145028
 60
     1
100
AcDbCircle
 10
3415.425665362851
 20
-491.170739774473
 30
0.0
 40
5.0
100
AcDbArc
 50
90.00000000000039
 51
180.0
  0
ARC
  5
50290
330
1F
100
AcDbEntity
  8
フロントプレート-AM_0
 48
0.5
 60
     1
100
AcDbCircle
 10
3936.083075161434
 20
681.4307367305923
 30
0.0
 40
0.5
100
AcDbArc
 50
89.99999999999349
 51
180.0
  0
ARC
  5
50291
330
1F
100
AcDbEntity
  8
フロントプレート-AM_0
 48
0.5
 60
     1
100
AcDbCircle
 10
3936.083075161434
 20
796.3807367305912
 30
0.0
 40
0.5
100
AcDbArc
 50
90.0
 51
180.0
  0
ARC
  5
50294
330
1F
100
AcDbEntity
  8
フロントプレート-AM_0
 48
0.5
 60
     1
100
AcDbCircle
 10
3936.083075161435
 20
804.6807367305914
 30
0.0
 40
0.5
100
AcDbArc
 50
180.000000000013
 51
269.9999999999804
  0
ARC
  5
5029B
330
1F
100
AcDbEntity
  8
フロントプレート-AM_0
 48
0.5
 60
     1
100
AcDbCircle
 10
3936.083075161434
 20
689.6307367305921
 30
0.0
 40
0.5
100
AcDbArc
 50
180.0
 51
270.0000000000065
  0
ARC
  5
5808A
330
1F
100
AcDbEntity
  8
ケースＡ-AM_0
 48
0.3
 60
     1
100
AcDbCircle
 10
4320.746772469524
 20
642.5577614920783
 30
0.0
 40
3.0
100
AcDbArc
 50
136.7962532773522
 51
180.0000000000016
  0
TEXT
  5
70A13
330
1F
100
AcDbEntity
  8
AM_5
 62
     2
100
AcDbText
 10
1801.531019682132
 20
-912.4221029912536
 30
0.0
 40
1.6
  1

 41
0.7
100
AcDbText
  0
TEXT
  5
70A2E
330
1F
100
AcDbEntity
  8
AM_5
 62
     2
100
AcDbText
 10
1866.861680245279
 20
-839.8698037460585
 30
0.0
 40
1.6
  1

 50
90.0
 41
0.7
100
AcDbText
  0
TEXT
  5
70A5D
330
1F
100
AcDbEntity
  8
AM_5
 62
     2
100
AcDbText
 10
1638.052106495164
 20
-912.4220953618591
 30
0.0
 40
1.6
  1

 41
0.7
100
AcDbText
  0
TEXT
  5
70A73
330
1F
100
AcDbEntity
  8
AM_5
 62
     2
100
AcDbText
 10
1703.38276705831
 20
-839.8697961166638
 30
0.0
 40
1.6
  1

 50
90.0
 41
0.7
100
AcDbText
  0
ARC
  5
70F6D
330
1F
100
AcDbEntity
  8
スライド樹脂-AM_0
 48
0.5
 60
     1
100
AcDbCircle
 10
3232.621748902584
 20
-809.5320471450429
 30
0.0
 40
0.5
100
AcDbArc
 50
317.4804366013805
 51
30.99999999999924
  0
ARC
  5
72FDC
330
1F
100
AcDbEntity
  8
ケースＡ-AM_0
 60
     1
100
AcDbCircle
 10
2057.770958611584
 20
569.5785352150007
 30
0.0
 40
0.5
100
AcDbArc
 50
180.0000000000032
 51
270.0
  0
ARC
  5
72FDE
330
1F
100
AcDbEntity
  8
ケースＡ-AM_0
 60
     1
100
AcDbCircle
 10
2057.770958611584
 20
577.6785352150007
 30
0.0
 40
0.5
100
AcDbArc
 50
90.0
 51
180.0
  0
ARC
  5
7E287
330
1F
100
AcDbEntity
  8
ケースＡ-AM_0
 48
0.5
 60
     1
100
AcDbCircle
 10
2036.67073717051
 20
346.1529214792957
 30
0.0
 40
1.199999999999999
100
AcDbArc
 50
359.9999999999895
 51
90.00000000000161
  0
ARC
  5
7E28D
330
1F
100
AcDbEntity
  8
ケースＡ-AM_0
 48
0.5
 60
     1
100
AcDbCircle
 10
2024.670716005687
 20
346.1529214792954
 30
0.0
 40
1.199999999999999
100
AcDbArc
 50
90.00000000000161
 51
180.0
  0
ARC
  5
7E293
330
1F
100
AcDbEntity
  8
ケースＡ-AM_0
 48
0.5
 60
     1
100
AcDbCircle
 10
2195.249915988112
 20
334.6672638729956
 30
0.0
 40
0.3
100
AcDbArc
 50
90.00000000000161
 51
180.0
  0
ARC
  5
7E295
330
1F
100
AcDbEntity
  8
ケースＡ-AM_0
 48
0.5
 60
     1
100
AcDbCircle
 10
2198.249921279316
 20
334.6672638729956
 30
0.0
 40
0.3
100
AcDbArc
 50
0.0
 51
90.00000000000161
  0
ARC
  5
7E32E
330
1F
100
AcDbEntity
  8
ケースＡ-AM_0
 60
     1
100
AcDbCircle
 10
1957.892280850891
 20
-109.9494958677978
 30
0.0
 40
1.199999999999999
100
AcDbArc
 50
90.0
 51
180.0
  0
ARC
  5
7E332
330
1F
100
AcDbEntity
  8
ケースＡ-AM_0
 48
0.5
 60
     1
100
AcDbCircle
 10
1969.892285769429
 20
-109.9494958677978
 30
0.0
 40
1.199999999999999
100
AcDbArc
 50
0.0000000000371998
 51
90.0
  0
ARC
  5
7E33C
330
1F
100
AcDbEntity
  8
ケースＡ-AM_0
 60
     1
100
AcDbCircle
 10
2059.523418190472
 20
-151.894435956738
 30
0.0
 40
0.3
100
AcDbArc
 50
90.0
 51
180.0
  0
ARC
  5
7E33E
330
1F
100
AcDbEntity
  8
ケースＡ-AM_0
 60
     1
100
AcDbCircle
 10
2062.523419420107
 20
-151.8944359567379
 30
0.0
 40
0.3
100
AcDbArc
 50
0.0000000000371998
 51
90.0
  0
ARC
  5
86336
330
1F
100
AcDbEntity
  8
ケースＡ-AM_0
 48
0.2
 60
     1
100
AcDbCircle
 10
2332.182803540283
 20
693.5457760702194
 30
0.0
 40
0.25
100
AcDbArc
 50
180.0
 51
270.0
  0
ARC
  5
86338
330
1F
100
AcDbEntity
  8
ケースＡ-AM_0
 48
0.2
 60
     1
100
AcDbCircle
 10
2332.182803540283
 20
697.5957760702193
 30
0.0
 40
0.25
100
AcDbArc
 50
90.0
 51
180.0
  0
ARC
  5
86721
330
1F
100
AcDbEntity
  8
ケースＡ-AM_0
 48
0.2
 60
     1
100
AcDbCircle
 10
2272.07165777074
 20
693.5457715755038
 30
0.0
 40
0.25
100
AcDbArc
 50
180.0
 51
270.0
  0
ARC
  5
86723
330
1F
100
AcDbEntity
  8
ケースＡ-AM_0
 48
0.2
 60
     1
100
AcDbCircle
 10
2272.07165777074
 20
697.5957715755038
 30
0.0
 40
0.25
100
AcDbArc
 50
90.0
 51
180.0
  0
ARC
  5
89362
330
1F
100
AcDbEntity
  8
ケースＡ-AM_0
 60
     1
100
AcDbCircle
 10
2164.68328238728
 20
569.5785352150007
 30
0.0
 40
0.5
100
AcDbArc
 50
180.0000000000032
 51
270.0
  0
ARC
  5
89364
330
1F
100
AcDbEntity
  8
ケースＡ-AM_0
 60
     1
100
AcDbCircle
 10
2164.68328238728
 20
577.6785352150007
 30
0.0
 40
0.5
100
AcDbArc
 50
90.0
 51
180.0
  0
ARC
  5
898FF
330
1F
100
AcDbEntity
  8
ケースＡ-AM_0
 48
0.2
 60
     1
100
AcDbCircle
 10
2764.66674689238
 20
693.5457760702193
 30
0.0
 40
0.25
100
AcDbArc
 50
180.0
 51
270.0
  0
ARC
  5
89901
330
1F
100
AcDbEntity
  8
ケースＡ-AM_0
 48
0.2
 60
     1
100
AcDbCircle
 10
2764.66674689238
 20
697.5957760702192
 30
0.0
 40
0.25
100
AcDbArc
 50
90.0
 51
180.0
  0
ARC
  5
89B43
330
1F
100
AcDbEntity
  8
ケースＡ-AM_0
 48
0.2
 60
     1
100
AcDbCircle
 10
2704.555601122836
 20
693.5457715755037
 30
0.0
 40
0.25
100
AcDbArc
 50
180.0
 51
270.0
  0
ARC
  5
89B45
330
1F
100
AcDbEntity
  8
ケースＡ-AM_0
 48
0.2
 60
     1
100
AcDbCircle
 10
2704.555601122836
 20
697.5957715755036
 30
0.0
 40
0.25
100
AcDbArc
 50
90.0
 51
180.0
  0
ARC
  5
8A011
330
1F
100
AcDbEntity
  8
ケースＡ-AM_0
 60
     1
100
AcDbCircle
 10
2490.25490604102
 20
569.5785352150007
 30
0.0
 40
0.5
100
AcDbArc
 50
180.0000000000032
 51
270.0
  0
ARC
  5
8A013
330
1F
100
AcDbEntity
  8
ケースＡ-AM_0
 60
     1
100
AcDbCircle
 10
2490.25490604102
 20
577.6785352150007
 30
0.0
 40
0.5
100
AcDbArc
 50
90.0
 51
180.0
  0
ARC
  5
8A3C3
330
1F
100
AcDbEntity
  8
ケースＡ-AM_0
 60
     1
100
AcDbCircle
 10
2597.167229816716
 20
569.5785352150007
 30
0.0
 40
0.5
100
AcDbArc
 50
180.0000000000032
 51
270.0
  0
ARC
  5
8A3C5
330
1F
100
AcDbEntity
  8
ケースＡ-AM_0
 60
     1
100
AcDbCircle
 10
2597.167229816716
 20
577.6785352150007
 30
0.0
 40
0.5
100
AcDbArc
 50
90.0
 51
180.0
  0
ARC
  5
92521
330
1F
100
AcDbEntity
  8
ケースＡ-AM_0
 48
0.2
 60
     1
100
AcDbCircle
 10
3197.150694321815
 20
693.5457760702193
 30
0.0
 40
0.25
100
AcDbArc
 50
180.0
 51
270.0
  0
ARC
  5
92523
330
1F
100
AcDbEntity
  8
ケースＡ-AM_0
 48
0.2
 60
     1
100
AcDbCircle
 10
3197.150694321815
 20
697.5957760702192
 30
0.0
 40
0.25
100
AcDbArc
 50
90.0
 51
180.0
  0
ARC
  5
92761
330
1F
100
AcDbEntity
  8
ケースＡ-AM_0
 48
0.2
 60
     1
100
AcDbCircle
 10
3137.039548552272
 20
693.5457715755037
 30
0.0
 40
0.25
100
AcDbArc
 50
180.0
 51
270.0
  0
ARC
  5
92763
330
1F
100
AcDbEntity
  8
ケースＡ-AM_0
 48
0.2
 60
     1
100
AcDbCircle
 10
3137.039548552272
 20
697.5957715755036
 30
0.0
 40
0.25
100
AcDbArc
 50
90.0
 51
180.0
  0
ARC
  5
92B80
330
1F
100
AcDbEntity
  8
ケースＡ-AM_0
 60
     1
100
AcDbCircle
 10
2922.738853470456
 20
569.5785352150007
 30
0.0
 40
0.5
100
AcDbArc
 50
180.0000000000032
 51
270.0
  0
ARC
  5
92B82
330
1F
100
AcDbEntity
  8
ケースＡ-AM_0
 60
     1
100
AcDbCircle
 10
2922.738853470456
 20
577.6785352150007
 30
0.0
 40
0.5
100
AcDbArc
 50
90.0
 51
180.0
  0
ARC
  5
92EFD
330
1F
100
AcDbEntity
  8
ケースＡ-AM_0
 60
     1
100
AcDbCircle
 10
3029.651177246152
 20
569.5785352150007
 30
0.0
 40
0.5
100
AcDbArc
 50
180.0000000000032
 51
270.0
  0
ARC
  5
92EFF
330
1F
100
AcDbEntity
  8
ケースＡ-AM_0
 60
     1
100
AcDbCircle
 10
3029.651177246152
 20
577.6785352150007
 30
0.0
 40
0.5
100
AcDbArc
 50
90.0
 51
180.0
  0
ARC
  5
94474
330
1F
100
AcDbEntity
  8
ケースＡ-AM_0
 60
     1
100
AcDbCircle
 10
3355.222800899892
 20
569.578535215001
 30
0.0
 40
0.5
100
AcDbArc
 50
180.0000000000032
 51
270.0
  0
ARC
  5
94476
330
1F
100
AcDbEntity
  8
ケースＡ-AM_0
 60
     1
100
AcDbCircle
 10
3355.222800899892
 20
577.6785352150008
 30
0.0
 40
0.5
100
AcDbArc
 50
90.0
 51
180.0
  0
ARC
  5
947CE
330
1F
100
AcDbEntity
  8
ケースＡ-AM_0
 48
0.2
 60
     1
100
AcDbCircle
 10
3629.634645828591
 20
693.5457760702196
 30
0.0
 40
0.25
100
AcDbArc
 50
180.0
 51
270.0
  0
ARC
  5
947D0
330
1F
100
AcDbEntity
  8
ケースＡ-AM_0
 48
0.2
 60
     1
100
AcDbCircle
 10
3629.634645828591
 20
697.5957760702195
 30
0.0
 40
0.25
100
AcDbArc
 50
90.0
 51
180.0
  0
ARC
  5
94A10
330
1F
100
AcDbEntity
  8
ケースＡ-AM_0
 48
0.2
 60
     1
100
AcDbCircle
 10
3569.523500059048
 20
693.5457715755041
 30
0.0
 40
0.25
100
AcDbArc
 50
180.0
 51
270.0
  0
ARC
  5
94A12
330
1F
100
AcDbEntity
  8
ケースＡ-AM_0
 48
0.2
 60
     1
100
AcDbCircle
 10
3569.523500059048
 20
697.595771575504
 30
0.0
 40
0.25
100
AcDbArc
 50
90.0
 51
180.0
  0
ARC
  5
94DA6
330
1F
100
AcDbEntity
  8
ケースＡ-AM_0
 60
     1
100
AcDbCircle
 10
3462.135124675588
 20
569.578535215001
 30
0.0
 40
0.5
100
AcDbArc
 50
180.0000000000032
 51
270.0
  0
ARC
  5
94DA8
330
1F
100
AcDbEntity
  8
ケースＡ-AM_0
 60
     1
100
AcDbCircle
 10
3462.135124675588
 20
577.6785352150008
 30
0.0
 40
0.5
100
AcDbArc
 50
90.0
 51
180.0
  0
MTEXT
  5
CD592
330
1F
100
AcDbEntity
  8
AM_5
 62
     2
100
AcDbMText
 10
1781.104515508141
 20
-23.09974854420707
 30
0.0
 40
3.2
 41
0.0
 71
     9
 72
     5
  1

 73
     1
 44
1.0
  0
MTEXT
  5
CD597
330
1F
100
AcDbEntity
  8
AM_5
 62
     2
100
AcDbMText
 10
1787.504515508142
 20
-23.09974854420707
 30
0.0
 40
3.2
 41
0.0
 71
     7
 72
     5
  1

 73
     1
 44
1.0
  0
LINE
  5
D7DDA
330
1F
100
AcDbEntity
  8
AM_2
100
AcDbLine
 10
1488.92309784015
 20
-96.5037883664636
 30
0.0
 11
1488.92309784015
 21
-128.5037883664636
 31
0.0
  0
LINE
  5
D7DDB
330
1F
100
AcDbEntity
  8
AM_2
100
AcDbLine
 10
1468.923097840149
 20
-104.5037883664636
 30
0.0
 11
1578.92309784015
 21
-104.5037883664636
 31
0.0
  0
LINE
  5
D7DDC
330
1F
100
AcDbEntity
  8
AM_2
100
AcDbLine
 10
1468.923097840149
 20
-112.5037883664636
 30
0.0
 11
1578.92309784015
 21
-112.5037883664636
 31
0.0
  0
LINE
  5
D7DDD
330
1F
100
AcDbEntity
  8
AM_2
100
AcDbLine
 10
1468.923097840149
 20
-120.5037883664636
 30
0.0
 11
1578.92309784015
 21
-120.5037883664636
 31
0.0
  0
LINE
  5
D7DE0
330
1F
100
AcDbEntity
  8
AM_0
100
AcDbLine
 10
1468.923097840149
 20
-96.5037883664636
 30
0.0
 11
1578.92309784015
 21
-96.5037883664636
 31
0.0
  0
LINE
  5
D7DE1
330
1F
100
AcDbEntity
  8
AM_1
100
AcDbLine
 10
1468.923097840149
 20
-128.5037883664636
 30
0.0
 11
1578.92309784015
 21
-128.5037883664636
 31
0.0
  0
TEXT
  5
D7DE3
330
1F
100
AcDbEntity
  8
AM_6
100
AcDbText
 10
1474.58009784015
 20
-102.1037883664636
 30
0.0
 40
3.2
  1
品　名
 41
0.85537027
100
AcDbText
  0
TEXT
  5
D7DE4
330
1F
100
AcDbEntity
  8
AM_6
100
AcDbText
 10
1474.58009784015
 20
-110.1037883664636
 30
0.0
 40
3.2
  1
品　番
 41
0.85537027
100
AcDbText
  0
TEXT
  5
D7DE5
330
1F
100
AcDbEntity
  8
AM_6
100
AcDbText
 10
1474.58009784015
 20
-118.1037883664636
 30
0.0
 40
3.2
  1
材　質
 41
0.85537027
100
AcDbText
  0
TEXT
  5
D7DE6
330
1F
100
AcDbEntity
  8
AM_6
100
AcDbText
 10
1474.58009784015
 20
-126.1037883664636
 30
0.0
 40
3.2
  1
仕上げ
 41
0.85537027
100
AcDbText
  0
LINE
  5
D7DE9
330
1F
100
AcDbEntity
  8
size
100
AcDbLine
 10
1457.423097840149
 20
-385.0037883664636
 30
0.0
 11
1877.42309784015
 21
-385.0037883664636
 31
0.0
1001
GENIUS_GENREC_14
1002
{
1000
PYDIR
1011
1457.423097840149
1021
-88.00378836646359
1031
0.0
1002
}
1002
{
1000
PXDIR
1011
1877.42309784015
1021
-385.0037883664636
1031
0.0
1002
}
1002
{
1000
PORI
1011
1457.423097840149
1021
-385.0037883664636
1031
0.0
1002
}
1002
{
1000
PINS
1011
1667.423097840149
1021
-236.5037883664636
1031
0.0
1002
}
1002
{
1000
HVAL
1000
297
1002
}
1002
{
1000
H
1070
     2
1002
}
1002
{
1000
WVAL
1000
420
1002
}
1002
{
1000
W
1070
     2
1002
}
1002
{
1000
C
1070
     4
1002
}
1001
GENIUS_GENOBJ-N-REC_13
1002
{
1000
OWNER
1000
GEN
1002
}
1001
GENIUS_GENODEF_13
1002
{
1000
HIER
1070
     0
1002
}
1002
{
1000
MANEDIT
1070
     0
1002
}
1002
{
1000
NOSEL
1070
     0
1002
}
1002
{
1000
BEHIND
1070
     0
1002
}
1002
{
1000
OTHER
1070
     0
1002
}
1002
{
1000
REACTOR
1002
}
  0
LINE
  5
D7DEA
330
1F
100
AcDbEntity
  8
size
100
AcDbLine
 10
1877.42309784015
 20
-385.0037883664636
 30
0.0
 11
1877.42309784015
 21
-88.00378836646359
 31
0.0
1001
GENIUS_GENREC_14
1002
{
1000
PYDIR
1011
1457.423097840149
1021
-88.00378836646359
1031
0.0
1002
}
1002
{
1000
PXDIR
1011
1877.42309784015
1021
-385.0037883664636
1031
0.0
1002
}
1002
{
1000
PORI
1011
1457.423097840149
1021
-385.0037883664636
1031
0.0
1002
}
1002
{
1000
PINS
1011
1667.423097840149
1021
-236.5037883664636
1031
0.0
1002
}
1002
{
1000
HVAL
1000
297
1002
}
1002
{
1000
H
1070
     2
1002
}
1002
{
1000
WVAL
1000
420
1002
}
1002
{
1000
W
1070
     2
1002
}
1002
{
1000
C
1070
     4
1002
}
1001
GENIUS_GENOBJ-N-REC_13
1002
{
1000
OWNER
1000
GEN
1002
}
1001
GENIUS_GENODEF_13
1002
{
1000
HIER
1070
     0
1002
}
1002
{
1000
MANEDIT
1070
     0
1002
}
1002
{
1000
NOSEL
1070
     0
1002
}
1002
{
1000
BEHIND
1070
     0
1002
}
1002
{
1000
OTHER
1070
     0
1002
}
1002
{
1000
REACTOR
1002
}
  0
LINE
  5
D7DEB
330
1F
100
AcDbEntity
  8
size
100
AcDbLine
 10
1457.423097840149
 20
-88.00378836646359
 30
0.0
 11
1457.423097840149
 21
-385.0037883664636
 31
0.0
1001
GENIUS_GENREC_14
1002
{
1000
PYDIR
1011
1457.423097840149
1021
-88.00378836646359
1031
0.0
1002
}
1002
{
1000
PXDIR
1011
1877.42309784015
1021
-385.0037883664636
1031
0.0
1002
}
1002
{
1000
PORI
1011
1457.423097840149
1021
-385.0037883664636
1031
0.0
1002
}
1002
{
1000
PINS
1011
1667.423097840149
1021
-236.5037883664636
1031
0.0
1002
}
1002
{
1000
HVAL
1000
297
1002
}
1002
{
1000
H
1070
     2
1002
}
1002
{
1000
WVAL
1000
420
1002
}
1002
{
1000
W
1070
     2
1002
}
1002
{
1000
C
1070
     4
1002
}
1001
GENIUS_GENOBJ-N-REC_13
1002
{
1000
OWNER
1000
GEN
1002
}
1001
GENIUS_GENODEF_13
1002
{
1000
HIER
1070
     0
1002
}
1002
{
1000
MANEDIT
1070
     0
1002
}
1002
{
1000
NOSEL
1070
     0
1002
}
1002
{
1000
BEHIND
1070
     0
1002
}
1002
{
1000
OTHER
1070
     0
1002
}
1002
{
1000
REACTOR
1002
}
  0
LINE
  5
D7DEC
330
1F
100
AcDbEntity
  8
waku
100
AcDbLine
 10
1865.923097840149
 20
-376.5037883664636
 30
0.0
 11
1865.923097840149
 21
-96.5037883664636
 31
0.0
1001
GENIUS_GENREC_14
1002
{
1000
PYDIR
1011
1457.423097840149
1021
-88.00378836646359
1031
0.0
1002
}
1002
{
1000
PXDIR
1011
1877.42309784015
1021
-385.0037883664636
1031
0.0
1002
}
1002
{
1000
PORI
1011
1457.423097840149
1021
-385.0037883664636
1031
0.0
1002
}
1002
{
1000
PINS
1011
1667.423097840149
1021
-236.5037883664636
1031
0.0
1002
}
1002
{
1000
HVAL
1000
297
1002
}
1002
{
1000
H
1070
     2
1002
}
1002
{
1000
WVAL
1000
420
1002
}
1002
{
1000
W
1070
     2
1002
}
1002
{
1000
C
1070
     4
1002
}
1001
GENIUS_GENOBJ-N-REC_13
1002
{
1000
OWNER
1000
GEN
1002
}
1001
GENIUS_GENODEF_13
1002
{
1000
HIER
1070
     0
1002
}
1002
{
1000
MANEDIT
1070
     0
1002
}
1002
{
1000
NOSEL
1070
     0
1002
}
1002
{
1000
BEHIND
1070
     0
1002
}
1002
{
1000
OTHER
1070
     0
1002
}
1002
{
1000
REACTOR
1002
}
  0
LINE
  5
D7DED
330
1F
100
AcDbEntity
  8
waku
100
AcDbLine
 10
1468.923097840149
 20
-96.5037883664636
 30
0.0
 11
1468.923097840149
 21
-376.5037883664636
 31
0.0
1001
GENIUS_GENREC_14
1002
{
1000
PYDIR
1011
1457.423097840149
1021
-88.00378836646359
1031
0.0
1002
}
1002
{
1000
PXDIR
1011
1877.42309784015
1021
-385.0037883664636
1031
0.0
1002
}
1002
{
1000
PORI
1011
1457.423097840149
1021
-385.0037883664636
1031
0.0
1002
}
1002
{
1000
PINS
1011
1667.423097840149
1021
-236.5037883664636
1031
0.0
1002
}
1002
{
1000
HVAL
1000
297
1002
}
1002
{
1000
H
1070
     2
1002
}
1002
{
1000
WVAL
1000
420
1002
}
1002
{
1000
W
1070
     2
1002
}
1002
{
1000
C
1070
     4
1002
}
1001
GENIUS_GENOBJ-N-REC_13
1002
{
1000
OWNER
1000
GEN
1002
}
1001
GENIUS_GENODEF_13
1002
{
1000
HIER
1070
     0
1002
}
1002
{
1000
MANEDIT
1070
     0
1002
}
1002
{
1000
NOSEL
1070
     0
1002
}
1002
{
1000
BEHIND
1070
     0
1002
}
1002
{
1000
OTHER
1070
     0
1002
}
1002
{
1000
REACTOR
1002
}
  0
LINE
  5
D7DEE
330
1F
100
AcDbEntity
  8
waku
100
AcDbLine
 10
1865.923097840149
 20
-96.5037883664636
 30
0.0
 11
1468.923097840149
 21
-96.5037883664636
 31
0.0
1001
GENIUS_GENREC_14
1002
{
1000
PYDIR
1011
1457.423097840149
1021
-88.00378836646359
1031
0.0
1002
}
1002
{
1000
PXDIR
1011
1877.42309784015
1021
-385.0037883664636
1031
0.0
1002
}
1002
{
1000
PORI
1011
1457.423097840149
1021
-385.0037883664636
1031
0.0
1002
}
1002
{
1000
PINS
1011
1667.423097840149
1021
-236.5037883664636
1031
0.0
1002
}
1002
{
1000
HVAL
1000
297
1002
}
1002
{
1000
H
1070
     2
1002
}
1002
{
1000
WVAL
1000
420
1002
}
1002
{
1000
W
1070
     2
1002
}
1002
{
1000
C
1070
     4
1002
}
1001
GENIUS_GENOBJ-N-REC_13
1002
{
1000
OWNER
1000
GEN
1002
}
1001
GENIUS_GENODEF_13
1002
{
1000
HIER
1070
     0
1002
}
1002
{
1000
MANEDIT
1070
     0
1002
}
1002
{
1000
NOSEL
1070
     0
1002
}
1002
{
1000
BEHIND
1070
     0
1002
}
1002
{
1000
OTHER
1070
     0
1002
}
1002
{
1000
REACTOR
1002
}
  0
LINE
  5
D7DEF
330
1F
100
AcDbEntity
  8
waku
100
AcDbLine
 10
1468.923097840149
 20
-376.5037883664636
 30
0.0
 11
1865.923097840149
 21
-376.5037883664636
 31
0.0
  0
LINE
  5
D7DF0
330
1F
100
AcDbEntity
  8
size
100
AcDbLine
 10
1457.423097840149
 20
-88.00378836646359
 30
0.0
 11
1877.42309784015
 21
-88.00378836646359
 31
0.0
1001
GENIUS_GENREC_14
1002
{
1000
PYDIR
1011
1457.423097840149
1021
208.9962116335364
1031
0.0
1002
}
1002
{
1000
PXDIR
1011
1877.42309784015
1021
-88.00378836646359
1031
0.0
1002
}
1002
{
1000
PORI
1011
1457.423097840149
1021
-88.00378836646359
1031
0.0
1002
}
1002
{
1000
PINS
1011
1667.423097840149
1021
60.4962116335364
1031
0.0
1002
}
1002
{
1000
HVAL
1000
297
1002
}
1002
{
1000
H
1070
     2
1002
}
1002
{
1000
WVAL
1000
420
1002
}
1002
{
1000
W
1070
     2
1002
}
1002
{
1000
C
1070
     4
1002
}
1001
GENIUS_GENOBJ-N-REC_13
1002
{
1000
OWNER
1000
GEN
1002
}
1001
GENIUS_GENODEF_13
1002
{
1000
HIER
1070
     0
1002
}
1002
{
1000
MANEDIT
1070
     0
1002
}
1002
{
1000
NOSEL
1070
     0
1002
}
1002
{
1000
BEHIND
1070
     0
1002
}
1002
{
1000
OTHER
1070
     0
1002
}
1002
{
1000
REACTOR
1002
}
  0
LINE
  5
D7DF8
330
1F
100
AcDbEntity
  8
AM_1
100
AcDbLine
 10
1578.923097840149
 20
-96.5037883664636
 30
0.0
 11
1578.92309784015
 21
-128.5037883664636
 31
0.0
  0
LINE
  5
DD6A5
330
1F
100
AcDbEntity
  8
AM_0
100
AcDbLine
 10
1716.966061464933
 20
-247.2528402671571
 30
0.0
 11
1629.966061464934
 21
-247.2528402671587
 31
0.0
  0
LINE
  5
DD6A6
330
1F
100
AcDbEntity
  8
AM_0
100
AcDbLine
 10
1640.466061464933
 20
-256.2528402671558
 30
0.0
 11
1706.466061464933
 21
-256.252840267158
 31
0.0
  0
LINE
  5
DD6A7
330
1F
100
AcDbEntity
  8
AM_0
100
AcDbLine
 10
1753.658195538375
 20
-247.2528402671576
 30
0.0
 11
1754.708195538375
 21
-247.2528402671576
 31
0.0
  0
LINE
  5
DD6A8
330
1F
100
AcDbEntity
  8
AM_0
100
AcDbLine
 10
1764.608195538374
 20
-247.2528402671576
 30
0.0
 11
1765.658195538375
 21
-247.2528402671573
 31
0.0
  0
ARC
  5
DD6A9
330
1F
100
AcDbEntity
  8
AM_0
100
AcDbCircle
 10
1754.708195538375
 20
-247.452840267157
 30
0.0
 40
0.2
100
AcDbArc
 50
0.0
 51
90.0
1001
GENIUS_GENODEF_13
1002
{
1000
HIER
1070
     0
1002
}
1002
{
1000
MANEDIT
1070
     0
1002
}
1002
{
1000
NOSEL
1070
     0
1002
}
1002
{
1000
BEHIND
1070
     0
1002
}
1002
{
1000
OTHER
1070
     0
1002
}
1002
{
1000
REACTOR
1002
}
1001
GENIUS_GENOBJ-N-FIL_13
1002
{
1000
OWNER
1000
GEN
1002
}
  0
ARC
  5
DD6AA
330
1F
100
AcDbEntity
  8
AM_0
100
AcDbCircle
 10
1764.608195538374
 20
-247.452840267157
 30
0.0
 40
0.2
100
AcDbArc
 50
90.0
 51
180.0
1001
GENIUS_GENODEF_13
1002
{
1000
HIER
1070
     0
1002
}
1002
{
1000
MANEDIT
1070
     0
1002
}
1002
{
1000
NOSEL
1070
     0
1002
}
1002
{
1000
BEHIND
1070
     0
1002
}
1002
{
1000
OTHER
1070
     0
1002
}
1002
{
1000
REACTOR
1002
}
1001
GENIUS_GENOBJ-N-FIL_13
1002
{
1000
OWNER
1000
GEN
1002
}
  0
LINE
  5
DD6AB
330
1F
100
AcDbEntity
  8
AM_0
100
AcDbLine
 10
1766.658195538375
 20
-277.2528402671574
 30
0.0
 11
1764.408195538375
 21
-277.2528402671574
 31
0.0
  0
LINE
  5
DD6AC
330
1F
100
AcDbEntity
  8
AM_0
100
AcDbLine
 10
1764.408195538375
 20
-277.2528402671574
 30
0.0
 11
1754.908195538375
 21
-277.2528402671571
 31
0.0
  0
LINE
  5
DD6AD
330
1F
100
AcDbEntity
  8
AM_0
100
AcDbLine
 10
1754.908195538375
 20
-277.2528402671571
 30
0.0
 11
1752.658195538375
 21
-277.2528402671574
 31
0.0
  0
LINE
  5
DD6AE
330
1F
100
AcDbEntity
  8
AM_0
100
AcDbLine
 10
1764.408195538375
 20
-277.2528402671574
 30
0.0
 11
1764.408195538375
 21
-247.452840267157
 31
0.0
  0
LINE
  5
DD6AF
330
1F
100
AcDbEntity
  8
AM_0
100
AcDbLine
 10
1754.908195538375
 20
-277.2528402671574
 30
0.0
 11
1754.908195538375
 21
-247.452840267157
 31
0.0
  0
LINE
  5
DD6B0
330
1F
100
AcDbEntity
  8
AM_0
100
AcDbLine
 10
1754.908195538375
 20
-247.7528402671571
 30
0.0
 11
1764.408195538375
 21
-247.7528402671569
 31
0.0
  0
LINE
  5
DD6B1
330
1F
100
AcDbEntity
  8
AM_0
100
AcDbLine
 10
1638.466061464934
 20
-277.2528402671574
 30
0.0
 11
1628.466061464934
 21
-277.2528402671574
 31
0.0
  0
LINE
  5
DD6B2
330
1F
100
AcDbEntity
  8
AM_7
100
AcDbLine
 10
1759.658195538375
 20
-244.2528402671574
 30
0.0
 11
1759.658195538375
 21
-280.2528402671573
 31
0.0
1001
GENIUS_GENOBJ-N-CEN_13
1002
{
1000
OWNER
1000
GEN
1002
}
1001
GENIUS_GENODEF_13
1002
{
1000
HIER
1070
     0
1002
}
1002
{
1000
MANEDIT
1070
     0
1002
}
1002
{
1000
NOSEL
1070
     0
1002
}
1002
{
1000
BEHIND
1070
     0
1002
}
1002
{
1000
OTHER
1070
     0
1002
}
1002
{
1000
REACTOR
1002
}
1001
GENIUS_GENCEN_19
1002
{
1040
3.0
1002
}
  0
LINE
  5
DD6B3
330
1F
100
AcDbEntity
  8
AM_0
100
AcDbLine
 10
1717.466061464934
 20
-202.0255263009244
 30
0.0
 11
1629.466061464934
 21
-202.0255263009244
 31
0.0
1001
GENIUS_GENODEF_13
1002
{
1000
HIER
1070
     0
1002
}
1002
{
1000
MANEDIT
1070
     0
1002
}
1002
{
1000
NOSEL
1070
     0
1002
}
1002
{
1000
BEHIND
1070
     0
1002
}
1002
{
1000
OTHER
1070
     0
1002
}
1002
{
1000
REACTOR
1002
}
1001
GENIUS_GENOBJ-N-REC_13
1002
{
1000
OWNER
1000
GEN
1002
}
1001
GENIUS_GENREC_14
1002
{
1000
PYDIR
1011
1718.466061464934
1021
-216.0255263009244
1031
0.0
1002
}
1002
{
1000
PXDIR
1011
1628.466061464934
1021
-202.0255263009244
1031
0.0
1002
}
1002
{
1000
PORI
1011
1718.466061464934
1021
-202.0255263009244
1031
0.0
1002
}
1002
{
1000
PINS
1011
1718.466061464934
1021
-202.0255263009244
1031
0.0
1002
}
1002
{
1000
PINS2
1011
1628.466061464934
1021
-216.0255263009244
1031
0.0
1002
}
1002
{
1000
C
1070
     1
1002
}
  0
ARC
  5
DD6B4
330
1F
100
AcDbEntity
  8
AM_0
100
AcDbCircle
 10
1629.466061464934
 20
-203.0255263009244
 30
0.0
 40
1.0
100
AcDbArc
 50
90.0
 51
180.0
1001
GENIUS_GENODEF_13
1002
{
1000
HIER
1070
     0
1002
}
1002
{
1000
MANEDIT
1070
     0
1002
}
1002
{
1000
NOSEL
1070
     0
1002
}
1002
{
1000
BEHIND
1070
     0
1002
}
1002
{
1000
OTHER
1070
     0
1002
}
1002
{
1000
REACTOR
1002
}
1001
GENIUS_GENOBJ-N-REC_13
1002
{
1000
OWNER
1000
GEN
1002
}
1001
GENIUS_GENREC_14
1002
{
1000
PYDIR
1011
1723.466061464934
1021
-216.0255263009244
1031
0.0
1002
}
1002
{
1000
PXDIR
1011
1628.466061464934
1021
-202.0255263009244
1031
0.0
1002
}
1002
{
1000
PORI
1011
1723.466061464934
1021
-202.0255263009244
1031
0.0
1002
}
1002
{
1000
PINS
1011
1723.466061464934
1021
-202.0255263009244
1031
0.0
1002
}
1002
{
1000
PINS2
1011
1628.466061464934
1021
-216.0255263009244
1031
0.0
1002
}
1002
{
1000
C
1070
     1
1002
}
  0
LINE
  5
DD6B5
330
1F
100
AcDbEntity
  8
AM_0
100
AcDbLine
 10
1628.466061464934
 20
-203.0255263009244
 30
0.0
 11
1628.466061464934
 21
-204.0755263009241
 31
0.0
1001
GENIUS_GENODEF_13
1002
{
1000
HIER
1070
     0
1002
}
1002
{
1000
MANEDIT
1070
     0
1002
}
1002
{
1000
NOSEL
1070
     0
1002
}
1002
{
1000
BEHIND
1070
     0
1002
}
1002
{
1000
OTHER
1070
     0
1002
}
1002
{
1000
REACTOR
1002
}
1001
GENIUS_GENOBJ-N-REC_13
1002
{
1000
OWNER
1000
GEN
1002
}
1001
GENIUS_GENREC_14
1002
{
1000
PYDIR
1011
1723.466061464934
1021
-216.0255263009244
1031
0.0
1002
}
1002
{
1000
PXDIR
1011
1628.466061464934
1021
-202.0255263009244
1031
0.0
1002
}
1002
{
1000
PORI
1011
1723.466061464934
1021
-202.0255263009244
1031
0.0
1002
}
1002
{
1000
PINS
1011
1723.466061464934
1021
-202.0255263009244
1031
0.0
1002
}
1002
{
1000
PINS2
1011
1628.466061464934
1021
-216.0255263009244
1031
0.0
1002
}
1002
{
1000
C
1070
     1
1002
}
  0
LINE
  5
DD6B6
330
1F
100
AcDbEntity
  8
AM_0
100
AcDbLine
 10
1628.466061464934
 20
-213.9755263009242
 30
0.0
 11
1628.466061464934
 21
-215.0255263009246
 31
0.0
1001
GENIUS_GENODEF_13
1002
{
1000
HIER
1070
     0
1002
}
1002
{
1000
MANEDIT
1070
     0
1002
}
1002
{
1000
NOSEL
1070
     0
1002
}
1002
{
1000
BEHIND
1070
     0
1002
}
1002
{
1000
OTHER
1070
     0
1002
}
1002
{
1000
REACTOR
1002
}
1001
GENIUS_GENOBJ-N-REC_13
1002
{
1000
OWNER
1000
GEN
1002
}
1001
GENIUS_GENREC_14
1002
{
1000
PYDIR
1011
1723.466061464934
1021
-216.0255263009244
1031
0.0
1002
}
1002
{
1000
PXDIR
1011
1628.466061464934
1021
-202.0255263009244
1031
0.0
1002
}
1002
{
1000
PORI
1011
1723.466061464934
1021
-202.0255263009244
1031
0.0
1002
}
1002
{
1000
PINS
1011
1723.466061464934
1021
-202.0255263009244
1031
0.0
1002
}
1002
{
1000
PINS2
1011
1628.466061464934
1021
-216.0255263009244
1031
0.0
1002
}
1002
{
1000
C
1070
     1
1002
}
  0
ARC
  5
DD6B7
330
1F
100
AcDbEntity
  8
AM_0
100
AcDbCircle
 10
1629.466061464934
 20
-215.0255263009246
 30
0.0
 40
1.0
100
AcDbArc
 50
180.0
 51
270.0
1001
GENIUS_GENODEF_13
1002
{
1000
HIER
1070
     0
1002
}
1002
{
1000
MANEDIT
1070
     0
1002
}
1002
{
1000
NOSEL
1070
     0
1002
}
1002
{
1000
BEHIND
1070
     0
1002
}
1002
{
1000
OTHER
1070
     0
1002
}
1002
{
1000
REACTOR
1002
}
1001
GENIUS_GENOBJ-N-REC_13
1002
{
1000
OWNER
1000
GEN
1002
}
1001
GENIUS_GENREC_14
1002
{
1000
PYDIR
1011
1723.466061464934
1021
-216.0255263009244
1031
0.0
1002
}
1002
{
1000
PXDIR
1011
1628.466061464934
1021
-202.0255263009244
1031
0.0
1002
}
1002
{
1000
PORI
1011
1723.466061464934
1021
-202.0255263009244
1031
0.0
1002
}
1002
{
1000
PINS
1011
1723.466061464934
1021
-202.0255263009244
1031
0.0
1002
}
1002
{
1000
PINS2
1011
1628.466061464934
1021
-216.0255263009244
1031
0.0
1002
}
1002
{
1000
C
1070
     1
1002
}
  0
LINE
  5
DD6B8
330
1F
100
AcDbEntity
  8
AM_0
100
AcDbLine
 10
1629.466061464934
 20
-216.0255263009247
 30
0.0
 11
1717.466061464934
 21
-216.0255263009244
 31
0.0
1001
GENIUS_GENODEF_13
1002
{
1000
HIER
1070
     0
1002
}
1002
{
1000
MANEDIT
1070
     0
1002
}
1002
{
1000
NOSEL
1070
     0
1002
}
1002
{
1000
BEHIND
1070
     0
1002
}
1002
{
1000
OTHER
1070
     0
1002
}
1002
{
1000
REACTOR
1002
}
1001
GENIUS_GENOBJ-N-REC_13
1002
{
1000
OWNER
1000
GEN
1002
}
1001
GENIUS_GENREC_14
1002
{
1000
PYDIR
1011
1718.466061464934
1021
-216.0255263009244
1031
0.0
1002
}
1002
{
1000
PXDIR
1011
1628.466061464934
1021
-202.0255263009244
1031
0.0
1002
}
1002
{
1000
PORI
1011
1718.466061464934
1021
-202.0255263009244
1031
0.0
1002
}
1002
{
1000
PINS
1011
1718.466061464934
1021
-202.0255263009244
1031
0.0
1002
}
1002
{
1000
PINS2
1011
1628.466061464934
1021
-216.0255263009244
1031
0.0
1002
}
1002
{
1000
C
1070
     1
1002
}
  0
ARC
  5
DD6B9
330
1F
100
AcDbEntity
  8
AM_0
100
AcDbCircle
 10
1717.466061464934
 20
-215.0255263009244
 30
0.0
 40
1.0
100
AcDbArc
 50
270.0
 51
0.0
1001
GENIUS_GENODEF_13
1002
{
1000
HIER
1070
     0
1002
}
1002
{
1000
MANEDIT
1070
     0
1002
}
1002
{
1000
NOSEL
1070
     0
1002
}
1002
{
1000
BEHIND
1070
     0
1002
}
1002
{
1000
OTHER
1070
     0
1002
}
1002
{
1000
REACTOR
1002
}
1001
GENIUS_GENOBJ-N-REC_13
1002
{
1000
OWNER
1000
GEN
1002
}
1001
GENIUS_GENREC_14
1002
{
1000
PYDIR
1011
1718.466061464934
1021
-216.0255263009244
1031
0.0
1002
}
1002
{
1000
PXDIR
1011
1623.466061464934
1021
-202.0255263009244
1031
0.0
1002
}
1002
{
1000
PORI
1011
1718.466061464934
1021
-202.0255263009244
1031
0.0
1002
}
1002
{
1000
PINS
1011
1718.466061464934
1021
-202.0255263009244
1031
0.0
1002
}
1002
{
1000
PINS2
1011
1623.466061464934
1021
-216.0255263009244
1031
0.0
1002
}
1002
{
1000
C
1070
     1
1002
}
  0
LINE
  5
DD6BA
330
1F
100
AcDbEntity
  8
AM_0
100
AcDbLine
 10
1718.466061464934
 20
-215.0255263009244
 30
0.0
 11
1718.466061464934
 21
-213.9755263009242
 31
0.0
1001
GENIUS_GENODEF_13
1002
{
1000
HIER
1070
     0
1002
}
1002
{
1000
MANEDIT
1070
     0
1002
}
1002
{
1000
NOSEL
1070
     0
1002
}
1002
{
1000
BEHIND
1070
     0
1002
}
1002
{
1000
OTHER
1070
     0
1002
}
1002
{
1000
REACTOR
1002
}
1001
GENIUS_GENOBJ-N-REC_13
1002
{
1000
OWNER
1000
GEN
1002
}
1001
GENIUS_GENREC_14
1002
{
1000
PYDIR
1011
1718.466061464934
1021
-216.0255263009244
1031
0.0
1002
}
1002
{
1000
PXDIR
1011
1623.466061464934
1021
-202.0255263009244
1031
0.0
1002
}
1002
{
1000
PORI
1011
1718.466061464934
1021
-202.0255263009244
1031
0.0
1002
}
1002
{
1000
PINS
1011
1718.466061464934
1021
-202.0255263009244
1031
0.0
1002
}
1002
{
1000
PINS2
1011
1623.466061464934
1021
-216.0255263009244
1031
0.0
1002
}
1002
{
1000
C
1070
     1
1002
}
  0
LINE
  5
DD6BB
330
1F
100
AcDbEntity
  8
AM_0
100
AcDbLine
 10
1718.466061464934
 20
-204.0755263009241
 30
0.0
 11
1718.466061464934
 21
-203.0255263009244
 31
0.0
1001
GENIUS_GENODEF_13
1002
{
1000
HIER
1070
     0
1002
}
1002
{
1000
MANEDIT
1070
     0
1002
}
1002
{
1000
NOSEL
1070
     0
1002
}
1002
{
1000
BEHIND
1070
     0
1002
}
1002
{
1000
OTHER
1070
     0
1002
}
1002
{
1000
REACTOR
1002
}
1001
GENIUS_GENOBJ-N-REC_13
1002
{
1000
OWNER
1000
GEN
1002
}
1001
GENIUS_GENREC_14
1002
{
1000
PYDIR
1011
1718.466061464934
1021
-216.0255263009244
1031
0.0
1002
}
1002
{
1000
PXDIR
1011
1623.466061464934
1021
-202.0255263009244
1031
0.0
1002
}
1002
{
1000
PORI
1011
1718.466061464934
1021
-202.0255263009244
1031
0.0
1002
}
1002
{
1000
PINS
1011
1718.466061464934
1021
-202.0255263009244
1031
0.0
1002
}
1002
{
1000
PINS2
1011
1623.466061464934
1021
-216.0255263009244
1031
0.0
1002
}
1002
{
1000
C
1070
     1
1002
}
  0
ARC
  5
DD6BC
330
1F
100
AcDbEntity
  8
AM_0
100
AcDbCircle
 10
1718.266061464934
 20
-213.9755263009242
 30
0.0
 40
0.2
100
AcDbArc
 50
0.0
 51
90.0
1001
GENIUS_GENOBJ-N-REC_13
1002
{
1000
OWNER
1000
GEN
1002
}
1001
GENIUS_GENREC_14
1002
{
1000
PYDIR
1011
1718.466061464934
1021
-216.0255263009244
1031
0.0
1002
}
1002
{
1000
PXDIR
1011
1623.466061464934
1021
-202.0255263009244
1031
0.0
1002
}
1002
{
1000
PORI
1011
1718.466061464934
1021
-202.0255263009244
1031
0.0
1002
}
1002
{
1000
PINS
1011
1718.466061464934
1021
-202.0255263009244
1031
0.0
1002
}
1002
{
1000
PINS2
1011
1623.466061464934
1021
-216.0255263009244
1031
0.0
1002
}
1002
{
1000
C
1070
     1
1002
}
1001
GENIUS_GENODEF_13
1002
{
1000
HIER
1070
     0
1002
}
1002
{
1000
MANEDIT
1070
     0
1002
}
1002
{
1000
NOSEL
1070
     0
1002
}
1002
{
1000
BEHIND
1070
     0
1002
}
1002
{
1000
OTHER
1070
     0
1002
}
1002
{
1000
REACTOR
1002
}
1001
GENIUS_GENOBJ-N-FIL_13
1002
{
1000
OWNER
1000
GEN
1002
}
  0
ARC
  5
DD6BD
330
1F
100
AcDbEntity
  8
AM_0
100
AcDbCircle
 10
1717.466061464934
 20
-203.0255263009244
 30
0.0
 40
1.0
100
AcDbArc
 50
0.0
 51
90.0
1001
GENIUS_GENODEF_13
1002
{
1000
HIER
1070
     0
1002
}
1002
{
1000
MANEDIT
1070
     0
1002
}
1002
{
1000
NOSEL
1070
     0
1002
}
1002
{
1000
BEHIND
1070
     0
1002
}
1002
{
1000
OTHER
1070
     0
1002
}
1002
{
1000
REACTOR
1002
}
1001
GENIUS_GENOBJ-N-REC_13
1002
{
1000
OWNER
1000
GEN
1002
}
1001
GENIUS_GENREC_14
1002
{
1000
PYDIR
1011
1718.466061464934
1021
-216.0255263009244
1031
0.0
1002
}
1002
{
1000
PXDIR
1011
1623.466061464934
1021
-202.0255263009244
1031
0.0
1002
}
1002
{
1000
PORI
1011
1718.466061464934
1021
-202.0255263009244
1031
0.0
1002
}
1002
{
1000
PINS
1011
1718.466061464934
1021
-202.0255263009244
1031
0.0
1002
}
1002
{
1000
PINS2
1011
1623.466061464934
1021
-216.0255263009244
1031
0.0
1002
}
1002
{
1000
C
1070
     1
1002
}
  0
LINE
  5
DD6BF
330
1F
100
AcDbEntity
  8
AM_0
100
AcDbLine
 10
1628.666061464934
 20
-213.7755263009183
 30
0.0
 11
1718.266061464934
 21
-213.7755263009242
 31
0.0
1001
GENIUS_GENODEF_13
1002
{
1000
HIER
1070
     0
1002
}
1002
{
1000
MANEDIT
1070
     0
1002
}
1002
{
1000
NOSEL
1070
     0
1002
}
1002
{
1000
BEHIND
1070
     0
1002
}
1002
{
1000
OTHER
1070
     0
1002
}
1002
{
1000
REACTOR
1002
}
1001
GENIUS_GENOBJ-N-REC_13
1002
{
1000
OWNER
1000
GEN
1002
}
1001
GENIUS_GENREC_14
1002
{
1000
PYDIR
1011
1718.466061464934
1021
-213.7755263009244
1031
0.0
1002
}
1002
{
1000
PXDIR
1011
1628.466061464934
1021
-200.0255263009244
1031
0.0
1002
}
1002
{
1000
PORI
1011
1718.466061464934
1021
-200.0255263009244
1031
0.0
1002
}
1002
{
1000
PINS
1011
1718.466061464934
1021
-200.0255263009244
1031
0.0
1002
}
1002
{
1000
PINS2
1011
1628.466061464934
1021
-213.7755263009244
1031
0.0
1002
}
1002
{
1000
C
1070
     1
1002
}
  0
LINE
  5
DD6C0
330
1F
100
AcDbEntity
  8
AM_0
100
AcDbLine
 10
1628.666061464934
 20
-204.2755263009183
 30
0.0
 11
1718.266061464934
 21
-204.2755263009242
 31
0.0
1001
GENIUS_GENODEF_13
1002
{
1000
HIER
1070
     0
1002
}
1002
{
1000
MANEDIT
1070
     0
1002
}
1002
{
1000
NOSEL
1070
     0
1002
}
1002
{
1000
BEHIND
1070
     0
1002
}
1002
{
1000
OTHER
1070
     0
1002
}
1002
{
1000
REACTOR
1002
}
1001
GENIUS_GENOBJ-N-REC_13
1002
{
1000
OWNER
1000
GEN
1002
}
1001
GENIUS_GENREC_14
1002
{
1000
PYDIR
1011
1718.466061464934
1021
-204.2755263009244
1031
0.0
1002
}
1002
{
1000
PXDIR
1011
1628.466061464934
1021
-190.0255263009244
1031
0.0
1002
}
1002
{
1000
PORI
1011
1718.466061464934
1021
-190.0255263009244
1031
0.0
1002
}
1002
{
1000
PINS
1011
1718.466061464934
1021
-190.0255263009244
1031
0.0
1002
}
1002
{
1000
PINS2
1011
1628.466061464934
1021
-204.2755263009244
1031
0.0
1002
}
1002
{
1000
C
1070
     1
1002
}
  0
ARC
  5
DD6C1
330
1F
100
AcDbEntity
  8
AM_0
100
AcDbCircle
 10
1718.266061464934
 20
-204.0755263009241
 30
0.0
 40
0.2
100
AcDbArc
 50
270.0
 51
0.0
1001
GENIUS_GENOBJ-N-REC_13
1002
{
1000
OWNER
1000
GEN
1002
}
1001
GENIUS_GENREC_14
1002
{
1000
PYDIR
1011
1718.466061464934
1021
-204.2755263009244
1031
0.0
1002
}
1002
{
1000
PXDIR
1011
1623.466061464934
1021
-190.0255263009244
1031
0.0
1002
}
1002
{
1000
PORI
1011
1718.466061464934
1021
-190.0255263009244
1031
0.0
1002
}
1002
{
1000
PINS
1011
1718.466061464934
1021
-190.0255263009244
1031
0.0
1002
}
1002
{
1000
PINS2
1011
1623.466061464934
1021
-204.0255263009244
1031
0.0
1002
}
1002
{
1000
C
1070
     1
1002
}
1001
GENIUS_GENODEF_13
1002
{
1000
HIER
1070
     0
1002
}
1002
{
1000
MANEDIT
1070
     0
1002
}
1002
{
1000
NOSEL
1070
     0
1002
}
1002
{
1000
BEHIND
1070
     0
1002
}
1002
{
1000
OTHER
1070
     0
1002
}
1002
{
1000
REACTOR
1002
}
1001
GENIUS_GENOBJ-N-FIL_13
1002
{
1000
OWNER
1000
GEN
1002
}
  0
LINE
  5
DD6C2
330
1F
100
AcDbEntity
  8
AM_0
100
AcDbLine
 10
1717.966061464934
 20
-213.7755263009242
 30
0.0
 11
1717.966061464934
 21
-204.2755263009242
 31
0.0
1001
GENIUS_GENODEF_13
1002
{
1000
HIER
1070
     0
1002
}
1002
{
1000
MANEDIT
1070
     0
1002
}
1002
{
1000
NOSEL
1070
     0
1002
}
1002
{
1000
BEHIND
1070
     0
1002
}
1002
{
1000
OTHER
1070
     0
1002
}
1002
{
1000
REACTOR
1002
}
1001
GENIUS_GENOBJ-N-REC_13
1002
{
1000
OWNER
1000
GEN
1002
}
1001
GENIUS_GENREC_14
1002
{
1000
PYDIR
1011
1717.966061464934
1021
-216.0255263009244
1031
0.0
1002
}
1002
{
1000
PXDIR
1011
1622.966061464934
1021
-202.0255263009244
1031
0.0
1002
}
1002
{
1000
PORI
1011
1717.966061464934
1021
-202.0255263009244
1031
0.0
1002
}
1002
{
1000
PINS
1011
1717.966061464934
1021
-202.0255263009244
1031
0.0
1002
}
1002
{
1000
PINS2
1011
1622.966061464934
1021
-216.0255263009244
1031
0.0
1002
}
1002
{
1000
C
1070
     1
1002
}
  0
ARC
  5
DD6C3
330
1F
100
AcDbEntity
  8
AM_0
100
AcDbCircle
 10
1628.666061464934
 20
-213.9755263009242
 30
0.0
 40
0.2
100
AcDbArc
 50
90.0
 51
180.0
1001
GENIUS_GENOBJ-N-REC_13
1002
{
1000
OWNER
1000
GEN
1002
}
1001
GENIUS_GENREC_14
1002
{
1000
PYDIR
1011
1628.466061464934
1021
-216.0255263009244
1031
0.0
1002
}
1002
{
1000
PXDIR
1011
1723.466061464934
1021
-202.0255263009244
1031
0.0
1002
}
1002
{
1000
PORI
1011
1628.466061464934
1021
-202.0255263009244
1031
0.0
1002
}
1002
{
1000
PINS
1011
1628.466061464934
1021
-202.0255263009244
1031
0.0
1002
}
1002
{
1000
PINS2
1011
1723.466061464934
1021
-216.0255263009244
1031
0.0
1002
}
1002
{
1000
C
1070
     1
1002
}
1001
GENIUS_GENODEF_13
1002
{
1000
HIER
1070
     0
1002
}
1002
{
1000
MANEDIT
1070
     0
1002
}
1002
{
1000
NOSEL
1070
     0
1002
}
1002
{
1000
BEHIND
1070
     0
1002
}
1002
{
1000
OTHER
1070
     0
1002
}
1002
{
1000
REACTOR
1002
}
1001
GENIUS_GENOBJ-N-FIL_13
1002
{
1000
OWNER
1000
GEN
1002
}
  0
ARC
  5
DD6C4
330
1F
100
AcDbEntity
  8
AM_0
100
AcDbCircle
 10
1628.666061464934
 20
-204.0755263009241
 30
0.0
 40
0.2
100
AcDbArc
 50
180.0
 51
270.0
1001
GENIUS_GENOBJ-N-REC_13
1002
{
1000
OWNER
1000
GEN
1002
}
1001
GENIUS_GENREC_14
1002
{
1000
PYDIR
1011
1628.466061464934
1021
-204.2755263009244
1031
0.0
1002
}
1002
{
1000
PXDIR
1011
1723.466061464934
1021
-190.0255263009244
1031
0.0
1002
}
1002
{
1000
PORI
1011
1628.466061464934
1021
-190.0255263009244
1031
0.0
1002
}
1002
{
1000
PINS
1011
1628.466061464934
1021
-190.0255263009244
1031
0.0
1002
}
1002
{
1000
PINS2
1011
1723.466061464934
1021
-204.0255263009244
1031
0.0
1002
}
1002
{
1000
C
1070
     1
1002
}
1001
GENIUS_GENODEF_13
1002
{
1000
HIER
1070
     0
1002
}
1002
{
1000
MANEDIT
1070
     0
1002
}
1002
{
1000
NOSEL
1070
     0
1002
}
1002
{
1000
BEHIND
1070
     0
1002
}
1002
{
1000
OTHER
1070
     0
1002
}
1002
{
1000
REACTOR
1002
}
1001
GENIUS_GENOBJ-N-FIL_13
1002
{
1000
OWNER
1000
GEN
1002
}
  0
LINE
  5
DD6C5
330
1F
100
AcDbEntity
  8
AM_0
100
AcDbLine
 10
1628.966061464934
 20
-213.7755263009242
 30
0.0
 11
1628.966061464934
 21
-204.2755263009242
 31
0.0
1001
GENIUS_GENODEF_13
1002
{
1000
HIER
1070
     0
1002
}
1002
{
1000
MANEDIT
1070
     0
1002
}
1002
{
1000
NOSEL
1070
     0
1002
}
1002
{
1000
BEHIND
1070
     0
1002
}
1002
{
1000
OTHER
1070
     0
1002
}
1002
{
1000
REACTOR
1002
}
1001
GENIUS_GENOBJ-N-REC_13
1002
{
1000
OWNER
1000
GEN
1002
}
1001
GENIUS_GENREC_14
1002
{
1000
PYDIR
1011
1628.966061464934
1021
-216.0255263009244
1031
0.0
1002
}
1002
{
1000
PXDIR
1011
1723.966061464934
1021
-202.0255263009244
1031
0.0
1002
}
1002
{
1000
PORI
1011
1628.966061464934
1021
-202.0255263009244
1031
0.0
1002
}
1002
{
1000
PINS
1011
1628.966061464934
1021
-202.0255263009244
1031
0.0
1002
}
1002
{
1000
PINS2
1011
1723.966061464934
1021
-216.0255263009244
1031
0.0
1002
}
1002
{
1000
C
1070
     1
1002
}
  0
LINE
  5
DD6C6
330
1F
100
AcDbEntity
  8
AM_7
100
AcDbLine
 10
1633.466061464934
 20
-259.2528402671574
 30
0.0
 11
1633.466061464934
 21
-280.2528402671573
 31
0.0
1001
GENIUS_GENODEF_13
1002
{
1000
HIER
1070
     0
1002
}
1002
{
1000
MANEDIT
1070
     0
1002
}
1002
{
1000
NOSEL
1070
     0
1002
}
1002
{
1000
BEHIND
1070
     0
1002
}
1002
{
1000
OTHER
1070
     0
1002
}
1002
{
1000
REACTOR
1002
}
1001
GENIUS_GENOBJ-N-CEN_13
1002
{
1000
OWNER
1000
GEN
1002
}
1001
GENIUS_GENCEN_19
1002
{
1040
3.0
1002
}
  0
LINE
  5
DD6C7
330
1F
100
AcDbEntity
  8
AM_7
100
AcDbLine
 10
1713.466061464934
 20
-259.2528402671574
 30
0.0
 11
1713.466061464934
 21
-280.2528402671573
 31
0.0
1001
GENIUS_GENODEF_13
1002
{
1000
HIER
1070
     0
1002
}
1002
{
1000
MANEDIT
1070
     0
1002
}
1002
{
1000
NOSEL
1070
     0
1002
}
1002
{
1000
BEHIND
1070
     0
1002
}
1002
{
1000
OTHER
1070
     0
1002
}
1002
{
1000
REACTOR
1002
}
1001
GENIUS_GENOBJ-N-CEN_13
1002
{
1000
OWNER
1000
GEN
1002
}
1001
GENIUS_GENCEN_19
1002
{
1040
3.0
1002
}
  0
DIMENSION
  5
DD6C9
330
1F
100
AcDbEntity
  8
AM_5
100
AcDbDimension
  2
*D4
 10
1633.466061464934
 20
-292.2528402671574
 30
0.0
 11
1673.80095798132
 21
-292.2528402671574
 31
0.0
 70
   160
  1
P＝<>
 71
     5
 42
80.0
  3
SYS$0
100
AcDbAlignedDimension
 13
1713.466061464934
 23
-280.2528402671573
 33
0.0
 14
1633.466061464934
 24
-280.2528402671573
 34
0.0
 50
180.0
100
AcDbRotatedDimension
1001
ACAD
1000
DSTYLE
1002
{
1070
   286
1070
     0
1070
   284
1070
     8
1070
   274
1070
     2
1070
   272
1070
     2
1070
    47
1040
0.2
1070
    48
1040
0.2
1002
}
  0
DIMENSION
  5
DD6CA
330
1F
100
AcDbEntity
  8
AM_5
100
AcDbDimension
  2
*D5
 10
1628.466061464934
 20
-192.0255263009244
 30
0.0
 11
1673.466061464934
 21
-188.9255263009244
 31
0.0
 70
    32
  1
<>
 71
     5
 42
90.0
  3
SYS$0
100
AcDbAlignedDimension
 13
1718.466061464934
 23
-203.0255263009244
 33
0.0
 14
1628.466061464934
 24
-203.0255263009244
 34
0.0
 50
180.0
100
AcDbRotatedDimension
  0
DIMENSION
  5
DD6CB
330
1F
100
AcDbEntity
  8
AM_5
100
AcDbDimension
  2
*D6
 10
1752.658195538374
 20
-292.2528402671572
 30
0.0
 11
1760.118845607639
 21
-292.2528402671572
 31
0.0
 70
   160
  1
<>
 71
     5
 42
14.00000000000091
  3
SYS$0
100
AcDbAlignedDimension
 13
1766.658195538375
 23
-277.2528402671574
 33
0.0
 14
1752.658195538374
 24
-277.2528402671574
 34
0.0
 50
180.0
100
AcDbRotatedDimension
1001
ACAD
1000
DSTYLE
1002
{
1070
   286
1070
     0
1070
   284
1070
     8
1070
   274
1070
     2
1070
   272
1070
     2
1070
    47
1040
0.3
1070
    48
1040
0.0
1002
}
  0
LINE
  5
DD6CE
330
1F
100
AcDbEntity
  8
AM_0
100
AcDbLine
 10
1628.466061464934
 20
-248.7528402671587
 30
0.0
 11
1628.466061464934
 21
-277.2528402671574
 31
0.0
  0
ARC
  5
DD6CF
330
1F
100
AcDbEntity
  8
AM_0
100
AcDbCircle
 10
1629.966061464933
 20
-248.7528402671587
 30
0.0
 40
1.5
100
AcDbArc
 50
89.99999999994789
 51
180.0
  0
LINE
  5
DD6D0
330
1F
100
AcDbEntity
  8
AM_0
100
AcDbLine
 10
1638.466061464934
 20
-277.2528402671574
 30
0.0
 11
1638.466061464933
 21
-258.2528402671558
 31
0.0
  0
ARC
  5
DD6D1
330
1F
100
AcDbEntity
  8
AM_0
100
AcDbCircle
 10
1640.466061464933
 20
-258.2528402671558
 30
0.0
 40
2.0
100
AcDbArc
 50
90.0
 51
180.0
  0
LINE
  5
DD6D2
330
1F
100
AcDbEntity
  8
AM_0
100
AcDbLine
 10
1708.466061464932
 20
-277.2528402671574
 30
0.0
 11
1718.466061464932
 21
-277.2528402671574
 31
0.0
  0
LINE
  5
DD6D3
330
1F
100
AcDbEntity
  8
AM_0
100
AcDbLine
 10
1718.466061464932
 20
-248.7528402671587
 30
0.0
 11
1718.466061464932
 21
-277.2528402671574
 31
0.0
  0
ARC
  5
DD6D4
330
1F
100
AcDbEntity
  8
AM_0
100
AcDbCircle
 10
1716.966061464933
 20
-248.7528402671587
 30
0.0
 40
1.5
100
AcDbArc
 50
0.0
 51
90.0
  0
LINE
  5
DD6D5
330
1F
100
AcDbEntity
  8
AM_0
100
AcDbLine
 10
1708.466061464932
 20
-277.2528402671574
 30
0.0
 11
1708.466061464933
 21
-258.2528402671558
 31
0.0
  0
ARC
  5
DD6D6
330
1F
100
AcDbEntity
  8
AM_0
100
AcDbCircle
 10
1706.466061464933
 20
-258.2528402671558
 30
0.0
 40
2.0
100
AcDbArc
 50
0.0
 51
90.0
  0
LINE
  5
DD6D7
330
1F
100
AcDbEntity
  8
AM_5
100
AcDbLine
 10
1599.251158940931
 20
-290.6165647452784
 30
0.0
 11
1620.031996312032
 21
-290.6165647452785
 31
0.0
  0
LINE
  5
DD6D8
330
1F
100
AcDbEntity
  8
AM_5
100
AcDbLine
 10
1620.031996312032
 20
-290.6165647452785
 30
0.0
 11
1632.01701050111
 21
-278.6505518373674
 31
0.0
  0
MTEXT
  5
DD6D9
330
1F
100
AcDbEntity
  8
AM_5
 62
     2
100
AcDbMText
 10
1608.489222246182
 20
-286.4048226185897
 30
0.0
 40
3.5
 41
0.0
 71
     5
 72
     1
  1
2-M4×12
 73
     1
 44
1.0
  0
INSERT
  5
DD6DA
330
1F
100
AcDbEntity
  8
AM_5
100
AcDbBlockReference
  2
_OPEN30
 10
1633.432345568699
 20
-277.237460670297
 30
0.0
 41
2.00000000000024
 42
2.0
 43
2.0
 50
44.95454503961748
  0
LINE
  5
DD6DB
330
1F
100
AcDbEntity
  8
AM_0
100
AcDbLine
 10
1752.658195538375
 20
-248.2528402671576
 30
0.0
 11
1752.658195538375
 21
-277.2528402671574
 31
0.0
  0
LINE
  5
DD6DC
330
1F
100
AcDbEntity
  8
AM_0
100
AcDbLine
 10
1766.658195538375
 20
-248.2528402671571
 30
0.0
 11
1766.658195538375
 21
-277.2528402671574
 31
0.0
  0
ARC
  5
DD6DD
330
1F
100
AcDbEntity
  8
AM_0
100
AcDbCircle
 10
1753.658195538375
 20
-248.2528402671578
 30
0.0
 40
1.0
100
AcDbArc
 50
90.0
 51
179.999999999987
  0
ARC
  5
DD6DE
330
1F
100
AcDbEntity
  8
AM_0
100
AcDbCircle
 10
1765.658195538375
 20
-248.2528402671567
 30
0.0
 40
1.0
100
AcDbArc
 50
359.999999999974
 51
90.0
  0
TEXT
  5
DD752
330
1F
100
AcDbEntity
  8
AM_6
100
AcDbText
 10
1494.58009784015
 20
-102.1037883664639
 30
0.0
 40
3.2
  1
プルハンドル
 41
0.85537027
100
AcDbText
  0
TEXT
  5
DD753
330
1F
100
AcDbEntity
  8
AM_6
100
AcDbText
 10
1494.58009784015
 20
-118.1037883664639
 30
0.0
 40
3.2
  1
亜鉛ダイキャスト
 41
0.85537027
100
AcDbText
  0
TEXT
  5
DD754
330
1F
100
AcDbEntity
  8
AM_6
100
AcDbText
 10
1494.58009784015
 20
-126.1037883664639
 30
0.0
 40
3.2
  1
光沢クローム、サテンニッケル
 41
0.85537027
100
AcDbText
  0
TEXT
  5
DD756
330
1F
100
AcDbEntity
  8
AM_6
100
AcDbText
 10
1494.58009784015
 20
-110.103788366463
 30
0.0
 40
3.2
  1
IH-32-80
 41
0.85537027
100
AcDbText
  0
DIMENSION
  5
DD7B8
330
1F
100
AcDbEntity
  8
AM_5
100
AcDbDimension
  2
*D7
 10
1618.466061464934
 20
-256.2528402671558
 30
0.0
 11
1618.466061464934
 21
-252.3209759782998
 31
0.0
 70
   160
 71
     5
 42
8.999999999998664
  3
SYS$0
100
AcDbAlignedDimension
 13
1629.966061464933
 23
-247.2528402671571
 33
0.0
 14
1640.466061464933
 24
-256.2528402671558
 34
0.0
 50
270.0
100
AcDbRotatedDimension
  0
DIMENSION
  5
DD7B9
330
1F
100
AcDbEntity
  8
AM_5
100
AcDbDimension
  2
*D8
 10
1608.466061464934
 20
-247.2528402671571
 30
0.0
 11
1605.366061464934
 21
-262.252840267157
 31
0.0
 70
    32
  1
<>
 71
     5
 42
30.00000000000026
  3
SYS$0
100
AcDbAlignedDimension
 13
1628.466061464934
 23
-277.2528402671574
 33
0.0
 14
1628.466061464934
 24
-247.2528402671571
 34
0.0
 50
270.0
100
AcDbRotatedDimension
1001
ACAD
1000
DSTYLE
1002
{
1070
   286
1070
     0
1070
   284
1070
     8
1070
   274
1070
     2
1070
   272
1070
     2
1070
    47
1040
0.2
1070
    48
1040
0.2
1002
}
  0
VIEWPORT
  5
34B25
330
1B
100
AcDbEntity
 67
     1
  8
0
 48
0.5
100
AcDbViewport
 10
145.1610107421875
 20
106.4772970040639
 30
0.0
 40
296.6719970703125
 41
219.3045939127604
 68
     1
 69
     1
 12
145.1610107421875
 22
106.4772970040639
 13
0.0
 23
0.0
 14
2.5
 24
2.5
 15
10.0
 25
10.0
 16
0.0
 26
0.0
 36
1.0
 17
0.0
 27
0.0
 37
0.0
 42
50.0
 43
0.0
 44
0.0
 45
219.3045939127604
 50
0.0
 51
0.0
 72
   100
 90
    32800
  1

281
     0
 71
     1
 74
     0
110
0.0
120
0.0
130
0.0
111
1.0
121
0.0
131
0.0
112
0.0
122
1.0
132
0.0
 79
     0
146
0.0
170
     0
1001
GENIUS_GENOBJ-N-SDF_13
1002
{
1000
OWNER
1000
GEN
1002
}
1001
GENIUS_GENODEF_13
1002
{
1000
HIER
1070
     0
1002
}
1002
{
1000
MANEDIT
1070
     0
1002
}
1002
{
1000
NOSEL
1070
     0
1002
}
1002
{
1000
BEHIND
1070
     0
1002
}
1002
{
1000
OTHER
1070
     0
1002
}
1002
{
1000
REACTOR
1002
}
1001
GENIUS_GENSCREG_15
1000
PF
1040
1.0
1000
DF
1040
1.0
1000
MIN
1011
-3.17498779296875
1021
-3.174999952316284
1031
0.0
1000
MAX
1011
293.4970092773438
1021
216.1295939604441
1031
0.0
1000
FLAGS
1070
     2
  0
ENDSEC
  0
SECTION
  2
OBJECTS
  0
DICTIONARY
  5
C
330
0
100
AcDbDictionary
281
     1
  3
ACAD_2007HEADERVARS_RT
350
DDA00
  3
ACAD_COLOR
350
DE6C
  3
ACAD_GROUP
350
D
  3
ACAD_LAYOUT
350
1A
  3
ACAD_MATERIAL
350
DE6B
  3
ACAD_MLEADERSTYLE
350
DD89B
  3
ACAD_MLINESTYLE
350
17
  3
ACAD_PLOTSETTINGS
350
19
  3
ACAD_PLOTSTYLENAME
350
E
  3
ACAD_SCALELIST
350
DD879
  3
ACAD_TABLESTYLE
350
FD1D
  3
ACAD_VISUALSTYLE
350
ADEC6
  3
AcAsAppObject
350
3DA1
  3
ACASGREF_MASTER
350
3DE9
  3
ACDB_RECOMPOSE_DATA
350
DD958
  3
AcDbVariableDictionary
350
34
  3
AcmDictionary
350
47
  3
AD_GREF_MODULE
350
3DEA
  3
AD_MAPI_MODULE
350
3E06
  3
AMG
350
2B
  3
AMGSNAPSETTINGS
350
7D
  3
ASE_INDEX_DICTIONARY
350
547D7
  3
MAPISURF_MODULE
350
3DEB
  0
DICTIONARY
  5
AEEE5
330
8
100
AcDbDictionary
280
     1
281
     1
  0
DICTIONARY
  5
3F95
330
2
100
AcDbDictionary
280
     1
281
     1
  3
ACAD_LAYERFILTERS
360
C7DFB
  3
ACAD_LAYERSTATES
360
3F96
  3
ACLYDICTIONARY
360
C7DFA
  3
AMLAYER_GROUPCOLORS
360
15B82
  0
DICTIONARY
  5
DD924
330
10
100
AcDbDictionary
280
     1
281
     1
  3
ADSK_XREC_LAYER_RECONCILED
360
DD925
  0
DICTIONARY
  5
DD926
330
A46
100
AcDbDictionary
280
     1
281
     1
  3
ADSK_XREC_LAYER_RECONCILED
360
DD927
  0
DICTIONARY
  5
DD928
330
A47
100
AcDbDictionary
280
     1
281
     1
  3
ADSK_XREC_LAYER_RECONCILED
360
DD929
  0
DICTIONARY
  5
DD92A
330
A48
100
AcDbDictionary
280
     1
281
     1
  3
ADSK_XREC_LAYER_RECONCILED
360
DD92B
  0
DICTIONARY
  5
DD92C
330
5F85
100
AcDbDictionary
280
     1
281
     1
  3
ADSK_XREC_LAYER_RECONCILED
360
DD92D
  0
DICTIONARY
  5
DD92E
330
5F86
100
AcDbDictionary
280
     1
281
     1
  3
ADSK_XREC_LAYER_RECONCILED
360
DD92F
  0
DICTIONARY
  5
DD930
330
5F87
100
AcDbDictionary
280
     1
281
     1
  3
ADSK_XREC_LAYER_RECONCILED
360
DD931
  0
DICTIONARY
  5
DD932
330
5F88
100
AcDbDictionary
280
     1
281
     1
  3
ADSK_XREC_LAYER_RECONCILED
360
DD933
  0
DICTIONARY
  5
DD934
330
5F8A
100
AcDbDictionary
280
     1
281
     1
  3
ADSK_XREC_LAYER_RECONCILED
360
DD935
  0
DICTIONARY
  5
DD936
330
5F8B
100
AcDbDictionary
280
     1
281
     1
  3
ADSK_XREC_LAYER_RECONCILED
360
DD937
  0
DICTIONARY
  5
DD938
330
5F8C
100
AcDbDictionary
280
     1
281
     1
  3
ADSK_XREC_LAYER_RECONCILED
360
DD939
  0
DICTIONARY
  5
DD93A
330
112D7
100
AcDbDictionary
280
     1
281
     1
  3
ADSK_XREC_LAYER_RECONCILED
360
DD93B
  0
DICTIONARY
  5
DD93C
330
13616
100
AcDbDictionary
280
     1
281
     1
  3
ADSK_XREC_LAYER_RECONCILED
360
DD93D
  0
DICTIONARY
  5
DD93E
330
15B83
100
AcDbDictionary
280
     1
281
     1
  3
ADSK_XREC_LAYER_RECONCILED
360
DD93F
  0
DICTIONARY
  5
DD940
330
1684D
100
AcDbDictionary
280
     1
281
     1
  3
ADSK_XREC_LAYER_RECONCILED
360
DD941
  0
DICTIONARY
  5
DD942
330
16A5C
100
AcDbDictionary
280
     1
281
     1
  3
ADSK_XREC_LAYER_RECONCILED
360
DD943
  0
DICTIONARY
  5
DD944
330
16A9B
100
AcDbDictionary
280
     1
281
     1
  3
ADSK_XREC_LAYER_RECONCILED
360
DD945
  0
DICTIONARY
  5
DD946
330
16DEF
100
AcDbDictionary
280
     1
281
     1
  3
ADSK_XREC_LAYER_RECONCILED
360
DD947
  0
DICTIONARY
  5
DD948
330
17006
100
AcDbDictionary
280
     1
281
     1
  3
ADSK_XREC_LAYER_RECONCILED
360
DD949
  0
DICTIONARY
  5
DD94A
330
17033
100
AcDbDictionary
280
     1
281
     1
  3
ADSK_XREC_LAYER_RECONCILED
360
DD94B
  0
DICTIONARY
  5
DD94C
330
1706B
100
AcDbDictionary
280
     1
281
     1
  3
ADSK_XREC_LAYER_RECONCILED
360
DD94D
  0
DICTIONARY
  5
DD94E
330
1706C
100
AcDbDictionary
280
     1
281
     1
  3
ADSK_XREC_LAYER_RECONCILED
360
DD94F
  0
DICTIONARY
  5
DD950
330
17168
100
AcDbDictionary
280
     1
281
     1
  3
ADSK_XREC_LAYER_RECONCILED
360
DD951
  0
DICTIONARY
  5
C49A1
330
C49A0
100
AcDbDictionary
280
     1
281
     1
  3
ADSK_XREC_LAYER_RECONCILED
360
C49A2
  0
DICTIONARY
  5
DD952
330
C8641
100
AcDbDictionary
280
     1
281
     1
  3
ADSK_XREC_LAYER_RECONCILED
360
DD953
  0
DICTIONARY
  5
DD954
330
CA416
100
AcDbDictionary
280
     1
281
     1
  3
ADSK_XREC_LAYER_RECONCILED
360
DD955
  0
DICTIONARY
  5
8A
330
1F
100
AcDbDictionary
280
     1
281
     1
  3
ACAD_SORTENTS
360
14054
  0
DICTIONARY
  5
DDA00
102
{ACAD_REACTORS
330
C
102
}
330
C
100
AcDbDictionary
281
     1
  3
DIMARCSYM
350
DDA01
  0
DICTIONARY
  5
DE6C
102
{ACAD_REACTORS
330
C
102
}
330
C
100
AcDbDictionary
281
     1
  0
DICTIONARY
  5
D
102
{ACAD_REACTORS
330
C
102
}
330
C
100
AcDbDictionary
281
     1
  0
DICTIONARY
  5
1A
102
{ACAD_REACTORS
330
C
102
}
330
C
100
AcDbDictionary
281
     1
  3
Model
350
22
  3
ﾚｲｱｳﾄ1
350
1E
  3
ﾚｲｱｳﾄ2
350
26
  0
DICTIONARY
  5
DE6B
102
{ACAD_REACTORS
330
C
102
}
330
C
100
AcDbDictionary
281
     1
  3
ByBlock
350
ADEC4
  3
ByLayer
350
ADEC3
  3
Global
350
ADEC5
  0
DICTIONARY
  5
DD89B
102
{ACAD_REACTORS
330
C
102
}
330
C
100
AcDbDictionary
281
     1
  3
Standard
350
DD89C
  0
DICTIONARY
  5
17
102
{ACAD_REACTORS
330
C
102
}
330
C
100
AcDbDictionary
281
     1
  3
Standard
350
18
  0
DICTIONARY
  5
19
102
{ACAD_REACTORS
330
C
102
}
330
C
100
AcDbDictionary
281
     1
  3
C00
350
AF0D4
  0
ACDBDICTIONARYWDFLT
  5
E
102
{ACAD_REACTORS
330
C
102
}
330
C
100
AcDbDictionary
281
     1
  3
Normal
350
F
100
AcDbDictionaryWithDefault
340
F
  0
DICTIONARY
  5
DD879
102
{ACAD_REACTORS
330
C
102
}
330
C
100
AcDbDictionary
281
     1
  3
A0
350
DD87A
  3
A1
350
DD87B
  3
A2
350
DD87C
  3
A3
350
DD87D
  3
A4
350
DD87E
  3
A5
350
DD87F
  3
A6
350
DD880
  3
A7
350
DD881
  3
A8
350
DD882
  3
A9
350
DD883
  3
B0
350
DD884
  3
B1
350
DD885
  3
B2
350
DD886
  3
B3
350
DD887
  3
B4
350
DD888
  3
B5
350
DD889
  3
B6
350
DD88A
  3
B7
350
DD88B
  3
B8
350
DD88C
  3
B9
350
DD88D
  3
C0
350
DD88E
  3
C1
350
DD88F
  3
C2
350
DD890
  3
C3
350
DD891
  3
C4
350
DD892
  3
C5
350
DD893
  3
C6
350
DD894
  3
C7
350
DD895
  3
C8
350
DD896
  3
C9
350
DD897
  3
D0
350
DD898
  3
D1
350
DD899
  3
D2
350
DD89A
  0
DICTIONARY
  5
FD1D
102
{ACAD_REACTORS
330
C
102
}
330
C
100
AcDbDictionary
281
     1
  3
Standard
350
FD1E
  0
DICTIONARY
  5
ADEC6
102
{ACAD_REACTORS
330
C
102
}
330
C
100
AcDbDictionary
281
     1
  3
2dWireframe
350
ADECC
  3
3D Hidden
350
ADECE
  3
3dWireframe
350
ADECD
  3
Basic
350
ADECB
  3
Brighten
350
ADED2
  3
ColorChange
350
ADED6
  3
Conceptual
350
ADECF
  3
Dim
350
ADED1
  3
Facepattern
350
ADED5
  3
Flat
350
ADEC7
  3
FlatWithEdges
350
ADEC8
  3
Gouraud
350
ADEC9
  3
GouraudWithEdges
350
ADECA
  3
Linepattern
350
ADED4
  3
Realistic
350
ADED0
  3
Thicken
350
ADED3
  0
ACAD_PROXY_OBJECT
  5
3DA1
102
{ACAD_REACTORS
330
C
102
}
330
C
100
AcDbProxyObject
 90
      499
 91
      576
 95
   983063
 70
     0
 93
       10
310
407F
 94
        0
1001
ACAD
1000
AcRTDxfName
1000
ASAPP
1000
AcRTDxfName
1000
ASAPP
  0
ACAD_PROXY_OBJECT
  5
3DE9
102
{ACAD_REACTORS
330
C
102
}
330
C
100
AcDbProxyObject
 90
      499
 91
      581
 95
   983063
 70
     0
 93
       34
310
010000407F
 94
        0
1001
ACAD
1000
AcRTDxfName
1000
ACASGREFMASTER
1000
AcRTDxfName
1000
ACASGREFMASTER
  0
XRECORD
  5
DD958
102
{ACAD_REACTORS
330
C
102
}
330
C
100
AcDbXrecord
280
     1
 90
        1
330
FD1E
  0
DICTIONARY
  5
34
102
{ACAD_REACTORS
330
C
102
}
330
C
100
AcDbDictionary
281
     1
  3
CANNOSCALE
350
DD95B
  3
CMLEADERSTYLE
350
DD959
  3
CTABLESTYLE
350
FD8B
  3
DIMASSOC
350
A10C
  3
HPORIGIN
350
AE2A9
  3
INDEXCTL
350
35
  3
LIGHTINGUNITS
350
DD95C
  3
MSLTSCALE
350
DD95A
  3
SORTENTS
350
194C
  0
DICTIONARY
  5
47
102
{ACAD_REACTORS
330
C
102
}
330
C
100
AcDbDictionary
281
     1
  3
AcmBOM
350
7E8
  3
AcmStdDictionary
350
4C
  3
AMDTSECTSYM_ARROWCOLOR
350
DE78
  0
ACAD_PROXY_OBJECT
  5
3DEA
102
{ACAD_REACTORS
330
C
102
}
330
C
100
AcDbProxyObject
 90
      499
 91
      582
 95
   983063
 70
     0
 93
      114
310
00000043800000000000000000003F
 94
        0
1001
ACAD
1000
AcRTDxfName
1000
ACADGREFMODULE
1000
AcRTDxfName
1000
ACADGREFMODULE
  0
ACAD_PROXY_OBJECT
  5
3E06
102
{ACAD_REACTORS
330
C
102
}
330
C
100
AcDbProxyObject
 90
      499
 91
      594
 95
   983063
 70
     0
 93
       34
310
05000044FF
 94
        0
1001
ACAD
1000
AcRTDxfName
1000
MAPIADMODULE
1000
AcRTDxfName
1000
MAPIADMODULE
  0
DICTIONARY
  5
2B
102
{ACAD_REACTORS
330
C
102
}
330
C
100
AcDbDictionary
281
     1
  0
DICTIONARY
  5
7D
102
{ACAD_REACTORS
330
C
102
}
330
C
100
AcDbDictionary
281
     1
  0
DICTIONARY
  5
547D7
102
{ACAD_REACTORS
330
C
102
}
330
C
100
AcDbDictionary
281
     1
  3
ASEBlockHierarchyIndexRecord
350
547D8
1001
DCO15
1040
1573222139.328
  0
ACAD_PROXY_OBJECT
  5
3DEB
102
{ACAD_REACTORS
330
C
102
}
330
C
100
AcDbProxyObject
 90
      499
 91
      583
 95
   983063
 70
     0
 93
        8
310
047E
 94
        0
1001
ACAD
1000
AcRTDxfName
1000
AMDTMAPISURFMOUDULE
1000
AcRTDxfName
1000
AMDTMAPISURFMOUDULE
  0
DICTIONARY
  5
C7DFB
102
{ACAD_REACTORS
330
3F95
102
}
330
3F95
100
AcDbDictionary
281
     1
  0
DICTIONARY
  5
3F96
102
{ACAD_REACTORS
330
3F95
102
}
330
3F95
100
AcDbDictionary
281
     1
  3
20011210
350
3FB7
  0
DICTIONARY
  5
C7DFA
102
{ACAD_REACTORS
330
3F95
102
}
330
3F95
100
AcDbDictionary
281
     1
1001
ACAD
1000
<All
  0
DICTIONARY
  5
15B82
102
{ACAD_REACTORS
330
3F95
102
}
330
3F95
100
AcDbDictionary
280
     1
281
     1
  3
ばね
360
B78E5
  3
カム
360
1684E
  3
ケースＡ
360
15B84
  3
ゴム
360
16DE6
  3
スライド樹脂
360
16A9C
  3
フロントプレート
360
16DF0
  3
ラッチガイド
360
16DDE
  3
ラッチボルト
360
B78E4
  0
XRECORD
  5
DD925
102
{ACAD_REACTORS
330
DD924
102
}
330
DD924
100
AcDbXrecord
280
     1
290
     1
  0
XRECORD
  5
DD927
102
{ACAD_REACTORS
330
DD926
102
}
330
DD926
100
AcDbXrecord
280
     1
290
     1
  0
XRECORD
  5
DD929
102
{ACAD_REACTORS
330
DD928
102
}
330
DD928
100
AcDbXrecord
280
     1
290
     1
  0
XRECORD
  5
DD92B
102
{ACAD_REACTORS
330
DD92A
102
}
330
DD92A
100
AcDbXrecord
280
     1
290
     1
  0
XRECORD
  5
DD92D
102
{ACAD_REACTORS
330
DD92C
102
}
330
DD92C
100
AcDbXrecord
280
     1
290
     1
  0
XRECORD
  5
DD92F
102
{ACAD_REACTORS
330
DD92E
102
}
330
DD92E
100
AcDbXrecord
280
     1
290
     1
  0
XRECORD
  5
DD931
102
{ACAD_REACTORS
330
DD930
102
}
330
DD930
100
AcDbXrecord
280
     1
290
     1
  0
XRECORD
  5
DD933
102
{ACAD_REACTORS
330
DD932
102
}
330
DD932
100
AcDbXrecord
280
     1
290
     1
  0
XRECORD
  5
DD935
102
{ACAD_REACTORS
330
DD934
102
}
330
DD934
100
AcDbXrecord
280
     1
290
     1
  0
XRECORD
  5
DD937
102
{ACAD_REACTORS
330
DD936
102
}
330
DD936
100
AcDbXrecord
280
     1
290
     1
  0
XRECORD
  5
DD939
102
{ACAD_REACTORS
330
DD938
102
}
330
DD938
100
AcDbXrecord
280
     1
290
     1
  0
XRECORD
  5
DD93B
102
{ACAD_REACTORS
330
DD93A
102
}
330
DD93A
100
AcDbXrecord
280
     1
290
     1
  0
XRECORD
  5
DD93D
102
{ACAD_REACTORS
330
DD93C
102
}
330
DD93C
100
AcDbXrecord
280
     1
290
     1
  0
XRECORD
  5
DD93F
102
{ACAD_REACTORS
330
DD93E
102
}
330
DD93E
100
AcDbXrecord
280
     1
290
     1
  0
XRECORD
  5
DD941
102
{ACAD_REACTORS
330
DD940
102
}
330
DD940
100
AcDbXrecord
280
     1
290
     1
  0
XRECORD
  5
DD943
102
{ACAD_REACTORS
330
DD942
102
}
330
DD942
100
AcDbXrecord
280
     1
290
     1
  0
XRECORD
  5
DD945
102
{ACAD_REACTORS
330
DD944
102
}
330
DD944
100
AcDbXrecord
280
     1
290
     1
  0
XRECORD
  5
DD947
102
{ACAD_REACTORS
330
DD946
102
}
330
DD946
100
AcDbXrecord
280
     1
290
     1
  0
XRECORD
  5
DD949
102
{ACAD_REACTORS
330
DD948
102
}
330
DD948
100
AcDbXrecord
280
     1
290
     1
  0
XRECORD
  5
DD94B
102
{ACAD_REACTORS
330
DD94A
102
}
330
DD94A
100
AcDbXrecord
280
     1
290
     1
  0
XRECORD
  5
DD94D
102
{ACAD_REACTORS
330
DD94C
102
}
330
DD94C
100
AcDbXrecord
280
     1
290
     1
  0
XRECORD
  5
DD94F
102
{ACAD_REACTORS
330
DD94E
102
}
330
DD94E
100
AcDbXrecord
280
     1
290
     1
  0
XRECORD
  5
DD951
102
{ACAD_REACTORS
330
DD950
102
}
330
DD950
100
AcDbXrecord
280
     1
290
     1
  0
XRECORD
  5
C49A2
102
{ACAD_REACTORS
330
C49A1
102
}
330
C49A1
100
AcDbXrecord
280
     1
290
     1
  0
XRECORD
  5
DD953
102
{ACAD_REACTORS
330
DD952
102
}
330
DD952
100
AcDbXrecord
280
     1
290
     1
  0
XRECORD
  5
DD955
102
{ACAD_REACTORS
330
DD954
102
}
330
DD954
100
AcDbXrecord
280
     1
290
     1
  0
SORTENTSTABLE
  5
14054
102
{ACAD_REACTORS
330
8A
102
}
330
8A
100
AcDbSortentsTable
330
1F
331
86338
  5
86406
331
D7DDB
  5
D7DE5
331
70A73
  5
71627
331
92521
  5
930D5
331
D7DDA
  5
D7DE4
331
D7DE6
  5
D7DF0
331
94474
  5
94F36
331
86336
  5
86404
331
D7DE5
  5
D7DEF
331
CD597
  5
CD852
331
70F6D
  5
727B3
331
2B006
  5
1F38A
331
92763
  5
93668
331
D7DE4
  5
D7DEE
331
7E28D
  5
7F042
331
947CE
  5
BBD47
331
8A013
  5
8A0EA
331
5808A
  5
5E8F4
331
D7DE3
  5
D7DED
331
86723
  5
867EE
331
D7DEF
  5
D7DFC
331
947D0
  5
BBD69
331
92761
  5
93667
331
D7DEE
  5
D7DFA
331
50294
  5
58163
331
2B003
  5
1F6C6
331
8A011
  5
8A0E8
331
8A3C5
  5
8A4A0
331
D7DE1
  5
D7DEB
331
86721
  5
867EC
331
D7DED
  5
D7DF9
331
70A5D
  5
71628
331
94DA8
  5
BD756
331
89901
  5
899C6
331
D7DF0
  5
D7DFD
331
94A12
  5
BD5C6
331
94DA6
  5
BD6CA
331
92EFF
  5
9366C
331
35DDA
  5
6A022
331
D7DE0
  5
D7DEA
331
CD592
  5
CD857
331
D7DEC
  5
D7DF8
331
89364
  5
89427
331
7E295
  5
61D9E
331
1976C
  5
18F5F
331
92B82
  5
9366A
331
8A3C3
  5
8A49E
331
D7DEB
  5
D7DF7
331
50291
  5
58162
331
898FF
  5
899C4
331
72FDE
  5
73161
331
2B000
  5
1F38B
331
94A10
  5
BBD6B
331
92EFD
  5
9366B
331
70A13
  5
7162A
331
36164
  5
411C1
331
7E287
  5
7F043
331
D7DEA
  5
D7DF6
331
89362
  5
89425
331
7E293
  5
61D9F
331
50290
  5
58161
331
92B80
  5
93669
331
7E332
  5
7F29F
331
89B45
  5
89C11
331
7E33E
  5
6A143
331
D7DDD
  5
D7DE7
331
70A2E
  5
71629
331
D7DE9
  5
D7DF3
331
5029B
  5
58164
331
7E32E
  5
7F298
331
72FDC
  5
7315F
331
92523
  5
930D7
331
D7DF8
  5
D7E03
331
2AFFE
  5
1F38D
331
D7DDC
  5
D7DE6
331
94476
  5
94F38
331
89B43
  5
89C0F
331
7E33C
  5
6A144
  0
XRECORD
  5
DDA01
102
{ACAD_REACTORS
330
DDA00
102
}
330
DDA00
100
AcDbXrecord
280
     1
 70
     1
  0
LAYOUT
  5
22
102
{ACAD_REACTORS
330
1A
102
}
330
1A
100
AcDbPlotSettings
  1

  2
Adobe PDF
  4
A3
  6

 40
3.174999952316284
 41
3.174999952316284
 42
3.17498779296875
 43
3.17498779296875
 44
297.0318298339844
 45
420.1583251953125
 46
-3.159078955650329
 47
-3.095831274986267
 48
1457.423097840149
 49
-385.0037883664636
140
1877.42309784015
141
-88.00378836646359
142
1.0
143
1.0
 70
 11940
 72
     1
 73
     1
 74
     4
  7
monochrome.ctb
 75
     0
147
0.6920996240207127
 76
     0
 77
     2
 78
   200
148
-1457.423097840149
149
385.0037883664636
100
AcDbLayout
  1
Model
 70
     1
 71
     0
 10
0.0
 20
0.0
 11
12.0
 21
9.0
 12
0.0
 22
0.0
 32
0.0
 14
0.0
 24
0.0
 34
0.0
 15
0.0
 25
0.0
 35
0.0
146
0.0
 13
0.0
 23
0.0
 33
0.0
 16
1.0
 26
0.0
 36
0.0
 17
0.0
 27
1.0
 37
0.0
 76
     0
330
1F
331
C4265
1001
ACAD_PSEXT
1000
Adobe PDF
1000
Adobe PDF Converter
1000
My Documents\*.pdf
1000

1070
     0
  0
LAYOUT
  5
1E
102
{ACAD_REACTORS
330
1A
102
}
330
1A
100
AcDbPlotSettings
  1

  2
\\ML370\XEROX
  4
A4
  6

 40
3.174999952316284
 41
3.174999952316284
 42
3.175003051757812
 43
3.17498779296875
 44
209.8674926757813
 45
296.6719970703125
 46
0.0
 47
0.0
 48
0.0
 49
0.0
140
0.0
141
0.0
142
1.0
143
1.0
 70
   688
 72
     1
 73
     1
 74
     5
  7
monochrome.ctb
 75
    16
147
1.0
 76
     0
 77
     2
 78
   300
148
0.0
149
0.0
100
AcDbLayout
  1
ﾚｲｱｳﾄ1
 70
     1
 71
     1
 10
-3.17498779296875
 20
-3.174999952316284
 11
293.4970092773438
 21
206.692492723465
 12
0.0
 22
0.0
 32
0.0
 14
1.000000000000000E+20
 24
1.000000000000000E+20
 34
1.000000000000000E+20
 15
-1.000000000000000E+20
 25
-1.000000000000000E+20
 35
-1.000000000000000E+20
146
0.0
 13
0.0
 23
0.0
 33
0.0
 16
1.0
 26
0.0
 36
0.0
 17
0.0
 27
1.0
 37
0.0
 76
     0
330
1B
331
34B25
  0
LAYOUT
  5
26
102
{ACAD_REACTORS
330
1A
102
}
330
1A
100
AcDbPlotSettings
  1

  2
\\ML370\XEROX
  4

  6

 40
0.0
 41
0.0
 42
0.0
 43
0.0
 44
0.0
 45
0.0
 46
0.0
 47
0.0
 48
0.0
 49
0.0
140
0.0
141
0.0
142
1.0
143
1.0
 70
   688
 72
     0
 73
     0
 74
     5
  7
monochrome.ctb
 75
    16
147
1.0
 76
     0
 77
     2
 78
   300
148
0.0
149
0.0
100
AcDbLayout
  1
ﾚｲｱｳﾄ2
 70
     1
 71
     2
 10
0.0
 20
0.0
 11
12.0
 21
9.0
 12
0.0
 22
0.0
 32
0.0
 14
0.0
 24
0.0
 34
0.0
 15
0.0
 25
0.0
 35
0.0
146
0.0
 13
0.0
 23
0.0
 33
0.0
 16
1.0
 26
0.0
 36
0.0
 17
0.0
 27
1.0
 37
0.0
 76
     0
330
23
  0
MATERIAL
  5
ADEC4
102
{ACAD_XDICTIONARY
360
DDA05
102
}
102
{ACAD_REACTORS
330
DE6B
102
}
330
DE6B
100
AcDbMaterial
  1
ByBlock
 73
     1
 78
     1
172
     1
176
     1
270
     1
274
     1
  0
MATERIAL
  5
ADEC3
102
{ACAD_XDICTIONARY
360
DDA03
102
}
102
{ACAD_REACTORS
330
DE6B
102
}
330
DE6B
100
AcDbMaterial
  1
ByLayer
 73
     1
 78
     1
172
     1
176
     1
270
     1
274
     1
  0
MATERIAL
  5
ADEC5
102
{ACAD_XDICTIONARY
360
DDA07
102
}
102
{ACAD_REACTORS
330
DE6B
102
}
330
DE6B
100
AcDbMaterial
  1
Global
 73
     1
 78
     1
172
     1
176
     1
270
     1
274
     1
  0
MLEADERSTYLE
  5
DD89C
102
{ACAD_REACTORS
330
DD89B
102
}
330
DD89B
100
AcDbMLeaderStyle
170
     2
171
     1
172
     0
 90
        2
 40
0.0
 41
0.0
173
     1
 91
-1056964608
340
14
 92
       -2
290
     1
 42
2.0
291
     1
 43
0.36
  3
Standard
 44
4.0
300

342
11
174
     1
178
     6
175
     1
176
     0
 93
-1056964608
 45
4.0
292
     0
297
     0
 46
4.0
 94
-1056964608
 47
1.0
 49
1.0
140
1.0
293
     1
141
0.0
294
     1
177
     0
142
1.0
295
     0
296
     0
143
0.125
1001
ACAD_MLEADERVER
1070
     2
  0
MLINESTYLE
  5
18
102
{ACAD_REACTORS
330
17
102
}
330
17
100
AcDbMlineStyle
  2
STANDARD
 70
     0
  3

 62
   256
 51
90.0
 52
90.0
 71
     2
 49
0.5
 62
   256
  6
BYLAYER
 49
-0.5
 62
   256
  6
BYLAYER
  0
PLOTSETTINGS
  5
AF0D4
102
{ACAD_REACTORS
330
19
102
}
330
19
100
AcDbPlotSettings
  1
C00
  2
RICOH imagio Wide 7040e RP-GL/2
  4
A3
  6

 40
5.069416522979736
 41
7.22842264175415
 42
5.238739013671875
 43
7.05908203125
 44
419.9889831542968
 45
296.9683227539062
 46
-5.159586191177368
 47
-7.15959095954895
 48
2852.583709772213
 49
776.3677493254601
140
3272.583709772213
141
1073.36774932546
142
1.0
143
1.0
 70
 11956
 72
     1
 73
     0
 74
     4
  7
monochrome.ctb
 75
    16
147
1.0
 76
     0
 77
     2
 78
   200
148
-2852.583709772213
149
-776.3677493254601
1001
ACAD_PSEXT
1000
RICOH imagio Wide 7040e RP-GL/2
1000
RICOH imagio Wide 7040e RP-GL/2
1000
IP_192.200.51.212
1000
RP-GL/2 Driver (Windows 2000/XP/Server 2003)
1070
     0
  0
ACDBPLACEHOLDER
  5
F
102
{ACAD_REACTORS
330
E
102
}
330
E
  0
SCALE
  5
DD87A
102
{ACAD_REACTORS
330
DD879
102
}
330
DD879
100
AcDbScale
 70
     0
300
1:1
140
1.0
141
1.0
290
     1
  0
SCALE
  5
DD87B
102
{ACAD_REACTORS
330
DD879
102
}
330
DD879
100
AcDbScale
 70
     0
300
1:2
140
1.0
141
2.0
290
     0
  0
SCALE
  5
DD87C
102
{ACAD_REACTORS
330
DD879
102
}
330
DD879
100
AcDbScale
 70
     0
300
1:4
140
1.0
141
4.0
290
     0
  0
SCALE
  5
DD87D
102
{ACAD_REACTORS
330
DD879
102
}
330
DD879
100
AcDbScale
 70
     0
300
1:5
140
1.0
141
5.0
290
     0
  0
SCALE
  5
DD87E
102
{ACAD_REACTORS
330
DD879
102
}
330
DD879
100
AcDbScale
 70
     0
300
1:8
140
1.0
141
8.0
290
     0
  0
SCALE
  5
DD87F
102
{ACAD_REACTORS
330
DD879
102
}
330
DD879
100
AcDbScale
 70
     0
300
1:10
140
1.0
141
10.0
290
     0
  0
SCALE
  5
DD880
102
{ACAD_REACTORS
330
DD879
102
}
330
DD879
100
AcDbScale
 70
     0
300
1:16
140
1.0
141
16.0
290
     0
  0
SCALE
  5
DD881
102
{ACAD_REACTORS
330
DD879
102
}
330
DD879
100
AcDbScale
 70
     0
300
1:20
140
1.0
141
20.0
290
     0
  0
SCALE
  5
DD882
102
{ACAD_REACTORS
330
DD879
102
}
330
DD879
100
AcDbScale
 70
     0
300
1:30
140
1.0
141
30.0
290
     0
  0
SCALE
  5
DD883
102
{ACAD_REACTORS
330
DD879
102
}
330
DD879
100
AcDbScale
 70
     0
300
1:40
140
1.0
141
40.0
290
     0
  0
SCALE
  5
DD884
102
{ACAD_REACTORS
330
DD879
102
}
330
DD879
100
AcDbScale
 70
     0
300
1:50
140
1.0
141
50.0
290
     0
  0
SCALE
  5
DD885
102
{ACAD_REACTORS
330
DD879
102
}
330
DD879
100
AcDbScale
 70
     0
300
1:100
140
1.0
141
100.0
290
     0
  0
SCALE
  5
DD886
102
{ACAD_REACTORS
330
DD879
102
}
330
DD879
100
AcDbScale
 70
     0
300
2:1
140
2.0
141
1.0
290
     0
  0
SCALE
  5
DD887
102
{ACAD_REACTORS
330
DD879
102
}
330
DD879
100
AcDbScale
 70
     0
300
4:1
140
4.0
141
1.0
290
     0
  0
SCALE
  5
DD888
102
{ACAD_REACTORS
330
DD879
102
}
330
DD879
100
AcDbScale
 70
     0
300
8:1
140
8.0
141
1.0
290
     0
  0
SCALE
  5
DD889
102
{ACAD_REACTORS
330
DD879
102
}
330
DD879
100
AcDbScale
 70
     0
300
10:1
140
10.0
141
1.0
290
     0
  0
SCALE
  5
DD88A
102
{ACAD_REACTORS
330
DD879
102
}
330
DD879
100
AcDbScale
 70
     0
300
100:1
140
100.0
141
1.0
290
     0
  0
SCALE
  5
DD88B
102
{ACAD_REACTORS
330
DD879
102
}
330
DD879
100
AcDbScale
 70
     0
300
1/128" = 1'-0"
140
0.0078125
141
12.0
290
     0
  0
SCALE
  5
DD88C
102
{ACAD_REACTORS
330
DD879
102
}
330
DD879
100
AcDbScale
 70
     0
300
1/64" = 1'-0"
140
0.015625
141
12.0
290
     0
  0
SCALE
  5
DD88D
102
{ACAD_REACTORS
330
DD879
102
}
330
DD879
100
AcDbScale
 70
     0
300
1/32" = 1'-0"
140
0.03125
141
12.0
290
     0
  0
SCALE
  5
DD88E
102
{ACAD_REACTORS
330
DD879
102
}
330
DD879
100
AcDbScale
 70
     0
300
1/16" = 1'-0"
140
0.0625
141
12.0
290
     0
  0
SCALE
  5
DD88F
102
{ACAD_REACTORS
330
DD879
102
}
330
DD879
100
AcDbScale
 70
     0
300
3/32" = 1'-0"
140
0.09375
141
12.0
290
     0
  0
SCALE
  5
DD890
102
{ACAD_REACTORS
330
DD879
102
}
330
DD879
100
AcDbScale
 70
     0
300
1/8" = 1'-0"
140
0.125
141
12.0
290
     0
  0
SCALE
  5
DD891
102
{ACAD_REACTORS
330
DD879
102
}
330
DD879
100
AcDbScale
 70
     0
300
3/16" = 1'-0"
140
0.1875
141
12.0
290
     0
  0
SCALE
  5
DD892
102
{ACAD_REACTORS
330
DD879
102
}
330
DD879
100
AcDbScale
 70
     0
300
1/4" = 1'-0"
140
0.25
141
12.0
290
     0
  0
SCALE
  5
DD893
102
{ACAD_REACTORS
330
DD879
102
}
330
DD879
100
AcDbScale
 70
     0
300
3/8" = 1'-0"
140
0.375
141
12.0
290
     0
  0
SCALE
  5
DD894
102
{ACAD_REACTORS
330
DD879
102
}
330
DD879
100
AcDbScale
 70
     0
300
1/2" = 1'-0"
140
0.5
141
12.0
290
     0
  0
SCALE
  5
DD895
102
{ACAD_REACTORS
330
DD879
102
}
330
DD879
100
AcDbScale
 70
     0
300
3/4" = 1'-0"
140
0.75
141
12.0
290
     0
  0
SCALE
  5
DD896
102
{ACAD_REACTORS
330
DD879
102
}
330
DD879
100
AcDbScale
 70
     0
300
1" = 1'-0"
140
1.0
141
12.0
290
     0
  0
SCALE
  5
DD897
102
{ACAD_REACTORS
330
DD879
102
}
330
DD879
100
AcDbScale
 70
     0
300
1-1/2" = 1'-0"
140
1.5
141
12.0
290
     0
  0
SCALE
  5
DD898
102
{ACAD_REACTORS
330
DD879
102
}
330
DD879
100
AcDbScale
 70
     0
300
3" = 1'-0"
140
3.0
141
12.0
290
     0
  0
SCALE
  5
DD899
102
{ACAD_REACTORS
330
DD879
102
}
330
DD879
100
AcDbScale
 70
     0
300
6" = 1'-0"
140
6.0
141
12.0
290
     0
  0
SCALE
  5
DD89A
102
{ACAD_REACTORS
330
DD879
102
}
330
DD879
100
AcDbScale
 70
     0
300
1'-0" = 1'-0"
140
12.0
141
12.0
290
     0
  0
TABLESTYLE
  5
FD1E
102
{ACAD_XDICTIONARY
360
DD956
102
}
102
{ACAD_REACTORS
330
FD1D
102
}
330
FD1D
100
AcDbTableStyle
  3
Standard
 70
     0
 71
     0
 40
1.5
 41
1.5
280
     0
281
     0
  7
STANDARD
140
4.5
170
     2
 62
     0
 63
     7
283
     0
274
    -2
284
     1
 64
     0
275
    -2
285
     1
 65
     0
276
    -2
286
     1
 66
     0
277
    -2
287
     1
 67
     0
278
    -2
288
     1
 68
     0
279
    -2
289
     1
 69
     0
  7
STANDARD
140
6.0
170
     5
 62
     0
 63
     7
283
     0
274
    -2
284
     1
 64
     0
275
    -2
285
     1
 65
     0
276
    -2
286
     1
 66
     0
277
    -2
287
     1
 67
     0
278
    -2
288
     1
 68
     0
279
    -2
289
     1
 69
     0
  7
STANDARD
140
4.5
170
     5
 62
     0
 63
     7
283
     0
274
    -2
284
     1
 64
     0
275
    -2
285
     1
 65
     0
276
    -2
286
     1
 66
     0
277
    -2
287
     1
 67
     0
278
    -2
288
     1
 68
     0
279
    -2
289
     1
 69
     0
  0
VISUALSTYLE
  5
ADECC
102
{ACAD_REACTORS
330
ADEC6
102
}
330
ADEC6
100
AcDbVisualStyle
  2
2dWireframe
 70
     4
 71
     0
 72
     2
 73
     0
 90
        0
 40
-0.6
 41
-30.0
 62
     5
 63
     7
 74
     1
 91
        4
 64
     7
 65
   257
 75
     1
175
     1
 42
1.0
 92
        0
 66
   257
 43
1.0
 76
     1
 77
     6
 78
     2
 67
     7
 79
     5
170
     0
171
     0
290
     0
174
     0
 93
        1
 44
0.0
173
     0
291
     0
 45
0.0
1001
ACAD
1000
AcDbSavedByObjectVersion
1070
     0
  0
VISUALSTYLE
  5
ADECE
102
{ACAD_REACTORS
330
ADEC6
102
}
330
ADEC6
100
AcDbVisualStyle
  2
3D Hidden
 70
     6
 71
     1
 72
     2
 73
     2
 90
        0
 40
-0.6
 41
-30.0
 62
     5
 63
     7
 74
     2
 91
        2
 64
     7
 65
   257
 75
     2
175
     1
 42
40.0
 92
        0
 66
   257
 43
1.0
 76
     1
 77
     6
 78
     2
 67
     7
 79
     3
170
     0
171
     0
290
     0
174
     0
 93
        1
 44
0.0
173
     0
291
     0
 45
0.0
1001
ACAD
1000
AcDbSavedByObjectVersion
1070
     0
  0
VISUALSTYLE
  5
ADECD
102
{ACAD_REACTORS
330
ADEC6
102
}
330
ADEC6
100
AcDbVisualStyle
  2
3dWireframe
 70
     5
 71
     0
 72
     2
 73
     0
 90
        0
 40
-0.6
 41
-30.0
 62
     5
 63
     7
 74
     1
 91
        4
 64
     7
 65
   257
 75
     1
175
     1
 42
1.0
 92
        0
 66
   257
 43
1.0
 76
     1
 77
     6
 78
     2
 67
     7
 79
     5
170
     0
171
     0
290
     0
174
     0
 93
        1
 44
0.0
173
     0
291
     0
 45
0.0
1001
ACAD
1000
AcDbSavedByObjectVersion
1070
     0
  0
VISUALSTYLE
  5
ADECB
102
{ACAD_REACTORS
330
ADEC6
102
}
330
ADEC6
100
AcDbVisualStyle
  2
Basic
 70
     7
 71
     1
 72
     0
 73
     1
 90
        0
 40
-0.6
 41
-30.0
 62
     5
 63
     7
 74
     0
 91
        4
 64
     7
 65
   257
 75
     1
175
     1
 42
1.0
 92
        8
 66
     7
 43
1.0
 76
     1
 77
     6
 78
     2
 67
     7
 79
     5
170
     0
171
     0
290
     0
174
     0
 93
        1
 44
0.0
173
     0
291
     1
 45
0.0
1001
ACAD
1000
AcDbSavedByObjectVersion
1070
     0
  0
VISUALSTYLE
  5
ADED2
102
{ACAD_REACTORS
330
ADEC6
102
}
330
ADEC6
100
AcDbVisualStyle
  2
Brighten
 70
    12
 71
     2
 72
     2
 73
     0
 90
        0
 40
-0.6
 41
-30.0
 62
     5
 63
     7
 74
     1
 91
        4
 64
     7
 65
   257
 75
     1
175
     1
 42
1.0
 92
        8
 66
     7
 43
1.0
 76
     1
 77
     6
 78
     2
 67
     7
 79
     5
170
     0
171
     0
290
     0
174
     0
 93
        1
 44
50.0
173
     0
291
     1
 45
0.0
1001
ACAD
1000
AcDbSavedByObjectVersion
1070
     0
  0
VISUALSTYLE
  5
ADED6
102
{ACAD_REACTORS
330
ADEC6
102
}
330
ADEC6
100
AcDbVisualStyle
  2
ColorChange
 70
    16
 71
     2
 72
     2
 73
     3
 90
        0
 40
-0.6
 41
-30.0
 62
     5
 63
     8
 74
     1
 91
        4
 64
     7
 65
   257
 75
     1
175
     1
 42
1.0
 92
        8
 66
     8
 43
1.0
 76
     1
 77
     6
 78
     2
 67
     7
 79
     5
170
     0
171
     0
290
     0
174
     0
 93
        1
 44
0.0
173
     0
291
     1
 45
0.0
1001
ACAD
1000
AcDbSavedByObjectVersion
1070
     0
  0
VISUALSTYLE
  5
ADECF
102
{ACAD_REACTORS
330
ADEC6
102
}
330
ADEC6
100
AcDbVisualStyle
  2
Conceptual
 70
     9
 71
     3
 72
     2
 73
     0
 90
        0
 40
-0.6
 41
-30.0
 62
     5
 63
     7
 74
     2
 91
        2
 64
     7
 65
   257
 75
     1
175
     1
 42
40.0
 92
        8
 66
     7
 43
1.0
 76
     1
 77
     6
 78
     2
 67
     7
 79
     3
170
     0
171
     0
290
     0
174
     0
 93
        1
 44
0.0
173
     0
291
     0
 45
0.0
1001
ACAD
1000
AcDbSavedByObjectVersion
1070
     0
  0
VISUALSTYLE
  5
ADED1
102
{ACAD_REACTORS
330
ADEC6
102
}
330
ADEC6
100
AcDbVisualStyle
  2
Dim
 70
    11
 71
     2
 72
     2
 73
     0
 90
        0
 40
-0.6
 41
-30.0
 62
     5
 63
     7
 74
     1
 91
        4
 64
     7
 65
   257
 75
     1
175
     1
 42
1.0
 92
        8
 66
     7
 43
1.0
 76
     1
 77
     6
 78
     2
 67
     7
 79
     5
170
     0
171
     0
290
     0
174
     0
 93
        1
 44
-50.0
173
     0
291
     1
 45
0.0
1001
ACAD
1000
AcDbSavedByObjectVersion
1070
     0
  0
VISUALSTYLE
  5
ADED5
102
{ACAD_REACTORS
330
ADEC6
102
}
330
ADEC6
100
AcDbVisualStyle
  2
Facepattern
 70
    15
 71
     2
 72
     2
 73
     0
 90
        0
 40
-0.6
 41
-30.0
 62
     5
 63
     7
 74
     1
 91
        4
 64
     7
 65
   257
 75
     1
175
     1
 42
1.0
 92
        8
 66
     7
 43
1.0
 76
     1
 77
     6
 78
     2
 67
     7
 79
     5
170
     0
171
     0
290
     0
174
     0
 93
        1
 44
0.0
173
     0
291
     1
 45
0.0
1001
ACAD
1000
AcDbSavedByObjectVersion
1070
     0
  0
VISUALSTYLE
  5
ADEC7
102
{ACAD_REACTORS
330
ADEC6
102
}
330
ADEC6
100
AcDbVisualStyle
  2
Flat
 70
     0
 71
     2
 72
     1
 73
     1
 90
        2
 40
-0.6
 41
30.0
 62
     5
 63
     7
 74
     0
 91
        4
 64
     7
 65
   257
 75
     1
175
     1
 42
1.0
 92
        8
 66
     7
 43
1.0
 76
     1
 77
     6
 78
     2
 67
     7
 79
     5
170
     0
171
     0
290
     0
174
     0
 93
       13
 44
0.0
173
     0
291
     1
 45
0.0
1001
ACAD
1000
AcDbSavedByObjectVersion
1070
     0
  0
VISUALSTYLE
  5
ADEC8
102
{ACAD_REACTORS
330
ADEC6
102
}
330
ADEC6
100
AcDbVisualStyle
  2
FlatWithEdges
 70
     1
 71
     2
 72
     1
 73
     1
 90
        2
 40
-0.6
 41
30.0
 62
     5
 63
     7
 74
     1
 91
        4
 64
     7
 65
   257
 75
     1
175
     1
 42
1.0
 92
        0
 66
   257
 43
1.0
 76
     1
 77
     6
 78
     2
 67
     7
 79
     5
170
     0
171
     0
290
     0
174
     0
 93
       13
 44
0.0
173
     0
291
     1
 45
0.0
1001
ACAD
1000
AcDbSavedByObjectVersion
1070
     0
  0
VISUALSTYLE
  5
ADEC9
102
{ACAD_REACTORS
330
ADEC6
102
}
330
ADEC6
100
AcDbVisualStyle
  2
Gouraud
 70
     2
 71
     2
 72
     2
 73
     1
 90
        2
 40
-0.6
 41
30.0
 62
     5
 63
     7
 74
     0
 91
        4
 64
     7
 65
   257
 75
     1
175
     1
 42
1.0
 92
        0
 66
     7
 43
1.0
 76
     1
 77
     6
 78
     2
 67
     7
 79
     5
170
     0
171
     0
290
     0
174
     0
 93
       13
 44
0.0
173
     0
291
     1
 45
0.0
1001
ACAD
1000
AcDbSavedByObjectVersion
1070
     0
  0
VISUALSTYLE
  5
ADECA
102
{ACAD_REACTORS
330
ADEC6
102
}
330
ADEC6
100
AcDbVisualStyle
  2
GouraudWithEdges
 70
     3
 71
     2
 72
     2
 73
     1
 90
        2
 40
-0.6
 41
30.0
 62
     5
 63
     7
 74
     1
 91
        4
 64
     7
 65
   257
 75
     1
175
     1
 42
1.0
 92
        0
 66
   257
 43
1.0
 76
     1
 77
     6
 78
     2
 67
     7
 79
     5
170
     0
171
     0
290
     0
174
     0
 93
       13
 44
0.0
173
     0
291
     1
 45
0.0
1001
ACAD
1000
AcDbSavedByObjectVersion
1070
     0
  0
VISUALSTYLE
  5
ADED4
102
{ACAD_REACTORS
330
ADEC6
102
}
330
ADEC6
100
AcDbVisualStyle
  2
Linepattern
 70
    14
 71
     2
 72
     2
 73
     0
 90
        0
 40
-0.6
 41
-30.0
 62
     5
 63
     7
 74
     1
 91
        4
 64
     7
 65
   257
 75
     7
175
     7
 42
1.0
 92
        8
 66
     7
 43
1.0
 76
     1
 77
     6
 78
     2
 67
     7
 79
     5
170
     0
171
     0
290
     0
174
     0
 93
        1
 44
0.0
173
     0
291
     1
 45
0.0
1001
ACAD
1000
AcDbSavedByObjectVersion
1070
     0
  0
VISUALSTYLE
  5
ADED0
102
{ACAD_REACTORS
330
ADEC6
102
}
330
ADEC6
100
AcDbVisualStyle
  2
Realistic
 70
     8
 71
     2
 72
     2
 73
     0
 90
        0
 40
-0.6
 41
-30.0
 62
     5
 63
     7
 74
     1
 91
        0
 64
     7
 65
   257
 75
     1
175
     1
 42
1.0
 92
        8
 66
     8
 43
1.0
 76
     1
 77
     6
 78
     2
 67
     7
 79
     5
170
     0
171
     0
290
     0
174
     0
 93
       13
 44
0.0
173
     0
291
     0
 45
0.0
1001
ACAD
1000
AcDbSavedByObjectVersion
1070
     0
  0
VISUALSTYLE
  5
ADED3
102
{ACAD_REACTORS
330
ADEC6
102
}
330
ADEC6
100
AcDbVisualStyle
  2
Thicken
 70
    13
 71
     2
 72
     2
 73
     0
 90
        0
 40
-0.6
 41
-30.0
 62
     5
 63
     7
 74
     1
 91
        4
 64
     7
 65
   257
 75
     1
175
     1
 42
1.0
 92
       12
 66
     7
 43
1.0
 76
     1
 77
     6
 78
     2
 67
     7
 79
     5
170
     0
171
     0
290
     0
174
     0
 93
        1
 44
0.0
173
     0
291
     1
 45
0.0
1001
ACAD
1000
AcDbSavedByObjectVersion
1070
     0
  0
DICTIONARYVAR
  5
DD95B
102
{ACAD_REACTORS
330
34
102
}
330
34
100
DictionaryVariables
280
     0
  1
1:1
  0
DICTIONARYVAR
  5
DD959
102
{ACAD_REACTORS
330
34
102
}
330
34
100
DictionaryVariables
280
     0
  1
STANDARD
  0
DICTIONARYVAR
  5
FD8B
102
{ACAD_REACTORS
330
34
102
}
330
34
100
DictionaryVariables
280
     0
  1
STANDARD
  0
DICTIONARYVAR
  5
A10C
102
{ACAD_REACTORS
330
34
102
}
330
34
100
DictionaryVariables
280
     0
  1
1
  0
DICTIONARYVAR
  5
AE2A9
102
{ACAD_REACTORS
330
34
102
}
330
34
100
DictionaryVariables
280
     0
  1
0.000000;0.000000
  0
DICTIONARYVAR
  5
35
102
{ACAD_REACTORS
330
34
102
}
330
34
100
DictionaryVariables
280
     0
  1
0
  0
DICTIONARYVAR
  5
DD95C
102
{ACAD_REACTORS
330
34
102
}
330
34
100
DictionaryVariables
280
     0
  1
0
  0
DICTIONARYVAR
  5
DD95A
102
{ACAD_REACTORS
330
34
102
}
330
34
100
DictionaryVariables
280
     0
  1
0
  0
DICTIONARYVAR
  5
194C
102
{ACAD_REACTORS
330
34
102
}
330
34
100
DictionaryVariables
280
     0
  1
127
  0
DICTIONARY
  5
7E8
102
{ACAD_REACTORS
330
47
102
}
330
47
100
AcDbDictionary
281
     1
  0
DICTIONARY
  5
4C
102
{ACAD_REACTORS
330
47
102
}
330
47
100
AcDbDictionary
281
     1
  0
XRECORD
  5
DE78
102
{ACAD_REACTORS
330
47
102
}
330
47
100
AcDbXrecord
280
     1
 90
-1023410169
  0
XRECORD
  5
547D8
102
{ACAD_REACTORS
330
547D7
102
}
330
547D7
100
AcDbXrecord
280
     1
330
0
330
0
330
0
330
0
330
0
330
0
330
0
330
0
330
0
330
0
330
0
330
0
330
0
330
0
330
0
330
0
330
0
330
0
330
0
330
0
330
0
330
0
330
0
330
0
330
0
330
0
330
0
330
0
330
0
330
0
330
0
330
0
330
0
330
0
330
0
330
0
330
0
330
0
330
0
330
0
330
0
330
0
330
0
330
0
330
0
330
0
330
0
330
0
330
0
330
0
330
0
330
0
330
0
330
0
330
0
330
0
330
0
330
0
330
0
330
0
330
0
330
0
330
0
330
0
330
0
330
0
330
0
330
0
330
0
330
0
330
0
330
0
330
0
330
0
330
0
330
0
330
0
330
0
330
0
330
0
330
0
330
0
330
0
330
0
330
0
330
0
330
0
330
0
330
0
330
0
330
0
330
0
330
0
330
0
330
0
330
0
330
0
330
0
330
0
330
0
330
0
330
0
330
0
330
0
330
0
330
0
330
0
330
0
330
0
330
0
330
0
330
0
330
0
330
0
330
0
330
0
330
0
330
0
330
0
330
0
330
0
330
0
330
0
330
0
330
0
330
0
330
0
330
0
330
0
330
0
330
0
330
0
330
0
330
0
330
0
330
0
330
0
330
0
330
0
330
0
330
0
330
0
330
0
330
0
330
0
330
0
330
0
330
0
330
0
330
0
330
0
330
0
330
0
330
0
330
0
330
0
330
0
330
0
330
0
330
0
330
0
330
0
330
0
330
0
330
0
330
0
330
0
330
0
330
0
330
0
330
0
330
0
330
0
330
0
330
0
330
0
330
0
330
0
330
0
330
0
330
0
330
0
330
0
330
0
330
0
330
0
330
0
330
0
330
0
330
0
330
0
330
0
330
0
330
0
330
0
330
0
330
0
330
0
330
0
330
0
330
0
330
0
330
0
330
0
330
0
330
0
330
0
330
0
330
0
330
0
330
0
330
0
330
0
330
0
330
0
330
0
330
0
330
0
330
0
330
0
330
0
330
0
330
0
330
0
330
0
330
0
330
0
330
0
330
0
330
0
330
0
330
0
330
0
330
0
330
0
330
0
330
0
330
0
330
0
330
0
330
0
330
0
330
0
330
0
330
0
330
0
330
0
330
0
330
0
330
0
330
0
330
0
330
0
330
0
330
0
330
0
330
0
330
0
330
0
330
0
330
0
330
0
330
0
330
0
330
0
330
0
330
0
330
0
330
0
330
0
330
0
330
0
330
0
330
0
330
0
330
0
330
0
330
0
330
0
330
0
330
0
330
0
330
0
330
0
330
0
330
0
330
0
330
0
330
0
330
0
330
0
330
0
330
0
330
0
330
0
330
0
330
0
330
0
330
0
330
0
330
0
330
0
330
0
330
0
330
0
330
0
330
0
330
0
330
0
330
0
330
0
330
0
330
0
330
0
330
0
330
0
330
0
330
0
330
0
330
0
330
0
330
0
330
0
330
0
330
0
330
0
330
0
330
0
330
0
330
0
330
0
330
0
330
0
330
0
330
0
330
0
330
0
330
0
330
0
330
0
330
0
330
0
330
0
330
0
330
0
330
0
330
0
330
0
330
0
330
0
330
0
330
0
330
0
330
0
330
0
330
0
330
0
330
0
330
0
330
0
330
0
330
0
330
0
330
0
330
0
330
0
330
0
330
0
330
0
330
0
330
0
330
0
330
0
330
0
330
0
330
0
330
0
330
0
330
0
330
0
330
0
330
0
330
0
330
0
330
0
330
0
330
0
330
0
330
0
330
0
330
0
330
0
330
0
330
0
330
0
330
0
330
0
330
0
330
0
330
0
330
0
330
0
330
0
330
0
330
0
330
0
330
0
330
0
330
0
330
0
330
0
330
0
330
0
330
0
330
0
330
0
330
0
330
0
330
0
330
0
330
0
330
0
330
0
330
0
330
0
330
0
330
0
330
0
330
0
330
0
330
0
330
0
330
0
330
0
330
0
330
0
330
0
330
0
330
0
330
0
330
0
330
0
330
0
330
0
330
0
330
0
330
0
330
0
330
0
330
0
330
0
330
0
330
0
330
0
330
0
330
0
330
0
330
0
330
0
330
0
330
0
330
0
330
0
330
0
330
0
330
0
330
0
330
0
330
0
330
0
330
0
330
0
330
0
330
0
330
0
330
0
330
0
330
0
330
0
330
0
330
0
330
0
330
0
330
0
330
0
330
0
330
0
330
0
330
0
330
0
330
0
330
0
330
0
330
0
330
0
330
0
330
0
330
0
330
0
330
0
330
0
330
0
330
0
330
0
330
0
330
0
330
0
330
0
330
0
330
0
330
0
330
0
330
0
330
0
330
0
330
0
330
0
330
0
330
0
330
0
330
0
330
0
330
0
330
0
330
0
330
0
330
0
330
0
330
0
330
0
330
0
330
0
330
0
330
0
330
0
330
0
330
0
330
0
330
0
330
0
330
0
330
0
330
0
330
0
330
0
330
0
330
0
330
0
330
0
330
0
330
0
330
0
330
0
330
0
330
0
330
0
330
0
330
0
330
0
330
0
330
0
330
0
330
0
330
0
330
0
330
0
330
0
330
0
330
0
330
0
330
0
330
0
330
0
330
0
330
0
330
0
330
0
330
0
330
0
330
0
330
0
330
0
330
0
330
0
330
0
330
0
330
0
330
0
330
0
330
0
330
0
330
0
330
0
330
0
330
0
330
0
330
0
330
0
330
0
330
0
330
0
330
0
330
0
330
0
330
0
330
0
330
0
330
0
330
0
330
0
330
0
330
0
330
0
330
0
330
0
330
0
330
0
330
0
330
0
330
0
330
0
330
0
330
0
330
0
330
0
330
0
330
0
330
0
330
0
330
0
330
0
330
0
330
0
330
0
330
0
330
0
330
0
330
0
330
0
330
0
330
0
330
0
330
0
330
0
330
0
330
0
330
0
330
0
330
0
330
0
330
0
330
0
330
0
330
0
330
0
330
0
330
0
330
0
330
0
330
0
330
0
330
0
330
0
330
0
330
0
330
0
330
0
330
0
330
0
330
0
330
0
330
0
330
0
330
0
330
0
330
0
330
0
330
0
330
0
330
0
330
0
330
0
330
0
330
0
330
0
330
0
330
0
330
0
330
0
330
0
330
0
330
0
330
0
330
0
330
0
330
0
330
0
330
0
330
0
330
0
330
0
330
0
330
0
330
0
330
0
330
0
330
0
330
0
330
0
330
0
330
0
330
0
330
0
330
0
330
0
330
0
330
0
330
0
330
0
330
0
330
0
330
0
330
0
330
0
330
0
330
0
330
0
330
0
330
0
330
0
330
0
330
0
330
0
330
0
330
0
330
0
330
0
330
0
330
0
330
0
330
0
330
0
330
0
330
0
330
0
330
0
330
0
330
0
330
0
330
0
330
0
330
0
330
0
330
0
330
0
330
0
330
0
330
0
330
0
330
0
330
0
330
0
330
0
330
0
330
0
330
0
330
0
330
0
330
0
330
0
330
0
330
0
330
0
330
0
330
0
330
0
330
0
330
0
330
0
330
0
330
0
330
0
330
0
330
0
330
0
330
0
330
0
330
0
330
0
330
0
330
0
330
0
330
0
330
0
330
0
330
0
330
0
330
0
330
0
330
0
330
0
330
0
330
0
330
0
330
0
330
0
330
0
330
0
330
0
330
0
330
0
330
0
330
0
330
0
330
0
330
0
330
0
330
0
330
0
330
0
330
0
330
0
330
0
330
0
330
0
330
0
330
0
330
0
330
0
330
0
330
0
330
0
330
0
330
0
330
0
330
0
330
0
330
0
330
0
330
0
330
0
330
0
330
0
330
0
330
0
330
0
330
0
330
0
330
0
330
0
330
0
330
0
330
0
330
0
330
0
330
0
330
0
330
0
330
0
330
0
330
0
330
0
330
0
330
0
330
0
330
0
330
0
330
0
330
0
330
0
330
0
330
0
330
0
330
0
330
0
330
0
330
0
330
0
330
0
330
0
330
0
330
0
330
0
330
0
330
0
330
0
330
0
330
0
330
0
330
0
330
0
330
0
330
0
330
0
330
0
330
0
330
0
330
0
330
0
330
0
330
0
330
0
330
0
330
0
330
0
330
0
330
0
330
0
330
0
330
0
330
0
330
0
330
0
330
0
330
0
330
0
330
0
330
0
330
0
330
0
330
0
330
0
330
0
330
0
330
0
330
0
330
0
330
0
330
0
330
0
330
0
330
0
330
0
330
0
330
0
330
0
330
0
330
0
330
0
330
0
330
0
330
0
330
0
330
0
330
0
330
0
330
0
330
0
330
0
330
0
330
0
330
0
330
0
330
0
330
0
330
0
330
0
330
0
330
0
330
0
330
0
330
0
330
0
330
0
330
0
330
0
330
0
330
0
330
0
330
0
330
0
330
0
330
0
330
0
330
0
330
0
330
0
330
0
330
0
330
0
330
0
330
0
330
0
330
0
330
0
330
0
330
0
330
0
330
0
330
0
330
0
330
0
330
0
330
0
330
0
330
0
330
0
330
0
330
0
330
0
330
0
330
0
330
0
330
0
330
0
330
0
330
0
330
0
330
0
330
0
330
0
330
0
330
0
330
0
330
0
330
0
330
0
330
0
330
0
330
0
330
0
330
0
330
0
330
0
330
0
330
0
330
0
330
0
330
0
330
0
330
0
330
0
330
0
330
0
330
0
330
0
330
0
330
0
330
0
330
0
330
0
330
0
330
0
330
0
330
0
330
0
330
0
330
0
330
0
330
0
330
0
330
0
330
0
330
0
330
0
330
0
330
0
330
0
330
0
330
0
330
0
330
0
330
0
330
0
330
0
330
0
330
0
330
0
330
0
330
0
330
0
330
0
330
0
330
0
330
0
330
0
330
0
330
0
330
0
330
0
330
0
330
0
330
0
330
0
330
0
330
0
330
0
330
0
330
0
330
0
330
0
330
0
330
0
330
0
330
0
330
0
330
0
330
0
330
0
330
0
330
0
330
0
330
0
330
0
330
0
330
0
330
0
330
0
330
0
330
0
330
0
330
0
330
0
330
0
330
0
330
0
330
0
330
0
330
0
330
0
330
0
330
0
330
0
330
0
330
0
330
0
330
0
330
0
330
0
330
0
330
0
330
0
330
0
330
0
330
0
330
0
330
0
330
0
330
0
330
0
330
0
330
0
330
0
330
0
330
0
330
0
330
0
330
0
330
0
330
0
330
0
330
0
330
0
330
0
330
0
330
0
330
0
330
0
330
0
330
0
330
0
330
0
330
0
330
0
330
0
330
0
330
0
330
0
330
0
330
0
330
0
330
0
330
0
330
0
330
0
330
0
330
0
330
0
330
0
330
0
330
0
330
0
330
0
330
0
330
0
330
0
330
0
330
0
330
0
330
0
330
0
330
0
330
0
330
0
330
0
330
0
330
0
330
0
330
0
330
0
330
0
330
0
330
0
330
0
330
0
330
0
330
0
330
0
330
0
330
0
330
0
330
0
330
0
330
0
330
0
330
0
330
0
330
0
330
0
330
0
330
0
330
0
330
0
330
0
330
0
330
0
330
0
330
0
330
0
330
0
330
0
330
0
330
0
330
0
330
0
330
0
330
0
330
0
330
0
330
0
330
0
330
0
330
0
330
0
330
0
330
0
330
0
330
0
330
0
330
0
330
0
330
0
330
0
330
0
330
0
330
0
330
0
330
0
330
0
330
0
330
0
330
0
330
0
330
0
330
0
330
0
330
0
330
0
330
0
330
0
330
0
330
0
330
0
330
0
330
0
330
0
330
0
330
0
330
0
330
0
330
0
330
0
330
0
330
0
330
0
330
0
330
0
330
0
330
0
330
0
330
0
330
0
330
0
330
0
330
0
330
0
330
0
330
0
330
0
330
0
330
0
330
0
330
0
330
0
330
0
330
0
330
0
330
0
330
0
330
0
330
0
330
0
330
0
330
0
330
0
330
0
330
0
330
0
330
0
330
0
330
0
330
0
330
0
330
0
330
0
330
0
330
0
330
0
330
0
330
0
330
0
330
0
330
0
330
0
330
0
330
0
330
0
330
0
330
0
330
0
330
0
330
0
330
0
330
0
330
0
330
0
330
0
330
0
330
0
330
0
330
0
330
0
330
0
330
0
330
0
330
0
330
0
330
0
330
0
330
0
330
0
330
0
330
0
330
0
330
0
330
0
330
0
330
0
330
0
330
0
330
0
330
0
330
0
330
0
330
0
330
0
330
0
330
0
330
0
330
0
330
0
330
0
330
0
330
0
330
0
330
0
330
0
330
0
330
0
330
0
330
0
330
0
330
0
330
0
330
0
330
0
330
0
330
0
330
0
330
0
330
0
330
0
330
0
330
0
330
0
330
0
330
0
330
0
330
0
330
0
330
0
330
0
330
0
330
0
330
0
330
0
330
0
330
0
330
0
330
0
330
0
330
0
330
0
330
0
330
0
330
0
330
0
330
0
330
0
330
0
330
0
330
0
330
0
330
0
330
0
330
0
330
0
330
0
330
0
330
0
330
0
330
0
330
0
330
0
330
0
330
0
330
0
330
0
330
0
330
0
330
0
330
0
330
0
330
0
330
0
330
0
330
0
330
0
330
0
330
0
330
0
330
0
330
0
330
0
330
0
330
0
330
0
330
0
330
0
330
0
330
0
330
0
330
0
330
0
330
0
330
0
330
0
330
0
330
0
330
0
330
0
330
0
330
0
330
0
330
0
330
0
330
0
330
0
330
0
330
0
330
0
330
0
330
0
330
0
330
0
330
0
330
0
330
0
330
0
330
0
330
0
330
0
330
0
330
0
330
0
330
0
330
0
330
0
330
0
330
0
330
0
330
0
330
0
330
0
330
0
330
0
330
0
330
0
330
0
330
0
330
0
330
0
330
0
330
0
330
0
330
0
330
0
330
0
330
0
330
0
330
0
330
0
330
0
330
0
330
0
330
0
330
0
330
0
330
0
330
0
330
0
330
0
330
0
330
0
330
0
330
0
330
0
330
0
330
0
330
0
330
0
330
0
330
0
330
0
330
0
330
0
330
0
330
0
330
0
330
0
330
0
330
0
330
0
330
0
330
0
330
0
330
0
330
0
330
0
330
0
330
0
330
0
330
0
330
0
330
0
330
0
330
0
330
0
330
0
330
0
330
0
330
0
330
0
330
0
330
0
330
0
330
0
330
0
330
0
330
0
330
0
330
0
330
0
330
0
330
0
330
0
330
0
330
0
330
0
330
0
330
0
330
0
330
0
330
0
330
0
330
0
330
0
330
0
330
0
330
0
330
0
330
0
330
0
330
0
330
0
330
0
330
0
330
0
330
0
330
0
330
0
330
0
330
0
330
0
330
0
330
0
330
0
330
0
330
0
330
0
330
0
330
0
330
0
330
0
330
0
330
0
330
0
330
0
330
0
330
0
330
0
330
0
330
0
330
0
330
0
330
0
330
0
330
0
330
0
330
0
330
0
330
0
330
0
330
0
330
0
330
0
330
0
330
0
330
0
330
0
330
0
330
0
330
0
330
0
330
0
330
0
330
0
330
0
330
0
330
0
330
0
330
0
330
0
330
0
330
0
330
0
330
0
330
0
330
0
330
0
330
0
330
0
330
0
330
0
330
0
330
0
330
0
330
0
330
0
330
0
330
0
330
0
330
0
330
0
330
0
330
0
330
0
330
0
330
0
330
0
330
0
330
0
330
0
330
0
330
0
330
0
330
0
330
0
330
0
330
0
330
0
330
0
330
0
330
0
330
0
330
0
330
0
330
0
330
0
330
0
330
0
330
0
330
0
330
0
330
0
330
0
330
0
330
0
330
0
330
0
330
0
330
0
330
0
330
0
330
0
330
0
330
0
330
0
330
0
330
0
330
0
330
0
330
0
330
0
330
0
330
0
330
0
330
0
330
0
330
0
330
0
330
0
330
0
330
0
330
0
330
0
  0
XRECORD
  5
3FB7
102
{ACAD_REACTORS
330
3F96
102
}
330
3F96
100
AcDbXrecord
280
     1
 91
        3
330
A47
 90
        8
 62
     7
370
    40
331
16
  1
Color_7
330
A46
 90
        0
 62
    14
370
    -3
331
16
  1
Color_14
330
0
 90
        8
 62
     7
370
    20
331
16
  1
Color_7
330
6D1
 90
        0
 62
     7
370
    -3
331
16
  1
Color_7
330
0
 90
        8
 62
     7
370
    50
331
16
  1
Color_7
330
A48
 90
        8
 62
     2
370
    35
331
16
  1
Color_2
330
0
 90
        8
 62
     7
370
    -3
331
16
  1
Color_7
330
10
 90
        8
 62
     7
370
    -3
331
16
  1
Color_7
  0
XRECORD
  5
B78E5
102
{ACAD_REACTORS
330
15B82
102
}
330
15B82
100
AcDbXrecord
280
     1
 90
-1023410046
  0
XRECORD
  5
1684E
102
{ACAD_REACTORS
330
15B82
102
}
330
15B82
100
AcDbXrecord
280
     1
 90
-1023410016
  0
XRECORD
  5
15B84
102
{ACAD_REACTORS
330
15B82
102
}
330
15B82
100
AcDbXrecord
280
     1
 90
-1023410146
  0
XRECORD
  5
16DE6
102
{ACAD_REACTORS
330
15B82
102
}
330
15B82
100
AcDbXrecord
280
     1
 90
-1023410006
  0
XRECORD
  5
16A9C
102
{ACAD_REACTORS
330
15B82
102
}
330
15B82
100
AcDbXrecord
280
     1
 90
-1023410051
  0
XRECORD
  5
16DF0
102
{ACAD_REACTORS
330
15B82
102
}
330
15B82
100
AcDbXrecord
280
     1
 90
-1023410126
  0
XRECORD
  5
16DDE
102
{ACAD_REACTORS
330
15B82
102
}
330
15B82
100
AcDbXrecord
280
     1
 90
-1023409966
  0
XRECORD
  5
B78E4
102
{ACAD_REACTORS
330
15B82
102
}
330
15B82
100
AcDbXrecord
280
     1
 90
-1023410076
  0
DICTIONARY
  5
DDA05
330
ADEC4
100
AcDbDictionary
280
     1
281
     1
  3
ACAD_XREC_ROUNDTRIP
360
DDA06
  0
DICTIONARY
  5
DDA03
330
ADEC3
100
AcDbDictionary
280
     1
281
     1
  3
ACAD_XREC_ROUNDTRIP
360
DDA04
  0
DICTIONARY
  5
DDA07
330
ADEC5
100
AcDbDictionary
280
     1
281
     1
  3
ACAD_XREC_ROUNDTRIP
360
DDA08
  0
DICTIONARY
  5
DD956
330
FD1E
100
AcDbDictionary
280
     1
281
     1
  3
ACAD_ROUNDTRIP_2008_TABLESTYLE_CELLSTYLEMAP
360
DD9FF
  3
ACAD_XREC_ROUNDTRIP
360
DDA02
  0
XRECORD
  5
DDA06
102
{ACAD_REACTORS
330
DDA05
102
}
330
DDA05
100
AcDbXrecord
280
     1
102
MATERIAL
148
0.0
149
0.0
149
0.0
 93
        0
 94
       63
282
     0
 72
     1
 77
     1
171
     1
175
     1
179
     1
273
     0
  0
XRECORD
  5
DDA04
102
{ACAD_REACTORS
330
DDA03
102
}
330
DDA03
100
AcDbXrecord
280
     1
102
MATERIAL
148
0.0
149
0.0
149
0.0
 93
        0
 94
       63
282
     0
 72
     1
 77
     1
171
     1
175
     1
179
     1
273
     0
  0
XRECORD
  5
DDA08
102
{ACAD_REACTORS
330
DDA07
102
}
330
DDA07
100
AcDbXrecord
280
     1
102
MATERIAL
148
0.0
149
0.0
149
0.0
 93
        0
 94
       63
282
     0
 72
     1
 77
     1
171
     1
175
     1
179
     1
273
     0
  0
CELLSTYLEMAP
  5
DD9FF
102
{ACAD_REACTORS
330
DD956
102
}
330
DD956
100
AcDbCellStyleMap
 90
        3
300
CELLSTYLE
  1
TABLEFORMAT_BEGIN
 90
        5
170
     1
 91
        0
 92
    32768
 62
   257
 93
        1
300
CONTENTFORMAT
  1
CONTENTFORMAT_BEGIN
 90
        0
 91
        0
 92
        4
 93
        0
300

 40
0.0
140
1.0
 94
        5
 62
     0
340
11
144
6.0
309
CONTENTFORMAT_END
171
     1
301
MARGIN
  1
CELLMARGIN_BEGIN
 40
1.5
 40
1.5
 40
1.5
 40
1.5
 40
0.18
 40
0.18
309
CELLMARGIN_END
 94
        6
 95
        1
302
GRIDFORMAT
  1
GRIDFORMAT_BEGIN
 90
        0
 91
        1
 62
     0
 92
       -2
340
0
 93
        0
 40
0.045
309
GRIDFORMAT_END
 95
        2
302
GRIDFORMAT
  1
GRIDFORMAT_BEGIN
 90
        0
 91
        1
 62
     0
 92
       -2
340
0
 93
        0
 40
0.045
309
GRIDFORMAT_END
 95
        4
302
GRIDFORMAT
  1
GRIDFORMAT_BEGIN
 90
        0
 91
        1
 62
     0
 92
       -2
340
0
 93
        0
 40
0.045
309
GRIDFORMAT_END
 95
        8
302
GRIDFORMAT
  1
GRIDFORMAT_BEGIN
 90
        0
 91
        1
 62
     0
 92
       -2
340
0
 93
        0
 40
0.045
309
GRIDFORMAT_END
 95
       16
302
GRIDFORMAT
  1
GRIDFORMAT_BEGIN
 90
        0
 91
        1
 62
     0
 92
       -2
340
0
 93
        0
 40
0.045
309
GRIDFORMAT_END
 95
       32
302
GRIDFORMAT
  1
GRIDFORMAT_BEGIN
 90
        0
 91
        1
 62
     0
 92
       -2
340
0
 93
        0
 40
0.045
309
GRIDFORMAT_END
309
TABLEFORMAT_END
  1
CELLSTYLE_BEGIN
 90
        1
 91
        1
300
_TITLE
309
CELLSTYLE_END
300
CELLSTYLE
  1
TABLEFORMAT_BEGIN
 90
        5
170
     1
 91
        0
 92
        0
 62
   257
 93
        1
300
CONTENTFORMAT
  1
CONTENTFORMAT_BEGIN
 90
        0
 91
        0
 92
        4
 93
        0
300

 40
0.0
140
1.0
 94
        5
 62
     0
340
11
144
4.5
309
CONTENTFORMAT_END
171
     1
301
MARGIN
  1
CELLMARGIN_BEGIN
 40
1.5
 40
1.5
 40
1.5
 40
1.5
 40
0.18
 40
0.18
309
CELLMARGIN_END
 94
        6
 95
        1
302
GRIDFORMAT
  1
GRIDFORMAT_BEGIN
 90
        0
 91
        1
 62
     0
 92
       -2
340
0
 93
        0
 40
0.045
309
GRIDFORMAT_END
 95
        2
302
GRIDFORMAT
  1
GRIDFORMAT_BEGIN
 90
        0
 91
        1
 62
     0
 92
       -2
340
0
 93
        0
 40
0.045
309
GRIDFORMAT_END
 95
        4
302
GRIDFORMAT
  1
GRIDFORMAT_BEGIN
 90
        0
 91
        1
 62
     0
 92
       -2
340
0
 93
        0
 40
0.045
309
GRIDFORMAT_END
 95
        8
302
GRIDFORMAT
  1
GRIDFORMAT_BEGIN
 90
        0
 91
        1
 62
     0
 92
       -2
340
0
 93
        0
 40
0.045
309
GRIDFORMAT_END
 95
       16
302
GRIDFORMAT
  1
GRIDFORMAT_BEGIN
 90
        0
 91
        1
 62
     0
 92
       -2
340
0
 93
        0
 40
0.045
309
GRIDFORMAT_END
 95
       32
302
GRIDFORMAT
  1
GRIDFORMAT_BEGIN
 90
        0
 91
        1
 62
     0
 92
       -2
340
0
 93
        0
 40
0.045
309
GRIDFORMAT_END
309
TABLEFORMAT_END
  1
CELLSTYLE_BEGIN
 90
        2
 91
        1
300
_HEADER
309
CELLSTYLE_END
300
CELLSTYLE
  1
TABLEFORMAT_BEGIN
 90
        5
170
     1
 91
        0
 92
        0
 62
   257
 93
        1
300
CONTENTFORMAT
  1
CONTENTFORMAT_BEGIN
 90
        0
 91
        0
 92
        4
 93
        0
300

 40
0.0
140
1.0
 94
        2
 62
     0
340
11
144
4.5
309
CONTENTFORMAT_END
171
     1
301
MARGIN
  1
CELLMARGIN_BEGIN
 40
1.5
 40
1.5
 40
1.5
 40
1.5
 40
0.18
 40
0.18
309
CELLMARGIN_END
 94
        6
 95
        1
302
GRIDFORMAT
  1
GRIDFORMAT_BEGIN
 90
        0
 91
        1
 62
     0
 92
       -2
340
0
 93
        0
 40
0.045
309
GRIDFORMAT_END
 95
        2
302
GRIDFORMAT
  1
GRIDFORMAT_BEGIN
 90
        0
 91
        1
 62
     0
 92
       -2
340
0
 93
        0
 40
0.045
309
GRIDFORMAT_END
 95
        4
302
GRIDFORMAT
  1
GRIDFORMAT_BEGIN
 90
        0
 91
        1
 62
     0
 92
       -2
340
0
 93
        0
 40
0.045
309
GRIDFORMAT_END
 95
        8
302
GRIDFORMAT
  1
GRIDFORMAT_BEGIN
 90
        0
 91
        1
 62
     0
 92
       -2
340
0
 93
        0
 40
0.045
309
GRIDFORMAT_END
 95
       16
302
GRIDFORMAT
  1
GRIDFORMAT_BEGIN
 90
        0
 91
        1
 62
     0
 92
       -2
340
0
 93
        0
 40
0.045
309
GRIDFORMAT_END
 95
       32
302
GRIDFORMAT
  1
GRIDFORMAT_BEGIN
 90
        0
 91
        1
 62
     0
 92
       -2
340
0
 93
        0
 40
0.045
309
GRIDFORMAT_END
309
TABLEFORMAT_END
  1
CELLSTYLE_BEGIN
 90
        3
 91
        2
300
_DATA
309
CELLSTYLE_END
  0
XRECORD
  5
DDA02
102
{ACAD_REACTORS
330
DD956
102
}
330
DD956
100
AcDbXrecord
280
     1
102
ACAD_ROUNDTRIP_PRE2007_TABLESTYLE
 90
        4
 91
        0
  1

 92
        4
 93
        0
  2

 94
        4
 95
        0
  3

  0
ENDSEC
  0
EOF
