  0
SECTION
  2
HEADER
  9
$ACADVER
  1
AC1015
  9
$ACADMAINTVER
 70
    20
  9
$DWGCODEPAGE
  3
ANSI_932
  9
$INSBASE
 10
0.0
 20
0.0
 30
0.0
  9
$EXTMIN
 10
57.08862409122366
 20
332.7499525238368
 30
-0.0015258207003583
  9
$EXTMAX
 10
354.1314706277701
 20
542.7787926495234
 30
0.0000000349246037
  9
$LIMMIN
 10
0.0
 20
0.0
  9
$LIMMAX
 10
420.0
 20
297.0
  9
$ORTHOMODE
 70
     0
  9
$REGENMODE
 70
     1
  9
$FILLMODE
 70
     1
  9
$QTEXTMODE
 70
     0
  9
$MIRRTEXT
 70
     0
  9
$LTSCALE
 40
1.0
  9
$ATTMODE
 70
     1
  9
$TEXTSIZE
 40
3.2
  9
$TRACEWID
 40
1.0
  9
$TEXTSTYLE
  7
STANDARD
  9
$CLAYER
  8
AM_0
  9
$CELTYPE
  6
ByLayer
  9
$CECOLOR
 62
   256
  9
$CELTSCALE
 40
10.0
  9
$DISPSILH
 70
     0
  9
$DIMSCALE
 40
1.0
  9
$DIMASZ
 40
1.0
  9
$DIMEXO
 40
1.0
  9
$DIMDLI
 40
10.0
  9
$DIMRND
 40
0.0
  9
$DIMDLE
 40
0.0
  9
$DIMEXE
 40
1.0
  9
$DIMTP
 40
0.3
  9
$DIMTM
 40
0.0
  9
$DIMTXT
 40
3.5
  9
$DIMCEN
 40
0.0
  9
$DIMTSZ
 40
0.0
  9
$DIMTOL
 70
     0
  9
$DIMLIM
 70
     0
  9
$DIMTIH
 70
     0
  9
$DIMTOH
 70
     0
  9
$DIMSE1
 70
     0
  9
$DIMSE2
 70
     0
  9
$DIMTAD
 70
     1
  9
$DIMZIN
 70
     8
  9
$DIMBLK
  1

  9
$DIMASO
 70
     1
  9
$DIMSHO
 70
     1
  9
$DIMPOST
  1

  9
$DIMAPOST
  1
"
  9
$DIMALT
 70
     0
  9
$DIMALTD
 70
     2
  9
$DIMALTF
 40
0.0393701
  9
$DIMLFAC
 40
1.0
  9
$DIMTOFL
 70
     1
  9
$DIMTVP
 40
0.0
  9
$DIMTIX
 70
     0
  9
$DIMSOXD
 70
     0
  9
$DIMSAH
 70
     0
  9
$DIMBLK1
  1

  9
$DIMBLK2
  1

  9
$DIMSTYLE
  2
SYS
  9
$DIMCLRD
 70
   256
  9
$DIMCLRE
 70
   256
  9
$DIMCLRT
 70
     7
  9
$DIMTFAC
 40
0.71
  9
$DIMGAP
 40
1.5
  9
$DIMJUST
 70
     0
  9
$DIMSD1
 70
     0
  9
$DIMSD2
 70
     0
  9
$DIMTOLJ
 70
     0
  9
$DIMTZIN
 70
     8
  9
$DIMALTZ
 70
     0
  9
$DIMALTTZ
 70
     0
  9
$DIMUPT
 70
     0
  9
$DIMDEC
 70
     1
  9
$DIMTDEC
 70
     2
  9
$DIMALTU
 70
     2
  9
$DIMALTTD
 70
     2
  9
$DIMTXSTY
  7
STANDARD
  9
$DIMAUNIT
 70
     0
  9
$DIMADEC
 70
     0
  9
$DIMALTRND
 40
0.0
  9
$DIMAZIN
 70
     2
  9
$DIMDSEP
 70
    46
  9
$DIMATFIT
 70
     3
  9
$DIMFRAC
 70
     0
  9
$DIMLDRBLK
  1

  9
$DIMLUNIT
 70
     2
  9
$DIMLWD
 70
    -1
  9
$DIMLWE
 70
    -1
  9
$DIMTMOVE
 70
     0
  9
$LUNITS
 70
     2
  9
$LUPREC
 70
     2
  9
$SKETCHINC
 40
1.0
  9
$FILLETRAD
 40
0.0
  9
$AUNITS
 70
     0
  9
$AUPREC
 70
     0
  9
$MENU
  1
.
  9
$ELEVATION
 40
0.0
  9
$PELEVATION
 40
0.0
  9
$THICKNESS
 40
0.0
  9
$LIMCHECK
 70
     0
  9
$CHAMFERA
 40
0.0
  9
$CHAMFERB
 40
0.0
  9
$CHAMFERC
 40
20.0
  9
$CHAMFERD
 40
0.0
  9
$SKPOLY
 70
     0
  9
$TDCREATE
 40
2454123.447246817
  9
$TDUCREATE
 40
2454123.072246817
  9
$TDUPDATE
 40
2454886.431390694
  9
$TDUUPDATE
 40
2454886.056390694
  9
$TDINDWG
 40
0.4967160301
  9
$TDUSRTIMER
 40
0.4967160301
  9
$USRTIMER
 70
     1
  9
$ANGBASE
 50
0.0
  9
$ANGDIR
 70
     0
  9
$PDMODE
 70
     0
  9
$PDSIZE
 40
-3.0
  9
$PLINEWID
 40
0.0
  9
$SPLFRAME
 70
     0
  9
$SPLINETYPE
 70
     6
  9
$SPLINESEGS
 70
     8
  9
$HANDSEED
  5
15E63
  9
$SURFTAB1
 70
     6
  9
$SURFTAB2
 70
     6
  9
$SURFTYPE
 70
     6
  9
$SURFU
 70
     6
  9
$SURFV
 70
     6
  9
$UCSBASE
  2

  9
$UCSNAME
  2

  9
$UCSORG
 10
0.0
 20
0.0
 30
0.0
  9
$UCSXDIR
 10
1.0
 20
0.0
 30
0.0
  9
$UCSYDIR
 10
0.0
 20
1.0
 30
0.0
  9
$UCSORTHOREF
  2

  9
$UCSORTHOVIEW
 70
     0
  9
$UCSORGTOP
 10
0.0
 20
0.0
 30
0.0
  9
$UCSORGBOTTOM
 10
0.0
 20
0.0
 30
0.0
  9
$UCSORGLEFT
 10
0.0
 20
0.0
 30
0.0
  9
$UCSORGRIGHT
 10
0.0
 20
0.0
 30
0.0
  9
$UCSORGFRONT
 10
0.0
 20
0.0
 30
0.0
  9
$UCSORGBACK
 10
0.0
 20
0.0
 30
0.0
  9
$PUCSBASE
  2

  9
$PUCSNAME
  2

  9
$PUCSORG
 10
0.0
 20
0.0
 30
0.0
  9
$PUCSXDIR
 10
1.0
 20
0.0
 30
0.0
  9
$PUCSYDIR
 10
0.0
 20
1.0
 30
0.0
  9
$PUCSORTHOREF
  2

  9
$PUCSORTHOVIEW
 70
     0
  9
$PUCSORGTOP
 10
0.0
 20
0.0
 30
0.0
  9
$PUCSORGBOTTOM
 10
0.0
 20
0.0
 30
0.0
  9
$PUCSORGLEFT
 10
0.0
 20
0.0
 30
0.0
  9
$PUCSORGRIGHT
 10
0.0
 20
0.0
 30
0.0
  9
$PUCSORGFRONT
 10
0.0
 20
0.0
 30
0.0
  9
$PUCSORGBACK
 10
0.0
 20
0.0
 30
0.0
  9
$USERI1
 70
     0
  9
$USERI2
 70
     0
  9
$USERI3
 70
     0
  9
$USERI4
 70
     0
  9
$USERI5
 70
     0
  9
$USERR1
 40
0.0
  9
$USERR2
 40
0.0
  9
$USERR3
 40
0.0
  9
$USERR4
 40
0.0
  9
$USERR5
 40
0.0
  9
$WORLDVIEW
 70
     1
  9
$SHADEDGE
 70
     3
  9
$SHADEDIF
 70
    70
  9
$TILEMODE
 70
     1
  9
$MAXACTVP
 70
    64
  9
$PINSBASE
 10
0.0
 20
0.0
 30
0.0
  9
$PLIMCHECK
 70
     0
  9
$PEXTMIN
 10
1.000000000000000E+20
 20
1.000000000000000E+20
 30
1.000000000000000E+20
  9
$PEXTMAX
 10
-1.000000000000000E+20
 20
-1.000000000000000E+20
 30
-1.000000000000000E+20
  9
$PLIMMIN
 10
-3.17498779296875
 20
-3.174999952316284
  9
$PLIMMAX
 10
293.4970092773438
 20
206.692492723465
  9
$UNITMODE
 70
     0
  9
$VISRETAIN
 70
     1
  9
$PLINEGEN
 70
     0
  9
$PSLTSCALE
 70
     1
  9
$TREEDEPTH
 70
  3020
  9
$CMLSTYLE
  2
Standard
  9
$CMLJUST
 70
     0
  9
$CMLSCALE
 40
20.0
  9
$PROXYGRAPHICS
 70
     1
  9
$MEASUREMENT
 70
     1
  9
$CELWEIGHT
370
    -1
  9
$ENDCAPS
280
     0
  9
$JOINSTYLE
280
     0
  9
$LWDISPLAY
290
     0
  9
$INSUNITS
 70
     4
  9
$HYPERLINKBASE
  1

  9
$STYLESHEET
  1
monochrome.ctb
  9
$XEDIT
290
     1
  9
$CEPSNTYPE
380
     0
  9
$PSTYLEMODE
290
     1
  9
$FINGERPRINTGUID
  2
{85A85AB9-09C0-4C05-9FB8-B4F7807E4A17}
  9
$VERSIONGUID
  2
{7D23DC92-8EB3-4D9F-B815-AC3118A32836}
  9
$EXTNAMES
290
     1
  9
$PSVPSCALE
 40
0.0
  9
$OLESTARTUP
290
     0
  0
ENDSEC
  0
SECTION
  2
CLASSES
  0
CLASS
  1
ACDBDICTIONARYWDFLT
  2
AcDbDictionaryWithDefault
  3
ObjectDBX Classes
 90
        0
280
     0
281
     0
  0
CLASS
  1
ACDBPLACEHOLDER
  2
AcDbPlaceHolder
  3
ObjectDBX Classes
 90
        0
280
     0
281
     0
  0
CLASS
  1
LAYOUT
  2
AcDbLayout
  3
ObjectDBX Classes
 90
        0
280
     0
281
     0
  0
CLASS
  1
AMGSETTINGSOBJ
  2
AmgSettingsObj
  3
"AcadM|Product Description: AutoCAD Mechanical|Company: Autodesk"
 90
        0
280
     0
281
     0
  0
CLASS
  1
ACME_DOCUMENT
  2
AcMeDbDoc
  3
AcMeServices
 90
        0
280
     0
281
     0
  0
CLASS
  1
ACMESCOPE
  2
AcMeScope
  3
AcMeServices
 90
        0
280
     0
281
     0
  0
CLASS
  1
ACMECOMMANDHISTORY
  2
AcMeCommandHistory
  3
AcMeServices
 90
        0
280
     0
281
     0
  0
CLASS
  1
DICTIONARYVAR
  2
AcDbDictionaryVar
  3
ObjectDBX Classes
 90
        0
280
     0
281
     0
  0
CLASS
  1
ACIMSYSVARMAN
  2
AcImSysVarManager
  3
AcMeServices
 90
        0
280
     0
281
     0
  0
CLASS
  1
ACIMREALSYSVAR
  2
AcImRealSysVar
  3
AcMeServices
 90
        0
280
     0
281
     0
  0
CLASS
  1
ACIMINTSYSVAR
  2
AcImIntSysVar
  3
AcMeServices
 90
        0
280
     0
281
     0
  0
CLASS
  1
ACMEDRAWINGMAN
  2
AcMeDrawingMan
  3
AcMeServices
 90
        0
280
     0
281
     0
  0
CLASS
  1
ACMEVIEW
  2
AcMeView
  3
AcMeServices
 90
        0
280
     0
281
     0
  0
CLASS
  1
ACDBENTITYCACHE
  2
AcMeEntityCache
  3
AcMeServices
 90
        0
280
     0
281
     0
  0
CLASS
  1
GSMANAGER
  2
AcMeGSManager
  3
AcMeServices
 90
        0
280
     0
281
     0
  0
CLASS
  1
AMDTINTERNALREACTOR
  2
AmdtInternalReactor
  3
AcMeServices
 90
        0
280
     0
281
     0
  0
CLASS
  1
ACMESTATEMGR
  2
AcMeStateMgr
  3
AcMeServices
 90
        0
280
     0
281
     0
  0
CLASS
  1
ACGREFMASTER
  2
AcGrefMaster
  3
AcAttribServices
 90
        0
280
     0
281
     0
  0
CLASS
  1
ACME_DATABASE
  2
AcMeDbDatabase
  3
AcMeServices
 90
        0
280
     0
281
     0
  0
CLASS
  1
ACRFINSADJUSTERMGR
  2
AcRfInsAdjusterMgr
  3
AcMeServices
 90
        0
280
     0
281
     0
  0
CLASS
  1
ACGREFACADMASTER
  2
AcGrefacadMaster
  3
AcGrefServices
 90
        0
280
     0
281
     0
  0
CLASS
  1
AMIMASTER
  2
AmiMaster
  3
AmiServices
 90
        0
280
     0
281
     0
  0
CLASS
  1
ACMDATADICTIONARY
  2
AcmDataDictionary
  3
"AcmSymBB|Product Description: AutoCAD Mechanical|Company: Autodesk"
 90
        0
280
     0
281
     0
  0
CLASS
  1
ACMDATAENTRYBLOCK
  2
AcmDataEntryBlock
  3
"AcmSymBB|Product Description: AutoCAD Mechanical|Company: Autodesk"
 90
    32768
280
     0
281
     0
  0
CLASS
  1
ACIMSTRSYSVAR
  2
AcImStrSysVar
  3
AcMeServices
 90
        0
280
     0
281
     0
  0
CLASS
  1
ACMSTANDARDISO
  2
AcmStandardISO
  3
"Amdt_StdImp|Product Description: AutoCAD Mechanical|Company: Autodesk"
 90
        0
280
     0
281
     0
  0
CLASS
  1
AMGOBJPROPCFG
  2
AmgObjPropCfg
  3
"AmgLay|Product Description: AutoCAD Mechanical|Company: Autodesk"
 90
        1
280
     0
281
     0
  0
CLASS
  1
AMDTEDGESTANDARDISO
  2
AmdtEdgeStdISO
  3
"Amdt_StdImp|Product Description: AutoCAD Mechanical|Company: Autodesk"
 90
    32768
280
     0
281
     0
  0
CLASS
  1
ACMSURFSTANDARDISO
  2
AcmSurfTextStdISO
  3
"Amdt_StdImp|Product Description: AutoCAD Mechanical|Company: Autodesk"
 90
        0
280
     0
281
     0
  0
CLASS
  1
ACMFCFSTANDARDISO
  2
AcmFCFStdISO
  3
"Amdt_StdImp|Product Description: AutoCAD Mechanical|Company: Autodesk"
 90
        0
280
     0
281
     0
  0
CLASS
  1
ACMWELDSTANDARDISO
  2
AcmWeldingStdISO
  3
"Amdt_StdImp|Product Description: AutoCAD Mechanical|Company: Autodesk"
 90
        0
280
     0
281
     0
  0
CLASS
  1
ACMIDSTANDARDISO
  2
AcmIdStdISO
  3
"Amdt_StdImp|Product Description: AutoCAD Mechanical|Company: Autodesk"
 90
        0
280
     0
281
     0
  0
CLASS
  1
ACMDATUMSTANDARDISO
  2
AcmDatumStdISO
  3
"Amdt_StdImp|Product Description: AutoCAD Mechanical|Company: Autodesk"
 90
        0
280
     0
281
     0
  0
CLASS
  1
ACMBOMSTANDARDISO
  2
AcmBOMStdISO
  3
"Amdt_StdImp|Product Description: AutoCAD Mechanical|Company: Autodesk"
 90
        0
280
     0
281
     0
  0
CLASS
  1
ACMDETAILSTANDARDISO
  2
AmdtDetailSymStdISO
  3
"Amdt_StdImp|Product Description: AutoCAD Mechanical|Company: Autodesk"
 90
        0
280
     0
281
     0
  0
CLASS
  1
ACMSECTIONSTANDARDISO
  2
AmdtSectionSymStdISO
  3
"Amdt_StdImp|Product Description: AutoCAD Mechanical|Company: Autodesk"
 90
        0
280
     0
281
     0
  0
CLASS
  1
ACMCENTERLINESTANDARDISO
  2
AmdtCenterLineStdISO
  3
"Amdt_StdImp|Product Description: AutoCAD Mechanical|Company: Autodesk"
 90
        0
280
     0
281
     0
  0
CLASS
  1
ACAMGLAYSTD
  2
AcAmgLayStd
  3
"AmgLay|Product Description: AutoCAD Mechanical|Company: Autodesk"
 90
        0
280
     0
281
     0
  0
CLASS
  1
ACAMGDIMSTD
  2
AcAmgDimStd
  3
"AmgDim|Product Description: AutoCAD Mechanical|Company: Autodesk"
 90
        0
280
     0
281
     0
  0
CLASS
  1
ACAMGTITLESTD
  2
AcAmgTitleStd
  3
"AmgTitle|Product Description: AutoCAD Mechanical|Company: Autodesk"
 90
        0
280
     0
281
     0
  0
CLASS
  1
ACAMGFILTERDAT
  2
AcAmgFilterDat
  3
"AcadM|Product Description: AutoCAD Mechanical|Company: Autodesk"
 90
    32768
280
     0
281
     0
  0
CLASS
  1
LAYER_INDEX
  2
AcDbLayerIndex
  3
ObjectDBX Classes
 90
    32768
280
     0
281
     0
  0
CLASS
  1
IDBUFFER
  2
AcDbIdBuffer
  3
ObjectDBX Classes
 90
    32768
280
     0
281
     0
  0
CLASS
  1
PLOTSETTINGS
  2
AcDbPlotSettings
  3
ObjectDBX Classes
 90
        0
280
     0
281
     0
  0
CLASS
  1
AMDTFORMULAUPDATEDISPATCHER
  2
AmdtFormulaUpdateDispatcher
  3
AcMeServices
 90
    32768
280
     0
281
     0
  0
CLASS
  1
ACMSTANDARDANSI
  2
AcmStandardANSI
  3
"Amdt_StdImp|Product Description: AutoCAD Mechanical|Company: Autodesk"
 90
    32768
280
     0
281
     0
  0
CLASS
  1
ACMSURFSTANDARDANSI
  2
AcmSurfTextStdANSI
  3
"Amdt_StdImp|Product Description: AutoCAD Mechanical|Company: Autodesk"
 90
    32768
280
     0
281
     0
  0
CLASS
  1
ACMFCFSTANDARDANSI
  2
AcmFCFStdANSI
  3
"Amdt_StdImp|Product Description: AutoCAD Mechanical|Company: Autodesk"
 90
    32768
280
     0
281
     0
  0
CLASS
  1
ACMWELDSTANDARDANSI
  2
AcmWeldingStdANSI
  3
"Amdt_StdImp|Product Description: AutoCAD Mechanical|Company: Autodesk"
 90
    32768
280
     0
281
     0
  0
CLASS
  1
ACMIDSTANDARDANSI
  2
AcmIdStdANSI
  3
"Amdt_StdImp|Product Description: AutoCAD Mechanical|Company: Autodesk"
 90
    32768
280
     0
281
     0
  0
CLASS
  1
ACMDATUMSTANDARDANSI
  2
AcmDatumStdANSI
  3
"Amdt_StdImp|Product Description: AutoCAD Mechanical|Company: Autodesk"
 90
    32768
280
     0
281
     0
  0
CLASS
  1
ACMBOMSTANDARDANSI
  2
AcmBOMStdANSI
  3
"Amdt_StdImp|Product Description: AutoCAD Mechanical|Company: Autodesk"
 90
    32768
280
     0
281
     0
  0
CLASS
  1
ACMDETAILSTANDARDANSI
  2
AmdtDetailSymStdANSI
  3
"Amdt_StdImp|Product Description: AutoCAD Mechanical|Company: Autodesk"
 90
    32768
280
     0
281
     0
  0
CLASS
  1
ACMSECTIONSTANDARDANSI
  2
AmdtSectionSymStdANSI
  3
"Amdt_StdImp|Product Description: AutoCAD Mechanical|Company: Autodesk"
 90
    32768
280
     0
281
     0
  0
CLASS
  1
ACMCENTERLINESTANDARDANSI
  2
AmdtCenterLineStdANSI
  3
"Amdt_StdImp|Product Description: AutoCAD Mechanical|Company: Autodesk"
 90
    32768
280
     0
281
     0
  0
CLASS
  1
ACMBOM
  2
AcmBom
  3
"AcmSymBB|Product Description: AutoCAD Mechanical|Company: Autodesk"
 90
    32768
280
     0
281
     0
  0
CLASS
  1
ACMDATAENTRYPART
  2
AcmDataEntryPart
  3
"AcmSymBB|Product Description: AutoCAD Mechanical|Company: Autodesk"
 90
    32768
280
     0
281
     0
  0
CLASS
  1
ACMPARTREF
  2
AcmPartRef
  3
"AcmSymBB|Product Description: AutoCAD Mechanical|Company: Autodesk"
 90
    35839
280
     0
281
     1
  0
CLASS
  1
ACDBCIRCARCRES
  2
AcDbCircArcRes
  3
AcGrefServices
 90
    32768
280
     0
281
     0
  0
CLASS
  1
ACMBOMROW
  2
AcmBomRow
  3
"AcmSymBB|Product Description: AutoCAD Mechanical|Company: Autodesk"
 90
    32768
280
     0
281
     0
  0
CLASS
  1
ACMBALLOON
  2
AcmBalloon
  3
"AcmSymBB|Product Description: AutoCAD Mechanical|Company: Autodesk"
 90
    35839
280
     0
281
     1
  0
CLASS
  1
AMDTNOTE
  2
AmdtNote
  3
"AcmSymBB|Product Description: AutoCAD Mechanical|Company: Autodesk"
 90
    35839
280
     0
281
     1
  0
CLASS
  1
STDPART2D
  2
AmgStdPart
  3
"g3vace|Class: AmgStdPart|Product Description: AutoCAD Mechanical|Company: Autodesk"
 90
    35839
280
     0
281
     1
  0
CLASS
  1
ACDBSTDPARTRES_LINE
  2
AcDbStdPartRes_Line
  3
"g3vace|Class: AcDbStdPartRes_Line|Product Description: AutoCAD Mechanical|Company: Autodesk"
 90
    32768
280
     0
281
     0
  0
CLASS
  1
ACMDATAENTRY
  2
AcmDataEntry
  3
"AcmSymBB|Product Description: AutoCAD Mechanical|Company: Autodesk"
 90
    32768
280
     0
281
     0
  0
CLASS
  1
ACDBOPPOLYLINERES
  2
AcDbOpPolylineRes
  3
AcGrefServices
 90
    32768
280
     0
281
     0
  0
CLASS
  1
ACMPARTLIST
  2
AcmPartList
  3
"AcmSymBB|Product Description: AutoCAD Mechanical|Company: Autodesk"
 90
    35839
280
     0
281
     1
  0
CLASS
  1
ACDBLINERES
  2
AcDbLineRes
  3
AcGrefServices
 90
    32768
280
     0
281
     0
  0
CLASS
  1
ACRFINSADJ
  2
AcRfInsAdjuster
  3
AcMeServices
 90
    32768
280
     0
281
     0
  0
CLASS
  1
AM_DRAWING_MGR
  2
AcDmDwgMgr
  3
AcMechDwgViewMgmt
 90
        0
280
     0
281
     0
  0
CLASS
  1
AM_DWG_DOCUMENT
  2
AcDmDwgDocument
  3
AcMechDwgViewMgmt
 90
        0
280
     0
281
     0
  0
CLASS
  1
AM_DWG_SHEET
  2
AcDmSheet
  3
AcMechDwgViewMgmt
 90
        0
280
     0
281
     0
  0
CLASS
  1
AM_VIEWDIMPARMAP
  2
AcDmViewDimParMap
  3
AcMechDwgViewMgmt
 90
        0
280
     0
281
     0
  0
CLASS
  1
AM_DWGMGR_NAME
  2
AcDmDwgMgrName
  3
AcMechDwgViewMgmt
 90
        0
280
     0
281
     0
  0
CLASS
  1
AMDTMENUSTATEMGR
  2
AmdtMenuStateMgr
  3
McadcomServices
 90
        0
280
     0
281
     0
  0
CLASS
  1
AMDTMCOMMENUSTATE
  2
AmdtMcomMenuState
  3
McadcomServices
 90
        0
280
     0
281
     0
  0
CLASS
  1
ASAPP
  2
AcAsAppObject
  3
AutoSurfServices
 90
        0
280
     0
281
     0
  0
CLASS
  1
IM_STATIC_MAN
  2
AcImStaticVarManager
  3
AcMeServices
 90
    32768
280
     0
281
     0
  0
CLASS
  1
ACIMDBLSTATICVAR
  2
AcImDblStaticVar
  3
AcMeServices
 90
    32768
280
     0
281
     0
  0
CLASS
  1
ACIMSTRSTATICVAR
  2
AcImStrStaticVar
  3
AcMeServices
 90
    32768
280
     0
281
     0
  0
CLASS
  1
ACIMINTSTATICVAR
  2
AcImIntStaticVar
  3
AcMeServices
 90
    32768
280
     0
281
     0
  0
CLASS
  1
ACASGREFMASTER
  2
AcAsGrefMaster
  3
AutoSurfResolverServices
 90
        0
280
     0
281
     0
  0
CLASS
  1
ACADGREFMODULE
  2
AcAdGrefModule
  3
AdGrefServices
 90
        0
280
     0
281
     0
  0
CLASS
  1
AMDTMAPISURFMOUDULE
  2
AmdtMApiSurfModule
  3
MApiSurfServices
 90
        0
280
     0
281
     0
  0
CLASS
  1
MAPIAMMOUDLE
  2
MApiAmModule
  3
MApiAmServices
 90
        0
280
     0
281
     0
  0
CLASS
  1
AMDTADMENUSTATE
  2
AmdtAdMenuState
  3
DesignerServices
 90
        0
280
     0
281
     0
  0
CLASS
  1
ADAPPL
  2
AcAdAppl
  3
DesignerServices
 90
        0
280
     0
281
     0
  0
CLASS
  1
DEPMGR
  2
AcAdDepMgr
  3
DesignerServices
 90
        0
280
     0
281
     0
  0
CLASS
  1
PARAMMGR
  2
AcAdParamMgr
  3
DesignerServices
 90
        0
280
     0
281
     0
  0
CLASS
  1
PARAMSCOPE
  2
AcAdParamScope
  3
DesignerServices
 90
        0
280
     0
281
     0
  0
CLASS
  1
NAMEDAPPL
  2
AcAdNamedAppl
  3
DesignerServices
 90
        0
280
     0
281
     0
  0
CLASS
  1
ADHNTMPLT
  2
AdHoleNoteTemplateMgr
  3
DesignerServices
 90
    32768
280
     0
281
     0
  0
CLASS
  1
AM_HNTEMPLATE_MGR_NAME
  2
AdHoleNoteTemplateMgrName
  3
DesignerServices
 90
    32768
280
     0
281
     0
  0
CLASS
  1
AMDTDMMENUSTATE
  2
AmdtDmMenuState
  3
AcMechDwgViewMgmt
 90
        0
280
     0
281
     0
  0
CLASS
  1
MAPIADMODULE
  2
MApiAdModule
  3
MApiAdServices
 90
        0
280
     0
281
     0
  0
CLASS
  1
AMDTAMMENUSTATE
  2
AmdtAmMenuState
  3
DesignerAssemblies
 90
        0
280
     0
281
     0
  0
CLASS
  1
ACAMPROJECT
  2
AcAmProject
  3
DesignerAssemblies
 90
        0
280
     0
281
     0
  0
CLASS
  1
ACAMGRCOMPDEF
  2
AcAmGrCompDef
  3
DesignerAssemblies
 90
        0
280
     0
281
     0
  0
CLASS
  1
ACCMCONTEXT
  2
AcCmContext
  3
DesignerAssemblies
 90
        0
280
     0
281
     0
  0
CLASS
  1
ACAMCOMPDEF
  2
AcAmCompDef
  3
DesignerAssemblies
 90
        0
280
     0
281
     0
  0
CLASS
  1
ACAMCOMPDEFMGR
  2
AcAmCompDefMgr
  3
DesignerAssemblies
 90
        0
280
     0
281
     0
  0
CLASS
  1
AMCONTEXTMGR
  2
AcAmContextMgr
  3
DesignerAssemblies
 90
        0
280
     0
281
     0
  0
CLASS
  1
ACAMCONTEXTMODELER
  2
AcAmContextModeler
  3
DesignerAssemblies
 90
        0
280
     0
281
     0
  0
CLASS
  1
CATALOGSTATE
  2
AcAmCatalogState
  3
DesignerAssemblies
 90
        0
280
     0
281
     0
  0
CLASS
  1
ACAMGRCOMPDEFSET
  2
AcAmGrCompDefSet
  3
DesignerAssemblies
 90
        0
280
     0
281
     0
  0
CLASS
  1
AMDTBROWSERDBTAB
  2
AmdtBrowserDbTab
  3
McadcomServices
 90
        0
280
     0
281
     0
  0
CLASS
  1
CBROWSERAPPOBJECT
  2
CBrowserAppObject
  3
McadcomServices
 90
        0
280
     0
281
     0
  0
CLASS
  1
DM_PLACEHOLDER
  2
AcDmSelsetPlaceholder
  3
AcMechDwgViewMgmt
 90
        0
280
     0
281
     0
  0
CLASS
  1
ACMPICKOBJ
  2
AcmPickEnt
  3
"AcmSymBB|Product Description: AutoCAD Mechanical|Company: Autodesk"
 90
    32768
280
     0
281
     1
  0
CLASS
  1
ACMNOTESTANDARDISO
  2
AmdtNoteStdISO
  3
"Amdt_StdImp|Product Description: AutoCAD Mechanical|Company: Autodesk"
 90
        0
280
     0
281
     0
  0
CLASS
  1
ACMNOTESTANDARDANSI
  2
AmdtNoteStdANSI
  3
"Amdt_StdImp|Product Description: AutoCAD Mechanical|Company: Autodesk"
 90
    32768
280
     0
281
     0
  0
CLASS
  1
ACMTHREADLINESTANDARDISO
  2
AmdtThreadLineStdISO
  3
"Amdt_StdImp|Product Description: AutoCAD Mechanical|Company: Autodesk"
 90
        0
280
     0
281
     0
  0
CLASS
  1
ACMTHREADLINESTANDARDANSI
  2
AmdtThreadLineStdANSI
  3
"Amdt_StdImp|Product Description: AutoCAD Mechanical|Company: Autodesk"
 90
    32768
280
     0
281
     0
  0
CLASS
  1
TABLESTYLE
  2
AcDbTableStyle
  3
ObjectDBX Classes
 90
     4095
280
     0
281
     0
  0
CLASS
  1
AMDTNOTETEMPLATEDB
  2
AmdtNoteTemplateDB
  3
AMDT_STDIMP_MODULE_NAME
 90
        0
280
     0
281
     0
  0
CLASS
  1
ACAMGHOLECHARTSTDANSI
  2
AcAmgHoleChartStdANSI
  3
ACMSYMBB_MODULE_NAME
 90
    32768
280
     0
281
     0
  0
CLASS
  1
SORTENTSTABLE
  2
AcDbSortentsTable
  3
ObjectDBX Classes
 90
        0
280
     0
281
     0
  0
CLASS
  1
MATERIAL
  2
AcDbMaterial
  3
ObjectDBX Classes
 90
     1024
280
     0
281
     0
  0
CLASS
  1
VISUALSTYLE
  2
AcDbVisualStyle
  3
ObjectDBX Classes
 90
     4095
280
     0
281
     0
  0
CLASS
  1
ACRFATTGENMGR
  2
AcRfAttGeneralMgr
  3
AcAttribServices
 90
    32768
280
     0
281
     0
  0
CLASS
  1
ACRFOBJATTMGR
  2
AcRfObjAttGroupMgr
  3
AcAttribServices
 90
    32768
280
     0
281
     0
  0
CLASS
  1
ACRFMCADAPIATTHOLDER
  2
AcRfMCADAPIAttHolder
  3
AcAttribServices
 90
    32768
280
     0
281
     0
  0
CLASS
  1
AMDTSYSATTR
  2
AmdtSystemAttribute
  3
AcAttribServices
 90
    32768
280
     0
281
     0
  0
CLASS
  1
ACMTAPERSTANDARDISO
  2
AcmTaperStdISO
  3
"Amdt_StdImp|Product Description: AutoCAD Mechanical|Company: Autodesk"
 90
        0
280
     0
281
     0
  0
CLASS
  1
ACMTAPERSTANDARDANSI
  2
AcmTaperStdANSI
  3
"Amdt_StdImp|Product Description: AutoCAD Mechanical|Company: Autodesk"
 90
    32768
280
     0
281
     0
  0
CLASS
  1
AMDTEDGESTANDARDISO13715
  2
AmdtEdgeStdISO13715
  3
"Amdt_StdImp|Product Description: AutoCAD Mechanical|Company: Autodesk"
 90
        0
280
     0
281
     0
  0
CLASS
  1
ACAMGHOLECHARTSTDISO
  2
AcAmgHoleChartStdISO
  3
ACMSYMBB_MODULE_NAME
 90
        0
280
     0
281
     0
  0
CLASS
  1
CAMSSTRUCTBTNSTATE
  2
StructBtnState
  3
L"DesignerAssemblies"
 90
    32768
280
     0
281
     0
  0
ENDSEC
  0
SECTION
  2
TABLES
  0
TABLE
  2
VPORT
  5
8
102
{ACAD_XDICTIONARY
360
15BC2
102
}
330
0
100
AcDbSymbolTable
 70
     1
  0
VPORT
  5
B43F
330
8
100
AcDbSymbolTableRecord
100
AcDbViewportTableRecord
  2
*Active
 70
     0
 10
0.0
 20
0.0
 11
1.0
 21
1.0
 12
205.6100473594969
 22
437.7643725866801
 13
0.0
 23
0.0
 14
2.5
 24
2.5
 15
10.0
 25
10.0
 16
0.0
 26
0.0
 36
1.0
 17
0.0
 27
0.0
 37
0.0
 40
222.6920793914493
 41
1.342329545454545
 42
50.0
 43
-1370.695619172058
 44
-1370.695619172058
 50
0.0
 51
0.0
 71
    16
 72
   100
 73
     1
 74
     3
 75
     0
 76
     0
 77
     0
 78
     0
281
     0
 65
     0
110
0.0
120
0.0
130
0.0
111
1.0
121
0.0
131
0.0
112
0.0
122
1.0
132
0.0
 79
     0
146
0.0
  0
ENDTAB
  0
TABLE
  2
LTYPE
  5
5
330
0
100
AcDbSymbolTable
 70
    35
  0
LTYPE
  5
14
330
5
100
AcDbSymbolTableRecord
100
AcDbLinetypeTableRecord
  2
ByBlock
 70
     0
  3

 72
    65
 73
     0
 40
0.0
  0
LTYPE
  5
15
330
5
100
AcDbSymbolTableRecord
100
AcDbLinetypeTableRecord
  2
ByLayer
 70
     0
  3

 72
    65
 73
     0
 40
0.0
  0
LTYPE
  5
16
330
5
100
AcDbSymbolTableRecord
100
AcDbLinetypeTableRecord
  2
Continuous
 70
     0
  3
Solid line
 72
    65
 73
     0
 40
0.0
  0
LTYPE
  5
4F
330
5
100
AcDbSymbolTableRecord
100
AcDbLinetypeTableRecord
  2
AM_ISO02W050
 70
     0
  3
__ __ __ __ __ __ __ __ __ __ __ __ __ __ __
 72
    65
 73
     2
 40
7.5
 49
6.0
 74
     0
 49
-1.5
 74
     0
  0
LTYPE
  5
52
330
5
100
AcDbSymbolTableRecord
100
AcDbLinetypeTableRecord
  2
Amconstr
 70
     0
  3
_______________________
 72
    65
 73
     2
 40
9999.0
 49
9999.0
 74
     0
 49
0.0
 74
     0
  0
LTYPE
  5
64
330
5
100
AcDbSymbolTableRecord
100
AcDbLinetypeTableRecord
  2
ACISOWELD
 70
     0
  3
_ _ _ _ _
 72
    65
 73
     2
 40
2.0
 49
2.0
 74
     0
 49
-1.0
 74
     0
  0
LTYPE
  5
65
330
5
100
AcDbSymbolTableRecord
100
AcDbLinetypeTableRecord
  2
ACISOTGB
 70
     0
  3
__ . . __ . .
 72
    65
 73
     6
 40
9.0
 49
4.0
 74
     0
 49
-1.0
 74
     0
 49
1.0
 74
     0
 49
-1.0
 74
     0
 49
1.0
 74
     0
 49
-1.0
 74
     0
  0
LTYPE
  5
66
330
5
100
AcDbSymbolTableRecord
100
AcDbLinetypeTableRecord
  2
ACISOTGL
 70
     0
  3
_ _ _ _ _
 72
    65
 73
     2
 40
3.0
 49
2.0
 74
     0
 49
-1.0
 74
     0
  0
LTYPE
  5
69
330
5
100
AcDbSymbolTableRecord
100
AcDbLinetypeTableRecord
  2
CENTER
 70
     0
  3
__ . __
 72
    65
 73
     4
 40
7.0
 49
4.0
 74
     0
 49
-1.0
 74
     0
 49
1.0
 74
     0
 49
-1.0
 74
     0
  0
LTYPE
  5
A6E
330
5
100
AcDbSymbolTableRecord
100
AcDbLinetypeTableRecord
  2
PHANTOM2
 70
     0
  3
Phantom (.5x) ___ _ _ ___ _ _ ___ _ _ ___ _ _
 72
    65
 73
     6
 40
31.75
 49
15.875
 74
     0
 49
-3.174999999999999
 74
     0
 49
3.174999999999999
 74
     0
 49
-3.174999999999999
 74
     0
 49
3.174999999999999
 74
     0
 49
-3.174999999999999
 74
     0
  0
LTYPE
  5
4DED
330
5
100
AcDbSymbolTableRecord
100
AcDbLinetypeTableRecord
  2
中線
 70
     0
  3
___________________
 72
    65
 73
     2
 40
2.0
 49
1.0
 74
     0
 49
1.0
 74
     0
  0
LTYPE
  5
4DF6
330
5
100
AcDbSymbolTableRecord
100
AcDbLinetypeTableRecord
  2
細線
 70
     0
  3
___________________
 72
    65
 73
     2
 40
2.0
 49
1.0
 74
     0
 49
1.0
 74
     0
  0
LTYPE
  5
4DF7
330
5
100
AcDbSymbolTableRecord
100
AcDbLinetypeTableRecord
  2
太線
 70
     0
  3
___________________
 72
    65
 73
     2
 40
2.0
 49
1.0
 74
     0
 49
1.0
 74
     0
  0
LTYPE
  5
4EA7
330
5
100
AcDbSymbolTableRecord
100
AcDbLinetypeTableRecord
  2
文字
 70
     0
  3
_________________
 72
    65
 73
     2
 40
2.0
 49
1.0
 74
     0
 49
1.0
 74
     0
  0
LTYPE
  5
4EA9
330
5
100
AcDbSymbolTableRecord
100
AcDbLinetypeTableRecord
  2
寸法線
 70
     0
  3
________________
 72
    65
 73
     2
 40
2.0
 49
1.0
 74
     0
 49
1.0
 74
     0
  0
LTYPE
  5
4F12
330
5
100
AcDbSymbolTableRecord
100
AcDbLinetypeTableRecord
  2
ハッチング
 70
     0
  3
_________________
 72
    65
 73
     2
 40
2.0
 49
1.0
 74
     0
 49
1.0
 74
     0
  0
LTYPE
  5
5180
330
5
100
AcDbSymbolTableRecord
100
AcDbLinetypeTableRecord
  2
陰線1
 70
     0
  3
__ __ __ __
 72
    65
 73
     2
 40
4.0
 49
2.2
 74
     0
 49
-1.8
 74
     0
  0
LTYPE
  5
5182
330
5
100
AcDbSymbolTableRecord
100
AcDbLinetypeTableRecord
  2
切断線
 70
     0
  3
/\/-/\/-/\/-/\/-/\/-/\/
 72
    65
 73
     2
 40
11.0001
 49
0.0001
 74
     4
 75
   135
340
56
 46
0.04
 50
0.0
 44
0.0
 45
0.0
 49
-11.0
 74
     0
  0
LTYPE
  5
5183
330
5
100
AcDbSymbolTableRecord
100
AcDbLinetypeTableRecord
  2
想像線1
 70
     0
  3
__ __ __ _____ __ __ ____
 72
    65
 73
     6
 40
14.5
 49
6.0
 74
     0
 49
-1.5
 74
     0
 49
2.0
 74
     0
 49
-1.5
 74
     0
 49
2.0
 74
     0
 49
-1.5
 74
     0
  0
LTYPE
  5
5185
330
5
100
AcDbSymbolTableRecord
100
AcDbLinetypeTableRecord
  2
中心線1
 70
     0
  3
___ _ ___ _ ___
 72
    65
 73
     4
 40
18.0
 49
12.0
 74
     0
 49
-2.0
 74
     0
 49
2.0
 74
     0
 49
-2.0
 74
     0
  0
LTYPE
  5
5188
330
5
100
AcDbSymbolTableRecord
100
AcDbLinetypeTableRecord
  2
補助線
 70
     0
  3
______________
 72
    65
 73
     2
 40
2.0
 49
1.0
 74
     0
 49
1.0
 74
     0
  0
LTYPE
  5
6427
330
5
100
AcDbSymbolTableRecord
100
AcDbLinetypeTableRecord
  2
HIDDEN
 70
     0
  3
Hidden __ __ __ __ __ __ __ __ __ __ __ __ __ _
 72
    65
 73
     2
 40
0.375
 49
0.25
 74
     0
 49
-0.125
 74
     0
  0
LTYPE
  5
AC81
330
5
100
AcDbSymbolTableRecord
100
AcDbLinetypeTableRecord
  2
破断線
 70
     0
  3
/\/-/\/-/\/-/\/-/\/-/\/
 72
    65
 73
     2
 40
0.4401
 49
0.0001
 74
     4
 75
   136
340
AC80
 46
0.0016
 50
0.0
 44
0.0
 45
0.0
 49
-0.4400000000000001
 74
     0
  0
LTYPE
  5
AC9E
330
5
100
AcDbSymbolTableRecord
100
AcDbLinetypeTableRecord
  2
Amzigzag
 70
     0
  3
/\/-/\/-/\/-/\/-/\/-/\/
 72
    65
 73
     2
 40
11.0001
 49
0.0001
 74
     4
 75
   135
340
56
 46
0.04
 50
0.0
 44
0.0
 45
0.0
 49
-11.0
 74
     0
  0
LTYPE
  5
AF60
330
5
100
AcDbSymbolTableRecord
100
AcDbLinetypeTableRecord
  2
DASHED
 70
     0
  3
__ __ __ __ __ __ __ __ __ __ __ __ __ __ __
 72
    65
 73
     2
 40
3.5
 49
2.0
 74
     0
 49
-1.5
 74
     0
  0
LTYPE
  5
AF61
330
5
100
AcDbSymbolTableRecord
100
AcDbLinetypeTableRecord
  2
PHANTOM
 70
     0
  3
_____ _ _ _____ _ _ _____ _ _ _____ _ _ ____  
 72
    65
 73
     6
 40
15.5
 49
8.0
 74
     0
 49
-1.5
 74
     0
 49
1.5
 74
     0
 49
-1.5
 74
     0
 49
1.5
 74
     0
 49
-1.5
 74
     0
  0
LTYPE
  5
AF62
330
5
100
AcDbSymbolTableRecord
100
AcDbLinetypeTableRecord
  2
CENTER2
 70
     0
  3
Center (.5x) ___ _ ___ _ ___ _ ___ _ ___ _ ___
 72
    65
 73
     4
 40
1.125
 49
0.75
 74
     0
 49
-0.125
 74
     0
 49
0.125
 74
     0
 49
-0.125
 74
     0
  0
LTYPE
  5
AF63
330
5
100
AcDbSymbolTableRecord
100
AcDbLinetypeTableRecord
  2
HIDDEN2
 70
     0
  3
Hidden (.5x) _ _ _ _ _ _ _ _ _ _ _ _ _ _ _ _ _
 72
    65
 73
     2
 40
0.1875
 49
0.125
 74
     0
 49
-0.0625
 74
     0
  0
LTYPE
  5
AF64
330
5
100
AcDbSymbolTableRecord
100
AcDbLinetypeTableRecord
  2
Amzigzag2
 70
     0
  3
/\/-/\/-/\/-/\/-/\/-/\/
 72
    65
 73
     2
 40
0.4401
 49
0.0001
 74
     4
 75
   136
340
AC80
 46
0.0016
 50
0.0
 44
0.0
 45
0.0
 49
-0.4400000000000001
 74
     0
  0
LTYPE
  5
AF65
330
5
100
AcDbSymbolTableRecord
100
AcDbLinetypeTableRecord
  2
ACANSTGB
 70
     0
  3
__ . . __ . .
 72
    65
 73
     6
 40
0.35433070866
 49
0.15748031496
 74
     0
 49
-0.03937007874
 74
     0
 49
0.03937007874
 74
     0
 49
-0.03937007874
 74
     0
 49
0.03937007874
 74
     0
 49
-0.03937007874
 74
     0
  0
LTYPE
  5
AF66
330
5
100
AcDbSymbolTableRecord
100
AcDbLinetypeTableRecord
  2
ACANSTGL
 70
     0
  3
_ _ _ _ _
 72
    65
 73
     2
 40
0.11811023622
 49
0.07874015748
 74
     0
 49
-0.03937007874
 74
     0
  0
LTYPE
  5
B2E0
330
5
100
AcDbSymbolTableRecord
100
AcDbLinetypeTableRecord
  2
AM_ISO08W050
 70
     0
  3
____ . ____ . ____ . ____ . ____ . ____ . ____
 72
    65
 73
     4
 40
18.0
 49
12.0
 74
     0
 49
-1.5
 74
     0
 49
3.0
 74
     0
 49
-1.5
 74
     0
  0
LTYPE
  5
B2E1
330
5
100
AcDbSymbolTableRecord
100
AcDbLinetypeTableRecord
  2
AM_ISO09W050
 70
     0
  3
_____ . . _____ . . _____ . . ____ .. ____
 72
    65
 73
     6
 40
22.5
 49
12.0
 74
     0
 49
-1.5
 74
     0
 49
3.0
 74
     0
 49
-1.5
 74
     0
 49
3.0
 74
     0
 49
-1.5
 74
     0
  0
LTYPE
  5
B2E2
330
5
100
AcDbSymbolTableRecord
100
AcDbLinetypeTableRecord
  2
AM_ISO08W050x2
 70
     0
  3
__ . __ . __ . __ . __ . __
 72
    65
 73
     4
 40
9.0
 49
6.0
 74
     0
 49
-0.75
 74
     0
 49
1.5
 74
     0
 49
-0.75
 74
     0
  0
LTYPE
  5
B2E3
330
5
100
AcDbSymbolTableRecord
100
AcDbLinetypeTableRecord
  2
AM_ISO02W050x2
 70
     0
  3
 _ _ _ _ _ _ _ _ _ _ _ _
 72
    65
 73
     2
 40
3.75
 49
3.0
 74
     0
 49
-0.75
 74
     0
  0
LTYPE
  5
B680
330
5
100
AcDbSymbolTableRecord
100
AcDbLinetypeTableRecord
  2
DOT
 70
     0
  3
. . . . . . . . . . . . . . . . . . . . . . . .
 72
    65
 73
     2
 40
0.25
 49
0.0
 74
     0
 49
-0.25
 74
     0
  0
LTYPE
  5
B681
330
5
100
AcDbSymbolTableRecord
100
AcDbLinetypeTableRecord
  2
DOT2
 70
     0
  3
...............................................
 72
    65
 73
     2
 40
0.125
 49
0.0
 74
     0
 49
-0.125
 74
     0
  0
ENDTAB
  0
TABLE
  2
LAYER
  5
2
102
{ACAD_XDICTIONARY
360
3F95
102
}
330
0
100
AcDbSymbolTable
 70
    39
  0
LAYER
  5
10
330
2
100
AcDbSymbolTableRecord
100
AcDbLayerTableRecord
  2
0
 70
     0
 62
     7
  6
Continuous
370
    -3
390
F
  0
LAYER
  5
6D1
330
2
100
AcDbSymbolTableRecord
100
AcDbLayerTableRecord
  2
Defpoints
 70
     0
 62
     7
  6
Continuous
290
     0
370
    -3
390
F
  0
LAYER
  5
5F85
330
2
100
AcDbSymbolTableRecord
100
AcDbLayerTableRecord
  2
AM_0
 70
     0
 62
     7
  6
中線
370
    30
390
F
  0
LAYER
  5
AC9F
330
2
100
AcDbSymbolTableRecord
100
AcDbLayerTableRecord
  2
size
 70
     0
 62
     5
  6
Continuous
290
     0
370
    30
390
F
  0
LAYER
  5
ACA0
330
2
100
AcDbSymbolTableRecord
100
AcDbLayerTableRecord
  2
waku
 70
     0
 62
     7
  6
Continuous
370
    40
390
F
  0
LAYER
  5
ACA1
330
2
100
AcDbSymbolTableRecord
100
AcDbLayerTableRecord
  2
AM_6
 70
     0
 62
     2
  6
文字
370
    20
390
F
  0
LAYER
  5
ACC8
330
2
100
AcDbSymbolTableRecord
100
AcDbLayerTableRecord
  2
hyomoji
 70
     0
 62
     2
  6
Continuous
370
    20
390
F
  0
LAYER
  5
ACC9
330
2
100
AcDbSymbolTableRecord
100
AcDbLayerTableRecord
  2
hyosen1
 70
     0
 62
     1
  6
Continuous
370
    30
390
F
  0
LAYER
  5
ACCA
330
2
100
AcDbSymbolTableRecord
100
AcDbLayerTableRecord
  2
hyosen2
 70
     0
 62
     1
  6
Continuous
370
    20
390
F
  0
LAYER
  5
AD60
330
2
100
AcDbSymbolTableRecord
100
AcDbLayerTableRecord
  2
AM_1
 70
     0
 62
    30
  6
太線
370
    40
390
F
1001
AcAecLayerStandard
1000

1000

  0
LAYER
  5
AD64
330
2
100
AcDbSymbolTableRecord
100
AcDbLayerTableRecord
  2
AM_2
 70
     0
 62
     1
  6
細線
370
    20
390
F
1001
AcAecLayerStandard
1000

1000

  0
LAYER
  5
AD67
330
2
100
AcDbSymbolTableRecord
100
AcDbLayerTableRecord
  2
AM_3
 70
     0
 62
     6
  6
陰線1
370
    18
390
F
1001
AcAecLayerStandard
1000

1000

  0
LAYER
  5
AD68
330
2
100
AcDbSymbolTableRecord
100
AcDbLayerTableRecord
  2
AM_5
 70
     0
 62
     3
  6
寸法線
370
    20
390
F
1001
AcAecLayerStandard
1000

1000

  0
LAYER
  5
AD69
330
2
100
AcDbSymbolTableRecord
100
AcDbLayerTableRecord
  2
AM_7
 70
     0
 62
     4
  6
中心線1
370
    20
390
F
1001
AcAecLayerStandard
1000

1000

  0
LAYER
  5
AD6A
330
2
100
AcDbSymbolTableRecord
100
AcDbLayerTableRecord
  2
AM_8
 70
     0
 62
     1
  6
ハッチング
370
    18
390
F
1001
AcAecLayerStandard
1000

1000

  0
LAYER
  5
AD6E
330
2
100
AcDbSymbolTableRecord
100
AcDbLayerTableRecord
  2
AM_10
 70
     0
 62
     7
  6
破断線
370
    30
390
F
1001
AcAecLayerStandard
1000

1000

  0
LAYER
  5
AD6F
330
2
100
AcDbSymbolTableRecord
100
AcDbLayerTableRecord
  2
AM_11
 70
     0
 62
     2
  6
想像線1
370
    18
390
F
1001
AcAecLayerStandard
1000

1000

  0
LAYER
  5
B682
102
{ACAD_XDICTIONARY
360
B683
102
}
330
2
100
AcDbSymbolTableRecord
100
AcDbLayerTableRecord
  2
01実線
 70
     0
 62
     7
  6
Continuous
370
    35
390
F
1001
AcAecLayerStandard
1000

1000

  0
LAYER
  5
B685
102
{ACAD_XDICTIONARY
360
B686
102
}
330
2
100
AcDbSymbolTableRecord
100
AcDbLayerTableRecord
  2
02細い実線
 70
     0
 62
     2
  6
Continuous
370
    20
390
F
1001
AcAecLayerStandard
1000

1000

  0
LAYER
  5
B688
102
{ACAD_XDICTIONARY
360
B689
102
}
330
2
100
AcDbSymbolTableRecord
100
AcDbLayerTableRecord
  2
03中心線
 70
     0
 62
     1
  6
CENTER
370
    18
390
F
1001
AcAecLayerStandard
1000

1000

  0
LAYER
  5
B68B
102
{ACAD_XDICTIONARY
360
B68C
102
}
330
2
100
AcDbSymbolTableRecord
100
AcDbLayerTableRecord
  2
04寸法線
 70
     0
 62
     2
  6
Continuous
370
    20
390
F
1001
AcAecLayerStandard
1000

1000

  0
LAYER
  5
B68E
102
{ACAD_XDICTIONARY
360
B68F
102
}
330
2
100
AcDbSymbolTableRecord
100
AcDbLayerTableRecord
  2
05隠れ腺
 70
     0
 62
     2
  6
HIDDEN
370
    20
390
F
1001
AcAecLayerStandard
1000

1000

  0
LAYER
  5
B691
102
{ACAD_XDICTIONARY
360
B692
102
}
330
2
100
AcDbSymbolTableRecord
100
AcDbLayerTableRecord
  2
06文字（太）
 70
     0
 62
     7
  6
Continuous
370
    35
390
F
1001
AcAecLayerStandard
1000

1000

  0
LAYER
  5
B694
102
{ACAD_XDICTIONARY
360
B695
102
}
330
2
100
AcDbSymbolTableRecord
100
AcDbLayerTableRecord
  2
07文字（細）
 70
     0
 62
     2
  6
Continuous
370
    20
390
F
1001
AcAecLayerStandard
1000

1000

  0
LAYER
  5
B697
102
{ACAD_XDICTIONARY
360
B698
102
}
330
2
100
AcDbSymbolTableRecord
100
AcDbLayerTableRecord
  2
08ハッチング
 70
     0
 62
     1
  6
Continuous
370
    20
390
F
1001
AcAecLayerStandard
1000

1000

  0
LAYER
  5
B69A
102
{ACAD_XDICTIONARY
360
B69B
102
}
330
2
100
AcDbSymbolTableRecord
100
AcDbLayerTableRecord
  2
09図枠
 70
     0
 62
   211
  6
Continuous
370
    20
390
F
1001
AcAecLayerStandard
1000

1000

  0
LAYER
  5
B69D
102
{ACAD_XDICTIONARY
360
B69E
102
}
330
2
100
AcDbSymbolTableRecord
100
AcDbLayerTableRecord
  2
LEVEL001
 70
     0
 62
     7
  6
Continuous
370
    -3
390
B681
  0
LAYER
  5
C8D0
102
{ACAD_XDICTIONARY
360
C8D1
102
}
330
2
100
AcDbSymbolTableRecord
100
AcDbLayerTableRecord
  2
実線
 70
     0
 62
     7
  6
Continuous
370
    40
390
F
  0
LAYER
  5
C8D3
102
{ACAD_XDICTIONARY
360
C8D4
102
}
330
2
100
AcDbSymbolTableRecord
100
AcDbLayerTableRecord
  2
一点鎖線
 70
     0
 62
     2
  6
CENTER2
370
    15
390
F
  0
LAYER
  5
C8D6
102
{ACAD_XDICTIONARY
360
C8D7
102
}
330
2
100
AcDbSymbolTableRecord
100
AcDbLayerTableRecord
  2
二点鎖線
 70
     0
 62
     3
  6
PHANTOM2
370
     9
390
F
  0
LAYER
  5
C8D9
102
{ACAD_XDICTIONARY
360
C8DA
102
}
330
2
100
AcDbSymbolTableRecord
100
AcDbLayerTableRecord
  2
寸法
 70
     0
 62
     2
  6
Continuous
370
    15
390
F
  0
LAYER
  5
C8DC
102
{ACAD_XDICTIONARY
360
C8DD
102
}
330
2
100
AcDbSymbolTableRecord
100
AcDbLayerTableRecord
  2
文字
 70
     0
 62
     1
  6
Continuous
370
    30
390
F
  0
LAYER
  5
C8DF
102
{ACAD_XDICTIONARY
360
C8E0
102
}
330
2
100
AcDbSymbolTableRecord
100
AcDbLayerTableRecord
  2
細線1
 70
     0
 62
     1
  6
Continuous
370
    25
390
F
  0
LAYER
  5
C8E2
330
2
100
AcDbSymbolTableRecord
100
AcDbLayerTableRecord
  2
1
 70
     0
 62
     7
  6
Continuous
370
    -3
390
F
  0
LAYER
  5
C8E3
330
2
100
AcDbSymbolTableRecord
100
AcDbLayerTableRecord
  2
2
 70
     0
 62
     7
  6
Continuous
370
    -3
390
F
  0
LAYER
  5
C8E4
330
2
100
AcDbSymbolTableRecord
100
AcDbLayerTableRecord
  2
3
 70
     0
 62
     7
  6
Continuous
370
    -3
390
F
  0
LAYER
  5
D28C
330
2
100
AcDbSymbolTableRecord
100
AcDbLayerTableRecord
  2
細線
 70
     0
 62
     4
  6
Continuous
370
    -3
390
F
  0
LAYER
  5
EABC
330
2
100
AcDbSymbolTableRecord
100
AcDbLayerTableRecord
  2
AM_CL
 70
     0
 62
     1
  6
Amconstr
370
    20
390
F
1001
AcAecLayerStandard
1000

1000

  0
LAYER
  5
1159E
330
2
100
AcDbSymbolTableRecord
100
AcDbLayerTableRecord
  2
AM_4
 70
     0
 62
     3
  6
補助線
370
    20
390
F
1001
AcAecLayerStandard
1000

1000

  0
ENDTAB
  0
TABLE
  2
STYLE
  5
3
330
0
100
AcDbSymbolTable
 70
    12
  0
STYLE
  5
11
330
3
100
AcDbSymbolTableRecord
100
AcDbTextStyleTableRecord
  2
STANDARD
 70
     0
 40
0.0
 41
0.7
 50
0.0
 71
     0
 42
3.2
  3
romans.shx
  4
extfont.shx
  0
STYLE
  5
56
330
3
100
AcDbSymbolTableRecord
100
AcDbTextStyleTableRecord
  2

 70
     1
 40
0.0
 41
1.0
 50
0.0
 71
     0
 42
2.5
  3
ltypeshp.shx
  4

  0
STYLE
  5
58
330
3
100
AcDbSymbolTableRecord
100
AcDbTextStyleTableRecord
  2
ACISOTS
 70
     0
 40
1.0
 41
1.0
 50
0.0
 71
     0
 42
2.5
  3
isocp.shx
  4
extfont.shx
  0
STYLE
  5
63
330
3
100
AcDbSymbolTableRecord
100
AcDbTextStyleTableRecord
  2
ACISOGDT
 70
     0
 40
0.0
 41
1.0
 50
0.0
 71
     0
 42
2.5
  3
amgdt.shx
  4

  0
STYLE
  5
A74
330
3
100
AcDbSymbolTableRecord
100
AcDbTextStyleTableRecord
  2
DIM
 70
     0
 40
0.0
 41
1.0
 50
0.0
 71
     0
 42
2.5
  3
monotxt.shx
  4
extfont.shx
  0
STYLE
  5
AC80
330
3
100
AcDbSymbolTableRecord
100
AcDbTextStyleTableRecord
  2

 70
     1
 40
0.0
 41
1.0
 50
0.0
 71
     0
 42
3.2
  3
genltshp.shx
  4

  0
STYLE
  5
AF67
330
3
100
AcDbSymbolTableRecord
100
AcDbTextStyleTableRecord
  2
ACANSTS
 70
     0
 40
1.0
 41
1.0
 50
0.0
 71
     0
 42
3.2
  3
romans.shx
  4
extfont.shx
  0
STYLE
  5
AF68
330
3
100
AcDbSymbolTableRecord
100
AcDbTextStyleTableRecord
  2
ACANSGDT
 70
     0
 40
0.0
 41
1.0
 50
0.0
 71
     0
 42
3.2
  3
AMGDT
  4

  0
STYLE
  5
B6A0
330
3
100
AcDbSymbolTableRecord
100
AcDbTextStyleTableRecord
  2
横書き
 70
     0
 40
0.0
 41
1.0
 50
0.0
 71
     0
 42
3.0
  3
TXT.shx
  4
bigfont.shx
  0
STYLE
  5
C8E5
330
3
100
AcDbSymbolTableRecord
100
AcDbTextStyleTableRecord
  2
ゴシック
 70
     0
 40
0.0
 41
1.0
 50
0.0
 71
     0
 42
2.5
  3
MS Gothic.ttf
  4

1001
ACAD
1000
MS Gothic
1071
    32817
  0
STYLE
  5
C8E6
330
3
100
AcDbSymbolTableRecord
100
AcDbTextStyleTableRecord
  2
明朝
 70
     0
 40
0.0
 41
1.0
 50
0.0
 71
     0
 42
2.0
  3
MS Mincho.ttf
  4

1001
ACAD
1000
MS Mincho
1071
    32785
  0
ENDTAB
  0
TABLE
  2
VIEW
  5
6
330
0
100
AcDbSymbolTable
 70
     6
  0
VIEW
  5
AE1
330
6
100
AcDbSymbolTableRecord
100
AcDbViewTableRecord
  2
AM_VIEW1
 70
     0
 40
149.3945509586276
 10
105.0
 20
222.3027245206862
 41
210.0
 11
0.0
 21
0.0
 31
1.0
 12
0.0
 22
0.0
 32
0.0
 42
50.0
 43
-1370.695619172058
 44
-1370.695619172058
 50
0.0
 71
    16
281
     0
 72
     0
  0
VIEW
  5
AE2
330
6
100
AcDbSymbolTableRecord
100
AcDbViewTableRecord
  2
AM_VIEW2
 70
     0
 40
149.3945509586276
 10
315.0
 20
222.3027245206862
 41
210.0
 11
0.0
 21
0.0
 31
1.0
 12
0.0
 22
0.0
 32
0.0
 42
50.0
 43
-1370.695619172058
 44
-1370.695619172058
 50
0.0
 71
    16
281
     0
 72
     0
  0
VIEW
  5
AE3
330
6
100
AcDbSymbolTableRecord
100
AcDbViewTableRecord
  2
AM_VIEW3
 70
     0
 40
149.3945509586276
 10
105.0
 20
74.69727547931383
 41
210.0
 11
0.0
 21
0.0
 31
1.0
 12
0.0
 22
0.0
 32
0.0
 42
50.0
 43
-1370.695619172058
 44
-1370.695619172058
 50
0.0
 71
    16
281
     0
 72
     0
  0
VIEW
  5
AE4
330
6
100
AcDbSymbolTableRecord
100
AcDbViewTableRecord
  2
AM_VIEW4
 70
     0
 40
149.3945509586276
 10
315.0
 20
74.69727547931383
 41
210.0
 11
0.0
 21
0.0
 31
1.0
 12
0.0
 22
0.0
 32
0.0
 42
50.0
 43
-1370.695619172058
 44
-1370.695619172058
 50
0.0
 71
    16
281
     0
 72
     0
  0
VIEW
  5
AE5
330
6
100
AcDbSymbolTableRecord
100
AcDbViewTableRecord
  2
AM_VIEW5
 70
     0
 40
149.3945509586276
 10
210.0
 20
148.5
 41
210.0
 11
0.0
 21
0.0
 31
1.0
 12
0.0
 22
0.0
 32
0.0
 42
50.0
 43
-1370.695619172058
 44
-1370.695619172058
 50
0.0
 71
    16
281
     0
 72
     0
  0
VIEW
  5
AE6
330
6
100
AcDbSymbolTableRecord
100
AcDbViewTableRecord
  2
AM_VIEW6
 70
     0
 40
298.7861140262362
 10
210.0
 20
148.5
 41
419.9958
 11
0.0
 21
0.0
 31
1.0
 12
0.0
 22
0.0
 32
0.0
 42
50.0
 43
-1370.695619172058
 44
-1370.695619172058
 50
0.0
 71
    16
281
     0
 72
     0
  0
ENDTAB
  0
TABLE
  2
UCS
  5
7
330
0
100
AcDbSymbolTable
 70
     0
  0
ENDTAB
  0
TABLE
  2
APPID
  5
9
330
0
100
AcDbSymbolTable
 70
    54
  0
APPID
  5
12
330
9
100
AcDbSymbolTableRecord
100
AcDbRegAppTableRecord
  2
ACAD
 70
     0
  0
APPID
  5
30
330
9
100
AcDbSymbolTableRecord
100
AcDbRegAppTableRecord
  2
MCAD_NO_VIS
 70
     0
  0
APPID
  5
31
330
9
100
AcDbSymbolTableRecord
100
AcDbRegAppTableRecord
  2
ACAD_TEMP_GRAPHIC
 70
     0
  0
APPID
  5
44
330
9
100
AcDbSymbolTableRecord
100
AcDbRegAppTableRecord
  2
ACATTRIBSERVICES
 70
     0
  0
APPID
  5
7A1
330
9
100
AcDbSymbolTableRecord
100
AcDbRegAppTableRecord
  2
GENIUS_GENDIMSH_14
 70
     0
  0
APPID
  5
A49
330
9
100
AcDbSymbolTableRecord
100
AcDbRegAppTableRecord
  2
GENIUS_GENREC_14
 70
     0
  0
APPID
  5
A4A
330
9
100
AcDbSymbolTableRecord
100
AcDbRegAppTableRecord
  2
GENIUS_GENOBJ-N-REC_13
 70
     0
  0
APPID
  5
A4B
330
9
100
AcDbSymbolTableRecord
100
AcDbRegAppTableRecord
  2
GENIUS_GENODEF_13
 70
     0
  0
APPID
  5
A4C
330
9
100
AcDbSymbolTableRecord
100
AcDbRegAppTableRecord
  2
DCO15
 70
     0
  0
APPID
  5
ADC
330
9
100
AcDbSymbolTableRecord
100
AcDbRegAppTableRecord
  2
GENIUS_GENOLIS_13
 70
     0
  0
APPID
  5
ADD
330
9
100
AcDbSymbolTableRecord
100
AcDbRegAppTableRecord
  2
GENIUS_GENOENT_13
 70
     0
  0
APPID
  5
ADE
330
9
100
AcDbSymbolTableRecord
100
AcDbRegAppTableRecord
  2
GENIUS_GENOBJ-N-TIT_13
 70
     0
  0
APPID
  5
ADF
330
9
100
AcDbSymbolTableRecord
100
AcDbRegAppTableRecord
  2
GENIUS_GENTITLE_13
 70
     0
  0
APPID
  5
AE0
330
9
100
AcDbSymbolTableRecord
100
AcDbRegAppTableRecord
  2
GENIUS_GENOREF_13
 70
     0
  0
APPID
  5
AE7
330
9
100
AcDbSymbolTableRecord
100
AcDbRegAppTableRecord
  2
GENIUS_GENSCREG_15
 70
     0
  0
APPID
  5
AE8
330
9
100
AcDbSymbolTableRecord
100
AcDbRegAppTableRecord
  2
GENIUS_GENOBJ-N-SDF_13
 70
     0
  0
APPID
  5
FAF
330
9
100
AcDbSymbolTableRecord
100
AcDbRegAppTableRecord
  2
GENIUS_GENBLLY_14
 70
     0
  0
APPID
  5
FB0
330
9
100
AcDbSymbolTableRecord
100
AcDbRegAppTableRecord
  2
GENIUS_GENTRA_14
 70
     0
  0
APPID
  5
1285
330
9
100
AcDbSymbolTableRecord
100
AcDbRegAppTableRecord
  2
GENIUS_GENDTOL_13
 70
     0
  0
APPID
  5
142D
330
9
100
AcDbSymbolTableRecord
100
AcDbRegAppTableRecord
  2
GENIUS_GENOBJ-N-CEN_13
 70
     0
  0
APPID
  5
1AB5
330
9
100
AcDbSymbolTableRecord
100
AcDbRegAppTableRecord
  2
GENIUS_GENOBJ-N-CRS_13
 70
     0
  0
APPID
  5
1B36
330
9
100
AcDbSymbolTableRecord
100
AcDbRegAppTableRecord
  2
GENIUS_GENOBJ-N-HTC_13
 70
     0
  0
APPID
  5
1B37
330
9
100
AcDbSymbolTableRecord
100
AcDbRegAppTableRecord
  2
GENIUS_GENHATCH_13
 70
     0
  0
APPID
  5
216D
330
9
100
AcDbSymbolTableRecord
100
AcDbRegAppTableRecord
  2
GENIUS_GENOBJ-N-FIL_13
 70
     0
  0
APPID
  5
2356
330
9
100
AcDbSymbolTableRecord
100
AcDbRegAppTableRecord
  2
GEVID990412420
 70
     0
  0
APPID
  5
2357
330
9
100
AcDbSymbolTableRecord
100
AcDbRegAppTableRecord
  2
GEVDC
 70
     0
  0
APPID
  5
2358
330
9
100
AcDbSymbolTableRecord
100
AcDbRegAppTableRecord
  2
GEVCON
 70
     0
  0
APPID
  5
235B
330
9
100
AcDbSymbolTableRecord
100
AcDbRegAppTableRecord
  2
GEVRADREF
 70
     0
  0
APPID
  5
2360
330
9
100
AcDbSymbolTableRecord
100
AcDbRegAppTableRecord
  2
GENIUS_GENBH_13
 70
     0
  0
APPID
  5
2362
330
9
100
AcDbSymbolTableRecord
100
AcDbRegAppTableRecord
  2
GENIUS_GENOBJ-NBEHI-BHF_13
 70
     0
  0
APPID
  5
2364
330
9
100
AcDbSymbolTableRecord
100
AcDbRegAppTableRecord
  2
GENIUS_GENOBJ-NBEHI-BHB_13
 70
     0
  0
APPID
  5
2379
330
9
100
AcDbSymbolTableRecord
100
AcDbRegAppTableRecord
  2
GENIUS_GENOBJ-F-SCPASSM_13
 70
     0
  0
APPID
  5
3D74
330
9
100
AcDbSymbolTableRecord
100
AcDbRegAppTableRecord
  2
GENIUS_GENDIM_13
 70
     0
  0
APPID
  5
3D76
330
9
100
AcDbSymbolTableRecord
100
AcDbRegAppTableRecord
  2
GENIUS_GE3DTOL_13
 70
     0
  0
APPID
  5
3D9C
330
9
100
AcDbSymbolTableRecord
100
AcDbRegAppTableRecord
  2
AD_DRAW
 70
     0
  0
APPID
  5
3DE8
330
9
100
AcDbSymbolTableRecord
100
AcDbRegAppTableRecord
  2
ASURF_PCURVE_APPNAME
 70
     0
  0
APPID
  5
3DED
330
9
100
AcDbSymbolTableRecord
100
AcDbRegAppTableRecord
  2
AMG_3D2D_5.0
 70
     0
  0
APPID
  5
3E1B
330
9
100
AcDbSymbolTableRecord
100
AcDbRegAppTableRecord
  2
DESIGNERASSEMBLIES
 70
     0
  0
APPID
  5
3E20
330
9
100
AcDbSymbolTableRecord
100
AcDbRegAppTableRecord
  2
ACADM_DIM_EDIT
 70
     0
  0
APPID
  5
3E21
330
9
100
AcDbSymbolTableRecord
100
AcDbRegAppTableRecord
  2
AMDT_DM_ADJ
 70
     0
  0
APPID
  5
4143
330
9
100
AcDbSymbolTableRecord
100
AcDbRegAppTableRecord
  2
GENIUS_GENFIL_13
 70
     0
  0
APPID
  5
4144
330
9
100
AcDbSymbolTableRecord
100
AcDbRegAppTableRecord
  2
GENIUS_GENOBJ-N-CHA_13
 70
     0
  0
APPID
  5
4E17
330
9
100
AcDbSymbolTableRecord
100
AcDbRegAppTableRecord
  2
GEVID1008153417
 70
     0
  0
APPID
  5
4E58
330
9
100
AcDbSymbolTableRecord
100
AcDbRegAppTableRecord
  2
GEVID1008153418
 70
     0
  0
APPID
  5
4E5E
330
9
100
AcDbSymbolTableRecord
100
AcDbRegAppTableRecord
  2
GEVID1008153419
 70
     0
  0
APPID
  5
4E64
330
9
100
AcDbSymbolTableRecord
100
AcDbRegAppTableRecord
  2
GEVID1008153420
 70
     0
  0
APPID
  5
4E75
330
9
100
AcDbSymbolTableRecord
100
AcDbRegAppTableRecord
  2
GEVID1008153421
 70
     0
  0
APPID
  5
4EB7
330
9
100
AcDbSymbolTableRecord
100
AcDbRegAppTableRecord
  2
GENIUS_AMGTXT_16
 70
     0
  0
APPID
  5
7645
330
9
100
AcDbSymbolTableRecord
100
AcDbRegAppTableRecord
  2
GENIUS_GENOBJ-N-DIM_13
 70
     0
  0
APPID
  5
AAD0
330
9
100
AcDbSymbolTableRecord
100
AcDbRegAppTableRecord
  2
ACAD_DSTYLE_DIMARC_LENGTH_SYMBOL
 70
     0
  0
APPID
  5
AAD1
330
9
100
AcDbSymbolTableRecord
100
AcDbRegAppTableRecord
  2
ACAD_DSTYLE_DIMJOGGED_JOGANGLE_SYMBOL
 70
     0
  0
APPID
  5
AAFD
330
9
100
AcDbSymbolTableRecord
100
AcDbRegAppTableRecord
  2
ACAD_PSEXT
 70
     0
  0
APPID
  5
AD61
330
9
100
AcDbSymbolTableRecord
100
AcDbRegAppTableRecord
  2
AcAecLayerStandard
 70
     0
  0
APPID
  5
11943
330
9
100
AcDbSymbolTableRecord
100
AcDbRegAppTableRecord
  2
GENIUS_GENCEN_19
 70
     0
  0
ENDTAB
  0
TABLE
  2
DIMSTYLE
  5
A
330
0
100
AcDbSymbolTable
 70
    35
100
AcDbDimStyleTable
 71
     1
340
2515
  0
DIMSTYLE
105
A76
330
A
100
AcDbSymbolTableRecord
100
AcDbDimStyleTableRecord
  2
STANDARD
 70
     0
 41
3.0
 42
1.0
 43
7.0
 44
2.0
 73
     0
 74
     0
 77
     1
140
2.799999999999999
141
0.0
143
0.0394
147
0.7
171
     4
172
     1
173
     1
176
     3
177
     3
178
     2
271
     3
272
     3
273
     8
274
     4
289
     0
340
A74
341
A66
343
A66
344
A66
  0
DIMSTYLE
105
2515
330
A
100
AcDbSymbolTableRecord
100
AcDbDimStyleTableRecord
  2
SYS
 70
     0
  4
"
 41
1.0
 42
1.0
 43
10.0
 44
1.0
 47
0.1
 48
0.1
 73
     0
 74
     0
 77
     1
 78
     8
 79
     2
140
3.5
141
0.0
143
0.0393701
146
0.71
147
1.5
172
     1
176
   256
177
   256
178
     7
271
     2
272
     2
283
     0
284
     8
340
11
371
    -1
372
    -1
1001
ACAD_DSTYLE_DIMJOGGED_JOGANGLE_SYMBOL
1070
   384
1040
0.7853981633974483
1001
ACAD_DSTYLE_DIMARC_LENGTH_SYMBOL
1070
   379
1070
     1
  0
DIMSTYLE
105
2516
330
A
100
AcDbSymbolTableRecord
100
AcDbDimStyleTableRecord
  2
SYS$3
 70
     0
  4
"
 41
2.0
 42
1.0
 43
10.0
 44
1.0
 47
0.1
 48
0.1
 73
     0
 77
     1
 78
     8
 79
     2
140
3.5
141
0.0
143
0.0393701
146
0.71
147
1.5
176
   256
177
   256
178
     2
271
     2
272
     2
283
     0
284
     8
288
     1
340
11
342
A66
371
    -1
372
    -1
1001
ACAD_DSTYLE_DIMJOGGED_JOGANGLE_SYMBOL
1070
   384
1040
0.7853981633974483
1001
ACAD_DSTYLE_DIMARC_LENGTH_SYMBOL
1070
   379
1070
     1
  0
DIMSTYLE
105
2517
330
A
100
AcDbSymbolTableRecord
100
AcDbDimStyleTableRecord
  2
SYS$4
 70
     0
  4
"
 41
2.0
 42
1.0
 43
10.0
 44
1.0
 47
0.1
 48
0.1
 73
     0
 77
     1
 78
     8
 79
     2
140
3.5
141
0.0
143
0.0393701
146
0.71
147
1.5
173
     1
176
   256
177
   256
178
     2
271
     2
272
     2
283
     0
284
     8
288
     1
340
11
344
A66
371
    -1
372
    -1
1001
ACAD_DSTYLE_DIMJOGGED_JOGANGLE_SYMBOL
1070
   384
1040
0.7853981633974483
1001
ACAD_DSTYLE_DIMARC_LENGTH_SYMBOL
1070
   379
1070
     1
  0
DIMSTYLE
105
2518
330
A
100
AcDbSymbolTableRecord
100
AcDbDimStyleTableRecord
  2
SYS$6
 70
     0
  4
"
 41
2.0
 42
1.0
 43
10.0
 44
1.0
 47
0.1
 48
0.1
 73
     0
 74
     0
 78
     8
 79
     2
140
3.5
141
0.0
143
0.0393701
146
0.71
147
1.5
172
     1
176
   256
177
   256
178
     2
271
     2
272
     2
283
     0
284
     8
340
11
341
A66
371
    -1
372
    -1
1001
ACAD_DSTYLE_DIMJOGGED_JOGANGLE_SYMBOL
1070
   384
1040
0.7853981633974483
1001
ACAD_DSTYLE_DIMARC_LENGTH_SYMBOL
1070
   379
1070
     1
  0
DIMSTYLE
105
2519
330
A
100
AcDbSymbolTableRecord
100
AcDbDimStyleTableRecord
  2
SYS$7
 70
     0
  4
"
 41
2.0
 42
1.0
 43
10.0
 44
1.0
 47
0.1
 48
0.1
 73
     0
 74
     0
 77
     1
 78
     8
 79
     2
140
5.0
141
0.0
143
0.0393701
146
0.71
147
1.5
172
     1
176
   256
177
   256
178
     2
271
     2
272
     2
283
     0
284
     8
340
11
341
A66
342
A66
371
    -1
372
    -1
1001
ACAD_DSTYLE_DIMJOGGED_JOGANGLE_SYMBOL
1070
   384
1040
0.7853981633974483
1001
ACAD_DSTYLE_DIMARC_LENGTH_SYMBOL
1070
   379
1070
     1
  0
DIMSTYLE
105
251A
330
A
100
AcDbSymbolTableRecord
100
AcDbDimStyleTableRecord
  2
SYS$SF
 70
     0
  4
"
 41
2.5
 42
1.0
 43
10.0
 44
1.0
 47
0.1
 48
0.1
 73
     0
 74
     0
 75
     1
 76
     1
 77
     1
 78
     8
 79
     2
140
3.5
141
0.0
143
0.0393701
146
0.71
147
1.5
172
     1
176
   256
177
   256
178
     2
271
     2
272
     3
283
     0
284
     8
340
11
341
6C4
342
6C4
371
    -1
372
    -1
1001
ACAD_DSTYLE_DIMJOGGED_JOGANGLE_SYMBOL
1070
   384
1040
0.7853981633974483
1001
ACAD_DSTYLE_DIMARC_LENGTH_SYMBOL
1070
   379
1070
     1
  0
DIMSTYLE
105
251B
330
A
100
AcDbSymbolTableRecord
100
AcDbDimStyleTableRecord
  2
SYS$SH
 70
     0
  4
"
 41
2.5
 42
1.0
 43
10.0
 44
1.0
 47
0.1
 48
0.1
 73
     0
 74
     0
 75
     1
 76
     1
 77
     1
 78
     8
 79
     2
140
3.5
141
0.0
143
0.0393701
144
2.0
146
0.71
147
1.5
172
     1
173
     1
176
   256
177
   256
178
     2
271
     2
272
     3
283
     0
284
     8
340
11
341
6C4
343
72
344
6C4
371
    -1
372
    -1
1001
ACAD_DSTYLE_DIMJOGGED_JOGANGLE_SYMBOL
1070
   384
1040
0.7853981633974483
1001
ACAD_DSTYLE_DIMARC_LENGTH_SYMBOL
1070
   379
1070
     1
  0
DIMSTYLE
105
2A59
330
A
100
AcDbSymbolTableRecord
100
AcDbDimStyleTableRecord
  2
SYS$2
 70
     0
  4
"
 41
1.0
 42
1.0
 43
10.0
 44
1.0
 47
0.1
 48
0.1
 73
     0
 74
     0
 77
     1
 78
     8
 79
     2
140
3.5
141
0.0
143
0.0393701
146
0.71
147
1.5
172
     1
176
   256
177
   256
178
     2
271
     2
272
     2
283
     0
284
     8
340
11
342
6C4
371
    -1
372
    -1
1001
ACAD_DSTYLE_DIMJOGGED_JOGANGLE_SYMBOL
1070
   384
1040
0.7853981633974483
1001
ACAD_DSTYLE_DIMARC_LENGTH_SYMBOL
1070
   379
1070
     1
  0
DIMSTYLE
105
2AAB
102
{ACAD_REACTORS
330
EA2A
330
EA94
330
EAC7
330
EADD
330
13015
330
1302B
330
13041
330
13069
330
1307F
330
13095
330
130AB
102
}
330
A
100
AcDbSymbolTableRecord
100
AcDbDimStyleTableRecord
  2
SYS$0
 70
     0
  4
"
 41
1.0
 42
1.0
 43
10.0
 44
1.0
 47
0.1
 48
0.1
 73
     0
 74
     0
 77
     1
 78
     8
 79
     2
140
3.200000000000001
141
0.0
143
0.0393701
146
0.71
147
1.5
172
     1
176
   256
177
   256
178
     2
271
     2
272
     2
283
     0
284
     8
340
11
341
A66
342
6C4
371
    -1
372
    -1
1001
ACAD_DSTYLE_DIMJOGGED_JOGANGLE_SYMBOL
1070
   384
1040
0.7853981633974483
1001
ACAD_DSTYLE_DIMARC_LENGTH_SYMBOL
1070
   379
1070
     1
  0
DIMSTYLE
105
AF69
330
A
100
AcDbSymbolTableRecord
100
AcDbDimStyleTableRecord
  2
DIMSTYLE
 70
     0
 41
1.0
 42
2.54
 44
2.54
 73
     0
 74
     0
140
3.2
147
1.6
173
     1
279
     2
340
11
  0
DIMSTYLE
105
AF6A
330
A
100
AcDbSymbolTableRecord
100
AcDbDimStyleTableRecord
  2
AM_ANSI
 70
     0
  4
mm
 41
0.1
 42
0.05
 43
0.5
 44
0.1
 47
0.1
 48
0.1
 78
     7
 79
     2
140
0.12
141
0.0
146
0.71
147
0.06
176
   256
177
   256
178
     2
274
     4
284
     7
340
11
371
    -1
372
    -1
1001
ACAD_DSTYLE_DIMJOGGED_JOGANGLE_SYMBOL
1070
   384
1040
0.7853981633974483
1001
ACAD_DSTYLE_DIMARC_LENGTH_SYMBOL
1070
   379
1070
     1
  0
DIMSTYLE
105
AF6B
330
A
100
AcDbSymbolTableRecord
100
AcDbDimStyleTableRecord
  2
AM_ANSI$3
 70
     0
  4
mm
 41
0.1
 42
0.05
 43
0.5
 44
0.1
 47
0.1
 48
0.1
 78
     7
 79
     2
140
0.12
141
0.0
146
0.71
147
0.06
176
   256
177
   256
178
     2
274
     4
284
     7
288
     1
289
     0
340
11
371
    -1
372
    -1
1001
ACAD_DSTYLE_DIMJOGGED_JOGANGLE_SYMBOL
1070
   384
1040
0.7853981633974483
1001
ACAD_DSTYLE_DIMARC_LENGTH_SYMBOL
1070
   379
1070
     1
  0
DIMSTYLE
105
AF6C
330
A
100
AcDbSymbolTableRecord
100
AcDbDimStyleTableRecord
  2
AM_ANSI$4
 70
     0
  4
mm
 41
0.1
 42
0.05
 43
0.5
 44
0.1
 47
0.1
 48
0.1
 78
     7
 79
     2
140
0.12
141
0.0
146
0.71
147
0.06
176
   256
177
   256
178
     2
274
     4
284
     7
288
     1
289
     0
340
11
371
    -1
372
    -1
1001
ACAD_DSTYLE_DIMJOGGED_JOGANGLE_SYMBOL
1070
   384
1040
0.7853981633974483
1001
ACAD_DSTYLE_DIMARC_LENGTH_SYMBOL
1070
   379
1070
     1
  0
DIMSTYLE
105
AF6D
330
A
100
AcDbSymbolTableRecord
100
AcDbDimStyleTableRecord
  2
AM_ANSI$7
 70
     0
  4
mm
 41
0.1
 42
0.05
 43
0.5
 44
0.1
 47
0.1
 48
0.1
 78
     7
 79
     2
140
0.24
141
0.0
146
0.71
147
0.06
176
   256
177
   256
178
     2
274
     4
284
     7
340
11
371
    -1
372
    -1
1001
ACAD_DSTYLE_DIMJOGGED_JOGANGLE_SYMBOL
1070
   384
1040
0.7853981633974483
1001
ACAD_DSTYLE_DIMARC_LENGTH_SYMBOL
1070
   379
1070
     1
  0
DIMSTYLE
105
AF6E
330
A
100
AcDbSymbolTableRecord
100
AcDbDimStyleTableRecord
  2
AM_ANSI$SF
 70
     0
  4
mm
 41
0.1
 42
0.05
 43
0.5
 44
0.1
 47
0.1
 48
0.1
 75
     1
 76
     1
 78
     7
 79
     2
140
0.12
141
0.0
146
0.71
147
0.06
176
   256
177
   256
178
     2
274
     4
284
     7
340
11
371
    -1
372
    -1
1001
ACAD_DSTYLE_DIMJOGGED_JOGANGLE_SYMBOL
1070
   384
1040
0.7853981633974483
1001
ACAD_DSTYLE_DIMARC_LENGTH_SYMBOL
1070
   379
1070
     1
  0
DIMSTYLE
105
AF6F
330
A
100
AcDbSymbolTableRecord
100
AcDbDimStyleTableRecord
  2
AM_ANSI$SH
 70
     0
  4
mm
 41
0.1
 42
0.05
 43
0.5
 44
0.1
 47
0.1
 48
0.1
 75
     1
 76
     1
 78
     7
 79
     2
140
0.12
141
0.0
146
0.71
147
0.06
173
     1
176
   256
177
   256
178
     2
274
     4
284
     7
340
11
343
72
371
    -1
372
    -1
1001
ACAD_DSTYLE_DIMJOGGED_JOGANGLE_SYMBOL
1070
   384
1040
0.7853981633974483
1001
ACAD_DSTYLE_DIMARC_LENGTH_SYMBOL
1070
   379
1070
     1
  0
DIMSTYLE
105
B2E4
330
A
100
AcDbSymbolTableRecord
100
AcDbDimStyleTableRecord
  2
AM_ISO
 70
     0
  4
"
 41
2.5
 42
1.0
 43
10.0
 44
1.0
 47
0.1
 48
0.1
 73
     0
 74
     0
 77
     1
 78
     8
 79
     2
140
3.5
141
0.0
143
0.0393701
146
0.71
147
1.5
172
     1
176
   256
177
   256
178
     2
271
     2
272
     3
274
     4
283
     0
284
     8
340
11
371
    -1
372
    -1
  0
DIMSTYLE
105
B2E5
330
A
100
AcDbSymbolTableRecord
100
AcDbDimStyleTableRecord
  2
AM_ISO$3
 70
     0
  4
"
 41
2.5
 42
1.0
 43
10.0
 44
1.0
 47
0.1
 48
0.1
 73
     0
 77
     1
 78
     8
 79
     2
140
3.5
141
0.0
143
0.0393701
146
0.71
147
1.5
176
   256
177
   256
178
     2
271
     2
272
     3
274
     4
283
     0
284
     8
288
     1
289
     0
340
11
371
    -1
372
    -1
  0
DIMSTYLE
105
B2E6
330
A
100
AcDbSymbolTableRecord
100
AcDbDimStyleTableRecord
  2
AM_ISO$4
 70
     0
  4
"
 41
2.5
 42
1.0
 43
10.0
 44
1.0
 47
0.1
 48
0.1
 73
     0
 77
     1
 78
     8
 79
     2
140
3.5
141
0.0
143
0.0393701
146
0.71
147
1.5
176
   256
177
   256
178
     2
271
     2
272
     3
274
     4
283
     0
284
     8
288
     1
289
     0
340
11
371
    -1
372
    -1
  0
DIMSTYLE
105
B2E7
330
A
100
AcDbSymbolTableRecord
100
AcDbDimStyleTableRecord
  2
AM_ISO$6
 70
     0
  4
"
 41
2.5
 42
1.0
 43
10.0
 44
1.0
 47
0.1
 48
0.1
 73
     0
 74
     0
 78
     8
 79
     2
140
3.5
141
0.0
143
0.0393701
146
0.71
147
1.5
172
     1
176
   256
177
   256
178
     2
271
     2
272
     3
274
     4
283
     0
284
     8
340
11
371
    -1
372
    -1
  0
DIMSTYLE
105
B2E8
330
A
100
AcDbSymbolTableRecord
100
AcDbDimStyleTableRecord
  2
AM_ISO$7
 70
     0
  4
"
 41
2.5
 42
1.0
 43
10.0
 44
1.0
 47
0.1
 48
0.1
 73
     0
 74
     0
 77
     1
 78
     8
 79
     2
140
5.0
141
0.0
143
0.0393701
146
0.71
147
1.5
172
     1
176
   256
177
   256
178
     2
271
     2
272
     3
274
     4
283
     0
284
     8
340
11
371
    -1
372
    -1
  0
DIMSTYLE
105
B2E9
330
A
100
AcDbSymbolTableRecord
100
AcDbDimStyleTableRecord
  2
AM_ISO$SF
 70
     0
  4
"
 41
2.5
 42
1.0
 43
10.0
 44
1.0
 47
0.1
 48
0.1
 73
     0
 74
     0
 75
     1
 76
     1
 77
     1
 78
     8
 79
     2
140
3.5
141
0.0
143
0.0393701
146
0.71
147
1.5
172
     1
176
   256
177
   256
178
     2
271
     2
272
     3
274
     4
283
     0
284
     8
340
11
371
    -1
372
    -1
  0
DIMSTYLE
105
B2EA
330
A
100
AcDbSymbolTableRecord
100
AcDbDimStyleTableRecord
  2
AM_ISO$SH
 70
     0
  4
"
 41
2.5
 42
1.0
 43
10.0
 44
1.0
 47
0.1
 48
0.1
 73
     0
 74
     0
 75
     1
 76
     1
 77
     1
 78
     8
 79
     2
140
3.5
141
0.0
143
0.0393701
144
2.0
146
0.71
147
1.5
172
     1
173
     1
176
   256
177
   256
178
     2
271
     2
272
     3
274
     4
283
     0
284
     8
340
11
343
72
371
    -1
372
    -1
  0
DIMSTYLE
105
B48A
330
A
100
AcDbSymbolTableRecord
100
AcDbDimStyleTableRecord
  2
AM_ISO$0
 70
     0
  4
"
 41
0.8
 42
1.0
 43
10.0
 44
1.0
 47
0.1
 48
0.1
 73
     0
 74
     0
 77
     1
 78
     8
 79
     2
140
3.2
141
0.0
143
0.0393701
146
0.71
147
0.9999999999999996
172
     1
176
   256
177
   256
178
     2
271
     2
272
     2
283
     0
284
     8
340
11
341
6C4
342
6C4
371
    -1
372
    -1
  0
DIMSTYLE
105
B48B
330
A
100
AcDbSymbolTableRecord
100
AcDbDimStyleTableRecord
  2
AM_ISO$2
 70
     0
  4
"
 41
0.8
 42
1.0
 43
10.0
 44
1.0
 47
0.1
 48
0.1
 73
     0
 74
     0
 77
     3
 78
     8
 79
     2
140
3.200000000000001
141
0.0
143
0.0393701
146
0.71
147
0.9999999999999996
172
     1
176
   256
177
   256
178
     2
271
     2
272
     2
283
     0
284
     8
340
11
342
6C4
371
    -1
372
    -1
  0
DIMSTYLE
105
B6A1
330
A
100
AcDbSymbolTableRecord
100
AcDbDimStyleTableRecord
  2
ISO-25
 70
     0
 41
2.5
 42
0.625
 43
3.75
 44
1.25
 45
0.01
 73
     0
 74
     0
 77
     1
 78
     8
140
2.5
141
2.5
143
0.03937007874016
147
0.625
171
     3
172
     1
271
     2
272
     2
274
     3
278
    44
283
     0
284
     8
340
11
  0
DIMSTYLE
105
B6A2
330
A
100
AcDbSymbolTableRecord
100
AcDbDimStyleTableRecord
  2
原寸
 70
     0
 41
2.5
 42
1.0
 43
10.0
 44
0.7
 73
     0
 74
     0
 77
     3
 78
     8
 79
     2
140
3.5
141
0.0
147
1.0
172
     1
179
     1
271
     2
272
     2
340
B6A0
341
A66
342
A66
  0
DIMSTYLE
105
C8E7
330
A
100
AcDbSymbolTableRecord
100
AcDbDimStyleTableRecord
  2
寸法１
 70
     0
 41
2.5
 42
0.0
 43
2.0
 44
1.0
 73
     0
 74
     0
 77
     3
 78
     8
140
2.5
141
2.5
143
0.0394
146
0.7
147
0.625
171
     4
172
     1
173
     1
176
     2
177
     2
178
     1
273
     8
274
     4
340
C8E5
341
C6ED
343
C6ED
344
C6ED
  0
DIMSTYLE
105
C8E8
330
A
100
AcDbSymbolTableRecord
100
AcDbDimStyleTableRecord
  2
直径
 70
     0
  3
%%c<>
 41
2.0
 42
0.0
 43
1.0
 44
1.0
 73
     0
 74
     0
 77
     3
 78
     8
140
2.5
146
0.7
147
1.0
172
     1
173
     1
176
     2
177
     2
178
     1
271
     3
272
     3
284
     8
340
11
341
C6ED
343
C6ED
344
C6ED
  0
DIMSTYLE
105
C8E9
330
A
100
AcDbSymbolTableRecord
100
AcDbDimStyleTableRecord
  2
直径尺度２／１
 70
     0
  3
%%c<>
 41
2.0
 42
0.0
 43
1.0
 44
1.0
 73
     0
 74
     0
 77
     3
 78
     8
140
2.5
144
0.5
146
0.7
147
1.0
172
     1
173
     1
176
     2
177
     2
178
     1
271
     3
272
     3
284
     8
340
11
341
C6ED
343
C6ED
344
C6ED
  0
DIMSTYLE
105
C8EA
330
A
100
AcDbSymbolTableRecord
100
AcDbDimStyleTableRecord
  2
直径尺度１／２
 70
     0
  3
%%c<>
 41
2.0
 42
0.0
 43
1.0
 44
1.0
 73
     0
 74
     0
 77
     3
 78
     8
140
2.5
144
2.0
146
0.7
147
1.0
172
     1
173
     1
176
     2
177
     2
178
     1
271
     3
272
     3
284
     8
340
11
341
C6ED
343
C6ED
344
C6ED
  0
DIMSTYLE
105
D28D
330
A
100
AcDbSymbolTableRecord
100
AcDbDimStyleTableRecord
  2
STANDARD_WS
 70
     0
 41
2.0
 42
0.0
 43
1.0
 44
1.0
 73
     0
 74
     0
 77
     3
 78
     8
140
2.5
146
0.7
147
1.0
172
     1
173
     1
176
     2
177
     2
178
     1
271
     3
272
     3
284
     8
340
11
341
C6ED
343
C6ED
344
C6ED
  0
DIMSTYLE
105
D28E
330
A
100
AcDbSymbolTableRecord
100
AcDbDimStyleTableRecord
  2
尺度２／１
 70
     0
 41
2.0
 42
0.0
 43
1.0
 44
1.0
 73
     0
 74
     0
 77
     3
 78
     8
140
2.5
144
0.5
146
0.7
147
1.0
172
     1
173
     1
176
     2
177
     2
178
     1
271
     3
272
     3
284
     8
340
11
341
C6ED
343
C6ED
344
C6ED
  0
ENDTAB
  0
TABLE
  2
BLOCK_RECORD
  5
1
330
0
100
AcDbSymbolTable
 70
    29
  0
BLOCK_RECORD
  5
1F
102
{ACAD_XDICTIONARY
360
8A
102
}
330
1
100
AcDbSymbolTableRecord
100
AcDbBlockTableRecord
  2
*Model_Space
340
22
  0
BLOCK_RECORD
  5
1B
330
1
100
AcDbSymbolTableRecord
100
AcDbBlockTableRecord
  2
*Paper_Space
340
1E
  0
BLOCK_RECORD
  5
23
330
1
100
AcDbSymbolTableRecord
100
AcDbBlockTableRecord
  2
*Paper_Space0
340
26
  0
BLOCK_RECORD
  5
72
330
1
100
AcDbSymbolTableRecord
100
AcDbBlockTableRecord
  2
GENAXEH
340
0
  0
BLOCK_RECORD
  5
6C4
330
1
100
AcDbSymbolTableRecord
100
AcDbBlockTableRecord
  2
_Dot
340
0
102
{BLKREFS
331
15B33
331
15B34
331
15B3C
331
15B3D
331
15B45
331
15B46
331
15B4E
331
15B4F
331
15B57
331
15B58
331
15B60
331
15B61
331
15B69
331
15B6A
331
15B72
331
15B73
331
15B7B
331
15B7C
331
15B84
331
15B85
331
15B8D
331
15B8E
102
}
  0
BLOCK_RECORD
  5
A66
330
1
100
AcDbSymbolTableRecord
100
AcDbBlockTableRecord
  2
_OPEN30
340
0
  0
BLOCK_RECORD
  5
C6ED
330
1
100
AcDbSymbolTableRecord
100
AcDbBlockTableRecord
  2
_OPEN
340
0
  0
BLOCK_RECORD
  5
EA2B
330
1
100
AcDbSymbolTableRecord
100
AcDbBlockTableRecord
  2
*D15
340
0
  0
BLOCK_RECORD
  5
EA95
330
1
100
AcDbSymbolTableRecord
100
AcDbBlockTableRecord
  2
*D16
340
0
  0
BLOCK_RECORD
  5
EAC8
330
1
100
AcDbSymbolTableRecord
100
AcDbBlockTableRecord
  2
*D17
340
0
  0
BLOCK_RECORD
  5
EADE
330
1
100
AcDbSymbolTableRecord
100
AcDbBlockTableRecord
  2
*D18
340
0
  0
BLOCK_RECORD
  5
13016
330
1
100
AcDbSymbolTableRecord
100
AcDbBlockTableRecord
  2
*D19
340
0
  0
BLOCK_RECORD
  5
1302C
330
1
100
AcDbSymbolTableRecord
100
AcDbBlockTableRecord
  2
*D20
340
0
  0
BLOCK_RECORD
  5
13042
330
1
100
AcDbSymbolTableRecord
100
AcDbBlockTableRecord
  2
*D21
340
0
  0
BLOCK_RECORD
  5
1306A
330
1
100
AcDbSymbolTableRecord
100
AcDbBlockTableRecord
  2
*D22
340
0
  0
BLOCK_RECORD
  5
13080
330
1
100
AcDbSymbolTableRecord
100
AcDbBlockTableRecord
  2
*D23
340
0
  0
BLOCK_RECORD
  5
13096
330
1
100
AcDbSymbolTableRecord
100
AcDbBlockTableRecord
  2
*D24
340
0
  0
BLOCK_RECORD
  5
130AC
330
1
100
AcDbSymbolTableRecord
100
AcDbBlockTableRecord
  2
*D25
340
0
  0
BLOCK_RECORD
  5
15BB5
330
1
100
AcDbSymbolTableRecord
100
AcDbBlockTableRecord
  2
*S26
340
0
102
{BLKREFS
331
13192
102
}
  0
ENDTAB
  0
ENDSEC
  0
SECTION
  2
BLOCKS
  0
BLOCK
  5
20
330
1F
100
AcDbEntity
  8
0
100
AcDbBlockBegin
  2
*Model_Space
 70
     0
 10
0.0
 20
0.0
 30
0.0
  3
*Model_Space
  1

  0
ENDBLK
  5
21
330
1F
100
AcDbEntity
  8
0
100
AcDbBlockEnd
  0
BLOCK
  5
1C
330
1B
100
AcDbEntity
 67
     1
  8
0
100
AcDbBlockBegin
  2
*Paper_Space
 70
     0
 10
0.0
 20
0.0
 30
0.0
  3
*Paper_Space
  1

  0
ENDBLK
  5
1D
330
1B
100
AcDbEntity
 67
     1
  8
0
100
AcDbBlockEnd
  0
BLOCK
  5
24
330
23
100
AcDbEntity
 67
     1
  8
0
100
AcDbBlockBegin
  2
*Paper_Space0
 70
     0
 10
0.0
 20
0.0
 30
0.0
  3
*Paper_Space0
  1

  0
ENDBLK
  5
25
330
23
100
AcDbEntity
 67
     1
  8
0
100
AcDbBlockEnd
  0
BLOCK
  5
74
330
72
100
AcDbEntity
  8
0
100
AcDbBlockBegin
  2
GENAXEH
 70
     0
 10
0.0
 20
0.0
 30
0.0
  3
GENAXEH
  1

  0
LINE
  5
73
330
72
100
AcDbEntity
  8
0
100
AcDbLine
 10
-1.0
 20
0.0
 30
0.0
 11
1.0
 21
0.0
 31
0.0
  0
ENDBLK
  5
75
330
72
100
AcDbEntity
  8
0
100
AcDbBlockEnd
  0
BLOCK
  5
6C7
330
6C4
100
AcDbEntity
  8
0
100
AcDbBlockBegin
  2
_Dot
 70
     0
 10
0.0
 20
0.0
 30
0.0
  3
_Dot
  1

  0
LWPOLYLINE
  5
6C5
330
6C4
100
AcDbEntity
  8
0
  6
ByBlock
 62
     0
100
AcDbPolyline
 90
        2
 70
     1
 43
0.5
 10
-0.25
 20
0.0
 42
1.0
 10
0.25
 20
0.0
 42
1.0
  0
LINE
  5
6C6
330
6C4
100
AcDbEntity
  8
0
  6
ByBlock
 62
     0
370
    -2
100
AcDbLine
 10
-0.5
 20
0.0
 30
0.0
 11
-1.0
 21
0.0
 31
0.0
  0
ENDBLK
  5
6C8
330
6C4
100
AcDbEntity
  8
0
100
AcDbBlockEnd
  0
BLOCK
  5
A6A
330
A66
100
AcDbEntity
  8
0
100
AcDbBlockBegin
  2
_OPEN30
 70
     0
 10
0.0
 20
0.0
 30
0.0
  3
_OPEN30
  1

  0
LINE
  5
A67
330
A66
100
AcDbEntity
  8
0
  6
ByBlock
 62
     0
100
AcDbLine
 10
-1.0
 20
0.26794919
 30
0.0
 11
0.0
 21
0.0
 31
0.0
  0
LINE
  5
A68
330
A66
100
AcDbEntity
  8
0
  6
ByBlock
 62
     0
100
AcDbLine
 10
0.0
 20
0.0
 30
0.0
 11
-1.0
 21
-0.26794919
 31
0.0
  0
LINE
  5
A69
330
A66
100
AcDbEntity
  8
0
  6
ByBlock
 62
     0
100
AcDbLine
 10
0.0
 20
0.0
 30
0.0
 11
-1.0
 21
0.0
 31
0.0
  0
ENDBLK
  5
A6B
330
A66
100
AcDbEntity
  8
0
100
AcDbBlockEnd
  0
BLOCK
  5
C6EE
330
C6ED
100
AcDbEntity
  8
0
100
AcDbBlockBegin
  2
_OPEN
 70
     0
 10
0.0
 20
0.0
 30
0.0
  3
_OPEN
  1

  0
LINE
  5
C6EF
330
C6ED
100
AcDbEntity
  8
0
  6
ByBlock
 62
     0
100
AcDbLine
 10
-1.0
 20
0.1666666666666666
 30
0.0
 11
0.0
 21
0.0
 31
0.0
  0
LINE
  5
C6F0
330
C6ED
100
AcDbEntity
  8
0
  6
ByBlock
 62
     0
100
AcDbLine
 10
0.0
 20
0.0
 30
0.0
 11
-1.0
 21
-0.1666666666666666
 31
0.0
  0
LINE
  5
C6F1
330
C6ED
100
AcDbEntity
  8
0
  6
ByBlock
 62
     0
100
AcDbLine
 10
0.0
 20
0.0
 30
0.0
 11
-1.0
 21
0.0
 31
0.0
  0
ENDBLK
  5
C6F2
330
C6ED
100
AcDbEntity
  8
0
100
AcDbBlockEnd
  0
BLOCK
  5
EA35
330
EA2B
100
AcDbEntity
  8
0
 48
10.0
100
AcDbBlockBegin
  2
*D15
 70
     1
 10
0.0
 20
0.0
 30
0.0
  3
*D15
  1

  0
LINE
  5
15B30
330
EA2B
100
AcDbEntity
  8
AM_5
100
AcDbLine
 10
172.3037538344142
 20
453.2515075461666
 30
0.0
 11
172.3037538344142
 21
472.2515075461665
 31
0.0
  0
LINE
  5
15B31
330
EA2B
100
AcDbEntity
  8
AM_5
100
AcDbLine
 10
242.3008616863242
 20
453.2515075461666
 30
0.0
 11
242.3008616863242
 21
472.2515075461665
 31
0.0
  0
LINE
  5
15B32
330
EA2B
100
AcDbEntity
  8
AM_5
100
AcDbLine
 10
173.3037538344142
 20
471.2515075461666
 30
0.0
 11
241.3008616863243
 21
471.2515075461666
 31
0.0
  0
INSERT
  5
15B33
330
EA2B
100
AcDbEntity
  8
AM_5
100
AcDbBlockReference
  2
_Dot
 10
172.3037538344142
 20
471.2515075461666
 30
0.0
 50
180.0
  0
INSERT
  5
15B34
330
EA2B
100
AcDbEntity
  8
AM_5
100
AcDbBlockReference
  2
_Dot
 10
242.3008616863242
 20
471.2515075461666
 30
0.0
  0
MTEXT
  5
15B35
330
EA2B
100
AcDbEntity
  8
AM_5
 62
     2
100
AcDbMText
 10
207.3023077603692
 20
474.3515075461665
 30
0.0
 40
3.200000000000001
 41
0.0
 71
     5
 72
     1
  1
70
 73
     1
 44
1.0
1001
ACAD
1000
MTEXTBEGIN
1070
    73
1070
     1
1070
    44
1040
1.0
1070
    74
1070
     0
1000
MTEXTEND
  0
POINT
  5
15B36
330
EA2B
100
AcDbEntity
  8
Defpoints
 62
     0
100
AcDbPoint
 10
172.3037538344142
 20
452.2515075461665
 30
0.0
  0
POINT
  5
15B37
330
EA2B
100
AcDbEntity
  8
Defpoints
 62
     0
100
AcDbPoint
 10
242.3008616863242
 20
452.2515075461665
 30
0.0
  0
POINT
  5
15B38
330
EA2B
100
AcDbEntity
  8
Defpoints
 62
     0
100
AcDbPoint
 10
242.3008616863242
 20
471.2515075461666
 30
0.0
  0
ENDBLK
  5
EA36
330
EA2B
100
AcDbEntity
  8
0
 48
10.0
100
AcDbBlockEnd
  0
BLOCK
  5
EA9F
330
EA95
100
AcDbEntity
  8
0
 48
10.0
100
AcDbBlockBegin
  2
*D16
 70
     1
 10
0.0
 20
0.0
 30
0.0
  3
*D16
  1

  0
LINE
  5
15B39
330
EA95
100
AcDbEntity
  8
AM_5
100
AcDbLine
 10
201.5059490135697
 20
382.4186677616754
 30
0.0
 11
155.2478666855696
 21
382.4186677616754
 31
0.0
  0
LINE
  5
15B3A
330
EA95
100
AcDbEntity
  8
AM_5
100
AcDbLine
 10
171.2478666855697
 20
368.5118553896754
 30
0.0
 11
155.2478666855696
 21
368.5118553896754
 31
0.0
  0
LINE
  5
15B3B
330
EA95
100
AcDbEntity
  8
AM_5
100
AcDbLine
 10
156.2478666855696
 20
381.4186677616754
 30
0.0
 11
156.2478666855696
 21
369.5118553896754
 31
0.0
  0
INSERT
  5
15B3C
330
EA95
100
AcDbEntity
  8
AM_5
100
AcDbBlockReference
  2
_Dot
 10
156.2478666855696
 20
382.4186677616754
 30
0.0
 50
90.0
  0
INSERT
  5
15B3D
330
EA95
100
AcDbEntity
  8
AM_5
100
AcDbBlockReference
  2
_Dot
 10
156.2478666855696
 20
368.5118553896754
 30
0.0
 50
270.0
  0
MTEXT
  5
15B3E
330
EA95
100
AcDbEntity
  8
AM_5
 62
     2
100
AcDbMText
 10
153.1478666855696
 20
375.4150242091329
 30
0.0
 40
3.200000000000001
 41
0.0
 71
     5
 72
     1
  1
13.9\P
 11
0.0000000000000001
 21
1.0
 31
0.0
 73
     1
 44
1.0
1001
ACAD
1000
MTEXTBEGIN
1070
    73
1070
     1
1070
    44
1040
1.0
1070
    74
1070
     0
1000
MTEXTEND
  0
POINT
  5
15B3F
330
EA95
100
AcDbEntity
  8
Defpoints
 62
     0
100
AcDbPoint
 10
202.5059490135697
 20
382.4186677616754
 30
0.0
  0
POINT
  5
15B40
330
EA95
100
AcDbEntity
  8
Defpoints
 62
     0
100
AcDbPoint
 10
172.2478666855697
 20
368.5118553896754
 30
0.0
  0
POINT
  5
15B41
330
EA95
100
AcDbEntity
  8
Defpoints
 62
     0
100
AcDbPoint
 10
156.2478666855696
 20
368.5118553896754
 30
0.0
  0
ENDBLK
  5
EAA0
330
EA95
100
AcDbEntity
  8
0
 48
10.0
100
AcDbBlockEnd
  0
BLOCK
  5
EAD2
330
EAC8
100
AcDbEntity
  8
0
 48
10.0
100
AcDbBlockBegin
  2
*D17
 70
     1
 10
0.0
 20
0.0
 30
0.0
  3
*D17
  1

  0
LINE
  5
15B42
330
EAC8
100
AcDbEntity
  8
AM_5
100
AcDbLine
 10
174.2478666855697
 20
380.3118553896754
 30
0.0
 11
163.2478666855696
 21
380.3118553896754
 31
0.0
  0
LINE
  5
15B43
330
EAC8
100
AcDbEntity
  8
AM_5
100
AcDbLine
 10
171.2478666855697
 20
368.5118553896754
 30
0.0
 11
163.2478666855696
 21
368.5118553896754
 31
0.0
  0
LINE
  5
15B44
330
EAC8
100
AcDbEntity
  8
AM_5
100
AcDbLine
 10
164.2478666855696
 20
379.3118553896754
 30
0.0
 11
164.2478666855696
 21
369.5118553896754
 31
0.0
  0
INSERT
  5
15B45
330
EAC8
100
AcDbEntity
  8
AM_5
100
AcDbBlockReference
  2
_Dot
 10
164.2478666855696
 20
380.3118553896754
 30
0.0
 50
90.0
  0
INSERT
  5
15B46
330
EAC8
100
AcDbEntity
  8
AM_5
100
AcDbBlockReference
  2
_Dot
 10
164.2478666855696
 20
368.5118553896754
 30
0.0
 50
270.0
  0
MTEXT
  5
15B47
330
EAC8
100
AcDbEntity
  8
AM_5
 62
     2
100
AcDbMText
 10
161.1478666855696
 20
374.1720214040426
 30
0.0
 40
3.200000000000001
 41
0.0
 71
     5
 72
     1
  1
11.8
 11
0.0000000000000001
 21
1.0
 31
0.0
 73
     1
 44
1.0
1001
ACAD
1000
MTEXTBEGIN
1070
    73
1070
     1
1070
    44
1040
1.0
1070
    74
1070
     0
1000
MTEXTEND
  0
POINT
  5
15B48
330
EAC8
100
AcDbEntity
  8
Defpoints
 62
     0
100
AcDbPoint
 10
175.2478666855697
 20
380.3118553896754
 30
0.0
  0
POINT
  5
15B49
330
EAC8
100
AcDbEntity
  8
Defpoints
 62
     0
100
AcDbPoint
 10
172.2478666855697
 20
368.5118553896754
 30
0.0
  0
POINT
  5
15B4A
330
EAC8
100
AcDbEntity
  8
Defpoints
 62
     0
100
AcDbPoint
 10
164.2478666855696
 20
368.5118553896754
 30
0.0
  0
ENDBLK
  5
EAD3
330
EAC8
100
AcDbEntity
  8
0
 48
10.0
100
AcDbBlockEnd
  0
BLOCK
  5
EAE8
330
EADE
100
AcDbEntity
  8
0
 48
10.0
100
AcDbBlockBegin
  2
*D18
 70
     1
 10
0.0
 20
0.0
 30
0.0
  3
*D18
  1

  0
LINE
  5
15B4B
330
EADE
100
AcDbEntity
  8
AM_5
100
AcDbLine
 10
213.1768315616867
 20
375.5118553896754
 30
0.0
 11
252.1478666855697
 21
375.5118553896754
 31
0.0
  0
LINE
  5
15B4C
330
EADE
100
AcDbEntity
  8
AM_5
100
AcDbLine
 10
243.2478666855697
 20
368.5118553896754
 30
0.0
 11
252.1478666855697
 21
368.5118553896754
 31
0.0
  0
LINE
  5
15B4D
330
EADE
100
AcDbEntity
  8
AM_5
100
AcDbLine
 10
251.1478666855698
 20
374.5118553896754
 30
0.0
 11
251.1478666855698
 21
369.5118553896754
 31
0.0
  0
INSERT
  5
15B4E
330
EADE
100
AcDbEntity
  8
AM_5
100
AcDbBlockReference
  2
_Dot
 10
251.1478666855698
 20
375.5118553896754
 30
0.0
 50
90.0
  0
INSERT
  5
15B4F
330
EADE
100
AcDbEntity
  8
AM_5
100
AcDbBlockReference
  2
_Dot
 10
251.1478666855698
 20
368.5118553896754
 30
0.0
 50
270.0
  0
MTEXT
  5
15B50
330
EADE
100
AcDbEntity
  8
AM_5
 62
     2
100
AcDbMText
 10
248.0478666855697
 20
372.0118553896755
 30
0.0
 40
3.200000000000001
 41
0.0
 71
     5
 72
     1
  1
7
 11
0.0000000000000001
 21
1.0
 31
0.0
 73
     1
 44
1.0
1001
ACAD
1000
MTEXTBEGIN
1070
    73
1070
     1
1070
    44
1040
1.0
1070
    74
1070
     0
1000
MTEXTEND
  0
POINT
  5
15B51
330
EADE
100
AcDbEntity
  8
Defpoints
 62
     0
100
AcDbPoint
 10
212.1768315616867
 20
375.5118553896754
 30
0.0
  0
POINT
  5
15B52
330
EADE
100
AcDbEntity
  8
Defpoints
 62
     0
100
AcDbPoint
 10
242.2478666855697
 20
368.5118553896754
 30
0.0
  0
POINT
  5
15B53
330
EADE
100
AcDbEntity
  8
Defpoints
 62
     0
100
AcDbPoint
 10
251.1478666855698
 20
368.5118553896754
 30
0.0
  0
ENDBLK
  5
EAE9
330
EADE
100
AcDbEntity
  8
0
 48
10.0
100
AcDbBlockEnd
  0
BLOCK
  5
13020
330
13016
100
AcDbEntity
  8
0
 48
10.0
100
AcDbBlockBegin
  2
*D19
 70
     1
 10
0.0
 20
0.0
 30
0.0
  3
*D19
  1

  0
LINE
  5
15B54
330
13016
100
AcDbEntity
  8
AM_5
100
AcDbLine
 10
171.3008616863242
 20
445.2515075461666
 30
0.0
 11
163.3008616863242
 21
445.2515075461666
 31
0.0
  0
LINE
  5
15B55
330
13016
100
AcDbEntity
  8
AM_5
100
AcDbLine
 10
171.3008616863242
 20
411.2515075461665
 30
0.0
 11
163.3008616863242
 21
411.2515075461665
 31
0.0
  0
LINE
  5
15B56
330
13016
100
AcDbEntity
  8
AM_5
100
AcDbLine
 10
164.3008616863242
 20
444.2515075461665
 30
0.0
 11
164.3008616863242
 21
412.2515075461666
 31
0.0
  0
INSERT
  5
15B57
330
13016
100
AcDbEntity
  8
AM_5
100
AcDbBlockReference
  2
_Dot
 10
164.3008616863242
 20
445.2515075461666
 30
0.0
 50
90.0
  0
INSERT
  5
15B58
330
13016
100
AcDbEntity
  8
AM_5
100
AcDbBlockReference
  2
_Dot
 10
164.3008616863242
 20
411.2515075461665
 30
0.0
 50
270.0
  0
MTEXT
  5
15B59
330
13016
100
AcDbEntity
  8
AM_5
 62
     2
100
AcDbMText
 10
161.2008616863242
 20
428.2515075461666
 30
0.0
 40
3.200000000000001
 41
0.0
 71
     5
 72
     1
  1
34
 11
0.0000000000000001
 21
1.0
 31
0.0
 73
     1
 44
1.0
1001
ACAD
1000
MTEXTBEGIN
1070
    73
1070
     1
1070
    44
1040
1.0
1070
    74
1070
     0
1000
MTEXTEND
  0
POINT
  5
15B5A
330
13016
100
AcDbEntity
  8
Defpoints
 62
     0
100
AcDbPoint
 10
172.3008616863242
 20
445.2515075461666
 30
0.0
  0
POINT
  5
15B5B
330
13016
100
AcDbEntity
  8
Defpoints
 62
     0
100
AcDbPoint
 10
172.3008616863242
 20
411.2515075461665
 30
0.0
  0
POINT
  5
15B5C
330
13016
100
AcDbEntity
  8
Defpoints
 62
     0
100
AcDbPoint
 10
164.3008616863242
 20
411.2515075461665
 30
0.0
  0
ENDBLK
  5
13021
330
13016
100
AcDbEntity
  8
0
 48
10.0
100
AcDbBlockEnd
  0
BLOCK
  5
13036
330
1302C
100
AcDbEntity
  8
0
 48
10.0
100
AcDbBlockBegin
  2
*D20
 70
     1
 10
0.0
 20
0.0
 30
0.0
  3
*D20
  1

  0
LINE
  5
15B5D
330
1302C
100
AcDbEntity
  8
AM_5
100
AcDbLine
 10
171.3008616863242
 20
447.2515075461665
 30
0.0
 11
155.3008616863243
 21
447.2515075461665
 31
0.0
  0
LINE
  5
15B5E
330
1302C
100
AcDbEntity
  8
AM_5
100
AcDbLine
 10
171.3008616863242
 20
409.2515075461665
 30
0.0
 11
155.3008616863243
 21
409.2515075461665
 31
0.0
  0
LINE
  5
15B5F
330
1302C
100
AcDbEntity
  8
AM_5
100
AcDbLine
 10
156.3008616863243
 20
446.2515075461666
 30
0.0
 11
156.3008616863243
 21
410.2515075461665
 31
0.0
  0
INSERT
  5
15B60
330
1302C
100
AcDbEntity
  8
AM_5
100
AcDbBlockReference
  2
_Dot
 10
156.3008616863243
 20
447.2515075461665
 30
0.0
 50
90.0
  0
INSERT
  5
15B61
330
1302C
100
AcDbEntity
  8
AM_5
100
AcDbBlockReference
  2
_Dot
 10
156.3008616863243
 20
409.2515075461665
 30
0.0
 50
270.0
  0
MTEXT
  5
15B62
330
1302C
100
AcDbEntity
  8
AM_5
 62
     2
100
AcDbMText
 10
153.2008616863242
 20
428.2515075461666
 30
0.0
 40
3.200000000000001
 41
0.0
 71
     5
 72
     1
  1
38
 11
0.0000000000000001
 21
1.0
 31
0.0
 73
     1
 44
1.0
1001
ACAD
1000
MTEXTBEGIN
1070
    73
1070
     1
1070
    44
1040
1.0
1070
    74
1070
     0
1000
MTEXTEND
  0
POINT
  5
15B63
330
1302C
100
AcDbEntity
  8
Defpoints
 62
     0
100
AcDbPoint
 10
172.3008616863242
 20
447.2515075461665
 30
0.0
  0
POINT
  5
15B64
330
1302C
100
AcDbEntity
  8
Defpoints
 62
     0
100
AcDbPoint
 10
172.3008616863242
 20
409.2515075461665
 30
0.0
  0
POINT
  5
15B65
330
1302C
100
AcDbEntity
  8
Defpoints
 62
     0
100
AcDbPoint
 10
156.3008616863243
 20
409.2515075461665
 30
0.0
  0
ENDBLK
  5
13037
330
1302C
100
AcDbEntity
  8
0
 48
10.0
100
AcDbBlockEnd
  0
BLOCK
  5
1304C
330
13042
100
AcDbEntity
  8
0
 48
10.0
100
AcDbBlockBegin
  2
*D21
 70
     1
 10
0.0
 20
0.0
 30
0.0
  3
*D21
  1

  0
LINE
  5
15B66
330
13042
100
AcDbEntity
  8
AM_5
100
AcDbLine
 10
174.3008616863242
 20
455.2515075461665
 30
0.0
 11
147.3008616863242
 21
455.2515075461665
 31
0.0
  0
LINE
  5
15B67
330
13042
100
AcDbEntity
  8
AM_5
100
AcDbLine
 10
174.3008616863242
 20
401.2515075461665
 30
0.0
 11
147.3008616863242
 21
401.2515075461665
 31
0.0
  0
LINE
  5
15B68
330
13042
100
AcDbEntity
  8
AM_5
100
AcDbLine
 10
148.3008616863242
 20
454.2515075461664
 30
0.0
 11
148.3008616863242
 21
402.2515075461665
 31
0.0
  0
INSERT
  5
15B69
330
13042
100
AcDbEntity
  8
AM_5
100
AcDbBlockReference
  2
_Dot
 10
148.3008616863242
 20
455.2515075461665
 30
0.0
 50
90.0
  0
INSERT
  5
15B6A
330
13042
100
AcDbEntity
  8
AM_5
100
AcDbBlockReference
  2
_Dot
 10
148.3008616863242
 20
401.2515075461665
 30
0.0
 50
270.0
  0
MTEXT
  5
15B6B
330
13042
100
AcDbEntity
  8
AM_5
 62
     2
100
AcDbMText
 10
145.2008616863241
 20
428.2515075461666
 30
0.0
 40
3.200000000000001
 41
0.0
 71
     5
 72
     1
  1
54
 11
0.0000000000000001
 21
1.0
 31
0.0
 73
     1
 44
1.0
1001
ACAD
1000
MTEXTBEGIN
1070
    73
1070
     1
1070
    44
1040
1.0
1070
    74
1070
     0
1000
MTEXTEND
  0
POINT
  5
15B6C
330
13042
100
AcDbEntity
  8
Defpoints
 62
     0
100
AcDbPoint
 10
175.3008616863242
 20
455.2515075461665
 30
0.0
  0
POINT
  5
15B6D
330
13042
100
AcDbEntity
  8
Defpoints
 62
     0
100
AcDbPoint
 10
175.3008616863242
 20
401.2515075461665
 30
0.0
  0
POINT
  5
15B6E
330
13042
100
AcDbEntity
  8
Defpoints
 62
     0
100
AcDbPoint
 10
148.3008616863242
 20
401.2515075461665
 30
0.0
  0
ENDBLK
  5
1304D
330
13042
100
AcDbEntity
  8
0
 48
10.0
100
AcDbBlockEnd
  0
BLOCK
  5
13074
330
1306A
100
AcDbEntity
  8
0
 48
10.0
100
AcDbBlockBegin
  2
*D22
 70
     1
 10
0.0
 20
0.0
 30
0.0
  3
*D22
  1

  0
LINE
  5
15B6F
330
1306A
100
AcDbEntity
  8
AM_5
100
AcDbLine
 10
219.300861686324
 20
456.2515075461665
 30
0.0
 11
219.300861686324
 21
464.2515075461665
 31
0.0
  0
LINE
  5
15B70
330
1306A
100
AcDbEntity
  8
AM_5
100
AcDbLine
 10
207.3008616863242
 20
456.2515075461665
 30
0.0
 11
207.3008616863242
 21
464.2515075461665
 31
0.0
  0
LINE
  5
15B71
330
1306A
100
AcDbEntity
  8
AM_5
100
AcDbLine
 10
218.300861686324
 20
463.2515075461665
 30
0.0
 11
208.3008616863243
 21
463.2515075461665
 31
0.0
  0
INSERT
  5
15B72
330
1306A
100
AcDbEntity
  8
AM_5
100
AcDbBlockReference
  2
_Dot
 10
219.300861686324
 20
463.2515075461665
 30
0.0
  0
INSERT
  5
15B73
330
1306A
100
AcDbEntity
  8
AM_5
100
AcDbBlockReference
  2
_Dot
 10
207.3008616863242
 20
463.2515075461665
 30
0.0
 50
180.0
  0
MTEXT
  5
15B74
330
1306A
100
AcDbEntity
  8
AM_5
 62
     2
100
AcDbMText
 10
213.3008616863242
 20
466.3515075461666
 30
0.0
 40
3.200000000000001
 41
0.0
 71
     5
 72
     1
  1
12
 73
     1
 44
1.0
1001
ACAD
1000
MTEXTBEGIN
1070
    73
1070
     1
1070
    44
1040
1.0
1070
    74
1070
     0
1000
MTEXTEND
  0
POINT
  5
15B75
330
1306A
100
AcDbEntity
  8
Defpoints
 62
     0
100
AcDbPoint
 10
219.300861686324
 20
455.2515075461665
 30
0.0
  0
POINT
  5
15B76
330
1306A
100
AcDbEntity
  8
Defpoints
 62
     0
100
AcDbPoint
 10
207.3008616863242
 20
455.2515075461665
 30
0.0
  0
POINT
  5
15B77
330
1306A
100
AcDbEntity
  8
Defpoints
 62
     0
100
AcDbPoint
 10
207.3008616863242
 20
463.2515075461665
 30
0.0
  0
ENDBLK
  5
13075
330
1306A
100
AcDbEntity
  8
0
 48
10.0
100
AcDbBlockEnd
  0
BLOCK
  5
1308A
330
13080
100
AcDbEntity
  8
0
 48
10.0
100
AcDbBlockBegin
  2
*D23
 70
     1
 10
0.0
 20
0.0
 30
0.0
  3
*D23
  1

  0
LINE
  5
15B78
330
13080
100
AcDbEntity
  8
AM_5
100
AcDbLine
 10
207.3008616863242
 20
456.2515075461665
 30
0.0
 11
207.3008616863242
 21
464.2515075461665
 31
0.0
  0
LINE
  5
15B79
330
13080
100
AcDbEntity
  8
AM_5
100
AcDbLine
 10
195.300861686324
 20
456.2515075461665
 30
0.0
 11
195.300861686324
 21
464.2515075461665
 31
0.0
  0
LINE
  5
15B7A
330
13080
100
AcDbEntity
  8
AM_5
100
AcDbLine
 10
206.3008616863243
 20
463.2515075461665
 30
0.0
 11
196.300861686324
 21
463.2515075461665
 31
0.0
  0
INSERT
  5
15B7B
330
13080
100
AcDbEntity
  8
AM_5
100
AcDbBlockReference
  2
_Dot
 10
207.3008616863242
 20
463.2515075461665
 30
0.0
  0
INSERT
  5
15B7C
330
13080
100
AcDbEntity
  8
AM_5
100
AcDbBlockReference
  2
_Dot
 10
195.300861686324
 20
463.2515075461665
 30
0.0
 50
180.0
  0
MTEXT
  5
15B7D
330
13080
100
AcDbEntity
  8
AM_5
 62
     2
100
AcDbMText
 10
201.3008616863241
 20
466.3515075461666
 30
0.0
 40
3.200000000000001
 41
0.0
 71
     5
 72
     1
  1
12
 73
     1
 44
1.0
1001
ACAD
1000
MTEXTBEGIN
1070
    73
1070
     1
1070
    44
1040
1.0
1070
    74
1070
     0
1000
MTEXTEND
  0
POINT
  5
15B7E
330
13080
100
AcDbEntity
  8
Defpoints
 62
     0
100
AcDbPoint
 10
207.3008616863242
 20
455.2515075461665
 30
0.0
  0
POINT
  5
15B7F
330
13080
100
AcDbEntity
  8
Defpoints
 62
     0
100
AcDbPoint
 10
195.300861686324
 20
455.2515075461665
 30
0.0
  0
POINT
  5
15B80
330
13080
100
AcDbEntity
  8
Defpoints
 62
     0
100
AcDbPoint
 10
195.300861686324
 20
463.2515075461665
 30
0.0
  0
ENDBLK
  5
1308B
330
13080
100
AcDbEntity
  8
0
 48
10.0
100
AcDbBlockEnd
  0
BLOCK
  5
130A0
330
13096
100
AcDbEntity
  8
0
 48
10.0
100
AcDbBlockBegin
  2
*D24
 70
     1
 10
0.0
 20
0.0
 30
0.0
  3
*D24
  1

  0
LINE
  5
15B81
330
13096
100
AcDbEntity
  8
AM_5
100
AcDbLine
 10
180.3008616863242
 20
456.2515075461665
 30
0.0
 11
180.3008616863242
 21
464.2515075461665
 31
0.0
  0
LINE
  5
15B82
330
13096
100
AcDbEntity
  8
AM_5
100
AcDbLine
 10
195.300861686324
 20
456.2515075461665
 30
0.0
 11
195.300861686324
 21
464.2515075461665
 31
0.0
  0
LINE
  5
15B83
330
13096
100
AcDbEntity
  8
AM_5
100
AcDbLine
 10
181.3008616863242
 20
463.2515075461665
 30
0.0
 11
194.300861686324
 21
463.2515075461665
 31
0.0
  0
INSERT
  5
15B84
330
13096
100
AcDbEntity
  8
AM_5
100
AcDbBlockReference
  2
_Dot
 10
180.3008616863242
 20
463.2515075461665
 30
0.0
 50
180.0
  0
INSERT
  5
15B85
330
13096
100
AcDbEntity
  8
AM_5
100
AcDbBlockReference
  2
_Dot
 10
195.300861686324
 20
463.2515075461665
 30
0.0
  0
MTEXT
  5
15B86
330
13096
100
AcDbEntity
  8
AM_5
 62
     2
100
AcDbMText
 10
187.8008616863241
 20
466.3515075461666
 30
0.0
 40
3.200000000000001
 41
0.0
 71
     5
 72
     1
  1
15
 73
     1
 44
1.0
1001
ACAD
1000
MTEXTBEGIN
1070
    73
1070
     1
1070
    44
1040
1.0
1070
    74
1070
     0
1000
MTEXTEND
  0
POINT
  5
15B87
330
13096
100
AcDbEntity
  8
Defpoints
 62
     0
100
AcDbPoint
 10
180.3008616863242
 20
455.2515075461665
 30
0.0
  0
POINT
  5
15B88
330
13096
100
AcDbEntity
  8
Defpoints
 62
     0
100
AcDbPoint
 10
195.300861686324
 20
455.2515075461665
 30
0.0
  0
POINT
  5
15B89
330
13096
100
AcDbEntity
  8
Defpoints
 62
     0
100
AcDbPoint
 10
195.300861686324
 20
463.2515075461665
 30
0.0
  0
ENDBLK
  5
130A1
330
13096
100
AcDbEntity
  8
0
 48
10.0
100
AcDbBlockEnd
  0
BLOCK
  5
130B6
330
130AC
100
AcDbEntity
  8
0
 48
10.0
100
AcDbBlockBegin
  2
*D25
 70
     1
 10
0.0
 20
0.0
 30
0.0
  3
*D25
  1

  0
LINE
  5
15B8A
330
130AC
100
AcDbEntity
  8
AM_5
100
AcDbLine
 10
219.300861686324
 20
456.2515075461665
 30
0.0
 11
219.300861686324
 21
464.2515075461665
 31
0.0
  0
LINE
  5
15B8B
330
130AC
100
AcDbEntity
  8
AM_5
100
AcDbLine
 10
234.3008616863242
 20
456.2515075461665
 30
0.0
 11
234.3008616863242
 21
464.2515075461665
 31
0.0
  0
LINE
  5
15B8C
330
130AC
100
AcDbEntity
  8
AM_5
100
AcDbLine
 10
220.300861686324
 20
463.2515075461665
 30
0.0
 11
233.3008616863243
 21
463.2515075461665
 31
0.0
  0
INSERT
  5
15B8D
330
130AC
100
AcDbEntity
  8
AM_5
100
AcDbBlockReference
  2
_Dot
 10
219.300861686324
 20
463.2515075461665
 30
0.0
 50
180.0
  0
INSERT
  5
15B8E
330
130AC
100
AcDbEntity
  8
AM_5
100
AcDbBlockReference
  2
_Dot
 10
234.3008616863242
 20
463.2515075461665
 30
0.0
  0
MTEXT
  5
15B8F
330
130AC
100
AcDbEntity
  8
AM_5
 62
     2
100
AcDbMText
 10
226.8008616863241
 20
466.3515075461666
 30
0.0
 40
3.200000000000001
 41
0.0
 71
     5
 72
     1
  1
15
 73
     1
 44
1.0
1001
ACAD
1000
MTEXTBEGIN
1070
    73
1070
     1
1070
    44
1040
1.0
1070
    74
1070
     0
1000
MTEXTEND
  0
POINT
  5
15B90
330
130AC
100
AcDbEntity
  8
Defpoints
 62
     0
100
AcDbPoint
 10
219.300861686324
 20
455.2515075461665
 30
0.0
  0
POINT
  5
15B91
330
130AC
100
AcDbEntity
  8
Defpoints
 62
     0
100
AcDbPoint
 10
234.3008616863242
 20
455.2515075461665
 30
0.0
  0
POINT
  5
15B92
330
130AC
100
AcDbEntity
  8
Defpoints
 62
     0
100
AcDbPoint
 10
234.3008616863242
 20
463.2515075461665
 30
0.0
  0
ENDBLK
  5
130B7
330
130AC
100
AcDbEntity
  8
0
 48
10.0
100
AcDbBlockEnd
  0
BLOCK
  5
15BBC
330
15BB5
100
AcDbEntity
  8
0
 48
10.0
100
AcDbBlockBegin
  2
*S26
 70
     1
 10
0.0
 20
0.0
 30
0.0
  3
*S26
  1

  0
LINE
  5
15BB6
330
15BB5
100
AcDbEntity
  8
AM_5
 62
     3
 48
10.0
100
AcDbLine
 10
263.4534258778923
 20
395.6907937267471
 30
0.0
 11
242.1477993957497
 21
395.6907937267471
 31
0.0
  0
LINE
  5
15BB7
330
15BB5
100
AcDbEntity
  8
AM_5
 62
     3
 48
10.0
100
AcDbLine
 10
242.1477993957497
 20
395.6907937267471
 30
0.0
 11
236.1019311982754
 21
407.6799324576209
 31
0.0
  0
LINE
  5
15BB8
330
15BB5
100
AcDbEntity
  8
AM_5
  6
Continuous
 62
     3
 48
10.0
100
AcDbLine
 10
236.1019311982754
 20
407.6799324576209
 30
0.0
 11
235.2013964422998
 21
409.4657200018938
 31
0.0
  0
LINE
  5
15BB9
330
15BB5
100
AcDbEntity
  8
AM_5
  6
Continuous
 62
     3
 48
10.0
100
AcDbLine
 10
236.5804315242754
 20
407.9212300160514
 30
0.0
 11
235.2013964422998
 21
409.4657200018938
 31
0.0
  0
LINE
  5
15BBA
330
15BB5
100
AcDbEntity
  8
AM_5
  6
Continuous
 62
     3
 48
10.0
100
AcDbLine
 10
235.2013964422998
 20
409.4657200018938
 30
0.0
 11
235.6234308722754
 21
407.4386348991904
 31
0.0
  0
MTEXT
  5
15BBB
330
15BB5
100
AcDbEntity
  8
AM_5
 62
     2
100
AcDbMText
 10
243.3787592112257
 20
397.2907937267472
 30
0.0
 40
3.2
 41
0.0
 71
     7
 72
     5
  1
8-%%c4×%%c7サラ
 73
     1
 44
1.0
1001
ACAD
1000
MTEXTBEGIN
1070
    73
1070
     1
1070
    44
1040
1.0
1070
    74
1070
     0
1000
MTEXTEND
  0
ENDBLK
  5
15BBD
330
15BB5
100
AcDbEntity
  8
0
 48
10.0
100
AcDbBlockEnd
  0
ENDSEC
  0
SECTION
  2
ENTITIES
  0
TEXT
  5
B42C
330
1F
100
AcDbEntity
  8
AM_6
 60
     1
100
AcDbText
 10
408.4999999999999
 20
8.5
 30
0.0
 40
2.5
  1
!GENTITLE-INSERT
100
AcDbText
  0
TEXT
  5
B42D
330
1F
100
AcDbEntity
  8
AM_6
 60
     1
100
AcDbText
 10
0.0
 20
0.0
 30
0.0
 40
2.5
  1
!GENTITLE-LL
100
AcDbText
  0
TEXT
  5
B42E
330
1F
100
AcDbEntity
  8
AM_6
 60
     1
100
AcDbText
 10
420.0
 20
297.0
 30
0.0
 40
2.5
  1
!GENTITLE-RU
100
AcDbText
  0
TEXT
  5
B42F
330
1F
100
AcDbEntity
  8
AM_6
 60
     1
100
AcDbText
 10
420.0
 20
297.0
 30
0.0
 40
2.5
  1
!GENTITLE-MAX
100
AcDbText
  0
TEXT
  5
B439
330
1F
100
AcDbEntity
  8
AM_6
 60
     1
100
AcDbText
 10
0.0
 20
0.0
 30
0.0
 40
2.5
  1
!GENTITLE-LL
100
AcDbText
  0
TEXT
  5
B43A
330
1F
100
AcDbEntity
  8
AM_6
 60
     1
100
AcDbText
 10
408.4999999999999
 20
288.5
 30
0.0
 40
2.5
  1
!GENTITLE-RU
100
AcDbText
  0
TEXT
  5
B43B
330
1F
100
AcDbEntity
  8
AM_6
 60
     1
100
AcDbText
 10
420.0
 20
297.0
 30
0.0
 40
2.5
  1
!GENTITLE-MAX
100
AcDbText
  0
TEXT
  5
B43C
330
1F
100
AcDbEntity
  8
AM_6
 60
     1
100
AcDbText
 10
408.4999999999999
 20
8.5
 30
0.0
 40
2.5
  1
!GENTITLE-INSERT
100
AcDbText
  0
LINE
  5
B4B5
330
1F
100
AcDbEntity
  8
size
100
AcDbLine
 10
57.11889438968495
 20
332.7622275971035
 30
0.0
 11
354.118894389685
 21
332.7622275971035
 31
0.0
1001
GENIUS_GENREC_14
1002
{
1000
PYDIR
1011
57.11889438968495
1021
629.7622275971034
1031
0.0
1002
}
1002
{
1000
PXDIR
1011
477.1188943896849
1021
332.7622275971035
1031
0.0
1002
}
1002
{
1000
PORI
1011
57.11889438968495
1021
332.7622275971035
1031
0.0
1002
}
1002
{
1000
PINS
1011
267.1188943896849
1021
481.2622275971035
1031
0.0
1002
}
1002
{
1000
HVAL
1000
297
1002
}
1002
{
1000
H
1070
     2
1002
}
1002
{
1000
WVAL
1000
420
1002
}
1002
{
1000
W
1070
     2
1002
}
1002
{
1000
C
1070
     4
1002
}
1001
GENIUS_GENOBJ-N-REC_13
1002
{
1000
OWNER
1000
GEN
1002
}
1001
GENIUS_GENODEF_13
1002
{
1000
HIER
1070
     0
1002
}
1002
{
1000
MANEDIT
1070
     0
1002
}
1002
{
1000
NOSEL
1070
     0
1002
}
1002
{
1000
BEHIND
1070
     0
1002
}
1002
{
1000
OTHER
1070
     0
1002
}
1002
{
1000
REACTOR
1002
}
  0
LINE
  5
B4B6
330
1F
100
AcDbEntity
  8
size
100
AcDbLine
 10
57.11889438968495
 20
542.7622275971034
 30
0.0
 11
57.11889438968495
 21
332.7622275971035
 31
0.0
1001
GENIUS_GENREC_14
1002
{
1000
PYDIR
1011
57.11889438968495
1021
629.7622275971034
1031
0.0
1002
}
1002
{
1000
PXDIR
1011
477.1188943896849
1021
332.7622275971035
1031
0.0
1002
}
1002
{
1000
PORI
1011
57.11889438968495
1021
332.7622275971035
1031
0.0
1002
}
1002
{
1000
PINS
1011
267.1188943896849
1021
481.2622275971035
1031
0.0
1002
}
1002
{
1000
HVAL
1000
297
1002
}
1002
{
1000
H
1070
     2
1002
}
1002
{
1000
WVAL
1000
420
1002
}
1002
{
1000
W
1070
     2
1002
}
1002
{
1000
C
1070
     4
1002
}
1001
GENIUS_GENOBJ-N-REC_13
1002
{
1000
OWNER
1000
GEN
1002
}
1001
GENIUS_GENODEF_13
1002
{
1000
HIER
1070
     0
1002
}
1002
{
1000
MANEDIT
1070
     0
1002
}
1002
{
1000
NOSEL
1070
     0
1002
}
1002
{
1000
BEHIND
1070
     0
1002
}
1002
{
1000
OTHER
1070
     0
1002
}
1002
{
1000
REACTOR
1002
}
  0
LINE
  5
B4B7
330
1F
100
AcDbEntity
  8
waku
100
AcDbLine
 10
342.6188943896848
 20
341.2622275971035
 30
0.0
 11
342.618894389685
 21
534.2622275971034
 31
0.0
1001
GENIUS_GENREC_14
1002
{
1000
PYDIR
1011
-65.88110561031505
1021
548.7622275971034
1031
0.0
1002
}
1002
{
1000
PXDIR
1011
354.118894389685
1021
251.7622275971035
1031
0.0
1002
}
1002
{
1000
PORI
1011
-65.88110561031505
1021
251.7622275971035
1031
0.0
1002
}
1002
{
1000
PINS
1011
144.1188943896849
1021
400.2622275971035
1031
0.0
1002
}
1002
{
1000
HVAL
1000
297
1002
}
1002
{
1000
H
1070
     2
1002
}
1002
{
1000
WVAL
1000
420
1002
}
1002
{
1000
W
1070
     2
1002
}
1002
{
1000
C
1070
     4
1002
}
1001
GENIUS_GENOBJ-N-REC_13
1002
{
1000
OWNER
1000
GEN
1002
}
1001
GENIUS_GENODEF_13
1002
{
1000
HIER
1070
     0
1002
}
1002
{
1000
MANEDIT
1070
     0
1002
}
1002
{
1000
NOSEL
1070
     0
1002
}
1002
{
1000
BEHIND
1070
     0
1002
}
1002
{
1000
OTHER
1070
     0
1002
}
1002
{
1000
REACTOR
1002
}
  0
LINE
  5
B4B8
330
1F
100
AcDbEntity
  8
waku
100
AcDbLine
 10
68.61889438968495
 20
534.2622275971034
 30
0.0
 11
68.61889438968495
 21
341.2622275971035
 31
0.0
1001
GENIUS_GENREC_14
1002
{
1000
PYDIR
1011
57.11889438968495
1021
629.7622275971034
1031
0.0
1002
}
1002
{
1000
PXDIR
1011
477.1188943896849
1021
332.7622275971035
1031
0.0
1002
}
1002
{
1000
PORI
1011
57.11889438968495
1021
332.7622275971035
1031
0.0
1002
}
1002
{
1000
PINS
1011
267.1188943896849
1021
481.2622275971035
1031
0.0
1002
}
1002
{
1000
HVAL
1000
297
1002
}
1002
{
1000
H
1070
     2
1002
}
1002
{
1000
WVAL
1000
420
1002
}
1002
{
1000
W
1070
     2
1002
}
1002
{
1000
C
1070
     4
1002
}
1001
GENIUS_GENOBJ-N-REC_13
1002
{
1000
OWNER
1000
GEN
1002
}
1001
GENIUS_GENODEF_13
1002
{
1000
HIER
1070
     0
1002
}
1002
{
1000
MANEDIT
1070
     0
1002
}
1002
{
1000
NOSEL
1070
     0
1002
}
1002
{
1000
BEHIND
1070
     0
1002
}
1002
{
1000
OTHER
1070
     0
1002
}
1002
{
1000
REACTOR
1002
}
  0
LINE
  5
B4B9
330
1F
100
AcDbEntity
  8
waku
100
AcDbLine
 10
342.618894389685
 20
534.2622275971034
 30
0.0
 11
68.61889438968495
 21
534.2622275971034
 31
0.0
1001
GENIUS_GENREC_14
1002
{
1000
PYDIR
1011
-65.88110561031505
1021
542.7622275971034
1031
0.0
1002
}
1002
{
1000
PXDIR
1011
354.118894389685
1021
245.7622275971035
1031
0.0
1002
}
1002
{
1000
PORI
1011
-65.88110561031505
1021
245.7622275971035
1031
0.0
1002
}
1002
{
1000
PINS
1011
144.1188943896849
1021
394.2622275971035
1031
0.0
1002
}
1002
{
1000
HVAL
1000
297
1002
}
1002
{
1000
H
1070
     2
1002
}
1002
{
1000
WVAL
1000
420
1002
}
1002
{
1000
W
1070
     2
1002
}
1002
{
1000
C
1070
     4
1002
}
1001
GENIUS_GENOBJ-N-REC_13
1002
{
1000
OWNER
1000
GEN
1002
}
1001
GENIUS_GENODEF_13
1002
{
1000
HIER
1070
     0
1002
}
1002
{
1000
MANEDIT
1070
     0
1002
}
1002
{
1000
NOSEL
1070
     0
1002
}
1002
{
1000
BEHIND
1070
     0
1002
}
1002
{
1000
OTHER
1070
     0
1002
}
1002
{
1000
REACTOR
1002
}
  0
LINE
  5
B4BA
330
1F
100
AcDbEntity
  8
waku
100
AcDbLine
 10
68.61889438968495
 20
341.2622275971035
 30
0.0
 11
342.6188943896848
 21
341.2622275971035
 31
0.0
1001
GENIUS_GENREC_14
1002
{
1000
PYDIR
1011
57.11889438968495
1021
629.7622275971034
1031
0.0
1002
}
1002
{
1000
PXDIR
1011
477.1188943896849
1021
332.7622275971035
1031
0.0
1002
}
1002
{
1000
PORI
1011
57.11889438968495
1021
332.7622275971035
1031
0.0
1002
}
1002
{
1000
PINS
1011
267.1188943896849
1021
481.2622275971035
1031
0.0
1002
}
1002
{
1000
HVAL
1000
297
1002
}
1002
{
1000
H
1070
     2
1002
}
1002
{
1000
WVAL
1000
420
1002
}
1002
{
1000
W
1070
     2
1002
}
1002
{
1000
C
1070
     4
1002
}
  0
LINE
  5
B4BB
330
1F
100
AcDbEntity
  8
size
100
AcDbLine
 10
354.118894389685
 20
542.7622275971034
 30
0.0
 11
354.118894389685
 21
332.7622275971035
 31
0.0
1001
GENIUS_GENREC_14
1002
{
1000
PYDIR
1011
57.11889438968495
1021
629.7622275971034
1031
0.0
1002
}
1002
{
1000
PXDIR
1011
477.1188943896849
1021
332.7622275971035
1031
0.0
1002
}
1002
{
1000
PORI
1011
57.11889438968495
1021
332.7622275971035
1031
0.0
1002
}
1002
{
1000
PINS
1011
267.1188943896849
1021
481.2622275971035
1031
0.0
1002
}
1002
{
1000
HVAL
1000
297
1002
}
1002
{
1000
H
1070
     2
1002
}
1002
{
1000
WVAL
1000
420
1002
}
1002
{
1000
W
1070
     2
1002
}
1002
{
1000
C
1070
     4
1002
}
1001
GENIUS_GENOBJ-N-REC_13
1002
{
1000
OWNER
1000
GEN
1002
}
1001
GENIUS_GENODEF_13
1002
{
1000
HIER
1070
     0
1002
}
1002
{
1000
MANEDIT
1070
     0
1002
}
1002
{
1000
NOSEL
1070
     0
1002
}
1002
{
1000
BEHIND
1070
     0
1002
}
1002
{
1000
OTHER
1070
     0
1002
}
1002
{
1000
REACTOR
1002
}
  0
TEXT
  5
B4BC
330
1F
100
AcDbEntity
  8
AM_6
 60
     1
100
AcDbText
 10
458.9500929797208
 20
-7.930355093473622
 30
0.0
 40
2.5
  1
!GENTITLE-LL
100
AcDbText
  0
LINE
  5
B4BD
330
1F
100
AcDbEntity
  8
size
100
AcDbLine
 10
57.11889438968495
 20
542.7622275971034
 30
0.0
 11
354.118894389685
 21
542.7622275971034
 31
0.0
1001
GENIUS_GENREC_14
1002
{
1000
PYDIR
1011
57.11889438968495
1021
629.7622275971034
1031
0.0
1002
}
1002
{
1000
PXDIR
1011
477.1188943896849
1021
332.7622275971035
1031
0.0
1002
}
1002
{
1000
PORI
1011
57.11889438968495
1021
332.7622275971035
1031
0.0
1002
}
1002
{
1000
PINS
1011
267.1188943896849
1021
481.2622275971035
1031
0.0
1002
}
1002
{
1000
HVAL
1000
297
1002
}
1002
{
1000
H
1070
     2
1002
}
1002
{
1000
WVAL
1000
420
1002
}
1002
{
1000
W
1070
     2
1002
}
1002
{
1000
C
1070
     4
1002
}
1001
GENIUS_GENOBJ-N-REC_13
1002
{
1000
OWNER
1000
GEN
1002
}
1001
GENIUS_GENODEF_13
1002
{
1000
HIER
1070
     0
1002
}
1002
{
1000
MANEDIT
1070
     0
1002
}
1002
{
1000
NOSEL
1070
     0
1002
}
1002
{
1000
BEHIND
1070
     0
1002
}
1002
{
1000
OTHER
1070
     0
1002
}
1002
{
1000
REACTOR
1002
}
  0
TEXT
  5
B4BE
330
1F
100
AcDbEntity
  8
AM_6
 60
     1
100
AcDbText
 10
744.4500929797207
 20
193.5696449065263
 30
0.0
 40
2.5
  1
!GENTITLE-RU
100
AcDbText
  0
TEXT
  5
B4BF
330
1F
100
AcDbEntity
  8
AM_6
 60
     1
100
AcDbText
 10
755.9500929797208
 20
202.0696449065264
 30
0.0
 40
2.5
  1
!GENTITLE-MAX
100
AcDbText
  0
TEXT
  5
B4C0
330
1F
100
AcDbEntity
  8
AM_6
 60
     1
100
AcDbText
 10
744.4500929797206
 20
0.5696449065263778
 30
0.0
 40
2.5
  1
!GENTITLE-INSERT
100
AcDbText
  0
LINE
  5
B4C3
330
1F
100
AcDbEntity
  8
AM_0
100
AcDbLine
 10
88.61889438968495
 20
534.2622275971034
 30
0.0
 11
88.61889438968502
 21
488.2622275971034
 31
0.0
  0
LINE
  5
B4C4
330
1F
100
AcDbEntity
  8
AM_0
100
AcDbLine
 10
68.61889438968495
 20
526.2622275971034
 30
0.0
 11
178.6188943896849
 21
526.2622275971034
 31
0.0
  0
LINE
  5
B4C5
330
1F
100
AcDbEntity
  8
AM_0
100
AcDbLine
 10
68.61889438968495
 20
512.2622275971034
 30
0.0
 11
178.6188943896849
 21
512.2622275971034
 31
0.0
  0
LINE
  5
B4C6
330
1F
100
AcDbEntity
  8
AM_0
100
AcDbLine
 10
68.61889438968495
 20
504.2622275971035
 30
0.0
 11
178.6188943896849
 21
504.2622275971035
 31
0.0
  0
LINE
  5
B4C7
330
1F
100
AcDbEntity
  8
AM_0
100
AcDbLine
 10
68.61889438968495
 20
496.2622275971035
 30
0.0
 11
178.6188943896849
 21
496.2622275971035
 31
0.0
  0
LINE
  5
B4CE
330
1F
100
AcDbEntity
  8
AM_0
100
AcDbLine
 10
68.61889438968495
 20
534.2622275971034
 30
0.0
 11
68.61889438968495
 21
438.2622275971034
 31
0.0
  0
LINE
  5
B4D0
330
1F
100
AcDbEntity
  8
AM_0
100
AcDbLine
 10
178.6188943896849
 20
534.2622275971034
 30
0.0
 11
178.618894389685
 21
488.2622275971034
 31
0.0
  0
LINE
  5
B4D1
330
1F
100
AcDbEntity
  8
AM_0
100
AcDbLine
 10
68.61889438968495
 20
488.2622275971034
 30
0.0
 11
178.6188943896849
 21
488.2622275971034
 31
0.0
  0
TEXT
  5
B4D4
330
1F
100
AcDbEntity
  8
AM_6
100
AcDbText
 10
74.27589438968499
 20
528.6622275971035
 30
0.0
 40
3.2
  1
品　名
 41
0.85537027
100
AcDbText
  0
TEXT
  5
B4D5
330
1F
100
AcDbEntity
  8
AM_6
100
AcDbText
 10
74.27589438968499
 20
517.6622275971035
 30
0.0
 40
3.2
  1
品　番
 41
0.85537027
100
AcDbText
  0
TEXT
  5
B4D6
330
1F
100
AcDbEntity
  8
AM_6
100
AcDbText
 10
74.27589438968499
 20
506.6622275971035
 30
0.0
 40
3.2
  1
材　質
 41
0.85537027
100
AcDbText
  0
TEXT
  5
B4D7
330
1F
100
AcDbEntity
  8
AM_6
100
AcDbText
 10
74.27589438968499
 20
498.6622275971035
 30
0.0
 40
3.2
  1
仕上げ
 41
0.85537027
100
AcDbText
  0
TEXT
  5
B4D8
330
1F
100
AcDbEntity
  8
AM_6
100
AcDbText
 10
71.43105854239258
 20
490.5482783412544
 30
0.0
 40
3.2
  1
セットビス
 41
0.84892707
100
AcDbText
  0
LINE
  5
E7A1
330
1F
100
AcDbEntity
  8
AM_0
100
AcDbLine
 10
206.7478666855695
 20
368.5118553896754
 30
0.0
 11
207.2478666855697
 21
367.2118553896755
 31
0.0
  0
LINE
  5
E7A2
330
1F
100
AcDbEntity
  8
AM_0
100
AcDbLine
 10
207.2478666855697
 20
367.2118553896755
 30
0.0
 11
207.7410830716218
 21
368.5118553896754
 31
0.0
  0
LINE
  5
E7A5
330
1F
100
AcDbEntity
  8
AM_0
100
AcDbLine
 10
211.3008616863242
 20
439.2515075461665
 30
0.0
 11
211.3008616863242
 21
453.2515075461666
 31
0.0
  0
ARC
  5
E7A6
330
1F
100
AcDbEntity
  8
AM_0
100
AcDbCircle
 10
227.3008616863243
 20
440.2515075461665
 30
0.0
 40
15.0
100
AcDbArc
 50
0.0
 51
90.0
  0
LINE
  5
E7A7
330
1F
100
AcDbEntity
  8
AM_0
100
AcDbLine
 10
203.3008616863242
 20
453.2515075461666
 30
0.0
 11
203.3008616863242
 21
439.2515075461665
 31
0.0
  0
ARC
  5
E7A8
330
1F
100
AcDbEntity
  8
AM_0
100
AcDbCircle
 10
187.3008616863242
 20
440.2515075461665
 30
0.0
 40
15.0
100
AcDbArc
 50
90.0
 51
180.0
  0
ARC
  5
E7A9
330
1F
100
AcDbEntity
  8
AM_0
100
AcDbCircle
 10
227.3008616863243
 20
416.2515075461666
 30
0.0
 40
15.0
100
AcDbArc
 50
270.0
 51
0.0
  0
ARC
  5
E7AA
330
1F
100
AcDbEntity
  8
AM_0
100
AcDbCircle
 10
187.3008616863242
 20
416.2515075461666
 30
0.0
 40
15.0
100
AcDbArc
 50
180.0
 51
270.0
  0
LINE
  5
E7AB
330
1F
100
AcDbEntity
  8
AM_0
100
AcDbLine
 10
207.2478666855697
 20
368.5118553896754
 30
0.0
 11
242.2478666855697
 21
368.5118553896754
 31
0.0
  0
LINE
  5
E7AC
330
1F
100
AcDbEntity
  8
AM_0
100
AcDbLine
 10
207.2478666855697
 20
368.5118553896754
 30
0.0
 11
217.2478666855695
 21
368.5118553896754
 31
0.0
  0
LINE
  5
E7AD
330
1F
100
AcDbEntity
  8
AM_0
100
AcDbLine
 10
207.2478666855697
 20
368.5118553896754
 30
0.0
 11
217.2478666855695
 21
368.5118553896754
 31
0.0
  0
LINE
  5
E7AE
330
1F
100
AcDbEntity
  8
AM_0
100
AcDbLine
 10
215.2478666855697
 20
370.5118553896754
 30
0.0
 11
210.8267114215695
 21
377.7100069666754
 31
0.0
  0
LINE
  5
E7AF
330
1F
100
AcDbEntity
  8
AM_0
100
AcDbLine
 10
191.2475677465694
 20
380.3118553896754
 30
0.0
 11
178.7105733465695
 21
380.3118553896754
 31
0.0
  0
LINE
  5
E7B0
330
1F
100
AcDbEntity
  8
AM_0
100
AcDbLine
 10
182.2478666855697
 20
373.1118552916754
 30
0.0
 11
177.7105733465695
 21
373.1118553896755
 31
0.0
  0
LINE
  5
E7B1
330
1F
100
AcDbEntity
  8
AM_0
100
AcDbLine
 10
177.7105733465695
 20
375.3118553896754
 30
0.0
 11
182.2478666855697
 21
375.3118553896754
 31
0.0
  0
LINE
  5
E7B2
330
1F
100
AcDbEntity
  8
AM_0
100
AcDbLine
 10
178.7105733465695
 20
370.5118553896754
 30
0.0
 11
198.2475677275694
 21
370.5118553896754
 31
0.0
  0
LINE
  5
E7B3
330
1F
100
AcDbEntity
  8
AM_0
100
AcDbLine
 10
205.2478666855697
 20
370.5118553896754
 30
0.0
 11
172.2478666855697
 21
370.5118553896754
 31
0.0
  0
LINE
  5
E7B4
330
1F
100
AcDbEntity
  8
AM_0
100
AcDbLine
 10
207.2478666855697
 20
368.5118553896754
 30
0.0
 11
172.2478666855697
 21
368.5118553896754
 31
0.0
  0
LINE
  5
E7B5
330
1F
100
AcDbEntity
  8
AM_0
100
AcDbLine
 10
172.2478666855697
 20
370.5118553896754
 30
0.0
 11
172.2478666855697
 21
378.7118553896755
 31
0.0
  0
LINE
  5
E7B6
330
1F
100
AcDbEntity
  8
AM_0
100
AcDbLine
 10
174.2478666855697
 20
378.7118553896755
 30
0.0
 11
174.2478666855697
 21
370.5118553896754
 31
0.0
  0
LINE
  5
E7B7
330
1F
100
AcDbEntity
  8
AM_0
100
AcDbLine
 10
177.7105733465695
 20
379.8118553896754
 30
0.0
 11
177.7105733465695
 21
371.5118553896754
 31
0.0
  0
LINE
  5
E7B8
330
1F
100
AcDbEntity
  8
AM_0
100
AcDbLine
 10
172.2478666855697
 20
370.5118553896754
 30
0.0
 11
172.2478666855697
 21
368.5118553896754
 31
0.0
  0
ARC
  5
E7B9
330
1F
100
AcDbEntity
  8
AM_0
100
AcDbCircle
 10
178.7105733465695
 20
371.5118553896754
 30
0.0
 40
1.0
100
AcDbArc
 50
180.0
 51
270.0
  0
LINE
  5
E7BA
330
1F
100
AcDbEntity
  8
AM_0
100
AcDbLine
 10
172.2478666855697
 20
378.7118553896755
 30
0.0
 11
174.2478666855697
 21
378.7118553896755
 31
0.0
  0
LINE
  5
E7BB
330
1F
100
AcDbEntity
  8
AM_0
100
AcDbLine
 10
178.7105733465695
 20
380.3118553896754
 30
0.0
 11
177.7105733465695
 21
379.8118553896754
 31
0.0
  0
ARC
  5
E7BC
330
1F
100
AcDbEntity
  8
AM_0
100
AcDbCircle
 10
206.5059490135697
 20
378.4186677616754
 30
0.0
 40
4.0
100
AcDbArc
 50
7.547059120004202
 51
104.3181457660025
  0
ARC
  5
E7BD
330
1F
100
AcDbEntity
  8
AM_0
100
AcDbCircle
 10
207.2478666855697
 20
375.5118553896754
 30
0.0
 40
7.0
100
AcDbArc
 50
104.3181457660025
 51
164.0260820159915
  0
LINE
  5
E7BE
330
1F
100
AcDbEntity
  8
AM_0
100
AcDbLine
 10
201.6298746425695
 20
373.1118553576755
 30
0.0
 11
194.2478666855695
 21
373.1118552916754
 31
0.0
  0
LINE
  5
E7BF
330
1F
100
AcDbEntity
  8
AM_0
100
AcDbLine
 10
198.2475677275694
 20
377.5118553896754
 30
0.0
 11
192.2475677465694
 21
377.5118553896754
 31
0.0
  0
ARC
  5
E7C0
330
1F
100
AcDbEntity
  8
AM_0
100
AcDbCircle
 10
198.2475677465697
 20
374.0118553896754
 30
0.0
 40
3.5
100
AcDbArc
 50
269.9863961739985
 51
89.98670437799473
  0
LINE
  5
E7C1
330
1F
100
AcDbEntity
  8
AM_0
100
AcDbLine
 10
194.2478666855695
 20
375.3118553896754
 30
0.0
 11
194.2478666855695
 21
370.5118553896754
 31
0.0
  0
LINE
  5
E7C2
330
1F
100
AcDbEntity
  8
AM_0
100
AcDbLine
 10
182.2478666855697
 20
375.3118553896754
 30
0.0
 11
182.2478666855697
 21
370.5118553896754
 31
0.0
  0
LINE
  5
E7C3
330
1F
100
AcDbEntity
  8
AM_0
100
AcDbLine
 10
192.2475677465694
 20
379.3118553896754
 30
0.0
 11
191.2475677465694
 21
380.3118553896754
 31
0.0
  0
LINE
  5
E7C4
330
1F
100
AcDbEntity
  8
AM_0
100
AcDbLine
 10
192.2475677465694
 20
377.5118553896754
 30
0.0
 11
192.2475677465694
 21
379.3118553896754
 31
0.0
  0
CIRCLE
  5
E7C5
330
1F
100
AcDbEntity
  8
AM_0
100
AcDbCircle
 10
207.2478666855697
 20
375.5118553896754
 30
0.0
 40
2.0
  0
ARC
  5
E7C6
330
1F
100
AcDbEntity
  8
AM_0
100
AcDbCircle
 10
198.9414729585696
 20
373.4059609776754
 30
0.0
 40
3.399999999999999
100
AcDbArc
 50
333.0865566619999
 51
55.36599482399172
  0
CIRCLE
  5
E7C7
330
1F
100
AcDbEntity
  8
AM_0
100
AcDbCircle
 10
207.2478666855697
 20
375.5118553896754
 30
0.0
 40
2.0
  0
CIRCLE
  5
E7C8
330
1F
100
AcDbEntity
  8
AM_0
100
AcDbCircle
 10
207.2478666855697
 20
375.5118553896754
 30
0.0
 40
2.0
  0
ARC
  5
E7C9
330
1F
100
AcDbEntity
  8
AM_0
100
AcDbCircle
 10
207.2478666855697
 20
375.5118553896754
 30
0.0
 40
4.2
100
AcDbArc
 50
31.55853834900255
 51
270.0
  0
ARC
  5
E7CA
330
1F
100
AcDbEntity
  8
AM_0
100
AcDbCircle
 10
198.2478666855694
 20
374.0118553896754
 30
0.0
 40
3.5
100
AcDbArc
 50
270.0
 51
288.5113781250035
  0
LINE
  5
E7CB
330
1F
100
AcDbEntity
  8
AM_0
100
AcDbLine
 10
203.2477891225696
 20
370.5118553896754
 30
0.0
 11
203.2479121875696
 21
368.5118553896754
 31
0.0
  0
ARC
  5
E7CC
330
1F
100
AcDbEntity
  8
AM_0
100
AcDbCircle
 10
207.2478666855697
 20
375.5118553896754
 30
0.0
 40
7.0
100
AcDbArc
 50
223.0723469710047
 51
225.5846914029993
  0
ARC
  5
E7CD
330
1F
100
AcDbEntity
  8
AM_0
100
AcDbCircle
 10
202.8649148995695
 20
371.4143276426755
 30
0.0
 40
1.0
100
AcDbArc
 50
153.0865566660032
 51
223.0723469710047
  0
LINE
  5
E7CE
330
1F
100
AcDbEntity
  8
AM_0
100
AcDbLine
 10
199.9079700455695
 20
370.5118553896754
 30
0.0
 11
203.2477891225696
 21
370.5118553896754
 31
0.0
  0
LINE
  5
E7CF
330
1F
100
AcDbEntity
  8
AM_0
100
AcDbLine
 10
205.2697425745695
 20
371.8068553896755
 30
0.0
 11
205.2478666855697
 21
370.5118553896754
 31
0.0
  0
ARC
  5
E7D0
330
1F
100
AcDbEntity
  8
AM_0
100
AcDbCircle
 10
205.2478666855697
 20
370.5118553896754
 30
0.0
 40
2.0
100
AcDbArc
 50
270.0
 51
0.0
  0
LINE
  5
E7D1
330
1F
100
AcDbEntity
  8
AM_0
100
AcDbLine
 10
207.2478666855697
 20
368.5118553896754
 30
0.0
 11
205.2478666855697
 21
368.5118553896754
 31
0.0
  0
LINE
  5
E7D2
330
1F
100
AcDbEntity
  8
AM_0
100
AcDbLine
 10
207.2478666855697
 20
371.3118553896754
 30
0.0
 11
207.2478666855697
 21
368.5118553896754
 31
0.0
  0
ARC
  5
E7D3
330
1F
100
AcDbEntity
  8
AM_0
100
AcDbCircle
 10
201.6718216725696
 20
377.1080139076754
 30
0.0
 40
1.199999999999999
100
AcDbArc
 50
164.0260820110047
 51
233.590376592
  0
LINE
  5
E7D4
330
1F
100
AcDbEntity
  8
AM_0
100
AcDbLine
 10
210.4712982975695
 20
378.9440295946755
 30
0.0
 11
210.5888105491906
 21
378.0570654203278
 31
0.0
  0
LINE
  5
E7D5
330
1F
100
AcDbEntity
  8
AM_0
100
AcDbLine
 10
215.2478666855697
 20
370.5118553896754
 30
0.0
 11
242.2478666855697
 21
370.5118553896754
 31
0.0
  0
ARC
  5
E7D6
330
1F
100
AcDbEntity
  8
AM_0
100
AcDbCircle
 10
219.2478666855695
 20
372.0118553896754
 30
0.0
 40
1.0
100
AcDbArc
 50
0.0
 51
90.0
  0
LINE
  5
E7D7
330
1F
100
AcDbEntity
  8
AM_0
100
AcDbLine
 10
220.2478666855695
 20
370.5118553896754
 30
0.0
 11
217.2479897505695
 21
370.5118553896754
 31
0.0
  0
LINE
  5
E7D8
330
1F
100
AcDbEntity
  8
AM_0
100
AcDbLine
 10
220.2478666855695
 20
370.5118553896754
 30
0.0
 11
217.2479897505695
 21
370.5118553896754
 31
0.0
  0
LINE
  5
E7D9
330
1F
100
AcDbEntity
  8
AM_0
100
AcDbLine
 10
217.2478666855695
 20
369.0118553896754
 30
0.0
 11
217.2478666855695
 21
368.5118553896754
 31
0.0
  0
LINE
  5
E7DA
330
1F
100
AcDbEntity
  8
AM_0
100
AcDbLine
 10
213.7123491236281
 20
373.0118553896754
 30
0.0
 11
219.2478666855695
 21
373.0118553896754
 31
0.0
  0
LINE
  5
E7DB
330
1F
100
AcDbEntity
  8
AM_0
100
AcDbLine
 10
217.2479897505695
 20
370.5118553896754
 30
0.0
 11
217.2478666855695
 21
368.5118553896754
 31
0.0
  0
LINE
  5
E7DC
330
1F
100
AcDbEntity
  8
AM_0
100
AcDbLine
 10
217.2479897505695
 20
370.5118553896754
 30
0.0
 11
217.2478666855695
 21
368.5118553896754
 31
0.0
  0
LINE
  5
E7DD
330
1F
100
AcDbEntity
  8
AM_0
100
AcDbLine
 10
217.2478666855695
 20
370.5118553896754
 30
0.0
 11
217.2478666855695
 21
368.5118553896754
 31
0.0
  0
LINE
  5
E7DE
330
1F
100
AcDbEntity
  8
AM_0
100
AcDbLine
 10
220.2478666855695
 20
372.0118553896754
 30
0.0
 11
220.2478666855695
 21
370.5118553896754
 31
0.0
  0
LINE
  5
E7DF
330
1F
100
AcDbEntity
  8
AM_0
100
AcDbLine
 10
242.2478666855697
 20
368.5118553896754
 30
0.0
 11
242.2478666855697
 21
370.5118553896754
 31
0.0
  0
LINE
  5
E7E0
330
1F
100
AcDbEntity
  8
AM_0
100
AcDbLine
 10
214.706000144324
 20
437.2515075461666
 30
0.0
 11
200.3008616863243
 21
437.2515075461666
 31
0.0
  0
LINE
  5
E7E1
330
1F
100
AcDbEntity
  8
AM_0
100
AcDbLine
 10
200.3008616863243
 20
419.2515075461665
 30
0.0
 11
214.706000144324
 21
419.2515075461665
 31
0.0
  0
LINE
  5
E7E2
330
1F
100
AcDbEntity
  8
AM_0
100
AcDbLine
 10
215.3008616863242
 20
401.2515075461665
 30
0.0
 11
211.3008616863242
 21
401.2515075461665
 31
0.0
  0
LINE
  5
E7E3
330
1F
100
AcDbEntity
  8
AM_0
100
AcDbLine
 10
215.3008616863242
 20
437.2515075461666
 30
0.0
 11
203.100861686324
 21
437.2515075461666
 31
0.0
  0
LINE
  5
E7E4
330
1F
100
AcDbEntity
  8
AM_0
100
AcDbLine
 10
215.3008616863242
 20
401.2515075461665
 30
0.0
 11
203.100861686324
 21
401.2515075461665
 31
0.0
  0
LINE
  5
E7E5
330
1F
100
AcDbEntity
  8
AM_0
100
AcDbLine
 10
203.100861686324
 20
403.2515075461665
 30
0.0
 11
215.3008616863242
 21
403.2515075461665
 31
0.0
  0
LINE
  5
E7E6
330
1F
100
AcDbEntity
  8
AM_0
100
AcDbLine
 10
215.3008616863242
 20
417.2515075461666
 30
0.0
 11
203.100861686324
 21
417.2515075461666
 31
0.0
  0
LINE
  5
E7E7
330
1F
100
AcDbEntity
  8
AM_0
100
AcDbLine
 10
203.100861686324
 20
419.2515075461665
 30
0.0
 11
215.3008616863242
 21
419.2515075461665
 31
0.0
  0
LINE
  5
E7E8
330
1F
100
AcDbEntity
  8
AM_0
100
AcDbLine
 10
203.100861686324
 20
439.2515075461665
 30
0.0
 11
215.3008616863242
 21
439.2515075461665
 31
0.0
  0
LINE
  5
E7E9
330
1F
100
AcDbEntity
  8
AM_0
100
AcDbLine
 10
177.8008616863242
 20
435.0515075461665
 30
0.0
 11
177.8008616863242
 21
421.4515075461666
 31
0.0
  0
LINE
  5
E7EA
330
1F
100
AcDbEntity
  8
AM_0
100
AcDbLine
 10
193.800861667324
 20
436.0515075461665
 30
0.0
 11
193.800861667324
 21
420.4515075461666
 31
0.0
  0
LINE
  5
E7EB
330
1F
100
AcDbEntity
  8
AM_0
100
AcDbLine
 10
200.3008616863243
 20
437.2515075461666
 30
0.0
 11
200.3008616863243
 21
419.2515075461665
 31
0.0
  0
LINE
  5
E7EC
330
1F
100
AcDbEntity
  8
AM_0
100
AcDbLine
 10
172.3008616863242
 20
421.2515075461666
 30
0.0
 11
172.3008616863242
 21
435.2515075461665
 31
0.0
  0
LINE
  5
E7ED
330
1F
100
AcDbEntity
  8
AM_0
100
AcDbLine
 10
174.3008616863242
 20
435.2515075461665
 30
0.0
 11
174.3008616863242
 21
421.2515075461666
 31
0.0
  0
LINE
  5
E7EE
330
1F
100
AcDbEntity
  8
AM_0
100
AcDbLine
 10
178.8008616863242
 20
420.4515075461666
 30
0.0
 11
181.3008616863242
 21
420.4515075461666
 31
0.0
  0
ARC
  5
E7EF
330
1F
100
AcDbEntity
  8
AM_0
100
AcDbCircle
 10
180.0508616863242
 20
418.2515075761665
 30
0.0
 40
1.25
100
AcDbArc
 50
180.0
 51
0.0
  0
CIRCLE
  5
E7F0
330
1F
100
AcDbEntity
  8
AM_0
100
AcDbCircle
 10
180.3008616863242
 20
411.2515075461665
 30
0.0
 40
3.5
  0
CIRCLE
  5
E7F1
330
1F
100
AcDbEntity
  8
AM_0
100
AcDbCircle
 10
180.3008616863242
 20
411.2515075461665
 30
0.0
 40
2.0
  0
LINE
  5
E7F2
330
1F
100
AcDbEntity
  8
AM_0
100
AcDbLine
 10
178.8008616863242
 20
420.4515075461666
 30
0.0
 11
178.8008616863242
 21
418.2515075461665
 31
0.0
  0
LINE
  5
E7F3
330
1F
100
AcDbEntity
  8
AM_0
100
AcDbLine
 10
174.3008616863242
 20
419.2515075461665
 30
0.0
 11
174.3008616863242
 21
421.2515075461666
 31
0.0
  0
ARC
  5
E7F4
330
1F
100
AcDbEntity
  8
AM_0
100
AcDbCircle
 10
173.3008616863242
 20
418.2515075461665
 30
0.0
 40
1.0
100
AcDbArc
 50
90.0
 51
180.0
  0
LINE
  5
E7F5
330
1F
100
AcDbEntity
  8
AM_0
100
AcDbLine
 10
172.3008616863242
 20
416.2515075461666
 30
0.0
 11
172.3008616863242
 21
418.2515075461665
 31
0.0
  0
LINE
  5
E7F6
330
1F
100
AcDbEntity
  8
AM_0
100
AcDbLine
 10
173.3008616863242
 20
419.2515075461665
 30
0.0
 11
174.3008616863242
 21
419.2515075461665
 31
0.0
  0
LINE
  5
E7F7
330
1F
100
AcDbEntity
  8
AM_0
100
AcDbLine
 10
174.3008616863242
 20
421.2515075461666
 30
0.0
 11
172.3008616863242
 21
421.2515075461666
 31
0.0
  0
LINE
  5
E7F8
330
1F
100
AcDbEntity
  8
AM_0
100
AcDbLine
 10
177.8008616863242
 20
421.4515075461666
 30
0.0
 11
178.8008616863242
 21
420.4515075461666
 31
0.0
  0
LINE
  5
E7F9
330
1F
100
AcDbEntity
  8
AM_0
100
AcDbLine
 10
211.3008616863242
 20
417.2515075461666
 30
0.0
 11
211.3008616863242
 21
403.2515075461665
 31
0.0
  0
LINE
  5
E7FA
330
1F
100
AcDbEntity
  8
AM_0
100
AcDbLine
 10
203.3008616863242
 20
403.2515075461665
 30
0.0
 11
203.3008616863242
 21
417.2515075461666
 31
0.0
  0
LINE
  5
E7FB
330
1F
100
AcDbEntity
  8
AM_0
100
AcDbLine
 10
203.100861686324
 20
401.2515075461665
 30
0.0
 11
187.3008616863242
 21
401.2515075461665
 31
0.0
  0
CIRCLE
  5
E7FC
330
1F
100
AcDbEntity
  8
AM_0
100
AcDbCircle
 10
195.300861686324
 20
409.2515075461665
 30
0.0
 40
3.5
  0
CIRCLE
  5
E7FD
330
1F
100
AcDbEntity
  8
AM_0
100
AcDbCircle
 10
195.300861686324
 20
409.2515075461665
 30
0.0
 40
2.0
  0
LINE
  5
E7FE
330
1F
100
AcDbEntity
  8
AM_0
100
AcDbLine
 10
203.100861686324
 20
401.2515075461665
 30
0.0
 11
203.100861686324
 21
403.2515075461665
 31
0.0
  0
LINE
  5
E7FF
330
1F
100
AcDbEntity
  8
AM_0
100
AcDbLine
 10
193.300861686324
 20
420.4515075461666
 30
0.0
 11
200.3008616863243
 21
420.4515075461666
 31
0.0
  0
LINE
  5
E800
330
1F
100
AcDbEntity
  8
AM_0
100
AcDbLine
 10
195.8008616863242
 20
418.2515075461665
 30
0.0
 11
195.8008616863242
 21
420.4515075461666
 31
0.0
  0
LINE
  5
E801
330
1F
100
AcDbEntity
  8
AM_0
100
AcDbLine
 10
181.3008616863242
 20
418.2515075461665
 30
0.0
 11
181.3008616863242
 21
420.4515075461666
 31
0.0
  0
LINE
  5
E802
330
1F
100
AcDbEntity
  8
AM_0
100
AcDbLine
 10
193.300861686324
 20
420.4515075461666
 30
0.0
 11
193.300861686324
 21
418.2515075461665
 31
0.0
  0
LINE
  5
E803
330
1F
100
AcDbEntity
  8
AM_0
100
AcDbLine
 10
193.300861686324
 20
418.2515075461665
 30
0.0
 11
181.3008616863242
 21
418.2515075461665
 31
0.0
  0
ARC
  5
E804
330
1F
100
AcDbEntity
  8
AM_0
100
AcDbCircle
 10
194.5508616863242
 20
418.2515075461665
 30
0.0
 40
1.25
100
AcDbArc
 50
180.0
 51
0.0
  0
LINE
  5
E805
330
1F
100
AcDbEntity
  8
AM_0
100
AcDbLine
 10
193.300861686324
 20
420.4515075461666
 30
0.0
 11
181.3008616863242
 21
420.4515075461666
 31
0.0
  0
LINE
  5
E806
330
1F
100
AcDbEntity
  8
AM_0
100
AcDbLine
 10
203.100861686324
 20
417.2515075461666
 30
0.0
 11
201.8008616863243
 21
417.2515075461666
 31
0.0
  0
LINE
  5
E807
330
1F
100
AcDbEntity
  8
AM_0
100
AcDbLine
 10
201.8008616863243
 20
419.2515075461665
 30
0.0
 11
201.8008616863243
 21
417.2515075461666
 31
0.0
  0
LINE
  5
E808
330
1F
100
AcDbEntity
  8
AM_0
100
AcDbLine
 10
203.100861686324
 20
417.2515075461666
 30
0.0
 11
203.100861686324
 21
419.2515075461665
 31
0.0
  0
LINE
  5
E809
330
1F
100
AcDbEntity
  8
AM_0
100
AcDbLine
 10
181.3008616863242
 20
436.0515075461665
 30
0.0
 11
178.8008616863242
 21
436.0515075461665
 31
0.0
  0
ARC
  5
E80A
330
1F
100
AcDbEntity
  8
AM_0
100
AcDbCircle
 10
180.0508616863242
 20
438.2515075161666
 30
0.0
 40
1.25
100
AcDbArc
 50
0.0
 51
180.0
  0
CIRCLE
  5
E80B
330
1F
100
AcDbEntity
  8
AM_0
100
AcDbCircle
 10
180.3008616863242
 20
445.2515075461666
 30
0.0
 40
3.5
  0
CIRCLE
  5
E80C
330
1F
100
AcDbEntity
  8
AM_0
100
AcDbCircle
 10
180.3008616863242
 20
445.2515075461666
 30
0.0
 40
2.0
  0
LINE
  5
E80D
330
1F
100
AcDbEntity
  8
AM_0
100
AcDbLine
 10
172.3008616863242
 20
438.2515075461665
 30
0.0
 11
172.3008616863242
 21
440.2515075461665
 31
0.0
  0
ARC
  5
E80E
330
1F
100
AcDbEntity
  8
AM_0
100
AcDbCircle
 10
173.3008616863242
 20
438.2515075461665
 30
0.0
 40
1.0
100
AcDbArc
 50
180.0
 51
270.0
  0
LINE
  5
E80F
330
1F
100
AcDbEntity
  8
AM_0
100
AcDbLine
 10
172.3008616863242
 20
435.2515075461665
 30
0.0
 11
174.3008616863242
 21
435.2515075461665
 31
0.0
  0
LINE
  5
E810
330
1F
100
AcDbEntity
  8
AM_0
100
AcDbLine
 10
178.8008616863242
 20
436.0515075461665
 30
0.0
 11
177.8008616863242
 21
435.0515075461665
 31
0.0
  0
LINE
  5
E811
330
1F
100
AcDbEntity
  8
AM_0
100
AcDbLine
 10
178.8008616863242
 20
438.2515075461665
 30
0.0
 11
178.8008616863242
 21
436.0515075461665
 31
0.0
  0
LINE
  5
E812
330
1F
100
AcDbEntity
  8
AM_0
100
AcDbLine
 10
174.3008616863242
 20
437.2515075461666
 30
0.0
 11
173.3008616863242
 21
437.2515075461666
 31
0.0
  0
LINE
  5
E813
330
1F
100
AcDbEntity
  8
AM_0
100
AcDbLine
 10
174.3008616863242
 20
435.2515075461665
 30
0.0
 11
174.3008616863242
 21
437.2515075461666
 31
0.0
  0
ARC
  5
E814
330
1F
100
AcDbEntity
  8
AM_0
100
AcDbCircle
 10
194.5508616863242
 20
438.2515075161666
 30
0.0
 40
1.25
100
AcDbArc
 50
0.0
 51
180.0
  0
LINE
  5
E815
330
1F
100
AcDbEntity
  8
AM_0
100
AcDbLine
 10
201.8008616863243
 20
439.2515075461665
 30
0.0
 11
201.8008616863243
 21
437.2515075461666
 31
0.0
  0
LINE
  5
E816
330
1F
100
AcDbEntity
  8
AM_0
100
AcDbLine
 10
203.100861686324
 20
437.2515075461666
 30
0.0
 11
203.100861686324
 21
439.2515075461665
 31
0.0
  0
LINE
  5
E817
330
1F
100
AcDbEntity
  8
AM_0
100
AcDbLine
 10
200.3008616863243
 20
436.0515075461665
 30
0.0
 11
193.300861686324
 21
436.0515075461665
 31
0.0
  0
LINE
  5
E818
330
1F
100
AcDbEntity
  8
AM_0
100
AcDbLine
 10
181.3008616863242
 20
436.0515075461665
 30
0.0
 11
193.300861686324
 21
436.0515075461665
 31
0.0
  0
LINE
  5
E819
330
1F
100
AcDbEntity
  8
AM_0
100
AcDbLine
 10
181.3008616863242
 20
438.2515075461665
 30
0.0
 11
193.300861686324
 21
438.2515075461665
 31
0.0
  0
LINE
  5
E81A
330
1F
100
AcDbEntity
  8
AM_0
100
AcDbLine
 10
181.3008616863242
 20
436.0515075461665
 30
0.0
 11
181.3008616863242
 21
438.2515075461665
 31
0.0
  0
LINE
  5
E81B
330
1F
100
AcDbEntity
  8
AM_0
100
AcDbLine
 10
195.8008616863242
 20
436.0515075461665
 30
0.0
 11
195.8008616863242
 21
438.2515075461665
 31
0.0
  0
LINE
  5
E81C
330
1F
100
AcDbEntity
  8
AM_0
100
AcDbLine
 10
193.300861686324
 20
438.2515075461665
 30
0.0
 11
193.300861686324
 21
436.0515075461665
 31
0.0
  0
CIRCLE
  5
E81D
330
1F
100
AcDbEntity
  8
AM_0
100
AcDbCircle
 10
195.300861686324
 20
447.2515075461665
 30
0.0
 40
3.5
  0
CIRCLE
  5
E81E
330
1F
100
AcDbEntity
  8
AM_0
100
AcDbCircle
 10
195.300861686324
 20
447.2515075461665
 30
0.0
 40
2.0
  0
LINE
  5
E81F
330
1F
100
AcDbEntity
  8
AM_0
100
AcDbLine
 10
201.8008616863243
 20
439.2515075461665
 30
0.0
 11
203.100861686324
 21
439.2515075461665
 31
0.0
  0
LINE
  5
E820
330
1F
100
AcDbEntity
  8
AM_0
100
AcDbLine
 10
242.3008616863242
 20
440.2515075461665
 30
0.0
 11
242.3008616863242
 21
416.2515075461666
 31
0.0
  0
LINE
  5
E821
330
1F
100
AcDbEntity
  8
AM_0
100
AcDbLine
 10
220.300861686324
 20
437.2515075461666
 30
0.0
 11
220.300861686324
 21
419.2515075461665
 31
0.0
  0
CIRCLE
  5
E822
330
1F
100
AcDbEntity
  8
AM_0
100
AcDbCircle
 10
234.3008616863242
 20
411.2515075461665
 30
0.0
 40
3.5
  0
CIRCLE
  5
E823
330
1F
100
AcDbEntity
  8
AM_0
100
AcDbCircle
 10
234.3008616863242
 20
411.2515075461665
 30
0.0
 40
2.0
  0
CIRCLE
  5
E824
330
1F
100
AcDbEntity
  8
AM_0
100
AcDbCircle
 10
219.300861686324
 20
409.2515075461665
 30
0.0
 40
3.5
  0
LINE
  5
E825
330
1F
100
AcDbEntity
  8
AM_0
100
AcDbLine
 10
227.3008616863243
 20
401.2515075461665
 30
0.0
 11
217.300861686324
 21
401.2515075461665
 31
0.0
  0
LINE
  5
E826
330
1F
100
AcDbEntity
  8
AM_0
100
AcDbLine
 10
215.3008616863242
 20
402.2515075461665
 30
0.0
 11
217.300861686324
 21
402.2515075461665
 31
0.0
  0
LINE
  5
E827
330
1F
100
AcDbEntity
  8
AM_0
100
AcDbLine
 10
217.300861686324
 20
402.2515075461665
 30
0.0
 11
217.300861686324
 21
401.2515075461665
 31
0.0
  0
LINE
  5
E828
330
1F
100
AcDbEntity
  8
AM_0
100
AcDbLine
 10
215.3008616863242
 20
403.2515075461665
 30
0.0
 11
215.3008616863242
 21
401.2515075461665
 31
0.0
  0
CIRCLE
  5
E829
330
1F
100
AcDbEntity
  8
AM_0
100
AcDbCircle
 10
219.300861686324
 20
409.2515075461665
 30
0.0
 40
2.0
  0
LINE
  5
E82A
330
1F
100
AcDbEntity
  8
AM_0
100
AcDbLine
 10
220.300861686324
 20
419.2515075461665
 30
0.0
 11
215.3008616863242
 21
419.2515075461665
 31
0.0
  0
LINE
  5
E82B
330
1F
100
AcDbEntity
  8
AM_0
100
AcDbLine
 10
217.300861686324
 20
419.2515075461665
 30
0.0
 11
217.300861686324
 21
418.2515075461665
 31
0.0
  0
LINE
  5
E82C
330
1F
100
AcDbEntity
  8
AM_0
100
AcDbLine
 10
217.300861686324
 20
418.2515075461665
 30
0.0
 11
215.3008616863242
 21
418.2515075461665
 31
0.0
  0
LINE
  5
E82D
330
1F
100
AcDbEntity
  8
AM_0
100
AcDbLine
 10
215.3008616863242
 20
419.2515075461665
 30
0.0
 11
215.3008616863242
 21
417.2515075461666
 31
0.0
  0
LINE
  5
E82E
330
1F
100
AcDbEntity
  8
AM_0
100
AcDbLine
 10
215.3008616863242
 20
439.2515075461665
 30
0.0
 11
215.3008616863242
 21
437.2515075461666
 31
0.0
  0
LINE
  5
E82F
330
1F
100
AcDbEntity
  8
AM_0
100
AcDbLine
 10
215.3008616863242
 20
437.2515075461666
 30
0.0
 11
220.300861686324
 21
437.2515075461666
 31
0.0
  0
LINE
  5
E830
330
1F
100
AcDbEntity
  8
AM_0
100
AcDbLine
 10
217.300861686324
 20
438.2515075461665
 30
0.0
 11
217.300861686324
 21
437.2515075461666
 31
0.0
  0
LINE
  5
E831
330
1F
100
AcDbEntity
  8
AM_0
100
AcDbLine
 10
215.3008616863242
 20
438.2515075461665
 30
0.0
 11
217.300861686324
 21
438.2515075461665
 31
0.0
  0
CIRCLE
  5
E832
330
1F
100
AcDbEntity
  8
AM_0
100
AcDbCircle
 10
219.300861686324
 20
447.2515075461665
 30
0.0
 40
3.5
  0
CIRCLE
  5
E833
330
1F
100
AcDbEntity
  8
AM_0
100
AcDbCircle
 10
219.300861686324
 20
447.2515075461665
 30
0.0
 40
2.0
  0
CIRCLE
  5
E834
330
1F
100
AcDbEntity
  8
AM_0
100
AcDbCircle
 10
234.3008616863242
 20
445.2515075461666
 30
0.0
 40
3.5
  0
CIRCLE
  5
E835
330
1F
100
AcDbEntity
  8
AM_0
100
AcDbCircle
 10
234.3008616863242
 20
445.2515075461666
 30
0.0
 40
2.0
  0
LINE
  5
E836
330
1F
100
AcDbEntity
  8
AM_0
100
AcDbLine
 10
203.100861686324
 20
455.2515075461665
 30
0.0
 11
215.3008616863242
 21
455.2515075461665
 31
0.0
  0
LINE
  5
E837
330
1F
100
AcDbEntity
  8
AM_0
100
AcDbLine
 10
215.3008616863242
 20
453.2515075461666
 30
0.0
 11
203.100861686324
 21
453.2515075461666
 31
0.0
  0
LINE
  5
E838
330
1F
100
AcDbEntity
  8
AM_0
100
AcDbLine
 10
187.3008616863242
 20
455.2515075461665
 30
0.0
 11
203.100861686324
 21
455.2515075461665
 31
0.0
  0
LINE
  5
E839
330
1F
100
AcDbEntity
  8
AM_0
100
AcDbLine
 10
203.100861686324
 20
453.2515075461666
 30
0.0
 11
203.100861686324
 21
455.2515075461665
 31
0.0
  0
LINE
  5
E83A
330
1F
100
AcDbEntity
  8
AM_0
100
AcDbLine
 10
217.300861686324
 20
455.2515075461665
 30
0.0
 11
227.3008616863243
 21
455.2515075461665
 31
0.0
  0
LINE
  5
E83B
330
1F
100
AcDbEntity
  8
AM_0
100
AcDbLine
 10
217.300861686324
 20
454.2515075461666
 30
0.0
 11
217.300861686324
 21
455.2515075461665
 31
0.0
  0
LINE
  5
E83C
330
1F
100
AcDbEntity
  8
AM_0
100
AcDbLine
 10
215.3008616863242
 20
454.2515075461666
 30
0.0
 11
217.300861686324
 21
454.2515075461666
 31
0.0
  0
LINE
  5
E83D
330
1F
100
AcDbEntity
  8
AM_0
100
AcDbLine
 10
215.3008616863242
 20
455.2515075461665
 30
0.0
 11
215.3008616863242
 21
453.2515075461666
 31
0.0
  0
LINE
  5
E83E
330
1F
100
AcDbEntity
  8
AM_0
100
AcDbLine
 10
177.0313673400293
 20
373.9289018783537
 30
0.0
 11
175.6478666855698
 21
377.4118553896755
 31
0.0
  0
LINE
  5
E83F
330
1F
100
AcDbEntity
  8
AM_0
100
AcDbLine
 10
176.3551841443047
 20
371.766718023432
 30
0.0
 11
175.6478666855698
 21
373.7127025106754
 31
0.0
  0
LINE
  5
E840
330
1F
100
AcDbEntity
  8
AM_0
100
AcDbLine
 10
176.3629326768093
 20
372.0923927347409
 30
0.0
 11
176.3658285147127
 21
372.100348983991
 31
0.0
  0
LINE
  5
E841
330
1F
100
AcDbEntity
  8
AM_0
100
AcDbLine
 10
175.6478666855698
 20
371.9118553896755
 30
0.0
 11
175.6478666855698
 21
377.5118553896754
 31
0.0
  0
LINE
  5
E842
330
1F
100
AcDbEntity
  8
AM_0
100
AcDbLine
 10
174.2478666855697
 20
377.4118553896755
 30
0.0
 11
174.2478666855697
 21
372.0118553896754
 31
0.0
  0
ARC
  5
E843
330
1F
100
AcDbEntity
  8
AM_0
100
AcDbCircle
 10
174.9478666855695
 20
377.5118553896754
 30
0.0
 40
0.7
100
AcDbArc
 50
0.0
 51
180.0
  0
ARC
  5
E844
330
1F
100
AcDbEntity
  8
AM_0
100
AcDbCircle
 10
174.9478666855695
 20
371.9118553896755
 30
0.0
 40
0.7
100
AcDbArc
 50
180.0
 51
0.0
  0
LINE
  5
E845
330
1F
100
AcDbEntity
  8
AM_0
100
AcDbLine
 10
176.4023869082973
 20
372.2007923448582
 30
0.0
 11
177.7455819817498
 21
375.8911904791621
 31
0.0
  0
ARC
  5
E846
330
1F
100
AcDbEntity
  8
AM_0
100
AcDbCircle
 10
177.0399725385698
 20
371.9118553896755
 30
0.0
 40
0.7
100
AcDbArc
 50
155.6212226985151
 51
343.3356592519632
  0
LINE
  5
E847
330
1F
100
AcDbEntity
  8
AM_0
100
AcDbLine
 10
182.2478666855697
 20
375.3118553896754
 30
0.0
 11
194.2478666855695
 21
375.3118553896754
 31
0.0
  0
LINE
  5
E848
330
1F
100
AcDbEntity
  8
AM_0
100
AcDbLine
 10
194.2478666855695
 20
375.3118553896754
 30
0.0
 11
201.4971831085694
 21
375.3118553896754
 31
0.0
  0
LINE
  5
E84A
330
1F
100
AcDbEntity
  8
AM_0
100
AcDbLine
 10
176.4081791450592
 20
425.306370179923
 30
0.0
 11
175.7008616863243
 21
427.2523546671664
 31
0.0
  0
LINE
  5
E84B
330
1F
100
AcDbEntity
  8
AM_0
100
AcDbLine
 10
175.7008616863243
 20
425.4515075461664
 30
0.0
 11
175.7008616863243
 21
431.0515075461665
 31
0.0
  0
LINE
  5
E84C
330
1F
100
AcDbEntity
  8
AM_0
100
AcDbLine
 10
174.3008616863242
 20
430.9515075461665
 30
0.0
 11
174.3008616863242
 21
425.5515075461665
 31
0.0
  0
LINE
  5
E84D
330
1F
100
AcDbEntity
  8
AM_0
100
AcDbLine
 10
176.4553819090518
 20
425.7404445013492
 30
0.0
 11
177.7985769825043
 21
429.4308426356531
 31
0.0
  0
ARC
  5
E84E
330
1F
100
AcDbEntity
  8
AM_0
100
AcDbCircle
 10
175.000861686324
 20
425.4515075461664
 30
0.0
 40
0.7
100
AcDbArc
 50
180.0
 51
0.0
  0
ARC
  5
E84F
330
1F
100
AcDbEntity
  8
AM_0
100
AcDbCircle
 10
177.0929675393243
 20
425.4515075461664
 30
0.0
 40
0.7
100
AcDbArc
 50
155.6212226985151
 51
343.3356592519632
  0
LINE
  5
E850
330
1F
100
AcDbEntity
  8
AM_0
100
AcDbLine
 10
177.0843623407839
 20
427.4685540348447
 30
0.0
 11
175.7008616863243
 21
430.9515075461665
 31
0.0
  0
ARC
  5
E851
330
1F
100
AcDbEntity
  8
AM_0
100
AcDbCircle
 10
175.000861686324
 20
431.0515075461665
 30
0.0
 40
0.7
100
AcDbArc
 50
0.0
 51
180.0
  0
LINE
  5
E853
330
1F
100
AcDbEntity
  8
AM_0
100
AcDbLine
 10
177.7635683473239
 20
425.2507725061014
 30
0.0
 11
177.8008616863242
 21
425.3532351129022
 31
0.0
  0
MTEXT
  5
E9F2
330
1F
100
AcDbEntity
  8
AM_6
 48
10.0
100
AcDbMText
 10
93.83002379727162
 20
523.6743758226289
 30
0.0
 40
3.2
 41
72.1139979977097
 71
     1
 72
     5
  1
ＩＦＨ-１０　（ストップ無）\PＩＦＨ-１１　（ストップ付）
 73
     1
 44
1.0
1001
ACAD
1000
MTEXTBEGIN
1070
    73
1070
     1
1070
    44
1040
1.0
1070
    74
1070
     0
1000
MTEXTEND
  0
MTEXT
  5
E9F3
330
1F
100
AcDbEntity
  8
AM_6
 48
10.0
100
AcDbMText
 10
93.46717635132865
 20
531.4461009539213
 30
0.0
 40
3.2
 41
30.64167258878206
 71
     1
 72
     5
  1
クローゼット用丁番
 73
     1
 44
1.0
1001
ACAD
1000
MTEXTBEGIN
1070
    73
1070
     1
1070
    44
1040
1.0
1070
    74
1070
     0
1000
MTEXTEND
  0
MTEXT
  5
E9F6
330
1F
100
AcDbEntity
  8
AM_6
 48
10.0
100
AcDbMText
 10
93.83002379727162
 20
501.6743758226289
 30
0.0
 40
3.2
 41
72.1139979977097
 71
     1
 72
     5
  1
ブロンズ塗装
 73
     1
 44
1.0
1001
ACAD
1000
MTEXTBEGIN
1070
    73
1070
     1
1070
    44
1040
1.0
1070
    74
1070
     0
1000
MTEXTEND
  0
DIMENSION
  5
EA2A
330
1F
100
AcDbEntity
  8
AM_5
100
AcDbDimension
  2
*D15
 10
242.3008616863242
 20
471.2515075461666
 30
0.0
 11
207.3023077603692
 21
471.2515075461666
 31
0.0
 70
   160
 71
     5
 42
69.99710785191007
  3
SYS$0
100
AcDbAlignedDimension
 13
172.3037538344142
 23
452.2515075461665
 33
0.0
 14
242.3008616863242
 24
452.2515075461665
 34
0.0
100
AcDbRotatedDimension
  0
DIMENSION
  5
EA94
330
1F
100
AcDbEntity
  8
AM_5
100
AcDbDimension
  2
*D16
 10
156.2478666855696
 20
368.5118553896754
 30
0.0
 11
156.2478666855696
 21
375.4150242091329
 31
0.0
 70
   160
  1
13.9\P
 71
     5
 42
13.90681237199999
  3
SYS$0
100
AcDbAlignedDimension
 13
202.5059490135697
 23
382.4186677616754
 33
0.0
 14
172.2478666855697
 24
368.5118553896754
 34
0.0
 50
90.0
100
AcDbRotatedDimension
  0
DIMENSION
  5
EAC7
330
1F
100
AcDbEntity
  8
AM_5
100
AcDbDimension
  2
*D17
 10
164.2478666855696
 20
368.5118553896754
 30
0.0
 11
164.2478666855696
 21
374.1720214040426
 31
0.0
 70
   160
 71
     5
 42
11.79999999999995
  3
SYS$0
100
AcDbAlignedDimension
 13
175.2478666855697
 23
380.3118553896754
 33
0.0
 14
172.2478666855697
 24
368.5118553896754
 34
0.0
 50
90.0
100
AcDbRotatedDimension
  0
DIMENSION
  5
EADD
330
1F
100
AcDbEntity
  8
AM_5
100
AcDbDimension
  2
*D18
 10
251.1478666855698
 20
368.5118553896754
 30
0.0
 11
251.1478666855697
 21
372.0118553896755
 31
0.0
 70
   160
 71
     5
 42
7.0
  3
SYS$0
100
AcDbAlignedDimension
 13
212.1768315616867
 23
375.5118553896754
 33
0.0
 14
242.2478666855697
 24
368.5118553896754
 34
0.0
 50
90.0
100
AcDbRotatedDimension
  0
DIMENSION
  5
13015
330
1F
100
AcDbEntity
  8
AM_5
100
AcDbDimension
  2
*D19
 10
164.3008616863242
 20
411.2515075461665
 30
0.0
 11
161.2008616863242
 21
428.2515075461666
 31
0.0
 70
    32
 71
     5
 42
34.0
  3
SYS$0
100
AcDbAlignedDimension
 13
172.3008616863242
 23
445.2515075461666
 33
0.0
 14
172.3008616863242
 24
411.2515075461665
 34
0.0
 50
90.00000000000003
100
AcDbRotatedDimension
1001
ACAD
1000
DSTYLE
1002
{
1070
    47
1040
0.3
1070
    48
1040
0.0
1070
   271
1070
     1
1002
}
  0
DIMENSION
  5
1302B
330
1F
100
AcDbEntity
  8
AM_5
100
AcDbDimension
  2
*D20
 10
156.3008616863243
 20
409.2515075461665
 30
0.0
 11
153.2008616863242
 21
428.2515075461666
 31
0.0
 70
    32
 71
     5
 42
38.0
  3
SYS$0
100
AcDbAlignedDimension
 13
172.3008616863242
 23
447.2515075461665
 33
0.0
 14
172.3008616863242
 24
409.2515075461665
 34
0.0
 50
90.00000000000003
100
AcDbRotatedDimension
1001
ACAD
1000
DSTYLE
1002
{
1070
    47
1040
0.3
1070
    48
1040
0.0
1070
   271
1070
     1
1002
}
  0
DIMENSION
  5
13041
330
1F
100
AcDbEntity
  8
AM_5
100
AcDbDimension
  2
*D21
 10
148.3008616863242
 20
401.2515075461665
 30
0.0
 11
145.2008616863241
 21
428.2515075461666
 31
0.0
 70
    32
 71
     5
 42
53.99999999999988
  3
SYS$0
100
AcDbAlignedDimension
 13
175.3008616863242
 23
455.2515075461665
 33
0.0
 14
175.3008616863242
 24
401.2515075461665
 34
0.0
 50
90.00000000000003
100
AcDbRotatedDimension
1001
ACAD
1000
DSTYLE
1002
{
1070
    47
1040
0.3
1070
    48
1040
0.0
1070
   271
1070
     1
1002
}
  0
DIMENSION
  5
13069
330
1F
100
AcDbEntity
  8
AM_5
100
AcDbDimension
  2
*D22
 10
207.3008616863242
 20
463.2515075461665
 30
0.0
 11
213.3008616863242
 21
466.3515075461666
 31
0.0
 70
    32
 71
     5
 42
11.99999999999977
  3
SYS$0
100
AcDbAlignedDimension
 13
219.300861686324
 23
455.2515075461665
 33
0.0
 14
207.3008616863242
 24
455.2515075461665
 34
0.0
100
AcDbRotatedDimension
1001
ACAD
1000
DSTYLE
1002
{
1070
    47
1040
0.3
1070
    48
1040
0.0
1070
   271
1070
     1
1002
}
  0
DIMENSION
  5
1307F
330
1F
100
AcDbEntity
  8
AM_5
100
AcDbDimension
  2
*D23
 10
195.300861686324
 20
463.2515075461665
 30
0.0
 11
201.3008616863241
 21
466.3515075461666
 31
0.0
 70
    32
 71
     5
 42
12.00000000000023
  3
SYS$0
100
AcDbAlignedDimension
 13
207.3008616863242
 23
455.2515075461665
 33
0.0
 14
195.300861686324
 24
455.2515075461665
 34
0.0
100
AcDbRotatedDimension
1001
ACAD
1000
DSTYLE
1002
{
1070
    47
1040
0.3
1070
    48
1040
0.0
1070
   271
1070
     1
1002
}
  0
DIMENSION
  5
13095
330
1F
100
AcDbEntity
  8
AM_5
100
AcDbDimension
  2
*D24
 10
195.300861686324
 20
463.2515075461665
 30
0.0
 11
187.8008616863241
 21
466.3515075461666
 31
0.0
 70
    32
 71
     5
 42
14.99999999999977
  3
SYS$0
100
AcDbAlignedDimension
 13
180.3008616863242
 23
455.2515075461665
 33
0.0
 14
195.300861686324
 24
455.2515075461665
 34
0.0
100
AcDbRotatedDimension
1001
ACAD
1000
DSTYLE
1002
{
1070
    47
1040
0.3
1070
    48
1040
0.0
1070
   271
1070
     1
1002
}
  0
DIMENSION
  5
130AB
330
1F
100
AcDbEntity
  8
AM_5
100
AcDbDimension
  2
*D25
 10
234.3008616863242
 20
463.2515075461665
 30
0.0
 11
226.8008616863241
 21
466.3515075461666
 31
0.0
 70
    32
 71
     5
 42
15.00000000000023
  3
SYS$0
100
AcDbAlignedDimension
 13
219.300861686324
 23
455.2515075461665
 33
0.0
 14
234.3008616863242
 24
455.2515075461665
 34
0.0
100
AcDbRotatedDimension
1001
ACAD
1000
DSTYLE
1002
{
1070
    47
1040
0.3
1070
    48
1040
0.0
1070
   271
1070
     1
1002
}
  0
INSERT
  5
13192
330
1F
100
AcDbEntity
  8
AM_5
 48
10.0
100
AcDbBlockReference
  2
*S26
 10
0.0
 20
0.0
 30
0.0
  0
MTEXT
  5
1325E
330
1F
100
AcDbEntity
  8
AM_6
 48
10.0
100
AcDbMText
 10
93.83002379727162
 20
509.6743758226289
 30
0.0
 40
3.2
 41
72.1139979977097
 71
     1
 72
     5
  1
スチール
 73
     1
 44
1.0
1001
ACAD
1000
MTEXTBEGIN
1070
    73
1070
     1
1070
    44
1040
1.0
1070
    74
1070
     0
1000
MTEXTEND
  0
MTEXT
  5
15515
330
1F
100
AcDbEntity
  8
AM_6
 48
10.0
100
AcDbMText
 10
93.83002379727162
 20
493.6743758226289
 30
0.0
 40
3.2
 41
72.1139979977097
 71
     1
 72
     5
  1
呼び3.5×16サラタッピンネジ　+ Fe　:8本
 73
     1
 44
1.0
1001
ACAD
1000
MTEXTBEGIN
1070
    73
1070
     1
1070
    44
1040
1.0
1070
    74
1070
     0
1000
MTEXTEND
  0
CIRCLE
  5
15DC3
330
1F
100
AcDbEntity
  8
AM_CL
 48
10.0
100
AcDbCircle
 10
137.1036464475441
 20
491.8836926408585
 30
0.0
 40
1.461054927545414
  0
ENDSEC
  0
SECTION
  2
OBJECTS
  0
DICTIONARY
  5
C
330
0
100
AcDbDictionary
281
     1
  3
ACAD_2007HEADERVARS_RT
350
15E43
  3
ACAD_BGPLOT_KEY
350
AB06
  3
ACAD_COLOR
350
A91D
  3
ACAD_GROUP
350
D
  3
ACAD_LAYOUT
350
1A
  3
ACAD_MATERIAL
350
A91C
  3
ACAD_MLINESTYLE
350
17
  3
ACAD_PLOTSETTINGS
350
19
  3
ACAD_PLOTSTYLENAME
350
E
  3
ACAD_TABLESTYLE
350
AAB9
  3
ACAD_VISUALSTYLE
350
B444
  3
AcAsAppObject
350
3DA1
  3
ACASGREF_MASTER
350
3DE9
  3
AcDbVariableDictionary
350
34
  3
AcmDictionary
350
47
  3
AD_GREF_MODULE
350
3DEA
  3
AD_MAPI_MODULE
350
3E06
  3
AMG
350
2B
  3
AMGSNAPSETTINGS
350
7D
  3
ASE_INDEX_DICTIONARY
350
15CB1
  3
DWGPROPS
350
15E42
  3
MAPISURF_MODULE
350
3DEB
  0
DICTIONARY
  5
15BC2
330
8
100
AcDbDictionary
280
     1
281
     1
  0
DICTIONARY
  5
3F95
330
2
100
AcDbDictionary
280
     1
281
     1
  3
ACAD_LAYERFILTERS
360
AE5F
  3
ACAD_LAYERSTATES
360
3F96
  3
ACLYDICTIONARY
360
AE5E
  3
AMLAYER_GROUPCOLORS
360
AAB4
  0
DICTIONARY
  5
B683
330
B682
100
AcDbDictionary
280
     1
281
     1
  3
ADSK_XREC_LAYER_RECONCILED
360
B684
  0
DICTIONARY
  5
B686
330
B685
100
AcDbDictionary
280
     1
281
     1
  3
ADSK_XREC_LAYER_RECONCILED
360
B687
  0
DICTIONARY
  5
B689
330
B688
100
AcDbDictionary
280
     1
281
     1
  3
ADSK_XREC_LAYER_RECONCILED
360
B68A
  0
DICTIONARY
  5
B68C
330
B68B
100
AcDbDictionary
280
     1
281
     1
  3
ADSK_XREC_LAYER_RECONCILED
360
B68D
  0
DICTIONARY
  5
B68F
330
B68E
100
AcDbDictionary
280
     1
281
     1
  3
ADSK_XREC_LAYER_RECONCILED
360
B690
  0
DICTIONARY
  5
B692
330
B691
100
AcDbDictionary
280
     1
281
     1
  3
ADSK_XREC_LAYER_RECONCILED
360
B693
  0
DICTIONARY
  5
B695
330
B694
100
AcDbDictionary
280
     1
281
     1
  3
ADSK_XREC_LAYER_RECONCILED
360
B696
  0
DICTIONARY
  5
B698
330
B697
100
AcDbDictionary
280
     1
281
     1
  3
ADSK_XREC_LAYER_RECONCILED
360
B699
  0
DICTIONARY
  5
B69B
330
B69A
100
AcDbDictionary
280
     1
281
     1
  3
ADSK_XREC_LAYER_RECONCILED
360
B69C
  0
DICTIONARY
  5
B69E
330
B69D
100
AcDbDictionary
280
     1
281
     1
  3
ADSK_XREC_LAYER_RECONCILED
360
B69F
  0
DICTIONARY
  5
C8D1
330
C8D0
100
AcDbDictionary
280
     1
281
     1
  3
ADSK_XREC_LAYER_RECONCILED
360
C8D2
  0
DICTIONARY
  5
C8D4
330
C8D3
100
AcDbDictionary
280
     1
281
     1
  3
ADSK_XREC_LAYER_RECONCILED
360
C8D5
  0
DICTIONARY
  5
C8D7
330
C8D6
100
AcDbDictionary
280
     1
281
     1
  3
ADSK_XREC_LAYER_RECONCILED
360
C8D8
  0
DICTIONARY
  5
C8DA
330
C8D9
100
AcDbDictionary
280
     1
281
     1
  3
ADSK_XREC_LAYER_RECONCILED
360
C8DB
  0
DICTIONARY
  5
C8DD
330
C8DC
100
AcDbDictionary
280
     1
281
     1
  3
ADSK_XREC_LAYER_RECONCILED
360
C8DE
  0
DICTIONARY
  5
C8E0
330
C8DF
100
AcDbDictionary
280
     1
281
     1
  3
ADSK_XREC_LAYER_RECONCILED
360
C8E1
  0
DICTIONARY
  5
8A
330
1F
100
AcDbDictionary
280
     1
281
     1
  3
ACAD_SORTENTS
360
B431
  0
DICTIONARY
  5
15E43
102
{ACAD_REACTORS
330
C
102
}
330
C
100
AcDbDictionary
281
     1
  3
DIMARCSYM
350
15E44
  0
DICTIONARY
  5
AB06
102
{ACAD_REACTORS
330
C
102
}
330
C
100
AcDbDictionary
280
     1
281
     1
  0
DICTIONARY
  5
A91D
102
{ACAD_REACTORS
330
C
102
}
330
C
100
AcDbDictionary
281
     1
  0
DICTIONARY
  5
D
102
{ACAD_REACTORS
330
C
102
}
330
C
100
AcDbDictionary
281
     1
  0
DICTIONARY
  5
1A
102
{ACAD_REACTORS
330
C
102
}
330
C
100
AcDbDictionary
281
     1
  3
Model
350
22
  3
ﾚｲｱｳﾄ1
350
1E
  3
ﾚｲｱｳﾄ2
350
26
  0
DICTIONARY
  5
A91C
102
{ACAD_REACTORS
330
C
102
}
330
C
100
AcDbDictionary
281
     1
  3
ByBlock
350
B442
  3
ByLayer
350
B441
  3
Global
350
B443
  0
DICTIONARY
  5
17
102
{ACAD_REACTORS
330
C
102
}
330
C
100
AcDbDictionary
281
     1
  3
Standard
350
18
  0
DICTIONARY
  5
19
102
{ACAD_REACTORS
330
C
102
}
330
C
100
AcDbDictionary
281
     1
  3
01 A3フィット
350
AAFE
  3
02 A3
350
AAFF
  3
03 A2フィット
350
AB00
  3
04 A2
350
AB01
  3
05 A1フィット
350
AB04
  3
06 A1
350
AB05
  3
06 A4フィット
350
AB02
  3
07 A4
350
AB03
  0
ACDBDICTIONARYWDFLT
  5
E
102
{ACAD_REACTORS
330
C
102
}
330
C
100
AcDbDictionary
281
     1
  3
Normal
350
F
100
AcDbDictionaryWithDefault
340
F
  0
DICTIONARY
  5
AAB9
102
{ACAD_REACTORS
330
C
102
}
330
C
100
AcDbDictionary
281
     1
  3
Standard
350
AABA
  0
DICTIONARY
  5
B444
102
{ACAD_REACTORS
330
C
102
}
330
C
100
AcDbDictionary
281
     1
  3
2dWireframe
350
B44A
  3
3D Hidden
350
B44C
  3
3dWireframe
350
B44B
  3
Basic
350
B449
  3
Brighten
350
B450
  3
ColorChange
350
B454
  3
Conceptual
350
B44D
  3
Dim
350
B44F
  3
Facepattern
350
B453
  3
Flat
350
B445
  3
FlatWithEdges
350
B446
  3
Gouraud
350
B447
  3
GouraudWithEdges
350
B448
  3
Linepattern
350
B452
  3
Realistic
350
B44E
  3
Thicken
350
B451
  0
ACAD_PROXY_OBJECT
  5
3DA1
102
{ACAD_REACTORS
330
C
102
}
330
C
100
AcDbProxyObject
 90
      499
 91
      576
 95
       23
 70
     0
 93
       10
310
407F
 94
        0
1001
ACAD
1000
AcRTDxfName
1000
ASAPP
1000
AcRTDxfName
1000
ASAPP
1000
AcRTDxfName
1000
ASAPP
  0
ACAD_PROXY_OBJECT
  5
3DE9
102
{ACAD_REACTORS
330
C
102
}
330
C
100
AcDbProxyObject
 90
      499
 91
      581
 95
       23
 70
     0
 93
       34
310
010000407F
 94
        0
1001
ACAD
1000
AcRTDxfName
1000
ACASGREFMASTER
1000
AcRTDxfName
1000
ACASGREFMASTER
1000
AcRTDxfName
1000
ACASGREFMASTER
  0
DICTIONARY
  5
34
102
{ACAD_REACTORS
330
C
102
}
330
C
100
AcDbDictionary
281
     1
  3
CTABLESTYLE
350
AAF3
  3
DIMASSOC
350
A10C
  3
FIELDEVAL
350
AB07
  3
INDEXCTL
350
35
  3
SORTENTS
350
194C
  0
DICTIONARY
  5
47
102
{ACAD_REACTORS
330
C
102
}
330
C
100
AcDbDictionary
281
     1
  3
AcmBOM
350
7E8
  3
AcmStdDictionary
350
4C
  3
AMDTSECTSYM_ARROWCOLOR
350
A929
  0
ACAD_PROXY_OBJECT
  5
3DEA
102
{ACAD_REACTORS
330
C
102
}
330
C
100
AcDbProxyObject
 90
      499
 91
      582
 95
       23
 70
     0
 93
      114
310
00000043800000000000000000003F
 94
        0
1001
ACAD
1000
AcRTDxfName
1000
ACADGREFMODULE
1000
AcRTDxfName
1000
ACADGREFMODULE
1000
AcRTDxfName
1000
ACADGREFMODULE
  0
ACAD_PROXY_OBJECT
  5
3E06
102
{ACAD_REACTORS
330
C
102
}
330
C
100
AcDbProxyObject
 90
      499
 91
      594
 95
       23
 70
     0
 93
       34
310
05000044FF
 94
        0
1001
ACAD
1000
AcRTDxfName
1000
MAPIADMODULE
1000
AcRTDxfName
1000
MAPIADMODULE
1000
AcRTDxfName
1000
MAPIADMODULE
  0
DICTIONARY
  5
2B
102
{ACAD_REACTORS
330
C
102
}
330
C
100
AcDbDictionary
281
     1
  0
DICTIONARY
  5
7D
102
{ACAD_REACTORS
330
C
102
}
330
C
100
AcDbDictionary
281
     1
  0
DICTIONARY
  5
15CB1
102
{ACAD_REACTORS
330
C
102
}
330
C
100
AcDbDictionary
281
     1
  3
ASEBlockHierarchyIndexRecord
350
15CB2
1001
DCO15
1040
1646490027.921
  0
XRECORD
  5
15E42
102
{ACAD_REACTORS
330
C
102
}
330
C
100
AcDbXrecord
280
     1
  1
DWGPROPS COOKIE
  2

  3

  4

  6

  7

  8
Administrator
  9

300
AmdtFileType=84
301
=
302
=
303
=
304
=
305
=
306
=
307
=
308
=
309
=
 40
0.4967158564814815
 41
2454123.447246817
 42
2454886.431390694
  1

 90
        1
  0
ACAD_PROXY_OBJECT
  5
3DEB
102
{ACAD_REACTORS
330
C
102
}
330
C
100
AcDbProxyObject
 90
      499
 91
      583
 95
       23
 70
     0
 93
        8
310
047C
 94
        0
1001
ACAD
1000
AcRTDxfName
1000
AMDTMAPISURFMOUDULE
1000
AcRTDxfName
1000
AMDTMAPISURFMOUDULE
1000
AcRTDxfName
1000
AMDTMAPISURFMOUDULE
  0
DICTIONARY
  5
AE5F
102
{ACAD_REACTORS
330
3F95
102
}
330
3F95
100
AcDbDictionary
281
     1
  0
DICTIONARY
  5
3F96
102
{ACAD_REACTORS
330
3F95
102
}
330
3F95
100
AcDbDictionary
281
     1
  3
20011210
350
3FB7
  0
DICTIONARY
  5
AE5E
102
{ACAD_REACTORS
330
3F95
102
}
330
3F95
100
AcDbDictionary
281
     1
1001
ACAD
1000
<All
  0
DICTIONARY
  5
AAB4
102
{ACAD_REACTORS
330
3F95
102
}
330
3F95
100
AcDbDictionary
280
     1
281
     1
  0
XRECORD
  5
B684
102
{ACAD_REACTORS
330
B683
102
}
330
B683
100
AcDbXrecord
280
     1
290
     1
  0
XRECORD
  5
B687
102
{ACAD_REACTORS
330
B686
102
}
330
B686
100
AcDbXrecord
280
     1
290
     1
  0
XRECORD
  5
B68A
102
{ACAD_REACTORS
330
B689
102
}
330
B689
100
AcDbXrecord
280
     1
290
     1
  0
XRECORD
  5
B68D
102
{ACAD_REACTORS
330
B68C
102
}
330
B68C
100
AcDbXrecord
280
     1
290
     1
  0
XRECORD
  5
B690
102
{ACAD_REACTORS
330
B68F
102
}
330
B68F
100
AcDbXrecord
280
     1
290
     1
  0
XRECORD
  5
B693
102
{ACAD_REACTORS
330
B692
102
}
330
B692
100
AcDbXrecord
280
     1
290
     1
  0
XRECORD
  5
B696
102
{ACAD_REACTORS
330
B695
102
}
330
B695
100
AcDbXrecord
280
     1
290
     1
  0
XRECORD
  5
B699
102
{ACAD_REACTORS
330
B698
102
}
330
B698
100
AcDbXrecord
280
     1
290
     1
  0
XRECORD
  5
B69C
102
{ACAD_REACTORS
330
B69B
102
}
330
B69B
100
AcDbXrecord
280
     1
290
     1
  0
XRECORD
  5
B69F
102
{ACAD_REACTORS
330
B69E
102
}
330
B69E
100
AcDbXrecord
280
     1
290
     1
  0
XRECORD
  5
C8D2
102
{ACAD_REACTORS
330
C8D1
102
}
330
C8D1
100
AcDbXrecord
280
     1
290
     1
  0
XRECORD
  5
C8D5
102
{ACAD_REACTORS
330
C8D4
102
}
330
C8D4
100
AcDbXrecord
280
     1
290
     1
  0
XRECORD
  5
C8D8
102
{ACAD_REACTORS
330
C8D7
102
}
330
C8D7
100
AcDbXrecord
280
     1
290
     1
  0
XRECORD
  5
C8DB
102
{ACAD_REACTORS
330
C8DA
102
}
330
C8DA
100
AcDbXrecord
280
     1
290
     1
  0
XRECORD
  5
C8DE
102
{ACAD_REACTORS
330
C8DD
102
}
330
C8DD
100
AcDbXrecord
280
     1
290
     1
  0
XRECORD
  5
C8E1
102
{ACAD_REACTORS
330
C8E0
102
}
330
C8E0
100
AcDbXrecord
280
     1
290
     1
  0
SORTENTSTABLE
  5
B431
102
{ACAD_REACTORS
330
8A
102
}
330
8A
100
AcDbSortentsTable
330
1F
331
E843
  5
E84B
331
E7CD
  5
E7CE
331
E804
  5
E805
331
E84B
  5
E853
331
E7D5
  5
E7D6
331
E80C
  5
E80D
331
E814
  5
E815
331
E7DD
  5
E7DE
331
E853
  5
E8CE
331
B42C
  5
B42C
331
E7A6
  5
E7A7
331
E81C
  5
E81D
331
B43C
  5
B43C
331
E9F3
  5
EB7E
331
E824
  5
E829
331
E7AE
  5
E7AF
331
E7E5
  5
E7E6
331
E82C
  5
E831
331
E7ED
  5
E7EE
331
E7B6
  5
E7B7
331
E7F5
  5
E7F6
331
E7BE
  5
E7BF
331
E834
  5
E839
331
B4BB
  5
B4BB
331
E7FD
  5
E7FE
331
E7C6
  5
E7C7
331
E83C
  5
E843
331
B4C3
  5
B4C3
331
E844
  5
E84C
331
E7CE
  5
E7CF
331
E805
  5
E806
331
E84C
  5
E855
331
E7D6
  5
E7D7
331
E80D
  5
E80E
331
E815
  5
E816
331
E7DE
  5
E7DF
331
B42D
  5
B42D
331
E7A7
  5
E7A8
331
E81D
  5
E81E
331
13095
  5
13812
331
E7E6
  5
E7E7
331
E7AF
  5
E7B0
331
E825
  5
E82A
331
E82D
  5
E832
331
E7B7
  5
E7B8
331
E7EE
  5
E7EF
331
E835
  5
E83A
331
E7F6
  5
E7F7
331
E7BF
  5
E7C0
331
B4BC
  5
B4BC
331
EA94
  5
EC0C
331
E7FE
  5
E7FF
331
E7C7
  5
E7C8
331
E83D
  5
E844
331
B4C4
  5
B4C4
331
E806
  5
E807
331
E7CF
  5
E7D0
331
E845
  5
E84D
331
E84D
  5
E856
331
E7D7
  5
E7D8
331
E80E
  5
E80F
331
B4D4
  5
B4D5
331
E816
  5
E817
331
E7DF
  5
E7E0
331
B42E
  5
B42E
331
E81E
  5
E81F
331
15515
  5
15684
331
E7A8
  5
E7A9
331
E7E7
  5
E7E8
331
E7B0
  5
E7B1
331
E826
  5
E82B
331
E82E
  5
E833
331
E7B8
  5
E7B9
331
E7EF
  5
E7F0
331
B4B5
  5
B4B5
331
E836
  5
E83B
331
E7F7
  5
E7F8
331
E7C0
  5
E7C1
331
B4BD
  5
B4BD
331
E83E
  5
E845
331
E7FF
  5
E800
331
B4C5
  5
B4C5
331
1307F
  5
137AC
331
E7C8
  5
E7C9
331
E807
  5
E808
331
E7D0
  5
E7D1
331
E846
  5
E84E
331
E80F
  5
E810
331
E7D8
  5
E7D9
331
E84E
  5
E8C9
331
B4D5
  5
B4D6
331
E817
  5
E818
331
E7A1
  5
E7A2
331
B42F
  5
B42F
331
E81F
  5
E820
331
1325E
  5
1391B
331
E7E0
  5
E7E1
331
E7A9
  5
E7AA
331
E9F6
  5
EBC5
331
E7E8
  5
E7E9
331
E7B1
  5
E7B2
331
E827
  5
E82C
331
E82F
  5
E834
331
E7B9
  5
E7BA
331
E7F0
  5
E7F1
331
B4B6
  5
B4B6
331
E837
  5
E83E
331
E7C1
  5
E7C2
331
E7F8
  5
E7F9
331
EADD
  5
ED8A
331
B4BE
  5
B4BE
331
E83F
  5
E846
331
B4C6
  5
B4C6
331
B4CE
  5
B4CE
331
E800
  5
E801
331
E7C9
  5
E7CA
331
E808
  5
E809
331
E7D1
  5
E7D2
331
E847
  5
E84F
331
E810
  5
E811
331
E7D9
  5
E7DA
331
E84F
  5
E8CB
331
B4D6
  5
B4D7
331
E818
  5
E819
331
E7A2
  5
E7A5
331
13015
  5
13651
331
13041
  5
13665
331
E7E1
  5
E7E2
331
E7AA
  5
E7AB
331
E820
  5
E821
331
E7E9
  5
E7EA
331
E7B2
  5
E7B3
331
E828
  5
E82D
331
B4B7
  5
B4B7
331
E7F1
  5
E7F2
331
E7BA
  5
E7BB
331
E830
  5
E835
331
B4BF
  5
B4BF
331
E838
  5
E83F
331
E7C2
  5
E7C3
331
E7F9
  5
E7FA
331
B4C7
  5
B4C7
331
13069
  5
13790
331
E840
  5
E847
331
E801
  5
E802
331
E7CA
  5
E7CB
331
E809
  5
E80A
331
E7D2
  5
E7D3
331
E848
  5
E850
331
B4D7
  5
B4D8
331
E811
  5
E812
331
E7DA
  5
E7DB
331
E850
  5
E8CC
331
E819
  5
E81A
331
B439
  5
B439
331
EAC7
  5
ED89
331
E7E2
  5
E7E3
331
E7AB
  5
E7AC
331
E821
  5
E826
331
E7EA
  5
E7EB
331
E7B3
  5
E7B4
331
E829
  5
E82E
331
B4B8
  5
B4B8
331
E7F2
  5
E7F3
331
E7BB
  5
E7BC
331
E831
  5
E836
331
B4C0
  5
B4C0
331
E7FA
  5
E7FB
331
E7C3
  5
E7C4
331
E839
  5
E840
331
E841
  5
E848
331
E7CB
  5
E7CC
331
E802
  5
E803
331
B4D0
  5
B4D0
331
E80A
  5
E80B
331
E7D3
  5
E7D4
331
B4D8
  5
BB12
331
E851
  5
E8CD
331
E7DB
  5
E7DC
331
E812
  5
E813
331
E81A
  5
E81B
331
B43A
  5
B43A
331
1302B
  5
13664
331
E7E3
  5
E7E4
331
E7AC
  5
E7AD
331
E822
  5
E827
331
E7EB
  5
E7EC
331
E7B4
  5
E7B5
331
E82A
  5
E82F
331
E7F3
  5
E7F4
331
E7BC
  5
E7BD
331
E832
  5
E837
331
B4B9
  5
B4B9
331
E7FB
  5
E7FC
331
E7C4
  5
E7C5
331
E83A
  5
E841
331
13192
  5
138DF
331
E842
  5
E84A
331
E7CC
  5
E7CD
331
E803
  5
E804
331
E84A
  5
E851
331
E7D4
  5
E7D5
331
E80B
  5
E80C
331
B4D1
  5
B4D1
331
E813
  5
E814
331
E7DC
  5
E7DD
331
E81B
  5
E81C
331
E7A5
  5
E7A6
331
B43B
  5
B43B
331
E823
  5
E828
331
E7E4
  5
E7E5
331
E7AD
  5
E7AE
331
E9F2
  5
EADD
331
EA2A
  5
EBED
331
E7EC
  5
E7ED
331
E7B5
  5
E7B6
331
E82B
  5
E830
331
E7F4
  5
E7F5
331
E7BD
  5
E7BE
331
E833
  5
E838
331
B4BA
  5
B4BA
331
E7FC
  5
E7FD
331
E7C5
  5
E7C6
331
E83B
  5
E842
331
130AB
  5
138A3
  0
XRECORD
  5
15E44
102
{ACAD_REACTORS
330
15E43
102
}
330
15E43
100
AcDbXrecord
280
     1
 70
     1
  0
LAYOUT
  5
22
102
{ACAD_XDICTIONARY
360
15E47
102
}
102
{ACAD_REACTORS
330
1A
102
}
330
1A
100
AcDbPlotSettings
  1

  2
FX DocuWide 2050/2051
  4
A4
  6

 40
3.174999952316284
 41
3.174999952316284
 42
3.175003051757812
 43
3.17498779296875
 44
209.9944915771484
 45
296.989501953125
 46
0.0
 47
1.314011612960229
 48
57.11889438968495
 49
332.7622275971035
140
354.118894389685
141
542.7622275971034
142
1.0
143
1.031208855547519
 70
  3764
 72
     1
 73
     1
 74
     4
  7
monochrome.ctb
 75
     0
147
0.9697356598717828
148
-57.11889438968495
149
-332.7622275971035
100
AcDbLayout
  1
Model
 70
     1
 71
     0
 10
0.0
 20
0.0
 11
12.0
 21
9.0
 12
0.0
 22
0.0
 32
0.0
 14
0.0
 24
0.0
 34
0.0
 15
0.0
 25
0.0
 35
0.0
146
0.0
 13
0.0
 23
0.0
 33
0.0
 16
1.0
 26
0.0
 36
0.0
 17
0.0
 27
1.0
 37
0.0
 76
     0
330
1F
331
B43F
1001
ACAD_PSEXT
1000
FX DocuWide 2050/2051
1000
FX DocuWide 2050/2051
1000
IP_192.168.2.203
1000

1070
     0
  0
LAYOUT
  5
1E
102
{ACAD_XDICTIONARY
360
15E45
102
}
102
{ACAD_REACTORS
330
1A
102
}
330
1A
100
AcDbPlotSettings
  1

  2
\\ML370\XEROX
  4
A4
  6

 40
3.174999952316284
 41
3.174999952316284
 42
3.175003051757812
 43
3.17498779296875
 44
209.8674926757813
 45
296.6719970703125
 46
0.0
 47
0.0
 48
0.0
 49
0.0
140
0.0
141
0.0
142
1.0
143
1.0
 70
   688
 72
     1
 73
     1
 74
     5
  7
monochrome.ctb
 75
    16
147
1.0
148
0.0
149
0.0
100
AcDbLayout
  1
ﾚｲｱｳﾄ1
 70
     1
 71
     1
 10
-3.17498779296875
 20
-3.174999952316284
 11
293.4970092773438
 21
206.692492723465
 12
0.0
 22
0.0
 32
0.0
 14
1.000000000000000E+20
 24
1.000000000000000E+20
 34
1.000000000000000E+20
 15
-1.000000000000000E+20
 25
-1.000000000000000E+20
 35
-1.000000000000000E+20
146
0.0
 13
0.0
 23
0.0
 33
0.0
 16
1.0
 26
0.0
 36
0.0
 17
0.0
 27
1.0
 37
0.0
 76
     0
330
1B
  0
LAYOUT
  5
26
102
{ACAD_XDICTIONARY
360
15E49
102
}
102
{ACAD_REACTORS
330
1A
102
}
330
1A
100
AcDbPlotSettings
  1

  2
\\ML370\XEROX
  4

  6

 40
0.0
 41
0.0
 42
0.0
 43
0.0
 44
0.0
 45
0.0
 46
0.0
 47
0.0
 48
0.0
 49
0.0
140
0.0
141
0.0
142
1.0
143
1.0
 70
   688
 72
     0
 73
     0
 74
     5
  7
monochrome.ctb
 75
    16
147
1.0
148
0.0
149
0.0
100
AcDbLayout
  1
ﾚｲｱｳﾄ2
 70
     1
 71
     2
 10
0.0
 20
0.0
 11
12.0
 21
9.0
 12
0.0
 22
0.0
 32
0.0
 14
0.0
 24
0.0
 34
0.0
 15
0.0
 25
0.0
 35
0.0
146
0.0
 13
0.0
 23
0.0
 33
0.0
 16
1.0
 26
0.0
 36
0.0
 17
0.0
 27
1.0
 37
0.0
 76
     0
330
23
  0
MATERIAL
  5
B442
102
{ACAD_XDICTIONARY
360
15E5F
102
}
102
{ACAD_REACTORS
330
A91C
102
}
330
A91C
100
AcDbMaterial
  1
ByBlock
  0
MATERIAL
  5
B441
102
{ACAD_XDICTIONARY
360
15E5D
102
}
102
{ACAD_REACTORS
330
A91C
102
}
330
A91C
100
AcDbMaterial
  1
ByLayer
  0
MATERIAL
  5
B443
102
{ACAD_XDICTIONARY
360
15E61
102
}
102
{ACAD_REACTORS
330
A91C
102
}
330
A91C
100
AcDbMaterial
  1
Global
  0
MLINESTYLE
  5
18
102
{ACAD_REACTORS
330
17
102
}
330
17
100
AcDbMlineStyle
  2
STANDARD
 70
     0
  3

 62
   256
 51
90.0
 52
90.0
 71
     2
 49
0.5
 62
   256
  6
BYLAYER
 49
-0.5
 62
   256
  6
BYLAYER
  0
PLOTSETTINGS
  5
AAFE
102
{ACAD_XDICTIONARY
360
15E4D
102
}
102
{ACAD_REACTORS
330
19
102
}
330
19
100
AcDbPlotSettings
  1
01 A3フィット
  2
FX DocuWide 2050/2051
  4
A3
  6
AM_VIEW1
 40
3.174999952316284
 41
3.174999952316284
 42
3.17498779296875
 43
3.17498779296875
 44
296.989501953125
 45
419.9889831542968
 46
0.0
 47
1.295841228961961
 48
214.3704939521119
 49
367.5855324241176
140
275.6727856380065
141
407.629191407817
142
1.0
143
1.445089120606129
 70
  3764
 72
     1
 73
     1
 74
     2
  7
monochrome.ctb
 75
     0
147
0.6919988433519999
148
0.0
149
0.0
1001
ACAD_PSEXT
1000
FX DocuWide 2050/2051
1000
FX DocuWide 2050/2051
1000
IP_192.200.15.252
1000

1070
     0
  0
PLOTSETTINGS
  5
AAFF
102
{ACAD_XDICTIONARY
360
15E4F
102
}
102
{ACAD_REACTORS
330
19
102
}
330
19
100
AcDbPlotSettings
  1
02 A3
  2
FX DocuWide 2050/2051
  4
A3
  6
AM_VIEW1
 40
3.174999952316284
 41
3.174999952316284
 42
3.17498779296875
 43
3.17498779296875
 44
296.989501953125
 45
419.9889831542968
 46
-64.68024289608002
 47
-90.18050229549407
 48
214.3704939521119
 49
367.5855324241176
140
275.6727856380065
141
407.629191407817
142
1.0
143
1.0
 70
  3764
 72
     1
 73
     1
 74
     2
  7
monochrome.ctb
 75
    16
147
1.0
148
0.0
149
0.0
1001
ACAD_PSEXT
1000
FX DocuWide 2050/2051
1000
FX DocuWide 2050/2051
1000
IP_192.200.15.252
1000

1070
     0
  0
PLOTSETTINGS
  5
AB00
102
{ACAD_XDICTIONARY
360
15E51
102
}
102
{ACAD_REACTORS
330
19
102
}
330
19
100
AcDbPlotSettings
  1
03 A2フィット
  2
FX DocuWide 2050/2051
  4
User66
  6
AM_VIEW1
 40
3.174999952316284
 41
3.174999952316284
 42
3.17498779296875
 43
3.17498779296875
 44
419.9889831542968
 45
593.97900390625
 46
0.0
 47
1.312647041252716
 48
214.3704939521119
 49
367.5855324241176
140
275.6727856380065
141
407.629191407817
142
1.0
143
1.015378155013403
 70
  3764
 72
     1
 73
     1
 74
     2
  7
monochrome.ctb
 75
     0
147
0.9848547509738377
148
0.0
149
0.0
1001
ACAD_PSEXT
1000
FX DocuWide 2050/2051
1000
FX DocuWide 2050/2051
1000
IP_192.200.15.252
1000

1070
     0
  0
PLOTSETTINGS
  5
AB01
102
{ACAD_XDICTIONARY
360
15E53
102
}
102
{ACAD_REACTORS
330
19
102
}
330
19
100
AcDbPlotSettings
  1
04 A2
  2
FX DocuWide 2050/2051
  4
User66
  6
AM_VIEW1
 40
3.174999952316284
 41
3.174999952316284
 42
3.17498779296875
 43
3.17498779296875
 44
419.9889831542968
 45
593.97900390625
 46
-3.180502295494079
 47
-3.185491919517517
 48
214.3704939521119
 49
367.5855324241176
140
275.6727856380065
141
407.629191407817
142
1.0
143
1.0
 70
  3764
 72
     1
 73
     1
 74
     2
  7
monochrome.ctb
 75
    16
147
1.0
148
0.0
149
0.0
1001
ACAD_PSEXT
1000
FX DocuWide 2050/2051
1000
FX DocuWide 2050/2051
1000
IP_192.200.15.252
1000

1070
     0
  0
PLOTSETTINGS
  5
AB04
102
{ACAD_XDICTIONARY
360
15E59
102
}
102
{ACAD_REACTORS
330
19
102
}
330
19
100
AcDbPlotSettings
  1
05 A1フィット
  2
FX DocuWide 2050/2051
  4
User139
  6
AM_VIEW1
 40
3.174999952316284
 41
3.174999952316284
 42
3.17498779296875
 43
3.17498779296875
 44
593.97900390625
 45
840.9939575195313
 46
0.0
 47
1.784323459012171
 48
214.3704939521119
 49
367.5855324241176
140
275.6727856380065
141
407.629191407817
142
1.0
143
0.7147366594384652
 70
  3764
 72
     1
 73
     1
 74
     2
  7
monochrome.ctb
 75
     0
147
1.399116705145154
148
0.0
149
0.0
1001
ACAD_PSEXT
1000
FX DocuWide 2050/2051
1000
FX DocuWide 2050/2051
1000
IP_192.200.15.252
1000

1070
     0
  0
PLOTSETTINGS
  5
AB05
102
{ACAD_XDICTIONARY
360
15E5B
102
}
102
{ACAD_REACTORS
330
19
102
}
330
19
100
AcDbPlotSettings
  1
06 A1
  2
FX DocuWide 2050/2051
  4
User139
  6
AM_VIEW1
 40
3.174999952316284
 41
3.174999952316284
 42
3.17498779296875
 43
3.17498779296875
 44
593.97900390625
 45
840.9939575195313
 46
83.81450808048247
 47
120.3219848871231
 48
214.3704939521119
 49
367.5855324241176
140
275.6727856380065
141
407.629191407817
142
1.0
143
1.0
 70
  3764
 72
     1
 73
     1
 74
     2
  7
monochrome.ctb
 75
    16
147
1.0
148
0.0
149
0.0
1001
ACAD_PSEXT
1000
FX DocuWide 2050/2051
1000
FX DocuWide 2050/2051
1000
IP_192.200.15.252
1000

1070
     0
  0
PLOTSETTINGS
  5
AB02
102
{ACAD_XDICTIONARY
360
15E55
102
}
102
{ACAD_REACTORS
330
19
102
}
330
19
100
AcDbPlotSettings
  1
06 A4フィット
  2
FX DocuWide 2050/2051
  4
A4
  6
AM_VIEW1
 40
3.174999952316284
 41
3.174999952316284
 42
3.175003051757812
 43
3.17498779296875
 44
209.9944915771484
 45
296.989501953125
 46
0.0
 47
1.314011612960285
 48
214.3704939521119
 49
367.5855324241176
140
275.6727856380065
141
407.629191407817
142
1.0
143
2.06241771109504
 70
  3764
 72
     1
 73
     1
 74
     2
  7
monochrome.ctb
 75
     0
147
0.4848678299358913
148
0.0
149
0.0
1001
ACAD_PSEXT
1000
FX DocuWide 2050/2051
1000
FX DocuWide 2050/2051
1000
IP_192.200.15.252
1000

1070
     0
  0
PLOTSETTINGS
  5
AB03
102
{ACAD_XDICTIONARY
360
15E57
102
}
102
{ACAD_REACTORS
330
19
102
}
330
19
100
AcDbPlotSettings
  1
07 A4
  2
FX DocuWide 2050/2051
  4
A4
  6
AM_VIEW1
 40
3.174999952316284
 41
3.174999952316284
 42
3.175003051757812
 43
3.17498779296875
 44
209.9944915771484
 45
296.989501953125
 46
-108.1777557134628
 47
-151.68024289608
 48
214.3704939521119
 49
367.5855324241176
140
275.6727856380065
141
407.629191407817
142
1.0
143
1.0
 70
  3764
 72
     1
 73
     1
 74
     2
  7
monochrome.ctb
 75
    16
147
1.0
148
0.0
149
0.0
1001
ACAD_PSEXT
1000
FX DocuWide 2050/2051
1000
FX DocuWide 2050/2051
1000
IP_192.200.15.252
1000

1070
     0
  0
ACDBPLACEHOLDER
  5
F
102
{ACAD_REACTORS
330
E
102
}
330
E
  0
TABLESTYLE
  5
AABA
102
{ACAD_XDICTIONARY
360
15E4B
102
}
102
{ACAD_REACTORS
330
AAB9
102
}
330
AAB9
100
AcDbTableStyle
  3
Standard
 70
     0
 71
     0
 40
1.5
 41
1.5
280
     0
281
     0
  7
STANDARD
140
4.5
170
     2
 62
     0
 63
     7
283
     0
274
    -2
284
     1
 64
     0
275
    -2
285
     1
 65
     0
276
    -2
286
     1
 66
     0
277
    -2
287
     1
 67
     0
278
    -2
288
     1
 68
     0
279
    -2
289
     1
 69
     0
  7
STANDARD
140
6.0
170
     5
 62
     0
 63
     7
283
     0
274
    -2
284
     1
 64
     0
275
    -2
285
     1
 65
     0
276
    -2
286
     1
 66
     0
277
    -2
287
     1
 67
     0
278
    -2
288
     1
 68
     0
279
    -2
289
     1
 69
     0
  7
STANDARD
140
4.5
170
     5
 62
     0
 63
     7
283
     0
274
    -2
284
     1
 64
     0
275
    -2
285
     1
 65
     0
276
    -2
286
     1
 66
     0
277
    -2
287
     1
 67
     0
278
    -2
288
     1
 68
     0
279
    -2
289
     1
 69
     0
  0
VISUALSTYLE
  5
B44A
102
{ACAD_REACTORS
330
B444
102
}
330
B444
100
AcDbVisualStyle
  2
2dWireframe
 70
     4
 71
     0
 72
     2
 73
     0
 90
        0
 40
-0.6
 41
-30.0
 62
     5
 63
     7
 74
     1
 91
        4
 64
     7
 65
   257
 75
     1
175
     1
 42
1.0
 92
        0
 66
   257
 43
1.0
 76
     1
 77
     6
 78
     2
 67
     7
 79
     5
170
     0
171
     0
290
     0
174
     0
 93
        1
 44
0.0
173
     0
291
     0
 45
0.0
1001
ACAD
1000
AcDbSavedByObjectVersion
1070
     0
  0
VISUALSTYLE
  5
B44C
102
{ACAD_REACTORS
330
B444
102
}
330
B444
100
AcDbVisualStyle
  2
3D Hidden
 70
     6
 71
     1
 72
     2
 73
     2
 90
        0
 40
-0.6
 41
-30.0
 62
     5
 63
     7
 74
     2
 91
        2
 64
     7
 65
   257
 75
     2
175
     1
 42
40.0
 92
        0
 66
   257
 43
1.0
 76
     1
 77
     6
 78
     2
 67
     7
 79
     3
170
     0
171
     0
290
     0
174
     0
 93
        1
 44
0.0
173
     0
291
     0
 45
0.0
1001
ACAD
1000
AcDbSavedByObjectVersion
1070
     0
  0
VISUALSTYLE
  5
B44B
102
{ACAD_REACTORS
330
B444
102
}
330
B444
100
AcDbVisualStyle
  2
3dWireframe
 70
     5
 71
     0
 72
     2
 73
     0
 90
        0
 40
-0.6
 41
-30.0
 62
     5
 63
     7
 74
     1
 91
        4
 64
     7
 65
   257
 75
     1
175
     1
 42
1.0
 92
        0
 66
   257
 43
1.0
 76
     1
 77
     6
 78
     2
 67
     7
 79
     5
170
     0
171
     0
290
     0
174
     0
 93
        1
 44
0.0
173
     0
291
     0
 45
0.0
1001
ACAD
1000
AcDbSavedByObjectVersion
1070
     0
  0
VISUALSTYLE
  5
B449
102
{ACAD_REACTORS
330
B444
102
}
330
B444
100
AcDbVisualStyle
  2
Basic
 70
     7
 71
     1
 72
     0
 73
     1
 90
        0
 40
-0.6
 41
-30.0
 62
     5
 63
     7
 74
     0
 91
        4
 64
     7
 65
   257
 75
     1
175
     1
 42
1.0
 92
        8
 66
     7
 43
1.0
 76
     1
 77
     6
 78
     2
 67
     7
 79
     5
170
     0
171
     0
290
     0
174
     0
 93
        1
 44
0.0
173
     0
291
     1
 45
0.0
1001
ACAD
1000
AcDbSavedByObjectVersion
1070
     0
  0
VISUALSTYLE
  5
B450
102
{ACAD_REACTORS
330
B444
102
}
330
B444
100
AcDbVisualStyle
  2
Brighten
 70
    12
 71
     2
 72
     2
 73
     0
 90
        0
 40
-0.6
 41
-30.0
 62
     5
 63
     7
 74
     1
 91
        4
 64
     7
 65
   257
 75
     1
175
     1
 42
1.0
 92
        8
 66
     7
 43
1.0
 76
     1
 77
     6
 78
     2
 67
     7
 79
     5
170
     0
171
     0
290
     0
174
     0
 93
        1
 44
50.0
173
     0
291
     1
 45
0.0
1001
ACAD
1000
AcDbSavedByObjectVersion
1070
     0
  0
VISUALSTYLE
  5
B454
102
{ACAD_REACTORS
330
B444
102
}
330
B444
100
AcDbVisualStyle
  2
ColorChange
 70
    16
 71
     2
 72
     2
 73
     3
 90
        0
 40
-0.6
 41
-30.0
 62
     5
 63
     8
 74
     1
 91
        4
 64
     7
 65
   257
 75
     1
175
     1
 42
1.0
 92
        8
 66
     8
 43
1.0
 76
     1
 77
     6
 78
     2
 67
     7
 79
     5
170
     0
171
     0
290
     0
174
     0
 93
        1
 44
0.0
173
     0
291
     1
 45
0.0
1001
ACAD
1000
AcDbSavedByObjectVersion
1070
     0
  0
VISUALSTYLE
  5
B44D
102
{ACAD_REACTORS
330
B444
102
}
330
B444
100
AcDbVisualStyle
  2
Conceptual
 70
     9
 71
     3
 72
     2
 73
     0
 90
        0
 40
-0.6
 41
-30.0
 62
     5
 63
     7
 74
     2
 91
        2
 64
     7
 65
   257
 75
     1
175
     1
 42
40.0
 92
        8
 66
     7
 43
1.0
 76
     1
 77
     6
 78
     2
 67
     7
 79
     3
170
     0
171
     0
290
     0
174
     0
 93
        1
 44
0.0
173
     0
291
     0
 45
0.0
1001
ACAD
1000
AcDbSavedByObjectVersion
1070
     0
  0
VISUALSTYLE
  5
B44F
102
{ACAD_REACTORS
330
B444
102
}
330
B444
100
AcDbVisualStyle
  2
Dim
 70
    11
 71
     2
 72
     2
 73
     0
 90
        0
 40
-0.6
 41
-30.0
 62
     5
 63
     7
 74
     1
 91
        4
 64
     7
 65
   257
 75
     1
175
     1
 42
1.0
 92
        8
 66
     7
 43
1.0
 76
     1
 77
     6
 78
     2
 67
     7
 79
     5
170
     0
171
     0
290
     0
174
     0
 93
        1
 44
-50.0
173
     0
291
     1
 45
0.0
1001
ACAD
1000
AcDbSavedByObjectVersion
1070
     0
  0
VISUALSTYLE
  5
B453
102
{ACAD_REACTORS
330
B444
102
}
330
B444
100
AcDbVisualStyle
  2
Facepattern
 70
    15
 71
     2
 72
     2
 73
     0
 90
        0
 40
-0.6
 41
-30.0
 62
     5
 63
     7
 74
     1
 91
        4
 64
     7
 65
   257
 75
     1
175
     1
 42
1.0
 92
        8
 66
     7
 43
1.0
 76
     1
 77
     6
 78
     2
 67
     7
 79
     5
170
     0
171
     0
290
     0
174
     0
 93
        1
 44
0.0
173
     0
291
     1
 45
0.0
1001
ACAD
1000
AcDbSavedByObjectVersion
1070
     0
  0
VISUALSTYLE
  5
B445
102
{ACAD_REACTORS
330
B444
102
}
330
B444
100
AcDbVisualStyle
  2
Flat
 70
     0
 71
     2
 72
     1
 73
     1
 90
        2
 40
-0.6
 41
30.0
 62
     5
 63
     7
 74
     0
 91
        4
 64
     7
 65
   257
 75
     1
175
     1
 42
1.0
 92
        8
 66
     7
 43
1.0
 76
     1
 77
     6
 78
     2
 67
     7
 79
     5
170
     0
171
     0
290
     0
174
     0
 93
       13
 44
0.0
173
     0
291
     1
 45
0.0
1001
ACAD
1000
AcDbSavedByObjectVersion
1070
     0
  0
VISUALSTYLE
  5
B446
102
{ACAD_REACTORS
330
B444
102
}
330
B444
100
AcDbVisualStyle
  2
FlatWithEdges
 70
     1
 71
     2
 72
     1
 73
     1
 90
        2
 40
-0.6
 41
30.0
 62
     5
 63
     7
 74
     1
 91
        4
 64
     7
 65
   257
 75
     1
175
     1
 42
1.0
 92
        0
 66
   257
 43
1.0
 76
     1
 77
     6
 78
     2
 67
     7
 79
     5
170
     0
171
     0
290
     0
174
     0
 93
       13
 44
0.0
173
     0
291
     1
 45
0.0
1001
ACAD
1000
AcDbSavedByObjectVersion
1070
     0
  0
VISUALSTYLE
  5
B447
102
{ACAD_REACTORS
330
B444
102
}
330
B444
100
AcDbVisualStyle
  2
Gouraud
 70
     2
 71
     2
 72
     2
 73
     1
 90
        2
 40
-0.6
 41
30.0
 62
     5
 63
     7
 74
     0
 91
        4
 64
     7
 65
   257
 75
     1
175
     1
 42
1.0
 92
        0
 66
     7
 43
1.0
 76
     1
 77
     6
 78
     2
 67
     7
 79
     5
170
     0
171
     0
290
     0
174
     0
 93
       13
 44
0.0
173
     0
291
     1
 45
0.0
1001
ACAD
1000
AcDbSavedByObjectVersion
1070
     0
  0
VISUALSTYLE
  5
B448
102
{ACAD_REACTORS
330
B444
102
}
330
B444
100
AcDbVisualStyle
  2
GouraudWithEdges
 70
     3
 71
     2
 72
     2
 73
     1
 90
        2
 40
-0.6
 41
30.0
 62
     5
 63
     7
 74
     1
 91
        4
 64
     7
 65
   257
 75
     1
175
     1
 42
1.0
 92
        0
 66
   257
 43
1.0
 76
     1
 77
     6
 78
     2
 67
     7
 79
     5
170
     0
171
     0
290
     0
174
     0
 93
       13
 44
0.0
173
     0
291
     1
 45
0.0
1001
ACAD
1000
AcDbSavedByObjectVersion
1070
     0
  0
VISUALSTYLE
  5
B452
102
{ACAD_REACTORS
330
B444
102
}
330
B444
100
AcDbVisualStyle
  2
Linepattern
 70
    14
 71
     2
 72
     2
 73
     0
 90
        0
 40
-0.6
 41
-30.0
 62
     5
 63
     7
 74
     1
 91
        4
 64
     7
 65
   257
 75
     7
175
     7
 42
1.0
 92
        8
 66
     7
 43
1.0
 76
     1
 77
     6
 78
     2
 67
     7
 79
     5
170
     0
171
     0
290
     0
174
     0
 93
        1
 44
0.0
173
     0
291
     1
 45
0.0
1001
ACAD
1000
AcDbSavedByObjectVersion
1070
     0
  0
VISUALSTYLE
  5
B44E
102
{ACAD_REACTORS
330
B444
102
}
330
B444
100
AcDbVisualStyle
  2
Realistic
 70
     8
 71
     2
 72
     2
 73
     0
 90
        0
 40
-0.6
 41
-30.0
 62
     5
 63
     7
 74
     1
 91
        0
 64
     7
 65
   257
 75
     1
175
     1
 42
1.0
 92
        8
 66
     8
 43
1.0
 76
     1
 77
     6
 78
     2
 67
     7
 79
     5
170
     0
171
     0
290
     0
174
     0
 93
       13
 44
0.0
173
     0
291
     0
 45
0.0
1001
ACAD
1000
AcDbSavedByObjectVersion
1070
     0
  0
VISUALSTYLE
  5
B451
102
{ACAD_REACTORS
330
B444
102
}
330
B444
100
AcDbVisualStyle
  2
Thicken
 70
    13
 71
     2
 72
     2
 73
     0
 90
        0
 40
-0.6
 41
-30.0
 62
     5
 63
     7
 74
     1
 91
        4
 64
     7
 65
   257
 75
     1
175
     1
 42
1.0
 92
       12
 66
     7
 43
1.0
 76
     1
 77
     6
 78
     2
 67
     7
 79
     5
170
     0
171
     0
290
     0
174
     0
 93
        1
 44
0.0
173
     0
291
     1
 45
0.0
1001
ACAD
1000
AcDbSavedByObjectVersion
1070
     0
  0
DICTIONARYVAR
  5
AAF3
102
{ACAD_REACTORS
330
34
102
}
330
34
100
DictionaryVariables
280
     0
  1
STANDARD
  0
DICTIONARYVAR
  5
A10C
102
{ACAD_REACTORS
330
34
102
}
330
34
100
DictionaryVariables
280
     0
  1
1
  0
DICTIONARYVAR
  5
AB07
102
{ACAD_REACTORS
330
34
102
}
330
34
100
DictionaryVariables
280
     0
  1
4
  0
DICTIONARYVAR
  5
35
102
{ACAD_REACTORS
330
34
102
}
330
34
100
DictionaryVariables
280
     0
  1
0
  0
DICTIONARYVAR
  5
194C
102
{ACAD_REACTORS
330
34
102
}
330
34
100
DictionaryVariables
280
     0
  1
96
  0
DICTIONARY
  5
7E8
102
{ACAD_REACTORS
330
47
102
}
330
47
100
AcDbDictionary
281
     1
  0
DICTIONARY
  5
4C
102
{ACAD_REACTORS
330
47
102
}
330
47
100
AcDbDictionary
281
     1
  0
XRECORD
  5
A929
102
{ACAD_REACTORS
330
47
102
}
330
47
100
AcDbXrecord
280
     1
 90
-1023410169
  0
XRECORD
  5
15CB2
102
{ACAD_REACTORS
330
15CB1
102
}
330
15CB1
100
AcDbXrecord
280
     1
330
13192
330
B2F0
330
B48D
330
B4E0
330
B55A
330
B55B
330
15B33
330
15B34
330
15B3C
330
15B3D
330
15B45
330
15B46
330
15B4E
330
15B4F
330
15B57
330
15B58
330
15B60
330
15B61
330
15B69
330
15B6A
330
15B72
330
15B73
330
15B7B
330
15B7C
330
15B84
330
15B85
330
15B8D
330
15B8E
  0
XRECORD
  5
3FB7
102
{ACAD_REACTORS
330
3F96
102
}
330
3F96
100
AcDbXrecord
280
     1
 91
        3
330
0
 90
        8
 62
     7
370
    40
331
16
  1
Color_7
330
0
 90
        0
 62
    14
370
    -3
331
16
  1
Color_14
330
0
 90
        8
 62
     7
370
    20
331
16
  1
Color_7
330
6D1
 90
        0
 62
     7
370
    -3
331
16
  1
Color_7
330
0
 90
        8
 62
     7
370
    50
331
16
  1
Color_7
330
0
 90
        8
 62
     2
370
    35
331
16
  1
Color_2
330
0
 90
        8
 62
     7
370
    -3
331
16
  1
Color_7
330
10
 90
        8
 62
     7
370
    -3
331
16
  1
Color_7
  0
DICTIONARY
  5
15E47
330
22
100
AcDbDictionary
280
     1
281
     1
  3
ACAD_XREC_ROUNDTRIP
360
15E48
  0
DICTIONARY
  5
15E45
330
1E
100
AcDbDictionary
280
     1
281
     1
  3
ACAD_XREC_ROUNDTRIP
360
15E46
  0
DICTIONARY
  5
15E49
330
26
100
AcDbDictionary
280
     1
281
     1
  3
ACAD_XREC_ROUNDTRIP
360
15E4A
  0
DICTIONARY
  5
15E5F
330
B442
100
AcDbDictionary
280
     1
281
     1
  3
ACAD_XREC_ROUNDTRIP
360
15E60
  0
DICTIONARY
  5
15E5D
330
B441
100
AcDbDictionary
280
     1
281
     1
  3
ACAD_XREC_ROUNDTRIP
360
15E5E
  0
DICTIONARY
  5
15E61
330
B443
100
AcDbDictionary
280
     1
281
     1
  3
ACAD_XREC_ROUNDTRIP
360
15E62
  0
DICTIONARY
  5
15E4D
330
AAFE
100
AcDbDictionary
280
     1
281
     1
  3
ACAD_XREC_ROUNDTRIP
360
15E4E
  0
DICTIONARY
  5
15E4F
330
AAFF
100
AcDbDictionary
280
     1
281
     1
  3
ACAD_XREC_ROUNDTRIP
360
15E50
  0
DICTIONARY
  5
15E51
330
AB00
100
AcDbDictionary
280
     1
281
     1
  3
ACAD_XREC_ROUNDTRIP
360
15E52
  0
DICTIONARY
  5
15E53
330
AB01
100
AcDbDictionary
280
     1
281
     1
  3
ACAD_XREC_ROUNDTRIP
360
15E54
  0
DICTIONARY
  5
15E59
330
AB04
100
AcDbDictionary
280
     1
281
     1
  3
ACAD_XREC_ROUNDTRIP
360
15E5A
  0
DICTIONARY
  5
15E5B
330
AB05
100
AcDbDictionary
280
     1
281
     1
  3
ACAD_XREC_ROUNDTRIP
360
15E5C
  0
DICTIONARY
  5
15E55
330
AB02
100
AcDbDictionary
280
     1
281
     1
  3
ACAD_XREC_ROUNDTRIP
360
15E56
  0
DICTIONARY
  5
15E57
330
AB03
100
AcDbDictionary
280
     1
281
     1
  3
ACAD_XREC_ROUNDTRIP
360
15E58
  0
DICTIONARY
  5
15E4B
330
AABA
100
AcDbDictionary
280
     1
281
     1
  3
ACAD_XREC_ROUNDTRIP
360
15E4C
  0
XRECORD
  5
15E48
102
{ACAD_REACTORS
330
15E47
102
}
330
15E47
100
AcDbXrecord
280
     1
102
SHADEPLOT
 70
     1
102
SHADEPLOTRESLEVEL
 70
     2
102
SHADEPLOTCUSTOMDPI
 70
   300
  0
XRECORD
  5
15E46
102
{ACAD_REACTORS
330
15E45
102
}
330
15E45
100
AcDbXrecord
280
     1
102
SHADEPLOT
 70
     0
102
SHADEPLOTRESLEVEL
 70
     2
102
SHADEPLOTCUSTOMDPI
 70
   300
  0
XRECORD
  5
15E4A
102
{ACAD_REACTORS
330
15E49
102
}
330
15E49
100
AcDbXrecord
280
     1
102
SHADEPLOT
 70
     0
102
SHADEPLOTRESLEVEL
 70
     2
102
SHADEPLOTCUSTOMDPI
 70
   300
  0
XRECORD
  5
15E60
102
{ACAD_REACTORS
330
15E5F
102
}
330
15E5F
100
AcDbXrecord
280
     1
102
MATERIAL
148
0.0
149
0.0
149
0.0
 93
        0
 94
       63
282
     0
 72
     1
 77
     1
171
     1
175
     1
179
     1
273
     0
  0
XRECORD
  5
15E5E
102
{ACAD_REACTORS
330
15E5D
102
}
330
15E5D
100
AcDbXrecord
280
     1
102
MATERIAL
148
0.0
149
0.0
149
0.0
 93
        0
 94
       63
282
     0
 72
     1
 77
     1
171
     1
175
     1
179
     1
273
     0
  0
XRECORD
  5
15E62
102
{ACAD_REACTORS
330
15E61
102
}
330
15E61
100
AcDbXrecord
280
     1
102
MATERIAL
148
0.0
149
0.0
149
0.0
 93
        0
 94
       63
282
     0
 72
     1
 77
     1
171
     1
175
     1
179
     1
273
     0
  0
XRECORD
  5
15E4E
102
{ACAD_REACTORS
330
15E4D
102
}
330
15E4D
100
AcDbXrecord
280
     1
102
SHADEPLOT
 70
     0
102
SHADEPLOTRESLEVEL
 70
     2
102
SHADEPLOTCUSTOMDPI
 70
   200
  0
XRECORD
  5
15E50
102
{ACAD_REACTORS
330
15E4F
102
}
330
15E4F
100
AcDbXrecord
280
     1
102
SHADEPLOT
 70
     0
102
SHADEPLOTRESLEVEL
 70
     2
102
SHADEPLOTCUSTOMDPI
 70
   200
  0
XRECORD
  5
15E52
102
{ACAD_REACTORS
330
15E51
102
}
330
15E51
100
AcDbXrecord
280
     1
102
SHADEPLOT
 70
     0
102
SHADEPLOTRESLEVEL
 70
     2
102
SHADEPLOTCUSTOMDPI
 70
   200
  0
XRECORD
  5
15E54
102
{ACAD_REACTORS
330
15E53
102
}
330
15E53
100
AcDbXrecord
280
     1
102
SHADEPLOT
 70
     0
102
SHADEPLOTRESLEVEL
 70
     2
102
SHADEPLOTCUSTOMDPI
 70
   200
  0
XRECORD
  5
15E5A
102
{ACAD_REACTORS
330
15E59
102
}
330
15E59
100
AcDbXrecord
280
     1
102
SHADEPLOT
 70
     0
102
SHADEPLOTRESLEVEL
 70
     2
102
SHADEPLOTCUSTOMDPI
 70
   200
  0
XRECORD
  5
15E5C
102
{ACAD_REACTORS
330
15E5B
102
}
330
15E5B
100
AcDbXrecord
280
     1
102
SHADEPLOT
 70
     0
102
SHADEPLOTRESLEVEL
 70
     2
102
SHADEPLOTCUSTOMDPI
 70
   200
  0
XRECORD
  5
15E56
102
{ACAD_REACTORS
330
15E55
102
}
330
15E55
100
AcDbXrecord
280
     1
102
SHADEPLOT
 70
     0
102
SHADEPLOTRESLEVEL
 70
     2
102
SHADEPLOTCUSTOMDPI
 70
   200
  0
XRECORD
  5
15E58
102
{ACAD_REACTORS
330
15E57
102
}
330
15E57
100
AcDbXrecord
280
     1
102
SHADEPLOT
 70
     0
102
SHADEPLOTRESLEVEL
 70
     2
102
SHADEPLOTCUSTOMDPI
 70
   200
  0
XRECORD
  5
15E4C
102
{ACAD_REACTORS
330
15E4B
102
}
330
15E4B
100
AcDbXrecord
280
     1
102
ACAD_ROUNDTRIP_PRE2007_TABLESTYLE
 90
        4
 91
        0
  1

 92
        4
 93
        0
  2

 94
        4
 95
        0
  3

  0
ENDSEC
  0
EOF
