  0
SECTION
  2
HEADER
  9
$ACADVER
  1
AC1015
  9
$ACADMAINTVER
 70
    20
  9
$DWGCODEPAGE
  3
ANSI_932
  9
$INSBASE
 10
0.0
 20
0.0
 30
0.0
  9
$EXTMIN
 10
-4.306158511970238
 20
-1036.42126927175
 30
-0.0015258207003583
  9
$EXTMAX
 10
415.70760597925
 20
-739.3729843435472
 30
0.0000000349246037
  9
$LIMMIN
 10
0.0
 20
0.0
  9
$LIMMAX
 10
420.0
 20
297.0
  9
$ORTHOMODE
 70
     0
  9
$REGENMODE
 70
     1
  9
$FILLMODE
 70
     1
  9
$QTEXTMODE
 70
     0
  9
$MIRRTEXT
 70
     0
  9
$LTSCALE
 40
1.0
  9
$ATTMODE
 70
     1
  9
$TEXTSIZE
 40
3.2
  9
$TRACEWID
 40
1.0
  9
$TEXTSTYLE
  7
STANDARD
  9
$CLAYER
  8
AM_0
  9
$CELTYPE
  6
ByLayer
  9
$CECOLOR
 62
   256
  9
$CELTSCALE
 40
10.0
  9
$DISPSILH
 70
     0
  9
$DIMSCALE
 40
1.0
  9
$DIMASZ
 40
1.0
  9
$DIMEXO
 40
1.0
  9
$DIMDLI
 40
10.0
  9
$DIMRND
 40
0.0
  9
$DIMDLE
 40
0.0
  9
$DIMEXE
 40
1.0
  9
$DIMTP
 40
0.3
  9
$DIMTM
 40
0.0
  9
$DIMTXT
 40
3.5
  9
$DIMCEN
 40
0.0
  9
$DIMTSZ
 40
0.0
  9
$DIMTOL
 70
     0
  9
$DIMLIM
 70
     0
  9
$DIMTIH
 70
     0
  9
$DIMTOH
 70
     0
  9
$DIMSE1
 70
     0
  9
$DIMSE2
 70
     0
  9
$DIMTAD
 70
     1
  9
$DIMZIN
 70
     8
  9
$DIMBLK
  1

  9
$DIMASO
 70
     1
  9
$DIMSHO
 70
     1
  9
$DIMPOST
  1

  9
$DIMAPOST
  1
"
  9
$DIMALT
 70
     0
  9
$DIMALTD
 70
     2
  9
$DIMALTF
 40
0.0393701
  9
$DIMLFAC
 40
1.0
  9
$DIMTOFL
 70
     1
  9
$DIMTVP
 40
0.0
  9
$DIMTIX
 70
     0
  9
$DIMSOXD
 70
     0
  9
$DIMSAH
 70
     0
  9
$DIMBLK1
  1

  9
$DIMBLK2
  1

  9
$DIMSTYLE
  2
SYS
  9
$DIMCLRD
 70
   256
  9
$DIMCLRE
 70
   256
  9
$DIMCLRT
 70
     7
  9
$DIMTFAC
 40
0.71
  9
$DIMGAP
 40
1.5
  9
$DIMJUST
 70
     0
  9
$DIMSD1
 70
     0
  9
$DIMSD2
 70
     0
  9
$DIMTOLJ
 70
     0
  9
$DIMTZIN
 70
     8
  9
$DIMALTZ
 70
     0
  9
$DIMALTTZ
 70
     0
  9
$DIMUPT
 70
     0
  9
$DIMDEC
 70
     1
  9
$DIMTDEC
 70
     2
  9
$DIMALTU
 70
     2
  9
$DIMALTTD
 70
     2
  9
$DIMTXSTY
  7
STANDARD
  9
$DIMAUNIT
 70
     0
  9
$DIMADEC
 70
     0
  9
$DIMALTRND
 40
0.0
  9
$DIMAZIN
 70
     2
  9
$DIMDSEP
 70
    46
  9
$DIMATFIT
 70
     3
  9
$DIMFRAC
 70
     0
  9
$DIMLDRBLK
  1

  9
$DIMLUNIT
 70
     2
  9
$DIMLWD
 70
    -1
  9
$DIMLWE
 70
    -1
  9
$DIMTMOVE
 70
     0
  9
$LUNITS
 70
     2
  9
$LUPREC
 70
     2
  9
$SKETCHINC
 40
1.0
  9
$FILLETRAD
 40
0.0
  9
$AUNITS
 70
     0
  9
$AUPREC
 70
     0
  9
$MENU
  1
.
  9
$ELEVATION
 40
0.0
  9
$PELEVATION
 40
0.0
  9
$THICKNESS
 40
0.0
  9
$LIMCHECK
 70
     0
  9
$CHAMFERA
 40
0.0
  9
$CHAMFERB
 40
0.0
  9
$CHAMFERC
 40
20.0
  9
$CHAMFERD
 40
0.0
  9
$SKPOLY
 70
     0
  9
$TDCREATE
 40
2454123.447246817
  9
$TDUCREATE
 40
2454123.072246817
  9
$TDUPDATE
 40
2454886.441467187
  9
$TDUUPDATE
 40
2454886.066467187
  9
$TDINDWG
 40
0.5340919792
  9
$TDUSRTIMER
 40
0.5340919792
  9
$USRTIMER
 70
     1
  9
$ANGBASE
 50
0.0
  9
$ANGDIR
 70
     0
  9
$PDMODE
 70
     0
  9
$PDSIZE
 40
-3.0
  9
$PLINEWID
 40
0.0
  9
$SPLFRAME
 70
     0
  9
$SPLINETYPE
 70
     6
  9
$SPLINESEGS
 70
     8
  9
$HANDSEED
  5
15E5C
  9
$SURFTAB1
 70
     6
  9
$SURFTAB2
 70
     6
  9
$SURFTYPE
 70
     6
  9
$SURFU
 70
     6
  9
$SURFV
 70
     6
  9
$UCSBASE
  2

  9
$UCSNAME
  2

  9
$UCSORG
 10
0.0
 20
0.0
 30
0.0
  9
$UCSXDIR
 10
1.0
 20
0.0
 30
0.0
  9
$UCSYDIR
 10
0.0
 20
1.0
 30
0.0
  9
$UCSORTHOREF
  2

  9
$UCSORTHOVIEW
 70
     0
  9
$UCSORGTOP
 10
0.0
 20
0.0
 30
0.0
  9
$UCSORGBOTTOM
 10
0.0
 20
0.0
 30
0.0
  9
$UCSORGLEFT
 10
0.0
 20
0.0
 30
0.0
  9
$UCSORGRIGHT
 10
0.0
 20
0.0
 30
0.0
  9
$UCSORGFRONT
 10
0.0
 20
0.0
 30
0.0
  9
$UCSORGBACK
 10
0.0
 20
0.0
 30
0.0
  9
$PUCSBASE
  2

  9
$PUCSNAME
  2

  9
$PUCSORG
 10
0.0
 20
0.0
 30
0.0
  9
$PUCSXDIR
 10
1.0
 20
0.0
 30
0.0
  9
$PUCSYDIR
 10
0.0
 20
1.0
 30
0.0
  9
$PUCSORTHOREF
  2

  9
$PUCSORTHOVIEW
 70
     0
  9
$PUCSORGTOP
 10
0.0
 20
0.0
 30
0.0
  9
$PUCSORGBOTTOM
 10
0.0
 20
0.0
 30
0.0
  9
$PUCSORGLEFT
 10
0.0
 20
0.0
 30
0.0
  9
$PUCSORGRIGHT
 10
0.0
 20
0.0
 30
0.0
  9
$PUCSORGFRONT
 10
0.0
 20
0.0
 30
0.0
  9
$PUCSORGBACK
 10
0.0
 20
0.0
 30
0.0
  9
$USERI1
 70
     0
  9
$USERI2
 70
     0
  9
$USERI3
 70
     0
  9
$USERI4
 70
     0
  9
$USERI5
 70
     0
  9
$USERR1
 40
0.0
  9
$USERR2
 40
0.0
  9
$USERR3
 40
0.0
  9
$USERR4
 40
0.0
  9
$USERR5
 40
0.0
  9
$WORLDVIEW
 70
     1
  9
$SHADEDGE
 70
     3
  9
$SHADEDIF
 70
    70
  9
$TILEMODE
 70
     1
  9
$MAXACTVP
 70
    64
  9
$PINSBASE
 10
0.0
 20
0.0
 30
0.0
  9
$PLIMCHECK
 70
     0
  9
$PEXTMIN
 10
1.000000000000000E+20
 20
1.000000000000000E+20
 30
1.000000000000000E+20
  9
$PEXTMAX
 10
-1.000000000000000E+20
 20
-1.000000000000000E+20
 30
-1.000000000000000E+20
  9
$PLIMMIN
 10
-3.17498779296875
 20
-3.174999952316284
  9
$PLIMMAX
 10
293.4970092773438
 20
206.692492723465
  9
$UNITMODE
 70
     0
  9
$VISRETAIN
 70
     1
  9
$PLINEGEN
 70
     0
  9
$PSLTSCALE
 70
     1
  9
$TREEDEPTH
 70
  3020
  9
$CMLSTYLE
  2
Standard
  9
$CMLJUST
 70
     0
  9
$CMLSCALE
 40
20.0
  9
$PROXYGRAPHICS
 70
     1
  9
$MEASUREMENT
 70
     1
  9
$CELWEIGHT
370
    -1
  9
$ENDCAPS
280
     0
  9
$JOINSTYLE
280
     0
  9
$LWDISPLAY
290
     0
  9
$INSUNITS
 70
     4
  9
$HYPERLINKBASE
  1

  9
$STYLESHEET
  1
monochrome.ctb
  9
$XEDIT
290
     1
  9
$CEPSNTYPE
380
     0
  9
$PSTYLEMODE
290
     1
  9
$FINGERPRINTGUID
  2
{85A85AB9-09C0-4C05-9FB8-B4F7807E4A17}
  9
$VERSIONGUID
  2
{31E467A2-C788-4113-A0A1-353FDA6D005E}
  9
$EXTNAMES
290
     1
  9
$PSVPSCALE
 40
0.0
  9
$OLESTARTUP
290
     0
  0
ENDSEC
  0
SECTION
  2
CLASSES
  0
CLASS
  1
ACDBDICTIONARYWDFLT
  2
AcDbDictionaryWithDefault
  3
ObjectDBX Classes
 90
        0
280
     0
281
     0
  0
CLASS
  1
ACDBPLACEHOLDER
  2
AcDbPlaceHolder
  3
ObjectDBX Classes
 90
        0
280
     0
281
     0
  0
CLASS
  1
LAYOUT
  2
AcDbLayout
  3
ObjectDBX Classes
 90
        0
280
     0
281
     0
  0
CLASS
  1
AMGSETTINGSOBJ
  2
AmgSettingsObj
  3
"AcadM|Product Description: AutoCAD Mechanical|Company: Autodesk"
 90
        0
280
     0
281
     0
  0
CLASS
  1
ACME_DOCUMENT
  2
AcMeDbDoc
  3
AcMeServices
 90
        0
280
     0
281
     0
  0
CLASS
  1
ACMESCOPE
  2
AcMeScope
  3
AcMeServices
 90
        0
280
     0
281
     0
  0
CLASS
  1
ACMECOMMANDHISTORY
  2
AcMeCommandHistory
  3
AcMeServices
 90
        0
280
     0
281
     0
  0
CLASS
  1
DICTIONARYVAR
  2
AcDbDictionaryVar
  3
ObjectDBX Classes
 90
        0
280
     0
281
     0
  0
CLASS
  1
ACIMSYSVARMAN
  2
AcImSysVarManager
  3
AcMeServices
 90
        0
280
     0
281
     0
  0
CLASS
  1
ACIMREALSYSVAR
  2
AcImRealSysVar
  3
AcMeServices
 90
        0
280
     0
281
     0
  0
CLASS
  1
ACIMINTSYSVAR
  2
AcImIntSysVar
  3
AcMeServices
 90
        0
280
     0
281
     0
  0
CLASS
  1
ACMEDRAWINGMAN
  2
AcMeDrawingMan
  3
AcMeServices
 90
        0
280
     0
281
     0
  0
CLASS
  1
ACMEVIEW
  2
AcMeView
  3
AcMeServices
 90
        0
280
     0
281
     0
  0
CLASS
  1
ACDBENTITYCACHE
  2
AcMeEntityCache
  3
AcMeServices
 90
        0
280
     0
281
     0
  0
CLASS
  1
GSMANAGER
  2
AcMeGSManager
  3
AcMeServices
 90
        0
280
     0
281
     0
  0
CLASS
  1
AMDTINTERNALREACTOR
  2
AmdtInternalReactor
  3
AcMeServices
 90
        0
280
     0
281
     0
  0
CLASS
  1
ACMESTATEMGR
  2
AcMeStateMgr
  3
AcMeServices
 90
        0
280
     0
281
     0
  0
CLASS
  1
ACGREFMASTER
  2
AcGrefMaster
  3
AcAttribServices
 90
        0
280
     0
281
     0
  0
CLASS
  1
ACME_DATABASE
  2
AcMeDbDatabase
  3
AcMeServices
 90
        0
280
     0
281
     0
  0
CLASS
  1
ACRFINSADJUSTERMGR
  2
AcRfInsAdjusterMgr
  3
AcMeServices
 90
        0
280
     0
281
     0
  0
CLASS
  1
ACGREFACADMASTER
  2
AcGrefacadMaster
  3
AcGrefServices
 90
        0
280
     0
281
     0
  0
CLASS
  1
AMIMASTER
  2
AmiMaster
  3
AmiServices
 90
        0
280
     0
281
     0
  0
CLASS
  1
ACMDATADICTIONARY
  2
AcmDataDictionary
  3
"AcmSymBB|Product Description: AutoCAD Mechanical|Company: Autodesk"
 90
        0
280
     0
281
     0
  0
CLASS
  1
ACMDATAENTRYBLOCK
  2
AcmDataEntryBlock
  3
"AcmSymBB|Product Description: AutoCAD Mechanical|Company: Autodesk"
 90
    32768
280
     0
281
     0
  0
CLASS
  1
ACIMSTRSYSVAR
  2
AcImStrSysVar
  3
AcMeServices
 90
        0
280
     0
281
     0
  0
CLASS
  1
ACMSTANDARDISO
  2
AcmStandardISO
  3
"Amdt_StdImp|Product Description: AutoCAD Mechanical|Company: Autodesk"
 90
        0
280
     0
281
     0
  0
CLASS
  1
AMGOBJPROPCFG
  2
AmgObjPropCfg
  3
"AmgLay|Product Description: AutoCAD Mechanical|Company: Autodesk"
 90
        1
280
     0
281
     0
  0
CLASS
  1
AMDTEDGESTANDARDISO
  2
AmdtEdgeStdISO
  3
"Amdt_StdImp|Product Description: AutoCAD Mechanical|Company: Autodesk"
 90
    32768
280
     0
281
     0
  0
CLASS
  1
ACMSURFSTANDARDISO
  2
AcmSurfTextStdISO
  3
"Amdt_StdImp|Product Description: AutoCAD Mechanical|Company: Autodesk"
 90
        0
280
     0
281
     0
  0
CLASS
  1
ACMFCFSTANDARDISO
  2
AcmFCFStdISO
  3
"Amdt_StdImp|Product Description: AutoCAD Mechanical|Company: Autodesk"
 90
        0
280
     0
281
     0
  0
CLASS
  1
ACMWELDSTANDARDISO
  2
AcmWeldingStdISO
  3
"Amdt_StdImp|Product Description: AutoCAD Mechanical|Company: Autodesk"
 90
        0
280
     0
281
     0
  0
CLASS
  1
ACMIDSTANDARDISO
  2
AcmIdStdISO
  3
"Amdt_StdImp|Product Description: AutoCAD Mechanical|Company: Autodesk"
 90
        0
280
     0
281
     0
  0
CLASS
  1
ACMDATUMSTANDARDISO
  2
AcmDatumStdISO
  3
"Amdt_StdImp|Product Description: AutoCAD Mechanical|Company: Autodesk"
 90
        0
280
     0
281
     0
  0
CLASS
  1
ACMBOMSTANDARDISO
  2
AcmBOMStdISO
  3
"Amdt_StdImp|Product Description: AutoCAD Mechanical|Company: Autodesk"
 90
        0
280
     0
281
     0
  0
CLASS
  1
ACMDETAILSTANDARDISO
  2
AmdtDetailSymStdISO
  3
"Amdt_StdImp|Product Description: AutoCAD Mechanical|Company: Autodesk"
 90
        0
280
     0
281
     0
  0
CLASS
  1
ACMSECTIONSTANDARDISO
  2
AmdtSectionSymStdISO
  3
"Amdt_StdImp|Product Description: AutoCAD Mechanical|Company: Autodesk"
 90
        0
280
     0
281
     0
  0
CLASS
  1
ACMCENTERLINESTANDARDISO
  2
AmdtCenterLineStdISO
  3
"Amdt_StdImp|Product Description: AutoCAD Mechanical|Company: Autodesk"
 90
        0
280
     0
281
     0
  0
CLASS
  1
ACAMGLAYSTD
  2
AcAmgLayStd
  3
"AmgLay|Product Description: AutoCAD Mechanical|Company: Autodesk"
 90
        0
280
     0
281
     0
  0
CLASS
  1
ACAMGDIMSTD
  2
AcAmgDimStd
  3
"AmgDim|Product Description: AutoCAD Mechanical|Company: Autodesk"
 90
        0
280
     0
281
     0
  0
CLASS
  1
ACAMGTITLESTD
  2
AcAmgTitleStd
  3
"AmgTitle|Product Description: AutoCAD Mechanical|Company: Autodesk"
 90
        0
280
     0
281
     0
  0
CLASS
  1
ACAMGFILTERDAT
  2
AcAmgFilterDat
  3
"AcadM|Product Description: AutoCAD Mechanical|Company: Autodesk"
 90
    32768
280
     0
281
     0
  0
CLASS
  1
LAYER_INDEX
  2
AcDbLayerIndex
  3
ObjectDBX Classes
 90
    32768
280
     0
281
     0
  0
CLASS
  1
IDBUFFER
  2
AcDbIdBuffer
  3
ObjectDBX Classes
 90
    32768
280
     0
281
     0
  0
CLASS
  1
PLOTSETTINGS
  2
AcDbPlotSettings
  3
ObjectDBX Classes
 90
        0
280
     0
281
     0
  0
CLASS
  1
AMDTFORMULAUPDATEDISPATCHER
  2
AmdtFormulaUpdateDispatcher
  3
AcMeServices
 90
    32768
280
     0
281
     0
  0
CLASS
  1
ACMSTANDARDANSI
  2
AcmStandardANSI
  3
"Amdt_StdImp|Product Description: AutoCAD Mechanical|Company: Autodesk"
 90
    32768
280
     0
281
     0
  0
CLASS
  1
ACMSURFSTANDARDANSI
  2
AcmSurfTextStdANSI
  3
"Amdt_StdImp|Product Description: AutoCAD Mechanical|Company: Autodesk"
 90
    32768
280
     0
281
     0
  0
CLASS
  1
ACMFCFSTANDARDANSI
  2
AcmFCFStdANSI
  3
"Amdt_StdImp|Product Description: AutoCAD Mechanical|Company: Autodesk"
 90
    32768
280
     0
281
     0
  0
CLASS
  1
ACMWELDSTANDARDANSI
  2
AcmWeldingStdANSI
  3
"Amdt_StdImp|Product Description: AutoCAD Mechanical|Company: Autodesk"
 90
    32768
280
     0
281
     0
  0
CLASS
  1
ACMIDSTANDARDANSI
  2
AcmIdStdANSI
  3
"Amdt_StdImp|Product Description: AutoCAD Mechanical|Company: Autodesk"
 90
    32768
280
     0
281
     0
  0
CLASS
  1
ACMDATUMSTANDARDANSI
  2
AcmDatumStdANSI
  3
"Amdt_StdImp|Product Description: AutoCAD Mechanical|Company: Autodesk"
 90
    32768
280
     0
281
     0
  0
CLASS
  1
ACMBOMSTANDARDANSI
  2
AcmBOMStdANSI
  3
"Amdt_StdImp|Product Description: AutoCAD Mechanical|Company: Autodesk"
 90
    32768
280
     0
281
     0
  0
CLASS
  1
ACMDETAILSTANDARDANSI
  2
AmdtDetailSymStdANSI
  3
"Amdt_StdImp|Product Description: AutoCAD Mechanical|Company: Autodesk"
 90
    32768
280
     0
281
     0
  0
CLASS
  1
ACMSECTIONSTANDARDANSI
  2
AmdtSectionSymStdANSI
  3
"Amdt_StdImp|Product Description: AutoCAD Mechanical|Company: Autodesk"
 90
    32768
280
     0
281
     0
  0
CLASS
  1
ACMCENTERLINESTANDARDANSI
  2
AmdtCenterLineStdANSI
  3
"Amdt_StdImp|Product Description: AutoCAD Mechanical|Company: Autodesk"
 90
    32768
280
     0
281
     0
  0
CLASS
  1
ACMBOM
  2
AcmBom
  3
"AcmSymBB|Product Description: AutoCAD Mechanical|Company: Autodesk"
 90
    32768
280
     0
281
     0
  0
CLASS
  1
ACMDATAENTRYPART
  2
AcmDataEntryPart
  3
"AcmSymBB|Product Description: AutoCAD Mechanical|Company: Autodesk"
 90
    32768
280
     0
281
     0
  0
CLASS
  1
ACMPARTREF
  2
AcmPartRef
  3
"AcmSymBB|Product Description: AutoCAD Mechanical|Company: Autodesk"
 90
    35839
280
     0
281
     1
  0
CLASS
  1
ACDBCIRCARCRES
  2
AcDbCircArcRes
  3
AcGrefServices
 90
    32768
280
     0
281
     0
  0
CLASS
  1
ACMBOMROW
  2
AcmBomRow
  3
"AcmSymBB|Product Description: AutoCAD Mechanical|Company: Autodesk"
 90
    32768
280
     0
281
     0
  0
CLASS
  1
ACMBALLOON
  2
AcmBalloon
  3
"AcmSymBB|Product Description: AutoCAD Mechanical|Company: Autodesk"
 90
    35839
280
     0
281
     1
  0
CLASS
  1
AMDTNOTE
  2
AmdtNote
  3
"AcmSymBB|Product Description: AutoCAD Mechanical|Company: Autodesk"
 90
    35839
280
     0
281
     1
  0
CLASS
  1
STDPART2D
  2
AmgStdPart
  3
"g3vace|Class: AmgStdPart|Product Description: AutoCAD Mechanical|Company: Autodesk"
 90
    35839
280
     0
281
     1
  0
CLASS
  1
ACDBSTDPARTRES_LINE
  2
AcDbStdPartRes_Line
  3
"g3vace|Class: AcDbStdPartRes_Line|Product Description: AutoCAD Mechanical|Company: Autodesk"
 90
    32768
280
     0
281
     0
  0
CLASS
  1
ACMDATAENTRY
  2
AcmDataEntry
  3
"AcmSymBB|Product Description: AutoCAD Mechanical|Company: Autodesk"
 90
    32768
280
     0
281
     0
  0
CLASS
  1
ACDBOPPOLYLINERES
  2
AcDbOpPolylineRes
  3
AcGrefServices
 90
    32768
280
     0
281
     0
  0
CLASS
  1
ACMPARTLIST
  2
AcmPartList
  3
"AcmSymBB|Product Description: AutoCAD Mechanical|Company: Autodesk"
 90
    35839
280
     0
281
     1
  0
CLASS
  1
ACDBLINERES
  2
AcDbLineRes
  3
AcGrefServices
 90
    32768
280
     0
281
     0
  0
CLASS
  1
ACRFINSADJ
  2
AcRfInsAdjuster
  3
AcMeServices
 90
    32768
280
     0
281
     0
  0
CLASS
  1
AM_DRAWING_MGR
  2
AcDmDwgMgr
  3
AcMechDwgViewMgmt
 90
        0
280
     0
281
     0
  0
CLASS
  1
AM_DWG_DOCUMENT
  2
AcDmDwgDocument
  3
AcMechDwgViewMgmt
 90
        0
280
     0
281
     0
  0
CLASS
  1
AM_DWG_SHEET
  2
AcDmSheet
  3
AcMechDwgViewMgmt
 90
        0
280
     0
281
     0
  0
CLASS
  1
AM_VIEWDIMPARMAP
  2
AcDmViewDimParMap
  3
AcMechDwgViewMgmt
 90
        0
280
     0
281
     0
  0
CLASS
  1
AM_DWGMGR_NAME
  2
AcDmDwgMgrName
  3
AcMechDwgViewMgmt
 90
        0
280
     0
281
     0
  0
CLASS
  1
AMDTMENUSTATEMGR
  2
AmdtMenuStateMgr
  3
McadcomServices
 90
        0
280
     0
281
     0
  0
CLASS
  1
AMDTMCOMMENUSTATE
  2
AmdtMcomMenuState
  3
McadcomServices
 90
        0
280
     0
281
     0
  0
CLASS
  1
ASAPP
  2
AcAsAppObject
  3
AutoSurfServices
 90
        0
280
     0
281
     0
  0
CLASS
  1
IM_STATIC_MAN
  2
AcImStaticVarManager
  3
AcMeServices
 90
    32768
280
     0
281
     0
  0
CLASS
  1
ACIMDBLSTATICVAR
  2
AcImDblStaticVar
  3
AcMeServices
 90
    32768
280
     0
281
     0
  0
CLASS
  1
ACIMSTRSTATICVAR
  2
AcImStrStaticVar
  3
AcMeServices
 90
    32768
280
     0
281
     0
  0
CLASS
  1
ACIMINTSTATICVAR
  2
AcImIntStaticVar
  3
AcMeServices
 90
    32768
280
     0
281
     0
  0
CLASS
  1
ACASGREFMASTER
  2
AcAsGrefMaster
  3
AutoSurfResolverServices
 90
        0
280
     0
281
     0
  0
CLASS
  1
ACADGREFMODULE
  2
AcAdGrefModule
  3
AdGrefServices
 90
        0
280
     0
281
     0
  0
CLASS
  1
AMDTMAPISURFMOUDULE
  2
AmdtMApiSurfModule
  3
MApiSurfServices
 90
        0
280
     0
281
     0
  0
CLASS
  1
MAPIAMMOUDLE
  2
MApiAmModule
  3
MApiAmServices
 90
        0
280
     0
281
     0
  0
CLASS
  1
AMDTADMENUSTATE
  2
AmdtAdMenuState
  3
DesignerServices
 90
        0
280
     0
281
     0
  0
CLASS
  1
ADAPPL
  2
AcAdAppl
  3
DesignerServices
 90
        0
280
     0
281
     0
  0
CLASS
  1
DEPMGR
  2
AcAdDepMgr
  3
DesignerServices
 90
        0
280
     0
281
     0
  0
CLASS
  1
PARAMMGR
  2
AcAdParamMgr
  3
DesignerServices
 90
        0
280
     0
281
     0
  0
CLASS
  1
PARAMSCOPE
  2
AcAdParamScope
  3
DesignerServices
 90
        0
280
     0
281
     0
  0
CLASS
  1
NAMEDAPPL
  2
AcAdNamedAppl
  3
DesignerServices
 90
        0
280
     0
281
     0
  0
CLASS
  1
ADHNTMPLT
  2
AdHoleNoteTemplateMgr
  3
DesignerServices
 90
    32768
280
     0
281
     0
  0
CLASS
  1
AM_HNTEMPLATE_MGR_NAME
  2
AdHoleNoteTemplateMgrName
  3
DesignerServices
 90
    32768
280
     0
281
     0
  0
CLASS
  1
AMDTDMMENUSTATE
  2
AmdtDmMenuState
  3
AcMechDwgViewMgmt
 90
        0
280
     0
281
     0
  0
CLASS
  1
MAPIADMODULE
  2
MApiAdModule
  3
MApiAdServices
 90
        0
280
     0
281
     0
  0
CLASS
  1
AMDTAMMENUSTATE
  2
AmdtAmMenuState
  3
DesignerAssemblies
 90
        0
280
     0
281
     0
  0
CLASS
  1
ACAMPROJECT
  2
AcAmProject
  3
DesignerAssemblies
 90
        0
280
     0
281
     0
  0
CLASS
  1
ACAMGRCOMPDEF
  2
AcAmGrCompDef
  3
DesignerAssemblies
 90
        0
280
     0
281
     0
  0
CLASS
  1
ACCMCONTEXT
  2
AcCmContext
  3
DesignerAssemblies
 90
        0
280
     0
281
     0
  0
CLASS
  1
ACAMCOMPDEF
  2
AcAmCompDef
  3
DesignerAssemblies
 90
        0
280
     0
281
     0
  0
CLASS
  1
ACAMCOMPDEFMGR
  2
AcAmCompDefMgr
  3
DesignerAssemblies
 90
        0
280
     0
281
     0
  0
CLASS
  1
AMCONTEXTMGR
  2
AcAmContextMgr
  3
DesignerAssemblies
 90
        0
280
     0
281
     0
  0
CLASS
  1
ACAMCONTEXTMODELER
  2
AcAmContextModeler
  3
DesignerAssemblies
 90
        0
280
     0
281
     0
  0
CLASS
  1
CATALOGSTATE
  2
AcAmCatalogState
  3
DesignerAssemblies
 90
        0
280
     0
281
     0
  0
CLASS
  1
ACAMGRCOMPDEFSET
  2
AcAmGrCompDefSet
  3
DesignerAssemblies
 90
        0
280
     0
281
     0
  0
CLASS
  1
AMDTBROWSERDBTAB
  2
AmdtBrowserDbTab
  3
McadcomServices
 90
        0
280
     0
281
     0
  0
CLASS
  1
CBROWSERAPPOBJECT
  2
CBrowserAppObject
  3
McadcomServices
 90
        0
280
     0
281
     0
  0
CLASS
  1
DM_PLACEHOLDER
  2
AcDmSelsetPlaceholder
  3
AcMechDwgViewMgmt
 90
        0
280
     0
281
     0
  0
CLASS
  1
ACMPICKOBJ
  2
AcmPickEnt
  3
"AcmSymBB|Product Description: AutoCAD Mechanical|Company: Autodesk"
 90
    32768
280
     0
281
     1
  0
CLASS
  1
ACMNOTESTANDARDISO
  2
AmdtNoteStdISO
  3
"Amdt_StdImp|Product Description: AutoCAD Mechanical|Company: Autodesk"
 90
        0
280
     0
281
     0
  0
CLASS
  1
ACMNOTESTANDARDANSI
  2
AmdtNoteStdANSI
  3
"Amdt_StdImp|Product Description: AutoCAD Mechanical|Company: Autodesk"
 90
    32768
280
     0
281
     0
  0
CLASS
  1
ACMTHREADLINESTANDARDISO
  2
AmdtThreadLineStdISO
  3
"Amdt_StdImp|Product Description: AutoCAD Mechanical|Company: Autodesk"
 90
        0
280
     0
281
     0
  0
CLASS
  1
ACMTHREADLINESTANDARDANSI
  2
AmdtThreadLineStdANSI
  3
"Amdt_StdImp|Product Description: AutoCAD Mechanical|Company: Autodesk"
 90
    32768
280
     0
281
     0
  0
CLASS
  1
TABLESTYLE
  2
AcDbTableStyle
  3
ObjectDBX Classes
 90
     4095
280
     0
281
     0
  0
CLASS
  1
AMDTNOTETEMPLATEDB
  2
AmdtNoteTemplateDB
  3
AMDT_STDIMP_MODULE_NAME
 90
        0
280
     0
281
     0
  0
CLASS
  1
ACAMGHOLECHARTSTDANSI
  2
AcAmgHoleChartStdANSI
  3
ACMSYMBB_MODULE_NAME
 90
    32768
280
     0
281
     0
  0
CLASS
  1
SORTENTSTABLE
  2
AcDbSortentsTable
  3
ObjectDBX Classes
 90
        0
280
     0
281
     0
  0
CLASS
  1
MATERIAL
  2
AcDbMaterial
  3
ObjectDBX Classes
 90
     1024
280
     0
281
     0
  0
CLASS
  1
VISUALSTYLE
  2
AcDbVisualStyle
  3
ObjectDBX Classes
 90
     4095
280
     0
281
     0
  0
CLASS
  1
ACRFATTGENMGR
  2
AcRfAttGeneralMgr
  3
AcAttribServices
 90
    32768
280
     0
281
     0
  0
CLASS
  1
ACRFOBJATTMGR
  2
AcRfObjAttGroupMgr
  3
AcAttribServices
 90
    32768
280
     0
281
     0
  0
CLASS
  1
ACRFMCADAPIATTHOLDER
  2
AcRfMCADAPIAttHolder
  3
AcAttribServices
 90
    32768
280
     0
281
     0
  0
CLASS
  1
AMDTSYSATTR
  2
AmdtSystemAttribute
  3
AcAttribServices
 90
    32768
280
     0
281
     0
  0
CLASS
  1
ACMTAPERSTANDARDISO
  2
AcmTaperStdISO
  3
"Amdt_StdImp|Product Description: AutoCAD Mechanical|Company: Autodesk"
 90
        0
280
     0
281
     0
  0
CLASS
  1
ACMTAPERSTANDARDANSI
  2
AcmTaperStdANSI
  3
"Amdt_StdImp|Product Description: AutoCAD Mechanical|Company: Autodesk"
 90
    32768
280
     0
281
     0
  0
CLASS
  1
AMDTEDGESTANDARDISO13715
  2
AmdtEdgeStdISO13715
  3
"Amdt_StdImp|Product Description: AutoCAD Mechanical|Company: Autodesk"
 90
        0
280
     0
281
     0
  0
CLASS
  1
ACAMGHOLECHARTSTDISO
  2
AcAmgHoleChartStdISO
  3
ACMSYMBB_MODULE_NAME
 90
        0
280
     0
281
     0
  0
CLASS
  1
CAMSSTRUCTBTNSTATE
  2
StructBtnState
  3
L"DesignerAssemblies"
 90
    32768
280
     0
281
     0
  0
ENDSEC
  0
SECTION
  2
TABLES
  0
TABLE
  2
VPORT
  5
8
102
{ACAD_XDICTIONARY
360
15BC4
102
}
330
0
100
AcDbSymbolTable
 70
     1
  0
VPORT
  5
B43F
330
8
100
AcDbSymbolTableRecord
100
AcDbViewportTableRecord
  2
*Active
 70
     0
 10
0.0
 20
0.0
 11
1.0
 21
1.0
 12
205.7007237336399
 22
-887.8971268076483
 13
0.0
 23
0.0
 14
2.5
 24
2.5
 15
10.0
 25
10.0
 16
0.0
 26
0.0
 36
1.0
 17
0.0
 27
0.0
 37
0.0
 40
314.8829863373682
 41
1.342329545454545
 42
50.0
 43
-1370.695619172058
 44
-1370.695619172058
 50
0.0
 51
0.0
 71
    16
 72
   100
 73
     1
 74
     3
 75
     0
 76
     0
 77
     0
 78
     0
281
     0
 65
     0
110
0.0
120
0.0
130
0.0
111
1.0
121
0.0
131
0.0
112
0.0
122
1.0
132
0.0
 79
     0
146
0.0
  0
ENDTAB
  0
TABLE
  2
LTYPE
  5
5
330
0
100
AcDbSymbolTable
 70
    35
  0
LTYPE
  5
14
330
5
100
AcDbSymbolTableRecord
100
AcDbLinetypeTableRecord
  2
ByBlock
 70
     0
  3

 72
    65
 73
     0
 40
0.0
  0
LTYPE
  5
15
330
5
100
AcDbSymbolTableRecord
100
AcDbLinetypeTableRecord
  2
ByLayer
 70
     0
  3

 72
    65
 73
     0
 40
0.0
  0
LTYPE
  5
16
330
5
100
AcDbSymbolTableRecord
100
AcDbLinetypeTableRecord
  2
Continuous
 70
     0
  3
Solid line
 72
    65
 73
     0
 40
0.0
  0
LTYPE
  5
4F
330
5
100
AcDbSymbolTableRecord
100
AcDbLinetypeTableRecord
  2
AM_ISO02W050
 70
     0
  3
__ __ __ __ __ __ __ __ __ __ __ __ __ __ __
 72
    65
 73
     2
 40
7.5
 49
6.0
 74
     0
 49
-1.5
 74
     0
  0
LTYPE
  5
52
330
5
100
AcDbSymbolTableRecord
100
AcDbLinetypeTableRecord
  2
Amconstr
 70
     0
  3
_______________________
 72
    65
 73
     2
 40
9999.0
 49
9999.0
 74
     0
 49
0.0
 74
     0
  0
LTYPE
  5
64
330
5
100
AcDbSymbolTableRecord
100
AcDbLinetypeTableRecord
  2
ACISOWELD
 70
     0
  3
_ _ _ _ _
 72
    65
 73
     2
 40
2.0
 49
2.0
 74
     0
 49
-1.0
 74
     0
  0
LTYPE
  5
65
330
5
100
AcDbSymbolTableRecord
100
AcDbLinetypeTableRecord
  2
ACISOTGB
 70
     0
  3
__ . . __ . .
 72
    65
 73
     6
 40
9.0
 49
4.0
 74
     0
 49
-1.0
 74
     0
 49
1.0
 74
     0
 49
-1.0
 74
     0
 49
1.0
 74
     0
 49
-1.0
 74
     0
  0
LTYPE
  5
66
330
5
100
AcDbSymbolTableRecord
100
AcDbLinetypeTableRecord
  2
ACISOTGL
 70
     0
  3
_ _ _ _ _
 72
    65
 73
     2
 40
3.0
 49
2.0
 74
     0
 49
-1.0
 74
     0
  0
LTYPE
  5
69
330
5
100
AcDbSymbolTableRecord
100
AcDbLinetypeTableRecord
  2
CENTER
 70
     0
  3
__ . __
 72
    65
 73
     4
 40
7.0
 49
4.0
 74
     0
 49
-1.0
 74
     0
 49
1.0
 74
     0
 49
-1.0
 74
     0
  0
LTYPE
  5
A6E
330
5
100
AcDbSymbolTableRecord
100
AcDbLinetypeTableRecord
  2
PHANTOM2
 70
     0
  3
Phantom (.5x) ___ _ _ ___ _ _ ___ _ _ ___ _ _
 72
    65
 73
     6
 40
31.75
 49
15.875
 74
     0
 49
-3.174999999999999
 74
     0
 49
3.174999999999999
 74
     0
 49
-3.174999999999999
 74
     0
 49
3.174999999999999
 74
     0
 49
-3.174999999999999
 74
     0
  0
LTYPE
  5
4DED
330
5
100
AcDbSymbolTableRecord
100
AcDbLinetypeTableRecord
  2
中線
 70
     0
  3
___________________
 72
    65
 73
     2
 40
2.0
 49
1.0
 74
     0
 49
1.0
 74
     0
  0
LTYPE
  5
4DF6
330
5
100
AcDbSymbolTableRecord
100
AcDbLinetypeTableRecord
  2
細線
 70
     0
  3
___________________
 72
    65
 73
     2
 40
2.0
 49
1.0
 74
     0
 49
1.0
 74
     0
  0
LTYPE
  5
4DF7
330
5
100
AcDbSymbolTableRecord
100
AcDbLinetypeTableRecord
  2
太線
 70
     0
  3
___________________
 72
    65
 73
     2
 40
2.0
 49
1.0
 74
     0
 49
1.0
 74
     0
  0
LTYPE
  5
4EA7
330
5
100
AcDbSymbolTableRecord
100
AcDbLinetypeTableRecord
  2
文字
 70
     0
  3
_________________
 72
    65
 73
     2
 40
2.0
 49
1.0
 74
     0
 49
1.0
 74
     0
  0
LTYPE
  5
4EA9
330
5
100
AcDbSymbolTableRecord
100
AcDbLinetypeTableRecord
  2
寸法線
 70
     0
  3
________________
 72
    65
 73
     2
 40
2.0
 49
1.0
 74
     0
 49
1.0
 74
     0
  0
LTYPE
  5
4F12
330
5
100
AcDbSymbolTableRecord
100
AcDbLinetypeTableRecord
  2
ハッチング
 70
     0
  3
_________________
 72
    65
 73
     2
 40
2.0
 49
1.0
 74
     0
 49
1.0
 74
     0
  0
LTYPE
  5
5180
330
5
100
AcDbSymbolTableRecord
100
AcDbLinetypeTableRecord
  2
陰線1
 70
     0
  3
__ __ __ __
 72
    65
 73
     2
 40
4.0
 49
2.2
 74
     0
 49
-1.8
 74
     0
  0
LTYPE
  5
5182
330
5
100
AcDbSymbolTableRecord
100
AcDbLinetypeTableRecord
  2
切断線
 70
     0
  3
/\/-/\/-/\/-/\/-/\/-/\/
 72
    65
 73
     2
 40
11.0001
 49
0.0001
 74
     4
 75
   135
340
56
 46
0.04
 50
0.0
 44
0.0
 45
0.0
 49
-11.0
 74
     0
  0
LTYPE
  5
5183
330
5
100
AcDbSymbolTableRecord
100
AcDbLinetypeTableRecord
  2
想像線1
 70
     0
  3
__ __ __ _____ __ __ ____
 72
    65
 73
     6
 40
14.5
 49
6.0
 74
     0
 49
-1.5
 74
     0
 49
2.0
 74
     0
 49
-1.5
 74
     0
 49
2.0
 74
     0
 49
-1.5
 74
     0
  0
LTYPE
  5
5185
330
5
100
AcDbSymbolTableRecord
100
AcDbLinetypeTableRecord
  2
中心線1
 70
     0
  3
___ _ ___ _ ___
 72
    65
 73
     4
 40
18.0
 49
12.0
 74
     0
 49
-2.0
 74
     0
 49
2.0
 74
     0
 49
-2.0
 74
     0
  0
LTYPE
  5
5188
330
5
100
AcDbSymbolTableRecord
100
AcDbLinetypeTableRecord
  2
補助線
 70
     0
  3
______________
 72
    65
 73
     2
 40
2.0
 49
1.0
 74
     0
 49
1.0
 74
     0
  0
LTYPE
  5
6427
330
5
100
AcDbSymbolTableRecord
100
AcDbLinetypeTableRecord
  2
HIDDEN
 70
     0
  3
Hidden __ __ __ __ __ __ __ __ __ __ __ __ __ _
 72
    65
 73
     2
 40
0.375
 49
0.25
 74
     0
 49
-0.125
 74
     0
  0
LTYPE
  5
AC81
330
5
100
AcDbSymbolTableRecord
100
AcDbLinetypeTableRecord
  2
破断線
 70
     0
  3
/\/-/\/-/\/-/\/-/\/-/\/
 72
    65
 73
     2
 40
0.4401
 49
0.0001
 74
     4
 75
   136
340
AC80
 46
0.0016
 50
0.0
 44
0.0
 45
0.0
 49
-0.4400000000000001
 74
     0
  0
LTYPE
  5
AC9E
330
5
100
AcDbSymbolTableRecord
100
AcDbLinetypeTableRecord
  2
Amzigzag
 70
     0
  3
/\/-/\/-/\/-/\/-/\/-/\/
 72
    65
 73
     2
 40
11.0001
 49
0.0001
 74
     4
 75
   135
340
56
 46
0.04
 50
0.0
 44
0.0
 45
0.0
 49
-11.0
 74
     0
  0
LTYPE
  5
AF60
330
5
100
AcDbSymbolTableRecord
100
AcDbLinetypeTableRecord
  2
DASHED
 70
     0
  3
__ __ __ __ __ __ __ __ __ __ __ __ __ __ __
 72
    65
 73
     2
 40
3.5
 49
2.0
 74
     0
 49
-1.5
 74
     0
  0
LTYPE
  5
AF61
330
5
100
AcDbSymbolTableRecord
100
AcDbLinetypeTableRecord
  2
PHANTOM
 70
     0
  3
_____ _ _ _____ _ _ _____ _ _ _____ _ _ ____  
 72
    65
 73
     6
 40
15.5
 49
8.0
 74
     0
 49
-1.5
 74
     0
 49
1.5
 74
     0
 49
-1.5
 74
     0
 49
1.5
 74
     0
 49
-1.5
 74
     0
  0
LTYPE
  5
AF62
330
5
100
AcDbSymbolTableRecord
100
AcDbLinetypeTableRecord
  2
CENTER2
 70
     0
  3
Center (.5x) ___ _ ___ _ ___ _ ___ _ ___ _ ___
 72
    65
 73
     4
 40
1.125
 49
0.75
 74
     0
 49
-0.125
 74
     0
 49
0.125
 74
     0
 49
-0.125
 74
     0
  0
LTYPE
  5
AF63
330
5
100
AcDbSymbolTableRecord
100
AcDbLinetypeTableRecord
  2
HIDDEN2
 70
     0
  3
Hidden (.5x) _ _ _ _ _ _ _ _ _ _ _ _ _ _ _ _ _
 72
    65
 73
     2
 40
0.1875
 49
0.125
 74
     0
 49
-0.0625
 74
     0
  0
LTYPE
  5
AF64
330
5
100
AcDbSymbolTableRecord
100
AcDbLinetypeTableRecord
  2
Amzigzag2
 70
     0
  3
/\/-/\/-/\/-/\/-/\/-/\/
 72
    65
 73
     2
 40
0.4401
 49
0.0001
 74
     4
 75
   136
340
AC80
 46
0.0016
 50
0.0
 44
0.0
 45
0.0
 49
-0.4400000000000001
 74
     0
  0
LTYPE
  5
AF65
330
5
100
AcDbSymbolTableRecord
100
AcDbLinetypeTableRecord
  2
ACANSTGB
 70
     0
  3
__ . . __ . .
 72
    65
 73
     6
 40
0.35433070866
 49
0.15748031496
 74
     0
 49
-0.03937007874
 74
     0
 49
0.03937007874
 74
     0
 49
-0.03937007874
 74
     0
 49
0.03937007874
 74
     0
 49
-0.03937007874
 74
     0
  0
LTYPE
  5
AF66
330
5
100
AcDbSymbolTableRecord
100
AcDbLinetypeTableRecord
  2
ACANSTGL
 70
     0
  3
_ _ _ _ _
 72
    65
 73
     2
 40
0.11811023622
 49
0.07874015748
 74
     0
 49
-0.03937007874
 74
     0
  0
LTYPE
  5
B2E0
330
5
100
AcDbSymbolTableRecord
100
AcDbLinetypeTableRecord
  2
AM_ISO08W050
 70
     0
  3
____ . ____ . ____ . ____ . ____ . ____ . ____
 72
    65
 73
     4
 40
18.0
 49
12.0
 74
     0
 49
-1.5
 74
     0
 49
3.0
 74
     0
 49
-1.5
 74
     0
  0
LTYPE
  5
B2E1
330
5
100
AcDbSymbolTableRecord
100
AcDbLinetypeTableRecord
  2
AM_ISO09W050
 70
     0
  3
_____ . . _____ . . _____ . . ____ .. ____
 72
    65
 73
     6
 40
22.5
 49
12.0
 74
     0
 49
-1.5
 74
     0
 49
3.0
 74
     0
 49
-1.5
 74
     0
 49
3.0
 74
     0
 49
-1.5
 74
     0
  0
LTYPE
  5
B2E2
330
5
100
AcDbSymbolTableRecord
100
AcDbLinetypeTableRecord
  2
AM_ISO08W050x2
 70
     0
  3
__ . __ . __ . __ . __ . __
 72
    65
 73
     4
 40
9.0
 49
6.0
 74
     0
 49
-0.75
 74
     0
 49
1.5
 74
     0
 49
-0.75
 74
     0
  0
LTYPE
  5
B2E3
330
5
100
AcDbSymbolTableRecord
100
AcDbLinetypeTableRecord
  2
AM_ISO02W050x2
 70
     0
  3
 _ _ _ _ _ _ _ _ _ _ _ _
 72
    65
 73
     2
 40
3.75
 49
3.0
 74
     0
 49
-0.75
 74
     0
  0
LTYPE
  5
B680
330
5
100
AcDbSymbolTableRecord
100
AcDbLinetypeTableRecord
  2
DOT
 70
     0
  3
. . . . . . . . . . . . . . . . . . . . . . . .
 72
    65
 73
     2
 40
0.25
 49
0.0
 74
     0
 49
-0.25
 74
     0
  0
LTYPE
  5
B681
330
5
100
AcDbSymbolTableRecord
100
AcDbLinetypeTableRecord
  2
DOT2
 70
     0
  3
...............................................
 72
    65
 73
     2
 40
0.125
 49
0.0
 74
     0
 49
-0.125
 74
     0
  0
ENDTAB
  0
TABLE
  2
LAYER
  5
2
102
{ACAD_XDICTIONARY
360
3F95
102
}
330
0
100
AcDbSymbolTable
 70
    39
  0
LAYER
  5
10
330
2
100
AcDbSymbolTableRecord
100
AcDbLayerTableRecord
  2
0
 70
     0
 62
     7
  6
Continuous
370
    -3
390
F
  0
LAYER
  5
6D1
330
2
100
AcDbSymbolTableRecord
100
AcDbLayerTableRecord
  2
Defpoints
 70
     0
 62
     7
  6
Continuous
290
     0
370
    -3
390
F
  0
LAYER
  5
5F85
330
2
100
AcDbSymbolTableRecord
100
AcDbLayerTableRecord
  2
AM_0
 70
     0
 62
     7
  6
中線
370
    30
390
F
  0
LAYER
  5
AC9F
330
2
100
AcDbSymbolTableRecord
100
AcDbLayerTableRecord
  2
size
 70
     0
 62
     5
  6
Continuous
290
     0
370
    30
390
F
  0
LAYER
  5
ACA0
330
2
100
AcDbSymbolTableRecord
100
AcDbLayerTableRecord
  2
waku
 70
     0
 62
     7
  6
Continuous
370
    40
390
F
  0
LAYER
  5
ACA1
330
2
100
AcDbSymbolTableRecord
100
AcDbLayerTableRecord
  2
AM_6
 70
     0
 62
     2
  6
文字
370
    20
390
F
  0
LAYER
  5
ACC8
330
2
100
AcDbSymbolTableRecord
100
AcDbLayerTableRecord
  2
hyomoji
 70
     0
 62
     2
  6
Continuous
370
    20
390
F
  0
LAYER
  5
ACC9
330
2
100
AcDbSymbolTableRecord
100
AcDbLayerTableRecord
  2
hyosen1
 70
     0
 62
     1
  6
Continuous
370
    30
390
F
  0
LAYER
  5
ACCA
330
2
100
AcDbSymbolTableRecord
100
AcDbLayerTableRecord
  2
hyosen2
 70
     0
 62
     1
  6
Continuous
370
    20
390
F
  0
LAYER
  5
AD60
330
2
100
AcDbSymbolTableRecord
100
AcDbLayerTableRecord
  2
AM_1
 70
     0
 62
    30
  6
太線
370
    40
390
F
1001
AcAecLayerStandard
1000

1000

  0
LAYER
  5
AD64
330
2
100
AcDbSymbolTableRecord
100
AcDbLayerTableRecord
  2
AM_2
 70
     0
 62
     1
  6
細線
370
    20
390
F
1001
AcAecLayerStandard
1000

1000

  0
LAYER
  5
AD67
330
2
100
AcDbSymbolTableRecord
100
AcDbLayerTableRecord
  2
AM_3
 70
     0
 62
     6
  6
陰線1
370
    18
390
F
1001
AcAecLayerStandard
1000

1000

  0
LAYER
  5
AD68
330
2
100
AcDbSymbolTableRecord
100
AcDbLayerTableRecord
  2
AM_5
 70
     0
 62
     3
  6
寸法線
370
    20
390
F
1001
AcAecLayerStandard
1000

1000

  0
LAYER
  5
AD69
330
2
100
AcDbSymbolTableRecord
100
AcDbLayerTableRecord
  2
AM_7
 70
     0
 62
     4
  6
中心線1
370
    20
390
F
1001
AcAecLayerStandard
1000

1000

  0
LAYER
  5
AD6A
330
2
100
AcDbSymbolTableRecord
100
AcDbLayerTableRecord
  2
AM_8
 70
     0
 62
     1
  6
ハッチング
370
    18
390
F
1001
AcAecLayerStandard
1000

1000

  0
LAYER
  5
AD6E
330
2
100
AcDbSymbolTableRecord
100
AcDbLayerTableRecord
  2
AM_10
 70
     0
 62
     7
  6
破断線
370
    30
390
F
1001
AcAecLayerStandard
1000

1000

  0
LAYER
  5
AD6F
330
2
100
AcDbSymbolTableRecord
100
AcDbLayerTableRecord
  2
AM_11
 70
     0
 62
     2
  6
想像線1
370
    18
390
F
1001
AcAecLayerStandard
1000

1000

  0
LAYER
  5
B682
102
{ACAD_XDICTIONARY
360
B683
102
}
330
2
100
AcDbSymbolTableRecord
100
AcDbLayerTableRecord
  2
01実線
 70
     0
 62
     7
  6
Continuous
370
    35
390
F
1001
AcAecLayerStandard
1000

1000

  0
LAYER
  5
B685
102
{ACAD_XDICTIONARY
360
B686
102
}
330
2
100
AcDbSymbolTableRecord
100
AcDbLayerTableRecord
  2
02細い実線
 70
     0
 62
     2
  6
Continuous
370
    20
390
F
1001
AcAecLayerStandard
1000

1000

  0
LAYER
  5
B688
102
{ACAD_XDICTIONARY
360
B689
102
}
330
2
100
AcDbSymbolTableRecord
100
AcDbLayerTableRecord
  2
03中心線
 70
     0
 62
     1
  6
CENTER
370
    18
390
F
1001
AcAecLayerStandard
1000

1000

  0
LAYER
  5
B68B
102
{ACAD_XDICTIONARY
360
B68C
102
}
330
2
100
AcDbSymbolTableRecord
100
AcDbLayerTableRecord
  2
04寸法線
 70
     0
 62
     2
  6
Continuous
370
    20
390
F
1001
AcAecLayerStandard
1000

1000

  0
LAYER
  5
B68E
102
{ACAD_XDICTIONARY
360
B68F
102
}
330
2
100
AcDbSymbolTableRecord
100
AcDbLayerTableRecord
  2
05隠れ腺
 70
     0
 62
     2
  6
HIDDEN
370
    20
390
F
1001
AcAecLayerStandard
1000

1000

  0
LAYER
  5
B691
102
{ACAD_XDICTIONARY
360
B692
102
}
330
2
100
AcDbSymbolTableRecord
100
AcDbLayerTableRecord
  2
06文字（太）
 70
     0
 62
     7
  6
Continuous
370
    35
390
F
1001
AcAecLayerStandard
1000

1000

  0
LAYER
  5
B694
102
{ACAD_XDICTIONARY
360
B695
102
}
330
2
100
AcDbSymbolTableRecord
100
AcDbLayerTableRecord
  2
07文字（細）
 70
     0
 62
     2
  6
Continuous
370
    20
390
F
1001
AcAecLayerStandard
1000

1000

  0
LAYER
  5
B697
102
{ACAD_XDICTIONARY
360
B698
102
}
330
2
100
AcDbSymbolTableRecord
100
AcDbLayerTableRecord
  2
08ハッチング
 70
     0
 62
     1
  6
Continuous
370
    20
390
F
1001
AcAecLayerStandard
1000

1000

  0
LAYER
  5
B69A
102
{ACAD_XDICTIONARY
360
B69B
102
}
330
2
100
AcDbSymbolTableRecord
100
AcDbLayerTableRecord
  2
09図枠
 70
     0
 62
   211
  6
Continuous
370
    20
390
F
1001
AcAecLayerStandard
1000

1000

  0
LAYER
  5
B69D
102
{ACAD_XDICTIONARY
360
B69E
102
}
330
2
100
AcDbSymbolTableRecord
100
AcDbLayerTableRecord
  2
LEVEL001
 70
     0
 62
     7
  6
Continuous
370
    -3
390
B681
  0
LAYER
  5
C8D0
102
{ACAD_XDICTIONARY
360
C8D1
102
}
330
2
100
AcDbSymbolTableRecord
100
AcDbLayerTableRecord
  2
実線
 70
     0
 62
     7
  6
Continuous
370
    40
390
F
  0
LAYER
  5
C8D3
102
{ACAD_XDICTIONARY
360
C8D4
102
}
330
2
100
AcDbSymbolTableRecord
100
AcDbLayerTableRecord
  2
一点鎖線
 70
     0
 62
     2
  6
CENTER2
370
    15
390
F
  0
LAYER
  5
C8D6
102
{ACAD_XDICTIONARY
360
C8D7
102
}
330
2
100
AcDbSymbolTableRecord
100
AcDbLayerTableRecord
  2
二点鎖線
 70
     0
 62
     3
  6
PHANTOM2
370
     9
390
F
  0
LAYER
  5
C8D9
102
{ACAD_XDICTIONARY
360
C8DA
102
}
330
2
100
AcDbSymbolTableRecord
100
AcDbLayerTableRecord
  2
寸法
 70
     0
 62
     2
  6
Continuous
370
    15
390
F
  0
LAYER
  5
C8DC
102
{ACAD_XDICTIONARY
360
C8DD
102
}
330
2
100
AcDbSymbolTableRecord
100
AcDbLayerTableRecord
  2
文字
 70
     0
 62
     1
  6
Continuous
370
    30
390
F
  0
LAYER
  5
C8DF
102
{ACAD_XDICTIONARY
360
C8E0
102
}
330
2
100
AcDbSymbolTableRecord
100
AcDbLayerTableRecord
  2
細線1
 70
     0
 62
     1
  6
Continuous
370
    25
390
F
  0
LAYER
  5
C8E2
330
2
100
AcDbSymbolTableRecord
100
AcDbLayerTableRecord
  2
1
 70
     0
 62
     7
  6
Continuous
370
    -3
390
F
  0
LAYER
  5
C8E3
330
2
100
AcDbSymbolTableRecord
100
AcDbLayerTableRecord
  2
2
 70
     0
 62
     7
  6
Continuous
370
    -3
390
F
  0
LAYER
  5
C8E4
330
2
100
AcDbSymbolTableRecord
100
AcDbLayerTableRecord
  2
3
 70
     0
 62
     7
  6
Continuous
370
    -3
390
F
  0
LAYER
  5
D28C
330
2
100
AcDbSymbolTableRecord
100
AcDbLayerTableRecord
  2
細線
 70
     0
 62
     4
  6
Continuous
370
    -3
390
F
  0
LAYER
  5
EABC
330
2
100
AcDbSymbolTableRecord
100
AcDbLayerTableRecord
  2
AM_CL
 70
     0
 62
     1
  6
Amconstr
370
    20
390
F
1001
AcAecLayerStandard
1000

1000

  0
LAYER
  5
1159E
330
2
100
AcDbSymbolTableRecord
100
AcDbLayerTableRecord
  2
AM_4
 70
     0
 62
     3
  6
補助線
370
    20
390
F
1001
AcAecLayerStandard
1000

1000

  0
ENDTAB
  0
TABLE
  2
STYLE
  5
3
330
0
100
AcDbSymbolTable
 70
    11
  0
STYLE
  5
11
330
3
100
AcDbSymbolTableRecord
100
AcDbTextStyleTableRecord
  2
STANDARD
 70
     0
 40
0.0
 41
0.7
 50
0.0
 71
     0
 42
3.2
  3
romans.shx
  4
extfont.shx
  0
STYLE
  5
56
330
3
100
AcDbSymbolTableRecord
100
AcDbTextStyleTableRecord
  2

 70
     1
 40
0.0
 41
1.0
 50
0.0
 71
     0
 42
2.5
  3
ltypeshp.shx
  4

  0
STYLE
  5
58
330
3
100
AcDbSymbolTableRecord
100
AcDbTextStyleTableRecord
  2
ACISOTS
 70
     0
 40
1.0
 41
1.0
 50
0.0
 71
     0
 42
2.5
  3
isocp.shx
  4
extfont.shx
  0
STYLE
  5
63
330
3
100
AcDbSymbolTableRecord
100
AcDbTextStyleTableRecord
  2
ACISOGDT
 70
     0
 40
0.0
 41
1.0
 50
0.0
 71
     0
 42
2.5
  3
amgdt.shx
  4

  0
STYLE
  5
A74
330
3
100
AcDbSymbolTableRecord
100
AcDbTextStyleTableRecord
  2
DIM
 70
     0
 40
0.0
 41
1.0
 50
0.0
 71
     0
 42
2.5
  3
monotxt.shx
  4
extfont.shx
  0
STYLE
  5
AC80
330
3
100
AcDbSymbolTableRecord
100
AcDbTextStyleTableRecord
  2

 70
     1
 40
0.0
 41
1.0
 50
0.0
 71
     0
 42
3.2
  3
genltshp.shx
  4

  0
STYLE
  5
AF67
330
3
100
AcDbSymbolTableRecord
100
AcDbTextStyleTableRecord
  2
ACANSTS
 70
     0
 40
1.0
 41
1.0
 50
0.0
 71
     0
 42
3.2
  3
romans.shx
  4
extfont.shx
  0
STYLE
  5
AF68
330
3
100
AcDbSymbolTableRecord
100
AcDbTextStyleTableRecord
  2
ACANSGDT
 70
     0
 40
0.0
 41
1.0
 50
0.0
 71
     0
 42
3.2
  3
AMGDT
  4

  0
STYLE
  5
B6A0
330
3
100
AcDbSymbolTableRecord
100
AcDbTextStyleTableRecord
  2
横書き
 70
     0
 40
0.0
 41
1.0
 50
0.0
 71
     0
 42
3.0
  3
TXT.shx
  4
bigfont.shx
  0
STYLE
  5
C8E5
330
3
100
AcDbSymbolTableRecord
100
AcDbTextStyleTableRecord
  2
ゴシック
 70
     0
 40
0.0
 41
1.0
 50
0.0
 71
     0
 42
2.5
  3
MS Gothic.ttf
  4

1001
ACAD
1000
MS Gothic
1071
    32817
  0
STYLE
  5
C8E6
330
3
100
AcDbSymbolTableRecord
100
AcDbTextStyleTableRecord
  2
明朝
 70
     0
 40
0.0
 41
1.0
 50
0.0
 71
     0
 42
2.0
  3
MS Mincho.ttf
  4

1001
ACAD
1000
MS Mincho
1071
    32785
  0
ENDTAB
  0
TABLE
  2
VIEW
  5
6
330
0
100
AcDbSymbolTable
 70
     6
  0
VIEW
  5
AE1
330
6
100
AcDbSymbolTableRecord
100
AcDbViewTableRecord
  2
AM_VIEW1
 70
     0
 40
149.3945509586276
 10
105.0
 20
222.3027245206862
 41
210.0
 11
0.0
 21
0.0
 31
1.0
 12
0.0
 22
0.0
 32
0.0
 42
50.0
 43
-1370.695619172058
 44
-1370.695619172058
 50
0.0
 71
    16
281
     0
 72
     0
  0
VIEW
  5
AE2
330
6
100
AcDbSymbolTableRecord
100
AcDbViewTableRecord
  2
AM_VIEW2
 70
     0
 40
149.3945509586276
 10
315.0
 20
222.3027245206862
 41
210.0
 11
0.0
 21
0.0
 31
1.0
 12
0.0
 22
0.0
 32
0.0
 42
50.0
 43
-1370.695619172058
 44
-1370.695619172058
 50
0.0
 71
    16
281
     0
 72
     0
  0
VIEW
  5
AE3
330
6
100
AcDbSymbolTableRecord
100
AcDbViewTableRecord
  2
AM_VIEW3
 70
     0
 40
149.3945509586276
 10
105.0
 20
74.69727547931383
 41
210.0
 11
0.0
 21
0.0
 31
1.0
 12
0.0
 22
0.0
 32
0.0
 42
50.0
 43
-1370.695619172058
 44
-1370.695619172058
 50
0.0
 71
    16
281
     0
 72
     0
  0
VIEW
  5
AE4
330
6
100
AcDbSymbolTableRecord
100
AcDbViewTableRecord
  2
AM_VIEW4
 70
     0
 40
149.3945509586276
 10
315.0
 20
74.69727547931383
 41
210.0
 11
0.0
 21
0.0
 31
1.0
 12
0.0
 22
0.0
 32
0.0
 42
50.0
 43
-1370.695619172058
 44
-1370.695619172058
 50
0.0
 71
    16
281
     0
 72
     0
  0
VIEW
  5
AE5
330
6
100
AcDbSymbolTableRecord
100
AcDbViewTableRecord
  2
AM_VIEW5
 70
     0
 40
149.3945509586276
 10
210.0
 20
148.5
 41
210.0
 11
0.0
 21
0.0
 31
1.0
 12
0.0
 22
0.0
 32
0.0
 42
50.0
 43
-1370.695619172058
 44
-1370.695619172058
 50
0.0
 71
    16
281
     0
 72
     0
  0
VIEW
  5
AE6
330
6
100
AcDbSymbolTableRecord
100
AcDbViewTableRecord
  2
AM_VIEW6
 70
     0
 40
298.7861140262362
 10
210.0
 20
148.5
 41
419.9958
 11
0.0
 21
0.0
 31
1.0
 12
0.0
 22
0.0
 32
0.0
 42
50.0
 43
-1370.695619172058
 44
-1370.695619172058
 50
0.0
 71
    16
281
     0
 72
     0
  0
ENDTAB
  0
TABLE
  2
UCS
  5
7
330
0
100
AcDbSymbolTable
 70
     0
  0
ENDTAB
  0
TABLE
  2
APPID
  5
9
330
0
100
AcDbSymbolTable
 70
    54
  0
APPID
  5
12
330
9
100
AcDbSymbolTableRecord
100
AcDbRegAppTableRecord
  2
ACAD
 70
     0
  0
APPID
  5
30
330
9
100
AcDbSymbolTableRecord
100
AcDbRegAppTableRecord
  2
MCAD_NO_VIS
 70
     0
  0
APPID
  5
31
330
9
100
AcDbSymbolTableRecord
100
AcDbRegAppTableRecord
  2
ACAD_TEMP_GRAPHIC
 70
     0
  0
APPID
  5
44
330
9
100
AcDbSymbolTableRecord
100
AcDbRegAppTableRecord
  2
ACATTRIBSERVICES
 70
     0
  0
APPID
  5
7A1
330
9
100
AcDbSymbolTableRecord
100
AcDbRegAppTableRecord
  2
GENIUS_GENDIMSH_14
 70
     0
  0
APPID
  5
A49
330
9
100
AcDbSymbolTableRecord
100
AcDbRegAppTableRecord
  2
GENIUS_GENREC_14
 70
     0
  0
APPID
  5
A4A
330
9
100
AcDbSymbolTableRecord
100
AcDbRegAppTableRecord
  2
GENIUS_GENOBJ-N-REC_13
 70
     0
  0
APPID
  5
A4B
330
9
100
AcDbSymbolTableRecord
100
AcDbRegAppTableRecord
  2
GENIUS_GENODEF_13
 70
     0
  0
APPID
  5
A4C
330
9
100
AcDbSymbolTableRecord
100
AcDbRegAppTableRecord
  2
DCO15
 70
     0
  0
APPID
  5
ADC
330
9
100
AcDbSymbolTableRecord
100
AcDbRegAppTableRecord
  2
GENIUS_GENOLIS_13
 70
     0
  0
APPID
  5
ADD
330
9
100
AcDbSymbolTableRecord
100
AcDbRegAppTableRecord
  2
GENIUS_GENOENT_13
 70
     0
  0
APPID
  5
ADE
330
9
100
AcDbSymbolTableRecord
100
AcDbRegAppTableRecord
  2
GENIUS_GENOBJ-N-TIT_13
 70
     0
  0
APPID
  5
ADF
330
9
100
AcDbSymbolTableRecord
100
AcDbRegAppTableRecord
  2
GENIUS_GENTITLE_13
 70
     0
  0
APPID
  5
AE0
330
9
100
AcDbSymbolTableRecord
100
AcDbRegAppTableRecord
  2
GENIUS_GENOREF_13
 70
     0
  0
APPID
  5
AE7
330
9
100
AcDbSymbolTableRecord
100
AcDbRegAppTableRecord
  2
GENIUS_GENSCREG_15
 70
     0
  0
APPID
  5
AE8
330
9
100
AcDbSymbolTableRecord
100
AcDbRegAppTableRecord
  2
GENIUS_GENOBJ-N-SDF_13
 70
     0
  0
APPID
  5
FAF
330
9
100
AcDbSymbolTableRecord
100
AcDbRegAppTableRecord
  2
GENIUS_GENBLLY_14
 70
     0
  0
APPID
  5
FB0
330
9
100
AcDbSymbolTableRecord
100
AcDbRegAppTableRecord
  2
GENIUS_GENTRA_14
 70
     0
  0
APPID
  5
1285
330
9
100
AcDbSymbolTableRecord
100
AcDbRegAppTableRecord
  2
GENIUS_GENDTOL_13
 70
     0
  0
APPID
  5
142D
330
9
100
AcDbSymbolTableRecord
100
AcDbRegAppTableRecord
  2
GENIUS_GENOBJ-N-CEN_13
 70
     0
  0
APPID
  5
1AB5
330
9
100
AcDbSymbolTableRecord
100
AcDbRegAppTableRecord
  2
GENIUS_GENOBJ-N-CRS_13
 70
     0
  0
APPID
  5
1B36
330
9
100
AcDbSymbolTableRecord
100
AcDbRegAppTableRecord
  2
GENIUS_GENOBJ-N-HTC_13
 70
     0
  0
APPID
  5
1B37
330
9
100
AcDbSymbolTableRecord
100
AcDbRegAppTableRecord
  2
GENIUS_GENHATCH_13
 70
     0
  0
APPID
  5
216D
330
9
100
AcDbSymbolTableRecord
100
AcDbRegAppTableRecord
  2
GENIUS_GENOBJ-N-FIL_13
 70
     0
  0
APPID
  5
2356
330
9
100
AcDbSymbolTableRecord
100
AcDbRegAppTableRecord
  2
GEVID990412420
 70
     0
  0
APPID
  5
2357
330
9
100
AcDbSymbolTableRecord
100
AcDbRegAppTableRecord
  2
GEVDC
 70
     0
  0
APPID
  5
2358
330
9
100
AcDbSymbolTableRecord
100
AcDbRegAppTableRecord
  2
GEVCON
 70
     0
  0
APPID
  5
235B
330
9
100
AcDbSymbolTableRecord
100
AcDbRegAppTableRecord
  2
GEVRADREF
 70
     0
  0
APPID
  5
2360
330
9
100
AcDbSymbolTableRecord
100
AcDbRegAppTableRecord
  2
GENIUS_GENBH_13
 70
     0
  0
APPID
  5
2362
330
9
100
AcDbSymbolTableRecord
100
AcDbRegAppTableRecord
  2
GENIUS_GENOBJ-NBEHI-BHF_13
 70
     0
  0
APPID
  5
2364
330
9
100
AcDbSymbolTableRecord
100
AcDbRegAppTableRecord
  2
GENIUS_GENOBJ-NBEHI-BHB_13
 70
     0
  0
APPID
  5
2379
330
9
100
AcDbSymbolTableRecord
100
AcDbRegAppTableRecord
  2
GENIUS_GENOBJ-F-SCPASSM_13
 70
     0
  0
APPID
  5
3D74
330
9
100
AcDbSymbolTableRecord
100
AcDbRegAppTableRecord
  2
GENIUS_GENDIM_13
 70
     0
  0
APPID
  5
3D76
330
9
100
AcDbSymbolTableRecord
100
AcDbRegAppTableRecord
  2
GENIUS_GE3DTOL_13
 70
     0
  0
APPID
  5
3D9C
330
9
100
AcDbSymbolTableRecord
100
AcDbRegAppTableRecord
  2
AD_DRAW
 70
     0
  0
APPID
  5
3DE8
330
9
100
AcDbSymbolTableRecord
100
AcDbRegAppTableRecord
  2
ASURF_PCURVE_APPNAME
 70
     0
  0
APPID
  5
3DED
330
9
100
AcDbSymbolTableRecord
100
AcDbRegAppTableRecord
  2
AMG_3D2D_5.0
 70
     0
  0
APPID
  5
3E1B
330
9
100
AcDbSymbolTableRecord
100
AcDbRegAppTableRecord
  2
DESIGNERASSEMBLIES
 70
     0
  0
APPID
  5
3E20
330
9
100
AcDbSymbolTableRecord
100
AcDbRegAppTableRecord
  2
ACADM_DIM_EDIT
 70
     0
  0
APPID
  5
3E21
330
9
100
AcDbSymbolTableRecord
100
AcDbRegAppTableRecord
  2
AMDT_DM_ADJ
 70
     0
  0
APPID
  5
4143
330
9
100
AcDbSymbolTableRecord
100
AcDbRegAppTableRecord
  2
GENIUS_GENFIL_13
 70
     0
  0
APPID
  5
4144
330
9
100
AcDbSymbolTableRecord
100
AcDbRegAppTableRecord
  2
GENIUS_GENOBJ-N-CHA_13
 70
     0
  0
APPID
  5
4E17
330
9
100
AcDbSymbolTableRecord
100
AcDbRegAppTableRecord
  2
GEVID1008153417
 70
     0
  0
APPID
  5
4E58
330
9
100
AcDbSymbolTableRecord
100
AcDbRegAppTableRecord
  2
GEVID1008153418
 70
     0
  0
APPID
  5
4E5E
330
9
100
AcDbSymbolTableRecord
100
AcDbRegAppTableRecord
  2
GEVID1008153419
 70
     0
  0
APPID
  5
4E64
330
9
100
AcDbSymbolTableRecord
100
AcDbRegAppTableRecord
  2
GEVID1008153420
 70
     0
  0
APPID
  5
4E75
330
9
100
AcDbSymbolTableRecord
100
AcDbRegAppTableRecord
  2
GEVID1008153421
 70
     0
  0
APPID
  5
4EB7
330
9
100
AcDbSymbolTableRecord
100
AcDbRegAppTableRecord
  2
GENIUS_AMGTXT_16
 70
     0
  0
APPID
  5
7645
330
9
100
AcDbSymbolTableRecord
100
AcDbRegAppTableRecord
  2
GENIUS_GENOBJ-N-DIM_13
 70
     0
  0
APPID
  5
AAD0
330
9
100
AcDbSymbolTableRecord
100
AcDbRegAppTableRecord
  2
ACAD_DSTYLE_DIMARC_LENGTH_SYMBOL
 70
     0
  0
APPID
  5
AAD1
330
9
100
AcDbSymbolTableRecord
100
AcDbRegAppTableRecord
  2
ACAD_DSTYLE_DIMJOGGED_JOGANGLE_SYMBOL
 70
     0
  0
APPID
  5
AAFD
330
9
100
AcDbSymbolTableRecord
100
AcDbRegAppTableRecord
  2
ACAD_PSEXT
 70
     0
  0
APPID
  5
AD61
330
9
100
AcDbSymbolTableRecord
100
AcDbRegAppTableRecord
  2
AcAecLayerStandard
 70
     0
  0
APPID
  5
11943
330
9
100
AcDbSymbolTableRecord
100
AcDbRegAppTableRecord
  2
GENIUS_GENCEN_19
 70
     0
  0
ENDTAB
  0
TABLE
  2
DIMSTYLE
  5
A
330
0
100
AcDbSymbolTable
 70
    34
100
AcDbDimStyleTable
 71
     1
340
2515
  0
DIMSTYLE
105
A76
330
A
100
AcDbSymbolTableRecord
100
AcDbDimStyleTableRecord
  2
STANDARD
 70
     0
 41
3.0
 42
1.0
 43
7.0
 44
2.0
 73
     0
 74
     0
 77
     1
140
2.799999999999999
141
0.0
143
0.0394
147
0.7
171
     4
172
     1
173
     1
176
     3
177
     3
178
     2
271
     3
272
     3
273
     8
274
     4
289
     0
340
A74
341
A66
343
A66
344
A66
  0
DIMSTYLE
105
2515
330
A
100
AcDbSymbolTableRecord
100
AcDbDimStyleTableRecord
  2
SYS
 70
     0
  4
"
 41
1.0
 42
1.0
 43
10.0
 44
1.0
 47
0.1
 48
0.1
 73
     0
 74
     0
 77
     1
 78
     8
 79
     2
140
3.5
141
0.0
143
0.0393701
146
0.71
147
1.5
172
     1
176
   256
177
   256
178
     7
271
     2
272
     2
283
     0
284
     8
340
11
371
    -1
372
    -1
1001
ACAD_DSTYLE_DIMJOGGED_JOGANGLE_SYMBOL
1070
   384
1040
0.7853981633974483
1001
ACAD_DSTYLE_DIMARC_LENGTH_SYMBOL
1070
   379
1070
     1
  0
DIMSTYLE
105
2516
102
{ACAD_REACTORS
330
12610
102
}
330
A
100
AcDbSymbolTableRecord
100
AcDbDimStyleTableRecord
  2
SYS$3
 70
     0
  4
"
 41
2.0
 42
1.0
 43
10.0
 44
1.0
 47
0.1
 48
0.1
 73
     0
 77
     1
 78
     8
 79
     2
140
3.5
141
0.0
143
0.0393701
146
0.71
147
1.5
176
   256
177
   256
178
     2
271
     2
272
     2
283
     0
284
     8
288
     1
340
11
342
A66
371
    -1
372
    -1
1001
ACAD_DSTYLE_DIMJOGGED_JOGANGLE_SYMBOL
1070
   384
1040
0.7853981633974483
1001
ACAD_DSTYLE_DIMARC_LENGTH_SYMBOL
1070
   379
1070
     1
  0
DIMSTYLE
105
2517
330
A
100
AcDbSymbolTableRecord
100
AcDbDimStyleTableRecord
  2
SYS$4
 70
     0
  4
"
 41
2.0
 42
1.0
 43
10.0
 44
1.0
 47
0.1
 48
0.1
 73
     0
 77
     1
 78
     8
 79
     2
140
3.5
141
0.0
143
0.0393701
146
0.71
147
1.5
173
     1
176
   256
177
   256
178
     2
271
     2
272
     2
283
     0
284
     8
288
     1
340
11
344
A66
371
    -1
372
    -1
1001
ACAD_DSTYLE_DIMJOGGED_JOGANGLE_SYMBOL
1070
   384
1040
0.7853981633974483
1001
ACAD_DSTYLE_DIMARC_LENGTH_SYMBOL
1070
   379
1070
     1
  0
DIMSTYLE
105
2518
330
A
100
AcDbSymbolTableRecord
100
AcDbDimStyleTableRecord
  2
SYS$6
 70
     0
  4
"
 41
2.0
 42
1.0
 43
10.0
 44
1.0
 47
0.1
 48
0.1
 73
     0
 74
     0
 78
     8
 79
     2
140
3.5
141
0.0
143
0.0393701
146
0.71
147
1.5
172
     1
176
   256
177
   256
178
     2
271
     2
272
     2
283
     0
284
     8
340
11
341
A66
371
    -1
372
    -1
1001
ACAD_DSTYLE_DIMJOGGED_JOGANGLE_SYMBOL
1070
   384
1040
0.7853981633974483
1001
ACAD_DSTYLE_DIMARC_LENGTH_SYMBOL
1070
   379
1070
     1
  0
DIMSTYLE
105
2519
330
A
100
AcDbSymbolTableRecord
100
AcDbDimStyleTableRecord
  2
SYS$7
 70
     0
  4
"
 41
2.0
 42
1.0
 43
10.0
 44
1.0
 47
0.1
 48
0.1
 73
     0
 74
     0
 77
     1
 78
     8
 79
     2
140
5.0
141
0.0
143
0.0393701
146
0.71
147
1.5
172
     1
176
   256
177
   256
178
     2
271
     2
272
     2
283
     0
284
     8
340
11
341
A66
342
A66
371
    -1
372
    -1
1001
ACAD_DSTYLE_DIMJOGGED_JOGANGLE_SYMBOL
1070
   384
1040
0.7853981633974483
1001
ACAD_DSTYLE_DIMARC_LENGTH_SYMBOL
1070
   379
1070
     1
  0
DIMSTYLE
105
251A
330
A
100
AcDbSymbolTableRecord
100
AcDbDimStyleTableRecord
  2
SYS$SF
 70
     0
  4
"
 41
2.5
 42
1.0
 43
10.0
 44
1.0
 47
0.1
 48
0.1
 73
     0
 74
     0
 75
     1
 76
     1
 77
     1
 78
     8
 79
     2
140
3.5
141
0.0
143
0.0393701
146
0.71
147
1.5
172
     1
176
   256
177
   256
178
     2
271
     2
272
     3
283
     0
284
     8
340
11
341
6C4
342
6C4
371
    -1
372
    -1
1001
ACAD_DSTYLE_DIMJOGGED_JOGANGLE_SYMBOL
1070
   384
1040
0.7853981633974483
1001
ACAD_DSTYLE_DIMARC_LENGTH_SYMBOL
1070
   379
1070
     1
  0
DIMSTYLE
105
251B
330
A
100
AcDbSymbolTableRecord
100
AcDbDimStyleTableRecord
  2
SYS$SH
 70
     0
  4
"
 41
2.5
 42
1.0
 43
10.0
 44
1.0
 47
0.1
 48
0.1
 73
     0
 74
     0
 75
     1
 76
     1
 77
     1
 78
     8
 79
     2
140
3.5
141
0.0
143
0.0393701
144
2.0
146
0.71
147
1.5
172
     1
173
     1
176
   256
177
   256
178
     2
271
     2
272
     3
283
     0
284
     8
340
11
341
6C4
343
72
344
6C4
371
    -1
372
    -1
1001
ACAD_DSTYLE_DIMJOGGED_JOGANGLE_SYMBOL
1070
   384
1040
0.7853981633974483
1001
ACAD_DSTYLE_DIMARC_LENGTH_SYMBOL
1070
   379
1070
     1
  0
DIMSTYLE
105
2A59
330
A
100
AcDbSymbolTableRecord
100
AcDbDimStyleTableRecord
  2
SYS$2
 70
     0
  4
"
 41
1.0
 42
1.0
 43
10.0
 44
1.0
 47
0.1
 48
0.1
 73
     0
 74
     0
 77
     1
 78
     8
 79
     2
140
3.5
141
0.0
143
0.0393701
146
0.71
147
1.5
172
     1
176
   256
177
   256
178
     2
271
     2
272
     2
283
     0
284
     8
340
11
342
6C4
371
    -1
372
    -1
1001
ACAD_DSTYLE_DIMJOGGED_JOGANGLE_SYMBOL
1070
   384
1040
0.7853981633974483
1001
ACAD_DSTYLE_DIMARC_LENGTH_SYMBOL
1070
   379
1070
     1
  0
DIMSTYLE
105
2AAB
102
{ACAD_REACTORS
330
123EE
330
12423
330
12462
330
1249D
330
124BC
330
124FA
330
1258B
330
125BC
330
125E4
330
125FA
330
12626
330
1264B
330
12661
330
12692
330
126A8
102
}
330
A
100
AcDbSymbolTableRecord
100
AcDbDimStyleTableRecord
  2
SYS$0
 70
     0
  4
"
 41
1.0
 42
1.0
 43
10.0
 44
1.0
 47
0.1
 48
0.1
 73
     0
 74
     0
 77
     1
 78
     8
 79
     2
140
3.200000000000001
141
0.0
143
0.0393701
146
0.71
147
1.5
172
     1
176
   256
177
   256
178
     2
271
     2
272
     2
283
     0
284
     8
340
11
341
A66
342
6C4
371
    -1
372
    -1
1001
ACAD_DSTYLE_DIMJOGGED_JOGANGLE_SYMBOL
1070
   384
1040
0.7853981633974483
1001
ACAD_DSTYLE_DIMARC_LENGTH_SYMBOL
1070
   379
1070
     1
  0
DIMSTYLE
105
AF69
330
A
100
AcDbSymbolTableRecord
100
AcDbDimStyleTableRecord
  2
DIMSTYLE
 70
     0
 41
1.0
 42
2.54
 44
2.54
 73
     0
 74
     0
140
3.2
147
1.6
173
     1
279
     2
340
11
  0
DIMSTYLE
105
AF6A
330
A
100
AcDbSymbolTableRecord
100
AcDbDimStyleTableRecord
  2
AM_ANSI
 70
     0
  4
mm
 41
0.1
 42
0.05
 43
0.5
 44
0.1
 47
0.1
 48
0.1
 78
     7
 79
     2
140
0.12
141
0.0
146
0.71
147
0.06
176
   256
177
   256
178
     2
274
     4
284
     7
340
11
371
    -1
372
    -1
1001
ACAD_DSTYLE_DIMJOGGED_JOGANGLE_SYMBOL
1070
   384
1040
0.7853981633974483
1001
ACAD_DSTYLE_DIMARC_LENGTH_SYMBOL
1070
   379
1070
     1
  0
DIMSTYLE
105
AF6B
330
A
100
AcDbSymbolTableRecord
100
AcDbDimStyleTableRecord
  2
AM_ANSI$3
 70
     0
  4
mm
 41
0.1
 42
0.05
 43
0.5
 44
0.1
 47
0.1
 48
0.1
 78
     7
 79
     2
140
0.12
141
0.0
146
0.71
147
0.06
176
   256
177
   256
178
     2
274
     4
284
     7
288
     1
289
     0
340
11
371
    -1
372
    -1
1001
ACAD_DSTYLE_DIMJOGGED_JOGANGLE_SYMBOL
1070
   384
1040
0.7853981633974483
1001
ACAD_DSTYLE_DIMARC_LENGTH_SYMBOL
1070
   379
1070
     1
  0
DIMSTYLE
105
AF6C
330
A
100
AcDbSymbolTableRecord
100
AcDbDimStyleTableRecord
  2
AM_ANSI$4
 70
     0
  4
mm
 41
0.1
 42
0.05
 43
0.5
 44
0.1
 47
0.1
 48
0.1
 78
     7
 79
     2
140
0.12
141
0.0
146
0.71
147
0.06
176
   256
177
   256
178
     2
274
     4
284
     7
288
     1
289
     0
340
11
371
    -1
372
    -1
1001
ACAD_DSTYLE_DIMJOGGED_JOGANGLE_SYMBOL
1070
   384
1040
0.7853981633974483
1001
ACAD_DSTYLE_DIMARC_LENGTH_SYMBOL
1070
   379
1070
     1
  0
DIMSTYLE
105
AF6D
330
A
100
AcDbSymbolTableRecord
100
AcDbDimStyleTableRecord
  2
AM_ANSI$7
 70
     0
  4
mm
 41
0.1
 42
0.05
 43
0.5
 44
0.1
 47
0.1
 48
0.1
 78
     7
 79
     2
140
0.24
141
0.0
146
0.71
147
0.06
176
   256
177
   256
178
     2
274
     4
284
     7
340
11
371
    -1
372
    -1
1001
ACAD_DSTYLE_DIMJOGGED_JOGANGLE_SYMBOL
1070
   384
1040
0.7853981633974483
1001
ACAD_DSTYLE_DIMARC_LENGTH_SYMBOL
1070
   379
1070
     1
  0
DIMSTYLE
105
AF6E
330
A
100
AcDbSymbolTableRecord
100
AcDbDimStyleTableRecord
  2
AM_ANSI$SF
 70
     0
  4
mm
 41
0.1
 42
0.05
 43
0.5
 44
0.1
 47
0.1
 48
0.1
 75
     1
 76
     1
 78
     7
 79
     2
140
0.12
141
0.0
146
0.71
147
0.06
176
   256
177
   256
178
     2
274
     4
284
     7
340
11
371
    -1
372
    -1
1001
ACAD_DSTYLE_DIMJOGGED_JOGANGLE_SYMBOL
1070
   384
1040
0.7853981633974483
1001
ACAD_DSTYLE_DIMARC_LENGTH_SYMBOL
1070
   379
1070
     1
  0
DIMSTYLE
105
AF6F
330
A
100
AcDbSymbolTableRecord
100
AcDbDimStyleTableRecord
  2
AM_ANSI$SH
 70
     0
  4
mm
 41
0.1
 42
0.05
 43
0.5
 44
0.1
 47
0.1
 48
0.1
 75
     1
 76
     1
 78
     7
 79
     2
140
0.12
141
0.0
146
0.71
147
0.06
173
     1
176
   256
177
   256
178
     2
274
     4
284
     7
340
11
343
72
371
    -1
372
    -1
1001
ACAD_DSTYLE_DIMJOGGED_JOGANGLE_SYMBOL
1070
   384
1040
0.7853981633974483
1001
ACAD_DSTYLE_DIMARC_LENGTH_SYMBOL
1070
   379
1070
     1
  0
DIMSTYLE
105
B2E4
330
A
100
AcDbSymbolTableRecord
100
AcDbDimStyleTableRecord
  2
AM_ISO
 70
     0
  4
"
 41
2.5
 42
1.0
 43
10.0
 44
1.0
 47
0.1
 48
0.1
 73
     0
 74
     0
 77
     1
 78
     8
 79
     2
140
3.5
141
0.0
143
0.0393701
146
0.71
147
1.5
172
     1
176
   256
177
   256
178
     2
271
     2
272
     3
274
     4
283
     0
284
     8
340
11
371
    -1
372
    -1
  0
DIMSTYLE
105
B2E5
330
A
100
AcDbSymbolTableRecord
100
AcDbDimStyleTableRecord
  2
AM_ISO$3
 70
     0
  4
"
 41
2.5
 42
1.0
 43
10.0
 44
1.0
 47
0.1
 48
0.1
 73
     0
 77
     1
 78
     8
 79
     2
140
3.5
141
0.0
143
0.0393701
146
0.71
147
1.5
176
   256
177
   256
178
     2
271
     2
272
     3
274
     4
283
     0
284
     8
288
     1
289
     0
340
11
371
    -1
372
    -1
  0
DIMSTYLE
105
B2E6
330
A
100
AcDbSymbolTableRecord
100
AcDbDimStyleTableRecord
  2
AM_ISO$4
 70
     0
  4
"
 41
2.5
 42
1.0
 43
10.0
 44
1.0
 47
0.1
 48
0.1
 73
     0
 77
     1
 78
     8
 79
     2
140
3.5
141
0.0
143
0.0393701
146
0.71
147
1.5
176
   256
177
   256
178
     2
271
     2
272
     3
274
     4
283
     0
284
     8
288
     1
289
     0
340
11
371
    -1
372
    -1
  0
DIMSTYLE
105
B2E7
330
A
100
AcDbSymbolTableRecord
100
AcDbDimStyleTableRecord
  2
AM_ISO$6
 70
     0
  4
"
 41
2.5
 42
1.0
 43
10.0
 44
1.0
 47
0.1
 48
0.1
 73
     0
 74
     0
 78
     8
 79
     2
140
3.5
141
0.0
143
0.0393701
146
0.71
147
1.5
172
     1
176
   256
177
   256
178
     2
271
     2
272
     3
274
     4
283
     0
284
     8
340
11
371
    -1
372
    -1
  0
DIMSTYLE
105
B2E8
330
A
100
AcDbSymbolTableRecord
100
AcDbDimStyleTableRecord
  2
AM_ISO$7
 70
     0
  4
"
 41
2.5
 42
1.0
 43
10.0
 44
1.0
 47
0.1
 48
0.1
 73
     0
 74
     0
 77
     1
 78
     8
 79
     2
140
5.0
141
0.0
143
0.0393701
146
0.71
147
1.5
172
     1
176
   256
177
   256
178
     2
271
     2
272
     3
274
     4
283
     0
284
     8
340
11
371
    -1
372
    -1
  0
DIMSTYLE
105
B2E9
330
A
100
AcDbSymbolTableRecord
100
AcDbDimStyleTableRecord
  2
AM_ISO$SF
 70
     0
  4
"
 41
2.5
 42
1.0
 43
10.0
 44
1.0
 47
0.1
 48
0.1
 73
     0
 74
     0
 75
     1
 76
     1
 77
     1
 78
     8
 79
     2
140
3.5
141
0.0
143
0.0393701
146
0.71
147
1.5
172
     1
176
   256
177
   256
178
     2
271
     2
272
     3
274
     4
283
     0
284
     8
340
11
371
    -1
372
    -1
  0
DIMSTYLE
105
B2EA
330
A
100
AcDbSymbolTableRecord
100
AcDbDimStyleTableRecord
  2
AM_ISO$SH
 70
     0
  4
"
 41
2.5
 42
1.0
 43
10.0
 44
1.0
 47
0.1
 48
0.1
 73
     0
 74
     0
 75
     1
 76
     1
 77
     1
 78
     8
 79
     2
140
3.5
141
0.0
143
0.0393701
144
2.0
146
0.71
147
1.5
172
     1
173
     1
176
   256
177
   256
178
     2
271
     2
272
     3
274
     4
283
     0
284
     8
340
11
343
72
371
    -1
372
    -1
  0
DIMSTYLE
105
B48A
330
A
100
AcDbSymbolTableRecord
100
AcDbDimStyleTableRecord
  2
AM_ISO$0
 70
     0
  4
"
 41
0.8
 42
1.0
 43
10.0
 44
1.0
 47
0.1
 48
0.1
 73
     0
 74
     0
 77
     1
 78
     8
 79
     2
140
3.2
141
0.0
143
0.0393701
146
0.71
147
0.9999999999999996
172
     1
176
   256
177
   256
178
     2
271
     2
272
     2
283
     0
284
     8
340
11
341
6C4
342
6C4
371
    -1
372
    -1
  0
DIMSTYLE
105
B48B
330
A
100
AcDbSymbolTableRecord
100
AcDbDimStyleTableRecord
  2
AM_ISO$2
 70
     0
  4
"
 41
0.8
 42
1.0
 43
10.0
 44
1.0
 47
0.1
 48
0.1
 73
     0
 74
     0
 77
     3
 78
     8
 79
     2
140
3.200000000000001
141
0.0
143
0.0393701
146
0.71
147
0.9999999999999996
172
     1
176
   256
177
   256
178
     2
271
     2
272
     2
283
     0
284
     8
340
11
342
6C4
371
    -1
372
    -1
  0
DIMSTYLE
105
B6A1
330
A
100
AcDbSymbolTableRecord
100
AcDbDimStyleTableRecord
  2
ISO-25
 70
     0
 41
2.5
 42
0.625
 43
3.75
 44
1.25
 45
0.01
 73
     0
 74
     0
 77
     1
 78
     8
140
2.5
141
2.5
143
0.03937007874016
147
0.625
171
     3
172
     1
271
     2
272
     2
274
     3
278
    44
283
     0
284
     8
340
11
  0
DIMSTYLE
105
B6A2
330
A
100
AcDbSymbolTableRecord
100
AcDbDimStyleTableRecord
  2
原寸
 70
     0
 41
2.5
 42
1.0
 43
10.0
 44
0.7
 73
     0
 74
     0
 77
     3
 78
     8
 79
     2
140
3.5
141
0.0
147
1.0
172
     1
179
     1
271
     2
272
     2
340
B6A0
341
A66
342
A66
  0
DIMSTYLE
105
C8E7
330
A
100
AcDbSymbolTableRecord
100
AcDbDimStyleTableRecord
  2
寸法１
 70
     0
 41
2.5
 42
0.0
 43
2.0
 44
1.0
 73
     0
 74
     0
 77
     3
 78
     8
140
2.5
141
2.5
143
0.0394
146
0.7
147
0.625
171
     4
172
     1
173
     1
176
     2
177
     2
178
     1
273
     8
274
     4
340
C8E5
341
C6ED
343
C6ED
344
C6ED
  0
DIMSTYLE
105
C8E8
330
A
100
AcDbSymbolTableRecord
100
AcDbDimStyleTableRecord
  2
直径
 70
     0
  3
%%c<>
 41
2.0
 42
0.0
 43
1.0
 44
1.0
 73
     0
 74
     0
 77
     3
 78
     8
140
2.5
146
0.7
147
1.0
172
     1
173
     1
176
     2
177
     2
178
     1
271
     3
272
     3
284
     8
340
11
341
C6ED
343
C6ED
344
C6ED
  0
DIMSTYLE
105
C8E9
330
A
100
AcDbSymbolTableRecord
100
AcDbDimStyleTableRecord
  2
直径尺度２／１
 70
     0
  3
%%c<>
 41
2.0
 42
0.0
 43
1.0
 44
1.0
 73
     0
 74
     0
 77
     3
 78
     8
140
2.5
144
0.5
146
0.7
147
1.0
172
     1
173
     1
176
     2
177
     2
178
     1
271
     3
272
     3
284
     8
340
11
341
C6ED
343
C6ED
344
C6ED
  0
DIMSTYLE
105
C8EA
330
A
100
AcDbSymbolTableRecord
100
AcDbDimStyleTableRecord
  2
直径尺度１／２
 70
     0
  3
%%c<>
 41
2.0
 42
0.0
 43
1.0
 44
1.0
 73
     0
 74
     0
 77
     3
 78
     8
140
2.5
144
2.0
146
0.7
147
1.0
172
     1
173
     1
176
     2
177
     2
178
     1
271
     3
272
     3
284
     8
340
11
341
C6ED
343
C6ED
344
C6ED
  0
DIMSTYLE
105
D28D
330
A
100
AcDbSymbolTableRecord
100
AcDbDimStyleTableRecord
  2
STANDARD_WS
 70
     0
 41
2.0
 42
0.0
 43
1.0
 44
1.0
 73
     0
 74
     0
 77
     3
 78
     8
140
2.5
146
0.7
147
1.0
172
     1
173
     1
176
     2
177
     2
178
     1
271
     3
272
     3
284
     8
340
11
341
C6ED
343
C6ED
344
C6ED
  0
DIMSTYLE
105
D28E
330
A
100
AcDbSymbolTableRecord
100
AcDbDimStyleTableRecord
  2
尺度２／１
 70
     0
 41
2.0
 42
0.0
 43
1.0
 44
1.0
 73
     0
 74
     0
 77
     3
 78
     8
140
2.5
144
0.5
146
0.7
147
1.0
172
     1
173
     1
176
     2
177
     2
178
     1
271
     3
272
     3
284
     8
340
11
341
C6ED
343
C6ED
344
C6ED
  0
ENDTAB
  0
TABLE
  2
BLOCK_RECORD
  5
1
330
0
100
AcDbSymbolTable
 70
    33
  0
BLOCK_RECORD
  5
1F
102
{ACAD_XDICTIONARY
360
8A
102
}
330
1
100
AcDbSymbolTableRecord
100
AcDbBlockTableRecord
  2
*Model_Space
340
22
  0
BLOCK_RECORD
  5
1B
330
1
100
AcDbSymbolTableRecord
100
AcDbBlockTableRecord
  2
*Paper_Space
340
1E
  0
BLOCK_RECORD
  5
23
330
1
100
AcDbSymbolTableRecord
100
AcDbBlockTableRecord
  2
*Paper_Space0
340
26
  0
BLOCK_RECORD
  5
72
330
1
100
AcDbSymbolTableRecord
100
AcDbBlockTableRecord
  2
GENAXEH
340
0
  0
BLOCK_RECORD
  5
6C4
330
1
100
AcDbSymbolTableRecord
100
AcDbBlockTableRecord
  2
_Dot
340
0
102
{BLKREFS
331
134F2
331
134F3
331
134FB
331
134FC
331
13506
331
13507
331
1350F
331
13510
331
13518
331
13519
331
13521
331
13522
331
1352A
331
1352B
331
13533
331
13534
331
1353C
331
1353D
331
13545
331
13546
331
13556
331
13557
331
1355F
331
13560
331
13568
331
13569
331
13571
331
13572
331
1357A
331
1357B
102
}
  0
BLOCK_RECORD
  5
A66
330
1
100
AcDbSymbolTableRecord
100
AcDbBlockTableRecord
  2
_OPEN30
340
0
102
{BLKREFS
331
1354E
102
}
  0
BLOCK_RECORD
  5
C6ED
330
1
100
AcDbSymbolTableRecord
100
AcDbBlockTableRecord
  2
_OPEN
340
0
  0
BLOCK_RECORD
  5
123EF
330
1
100
AcDbSymbolTableRecord
100
AcDbBlockTableRecord
  2
*D15
340
0
  0
BLOCK_RECORD
  5
12424
330
1
100
AcDbSymbolTableRecord
100
AcDbBlockTableRecord
  2
*D16
340
0
  0
BLOCK_RECORD
  5
12463
330
1
100
AcDbSymbolTableRecord
100
AcDbBlockTableRecord
  2
*D17
340
0
  0
BLOCK_RECORD
  5
1249E
330
1
100
AcDbSymbolTableRecord
100
AcDbBlockTableRecord
  2
*D18
340
0
  0
BLOCK_RECORD
  5
124BD
330
1
100
AcDbSymbolTableRecord
100
AcDbBlockTableRecord
  2
*D19
340
0
  0
BLOCK_RECORD
  5
124FB
330
1
100
AcDbSymbolTableRecord
100
AcDbBlockTableRecord
  2
*D20
340
0
  0
BLOCK_RECORD
  5
1258C
330
1
100
AcDbSymbolTableRecord
100
AcDbBlockTableRecord
  2
*D21
340
0
  0
BLOCK_RECORD
  5
125BD
330
1
100
AcDbSymbolTableRecord
100
AcDbBlockTableRecord
  2
*D22
340
0
  0
BLOCK_RECORD
  5
125E5
330
1
100
AcDbSymbolTableRecord
100
AcDbBlockTableRecord
  2
*D23
340
0
  0
BLOCK_RECORD
  5
125FB
330
1
100
AcDbSymbolTableRecord
100
AcDbBlockTableRecord
  2
*D24
340
0
  0
BLOCK_RECORD
  5
12611
330
1
100
AcDbSymbolTableRecord
100
AcDbBlockTableRecord
  2
*D25
340
0
  0
BLOCK_RECORD
  5
12627
330
1
100
AcDbSymbolTableRecord
100
AcDbBlockTableRecord
  2
*D26
340
0
  0
BLOCK_RECORD
  5
1264C
330
1
100
AcDbSymbolTableRecord
100
AcDbBlockTableRecord
  2
*D27
340
0
  0
BLOCK_RECORD
  5
12662
330
1
100
AcDbSymbolTableRecord
100
AcDbBlockTableRecord
  2
*D28
340
0
  0
BLOCK_RECORD
  5
12693
330
1
100
AcDbSymbolTableRecord
100
AcDbBlockTableRecord
  2
*D29
340
0
  0
BLOCK_RECORD
  5
126A9
330
1
100
AcDbSymbolTableRecord
100
AcDbBlockTableRecord
  2
*D30
340
0
  0
BLOCK_RECORD
  5
15BB7
330
1
100
AcDbSymbolTableRecord
100
AcDbBlockTableRecord
  2
*S31
340
0
102
{BLKREFS
331
13467
102
}
  0
ENDTAB
  0
ENDSEC
  0
SECTION
  2
BLOCKS
  0
BLOCK
  5
20
330
1F
100
AcDbEntity
  8
0
100
AcDbBlockBegin
  2
*Model_Space
 70
     0
 10
0.0
 20
0.0
 30
0.0
  3
*Model_Space
  1

  0
ENDBLK
  5
21
330
1F
100
AcDbEntity
  8
0
100
AcDbBlockEnd
  0
BLOCK
  5
1C
330
1B
100
AcDbEntity
 67
     1
  8
0
100
AcDbBlockBegin
  2
*Paper_Space
 70
     0
 10
0.0
 20
0.0
 30
0.0
  3
*Paper_Space
  1

  0
ENDBLK
  5
1D
330
1B
100
AcDbEntity
 67
     1
  8
0
100
AcDbBlockEnd
  0
BLOCK
  5
24
330
23
100
AcDbEntity
 67
     1
  8
0
100
AcDbBlockBegin
  2
*Paper_Space0
 70
     0
 10
0.0
 20
0.0
 30
0.0
  3
*Paper_Space0
  1

  0
ENDBLK
  5
25
330
23
100
AcDbEntity
 67
     1
  8
0
100
AcDbBlockEnd
  0
BLOCK
  5
74
330
72
100
AcDbEntity
  8
0
100
AcDbBlockBegin
  2
GENAXEH
 70
     0
 10
0.0
 20
0.0
 30
0.0
  3
GENAXEH
  1

  0
LINE
  5
73
330
72
100
AcDbEntity
  8
0
100
AcDbLine
 10
-1.0
 20
0.0
 30
0.0
 11
1.0
 21
0.0
 31
0.0
  0
ENDBLK
  5
75
330
72
100
AcDbEntity
  8
0
100
AcDbBlockEnd
  0
BLOCK
  5
6C7
330
6C4
100
AcDbEntity
  8
0
100
AcDbBlockBegin
  2
_Dot
 70
     0
 10
0.0
 20
0.0
 30
0.0
  3
_Dot
  1

  0
LWPOLYLINE
  5
6C5
330
6C4
100
AcDbEntity
  8
0
  6
ByBlock
 62
     0
100
AcDbPolyline
 90
        2
 70
     1
 43
0.5
 10
-0.25
 20
0.0
 42
1.0
 10
0.25
 20
0.0
 42
1.0
  0
LINE
  5
6C6
330
6C4
100
AcDbEntity
  8
0
  6
ByBlock
 62
     0
370
    -2
100
AcDbLine
 10
-0.5
 20
0.0
 30
0.0
 11
-1.0
 21
0.0
 31
0.0
  0
ENDBLK
  5
6C8
330
6C4
100
AcDbEntity
  8
0
100
AcDbBlockEnd
  0
BLOCK
  5
A6A
330
A66
100
AcDbEntity
  8
0
100
AcDbBlockBegin
  2
_OPEN30
 70
     0
 10
0.0
 20
0.0
 30
0.0
  3
_OPEN30
  1

  0
LINE
  5
A67
330
A66
100
AcDbEntity
  8
0
  6
ByBlock
 62
     0
100
AcDbLine
 10
-1.0
 20
0.26794919
 30
0.0
 11
0.0
 21
0.0
 31
0.0
  0
LINE
  5
A68
330
A66
100
AcDbEntity
  8
0
  6
ByBlock
 62
     0
100
AcDbLine
 10
0.0
 20
0.0
 30
0.0
 11
-1.0
 21
-0.26794919
 31
0.0
  0
LINE
  5
A69
330
A66
100
AcDbEntity
  8
0
  6
ByBlock
 62
     0
100
AcDbLine
 10
0.0
 20
0.0
 30
0.0
 11
-1.0
 21
0.0
 31
0.0
  0
ENDBLK
  5
A6B
330
A66
100
AcDbEntity
  8
0
100
AcDbBlockEnd
  0
BLOCK
  5
C6EE
330
C6ED
100
AcDbEntity
  8
0
100
AcDbBlockBegin
  2
_OPEN
 70
     0
 10
0.0
 20
0.0
 30
0.0
  3
_OPEN
  1

  0
LINE
  5
C6EF
330
C6ED
100
AcDbEntity
  8
0
  6
ByBlock
 62
     0
100
AcDbLine
 10
-1.0
 20
0.1666666666666666
 30
0.0
 11
0.0
 21
0.0
 31
0.0
  0
LINE
  5
C6F0
330
C6ED
100
AcDbEntity
  8
0
  6
ByBlock
 62
     0
100
AcDbLine
 10
0.0
 20
0.0
 30
0.0
 11
-1.0
 21
-0.1666666666666666
 31
0.0
  0
LINE
  5
C6F1
330
C6ED
100
AcDbEntity
  8
0
  6
ByBlock
 62
     0
100
AcDbLine
 10
0.0
 20
0.0
 30
0.0
 11
-1.0
 21
0.0
 31
0.0
  0
ENDBLK
  5
C6F2
330
C6ED
100
AcDbEntity
  8
0
100
AcDbBlockEnd
  0
BLOCK
  5
123FA
330
123EF
100
AcDbEntity
  8
0
 48
10.0
100
AcDbBlockBegin
  2
*D15
 70
     1
 10
0.0
 20
0.0
 30
0.0
  3
*D15
  1

  0
LINE
  5
134EF
330
123EF
100
AcDbEntity
  8
AM_5
100
AcDbLine
 10
160.2067889013778
 20
-901.094139896579
 30
0.0
 11
152.2067889013779
 21
-901.094139896579
 31
0.0
  0
LINE
  5
134F0
330
123EF
100
AcDbEntity
  8
AM_5
100
AcDbLine
 10
160.2067889013778
 20
-908.494139896579
 30
0.0
 11
152.2067889013779
 21
-908.494139896579
 31
0.0
  0
LINE
  5
134F1
330
123EF
100
AcDbEntity
  8
AM_5
100
AcDbLine
 10
153.2067889013779
 20
-902.094139896579
 30
0.0
 11
153.2067889013779
 21
-907.4941398965789
 31
0.0
  0
INSERT
  5
134F2
330
123EF
100
AcDbEntity
  8
AM_5
100
AcDbBlockReference
  2
_Dot
 10
153.2067889013779
 20
-901.094139896579
 30
0.0
 50
90.0
  0
INSERT
  5
134F3
330
123EF
100
AcDbEntity
  8
AM_5
100
AcDbBlockReference
  2
_Dot
 10
153.2067889013779
 20
-908.494139896579
 30
0.0
 50
270.0
  0
MTEXT
  5
134F4
330
123EF
100
AcDbEntity
  8
AM_5
 62
     2
100
AcDbMText
 10
150.106788901378
 20
-905.1528952499342
 30
0.0
 40
3.200000000000001
 41
0.0
 71
     5
 72
     1
  1
7.4
 11
0.0000000000000001
 21
1.0
 31
0.0
 73
     1
 44
1.0
1001
ACAD
1000
MTEXTBEGIN
1070
    73
1070
     1
1070
    44
1040
1.0
1070
    74
1070
     0
1000
MTEXTEND
  0
POINT
  5
134F5
330
123EF
100
AcDbEntity
  8
Defpoints
 62
     0
100
AcDbPoint
 10
161.2067889013778
 20
-901.094139896579
 30
0.0
  0
POINT
  5
134F6
330
123EF
100
AcDbEntity
  8
Defpoints
 62
     0
100
AcDbPoint
 10
161.2067889013778
 20
-908.494139896579
 30
0.0
  0
POINT
  5
134F7
330
123EF
100
AcDbEntity
  8
Defpoints
 62
     0
100
AcDbPoint
 10
153.2067889013779
 20
-908.494139896579
 30
0.0
  0
ENDBLK
  5
123FB
330
123EF
100
AcDbEntity
  8
0
 48
10.0
100
AcDbBlockEnd
  0
BLOCK
  5
1242F
330
12424
100
AcDbEntity
  8
0
 48
10.0
100
AcDbBlockBegin
  2
*D16
 70
     1
 10
0.0
 20
0.0
 30
0.0
  3
*D16
  1

  0
LINE
  5
134F8
330
12424
100
AcDbEntity
  8
AM_5
100
AcDbLine
 10
251.2067889013779
 20
-911.4941398965793
 30
0.0
 11
261.2067889013778
 21
-911.4941398965795
 31
0.0
  0
LINE
  5
134F9
330
12424
100
AcDbEntity
  8
AM_5
100
AcDbLine
 10
251.2067889013779
 20
-918.8941398965795
 30
0.0
 11
261.2067889013778
 21
-918.8941398965797
 31
0.0
  0
LINE
  5
134FA
330
12424
100
AcDbEntity
  8
AM_5
100
AcDbLine
 10
260.2067889013778
 20
-912.4941398965795
 30
0.0
 11
260.2067889013778
 21
-917.8941398965797
 31
0.0
  0
INSERT
  5
134FB
330
12424
100
AcDbEntity
  8
AM_5
100
AcDbBlockReference
  2
_Dot
 10
260.2067889013778
 20
-911.4941398965795
 30
0.0
 50
90.0
  0
INSERT
  5
134FC
330
12424
100
AcDbEntity
  8
AM_5
100
AcDbBlockReference
  2
_Dot
 10
260.2067889013778
 20
-918.8941398965797
 30
0.0
 50
270.0
  0
MTEXT
  5
134FD
330
12424
100
AcDbEntity
  8
AM_5
 62
     2
100
AcDbMText
 10
257.106788901378
 20
-915.4611721002288
 30
0.0
 40
3.200000000000001
 41
0.0
 71
     5
 72
     1
  1
7.4
 11
0.0000000000000001
 21
1.0
 31
0.0
 73
     1
 44
1.0
1001
ACAD
1000
MTEXTBEGIN
1070
    73
1070
     1
1070
    44
1040
1.0
1070
    74
1070
     0
1000
MTEXTEND
  0
POINT
  5
134FE
330
12424
100
AcDbEntity
  8
Defpoints
 62
     0
100
AcDbPoint
 10
250.2067889013779
 20
-911.4941398965793
 30
0.0
  0
POINT
  5
134FF
330
12424
100
AcDbEntity
  8
Defpoints
 62
     0
100
AcDbPoint
 10
250.2067889013779
 20
-918.8941398965795
 30
0.0
  0
POINT
  5
13500
330
12424
100
AcDbEntity
  8
Defpoints
 62
     0
100
AcDbPoint
 10
260.2067889013778
 20
-918.8941398965797
 30
0.0
  0
ENDBLK
  5
12430
330
12424
100
AcDbEntity
  8
0
 48
10.0
100
AcDbBlockEnd
  0
BLOCK
  5
1246F
330
12463
100
AcDbEntity
  8
0
 48
10.0
100
AcDbBlockBegin
  2
*D17
 70
     1
 10
0.0
 20
0.0
 30
0.0
  3
*D17
  1

  0
LINE
  5
13501
330
12463
100
AcDbEntity
  8
AM_5
100
AcDbLine
 10
215.2067889013779
 20
-908.4941398965794
 30
0.0
 11
269.2067889013779
 21
-908.4941398965796
 31
0.0
  0
LINE
  5
13502
330
12463
100
AcDbEntity
  8
AM_5
100
AcDbLine
 10
251.2067889013779
 20
-911.4941398965797
 30
0.0
 11
269.2067889013779
 21
-911.4941398965799
 31
0.0
  0
LINE
  5
13503
330
12463
100
AcDbEntity
  8
AM_5
100
AcDbLine
 10
268.2067889013779
 20
-907.4941398965796
 30
0.0
 11
268.2067889013779
 21
-906.4941398965796
 31
0.0
  0
LINE
  5
13504
330
12463
100
AcDbEntity
  8
AM_5
100
AcDbLine
 10
268.2067889013779
 20
-912.4941398965798
 30
0.0
 11
268.2067889013779
 21
-913.4941398965798
 31
0.0
  0
LINE
  5
13505
330
12463
100
AcDbEntity
  8
AM_5
100
AcDbLine
 10
268.2067889013779
 20
-908.4941398965796
 30
0.0
 11
268.2067889013779
 21
-911.4941398965799
 31
0.0
  0
INSERT
  5
13506
330
12463
100
AcDbEntity
  8
AM_5
100
AcDbBlockReference
  2
_Dot
 10
268.2067889013779
 20
-908.4941398965796
 30
0.0
 50
270.0
  0
INSERT
  5
13507
330
12463
100
AcDbEntity
  8
AM_5
100
AcDbBlockReference
  2
_Dot
 10
268.2067889013779
 20
-911.4941398965799
 30
0.0
 50
90.0
  0
MTEXT
  5
13508
330
12463
100
AcDbEntity
  8
AM_5
 62
     2
100
AcDbMText
 10
265.106788901378
 20
-909.9941398965794
 30
0.0
 40
3.200000000000001
 41
0.0
 71
     5
 72
     1
  1
3
 11
0.0000000000000001
 21
1.0
 31
0.0
 73
     1
 44
1.0
1001
ACAD
1000
MTEXTBEGIN
1070
    73
1070
     1
1070
    44
1040
1.0
1070
    74
1070
     0
1000
MTEXTEND
  0
POINT
  5
13509
330
12463
100
AcDbEntity
  8
Defpoints
 62
     0
100
AcDbPoint
 10
214.2067889013779
 20
-908.4941398965794
 30
0.0
  0
POINT
  5
1350A
330
12463
100
AcDbEntity
  8
Defpoints
 62
     0
100
AcDbPoint
 10
250.2067889013779
 20
-911.4941398965797
 30
0.0
  0
POINT
  5
1350B
330
12463
100
AcDbEntity
  8
Defpoints
 62
     0
100
AcDbPoint
 10
268.2067889013779
 20
-911.4941398965799
 30
0.0
  0
ENDBLK
  5
12470
330
12463
100
AcDbEntity
  8
0
 48
10.0
100
AcDbBlockEnd
  0
BLOCK
  5
124A8
330
1249E
100
AcDbEntity
  8
0
 48
10.0
100
AcDbBlockBegin
  2
*D18
 70
     1
 10
0.0
 20
0.0
 30
0.0
  3
*D18
  1

  0
LINE
  5
1350C
330
1249E
100
AcDbEntity
  8
AM_5
100
AcDbLine
 10
251.2067889013779
 20
-918.8941398965795
 30
0.0
 11
261.2067889013779
 21
-918.8941398965797
 31
0.0
  0
LINE
  5
1350D
330
1249E
100
AcDbEntity
  8
AM_5
100
AcDbLine
 10
251.2067889013779
 20
-953.8941398965794
 30
0.0
 11
261.2067889013779
 21
-953.8941398965796
 31
0.0
  0
LINE
  5
1350E
330
1249E
100
AcDbEntity
  8
AM_5
100
AcDbLine
 10
260.2067889013779
 20
-919.8941398965796
 30
0.0
 11
260.2067889013779
 21
-952.8941398965796
 31
0.0
  0
INSERT
  5
1350F
330
1249E
100
AcDbEntity
  8
AM_5
100
AcDbBlockReference
  2
_Dot
 10
260.2067889013779
 20
-918.8941398965797
 30
0.0
 50
90.0
  0
INSERT
  5
13510
330
1249E
100
AcDbEntity
  8
AM_5
100
AcDbBlockReference
  2
_Dot
 10
260.2067889013779
 20
-953.8941398965796
 30
0.0
 50
270.0
  0
MTEXT
  5
13511
330
1249E
100
AcDbEntity
  8
AM_5
 62
     2
100
AcDbMText
 10
257.106788901378
 20
-936.3941398965796
 30
0.0
 40
3.200000000000001
 41
0.0
 71
     5
 72
     1
  1
35
 11
0.0000000000000001
 21
1.0
 31
0.0
 73
     1
 44
1.0
1001
ACAD
1000
MTEXTBEGIN
1070
    73
1070
     1
1070
    44
1040
1.0
1070
    74
1070
     0
1000
MTEXTEND
  0
POINT
  5
13512
330
1249E
100
AcDbEntity
  8
Defpoints
 62
     0
100
AcDbPoint
 10
250.2067889013779
 20
-918.8941398965795
 30
0.0
  0
POINT
  5
13513
330
1249E
100
AcDbEntity
  8
Defpoints
 62
     0
100
AcDbPoint
 10
250.2067889013779
 20
-953.8941398965794
 30
0.0
  0
POINT
  5
13514
330
1249E
100
AcDbEntity
  8
Defpoints
 62
     0
100
AcDbPoint
 10
260.2067889013779
 20
-953.8941398965796
 30
0.0
  0
ENDBLK
  5
124A9
330
1249E
100
AcDbEntity
  8
0
 48
10.0
100
AcDbBlockEnd
  0
BLOCK
  5
124C7
330
124BD
100
AcDbEntity
  8
0
 48
10.0
100
AcDbBlockBegin
  2
*D19
 70
     1
 10
0.0
 20
0.0
 30
0.0
  3
*D19
  1

  0
LINE
  5
13515
330
124BD
100
AcDbEntity
  8
AM_5
100
AcDbLine
 10
160.2067889013778
 20
-866.0941398965791
 30
0.0
 11
152.2067889013778
 21
-866.0941398965791
 31
0.0
  0
LINE
  5
13516
330
124BD
100
AcDbEntity
  8
AM_5
100
AcDbLine
 10
160.2067889013778
 20
-901.094139896579
 30
0.0
 11
152.2067889013778
 21
-901.094139896579
 31
0.0
  0
LINE
  5
13517
330
124BD
100
AcDbEntity
  8
AM_5
100
AcDbLine
 10
153.2067889013778
 20
-867.0941398965791
 30
0.0
 11
153.2067889013778
 21
-900.0941398965791
 31
0.0
  0
INSERT
  5
13518
330
124BD
100
AcDbEntity
  8
AM_5
100
AcDbBlockReference
  2
_Dot
 10
153.2067889013778
 20
-866.0941398965791
 30
0.0
 50
90.0
  0
INSERT
  5
13519
330
124BD
100
AcDbEntity
  8
AM_5
100
AcDbBlockReference
  2
_Dot
 10
153.2067889013778
 20
-901.094139896579
 30
0.0
 50
270.0
  0
MTEXT
  5
1351A
330
124BD
100
AcDbEntity
  8
AM_5
 62
     2
100
AcDbMText
 10
150.106788901378
 20
-883.5941398965792
 30
0.0
 40
3.200000000000001
 41
0.0
 71
     5
 72
     1
  1
35
 11
0.0000000000000001
 21
1.0
 31
0.0
 73
     1
 44
1.0
1001
ACAD
1000
MTEXTBEGIN
1070
    73
1070
     1
1070
    44
1040
1.0
1070
    74
1070
     0
1000
MTEXTEND
  0
POINT
  5
1351B
330
124BD
100
AcDbEntity
  8
Defpoints
 62
     0
100
AcDbPoint
 10
161.2067889013778
 20
-866.0941398965791
 30
0.0
  0
POINT
  5
1351C
330
124BD
100
AcDbEntity
  8
Defpoints
 62
     0
100
AcDbPoint
 10
161.2067889013778
 20
-901.094139896579
 30
0.0
  0
POINT
  5
1351D
330
124BD
100
AcDbEntity
  8
Defpoints
 62
     0
100
AcDbPoint
 10
153.2067889013778
 20
-901.094139896579
 30
0.0
  0
ENDBLK
  5
124C8
330
124BD
100
AcDbEntity
  8
0
 48
10.0
100
AcDbBlockEnd
  0
BLOCK
  5
12505
330
124FB
100
AcDbEntity
  8
0
 48
10.0
100
AcDbBlockBegin
  2
*D20
 70
     1
 10
0.0
 20
0.0
 30
0.0
  3
*D20
  1

  0
LINE
  5
1351E
330
124FB
100
AcDbEntity
  8
AM_5
100
AcDbLine
 10
251.2067889013779
 20
-911.4941398965793
 30
0.0
 11
269.2067889013774
 21
-911.4941398965795
 31
0.0
  0
LINE
  5
1351F
330
124FB
100
AcDbEntity
  8
AM_5
100
AcDbLine
 10
251.2067889013779
 20
-961.4941398965795
 30
0.0
 11
269.2067889013774
 21
-961.4941398965795
 31
0.0
  0
LINE
  5
13520
330
124FB
100
AcDbEntity
  8
AM_5
100
AcDbLine
 10
268.2067889013774
 20
-912.4941398965795
 30
0.0
 11
268.2067889013774
 21
-960.4941398965795
 31
0.0
  0
INSERT
  5
13521
330
124FB
100
AcDbEntity
  8
AM_5
100
AcDbBlockReference
  2
_Dot
 10
268.2067889013774
 20
-911.4941398965795
 30
0.0
 50
90.0
  0
INSERT
  5
13522
330
124FB
100
AcDbEntity
  8
AM_5
100
AcDbBlockReference
  2
_Dot
 10
268.2067889013774
 20
-961.4941398965795
 30
0.0
 50
270.0
  0
MTEXT
  5
13523
330
124FB
100
AcDbEntity
  8
AM_5
 62
     2
100
AcDbMText
 10
265.1067889013776
 20
-936.4941398965793
 30
0.0
 40
3.200000000000001
 41
0.0
 71
     5
 72
     1
  1
（50）
 11
0.0000000000000001
 21
1.0
 31
0.0
 73
     1
 44
1.0
1001
ACAD
1000
MTEXTBEGIN
1070
    73
1070
     1
1070
    44
1040
1.0
1070
    74
1070
     0
1000
MTEXTEND
  0
POINT
  5
13524
330
124FB
100
AcDbEntity
  8
Defpoints
 62
     0
100
AcDbPoint
 10
250.2067889013779
 20
-911.4941398965793
 30
0.0
  0
POINT
  5
13525
330
124FB
100
AcDbEntity
  8
Defpoints
 62
     0
100
AcDbPoint
 10
250.2067889013779
 20
-961.4941398965795
 30
0.0
  0
POINT
  5
13526
330
124FB
100
AcDbEntity
  8
Defpoints
 62
     0
100
AcDbPoint
 10
268.2067889013774
 20
-961.4941398965795
 30
0.0
  0
ENDBLK
  5
12506
330
124FB
100
AcDbEntity
  8
0
 48
10.0
100
AcDbBlockEnd
  0
BLOCK
  5
12596
330
1258C
100
AcDbEntity
  8
0
 48
10.0
100
AcDbBlockBegin
  2
*D21
 70
     1
 10
0.0
 20
0.0
 30
0.0
  3
*D21
  1

  0
LINE
  5
13527
330
1258C
100
AcDbEntity
  8
AM_5
100
AcDbLine
 10
212.2067889013779
 20
-858.4941398965792
 30
0.0
 11
277.2067889013777
 21
-858.4941398965794
 31
0.0
  0
LINE
  5
13528
330
1258C
100
AcDbEntity
  8
AM_5
100
AcDbLine
 10
251.2067889013779
 20
-961.4941398965793
 30
0.0
 11
277.2067889013777
 21
-961.4941398965795
 31
0.0
  0
LINE
  5
13529
330
1258C
100
AcDbEntity
  8
AM_5
100
AcDbLine
 10
276.2067889013778
 20
-859.4941398965794
 30
0.0
 11
276.2067889013777
 21
-960.4941398965793
 31
0.0
  0
INSERT
  5
1352A
330
1258C
100
AcDbEntity
  8
AM_5
100
AcDbBlockReference
  2
_Dot
 10
276.2067889013778
 20
-858.4941398965794
 30
0.0
 50
90.0
  0
INSERT
  5
1352B
330
1258C
100
AcDbEntity
  8
AM_5
100
AcDbBlockReference
  2
_Dot
 10
276.2067889013777
 20
-961.4941398965795
 30
0.0
 50
270.0
  0
MTEXT
  5
1352C
330
1258C
100
AcDbEntity
  8
AM_5
 62
     2
100
AcDbMText
 10
273.1067889013778
 20
-911.4941398965793
 30
0.0
 40
3.200000000000001
 41
0.0
 71
     5
 72
     1
  1
（103）
 11
0.0000000000000001
 21
1.0
 31
0.0
 73
     1
 44
1.0
1001
ACAD
1000
MTEXTBEGIN
1070
    73
1070
     1
1070
    44
1040
1.0
1070
    74
1070
     0
1000
MTEXTEND
  0
POINT
  5
1352D
330
1258C
100
AcDbEntity
  8
Defpoints
 62
     0
100
AcDbPoint
 10
211.2067889013779
 20
-858.4941398965792
 30
0.0
  0
POINT
  5
1352E
330
1258C
100
AcDbEntity
  8
Defpoints
 62
     0
100
AcDbPoint
 10
250.2067889013779
 20
-961.4941398965793
 30
0.0
  0
POINT
  5
1352F
330
1258C
100
AcDbEntity
  8
Defpoints
 62
     0
100
AcDbPoint
 10
276.2067889013777
 20
-961.4941398965795
 30
0.0
  0
ENDBLK
  5
12597
330
1258C
100
AcDbEntity
  8
0
 48
10.0
100
AcDbBlockEnd
  0
BLOCK
  5
125C7
330
125BD
100
AcDbEntity
  8
0
 48
10.0
100
AcDbBlockBegin
  2
*D22
 70
     1
 10
0.0
 20
0.0
 30
0.0
  3
*D22
  1

  0
LINE
  5
13530
330
125BD
100
AcDbEntity
  8
AM_5
100
AcDbLine
 10
160.2067889013778
 20
-858.4941398965806
 30
0.0
 11
144.2067889013794
 21
-858.4941398965806
 31
0.0
  0
LINE
  5
13531
330
125BD
100
AcDbEntity
  8
AM_5
100
AcDbLine
 10
160.2067889013774
 20
-908.494139896579
 30
0.0
 11
144.2067889013794
 21
-908.494139896579
 31
0.0
  0
LINE
  5
13532
330
125BD
100
AcDbEntity
  8
AM_5
100
AcDbLine
 10
145.2067889013795
 20
-859.4941398965806
 30
0.0
 11
145.2067889013795
 21
-907.4941398965789
 31
0.0
  0
INSERT
  5
13533
330
125BD
100
AcDbEntity
  8
AM_5
100
AcDbBlockReference
  2
_Dot
 10
145.2067889013795
 20
-858.4941398965806
 30
0.0
 50
90.0
  0
INSERT
  5
13534
330
125BD
100
AcDbEntity
  8
AM_5
100
AcDbBlockReference
  2
_Dot
 10
145.2067889013795
 20
-908.494139896579
 30
0.0
 50
270.0
  0
MTEXT
  5
13535
330
125BD
100
AcDbEntity
  8
AM_5
 62
     2
100
AcDbMText
 10
142.1067889013796
 20
-883.4941398965797
 30
0.0
 40
3.200000000000001
 41
0.0
 71
     5
 72
     1
  1
（50）
 11
0.0000000000000001
 21
1.0
 31
0.0
 73
     1
 44
1.0
1001
ACAD
1000
MTEXTBEGIN
1070
    73
1070
     1
1070
    44
1040
1.0
1070
    74
1070
     0
1000
MTEXTEND
  0
POINT
  5
13536
330
125BD
100
AcDbEntity
  8
Defpoints
 62
     0
100
AcDbPoint
 10
161.2067889013778
 20
-858.4941398965806
 30
0.0
  0
POINT
  5
13537
330
125BD
100
AcDbEntity
  8
Defpoints
 62
     0
100
AcDbPoint
 10
161.2067889013774
 20
-908.494139896579
 30
0.0
  0
POINT
  5
13538
330
125BD
100
AcDbEntity
  8
Defpoints
 62
     0
100
AcDbPoint
 10
145.2067889013795
 20
-908.494139896579
 30
0.0
  0
ENDBLK
  5
125C8
330
125BD
100
AcDbEntity
  8
0
 48
10.0
100
AcDbBlockEnd
  0
BLOCK
  5
125EF
330
125E5
100
AcDbEntity
  8
0
 48
10.0
100
AcDbBlockBegin
  2
*D23
 70
     1
 10
0.0
 20
0.0
 30
0.0
  3
*D23
  1

  0
LINE
  5
13539
330
125E5
100
AcDbEntity
  8
AM_5
100
AcDbLine
 10
205.7067889013779
 20
-967.9941398965793
 30
0.0
 11
205.7067889013779
 21
-982.4941398965792
 31
0.0
  0
LINE
  5
1353A
330
125E5
100
AcDbEntity
  8
AM_5
100
AcDbLine
 10
250.2067889013779
 20
-962.4941398965793
 30
0.0
 11
250.2067889013779
 21
-982.4941398965792
 31
0.0
  0
LINE
  5
1353B
330
125E5
100
AcDbEntity
  8
AM_5
100
AcDbLine
 10
206.7067889013779
 20
-981.4941398965792
 30
0.0
 11
249.2067889013779
 21
-981.4941398965792
 31
0.0
  0
INSERT
  5
1353C
330
125E5
100
AcDbEntity
  8
AM_5
100
AcDbBlockReference
  2
_Dot
 10
205.7067889013779
 20
-981.4941398965792
 30
0.0
 50
180.0
  0
INSERT
  5
1353D
330
125E5
100
AcDbEntity
  8
AM_5
100
AcDbBlockReference
  2
_Dot
 10
250.2067889013779
 20
-981.4941398965792
 30
0.0
  0
MTEXT
  5
1353E
330
125E5
100
AcDbEntity
  8
AM_5
 62
     2
100
AcDbMText
 10
228.3263687381104
 20
-978.3941398965792
 30
0.0
 40
3.200000000000001
 41
0.0
 71
     5
 72
     1
  1
44.5
 73
     1
 44
1.0
1001
ACAD
1000
MTEXTBEGIN
1070
    73
1070
     1
1070
    44
1040
1.0
1070
    74
1070
     0
1000
MTEXTEND
  0
POINT
  5
1353F
330
125E5
100
AcDbEntity
  8
Defpoints
 62
     0
100
AcDbPoint
 10
205.7067889013779
 20
-966.9941398965793
 30
0.0
  0
POINT
  5
13540
330
125E5
100
AcDbEntity
  8
Defpoints
 62
     0
100
AcDbPoint
 10
250.2067889013779
 20
-961.4941398965793
 30
0.0
  0
POINT
  5
13541
330
125E5
100
AcDbEntity
  8
Defpoints
 62
     0
100
AcDbPoint
 10
250.2067889013779
 20
-981.4941398965792
 30
0.0
  0
ENDBLK
  5
125F0
330
125E5
100
AcDbEntity
  8
0
 48
10.0
100
AcDbBlockEnd
  0
BLOCK
  5
12605
330
125FB
100
AcDbEntity
  8
0
 48
10.0
100
AcDbBlockBegin
  2
*D24
 70
     1
 10
0.0
 20
0.0
 30
0.0
  3
*D24
  1

  0
LINE
  5
13542
330
125FB
100
AcDbEntity
  8
AM_5
100
AcDbLine
 10
161.2067889013778
 20
-909.4941398965794
 30
0.0
 11
161.2067889013778
 21
-982.4941398965792
 31
0.0
  0
LINE
  5
13543
330
125FB
100
AcDbEntity
  8
AM_5
100
AcDbLine
 10
205.7067889013779
 20
-964.4941398965793
 30
0.0
 11
205.7067889013779
 21
-982.4941398965792
 31
0.0
  0
LINE
  5
13544
330
125FB
100
AcDbEntity
  8
AM_5
100
AcDbLine
 10
162.2067889013778
 20
-981.4941398965792
 30
0.0
 11
204.7067889013779
 21
-981.4941398965792
 31
0.0
  0
INSERT
  5
13545
330
125FB
100
AcDbEntity
  8
AM_5
100
AcDbBlockReference
  2
_Dot
 10
161.2067889013778
 20
-981.4941398965792
 30
0.0
 50
180.0
  0
INSERT
  5
13546
330
125FB
100
AcDbEntity
  8
AM_5
100
AcDbBlockReference
  2
_Dot
 10
205.7067889013779
 20
-981.4941398965792
 30
0.0
  0
MTEXT
  5
13547
330
125FB
100
AcDbEntity
  8
AM_5
 62
     2
100
AcDbMText
 10
184.4741454625476
 20
-978.3941398965792
 30
0.0
 40
3.200000000000001
 41
0.0
 71
     5
 72
     1
  1
44.5
 73
     1
 44
1.0
1001
ACAD
1000
MTEXTBEGIN
1070
    73
1070
     1
1070
    44
1040
1.0
1070
    74
1070
     0
1000
MTEXTEND
  0
POINT
  5
13548
330
125FB
100
AcDbEntity
  8
Defpoints
 62
     0
100
AcDbPoint
 10
161.2067889013778
 20
-908.4941398965794
 30
0.0
  0
POINT
  5
13549
330
125FB
100
AcDbEntity
  8
Defpoints
 62
     0
100
AcDbPoint
 10
205.7067889013779
 20
-963.4941398965793
 30
0.0
  0
POINT
  5
1354A
330
125FB
100
AcDbEntity
  8
Defpoints
 62
     0
100
AcDbPoint
 10
205.7067889013779
 20
-981.4941398965792
 30
0.0
  0
ENDBLK
  5
12606
330
125FB
100
AcDbEntity
  8
0
 48
10.0
100
AcDbBlockEnd
  0
BLOCK
  5
12618
330
12611
100
AcDbEntity
  8
0
 48
10.0
100
AcDbBlockBegin
  2
*D25
 70
     1
 10
0.0
 20
0.0
 30
0.0
  3
*D25
  1

  0
LINE
  5
1354B
330
12611
100
AcDbEntity
  8
AM_5
 48
10.0
100
AcDbLine
 10
190.5758795003789
 20
-821.565597842547
 30
0.0
 11
197.5592128337125
 21
-821.565597842547
 31
0.0
  0
LINE
  5
1354C
330
12611
100
AcDbEntity
  8
AM_5
 48
10.0
100
AcDbLine
 10
197.5592128337125
 20
-821.565597842547
 30
0.0
 11
201.8051143229703
 21
-814.5952667292815
 31
0.0
  0
MTEXT
  5
1354D
330
12611
100
AcDbEntity
  8
AM_5
 62
     2
 48
10.0
100
AcDbMText
 10
193.3175461670455
 20
-818.3155978425471
 30
0.0
 40
3.5
 41
0.0
 71
     5
 72
     1
  1
\U+220511
 73
     1
 44
1.0
1001
ACAD
1000
MTEXTBEGIN
1070
    73
1070
     1
1070
    44
1040
1.0
1070
    74
1070
     0
1000
MTEXTEND
  0
INSERT
  5
1354E
330
12611
100
AcDbEntity
  8
AM_5
 48
10.0
100
AcDbBlockReference
  2
_OPEN30
 10
202.8455608772122
 20
-812.8872061426028
 30
0.0
 41
2.0
 42
2.0
 43
2.0
 50
58.65277032370034
  0
POINT
  5
1354F
330
12611
100
AcDbEntity
  8
Defpoints
 62
     0
 48
10.0
100
AcDbPoint
 10
202.8455608772122
 20
-812.8872061426028
 30
0.0
  0
POINT
  5
13550
330
12611
100
AcDbEntity
  8
Defpoints
 62
     0
 48
10.0
100
AcDbPoint
 10
208.568016925543
 20
-803.4928729158684
 30
0.0
  0
ENDBLK
  5
12619
330
12611
100
AcDbEntity
  8
0
 48
10.0
100
AcDbBlockEnd
  0
BLOCK
  5
12633
330
12627
100
AcDbEntity
  8
0
 48
10.0
100
AcDbBlockBegin
  2
*D26
 70
     1
 10
0.0
 20
0.0
 30
0.0
  3
*D26
  1

  0
LINE
  5
13551
330
12627
100
AcDbEntity
  8
AM_5
100
AcDbLine
 10
251.2067889013779
 20
-807.190039529236
 30
0.0
 11
261.2067889013779
 21
-807.190039529236
 31
0.0
  0
LINE
  5
13552
330
12627
100
AcDbEntity
  8
AM_5
100
AcDbLine
 10
251.2067889013779
 20
-809.1900395292359
 30
0.0
 11
261.2067889013779
 21
-809.1900395292361
 31
0.0
  0
LINE
  5
13553
330
12627
100
AcDbEntity
  8
AM_5
100
AcDbLine
 10
260.2067889013779
 20
-806.190039529236
 30
0.0
 11
260.2067889013779
 21
-805.190039529236
 31
0.0
  0
LINE
  5
13554
330
12627
100
AcDbEntity
  8
AM_5
100
AcDbLine
 10
260.2067889013779
 20
-810.1900395292361
 30
0.0
 11
260.2067889013779
 21
-815.6833728625693
 31
0.0
  0
LINE
  5
13555
330
12627
100
AcDbEntity
  8
AM_5
100
AcDbLine
 10
260.2067889013779
 20
-807.190039529236
 30
0.0
 11
260.2067889013779
 21
-809.1900395292361
 31
0.0
  0
INSERT
  5
13556
330
12627
100
AcDbEntity
  8
AM_5
100
AcDbBlockReference
  2
_Dot
 10
260.2067889013779
 20
-807.190039529236
 30
0.0
 50
270.0
  0
INSERT
  5
13557
330
12627
100
AcDbEntity
  8
AM_5
100
AcDbBlockReference
  2
_Dot
 10
260.2067889013779
 20
-809.1900395292361
 30
0.0
 50
90.0
  0
MTEXT
  5
13558
330
12627
100
AcDbEntity
  8
AM_5
 62
     2
100
AcDbMText
 10
257.106788901378
 20
-813.4367061959025
 30
0.0
 40
3.200000000000001
 41
0.0
 71
     5
 72
     1
  1
2
 11
0.0000000000000001
 21
1.0
 31
0.0
 73
     1
 44
1.0
1001
ACAD
1000
MTEXTBEGIN
1070
    73
1070
     1
1070
    44
1040
1.0
1070
    74
1070
     0
1000
MTEXTEND
  0
POINT
  5
13559
330
12627
100
AcDbEntity
  8
Defpoints
 62
     0
100
AcDbPoint
 10
250.2067889013779
 20
-807.190039529236
 30
0.0
  0
POINT
  5
1355A
330
12627
100
AcDbEntity
  8
Defpoints
 62
     0
100
AcDbPoint
 10
250.2067889013779
 20
-809.1900395292359
 30
0.0
  0
POINT
  5
1355B
330
12627
100
AcDbEntity
  8
Defpoints
 62
     0
100
AcDbPoint
 10
260.2067889013779
 20
-809.1900395292361
 30
0.0
  0
ENDBLK
  5
12634
330
12627
100
AcDbEntity
  8
0
 48
10.0
100
AcDbBlockEnd
  0
BLOCK
  5
12656
330
1264C
100
AcDbEntity
  8
0
 48
10.0
100
AcDbBlockBegin
  2
*D27
 70
     1
 10
0.0
 20
0.0
 30
0.0
  3
*D27
  1

  0
LINE
  5
1355C
330
1264C
100
AcDbEntity
  8
AM_5
100
AcDbLine
 10
225.9067889013778
 20
-962.4941398965793
 30
0.0
 11
225.9067889013778
 21
-974.494139896579
 31
0.0
  0
LINE
  5
1355D
330
1264C
100
AcDbEntity
  8
AM_5
100
AcDbLine
 10
241.9067889013779
 20
-962.4941398965793
 30
0.0
 11
241.9067889013779
 21
-974.494139896579
 31
0.0
  0
LINE
  5
1355E
330
1264C
100
AcDbEntity
  8
AM_5
100
AcDbLine
 10
226.9067889013779
 20
-973.4941398965791
 30
0.0
 11
240.9067889013779
 21
-973.4941398965791
 31
0.0
  0
INSERT
  5
1355F
330
1264C
100
AcDbEntity
  8
AM_5
100
AcDbBlockReference
  2
_Dot
 10
225.9067889013778
 20
-973.4941398965791
 30
0.0
 50
180.0
  0
INSERT
  5
13560
330
1264C
100
AcDbEntity
  8
AM_5
100
AcDbBlockReference
  2
_Dot
 10
241.9067889013779
 20
-973.4941398965791
 30
0.0
  0
MTEXT
  5
13561
330
1264C
100
AcDbEntity
  8
AM_5
 62
     2
100
AcDbMText
 10
233.9067889013779
 20
-970.394139896579
 30
0.0
 40
3.200000000000001
 41
0.0
 71
     5
 72
     1
  1
16
 73
     1
 44
1.0
1001
ACAD
1000
MTEXTBEGIN
1070
    73
1070
     1
1070
    44
1040
1.0
1070
    74
1070
     0
1000
MTEXTEND
  0
POINT
  5
13562
330
1264C
100
AcDbEntity
  8
Defpoints
 62
     0
100
AcDbPoint
 10
225.9067889013778
 20
-961.4941398965793
 30
0.0
  0
POINT
  5
13563
330
1264C
100
AcDbEntity
  8
Defpoints
 62
     0
100
AcDbPoint
 10
241.9067889013779
 20
-961.4941398965793
 30
0.0
  0
POINT
  5
13564
330
1264C
100
AcDbEntity
  8
Defpoints
 62
     0
100
AcDbPoint
 10
241.9067889013779
 20
-973.4941398965791
 30
0.0
  0
ENDBLK
  5
12657
330
1264C
100
AcDbEntity
  8
0
 48
10.0
100
AcDbBlockEnd
  0
BLOCK
  5
1266C
330
12662
100
AcDbEntity
  8
0
 48
10.0
100
AcDbBlockBegin
  2
*D28
 70
     1
 10
0.0
 20
0.0
 30
0.0
  3
*D28
  1

  0
LINE
  5
13565
330
12662
100
AcDbEntity
  8
AM_5
100
AcDbLine
 10
241.9067889013779
 20
-962.4941398965793
 30
0.0
 11
241.9067889013779
 21
-974.4941398965792
 31
0.0
  0
LINE
  5
13566
330
12662
100
AcDbEntity
  8
AM_5
100
AcDbLine
 10
250.2067889013779
 20
-962.4941398965793
 30
0.0
 11
250.2067889013779
 21
-974.4941398965792
 31
0.0
  0
LINE
  5
13567
330
12662
100
AcDbEntity
  8
AM_5
100
AcDbLine
 10
242.9067889013779
 20
-973.4941398965792
 30
0.0
 11
249.2067889013779
 21
-973.4941398965792
 31
0.0
  0
INSERT
  5
13568
330
12662
100
AcDbEntity
  8
AM_5
100
AcDbBlockReference
  2
_Dot
 10
241.9067889013779
 20
-973.4941398965792
 30
0.0
 50
180.0
  0
INSERT
  5
13569
330
12662
100
AcDbEntity
  8
AM_5
100
AcDbBlockReference
  2
_Dot
 10
250.2067889013779
 20
-973.4941398965792
 30
0.0
  0
MTEXT
  5
1356A
330
12662
100
AcDbEntity
  8
AM_5
 62
     2
100
AcDbMText
 10
246.0567889013779
 20
-970.3941398965792
 30
0.0
 40
3.200000000000001
 41
0.0
 71
     5
 72
     1
  1
8.3
 73
     1
 44
1.0
1001
ACAD
1000
MTEXTBEGIN
1070
    73
1070
     1
1070
    44
1040
1.0
1070
    74
1070
     0
1000
MTEXTEND
  0
POINT
  5
1356B
330
12662
100
AcDbEntity
  8
Defpoints
 62
     0
100
AcDbPoint
 10
241.9067889013779
 20
-961.4941398965793
 30
0.0
  0
POINT
  5
1356C
330
12662
100
AcDbEntity
  8
Defpoints
 62
     0
100
AcDbPoint
 10
250.2067889013779
 20
-961.4941398965793
 30
0.0
  0
POINT
  5
1356D
330
12662
100
AcDbEntity
  8
Defpoints
 62
     0
100
AcDbPoint
 10
250.2067889013779
 20
-973.4941398965792
 30
0.0
  0
ENDBLK
  5
1266D
330
12662
100
AcDbEntity
  8
0
 48
10.0
100
AcDbBlockEnd
  0
BLOCK
  5
1269D
330
12693
100
AcDbEntity
  8
0
 48
10.0
100
AcDbBlockBegin
  2
*D29
 70
     1
 10
0.0
 20
0.0
 30
0.0
  3
*D29
  1

  0
LINE
  5
1356E
330
12693
100
AcDbEntity
  8
AM_5
100
AcDbLine
 10
161.2067889013778
 20
-857.4941398965808
 30
0.0
 11
161.2067889013778
 21
-847.4941398965793
 31
0.0
  0
LINE
  5
1356F
330
12693
100
AcDbEntity
  8
AM_5
100
AcDbLine
 10
169.5067889013779
 20
-857.4941398965805
 30
0.0
 11
169.5067889013779
 21
-847.4941398965793
 31
0.0
  0
LINE
  5
13570
330
12693
100
AcDbEntity
  8
AM_5
100
AcDbLine
 10
162.2067889013778
 20
-848.4941398965792
 30
0.0
 11
168.5067889013779
 21
-848.4941398965792
 31
0.0
  0
INSERT
  5
13571
330
12693
100
AcDbEntity
  8
AM_5
100
AcDbBlockReference
  2
_Dot
 10
161.2067889013778
 20
-848.4941398965792
 30
0.0
 50
180.0
  0
INSERT
  5
13572
330
12693
100
AcDbEntity
  8
AM_5
100
AcDbBlockReference
  2
_Dot
 10
169.5067889013779
 20
-848.4941398965792
 30
0.0
  0
MTEXT
  5
13573
330
12693
100
AcDbEntity
  8
AM_5
 62
     2
100
AcDbMText
 10
165.3567889013779
 20
-845.3941398965792
 30
0.0
 40
3.200000000000001
 41
0.0
 71
     5
 72
     1
  1
8.3
 73
     1
 44
1.0
1001
ACAD
1000
MTEXTBEGIN
1070
    73
1070
     1
1070
    44
1040
1.0
1070
    74
1070
     0
1000
MTEXTEND
  0
POINT
  5
13574
330
12693
100
AcDbEntity
  8
Defpoints
 62
     0
100
AcDbPoint
 10
161.2067889013778
 20
-858.4941398965808
 30
0.0
  0
POINT
  5
13575
330
12693
100
AcDbEntity
  8
Defpoints
 62
     0
100
AcDbPoint
 10
169.5067889013779
 20
-858.4941398965806
 30
0.0
  0
POINT
  5
13576
330
12693
100
AcDbEntity
  8
Defpoints
 62
     0
100
AcDbPoint
 10
169.5067889013779
 20
-848.4941398965792
 30
0.0
  0
ENDBLK
  5
1269E
330
12693
100
AcDbEntity
  8
0
 48
10.0
100
AcDbBlockEnd
  0
BLOCK
  5
126B3
330
126A9
100
AcDbEntity
  8
0
 48
10.0
100
AcDbBlockBegin
  2
*D30
 70
     1
 10
0.0
 20
0.0
 30
0.0
  3
*D30
  1

  0
LINE
  5
13577
330
126A9
100
AcDbEntity
  8
AM_5
100
AcDbLine
 10
169.5067889013779
 20
-857.194139896579
 30
0.0
 11
169.5067889013779
 21
-847.4941398965793
 31
0.0
  0
LINE
  5
13578
330
126A9
100
AcDbEntity
  8
AM_5
100
AcDbLine
 10
185.5067889013779
 20
-857.4941398965799
 30
0.0
 11
185.5067889013779
 21
-847.4941398965793
 31
0.0
  0
LINE
  5
13579
330
126A9
100
AcDbEntity
  8
AM_5
100
AcDbLine
 10
170.5067889013779
 20
-848.4941398965792
 30
0.0
 11
184.5067889013779
 21
-848.4941398965792
 31
0.0
  0
INSERT
  5
1357A
330
126A9
100
AcDbEntity
  8
AM_5
100
AcDbBlockReference
  2
_Dot
 10
169.5067889013779
 20
-848.4941398965792
 30
0.0
 50
180.0
  0
INSERT
  5
1357B
330
126A9
100
AcDbEntity
  8
AM_5
100
AcDbBlockReference
  2
_Dot
 10
185.5067889013779
 20
-848.4941398965792
 30
0.0
  0
MTEXT
  5
1357C
330
126A9
100
AcDbEntity
  8
AM_5
 62
     2
100
AcDbMText
 10
177.5067889013779
 20
-845.3941398965792
 30
0.0
 40
3.200000000000001
 41
0.0
 71
     5
 72
     1
  1
16
 73
     1
 44
1.0
1001
ACAD
1000
MTEXTBEGIN
1070
    73
1070
     1
1070
    44
1040
1.0
1070
    74
1070
     0
1000
MTEXTEND
  0
POINT
  5
1357D
330
126A9
100
AcDbEntity
  8
Defpoints
 62
     0
100
AcDbPoint
 10
169.5067889013779
 20
-858.1941398965792
 30
0.0
  0
POINT
  5
1357E
330
126A9
100
AcDbEntity
  8
Defpoints
 62
     0
100
AcDbPoint
 10
185.5067889013779
 20
-858.4941398965799
 30
0.0
  0
POINT
  5
1357F
330
126A9
100
AcDbEntity
  8
Defpoints
 62
     0
100
AcDbPoint
 10
185.5067889013779
 20
-848.4941398965792
 30
0.0
  0
ENDBLK
  5
126B4
330
126A9
100
AcDbEntity
  8
0
 48
10.0
100
AcDbBlockEnd
  0
BLOCK
  5
15BBE
330
15BB7
100
AcDbEntity
  8
0
 48
10.0
100
AcDbBlockBegin
  2
*S31
 70
     1
 10
0.0
 20
0.0
 30
0.0
  3
*S31
  1

  0
LINE
  5
15BB8
330
15BB7
100
AcDbEntity
  8
AM_5
 62
     3
 48
10.0
100
AcDbLine
 10
228.9549058873928
 20
-848.9423849399337
 30
0.0
 11
195.1370925768364
 21
-848.9423849399337
 31
0.0
  0
LINE
  5
15BB9
330
15BB7
100
AcDbEntity
  8
AM_5
 62
     3
 48
10.0
100
AcDbLine
 10
195.1370925768364
 20
-848.9423849399337
 30
0.0
 11
188.3953286439554
 21
-860.949595392393
 31
0.0
  0
LINE
  5
15BBA
330
15BB7
100
AcDbEntity
  8
AM_5
  6
Continuous
 62
     3
 48
10.0
100
AcDbLine
 10
188.3953286439554
 20
-860.949595392393
 30
0.0
 11
187.4161626295224
 21
-862.6935087836427
 31
0.0
  0
LINE
  5
15BBB
330
15BB7
100
AcDbEntity
  8
AM_5
  6
Continuous
 62
     3
 48
10.0
100
AcDbLine
 10
187.92804846334
 20
-860.6872286519502
 30
0.0
 11
187.4161626295224
 21
-862.6935087836427
 31
0.0
  0
LINE
  5
15BBC
330
15BB7
100
AcDbEntity
  8
AM_5
  6
Continuous
 62
     3
 48
10.0
100
AcDbLine
 10
187.4161626295224
 20
-862.6935087836427
 30
0.0
 11
188.8626088245709
 21
-861.2119621328359
 31
0.0
  0
MTEXT
  5
15BBD
330
15BB7
100
AcDbEntity
  8
AM_5
 62
     2
100
AcDbMText
 10
195.9735725540595
 20
-847.3423849399335
 30
0.0
 40
3.2
 41
0.0
 71
     7
 72
     5
  1
8-%%c6×%%c7.7サラ（両面）
 73
     1
 44
1.0
1001
ACAD
1000
MTEXTBEGIN
1070
    73
1070
     1
1070
    44
1040
1.0
1070
    74
1070
     0
1000
MTEXTEND
  0
ENDBLK
  5
15BBF
330
15BB7
100
AcDbEntity
  8
0
 48
10.0
100
AcDbBlockEnd
  0
ENDSEC
  0
SECTION
  2
ENTITIES
  0
TEXT
  5
B42C
330
1F
100
AcDbEntity
  8
AM_6
 60
     1
100
AcDbText
 10
408.4999999999999
 20
8.5
 30
0.0
 40
2.5
  1
!GENTITLE-INSERT
100
AcDbText
  0
TEXT
  5
B42D
330
1F
100
AcDbEntity
  8
AM_6
 60
     1
100
AcDbText
 10
0.0
 20
0.0
 30
0.0
 40
2.5
  1
!GENTITLE-LL
100
AcDbText
  0
TEXT
  5
B42E
330
1F
100
AcDbEntity
  8
AM_6
 60
     1
100
AcDbText
 10
420.0
 20
297.0
 30
0.0
 40
2.5
  1
!GENTITLE-RU
100
AcDbText
  0
TEXT
  5
B42F
330
1F
100
AcDbEntity
  8
AM_6
 60
     1
100
AcDbText
 10
420.0
 20
297.0
 30
0.0
 40
2.5
  1
!GENTITLE-MAX
100
AcDbText
  0
TEXT
  5
B439
330
1F
100
AcDbEntity
  8
AM_6
 60
     1
100
AcDbText
 10
0.0
 20
0.0
 30
0.0
 40
2.5
  1
!GENTITLE-LL
100
AcDbText
  0
TEXT
  5
B43A
330
1F
100
AcDbEntity
  8
AM_6
 60
     1
100
AcDbText
 10
408.4999999999999
 20
288.5
 30
0.0
 40
2.5
  1
!GENTITLE-RU
100
AcDbText
  0
TEXT
  5
B43B
330
1F
100
AcDbEntity
  8
AM_6
 60
     1
100
AcDbText
 10
420.0
 20
297.0
 30
0.0
 40
2.5
  1
!GENTITLE-MAX
100
AcDbText
  0
TEXT
  5
B43C
330
1F
100
AcDbEntity
  8
AM_6
 60
     1
100
AcDbText
 10
408.4999999999999
 20
8.5
 30
0.0
 40
2.5
  1
!GENTITLE-INSERT
100
AcDbText
  0
TEXT
  5
B4BC
330
1F
100
AcDbEntity
  8
AM_6
 60
     1
100
AcDbText
 10
458.9500929797208
 20
-7.930355093473622
 30
0.0
 40
2.5
  1
!GENTITLE-LL
100
AcDbText
  0
TEXT
  5
B4BE
330
1F
100
AcDbEntity
  8
AM_6
 60
     1
100
AcDbText
 10
744.4500929797207
 20
193.5696449065263
 30
0.0
 40
2.5
  1
!GENTITLE-RU
100
AcDbText
  0
TEXT
  5
B4BF
330
1F
100
AcDbEntity
  8
AM_6
 60
     1
100
AcDbText
 10
755.9500929797208
 20
202.0696449065264
 30
0.0
 40
2.5
  1
!GENTITLE-MAX
100
AcDbText
  0
TEXT
  5
B4C0
330
1F
100
AcDbEntity
  8
AM_6
 60
     1
100
AcDbText
 10
744.4500929797206
 20
0.5696449065263778
 30
0.0
 40
2.5
  1
!GENTITLE-INSERT
100
AcDbText
  0
LINE
  5
E6DB
330
1F
100
AcDbEntity
  8
AM_0
100
AcDbLine
 10
27.2067889013779
 20
-747.8805808301756
 30
0.0
 11
27.2067889013779
 21
-787.8805808301756
 31
0.0
  0
LINE
  5
E6DC
330
1F
100
AcDbEntity
  8
AM_0
100
AcDbLine
 10
7.206788901377901
 20
-755.8805808301756
 30
0.0
 11
117.2067889013779
 21
-755.8805808301756
 31
0.0
  0
LINE
  5
E6DD
330
1F
100
AcDbEntity
  8
AM_0
100
AcDbLine
 10
7.206788901377901
 20
-763.8805808301756
 30
0.0
 11
117.2067889013779
 21
-763.8805808301756
 31
0.0
  0
LINE
  5
E6DE
330
1F
100
AcDbEntity
  8
AM_0
100
AcDbLine
 10
7.206788901377901
 20
-771.8805808301756
 30
0.0
 11
117.2067889013779
 21
-771.8805808301756
 31
0.0
  0
LINE
  5
E6DF
330
1F
100
AcDbEntity
  8
AM_0
100
AcDbLine
 10
7.206788901377901
 20
-779.8805808301756
 30
0.0
 11
117.2067889013779
 21
-779.8805808301756
 31
0.0
  0
LINE
  5
E6E6
330
1F
100
AcDbEntity
  8
AM_0
100
AcDbLine
 10
7.206788901377901
 20
-747.8805808301756
 30
0.0
 11
7.206788901377901
 21
-843.8805808301756
 31
0.0
  0
LINE
  5
E6E7
330
1F
100
AcDbEntity
  8
AM_0
100
AcDbLine
 10
7.206788901377901
 20
-747.8805808301756
 30
0.0
 11
117.2067889013779
 21
-747.8805808301756
 31
0.0
  0
LINE
  5
E6E8
330
1F
100
AcDbEntity
  8
AM_0
100
AcDbLine
 10
117.2067889013779
 20
-747.8805808301756
 30
0.0
 11
117.2067889013779
 21
-787.8805808301756
 31
0.0
  0
LINE
  5
E6E9
330
1F
100
AcDbEntity
  8
AM_0
100
AcDbLine
 10
7.206788901377901
 20
-787.8805808301756
 30
0.0
 11
117.2067889013779
 21
-787.8805808301756
 31
0.0
  0
TEXT
  5
E6EC
330
1F
100
AcDbEntity
  8
AM_6
100
AcDbText
 10
12.86378890137791
 20
-753.4805808301756
 30
0.0
 40
3.2
  1
品　名
 41
0.85537027
100
AcDbText
  0
TEXT
  5
E6ED
330
1F
100
AcDbEntity
  8
AM_6
100
AcDbText
 10
12.86378890137791
 20
-761.4805808301756
 30
0.0
 40
3.2
  1
品　番
 41
0.85537027
100
AcDbText
  0
TEXT
  5
E6EE
330
1F
100
AcDbEntity
  8
AM_6
100
AcDbText
 10
12.86378890137791
 20
-769.4805808301756
 30
0.0
 40
3.2
  1
材　質
 41
0.85537027
100
AcDbText
  0
TEXT
  5
E6EF
330
1F
100
AcDbEntity
  8
AM_6
100
AcDbText
 10
12.86378890137791
 20
-777.4805808301756
 30
0.0
 40
3.2
  1
仕上げ
 41
0.85537027
100
AcDbText
  0
LINE
  5
E6F4
330
1F
100
AcDbEntity
  8
size
100
AcDbLine
 10
-4.293211098622123
 20
-1036.380580830176
 30
0.0
 11
415.7067889013778
 21
-1036.380580830176
 31
0.0
1001
GENIUS_GENREC_14
1002
{
1000
PYDIR
1011
-4.293211098622105
1021
-739.3805808301756
1031
0.0
1002
}
1002
{
1000
PXDIR
1011
415.7067889013778
1021
-1036.380580830176
1031
0.0
1002
}
1002
{
1000
PORI
1011
-4.293211098622123
1021
-1036.380580830176
1031
0.0
1002
}
1002
{
1000
PINS
1011
205.7067889013779
1021
-887.8805808301756
1031
0.0
1002
}
1002
{
1000
HVAL
1000
297
1002
}
1002
{
1000
H
1070
     2
1002
}
1002
{
1000
WVAL
1000
420
1002
}
1002
{
1000
W
1070
     2
1002
}
1002
{
1000
C
1070
     4
1002
}
1001
GENIUS_GENOBJ-N-REC_13
1002
{
1000
OWNER
1000
GEN
1002
}
1001
GENIUS_GENODEF_13
1002
{
1000
HIER
1070
     0
1002
}
1002
{
1000
MANEDIT
1070
     0
1002
}
1002
{
1000
NOSEL
1070
     0
1002
}
1002
{
1000
BEHIND
1070
     0
1002
}
1002
{
1000
OTHER
1070
     0
1002
}
1002
{
1000
REACTOR
1002
}
  0
LINE
  5
E6F5
330
1F
100
AcDbEntity
  8
size
100
AcDbLine
 10
415.7067889013778
 20
-1036.380580830176
 30
0.0
 11
415.7067889013778
 21
-739.3805808301756
 31
0.0
1001
GENIUS_GENREC_14
1002
{
1000
PYDIR
1011
-4.293211098622105
1021
-739.3805808301756
1031
0.0
1002
}
1002
{
1000
PXDIR
1011
415.7067889013778
1021
-1036.380580830176
1031
0.0
1002
}
1002
{
1000
PORI
1011
-4.293211098622123
1021
-1036.380580830176
1031
0.0
1002
}
1002
{
1000
PINS
1011
205.7067889013779
1021
-887.8805808301756
1031
0.0
1002
}
1002
{
1000
HVAL
1000
297
1002
}
1002
{
1000
H
1070
     2
1002
}
1002
{
1000
WVAL
1000
420
1002
}
1002
{
1000
W
1070
     2
1002
}
1002
{
1000
C
1070
     4
1002
}
1001
GENIUS_GENOBJ-N-REC_13
1002
{
1000
OWNER
1000
GEN
1002
}
1001
GENIUS_GENODEF_13
1002
{
1000
HIER
1070
     0
1002
}
1002
{
1000
MANEDIT
1070
     0
1002
}
1002
{
1000
NOSEL
1070
     0
1002
}
1002
{
1000
BEHIND
1070
     0
1002
}
1002
{
1000
OTHER
1070
     0
1002
}
1002
{
1000
REACTOR
1002
}
  0
LINE
  5
E6F6
330
1F
100
AcDbEntity
  8
size
100
AcDbLine
 10
415.7067889013778
 20
-739.3805808301756
 30
0.0
 11
-4.293211098622095
 21
-739.3805808301756
 31
0.0
1001
GENIUS_GENREC_14
1002
{
1000
PYDIR
1011
-4.293211098622105
1021
-739.3805808301756
1031
0.0
1002
}
1002
{
1000
PXDIR
1011
415.7067889013778
1021
-1036.380580830176
1031
0.0
1002
}
1002
{
1000
PORI
1011
-4.293211098622123
1021
-1036.380580830176
1031
0.0
1002
}
1002
{
1000
PINS
1011
205.7067889013779
1021
-887.8805808301756
1031
0.0
1002
}
1002
{
1000
HVAL
1000
297
1002
}
1002
{
1000
H
1070
     2
1002
}
1002
{
1000
WVAL
1000
420
1002
}
1002
{
1000
W
1070
     2
1002
}
1002
{
1000
C
1070
     4
1002
}
1001
GENIUS_GENOBJ-N-REC_13
1002
{
1000
OWNER
1000
GEN
1002
}
1001
GENIUS_GENODEF_13
1002
{
1000
HIER
1070
     0
1002
}
1002
{
1000
MANEDIT
1070
     0
1002
}
1002
{
1000
NOSEL
1070
     0
1002
}
1002
{
1000
BEHIND
1070
     0
1002
}
1002
{
1000
OTHER
1070
     0
1002
}
1002
{
1000
REACTOR
1002
}
  0
LINE
  5
E6F7
330
1F
100
AcDbEntity
  8
size
100
AcDbLine
 10
-4.293211098622095
 20
-739.3805808301756
 30
0.0
 11
-4.293211098622123
 21
-1036.380580830176
 31
0.0
1001
GENIUS_GENREC_14
1002
{
1000
PYDIR
1011
-4.293211098622105
1021
-739.3805808301756
1031
0.0
1002
}
1002
{
1000
PXDIR
1011
415.7067889013778
1021
-1036.380580830176
1031
0.0
1002
}
1002
{
1000
PORI
1011
-4.293211098622123
1021
-1036.380580830176
1031
0.0
1002
}
1002
{
1000
PINS
1011
205.7067889013779
1021
-887.8805808301756
1031
0.0
1002
}
1002
{
1000
HVAL
1000
297
1002
}
1002
{
1000
H
1070
     2
1002
}
1002
{
1000
WVAL
1000
420
1002
}
1002
{
1000
W
1070
     2
1002
}
1002
{
1000
C
1070
     4
1002
}
1001
GENIUS_GENOBJ-N-REC_13
1002
{
1000
OWNER
1000
GEN
1002
}
1001
GENIUS_GENODEF_13
1002
{
1000
HIER
1070
     0
1002
}
1002
{
1000
MANEDIT
1070
     0
1002
}
1002
{
1000
NOSEL
1070
     0
1002
}
1002
{
1000
BEHIND
1070
     0
1002
}
1002
{
1000
OTHER
1070
     0
1002
}
1002
{
1000
REACTOR
1002
}
  0
LINE
  5
E6F8
330
1F
100
AcDbEntity
  8
waku
100
AcDbLine
 10
404.2067889013778
 20
-1027.880580830175
 30
0.0
 11
404.2067889013778
 21
-747.8805808301756
 31
0.0
1001
GENIUS_GENREC_14
1002
{
1000
PYDIR
1011
-4.293211098622105
1021
-739.3805808301756
1031
0.0
1002
}
1002
{
1000
PXDIR
1011
415.7067889013778
1021
-1036.380580830176
1031
0.0
1002
}
1002
{
1000
PORI
1011
-4.293211098622123
1021
-1036.380580830176
1031
0.0
1002
}
1002
{
1000
PINS
1011
205.7067889013779
1021
-887.8805808301756
1031
0.0
1002
}
1002
{
1000
HVAL
1000
297
1002
}
1002
{
1000
H
1070
     2
1002
}
1002
{
1000
WVAL
1000
420
1002
}
1002
{
1000
W
1070
     2
1002
}
1002
{
1000
C
1070
     4
1002
}
1001
GENIUS_GENOBJ-N-REC_13
1002
{
1000
OWNER
1000
GEN
1002
}
1001
GENIUS_GENODEF_13
1002
{
1000
HIER
1070
     0
1002
}
1002
{
1000
MANEDIT
1070
     0
1002
}
1002
{
1000
NOSEL
1070
     0
1002
}
1002
{
1000
BEHIND
1070
     0
1002
}
1002
{
1000
OTHER
1070
     0
1002
}
1002
{
1000
REACTOR
1002
}
  0
LINE
  5
E6F9
330
1F
100
AcDbEntity
  8
waku
100
AcDbLine
 10
7.206788901377901
 20
-747.8805808301756
 30
0.0
 11
7.206788901377876
 21
-1027.880580830175
 31
0.0
1001
GENIUS_GENREC_14
1002
{
1000
PYDIR
1011
-4.293211098622105
1021
-739.3805808301756
1031
0.0
1002
}
1002
{
1000
PXDIR
1011
415.7067889013778
1021
-1036.380580830176
1031
0.0
1002
}
1002
{
1000
PORI
1011
-4.293211098622123
1021
-1036.380580830176
1031
0.0
1002
}
1002
{
1000
PINS
1011
205.7067889013779
1021
-887.8805808301756
1031
0.0
1002
}
1002
{
1000
HVAL
1000
297
1002
}
1002
{
1000
H
1070
     2
1002
}
1002
{
1000
WVAL
1000
420
1002
}
1002
{
1000
W
1070
     2
1002
}
1002
{
1000
C
1070
     4
1002
}
1001
GENIUS_GENOBJ-N-REC_13
1002
{
1000
OWNER
1000
GEN
1002
}
1001
GENIUS_GENODEF_13
1002
{
1000
HIER
1070
     0
1002
}
1002
{
1000
MANEDIT
1070
     0
1002
}
1002
{
1000
NOSEL
1070
     0
1002
}
1002
{
1000
BEHIND
1070
     0
1002
}
1002
{
1000
OTHER
1070
     0
1002
}
1002
{
1000
REACTOR
1002
}
  0
LINE
  5
E6FA
330
1F
100
AcDbEntity
  8
waku
100
AcDbLine
 10
404.2067889013778
 20
-747.8805808301756
 30
0.0
 11
7.206788901377901
 21
-747.8805808301756
 31
0.0
1001
GENIUS_GENREC_14
1002
{
1000
PYDIR
1011
-4.293211098622105
1021
-739.3805808301756
1031
0.0
1002
}
1002
{
1000
PXDIR
1011
415.7067889013778
1021
-1036.380580830176
1031
0.0
1002
}
1002
{
1000
PORI
1011
-4.293211098622123
1021
-1036.380580830176
1031
0.0
1002
}
1002
{
1000
PINS
1011
205.7067889013779
1021
-887.8805808301756
1031
0.0
1002
}
1002
{
1000
HVAL
1000
297
1002
}
1002
{
1000
H
1070
     2
1002
}
1002
{
1000
WVAL
1000
420
1002
}
1002
{
1000
W
1070
     2
1002
}
1002
{
1000
C
1070
     4
1002
}
1001
GENIUS_GENOBJ-N-REC_13
1002
{
1000
OWNER
1000
GEN
1002
}
1001
GENIUS_GENODEF_13
1002
{
1000
HIER
1070
     0
1002
}
1002
{
1000
MANEDIT
1070
     0
1002
}
1002
{
1000
NOSEL
1070
     0
1002
}
1002
{
1000
BEHIND
1070
     0
1002
}
1002
{
1000
OTHER
1070
     0
1002
}
1002
{
1000
REACTOR
1002
}
  0
LINE
  5
E6FB
330
1F
100
AcDbEntity
  8
waku
100
AcDbLine
 10
7.206788901377876
 20
-1027.880580830175
 30
0.0
 11
404.2067889013778
 21
-1027.880580830175
 31
0.0
  0
TEXT
  5
11977
330
1F
100
AcDbEntity
  8
AM_6
100
AcDbText
 10
9.663788901377891
 20
-785.4805808301756
 30
0.0
 40
3.2
  1
セットビス
 41
0.84892707
100
AcDbText
  0
LINE
  5
12333
330
1F
100
AcDbEntity
  8
AM_0
 48
10.0
100
AcDbLine
 10
200.2067889013779
 20
-858.4941398965794
 30
0.0
 11
200.2067889013778
 21
-961.4941398965793
 31
0.0
  0
LINE
  5
12334
330
1F
100
AcDbEntity
  8
AM_0
 48
10.0
100
AcDbLine
 10
200.2067889013779
 20
-961.4941398965793
 30
0.0
 11
250.2067889013779
 21
-961.4941398965793
 31
0.0
  0
LINE
  5
12335
330
1F
100
AcDbEntity
  8
AM_0
 48
10.0
100
AcDbLine
 10
211.2067889013779
 20
-961.4941398965795
 30
0.0
 11
211.2067889013779
 21
-858.4941398965792
 31
0.0
  0
LINE
  5
12336
330
1F
100
AcDbEntity
  8
AM_0
 48
10.0
100
AcDbLine
 10
211.2067889013779
 20
-858.4941398965792
 30
0.0
 11
161.2067889013778
 21
-858.4941398965808
 31
0.0
  0
LINE
  5
12337
330
1F
100
AcDbEntity
  8
AM_0
 48
10.0
100
AcDbLine
 10
161.2067889013778
 20
-908.494139896579
 30
0.0
 11
211.2067889013779
 21
-908.4941398965794
 31
0.0
  0
LINE
  5
12338
330
1F
100
AcDbEntity
  8
AM_0
 48
10.0
100
AcDbLine
 10
200.2067889013779
 20
-911.4941398965793
 30
0.0
 11
250.2067889013779
 21
-911.4941398965797
 31
0.0
  0
LINE
  5
12346
330
1F
100
AcDbEntity
  8
AM_0
 48
10.0
100
AcDbLine
 10
200.4067889013779
 20
-857.6941398965796
 30
0.0
 11
200.4067889013779
 21
-857.2941398965792
 31
0.0
  0
LINE
  5
12347
330
1F
100
AcDbEntity
  8
AM_0
 48
10.0
100
AcDbLine
 10
201.2067889013779
 20
-856.4941398965792
 30
0.0
 11
210.2067889013779
 21
-856.4941398965794
 31
0.0
  0
LINE
  5
12348
330
1F
100
AcDbEntity
  8
AM_0
 48
10.0
100
AcDbLine
 10
211.0067889013779
 20
-857.2941398965793
 30
0.0
 11
211.006788901378
 21
-857.6941398965793
 31
0.0
  0
ARC
  5
1234A
330
1F
100
AcDbEntity
  8
AM_0
 48
10.0
100
AcDbCircle
 10
201.2067889013779
 20
-857.2941398965792
 30
0.0
 40
0.8
100
AcDbArc
 50
90.0
 51
180.0
  0
ARC
  5
1234B
330
1F
100
AcDbEntity
  8
AM_0
 48
10.0
100
AcDbCircle
 10
210.2067889013779
 20
-857.2941398965793
 30
0.0
 40
0.8
100
AcDbArc
 50
0.0000000000008142
 51
89.9999999999992
  0
ARC
  5
1234C
330
1F
100
AcDbEntity
  8
AM_0
 48
10.0
100
AcDbCircle
 10
201.2067889013779
 20
-857.6941398965796
 30
0.0
 40
0.8
100
AcDbArc
 50
180.0
 51
270.0000000000004
  0
ARC
  5
1234D
330
1F
100
AcDbEntity
  8
AM_0
 48
10.0
100
AcDbCircle
 10
210.206788901378
 20
-857.6941398965793
 30
0.0
 40
0.8
100
AcDbArc
 50
270.0000000000012
 51
359.9999999999986
  0
LINE
  5
1234E
330
1F
100
AcDbEntity
  8
AM_0
 48
10.0
100
AcDbLine
 10
210.206788901378
 20
-963.4941398965791
 30
0.0
 11
201.2067889013779
 21
-963.4941398965793
 31
0.0
  0
ARC
  5
1234F
330
1F
100
AcDbEntity
  8
AM_0
 48
10.0
100
AcDbCircle
 10
201.2067889013779
 20
-962.6941398965795
 30
0.0
 40
0.8
100
AcDbArc
 50
180.0
 51
270.0000000000004
  0
LINE
  5
12350
330
1F
100
AcDbEntity
  8
AM_0
 48
10.0
100
AcDbLine
 10
200.4067889013778
 20
-962.6941398965795
 30
0.0
 11
200.4067889013778
 21
-962.2941398965791
 31
0.0
  0
LINE
  5
12351
330
1F
100
AcDbEntity
  8
AM_0
 48
10.0
100
AcDbLine
 10
201.2067889013779
 20
-961.4941398965791
 30
0.0
 11
210.2067889013779
 21
-961.4941398965795
 31
0.0
  0
ARC
  5
12352
330
1F
100
AcDbEntity
  8
AM_0
 48
10.0
100
AcDbCircle
 10
201.2067889013779
 20
-962.2941398965791
 30
0.0
 40
0.8
100
AcDbArc
 50
90.0
 51
180.0
  0
LINE
  5
12353
330
1F
100
AcDbEntity
  8
AM_0
 48
10.0
100
AcDbLine
 10
211.0067889013779
 20
-962.2941398965794
 30
0.0
 11
211.006788901378
 21
-962.6941398965794
 31
0.0
  0
ARC
  5
12354
330
1F
100
AcDbEntity
  8
AM_0
 48
10.0
100
AcDbCircle
 10
210.206788901378
 20
-962.6941398965794
 30
0.0
 40
0.8
100
AcDbArc
 50
270.0000000000012
 51
359.9999999999984
  0
ARC
  5
12355
330
1F
100
AcDbEntity
  8
AM_0
 48
10.0
100
AcDbCircle
 10
210.2067889013779
 20
-962.2941398965794
 30
0.0
 40
0.8
100
AcDbArc
 50
0.0000000000008142
 51
89.9999999999992
  0
LINE
  5
12361
330
1F
100
AcDbEntity
  8
AM_0
 48
10.0
100
AcDbLine
 10
250.2067889013779
 20
-911.4941398965793
 30
0.0
 11
250.2067889013779
 21
-961.4941398965791
 31
0.0
  0
LINE
  5
12362
330
1F
100
AcDbEntity
  8
AM_0
 48
10.0
100
AcDbLine
 10
161.2067889013778
 20
-858.4941398965806
 30
0.0
 11
161.2067889013778
 21
-908.4941398965794
 31
0.0
  0
CIRCLE
  5
123C0
330
1F
100
AcDbEntity
  8
AM_0
 48
10.0
100
AcDbCircle
 10
169.5067889013779
 20
-866.0941398965791
 30
0.0
 40
3.0
  0
CIRCLE
  5
123C1
330
1F
100
AcDbEntity
  8
AM_0
 48
10.0
100
AcDbCircle
 10
169.5067889013779
 20
-866.0941398965791
 30
0.0
 40
3.9
  0
CIRCLE
  5
123C3
330
1F
100
AcDbEntity
  8
AM_0
 48
10.0
100
AcDbCircle
 10
185.5067889013779
 20
-866.0941398965791
 30
0.0
 40
3.0
  0
CIRCLE
  5
123C4
330
1F
100
AcDbEntity
  8
AM_0
 48
10.0
100
AcDbCircle
 10
185.5067889013779
 20
-866.0941398965791
 30
0.0
 40
3.9
  0
CIRCLE
  5
123C6
330
1F
100
AcDbEntity
  8
AM_0
 48
10.0
100
AcDbCircle
 10
169.5067889013779
 20
-901.094139896579
 30
0.0
 40
3.0
  0
CIRCLE
  5
123C7
330
1F
100
AcDbEntity
  8
AM_0
 48
10.0
100
AcDbCircle
 10
169.5067889013779
 20
-901.094139896579
 30
0.0
 40
3.9
  0
CIRCLE
  5
123C9
330
1F
100
AcDbEntity
  8
AM_0
 48
10.0
100
AcDbCircle
 10
185.5067889013779
 20
-901.094139896579
 30
0.0
 40
3.0
  0
CIRCLE
  5
123CA
330
1F
100
AcDbEntity
  8
AM_0
 48
10.0
100
AcDbCircle
 10
185.5067889013779
 20
-901.094139896579
 30
0.0
 40
3.9
  0
CIRCLE
  5
123CC
330
1F
100
AcDbEntity
  8
AM_0
 48
10.0
100
AcDbCircle
 10
225.9067889013778
 20
-918.8941398965795
 30
0.0
 40
3.0
  0
CIRCLE
  5
123CD
330
1F
100
AcDbEntity
  8
AM_0
 48
10.0
100
AcDbCircle
 10
225.9067889013778
 20
-918.8941398965795
 30
0.0
 40
3.9
  0
CIRCLE
  5
123CF
330
1F
100
AcDbEntity
  8
AM_0
 48
10.0
100
AcDbCircle
 10
241.9067889013779
 20
-918.8941398965795
 30
0.0
 40
3.0
  0
CIRCLE
  5
123D0
330
1F
100
AcDbEntity
  8
AM_0
 48
10.0
100
AcDbCircle
 10
241.9067889013779
 20
-918.8941398965795
 30
0.0
 40
3.9
  0
CIRCLE
  5
123D2
330
1F
100
AcDbEntity
  8
AM_0
 48
10.0
100
AcDbCircle
 10
225.9067889013778
 20
-953.8941398965794
 30
0.0
 40
3.0
  0
CIRCLE
  5
123D3
330
1F
100
AcDbEntity
  8
AM_0
 48
10.0
100
AcDbCircle
 10
225.9067889013778
 20
-953.8941398965794
 30
0.0
 40
3.9
  0
CIRCLE
  5
123D5
330
1F
100
AcDbEntity
  8
AM_0
 48
10.0
100
AcDbCircle
 10
241.9067889013779
 20
-953.8941398965794
 30
0.0
 40
3.0
  0
CIRCLE
  5
123D6
330
1F
100
AcDbEntity
  8
AM_0
 48
10.0
100
AcDbCircle
 10
241.9067889013779
 20
-953.8941398965794
 30
0.0
 40
3.9
  0
CIRCLE
  5
123DF
330
1F
100
AcDbEntity
  8
AM_0
 48
10.0
100
AcDbCircle
 10
205.7067889013779
 20
-808.1900395292359
 30
0.0
 40
5.5
  0
LINE
  5
123E6
330
1F
100
AcDbEntity
  8
AM_0
 48
10.0
100
AcDbLine
 10
161.2067889013778
 20
-807.190039529236
 30
0.0
 11
161.2067889013778
 21
-809.1900395292359
 31
0.0
  0
LINE
  5
123E7
330
1F
100
AcDbEntity
  8
AM_0
 48
10.0
100
AcDbLine
 10
161.2067889013778
 20
-809.1900395292359
 30
0.0
 11
200.2984619881819
 21
-809.1900395292359
 31
0.0
  0
LINE
  5
123E8
330
1F
100
AcDbEntity
  8
AM_0
 48
10.0
100
AcDbLine
 10
161.2067889013778
 20
-807.190039529236
 30
0.0
 11
200.2984619881819
 21
-807.190039529236
 31
0.0
  0
LINE
  5
123E9
330
1F
100
AcDbEntity
  8
AM_0
 48
10.0
100
AcDbLine
 10
211.1151158145739
 20
-807.190039529236
 30
0.0
 11
250.2067889013779
 21
-807.190039529236
 31
0.0
  0
LINE
  5
123EA
330
1F
100
AcDbEntity
  8
AM_0
 48
10.0
100
AcDbLine
 10
250.2067889013779
 20
-807.190039529236
 30
0.0
 11
250.2067889013779
 21
-809.1900395292359
 31
0.0
  0
LINE
  5
123EB
330
1F
100
AcDbEntity
  8
AM_0
 48
10.0
100
AcDbLine
 10
250.2067889013779
 20
-809.1900395292359
 30
0.0
 11
211.1151158145739
 21
-809.1900395292359
 31
0.0
  0
DIMENSION
  5
123EE
330
1F
100
AcDbEntity
  8
AM_5
100
AcDbDimension
  2
*D15
 10
153.2067889013779
 20
-908.494139896579
 30
0.0
 11
153.206788901378
 21
-905.1528952499342
 31
0.0
 70
   160
  1
<>
 71
     5
 42
7.399999999999863
  3
SYS$0
100
AcDbAlignedDimension
 13
161.2067889013778
 23
-901.094139896579
 33
0.0
 14
161.2067889013778
 24
-908.494139896579
 34
0.0
 50
90.0
100
AcDbRotatedDimension
1001
ACAD
1000
DSTYLE
1002
{
1070
   286
1070
     0
1070
   284
1070
     8
1070
   274
1070
     2
1070
   272
1070
     2
1070
    47
1040
0.3
1070
    48
1040
0.0
1002
}
  0
DIMENSION
  5
12423
330
1F
100
AcDbEntity
  8
AM_5
100
AcDbDimension
  2
*D16
 10
260.2067889013778
 20
-918.8941398965797
 30
0.0
 11
260.206788901378
 21
-915.4611721002288
 31
0.0
 70
   160
  1
<>
 71
     5
 42
7.400000000000204
  3
SYS$0
100
AcDbAlignedDimension
 13
250.2067889013779
 23
-911.4941398965793
 33
0.0
 14
250.2067889013779
 24
-918.8941398965795
 34
0.0
 50
89.99999999999959
100
AcDbRotatedDimension
1001
ACAD
1000
DSTYLE
1002
{
1070
   286
1070
     0
1070
   284
1070
     8
1070
   274
1070
     2
1070
   272
1070
     2
1070
    47
1040
0.3
1070
    48
1040
0.0
1002
}
  0
DIMENSION
  5
12462
330
1F
100
AcDbEntity
  8
AM_5
100
AcDbDimension
  2
*D17
 10
268.2067889013779
 20
-911.4941398965799
 30
0.0
 11
268.206788901378
 21
-909.9941398965794
 31
0.0
 70
   160
  1
<>
 71
     5
 42
3.000000000000341
  3
SYS$0
100
AcDbAlignedDimension
 13
214.2067889013779
 23
-908.4941398965794
 33
0.0
 14
250.2067889013779
 24
-911.4941398965797
 34
0.0
 50
89.99999999999959
100
AcDbRotatedDimension
1001
ACAD
1000
DSTYLE
1002
{
1070
   286
1070
     0
1070
   284
1070
     8
1070
   274
1070
     2
1070
   272
1070
     2
1070
    47
1040
0.3
1070
    48
1040
0.0
1002
}
  0
DIMENSION
  5
1249D
330
1F
100
AcDbEntity
  8
AM_5
100
AcDbDimension
  2
*D18
 10
260.2067889013779
 20
-953.8941398965796
 30
0.0
 11
257.106788901378
 21
-936.3941398965796
 31
0.0
 70
    32
 71
     5
 42
35.0
  3
SYS$0
100
AcDbAlignedDimension
 13
250.2067889013779
 23
-918.8941398965795
 33
0.0
 14
250.2067889013779
 24
-953.8941398965794
 34
0.0
 50
90.0
100
AcDbRotatedDimension
1001
ACAD
1000
DSTYLE
1002
{
1070
    47
1040
0.3
1070
    48
1040
0.0
1002
}
  0
DIMENSION
  5
124BC
330
1F
100
AcDbEntity
  8
AM_5
100
AcDbDimension
  2
*D19
 10
153.2067889013778
 20
-901.094139896579
 30
0.0
 11
150.106788901378
 21
-883.5941398965792
 31
0.0
 70
    32
 71
     5
 42
35.0
  3
SYS$0
100
AcDbAlignedDimension
 13
161.2067889013778
 23
-866.0941398965791
 33
0.0
 14
161.2067889013778
 24
-901.094139896579
 34
0.0
 50
90.0
100
AcDbRotatedDimension
1001
ACAD
1000
DSTYLE
1002
{
1070
    47
1040
0.3
1070
    48
1040
0.0
1002
}
  0
DIMENSION
  5
124FA
330
1F
100
AcDbEntity
  8
AM_5
100
AcDbDimension
  2
*D20
 10
268.2067889013774
 20
-961.4941398965795
 30
0.0
 11
265.1067889013776
 21
-936.4941398965793
 31
0.0
 70
    32
  1
（<>）
 71
     5
 42
50.00000000000011
  3
SYS$0
100
AcDbAlignedDimension
 13
250.2067889013779
 23
-911.4941398965793
 33
0.0
 14
250.2067889013779
 24
-961.4941398965795
 34
0.0
 50
89.99999999999959
100
AcDbRotatedDimension
1001
ACAD
1000
DSTYLE
1002
{
1070
    47
1040
0.3
1070
    48
1040
0.0
1002
}
  0
DIMENSION
  5
1258B
330
1F
100
AcDbEntity
  8
AM_5
100
AcDbDimension
  2
*D21
 10
276.2067889013777
 20
-961.4941398965795
 30
0.0
 11
276.2067889013779
 21
-911.4941398965793
 31
0.0
 70
   160
  1
（<>）
 71
     5
 42
103.0000000000001
  3
SYS$0
100
AcDbAlignedDimension
 13
211.2067889013779
 23
-858.4941398965792
 33
0.0
 14
250.2067889013779
 24
-961.4941398965793
 34
0.0
 50
90.00000000000204
100
AcDbRotatedDimension
1001
ACAD
1000
DSTYLE
1002
{
1070
    47
1040
0.3
1070
    48
1040
0.0
1002
}
  0
DIMENSION
  5
125BC
330
1F
100
AcDbEntity
  8
AM_5
100
AcDbDimension
  2
*D22
 10
145.2067889013795
 20
-908.494139896579
 30
0.0
 11
142.1067889013796
 21
-883.4941398965797
 31
0.0
 70
    32
  1
（<>）
 71
     5
 42
49.99999999999841
  3
SYS$0
100
AcDbAlignedDimension
 13
161.2067889013778
 23
-858.4941398965806
 33
0.0
 14
161.2067889013774
 24
-908.494139896579
 34
0.0
 50
90.00000000000204
100
AcDbRotatedDimension
1001
ACAD
1000
DSTYLE
1002
{
1070
    47
1040
0.3
1070
    48
1040
0.0
1002
}
  0
DIMENSION
  5
125E4
330
1F
100
AcDbEntity
  8
AM_5
100
AcDbDimension
  2
*D23
 10
250.2067889013779
 20
-981.4941398965792
 30
0.0
 11
228.3263687381104
 21
-981.4941398965792
 31
0.0
 70
   160
 71
     5
 42
44.5
  3
SYS$0
100
AcDbAlignedDimension
 13
205.7067889013779
 23
-966.9941398965793
 33
0.0
 14
250.2067889013779
 24
-961.4941398965793
 34
0.0
 50
0.0000000000002036
100
AcDbRotatedDimension
1001
ACAD
1000
DSTYLE
1002
{
1070
    47
1040
0.3
1070
    48
1040
0.0
1002
}
  0
DIMENSION
  5
125FA
330
1F
100
AcDbEntity
  8
AM_5
100
AcDbDimension
  2
*D24
 10
205.7067889013779
 20
-981.4941398965792
 30
0.0
 11
184.4741454625476
 21
-981.4941398965792
 31
0.0
 70
   160
 71
     5
 42
44.50000000000005
  3
SYS$0
100
AcDbAlignedDimension
 13
161.2067889013778
 23
-908.4941398965794
 33
0.0
 14
205.7067889013779
 24
-963.4941398965793
 34
0.0
 50
359.9999999999996
100
AcDbRotatedDimension
1001
ACAD
1000
DSTYLE
1002
{
1070
    47
1040
0.3
1070
    48
1040
0.0
1002
}
  0
DIMENSION
  5
12610
330
1F
100
AcDbEntity
  8
AM_5
 48
10.0
100
AcDbDimension
  2
*D25
 10
208.568016925543
 20
-803.4928729158684
 30
0.0
 11
193.3175461670455
 21
-821.5655978425472
 31
0.0
 70
   163
 71
     5
 42
11.0
  3
SYS$3
100
AcDbDiametricDimension
 15
202.8455608772122
 25
-812.8872061426028
 35
0.0
 40
0.0
1001
ACAD
1000
DSTYLE
1002
{
1070
    47
1040
0.3
1070
    48
1040
0.0
1002
}
  0
DIMENSION
  5
12626
330
1F
100
AcDbEntity
  8
AM_5
100
AcDbDimension
  2
*D26
 10
260.2067889013779
 20
-809.1900395292361
 30
0.0
 11
260.206788901378
 21
-813.4367061959025
 31
0.0
 70
   160
 71
     5
 42
2.0
  3
SYS$0
100
AcDbAlignedDimension
 13
250.2067889013779
 23
-807.190039529236
 33
0.0
 14
250.2067889013779
 24
-809.1900395292359
 34
0.0
 50
90.0
100
AcDbRotatedDimension
1001
ACAD
1000
DSTYLE
1002
{
1070
    47
1040
0.3
1070
    48
1040
0.0
1002
}
  0
DIMENSION
  5
1264B
330
1F
100
AcDbEntity
  8
AM_5
100
AcDbDimension
  2
*D27
 10
241.9067889013779
 20
-973.4941398965791
 30
0.0
 11
233.9067889013779
 21
-970.394139896579
 31
0.0
 70
    32
 71
     5
 42
16.0
  3
SYS$0
100
AcDbAlignedDimension
 13
225.9067889013778
 23
-961.4941398965793
 33
0.0
 14
241.9067889013779
 24
-961.4941398965793
 34
0.0
 50
0.0000000000002036
100
AcDbRotatedDimension
1001
ACAD
1000
DSTYLE
1002
{
1070
    47
1040
0.3
1070
    48
1040
0.0
1002
}
  0
DIMENSION
  5
12661
330
1F
100
AcDbEntity
  8
AM_5
100
AcDbDimension
  2
*D28
 10
250.2067889013779
 20
-973.4941398965792
 30
0.0
 11
246.0567889013779
 21
-970.3941398965792
 31
0.0
 70
    32
 71
     5
 42
8.300000000000011
  3
SYS$0
100
AcDbAlignedDimension
 13
241.9067889013779
 23
-961.4941398965793
 33
0.0
 14
250.2067889013779
 24
-961.4941398965793
 34
0.0
 50
0.0000000000002036
100
AcDbRotatedDimension
1001
ACAD
1000
DSTYLE
1002
{
1070
    47
1040
0.3
1070
    48
1040
0.0
1002
}
  0
DIMENSION
  5
12692
330
1F
100
AcDbEntity
  8
AM_5
100
AcDbDimension
  2
*D29
 10
169.5067889013779
 20
-848.4941398965792
 30
0.0
 11
165.3567889013779
 21
-845.3941398965792
 31
0.0
 70
    32
 71
     5
 42
8.300000000000011
  3
SYS$0
100
AcDbAlignedDimension
 13
161.2067889013778
 23
-858.4941398965808
 33
0.0
 14
169.5067889013779
 24
-858.4941398965806
 34
0.0
 50
0.000000000001832
100
AcDbRotatedDimension
1001
ACAD
1000
DSTYLE
1002
{
1070
    47
1040
0.3
1070
    48
1040
0.0
1002
}
  0
DIMENSION
  5
126A8
330
1F
100
AcDbEntity
  8
AM_5
100
AcDbDimension
  2
*D30
 10
185.5067889013779
 20
-848.4941398965792
 30
0.0
 11
177.5067889013779
 21
-845.3941398965792
 31
0.0
 70
    32
 71
     5
 42
16.0
  3
SYS$0
100
AcDbAlignedDimension
 13
169.5067889013779
 23
-858.1941398965792
 33
0.0
 14
185.5067889013779
 24
-858.4941398965799
 34
0.0
100
AcDbRotatedDimension
1001
ACAD
1000
DSTYLE
1002
{
1070
    47
1040
0.3
1070
    48
1040
0.0
1002
}
  0
LINE
  5
126D1
330
1F
100
AcDbEntity
  8
AM_3
 48
0.5
100
AcDbLine
 10
165.6067889013779
 20
-807.190039529236
 30
0.0
 11
166.5067889013779
 21
-808.0900395292358
 31
0.0
  0
LINE
  5
126D2
330
1F
100
AcDbEntity
  8
AM_3
 48
0.5
100
AcDbLine
 10
166.5067889013779
 20
-808.0900395292358
 30
0.0
 11
172.5067889013779
 21
-808.0900395292358
 31
0.0
  0
LINE
  5
126D3
330
1F
100
AcDbEntity
  8
AM_3
 48
0.5
100
AcDbLine
 10
172.5067889013779
 20
-808.0900395292358
 30
0.0
 11
173.4067889013779
 21
-807.190039529236
 31
0.0
  0
LINE
  5
126D4
330
1F
100
AcDbEntity
  8
AM_3
 48
0.5
100
AcDbLine
 10
165.6067889013779
 20
-809.1900395292359
 30
0.0
 11
166.5067889013779
 21
-808.2900395292359
 31
0.0
  0
LINE
  5
126D5
330
1F
100
AcDbEntity
  8
AM_3
 48
0.5
100
AcDbLine
 10
166.5067889013779
 20
-808.2900395292359
 30
0.0
 11
169.5067889013779
 21
-808.2900395292359
 31
0.0
  0
LINE
  5
126D6
330
1F
100
AcDbEntity
  8
AM_3
 48
0.5
100
AcDbLine
 10
169.5067889013779
 20
-808.2900395292359
 30
0.0
 11
172.5067889013779
 21
-808.2900395292359
 31
0.0
  0
LINE
  5
126D7
330
1F
100
AcDbEntity
  8
AM_3
 48
0.5
100
AcDbLine
 10
172.5067889013779
 20
-808.2900395292359
 30
0.0
 11
173.4067889013779
 21
-809.1900395292359
 31
0.0
  0
LINE
  5
126D8
330
1F
100
AcDbEntity
  8
AM_3
 48
0.5
100
AcDbLine
 10
166.5067889013779
 20
-808.0900395292358
 30
0.0
 11
166.5067889013779
 21
-808.2900395292359
 31
0.0
  0
LINE
  5
126D9
330
1F
100
AcDbEntity
  8
AM_3
 48
0.5
100
AcDbLine
 10
172.5067889013779
 20
-808.0900395292358
 30
0.0
 11
172.5067889013779
 21
-808.2900395292359
 31
0.0
  0
LINE
  5
126DB
330
1F
100
AcDbEntity
  8
AM_3
 48
0.5
100
AcDbLine
 10
181.6067889013779
 20
-807.190039529236
 30
0.0
 11
182.5067889013778
 21
-808.0900395292358
 31
0.0
  0
LINE
  5
126DC
330
1F
100
AcDbEntity
  8
AM_3
 48
0.5
100
AcDbLine
 10
182.5067889013778
 20
-808.0900395292358
 30
0.0
 11
188.5067889013779
 21
-808.0900395292358
 31
0.0
  0
LINE
  5
126DD
330
1F
100
AcDbEntity
  8
AM_3
 48
0.5
100
AcDbLine
 10
188.5067889013779
 20
-808.0900395292358
 30
0.0
 11
189.4067889013779
 21
-807.190039529236
 31
0.0
  0
LINE
  5
126DE
330
1F
100
AcDbEntity
  8
AM_3
 48
0.5
100
AcDbLine
 10
181.6067889013779
 20
-809.1900395292359
 30
0.0
 11
182.5067889013778
 21
-808.2900395292359
 31
0.0
  0
LINE
  5
126DF
330
1F
100
AcDbEntity
  8
AM_3
 48
0.5
100
AcDbLine
 10
182.5067889013778
 20
-808.2900395292359
 30
0.0
 11
185.5067889013779
 21
-808.2900395292359
 31
0.0
  0
LINE
  5
126E0
330
1F
100
AcDbEntity
  8
AM_3
 48
0.5
100
AcDbLine
 10
185.5067889013779
 20
-808.2900395292359
 30
0.0
 11
188.5067889013779
 21
-808.2900395292359
 31
0.0
  0
LINE
  5
126E1
330
1F
100
AcDbEntity
  8
AM_3
 48
0.5
100
AcDbLine
 10
188.5067889013779
 20
-808.2900395292359
 30
0.0
 11
189.4067889013779
 21
-809.1900395292359
 31
0.0
  0
LINE
  5
126E2
330
1F
100
AcDbEntity
  8
AM_3
 48
0.5
100
AcDbLine
 10
182.5067889013778
 20
-808.0900395292358
 30
0.0
 11
182.5067889013778
 21
-808.2900395292359
 31
0.0
  0
LINE
  5
126E3
330
1F
100
AcDbEntity
  8
AM_3
 48
0.5
100
AcDbLine
 10
188.5067889013779
 20
-808.0900395292358
 30
0.0
 11
188.5067889013779
 21
-808.2900395292359
 31
0.0
  0
LINE
  5
126E5
330
1F
100
AcDbEntity
  8
AM_3
 48
0.5
100
AcDbLine
 10
222.0067889013778
 20
-807.190039529236
 30
0.0
 11
222.9067889013779
 21
-808.0900395292358
 31
0.0
  0
LINE
  5
126E6
330
1F
100
AcDbEntity
  8
AM_3
 48
0.5
100
AcDbLine
 10
222.9067889013779
 20
-808.0900395292358
 30
0.0
 11
228.9067889013779
 21
-808.0900395292358
 31
0.0
  0
LINE
  5
126E7
330
1F
100
AcDbEntity
  8
AM_3
 48
0.5
100
AcDbLine
 10
228.9067889013779
 20
-808.0900395292358
 30
0.0
 11
229.8067889013779
 21
-807.190039529236
 31
0.0
  0
LINE
  5
126E8
330
1F
100
AcDbEntity
  8
AM_3
 48
0.5
100
AcDbLine
 10
222.0067889013778
 20
-809.1900395292359
 30
0.0
 11
222.9067889013779
 21
-808.2900395292359
 31
0.0
  0
LINE
  5
126E9
330
1F
100
AcDbEntity
  8
AM_3
 48
0.5
100
AcDbLine
 10
222.9067889013779
 20
-808.2900395292359
 30
0.0
 11
225.9067889013778
 21
-808.2900395292359
 31
0.0
  0
LINE
  5
126EA
330
1F
100
AcDbEntity
  8
AM_3
 48
0.5
100
AcDbLine
 10
225.9067889013778
 20
-808.2900395292359
 30
0.0
 11
228.9067889013779
 21
-808.2900395292359
 31
0.0
  0
LINE
  5
126EB
330
1F
100
AcDbEntity
  8
AM_3
 48
0.5
100
AcDbLine
 10
228.9067889013779
 20
-808.2900395292359
 30
0.0
 11
229.8067889013779
 21
-809.1900395292359
 31
0.0
  0
LINE
  5
126EC
330
1F
100
AcDbEntity
  8
AM_3
 48
0.5
100
AcDbLine
 10
222.9067889013779
 20
-808.0900395292358
 30
0.0
 11
222.9067889013779
 21
-808.2900395292359
 31
0.0
  0
LINE
  5
126ED
330
1F
100
AcDbEntity
  8
AM_3
 48
0.5
100
AcDbLine
 10
228.9067889013779
 20
-808.0900395292358
 30
0.0
 11
228.9067889013779
 21
-808.2900395292359
 31
0.0
  0
LINE
  5
126EF
330
1F
100
AcDbEntity
  8
AM_3
 48
0.5
100
AcDbLine
 10
238.0067889013778
 20
-807.190039529236
 30
0.0
 11
238.9067889013779
 21
-808.0900395292358
 31
0.0
  0
LINE
  5
126F0
330
1F
100
AcDbEntity
  8
AM_3
 48
0.5
100
AcDbLine
 10
238.9067889013779
 20
-808.0900395292358
 30
0.0
 11
244.9067889013779
 21
-808.0900395292358
 31
0.0
  0
LINE
  5
126F1
330
1F
100
AcDbEntity
  8
AM_3
 48
0.5
100
AcDbLine
 10
244.9067889013779
 20
-808.0900395292358
 30
0.0
 11
245.8067889013779
 21
-807.190039529236
 31
0.0
  0
LINE
  5
126F2
330
1F
100
AcDbEntity
  8
AM_3
 48
0.5
100
AcDbLine
 10
238.0067889013778
 20
-809.1900395292359
 30
0.0
 11
238.9067889013779
 21
-808.2900395292359
 31
0.0
  0
LINE
  5
126F3
330
1F
100
AcDbEntity
  8
AM_3
 48
0.5
100
AcDbLine
 10
238.9067889013779
 20
-808.2900395292359
 30
0.0
 11
241.9067889013779
 21
-808.2900395292359
 31
0.0
  0
LINE
  5
126F4
330
1F
100
AcDbEntity
  8
AM_3
 48
0.5
100
AcDbLine
 10
241.9067889013779
 20
-808.2900395292359
 30
0.0
 11
244.9067889013779
 21
-808.2900395292359
 31
0.0
  0
LINE
  5
126F5
330
1F
100
AcDbEntity
  8
AM_3
 48
0.5
100
AcDbLine
 10
244.9067889013779
 20
-808.2900395292359
 30
0.0
 11
245.8067889013779
 21
-809.1900395292359
 31
0.0
  0
LINE
  5
126F6
330
1F
100
AcDbEntity
  8
AM_3
 48
0.5
100
AcDbLine
 10
238.9067889013779
 20
-808.0900395292358
 30
0.0
 11
238.9067889013779
 21
-808.2900395292359
 31
0.0
  0
LINE
  5
126F7
330
1F
100
AcDbEntity
  8
AM_3
 48
0.5
100
AcDbLine
 10
244.9067889013779
 20
-808.0900395292358
 30
0.0
 11
244.9067889013779
 21
-808.2900395292359
 31
0.0
  0
MTEXT
  5
1278A
330
1F
100
AcDbEntity
  8
AM_6
 48
10.0
100
AcDbMText
 10
31.98367275997316
 20
-758.2551314762643
 30
0.0
 40
3.2
 41
30.22311614140475
 71
     1
 72
     5
  1
ＩＤＨ－７２
 73
     1
 44
1.0
1001
ACAD
1000
MTEXTBEGIN
1070
    73
1070
     1
1070
    44
1040
1.0
1070
    74
1070
     0
1000
MTEXTEND
  0
MTEXT
  5
1278B
330
1F
100
AcDbEntity
  8
AM_6
 48
10.0
100
AcDbMText
 10
31.98367275997314
 20
-750.2551314762643
 30
0.0
 40
3.2
 41
30.22311614140475
 71
     1
 72
     5
  1
旗丁番
 73
     1
 44
1.0
1001
ACAD
1000
MTEXTBEGIN
1070
    73
1070
     1
1070
    44
1040
1.0
1070
    74
1070
     0
1000
MTEXTEND
  0
MTEXT
  5
1278C
330
1F
100
AcDbEntity
  8
AM_6
 48
10.0
100
AcDbMText
 10
32.00300957454238
 20
-774.3469281532582
 30
0.0
 40
3.2
 41
30.18240262202656
 71
     1
 72
     5
  1
ヘアーライン
 73
     1
 44
1.0
1001
ACAD
1000
MTEXTBEGIN
1070
    73
1070
     1
1070
    44
1040
1.0
1070
    74
1070
     0
1000
MTEXTEND
  0
INSERT
  5
13467
330
1F
100
AcDbEntity
  8
AM_5
 48
10.0
100
AcDbBlockReference
  2
*S31
 10
0.0
 20
0.0
 30
0.0
  0
MTEXT
  5
13580
330
1F
100
AcDbEntity
  8
AM_6
 48
10.0
100
AcDbMText
 10
32.00300957454238
 20
-766.3469281532582
 30
0.0
 40
3.2
 41
30.18240262202656
 71
     1
 72
     5
  1
ステンレス
 73
     1
 44
1.0
1001
ACAD
1000
MTEXTBEGIN
1070
    73
1070
     1
1070
    44
1040
1.0
1070
    74
1070
     0
1000
MTEXTEND
  0
MTEXT
  5
15AAD
330
1F
100
AcDbEntity
  8
AM_6
 48
10.0
100
AcDbMText
 10
32.41791830896452
 20
-782.4684326046502
 30
0.0
 40
3.2
 41
72.1139979977097
 71
     1
 72
     5
  1
呼び4×D7×25サラタッピンネジ　+ SUS　:8本
 73
     1
 44
1.0
1001
ACAD
1000
MTEXTBEGIN
1070
    73
1070
     1
1070
    44
1040
1.0
1070
    74
1070
     0
1000
MTEXTEND
  0
CIRCLE
  5
15DA3
330
1F
100
AcDbEntity
  8
AM_CL
 48
10.0
100
AcDbCircle
 10
79.50892911209667
 20
-784.2857266456255
 30
0.0
 40
1.790791786494786
  0
ENDSEC
  0
SECTION
  2
OBJECTS
  0
DICTIONARY
  5
C
330
0
100
AcDbDictionary
281
     1
  3
ACAD_2007HEADERVARS_RT
350
15E3C
  3
ACAD_BGPLOT_KEY
350
AB06
  3
ACAD_COLOR
350
A91D
  3
ACAD_GROUP
350
D
  3
ACAD_LAYOUT
350
1A
  3
ACAD_MATERIAL
350
A91C
  3
ACAD_MLINESTYLE
350
17
  3
ACAD_PLOTSETTINGS
350
19
  3
ACAD_PLOTSTYLENAME
350
E
  3
ACAD_TABLESTYLE
350
AAB9
  3
ACAD_VISUALSTYLE
350
B444
  3
AcAsAppObject
350
3DA1
  3
ACASGREF_MASTER
350
3DE9
  3
AcDbVariableDictionary
350
34
  3
AcmDictionary
350
47
  3
AD_GREF_MODULE
350
3DEA
  3
AD_MAPI_MODULE
350
3E06
  3
AMG
350
2B
  3
AMGSNAPSETTINGS
350
7D
  3
ASE_INDEX_DICTIONARY
350
15CB1
  3
DWGPROPS
350
15E3B
  3
MAPISURF_MODULE
350
3DEB
  0
DICTIONARY
  5
15BC4
330
8
100
AcDbDictionary
280
     1
281
     1
  0
DICTIONARY
  5
3F95
330
2
100
AcDbDictionary
280
     1
281
     1
  3
ACAD_LAYERFILTERS
360
AE5F
  3
ACAD_LAYERSTATES
360
3F96
  3
ACLYDICTIONARY
360
AE5E
  3
AMLAYER_GROUPCOLORS
360
AAB4
  0
DICTIONARY
  5
B683
330
B682
100
AcDbDictionary
280
     1
281
     1
  3
ADSK_XREC_LAYER_RECONCILED
360
B684
  0
DICTIONARY
  5
B686
330
B685
100
AcDbDictionary
280
     1
281
     1
  3
ADSK_XREC_LAYER_RECONCILED
360
B687
  0
DICTIONARY
  5
B689
330
B688
100
AcDbDictionary
280
     1
281
     1
  3
ADSK_XREC_LAYER_RECONCILED
360
B68A
  0
DICTIONARY
  5
B68C
330
B68B
100
AcDbDictionary
280
     1
281
     1
  3
ADSK_XREC_LAYER_RECONCILED
360
B68D
  0
DICTIONARY
  5
B68F
330
B68E
100
AcDbDictionary
280
     1
281
     1
  3
ADSK_XREC_LAYER_RECONCILED
360
B690
  0
DICTIONARY
  5
B692
330
B691
100
AcDbDictionary
280
     1
281
     1
  3
ADSK_XREC_LAYER_RECONCILED
360
B693
  0
DICTIONARY
  5
B695
330
B694
100
AcDbDictionary
280
     1
281
     1
  3
ADSK_XREC_LAYER_RECONCILED
360
B696
  0
DICTIONARY
  5
B698
330
B697
100
AcDbDictionary
280
     1
281
     1
  3
ADSK_XREC_LAYER_RECONCILED
360
B699
  0
DICTIONARY
  5
B69B
330
B69A
100
AcDbDictionary
280
     1
281
     1
  3
ADSK_XREC_LAYER_RECONCILED
360
B69C
  0
DICTIONARY
  5
B69E
330
B69D
100
AcDbDictionary
280
     1
281
     1
  3
ADSK_XREC_LAYER_RECONCILED
360
B69F
  0
DICTIONARY
  5
C8D1
330
C8D0
100
AcDbDictionary
280
     1
281
     1
  3
ADSK_XREC_LAYER_RECONCILED
360
C8D2
  0
DICTIONARY
  5
C8D4
330
C8D3
100
AcDbDictionary
280
     1
281
     1
  3
ADSK_XREC_LAYER_RECONCILED
360
C8D5
  0
DICTIONARY
  5
C8D7
330
C8D6
100
AcDbDictionary
280
     1
281
     1
  3
ADSK_XREC_LAYER_RECONCILED
360
C8D8
  0
DICTIONARY
  5
C8DA
330
C8D9
100
AcDbDictionary
280
     1
281
     1
  3
ADSK_XREC_LAYER_RECONCILED
360
C8DB
  0
DICTIONARY
  5
C8DD
330
C8DC
100
AcDbDictionary
280
     1
281
     1
  3
ADSK_XREC_LAYER_RECONCILED
360
C8DE
  0
DICTIONARY
  5
C8E0
330
C8DF
100
AcDbDictionary
280
     1
281
     1
  3
ADSK_XREC_LAYER_RECONCILED
360
C8E1
  0
DICTIONARY
  5
8A
330
1F
100
AcDbDictionary
280
     1
281
     1
  3
ACAD_SORTENTS
360
B431
  0
DICTIONARY
  5
15E3C
102
{ACAD_REACTORS
330
C
102
}
330
C
100
AcDbDictionary
281
     1
  3
DIMARCSYM
350
15E3D
  0
DICTIONARY
  5
AB06
102
{ACAD_REACTORS
330
C
102
}
330
C
100
AcDbDictionary
280
     1
281
     1
  0
DICTIONARY
  5
A91D
102
{ACAD_REACTORS
330
C
102
}
330
C
100
AcDbDictionary
281
     1
  0
DICTIONARY
  5
D
102
{ACAD_REACTORS
330
C
102
}
330
C
100
AcDbDictionary
281
     1
  0
DICTIONARY
  5
1A
102
{ACAD_REACTORS
330
C
102
}
330
C
100
AcDbDictionary
281
     1
  3
Model
350
22
  3
ﾚｲｱｳﾄ1
350
1E
  3
ﾚｲｱｳﾄ2
350
26
  0
DICTIONARY
  5
A91C
102
{ACAD_REACTORS
330
C
102
}
330
C
100
AcDbDictionary
281
     1
  3
ByBlock
350
B442
  3
ByLayer
350
B441
  3
Global
350
B443
  0
DICTIONARY
  5
17
102
{ACAD_REACTORS
330
C
102
}
330
C
100
AcDbDictionary
281
     1
  3
Standard
350
18
  0
DICTIONARY
  5
19
102
{ACAD_REACTORS
330
C
102
}
330
C
100
AcDbDictionary
281
     1
  3
01 A3フィット
350
AAFE
  3
02 A3
350
AAFF
  3
03 A2フィット
350
AB00
  3
04 A2
350
AB01
  3
05 A1フィット
350
AB04
  3
06 A1
350
AB05
  3
06 A4フィット
350
AB02
  3
07 A4
350
AB03
  0
ACDBDICTIONARYWDFLT
  5
E
102
{ACAD_REACTORS
330
C
102
}
330
C
100
AcDbDictionary
281
     1
  3
Normal
350
F
100
AcDbDictionaryWithDefault
340
F
  0
DICTIONARY
  5
AAB9
102
{ACAD_REACTORS
330
C
102
}
330
C
100
AcDbDictionary
281
     1
  3
Standard
350
AABA
  0
DICTIONARY
  5
B444
102
{ACAD_REACTORS
330
C
102
}
330
C
100
AcDbDictionary
281
     1
  3
2dWireframe
350
B44A
  3
3D Hidden
350
B44C
  3
3dWireframe
350
B44B
  3
Basic
350
B449
  3
Brighten
350
B450
  3
ColorChange
350
B454
  3
Conceptual
350
B44D
  3
Dim
350
B44F
  3
Facepattern
350
B453
  3
Flat
350
B445
  3
FlatWithEdges
350
B446
  3
Gouraud
350
B447
  3
GouraudWithEdges
350
B448
  3
Linepattern
350
B452
  3
Realistic
350
B44E
  3
Thicken
350
B451
  0
ACAD_PROXY_OBJECT
  5
3DA1
102
{ACAD_REACTORS
330
C
102
}
330
C
100
AcDbProxyObject
 90
      499
 91
      576
 95
       23
 70
     0
 93
       10
310
407F
 94
        0
1001
ACAD
1000
AcRTDxfName
1000
ASAPP
1000
AcRTDxfName
1000
ASAPP
1000
AcRTDxfName
1000
ASAPP
  0
ACAD_PROXY_OBJECT
  5
3DE9
102
{ACAD_REACTORS
330
C
102
}
330
C
100
AcDbProxyObject
 90
      499
 91
      581
 95
       23
 70
     0
 93
       34
310
010000407F
 94
        0
1001
ACAD
1000
AcRTDxfName
1000
ACASGREFMASTER
1000
AcRTDxfName
1000
ACASGREFMASTER
1000
AcRTDxfName
1000
ACASGREFMASTER
  0
DICTIONARY
  5
34
102
{ACAD_REACTORS
330
C
102
}
330
C
100
AcDbDictionary
281
     1
  3
CTABLESTYLE
350
AAF3
  3
DIMASSOC
350
A10C
  3
FIELDEVAL
350
AB07
  3
INDEXCTL
350
35
  3
SORTENTS
350
194C
  0
DICTIONARY
  5
47
102
{ACAD_REACTORS
330
C
102
}
330
C
100
AcDbDictionary
281
     1
  3
AcmBOM
350
7E8
  3
AcmStdDictionary
350
4C
  3
AMDTSECTSYM_ARROWCOLOR
350
A929
  0
ACAD_PROXY_OBJECT
  5
3DEA
102
{ACAD_REACTORS
330
C
102
}
330
C
100
AcDbProxyObject
 90
      499
 91
      582
 95
       23
 70
     0
 93
      114
310
00000043800000000000000000003F
 94
        0
1001
ACAD
1000
AcRTDxfName
1000
ACADGREFMODULE
1000
AcRTDxfName
1000
ACADGREFMODULE
1000
AcRTDxfName
1000
ACADGREFMODULE
  0
ACAD_PROXY_OBJECT
  5
3E06
102
{ACAD_REACTORS
330
C
102
}
330
C
100
AcDbProxyObject
 90
      499
 91
      594
 95
       23
 70
     0
 93
       34
310
05000044FF
 94
        0
1001
ACAD
1000
AcRTDxfName
1000
MAPIADMODULE
1000
AcRTDxfName
1000
MAPIADMODULE
1000
AcRTDxfName
1000
MAPIADMODULE
  0
DICTIONARY
  5
2B
102
{ACAD_REACTORS
330
C
102
}
330
C
100
AcDbDictionary
281
     1
  0
DICTIONARY
  5
7D
102
{ACAD_REACTORS
330
C
102
}
330
C
100
AcDbDictionary
281
     1
  0
DICTIONARY
  5
15CB1
102
{ACAD_REACTORS
330
C
102
}
330
C
100
AcDbDictionary
281
     1
  3
ASEBlockHierarchyIndexRecord
350
15CB2
1001
DCO15
1040
1646490377.031
  0
XRECORD
  5
15E3B
102
{ACAD_REACTORS
330
C
102
}
330
C
100
AcDbXrecord
280
     1
  1
DWGPROPS COOKIE
  2

  3

  4

  6

  7

  8
Administrator
  9

300
AmdtFileType=84
301
=
302
=
303
=
304
=
305
=
306
=
307
=
308
=
309
=
 40
0.5340916203703704
 41
2454123.447246817
 42
2454886.441467187
  1

 90
        1
  0
ACAD_PROXY_OBJECT
  5
3DEB
102
{ACAD_REACTORS
330
C
102
}
330
C
100
AcDbProxyObject
 90
      499
 91
      583
 95
       23
 70
     0
 93
        8
310
047E
 94
        0
1001
ACAD
1000
AcRTDxfName
1000
AMDTMAPISURFMOUDULE
1000
AcRTDxfName
1000
AMDTMAPISURFMOUDULE
1000
AcRTDxfName
1000
AMDTMAPISURFMOUDULE
  0
DICTIONARY
  5
AE5F
102
{ACAD_REACTORS
330
3F95
102
}
330
3F95
100
AcDbDictionary
281
     1
  0
DICTIONARY
  5
3F96
102
{ACAD_REACTORS
330
3F95
102
}
330
3F95
100
AcDbDictionary
281
     1
  3
20011210
350
3FB7
  0
DICTIONARY
  5
AE5E
102
{ACAD_REACTORS
330
3F95
102
}
330
3F95
100
AcDbDictionary
281
     1
1001
ACAD
1000
<All
  0
DICTIONARY
  5
AAB4
102
{ACAD_REACTORS
330
3F95
102
}
330
3F95
100
AcDbDictionary
280
     1
281
     1
  0
XRECORD
  5
B684
102
{ACAD_REACTORS
330
B683
102
}
330
B683
100
AcDbXrecord
280
     1
290
     1
  0
XRECORD
  5
B687
102
{ACAD_REACTORS
330
B686
102
}
330
B686
100
AcDbXrecord
280
     1
290
     1
  0
XRECORD
  5
B68A
102
{ACAD_REACTORS
330
B689
102
}
330
B689
100
AcDbXrecord
280
     1
290
     1
  0
XRECORD
  5
B68D
102
{ACAD_REACTORS
330
B68C
102
}
330
B68C
100
AcDbXrecord
280
     1
290
     1
  0
XRECORD
  5
B690
102
{ACAD_REACTORS
330
B68F
102
}
330
B68F
100
AcDbXrecord
280
     1
290
     1
  0
XRECORD
  5
B693
102
{ACAD_REACTORS
330
B692
102
}
330
B692
100
AcDbXrecord
280
     1
290
     1
  0
XRECORD
  5
B696
102
{ACAD_REACTORS
330
B695
102
}
330
B695
100
AcDbXrecord
280
     1
290
     1
  0
XRECORD
  5
B699
102
{ACAD_REACTORS
330
B698
102
}
330
B698
100
AcDbXrecord
280
     1
290
     1
  0
XRECORD
  5
B69C
102
{ACAD_REACTORS
330
B69B
102
}
330
B69B
100
AcDbXrecord
280
     1
290
     1
  0
XRECORD
  5
B69F
102
{ACAD_REACTORS
330
B69E
102
}
330
B69E
100
AcDbXrecord
280
     1
290
     1
  0
XRECORD
  5
C8D2
102
{ACAD_REACTORS
330
C8D1
102
}
330
C8D1
100
AcDbXrecord
280
     1
290
     1
  0
XRECORD
  5
C8D5
102
{ACAD_REACTORS
330
C8D4
102
}
330
C8D4
100
AcDbXrecord
280
     1
290
     1
  0
XRECORD
  5
C8D8
102
{ACAD_REACTORS
330
C8D7
102
}
330
C8D7
100
AcDbXrecord
280
     1
290
     1
  0
XRECORD
  5
C8DB
102
{ACAD_REACTORS
330
C8DA
102
}
330
C8DA
100
AcDbXrecord
280
     1
290
     1
  0
XRECORD
  5
C8DE
102
{ACAD_REACTORS
330
C8DD
102
}
330
C8DD
100
AcDbXrecord
280
     1
290
     1
  0
XRECORD
  5
C8E1
102
{ACAD_REACTORS
330
C8E0
102
}
330
C8E0
100
AcDbXrecord
280
     1
290
     1
  0
SORTENTSTABLE
  5
B431
102
{ACAD_REACTORS
330
8A
102
}
330
8A
100
AcDbSortentsTable
330
1F
331
126D7
  5
12D4A
331
E6F8
  5
E6F9
331
126DF
  5
12F27
331
126E7
  5
1307F
331
1234D
  5
12692
331
12355
  5
126D7
331
126EF
  5
13260
331
126F7
  5
13312
331
126A8
  5
12C3B
331
B42F
  5
B42F
331
123CD
  5
126E5
331
E6E9
  5
E6EA
331
12338
  5
125FA
331
13467
  5
14812
331
123D5
  5
126EB
331
1258B
  5
1278C
331
E6F9
  5
E6FA
331
126D8
  5
12D60
331
B4BE
  5
B4BE
331
12661
  5
12C0F
331
125FA
  5
12B81
331
12346
  5
12610
331
126E0
  5
12F28
331
1234E
  5
126BF
331
124BC
  5
1278A
331
126E8
  5
13095
331
126F0
  5
13261
331
123C6
  5
126DF
331
123D6
  5
126EC
331
126D1
  5
12C5A
331
E6FA
  5
E6FB
331
126D9
  5
12D85
331
B4BF
  5
B4BF
331
1249D
  5
126F8
331
126E1
  5
12F32
331
12347
  5
12626
331
125BC
  5
12B03
331
123E6
  5
126EE
331
123EE
  5
126F5
331
1234F
  5
126D1
331
12692
  5
12C25
331
126E9
  5
130AB
331
126F1
  5
13262
331
125E4
  5
12B55
331
E6DB
  5
E6DC
331
123C7
  5
126E1
331
B439
  5
B439
331
123CF
  5
126E6
331
123DF
  5
126ED
331
1264B
  5
12BF9
331
126D2
  5
12C9D
331
E6FB
  5
E6FC
331
B4C0
  5
B4C0
331
126E2
  5
13015
331
12348
  5
12661
331
123E7
  5
126EF
331
12350
  5
126D2
331
126EA
  5
13187
331
126F2
  5
13263
331
E6DC
  5
E6DD
331
1278A
  5
13313
331
123C0
  5
126DA
331
12333
  5
12423
331
123D0
  5
126E7
331
B43A
  5
B43A
331
E6EC
  5
E6ED
331
E6F4
  5
E6F5
331
126D3
  5
12CB3
331
126DB
  5
12D9B
331
126E3
  5
1302B
331
123E8
  5
126F0
331
12351
  5
126D3
331
12361
  5
126D8
331
126EB
  5
13192
331
13580
  5
14813
331
126F3
  5
13264
331
E6DD
  5
E6DE
331
1278B
  5
1339C
331
123C1
  5
126DB
331
12334
  5
12462
331
123C9
  5
126E2
331
B43B
  5
B43B
331
E6ED
  5
E6EE
331
E6F5
  5
E6F6
331
126D4
  5
12CC9
331
126DC
  5
12DE2
331
1234A
  5
1264B
331
123E9
  5
126F1
331
12352
  5
126D4
331
12362
  5
126D9
331
126EC
  5
1325E
331
126F4
  5
13265
331
E6DE
  5
E6DF
331
12626
  5
12BAD
331
1278C
  5
1339D
331
B42C
  5
B42C
331
E6E6
  5
E6E7
331
12335
  5
1249D
331
123CA
  5
126E3
331
123D2
  5
126E8
331
B43C
  5
B43C
331
E6EE
  5
E6EF
331
E6F6
  5
E6F7
331
126D5
  5
12CDF
331
126DD
  5
12EFE
331
123EA
  5
126F2
331
126E5
  5
13041
331
1234B
  5
126A8
331
12353
  5
126D5
331
126ED
  5
1325F
331
126F5
  5
13266
331
123C3
  5
126DD
331
E6DF
  5
E6E0
331
B42D
  5
B42D
331
E6E7
  5
E6E8
331
12336
  5
1258B
331
12462
  5
126F7
331
123D3
  5
126E9
331
E6EF
  5
E6F0
331
E6F7
  5
E6F8
331
126D6
  5
12D05
331
B4BC
  5
B4BC
331
126DE
  5
12F26
331
123EB
  5
126F3
331
126E6
  5
13069
331
1234C
  5
125BC
331
12354
  5
126D6
331
12423
  5
126F6
331
12610
  5
12B97
331
126F6
  5
13267
331
123C4
  5
126DE
331
B42E
  5
B42E
331
11977
  5
119A1
331
124FA
  5
1278B
331
E6E8
  5
E6E9
331
12337
  5
125E4
331
123CC
  5
126E4
  0
XRECORD
  5
15E3D
102
{ACAD_REACTORS
330
15E3C
102
}
330
15E3C
100
AcDbXrecord
280
     1
 70
     1
  0
LAYOUT
  5
22
102
{ACAD_XDICTIONARY
360
15E40
102
}
102
{ACAD_REACTORS
330
1A
102
}
330
1A
100
AcDbPlotSettings
  1

  2
RICOH imagio Wide 7040e RP-GL/2
  4
A4
  6

 40
5.365749835968017
 41
6.889746665954589
 42
5.535064697265625
 43
6.76275634765625
 44
296.9683227539062
 45
209.9733276367187
 46
3.856312368597315
 47
0.0
 48
7.206788901377876
 49
-1027.880580830175
140
404.2067889013778
141
-747.8805808301756
142
1.0
143
1.42623687801606
 70
  3764
 72
     1
 73
     0
 74
     4
  7
monochrome.ctb
 75
     0
147
0.7011458022253854
148
-7.206788901377876
149
1027.880580830175
100
AcDbLayout
  1
Model
 70
     1
 71
     0
 10
0.0
 20
0.0
 11
12.0
 21
9.0
 12
0.0
 22
0.0
 32
0.0
 14
0.0
 24
0.0
 34
0.0
 15
0.0
 25
0.0
 35
0.0
146
0.0
 13
0.0
 23
0.0
 33
0.0
 16
1.0
 26
0.0
 36
0.0
 17
0.0
 27
1.0
 37
0.0
 76
     0
330
1F
331
B43F
1001
ACAD_PSEXT
1000
RICOH imagio Wide 7040e RP-GL/2
1000
RICOH imagio Wide 7040e RP-GL/2
1000
192.200.51.212:lp11
1000
RP-GL/2 Driver (Windows 2000/XP/Server 2003)
1070
     0
  0
LAYOUT
  5
1E
102
{ACAD_XDICTIONARY
360
15E3E
102
}
102
{ACAD_REACTORS
330
1A
102
}
330
1A
100
AcDbPlotSettings
  1

  2
\\ML370\XEROX
  4
A4
  6

 40
3.174999952316284
 41
3.174999952316284
 42
3.175003051757812
 43
3.17498779296875
 44
209.8674926757813
 45
296.6719970703125
 46
0.0
 47
0.0
 48
0.0
 49
0.0
140
0.0
141
0.0
142
1.0
143
1.0
 70
   688
 72
     1
 73
     1
 74
     5
  7
monochrome.ctb
 75
    16
147
1.0
148
0.0
149
0.0
100
AcDbLayout
  1
ﾚｲｱｳﾄ1
 70
     1
 71
     1
 10
-3.17498779296875
 20
-3.174999952316284
 11
293.4970092773438
 21
206.692492723465
 12
0.0
 22
0.0
 32
0.0
 14
1.000000000000000E+20
 24
1.000000000000000E+20
 34
1.000000000000000E+20
 15
-1.000000000000000E+20
 25
-1.000000000000000E+20
 35
-1.000000000000000E+20
146
0.0
 13
0.0
 23
0.0
 33
0.0
 16
1.0
 26
0.0
 36
0.0
 17
0.0
 27
1.0
 37
0.0
 76
     0
330
1B
  0
LAYOUT
  5
26
102
{ACAD_XDICTIONARY
360
15E42
102
}
102
{ACAD_REACTORS
330
1A
102
}
330
1A
100
AcDbPlotSettings
  1

  2
\\ML370\XEROX
  4

  6

 40
0.0
 41
0.0
 42
0.0
 43
0.0
 44
0.0
 45
0.0
 46
0.0
 47
0.0
 48
0.0
 49
0.0
140
0.0
141
0.0
142
1.0
143
1.0
 70
   688
 72
     0
 73
     0
 74
     5
  7
monochrome.ctb
 75
    16
147
1.0
148
0.0
149
0.0
100
AcDbLayout
  1
ﾚｲｱｳﾄ2
 70
     1
 71
     2
 10
0.0
 20
0.0
 11
12.0
 21
9.0
 12
0.0
 22
0.0
 32
0.0
 14
0.0
 24
0.0
 34
0.0
 15
0.0
 25
0.0
 35
0.0
146
0.0
 13
0.0
 23
0.0
 33
0.0
 16
1.0
 26
0.0
 36
0.0
 17
0.0
 27
1.0
 37
0.0
 76
     0
330
23
  0
MATERIAL
  5
B442
102
{ACAD_XDICTIONARY
360
15E58
102
}
102
{ACAD_REACTORS
330
A91C
102
}
330
A91C
100
AcDbMaterial
  1
ByBlock
  0
MATERIAL
  5
B441
102
{ACAD_XDICTIONARY
360
15E56
102
}
102
{ACAD_REACTORS
330
A91C
102
}
330
A91C
100
AcDbMaterial
  1
ByLayer
  0
MATERIAL
  5
B443
102
{ACAD_XDICTIONARY
360
15E5A
102
}
102
{ACAD_REACTORS
330
A91C
102
}
330
A91C
100
AcDbMaterial
  1
Global
  0
MLINESTYLE
  5
18
102
{ACAD_REACTORS
330
17
102
}
330
17
100
AcDbMlineStyle
  2
STANDARD
 70
     0
  3

 62
   256
 51
90.0
 52
90.0
 71
     2
 49
0.5
 62
   256
  6
BYLAYER
 49
-0.5
 62
   256
  6
BYLAYER
  0
PLOTSETTINGS
  5
AAFE
102
{ACAD_XDICTIONARY
360
15E46
102
}
102
{ACAD_REACTORS
330
19
102
}
330
19
100
AcDbPlotSettings
  1
01 A3フィット
  2
FX DocuWide 2050/2051
  4
A3
  6
AM_VIEW1
 40
3.174999952316284
 41
3.174999952316284
 42
3.17498779296875
 43
3.17498779296875
 44
296.989501953125
 45
419.9889831542968
 46
0.0
 47
1.295841228961961
 48
214.3704939521119
 49
367.5855324241176
140
275.6727856380065
141
407.629191407817
142
1.0
143
1.445089120606129
 70
  3764
 72
     1
 73
     1
 74
     2
  7
monochrome.ctb
 75
     0
147
0.6919988433519999
148
0.0
149
0.0
1001
ACAD_PSEXT
1000
FX DocuWide 2050/2051
1000
FX DocuWide 2050/2051
1000
IP_192.200.15.252
1000

1070
     0
  0
PLOTSETTINGS
  5
AAFF
102
{ACAD_XDICTIONARY
360
15E48
102
}
102
{ACAD_REACTORS
330
19
102
}
330
19
100
AcDbPlotSettings
  1
02 A3
  2
FX DocuWide 2050/2051
  4
A3
  6
AM_VIEW1
 40
3.174999952316284
 41
3.174999952316284
 42
3.17498779296875
 43
3.17498779296875
 44
296.989501953125
 45
419.9889831542968
 46
-64.68024289608002
 47
-90.18050229549407
 48
214.3704939521119
 49
367.5855324241176
140
275.6727856380065
141
407.629191407817
142
1.0
143
1.0
 70
  3764
 72
     1
 73
     1
 74
     2
  7
monochrome.ctb
 75
    16
147
1.0
148
0.0
149
0.0
1001
ACAD_PSEXT
1000
FX DocuWide 2050/2051
1000
FX DocuWide 2050/2051
1000
IP_192.200.15.252
1000

1070
     0
  0
PLOTSETTINGS
  5
AB00
102
{ACAD_XDICTIONARY
360
15E4A
102
}
102
{ACAD_REACTORS
330
19
102
}
330
19
100
AcDbPlotSettings
  1
03 A2フィット
  2
FX DocuWide 2050/2051
  4
User66
  6
AM_VIEW1
 40
3.174999952316284
 41
3.174999952316284
 42
3.17498779296875
 43
3.17498779296875
 44
419.9889831542968
 45
593.97900390625
 46
0.0
 47
1.312647041252716
 48
214.3704939521119
 49
367.5855324241176
140
275.6727856380065
141
407.629191407817
142
1.0
143
1.015378155013403
 70
  3764
 72
     1
 73
     1
 74
     2
  7
monochrome.ctb
 75
     0
147
0.9848547509738377
148
0.0
149
0.0
1001
ACAD_PSEXT
1000
FX DocuWide 2050/2051
1000
FX DocuWide 2050/2051
1000
IP_192.200.15.252
1000

1070
     0
  0
PLOTSETTINGS
  5
AB01
102
{ACAD_XDICTIONARY
360
15E4C
102
}
102
{ACAD_REACTORS
330
19
102
}
330
19
100
AcDbPlotSettings
  1
04 A2
  2
FX DocuWide 2050/2051
  4
User66
  6
AM_VIEW1
 40
3.174999952316284
 41
3.174999952316284
 42
3.17498779296875
 43
3.17498779296875
 44
419.9889831542968
 45
593.97900390625
 46
-3.180502295494079
 47
-3.185491919517517
 48
214.3704939521119
 49
367.5855324241176
140
275.6727856380065
141
407.629191407817
142
1.0
143
1.0
 70
  3764
 72
     1
 73
     1
 74
     2
  7
monochrome.ctb
 75
    16
147
1.0
148
0.0
149
0.0
1001
ACAD_PSEXT
1000
FX DocuWide 2050/2051
1000
FX DocuWide 2050/2051
1000
IP_192.200.15.252
1000

1070
     0
  0
PLOTSETTINGS
  5
AB04
102
{ACAD_XDICTIONARY
360
15E52
102
}
102
{ACAD_REACTORS
330
19
102
}
330
19
100
AcDbPlotSettings
  1
05 A1フィット
  2
FX DocuWide 2050/2051
  4
User139
  6
AM_VIEW1
 40
3.174999952316284
 41
3.174999952316284
 42
3.17498779296875
 43
3.17498779296875
 44
593.97900390625
 45
840.9939575195313
 46
0.0
 47
1.784323459012171
 48
214.3704939521119
 49
367.5855324241176
140
275.6727856380065
141
407.629191407817
142
1.0
143
0.7147366594384652
 70
  3764
 72
     1
 73
     1
 74
     2
  7
monochrome.ctb
 75
     0
147
1.399116705145154
148
0.0
149
0.0
1001
ACAD_PSEXT
1000
FX DocuWide 2050/2051
1000
FX DocuWide 2050/2051
1000
IP_192.200.15.252
1000

1070
     0
  0
PLOTSETTINGS
  5
AB05
102
{ACAD_XDICTIONARY
360
15E54
102
}
102
{ACAD_REACTORS
330
19
102
}
330
19
100
AcDbPlotSettings
  1
06 A1
  2
FX DocuWide 2050/2051
  4
User139
  6
AM_VIEW1
 40
3.174999952316284
 41
3.174999952316284
 42
3.17498779296875
 43
3.17498779296875
 44
593.97900390625
 45
840.9939575195313
 46
83.81450808048247
 47
120.3219848871231
 48
214.3704939521119
 49
367.5855324241176
140
275.6727856380065
141
407.629191407817
142
1.0
143
1.0
 70
  3764
 72
     1
 73
     1
 74
     2
  7
monochrome.ctb
 75
    16
147
1.0
148
0.0
149
0.0
1001
ACAD_PSEXT
1000
FX DocuWide 2050/2051
1000
FX DocuWide 2050/2051
1000
IP_192.200.15.252
1000

1070
     0
  0
PLOTSETTINGS
  5
AB02
102
{ACAD_XDICTIONARY
360
15E4E
102
}
102
{ACAD_REACTORS
330
19
102
}
330
19
100
AcDbPlotSettings
  1
06 A4フィット
  2
FX DocuWide 2050/2051
  4
A4
  6
AM_VIEW1
 40
3.174999952316284
 41
3.174999952316284
 42
3.175003051757812
 43
3.17498779296875
 44
209.9944915771484
 45
296.989501953125
 46
0.0
 47
1.314011612960285
 48
214.3704939521119
 49
367.5855324241176
140
275.6727856380065
141
407.629191407817
142
1.0
143
2.06241771109504
 70
  3764
 72
     1
 73
     1
 74
     2
  7
monochrome.ctb
 75
     0
147
0.4848678299358913
148
0.0
149
0.0
1001
ACAD_PSEXT
1000
FX DocuWide 2050/2051
1000
FX DocuWide 2050/2051
1000
IP_192.200.15.252
1000

1070
     0
  0
PLOTSETTINGS
  5
AB03
102
{ACAD_XDICTIONARY
360
15E50
102
}
102
{ACAD_REACTORS
330
19
102
}
330
19
100
AcDbPlotSettings
  1
07 A4
  2
FX DocuWide 2050/2051
  4
A4
  6
AM_VIEW1
 40
3.174999952316284
 41
3.174999952316284
 42
3.175003051757812
 43
3.17498779296875
 44
209.9944915771484
 45
296.989501953125
 46
-108.1777557134628
 47
-151.68024289608
 48
214.3704939521119
 49
367.5855324241176
140
275.6727856380065
141
407.629191407817
142
1.0
143
1.0
 70
  3764
 72
     1
 73
     1
 74
     2
  7
monochrome.ctb
 75
    16
147
1.0
148
0.0
149
0.0
1001
ACAD_PSEXT
1000
FX DocuWide 2050/2051
1000
FX DocuWide 2050/2051
1000
IP_192.200.15.252
1000

1070
     0
  0
ACDBPLACEHOLDER
  5
F
102
{ACAD_REACTORS
330
E
102
}
330
E
  0
TABLESTYLE
  5
AABA
102
{ACAD_XDICTIONARY
360
15E44
102
}
102
{ACAD_REACTORS
330
AAB9
102
}
330
AAB9
100
AcDbTableStyle
  3
Standard
 70
     0
 71
     0
 40
1.5
 41
1.5
280
     0
281
     0
  7
STANDARD
140
4.5
170
     2
 62
     0
 63
     7
283
     0
274
    -2
284
     1
 64
     0
275
    -2
285
     1
 65
     0
276
    -2
286
     1
 66
     0
277
    -2
287
     1
 67
     0
278
    -2
288
     1
 68
     0
279
    -2
289
     1
 69
     0
  7
STANDARD
140
6.0
170
     5
 62
     0
 63
     7
283
     0
274
    -2
284
     1
 64
     0
275
    -2
285
     1
 65
     0
276
    -2
286
     1
 66
     0
277
    -2
287
     1
 67
     0
278
    -2
288
     1
 68
     0
279
    -2
289
     1
 69
     0
  7
STANDARD
140
4.5
170
     5
 62
     0
 63
     7
283
     0
274
    -2
284
     1
 64
     0
275
    -2
285
     1
 65
     0
276
    -2
286
     1
 66
     0
277
    -2
287
     1
 67
     0
278
    -2
288
     1
 68
     0
279
    -2
289
     1
 69
     0
  0
VISUALSTYLE
  5
B44A
102
{ACAD_REACTORS
330
B444
102
}
330
B444
100
AcDbVisualStyle
  2
2dWireframe
 70
     4
 71
     0
 72
     2
 73
     0
 90
        0
 40
-0.6
 41
-30.0
 62
     5
 63
     7
 74
     1
 91
        4
 64
     7
 65
   257
 75
     1
175
     1
 42
1.0
 92
        0
 66
   257
 43
1.0
 76
     1
 77
     6
 78
     2
 67
     7
 79
     5
170
     0
171
     0
290
     0
174
     0
 93
        1
 44
0.0
173
     0
291
     0
 45
0.0
1001
ACAD
1000
AcDbSavedByObjectVersion
1070
     0
  0
VISUALSTYLE
  5
B44C
102
{ACAD_REACTORS
330
B444
102
}
330
B444
100
AcDbVisualStyle
  2
3D Hidden
 70
     6
 71
     1
 72
     2
 73
     2
 90
        0
 40
-0.6
 41
-30.0
 62
     5
 63
     7
 74
     2
 91
        2
 64
     7
 65
   257
 75
     2
175
     1
 42
40.0
 92
        0
 66
   257
 43
1.0
 76
     1
 77
     6
 78
     2
 67
     7
 79
     3
170
     0
171
     0
290
     0
174
     0
 93
        1
 44
0.0
173
     0
291
     0
 45
0.0
1001
ACAD
1000
AcDbSavedByObjectVersion
1070
     0
  0
VISUALSTYLE
  5
B44B
102
{ACAD_REACTORS
330
B444
102
}
330
B444
100
AcDbVisualStyle
  2
3dWireframe
 70
     5
 71
     0
 72
     2
 73
     0
 90
        0
 40
-0.6
 41
-30.0
 62
     5
 63
     7
 74
     1
 91
        4
 64
     7
 65
   257
 75
     1
175
     1
 42
1.0
 92
        0
 66
   257
 43
1.0
 76
     1
 77
     6
 78
     2
 67
     7
 79
     5
170
     0
171
     0
290
     0
174
     0
 93
        1
 44
0.0
173
     0
291
     0
 45
0.0
1001
ACAD
1000
AcDbSavedByObjectVersion
1070
     0
  0
VISUALSTYLE
  5
B449
102
{ACAD_REACTORS
330
B444
102
}
330
B444
100
AcDbVisualStyle
  2
Basic
 70
     7
 71
     1
 72
     0
 73
     1
 90
        0
 40
-0.6
 41
-30.0
 62
     5
 63
     7
 74
     0
 91
        4
 64
     7
 65
   257
 75
     1
175
     1
 42
1.0
 92
        8
 66
     7
 43
1.0
 76
     1
 77
     6
 78
     2
 67
     7
 79
     5
170
     0
171
     0
290
     0
174
     0
 93
        1
 44
0.0
173
     0
291
     1
 45
0.0
1001
ACAD
1000
AcDbSavedByObjectVersion
1070
     0
  0
VISUALSTYLE
  5
B450
102
{ACAD_REACTORS
330
B444
102
}
330
B444
100
AcDbVisualStyle
  2
Brighten
 70
    12
 71
     2
 72
     2
 73
     0
 90
        0
 40
-0.6
 41
-30.0
 62
     5
 63
     7
 74
     1
 91
        4
 64
     7
 65
   257
 75
     1
175
     1
 42
1.0
 92
        8
 66
     7
 43
1.0
 76
     1
 77
     6
 78
     2
 67
     7
 79
     5
170
     0
171
     0
290
     0
174
     0
 93
        1
 44
50.0
173
     0
291
     1
 45
0.0
1001
ACAD
1000
AcDbSavedByObjectVersion
1070
     0
  0
VISUALSTYLE
  5
B454
102
{ACAD_REACTORS
330
B444
102
}
330
B444
100
AcDbVisualStyle
  2
ColorChange
 70
    16
 71
     2
 72
     2
 73
     3
 90
        0
 40
-0.6
 41
-30.0
 62
     5
 63
     8
 74
     1
 91
        4
 64
     7
 65
   257
 75
     1
175
     1
 42
1.0
 92
        8
 66
     8
 43
1.0
 76
     1
 77
     6
 78
     2
 67
     7
 79
     5
170
     0
171
     0
290
     0
174
     0
 93
        1
 44
0.0
173
     0
291
     1
 45
0.0
1001
ACAD
1000
AcDbSavedByObjectVersion
1070
     0
  0
VISUALSTYLE
  5
B44D
102
{ACAD_REACTORS
330
B444
102
}
330
B444
100
AcDbVisualStyle
  2
Conceptual
 70
     9
 71
     3
 72
     2
 73
     0
 90
        0
 40
-0.6
 41
-30.0
 62
     5
 63
     7
 74
     2
 91
        2
 64
     7
 65
   257
 75
     1
175
     1
 42
40.0
 92
        8
 66
     7
 43
1.0
 76
     1
 77
     6
 78
     2
 67
     7
 79
     3
170
     0
171
     0
290
     0
174
     0
 93
        1
 44
0.0
173
     0
291
     0
 45
0.0
1001
ACAD
1000
AcDbSavedByObjectVersion
1070
     0
  0
VISUALSTYLE
  5
B44F
102
{ACAD_REACTORS
330
B444
102
}
330
B444
100
AcDbVisualStyle
  2
Dim
 70
    11
 71
     2
 72
     2
 73
     0
 90
        0
 40
-0.6
 41
-30.0
 62
     5
 63
     7
 74
     1
 91
        4
 64
     7
 65
   257
 75
     1
175
     1
 42
1.0
 92
        8
 66
     7
 43
1.0
 76
     1
 77
     6
 78
     2
 67
     7
 79
     5
170
     0
171
     0
290
     0
174
     0
 93
        1
 44
-50.0
173
     0
291
     1
 45
0.0
1001
ACAD
1000
AcDbSavedByObjectVersion
1070
     0
  0
VISUALSTYLE
  5
B453
102
{ACAD_REACTORS
330
B444
102
}
330
B444
100
AcDbVisualStyle
  2
Facepattern
 70
    15
 71
     2
 72
     2
 73
     0
 90
        0
 40
-0.6
 41
-30.0
 62
     5
 63
     7
 74
     1
 91
        4
 64
     7
 65
   257
 75
     1
175
     1
 42
1.0
 92
        8
 66
     7
 43
1.0
 76
     1
 77
     6
 78
     2
 67
     7
 79
     5
170
     0
171
     0
290
     0
174
     0
 93
        1
 44
0.0
173
     0
291
     1
 45
0.0
1001
ACAD
1000
AcDbSavedByObjectVersion
1070
     0
  0
VISUALSTYLE
  5
B445
102
{ACAD_REACTORS
330
B444
102
}
330
B444
100
AcDbVisualStyle
  2
Flat
 70
     0
 71
     2
 72
     1
 73
     1
 90
        2
 40
-0.6
 41
30.0
 62
     5
 63
     7
 74
     0
 91
        4
 64
     7
 65
   257
 75
     1
175
     1
 42
1.0
 92
        8
 66
     7
 43
1.0
 76
     1
 77
     6
 78
     2
 67
     7
 79
     5
170
     0
171
     0
290
     0
174
     0
 93
       13
 44
0.0
173
     0
291
     1
 45
0.0
1001
ACAD
1000
AcDbSavedByObjectVersion
1070
     0
  0
VISUALSTYLE
  5
B446
102
{ACAD_REACTORS
330
B444
102
}
330
B444
100
AcDbVisualStyle
  2
FlatWithEdges
 70
     1
 71
     2
 72
     1
 73
     1
 90
        2
 40
-0.6
 41
30.0
 62
     5
 63
     7
 74
     1
 91
        4
 64
     7
 65
   257
 75
     1
175
     1
 42
1.0
 92
        0
 66
   257
 43
1.0
 76
     1
 77
     6
 78
     2
 67
     7
 79
     5
170
     0
171
     0
290
     0
174
     0
 93
       13
 44
0.0
173
     0
291
     1
 45
0.0
1001
ACAD
1000
AcDbSavedByObjectVersion
1070
     0
  0
VISUALSTYLE
  5
B447
102
{ACAD_REACTORS
330
B444
102
}
330
B444
100
AcDbVisualStyle
  2
Gouraud
 70
     2
 71
     2
 72
     2
 73
     1
 90
        2
 40
-0.6
 41
30.0
 62
     5
 63
     7
 74
     0
 91
        4
 64
     7
 65
   257
 75
     1
175
     1
 42
1.0
 92
        0
 66
     7
 43
1.0
 76
     1
 77
     6
 78
     2
 67
     7
 79
     5
170
     0
171
     0
290
     0
174
     0
 93
       13
 44
0.0
173
     0
291
     1
 45
0.0
1001
ACAD
1000
AcDbSavedByObjectVersion
1070
     0
  0
VISUALSTYLE
  5
B448
102
{ACAD_REACTORS
330
B444
102
}
330
B444
100
AcDbVisualStyle
  2
GouraudWithEdges
 70
     3
 71
     2
 72
     2
 73
     1
 90
        2
 40
-0.6
 41
30.0
 62
     5
 63
     7
 74
     1
 91
        4
 64
     7
 65
   257
 75
     1
175
     1
 42
1.0
 92
        0
 66
   257
 43
1.0
 76
     1
 77
     6
 78
     2
 67
     7
 79
     5
170
     0
171
     0
290
     0
174
     0
 93
       13
 44
0.0
173
     0
291
     1
 45
0.0
1001
ACAD
1000
AcDbSavedByObjectVersion
1070
     0
  0
VISUALSTYLE
  5
B452
102
{ACAD_REACTORS
330
B444
102
}
330
B444
100
AcDbVisualStyle
  2
Linepattern
 70
    14
 71
     2
 72
     2
 73
     0
 90
        0
 40
-0.6
 41
-30.0
 62
     5
 63
     7
 74
     1
 91
        4
 64
     7
 65
   257
 75
     7
175
     7
 42
1.0
 92
        8
 66
     7
 43
1.0
 76
     1
 77
     6
 78
     2
 67
     7
 79
     5
170
     0
171
     0
290
     0
174
     0
 93
        1
 44
0.0
173
     0
291
     1
 45
0.0
1001
ACAD
1000
AcDbSavedByObjectVersion
1070
     0
  0
VISUALSTYLE
  5
B44E
102
{ACAD_REACTORS
330
B444
102
}
330
B444
100
AcDbVisualStyle
  2
Realistic
 70
     8
 71
     2
 72
     2
 73
     0
 90
        0
 40
-0.6
 41
-30.0
 62
     5
 63
     7
 74
     1
 91
        0
 64
     7
 65
   257
 75
     1
175
     1
 42
1.0
 92
        8
 66
     8
 43
1.0
 76
     1
 77
     6
 78
     2
 67
     7
 79
     5
170
     0
171
     0
290
     0
174
     0
 93
       13
 44
0.0
173
     0
291
     0
 45
0.0
1001
ACAD
1000
AcDbSavedByObjectVersion
1070
     0
  0
VISUALSTYLE
  5
B451
102
{ACAD_REACTORS
330
B444
102
}
330
B444
100
AcDbVisualStyle
  2
Thicken
 70
    13
 71
     2
 72
     2
 73
     0
 90
        0
 40
-0.6
 41
-30.0
 62
     5
 63
     7
 74
     1
 91
        4
 64
     7
 65
   257
 75
     1
175
     1
 42
1.0
 92
       12
 66
     7
 43
1.0
 76
     1
 77
     6
 78
     2
 67
     7
 79
     5
170
     0
171
     0
290
     0
174
     0
 93
        1
 44
0.0
173
     0
291
     1
 45
0.0
1001
ACAD
1000
AcDbSavedByObjectVersion
1070
     0
  0
DICTIONARYVAR
  5
AAF3
102
{ACAD_REACTORS
330
34
102
}
330
34
100
DictionaryVariables
280
     0
  1
STANDARD
  0
DICTIONARYVAR
  5
A10C
102
{ACAD_REACTORS
330
34
102
}
330
34
100
DictionaryVariables
280
     0
  1
1
  0
DICTIONARYVAR
  5
AB07
102
{ACAD_REACTORS
330
34
102
}
330
34
100
DictionaryVariables
280
     0
  1
4
  0
DICTIONARYVAR
  5
35
102
{ACAD_REACTORS
330
34
102
}
330
34
100
DictionaryVariables
280
     0
  1
0
  0
DICTIONARYVAR
  5
194C
102
{ACAD_REACTORS
330
34
102
}
330
34
100
DictionaryVariables
280
     0
  1
96
  0
DICTIONARY
  5
7E8
102
{ACAD_REACTORS
330
47
102
}
330
47
100
AcDbDictionary
281
     1
  0
DICTIONARY
  5
4C
102
{ACAD_REACTORS
330
47
102
}
330
47
100
AcDbDictionary
281
     1
  0
XRECORD
  5
A929
102
{ACAD_REACTORS
330
47
102
}
330
47
100
AcDbXrecord
280
     1
 90
-1023410169
  0
XRECORD
  5
15CB2
102
{ACAD_REACTORS
330
15CB1
102
}
330
15CB1
100
AcDbXrecord
280
     1
330
13467
330
B2F0
330
B48D
330
B4E0
330
B55A
330
B55B
330
134F2
330
134F3
330
134FB
330
134FC
330
13506
330
13507
330
1350F
330
13510
330
13518
330
13519
330
13521
330
13522
330
1352A
330
1352B
330
13533
330
13534
330
1353C
330
1353D
330
13545
330
13546
330
1354E
330
13556
330
13557
330
1355F
330
13560
330
13568
330
13569
330
13571
330
13572
330
1357A
330
1357B
  0
XRECORD
  5
3FB7
102
{ACAD_REACTORS
330
3F96
102
}
330
3F96
100
AcDbXrecord
280
     1
 91
        3
330
0
 90
        8
 62
     7
370
    40
331
16
  1
Color_7
330
0
 90
        0
 62
    14
370
    -3
331
16
  1
Color_14
330
0
 90
        8
 62
     7
370
    20
331
16
  1
Color_7
330
6D1
 90
        0
 62
     7
370
    -3
331
16
  1
Color_7
330
0
 90
        8
 62
     7
370
    50
331
16
  1
Color_7
330
0
 90
        8
 62
     2
370
    35
331
16
  1
Color_2
330
0
 90
        8
 62
     7
370
    -3
331
16
  1
Color_7
330
10
 90
        8
 62
     7
370
    -3
331
16
  1
Color_7
  0
DICTIONARY
  5
15E40
330
22
100
AcDbDictionary
280
     1
281
     1
  3
ACAD_XREC_ROUNDTRIP
360
15E41
  0
DICTIONARY
  5
15E3E
330
1E
100
AcDbDictionary
280
     1
281
     1
  3
ACAD_XREC_ROUNDTRIP
360
15E3F
  0
DICTIONARY
  5
15E42
330
26
100
AcDbDictionary
280
     1
281
     1
  3
ACAD_XREC_ROUNDTRIP
360
15E43
  0
DICTIONARY
  5
15E58
330
B442
100
AcDbDictionary
280
     1
281
     1
  3
ACAD_XREC_ROUNDTRIP
360
15E59
  0
DICTIONARY
  5
15E56
330
B441
100
AcDbDictionary
280
     1
281
     1
  3
ACAD_XREC_ROUNDTRIP
360
15E57
  0
DICTIONARY
  5
15E5A
330
B443
100
AcDbDictionary
280
     1
281
     1
  3
ACAD_XREC_ROUNDTRIP
360
15E5B
  0
DICTIONARY
  5
15E46
330
AAFE
100
AcDbDictionary
280
     1
281
     1
  3
ACAD_XREC_ROUNDTRIP
360
15E47
  0
DICTIONARY
  5
15E48
330
AAFF
100
AcDbDictionary
280
     1
281
     1
  3
ACAD_XREC_ROUNDTRIP
360
15E49
  0
DICTIONARY
  5
15E4A
330
AB00
100
AcDbDictionary
280
     1
281
     1
  3
ACAD_XREC_ROUNDTRIP
360
15E4B
  0
DICTIONARY
  5
15E4C
330
AB01
100
AcDbDictionary
280
     1
281
     1
  3
ACAD_XREC_ROUNDTRIP
360
15E4D
  0
DICTIONARY
  5
15E52
330
AB04
100
AcDbDictionary
280
     1
281
     1
  3
ACAD_XREC_ROUNDTRIP
360
15E53
  0
DICTIONARY
  5
15E54
330
AB05
100
AcDbDictionary
280
     1
281
     1
  3
ACAD_XREC_ROUNDTRIP
360
15E55
  0
DICTIONARY
  5
15E4E
330
AB02
100
AcDbDictionary
280
     1
281
     1
  3
ACAD_XREC_ROUNDTRIP
360
15E4F
  0
DICTIONARY
  5
15E50
330
AB03
100
AcDbDictionary
280
     1
281
     1
  3
ACAD_XREC_ROUNDTRIP
360
15E51
  0
DICTIONARY
  5
15E44
330
AABA
100
AcDbDictionary
280
     1
281
     1
  3
ACAD_XREC_ROUNDTRIP
360
15E45
  0
XRECORD
  5
15E41
102
{ACAD_REACTORS
330
15E40
102
}
330
15E40
100
AcDbXrecord
280
     1
102
SHADEPLOT
 70
     1
102
SHADEPLOTRESLEVEL
 70
     2
102
SHADEPLOTCUSTOMDPI
 70
   300
  0
XRECORD
  5
15E3F
102
{ACAD_REACTORS
330
15E3E
102
}
330
15E3E
100
AcDbXrecord
280
     1
102
SHADEPLOT
 70
     0
102
SHADEPLOTRESLEVEL
 70
     2
102
SHADEPLOTCUSTOMDPI
 70
   300
  0
XRECORD
  5
15E43
102
{ACAD_REACTORS
330
15E42
102
}
330
15E42
100
AcDbXrecord
280
     1
102
SHADEPLOT
 70
     0
102
SHADEPLOTRESLEVEL
 70
     2
102
SHADEPLOTCUSTOMDPI
 70
   300
  0
XRECORD
  5
15E59
102
{ACAD_REACTORS
330
15E58
102
}
330
15E58
100
AcDbXrecord
280
     1
102
MATERIAL
148
0.0
149
0.0
149
0.0
 93
        0
 94
       63
282
     0
 72
     1
 77
     1
171
     1
175
     1
179
     1
273
     0
  0
XRECORD
  5
15E57
102
{ACAD_REACTORS
330
15E56
102
}
330
15E56
100
AcDbXrecord
280
     1
102
MATERIAL
148
0.0
149
0.0
149
0.0
 93
        0
 94
       63
282
     0
 72
     1
 77
     1
171
     1
175
     1
179
     1
273
     0
  0
XRECORD
  5
15E5B
102
{ACAD_REACTORS
330
15E5A
102
}
330
15E5A
100
AcDbXrecord
280
     1
102
MATERIAL
148
0.0
149
0.0
149
0.0
 93
        0
 94
       63
282
     0
 72
     1
 77
     1
171
     1
175
     1
179
     1
273
     0
  0
XRECORD
  5
15E47
102
{ACAD_REACTORS
330
15E46
102
}
330
15E46
100
AcDbXrecord
280
     1
102
SHADEPLOT
 70
     0
102
SHADEPLOTRESLEVEL
 70
     2
102
SHADEPLOTCUSTOMDPI
 70
   200
  0
XRECORD
  5
15E49
102
{ACAD_REACTORS
330
15E48
102
}
330
15E48
100
AcDbXrecord
280
     1
102
SHADEPLOT
 70
     0
102
SHADEPLOTRESLEVEL
 70
     2
102
SHADEPLOTCUSTOMDPI
 70
   200
  0
XRECORD
  5
15E4B
102
{ACAD_REACTORS
330
15E4A
102
}
330
15E4A
100
AcDbXrecord
280
     1
102
SHADEPLOT
 70
     0
102
SHADEPLOTRESLEVEL
 70
     2
102
SHADEPLOTCUSTOMDPI
 70
   200
  0
XRECORD
  5
15E4D
102
{ACAD_REACTORS
330
15E4C
102
}
330
15E4C
100
AcDbXrecord
280
     1
102
SHADEPLOT
 70
     0
102
SHADEPLOTRESLEVEL
 70
     2
102
SHADEPLOTCUSTOMDPI
 70
   200
  0
XRECORD
  5
15E53
102
{ACAD_REACTORS
330
15E52
102
}
330
15E52
100
AcDbXrecord
280
     1
102
SHADEPLOT
 70
     0
102
SHADEPLOTRESLEVEL
 70
     2
102
SHADEPLOTCUSTOMDPI
 70
   200
  0
XRECORD
  5
15E55
102
{ACAD_REACTORS
330
15E54
102
}
330
15E54
100
AcDbXrecord
280
     1
102
SHADEPLOT
 70
     0
102
SHADEPLOTRESLEVEL
 70
     2
102
SHADEPLOTCUSTOMDPI
 70
   200
  0
XRECORD
  5
15E4F
102
{ACAD_REACTORS
330
15E4E
102
}
330
15E4E
100
AcDbXrecord
280
     1
102
SHADEPLOT
 70
     0
102
SHADEPLOTRESLEVEL
 70
     2
102
SHADEPLOTCUSTOMDPI
 70
   200
  0
XRECORD
  5
15E51
102
{ACAD_REACTORS
330
15E50
102
}
330
15E50
100
AcDbXrecord
280
     1
102
SHADEPLOT
 70
     0
102
SHADEPLOTRESLEVEL
 70
     2
102
SHADEPLOTCUSTOMDPI
 70
   200
  0
XRECORD
  5
15E45
102
{ACAD_REACTORS
330
15E44
102
}
330
15E44
100
AcDbXrecord
280
     1
102
ACAD_ROUNDTRIP_PRE2007_TABLESTYLE
 90
        4
 91
        0
  1

 92
        4
 93
        0
  2

 94
        4
 95
        0
  3

  0
ENDSEC
  0
EOF
