  0
SECTION
  2
HEADER
  9
$EXTMAX
 10
170
 20
173
 30
0
  9
$EXTMIN
 10
-211
 20
-100
 30
0
  9
$LIMMAX
 10
170
 20
173
  9
$LIMMIN
 10
-211
 20
-100
  9
$PLIMMAX
 10
170
 20
173
  9
$PLIMMIN
 10
-211
 20
-100
  9
$TEXTSIZE
 40
3.2
  9
$DIMSHO
 70
     0
  9
$DIMASZ
 40
1.0
  9
$DIMTAD
 70
     1
  9
$DIMTIH
 70
     0
  9
$DIMTOH
 70
     0
  9
$DIMEXE
 40
2.54
  9
$DIMEXO
 40
2.54
  9
$DIMTVP
 40
1.0
  9
$DIMSAH
 70
     1
  9
$DIMDLE
 40
0.0
  9
$DIMTXT
 40
3.2
  9
$DIMGAP
 40
1.6
  0
ENDSEC
  0
SECTION
  2
TABLES
  0
TABLE
  2
LTYPE
 70
     6
  0
LTYPE
  2
CONTINUOUS
 70
    64
  3
Solid line
 72
    65
 73
     0
 40
0.0
  0
LTYPE
  2
DASHED
 70
    64
  3
__ __ __ __ __ __ __ __ __ __ __ __ __ __ __
 72
    65
 73
     2
 40
3.5
 49
2.0
 49
-1.5
  0
LTYPE
  2
CENTER
 70
    64
  3
____ _ ____ _ ____ _ ____ _ ____ _ ____ _ ____
 72
    65
 73
     4
 40
17.5
 49
13.0
 49
-1.5
 49
1.5
 49
-1.5
  0
LTYPE
  2
PHANTOM
 70
    64
  3
_____ _ _ _____ _ _ _____ _ _ _____ _ _ ____  
 72
    65
 73
     6
 40
15.5
 49
8.0
 49
-1.5
 49
1.5
 49
-1.5
 49
1.5
 49
-1.5
  0
LTYPE
  2
DOT
 70
    64
  3
. . . . . . . . . . . . . . . . . . . . . . . .
 72
    65
 73
     2
 40
0.25
 49
0.0
 49
-0.25
  0
LTYPE
  2
HIDDEN
 70
    64
  3
__ __ __ __ __ __ __ __ __ __ __ __ __ __ __
 72
    65
 73
     2
 40
3.5
 49
2.0
 49
-1.5
  0
ENDTAB
  0
TABLE
  2
LAYER
 70
     4
  0
LAYER
  2
0
 70
     0
 62
     7
  6
CONTINUOUS
  0
LAYER
  2
1
 70
     0
 62
     7
  6
CONTINUOUS
  0
LAYER
  2
2
 70
     0
 62
     7
  6
CONTINUOUS
  0
LAYER
  2
DEFPOINTS
 70
     0
 62
     7
  6
CONTINUOUS
  0
ENDTAB
  0
TABLE
  2
STYLE
 70
     1
  0
STYLE
  2
STANDARD
 70
     0
 40
0.0
 41
1.0
 50
0.0
 71
     0
 42
0.2
  3
txt
  4
BIGFONT
  0
ENDTAB
  0
TABLE
  2
DIMSTYLE
 70
     1
  0
DIMSTYLE
  2
DIMSTYLE
 70
     0
  3

  4

  5
_DOT
  6
_DOT
  7
_DOT
 40
1
 41
1
 42
2.54
 43
0.38
 44
2.54
 45
0
 46
0
 47
0
 48
0
140
3.2
141
0.09
142
0
143
25.4
144
1
145
0
146
1
147
1.6
 71
     0
 72
     0
 73
     0
 74
     0
 75
     0
 76
     0
 78
     0
170
     0
171
     2
 77
     0
172
     0
173
     1
174
     0
175
     0
176
     0
177
     0
178
     0
  0
ENDTAB
  0
ENDSEC
  0
SECTION
  2
BLOCKS
  0
BLOCK
  8
0
  2
_DOT
 70
    64
 10
0
 20
0
  3
_DOT
  0
POLYLINE
  8
0
  6
BYBLOCK
 62
     0
 66
     1
 10
0
 20
0
 70
     1
 40
0.40000001
 41
0.40000001
  0
VERTEX
  8
0
  6
BYBLOCK
 62
     0
 10
-0.2
 20
0
 42
1
  0
VERTEX
  8
0
  6
BYBLOCK
 62
     0
 10
0.2
 20
0
 42
1
  0
SEQEND
  8
0
  6
BYBLOCK
 62
     0
  0
LINE
  8
0
  6
BYBLOCK
 62
     0
 10
-0.40000001
 20
0
 11
-3
 21
0
  0
ENDBLK
  8
0
  0
BLOCK
  8
0
  2
_NONE
 70
    64
 10
0
 20
0
  3
_NONE
  0
CIRCLE
  8
0
  6
BYBLOCK
 62
     0
 10
0
 20
0
 40
0.001
  0
ENDBLK
  8
0
  0
BLOCK
  8
0
  2
*D1
 70
    65
 10
0
 20
0
  0
LINE
  8
0
  6
CONTINUOUS
 62
     7
 10
-28.70343
 20
39.083332
 11
41.29657
 21
39.083332
  0
INSERT
  8
0
  6
CONTINUOUS
 62
     7
  2
_DOT
 10
-28.70343
 20
39.083332
 50
180
  0
INSERT
  8
0
  6
CONTINUOUS
 62
     7
  2
_DOT
 10
41.29657
 20
39.083332
  0
LINE
  8
0
  6
CONTINUOUS
 62
     7
 10
-28.70343
 20
25.687058
 11
-28.70343
 21
40.583332
  0
LINE
  8
0
  6
CONTINUOUS
 62
     7
 10
41.29657
 20
25.687058
 11
41.29657
 21
40.583332
  0
TEXT
  8
0
  6
CONTINUOUS
 62
     7
 10
3.396848
 20
39.883332
 40
3.2
 41
1.102041
  1
70
  0
POINT
  8
DEFPOINTS
  6
CONTINUOUS
 62
     7
 10
-28.70343
 20
23.147058
  0
POINT
  8
DEFPOINTS
  6
CONTINUOUS
 62
     7
 10
41.29657
 20
23.147058
  0
POINT
  8
DEFPOINTS
  6
CONTINUOUS
 62
     7
 10
41.29657
 20
39.083332
  0
ENDBLK
  8
0
  0
BLOCK
  8
0
  2
*D2
 70
    65
 10
0
 20
0
  0
LINE
  8
0
  6
CONTINUOUS
 62
     7
 10
-18.70343
 20
-74.195244
 11
31.296568
 21
-74.195244
  0
INSERT
  8
0
  6
CONTINUOUS
 62
     7
  2
_DOT
 10
-18.70343
 20
-74.195244
 50
180
  0
INSERT
  8
0
  6
CONTINUOUS
 62
     7
  2
_DOT
 10
31.296568
 20
-74.195244
  0
LINE
  8
0
  6
CONTINUOUS
 62
     7
 10
-18.70343
 20
-52.89294
 11
-18.70343
 21
-75.695244
  0
LINE
  8
0
  6
CONTINUOUS
 62
     7
 10
31.296568
 20
-52.89294
 11
31.296568
 21
-75.695244
  0
TEXT
  8
0
  6
CONTINUOUS
 62
     7
 10
5.3531487
 20
-73.395244
 40
3.2
 41
0.8643459
  1
５０
  0
POINT
  8
DEFPOINTS
  6
CONTINUOUS
 62
     7
 10
-18.70343
 20
-50.35294
  0
POINT
  8
DEFPOINTS
  6
CONTINUOUS
 62
     7
 10
31.296568
 20
-50.35294
  0
POINT
  8
DEFPOINTS
  6
CONTINUOUS
 62
     7
 10
31.296568
 20
-74.195244
  0
ENDBLK
  8
0
  0
BLOCK
  8
0
  2
*D3
 70
    65
 10
0
 20
0
  0
LINE
  8
0
  6
CONTINUOUS
 62
     7
 10
127.83089
 20
47.622414
 11
112.83089
 21
47.622414
  0
INSERT
  8
0
  6
CONTINUOUS
 62
     7
  2
_DOT
 10
127.83089
 20
47.622414
  0
INSERT
  8
0
  6
CONTINUOUS
 62
     7
  2
_DOT
 10
112.83089
 20
47.622414
 50
180
  0
LINE
  8
0
  6
CONTINUOUS
 62
     7
 10
127.83089
 20
33.68706
 11
127.83089
 21
48.822414
  0
LINE
  8
0
  6
CONTINUOUS
 62
     7
 10
112.83089
 20
28.687058
 11
112.83089
 21
48.822414
  0
TEXT
  8
0
  6
CONTINUOUS
 62
     7
 10
117.58789
 20
48.422414
 40
3.2
 41
1.2857812
  1
15
  0
POINT
  8
DEFPOINTS
  6
CONTINUOUS
 62
     7
 10
127.83089
 20
31.14706
  0
POINT
  8
DEFPOINTS
  6
CONTINUOUS
 62
     7
 10
112.83089
 20
26.147058
  0
POINT
  8
DEFPOINTS
  6
CONTINUOUS
 62
     7
 10
112.83089
 20
47.622414
  0
ENDBLK
  8
0
  0
BLOCK
  8
0
  2
*D4
 70
    65
 10
0
 20
0
  0
LINE
  8
0
  6
CONTINUOUS
 62
     7
 10
131.58089
 20
-37.390827
 11
142.02309
 21
-37.390827
  0
LINE
  8
0
  6
CONTINUOUS
 62
     7
 10
131.58089
 20
-37.390827
 11
124.08089
 21
-37.390827
  0
INSERT
  8
0
  6
CONTINUOUS
 62
     7
  2
_DOT
 10
131.58089
 20
-37.390827
  0
INSERT
  8
0
  6
CONTINUOUS
 62
     7
  2
_DOT
 10
124.08089
 20
-37.390827
 50
180
  0
LINE
  8
0
  6
CONTINUOUS
 62
     7
 10
131.58089
 20
-26.392941
 11
131.58089
 21
-38.590828
  0
LINE
  8
0
  6
CONTINUOUS
 62
     7
 10
124.08089
 20
-26.392941
 11
124.08089
 21
-38.590828
  0
TEXT
  8
0
  6
CONTINUOUS
 62
     7
 10
133.33708
 20
-36.590827
 40
3.2
 41
1.3571875
  1
7.5
  0
POINT
  8
DEFPOINTS
  6
CONTINUOUS
 62
     7
 10
131.58089
 20
-23.852942
  0
POINT
  8
DEFPOINTS
  6
CONTINUOUS
 62
     7
 10
124.08089
 20
-23.852942
  0
POINT
  8
DEFPOINTS
  6
CONTINUOUS
 62
     7
 10
124.08089
 20
-37.390827
  0
ENDBLK
  8
0
  0
BLOCK
  8
0
  2
*D5
 70
    65
 10
0
 20
0
  0
LINE
  8
0
  6
CONTINUOUS
 62
     7
 10
-68.70343
 20
150.11275
 11
81.29657
 21
150.11275
  0
INSERT
  8
0
  6
CONTINUOUS
 62
     7
  2
_DOT
 10
-68.70343
 20
150.11275
 50
180
  0
INSERT
  8
0
  6
CONTINUOUS
 62
     7
  2
_DOT
 10
81.29657
 20
150.11275
  0
LINE
  8
0
  6
CONTINUOUS
 62
     7
 10
-68.70343
 20
129.65275
 11
-68.70343
 21
151.31274
  0
LINE
  8
0
  6
CONTINUOUS
 62
     7
 10
81.29657
 20
129.65275
 11
81.29657
 21
151.31274
  0
TEXT
  8
0
  6
CONTINUOUS
 62
     7
 10
1.9535698
 20
150.91275
 40
3.2
 41
1.2214687
  1
150
  0
POINT
  8
DEFPOINTS
  6
CONTINUOUS
 62
     7
 10
-68.70343
 20
127.11275
  0
POINT
  8
DEFPOINTS
  6
CONTINUOUS
 62
     7
 10
81.29657
 20
127.11275
  0
POINT
  8
DEFPOINTS
  6
CONTINUOUS
 62
     7
 10
81.29657
 20
150.11275
  0
ENDBLK
  8
0
  0
BLOCK
  8
0
  2
*D6
 70
    65
 10
0
 20
0
  0
LINE
  8
0
  6
CONTINUOUS
 62
     7
 10
-68.70343
 20
140.11275
 11
-53.70343
 21
140.11275
  0
INSERT
  8
0
  6
CONTINUOUS
 62
     7
  2
_DOT
 10
-68.70343
 20
140.11275
 50
180
  0
INSERT
  8
0
  6
CONTINUOUS
 62
     7
  2
_DOT
 10
-53.70343
 20
140.11275
  0
LINE
  8
0
  6
CONTINUOUS
 62
     7
 10
-68.70343
 20
129.65275
 11
-68.70343
 21
141.31274
  0
LINE
  8
0
  6
CONTINUOUS
 62
     7
 10
-53.70343
 20
137.65275
 11
-53.70343
 21
141.31274
  0
TEXT
  8
0
  6
CONTINUOUS
 62
     7
 10
-63.94643
 20
140.91275
 40
3.2
 41
1.2857812
  1
15
  0
POINT
  8
DEFPOINTS
  6
CONTINUOUS
 62
     7
 10
-68.70343
 20
127.11275
  0
POINT
  8
DEFPOINTS
  6
CONTINUOUS
 62
     7
 10
-53.70343
 20
135.11275
  0
POINT
  8
DEFPOINTS
  6
CONTINUOUS
 62
     7
 10
-53.70343
 20
140.11275
  0
ENDBLK
  8
0
  0
BLOCK
  8
0
  2
*D7
 70
    65
 10
0
 20
0
  0
LINE
  8
0
  6
CONTINUOUS
 62
     7
 10
-53.70343
 20
140.11275
 11
66.29657
 21
140.11275
  0
INSERT
  8
0
  6
CONTINUOUS
 62
     7
  2
_DOT
 10
66.29657
 20
140.11275
  0
LINE
  8
0
  6
CONTINUOUS
 62
     7
 10
66.29657
 20
137.65275
 11
66.29657
 21
141.31274
  0
TEXT
  8
0
  6
CONTINUOUS
 62
     7
 10
1.9535698
 20
140.91275
 40
3.2
 41
1.2214687
  1
120
  0
POINT
  8
DEFPOINTS
  6
CONTINUOUS
 62
     7
 10
-53.70343
 20
135.11275
  0
POINT
  8
DEFPOINTS
  6
CONTINUOUS
 62
     7
 10
66.29657
 20
135.11275
  0
POINT
  8
DEFPOINTS
  6
CONTINUOUS
 62
     7
 10
66.29657
 20
140.11275
  0
ENDBLK
  8
0
  0
BLOCK
  8
0
  2
*D8
 70
    65
 10
0
 20
0
  0
LINE
  8
0
  6
CONTINUOUS
 62
     7
 10
66.29657
 20
140.11275
 11
81.29657
 21
140.11275
  0
INSERT
  8
0
  6
CONTINUOUS
 62
     7
  2
_DOT
 10
81.29657
 20
140.11275
  0
LINE
  8
0
  6
CONTINUOUS
 62
     7
 10
81.29657
 20
129.65275
 11
81.29657
 21
141.31274
  0
TEXT
  8
0
  6
CONTINUOUS
 62
     7
 10
71.05357
 20
140.91275
 40
3.2
 41
1.2857812
  1
15
  0
POINT
  8
DEFPOINTS
  6
CONTINUOUS
 62
     7
 10
66.29657
 20
135.11275
  0
POINT
  8
DEFPOINTS
  6
CONTINUOUS
 62
     7
 10
81.29657
 20
127.11275
  0
POINT
  8
DEFPOINTS
  6
CONTINUOUS
 62
     7
 10
81.29657
 20
140.11275
  0
ENDBLK
  8
0
  0
BLOCK
  8
0
  2
*D9
 70
    65
 10
0
 20
0
  0
LINE
  8
0
  6
CONTINUOUS
 62
     7
 10
-93.70343
 20
130.11275
 11
-93.70343
 21
102.11275
  0
INSERT
  8
0
  6
CONTINUOUS
 62
     7
  2
_DOT
 10
-93.70343
 20
130.11275
 50
90
  0
INSERT
  8
0
  6
CONTINUOUS
 62
     7
  2
_DOT
 10
-93.70343
 20
102.11275
 50
270
  0
LINE
  8
0
  6
CONTINUOUS
 62
     7
 10
-68.24343
 20
130.11275
 11
-94.903427
 21
130.11275
  0
LINE
  8
0
  6
CONTINUOUS
 62
     7
 10
-68.24343
 20
102.11275
 11
-94.903427
 21
102.11275
  0
TEXT
  8
0
  6
CONTINUOUS
 62
     7
 10
-94.50343
 20
113.36975
 40
3.2
 41
1.028625
  1
28
 50
90.000003
  0
POINT
  8
DEFPOINTS
  6
CONTINUOUS
 62
     7
 10
-65.70343
 20
130.11275
  0
POINT
  8
DEFPOINTS
  6
CONTINUOUS
 62
     7
 10
-65.70343
 20
102.11275
  0
POINT
  8
DEFPOINTS
  6
CONTINUOUS
 62
     7
 10
-93.70343
 20
102.11275
  0
ENDBLK
  8
0
  0
BLOCK
  8
0
  2
*D10
 70
    65
 10
0
 20
0
  0
LINE
  8
0
  6
CONTINUOUS
 62
     7
 10
165.83089
 20
26.14706
 11
165.83089
 21
-23.852942
  0
INSERT
  8
0
  6
CONTINUOUS
 62
     7
  2
_DOT
 10
165.83089
 20
26.14706
 50
90
  0
INSERT
  8
0
  6
CONTINUOUS
 62
     7
  2
_DOT
 10
165.83089
 20
-23.852942
 50
270
  0
LINE
  8
0
  6
CONTINUOUS
 62
     7
 10
136.87089
 20
26.14706
 11
167.03088
 21
26.14706
  0
LINE
  8
0
  6
CONTINUOUS
 62
     7
 10
136.87089
 20
-23.852942
 11
167.03088
 21
-23.852942
  0
TEXT
  8
0
  6
CONTINUOUS
 62
     7
 10
165.03089
 20
-3.1959411
 40
3.2
 41
0.98864326
  1
%%C50
 50
90.000003
  0
POINT
  8
DEFPOINTS
  6
CONTINUOUS
 62
     7
 10
134.33089
 20
26.14706
  0
POINT
  8
DEFPOINTS
  6
CONTINUOUS
 62
     7
 10
134.33089
 20
-23.852942
  0
POINT
  8
DEFPOINTS
  6
CONTINUOUS
 62
     7
 10
165.83089
 20
-23.852942
  0
ENDBLK
  8
0
  0
BLOCK
  8
0
  2
*D11
 70
    65
 10
0
 20
0
  0
LINE
  8
0
  6
CONTINUOUS
 62
     7
 10
155.83089
 20
23.14706
 11
155.83089
 21
-20.852942
  0
INSERT
  8
0
  6
CONTINUOUS
 62
     7
  2
_DOT
 10
155.83089
 20
23.14706
 50
90
  0
INSERT
  8
0
  6
CONTINUOUS
 62
     7
  2
_DOT
 10
155.83089
 20
-20.852942
 50
270
  0
LINE
  8
0
  6
CONTINUOUS
 62
     7
 10
130.37089
 20
23.14706
 11
157.03088
 21
23.14706
  0
LINE
  8
0
  6
CONTINUOUS
 62
     7
 10
130.37089
 20
-20.852942
 11
157.03088
 21
-20.852942
  0
TEXT
  8
0
  6
CONTINUOUS
 62
     7
 10
155.03089
 20
-3.1959411
 40
3.2
 41
0.95018961
  1
%%C44
 50
90.000003
  0
POINT
  8
DEFPOINTS
  6
CONTINUOUS
 62
     7
 10
127.83089
 20
23.14706
  0
POINT
  8
DEFPOINTS
  6
CONTINUOUS
 62
     7
 10
127.83089
 20
-20.852942
  0
POINT
  8
DEFPOINTS
  6
CONTINUOUS
 62
     7
 10
155.83089
 20
-20.852942
  0
ENDBLK
  8
0
  0
BLOCK
  8
0
  2
*D12
 70
    65
 10
0
 20
0
  0
LINE
  8
0
  6
CONTINUOUS
 62
     7
 10
155.83089
 20
-20.852942
 11
155.83089
 21
-58.85294
  0
INSERT
  8
0
  6
CONTINUOUS
 62
     7
  2
_DOT
 10
155.83089
 20
-20.852942
 50
90
  0
INSERT
  8
0
  6
CONTINUOUS
 62
     7
  2
_DOT
 10
155.83089
 20
-58.85294
 50
270
  0
LINE
  8
0
  6
CONTINUOUS
 62
     7
 10
130.37089
 20
-20.852942
 11
157.03088
 21
-20.852942
  0
LINE
  8
0
  6
CONTINUOUS
 62
     7
 10
143.37089
 20
-58.85294
 11
157.03088
 21
-58.85294
  0
TEXT
  8
0
  6
CONTINUOUS
 62
     7
 10
155.03089
 20
-42.59594
 40
3.2
 41
1.028625
  1
38
 50
90.000003
  0
POINT
  8
DEFPOINTS
  6
CONTINUOUS
 62
     7
 10
127.83089
 20
-20.852942
  0
POINT
  8
DEFPOINTS
  6
CONTINUOUS
 62
     7
 10
140.83089
 20
-58.85294
  0
POINT
  8
DEFPOINTS
  6
CONTINUOUS
 62
     7
 10
155.83089
 20
-58.85294
  0
ENDBLK
  8
0
  0
BLOCK
  8
0
  2
*D13
 70
    65
 10
0
 20
0
  0
LINE
  8
0
  6
CONTINUOUS
 62
     7
 10
-78.70343
 20
-58.85294
 11
-78.70343
 21
-45.85294
  0
INSERT
  8
0
  6
CONTINUOUS
 62
     7
  2
_DOT
 10
-78.70343
 20
-58.85294
 50
270
  0
INSERT
  8
0
  6
CONTINUOUS
 62
     7
  2
_DOT
 10
-78.70343
 20
-45.85294
 50
90
  0
LINE
  8
0
  6
CONTINUOUS
 62
     7
 10
-71.24343
 20
-58.85294
 11
-79.903427
 21
-58.85294
  0
LINE
  8
0
  6
CONTINUOUS
 62
     7
 10
-25.74343
 20
-45.85294
 11
-79.903427
 21
-45.85294
  0
TEXT
  8
0
  6
CONTINUOUS
 62
     7
 10
-79.50343
 20
-55.09594
 40
3.2
 41
1.2857812
  1
13
 50
90.000003
  0
POINT
  8
DEFPOINTS
  6
CONTINUOUS
 62
     7
 10
-68.70343
 20
-58.85294
  0
POINT
  8
DEFPOINTS
  6
CONTINUOUS
 62
     7
 10
-23.20343
 20
-45.85294
  0
POINT
  8
DEFPOINTS
  6
CONTINUOUS
 62
     7
 10
-78.70343
 20
-45.85294
  0
ENDBLK
  8
0
  0
BLOCK
  8
0
  2
*D14
 70
    65
 10
0
 20
0
  0
LINE
  8
0
  6
CONTINUOUS
 62
     7
 10
-78.70343
 20
-45.85294
 11
-78.70343
 21
-14.852942
  0
INSERT
  8
0
  6
CONTINUOUS
 62
     7
  2
_DOT
 10
-78.70343
 20
-14.852942
 50
90
  0
LINE
  8
0
  6
CONTINUOUS
 62
     7
 10
-25.74343
 20
-14.852942
 11
-79.903427
 21
-14.852942
  0
TEXT
  8
0
  6
CONTINUOUS
 62
     7
 10
-79.50343
 20
-33.09594
 40
3.2
 41
1.186875
  1
31
 50
90.000003
  0
POINT
  8
DEFPOINTS
  6
CONTINUOUS
 62
     7
 10
-23.20343
 20
-45.85294
  0
POINT
  8
DEFPOINTS
  6
CONTINUOUS
 62
     7
 10
-23.20343
 20
-14.852942
  0
POINT
  8
DEFPOINTS
  6
CONTINUOUS
 62
     7
 10
-78.70343
 20
-14.852942
  0
ENDBLK
  8
0
  0
BLOCK
  8
0
  2
*D15
 70
    65
 10
0
 20
0
  0
LINE
  8
0
  6
CONTINUOUS
 62
     7
 10
-78.70343
 20
-14.852942
 11
-78.70343
 21
1.147059
  0
INSERT
  8
0
  6
CONTINUOUS
 62
     7
  2
_DOT
 10
-78.70343
 20
-14.852942
 50
270
  0
INSERT
  8
0
  6
CONTINUOUS
 62
     7
  2
_DOT
 10
-78.70343
 20
1.147059
 50
90
  0
LINE
  8
0
  6
CONTINUOUS
 62
     7
 10
-25.74343
 20
-14.852942
 11
-79.903427
 21
-14.852942
  0
LINE
  8
0
  6
CONTINUOUS
 62
     7
 10
-9.2331609
 20
1.147059
 11
-79.903427
 21
1.147059
  0
TEXT
  8
0
  6
CONTINUOUS
 62
     7
 10
-79.50343
 20
-9.5959415
 40
3.2
 41
1.2857812
  1
16
 50
90.000003
  0
POINT
  8
DEFPOINTS
  6
CONTINUOUS
 62
     7
 10
-23.20343
 20
-14.852942
  0
POINT
  8
DEFPOINTS
  6
CONTINUOUS
 62
     7
 10
-6.693161
 20
1.147059
  0
POINT
  8
DEFPOINTS
  6
CONTINUOUS
 62
     7
 10
-78.70343
 20
1.147059
  0
ENDBLK
  8
0
  0
BLOCK
  8
0
  2
*D16
 70
    65
 10
0
 20
0
  0
LINE
  8
0
  6
CONTINUOUS
 62
     7
 10
-88.70343
 20
-58.85294
 11
-88.70343
 21
1.147059
  0
INSERT
  8
0
  6
CONTINUOUS
 62
     7
  2
_DOT
 10
-88.70343
 20
-58.85294
 50
270
  0
INSERT
  8
0
  6
CONTINUOUS
 62
     7
  2
_DOT
 10
-88.70343
 20
1.147059
 50
90
  0
LINE
  8
0
  6
CONTINUOUS
 62
     7
 10
-71.24343
 20
-58.85294
 11
-89.903427
 21
-58.85294
  0
LINE
  8
0
  6
CONTINUOUS
 62
     7
 10
-9.2331609
 20
1.147059
 11
-89.903427
 21
1.147059
  0
TEXT
  8
0
  6
CONTINUOUS
 62
     7
 10
-89.50343
 20
-31.59594
 40
3.2
 41
1.1020982
  1
60
 50
90.000003
  0
POINT
  8
DEFPOINTS
  6
CONTINUOUS
 62
     7
 10
-68.70343
 20
-58.85294
  0
POINT
  8
DEFPOINTS
  6
CONTINUOUS
 62
     7
 10
-6.693161
 20
1.147059
  0
POINT
  8
DEFPOINTS
  6
CONTINUOUS
 62
     7
 10
-88.70343
 20
1.147059
  0
ENDBLK
  8
0
  0
BLOCK
  8
0
  2
*D17
 70
    65
 10
0
 20
0
  0
LINE
  8
0
  6
CONTINUOUS
 62
     7
 10
-88.70343
 20
1.147059
 11
-88.70343
 21
26.147058
  0
INSERT
  8
0
  6
CONTINUOUS
 62
     7
  2
_DOT
 10
-88.70343
 20
1.147059
 50
270
  0
INSERT
  8
0
  6
CONTINUOUS
 62
     7
  2
_DOT
 10
-88.70343
 20
26.147058
 50
90
  0
LINE
  8
0
  6
CONTINUOUS
 62
     7
 10
-9.2331609
 20
1.147059
 11
-89.903427
 21
1.147059
  0
LINE
  8
0
  6
CONTINUOUS
 62
     7
 10
-31.24343
 20
26.147058
 11
-89.903427
 21
26.147058
  0
TEXT
  8
0
  6
CONTINUOUS
 62
     7
 10
-89.50343
 20
10.904058
 40
3.2
 41
1.028625
  1
25
 50
90.000003
  0
POINT
  8
DEFPOINTS
  6
CONTINUOUS
 62
     7
 10
-6.693161
 20
1.147059
  0
POINT
  8
DEFPOINTS
  6
CONTINUOUS
 62
     7
 10
-28.70343
 20
26.147058
  0
POINT
  8
DEFPOINTS
  6
CONTINUOUS
 62
     7
 10
-88.70343
 20
26.147058
  0
ENDBLK
  8
0
  0
BLOCK
  8
0
  2
*D18
 70
    65
 10
0
 20
0
  0
LINE
  8
0
  6
CONTINUOUS
 62
     7
 10
-98.70343
 20
-58.85294
 11
-98.70343
 21
26.147058
  0
INSERT
  8
0
  6
CONTINUOUS
 62
     7
  2
_DOT
 10
-98.70343
 20
-58.85294
 50
270
  0
INSERT
  8
0
  6
CONTINUOUS
 62
     7
  2
_DOT
 10
-98.70343
 20
26.147058
 50
90
  0
LINE
  8
0
  6
CONTINUOUS
 62
     7
 10
-71.24343
 20
-58.85294
 11
-99.903427
 21
-58.85294
  0
LINE
  8
0
  6
CONTINUOUS
 62
     7
 10
-31.24343
 20
26.147058
 11
-99.903427
 21
26.147058
  0
TEXT
  8
0
  6
CONTINUOUS
 62
     7
 10
-99.50343
 20
-19.09594
 40
3.2
 41
1.028625
  1
85
 50
90.000003
  0
POINT
  8
DEFPOINTS
  6
CONTINUOUS
 62
     7
 10
-68.70343
 20
-58.85294
  0
POINT
  8
DEFPOINTS
  6
CONTINUOUS
 62
     7
 10
-28.70343
 20
26.147058
  0
POINT
  8
DEFPOINTS
  6
CONTINUOUS
 62
     7
 10
-98.70343
 20
26.147058
  0
ENDBLK
  8
0
  0
BLOCK
  8
0
  2
*D19
 70
    65
 10
0
 20
0
  0
LINE
  8
0
  6
CONTINUOUS
 62
     7
 10
96.193192
 20
-58.85294
 11
96.193192
 21
-68.734871
  0
LINE
  8
0
  6
CONTINUOUS
 62
     7
 10
96.193192
 20
-58.85294
 11
96.193192
 21
-54.35294
  0
INSERT
  8
0
  6
CONTINUOUS
 62
     7
  2
_DOT
 10
96.193192
 20
-58.85294
 50
270
  0
INSERT
  8
0
  6
CONTINUOUS
 62
     7
  2
_DOT
 10
96.193192
 20
-54.35294
 50
90
  0
LINE
  8
0
  6
CONTINUOUS
 62
     7
 10
83.83657
 20
-58.85294
 11
97.393188
 21
-58.85294
  0
LINE
  8
0
  6
CONTINUOUS
 62
     7
 10
83.83657
 20
-54.35294
 11
97.393188
 21
-54.35294
  0
TEXT
  8
0
  6
CONTINUOUS
 62
     7
 10
95.393192
 20
-68.734869
 40
3.2
 41
1.3571875
  1
4.5
 50
90.000003
  0
POINT
  8
DEFPOINTS
  6
CONTINUOUS
 62
     7
 10
81.29657
 20
-58.85294
  0
POINT
  8
DEFPOINTS
  6
CONTINUOUS
 62
     7
 10
81.29657
 20
-54.35294
  0
POINT
  8
DEFPOINTS
  6
CONTINUOUS
 62
     7
 10
96.193192
 20
-54.35294
  0
ENDBLK
  8
0
  0
BLOCK
  8
0
  2
*D20
 70
    65
 10
0
 20
0
  0
LINE
  8
0
  6
CONTINUOUS
 62
     7
 10
96.29657
 20
-54.35294
 11
96.29657
 21
-40.85294
  0
INSERT
  8
0
  6
CONTINUOUS
 62
     7
  2
_DOT
 10
96.29657
 20
-54.35294
 50
270
  0
INSERT
  8
0
  6
CONTINUOUS
 62
     7
  2
_DOT
 10
96.29657
 20
-40.85294
 50
90
  0
LINE
  8
0
  6
CONTINUOUS
 62
     7
 10
83.83657
 20
-54.35294
 11
97.496567
 21
-54.35294
  0
LINE
  8
0
  6
CONTINUOUS
 62
     7
 10
13.836568
 20
-40.85294
 11
97.496567
 21
-40.85294
  0
TEXT
  8
0
  6
CONTINUOUS
 62
     7
 10
95.49657
 20
-53.54594
 40
3.2
 41
1.3928906
  1
13.5
 50
90.000003
  0
POINT
  8
DEFPOINTS
  6
CONTINUOUS
 62
     7
 10
81.29657
 20
-54.35294
  0
POINT
  8
DEFPOINTS
  6
CONTINUOUS
 62
     7
 10
11.296568
 20
-40.85294
  0
POINT
  8
DEFPOINTS
  6
CONTINUOUS
 62
     7
 10
96.29657
 20
-40.85294
  0
ENDBLK
  8
0
  0
BLOCK
  8
0
  2
*D21
 70
    65
 10
0
 20
0
  0
LINE
  8
0
  6
CONTINUOUS
 62
     7
 10
106.29657
 20
-58.85294
 11
106.29657
 21
-40.85294
  0
INSERT
  8
0
  6
CONTINUOUS
 62
     7
  2
_DOT
 10
106.29657
 20
-58.85294
 50
270
  0
INSERT
  8
0
  6
CONTINUOUS
 62
     7
  2
_DOT
 10
106.29657
 20
-40.85294
 50
90
  0
LINE
  8
0
  6
CONTINUOUS
 62
     7
 10
83.83657
 20
-58.85294
 11
107.49657
 21
-58.85294
  0
LINE
  8
0
  6
CONTINUOUS
 62
     7
 10
13.836568
 20
-40.85294
 11
107.49657
 21
-40.85294
  0
TEXT
  8
0
  6
CONTINUOUS
 62
     7
 10
105.49657
 20
-52.59594
 40
3.2
 41
1.2857812
  1
18
 50
90.000003
  0
POINT
  8
DEFPOINTS
  6
CONTINUOUS
 62
     7
 10
81.29657
 20
-58.85294
  0
POINT
  8
DEFPOINTS
  6
CONTINUOUS
 62
     7
 10
11.296568
 20
-40.85294
  0
POINT
  8
DEFPOINTS
  6
CONTINUOUS
 62
     7
 10
106.29657
 20
-40.85294
  0
ENDBLK
  8
0
  0
BLOCK
  8
0
  2
*D22
 70
    65
 10
0
 20
0
  0
LINE
  8
0
  6
CONTINUOUS
 62
     7
 10
29.854467
 20
-16.895084
 11
45.357334
 21
5.0583668
  0
INSERT
  8
0
  6
CONTINUOUS
 62
     7
  2
_DOT
 10
29.854467
 20
-16.895084
 50
234.77141
  0
LINE
  8
0
  6
CONTINUOUS
 62
     7
 10
45.357334
 20
5.0583658
 11
69.668777
 21
5.0583658
  0
TEXT
  8
0
  6
CONTINUOUS
 62
     7
 10
48.182774
 20
5.8583658
 40
3.2
 41
0.84634979
  1
２－Ｍ５タップ
  0
POINT
  8
DEFPOINTS
  6
CONTINUOUS
 62
     7
 10
29.854467
 20
-16.895084
  0
POINT
  8
DEFPOINTS
  6
CONTINUOUS
 62
     7
 10
45.357334
 20
5.0583668
  0
ENDBLK
  8
0
  0
BLOCK
  8
0
  2
*D23
 70
    65
 10
0
 20
0
  0
LINE
  8
0
  6
CONTINUOUS
 62
     7
 10
8.3483744
 20
-43.041569
 11
0.56972659
 21
-34.744198
  0
INSERT
  8
0
  6
CONTINUOUS
 62
     7
  2
_DOT
 10
8.3483744
 20
-43.041569
 50
313.15188
  0
LINE
  8
0
  6
CONTINUOUS
 62
     7
 10
0.56972635
 20
-34.744198
 11
-15.466037
 21
-34.744198
  0
TEXT
  8
0
  6
CONTINUOUS
 62
     7
 10
-15.466037
 20
-33.944198
 40
3.2
 41
0.84892707
  1
Ｍ６タップ
  0
POINT
  8
DEFPOINTS
  6
CONTINUOUS
 62
     7
 10
8.3483744
 20
-43.041569
  0
POINT
  8
DEFPOINTS
  6
CONTINUOUS
 62
     7
 10
0.56972659
 20
-34.744198
  0
ENDBLK
  8
0
  0
BLOCK
  8
0
  2
*D24
 70
    65
 10
0
 20
0
  0
LINE
  8
0
  6
CONTINUOUS
 62
     7
 10
-83.70343
 20
130.11275
 11
-83.70343
 21
116.11275
  0
INSERT
  8
0
  6
CONTINUOUS
 62
     7
  2
_DOT
 10
-83.70343
 20
130.11275
 50
90
  0
INSERT
  8
0
  6
CONTINUOUS
 62
     7
  2
_DOT
 10
-83.70343
 20
116.11275
 50
270
  0
LINE
  8
0
  6
CONTINUOUS
 62
     7
 10
-68.24343
 20
130.11275
 11
-84.903427
 21
130.11275
  0
LINE
  8
0
  6
CONTINUOUS
 62
     7
 10
-76.24343
 20
116.11275
 11
-84.903427
 21
116.11275
  0
TEXT
  8
0
  6
CONTINUOUS
 62
     7
 10
-84.50343
 20
121.96975
 40
3.2
 41
0.90047268
  1
〃
 50
90.000003
  0
POINT
  8
DEFPOINTS
  6
CONTINUOUS
 62
     7
 10
-65.70343
 20
130.11275
  0
POINT
  8
DEFPOINTS
  6
CONTINUOUS
 62
     7
 10
-73.70343
 20
116.11275
  0
POINT
  8
DEFPOINTS
  6
CONTINUOUS
 62
     7
 10
-83.70343
 20
116.11275
  0
ENDBLK
  8
0
  0
BLOCK
  8
0
  2
*D25
 70
    65
 10
0
 20
0
  0
LINE
  8
0
  6
CONTINUOUS
 62
     7
 10
-83.70343
 20
102.11275
 11
-83.70343
 21
116.11275
  0
INSERT
  8
0
  6
CONTINUOUS
 62
     7
  2
_DOT
 10
-83.70343
 20
102.11275
 50
270
  0
INSERT
  8
0
  6
CONTINUOUS
 62
     7
  2
_DOT
 10
-83.70343
 20
116.11275
 50
90
  0
LINE
  8
0
  6
CONTINUOUS
 62
     7
 10
-68.24343
 20
102.11275
 11
-84.903427
 21
102.11275
  0
LINE
  8
0
  6
CONTINUOUS
 62
     7
 10
-76.24343
 20
116.11275
 11
-84.903427
 21
116.11275
  0
TEXT
  8
0
  6
CONTINUOUS
 62
     7
 10
-84.50343
 20
107.96975
 40
3.2
 41
0.90047268
  1
〃
 50
90.000003
  0
POINT
  8
DEFPOINTS
  6
CONTINUOUS
 62
     7
 10
-65.70343
 20
102.11275
  0
POINT
  8
DEFPOINTS
  6
CONTINUOUS
 62
     7
 10
-73.70343
 20
116.11275
  0
POINT
  8
DEFPOINTS
  6
CONTINUOUS
 62
     7
 10
-83.70343
 20
116.11275
  0
ENDBLK
  8
0
  0
BLOCK
  8
0
  2
*D26
 70
    65
 10
0
 20
0
  0
LINE
  8
0
  6
CONTINUOUS
 62
     7
 10
130.07655
 20
-21.542809
 11
137.15045
 21
-11.115866
  0
INSERT
  8
0
  6
CONTINUOUS
 62
     7
  2
_DOT
 10
130.07655
 20
-21.542809
 50
235.84605
  0
LINE
  8
0
  6
CONTINUOUS
 62
     7
 10
137.15045
 20
-11.11587
 11
143.89345
 21
-11.11587
  0
TEXT
  8
0
  6
CONTINUOUS
 62
     7
 10
138.40745
 20
-10.31587
 40
3.2
 41
1.028625
  1
R4
  0
POINT
  8
DEFPOINTS
  6
CONTINUOUS
 62
     7
 10
130.07655
 20
-21.542809
  0
POINT
  8
DEFPOINTS
  6
CONTINUOUS
 62
     7
 10
137.15045
 20
-11.115866
  0
ENDBLK
  8
0
  0
BLOCK
  8
0
  2
*D27
 70
    65
 10
0
 20
0
  0
LINE
  8
0
  6
CONTINUOUS
 62
     7
 10
-1.4420999
 20
-2.0421429
 11
9.5317993
 21
13.497884
  0
INSERT
  8
0
  6
CONTINUOUS
 62
     7
  2
_DOT
 10
-1.4420999
 20
-2.0421429
 50
234.77141
  0
LINE
  8
0
  6
CONTINUOUS
 62
     7
 10
9.5318003
 20
13.497885
 11
25.326229
 21
13.497885
  0
TEXT
  8
0
  6
CONTINUOUS
 62
     7
 10
10.24023
 20
14.297885
 40
3.2
 41
0.84892707
  1
Ｍ５タップ
  0
POINT
  8
DEFPOINTS
  6
CONTINUOUS
 62
     7
 10
-1.4420999
 20
-2.0421429
  0
POINT
  8
DEFPOINTS
  6
CONTINUOUS
 62
     7
 10
9.5317993
 20
13.497884
  0
ENDBLK
  8
0
  0
BLOCK
  8
0
  2
KOZU0001
 70
    64
 10
0
 20
0
  0
POINT
  8
0
  6
CONTINUOUS
 62
     7
 10
0
 20
0
  0
POINT
  8
0
  6
CONTINUOUS
 62
     7
 10
9.5318003
 20
13.497885
  0
POINT
  8
0
  6
CONTINUOUS
 62
     7
 10
1.4420999
 20
2.0421429
  0
LINE
  8
0
  6
CENTER
 62
     7
 10
5.5
 20
0
 11
-5.5
 21
0
  0
LINE
  8
0
  6
CENTER
 62
     7
 10
0
 20
5.5
 11
0
 21
-5.5
  0
CIRCLE
  8
0
  6
CONTINUOUS
 62
     7
 10
0
 20
0
 40
2.5
  0
CIRCLE
  8
0
  6
CONTINUOUS
 62
     7
 10
0
 20
0
 40
2.125
  0
CIRCLE
  8
0
  6
CONTINUOUS
 62
     7
 10
1.4420999
 20
2.0421429
 40
0.40000001
  0
INSERT
  8
0
  6
CONTINUOUS
 62
     7
  2
*D27
 10
0
 20
0
  0
ENDBLK
  8
0
  0
BLOCK
  8
0
  2
KOZU0002
 70
    64
 10
0
 20
0
  0
LINE
  8
0
  6
CONTINUOUS
 62
     7
 10
0
 20
0
 11
23.944382
 21
-46.786469
  0
LINE
  8
0
  6
CONTINUOUS
 62
     7
 10
23.944382
 20
-46.786469
 11
51.735952
 21
-46.786469
  0
CIRCLE
  8
0
  6
CONTINUOUS
 62
     7
 10
0
 20
0
 40
0.40000001
  0
TEXT
  8
0
  6
CONTINUOUS
 62
     7
 10
32.535951
 20
-45.986461
 40
3.2
 41
0.84739783
  1
２－%%C４．３
  0
ENDBLK
  8
0
  0
BLOCK
  8
0
  2
KOZU0003
 70
    64
 10
0
 20
0
  0
LINE
  8
0
  6
CONTINUOUS
 62
     7
 10
0
 20
0
 11
16.12632
 21
-30.490852
  0
LINE
  8
0
  6
CONTINUOUS
 62
     7
 10
16.12632
 20
-30.490852
 11
67.304001
 21
-30.490852
  0
LINE
  8
0
  6
CONTINUOUS
 62
     7
 10
0
 20
0
 11
1.9592225
 21
-2.5023339
  0
LINE
  8
0
  6
CONTINUOUS
 62
     7
 10
0
 20
0
 11
0.96563082
 21
-3.027835
  0
TEXT
  8
0
  6
CONTINUOUS
 62
     7
 10
19.303999
 20
-29.69086
 40
3.2
 41
0.84306961
  1
２－%%C８．５×１８．５スロット
  0
ENDBLK
  8
0
  0
ENDSEC
  0
SECTION
  2
ENTITIES
  0
POINT
  8
0
  6
CONTINUOUS
 62
     7
 10
-17.832119
 20
-47.727512
  0
LINE
  8
0
  6
CONTINUOUS
 62
     7
 10
170
 20
173
 11
170
 21
-100
  0
LINE
  8
0
  6
CONTINUOUS
 62
     7
 10
-211
 20
-100
 11
170
 21
-100
  0
LINE
  8
0
  6
CONTINUOUS
 62
     7
 10
-211
 20
173
 11
170
 21
173
  0
LINE
  8
0
  6
CONTINUOUS
 62
     7
 10
-211
 20
173
 11
-211
 21
-100
  0
LINE
  8
0
  6
CONTINUOUS
 62
     7
 10
-68.70343
 20
127.11275
 11
-68.70343
 21
105.11275
  0
LINE
  8
0
  6
CONTINUOUS
 62
     7
 10
81.29657
 20
127.11275
 11
81.29657
 21
105.11275
  0
LINE
  8
0
  6
CONTINUOUS
 62
     7
 10
-65.70343
 20
130.11275
 11
78.29657
 21
130.11275
  0
LINE
  8
0
  6
CONTINUOUS
 62
     7
 10
-65.70343
 20
102.11275
 11
-36.70343
 21
102.11275
  0
LINE
  8
0
  6
CONTINUOUS
 62
     7
 10
-25.70343
 20
26.147058
 11
38.29657
 21
26.147058
  0
LINE
  8
0
  6
CONTINUOUS
 62
     7
 10
-68.70343
 20
-54.35294
 11
-68.70343
 21
-58.85294
  0
LINE
  8
0
  6
CONTINUOUS
 62
     7
 10
81.29657
 20
-54.35294
 11
81.29657
 21
-58.85294
  0
LINE
  8
0
  6
CONTINUOUS
 62
     7
 10
-68.70343
 20
-54.35294
 11
-28.70343
 21
-54.35294
  0
LINE
  8
0
  6
CONTINUOUS
 62
     7
 10
-28.70343
 20
23.147058
 11
-28.70343
 21
-58.85294
  0
LINE
  8
0
  6
CONTINUOUS
 62
     7
 10
41.29657
 20
23.147058
 11
41.29657
 21
-58.85294
  0
LINE
  8
0
  6
CONTINUOUS
 62
     7
 10
41.29657
 20
-54.35294
 11
81.29657
 21
-54.35294
  0
LINE
  8
0
  6
CENTER
 62
     7
 10
6.2965698
 20
31.14706
 11
6.2965698
 21
-63.85294
  0
LINE
  8
0
  6
CENTER
 62
     7
 10
-73.70343
 20
116.11275
 11
86.29657
 21
116.11275
  0
LINE
  8
0
  6
CENTER
 62
     7
 10
66.29657
 20
135.11275
 11
66.29657
 21
97.112747
  0
LINE
  8
0
  6
CENTER
 62
     7
 10
-53.70343
 20
135.11275
 11
-53.70343
 21
97.112747
  0
LINE
  8
0
  6
CONTINUOUS
 62
     7
 10
-57.95343
 20
121.11275
 11
-57.95343
 21
111.11275
  0
LINE
  8
0
  6
CONTINUOUS
 62
     7
 10
-49.45343
 20
121.11275
 11
-49.45343
 21
111.11275
  0
LINE
  8
0
  6
CONTINUOUS
 62
     7
 10
70.54657
 20
121.11275
 11
70.54657
 21
111.11275
  0
LINE
  8
0
  6
CONTINUOUS
 62
     7
 10
62.04657
 20
121.11275
 11
62.04657
 21
111.11275
  0
LINE
  8
0
  6
CONTINUOUS
 62
     7
 10
-34.20343
 20
106.61275
 11
46.79657
 21
106.61275
  0
LINE
  8
0
  6
CONTINUOUS
 62
     7
 10
-28.70343
 20
106.61275
 11
-28.70343
 21
102.11275
  0
LINE
  8
0
  6
CONTINUOUS
 62
     7
 10
41.29657
 20
106.61275
 11
41.29657
 21
102.11275
  0
LINE
  8
0
  6
CONTINUOUS
 62
     7
 10
-36.70343
 20
102.11275
 11
-34.203426
 21
106.61275
  0
LINE
  8
0
  6
CONTINUOUS
 62
     7
 10
46.79657
 20
106.61274
 11
49.29657
 21
102.11275
  0
LINE
  8
0
  6
CONTINUOUS
 62
     7
 10
49.29657
 20
102.11275
 11
78.29657
 21
102.11275
  0
LINE
  8
0
  6
CONTINUOUS
 62
     7
 10
-28.70343
 20
102.11275
 11
41.29657
 21
102.11275
  0
LINE
  8
0
  6
DASHED
 62
     7
 10
1.2965698
 20
106.61275
 11
1.2965698
 21
102.11275
  0
LINE
  8
0
  6
DASHED
 62
     7
 10
11.296568
 20
106.61275
 11
11.296568
 21
102.11275
  0
LINE
  8
0
  6
CENTER
 62
     7
 10
-14.20343
 20
-45.85294
 11
-23.20343
 21
-45.85294
  0
LINE
  8
0
  6
CENTER
 62
     7
 10
-18.70343
 20
-41.35294
 11
-18.70343
 21
-50.35294
  0
LINE
  8
0
  6
CENTER
 62
     7
 10
35.79657
 20
-45.85294
 11
26.79657
 21
-45.85294
  0
LINE
  8
0
  6
CENTER
 62
     7
 10
31.296568
 20
-41.35294
 11
31.296568
 21
-50.35294
  0
LINE
  8
0
  6
CONTINUOUS
 62
     7
 10
-36.70343
 20
-54.35294
 11
-36.70343
 21
-58.85294
  0
LINE
  8
0
  6
CONTINUOUS
 62
     7
 10
-34.20343
 20
-54.35294
 11
-34.20343
 21
-58.85294
  0
LINE
  8
0
  6
CONTINUOUS
 62
     7
 10
46.79657
 20
-54.35294
 11
46.79657
 21
-58.85294
  0
LINE
  8
0
  6
CONTINUOUS
 62
     7
 10
49.29657
 20
-54.35294
 11
49.29657
 21
-58.85294
  0
LINE
  8
0
  6
CONTINUOUS
 62
     7
 10
117.33089
 20
26.147058
 11
112.83089
 21
26.147058
  0
LINE
  8
0
  6
CONTINUOUS
 62
     7
 10
140.83089
 20
-58.85294
 11
112.83089
 21
-58.85294
  0
LINE
  8
0
  6
CONTINUOUS
 62
     7
 10
140.83089
 20
-54.35294
 11
112.83089
 21
-54.35294
  0
LINE
  8
0
  6
CONTINUOUS
 62
     7
 10
112.83089
 20
26.147058
 11
112.83089
 21
-58.85294
  0
LINE
  8
0
  6
CONTINUOUS
 62
     7
 10
140.83089
 20
-54.35294
 11
140.83089
 21
-58.85294
  0
LINE
  8
0
  6
CONTINUOUS
 62
     7
 10
117.33089
 20
1.147059
 11
117.33089
 21
-54.35294
  0
LINE
  8
0
  6
CENTER
 62
     7
 10
126.83089
 20
-49.35294
 11
126.83089
 21
-66.89505
  0
LINE
  8
0
  6
CONTINUOUS
 62
     7
 10
-68.70343
 20
-58.85294
 11
81.29657
 21
-58.85294
  0
LINE
  8
0
  6
CONTINUOUS
 62
     7
 10
112.83089
 20
-2.852941
 11
112.83089
 21
5.1470594
  0
LINE
  8
0
  6
CONTINUOUS
 62
     7
 10
117.33089
 20
6.1470585
 11
117.33089
 21
26.147058
  0
LINE
  8
0
  6
CONTINUOUS
 62
     7
 10
-1.2034302
 20
106.61275
 11
-1.2034302
 21
109.11275
  0
LINE
  8
0
  6
CONTINUOUS
 62
     7
 10
13.79657
 20
106.61275
 11
13.79657
 21
109.11275
  0
LINE
  8
0
  6
CONTINUOUS
 62
     7
 10
111.33089
 20
9.6470585
 11
111.33089
 21
-7.352941
  0
LINE
  8
0
  6
CONTINUOUS
 62
     7
 10
-2.2034302
 20
100.61275
 11
14.79657
 21
100.61275
  0
LINE
  8
0
  6
DASHED
 62
     7
 10
133.48085
 20
-3.852941
 11
134.33089
 21
-3.852941
  0
LINE
  8
0
  6
CONTINUOUS
 62
     7
 10
117.33089
 20
-6.352941
 11
119.83089
 21
-6.352941
  0
LINE
  8
0
  6
CONTINUOUS
 62
     7
 10
117.33089
 20
8.6470585
 11
117.33089
 21
1.147059
  0
LINE
  8
0
  6
DASHED
 62
     7
 10
134.33089
 20
-3.852941
 11
134.33089
 21
1.147059
  0
LINE
  8
0
  6
CONTINUOUS
 62
     7
 10
-18.703417
 20
110.61275
 11
-16.105339
 21
109.11275
  0
LINE
  8
0
  6
CONTINUOUS
 62
     7
 10
31.29657
 20
113.36275
 11
31.29657
 21
110.61275
  0
LINE
  8
0
  6
CONTINUOUS
 62
     7
 10
-18.70343
 20
123.61275
 11
-18.70343
 21
120.86275
  0
LINE
  8
0
  6
CONTINUOUS
 62
     7
 10
31.296581
 20
110.61274
 11
28.698505
 21
109.11274
  0
LINE
  8
0
  6
CENTER
 62
     7
 10
-20.70343
 20
117.11275
 11
33.29657
 21
117.11275
  0
LINE
  8
0
  6
CONTINUOUS
 62
     7
 10
28.698492
 20
125.11273
 11
31.296568
 21
123.61273
  0
LINE
  8
0
  6
CONTINUOUS
 62
     7
 10
-18.70343
 20
113.36275
 11
-18.70343
 21
110.61275
  0
LINE
  8
0
  6
CONTINUOUS
 62
     7
 10
31.29657
 20
123.61275
 11
31.29657
 21
120.86275
  0
LINE
  8
0
  6
CONTINUOUS
 62
     7
 10
-16.10535
 20
125.11274
 11
-18.703426
 21
123.61274
  0
LINE
  8
0
  6
CONTINUOUS
 62
     7
 10
-18.70343
 20
110.61275
 11
31.29657
 21
110.61275
  0
LINE
  8
0
  6
CONTINUOUS
 62
     7
 10
-18.70343
 20
123.61275
 11
31.29657
 21
123.61275
  0
LINE
  8
0
  6
CONTINUOUS
 62
     7
 10
-16.105331
 20
125.11275
 11
28.698456
 21
125.11275
  0
LINE
  8
0
  6
CONTINUOUS
 62
     7
 10
-16.105331
 20
109.11275
 11
28.698517
 21
109.11275
  0
LINE
  8
0
  6
CONTINUOUS
 62
     7
 10
-18.70343
 20
113.36275
 11
31.29657
 21
113.36275
  0
LINE
  8
0
  6
CONTINUOUS
 62
     7
 10
-18.70343
 20
120.86275
 11
31.296585
 21
120.86275
  0
LINE
  8
0
  6
CENTER
 62
     7
 10
6.2965698
 20
128.11275
 11
6.2965698
 21
106.11275
  0
LINE
  8
0
  6
CENTER
 62
     7
 10
116.83089
 20
1.147059
 11
138.83089
 21
1.147059
  0
LINE
  8
0
  6
CONTINUOUS
 62
     7
 10
124.08089
 20
-23.852942
 11
124.08089
 21
1.147059
  0
LINE
  8
0
  6
CONTINUOUS
 62
     7
 10
131.58089
 20
-23.852942
 11
131.58089
 21
1.147059
  0
LINE
  8
0
  6
CONTINUOUS
 62
     7
 10
135.83089
 20
-21.254843
 11
135.83089
 21
1.147059
  0
LINE
  8
0
  6
CONTINUOUS
 62
     7
 10
119.83089
 20
-21.254843
 11
119.83089
 21
1.147059
  0
LINE
  8
0
  6
CONTINUOUS
 62
     7
 10
121.33089
 20
-23.852942
 11
121.33089
 21
1.147059
  0
LINE
  8
0
  6
CONTINUOUS
 62
     7
 10
134.33089
 20
-23.852942
 11
134.33089
 21
1.147059
  0
LINE
  8
0
  6
CONTINUOUS
 62
     7
 10
119.8309
 20
-21.254852
 11
121.3309
 21
-23.852928
  0
LINE
  8
0
  6
CONTINUOUS
 62
     7
 10
131.58089
 20
-23.852942
 11
134.33089
 21
-23.852942
  0
LINE
  8
0
  6
CENTER
 62
     7
 10
127.83089
 20
-25.852942
 11
127.83089
 21
28.14706
  0
LINE
  8
0
  6
CONTINUOUS
 62
     7
 10
121.33089
 20
-23.852942
 11
124.08089
 21
-23.852942
  0
LINE
  8
0
  6
CONTINUOUS
 62
     7
 10
134.33087
 20
-23.852924
 11
135.83087
 21
-21.254847
  0
LINE
  8
0
  6
CONTINUOUS
 62
     7
 10
119.83089
 20
23.548962
 11
119.83089
 21
1.147059
  0
LINE
  8
0
  6
CONTINUOUS
 62
     7
 10
135.83089
 20
23.548962
 11
135.83089
 21
1.147059
  0
LINE
  8
0
  6
CONTINUOUS
 62
     7
 10
131.58089
 20
26.14706
 11
131.58089
 21
1.147059
  0
LINE
  8
0
  6
CONTINUOUS
 62
     7
 10
124.08089
 20
26.14706
 11
124.08089
 21
1.147059
  0
LINE
  8
0
  6
DASHED
 62
     7
 10
134.33089
 20
6.1470585
 11
134.33089
 21
1.147059
  0
LINE
  8
0
  6
CONTINUOUS
 62
     7
 10
117.33089
 20
8.6470585
 11
119.83089
 21
8.6470585
  0
LINE
  8
0
  6
DASHED
 62
     7
 10
133.48085
 20
6.1470585
 11
134.33089
 21
6.1470585
  0
LINE
  8
0
  6
CONTINUOUS
 62
     7
 10
119.8309
 20
23.548975
 11
121.33091
 21
26.147051
  0
LINE
  8
0
  6
CONTINUOUS
 62
     7
 10
134.33089
 20
26.14706
 11
134.33089
 21
1.147059
  0
LINE
  8
0
  6
CONTINUOUS
 62
     7
 10
121.33089
 20
26.14706
 11
124.08089
 21
26.14706
  0
LINE
  8
0
  6
CONTINUOUS
 62
     7
 10
121.33089
 20
26.14706
 11
121.33089
 21
1.147059
  0
LINE
  8
0
  6
CONTINUOUS
 62
     7
 10
131.58089
 20
26.14706
 11
134.33089
 21
26.14706
  0
LINE
  8
0
  6
CONTINUOUS
 62
     7
 10
134.33087
 20
26.147043
 11
135.83087
 21
23.548967
  0
LINE
  8
0
  6
CONTINUOUS
 62
     7
 10
-191
 20
173
 11
-191
 21
61
  0
LINE
  8
0
  6
CONTINUOUS
 62
     7
 10
-211
 20
165
 11
-101.00001
 21
165
  0
LINE
  8
0
  6
CONTINUOUS
 62
     7
 10
-191
 20
157
 11
-101.00001
 21
157
  0
LINE
  8
0
  6
CONTINUOUS
 62
     7
 10
-211
 20
141
 11
-101.00001
 21
141
  0
LINE
  8
0
  6
CONTINUOUS
 62
     7
 10
-211
 20
133
 11
-101.00001
 21
133
  0
LINE
  8
0
  6
CONTINUOUS
 62
     7
 10
-191
 20
109
 11
-101.00001
 21
109
  0
LINE
  8
0
  6
CONTINUOUS
 62
     7
 10
-191
 20
101
 11
-101.00001
 21
101
  0
LINE
  8
0
  6
CONTINUOUS
 62
     7
 10
-211
 20
93
 11
-101.00001
 21
93
  0
LINE
  8
0
  6
CONTINUOUS
 62
     7
 10
-191
 20
85
 11
-101.00001
 21
85
  0
LINE
  8
0
  6
CONTINUOUS
 62
     7
 10
-211
 20
69
 11
-101.00001
 21
69
  0
LINE
  8
0
  6
CONTINUOUS
 62
     7
 10
-211
 20
61
 11
-101.00001
 21
61
  0
LINE
  8
0
  6
CONTINUOUS
 62
     7
 10
-211
 20
173
 11
-211
 21
77
  0
LINE
  8
0
  6
CONTINUOUS
 62
     7
 10
-211
 20
173
 11
-101.00001
 21
173
  0
LINE
  8
0
  6
CONTINUOUS
 62
     7
 10
-101.00001
 20
173
 11
-101.00001
 21
61
  0
LINE
  8
0
  6
CONTINUOUS
 62
     7
 10
-211
 20
125
 11
-101.00001
 21
125
  0
LINE
  8
0
  6
CONTINUOUS
 62
     7
 10
-211
 20
117
 11
-101.00001
 21
117
  0
LINE
  8
0
  6
CONTINUOUS
 62
     7
 10
-191
 20
109
 11
-101.00001
 21
109
  0
LINE
  8
0
  6
CENTER
 62
     7
 10
36.79657
 20
-14.852942
 11
25.796568
 21
-14.852942
  0
LINE
  8
0
  6
CENTER
 62
     7
 10
31.296568
 20
-9.3529415
 11
31.296568
 21
-20.352942
  0
LINE
  8
0
  6
CENTER
 62
     7
 10
-13.20343
 20
-14.852942
 11
-24.20343
 21
-14.852942
  0
LINE
  8
0
  6
CENTER
 62
     7
 10
-18.70343
 20
-9.3529415
 11
-18.70343
 21
-20.352942
  0
LINE
  8
0
  6
CENTER
 62
     7
 10
12.29657
 20
-40.85294
 11
0.29656982
 21
-40.85294
  0
LINE
  8
0
  6
CENTER
 62
     7
 10
6.2965698
 20
-34.85294
 11
6.2965698
 21
-46.85294
  0
LINE
  8
0
  6
CENTER
 62
     7
 10
19.306839
 20
1.1370163
 11
-6.693161
 21
1.1370163
  0
LINE
  8
0
  6
CONTINUOUS
 62
     7
 10
-191
 20
77
 11
-101.00001
 21
77
  0
LINE
  8
0
  6
CONTINUOUS
 62
     7
 10
-211
 20
149
 11
-101.00001
 21
149
  0
ARC
  8
0
  6
CONTINUOUS
 62
     7
 10
-65.70343
 20
127.11275
 40
3
 50
90
 51
180
  0
ARC
  8
0
  6
CONTINUOUS
 62
     7
 10
78.29657
 20
127.11275
 40
3
 50
0
 51
90
  0
ARC
  8
0
  6
CONTINUOUS
 62
     7
 10
78.29657
 20
105.11275
 40
3
 50
270
 51
360
  0
ARC
  8
0
  6
CONTINUOUS
 62
     7
 10
-65.70343
 20
105.11275
 40
3
 50
180
 51
270
  0
ARC
  8
0
  6
CONTINUOUS
 62
     7
 10
-25.70343
 20
23.147058
 40
3
 50
90
 51
180
  0
ARC
  8
0
  6
CONTINUOUS
 62
     7
 10
38.29657
 20
23.147058
 40
3
 50
0
 51
90
  0
ARC
  8
0
  6
CONTINUOUS
 62
     7
 10
66.29657
 20
121.11275
 40
4.25
 50
0
 51
180
  0
ARC
  8
0
  6
CONTINUOUS
 62
     7
 10
66.29657
 20
111.11275
 40
4.25
 50
180
 51
360
  0
ARC
  8
0
  6
CONTINUOUS
 62
     7
 10
-53.70343
 20
111.11275
 40
4.25
 50
180
 51
360
  0
ARC
  8
0
  6
CONTINUOUS
 62
     7
 10
-53.70343
 20
121.11275
 40
4.25
 50
0
 51
180
  0
CIRCLE
  8
0
  6
CONTINUOUS
 62
     7
 10
31.296568
 20
-45.85294
 40
2.1500001
  0
CIRCLE
  8
0
  6
CONTINUOUS
 62
     7
 10
-18.70343
 20
-45.85294
 40
2.1500001
  0
ARC
  8
0
  6
CONTINUOUS
 62
     7
 10
112.83089
 20
9.6470585
 40
1.5
 50
90
 51
180
  0
ARC
  8
0
  6
CONTINUOUS
 62
     7
 10
112.83089
 20
-7.352941
 40
1.5
 50
180
 51
270
  0
ARC
  8
0
  6
CONTINUOUS
 62
     7
 10
-2.2034302
 20
102.11275
 40
1.5
 50
180
 51
270
  0
ARC
  8
0
  6
CONTINUOUS
 62
     7
 10
14.79657
 20
102.11275
 40
1.5
 50
270
 51
360
  0
CIRCLE
  8
0
  6
CONTINUOUS
 62
     7
 10
6.306839
 20
1.1370163
 40
10
  0
CIRCLE
  8
0
  6
CONTINUOUS
 62
     7
 10
31.296568
 20
-14.852942
 40
2.5
  0
CIRCLE
  8
0
  6
CONTINUOUS
 62
     7
 10
31.296568
 20
-14.852942
 40
2.125
  0
CIRCLE
  8
0
  6
CONTINUOUS
 62
     7
 10
32.738667
 20
-12.810799
 40
0.40000001
  0
CIRCLE
  8
0
  6
CONTINUOUS
 62
     7
 10
-18.70343
 20
-14.852942
 40
2.5
  0
CIRCLE
  8
0
  6
CONTINUOUS
 62
     7
 10
-18.70343
 20
-14.852942
 40
2.125
  0
CIRCLE
  8
0
  6
CONTINUOUS
 62
     7
 10
6.2965698
 20
-40.85294
 40
3
  0
CIRCLE
  8
0
  6
CONTINUOUS
 62
     7
 10
6.2965698
 20
-40.85294
 40
2.55
  0
CIRCLE
  8
0
  6
CONTINUOUS
 62
     7
 10
4.2447653
 20
-38.66431
 40
0.40000001
  0
ARC
  8
0
  6
CONTINUOUS
 62
     7
 10
127.83089
 20
-24.852942
 40
4
 50
20.364135
 51
159.63587
  0
ARC
  8
0
  6
CONTINUOUS
 62
     7
 10
127.83089
 20
27.14706
 40
4
 50
200.36413
 51
339.63587
  0
ARC
  8
0
  6
CONTINUOUS
 62
     7
 10
-19.703432
 20
117.11275
 40
4
 50
290.36413
 51
69.635865
  0
ARC
  8
0
  6
CONTINUOUS
 62
     7
 10
32.29657
 20
117.11275
 40
4
 50
110.36413
 51
249.63587
  0
CIRCLE
  8
0
  6
CONTINUOUS
 62
     7
 10
-17.832119
 20
-47.727512
 40
0.30000001
  0
TEXT
  8
0
  6
CONTINUOUS
 62
     7
 10
-188.143
 20
87.4
 40
3.2
 41
0.84326962
  1
標準耐荷重量　８０ｋｇ／２コ
  0
TEXT
  8
0
  6
CONTINUOUS
 62
     7
 10
-205.343
 20
167.4
 40
3.2
 41
0.85537027
  1
品　名
  0
TEXT
  8
0
  6
CONTINUOUS
 62
     7
 10
-205.343
 20
159.4
 40
3.2
 41
0.85537027
  1
品　番
  0
TEXT
  8
0
  6
CONTINUOUS
 62
     7
 10
-188.143
 20
71.4
 40
3.2
 41
0.84183955
  1
上吊車用ライナーｔ＝３．２、１．０も用意しております。
  0
TEXT
  8
0
  6
CONTINUOUS
 62
     7
 10
-188.143
 20
63.4
 40
3.2
 41
0.84409467
  1
トリム・リズム・スリム
  0
TEXT
  8
0
  6
CONTINUOUS
 62
     7
 10
-188.143
 20
167.4
 40
3.2
 41
0.85537027
  1
上吊車
  0
TEXT
  8
0
  6
CONTINUOUS
 62
     7
 10
-205.343
 20
143.4
 40
3.2
 41
0.85537027
  1
材　質
  0
TEXT
  8
0
  6
CONTINUOUS
 62
     7
 10
-205.343
 20
135.4
 40
3.2
 41
0.85537027
  1
仕上げ
  0
TEXT
  8
0
  6
CONTINUOUS
 62
     7
 10
-188.143
 20
95.4
 40
3.2
 41
0.90047268
  1
＊
  0
TEXT
  8
0
  6
CONTINUOUS
 62
     7
 10
-188.143
 20
103.4
 40
3.2
 41
0.90047268
  1
＊
  0
TEXT
  8
0
  6
CONTINUOUS
 62
     7
 10
-208.543
 20
111.4
 40
3.2
 41
0.84892707
  1
セットビス
  0
TEXT
  8
0
  6
CONTINUOUS
 62
     7
 10
-188.143
 20
135.4
 40
3.2
 41
0.84306961
  1
（枠）有色クロメート（車）生地
  0
TEXT
  8
0
  6
CONTINUOUS
 62
     7
 10
-203.743
 20
87.4
 40
3.2
 41
0.86439075
  1
備考
  0
TEXT
  8
0
  6
CONTINUOUS
 62
     7
 10
-188.143
 20
143.4
 40
3.2
 41
0.84248387
  1
（枠）スチール（車）ポリアセタール樹脂
  0
TEXT
  8
0
  6
CONTINUOUS
 62
     7
 10
-188.143
 20
159.4
 40
3.2
 41
0.84741102
  1
ＨＴ－３２０
  0
TEXT
  8
0
  6
CONTINUOUS
 62
     7
 10
-205.343
 20
127.4
 40
3.2
 41
0.85537027
  1
定　尺
  0
TEXT
  8
0
  6
CONTINUOUS
 62
     7
 10
-206.943
 20
119.4
 40
3.2
 41
0.85127005
  1
左右勝手
  0
TEXT
  8
0
  6
CONTINUOUS
 62
     7
 10
-188.143
 20
79.4
 40
3.2
 41
0.84409467
  1
軸受：ボールベアリング
  0
TEXT
  8
0
  6
CONTINUOUS
 62
     7
 10
-208.5
 20
63.4
 40
3.2
 41
0.51379248
  1
使用可能シリーズ
  0
DIMENSION
  8
0
  6
CONTINUOUS
 62
     7
  2
*D1
 70
     0
 10
41.29657
 20
39.083332
 11
6.1397057
 21
39.083332
  3
DIMSTYLE
 13
-28.70343
 23
23.147058
 14
41.29657
 24
23.147058
 50
0
1001
ACAD
1000
DSTYLE
1002
{
1070
    77
1070
     1
1070
   172
1070
     1
1002
}
  0
DIMENSION
  8
0
  6
CONTINUOUS
 62
     7
  2
*D2
 70
     0
 10
31.296568
 20
-74.195244
 11
8.0960064
 21
-74.195244
  3
DIMSTYLE
 13
-18.70343
 23
-50.35294
 14
31.296568
 24
-50.35294
 50
0
1001
ACAD
1000
DSTYLE
1002
{
1070
    77
1070
     1
1070
   172
1070
     1
1002
}
  0
INSERT
  8
0
  6
CONTINUOUS
 62
     7
  2
KOZU0002
 10
-19.68294
 20
-43.939026
  0
DIMENSION
  8
0
  6
CONTINUOUS
 62
     7
  2
*D3
 70
     0
 10
112.83089
 20
47.622414
 11
120.33089
 21
47.622414
  3
DIMSTYLE
 13
127.83089
 23
31.14706
 14
112.83089
 24
26.147058
 50
0
1001
ACAD
1000
DSTYLE
1002
{
1070
    77
1070
     1
1070
   172
1070
     1
1002
}
  0
DIMENSION
  8
0
  6
CONTINUOUS
 62
     7
  2
*D4
 70
     0
 10
124.08089
 20
-37.390827
 11
137.68008
 21
-37.390827
  3
DIMSTYLE
 13
131.58089
 23
-23.852942
 14
124.08089
 24
-23.852942
 50
0
1001
ACAD
1000
DSTYLE
1002
{
1070
    77
1070
     1
1070
   172
1070
     1
1002
}
  0
DIMENSION
  8
0
  6
CONTINUOUS
 62
     7
  2
*D5
 70
     0
 10
81.29657
 20
150.11275
 11
6.2965698
 21
150.11275
  3
DIMSTYLE
 13
-68.70343
 23
127.11275
 14
81.29657
 24
127.11275
 50
0
1001
ACAD
1000
DSTYLE
1002
{
1070
    77
1070
     1
1070
   172
1070
     1
1002
}
  0
DIMENSION
  8
0
  6
CONTINUOUS
 62
     7
  2
*D6
 70
     0
 10
-53.70343
 20
140.11275
 11
-61.20343
 21
140.11275
  3
DIMSTYLE
 13
-68.70343
 23
127.11275
 14
-53.70343
 24
135.11275
 50
0
1001
ACAD
1000
DSTYLE
1002
{
1070
    77
1070
     1
1070
   172
1070
     1
1002
}
  0
DIMENSION
  8
0
  6
CONTINUOUS
 62
     7
  2
*D7
 70
     0
 10
66.29657
 20
140.11275
 11
6.2965698
 21
140.11275
  3
DIMSTYLE
 13
-53.70343
 23
135.11275
 14
66.29657
 24
135.11275
 50
0
1001
ACAD
1000
DSTYLE
1002
{
1070
     6
1000
_NONE
1070
    77
1070
     1
1070
   172
1070
     1
1070
    75
1070
     1
1002
}
  0
DIMENSION
  8
0
  6
CONTINUOUS
 62
     7
  2
*D8
 70
     0
 10
81.29657
 20
140.11275
 11
73.79657
 21
140.11275
  3
DIMSTYLE
 13
66.29657
 23
135.11275
 14
81.29657
 24
127.11275
 50
0
1001
ACAD
1000
DSTYLE
1002
{
1070
     6
1000
_NONE
1070
    77
1070
     1
1070
   172
1070
     1
1070
    75
1070
     1
1002
}
  0
DIMENSION
  8
0
  6
CONTINUOUS
 62
     7
  2
*D9
 70
     0
 10
-93.70343
 20
102.11275
 11
-93.70343
 21
116.11275
  3
DIMSTYLE
 13
-65.70343
 23
130.11275
 14
-65.70343
 24
102.11275
 50
90
1001
ACAD
1000
DSTYLE
1002
{
1070
    77
1070
     1
1070
   172
1070
     1
1002
}
  0
DIMENSION
  8
0
  6
CONTINUOUS
 62
     7
  2
*D10
 70
     0
 10
165.83089
 20
-23.852942
 11
165.83089
 21
1.147059
  3
DIMSTYLE
 13
134.33089
 23
26.14706
 14
134.33089
 24
-23.852942
 50
90
1001
ACAD
1000
DSTYLE
1002
{
1070
    77
1070
     1
1070
   172
1070
     1
1002
}
  0
DIMENSION
  8
0
  6
CONTINUOUS
 62
     7
  2
*D11
 70
     0
 10
155.83089
 20
-20.852942
 11
155.83089
 21
1.147059
  3
DIMSTYLE
 13
127.83089
 23
23.14706
 14
127.83089
 24
-20.852942
 50
90
1001
ACAD
1000
DSTYLE
1002
{
1070
    77
1070
     1
1070
   172
1070
     1
1002
}
  0
DIMENSION
  8
0
  6
CONTINUOUS
 62
     7
  2
*D12
 70
     0
 10
155.83089
 20
-58.85294
 11
155.83089
 21
-39.85294
  3
DIMSTYLE
 13
127.83089
 23
-20.852942
 14
140.83089
 24
-58.85294
 50
90
1001
ACAD
1000
DSTYLE
1002
{
1070
    77
1070
     1
1070
   172
1070
     1
1002
}
  0
DIMENSION
  8
0
  6
CONTINUOUS
 62
     7
  2
*D13
 70
     0
 10
-78.70343
 20
-45.85294
 11
-78.70343
 21
-52.35294
  3
DIMSTYLE
 13
-68.70343
 23
-58.85294
 14
-23.20343
 24
-45.85294
 50
90
1001
ACAD
1000
DSTYLE
1002
{
1070
    77
1070
     1
1070
   172
1070
     1
1002
}
  0
DIMENSION
  8
0
  6
CONTINUOUS
 62
     7
  2
*D14
 70
     0
 10
-78.70343
 20
-14.852942
 11
-78.70343
 21
-30.35294
  3
DIMSTYLE
 13
-23.20343
 23
-45.85294
 14
-23.20343
 24
-14.852942
 50
90
1001
ACAD
1000
DSTYLE
1002
{
1070
     6
1000
_NONE
1070
    77
1070
     1
1070
   172
1070
     1
1070
    75
1070
     1
1002
}
  0
DIMENSION
  8
0
  6
CONTINUOUS
 62
     7
  2
*D15
 70
     0
 10
-78.70343
 20
1.147059
 11
-78.70343
 21
-6.8529415
  3
DIMSTYLE
 13
-23.20343
 23
-14.852942
 14
-6.693161
 24
1.147059
 50
90
1001
ACAD
1000
DSTYLE
1002
{
1070
    77
1070
     1
1070
   172
1070
     1
1002
}
  0
DIMENSION
  8
0
  6
CONTINUOUS
 62
     7
  2
*D16
 70
     0
 10
-88.70343
 20
1.147059
 11
-88.70343
 21
-28.85294
  3
DIMSTYLE
 13
-68.70343
 23
-58.85294
 14
-6.693161
 24
1.147059
 50
90
1001
ACAD
1000
DSTYLE
1002
{
1070
    77
1070
     1
1070
   172
1070
     1
1002
}
  0
DIMENSION
  8
0
  6
CONTINUOUS
 62
     7
  2
*D17
 70
     0
 10
-88.70343
 20
26.147058
 11
-88.70343
 21
13.647058
  3
DIMSTYLE
 13
-6.693161
 23
1.147059
 14
-28.70343
 24
26.147058
 50
90
1001
ACAD
1000
DSTYLE
1002
{
1070
    77
1070
     1
1070
   172
1070
     1
1002
}
  0
DIMENSION
  8
0
  6
CONTINUOUS
 62
     7
  2
*D18
 70
     0
 10
-98.70343
 20
26.147058
 11
-98.70343
 21
-16.35294
  3
DIMSTYLE
 13
-68.70343
 23
-58.85294
 14
-28.70343
 24
26.147058
 50
90
1001
ACAD
1000
DSTYLE
1002
{
1070
    77
1070
     1
1070
   172
1070
     1
1002
}
  0
DIMENSION
  8
0
  6
CONTINUOUS
 62
     7
  2
*D19
 70
     0
 10
96.193192
 20
-54.35294
 11
96.193192
 21
-64.391869
  3
DIMSTYLE
 13
81.29657
 23
-58.85294
 14
81.29657
 24
-54.35294
 50
90
1001
ACAD
1000
DSTYLE
1002
{
1070
    77
1070
     1
1070
   172
1070
     1
1002
}
  0
DIMENSION
  8
0
  6
CONTINUOUS
 62
     7
  2
*D20
 70
     0
 10
96.29657
 20
-40.85294
 11
96.29657
 21
-47.60294
  3
DIMSTYLE
 13
81.29657
 23
-54.35294
 14
11.296568
 24
-40.85294
 50
90
1001
ACAD
1000
DSTYLE
1002
{
1070
    77
1070
     1
1070
   172
1070
     1
1002
}
  0
DIMENSION
  8
0
  6
CONTINUOUS
 62
     7
  2
*D21
 70
     0
 10
106.29657
 20
-40.85294
 11
106.29657
 21
-49.85294
  3
DIMSTYLE
 13
81.29657
 23
-58.85294
 14
11.296568
 24
-40.85294
 50
90
1001
ACAD
1000
DSTYLE
1002
{
1070
    77
1070
     1
1070
   172
1070
     1
1002
}
  0
INSERT
  8
0
  6
CONTINUOUS
 62
     7
  2
*D22
 10
0
 20
0
  0
INSERT
  8
0
  6
CONTINUOUS
 62
     7
  2
*D23
 10
0
 20
0
  0
INSERT
  8
0
  6
CONTINUOUS
 62
     7
  2
KOZU0003
 10
66.29657
 20
116.11275
  0
DIMENSION
  8
0
  6
CONTINUOUS
 62
     7
  2
*D24
 70
     0
 10
-83.70343
 20
116.11275
 11
-83.70343
 21
123.11275
  3
DIMSTYLE
 13
-65.70343
 23
130.11275
 14
-73.70343
 24
116.11275
 50
90
1001
ACAD
1000
DSTYLE
1002
{
1070
    77
1070
     1
1070
   172
1070
     1
1002
}
  0
DIMENSION
  8
0
  6
CONTINUOUS
 62
     7
  2
*D25
 70
     0
 10
-83.70343
 20
116.11275
 11
-83.70343
 21
109.11275
  3
DIMSTYLE
 13
-65.70343
 23
102.11275
 14
-73.70343
 24
116.11275
 50
90
1001
ACAD
1000
DSTYLE
1002
{
1070
    77
1070
     1
1070
   172
1070
     1
1002
}
  0
INSERT
  8
0
  6
CONTINUOUS
 62
     7
  2
*D26
 10
0
 20
0
  0
ENDSEC
  0
EOF
