  0
SECTION
  2
HEADER
  9
$ACADVER
  1
AC1015
  9
$ACADMAINTVER
 70
    20
  9
$DWGCODEPAGE
  3
ANSI_932
  9
$INSBASE
 10
0.0
 20
0.0
 30
0.0
  9
$EXTMIN
 10
-0.012816303064028
 20
-0.0090629840484553
 30
-0.0015258207003583
  9
$EXTMAX
 10
420.0128184625908
 20
297.0090644573789
 30
0.0000000349246037
  9
$LIMMIN
 10
0.0000001018746616
 20
0.0000000451582309
  9
$LIMMAX
 10
420.0000001018747
 20
297.0000000451582
  9
$ORTHOMODE
 70
     0
  9
$REGENMODE
 70
     1
  9
$FILLMODE
 70
     1
  9
$QTEXTMODE
 70
     0
  9
$MIRRTEXT
 70
     0
  9
$LTSCALE
 40
1.0
  9
$ATTMODE
 70
     1
  9
$TEXTSIZE
 40
3.2
  9
$TRACEWID
 40
1.0
  9
$TEXTSTYLE
  7
STANDARD
  9
$CLAYER
  8
AM_6
  9
$CELTYPE
  6
ByLayer
  9
$CECOLOR
 62
   256
  9
$CELTSCALE
 40
1.0
  9
$DISPSILH
 70
     0
  9
$DIMSCALE
 40
1.0
  9
$DIMASZ
 40
1.0
  9
$DIMEXO
 40
1.0
  9
$DIMDLI
 40
10.0
  9
$DIMRND
 40
0.0
  9
$DIMDLE
 40
0.0
  9
$DIMEXE
 40
1.0
  9
$DIMTP
 40
0.1
  9
$DIMTM
 40
0.1
  9
$DIMTXT
 40
3.5
  9
$DIMCEN
 40
0.0
  9
$DIMTSZ
 40
0.0
  9
$DIMTOL
 70
     0
  9
$DIMLIM
 70
     0
  9
$DIMTIH
 70
     0
  9
$DIMTOH
 70
     0
  9
$DIMSE1
 70
     0
  9
$DIMSE2
 70
     0
  9
$DIMTAD
 70
     1
  9
$DIMZIN
 70
     8
  9
$DIMBLK
  1

  9
$DIMASO
 70
     1
  9
$DIMSHO
 70
     1
  9
$DIMPOST
  1

  9
$DIMAPOST
  1
"
  9
$DIMALT
 70
     0
  9
$DIMALTD
 70
     2
  9
$DIMALTF
 40
0.0393701
  9
$DIMLFAC
 40
1.0
  9
$DIMTOFL
 70
     1
  9
$DIMTVP
 40
0.0
  9
$DIMTIX
 70
     0
  9
$DIMSOXD
 70
     0
  9
$DIMSAH
 70
     0
  9
$DIMBLK1
  1

  9
$DIMBLK2
  1

  9
$DIMSTYLE
  2
SYS
  9
$DIMCLRD
 70
   256
  9
$DIMCLRE
 70
   256
  9
$DIMCLRT
 70
     7
  9
$DIMTFAC
 40
0.71
  9
$DIMGAP
 40
1.5
  9
$DIMJUST
 70
     0
  9
$DIMSD1
 70
     0
  9
$DIMSD2
 70
     0
  9
$DIMTOLJ
 70
     0
  9
$DIMTZIN
 70
     8
  9
$DIMALTZ
 70
     0
  9
$DIMALTTZ
 70
     0
  9
$DIMUPT
 70
     0
  9
$DIMDEC
 70
     2
  9
$DIMTDEC
 70
     2
  9
$DIMALTU
 70
     2
  9
$DIMALTTD
 70
     2
  9
$DIMTXSTY
  7
STANDARD
  9
$DIMAUNIT
 70
     0
  9
$DIMADEC
 70
     0
  9
$DIMALTRND
 40
0.0
  9
$DIMAZIN
 70
     2
  9
$DIMDSEP
 70
    46
  9
$DIMATFIT
 70
     3
  9
$DIMFRAC
 70
     0
  9
$DIMLDRBLK
  1

  9
$DIMLUNIT
 70
     2
  9
$DIMLWD
 70
    -1
  9
$DIMLWE
 70
    -1
  9
$DIMTMOVE
 70
     0
  9
$LUNITS
 70
     2
  9
$LUPREC
 70
     2
  9
$SKETCHINC
 40
1.0
  9
$FILLETRAD
 40
0.0
  9
$AUNITS
 70
     0
  9
$AUPREC
 70
     0
  9
$MENU
  1
.
  9
$ELEVATION
 40
0.0
  9
$PELEVATION
 40
0.0
  9
$THICKNESS
 40
0.0
  9
$LIMCHECK
 70
     0
  9
$CHAMFERA
 40
0.0
  9
$CHAMFERB
 40
0.0
  9
$CHAMFERC
 40
20.0
  9
$CHAMFERD
 40
0.0
  9
$SKPOLY
 70
     0
  9
$TDCREATE
 40
2455832.665277408
  9
$TDUCREATE
 40
2455832.290277408
  9
$TDUPDATE
 40
2455846.739366678
  9
$TDUUPDATE
 40
2455846.364366678
  9
$TDINDWG
 40
0.1199618403
  9
$TDUSRTIMER
 40
0.1199614815
  9
$USRTIMER
 70
     1
  9
$ANGBASE
 50
0.0
  9
$ANGDIR
 70
     0
  9
$PDMODE
 70
     0
  9
$PDSIZE
 40
-3.0
  9
$PLINEWID
 40
0.0
  9
$SPLFRAME
 70
     0
  9
$SPLINETYPE
 70
     6
  9
$SPLINESEGS
 70
     8
  9
$HANDSEED
  5
DEFF
  9
$SURFTAB1
 70
     6
  9
$SURFTAB2
 70
     6
  9
$SURFTYPE
 70
     6
  9
$SURFU
 70
     6
  9
$SURFV
 70
     6
  9
$UCSBASE
  2

  9
$UCSNAME
  2

  9
$UCSORG
 10
0.0
 20
0.0
 30
0.0
  9
$UCSXDIR
 10
1.0
 20
0.0
 30
0.0
  9
$UCSYDIR
 10
0.0
 20
1.0
 30
0.0
  9
$UCSORTHOREF
  2

  9
$UCSORTHOVIEW
 70
     0
  9
$UCSORGTOP
 10
0.0
 20
0.0
 30
0.0
  9
$UCSORGBOTTOM
 10
0.0
 20
0.0
 30
0.0
  9
$UCSORGLEFT
 10
0.0
 20
0.0
 30
0.0
  9
$UCSORGRIGHT
 10
0.0
 20
0.0
 30
0.0
  9
$UCSORGFRONT
 10
0.0
 20
0.0
 30
0.0
  9
$UCSORGBACK
 10
0.0
 20
0.0
 30
0.0
  9
$PUCSBASE
  2

  9
$PUCSNAME
  2

  9
$PUCSORG
 10
0.0
 20
0.0
 30
0.0
  9
$PUCSXDIR
 10
1.0
 20
0.0
 30
0.0
  9
$PUCSYDIR
 10
0.0
 20
1.0
 30
0.0
  9
$PUCSORTHOREF
  2

  9
$PUCSORTHOVIEW
 70
     0
  9
$PUCSORGTOP
 10
0.0
 20
0.0
 30
0.0
  9
$PUCSORGBOTTOM
 10
0.0
 20
0.0
 30
0.0
  9
$PUCSORGLEFT
 10
0.0
 20
0.0
 30
0.0
  9
$PUCSORGRIGHT
 10
0.0
 20
0.0
 30
0.0
  9
$PUCSORGFRONT
 10
0.0
 20
0.0
 30
0.0
  9
$PUCSORGBACK
 10
0.0
 20
0.0
 30
0.0
  9
$USERI1
 70
     0
  9
$USERI2
 70
     0
  9
$USERI3
 70
     0
  9
$USERI4
 70
     0
  9
$USERI5
 70
     0
  9
$USERR1
 40
0.0
  9
$USERR2
 40
0.0
  9
$USERR3
 40
0.0
  9
$USERR4
 40
0.0
  9
$USERR5
 40
0.0
  9
$WORLDVIEW
 70
     1
  9
$SHADEDGE
 70
     3
  9
$SHADEDIF
 70
    70
  9
$TILEMODE
 70
     1
  9
$MAXACTVP
 70
    64
  9
$PINSBASE
 10
0.0
 20
0.0
 30
0.0
  9
$PLIMCHECK
 70
     0
  9
$PEXTMIN
 10
1.000000000000000E+20
 20
1.000000000000000E+20
 30
1.000000000000000E+20
  9
$PEXTMAX
 10
-1.000000000000000E+20
 20
-1.000000000000000E+20
 30
-1.000000000000000E+20
  9
$PLIMMIN
 10
-3.17498779296875
 20
-3.174999952316284
  9
$PLIMMAX
 10
293.4970092773438
 20
206.692492723465
  9
$UNITMODE
 70
     0
  9
$VISRETAIN
 70
     1
  9
$PLINEGEN
 70
     0
  9
$PSLTSCALE
 70
     1
  9
$TREEDEPTH
 70
  3020
  9
$CMLSTYLE
  2
Standard
  9
$CMLJUST
 70
     0
  9
$CMLSCALE
 40
20.0
  9
$PROXYGRAPHICS
 70
     1
  9
$MEASUREMENT
 70
     1
  9
$CELWEIGHT
370
    -1
  9
$ENDCAPS
280
     0
  9
$JOINSTYLE
280
     0
  9
$LWDISPLAY
290
     0
  9
$INSUNITS
 70
     4
  9
$HYPERLINKBASE
  1

  9
$STYLESHEET
  1
monochrome.ctb
  9
$XEDIT
290
     1
  9
$CEPSNTYPE
380
     0
  9
$PSTYLEMODE
290
     1
  9
$FINGERPRINTGUID
  2
{BDEC147F-4071-4F44-A18F-230322B40A67}
  9
$VERSIONGUID
  2
{C9EFF55D-C0E3-4FEE-9557-DDAB50DCCCC9}
  9
$EXTNAMES
290
     1
  9
$PSVPSCALE
 40
0.0
  9
$OLESTARTUP
290
     0
  0
ENDSEC
  0
SECTION
  2
CLASSES
  0
CLASS
  1
ACDBDICTIONARYWDFLT
  2
AcDbDictionaryWithDefault
  3
ObjectDBX Classes
 90
        0
280
     0
281
     0
  0
CLASS
  1
ACDBPLACEHOLDER
  2
AcDbPlaceHolder
  3
ObjectDBX Classes
 90
        0
280
     0
281
     0
  0
CLASS
  1
LAYOUT
  2
AcDbLayout
  3
ObjectDBX Classes
 90
        0
280
     0
281
     0
  0
CLASS
  1
AMGSETTINGSOBJ
  2
AmgSettingsObj
  3
"AcadM|Product Description: AutoCAD Mechanical|Company: Autodesk"
 90
        0
280
     0
281
     0
  0
CLASS
  1
ACME_DOCUMENT
  2
AcMeDbDoc
  3
AcMeServices
 90
        0
280
     0
281
     0
  0
CLASS
  1
ACMESCOPE
  2
AcMeScope
  3
AcMeServices
 90
        0
280
     0
281
     0
  0
CLASS
  1
ACMECOMMANDHISTORY
  2
AcMeCommandHistory
  3
AcMeServices
 90
        0
280
     0
281
     0
  0
CLASS
  1
DICTIONARYVAR
  2
AcDbDictionaryVar
  3
ObjectDBX Classes
 90
        0
280
     0
281
     0
  0
CLASS
  1
ACIMSYSVARMAN
  2
AcImSysVarManager
  3
AcMeServices
 90
        0
280
     0
281
     0
  0
CLASS
  1
ACIMREALSYSVAR
  2
AcImRealSysVar
  3
AcMeServices
 90
        0
280
     0
281
     0
  0
CLASS
  1
ACIMINTSYSVAR
  2
AcImIntSysVar
  3
AcMeServices
 90
        0
280
     0
281
     0
  0
CLASS
  1
ACMEDRAWINGMAN
  2
AcMeDrawingMan
  3
AcMeServices
 90
        0
280
     0
281
     0
  0
CLASS
  1
ACMEVIEW
  2
AcMeView
  3
AcMeServices
 90
        0
280
     0
281
     0
  0
CLASS
  1
ACDBENTITYCACHE
  2
AcMeEntityCache
  3
AcMeServices
 90
        0
280
     0
281
     0
  0
CLASS
  1
GSMANAGER
  2
AcMeGSManager
  3
AcMeServices
 90
        0
280
     0
281
     0
  0
CLASS
  1
AMDTINTERNALREACTOR
  2
AmdtInternalReactor
  3
AcMeServices
 90
        0
280
     0
281
     0
  0
CLASS
  1
ACMESTATEMGR
  2
AcMeStateMgr
  3
AcMeServices
 90
        0
280
     0
281
     0
  0
CLASS
  1
ACGREFMASTER
  2
AcGrefMaster
  3
AcAttribServices
 90
        0
280
     0
281
     0
  0
CLASS
  1
ACME_DATABASE
  2
AcMeDbDatabase
  3
AcMeServices
 90
        0
280
     0
281
     0
  0
CLASS
  1
ACRFINSADJUSTERMGR
  2
AcRfInsAdjusterMgr
  3
AcMeServices
 90
        0
280
     0
281
     0
  0
CLASS
  1
ACGREFACADMASTER
  2
AcGrefacadMaster
  3
AcGrefServices
 90
        0
280
     0
281
     0
  0
CLASS
  1
AMIMASTER
  2
AmiMaster
  3
AmiServices
 90
        0
280
     0
281
     0
  0
CLASS
  1
ACMDATADICTIONARY
  2
AcmDataDictionary
  3
"AcmSymBB|Product Description: AutoCAD Mechanical|Company: Autodesk"
 90
        0
280
     0
281
     0
  0
CLASS
  1
ACMDATAENTRYBLOCK
  2
AcmDataEntryBlock
  3
"AcmSymBB|Product Description: AutoCAD Mechanical|Company: Autodesk"
 90
        0
280
     0
281
     0
  0
CLASS
  1
ACIMSTRSYSVAR
  2
AcImStrSysVar
  3
AcMeServices
 90
        0
280
     0
281
     0
  0
CLASS
  1
ACMSTANDARDISO
  2
AcmStandardISO
  3
"Amdt_StdImp|Product Description: AutoCAD Mechanical|Company: Autodesk"
 90
        0
280
     0
281
     0
  0
CLASS
  1
AMGOBJPROPCFG
  2
AmgObjPropCfg
  3
"AmgLay|Product Description: AutoCAD Mechanical|Company: Autodesk"
 90
        1
280
     0
281
     0
  0
CLASS
  1
AMDTEDGESTANDARDISO
  2
AmdtEdgeStdISO
  3
"Amdt_StdImp|Product Description: AutoCAD Mechanical|Company: Autodesk"
 90
        0
280
     0
281
     0
  0
CLASS
  1
ACMSURFSTANDARDISO
  2
AcmSurfTextStdISO
  3
"Amdt_StdImp|Product Description: AutoCAD Mechanical|Company: Autodesk"
 90
        0
280
     0
281
     0
  0
CLASS
  1
ACMFCFSTANDARDISO
  2
AcmFCFStdISO
  3
"Amdt_StdImp|Product Description: AutoCAD Mechanical|Company: Autodesk"
 90
        0
280
     0
281
     0
  0
CLASS
  1
ACMWELDSTANDARDISO
  2
AcmWeldingStdISO
  3
"Amdt_StdImp|Product Description: AutoCAD Mechanical|Company: Autodesk"
 90
        0
280
     0
281
     0
  0
CLASS
  1
ACMIDSTANDARDISO
  2
AcmIdStdISO
  3
"Amdt_StdImp|Product Description: AutoCAD Mechanical|Company: Autodesk"
 90
        0
280
     0
281
     0
  0
CLASS
  1
ACMDATUMSTANDARDISO
  2
AcmDatumStdISO
  3
"Amdt_StdImp|Product Description: AutoCAD Mechanical|Company: Autodesk"
 90
        0
280
     0
281
     0
  0
CLASS
  1
ACMBOMSTANDARDISO
  2
AcmBOMStdISO
  3
"Amdt_StdImp|Product Description: AutoCAD Mechanical|Company: Autodesk"
 90
        0
280
     0
281
     0
  0
CLASS
  1
ACMDETAILSTANDARDISO
  2
AmdtDetailSymStdISO
  3
"Amdt_StdImp|Product Description: AutoCAD Mechanical|Company: Autodesk"
 90
        0
280
     0
281
     0
  0
CLASS
  1
ACMSECTIONSTANDARDISO
  2
AmdtSectionSymStdISO
  3
"Amdt_StdImp|Product Description: AutoCAD Mechanical|Company: Autodesk"
 90
        0
280
     0
281
     0
  0
CLASS
  1
ACMCENTERLINESTANDARDISO
  2
AmdtCenterLineStdISO
  3
"Amdt_StdImp|Product Description: AutoCAD Mechanical|Company: Autodesk"
 90
        0
280
     0
281
     0
  0
CLASS
  1
ACAMGLAYSTD
  2
AcAmgLayStd
  3
"AmgLay|Product Description: AutoCAD Mechanical|Company: Autodesk"
 90
        0
280
     0
281
     0
  0
CLASS
  1
ACAMGDIMSTD
  2
AcAmgDimStd
  3
"AmgDim|Product Description: AutoCAD Mechanical|Company: Autodesk"
 90
        0
280
     0
281
     0
  0
CLASS
  1
ACAMGTITLESTD
  2
AcAmgTitleStd
  3
"AmgTitle|Product Description: AutoCAD Mechanical|Company: Autodesk"
 90
        0
280
     0
281
     0
  0
CLASS
  1
ACAMGFILTERDAT
  2
AcAmgFilterDat
  3
"AcadM|Product Description: AutoCAD Mechanical|Company: Autodesk"
 90
        0
280
     0
281
     0
  0
CLASS
  1
LAYER_INDEX
  2
AcDbLayerIndex
  3
ObjectDBX Classes
 90
    32768
280
     0
281
     0
  0
CLASS
  1
IDBUFFER
  2
AcDbIdBuffer
  3
ObjectDBX Classes
 90
    32768
280
     0
281
     0
  0
CLASS
  1
PLOTSETTINGS
  2
AcDbPlotSettings
  3
ObjectDBX Classes
 90
    32768
280
     0
281
     0
  0
CLASS
  1
AMDTFORMULAUPDATEDISPATCHER
  2
AmdtFormulaUpdateDispatcher
  3
AcMeServices
 90
        0
280
     0
281
     0
  0
CLASS
  1
ACMSTANDARDANSI
  2
AcmStandardANSI
  3
"Amdt_StdImp|Product Description: AutoCAD Mechanical|Company: Autodesk"
 90
        0
280
     0
281
     0
  0
CLASS
  1
ACMSURFSTANDARDANSI
  2
AcmSurfTextStdANSI
  3
"Amdt_StdImp|Product Description: AutoCAD Mechanical|Company: Autodesk"
 90
        0
280
     0
281
     0
  0
CLASS
  1
ACMFCFSTANDARDANSI
  2
AcmFCFStdANSI
  3
"Amdt_StdImp|Product Description: AutoCAD Mechanical|Company: Autodesk"
 90
        0
280
     0
281
     0
  0
CLASS
  1
ACMWELDSTANDARDANSI
  2
AcmWeldingStdANSI
  3
"Amdt_StdImp|Product Description: AutoCAD Mechanical|Company: Autodesk"
 90
        0
280
     0
281
     0
  0
CLASS
  1
ACMIDSTANDARDANSI
  2
AcmIdStdANSI
  3
"Amdt_StdImp|Product Description: AutoCAD Mechanical|Company: Autodesk"
 90
        0
280
     0
281
     0
  0
CLASS
  1
ACMDATUMSTANDARDANSI
  2
AcmDatumStdANSI
  3
"Amdt_StdImp|Product Description: AutoCAD Mechanical|Company: Autodesk"
 90
        0
280
     0
281
     0
  0
CLASS
  1
ACMBOMSTANDARDANSI
  2
AcmBOMStdANSI
  3
"Amdt_StdImp|Product Description: AutoCAD Mechanical|Company: Autodesk"
 90
        0
280
     0
281
     0
  0
CLASS
  1
ACMDETAILSTANDARDANSI
  2
AmdtDetailSymStdANSI
  3
"Amdt_StdImp|Product Description: AutoCAD Mechanical|Company: Autodesk"
 90
        0
280
     0
281
     0
  0
CLASS
  1
ACMSECTIONSTANDARDANSI
  2
AmdtSectionSymStdANSI
  3
"Amdt_StdImp|Product Description: AutoCAD Mechanical|Company: Autodesk"
 90
        0
280
     0
281
     0
  0
CLASS
  1
ACMCENTERLINESTANDARDANSI
  2
AmdtCenterLineStdANSI
  3
"Amdt_StdImp|Product Description: AutoCAD Mechanical|Company: Autodesk"
 90
        0
280
     0
281
     0
  0
CLASS
  1
ACMBOM
  2
AcmBom
  3
"AcmSymBB|Product Description: AutoCAD Mechanical|Company: Autodesk"
 90
        0
280
     0
281
     0
  0
CLASS
  1
ACMDATAENTRYPART
  2
AcmDataEntryPart
  3
"AcmSymBB|Product Description: AutoCAD Mechanical|Company: Autodesk"
 90
    32768
280
     0
281
     0
  0
CLASS
  1
ACMPARTREF
  2
AcmPartRef
  3
"AcmSymBB|Product Description: AutoCAD Mechanical|Company: Autodesk"
 90
    35839
280
     0
281
     1
  0
CLASS
  1
ACDBCIRCARCRES
  2
AcDbCircArcRes
  3
AcGrefServices
 90
        0
280
     0
281
     0
  0
CLASS
  1
ACMBOMROW
  2
AcmBomRow
  3
"AcmSymBB|Product Description: AutoCAD Mechanical|Company: Autodesk"
 90
    32768
280
     0
281
     0
  0
CLASS
  1
ACMBALLOON
  2
AcmBalloon
  3
"AcmSymBB|Product Description: AutoCAD Mechanical|Company: Autodesk"
 90
    35839
280
     0
281
     1
  0
CLASS
  1
AMDTNOTE
  2
AmdtNote
  3
"AcmSymBB|Product Description: AutoCAD Mechanical|Company: Autodesk"
 90
     3071
280
     0
281
     1
  0
CLASS
  1
STDPART2D
  2
AmgStdPart
  3
"g3vace|Class: AmgStdPart|Product Description: AutoCAD Mechanical|Company: Autodesk"
 90
    35839
280
     0
281
     1
  0
CLASS
  1
ACDBSTDPARTRES_LINE
  2
AcDbStdPartRes_Line
  3
"g3vace|Class: AcDbStdPartRes_Line|Product Description: AutoCAD Mechanical|Company: Autodesk"
 90
    32768
280
     0
281
     0
  0
CLASS
  1
ACMDATAENTRY
  2
AcmDataEntry
  3
"AcmSymBB|Product Description: AutoCAD Mechanical|Company: Autodesk"
 90
        0
280
     0
281
     0
  0
CLASS
  1
ACDBOPPOLYLINERES
  2
AcDbOpPolylineRes
  3
AcGrefServices
 90
    32768
280
     0
281
     0
  0
CLASS
  1
ACMPARTLIST
  2
AcmPartList
  3
"AcmSymBB|Product Description: AutoCAD Mechanical|Company: Autodesk"
 90
    35839
280
     0
281
     1
  0
CLASS
  1
ACDBLINERES
  2
AcDbLineRes
  3
AcGrefServices
 90
    32768
280
     0
281
     0
  0
CLASS
  1
ACRFINSADJ
  2
AcRfInsAdjuster
  3
AcMeServices
 90
    32768
280
     0
281
     0
  0
CLASS
  1
AM_DRAWING_MGR
  2
AcDmDwgMgr
  3
AcMechDwgViewMgmt
 90
        0
280
     0
281
     0
  0
CLASS
  1
AM_DWG_DOCUMENT
  2
AcDmDwgDocument
  3
AcMechDwgViewMgmt
 90
        0
280
     0
281
     0
  0
CLASS
  1
AM_DWG_SHEET
  2
AcDmSheet
  3
AcMechDwgViewMgmt
 90
        0
280
     0
281
     0
  0
CLASS
  1
AM_VIEWDIMPARMAP
  2
AcDmViewDimParMap
  3
AcMechDwgViewMgmt
 90
        0
280
     0
281
     0
  0
CLASS
  1
AM_DWGMGR_NAME
  2
AcDmDwgMgrName
  3
AcMechDwgViewMgmt
 90
        0
280
     0
281
     0
  0
CLASS
  1
AMDTMENUSTATEMGR
  2
AmdtMenuStateMgr
  3
McadcomServices
 90
        0
280
     0
281
     0
  0
CLASS
  1
AMDTMCOMMENUSTATE
  2
AmdtMcomMenuState
  3
McadcomServices
 90
        0
280
     0
281
     0
  0
CLASS
  1
ASAPP
  2
AcAsAppObject
  3
AutoSurfServices
 90
        0
280
     0
281
     0
  0
CLASS
  1
IM_STATIC_MAN
  2
AcImStaticVarManager
  3
AcMeServices
 90
        0
280
     0
281
     0
  0
CLASS
  1
ACIMDBLSTATICVAR
  2
AcImDblStaticVar
  3
AcMeServices
 90
        0
280
     0
281
     0
  0
CLASS
  1
ACIMSTRSTATICVAR
  2
AcImStrStaticVar
  3
AcMeServices
 90
        0
280
     0
281
     0
  0
CLASS
  1
ACIMINTSTATICVAR
  2
AcImIntStaticVar
  3
AcMeServices
 90
        0
280
     0
281
     0
  0
CLASS
  1
ACASGREFMASTER
  2
AcAsGrefMaster
  3
AutoSurfResolverServices
 90
        0
280
     0
281
     0
  0
CLASS
  1
ACADGREFMODULE
  2
AcAdGrefModule
  3
AdGrefServices
 90
        0
280
     0
281
     0
  0
CLASS
  1
AMDTMAPISURFMOUDULE
  2
AmdtMApiSurfModule
  3
MApiSurfServices
 90
        0
280
     0
281
     0
  0
CLASS
  1
MAPIAMMOUDLE
  2
MApiAmModule
  3
MApiAmServices
 90
        0
280
     0
281
     0
  0
CLASS
  1
AMDTADMENUSTATE
  2
AmdtAdMenuState
  3
DesignerServices
 90
        0
280
     0
281
     0
  0
CLASS
  1
ADAPPL
  2
AcAdAppl
  3
DesignerServices
 90
        0
280
     0
281
     0
  0
CLASS
  1
DEPMGR
  2
AcAdDepMgr
  3
DesignerServices
 90
        0
280
     0
281
     0
  0
CLASS
  1
PARAMMGR
  2
AcAdParamMgr
  3
DesignerServices
 90
        0
280
     0
281
     0
  0
CLASS
  1
PARAMSCOPE
  2
AcAdParamScope
  3
DesignerServices
 90
        0
280
     0
281
     0
  0
CLASS
  1
NAMEDAPPL
  2
AcAdNamedAppl
  3
DesignerServices
 90
        0
280
     0
281
     0
  0
CLASS
  1
ADHNTMPLT
  2
AdHoleNoteTemplateMgr
  3
DesignerServices
 90
    32768
280
     0
281
     0
  0
CLASS
  1
AM_HNTEMPLATE_MGR_NAME
  2
AdHoleNoteTemplateMgrName
  3
DesignerServices
 90
    32768
280
     0
281
     0
  0
CLASS
  1
AMDTDMMENUSTATE
  2
AmdtDmMenuState
  3
AcMechDwgViewMgmt
 90
        0
280
     0
281
     0
  0
CLASS
  1
MAPIADMODULE
  2
MApiAdModule
  3
MApiAdServices
 90
        0
280
     0
281
     0
  0
CLASS
  1
AMDTAMMENUSTATE
  2
AmdtAmMenuState
  3
DesignerAssemblies
 90
        0
280
     0
281
     0
  0
CLASS
  1
ACAMPROJECT
  2
AcAmProject
  3
DesignerAssemblies
 90
        0
280
     0
281
     0
  0
CLASS
  1
ACAMGRCOMPDEF
  2
AcAmGrCompDef
  3
DesignerAssemblies
 90
        0
280
     0
281
     0
  0
CLASS
  1
ACCMCONTEXT
  2
AcCmContext
  3
DesignerAssemblies
 90
        0
280
     0
281
     0
  0
CLASS
  1
ACAMCOMPDEF
  2
AcAmCompDef
  3
DesignerAssemblies
 90
        0
280
     0
281
     0
  0
CLASS
  1
ACAMCOMPDEFMGR
  2
AcAmCompDefMgr
  3
DesignerAssemblies
 90
        0
280
     0
281
     0
  0
CLASS
  1
AMCONTEXTMGR
  2
AcAmContextMgr
  3
DesignerAssemblies
 90
        0
280
     0
281
     0
  0
CLASS
  1
ACAMCONTEXTMODELER
  2
AcAmContextModeler
  3
DesignerAssemblies
 90
        0
280
     0
281
     0
  0
CLASS
  1
CATALOGSTATE
  2
AcAmCatalogState
  3
DesignerAssemblies
 90
        0
280
     0
281
     0
  0
CLASS
  1
ACAMGRCOMPDEFSET
  2
AcAmGrCompDefSet
  3
DesignerAssemblies
 90
        0
280
     0
281
     0
  0
CLASS
  1
AMDTBROWSERDBTAB
  2
AmdtBrowserDbTab
  3
McadcomServices
 90
        0
280
     0
281
     0
  0
CLASS
  1
CBROWSERAPPOBJECT
  2
CBrowserAppObject
  3
McadcomServices
 90
        0
280
     0
281
     0
  0
CLASS
  1
DM_PLACEHOLDER
  2
AcDmSelsetPlaceholder
  3
AcMechDwgViewMgmt
 90
        0
280
     0
281
     0
  0
CLASS
  1
ACMPICKOBJ
  2
AcmPickEnt
  3
"AcmSymBB|Product Description: AutoCAD Mechanical|Company: Autodesk"
 90
    32768
280
     0
281
     1
  0
CLASS
  1
ACMNOTESTANDARDISO
  2
AmdtNoteStdISO
  3
"Amdt_StdImp|Product Description: AutoCAD Mechanical|Company: Autodesk"
 90
        0
280
     0
281
     0
  0
CLASS
  1
ACMNOTESTANDARDANSI
  2
AmdtNoteStdANSI
  3
"Amdt_StdImp|Product Description: AutoCAD Mechanical|Company: Autodesk"
 90
        0
280
     0
281
     0
  0
CLASS
  1
ACMTHREADLINESTANDARDISO
  2
AmdtThreadLineStdISO
  3
"Amdt_StdImp|Product Description: AutoCAD Mechanical|Company: Autodesk"
 90
        0
280
     0
281
     0
  0
CLASS
  1
ACMTHREADLINESTANDARDANSI
  2
AmdtThreadLineStdANSI
  3
"Amdt_StdImp|Product Description: AutoCAD Mechanical|Company: Autodesk"
 90
        0
280
     0
281
     0
  0
CLASS
  1
TABLESTYLE
  2
AcDbTableStyle
  3
ObjectDBX Classes
 90
     4095
280
     0
281
     0
  0
CLASS
  1
SORTENTSTABLE
  2
AcDbSortentsTable
  3
ObjectDBX Classes
 90
        0
280
     0
281
     0
  0
CLASS
  1
MATERIAL
  2
AcDbMaterial
  3
ObjectDBX Classes
 90
     1024
280
     0
281
     0
  0
CLASS
  1
VISUALSTYLE
  2
AcDbVisualStyle
  3
ObjectDBX Classes
 90
     4095
280
     0
281
     0
  0
CLASS
  1
ACRFATTGENMGR
  2
AcRfAttGeneralMgr
  3
AcAttribServices
 90
        0
280
     0
281
     0
  0
CLASS
  1
ACRFOBJATTMGR
  2
AcRfObjAttGroupMgr
  3
AcAttribServices
 90
        0
280
     0
281
     0
  0
CLASS
  1
ACRFMCADAPIATTHOLDER
  2
AcRfMCADAPIAttHolder
  3
AcAttribServices
 90
        0
280
     0
281
     0
  0
CLASS
  1
AMDTSYSATTR
  2
AmdtSystemAttribute
  3
AcAttribServices
 90
        0
280
     0
281
     0
  0
CLASS
  1
ACMTAPERSTANDARDISO
  2
AcmTaperStdISO
  3
"Amdt_StdImp|Product Description: AutoCAD Mechanical|Company: Autodesk"
 90
        0
280
     0
281
     0
  0
CLASS
  1
CAMSSTRUCTBTNSTATE
  2
StructBtnState
  3
L"DesignerAssemblies"
 90
        0
280
     0
281
     0
  0
CLASS
  1
DIMASSOC
  2
AcDbDimAssoc
  3
"AcDbDimAssoc|Product Desc:     AcDim ARX App For Dimension|Company:          Autodesk, Inc.|WEB Address:      www.autodesk.com"
 90
    32768
280
     0
281
     0
  0
CLASS
  1
AMDTNOTETEMPLATEDB
  2
AmdtNoteTemplateDB
  3
AMDT_STDIMP_MODULE_NAME
 90
        0
280
     0
281
     0
  0
CLASS
  1
ACMTAPERSTANDARDANSI
  2
AcmTaperStdANSI
  3
"Amdt_StdImp|Product Description: AutoCAD Mechanical|Company: Autodesk"
 90
        0
280
     0
281
     0
  0
CLASS
  1
ACAMGHOLECHARTSTDANSI
  2
AcAmgHoleChartStdANSI
  3
ACMSYMBB_MODULE_NAME
 90
        0
280
     0
281
     0
  0
ENDSEC
  0
SECTION
  2
TABLES
  0
TABLE
  2
VPORT
  5
8
330
0
100
AcDbSymbolTable
 70
     1
  0
VPORT
  5
B0EC
330
8
100
AcDbSymbolTableRecord
100
AcDbViewportTableRecord
  2
*Active
 70
     0
 10
0.0
 20
0.0
 11
1.0
 21
1.0
 12
210.0000010797634
 22
148.5000007366652
 13
0.0
 23
0.0
 14
2.5
 24
2.5
 15
10.0
 25
10.0
 16
0.0
 26
0.0
 36
1.0
 17
0.0
 27
0.0
 37
0.0
 40
328.2778794433635
 41
1.285867237687366
 42
50.0
 43
-1370.695619172058
 44
-1370.695619172058
 50
0.0
 51
0.0
 71
     0
 72
   100
 73
     1
 74
     3
 75
     0
 76
     0
 77
     0
 78
     0
281
     0
 65
     0
110
0.0
120
0.0
130
0.0
111
1.0
121
0.0
131
0.0
112
0.0
122
1.0
132
0.0
 79
     0
146
0.0
  0
ENDTAB
  0
TABLE
  2
LTYPE
  5
5
330
0
100
AcDbSymbolTable
 70
    33
  0
LTYPE
  5
14
330
5
100
AcDbSymbolTableRecord
100
AcDbLinetypeTableRecord
  2
ByBlock
 70
     0
  3

 72
    65
 73
     0
 40
0.0
  0
LTYPE
  5
15
330
5
100
AcDbSymbolTableRecord
100
AcDbLinetypeTableRecord
  2
ByLayer
 70
     0
  3

 72
    65
 73
     0
 40
0.0
  0
LTYPE
  5
16
330
5
100
AcDbSymbolTableRecord
100
AcDbLinetypeTableRecord
  2
Continuous
 70
     0
  3
Solid line
 72
    65
 73
     0
 40
0.0
  0
LTYPE
  5
4F
330
5
100
AcDbSymbolTableRecord
100
AcDbLinetypeTableRecord
  2
AM_ISO02W050
 70
     0
  3
__ __ __ __ __ __ __ __ __ __ __ __ __ __ __
 72
    65
 73
     2
 40
7.5
 49
6.0
 74
     0
 49
-1.5
 74
     0
  0
LTYPE
  5
52
330
5
100
AcDbSymbolTableRecord
100
AcDbLinetypeTableRecord
  2
Amconstr
 70
     0
  3
_______________________
 72
    65
 73
     2
 40
9999.0
 49
9999.0
 74
     0
 49
0.0
 74
     0
  0
LTYPE
  5
64
330
5
100
AcDbSymbolTableRecord
100
AcDbLinetypeTableRecord
  2
ACISOWELD
 70
     0
  3
_ _ _ _ _
 72
    65
 73
     2
 40
2.0
 49
2.0
 74
     0
 49
-1.0
 74
     0
  0
LTYPE
  5
65
330
5
100
AcDbSymbolTableRecord
100
AcDbLinetypeTableRecord
  2
ACISOTGB
 70
     0
  3
__ . . __ . .
 72
    65
 73
     6
 40
9.0
 49
4.0
 74
     0
 49
-1.0
 74
     0
 49
1.0
 74
     0
 49
-1.0
 74
     0
 49
1.0
 74
     0
 49
-1.0
 74
     0
  0
LTYPE
  5
66
330
5
100
AcDbSymbolTableRecord
100
AcDbLinetypeTableRecord
  2
ACISOTGL
 70
     0
  3
_ _ _ _ _
 72
    65
 73
     2
 40
3.0
 49
2.0
 74
     0
 49
-1.0
 74
     0
  0
LTYPE
  5
69
330
5
100
AcDbSymbolTableRecord
100
AcDbLinetypeTableRecord
  2
CENTER
 70
     0
  3
__ . __
 72
    65
 73
     4
 40
7.0
 49
4.0
 74
     0
 49
-1.0
 74
     0
 49
1.0
 74
     0
 49
-1.0
 74
     0
  0
LTYPE
  5
A6E
330
5
100
AcDbSymbolTableRecord
100
AcDbLinetypeTableRecord
  2
PHANTOM2
 70
     0
  3
Phantom (.5x) ___ _ _ ___ _ _ ___ _ _ ___ _ _
 72
    65
 73
     6
 40
31.75
 49
15.875
 74
     0
 49
-3.174999999999999
 74
     0
 49
3.174999999999999
 74
     0
 49
-3.174999999999999
 74
     0
 49
3.174999999999999
 74
     0
 49
-3.174999999999999
 74
     0
  0
LTYPE
  5
4DED
330
5
100
AcDbSymbolTableRecord
100
AcDbLinetypeTableRecord
  2
中線
 70
     0
  3
___________________
 72
    65
 73
     2
 40
2.0
 49
1.0
 74
     0
 49
1.0
 74
     0
  0
LTYPE
  5
4DF6
330
5
100
AcDbSymbolTableRecord
100
AcDbLinetypeTableRecord
  2
細線
 70
     0
  3
___________________
 72
    65
 73
     2
 40
2.0
 49
1.0
 74
     0
 49
1.0
 74
     0
  0
LTYPE
  5
4DF7
330
5
100
AcDbSymbolTableRecord
100
AcDbLinetypeTableRecord
  2
太線
 70
     0
  3
___________________
 72
    65
 73
     2
 40
2.0
 49
1.0
 74
     0
 49
1.0
 74
     0
  0
LTYPE
  5
4EA7
330
5
100
AcDbSymbolTableRecord
100
AcDbLinetypeTableRecord
  2
文字
 70
     0
  3
_________________
 72
    65
 73
     2
 40
2.0
 49
1.0
 74
     0
 49
1.0
 74
     0
  0
LTYPE
  5
4EA9
330
5
100
AcDbSymbolTableRecord
100
AcDbLinetypeTableRecord
  2
寸法線
 70
     0
  3
________________
 72
    65
 73
     2
 40
2.0
 49
1.0
 74
     0
 49
1.0
 74
     0
  0
LTYPE
  5
4F12
330
5
100
AcDbSymbolTableRecord
100
AcDbLinetypeTableRecord
  2
ハッチング
 70
     0
  3
_________________
 72
    65
 73
     2
 40
2.0
 49
1.0
 74
     0
 49
1.0
 74
     0
  0
LTYPE
  5
5180
330
5
100
AcDbSymbolTableRecord
100
AcDbLinetypeTableRecord
  2
陰線1
 70
     0
  3
__ __ __ __
 72
    65
 73
     2
 40
4.0
 49
2.2
 74
     0
 49
-1.8
 74
     0
  0
LTYPE
  5
5182
330
5
100
AcDbSymbolTableRecord
100
AcDbLinetypeTableRecord
  2
切断線
 70
     0
  3
/\/-/\/-/\/-/\/-/\/-/\/
 72
    65
 73
     2
 40
11.0001
 49
0.0001
 74
     4
 75
   135
340
56
 46
0.04
 50
0.0
 44
0.0
 45
0.0
 49
-11.0
 74
     0
  0
LTYPE
  5
5183
330
5
100
AcDbSymbolTableRecord
100
AcDbLinetypeTableRecord
  2
想像線1
 70
     0
  3
__ __ __ _____ __ __ ____
 72
    65
 73
     6
 40
14.5
 49
6.0
 74
     0
 49
-1.5
 74
     0
 49
2.0
 74
     0
 49
-1.5
 74
     0
 49
2.0
 74
     0
 49
-1.5
 74
     0
  0
LTYPE
  5
5185
330
5
100
AcDbSymbolTableRecord
100
AcDbLinetypeTableRecord
  2
中心線1
 70
     0
  3
___ _ ___ _ ___
 72
    65
 73
     4
 40
18.0
 49
12.0
 74
     0
 49
-2.0
 74
     0
 49
2.0
 74
     0
 49
-2.0
 74
     0
  0
LTYPE
  5
5188
330
5
100
AcDbSymbolTableRecord
100
AcDbLinetypeTableRecord
  2
補助線
 70
     0
  3
______________
 72
    65
 73
     2
 40
2.0
 49
1.0
 74
     0
 49
1.0
 74
     0
  0
LTYPE
  5
6427
330
5
100
AcDbSymbolTableRecord
100
AcDbLinetypeTableRecord
  2
HIDDEN
 70
     0
  3
Hidden __ __ __ __ __ __ __ __ __ __ __ __ __ _
 72
    65
 73
     2
 40
0.375
 49
0.25
 74
     0
 49
-0.125
 74
     0
  0
LTYPE
  5
AC81
330
5
100
AcDbSymbolTableRecord
100
AcDbLinetypeTableRecord
  2
破断線
 70
     0
  3
/\/-/\/-/\/-/\/-/\/-/\/
 72
    65
 73
     2
 40
0.4401
 49
0.0001
 74
     4
 75
   136
340
AC80
 46
0.0016
 50
0.0
 44
0.0
 45
0.0
 49
-0.4400000000000001
 74
     0
  0
LTYPE
  5
AC9E
330
5
100
AcDbSymbolTableRecord
100
AcDbLinetypeTableRecord
  2
Amzigzag
 70
     0
  3
/\/-/\/-/\/-/\/-/\/-/\/
 72
    65
 73
     2
 40
11.0001
 49
0.0001
 74
     4
 75
   135
340
56
 46
0.04
 50
0.0
 44
0.0
 45
0.0
 49
-11.0
 74
     0
  0
LTYPE
  5
AF0F
330
5
100
AcDbSymbolTableRecord
100
AcDbLinetypeTableRecord
  2
genzigzag
 70
     0
  3
/\/-/\/-/\/-/\/-/\/-/\/
 72
    65
 73
     2
 40
12.0001
 49
0.0001
 74
     4
 75
   135
340
AC80
 46
2.0
 50
0.0
 44
0.0
 45
0.0
 49
-12.0
 74
     0
  0
LTYPE
  5
AF95
330
5
100
AcDbSymbolTableRecord
100
AcDbLinetypeTableRecord
  2
AM_ISO08W050
 70
     0
  3
____ . ____ . ____ . ____ . ____ . ____ . ____
 72
    65
 73
     4
 40
18.0
 49
12.0
 74
     0
 49
-1.5
 74
     0
 49
3.0
 74
     0
 49
-1.5
 74
     0
  0
LTYPE
  5
AF96
330
5
100
AcDbSymbolTableRecord
100
AcDbLinetypeTableRecord
  2
AM_ISO09W050
 70
     0
  3
_____ . . _____ . . _____ . . ____ .. ____
 72
    65
 73
     6
 40
22.5
 49
12.0
 74
     0
 49
-1.5
 74
     0
 49
3.0
 74
     0
 49
-1.5
 74
     0
 49
3.0
 74
     0
 49
-1.5
 74
     0
  0
LTYPE
  5
AF97
330
5
100
AcDbSymbolTableRecord
100
AcDbLinetypeTableRecord
  2
AM_ISO08W050x2
 70
     0
  3
__ . __ . __ . __ . __ . __
 72
    65
 73
     4
 40
9.0
 49
6.0
 74
     0
 49
-0.75
 74
     0
 49
1.5
 74
     0
 49
-0.75
 74
     0
  0
LTYPE
  5
AF98
330
5
100
AcDbSymbolTableRecord
100
AcDbLinetypeTableRecord
  2
AM_ISO02W050x2
 70
     0
  3
 _ _ _ _ _ _ _ _ _ _ _ _
 72
    65
 73
     2
 40
3.75
 49
3.0
 74
     0
 49
-0.75
 74
     0
  0
LTYPE
  5
B6AC
330
5
100
AcDbSymbolTableRecord
100
AcDbLinetypeTableRecord
  2
DASHED
 70
     0
  3
__ __ __ __ __ __ __ __ __ __ __ __ __ __ __
 72
    65
 73
     2
 40
3.5
 49
2.0
 74
     0
 49
-1.5
 74
     0
  0
LTYPE
  5
B6AD
330
5
100
AcDbSymbolTableRecord
100
AcDbLinetypeTableRecord
  2
CENTER2
 70
     0
  3
Center (.5x) ___ _ ___ _ ___ _ ___ _ ___ _ ___
 72
    65
 73
     4
 40
1.125
 49
0.75
 74
     0
 49
-0.125
 74
     0
 49
0.125
 74
     0
 49
-0.125
 74
     0
  0
LTYPE
  5
B6AE
330
5
100
AcDbSymbolTableRecord
100
AcDbLinetypeTableRecord
  2
HIDDEN2
 70
     0
  3
Hidden (.5x) _ _ _ _ _ _ _ _ _ _ _ _ _ _ _ _ _
 72
    65
 73
     2
 40
0.1875
 49
0.125
 74
     0
 49
-0.0625
 74
     0
  0
LTYPE
  5
B6AF
330
5
100
AcDbSymbolTableRecord
100
AcDbLinetypeTableRecord
  2
Amzigzag2
 70
     0
  3
/\/-/\/-/\/-/\/-/\/-/\/
 72
    65
 73
     2
 40
0.4401
 49
0.0001
 74
     4
 75
   136
340
AC80
 46
0.0016
 50
0.0
 44
0.0
 45
0.0
 49
-0.4400000000000001
 74
     0
  0
LTYPE
  5
B6B0
330
5
100
AcDbSymbolTableRecord
100
AcDbLinetypeTableRecord
  2
ACANSTGB
 70
     0
  3
__ . . __ . .
 72
    65
 73
     6
 40
0.35433070866
 49
0.15748031496
 74
     0
 49
-0.03937007874
 74
     0
 49
0.03937007874
 74
     0
 49
-0.03937007874
 74
     0
 49
0.03937007874
 74
     0
 49
-0.03937007874
 74
     0
  0
LTYPE
  5
B6B1
330
5
100
AcDbSymbolTableRecord
100
AcDbLinetypeTableRecord
  2
ACANSTGL
 70
     0
  3
_ _ _ _ _
 72
    65
 73
     2
 40
0.11811023622
 49
0.07874015748
 74
     0
 49
-0.03937007874
 74
     0
  0
ENDTAB
  0
TABLE
  2
LAYER
  5
2
102
{ACAD_XDICTIONARY
360
3F95
102
}
330
0
100
AcDbSymbolTable
 70
    20
  0
LAYER
  5
10
330
2
100
AcDbSymbolTableRecord
100
AcDbLayerTableRecord
  2
0
 70
     0
 62
     7
  6
Continuous
370
    -3
390
F
  0
LAYER
  5
6D1
330
2
100
AcDbSymbolTableRecord
100
AcDbLayerTableRecord
  2
Defpoints
 70
     0
 62
     7
  6
Continuous
290
     0
370
    -3
390
F
  0
LAYER
  5
5F85
330
2
100
AcDbSymbolTableRecord
100
AcDbLayerTableRecord
  2
AM_0
 70
     0
 62
     7
  6
中線
370
    30
390
F
1001
AcAecLayerStandard
1000

1000

  0
LAYER
  5
AC9F
330
2
100
AcDbSymbolTableRecord
100
AcDbLayerTableRecord
  2
size
 70
     0
 62
     5
  6
Continuous
290
     0
370
    25
390
F
  0
LAYER
  5
ACA0
330
2
100
AcDbSymbolTableRecord
100
AcDbLayerTableRecord
  2
waku
 70
     0
 62
     7
  6
Continuous
370
    35
390
F
  0
LAYER
  5
ACA1
330
2
100
AcDbSymbolTableRecord
100
AcDbLayerTableRecord
  2
AM_6
 70
     0
 62
     2
  6
文字
370
    13
390
F
1001
AcAecLayerStandard
1000

1000

  0
LAYER
  5
ACC8
330
2
100
AcDbSymbolTableRecord
100
AcDbLayerTableRecord
  2
hyomoji
 70
     0
 62
     2
  6
Continuous
370
    13
390
F
  0
LAYER
  5
ACC9
330
2
100
AcDbSymbolTableRecord
100
AcDbLayerTableRecord
  2
hyosen1
 70
     0
 62
     1
  6
Continuous
370
    25
390
F
  0
LAYER
  5
ACCA
330
2
100
AcDbSymbolTableRecord
100
AcDbLayerTableRecord
  2
hyosen2
 70
     0
 62
     1
  6
Continuous
370
    13
390
F
  0
LAYER
  5
AD60
330
2
100
AcDbSymbolTableRecord
100
AcDbLayerTableRecord
  2
AM_1
 70
     0
 62
    30
  6
太線
370
    40
390
F
1001
AcAecLayerStandard
1000

1000

  0
LAYER
  5
AD64
330
2
100
AcDbSymbolTableRecord
100
AcDbLayerTableRecord
  2
AM_2
 70
     0
 62
     1
  6
細線
370
    13
390
F
1001
AcAecLayerStandard
1000

1000

  0
LAYER
  5
AD67
330
2
100
AcDbSymbolTableRecord
100
AcDbLayerTableRecord
  2
AM_3
 70
     0
 62
     6
  6
陰線1
370
    13
390
F
1001
AcAecLayerStandard
1000

1000

  0
LAYER
  5
AD68
330
2
100
AcDbSymbolTableRecord
100
AcDbLayerTableRecord
  2
AM_5
 70
     0
 62
     3
  6
寸法線
370
    13
390
F
1001
AcAecLayerStandard
1000

1000

  0
LAYER
  5
AD69
330
2
100
AcDbSymbolTableRecord
100
AcDbLayerTableRecord
  2
AM_7
 70
     0
 62
     4
  6
中心線1
370
    13
390
F
1001
AcAecLayerStandard
1000

1000

  0
LAYER
  5
AD6A
330
2
100
AcDbSymbolTableRecord
100
AcDbLayerTableRecord
  2
AM_8
 70
     0
 62
     1
  6
ハッチング
370
    13
390
F
1001
AcAecLayerStandard
1000

1000

  0
LAYER
  5
AD6E
330
2
100
AcDbSymbolTableRecord
100
AcDbLayerTableRecord
  2
AM_10
 70
     0
 62
     7
  6
切断線
370
    13
390
F
1001
AcAecLayerStandard
1000

1000

  0
LAYER
  5
AD6F
330
2
100
AcDbSymbolTableRecord
100
AcDbLayerTableRecord
  2
AM_11
 70
     0
 62
     2
  6
想像線1
370
    13
390
F
1001
AcAecLayerStandard
1000

1000

  0
LAYER
  5
B1B6
330
2
100
AcDbSymbolTableRecord
100
AcDbLayerTableRecord
  2
AM_CL
 70
     1
 62
    -1
  6
Amconstr
370
    15
390
F
1001
AcAecLayerStandard
1000

1000

  0
LAYER
  5
B2EB
330
2
100
AcDbSymbolTableRecord
100
AcDbLayerTableRecord
  2
AM_14
 70
     0
 62
     5
  6
細線
370
     9
390
F
1001
AcAecLayerStandard
1000

1000

  0
LAYER
  5
B2EC
330
2
100
AcDbSymbolTableRecord
100
AcDbLayerTableRecord
  2
AM_15
 70
     0
 62
     6
  6
陰線1
370
     9
390
F
1001
AcAecLayerStandard
1000

1000

  0
ENDTAB
  0
TABLE
  2
STYLE
  5
3
330
0
100
AcDbSymbolTable
 70
    10
  0
STYLE
  5
11
330
3
100
AcDbSymbolTableRecord
100
AcDbTextStyleTableRecord
  2
STANDARD
 70
     0
 40
0.0
 41
0.7
 50
0.0
 71
     0
 42
3.2
  3
romans.shx
  4
extfont.shx
  0
STYLE
  5
56
330
3
100
AcDbSymbolTableRecord
100
AcDbTextStyleTableRecord
  2

 70
     1
 40
0.0
 41
1.0
 50
0.0
 71
     0
 42
2.5
  3
ltypeshp.shx
  4

  0
STYLE
  5
58
330
3
100
AcDbSymbolTableRecord
100
AcDbTextStyleTableRecord
  2
ACISOTS
 70
     0
 40
1.0
 41
1.0
 50
0.0
 71
     0
 42
2.5
  3
isocp.shx
  4
extfont.shx
  0
STYLE
  5
63
330
3
100
AcDbSymbolTableRecord
100
AcDbTextStyleTableRecord
  2
ACISOGDT
 70
     0
 40
0.0
 41
1.0
 50
0.0
 71
     0
 42
2.5
  3
amgdt.shx
  4

  0
STYLE
  5
A74
330
3
100
AcDbSymbolTableRecord
100
AcDbTextStyleTableRecord
  2
DIM
 70
     0
 40
0.0
 41
1.0
 50
0.0
 71
     0
 42
2.5
  3
monotxt.shx
  4
extfont.shx
  0
STYLE
  5
AC80
330
3
100
AcDbSymbolTableRecord
100
AcDbTextStyleTableRecord
  2

 70
     1
 40
0.0
 41
1.0
 50
0.0
 71
     0
 42
3.2
  3
genltshp.shx
  4

  0
STYLE
  5
B6B2
330
3
100
AcDbSymbolTableRecord
100
AcDbTextStyleTableRecord
  2
ACANSTS
 70
     0
 40
1.0
 41
1.0
 50
0.0
 71
     0
 42
3.2
  3
romans.shx
  4
extfont.shx
  0
STYLE
  5
B6B3
330
3
100
AcDbSymbolTableRecord
100
AcDbTextStyleTableRecord
  2
ACANSGDT
 70
     0
 40
0.0
 41
1.0
 50
0.0
 71
     0
 42
3.2
  3
amgdt.shx
  4

  0
ENDTAB
  0
TABLE
  2
VIEW
  5
6
330
0
100
AcDbSymbolTable
 70
     6
  0
VIEW
  5
AE1
330
6
100
AcDbSymbolTableRecord
100
AcDbViewTableRecord
  2
AM_VIEW1
 70
     0
 40
163.702163061564
 10
105.0000001018746
 20
215.1489185143762
 41
210.0
 11
0.0
 21
0.0
 31
1.0
 12
0.0
 22
0.0
 32
0.0
 42
50.0
 43
-1370.695619172058
 44
-1370.695619172058
 50
0.0
 71
     0
281
     0
 72
     0
  0
VIEW
  5
AE2
330
6
100
AcDbSymbolTableRecord
100
AcDbViewTableRecord
  2
AM_VIEW2
 70
     0
 40
163.702163061564
 10
315.0000001018747
 20
215.1489185143762
 41
210.0
 11
0.0
 21
0.0
 31
1.0
 12
0.0
 22
0.0
 32
0.0
 42
50.0
 43
-1370.695619172058
 44
-1370.695619172058
 50
0.0
 71
     0
281
     0
 72
     0
  0
VIEW
  5
AE3
330
6
100
AcDbSymbolTableRecord
100
AcDbViewTableRecord
  2
AM_VIEW3
 70
     0
 40
163.702163061564
 10
105.0000001018746
 20
81.85108157594026
 41
210.0
 11
0.0
 21
0.0
 31
1.0
 12
0.0
 22
0.0
 32
0.0
 42
50.0
 43
-1370.695619172058
 44
-1370.695619172058
 50
0.0
 71
     0
281
     0
 72
     0
  0
VIEW
  5
AE4
330
6
100
AcDbSymbolTableRecord
100
AcDbViewTableRecord
  2
AM_VIEW4
 70
     0
 40
163.702163061564
 10
315.0000001018747
 20
81.85108157594026
 41
210.0
 11
0.0
 21
0.0
 31
1.0
 12
0.0
 22
0.0
 32
0.0
 42
50.0
 43
-1370.695619172058
 44
-1370.695619172058
 50
0.0
 71
     0
281
     0
 72
     0
  0
VIEW
  5
AE5
330
6
100
AcDbSymbolTableRecord
100
AcDbViewTableRecord
  2
AM_VIEW5
 70
     0
 40
163.7021630615641
 10
210.0000001018746
 20
148.5000000451582
 41
210.0
 11
0.0
 21
0.0
 31
1.0
 12
0.0
 22
0.0
 32
0.0
 42
50.0
 43
-1370.695619172058
 44
-1370.695619172058
 50
0.0
 71
     0
281
     0
 72
     0
  0
VIEW
  5
AE6
330
6
100
AcDbSymbolTableRecord
100
AcDbViewTableRecord
  2
AM_VIEW6
 70
     0
 40
327.4010520798669
 10
210.0000001018746
 20
148.5000000451582
 41
419.9958
 11
0.0
 21
0.0
 31
1.0
 12
0.0
 22
0.0
 32
0.0
 42
50.0
 43
-1370.695619172058
 44
-1370.695619172058
 50
0.0
 71
     0
281
     0
 72
     0
  0
ENDTAB
  0
TABLE
  2
UCS
  5
7
330
0
100
AcDbSymbolTable
 70
     0
  0
ENDTAB
  0
TABLE
  2
APPID
  5
9
330
0
100
AcDbSymbolTable
 70
    60
  0
APPID
  5
12
330
9
100
AcDbSymbolTableRecord
100
AcDbRegAppTableRecord
  2
ACAD
 70
     0
  0
APPID
  5
30
330
9
100
AcDbSymbolTableRecord
100
AcDbRegAppTableRecord
  2
MCAD_NO_VIS
 70
     0
  0
APPID
  5
31
330
9
100
AcDbSymbolTableRecord
100
AcDbRegAppTableRecord
  2
ACAD_TEMP_GRAPHIC
 70
     0
  0
APPID
  5
44
330
9
100
AcDbSymbolTableRecord
100
AcDbRegAppTableRecord
  2
ACATTRIBSERVICES
 70
     0
  0
APPID
  5
7A1
330
9
100
AcDbSymbolTableRecord
100
AcDbRegAppTableRecord
  2
GENIUS_GENDIMSH_14
 70
     0
  0
APPID
  5
A49
330
9
100
AcDbSymbolTableRecord
100
AcDbRegAppTableRecord
  2
GENIUS_GENREC_14
 70
     0
  0
APPID
  5
A4A
330
9
100
AcDbSymbolTableRecord
100
AcDbRegAppTableRecord
  2
GENIUS_GENOBJ-N-REC_13
 70
     0
  0
APPID
  5
A4B
330
9
100
AcDbSymbolTableRecord
100
AcDbRegAppTableRecord
  2
GENIUS_GENODEF_13
 70
     0
  0
APPID
  5
A4C
330
9
100
AcDbSymbolTableRecord
100
AcDbRegAppTableRecord
  2
DCO15
 70
     0
  0
APPID
  5
ADC
330
9
100
AcDbSymbolTableRecord
100
AcDbRegAppTableRecord
  2
GENIUS_GENOLIS_13
 70
     0
  0
APPID
  5
ADD
330
9
100
AcDbSymbolTableRecord
100
AcDbRegAppTableRecord
  2
GENIUS_GENOENT_13
 70
     0
  0
APPID
  5
ADE
330
9
100
AcDbSymbolTableRecord
100
AcDbRegAppTableRecord
  2
GENIUS_GENOBJ-N-TIT_13
 70
     0
  0
APPID
  5
ADF
330
9
100
AcDbSymbolTableRecord
100
AcDbRegAppTableRecord
  2
GENIUS_GENTITLE_13
 70
     0
  0
APPID
  5
AE0
330
9
100
AcDbSymbolTableRecord
100
AcDbRegAppTableRecord
  2
GENIUS_GENOREF_13
 70
     0
  0
APPID
  5
AE7
330
9
100
AcDbSymbolTableRecord
100
AcDbRegAppTableRecord
  2
GENIUS_GENSCREG_15
 70
     0
  0
APPID
  5
AE8
330
9
100
AcDbSymbolTableRecord
100
AcDbRegAppTableRecord
  2
GENIUS_GENOBJ-N-SDF_13
 70
     0
  0
APPID
  5
FAF
330
9
100
AcDbSymbolTableRecord
100
AcDbRegAppTableRecord
  2
GENIUS_GENBLLY_14
 70
     0
  0
APPID
  5
FB0
330
9
100
AcDbSymbolTableRecord
100
AcDbRegAppTableRecord
  2
GENIUS_GENTRA_14
 70
     0
  0
APPID
  5
1285
330
9
100
AcDbSymbolTableRecord
100
AcDbRegAppTableRecord
  2
GENIUS_GENDTOL_13
 70
     0
  0
APPID
  5
142D
330
9
100
AcDbSymbolTableRecord
100
AcDbRegAppTableRecord
  2
GENIUS_GENOBJ-N-CEN_13
 70
     0
  0
APPID
  5
1AB5
330
9
100
AcDbSymbolTableRecord
100
AcDbRegAppTableRecord
  2
GENIUS_GENOBJ-N-CRS_13
 70
     0
  0
APPID
  5
1B36
330
9
100
AcDbSymbolTableRecord
100
AcDbRegAppTableRecord
  2
GENIUS_GENOBJ-N-HTC_13
 70
     0
  0
APPID
  5
1B37
330
9
100
AcDbSymbolTableRecord
100
AcDbRegAppTableRecord
  2
GENIUS_GENHATCH_13
 70
     0
  0
APPID
  5
216D
330
9
100
AcDbSymbolTableRecord
100
AcDbRegAppTableRecord
  2
GENIUS_GENOBJ-N-FIL_13
 70
     0
  0
APPID
  5
2356
330
9
100
AcDbSymbolTableRecord
100
AcDbRegAppTableRecord
  2
GEVID990412420
 70
     0
  0
APPID
  5
2357
330
9
100
AcDbSymbolTableRecord
100
AcDbRegAppTableRecord
  2
GEVDC
 70
     0
  0
APPID
  5
2358
330
9
100
AcDbSymbolTableRecord
100
AcDbRegAppTableRecord
  2
GEVCON
 70
     0
  0
APPID
  5
235B
330
9
100
AcDbSymbolTableRecord
100
AcDbRegAppTableRecord
  2
GEVRADREF
 70
     0
  0
APPID
  5
2360
330
9
100
AcDbSymbolTableRecord
100
AcDbRegAppTableRecord
  2
GENIUS_GENBH_13
 70
     0
  0
APPID
  5
2362
330
9
100
AcDbSymbolTableRecord
100
AcDbRegAppTableRecord
  2
GENIUS_GENOBJ-NBEHI-BHF_13
 70
     0
  0
APPID
  5
2364
330
9
100
AcDbSymbolTableRecord
100
AcDbRegAppTableRecord
  2
GENIUS_GENOBJ-NBEHI-BHB_13
 70
     0
  0
APPID
  5
2379
330
9
100
AcDbSymbolTableRecord
100
AcDbRegAppTableRecord
  2
GENIUS_GENOBJ-F-SCPASSM_13
 70
     0
  0
APPID
  5
3D74
330
9
100
AcDbSymbolTableRecord
100
AcDbRegAppTableRecord
  2
GENIUS_GENDIM_13
 70
     0
  0
APPID
  5
3D76
330
9
100
AcDbSymbolTableRecord
100
AcDbRegAppTableRecord
  2
GENIUS_GE3DTOL_13
 70
     0
  0
APPID
  5
3D9C
330
9
100
AcDbSymbolTableRecord
100
AcDbRegAppTableRecord
  2
AD_DRAW
 70
     0
  0
APPID
  5
3DE8
330
9
100
AcDbSymbolTableRecord
100
AcDbRegAppTableRecord
  2
ASURF_PCURVE_APPNAME
 70
     0
  0
APPID
  5
3DED
330
9
100
AcDbSymbolTableRecord
100
AcDbRegAppTableRecord
  2
AMG_3D2D_5.0
 70
     0
  0
APPID
  5
3E1B
330
9
100
AcDbSymbolTableRecord
100
AcDbRegAppTableRecord
  2
DESIGNERASSEMBLIES
 70
     0
  0
APPID
  5
3E20
330
9
100
AcDbSymbolTableRecord
100
AcDbRegAppTableRecord
  2
ACADM_DIM_EDIT
 70
     0
  0
APPID
  5
3E21
330
9
100
AcDbSymbolTableRecord
100
AcDbRegAppTableRecord
  2
AMDT_DM_ADJ
 70
     0
  0
APPID
  5
4143
330
9
100
AcDbSymbolTableRecord
100
AcDbRegAppTableRecord
  2
GENIUS_GENFIL_13
 70
     0
  0
APPID
  5
4144
330
9
100
AcDbSymbolTableRecord
100
AcDbRegAppTableRecord
  2
GENIUS_GENOBJ-N-CHA_13
 70
     0
  0
APPID
  5
4E17
330
9
100
AcDbSymbolTableRecord
100
AcDbRegAppTableRecord
  2
GEVID1008153417
 70
     0
  0
APPID
  5
4E58
330
9
100
AcDbSymbolTableRecord
100
AcDbRegAppTableRecord
  2
GEVID1008153418
 70
     0
  0
APPID
  5
4E5E
330
9
100
AcDbSymbolTableRecord
100
AcDbRegAppTableRecord
  2
GEVID1008153419
 70
     0
  0
APPID
  5
4E64
330
9
100
AcDbSymbolTableRecord
100
AcDbRegAppTableRecord
  2
GEVID1008153420
 70
     0
  0
APPID
  5
4E75
330
9
100
AcDbSymbolTableRecord
100
AcDbRegAppTableRecord
  2
GEVID1008153421
 70
     0
  0
APPID
  5
4EB7
330
9
100
AcDbSymbolTableRecord
100
AcDbRegAppTableRecord
  2
GENIUS_AMGTXT_16
 70
     0
  0
APPID
  5
7645
330
9
100
AcDbSymbolTableRecord
100
AcDbRegAppTableRecord
  2
GENIUS_GENOBJ-N-DIM_13
 70
     0
  0
APPID
  5
AAD0
330
9
100
AcDbSymbolTableRecord
100
AcDbRegAppTableRecord
  2
ACAD_DSTYLE_DIMARC_LENGTH_SYMBOL
 70
     0
  0
APPID
  5
AAD1
330
9
100
AcDbSymbolTableRecord
100
AcDbRegAppTableRecord
  2
ACAD_DSTYLE_DIMJOGGED_JOGANGLE_SYMBOL
 70
     0
  0
APPID
  5
AAFD
330
9
100
AcDbSymbolTableRecord
100
AcDbRegAppTableRecord
  2
ACAD_PSEXT
 70
     0
  0
APPID
  5
AD61
330
9
100
AcDbSymbolTableRecord
100
AcDbRegAppTableRecord
  2
AcAecLayerStandard
 70
     0
  0
APPID
  5
AEE3
330
9
100
AcDbSymbolTableRecord
100
AcDbRegAppTableRecord
  2
ACAD_EXEMPT_FROM_CAD_STANDARDS
 70
     0
  0
APPID
  5
B1BE
330
9
100
AcDbSymbolTableRecord
100
AcDbRegAppTableRecord
  2
GENIUS_GENCEN_19
 70
     0
  0
APPID
  5
CA57
330
9
100
AcDbSymbolTableRecord
100
AcDbRegAppTableRecord
  2
ACAD_MLEADERVER
 70
     0
  0
APPID
  5
CA82
330
9
100
AcDbSymbolTableRecord
100
AcDbRegAppTableRecord
  2
ACAUTHENVIRON
 70
     0
  0
APPID
  5
CA83
330
9
100
AcDbSymbolTableRecord
100
AcDbRegAppTableRecord
  2
AcDbDynamicBlockTrueName
 70
     0
  0
APPID
  5
CA84
330
9
100
AcDbSymbolTableRecord
100
AcDbRegAppTableRecord
  2
AcDbDynamicBlockGUID
 70
     0
  0
APPID
  5
CA85
330
9
100
AcDbSymbolTableRecord
100
AcDbRegAppTableRecord
  2
ACDBBLOCKREPETAG
 70
     0
  0
ENDTAB
  0
TABLE
  2
DIMSTYLE
  5
A
330
0
100
AcDbSymbolTable
 70
    26
100
AcDbDimStyleTable
 71
     1
340
2515
  0
DIMSTYLE
105
A76
330
A
100
AcDbSymbolTableRecord
100
AcDbDimStyleTableRecord
  2
STANDARD
 70
     0
 41
3.0
 42
1.0
 43
7.0
 44
2.0
 73
     0
 74
     0
 77
     1
140
2.799999999999999
141
0.0
143
0.0394
147
0.7
171
     4
172
     1
173
     1
176
     3
177
     3
178
     2
271
     3
272
     3
273
     8
274
     4
289
     0
340
A74
341
A66
343
A66
344
A66
  0
DIMSTYLE
105
2515
330
A
100
AcDbSymbolTableRecord
100
AcDbDimStyleTableRecord
  2
SYS
 70
     0
  4
"
 41
1.0
 42
1.0
 43
10.0
 44
1.0
 47
0.1
 48
0.1
 73
     0
 74
     0
 77
     1
 78
     8
 79
     2
140
3.5
141
0.0
143
0.0393701
146
0.71
147
1.5
172
     1
176
   256
177
   256
178
     7
271
     2
272
     2
283
     0
284
     8
340
11
371
    -1
372
    -1
1001
ACAD_DSTYLE_DIMJOGGED_JOGANGLE_SYMBOL
1070
   384
1040
0.7853981633974483
1001
ACAD_DSTYLE_DIMARC_LENGTH_SYMBOL
1070
   379
1070
     1
  0
DIMSTYLE
105
2516
102
{ACAD_REACTORS
330
DE95
102
}
330
A
100
AcDbSymbolTableRecord
100
AcDbDimStyleTableRecord
  2
SYS$3
 70
     0
  4
"
 41
2.0
 42
1.0
 43
10.0
 44
1.0
 47
0.1
 48
0.1
 73
     0
 77
     1
 78
     8
 79
     2
140
3.5
141
0.0
143
0.0393701
146
0.71
147
1.5
176
   256
177
   256
178
     2
271
     2
272
     2
283
     0
284
     8
288
     1
340
11
342
A66
371
    -1
372
    -1
1001
ACAD_DSTYLE_DIMJOGGED_JOGANGLE_SYMBOL
1070
   384
1040
0.7853981633974483
1001
ACAD_DSTYLE_DIMARC_LENGTH_SYMBOL
1070
   379
1070
     1
  0
DIMSTYLE
105
2517
330
A
100
AcDbSymbolTableRecord
100
AcDbDimStyleTableRecord
  2
SYS$4
 70
     0
  4
"
 41
2.0
 42
1.0
 43
10.0
 44
1.0
 47
0.1
 48
0.1
 73
     0
 77
     1
 78
     8
 79
     2
140
3.5
141
0.0
143
0.0393701
146
0.71
147
1.5
173
     1
176
   256
177
   256
178
     2
271
     2
272
     2
283
     0
284
     8
288
     1
340
11
344
A66
371
    -1
372
    -1
1001
ACAD_DSTYLE_DIMJOGGED_JOGANGLE_SYMBOL
1070
   384
1040
0.7853981633974483
1001
ACAD_DSTYLE_DIMARC_LENGTH_SYMBOL
1070
   379
1070
     1
  0
DIMSTYLE
105
2518
330
A
100
AcDbSymbolTableRecord
100
AcDbDimStyleTableRecord
  2
SYS$6
 70
     0
  4
"
 41
2.0
 42
1.0
 43
10.0
 44
1.0
 47
0.1
 48
0.1
 73
     0
 74
     0
 78
     8
 79
     2
140
3.5
141
0.0
143
0.0393701
146
0.71
147
1.5
172
     1
176
   256
177
   256
178
     2
271
     2
272
     2
283
     0
284
     8
340
11
341
A66
371
    -1
372
    -1
1001
ACAD_DSTYLE_DIMJOGGED_JOGANGLE_SYMBOL
1070
   384
1040
0.7853981633974483
1001
ACAD_DSTYLE_DIMARC_LENGTH_SYMBOL
1070
   379
1070
     1
  0
DIMSTYLE
105
2519
330
A
100
AcDbSymbolTableRecord
100
AcDbDimStyleTableRecord
  2
SYS$7
 70
     0
  4
"
 41
2.0
 42
1.0
 43
10.0
 44
1.0
 47
0.1
 48
0.1
 73
     0
 74
     0
 77
     1
 78
     8
 79
     2
140
5.0
141
0.0
143
0.0393701
146
0.71
147
1.5
172
     1
176
   256
177
   256
178
     2
271
     2
272
     2
283
     0
284
     8
340
11
341
A66
342
A66
371
    -1
372
    -1
1001
ACAD_DSTYLE_DIMJOGGED_JOGANGLE_SYMBOL
1070
   384
1040
0.7853981633974483
1001
ACAD_DSTYLE_DIMARC_LENGTH_SYMBOL
1070
   379
1070
     1
  0
DIMSTYLE
105
251A
330
A
100
AcDbSymbolTableRecord
100
AcDbDimStyleTableRecord
  2
SYS$SF
 70
     0
  4
"
 41
2.5
 42
1.0
 43
10.0
 44
1.0
 47
0.1
 48
0.1
 73
     0
 74
     0
 75
     1
 76
     1
 77
     1
 78
     8
 79
     2
140
3.5
141
0.0
143
0.0393701
146
0.71
147
1.5
172
     1
176
   256
177
   256
178
     2
271
     2
272
     3
283
     0
284
     8
340
11
341
6C4
342
6C4
371
    -1
372
    -1
1001
ACAD_DSTYLE_DIMJOGGED_JOGANGLE_SYMBOL
1070
   384
1040
0.7853981633974483
1001
ACAD_DSTYLE_DIMARC_LENGTH_SYMBOL
1070
   379
1070
     1
  0
DIMSTYLE
105
251B
330
A
100
AcDbSymbolTableRecord
100
AcDbDimStyleTableRecord
  2
SYS$SH
 70
     0
  4
"
 41
2.5
 42
1.0
 43
10.0
 44
1.0
 47
0.1
 48
0.1
 73
     0
 74
     0
 75
     1
 76
     1
 77
     1
 78
     8
 79
     2
140
3.5
141
0.0
143
0.0393701
144
2.0
146
0.71
147
1.5
172
     1
173
     1
176
   256
177
   256
178
     2
271
     2
272
     3
283
     0
284
     8
340
11
341
6C4
343
72
344
6C4
371
    -1
372
    -1
1001
ACAD_DSTYLE_DIMJOGGED_JOGANGLE_SYMBOL
1070
   384
1040
0.7853981633974483
1001
ACAD_DSTYLE_DIMARC_LENGTH_SYMBOL
1070
   379
1070
     1
  0
DIMSTYLE
105
2A59
330
A
100
AcDbSymbolTableRecord
100
AcDbDimStyleTableRecord
  2
SYS$2
 70
     0
  4
"
 41
1.0
 42
1.0
 43
10.0
 44
1.0
 47
0.1
 48
0.1
 73
     0
 74
     0
 77
     1
 78
     8
 79
     2
140
3.5
141
0.0
143
0.0393701
146
0.71
147
1.5
172
     1
176
   256
177
   256
178
     2
271
     2
272
     2
283
     0
284
     8
340
11
342
6C4
371
    -1
372
    -1
1001
ACAD_DSTYLE_DIMJOGGED_JOGANGLE_SYMBOL
1070
   384
1040
0.7853981633974483
1001
ACAD_DSTYLE_DIMARC_LENGTH_SYMBOL
1070
   379
1070
     1
  0
DIMSTYLE
105
2AAB
102
{ACAD_REACTORS
330
DB46
330
DB47
330
DB48
330
DB49
330
DB4A
330
DB4B
330
DB4C
330
DB4D
330
DB4E
330
DB4F
330
DB50
330
DB51
330
DB52
330
DB53
330
DB54
330
DB58
330
DB59
330
DB5D
330
DB61
102
}
330
A
100
AcDbSymbolTableRecord
100
AcDbDimStyleTableRecord
  2
SYS$0
 70
     0
  4
"
 41
1.0
 42
1.0
 43
10.0
 44
1.0
 47
0.1
 48
0.1
 73
     0
 74
     0
 77
     1
 78
     8
 79
     2
140
3.200000000000001
141
0.0
143
0.0393701
146
0.71
147
1.5
172
     1
176
   256
177
   256
178
     2
271
     2
272
     2
283
     0
284
     8
340
11
341
A66
342
6C4
371
    -1
372
    -1
1001
ACAD_DSTYLE_DIMJOGGED_JOGANGLE_SYMBOL
1070
   384
1040
0.7853981633974483
1001
ACAD_DSTYLE_DIMARC_LENGTH_SYMBOL
1070
   379
1070
     1
  0
DIMSTYLE
105
AF99
330
A
100
AcDbSymbolTableRecord
100
AcDbDimStyleTableRecord
  2
AM_ISO
 70
     0
  4
"
 41
2.5
 42
1.0
 43
10.0
 44
1.0
 47
0.1
 48
0.1
 73
     0
 74
     0
 77
     1
 78
     8
 79
     2
140
3.5
141
0.0
143
0.0393701
146
0.71
147
1.5
172
     1
176
   256
177
   256
178
     2
271
     2
272
     3
274
     4
283
     0
284
     8
340
11
371
    -1
372
    -1
  0
DIMSTYLE
105
AF9A
330
A
100
AcDbSymbolTableRecord
100
AcDbDimStyleTableRecord
  2
AM_ISO$3
 70
     0
  4
"
 41
2.5
 42
1.0
 43
10.0
 44
1.0
 47
0.1
 48
0.1
 73
     0
 77
     1
 78
     8
 79
     2
140
3.5
141
0.0
143
0.0393701
146
0.71
147
1.5
176
   256
177
   256
178
     2
271
     2
272
     3
274
     4
283
     0
284
     8
288
     1
289
     0
340
11
371
    -1
372
    -1
  0
DIMSTYLE
105
AF9B
330
A
100
AcDbSymbolTableRecord
100
AcDbDimStyleTableRecord
  2
AM_ISO$4
 70
     0
  4
"
 41
2.5
 42
1.0
 43
10.0
 44
1.0
 47
0.1
 48
0.1
 73
     0
 77
     1
 78
     8
 79
     2
140
3.5
141
0.0
143
0.0393701
146
0.71
147
1.5
176
   256
177
   256
178
     2
271
     2
272
     3
274
     4
283
     0
284
     8
288
     1
289
     0
340
11
371
    -1
372
    -1
  0
DIMSTYLE
105
AF9C
330
A
100
AcDbSymbolTableRecord
100
AcDbDimStyleTableRecord
  2
AM_ISO$6
 70
     0
  4
"
 41
2.5
 42
1.0
 43
10.0
 44
1.0
 47
0.1
 48
0.1
 73
     0
 74
     0
 78
     8
 79
     2
140
3.5
141
0.0
143
0.0393701
146
0.71
147
1.5
172
     1
176
   256
177
   256
178
     2
271
     2
272
     3
274
     4
283
     0
284
     8
340
11
371
    -1
372
    -1
  0
DIMSTYLE
105
AF9D
330
A
100
AcDbSymbolTableRecord
100
AcDbDimStyleTableRecord
  2
AM_ISO$7
 70
     0
  4
"
 41
2.5
 42
1.0
 43
10.0
 44
1.0
 47
0.1
 48
0.1
 73
     0
 74
     0
 77
     1
 78
     8
 79
     2
140
5.0
141
0.0
143
0.0393701
146
0.71
147
1.5
172
     1
176
   256
177
   256
178
     2
271
     2
272
     3
274
     4
283
     0
284
     8
340
11
371
    -1
372
    -1
  0
DIMSTYLE
105
AF9E
330
A
100
AcDbSymbolTableRecord
100
AcDbDimStyleTableRecord
  2
AM_ISO$SF
 70
     0
  4
"
 41
2.5
 42
1.0
 43
10.0
 44
1.0
 47
0.1
 48
0.1
 73
     0
 74
     0
 75
     1
 76
     1
 77
     1
 78
     8
 79
     2
140
3.5
141
0.0
143
0.0393701
146
0.71
147
1.5
172
     1
176
   256
177
   256
178
     2
271
     2
272
     3
274
     4
283
     0
284
     8
340
11
371
    -1
372
    -1
  0
DIMSTYLE
105
AF9F
330
A
100
AcDbSymbolTableRecord
100
AcDbDimStyleTableRecord
  2
AM_ISO$SH
 70
     0
  4
"
 41
2.5
 42
1.0
 43
10.0
 44
1.0
 47
0.1
 48
0.1
 73
     0
 74
     0
 75
     1
 76
     1
 77
     1
 78
     8
 79
     2
140
3.5
141
0.0
143
0.0393701
144
2.0
146
0.71
147
1.5
172
     1
173
     1
176
   256
177
   256
178
     2
271
     2
272
     3
274
     4
283
     0
284
     8
340
11
343
72
371
    -1
372
    -1
  0
DIMSTYLE
105
B502
330
A
100
AcDbSymbolTableRecord
100
AcDbDimStyleTableRecord
  2
AM_ANSI
 70
     0
  4
mm
 41
0.1
 42
0.05
 43
0.5
 44
0.1
 47
0.1
 48
0.1
 78
     7
 79
     2
140
0.12
141
0.0
146
0.71
147
0.06
176
   256
177
   256
178
     2
274
     4
284
     7
340
11
371
    -1
372
    -1
1001
ACAD_DSTYLE_DIMJOGGED_JOGANGLE_SYMBOL
1070
   384
1040
0.7853981633974483
1001
ACAD_DSTYLE_DIMARC_LENGTH_SYMBOL
1070
   379
1070
     1
  0
DIMSTYLE
105
B6B4
330
A
100
AcDbSymbolTableRecord
100
AcDbDimStyleTableRecord
  2
DIMSTYLE
 70
     0
 41
1.0
 42
2.54
 44
2.54
 73
     0
 74
     0
140
3.2
147
1.6
173
     1
279
     2
340
11
  0
DIMSTYLE
105
B6B5
330
A
100
AcDbSymbolTableRecord
100
AcDbDimStyleTableRecord
  2
AM_ANSI$3
 70
     0
  4
mm
 41
0.1
 42
0.05
 43
0.5
 44
0.1
 47
0.1
 48
0.1
 78
     7
 79
     2
140
0.12
141
0.0
146
0.71
147
0.06
176
   256
177
   256
178
     2
274
     4
284
     7
288
     1
289
     0
340
11
371
    -1
372
    -1
1001
ACAD_DSTYLE_DIMARC_LENGTH_SYMBOL
1070
   379
1070
     1
  0
DIMSTYLE
105
B6B6
330
A
100
AcDbSymbolTableRecord
100
AcDbDimStyleTableRecord
  2
AM_ANSI$4
 70
     0
  4
mm
 41
0.1
 42
0.05
 43
0.5
 44
0.1
 47
0.1
 48
0.1
 78
     7
 79
     2
140
0.12
141
0.0
146
0.71
147
0.06
176
   256
177
   256
178
     2
274
     4
284
     7
288
     1
289
     0
340
11
371
    -1
372
    -1
1001
ACAD_DSTYLE_DIMARC_LENGTH_SYMBOL
1070
   379
1070
     1
  0
DIMSTYLE
105
B6B7
330
A
100
AcDbSymbolTableRecord
100
AcDbDimStyleTableRecord
  2
AM_ANSI$7
 70
     0
  4
mm
 41
0.1
 42
0.05
 43
0.5
 44
0.1
 47
0.1
 48
0.1
 78
     7
 79
     2
140
0.24
141
0.0
146
0.71
147
0.06
176
   256
177
   256
178
     2
274
     4
284
     7
340
11
371
    -1
372
    -1
1001
ACAD_DSTYLE_DIMARC_LENGTH_SYMBOL
1070
   379
1070
     1
  0
DIMSTYLE
105
B6B8
330
A
100
AcDbSymbolTableRecord
100
AcDbDimStyleTableRecord
  2
AM_ANSI$SF
 70
     0
  4
mm
 41
0.1
 42
0.05
 43
0.5
 44
0.1
 47
0.1
 48
0.1
 75
     1
 76
     1
 78
     7
 79
     2
140
0.12
141
0.0
146
0.71
147
0.06
176
   256
177
   256
178
     2
274
     4
284
     7
340
11
371
    -1
372
    -1
1001
ACAD_DSTYLE_DIMARC_LENGTH_SYMBOL
1070
   379
1070
     1
  0
DIMSTYLE
105
B6B9
330
A
100
AcDbSymbolTableRecord
100
AcDbDimStyleTableRecord
  2
AM_ANSI$SH
 70
     0
  4
mm
 41
0.1
 42
0.05
 43
0.5
 44
0.1
 47
0.1
 48
0.1
 75
     1
 76
     1
 78
     7
 79
     2
140
0.12
141
0.0
146
0.71
147
0.06
173
     1
176
   256
177
   256
178
     2
274
     4
284
     7
340
11
343
72
371
    -1
372
    -1
1001
ACAD_DSTYLE_DIMARC_LENGTH_SYMBOL
1070
   379
1070
     1
  0
ENDTAB
  0
TABLE
  2
BLOCK_RECORD
  5
1
330
0
100
AcDbSymbolTable
 70
    29
  0
BLOCK_RECORD
  5
1F
102
{ACAD_XDICTIONARY
360
8A
102
}
330
1
100
AcDbSymbolTableRecord
100
AcDbBlockTableRecord
  2
*Model_Space
340
22
  0
BLOCK_RECORD
  5
1B
330
1
100
AcDbSymbolTableRecord
100
AcDbBlockTableRecord
  2
*Paper_Space
340
1E
  0
BLOCK_RECORD
  5
23
330
1
100
AcDbSymbolTableRecord
100
AcDbBlockTableRecord
  2
*Paper_Space0
340
26
  0
BLOCK_RECORD
  5
72
330
1
100
AcDbSymbolTableRecord
100
AcDbBlockTableRecord
  2
GENAXEH
340
0
  0
BLOCK_RECORD
  5
6C4
330
1
100
AcDbSymbolTableRecord
100
AcDbBlockTableRecord
  2
_Dot
340
0
102
{BLKREFS
331
DC8D
331
DC8E
331
DC96
331
DC97
331
DCA1
331
DCA2
331
DCAA
331
DCAB
331
DCB3
331
DCB4
331
DCBC
331
DCBD
331
DCC5
331
DCC6
331
DCCE
331
DCCF
331
DCD7
331
DCD8
331
DCE0
331
DCE1
331
DCE9
331
DCEA
331
DCF4
331
DCF5
331
DCFD
331
DCFE
331
DD05
331
DD0D
331
DD60
331
DD61
331
DD7B
331
DD7C
331
DD96
331
DD97
331
DE37
331
DE38
331
DE52
331
DE53
102
}
  0
BLOCK_RECORD
  5
A66
330
1
100
AcDbSymbolTableRecord
100
AcDbBlockTableRecord
  2
_OPEN30
340
0
102
{BLKREFS
331
DEC2
102
}
  0
BLOCK_RECORD
  5
D045
330
1
100
AcDbSymbolTableRecord
100
AcDbBlockTableRecord
  2
_OPEN
340
0
102
{BLKREFS
331
DD06
331
DD0E
102
}
  0
BLOCK_RECORD
  5
DB66
330
1
100
AcDbSymbolTableRecord
100
AcDbBlockTableRecord
  2
*D6
340
0
  0
BLOCK_RECORD
  5
DB72
330
1
100
AcDbSymbolTableRecord
100
AcDbBlockTableRecord
  2
*D7
340
0
  0
BLOCK_RECORD
  5
DB7E
330
1
100
AcDbSymbolTableRecord
100
AcDbBlockTableRecord
  2
*D8
340
0
  0
BLOCK_RECORD
  5
DB8C
330
1
100
AcDbSymbolTableRecord
100
AcDbBlockTableRecord
  2
*D9
340
0
  0
BLOCK_RECORD
  5
DB98
330
1
100
AcDbSymbolTableRecord
100
AcDbBlockTableRecord
  2
*D10
340
0
  0
BLOCK_RECORD
  5
DBA4
330
1
100
AcDbSymbolTableRecord
100
AcDbBlockTableRecord
  2
*D11
340
0
  0
BLOCK_RECORD
  5
DBB0
330
1
100
AcDbSymbolTableRecord
100
AcDbBlockTableRecord
  2
*D12
340
0
  0
BLOCK_RECORD
  5
DBBC
330
1
100
AcDbSymbolTableRecord
100
AcDbBlockTableRecord
  2
*D13
340
0
  0
BLOCK_RECORD
  5
DBC8
330
1
100
AcDbSymbolTableRecord
100
AcDbBlockTableRecord
  2
*D14
340
0
  0
BLOCK_RECORD
  5
DBD4
330
1
100
AcDbSymbolTableRecord
100
AcDbBlockTableRecord
  2
*D15
340
0
  0
BLOCK_RECORD
  5
DBE0
330
1
100
AcDbSymbolTableRecord
100
AcDbBlockTableRecord
  2
*D16
340
0
  0
BLOCK_RECORD
  5
DBEC
330
1
100
AcDbSymbolTableRecord
100
AcDbBlockTableRecord
  2
*D17
340
0
  0
BLOCK_RECORD
  5
DBFA
330
1
100
AcDbSymbolTableRecord
100
AcDbBlockTableRecord
  2
*D18
340
0
  0
BLOCK_RECORD
  5
DC06
330
1
100
AcDbSymbolTableRecord
100
AcDbBlockTableRecord
  2
*D19
340
0
  0
BLOCK_RECORD
  5
DC11
330
1
100
AcDbSymbolTableRecord
100
AcDbBlockTableRecord
  2
*D20
340
0
  0
BLOCK_RECORD
  5
DC36
330
1
100
AcDbSymbolTableRecord
100
AcDbBlockTableRecord
  2
*D21
340
0
  0
BLOCK_RECORD
  5
DC42
330
1
100
AcDbSymbolTableRecord
100
AcDbBlockTableRecord
  2
*D22
340
0
  0
BLOCK_RECORD
  5
DC72
330
1
100
AcDbSymbolTableRecord
100
AcDbBlockTableRecord
  2
*D24
340
0
  0
BLOCK_RECORD
  5
DC7E
330
1
100
AcDbSymbolTableRecord
100
AcDbBlockTableRecord
  2
*D25
340
0
  0
BLOCK_RECORD
  5
DE96
330
1
100
AcDbSymbolTableRecord
100
AcDbBlockTableRecord
  2
*D26
340
0
  0
ENDTAB
  0
ENDSEC
  0
SECTION
  2
BLOCKS
  0
BLOCK
  5
20
330
1F
100
AcDbEntity
  8
0
100
AcDbBlockBegin
  2
*Model_Space
 70
     0
 10
0.0
 20
0.0
 30
0.0
  3
*Model_Space
  1

  0
ENDBLK
  5
21
330
1F
100
AcDbEntity
  8
0
100
AcDbBlockEnd
  0
BLOCK
  5
1C
330
1B
100
AcDbEntity
 67
     1
  8
0
100
AcDbBlockBegin
  2
*Paper_Space
 70
     0
 10
0.0
 20
0.0
 30
0.0
  3
*Paper_Space
  1

  0
ENDBLK
  5
1D
330
1B
100
AcDbEntity
 67
     1
  8
0
100
AcDbBlockEnd
  0
BLOCK
  5
24
330
23
100
AcDbEntity
 67
     1
  8
0
100
AcDbBlockBegin
  2
*Paper_Space0
 70
     0
 10
0.0
 20
0.0
 30
0.0
  3
*Paper_Space0
  1

  0
ENDBLK
  5
25
330
23
100
AcDbEntity
 67
     1
  8
0
100
AcDbBlockEnd
  0
BLOCK
  5
74
330
72
100
AcDbEntity
  8
0
100
AcDbBlockBegin
  2
GENAXEH
 70
     0
 10
0.0
 20
0.0
 30
0.0
  3
GENAXEH
  1

  0
LINE
  5
73
330
72
100
AcDbEntity
  8
0
100
AcDbLine
 10
-1.0
 20
0.0
 30
0.0
 11
1.0
 21
0.0
 31
0.0
  0
ENDBLK
  5
75
330
72
100
AcDbEntity
  8
0
100
AcDbBlockEnd
  0
BLOCK
  5
6C7
330
6C4
100
AcDbEntity
  8
0
100
AcDbBlockBegin
  2
_Dot
 70
     0
 10
0.0
 20
0.0
 30
0.0
  3
_Dot
  1

  0
LWPOLYLINE
  5
6C5
330
6C4
100
AcDbEntity
  8
0
  6
ByBlock
 62
     0
100
AcDbPolyline
 90
        2
 70
     1
 43
0.5
 10
-0.25
 20
0.0
 42
1.0
 10
0.25
 20
0.0
 42
1.0
  0
LINE
  5
6C6
330
6C4
100
AcDbEntity
  8
0
  6
ByBlock
 62
     0
370
    -2
100
AcDbLine
 10
-0.5
 20
0.0
 30
0.0
 11
-1.0
 21
0.0
 31
0.0
  0
ENDBLK
  5
6C8
330
6C4
100
AcDbEntity
  8
0
100
AcDbBlockEnd
  0
BLOCK
  5
A6A
330
A66
100
AcDbEntity
  8
0
100
AcDbBlockBegin
  2
_OPEN30
 70
     0
 10
0.0
 20
0.0
 30
0.0
  3
_OPEN30
  1

  0
LINE
  5
A67
330
A66
100
AcDbEntity
  8
0
  6
ByBlock
 62
     0
100
AcDbLine
 10
-1.0
 20
0.26794919
 30
0.0
 11
0.0
 21
0.0
 31
0.0
  0
LINE
  5
A68
330
A66
100
AcDbEntity
  8
0
  6
ByBlock
 62
     0
100
AcDbLine
 10
0.0
 20
0.0
 30
0.0
 11
-1.0
 21
-0.26794919
 31
0.0
  0
LINE
  5
A69
330
A66
100
AcDbEntity
  8
0
  6
ByBlock
 62
     0
100
AcDbLine
 10
0.0
 20
0.0
 30
0.0
 11
-1.0
 21
0.0
 31
0.0
  0
ENDBLK
  5
A6B
330
A66
100
AcDbEntity
  8
0
100
AcDbBlockEnd
  0
BLOCK
  5
D046
330
D045
100
AcDbEntity
  8
0
100
AcDbBlockBegin
  2
_OPEN
 70
     0
 10
0.0
 20
0.0
 30
0.0
  3
_OPEN
  1

  0
LINE
  5
D047
330
D045
100
AcDbEntity
  8
0
  6
ByBlock
 62
     0
100
AcDbLine
 10
0.0
 20
0.0
 30
0.0
 11
-3.128
 21
-0.56199999
 31
0.0
  0
LINE
  5
D048
330
D045
100
AcDbEntity
  8
0
  6
ByBlock
 62
     0
100
AcDbLine
 10
0.0
 20
0.0
 30
0.0
 11
-3.128
 21
0.56199999
 31
0.0
  0
LINE
  5
D049
330
D045
100
AcDbEntity
  8
0
  6
ByBlock
 62
     0
100
AcDbLine
 10
0.0
 20
0.0
 30
0.0
 11
-3.0
 21
0.0
 31
0.0
  0
ENDBLK
  5
D04A
330
D045
100
AcDbEntity
  8
0
100
AcDbBlockEnd
  0
BLOCK
  5
DB70
330
DB66
100
AcDbEntity
  8
0
100
AcDbBlockBegin
  2
*D6
 70
     1
 10
0.0
 20
0.0
 30
0.0
  3
*D6
  1

  0
LINE
  5
DC8A
330
DB66
100
AcDbEntity
  8
AM_5
 48
1.01
100
AcDbLine
 10
135.5999392901756
 20
128.5094476545076
 30
0.0
 11
135.5999392901756
 21
188.5094612543914
 31
0.0
  0
LINE
  5
DC8B
330
DB66
100
AcDbEntity
  8
AM_5
 48
1.01
100
AcDbLine
 10
159.5999392901756
 20
174.1736184302749
 30
0.0
 11
159.5999392901756
 21
188.5094612543914
 31
0.0
  0
LINE
  5
DC8C
330
DB66
100
AcDbEntity
  8
AM_5
 48
1.01
100
AcDbLine
 10
136.5999392901756
 20
187.5094612543914
 30
0.0
 11
158.5999392901756
 21
187.5094612543914
 31
0.0
  0
INSERT
  5
DC8D
330
DB66
100
AcDbEntity
  8
AM_5
 48
1.01
100
AcDbBlockReference
  2
_Dot
 10
135.5999392901756
 20
187.5094612543914
 30
0.0
 50
180.0
  0
INSERT
  5
DC8E
330
DB66
100
AcDbEntity
  8
AM_5
 48
1.01
100
AcDbBlockReference
  2
_Dot
 10
159.5999392901756
 20
187.5094612543914
 30
0.0
  0
MTEXT
  5
DC8F
330
DB66
100
AcDbEntity
  8
AM_5
 62
     2
 48
1.01
100
AcDbMText
 10
147.5999392901756
 20
190.6094612543914
 30
0.0
 40
3.200000000000001
 41
0.0
 71
     5
 72
     1
  1
24
 73
     1
 44
1.0
1001
ACAD
1000
MTEXTBEGIN
1070
    73
1070
     1
1070
    44
1040
1.0
1070
    74
1070
     0
1000
MTEXTEND
  0
POINT
  5
DC90
330
DB66
100
AcDbEntity
  8
Defpoints
 62
     0
 48
1.01
100
AcDbPoint
 10
135.5999392901756
 20
127.5094476545076
 30
0.0
  0
POINT
  5
DC91
330
DB66
100
AcDbEntity
  8
Defpoints
 62
     0
 48
1.01
100
AcDbPoint
 10
159.5999392901756
 20
173.1736184302748
 30
0.0
  0
POINT
  5
DC92
330
DB66
100
AcDbEntity
  8
Defpoints
 62
     0
 48
1.01
100
AcDbPoint
 10
159.5999392901756
 20
187.5094612543914
 30
0.0
  0
ENDBLK
  5
DB71
330
DB66
100
AcDbEntity
  8
0
100
AcDbBlockEnd
  0
BLOCK
  5
DB7C
330
DB72
100
AcDbEntity
  8
0
100
AcDbBlockBegin
  2
*D7
 70
     1
 10
0.0
 20
0.0
 30
0.0
  3
*D7
  1

  0
LINE
  5
DC93
330
DB72
100
AcDbEntity
  8
AM_5
 48
1.01
100
AcDbLine
 10
187.5999082901755
 20
128.5094476545076
 30
0.0
 11
187.5999082901755
 21
188.5094612543914
 31
0.0
  0
LINE
  5
DC94
330
DB72
100
AcDbEntity
  8
AM_5
 48
1.01
100
AcDbLine
 10
205.5999082901756
 20
173.1532721733516
 30
0.0
 11
205.5999082901756
 21
188.5094612543914
 31
0.0
  0
LINE
  5
DC95
330
DB72
100
AcDbEntity
  8
AM_5
 48
1.01
100
AcDbLine
 10
188.5999082901755
 20
187.5094612543914
 30
0.0
 11
204.5999082901756
 21
187.5094612543914
 31
0.0
  0
INSERT
  5
DC96
330
DB72
100
AcDbEntity
  8
AM_5
 48
1.01
100
AcDbBlockReference
  2
_Dot
 10
187.5999082901755
 20
187.5094612543914
 30
0.0
 50
180.0
  0
INSERT
  5
DC97
330
DB72
100
AcDbEntity
  8
AM_5
 48
1.01
100
AcDbBlockReference
  2
_Dot
 10
205.5999082901756
 20
187.5094612543914
 30
0.0
  0
MTEXT
  5
DC98
330
DB72
100
AcDbEntity
  8
AM_5
 62
     2
 48
1.01
100
AcDbMText
 10
196.5999082901755
 20
190.6094612543914
 30
0.0
 40
3.200000000000001
 41
0.0
 71
     5
 72
     1
  1
18
 73
     1
 44
1.0
1001
ACAD
1000
MTEXTBEGIN
1070
    73
1070
     1
1070
    44
1040
1.0
1070
    74
1070
     0
1000
MTEXTEND
  0
POINT
  5
DC99
330
DB72
100
AcDbEntity
  8
Defpoints
 62
     0
 48
1.01
100
AcDbPoint
 10
187.5999082901755
 20
127.5094476545076
 30
0.0
  0
POINT
  5
DC9A
330
DB72
100
AcDbEntity
  8
Defpoints
 62
     0
 48
1.01
100
AcDbPoint
 10
205.5999082901756
 20
172.1532721733516
 30
0.0
  0
POINT
  5
DC9B
330
DB72
100
AcDbEntity
  8
Defpoints
 62
     0
 48
1.01
100
AcDbPoint
 10
205.5999082901756
 20
187.5094612543914
 30
0.0
  0
ENDBLK
  5
DB7D
330
DB72
100
AcDbEntity
  8
0
100
AcDbBlockEnd
  0
BLOCK
  5
DB8A
330
DB7E
100
AcDbEntity
  8
0
100
AcDbBlockBegin
  2
*D8
 70
     1
 10
0.0
 20
0.0
 30
0.0
  3
*D8
  1

  0
LINE
  5
DC9C
330
DB7E
100
AcDbEntity
  8
AM_5
 48
1.01
100
AcDbLine
 10
254.8699823548274
 20
128.5094476545076
 30
0.0
 11
254.8699823548274
 21
188.5094612543914
 31
0.0
  0
LINE
  5
DC9D
330
DB7E
100
AcDbEntity
  8
AM_5
 48
1.01
100
AcDbLine
 10
256.8699823548274
 20
128.5094476545076
 30
0.0
 11
256.8699823548274
 21
188.5094612543914
 31
0.0
  0
LINE
  5
DC9E
330
DB7E
100
AcDbEntity
  8
AM_5
 48
1.01
100
AcDbLine
 10
257.8699823548273
 20
187.5094612543914
 30
0.0
 11
258.8699823548274
 21
187.5094612543914
 31
0.0
  0
LINE
  5
DC9F
330
DB7E
100
AcDbEntity
  8
AM_5
 48
1.01
100
AcDbLine
 10
253.8699823548274
 20
187.5094612543914
 30
0.0
 11
248.3142670661813
 21
187.5094612543914
 31
0.0
  0
LINE
  5
DCA0
330
DB7E
100
AcDbEntity
  8
AM_5
 48
1.01
100
AcDbLine
 10
256.8699823548274
 20
187.5094612543914
 30
0.0
 11
254.8699823548274
 21
187.5094612543914
 31
0.0
  0
INSERT
  5
DCA1
330
DB7E
100
AcDbEntity
  8
AM_5
 48
1.01
100
AcDbBlockReference
  2
_Dot
 10
256.8699823548274
 20
187.5094612543914
 30
0.0
 50
180.0
  0
INSERT
  5
DCA2
330
DB7E
100
AcDbEntity
  8
AM_5
 48
1.01
100
AcDbBlockReference
  2
_Dot
 10
254.8699823548274
 20
187.5094612543914
 30
0.0
  0
MTEXT
  5
DCA3
330
DB7E
100
AcDbEntity
  8
AM_5
 62
     2
 48
1.01
100
AcDbMText
 10
250.560933732848
 20
190.6094612543914
 30
0.0
 40
3.200000000000001
 41
0.0
 71
     5
 72
     1
  1
2
 73
     1
 44
1.0
1001
ACAD
1000
MTEXTBEGIN
1070
    73
1070
     1
1070
    44
1040
1.0
1070
    74
1070
     0
1000
MTEXTEND
  0
POINT
  5
DCA4
330
DB7E
100
AcDbEntity
  8
Defpoints
 62
     0
 48
1.01
100
AcDbPoint
 10
254.8699823548274
 20
127.5094476545076
 30
0.0
  0
POINT
  5
DCA5
330
DB7E
100
AcDbEntity
  8
Defpoints
 62
     0
 48
1.01
100
AcDbPoint
 10
256.8699823548274
 20
127.5094476545076
 30
0.0
  0
POINT
  5
DCA6
330
DB7E
100
AcDbEntity
  8
Defpoints
 62
     0
 48
1.01
100
AcDbPoint
 10
256.8699823548274
 20
187.5094612543914
 30
0.0
  0
ENDBLK
  5
DB8B
330
DB7E
100
AcDbEntity
  8
0
100
AcDbBlockEnd
  0
BLOCK
  5
DB96
330
DB8C
100
AcDbEntity
  8
0
100
AcDbBlockBegin
  2
*D9
 70
     1
 10
0.0
 20
0.0
 30
0.0
  3
*D9
  1

  0
LINE
  5
DCA7
330
DB8C
100
AcDbEntity
  8
AM_5
 48
1.01
100
AcDbLine
 10
256.8699823548274
 20
128.5094476545076
 30
0.0
 11
256.8699823548274
 21
188.5094612543914
 31
0.0
  0
LINE
  5
DCA8
330
DB8C
100
AcDbEntity
  8
AM_5
 48
1.01
100
AcDbLine
 10
277.8699823548274
 20
181.3668876545074
 30
0.0
 11
277.8699823548274
 21
188.5094612543914
 31
0.0
  0
LINE
  5
DCA9
330
DB8C
100
AcDbEntity
  8
AM_5
 48
1.01
100
AcDbLine
 10
257.8699823548273
 20
187.5094612543914
 30
0.0
 11
276.8699823548274
 21
187.5094612543914
 31
0.0
  0
INSERT
  5
DCAA
330
DB8C
100
AcDbEntity
  8
AM_5
 48
1.01
100
AcDbBlockReference
  2
_Dot
 10
256.8699823548274
 20
187.5094612543914
 30
0.0
 50
180.0
  0
INSERT
  5
DCAB
330
DB8C
100
AcDbEntity
  8
AM_5
 48
1.01
100
AcDbBlockReference
  2
_Dot
 10
277.8699823548274
 20
187.5094612543914
 30
0.0
  0
MTEXT
  5
DCAC
330
DB8C
100
AcDbEntity
  8
AM_5
 62
     2
 48
1.01
100
AcDbMText
 10
267.3699823548274
 20
190.6094612543914
 30
0.0
 40
3.200000000000001
 41
0.0
 71
     5
 72
     1
  1
21
 73
     1
 44
1.0
1001
ACAD
1000
MTEXTBEGIN
1070
    73
1070
     1
1070
    44
1040
1.0
1070
    74
1070
     0
1000
MTEXTEND
  0
POINT
  5
DCAD
330
DB8C
100
AcDbEntity
  8
Defpoints
 62
     0
 48
1.01
100
AcDbPoint
 10
256.8699823548274
 20
127.5094476545076
 30
0.0
  0
POINT
  5
DCAE
330
DB8C
100
AcDbEntity
  8
Defpoints
 62
     0
 48
1.01
100
AcDbPoint
 10
277.8699823548274
 20
180.3668876545074
 30
0.0
  0
POINT
  5
DCAF
330
DB8C
100
AcDbEntity
  8
Defpoints
 62
     0
 48
1.01
100
AcDbPoint
 10
277.8699823548274
 20
187.5094612543914
 30
0.0
  0
ENDBLK
  5
DB97
330
DB8C
100
AcDbEntity
  8
0
100
AcDbBlockEnd
  0
BLOCK
  5
DBA2
330
DB98
100
AcDbEntity
  8
0
100
AcDbBlockBegin
  2
*D10
 70
     1
 10
0.0
 20
0.0
 30
0.0
  3
*D10
  1

  0
LINE
  5
DCB0
330
DB98
100
AcDbEntity
  8
AM_5
 48
1.01
100
AcDbLine
 10
347.2189993548275
 20
140.0094476545076
 30
0.0
 11
347.2189993548275
 21
188.5094612543914
 31
0.0
  0
LINE
  5
DCB1
330
DB98
100
AcDbEntity
  8
AM_5
 48
1.01
100
AcDbLine
 10
362.2189993548273
 20
178.5094612543914
 30
0.0
 11
362.2189993548273
 21
188.5094612543914
 31
0.0
  0
LINE
  5
DCB2
330
DB98
100
AcDbEntity
  8
AM_5
 48
1.01
100
AcDbLine
 10
348.2189993548275
 20
187.5094612543914
 30
0.0
 11
361.2189993548274
 21
187.5094612543914
 31
0.0
  0
INSERT
  5
DCB3
330
DB98
100
AcDbEntity
  8
AM_5
 48
1.01
100
AcDbBlockReference
  2
_Dot
 10
347.2189993548275
 20
187.5094612543914
 30
0.0
 50
180.0
  0
INSERT
  5
DCB4
330
DB98
100
AcDbEntity
  8
AM_5
 48
1.01
100
AcDbBlockReference
  2
_Dot
 10
362.2189993548273
 20
187.5094612543914
 30
0.0
  0
MTEXT
  5
DCB5
330
DB98
100
AcDbEntity
  8
AM_5
 62
     2
 48
1.01
100
AcDbMText
 10
354.7189993548274
 20
190.6094612543914
 30
0.0
 40
3.200000000000001
 41
0.0
 71
     5
 72
     1
  1
15
 73
     1
 44
1.0
1001
ACAD
1000
MTEXTBEGIN
1070
    73
1070
     1
1070
    44
1040
1.0
1070
    74
1070
     0
1000
MTEXTEND
  0
POINT
  5
DCB6
330
DB98
100
AcDbEntity
  8
Defpoints
 62
     0
 48
1.01
100
AcDbPoint
 10
347.2189993548275
 20
139.0094476545076
 30
0.0
  0
POINT
  5
DCB7
330
DB98
100
AcDbEntity
  8
Defpoints
 62
     0
 48
1.01
100
AcDbPoint
 10
362.2189993548273
 20
177.5094612543914
 30
0.0
  0
POINT
  5
DCB8
330
DB98
100
AcDbEntity
  8
Defpoints
 62
     0
 48
1.01
100
AcDbPoint
 10
362.2189993548273
 20
187.5094612543914
 30
0.0
  0
ENDBLK
  5
DBA3
330
DB98
100
AcDbEntity
  8
0
100
AcDbBlockEnd
  0
BLOCK
  5
DBAE
330
DBA4
100
AcDbEntity
  8
0
100
AcDbBlockBegin
  2
*D11
 70
     1
 10
0.0
 20
0.0
 30
0.0
  3
*D11
  1

  0
LINE
  5
DCB9
330
DBA4
100
AcDbEntity
  8
AM_5
 48
1.01
100
AcDbLine
 10
362.2189993548273
 20
178.5094476545075
 30
0.0
 11
362.2189993548273
 21
188.5094612543908
 31
0.0
  0
LINE
  5
DCBA
330
DBA4
100
AcDbEntity
  8
AM_5
 48
1.01
100
AcDbLine
 10
369.2189993548274
 20
168.0094476545075
 30
0.0
 11
369.2189993548274
 21
188.5094612543908
 31
0.0
  0
LINE
  5
DCBB
330
DBA4
100
AcDbEntity
  8
AM_5
 48
1.01
100
AcDbLine
 10
363.2189993548274
 20
187.5094612543908
 30
0.0
 11
368.2189993548274
 21
187.5094612543908
 31
0.0
  0
INSERT
  5
DCBC
330
DBA4
100
AcDbEntity
  8
AM_5
 48
1.01
100
AcDbBlockReference
  2
_Dot
 10
362.2189993548273
 20
187.5094612543908
 30
0.0
 50
180.0
  0
INSERT
  5
DCBD
330
DBA4
100
AcDbEntity
  8
AM_5
 48
1.01
100
AcDbBlockReference
  2
_Dot
 10
369.2189993548274
 20
187.5094612543908
 30
0.0
  0
MTEXT
  5
DCBE
330
DBA4
100
AcDbEntity
  8
AM_5
 62
     2
 48
1.01
100
AcDbMText
 10
365.7189993548274
 20
190.6094612543908
 30
0.0
 40
3.200000000000001
 41
0.0
 71
     5
 72
     1
  1
7
 73
     1
 44
1.0
1001
ACAD
1000
MTEXTBEGIN
1070
    73
1070
     1
1070
    44
1040
1.0
1070
    74
1070
     0
1000
MTEXTEND
  0
POINT
  5
DCBF
330
DBA4
100
AcDbEntity
  8
Defpoints
 62
     0
 48
1.01
100
AcDbPoint
 10
362.2189993548273
 20
177.5094476545075
 30
0.0
  0
POINT
  5
DCC0
330
DBA4
100
AcDbEntity
  8
Defpoints
 62
     0
 48
1.01
100
AcDbPoint
 10
369.2189993548274
 20
167.0094476545075
 30
0.0
  0
POINT
  5
DCC1
330
DBA4
100
AcDbEntity
  8
Defpoints
 62
     0
 48
1.01
100
AcDbPoint
 10
369.2189993548274
 20
187.5094612543908
 30
0.0
  0
ENDBLK
  5
DBAF
330
DBA4
100
AcDbEntity
  8
0
100
AcDbBlockEnd
  0
BLOCK
  5
DBBA
330
DBB0
100
AcDbEntity
  8
0
100
AcDbBlockBegin
  2
*D12
 70
     1
 10
0.0
 20
0.0
 30
0.0
  3
*D12
  1

  0
LINE
  5
DCC2
330
DBB0
100
AcDbEntity
  8
AM_5
 48
1.01
100
AcDbLine
 10
369.2189993548274
 20
168.0094476545075
 30
0.0
 11
369.2189993548274
 21
188.5094612543908
 31
0.0
  0
LINE
  5
DCC3
330
DBB0
100
AcDbEntity
  8
AM_5
 48
1.01
100
AcDbLine
 10
381.7189993548274
 20
169.0094476545075
 30
0.0
 11
381.7189993548274
 21
188.5094612543908
 31
0.0
  0
LINE
  5
DCC4
330
DBB0
100
AcDbEntity
  8
AM_5
 48
1.01
100
AcDbLine
 10
370.2189993548274
 20
187.5094612543908
 30
0.0
 11
380.7189993548274
 21
187.5094612543908
 31
0.0
  0
INSERT
  5
DCC5
330
DBB0
100
AcDbEntity
  8
AM_5
 48
1.01
100
AcDbBlockReference
  2
_Dot
 10
369.2189993548274
 20
187.5094612543908
 30
0.0
 50
180.0
  0
INSERT
  5
DCC6
330
DBB0
100
AcDbEntity
  8
AM_5
 48
1.01
100
AcDbBlockReference
  2
_Dot
 10
381.7189993548274
 20
187.5094612543908
 30
0.0
  0
MTEXT
  5
DCC7
330
DBB0
100
AcDbEntity
  8
AM_5
 62
     2
 48
1.01
100
AcDbMText
 10
375.4689993548274
 20
190.6094612543908
 30
0.0
 40
3.200000000000001
 41
0.0
 71
     5
 72
     1
  1
12.5
 73
     1
 44
1.0
1001
ACAD
1000
MTEXTBEGIN
1070
    73
1070
     1
1070
    44
1040
1.0
1070
    74
1070
     0
1000
MTEXTEND
  0
POINT
  5
DCC8
330
DBB0
100
AcDbEntity
  8
Defpoints
 62
     0
 48
1.01
100
AcDbPoint
 10
369.2189993548274
 20
167.0094476545075
 30
0.0
  0
POINT
  5
DCC9
330
DBB0
100
AcDbEntity
  8
Defpoints
 62
     0
 48
1.01
100
AcDbPoint
 10
381.7189993548274
 20
168.0094476545075
 30
0.0
  0
POINT
  5
DCCA
330
DBB0
100
AcDbEntity
  8
Defpoints
 62
     0
 48
1.01
100
AcDbPoint
 10
381.7189993548274
 20
187.5094612543908
 30
0.0
  0
ENDBLK
  5
DBBB
330
DBB0
100
AcDbEntity
  8
0
100
AcDbBlockEnd
  0
BLOCK
  5
DBC6
330
DBBC
100
AcDbEntity
  8
0
100
AcDbBlockBegin
  2
*D13
 70
     1
 10
0.0
 20
0.0
 30
0.0
  3
*D13
  1

  0
LINE
  5
DCCB
330
DBBC
100
AcDbEntity
  8
AM_5
 48
1.01
100
AcDbLine
 10
268.6699703548273
 20
98.20944765450731
 30
0.0
 11
268.6699703548273
 21
61.00943565450752
 31
0.0
  0
LINE
  5
DCCC
330
DBBC
100
AcDbEntity
  8
AM_5
 48
1.01
100
AcDbLine
 10
293.0699923548274
 20
98.20246195163697
 30
0.0
 11
293.0699923548274
 21
61.00943565450752
 31
0.0
  0
LINE
  5
DCCD
330
DBBC
100
AcDbEntity
  8
AM_5
 48
1.01
100
AcDbLine
 10
269.6699703548274
 20
62.00943565450751
 30
0.0
 11
292.0699923548274
 21
62.00943565450751
 31
0.0
  0
INSERT
  5
DCCE
330
DBBC
100
AcDbEntity
  8
AM_5
 48
1.01
100
AcDbBlockReference
  2
_Dot
 10
268.6699703548273
 20
62.00943565450751
 30
0.0
 50
180.0
  0
INSERT
  5
DCCF
330
DBBC
100
AcDbEntity
  8
AM_5
 48
1.01
100
AcDbBlockReference
  2
_Dot
 10
293.0699923548274
 20
62.00943565450751
 30
0.0
  0
MTEXT
  5
DCD0
330
DBBC
100
AcDbEntity
  8
AM_5
 62
     2
 48
1.01
100
AcDbMText
 10
280.8699813548273
 20
65.10943565450751
 30
0.0
 40
3.200000000000001
 41
0.0
 71
     5
 72
     1
  1
24.4
 73
     1
 44
1.0
1001
ACAD
1000
MTEXTBEGIN
1070
    73
1070
     1
1070
    44
1040
1.0
1070
    74
1070
     0
1000
MTEXTEND
  0
POINT
  5
DCD1
330
DBBC
100
AcDbEntity
  8
Defpoints
 62
     0
 48
1.01
100
AcDbPoint
 10
268.6699703548273
 20
99.2094476545073
 30
0.0
  0
POINT
  5
DCD2
330
DBBC
100
AcDbEntity
  8
Defpoints
 62
     0
 48
1.01
100
AcDbPoint
 10
293.0699923548274
 20
99.20246195163697
 30
0.0
  0
POINT
  5
DCD3
330
DBBC
100
AcDbEntity
  8
Defpoints
 62
     0
 48
1.01
100
AcDbPoint
 10
293.0699923548274
 20
62.00943565450751
 30
0.0
  0
ENDBLK
  5
DBC7
330
DBBC
100
AcDbEntity
  8
0
100
AcDbBlockEnd
  0
BLOCK
  5
DBD2
330
DBC8
100
AcDbEntity
  8
0
100
AcDbBlockBegin
  2
*D14
 70
     1
 10
0.0
 20
0.0
 30
0.0
  3
*D14
  1

  0
LINE
  5
DCD4
330
DBC8
100
AcDbEntity
  8
AM_5
 48
1.01
100
AcDbLine
 10
347.2189993548275
 20
115.0094476545076
 30
0.0
 11
347.2189993548275
 21
61.00943565450752
 31
0.0
  0
LINE
  5
DCD5
330
DBC8
100
AcDbEntity
  8
AM_5
 48
1.01
100
AcDbLine
 10
357.7189993548274
 20
120.9710776545075
 30
0.0
 11
357.7189993548274
 21
61.00943565450752
 31
0.0
  0
LINE
  5
DCD6
330
DBC8
100
AcDbEntity
  8
AM_5
 48
1.01
100
AcDbLine
 10
348.2189993548275
 20
62.00943565450751
 30
0.0
 11
356.7189993548274
 21
62.00943565450751
 31
0.0
  0
INSERT
  5
DCD7
330
DBC8
100
AcDbEntity
  8
AM_5
 48
1.01
100
AcDbBlockReference
  2
_Dot
 10
347.2189993548275
 20
62.00943565450751
 30
0.0
 50
180.0
  0
INSERT
  5
DCD8
330
DBC8
100
AcDbEntity
  8
AM_5
 48
1.01
100
AcDbBlockReference
  2
_Dot
 10
357.7189993548274
 20
62.00943565450751
 30
0.0
  0
MTEXT
  5
DCD9
330
DBC8
100
AcDbEntity
  8
AM_5
 62
     2
 48
1.01
100
AcDbMText
 10
352.4689993548274
 20
65.10943565450751
 30
0.0
 40
3.200000000000001
 41
0.0
 71
     5
 72
     1
  1
10.5
 73
     1
 44
1.0
1001
ACAD
1000
MTEXTBEGIN
1070
    73
1070
     1
1070
    44
1040
1.0
1070
    74
1070
     0
1000
MTEXTEND
  0
POINT
  5
DCDA
330
DBC8
100
AcDbEntity
  8
Defpoints
 62
     0
 48
1.01
100
AcDbPoint
 10
347.2189993548275
 20
116.0094476545076
 30
0.0
  0
POINT
  5
DCDB
330
DBC8
100
AcDbEntity
  8
Defpoints
 62
     0
 48
1.01
100
AcDbPoint
 10
357.7189993548274
 20
121.9710776545075
 30
0.0
  0
POINT
  5
DCDC
330
DBC8
100
AcDbEntity
  8
Defpoints
 62
     0
 48
1.01
100
AcDbPoint
 10
357.7189993548274
 20
62.00943565450751
 30
0.0
  0
ENDBLK
  5
DBD3
330
DBC8
100
AcDbEntity
  8
0
100
AcDbBlockEnd
  0
BLOCK
  5
DBDE
330
DBD4
100
AcDbEntity
  8
0
100
AcDbBlockBegin
  2
*D15
 70
     1
 10
0.0
 20
0.0
 30
0.0
  3
*D15
  1

  0
LINE
  5
DCDD
330
DBD4
100
AcDbEntity
  8
AM_5
 48
1.01
100
AcDbLine
 10
357.7189993548274
 20
120.9710776545075
 30
0.0
 11
357.7189993548274
 21
61.00943565450648
 31
0.0
  0
LINE
  5
DCDE
330
DBD4
100
AcDbEntity
  8
AM_5
 48
1.01
100
AcDbLine
 10
367.7189993548275
 20
108.8904376545076
 30
0.0
 11
367.7189993548275
 21
61.00943565450648
 31
0.0
  0
LINE
  5
DCDF
330
DBD4
100
AcDbEntity
  8
AM_5
 48
1.01
100
AcDbLine
 10
358.7189993548274
 20
62.00943565450649
 30
0.0
 11
366.7189993548275
 21
62.00943565450649
 31
0.0
  0
INSERT
  5
DCE0
330
DBD4
100
AcDbEntity
  8
AM_5
 48
1.01
100
AcDbBlockReference
  2
_Dot
 10
357.7189993548274
 20
62.00943565450649
 30
0.0
 50
180.0
  0
INSERT
  5
DCE1
330
DBD4
100
AcDbEntity
  8
AM_5
 48
1.01
100
AcDbBlockReference
  2
_Dot
 10
367.7189993548275
 20
62.00943565450649
 30
0.0
  0
MTEXT
  5
DCE2
330
DBD4
100
AcDbEntity
  8
AM_5
 62
     2
 48
1.01
100
AcDbMText
 10
362.7189993548274
 20
65.10943565450649
 30
0.0
 40
3.200000000000001
 41
0.0
 71
     5
 72
     1
  1
10
 73
     1
 44
1.0
1001
ACAD
1000
MTEXTBEGIN
1070
    73
1070
     1
1070
    44
1040
1.0
1070
    74
1070
     0
1000
MTEXTEND
  0
POINT
  5
DCE3
330
DBD4
100
AcDbEntity
  8
Defpoints
 62
     0
 48
1.01
100
AcDbPoint
 10
357.7189993548274
 20
121.9710776545075
 30
0.0
  0
POINT
  5
DCE4
330
DBD4
100
AcDbEntity
  8
Defpoints
 62
     0
 48
1.01
100
AcDbPoint
 10
367.7189993548275
 20
109.8904376545076
 30
0.0
  0
POINT
  5
DCE5
330
DBD4
100
AcDbEntity
  8
Defpoints
 62
     0
 48
1.01
100
AcDbPoint
 10
367.7189993548275
 20
62.00943565450649
 30
0.0
  0
ENDBLK
  5
DBDF
330
DBD4
100
AcDbEntity
  8
0
100
AcDbBlockEnd
  0
BLOCK
  5
DBEA
330
DBE0
100
AcDbEntity
  8
0
100
AcDbBlockBegin
  2
*D16
 70
     1
 10
0.0
 20
0.0
 30
0.0
  3
*D16
  1

  0
LINE
  5
DCE6
330
DBE0
100
AcDbEntity
  8
AM_5
 48
1.01
100
AcDbLine
 10
367.7189993548275
 20
108.8904376545076
 30
0.0
 11
367.7189993548275
 21
71.00943565450558
 31
0.0
  0
LINE
  5
DCE7
330
DBE0
100
AcDbEntity
  8
AM_5
 48
1.01
100
AcDbLine
 10
377.7189993548275
 20
86.00943565450752
 30
0.0
 11
377.7189993548275
 21
71.00943565450558
 31
0.0
  0
LINE
  5
DCE8
330
DBE0
100
AcDbEntity
  8
AM_5
 48
1.01
100
AcDbLine
 10
368.7189993548275
 20
72.00943565450558
 30
0.0
 11
376.7189993548275
 21
72.00943565450558
 31
0.0
  0
INSERT
  5
DCE9
330
DBE0
100
AcDbEntity
  8
AM_5
 48
1.01
100
AcDbBlockReference
  2
_Dot
 10
367.7189993548275
 20
72.00943565450558
 30
0.0
 50
180.0
  0
INSERT
  5
DCEA
330
DBE0
100
AcDbEntity
  8
AM_5
 48
1.01
100
AcDbBlockReference
  2
_Dot
 10
377.7189993548275
 20
72.00943565450558
 30
0.0
  0
MTEXT
  5
DCEB
330
DBE0
100
AcDbEntity
  8
AM_5
 62
     2
 48
1.01
100
AcDbMText
 10
372.7189993548275
 20
75.10943565450557
 30
0.0
 40
3.200000000000001
 41
0.0
 71
     5
 72
     1
  1
10
 73
     1
 44
1.0
1001
ACAD
1000
MTEXTBEGIN
1070
    73
1070
     1
1070
    44
1040
1.0
1070
    74
1070
     0
1000
MTEXTEND
  0
POINT
  5
DCEC
330
DBE0
100
AcDbEntity
  8
Defpoints
 62
     0
 48
1.01
100
AcDbPoint
 10
367.7189993548275
 20
109.8904376545076
 30
0.0
  0
POINT
  5
DCED
330
DBE0
100
AcDbEntity
  8
Defpoints
 62
     0
 48
1.01
100
AcDbPoint
 10
377.7189993548275
 20
87.00943565450751
 30
0.0
  0
POINT
  5
DCEE
330
DBE0
100
AcDbEntity
  8
Defpoints
 62
     0
 48
1.01
100
AcDbPoint
 10
377.7189993548275
 20
72.00943565450558
 30
0.0
  0
ENDBLK
  5
DBEB
330
DBE0
100
AcDbEntity
  8
0
100
AcDbBlockEnd
  0
BLOCK
  5
DBF8
330
DBEC
100
AcDbEntity
  8
0
100
AcDbBlockBegin
  2
*D17
 70
     1
 10
0.0
 20
0.0
 30
0.0
  3
*D17
  1

  0
LINE
  5
DCEF
330
DBEC
100
AcDbEntity
  8
AM_5
 48
1.01
100
AcDbLine
 10
377.7189993548275
 20
86.0094376545075
 30
0.0
 11
377.7189993548275
 21
71.00943565450467
 31
0.0
  0
LINE
  5
DCF0
330
DBEC
100
AcDbEntity
  8
AM_5
 48
1.01
100
AcDbLine
 10
381.7189993548274
 20
86.0094376545075
 30
0.0
 11
381.7189993548274
 21
71.00943565450467
 31
0.0
  0
LINE
  5
DCF1
330
DBEC
100
AcDbEntity
  8
AM_5
 48
1.01
100
AcDbLine
 10
376.7189993548275
 20
72.00943565450467
 30
0.0
 11
375.7189993548275
 21
72.00943565450467
 31
0.0
  0
LINE
  5
DCF2
330
DBEC
100
AcDbEntity
  8
AM_5
 48
1.01
100
AcDbLine
 10
382.7189993548273
 20
72.00943565450467
 30
0.0
 11
388.3189993548274
 21
72.00943565450467
 31
0.0
  0
LINE
  5
DCF3
330
DBEC
100
AcDbEntity
  8
AM_5
 48
1.01
100
AcDbLine
 10
377.7189993548275
 20
72.00943565450467
 30
0.0
 11
381.7189993548274
 21
72.00943565450467
 31
0.0
  0
INSERT
  5
DCF4
330
DBEC
100
AcDbEntity
  8
AM_5
 48
1.01
100
AcDbBlockReference
  2
_Dot
 10
377.7189993548275
 20
72.00943565450467
 30
0.0
  0
INSERT
  5
DCF5
330
DBEC
100
AcDbEntity
  8
AM_5
 48
1.01
100
AcDbBlockReference
  2
_Dot
 10
381.7189993548274
 20
72.00943565450467
 30
0.0
 50
180.0
  0
MTEXT
  5
DCF6
330
DBEC
100
AcDbEntity
  8
AM_5
 62
     2
 48
1.01
100
AcDbMText
 10
386.0189993548274
 20
75.10943565450467
 30
0.0
 40
3.200000000000001
 41
0.0
 71
     5
 72
     1
  1
4
 73
     1
 44
1.0
1001
ACAD
1000
MTEXTBEGIN
1070
    73
1070
     1
1070
    44
1040
1.0
1070
    74
1070
     0
1000
MTEXTEND
  0
POINT
  5
DCF7
330
DBEC
100
AcDbEntity
  8
Defpoints
 62
     0
 48
1.01
100
AcDbPoint
 10
377.7189993548275
 20
87.0094376545075
 30
0.0
  0
POINT
  5
DCF8
330
DBEC
100
AcDbEntity
  8
Defpoints
 62
     0
 48
1.01
100
AcDbPoint
 10
381.7189993548274
 20
87.0094376545075
 30
0.0
  0
POINT
  5
DCF9
330
DBEC
100
AcDbEntity
  8
Defpoints
 62
     0
 48
1.01
100
AcDbPoint
 10
381.7189993548274
 20
72.00943565450467
 30
0.0
  0
ENDBLK
  5
DBF9
330
DBEC
100
AcDbEntity
  8
0
100
AcDbBlockEnd
  0
BLOCK
  5
DC04
330
DBFA
100
AcDbEntity
  8
0
100
AcDbBlockBegin
  2
*D18
 70
     1
 10
0.0
 20
0.0
 30
0.0
  3
*D18
  1

  0
LINE
  5
DCFA
330
DBFA
100
AcDbEntity
  8
AM_5
 48
1.01
100
AcDbLine
 10
367.7189993548275
 20
108.8904376545076
 30
0.0
 11
367.7189993548275
 21
61.00943565450399
 31
0.0
  0
LINE
  5
DCFB
330
DBFA
100
AcDbEntity
  8
AM_5
 48
1.01
100
AcDbLine
 10
381.7189993548274
 20
86.00943565450752
 30
0.0
 11
381.7189993548274
 21
61.00943565450399
 31
0.0
  0
LINE
  5
DCFC
330
DBFA
100
AcDbEntity
  8
AM_5
 48
1.01
100
AcDbLine
 10
368.7189993548275
 20
62.00943565450399
 30
0.0
 11
380.7189993548274
 21
62.00943565450399
 31
0.0
  0
INSERT
  5
DCFD
330
DBFA
100
AcDbEntity
  8
AM_5
 48
1.01
100
AcDbBlockReference
  2
_Dot
 10
367.7189993548275
 20
62.00943565450399
 30
0.0
 50
180.0
  0
INSERT
  5
DCFE
330
DBFA
100
AcDbEntity
  8
AM_5
 48
1.01
100
AcDbBlockReference
  2
_Dot
 10
381.7189993548274
 20
62.00943565450399
 30
0.0
  0
MTEXT
  5
DCFF
330
DBFA
100
AcDbEntity
  8
AM_5
 62
     2
 48
1.01
100
AcDbMText
 10
374.7189993548274
 20
65.10943565450398
 30
0.0
 40
3.200000000000001
 41
0.0
 71
     5
 72
     1
  1
14
 73
     1
 44
1.0
1001
ACAD
1000
MTEXTBEGIN
1070
    73
1070
     1
1070
    44
1040
1.0
1070
    74
1070
     0
1000
MTEXTEND
  0
POINT
  5
DD00
330
DBFA
100
AcDbEntity
  8
Defpoints
 62
     0
 48
1.01
100
AcDbPoint
 10
367.7189993548275
 20
109.8904376545076
 30
0.0
  0
POINT
  5
DD01
330
DBFA
100
AcDbEntity
  8
Defpoints
 62
     0
 48
1.01
100
AcDbPoint
 10
381.7189993548274
 20
87.00943565450751
 30
0.0
  0
POINT
  5
DD02
330
DBFA
100
AcDbEntity
  8
Defpoints
 62
     0
 48
1.01
100
AcDbPoint
 10
381.7189993548274
 20
62.00943565450399
 30
0.0
  0
ENDBLK
  5
DC05
330
DBFA
100
AcDbEntity
  8
0
100
AcDbBlockEnd
  0
BLOCK
  5
DC0F
330
DC06
100
AcDbEntity
  8
0
100
AcDbBlockBegin
  2
*D19
 70
     1
 10
0.0
 20
0.0
 30
0.0
  3
*D19
  1

  0
LINE
  5
DD03
330
DC06
100
AcDbEntity
  8
AM_5
 48
1.01
100
AcDbLine
 10
280.8699823548273
 20
81.58522765450749
 30
0.0
 11
280.8699823548273
 21
71.00943565450648
 31
0.0
  0
LINE
  5
DD04
330
DC06
100
AcDbEntity
  8
AM_5
 48
1.01
100
AcDbLine
 10
279.8699823548274
 20
72.00943565450649
 30
0.0
 11
273.3190288519802
 21
72.00943565450649
 31
0.0
  0
INSERT
  5
DD05
330
DC06
100
AcDbEntity
  8
AM_5
 48
1.01
100
AcDbBlockReference
  2
_Dot
 10
280.8699823548273
 20
72.00943565450649
 30
0.0
  0
INSERT
  5
DD06
330
DC06
100
AcDbEntity
  8
AM_5
 48
1.01
100
AcDbBlockReference
  2
_OPEN
 10
272.3190288519802
 20
72.00943565450649
 30
0.0
 50
180.0
  0
MTEXT
  5
DD07
330
DC06
100
AcDbEntity
  8
AM_5
 62
     2
 48
1.01
100
AcDbMText
 10
276.5945056034038
 20
75.10943565450649
 30
0.0
 40
3.200000000000001
 41
0.0
 71
     5
 72
     1
  1
4
 73
     1
 44
1.0
1001
ACAD
1000
MTEXTBEGIN
1070
    73
1070
     1
1070
    44
1040
1.0
1070
    74
1070
     0
1000
MTEXTEND
  0
POINT
  5
DD08
330
DC06
100
AcDbEntity
  8
Defpoints
 62
     0
 48
1.01
100
AcDbPoint
 10
280.8699823548273
 20
82.58522765450749
 30
0.0
  0
POINT
  5
DD09
330
DC06
100
AcDbEntity
  8
Defpoints
 62
     0
 48
1.01
100
AcDbPoint
 10
272.3190288519802
 20
82.71441028369276
 30
0.0
  0
POINT
  5
DD0A
330
DC06
100
AcDbEntity
  8
Defpoints
 62
     0
 48
1.01
100
AcDbPoint
 10
272.3190288519802
 20
72.00943565450649
 30
0.0
  0
ENDBLK
  5
DC10
330
DC06
100
AcDbEntity
  8
0
100
AcDbBlockEnd
  0
BLOCK
  5
DC1A
330
DC11
100
AcDbEntity
  8
0
100
AcDbBlockBegin
  2
*D20
 70
     1
 10
0.0
 20
0.0
 30
0.0
  3
*D20
  1

  0
LINE
  5
DD0B
330
DC11
100
AcDbEntity
  8
AM_5
 48
1.01
100
AcDbLine
 10
280.8699823548273
 20
81.58522765450749
 30
0.0
 11
280.8699823548273
 21
71.00943565450648
 31
0.0
  0
LINE
  5
DD0C
330
DC11
100
AcDbEntity
  8
AM_5
 48
1.01
100
AcDbLine
 10
281.8699823548273
 20
72.00943565450649
 30
0.0
 11
288.4209358576744
 21
72.00943565450649
 31
0.0
  0
INSERT
  5
DD0D
330
DC11
100
AcDbEntity
  8
AM_5
 48
1.01
100
AcDbBlockReference
  2
_Dot
 10
280.8699823548273
 20
72.00943565450649
 30
0.0
 50
180.0
  0
INSERT
  5
DD0E
330
DC11
100
AcDbEntity
  8
AM_5
 48
1.01
100
AcDbBlockReference
  2
_OPEN
 10
289.4209358576744
 20
72.00943565450649
 30
0.0
  0
MTEXT
  5
DD0F
330
DC11
100
AcDbEntity
  8
AM_5
 62
     2
 48
1.01
100
AcDbMText
 10
285.1454591062509
 20
75.10943565450649
 30
0.0
 40
3.200000000000001
 41
0.0
 71
     5
 72
     1
  1
4
 73
     1
 44
1.0
1001
ACAD
1000
MTEXTBEGIN
1070
    73
1070
     1
1070
    44
1040
1.0
1070
    74
1070
     0
1000
MTEXTEND
  0
POINT
  5
DD10
330
DC11
100
AcDbEntity
  8
Defpoints
 62
     0
 48
1.01
100
AcDbPoint
 10
280.8699823548273
 20
82.58522765450749
 30
0.0
  0
POINT
  5
DD11
330
DC11
100
AcDbEntity
  8
Defpoints
 62
     0
 48
1.01
100
AcDbPoint
 10
289.4209358576744
 20
82.71441028369276
 30
0.0
  0
POINT
  5
DD12
330
DC11
100
AcDbEntity
  8
Defpoints
 62
     0
 48
1.01
100
AcDbPoint
 10
289.4209358576744
 20
72.00943565450649
 30
0.0
  0
ENDBLK
  5
DC1B
330
DC11
100
AcDbEntity
  8
0
100
AcDbBlockEnd
  0
BLOCK
  5
DC40
330
DC36
100
AcDbEntity
  8
0
100
AcDbBlockBegin
  2
*D21
 70
     1
 10
0.0
 20
0.0
 30
0.0
  3
*D21
  1

  0
LINE
  5
DD78
330
DC36
100
AcDbEntity
  8
AM_5
 48
1.01
100
AcDbLine
 10
294.0699923548274
 20
253.2511304045076
 30
0.0
 11
306.0699923548274
 21
253.2511304045076
 31
0.0
  0
LINE
  5
DD79
330
DC36
100
AcDbEntity
  8
AM_5
 48
1.01
100
AcDbLine
 10
290.3699823548274
 20
218.7511304045076
 30
0.0
 11
306.0699923548274
 21
218.7511304045076
 31
0.0
  0
LINE
  5
DD7A
330
DC36
100
AcDbEntity
  8
AM_5
 48
1.01
100
AcDbLine
 10
305.0699923548274
 20
252.2511304045076
 30
0.0
 11
305.0699923548274
 21
219.7511304045076
 31
0.0
  0
INSERT
  5
DD7B
330
DC36
100
AcDbEntity
  8
AM_5
 48
1.01
100
AcDbBlockReference
  2
_Dot
 10
305.0699923548274
 20
253.2511304045076
 30
0.0
 50
90.0
  0
INSERT
  5
DD7C
330
DC36
100
AcDbEntity
  8
AM_5
 48
1.01
100
AcDbBlockReference
  2
_Dot
 10
305.0699923548274
 20
218.7511304045076
 30
0.0
 50
270.0
  0
MTEXT
  5
DD7D
330
DC36
100
AcDbEntity
  8
AM_5
 62
     2
 48
1.01
100
AcDbMText
 10
301.9699923548273
 20
236.0011304045076
 30
0.0
 40
3.200000000000001
 41
0.0
 71
     5
 72
     1
  1
34.5
 11
0.0000000000000001
 21
1.0
 31
0.0
 73
     1
 44
1.0
1001
ACAD
1000
MTEXTBEGIN
1070
    73
1070
     1
1070
    44
1040
1.0
1070
    74
1070
     0
1000
MTEXTEND
  0
POINT
  5
DD7E
330
DC36
100
AcDbEntity
  8
Defpoints
 62
     0
 48
1.01
100
AcDbPoint
 10
293.0699923548274
 20
253.2511304045076
 30
0.0
  0
POINT
  5
DD7F
330
DC36
100
AcDbEntity
  8
Defpoints
 62
     0
 48
1.01
100
AcDbPoint
 10
289.3699823548274
 20
218.7511304045076
 30
0.0
  0
POINT
  5
DD80
330
DC36
100
AcDbEntity
  8
Defpoints
 62
     0
 48
1.01
100
AcDbPoint
 10
305.0699923548274
 20
218.7511304045076
 30
0.0
  0
ENDBLK
  5
DC41
330
DC36
100
AcDbEntity
  8
0
100
AcDbBlockEnd
  0
BLOCK
  5
DC4C
330
DC42
100
AcDbEntity
  8
0
100
AcDbBlockBegin
  2
*D22
 70
     1
 10
0.0
 20
0.0
 30
0.0
  3
*D22
  1

  0
LINE
  5
DE4F
330
DC42
100
AcDbEntity
  8
AM_5
 48
1.01
100
AcDbLine
 10
289.9453876017967
 20
101.2594476545076
 30
0.0
 11
306.0699923548273
 21
101.2594476545076
 31
0.0
  0
LINE
  5
DE50
330
DC42
100
AcDbEntity
  8
AM_5
 48
1.01
100
AcDbLine
 10
289.9453876017967
 20
153.7594476545075
 30
0.0
 11
306.0699923548274
 21
153.7594476545075
 31
0.0
  0
LINE
  5
DE51
330
DC42
100
AcDbEntity
  8
AM_5
 48
1.01
100
AcDbLine
 10
305.0699923548273
 20
102.2594476545076
 30
0.0
 11
305.0699923548274
 21
152.7594476545075
 31
0.0
  0
INSERT
  5
DE52
330
DC42
100
AcDbEntity
  8
AM_5
 48
1.01
100
AcDbBlockReference
  2
_Dot
 10
305.0699923548273
 20
101.2594476545076
 30
0.0
 50
270.0
  0
INSERT
  5
DE53
330
DC42
100
AcDbEntity
  8
AM_5
 48
1.01
100
AcDbBlockReference
  2
_Dot
 10
305.0699923548274
 20
153.7594476545075
 30
0.0
 50
90.0
  0
MTEXT
  5
DE54
330
DC42
100
AcDbEntity
  8
AM_5
 62
     2
 48
1.01
100
AcDbMText
 10
301.9699923548273
 20
127.5094476545076
 30
0.0
 40
3.200000000000001
 41
0.0
 71
     5
 72
     1
  1
52.5
 11
0.0000000000000001
 21
1.0
 31
0.0
 73
     1
 44
1.0
1001
ACAD
1000
MTEXTBEGIN
1070
    73
1070
     1
1070
    44
1040
1.0
1070
    74
1070
     0
1000
MTEXTEND
  0
POINT
  5
DE55
330
DC42
100
AcDbEntity
  8
Defpoints
 62
     0
 48
1.01
100
AcDbPoint
 10
288.9453876017967
 20
101.2594476545076
 30
0.0
  0
POINT
  5
DE56
330
DC42
100
AcDbEntity
  8
Defpoints
 62
     0
 48
1.01
100
AcDbPoint
 10
288.9453876017967
 20
153.7594476545075
 30
0.0
  0
POINT
  5
DE57
330
DC42
100
AcDbEntity
  8
Defpoints
 62
     0
 48
1.01
100
AcDbPoint
 10
305.0699923548274
 20
153.7594476545075
 30
0.0
  0
ENDBLK
  5
DC4D
330
DC42
100
AcDbEntity
  8
0
100
AcDbBlockEnd
  0
BLOCK
  5
DC7C
330
DC72
100
AcDbEntity
  8
0
100
AcDbBlockBegin
  2
*D24
 70
     1
 10
0.0
 20
0.0
 30
0.0
  3
*D24
  1

  0
LINE
  5
DE34
330
DC72
100
AcDbEntity
  8
AM_5
 48
1.01
100
AcDbLine
 10
281.8699823548273
 20
168.0094696545075
 30
0.0
 11
316.0699923548274
 21
168.0094696545075
 31
0.0
  0
LINE
  5
DE35
330
DC72
100
AcDbEntity
  8
AM_5
 48
1.01
100
AcDbLine
 10
281.8699823548273
 20
87.00943565450751
 30
0.0
 11
316.0699923548274
 21
87.00943565450749
 31
0.0
  0
LINE
  5
DE36
330
DC72
100
AcDbEntity
  8
AM_5
 48
1.01
100
AcDbLine
 10
315.0699923548274
 20
167.0094696545075
 30
0.0
 11
315.0699923548274
 21
88.00943565450749
 31
0.0
  0
INSERT
  5
DE37
330
DC72
100
AcDbEntity
  8
AM_5
 48
1.01
100
AcDbBlockReference
  2
_Dot
 10
315.0699923548274
 20
168.0094696545075
 30
0.0
 50
90.0
  0
INSERT
  5
DE38
330
DC72
100
AcDbEntity
  8
AM_5
 48
1.01
100
AcDbBlockReference
  2
_Dot
 10
315.0699923548274
 20
87.00943565450749
 30
0.0
 50
270.0
  0
MTEXT
  5
DE39
330
DC72
100
AcDbEntity
  8
AM_5
 62
     2
 48
1.01
100
AcDbMText
 10
311.9699923548274
 20
127.5094526545075
 30
0.0
 40
3.200000000000001
 41
0.0
 71
     5
 72
     1
  1
81
 11
0.0000000000000001
 21
1.0
 31
0.0
 73
     1
 44
1.0
1001
ACAD
1000
MTEXTBEGIN
1070
    73
1070
     1
1070
    44
1040
1.0
1070
    74
1070
     0
1000
MTEXTEND
  0
POINT
  5
DE3A
330
DC72
100
AcDbEntity
  8
Defpoints
 62
     0
 48
1.01
100
AcDbPoint
 10
280.8699823548273
 20
168.0094696545075
 30
0.0
  0
POINT
  5
DE3B
330
DC72
100
AcDbEntity
  8
Defpoints
 62
     0
 48
1.01
100
AcDbPoint
 10
280.8699823548273
 20
87.00943565450751
 30
0.0
  0
POINT
  5
DE3C
330
DC72
100
AcDbEntity
  8
Defpoints
 62
     0
 48
1.01
100
AcDbPoint
 10
315.0699923548274
 20
87.00943565450749
 30
0.0
  0
ENDBLK
  5
DC7D
330
DC72
100
AcDbEntity
  8
0
100
AcDbBlockEnd
  0
BLOCK
  5
DC88
330
DC7E
100
AcDbEntity
  8
0
100
AcDbBlockBegin
  2
*D25
 70
     1
 10
0.0
 20
0.0
 30
0.0
  3
*D25
  1

  0
LINE
  5
DD5D
330
DC7E
100
AcDbEntity
  8
AM_5
 48
1.01
100
AcDbLine
 10
249.1001947715383
 20
127.5094476545076
 30
0.0
 11
243.8699823548272
 21
127.5094476545076
 31
0.0
  0
LINE
  5
DD5E
330
DC7E
100
AcDbEntity
  8
AM_5
 48
1.01
100
AcDbLine
 10
276.8699823548274
 20
177.5094612543914
 30
0.0
 11
243.8699823548272
 21
177.5094612543914
 31
0.0
  0
LINE
  5
DD5F
330
DC7E
100
AcDbEntity
  8
AM_5
 48
1.01
100
AcDbLine
 10
244.8699823548273
 20
128.5094476545076
 30
0.0
 11
244.8699823548273
 21
176.5094612543914
 31
0.0
  0
INSERT
  5
DD60
330
DC7E
100
AcDbEntity
  8
AM_5
 48
1.01
100
AcDbBlockReference
  2
_Dot
 10
244.8699823548273
 20
127.5094476545076
 30
0.0
 50
270.0
  0
INSERT
  5
DD61
330
DC7E
100
AcDbEntity
  8
AM_5
 48
1.01
100
AcDbBlockReference
  2
_Dot
 10
244.8699823548273
 20
177.5094612543914
 30
0.0
 50
90.0
  0
MTEXT
  5
DD62
330
DC7E
100
AcDbEntity
  8
AM_5
 62
     2
 48
1.01
100
AcDbMText
 10
241.7699823548272
 20
152.5094544544495
 30
0.0
 40
3.200000000000001
 41
0.0
 71
     5
 72
     1
  1
50
 11
0.0000000000000001
 21
1.0
 31
0.0
 73
     1
 44
1.0
1001
ACAD
1000
MTEXTBEGIN
1070
    73
1070
     1
1070
    44
1040
1.0
1070
    74
1070
     0
1000
MTEXTEND
  0
POINT
  5
DD63
330
DC7E
100
AcDbEntity
  8
Defpoints
 62
     0
 48
1.01
100
AcDbPoint
 10
250.1001947715383
 20
127.5094476545076
 30
0.0
  0
POINT
  5
DD64
330
DC7E
100
AcDbEntity
  8
Defpoints
 62
     0
 48
1.01
100
AcDbPoint
 10
277.8699823548274
 20
177.5094612543914
 30
0.0
  0
POINT
  5
DD65
330
DC7E
100
AcDbEntity
  8
Defpoints
 62
     0
 48
1.01
100
AcDbPoint
 10
244.8699823548273
 20
177.5094612543914
 30
0.0
  0
ENDBLK
  5
DC89
330
DC7E
100
AcDbEntity
  8
0
100
AcDbBlockEnd
  0
BLOCK
  5
DE9F
330
DE96
100
AcDbEntity
  8
0
100
AcDbBlockBegin
  2
*D26
 70
     1
 10
0.0
 20
0.0
 30
0.0
  3
*D26
  1

  0
LINE
  5
DEBF
330
DE96
100
AcDbEntity
  8
AM_5
100
AcDbLine
 10
323.6961817865585
 20
177.5093135357389
 30
0.0
 11
290.9061817865585
 21
177.5093135357388
 31
0.0
  0
LINE
  5
DEC0
330
DE96
100
AcDbEntity
  8
AM_5
100
AcDbLine
 10
290.9061817865585
 20
177.5093135357388
 30
0.0
 11
282.9396777424619
 21
163.2214264748571
 31
0.0
  0
MTEXT
  5
DEC1
330
DE96
100
AcDbEntity
  8
AM_5
 62
     2
100
AcDbMText
 10
308.0511817865585
 20
180.7593135357389
 30
0.0
 40
3.5
 41
0.0
 71
     5
 72
     1
  1
2-\U+22054.5×16スロット
 73
     1
 44
1.0
1001
ACAD
1000
MTEXTBEGIN
1070
    73
1070
     1
1070
    44
1040
1.0
1070
    74
1070
     0
1000
MTEXTEND
  0
INSERT
  5
DEC2
330
DE96
100
AcDbEntity
  8
AM_5
100
AcDbBlockReference
  2
_OPEN30
 10
281.9657034423983
 20
161.4746082064572
 30
0.0
 41
2.0
 42
2.0
 43
2.0
 50
240.857252696312
  0
POINT
  5
DEC3
330
DE96
100
AcDbEntity
  8
Defpoints
 62
     0
100
AcDbPoint
 10
281.9657034423983
 20
161.4746082064572
 30
0.0
  0
POINT
  5
DEC4
330
DE96
100
AcDbEntity
  8
Defpoints
 62
     0
100
AcDbPoint
 10
279.7742612672553
 20
157.5442671025574
 30
0.0
  0
ENDBLK
  5
DEA0
330
DE96
100
AcDbEntity
  8
0
100
AcDbBlockEnd
  0
ENDSEC
  0
SECTION
  2
ENTITIES
  0
LINE
  5
B530
330
1F
100
AcDbEntity
  8
AM_2
100
AcDbLine
 10
31.50000010187465
 20
288.5000000451583
 30
0.0
 11
31.50000010187452
 21
144.5000000451582
 31
0.0
  0
LINE
  5
B531
330
1F
100
AcDbEntity
  8
AM_2
100
AcDbLine
 10
11.50000010187464
 20
280.5000000451583
 30
0.0
 11
111.5000001018746
 21
280.5000000451583
 31
0.0
  0
LINE
  5
B532
330
1F
100
AcDbEntity
  8
AM_2
100
AcDbLine
 10
11.50000010187464
 20
272.5000000451582
 30
0.0
 11
111.5000001018746
 21
272.5000000451582
 31
0.0
  0
LINE
  5
B533
330
1F
100
AcDbEntity
  8
AM_2
100
AcDbLine
 10
11.50000010187464
 20
224.5000000451583
 30
0.0
 11
111.5000001018746
 21
224.5000000451582
 31
0.0
  0
LINE
  5
B534
330
1F
100
AcDbEntity
  8
AM_2
100
AcDbLine
 10
11.50000010187464
 20
176.5000000451582
 30
0.0
 11
111.5000001018746
 21
176.5000000451582
 31
0.0
  0
LINE
  5
B535
330
1F
100
AcDbEntity
  8
AM_0
100
AcDbLine
 10
11.50000010187466
 20
201.5000000451582
 30
0.0
 11
11.50000010187466
 21
105.5000000451582
 31
0.0
  0
LINE
  5
B536
330
1F
100
AcDbEntity
  8
AM_0
100
AcDbLine
 10
11.50000010187464
 20
288.5000000451583
 30
0.0
 11
91.50000010187465
 21
288.5000000451583
 31
0.0
  0
LINE
  5
B537
330
1F
100
AcDbEntity
  8
AM_0
100
AcDbLine
 10
111.5000001018746
 20
288.5000000451583
 30
0.0
 11
111.5000001018746
 21
144.5000000451582
 31
0.0
  0
LINE
  5
B538
330
1F
100
AcDbEntity
  8
AM_0
100
AcDbLine
 10
11.50000010187464
 20
144.5000000451582
 30
0.0
 11
111.5000001018746
 21
144.5000000451582
 31
0.0
  0
MTEXT
  5
B545
330
1F
100
AcDbEntity
  8
AM_6
100
AcDbMText
 10
31.50000010187465
 20
284.5000000451582
 30
0.0
 40
3.2
 41
90.0
 71
     4
 72
     5
  1
　　取替クレセント
 73
     1
 44
1.0
1001
ACAD
1000
MTEXTBEGIN
1070
    73
1070
     1
1070
    44
1040
1.0
1070
    74
1070
     0
1000
MTEXTEND
  0
MTEXT
  5
B546
330
1F
100
AcDbEntity
  8
AM_6
100
AcDbMText
 10
31.50000010187465
 20
276.5000000451582
 30
0.0
 40
3.2
 41
90.0
 71
     4
 72
     5
  1
　　HK-500
 73
     1
 44
1.0
1001
ACAD
1000
MTEXTBEGIN
1070
    73
1070
     1
1070
    44
1040
1.0
1070
    74
1070
     0
1000
MTEXTEND
  0
MTEXT
  5
B547
102
{ACAD_XDICTIONARY
360
DEE7
102
}
330
1F
100
AcDbEntity
  8
AM_6
100
AcDbMText
 10
31.50000010187465
 20
268.5000000451582
 30
0.0
 40
3.2
 41
90.0
 71
     4
 72
     5
  1
　　台座           ：亜鉛ダイキャスト
 73
     1
 44
1.0
1001
ACAD
1000
MTEXTBEGIN
1070
    73
1070
     1
1070
    44
1040
1.0
1070
    74
1070
     0
1000
MTEXTEND
  0
MTEXT
  5
B548
102
{ACAD_XDICTIONARY
360
DEE9
102
}
330
1F
100
AcDbEntity
  8
AM_6
100
AcDbMText
 10
31.50000010187465
 20
260.5000000451582
 30
0.0
 40
3.2
 41
90.0
 71
     4
 72
     5
  1
　　レバー         ：亜鉛ダイキャスト
 73
     1
 44
1.0
1001
ACAD
1000
MTEXTBEGIN
1070
    73
1070
     1
1070
    44
1040
1.0
1070
    74
1070
     0
1000
MTEXTEND
  0
MTEXT
  5
B551
102
{ACAD_XDICTIONARY
360
DEEB
102
}
330
1F
100
AcDbEntity
  8
AM_6
100
AcDbMText
 10
31.50000010187465
 20
252.5000000451582
 30
0.0
 40
3.2
 41
90.0
 71
     4
 72
     5
  1
　　貝ガラ         ：亜鉛ダイキャスト
 73
     1
 44
1.0
1001
ACAD
1000
MTEXTBEGIN
1070
    73
1070
     1
1070
    44
1040
1.0
1070
    74
1070
     0
1000
MTEXTEND
  0
MTEXT
  5
B553
330
1F
100
AcDbEntity
  8
AM_6
100
AcDbMText
 10
21.50000010187466
 20
284.5000000451582
 30
0.0
 40
3.2
 41
19.99999999999995
 71
     5
 72
     5
  1
品名
 73
     1
 44
1.0
1001
ACAD
1000
MTEXTBEGIN
1070
    73
1070
     1
1070
    44
1040
1.0
1070
    74
1070
     0
1000
MTEXTEND
1000
ACAD_MTEXT_DEFINED_HEIGHT_BEGIN
1070
    46
1040
7.999999999999985
1000
ACAD_MTEXT_DEFINED_HEIGHT_END
  0
TEXT
  5
CB05
330
1F
100
AcDbEntity
  8
AM_6
 60
     1
100
AcDbText
 10
408.5000001018745
 20
8.50000004515823
 30
0.0
 40
2.5
  1
!GENTITLE-INSERT
100
AcDbText
  0
TEXT
  5
CB06
330
1F
100
AcDbEntity
  8
AM_6
 60
     1
100
AcDbText
 10
0.0000001018746616
 20
0.0000000451582309
 30
0.0
 40
2.5
  1
!GENTITLE-LL
100
AcDbText
  0
TEXT
  5
CB07
330
1F
100
AcDbEntity
  8
AM_6
 60
     1
100
AcDbText
 10
420.0000001018747
 20
297.0000000451582
 30
0.0
 40
2.5
  1
!GENTITLE-RU
100
AcDbText
  0
TEXT
  5
CB08
330
1F
100
AcDbEntity
  8
AM_6
 60
     1
100
AcDbText
 10
420.0000001018747
 20
297.0000000451582
 30
0.0
 40
2.5
  1
!GENTITLE-MAX
100
AcDbText
  0
LINE
  5
CB09
330
1F
100
AcDbEntity
  8
size
100
AcDbLine
 10
0.0000001018746616
 20
0.0000000451582309
 30
0.0
 11
420.0000001018747
 21
0.0000000451582309
 31
0.0
1001
GENIUS_GENREC_14
1002
{
1000
PYDIR
1011
0.0000001018746794
1021
297.0000000451582
1031
0.0
1002
}
1002
{
1000
PXDIR
1011
420.0000001018747
1021
0.0000000451582309
1031
0.0
1002
}
1002
{
1000
PORI
1011
0.0000001018746616
1021
0.0000000451582309
1031
0.0
1002
}
1002
{
1000
PINS
1011
210.0000001018747
1021
148.5000000451582
1031
0.0
1002
}
1002
{
1000
HVAL
1000
297
1002
}
1002
{
1000
H
1070
     2
1002
}
1002
{
1000
WVAL
1000
420
1002
}
1002
{
1000
W
1070
     2
1002
}
1002
{
1000
C
1070
     4
1002
}
1001
GENIUS_GENOBJ-N-REC_13
1002
{
1000
OWNER
1000
GEN
1002
}
1001
GENIUS_GENODEF_13
1002
{
1000
HIER
1070
     0
1002
}
1002
{
1000
MANEDIT
1070
     0
1002
}
1002
{
1000
NOSEL
1070
     0
1002
}
1002
{
1000
BEHIND
1070
     0
1002
}
1002
{
1000
OTHER
1070
     0
1002
}
1002
{
1000
REACTOR
1002
}
  0
LINE
  5
CB0A
330
1F
100
AcDbEntity
  8
size
100
AcDbLine
 10
420.0000001018747
 20
0.0000000451582309
 30
0.0
 11
420.0000001018747
 21
297.0000000451582
 31
0.0
1001
GENIUS_GENREC_14
1002
{
1000
PYDIR
1011
0.0000001018746794
1021
297.0000000451582
1031
0.0
1002
}
1002
{
1000
PXDIR
1011
420.0000001018747
1021
0.0000000451582309
1031
0.0
1002
}
1002
{
1000
PORI
1011
0.0000001018746616
1021
0.0000000451582309
1031
0.0
1002
}
1002
{
1000
PINS
1011
210.0000001018747
1021
148.5000000451582
1031
0.0
1002
}
1002
{
1000
HVAL
1000
297
1002
}
1002
{
1000
H
1070
     2
1002
}
1002
{
1000
WVAL
1000
420
1002
}
1002
{
1000
W
1070
     2
1002
}
1002
{
1000
C
1070
     4
1002
}
1001
GENIUS_GENOBJ-N-REC_13
1002
{
1000
OWNER
1000
GEN
1002
}
1001
GENIUS_GENODEF_13
1002
{
1000
HIER
1070
     0
1002
}
1002
{
1000
MANEDIT
1070
     0
1002
}
1002
{
1000
NOSEL
1070
     0
1002
}
1002
{
1000
BEHIND
1070
     0
1002
}
1002
{
1000
OTHER
1070
     0
1002
}
1002
{
1000
REACTOR
1002
}
  0
LINE
  5
CB0B
330
1F
100
AcDbEntity
  8
size
100
AcDbLine
 10
420.0000001018747
 20
297.0000000451582
 30
0.0
 11
0.0000001018746891
 21
297.0000000451582
 31
0.0
1001
GENIUS_GENREC_14
1002
{
1000
PYDIR
1011
0.0000001018746794
1021
297.0000000451582
1031
0.0
1002
}
1002
{
1000
PXDIR
1011
420.0000001018747
1021
0.0000000451582309
1031
0.0
1002
}
1002
{
1000
PORI
1011
0.0000001018746616
1021
0.0000000451582309
1031
0.0
1002
}
1002
{
1000
PINS
1011
210.0000001018747
1021
148.5000000451582
1031
0.0
1002
}
1002
{
1000
HVAL
1000
297
1002
}
1002
{
1000
H
1070
     2
1002
}
1002
{
1000
WVAL
1000
420
1002
}
1002
{
1000
W
1070
     2
1002
}
1002
{
1000
C
1070
     4
1002
}
1001
GENIUS_GENOBJ-N-REC_13
1002
{
1000
OWNER
1000
GEN
1002
}
1001
GENIUS_GENODEF_13
1002
{
1000
HIER
1070
     0
1002
}
1002
{
1000
MANEDIT
1070
     0
1002
}
1002
{
1000
NOSEL
1070
     0
1002
}
1002
{
1000
BEHIND
1070
     0
1002
}
1002
{
1000
OTHER
1070
     0
1002
}
1002
{
1000
REACTOR
1002
}
  0
LINE
  5
CB0C
330
1F
100
AcDbEntity
  8
size
100
AcDbLine
 10
0.0000001018746891
 20
297.0000000451582
 30
0.0
 11
0.0000001018746616
 21
0.0000000451582309
 31
0.0
1001
GENIUS_GENREC_14
1002
{
1000
PYDIR
1011
0.0000001018746794
1021
297.0000000451582
1031
0.0
1002
}
1002
{
1000
PXDIR
1011
420.0000001018747
1021
0.0000000451582309
1031
0.0
1002
}
1002
{
1000
PORI
1011
0.0000001018746616
1021
0.0000000451582309
1031
0.0
1002
}
1002
{
1000
PINS
1011
210.0000001018747
1021
148.5000000451582
1031
0.0
1002
}
1002
{
1000
HVAL
1000
297
1002
}
1002
{
1000
H
1070
     2
1002
}
1002
{
1000
WVAL
1000
420
1002
}
1002
{
1000
W
1070
     2
1002
}
1002
{
1000
C
1070
     4
1002
}
1001
GENIUS_GENOBJ-N-REC_13
1002
{
1000
OWNER
1000
GEN
1002
}
1001
GENIUS_GENODEF_13
1002
{
1000
HIER
1070
     0
1002
}
1002
{
1000
MANEDIT
1070
     0
1002
}
1002
{
1000
NOSEL
1070
     0
1002
}
1002
{
1000
BEHIND
1070
     0
1002
}
1002
{
1000
OTHER
1070
     0
1002
}
1002
{
1000
REACTOR
1002
}
  0
LINE
  5
CB0D
330
1F
100
AcDbEntity
  8
waku
100
AcDbLine
 10
408.5000001018745
 20
8.50000004515823
 30
0.0
 11
408.5000001018746
 21
288.5000000451583
 31
0.0
1001
GENIUS_GENREC_14
1002
{
1000
PYDIR
1011
0.0000001018746794
1021
297.0000000451582
1031
0.0
1002
}
1002
{
1000
PXDIR
1011
420.0000001018747
1021
0.0000000451582309
1031
0.0
1002
}
1002
{
1000
PORI
1011
0.0000001018746616
1021
0.0000000451582309
1031
0.0
1002
}
1002
{
1000
PINS
1011
210.0000001018747
1021
148.5000000451582
1031
0.0
1002
}
1002
{
1000
HVAL
1000
297
1002
}
1002
{
1000
H
1070
     2
1002
}
1002
{
1000
WVAL
1000
420
1002
}
1002
{
1000
W
1070
     2
1002
}
1002
{
1000
C
1070
     4
1002
}
1001
GENIUS_GENOBJ-N-REC_13
1002
{
1000
OWNER
1000
GEN
1002
}
1001
GENIUS_GENODEF_13
1002
{
1000
HIER
1070
     0
1002
}
1002
{
1000
MANEDIT
1070
     0
1002
}
1002
{
1000
NOSEL
1070
     0
1002
}
1002
{
1000
BEHIND
1070
     0
1002
}
1002
{
1000
OTHER
1070
     0
1002
}
1002
{
1000
REACTOR
1002
}
  0
LINE
  5
CB0E
330
1F
100
AcDbEntity
  8
waku
100
AcDbLine
 10
11.50000010187469
 20
288.5000000451583
 30
0.0
 11
11.50000010187466
 21
8.50000004515823
 31
0.0
1001
GENIUS_GENREC_14
1002
{
1000
PYDIR
1011
0.0000001018746794
1021
297.0000000451582
1031
0.0
1002
}
1002
{
1000
PXDIR
1011
420.0000001018747
1021
0.0000000451582309
1031
0.0
1002
}
1002
{
1000
PORI
1011
0.0000001018746616
1021
0.0000000451582309
1031
0.0
1002
}
1002
{
1000
PINS
1011
210.0000001018747
1021
148.5000000451582
1031
0.0
1002
}
1002
{
1000
HVAL
1000
297
1002
}
1002
{
1000
H
1070
     2
1002
}
1002
{
1000
WVAL
1000
420
1002
}
1002
{
1000
W
1070
     2
1002
}
1002
{
1000
C
1070
     4
1002
}
1001
GENIUS_GENOBJ-N-REC_13
1002
{
1000
OWNER
1000
GEN
1002
}
1001
GENIUS_GENODEF_13
1002
{
1000
HIER
1070
     0
1002
}
1002
{
1000
MANEDIT
1070
     0
1002
}
1002
{
1000
NOSEL
1070
     0
1002
}
1002
{
1000
BEHIND
1070
     0
1002
}
1002
{
1000
OTHER
1070
     0
1002
}
1002
{
1000
REACTOR
1002
}
  0
LINE
  5
CB0F
330
1F
100
AcDbEntity
  8
waku
100
AcDbLine
 10
408.5000001018746
 20
288.5000000451583
 30
0.0
 11
11.50000010187469
 21
288.5000000451583
 31
0.0
1001
GENIUS_GENREC_14
1002
{
1000
PYDIR
1011
0.0000001018746794
1021
297.0000000451582
1031
0.0
1002
}
1002
{
1000
PXDIR
1011
420.0000001018747
1021
0.0000000451582309
1031
0.0
1002
}
1002
{
1000
PORI
1011
0.0000001018746616
1021
0.0000000451582309
1031
0.0
1002
}
1002
{
1000
PINS
1011
210.0000001018747
1021
148.5000000451582
1031
0.0
1002
}
1002
{
1000
HVAL
1000
297
1002
}
1002
{
1000
H
1070
     2
1002
}
1002
{
1000
WVAL
1000
420
1002
}
1002
{
1000
W
1070
     2
1002
}
1002
{
1000
C
1070
     4
1002
}
1001
GENIUS_GENOBJ-N-REC_13
1002
{
1000
OWNER
1000
GEN
1002
}
1001
GENIUS_GENODEF_13
1002
{
1000
HIER
1070
     0
1002
}
1002
{
1000
MANEDIT
1070
     0
1002
}
1002
{
1000
NOSEL
1070
     0
1002
}
1002
{
1000
BEHIND
1070
     0
1002
}
1002
{
1000
OTHER
1070
     0
1002
}
1002
{
1000
REACTOR
1002
}
  0
TEXT
  5
CB10
330
1F
100
AcDbEntity
  8
AM_6
 60
     1
100
AcDbText
 10
0.0000001018746616
 20
0.0000000451582309
 30
0.0
 40
2.5
  1
!GENTITLE-LL
100
AcDbText
  0
TEXT
  5
CB11
330
1F
100
AcDbEntity
  8
AM_6
 60
     1
100
AcDbText
 10
408.5000001018746
 20
288.5000000451583
 30
0.0
 40
2.5
  1
!GENTITLE-RU
100
AcDbText
  0
TEXT
  5
CB12
330
1F
100
AcDbEntity
  8
AM_6
 60
     1
100
AcDbText
 10
420.0000001018747
 20
297.0000000451582
 30
0.0
 40
2.5
  1
!GENTITLE-MAX
100
AcDbText
  0
TEXT
  5
CB13
330
1F
100
AcDbEntity
  8
AM_6
 60
     1
100
AcDbText
 10
408.5000001018745
 20
8.50000004515823
 30
0.0
 40
2.5
  1
!GENTITLE-INSERT
100
AcDbText
  0
LINE
  5
CB14
330
1F
100
AcDbEntity
  8
waku
100
AcDbLine
 10
11.50000010187466
 20
8.50000004515823
 30
0.0
 11
408.5000001018745
 21
8.50000004515823
 31
0.0
  0
MTEXT
  5
D71C
102
{ACAD_XDICTIONARY
360
DEED
102
}
330
1F
100
AcDbEntity
  8
AM_6
100
AcDbMText
 10
31.50000010187461
 20
244.5000000451583
 30
0.0
 40
3.2
 41
90.0
 71
     4
 72
     5
  1
　　ビスカバー     ：ポリプロピレン樹脂
 73
     1
 44
1.0
1001
ACAD
1000
MTEXTBEGIN
1070
    73
1070
     1
1070
    44
1040
1.0
1070
    74
1070
     0
1000
MTEXTEND
  0
MTEXT
  5
D71D
102
{ACAD_XDICTIONARY
360
DEEF
102
}
330
1F
100
AcDbEntity
  8
AM_6
100
AcDbMText
 10
31.50000010187461
 20
236.5000000451582
 30
0.0
 40
3.2
 41
90.0
 71
     4
 72
     5
  1
　　キャップ       ：ポリアミド樹脂
 73
     1
 44
1.0
1001
ACAD
1000
MTEXTBEGIN
1070
    73
1070
     1
1070
    44
1040
1.0
1070
    74
1070
     0
1000
MTEXTEND
  0
MTEXT
  5
D71E
102
{ACAD_XDICTIONARY
360
DEF1
102
}
330
1F
100
AcDbEntity
  8
AM_6
100
AcDbMText
 10
31.50000010187461
 20
228.5000000451582
 30
0.0
 40
3.2
 41
90.0
 71
     4
 72
     5
  1
　　スペーサー     ：ポリプロピレン樹脂
 73
     1
 44
1.0
1001
ACAD
1000
MTEXTBEGIN
1070
    73
1070
     1
1070
    44
1040
1.0
1070
    74
1070
     0
1000
MTEXTEND
  0
MTEXT
  5
D725
330
1F
100
AcDbEntity
  8
AM_6
100
AcDbMText
 10
21.50000010187466
 20
276.5000000451582
 30
0.0
 40
3.2
 41
19.99999999999995
 71
     5
 72
     5
  1
品番
 73
     1
 44
1.0
1001
ACAD
1000
MTEXTBEGIN
1070
    73
1070
     1
1070
    44
1040
1.0
1070
    74
1070
     0
1000
MTEXTEND
1000
ACAD_MTEXT_DEFINED_HEIGHT_BEGIN
1070
    46
1040
7.999999999999985
1000
ACAD_MTEXT_DEFINED_HEIGHT_END
  0
MTEXT
  5
D726
330
1F
100
AcDbEntity
  8
AM_6
100
AcDbMText
 10
21.5000001018747
 20
248.5000000451583
 30
0.0
 40
3.2
 41
19.99999999999995
 71
     5
 72
     5
  1
材質
 73
     1
 44
1.0
1001
ACAD
1000
MTEXTBEGIN
1070
    73
1070
     1
1070
    44
1040
1.0
1070
    74
1070
     0
1000
MTEXTEND
1000
ACAD_MTEXT_DEFINED_HEIGHT_BEGIN
1070
    46
1040
47.99999999999992
1000
ACAD_MTEXT_DEFINED_HEIGHT_END
  0
MTEXT
  5
D727
330
1F
100
AcDbEntity
  8
AM_6
100
AcDbMText
 10
21.50000010187465
 20
200.5000000451582
 30
0.0
 40
3.2
 41
19.99999999999987
 71
     5
 72
     5
  1
仕上げ
 73
     1
 44
1.0
1001
ACAD
1000
MTEXTBEGIN
1070
    73
1070
     1
1070
    44
1040
1.0
1070
    74
1070
     0
1000
MTEXTEND
1000
ACAD_MTEXT_DEFINED_HEIGHT_BEGIN
1070
    46
1040
48.00000000000001
1000
ACAD_MTEXT_DEFINED_HEIGHT_END
  0
MTEXT
  5
D728
330
1F
100
AcDbEntity
  8
AM_6
100
AcDbMText
 10
21.5000001018746
 20
160.5000000451582
 30
0.0
 40
3.2
 41
19.99999999999988
 71
     5
 72
     5
  1
備考
 73
     1
 44
1.0
1001
ACAD
1000
MTEXTBEGIN
1070
    73
1070
     1
1070
    44
1040
1.0
1070
    74
1070
     0
1000
MTEXTEND
1000
ACAD_MTEXT_DEFINED_HEIGHT_BEGIN
1070
    46
1040
31.99999999999999
1000
ACAD_MTEXT_DEFINED_HEIGHT_END
  0
MTEXT
  5
D731
330
1F
100
AcDbEntity
  8
AM_6
100
AcDbMText
 10
31.50000010187463
 20
172.5000000451582
 30
0.0
 40
3.2
 41
90.0
 71
     4
 72
     5
  1
　　スペーサー（ｔ＝1.0）　4枚付
 73
     1
 44
1.0
1001
ACAD
1000
MTEXTBEGIN
1070
    73
1070
     1
1070
    44
1040
1.0
1070
    74
1070
     0
1000
MTEXTEND
  0
MTEXT
  5
D732
330
1F
100
AcDbEntity
  8
AM_6
100
AcDbMText
 10
31.50000010187459
 20
164.5000000451582
 30
0.0
 40
3.2
 41
90.0
 71
     4
 72
     5
  1
　　取付ピッチ範囲　44～61
 73
     1
 44
1.0
1001
ACAD
1000
MTEXTBEGIN
1070
    73
1070
     1
1070
    44
1040
1.0
1070
    74
1070
     0
1000
MTEXTEND
  0
MTEXT
  5
D733
330
1F
100
AcDbEntity
  8
AM_6
100
AcDbMText
 10
31.50000010187459
 20
156.5000000451582
 30
0.0
 40
3.2
 41
90.0
 71
     4
 72
     5
  1
　　キャップ組替えにより貝ガラ出寸法18、24変更可能
 73
     1
 44
1.0
1001
ACAD
1000
MTEXTBEGIN
1070
    73
1070
     1
1070
    44
1040
1.0
1070
    74
1070
     0
1000
MTEXTEND
  0
MTEXT
  5
D734
330
1F
100
AcDbEntity
  8
AM_6
100
AcDbMText
 10
31.50000010187459
 20
148.5000000451582
 30
0.0
 40
3.2
 41
90.0
 71
     4
 72
     5
  1
　　レバー組替えにより左右勝手変更可能（本図は右勝手）
 73
     1
 44
1.0
1001
ACAD
1000
MTEXTBEGIN
1070
    73
1070
     1
1070
    44
1040
1.0
1070
    74
1070
     0
1000
MTEXTEND
  0
MTEXT
  5
D743
102
{ACAD_XDICTIONARY
360
DEF3
102
}
330
1F
100
AcDbEntity
  8
AM_6
100
AcDbMText
 10
31.5000001018746
 20
220.5000000451583
 30
0.0
 40
3.2
 41
90.0
 71
     4
 72
     5
  1
　　台座           ：焼付塗装（グレー・ブロンズ）
 73
     1
 44
1.0
1001
ACAD
1000
MTEXTBEGIN
1070
    73
1070
     1
1070
    44
1040
1.0
1070
    74
1070
     0
1000
MTEXTEND
  0
MTEXT
  5
D744
102
{ACAD_XDICTIONARY
360
DEF5
102
}
330
1F
100
AcDbEntity
  8
AM_6
100
AcDbMText
 10
31.5000001018746
 20
212.5000000451583
 30
0.0
 40
3.2
 41
90.0
 71
     4
 72
     5
  1
　　レバー         ：焼付塗装（グレー・ブロンズ）
 73
     1
 44
1.0
1001
ACAD
1000
MTEXTBEGIN
1070
    73
1070
     1
1070
    44
1040
1.0
1070
    74
1070
     0
1000
MTEXTEND
  0
MTEXT
  5
D745
102
{ACAD_XDICTIONARY
360
DEF7
102
}
330
1F
100
AcDbEntity
  8
AM_6
100
AcDbMText
 10
31.5000001018746
 20
204.5000000451583
 30
0.0
 40
3.2
 41
90.0
 71
     4
 72
     5
  1
　　貝ガラ         ：焼付塗装（グレー・ブロンズ）
 73
     1
 44
1.0
1001
ACAD
1000
MTEXTBEGIN
1070
    73
1070
     1
1070
    44
1040
1.0
1070
    74
1070
     0
1000
MTEXTEND
  0
MTEXT
  5
D746
102
{ACAD_XDICTIONARY
360
DEF9
102
}
330
1F
100
AcDbEntity
  8
AM_6
100
AcDbMText
 10
31.50000010187457
 20
196.5000000451583
 30
0.0
 40
3.2
 41
90.0
 71
     4
 72
     5
  1
　　ビスカバー     ：シボ加工（グレー・ブロンズ）
 73
     1
 44
1.0
1001
ACAD
1000
MTEXTBEGIN
1070
    73
1070
     1
1070
    44
1040
1.0
1070
    74
1070
     0
1000
MTEXTEND
  0
MTEXT
  5
D747
102
{ACAD_XDICTIONARY
360
DEFB
102
}
330
1F
100
AcDbEntity
  8
AM_6
100
AcDbMText
 10
31.50000010187457
 20
188.5000000451583
 30
0.0
 40
3.2
 41
90.0
 71
     4
 72
     5
  1
　　キャップ       ：シボ加工（グレー・ブロンズ）
 73
     1
 44
1.0
1001
ACAD
1000
MTEXTBEGIN
1070
    73
1070
     1
1070
    44
1040
1.0
1070
    74
1070
     0
1000
MTEXTEND
  0
MTEXT
  5
D748
102
{ACAD_XDICTIONARY
360
DEFD
102
}
330
1F
100
AcDbEntity
  8
AM_6
100
AcDbMText
 10
31.50000010187457
 20
180.5000000451583
 30
0.0
 40
3.2
 41
90.0
 71
     4
 72
     5
  1
　　スペーサー     ：シボ加工（グレー・ブロンズ）
 73
     1
 44
1.0
1001
ACAD
1000
MTEXTBEGIN
1070
    73
1070
     1
1070
    44
1040
1.0
1070
    74
1070
     0
1000
MTEXTEND
  0
LINE
  5
D9F2
330
1F
100
AcDbEntity
  8
AM_0
 48
0.3
100
AcDbLine
 10
372.7189993548273
 20
104.7594334045074
 30
0.0
 11
372.7189993548273
 21
98.75943340450767
 31
0.0
  0
LINE
  5
D9F3
330
1F
100
AcDbEntity
  8
AM_0
 48
0.15
100
AcDbLine
 10
372.7189993548273
 20
98.75943340450767
 30
0.0
 11
373.7189993548274
 21
98.75943340450767
 31
0.0
  0
LINE
  5
D9F4
330
1F
100
AcDbEntity
  8
AM_0
 48
0.15
100
AcDbLine
 10
372.7189993548273
 20
104.7594334045074
 30
0.0
 11
373.7189993548274
 21
104.7594334045074
 31
0.0
  0
LINE
  5
D9F5
330
1F
100
AcDbEntity
  8
AM_0
 48
0.3
100
AcDbLine
 10
372.7189993548273
 20
150.2594634045076
 30
0.0
 11
372.7189993548273
 21
156.2594634045075
 31
0.0
  0
LINE
  5
D9F6
330
1F
100
AcDbEntity
  8
AM_0
 48
0.15
100
AcDbLine
 10
372.7189993548273
 20
150.2594634045076
 30
0.0
 11
373.7189993548274
 21
150.2594634045076
 31
0.0
  0
LINE
  5
D9F7
330
1F
100
AcDbEntity
  8
AM_0
 48
0.15
100
AcDbLine
 10
372.7189993548273
 20
156.2594634045075
 30
0.0
 11
373.7189993548274
 21
156.2594634045075
 31
0.0
  0
LINE
  5
D9F8
330
1F
100
AcDbEntity
  8
AM_7
100
AcDbLine
 10
386.4216729221393
 20
127.5094476545076
 30
0.0
 11
342.2492493548273
 21
127.5094476545076
 31
0.0
  0
LINE
  5
D9F9
330
1F
100
AcDbEntity
  8
AM_0
 48
0.2196209999999951
100
AcDbLine
 10
363.3265793548277
 20
109.8904376545076
 30
0.0
 11
367.7189993548275
 21
109.8904376545076
 31
0.0
  0
LINE
  5
D9FA
330
1F
100
AcDbEntity
  8
AM_0
 48
0.25
100
AcDbLine
 10
362.7189993548272
 20
112.8982476545075
 30
0.0
 11
367.7189993548275
 21
112.8982476545075
 31
0.0
  0
LINE
  5
D9FB
330
1F
100
AcDbEntity
  8
AM_0
 48
0.45
100
AcDbLine
 10
363.7189993548272
 20
140.5094476545076
 30
0.0
 11
372.7189993548273
 21
140.5094476545076
 31
0.0
  0
LINE
  5
D9FC
330
1F
100
AcDbEntity
  8
AM_0
 48
0.25
100
AcDbLine
 10
362.7189993548272
 20
142.1206576545075
 30
0.0
 11
367.7189993548275
 21
142.1206576545075
 31
0.0
  0
LINE
  5
D9FD
330
1F
100
AcDbEntity
  8
AM_0
 48
0.2196209999999951
100
AcDbLine
 10
363.3265793548277
 20
145.1284676545076
 30
0.0
 11
367.7189993548275
 21
145.1284676545076
 31
0.0
  0
LINE
  5
D9FE
330
1F
100
AcDbEntity
  8
AM_0
 48
0.45
100
AcDbLine
 10
363.7189993548272
 20
114.5094476545076
 30
0.0
 11
372.7189993548273
 21
114.5094476545076
 31
0.0
  0
LINE
  5
D9FF
330
1F
100
AcDbEntity
  8
AM_0
 48
0.225
100
AcDbLine
 10
290.1699923548274
 20
236.2511304045076
 30
0.0
 11
290.1699923548274
 21
240.7511304045076
 31
0.0
  0
LINE
  5
DA00
330
1F
100
AcDbEntity
  8
AM_7
100
AcDbLine
 10
277.8699823548274
 20
215.0082904045075
 30
0.0
 11
277.8699823548274
 21
237.84705999845
 31
0.0
  0
LINE
  5
DA01
330
1F
100
AcDbEntity
  8
AM_7
100
AcDbLine
 10
280.8699823548273
 20
232.1674827720702
 30
0.0
 11
280.8699823548273
 21
255.5599604045074
 31
0.0
  0
LINE
  5
DA02
330
1F
100
AcDbEntity
  8
AM_0
 48
0.475
100
AcDbLine
 10
254.8699423548276
 20
229.7511304045076
 30
0.0
 11
254.8699423548276
 21
239.2511304045076
 31
0.0
  0
LINE
  5
DA03
330
1F
100
AcDbEntity
  8
AM_0
 48
0.275
100
AcDbLine
 10
271.3497723548276
 20
233.7511304045076
 30
0.0
 11
271.3497723548276
 21
239.2511304045076
 31
0.0
  0
LINE
  5
DA04
330
1F
100
AcDbEntity
  8
AM_2
 48
0.15
100
AcDbLine
 10
263.0858523548273
 20
237.2511304045076
 30
0.0
 11
263.0858523548273
 21
238.2511304045076
 31
0.0
  0
ARC
  5
DA05
330
1F
100
AcDbEntity
  8
AM_0
100
AcDbCircle
 10
205.5999082901756
 20
99.2094476545073
 30
0.0
 40
12.200012
100
AcDbArc
 50
180.0
 51
0.0
  0
LINE
  5
DA06
330
1F
100
AcDbEntity
  8
AM_7
100
AcDbLine
 10
205.5999082901756
 20
172.1532721733516
 30
0.0
 11
205.5999082901756
 21
82.58522765450749
 31
0.0
  0
ARC
  5
DA08
330
1F
100
AcDbEntity
  8
AM_3
 48
0.5
100
AcDbCircle
 10
280.8699823548273
 20
107.0094376545075
 30
0.0
 40
4.0
100
AcDbArc
 50
0.0
 51
180.0
  0
ARC
  5
DA09
330
1F
100
AcDbEntity
  8
AM_3
 48
0.5
100
AcDbCircle
 10
280.8699823548273
 20
95.50946765450754
 30
0.0
 40
4.0
100
AcDbArc
 50
180.0
 51
0.0
  0
ARC
  5
DA0A
330
1F
100
AcDbEntity
  8
AM_3
 48
0.3
100
AcDbCircle
 10
280.8699823548273
 20
107.0094376545075
 30
0.0
 40
2.25
100
AcDbArc
 50
0.0
 51
180.0
  0
ARC
  5
DA0B
330
1F
100
AcDbEntity
  8
AM_3
 48
0.3
100
AcDbCircle
 10
280.8699823548273
 20
95.50946765450754
 30
0.0
 40
2.25
100
AcDbArc
 50
180.0
 51
0.0
  0
LINE
  5
DA0E
330
1F
100
AcDbEntity
  8
AM_3
 48
0.5
100
AcDbLine
 10
278.6199823548273
 20
95.50946765450754
 30
0.0
 11
278.6199823548273
 21
107.0094376545075
 31
0.0
  0
LINE
  5
DA0F
330
1F
100
AcDbEntity
  8
AM_3
 48
0.5
100
AcDbLine
 10
276.8699823548274
 20
95.50946765450754
 30
0.0
 11
276.8699823548274
 21
107.0094376545075
 31
0.0
  0
LINE
  5
DA10
330
1F
100
AcDbEntity
  8
AM_3
 48
0.5
100
AcDbLine
 10
283.1199823548274
 20
95.50946765450754
 30
0.0
 11
283.1199823548274
 21
107.0094376545075
 31
0.0
  0
LINE
  5
DA11
330
1F
100
AcDbEntity
  8
AM_3
 48
0.5
100
AcDbLine
 10
284.8699823548273
 20
95.50946765450754
 30
0.0
 11
284.8699823548273
 21
107.0094376545075
 31
0.0
  0
ARC
  5
DA12
330
1F
100
AcDbEntity
  8
AM_3
 48
0.3
100
AcDbCircle
 10
280.8699823548273
 20
159.5094376545075
 30
0.0
 40
2.25
100
AcDbArc
 50
0.0
 51
180.0
  0
ARC
  5
DA13
330
1F
100
AcDbEntity
  8
AM_3
 48
0.5
100
AcDbCircle
 10
280.8699823548273
 20
159.5094376545075
 30
0.0
 40
4.0
100
AcDbArc
 50
0.0
 51
180.0
  0
ARC
  5
DA14
330
1F
100
AcDbEntity
  8
AM_3
 48
0.5
100
AcDbCircle
 10
280.8699823548273
 20
148.0094676545074
 30
0.0
 40
4.0
100
AcDbArc
 50
180.0
 51
0.0
  0
ARC
  5
DA15
330
1F
100
AcDbEntity
  8
AM_3
 48
0.3
100
AcDbCircle
 10
280.8699823548273
 20
148.0094676545074
 30
0.0
 40
2.25
100
AcDbArc
 50
180.0
 51
0.0
  0
LINE
  5
DA18
330
1F
100
AcDbEntity
  8
AM_3
 48
0.5
100
AcDbLine
 10
278.6199823548273
 20
159.5094376545075
 30
0.0
 11
278.6199823548273
 21
148.0094676545074
 31
0.0
  0
LINE
  5
DA19
330
1F
100
AcDbEntity
  8
AM_3
 48
0.5
100
AcDbLine
 10
276.8699823548274
 20
159.5094376545075
 30
0.0
 11
276.8699823548274
 21
148.0094676545074
 31
0.0
  0
LINE
  5
DA1A
330
1F
100
AcDbEntity
  8
AM_3
 48
0.5
100
AcDbLine
 10
283.1199823548274
 20
159.5094376545075
 30
0.0
 11
283.1199823548274
 21
148.0094676545074
 31
0.0
  0
LINE
  5
DA1B
330
1F
100
AcDbEntity
  8
AM_3
 48
0.5
100
AcDbLine
 10
284.8699823548273
 20
159.5094376545075
 30
0.0
 11
284.8699823548273
 21
148.0094676545074
 31
0.0
  0
ARC
  5
DA1C
330
1F
100
AcDbEntity
  8
AM_0
 48
0.3
100
AcDbCircle
 10
349.7190293548275
 20
176.5094476545075
 30
0.0
 40
1.0
100
AcDbArc
 50
90.0
 51
180.0
  0
ARC
  5
DA1D
330
1F
100
AcDbEntity
  8
AM_0
 48
0.3
100
AcDbCircle
 10
216.7999182901756
 20
113.5094476545076
 30
0.0
 40
1.0
100
AcDbArc
 50
0.0
 51
90.0
  0
ARC
  5
DA1E
330
1F
100
AcDbEntity
  8
AM_0
 48
0.3
100
AcDbCircle
 10
216.7999182901756
 20
139.5094476545075
 30
0.0
 40
1.0
100
AcDbArc
 50
0.0
 51
90.0
  0
ARC
  5
DA1F
330
1F
100
AcDbEntity
  8
AM_0
100
AcDbCircle
 10
205.5999082901756
 20
155.8094576545074
 30
0.0
 40
12.200012
100
AcDbArc
 50
0.0
 51
54.8916796153309
  0
ARC
  5
DA20
330
1F
100
AcDbEntity
  8
AM_0
 48
0.3
100
AcDbCircle
 10
216.7999182901756
 20
115.5094476545076
 30
0.0
 40
1.0
100
AcDbArc
 50
270.0
 51
0.0
  0
ARC
  5
DA21
330
1F
100
AcDbEntity
  8
AM_0
 48
0.3
100
AcDbCircle
 10
216.7999182901756
 20
141.5094476545075
 30
0.0
 40
1.0
100
AcDbArc
 50
270.0
 51
0.0
  0
ARC
  5
DA22
330
1F
100
AcDbEntity
  8
AM_0
100
AcDbCircle
 10
208.5999082901756
 20
127.5094476545076
 30
0.0
 40
23.0
100
AcDbArc
 50
130.0000100000008
 51
180.0
  0
ARC
  5
DA23
330
1F
100
AcDbEntity
  8
AM_0
100
AcDbCircle
 10
210.5999082901756
 20
127.5094476545076
 30
0.0
 40
23.0
100
AcDbArc
 50
137.108559999997
 51
180.0
  0
CIRCLE
  5
DA24
330
1F
100
AcDbEntity
  8
AM_0
100
AcDbCircle
 10
208.5999082901756
 20
127.5094476545076
 30
0.0
 40
12.5
  0
ARC
  5
DA25
330
1F
100
AcDbEntity
  8
AM_0
100
AcDbCircle
 10
208.5999082901756
 20
127.5094476545076
 30
0.0
 40
18.0
100
AcDbArc
 50
120.2909699999989
 51
180.0
  0
LINE
  5
DA26
330
1F
100
AcDbEntity
  8
AM_0
 48
0.6155383608445888
100
AcDbLine
 10
212.9881182901757
 20
144.4961776545075
 30
0.0
 11
219.3198482901757
 21
133.9385176545075
 31
0.0
  0
LINE
  5
DA27
330
1F
100
AcDbEntity
  8
AM_0
 48
0.6155325095281908
100
AcDbLine
 10
204.2116573837732
 20
144.4960657285845
 30
0.0
 11
197.8799682901756
 21
133.9385176545075
 31
0.0
  0
ARC
  5
DA28
330
1F
100
AcDbEntity
  8
AM_0
100
AcDbCircle
 10
208.5999082901756
 20
127.5094476545076
 30
0.0
 40
23.0
100
AcDbArc
 50
180.0
 51
229.9999899999991
  0
ARC
  5
DA29
330
1F
100
AcDbEntity
  8
AM_0
100
AcDbCircle
 10
210.5999082901756
 20
127.5094476545076
 30
0.0
 40
23.0
100
AcDbArc
 50
180.0
 51
222.891440000003
  0
ARC
  5
DA2A
330
1F
100
AcDbEntity
  8
AM_0
100
AcDbCircle
 10
208.5999082901756
 20
127.5094476545076
 30
0.0
 40
18.0
100
AcDbArc
 50
180.0
 51
239.709030000001
  0
LINE
  5
DA2B
330
1F
100
AcDbEntity
  8
AM_2
 48
0.15
100
AcDbLine
 10
186.3836282901754
 20
121.5566176545075
 30
0.0
 11
188.2552982901754
 21
122.0581276545076
 31
0.0
  0
LINE
  5
DA2C
330
1F
100
AcDbEntity
  8
AM_2
 48
0.15
100
AcDbLine
 10
186.3836282901754
 20
121.5566176545075
 30
0.0
 11
188.2552982901754
 21
122.0581276545076
 31
0.0
  0
LINE
  5
DA2D
330
1F
100
AcDbEntity
  8
AM_2
 48
0.15
100
AcDbLine
 10
186.3835982901754
 20
133.4622976545075
 30
0.0
 11
188.2552382901751
 21
132.9607876545075
 31
0.0
  0
LINE
  5
DA2E
330
1F
100
AcDbEntity
  8
AM_0
 48
0.7509809689148143
100
AcDbLine
 10
207.9295882901752
 20
115.0274376545075
 30
0.0
 11
193.8157582901756
 21
109.8904376545076
 31
0.0
  0
LINE
  5
DA2F
330
1F
100
AcDbEntity
  8
AM_0
 48
0.5519245455930616
100
AcDbLine
 10
193.3998982901753
 20
110.2479385663687
 30
0.0
 11
193.3998982901753
 21
99.2094476545073
 31
0.0
  0
ARC
  5
DA30
330
1F
100
AcDbEntity
  8
AM_0
 48
0.3
100
AcDbCircle
 10
192.6501082901754
 20
110.8344676545076
 30
0.0
 40
1.5
100
AcDbArc
 50
320.9975700000029
 51
42.89147300000279
  0
LINE
  5
DA31
330
1F
100
AcDbEntity
  8
AM_7
100
AcDbLine
 10
180.8301207068863
 20
127.5094476545076
 30
0.0
 11
227.8780606995653
 21
127.5094476545076
 31
0.0
  0
LINE
  5
DA32
330
1F
100
AcDbEntity
  8
AM_0
 48
0.5146749855139206
100
AcDbLine
 10
206.5064185798972
 20
114.5094476545075
 30
0.0
 11
216.7999182901756
 21
114.5094476545076
 31
0.0
  0
ARC
  5
DA33
330
1F
100
AcDbEntity
  8
AM_2
 48
0.3
100
AcDbCircle
 10
197.0999082901754
 20
127.5094476545075
 30
0.0
 40
1.0
100
AcDbArc
 50
90.0
 51
270.0
  0
LINE
  5
DA34
330
1F
100
AcDbEntity
  8
AM_2
 48
0.164999499999999
100
AcDbLine
 10
200.3998982901754
 20
128.5094476545076
 30
0.0
 11
197.0999082901754
 21
128.5094476545076
 31
0.0
  0
LINE
  5
DA36
330
1F
100
AcDbEntity
  8
AM_2
 48
0.164999499999999
100
AcDbLine
 10
200.3998982901754
 20
126.5094476545075
 30
0.0
 11
197.0999082901754
 21
126.5094476545075
 31
0.0
  0
ARC
  5
DA37
330
1F
100
AcDbEntity
  8
AM_0
100
AcDbCircle
 10
205.5999082901756
 20
155.8094576545074
 30
0.0
 40
12.200012
100
AcDbArc
 50
94.60031374102108
 51
180.0
  0
LINE
  5
DA38
330
1F
100
AcDbEntity
  8
AM_0
100
AcDbLine
 10
204.2116573837732
 20
144.4960657285845
 30
0.0
 11
204.7213982901756
 21
173.6980676545075
 31
0.0
  0
LINE
  5
DA39
330
1F
100
AcDbEntity
  8
AM_0
100
AcDbLine
 10
212.9881182901757
 20
144.4961576545075
 30
0.0
 11
212.4789718901754
 21
173.6303676545075
 31
0.0
  0
LINE
  5
DA3A
330
1F
100
AcDbEntity
  8
AM_2
100
AcDbLine
 10
211.0615182901752
 20
140.2742576545075
 30
0.0
 11
210.4786882901755
 21
173.6631576545075
 31
0.0
  0
LINE
  5
DA3B
330
1F
100
AcDbEntity
  8
AM_2
100
AcDbLine
 10
206.1382682901756
 20
140.2742676545076
 30
0.0
 11
206.7210882901754
 21
173.6631676545075
 31
0.0
  0
ARC
  5
DA3C
330
1F
100
AcDbEntity
  8
AM_0
100
AcDbCircle
 10
208.5999082901756
 20
127.5094476545077
 30
0.0
 40
12.9999999999999
100
AcDbArc
 50
58.21834569997895
 51
121.7816799999964
  0
ARC
  5
DA3D
330
1F
100
AcDbEntity
  8
AM_0
 48
0.3
100
AcDbCircle
 10
192.6501082901754
 20
144.1844376545074
 30
0.0
 40
1.5
100
AcDbArc
 50
317.1085300000029
 51
39.00242700000158
  0
LINE
  5
DA3E
330
1F
100
AcDbEntity
  8
AM_0
 48
0.4706065752826289
100
AcDbLine
 10
202.6603282901752
 20
141.9093276545075
 30
0.0
 11
193.8158182901754
 21
145.1284676545076
 31
0.0
  0
LINE
  5
DA3F
330
1F
100
AcDbEntity
  8
AM_0
 48
0.5519250455930661
100
AcDbLine
 10
193.3998982901753
 20
144.7709567426463
 30
0.0
 11
193.3998982901753
 21
155.8094576545074
 31
0.0
  0
ARC
  5
DA40
330
1F
100
AcDbEntity
  8
AM_0
 48
0.3
100
AcDbCircle
 10
201.4896782901752
 20
138.9852776545075
 30
0.0
 40
0.5
100
AcDbArc
 50
149.048539999999
 51
301.7809300000028
  0
ARC
  5
DA41
330
1F
100
AcDbEntity
  8
AM_0
 48
0.3
100
AcDbCircle
 10
215.7101382901751
 20
138.9852776545075
 30
0.0
 40
0.5
100
AcDbArc
 50
238.2183456999789
 51
30.95146199999939
  0
LINE
  5
DA42
330
1F
100
AcDbEntity
  8
AM_0
 48
0.15
100
AcDbLine
 10
215.3790740457976
 20
140.5094476545076
 30
0.0
 11
216.7999182901756
 21
140.5094476545076
 31
0.0
  0
ARC
  5
DA43
330
1F
100
AcDbEntity
  8
AM_0
 48
0.38790936
100
AcDbCircle
 10
208.5998782901752
 20
173.6303676545075
 30
0.0
 40
3.8790936
100
AcDbArc
 50
0.0
 51
178.9999499999987
  0
ARC
  5
DA44
330
1F
100
AcDbEntity
  8
AM_2
 48
0.3
100
AcDbCircle
 10
208.5998782901752
 20
173.6303676545075
 30
0.0
 40
1.8790936
100
AcDbArc
 50
0.0
 51
179.0001099999978
  0
ARC
  5
DA45
330
1F
100
AcDbEntity
  8
AM_3
 48
0.5
100
AcDbCircle
 10
387.2375293548275
 20
127.6075076545075
 30
0.0
 40
30.0
100
AcDbArc
 50
155.581520000001
 51
168.7369899999973
  0
ARC
  5
DA46
330
1F
100
AcDbEntity
  8
AM_3
 48
0.5
100
AcDbCircle
 10
387.3443393548275
 20
128.7358876545075
 30
0.0
 40
30.0
100
AcDbArc
 50
157.9271500000018
 51
170.0680900000005
  0
LINE
  5
DA47
330
1F
100
AcDbEntity
  8
AM_0
 48
0.6249999999999945
100
AcDbLine
 10
363.2189993548275
 20
140.0094476545075
 30
0.0
 11
363.2189993548275
 21
127.5094476545076
 31
0.0
  0
LINE
  5
DA48
330
1F
100
AcDbEntity
  8
AM_0
 48
0.7055604999999959
100
AcDbLine
 10
362.2189993548273
 20
141.6206576545075
 30
0.0
 11
362.2189993548273
 21
127.5094476545076
 31
0.0
  0
LINE
  5
DA49
330
1F
100
AcDbEntity
  8
AM_0
100
AcDbLine
 10
354.7190293548276
 20
115.0094476545076
 30
0.0
 11
354.7190293548276
 21
140.0094476545075
 31
0.0
  0
LINE
  5
DA4A
330
1F
100
AcDbEntity
  8
AM_0
100
AcDbLine
 10
350.2190293548276
 20
137.7458976545076
 30
0.0
 11
350.2190293548276
 21
115.0094476545076
 31
0.0
  0
LINE
  5
DA4B
330
1F
100
AcDbEntity
  8
AM_0
100
AcDbLine
 10
347.2189993548275
 20
139.0094476545076
 30
0.0
 11
347.2189993548275
 21
116.0094476545076
 31
0.0
  0
LINE
  5
DA4C
330
1F
100
AcDbEntity
  8
AM_0
 48
0.9668288347923919
100
AcDbLine
 10
217.7999182901757
 20
136.4728809586595
 30
0.0
 11
217.7999182901757
 21
155.8094576545074
 31
0.0
  0
LINE
  5
DA4D
330
1F
100
AcDbEntity
  8
AM_0
 48
0.9918870836292683
100
AcDbLine
 10
217.7999182901757
 20
119.0471893270929
 30
0.0
 11
217.7999182901757
 21
99.2094476545073
 31
0.0
  0
ARC
  5
DA4E
330
1F
100
AcDbEntity
  8
AM_3
 48
0.5
100
AcDbCircle
 10
387.3443393548275
 20
126.2830076545075
 30
0.0
 40
30.0
100
AcDbArc
 50
205.2872100000012
 51
208.4301699999989
  0
ARC
  5
DA4F
330
1F
100
AcDbEntity
  8
AM_3
 48
0.5
100
AcDbCircle
 10
387.2375293548275
 20
127.4113976545075
 30
0.0
 40
30.0
100
AcDbArc
 50
205.7606400000013
 51
210.9851800000014
  0
ARC
  5
DA50
330
1F
100
AcDbEntity
  8
AM_0
 48
0.3
100
AcDbCircle
 10
361.2189993548274
 20
112.9669076545075
 30
0.0
 40
1.0
100
AcDbArc
 50
180.0
 51
270.0
  0
ARC
  5
DA51
330
1F
100
AcDbEntity
  8
AM_0
 48
0.3
100
AcDbCircle
 10
363.3265793548277
 20
111.8904376545076
 30
0.0
 40
2.0
100
AcDbArc
 50
210.9320499999987
 51
270.0
  0
ARC
  5
DA52
330
1F
100
AcDbEntity
  8
AM_0
 48
0.3
100
AcDbCircle
 10
363.3179393548275
 20
112.8562076545075
 30
0.0
 40
2.0
100
AcDbArc
 50
211.2119000000005
 51
270.0
  0
LINE
  5
DA53
330
1F
100
AcDbEntity
  8
AM_0
 48
0.225
100
AcDbLine
 10
361.2189993548274
 20
111.9669076545075
 30
0.0
 11
365.7189993548274
 21
111.9669076545075
 31
0.0
  0
ARC
  5
DA54
330
1F
100
AcDbEntity
  8
AM_0
100
AcDbCircle
 10
387.2375293548275
 20
127.4113976545075
 30
0.0
 40
30.0
100
AcDbArc
 50
210.9851800000014
 51
211.3280000000007
  0
ARC
  5
DA55
330
1F
100
AcDbEntity
  8
AM_0
100
AcDbCircle
 10
387.3443393548275
 20
126.2830076545075
 30
0.0
 40
30.0
100
AcDbArc
 50
208.4301699999989
 51
210.9320600000022
  0
LINE
  5
DA56
330
1F
100
AcDbEntity
  8
AM_0
 48
0.15
100
AcDbLine
 10
365.7189993548274
 20
110.8562076545075
 30
0.0
 11
365.7189993548274
 21
111.9669076545075
 31
0.0
  0
LINE
  5
DA57
330
1F
100
AcDbEntity
  8
AM_0
 48
0.15
100
AcDbLine
 10
363.3179393548275
 20
110.8562076545075
 30
0.0
 11
365.7189993548274
 21
110.8562076545075
 31
0.0
  0
LINE
  5
DA58
330
1F
100
AcDbEntity
  8
AM_2
 48
0.15
100
AcDbLine
 10
350.2190293548276
 20
118.7002476545075
 30
0.0
 11
351.2190293548276
 21
118.7002476545075
 31
0.0
  0
LINE
  5
DA59
330
1F
100
AcDbEntity
  8
AM_0
 48
0.15
100
AcDbLine
 10
350.2190293548276
 20
117.9341976545075
 30
0.0
 11
351.2190293548276
 21
117.9341976545075
 31
0.0
  0
LINE
  5
DA5A
330
1F
100
AcDbEntity
  8
AM_0
 48
0.15
100
AcDbLine
 10
350.2190293548276
 20
125.3391476545075
 30
0.0
 11
351.2190293548276
 21
125.3391476545075
 31
0.0
  0
LINE
  5
DA5B
330
1F
100
AcDbEntity
  8
AM_0
 48
0.3750015000000076
100
AcDbLine
 10
348.2189993548275
 20
115.0094476545076
 30
0.0
 11
355.7190293548276
 21
115.0094476545076
 31
0.0
  0
ARC
  5
DA5C
330
1F
100
AcDbEntity
  8
AM_0
 48
0.3
100
AcDbCircle
 10
348.2189993548275
 20
116.0094476545076
 30
0.0
 40
1.0
100
AcDbArc
 50
180.0
 51
270.0
  0
LINE
  5
DA5D
330
1F
100
AcDbEntity
  8
AM_0
 48
0.3702474999999936
100
AcDbLine
 10
351.2190293548276
 20
125.3391476545075
 30
0.0
 11
351.2190293548276
 21
117.9341976545075
 31
0.0
  0
LINE
  5
DA5F
330
1F
100
AcDbEntity
  8
AM_0
 48
0.7055600000000029
100
AcDbLine
 10
362.2189993548273
 20
113.3982476545075
 30
0.0
 11
362.2189993548273
 21
127.5094476545076
 31
0.0
  0
LINE
  5
DA60
330
1F
100
AcDbEntity
  8
AM_0
 48
0.625
100
AcDbLine
 10
363.2189993548275
 20
115.0094476545076
 30
0.0
 11
363.2189993548275
 21
127.5094476545076
 31
0.0
  0
ARC
  5
DA61
330
1F
100
AcDbEntity
  8
AM_3
 48
0.5
100
AcDbCircle
 10
387.3443393548275
 20
126.2830076545075
 30
0.0
 40
30.0
100
AcDbArc
 50
189.9319099999994
 51
202.0728499999982
  0
ARC
  5
DA62
330
1F
100
AcDbEntity
  8
AM_3
 48
0.5
100
AcDbCircle
 10
387.2375293548275
 20
127.4113976545075
 30
0.0
 40
30.0
100
AcDbArc
 50
191.2630100000027
 51
204.418479999999
  0
LINE
  5
DA63
330
1F
100
AcDbEntity
  8
AM_0
 48
0.3499984999999924
100
AcDbLine
 10
355.2190293548275
 20
115.0094476545076
 30
0.0
 11
362.2189993548273
 21
115.0094476545076
 31
0.0
  0
ARC
  5
DA64
330
1F
100
AcDbEntity
  8
AM_0
 48
0.3
100
AcDbCircle
 10
355.2190293548275
 20
115.5094476545076
 30
0.0
 40
0.5
100
AcDbArc
 50
180.0
 51
270.0
  0
ARC
  5
DA65
330
1F
100
AcDbEntity
  8
AM_3
 48
0.5
100
AcDbCircle
 10
362.7189993548272
 20
121.9710776545075
 30
0.0
 40
5.0
100
AcDbArc
 50
180.0
 51
189.9318300000003
  0
ARC
  5
DA66
330
1F
100
AcDbEntity
  8
AM_3
 48
0.5
100
AcDbCircle
 10
362.7189993548272
 20
122.5285676545075
 30
0.0
 40
5.0
100
AcDbArc
 50
180.0
 51
191.2629899999986
  0
ARC
  5
DA67
330
1F
100
AcDbEntity
  8
AM_2
100
AcDbCircle
 10
387.2375293548275
 20
127.4113976545075
 30
0.0
 40
30.0
100
AcDbArc
 50
204.418479999999
 51
205.7607099999986
  0
ARC
  5
DA68
330
1F
100
AcDbEntity
  8
AM_2
100
AcDbCircle
 10
387.3443393548275
 20
126.2830076545075
 30
0.0
 40
30.0
100
AcDbArc
 50
202.0728499999982
 51
205.287170000001
  0
LINE
  5
DA69
330
1F
100
AcDbEntity
  8
AM_0
 48
0.15
100
AcDbLine
 10
360.2189993548273
 20
112.9668976545076
 30
0.0
 11
360.2189993548273
 21
115.0094476545076
 31
0.0
  0
LINE
  5
DA6A
330
1F
100
AcDbEntity
  8
AM_0
 48
0.15
100
AcDbLine
 10
360.2189993548273
 20
115.0094476545076
 30
0.0
 11
360.2189993548273
 21
112.9669076545075
 31
0.0
  0
ARC
  5
DA6B
330
1F
100
AcDbEntity
  8
AM_0
 48
0.3
100
AcDbCircle
 10
362.7189993548272
 20
113.3982476545075
 30
0.0
 40
0.5
100
AcDbArc
 50
180.0
 51
270.0
  0
ARC
  5
DA6C
330
1F
100
AcDbEntity
  8
AM_0
 48
0.3
100
AcDbCircle
 10
363.7189993548272
 20
115.0094476545076
 30
0.0
 40
0.5
100
AcDbArc
 50
180.0
 51
270.0
  0
LINE
  5
DA6D
330
1F
100
AcDbEntity
  8
AM_0
 48
0.15
100
AcDbLine
 10
362.2189993548273
 20
118.5094476545076
 30
0.0
 11
363.2189993548275
 21
118.5094476545076
 31
0.0
  0
LINE
  5
DA6E
330
1F
100
AcDbEntity
  8
AM_3
 48
0.5
100
AcDbLine
 10
357.7189993548273
 20
122.5285676545075
 30
0.0
 11
357.7190293548275
 21
132.4903376545075
 31
0.0
  0
ARC
  5
DA6F
330
1F
100
AcDbEntity
  8
AM_3
 48
0.5
100
AcDbCircle
 10
362.7189993548272
 20
132.4903376545075
 30
0.0
 40
5.0
100
AcDbArc
 50
168.7370100000014
 51
180.0
  0
ARC
  5
DA70
330
1F
100
AcDbEntity
  8
AM_3
 48
0.5
100
AcDbCircle
 10
362.7189993548272
 20
133.0478276545075
 30
0.0
 40
5.0
100
AcDbArc
 50
170.0681699999997
 51
180.0
  0
LINE
  5
DA71
330
1F
100
AcDbEntity
  8
AM_2
100
AcDbLine
 10
348.2190293548276
 20
175.5094476545075
 30
0.0
 11
348.2190293548276
 21
141.0094476545076
 31
0.0
  0
LINE
  5
DA72
330
1F
100
AcDbEntity
  8
AM_0
100
AcDbLine
 10
362.2189993548273
 20
177.5094476545075
 30
0.0
 11
362.2189993548273
 21
141.0094476545076
 31
0.0
  0
LINE
  5
DA73
330
1F
100
AcDbEntity
  8
AM_0
100
AcDbLine
 10
348.7190293548275
 20
176.5094476545075
 30
0.0
 11
348.7190293548275
 21
138.2458976545076
 31
0.0
  0
ARC
  5
DA74
330
1F
100
AcDbEntity
  8
AM_0
 48
0.3
100
AcDbCircle
 10
348.2189993548275
 20
139.0094476545076
 30
0.0
 40
1.0
100
AcDbArc
 50
90.0
 51
180.0
  0
ARC
  5
DA75
330
1F
100
AcDbEntity
  8
AM_0
 48
0.3
100
AcDbCircle
 10
349.2190293548276
 20
138.2458976545076
 30
0.0
 40
0.5
100
AcDbArc
 50
180.0
 51
270.0
  0
LINE
  5
DA76
330
1F
100
AcDbEntity
  8
AM_0
 48
0.15
100
AcDbLine
 10
349.2190293548276
 20
137.7458976545076
 30
0.0
 11
350.2190293548276
 21
137.7458976545076
 31
0.0
  0
ARC
  5
DA77
330
1F
100
AcDbEntity
  8
AM_2
 48
0.3
100
AcDbCircle
 10
348.7190293548275
 20
141.0094476545076
 30
0.0
 40
0.5
100
AcDbArc
 50
180.0
 51
270.0
  0
ARC
  5
DA78
330
1F
100
AcDbEntity
  8
AM_0
 48
0.3
100
AcDbCircle
 10
363.3265793548277
 20
143.1284676545075
 30
0.0
 40
2.0
100
AcDbArc
 50
90.0
 51
123.6272700000032
  0
LINE
  5
DA79
330
1F
100
AcDbEntity
  8
AM_0
 48
0.3499984999999924
100
AcDbLine
 10
355.2190293548275
 20
140.0094476545075
 30
0.0
 11
362.2189993548273
 21
140.0094476545075
 31
0.0
  0
LINE
  5
DA7A
330
1F
100
AcDbEntity
  8
AM_0
 48
0.3749984999999925
100
AcDbLine
 10
354.7190293548276
 20
141.0094476545076
 30
0.0
 11
362.2189993548273
 21
141.0094476545076
 31
0.0
  0
LINE
  5
DA7B
330
1F
100
AcDbEntity
  8
AM_0
 48
0.15
100
AcDbLine
 10
354.7190293548276
 20
138.7094476545075
 30
0.0
 11
354.7190293548276
 21
141.0094476545076
 31
0.0
  0
ARC
  5
DA7C
330
1F
100
AcDbEntity
  8
AM_0
 48
0.3
100
AcDbCircle
 10
355.2190293548275
 20
139.5094476545075
 30
0.0
 40
0.5
100
AcDbArc
 50
90.0
 51
180.0
  0
LINE
  5
DA7D
330
1F
100
AcDbEntity
  8
AM_0
 48
0.15
100
AcDbLine
 10
362.2189993548273
 20
136.5094476545076
 30
0.0
 11
363.2189993548275
 21
136.5094476545076
 31
0.0
  0
ARC
  5
DA7E
330
1F
100
AcDbEntity
  8
AM_3
 48
0.5
100
AcDbCircle
 10
363.3265793548277
 20
143.1284676545075
 30
0.0
 40
2.0
100
AcDbArc
 50
123.6272700000032
 51
149.0679500000013
  0
ARC
  5
DA7F
330
1F
100
AcDbEntity
  8
AM_3
 48
0.5
100
AcDbCircle
 10
363.3179393548275
 20
142.1626976545075
 30
0.0
 40
2.0
100
AcDbArc
 50
123.3304700000013
 51
148.7880999999973
  0
ARC
  5
DA80
330
1F
100
AcDbEntity
  8
AM_2
100
AcDbCircle
 10
387.2375293548275
 20
127.6075076545075
 30
0.0
 40
30.0
100
AcDbArc
 50
154.2393599999987
 51
155.581520000001
  0
ARC
  5
DA81
330
1F
100
AcDbEntity
  8
AM_2
100
AcDbCircle
 10
387.3443393548275
 20
128.7358876545075
 30
0.0
 40
30.0
100
AcDbArc
 50
155.8505199999983
 51
157.9271500000018
  0
ARC
  5
DA82
330
1F
100
AcDbEntity
  8
AM_3
 48
0.5
100
AcDbCircle
 10
387.3443393548275
 20
128.7358876545075
 30
0.0
 40
30.0
100
AcDbArc
 50
149.0679599999988
 51
155.8505199999983
  0
ARC
  5
DA83
330
1F
100
AcDbEntity
  8
AM_3
 48
0.5
100
AcDbCircle
 10
387.2375293548275
 20
127.6075076545075
 30
0.0
 40
30.0
100
AcDbArc
 50
148.6719999999992
 51
154.2393599999987
  0
ARC
  5
DA85
330
1F
100
AcDbEntity
  8
AM_0
 48
0.3
100
AcDbCircle
 10
363.7189993548272
 20
140.0094476545075
 30
0.0
 40
0.5
100
AcDbArc
 50
90.0
 51
180.0
  0
ARC
  5
DA86
330
1F
100
AcDbEntity
  8
AM_0
 48
0.3
100
AcDbCircle
 10
363.3179393548275
 20
142.1626976545075
 30
0.0
 40
2.0
100
AcDbArc
 50
90.0
 51
123.3304700000013
  0
ARC
  5
DA87
330
1F
100
AcDbEntity
  8
AM_0
 48
0.3
100
AcDbCircle
 10
362.7189993548272
 20
141.6206576545075
 30
0.0
 40
0.5
100
AcDbArc
 50
90.0
 51
180.0
  0
LINE
  5
DA88
330
1F
100
AcDbEntity
  8
AM_0
 48
0.15
100
AcDbLine
 10
363.3179393548275
 20
144.1626976545075
 30
0.0
 11
365.7189993548274
 21
144.1626976545075
 31
0.0
  0
LINE
  5
DA89
330
1F
100
AcDbEntity
  8
AM_0
 48
0.175
100
AcDbLine
 10
362.2189993548273
 20
143.0519976545075
 30
0.0
 11
365.7189993548274
 21
143.0519976545075
 31
0.0
  0
LINE
  5
DA8A
330
1F
100
AcDbEntity
  8
AM_0
 48
0.15
100
AcDbLine
 10
365.7189993548274
 20
144.1626976545075
 30
0.0
 11
365.7189993548274
 21
143.0519976545075
 31
0.0
  0
LINE
  5
DA8B
330
1F
100
AcDbEntity
  8
AM_0
 48
0.6249984999999925
100
AcDbLine
 10
349.7190293548275
 20
177.5094476545075
 30
0.0
 11
362.2189993548273
 21
177.5094476545075
 31
0.0
  0
LINE
  5
DA8C
330
1F
100
AcDbEntity
  8
AM_2
 48
0.15
100
AcDbLine
 10
348.2190293548276
 20
175.5094476545075
 30
0.0
 11
348.7190293548275
 21
175.5094476545075
 31
0.0
  0
ARC
  5
DA8D
330
1F
100
AcDbEntity
  8
AM_2
100
AcDbCircle
 10
253.1694123548274
 20
238.5412304045076
 30
0.0
 40
10.0
100
AcDbArc
 50
291.7189000000006
 51
352.5876200000007
  0
ARC
  5
DA8E
330
1F
100
AcDbEntity
  8
AM_0
100
AcDbCircle
 10
253.7609623548277
 20
238.7555604045076
 30
0.0
 40
10.0
100
AcDbArc
 50
288.1135299999968
 51
346.8397699999991
  0
LINE
  5
DA8F
330
1F
100
AcDbEntity
  8
AM_0
 48
0.5000015000000077
100
AcDbLine
 10
255.3699423548276
 20
229.2511304045076
 30
0.0
 11
265.3699723548277
 21
229.2511304045076
 31
0.0
  0
LINE
  5
DA90
330
1F
100
AcDbEntity
  8
AM_0
 48
0.6235978267894781
100
AcDbLine
 10
260.8980458190377
 20
231.7511304045076
 30
0.0
 11
273.3700023548274
 21
231.7511304045076
 31
0.0
  0
LINE
  5
DA91
330
1F
100
AcDbEntity
  8
AM_0
100
AcDbLine
 10
266.3699723548277
 20
218.7511304045076
 30
0.0
 11
289.3699823548274
 21
218.7511304045076
 31
0.0
  0
LINE
  5
DA92
330
1F
100
AcDbEntity
  8
AM_0
 48
0.4
100
AcDbLine
 10
282.3699823548273
 20
226.2511004045077
 30
0.0
 11
290.3699823548274
 21
226.2511004045077
 31
0.0
  0
LINE
  5
DA93
330
1F
100
AcDbEntity
  8
AM_0
 48
0.9160109999999916
100
AcDbLine
 10
271.3497723548276
 20
235.7511304045076
 30
0.0
 11
289.6699923548274
 21
235.7511304045076
 31
0.0
  0
LINE
  5
DA94
330
1F
100
AcDbEntity
  8
AM_0
 48
0.4
100
AcDbLine
 10
282.3699823548273
 20
221.7511304045076
 30
0.0
 11
290.3699823548274
 21
221.7511304045076
 31
0.0
  0
LINE
  5
DA95
330
1F
100
AcDbEntity
  8
AM_0
 48
0.9510104999999951
100
AcDbLine
 10
271.3497723548276
 20
233.7511304045076
 30
0.0
 11
290.3699823548274
 21
233.7511304045076
 31
0.0
  0
LINE
  5
DA96
330
1F
100
AcDbEntity
  8
AM_0
 48
0.3249984999999981
100
AcDbLine
 10
290.3699823548274
 20
219.7511304045076
 30
0.0
 11
290.3699823548274
 21
226.2511004045077
 31
0.0
  0
ARC
  5
DA97
330
1F
100
AcDbEntity
  8
AM_0
 48
0.3
100
AcDbCircle
 10
289.3699823548274
 20
219.7511304045076
 30
0.0
 40
1.0
100
AcDbArc
 50
270.0
 51
0.0
  0
LINE
  5
DA98
330
1F
100
AcDbEntity
  8
AM_0
 48
0.3500015000000019
100
AcDbLine
 10
290.3699823548274
 20
226.7511004045076
 30
0.0
 11
290.3699823548274
 21
233.7511304045076
 31
0.0
  0
ARC
  5
DA99
330
1F
100
AcDbEntity
  8
AM_0
 48
0.3
100
AcDbCircle
 10
289.8699823548274
 20
226.7511004045076
 30
0.0
 40
0.5
100
AcDbArc
 50
270.0
 51
0.0
  0
ARC
  5
DA9A
330
1F
100
AcDbEntity
  8
AM_0
 48
0.3
100
AcDbCircle
 10
289.6699923548274
 20
236.2511304045076
 30
0.0
 40
0.5
100
AcDbArc
 50
270.0
 51
0.0
  0
LINE
  5
DA9B
330
1F
100
AcDbEntity
  8
AM_0
 48
0.15
100
AcDbLine
 10
288.8699823548273
 20
233.7511304045076
 30
0.0
 11
288.8699823548273
 21
235.7511304045076
 31
0.0
  0
LINE
  5
DA9C
330
1F
100
AcDbEntity
  8
AM_0
 48
0.3249984999999981
100
AcDbLine
 10
265.3699723548277
 20
219.7511304045076
 30
0.0
 11
265.3699723548277
 21
226.2511004045077
 31
0.0
  0
LINE
  5
DA9D
330
1F
100
AcDbEntity
  8
AM_2
 48
0.625
100
AcDbLine
 10
273.8750023548275
 20
221.2511304045076
 30
0.0
 11
273.8750023548275
 21
233.7511304045076
 31
0.0
  0
LINE
  5
DA9E
330
1F
100
AcDbEntity
  8
AM_2
 48
0.625
100
AcDbLine
 10
281.8649823548277
 20
221.2511304045076
 30
0.0
 11
281.8649823548277
 21
233.7511304045076
 31
0.0
  0
LINE
  5
DA9F
330
1F
100
AcDbEntity
  8
AM_0
 48
0.625
100
AcDbLine
 10
282.3699823548273
 20
221.2511304045076
 30
0.0
 11
282.3699823548273
 21
233.7511304045076
 31
0.0
  0
LINE
  5
DAA0
330
1F
100
AcDbEntity
  8
AM_0
 48
0.625
100
AcDbLine
 10
273.3700023548274
 20
221.2511304045076
 30
0.0
 11
273.3700023548274
 21
233.7511304045076
 31
0.0
  0
LINE
  5
DAA1
330
1F
100
AcDbEntity
  8
AM_0
 48
0.400001499999985
100
AcDbLine
 10
265.3699723548277
 20
221.7511304045076
 30
0.0
 11
273.3700023548274
 21
221.7511304045076
 31
0.0
  0
LINE
  5
DAA2
330
1F
100
AcDbEntity
  8
AM_0
 48
0.3499990000000026
100
AcDbLine
 10
274.3700023548274
 20
220.2511304045076
 30
0.0
 11
281.3699823548274
 21
220.2511304045076
 31
0.0
  0
ARC
  5
DAA3
330
1F
100
AcDbEntity
  8
AM_2
 48
0.3
100
AcDbCircle
 10
280.8649823548273
 20
221.2511304045076
 30
0.0
 40
1.0
100
AcDbArc
 50
270.0
 51
0.0
  0
ARC
  5
DAA4
330
1F
100
AcDbEntity
  8
AM_0
 48
0.3
100
AcDbCircle
 10
281.3699823548274
 20
221.2511304045076
 30
0.0
 40
1.0
100
AcDbArc
 50
270.0
 51
0.0
  0
ARC
  5
DAA5
330
1F
100
AcDbEntity
  8
AM_0
 48
0.3
100
AcDbCircle
 10
274.3700023548274
 20
221.2511304045076
 30
0.0
 40
1.0
100
AcDbArc
 50
180.0
 51
270.0
  0
ARC
  5
DAA6
330
1F
100
AcDbEntity
  8
AM_2
 48
0.3
100
AcDbCircle
 10
274.8750023548275
 20
221.2511304045076
 30
0.0
 40
1.0
100
AcDbArc
 50
180.0
 51
270.0
  0
ARC
  5
DAA7
330
1F
100
AcDbEntity
  8
AM_0
 48
0.3
100
AcDbCircle
 10
266.3699723548277
 20
219.7511304045076
 30
0.0
 40
1.0
100
AcDbArc
 50
180.0
 51
270.0
  0
LINE
  5
DAA8
330
1F
100
AcDbEntity
  8
AM_0
 48
0.400001499999985
100
AcDbLine
 10
265.3699723548277
 20
226.2511004045077
 30
0.0
 11
273.3700023548274
 21
226.2511004045077
 31
0.0
  0
LINE
  5
DAA9
330
1F
100
AcDbEntity
  8
AM_0
 48
0.4499990000000027
100
AcDbLine
 10
273.3700023548274
 20
233.7511304045076
 30
0.0
 11
282.3699823548273
 21
233.7511304045076
 31
0.0
  0
LINE
  5
DAAA
330
1F
100
AcDbEntity
  8
AM_0
 48
0.2000015000000019
100
AcDbLine
 10
265.3699723548277
 20
226.7511004045076
 30
0.0
 11
265.3699723548277
 21
230.7511304045076
 31
0.0
  0
ARC
  5
DAAB
330
1F
100
AcDbEntity
  8
AM_0
 48
0.3
100
AcDbCircle
 10
265.8699723548277
 20
226.7511004045076
 30
0.0
 40
0.5
100
AcDbArc
 50
180.0
 51
270.0
  0
LINE
  5
DAAC
330
1F
100
AcDbEntity
  8
AM_0
 48
0.2159425000000056
100
AcDbLine
 10
264.4720823548274
 20
237.2511304045076
 30
0.0
 11
268.7909323548275
 21
237.2511304045076
 31
0.0
  0
LINE
  5
DAAD
330
1F
100
AcDbEntity
  8
AM_0
 48
0.225
100
AcDbLine
 10
268.7909323548275
 20
232.7511304045076
 30
0.0
 11
268.7909323548275
 21
237.2511304045076
 31
0.0
  0
ARC
  5
DAAE
330
1F
100
AcDbEntity
  8
AM_0
 48
0.3
100
AcDbCircle
 10
269.7909323548277
 20
232.7511304045076
 30
0.0
 40
1.0
100
AcDbArc
 50
180.0
 51
270.0
  0
ARC
  5
DAAF
330
1F
100
AcDbEntity
  8
AM_0
 48
0.3
100
AcDbCircle
 10
264.3699723548277
 20
230.7511304045076
 30
0.0
 40
1.0
100
AcDbArc
 50
0.0
 51
90.0
  0
ARC
  5
DAB0
330
1F
100
AcDbEntity
  8
AM_0
 48
0.3
100
AcDbCircle
 10
264.4720823548274
 20
236.2511304045076
 30
0.0
 40
1.0
100
AcDbArc
 50
90.0
 51
166.8395270000012
  0
ARC
  5
DAB1
330
1F
100
AcDbEntity
  8
AM_0
 48
0.3
100
AcDbCircle
 10
255.3699423548276
 20
229.7511304045076
 30
0.0
 40
0.5
100
AcDbArc
 50
180.0
 51
270.0
  0
LINE
  5
DAB2
330
1F
100
AcDbEntity
  8
AM_0
100
AcDbLine
 10
377.7189993548275
 20
127.5094476545076
 30
0.0
 11
377.7189993548275
 21
87.0094376545075
 31
0.0
  0
LINE
  5
DAB3
330
1F
100
AcDbEntity
  8
AM_0
100
AcDbLine
 10
373.7189993548274
 20
113.5094476545076
 30
0.0
 11
373.7189993548274
 21
87.0094376545075
 31
0.0
  0
LINE
  5
DAB4
330
1F
100
AcDbEntity
  8
AM_0
100
AcDbLine
 10
369.2189993548274
 20
113.5094476545076
 30
0.0
 11
369.2189993548274
 21
88.00943765450751
 31
0.0
  0
LINE
  5
DAB5
330
1F
100
AcDbEntity
  8
AM_0
 48
0.5750000000000001
100
AcDbLine
 10
370.2189993548274
 20
87.0094376545075
 30
0.0
 11
381.7189993548274
 21
87.0094376545075
 31
0.0
  0
ARC
  5
DAB6
330
1F
100
AcDbEntity
  8
AM_0
 48
0.3
100
AcDbCircle
 10
370.2189993548274
 20
88.00943765450751
 30
0.0
 40
1.0
100
AcDbArc
 50
180.0
 51
270.0
  0
LINE
  5
DAB7
330
1F
100
AcDbEntity
  8
AM_0
100
AcDbLine
 10
368.2189993548273
 20
115.0094476545076
 30
0.0
 11
368.2189993548273
 21
140.0094476545075
 31
0.0
  0
LINE
  5
DAB8
330
1F
100
AcDbEntity
  8
AM_0
100
AcDbLine
 10
377.7189993548275
 20
127.5094476545076
 30
0.0
 11
377.7189993548275
 21
168.0094476545075
 31
0.0
  0
LINE
  5
DAB9
330
1F
100
AcDbEntity
  8
AM_0
 48
0.2309505000000001
100
AcDbLine
 10
367.7189993548275
 20
114.5094476545076
 30
0.0
 11
367.7189993548275
 21
109.8904376545076
 31
0.0
  0
LINE
  5
DABA
330
1F
100
AcDbEntity
  8
AM_0
 48
0.15
100
AcDbLine
 10
373.7189993548274
 20
111.2637876545075
 30
0.0
 11
373.7189993548274
 21
110.9094576545075
 31
0.0
  0
ARC
  5
DABB
330
1F
100
AcDbEntity
  8
AM_0
 48
0.3
100
AcDbCircle
 10
372.7189993548273
 20
113.5094476545076
 30
0.0
 40
1.0
100
AcDbArc
 50
0.0
 51
90.0
  0
ARC
  5
DABC
330
1F
100
AcDbEntity
  8
AM_0
 48
0.3
100
AcDbCircle
 10
370.2189993548274
 20
113.5094476545076
 30
0.0
 40
1.0
100
AcDbArc
 50
90.0
 51
180.0
  0
ARC
  5
DABD
330
1F
100
AcDbEntity
  8
AM_0
 48
0.3
100
AcDbCircle
 10
368.7189993548275
 20
115.0094476545076
 30
0.0
 40
0.5
100
AcDbArc
 50
180.0
 51
270.0
  0
ARC
  5
DABE
330
1F
100
AcDbEntity
  8
AM_2
 48
0.3
100
AcDbCircle
 10
368.9689993548272
 20
127.5094476545076
 30
0.0
 40
1.25
100
AcDbArc
 50
126.8698999999976
 51
233.1301000000024
  0
LINE
  5
DABF
330
1F
100
AcDbEntity
  8
AM_0
100
AcDbLine
 10
369.2189993548274
 20
141.5094476545075
 30
0.0
 11
369.2189993548274
 21
167.0094476545075
 31
0.0
  0
LINE
  5
DAC0
330
1F
100
AcDbEntity
  8
AM_0
100
AcDbLine
 10
373.7189993548274
 20
141.5094476545075
 30
0.0
 11
373.7189993548274
 21
168.0094476545075
 31
0.0
  0
LINE
  5
DAC1
330
1F
100
AcDbEntity
  8
AM_0
 48
0.2309510000000046
100
AcDbLine
 10
367.7189993548275
 20
140.5094476545076
 30
0.0
 11
367.7189993548275
 21
145.1284676545076
 31
0.0
  0
ARC
  5
DAC2
330
1F
100
AcDbEntity
  8
AM_0
 48
0.3
100
AcDbCircle
 10
372.7189993548273
 20
141.5094476545075
 30
0.0
 40
1.0
100
AcDbArc
 50
270.0
 51
0.0
  0
ARC
  5
DAC3
330
1F
100
AcDbEntity
  8
AM_0
 48
0.3
100
AcDbCircle
 10
370.2189993548274
 20
141.5094476545075
 30
0.0
 40
1.0
100
AcDbArc
 50
180.0
 51
270.0
  0
ARC
  5
DAC4
330
1F
100
AcDbEntity
  8
AM_0
 48
0.3
100
AcDbCircle
 10
368.7189993548275
 20
140.0094476545075
 30
0.0
 40
0.5
100
AcDbArc
 50
90.0
 51
180.0
  0
LINE
  5
DAC5
330
1F
100
AcDbEntity
  8
AM_0
 48
0.5750000000000001
100
AcDbLine
 10
370.2189993548274
 20
168.0094476545075
 30
0.0
 11
381.7189993548274
 21
168.0094476545075
 31
0.0
  0
LINE
  5
DAC6
330
1F
100
AcDbEntity
  8
AM_0
 48
0.5750000000000001
100
AcDbLine
 10
370.2189993548274
 20
168.0094476545075
 30
0.0
 11
381.7189993548274
 21
168.0094476545075
 31
0.0
  0
ARC
  5
DAC7
330
1F
100
AcDbEntity
  8
AM_0
 48
0.3
100
AcDbCircle
 10
370.2189993548274
 20
167.0094476545075
 30
0.0
 40
1.0
100
AcDbArc
 50
90.0
 51
180.0
  0
LINE
  5
DAC8
330
1F
100
AcDbEntity
  8
AM_0
 48
0.8239914999999996
100
AcDbLine
 10
254.8699423548276
 20
239.2511304045076
 30
0.0
 11
271.3497723548276
 21
239.2511304045076
 31
0.0
  0
LINE
  5
DAC9
330
1F
100
AcDbEntity
  8
AM_0
 48
0.5100005000000011
100
AcDbLine
 10
282.8699823548273
 20
245.2511304045076
 30
0.0
 11
293.0699923548274
 21
245.2511304045076
 31
0.0
  0
LINE
  5
DACA
330
1F
100
AcDbEntity
  8
AM_0
100
AcDbLine
 10
269.1699723548274
 20
240.7511304045076
 30
0.0
 11
292.5699923548274
 21
240.7511304045076
 31
0.0
  0
LINE
  5
DACB
330
1F
100
AcDbEntity
  8
AM_0
100
AcDbLine
 10
268.6699723548273
 20
249.2511304045076
 30
0.0
 11
293.0699923548274
 21
249.2511304045076
 31
0.0
  0
ARC
  5
DACC
330
1F
100
AcDbEntity
  8
AM_0
 48
0.3
100
AcDbCircle
 10
292.5699923548274
 20
245.7511304045076
 30
0.0
 40
0.5
100
AcDbArc
 50
270.0
 51
0.0
  0
LINE
  5
DACD
330
1F
100
AcDbEntity
  8
AM_0
 48
0.2000015000000019
100
AcDbLine
 10
293.0699923548274
 20
241.2511004045077
 30
0.0
 11
293.0699923548274
 21
245.2511304045076
 31
0.0
  0
ARC
  5
DACE
330
1F
100
AcDbEntity
  8
AM_2
 48
0.3
100
AcDbCircle
 10
292.0699923548274
 20
241.2511004045077
 30
0.0
 40
1.0
100
AcDbArc
 50
270.0
 51
0.0
  0
ARC
  5
DACF
330
1F
100
AcDbEntity
  8
AM_0
 48
0.3
100
AcDbCircle
 10
292.5699923548274
 20
241.2511304045076
 30
0.0
 40
0.5
100
AcDbArc
 50
270.0
 51
0.0
  0
LINE
  5
DAD0
330
1F
100
AcDbEntity
  8
AM_2
 48
0.15
100
AcDbLine
 10
290.1699923548274
 20
240.2511004045077
 30
0.0
 11
292.0699923548274
 21
240.2511004045077
 31
0.0
  0
LINE
  5
DAD1
330
1F
100
AcDbEntity
  8
AM_0
 48
0.375
100
AcDbLine
 10
293.0699923548274
 20
245.7511304045076
 30
0.0
 11
293.0699923548274
 21
253.2511304045076
 31
0.0
  0
LINE
  5
DAD2
330
1F
100
AcDbEntity
  8
AM_0
 48
0.5100005000000011
100
AcDbLine
 10
268.6699723548273
 20
245.2511304045076
 30
0.0
 11
278.8699823548274
 21
245.2511304045076
 31
0.0
  0
LINE
  5
DAD3
330
1F
100
AcDbEntity
  8
AM_0
 48
0.2
100
AcDbLine
 10
282.8699823548273
 20
245.2511304045076
 30
0.0
 11
282.8699823548273
 21
249.2511304045076
 31
0.0
  0
LINE
  5
DAD4
330
1F
100
AcDbEntity
  8
AM_0
 48
0.2
100
AcDbLine
 10
278.8699823548274
 20
245.2511304045076
 30
0.0
 11
278.8699823548274
 21
249.2511304045076
 31
0.0
  0
ARC
  5
DAD5
330
1F
100
AcDbEntity
  8
AM_0
 48
0.3
100
AcDbCircle
 10
269.1699723548274
 20
245.7511304045076
 30
0.0
 40
0.5
100
AcDbArc
 50
180.0
 51
270.0
  0
LINE
  5
DAD6
330
1F
100
AcDbEntity
  8
AM_0
 48
0.3
100
AcDbLine
 10
268.6699723548273
 20
239.2511304045076
 30
0.0
 11
268.6699723548273
 21
245.2511304045076
 31
0.0
  0
ARC
  5
DAD7
330
1F
100
AcDbEntity
  8
AM_0
 48
0.3
100
AcDbCircle
 10
269.1699723548274
 20
241.2511304045076
 30
0.0
 40
0.5
100
AcDbArc
 50
180.0
 51
270.0
  0
ARC
  5
DAD8
330
1F
100
AcDbEntity
  8
AM_2
 48
0.3
100
AcDbCircle
 10
264.0858523548274
 20
238.2511304045076
 30
0.0
 40
1.0
100
AcDbArc
 50
90.0
 51
180.0
  0
LINE
  5
DAD9
330
1F
100
AcDbEntity
  8
AM_0
 48
0.375
100
AcDbLine
 10
268.6699723548273
 20
245.7511304045076
 30
0.0
 11
268.6699723548273
 21
253.2511304045076
 31
0.0
  0
LINE
  5
DADA
330
1F
100
AcDbEntity
  8
AM_7
100
AcDbLine
 10
128.8301517068863
 20
127.5094476545076
 30
0.0
 11
175.8780916995652
 21
127.5094476545076
 31
0.0
  0
ARC
  5
DADB
330
1F
100
AcDbEntity
  8
AM_0
100
AcDbCircle
 10
159.5999392901756
 20
99.2094476545073
 30
0.0
 40
12.200012
100
AcDbArc
 50
180.0
 51
0.0
  0
ARC
  5
DADC
330
1F
100
AcDbEntity
  8
AM_0
100
AcDbCircle
 10
159.5999392901756
 20
155.8094576545074
 30
0.0
 40
12.200012
100
AcDbArc
 50
125.108419999996
 51
180.0
  0
CIRCLE
  5
DADD
330
1F
100
AcDbEntity
  8
AM_0
100
AcDbCircle
 10
156.5999392901756
 20
127.5094476545076
 30
0.0
 40
12.5
  0
LINE
  5
DADE
330
1F
100
AcDbEntity
  8
AM_0
 48
0.6121184215186599
100
AcDbLine
 10
152.1765692901756
 20
144.4375076545075
 30
0.0
 11
145.8799992901756
 21
133.9385176545075
 31
0.0
  0
LINE
  5
DADF
330
1F
100
AcDbEntity
  8
AM_0
 48
0.7509809689148196
100
AcDbLine
 10
155.9296192901754
 20
115.0274376545075
 30
0.0
 11
141.8157892901755
 21
109.8904376545076
 31
0.0
  0
LINE
  5
DAE0
330
1F
100
AcDbEntity
  8
AM_0
 48
0.4706065752826289
100
AcDbLine
 10
150.6603592901752
 20
141.9093276545075
 30
0.0
 11
141.8158492901753
 21
145.1284676545076
 31
0.0
  0
ARC
  5
DAE1
330
1F
100
AcDbEntity
  8
AM_0
100
AcDbCircle
 10
156.5999392901756
 20
127.5094476545076
 30
0.0
 40
23.0
100
AcDbArc
 50
130.0000100000008
 51
180.0
  0
LINE
  5
DAE2
330
1F
100
AcDbEntity
  8
AM_0
 48
0.635671500000001
100
AcDbLine
 10
147.3999292901756
 20
143.0960276545075
 30
0.0
 11
147.3999292901756
 21
155.8094576545074
 31
0.0
  0
ARC
  5
DAE3
330
1F
100
AcDbEntity
  8
AM_0
100
AcDbCircle
 10
156.5999392901756
 20
127.5094476545076
 30
0.0
 40
23.0
100
AcDbArc
 50
180.0
 51
229.9999899999991
  0
ARC
  5
DAE4
330
1F
100
AcDbEntity
  8
AM_0
100
AcDbCircle
 10
158.5999392901757
 20
127.5094476545076
 30
0.0
 40
23.0
100
AcDbArc
 50
180.0
 51
222.891440000003
  0
ARC
  5
DAE5
330
1F
100
AcDbEntity
  8
AM_0
100
AcDbCircle
 10
156.5999392901756
 20
127.5094476545076
 30
0.0
 40
18.0
100
AcDbArc
 50
180.0
 51
239.709030000001
  0
LINE
  5
DAE6
330
1F
100
AcDbEntity
  8
AM_2
 48
0.15
100
AcDbLine
 10
134.3836592901756
 20
121.5566176545075
 30
0.0
 11
136.2553292901752
 21
122.0581276545076
 31
0.0
  0
LINE
  5
DAE7
330
1F
100
AcDbEntity
  8
AM_2
 48
0.15
100
AcDbLine
 10
134.3836592901756
 20
121.5566176545075
 30
0.0
 11
136.2553292901752
 21
122.0581276545076
 31
0.0
  0
ARC
  5
DAE8
330
1F
100
AcDbEntity
  8
AM_0
 48
0.3
100
AcDbCircle
 10
140.6501392901752
 20
110.8344676545076
 30
0.0
 40
1.5
100
AcDbArc
 50
320.9975700000029
 51
42.89147300000279
  0
LINE
  5
DAE9
330
1F
100
AcDbEntity
  8
AM_0
 48
0.6356719999999996
100
AcDbLine
 10
147.3999292901756
 20
111.9228876545075
 30
0.0
 11
147.3999292901756
 21
99.2094476545073
 31
0.0
  0
ARC
  5
DAEA
330
1F
100
AcDbEntity
  8
AM_0
100
AcDbCircle
 10
158.5999392901757
 20
127.5094476545076
 30
0.0
 40
23.0
100
AcDbArc
 50
137.108559999997
 51
180.0
  0
ARC
  5
DAEB
330
1F
100
AcDbEntity
  8
AM_0
100
AcDbCircle
 10
156.5999392901756
 20
127.5094476545076
 30
0.0
 40
18.0
100
AcDbArc
 50
120.2909699999989
 51
180.0
  0
LINE
  5
DAEC
330
1F
100
AcDbEntity
  8
AM_2
 48
0.15
100
AcDbLine
 10
134.3836292901755
 20
133.4622976545075
 30
0.0
 11
136.2552692901754
 21
132.9607876545075
 31
0.0
  0
ARC
  5
DAED
330
1F
100
AcDbEntity
  8
AM_0
 48
0.3
100
AcDbCircle
 10
140.6501392901752
 20
144.1844376545075
 30
0.0
 40
1.5
100
AcDbArc
 50
317.1085300000029
 51
39.00242700000158
  0
LINE
  5
DAEF
330
1F
100
AcDbEntity
  8
AM_7
100
AcDbLine
 10
159.5999392901756
 20
173.1736184302748
 30
0.0
 11
159.5999392901756
 21
82.58522765450749
 31
0.0
  0
LINE
  5
DAF0
330
1F
100
AcDbEntity
  8
AM_0
100
AcDbLine
 10
152.2116892901756
 20
144.4961176545075
 30
0.0
 11
152.7214292901756
 21
173.6980676545075
 31
0.0
  0
LINE
  5
DAF1
330
1F
100
AcDbEntity
  8
AM_0
100
AcDbLine
 10
160.9881492901756
 20
144.4961576545075
 30
0.0
 11
160.4784192901754
 21
173.6980676545075
 31
0.0
  0
LINE
  5
DAF2
330
1F
100
AcDbEntity
  8
AM_2
100
AcDbLine
 10
159.0615492901754
 20
140.2742576545075
 30
0.0
 11
158.4787192901756
 21
173.6631576545075
 31
0.0
  0
LINE
  5
DAF3
330
1F
100
AcDbEntity
  8
AM_2
100
AcDbLine
 10
154.1382992901756
 20
140.2742676545076
 30
0.0
 11
154.7211192901754
 21
173.6631676545075
 31
0.0
  0
LINE
  5
DAF4
330
1F
100
AcDbEntity
  8
AM_0
100
AcDbLine
 10
171.7999492901756
 20
128.5094476545076
 30
0.0
 11
171.7999492901756
 21
155.8094576545074
 31
0.0
  0
LINE
  5
DAF5
330
1F
100
AcDbEntity
  8
AM_0
100
AcDbLine
 10
171.7999492901756
 20
128.5094476545076
 30
0.0
 11
171.7999492901756
 21
99.2094476545073
 31
0.0
  0
LINE
  5
DAF6
330
1F
100
AcDbEntity
  8
AM_0
 48
0.8146730000000047
100
AcDbLine
 10
154.5064892901753
 20
114.5094476545076
 30
0.0
 11
170.7999492901756
 21
114.5094476545076
 31
0.0
  0
ARC
  5
DAF7
330
1F
100
AcDbEntity
  8
AM_0
 48
0.3
100
AcDbCircle
 10
170.7999492901756
 20
113.5094476545076
 30
0.0
 40
1.0
100
AcDbArc
 50
0.0
 51
90.0
  0
ARC
  5
DAF8
330
1F
100
AcDbEntity
  8
AM_0
 48
0.3
100
AcDbCircle
 10
170.7999492901756
 20
115.5094476545076
 30
0.0
 40
1.0
100
AcDbArc
 50
270.0
 51
0.0
  0
LINE
  5
DAF9
330
1F
100
AcDbEntity
  8
AM_0
 48
0.6155383608445888
100
AcDbLine
 10
160.9881492901756
 20
144.4961776545075
 30
0.0
 11
167.3198792901755
 21
133.9385176545075
 31
0.0
  0
LINE
  5
DAFA
330
1F
100
AcDbEntity
  8
AM_0
 48
0.3710420000000113
100
AcDbLine
 10
163.3791092901751
 20
140.5094476545076
 30
0.0
 11
170.7999492901756
 21
140.5094476545076
 31
0.0
  0
ARC
  5
DAFB
330
1F
100
AcDbEntity
  8
AM_0
100
AcDbCircle
 10
156.5999392901756
 20
127.5094476545076
 30
0.0
 40
13.0
100
AcDbArc
 50
58.21832000000358
 51
121.7816799999964
  0
ARC
  5
DAFC
330
1F
100
AcDbEntity
  8
0
  6
DASHED
 62
     7
100
AcDbCircle
 10
156.5999392901756
 20
127.5094476545076
 30
0.0
 40
13.0
100
AcDbArc
 50
67.97857200000236
 51
90.0
  0
ARC
  5
DAFD
330
1F
100
AcDbEntity
  8
AM_0
 48
0.3
100
AcDbCircle
 10
149.4897092901752
 20
138.9852776545075
 30
0.0
 40
0.5
100
AcDbArc
 50
149.048539999999
 51
301.7809300000028
  0
ARC
  5
DAFE
330
1F
100
AcDbEntity
  8
AM_0
 48
0.3
100
AcDbCircle
 10
163.7101692901751
 20
138.9852776545075
 30
0.0
 40
0.5
100
AcDbArc
 50
238.2190699999972
 51
30.95146199999939
  0
ARC
  5
DAFF
330
1F
100
AcDbEntity
  8
AM_2
 48
0.3
100
AcDbCircle
 10
170.7999492901756
 20
127.5094476545076
 30
0.0
 40
1.0
100
AcDbArc
 50
270.0
 51
90.0
  0
ARC
  5
DB00
330
1F
100
AcDbEntity
  8
AM_2
 48
0.3
100
AcDbCircle
 10
168.0999392901756
 20
127.5094476545076
 30
0.0
 40
1.0
100
AcDbArc
 50
270.0
 51
90.0
  0
LINE
  5
DB01
330
1F
100
AcDbEntity
  8
AM_2
 48
0.164999499999999
100
AcDbLine
 10
164.7999492901756
 20
126.5094476545076
 30
0.0
 11
168.0999392901756
 21
126.5094476545076
 31
0.0
  0
LINE
  5
DB03
330
1F
100
AcDbEntity
  8
AM_2
 48
0.15
100
AcDbLine
 10
169.0598750845527
 20
126.5094476545076
 30
0.0
 11
170.7999492901756
 21
126.5094476545076
 31
0.0
  0
LINE
  5
DB04
330
1F
100
AcDbEntity
  8
AM_2
 48
0.164999499999999
100
AcDbLine
 10
164.7999492901756
 20
128.5094476545076
 30
0.0
 11
168.0999392901756
 21
128.5094476545076
 31
0.0
  0
LINE
  5
DB05
330
1F
100
AcDbEntity
  8
AM_2
 48
0.15
100
AcDbLine
 10
169.0598750845527
 20
128.5094476545076
 30
0.0
 11
170.7999492901756
 21
128.5094476545076
 31
0.0
  0
ARC
  5
DB06
330
1F
100
AcDbEntity
  8
AM_0
 48
0.3
100
AcDbCircle
 10
170.7999492901756
 20
139.5094476545076
 30
0.0
 40
1.0
100
AcDbArc
 50
0.0
 51
90.0
  0
ARC
  5
DB07
330
1F
100
AcDbEntity
  8
AM_0
 48
0.3
100
AcDbCircle
 10
170.7999492901756
 20
141.5094476545076
 30
0.0
 40
1.0
100
AcDbArc
 50
270.0
 51
0.0
  0
ARC
  5
DB08
330
1F
100
AcDbEntity
  8
AM_0
100
AcDbCircle
 10
159.5999392901756
 20
155.8094576545074
 30
0.0
 40
12.200012
100
AcDbArc
 50
0.0
 51
85.3997290000027
  0
ARC
  5
DB09
330
1F
100
AcDbEntity
  8
AM_0
 48
0.38790936
100
AcDbCircle
 10
156.5999092901752
 20
173.6303676545075
 30
0.0
 40
3.8790936
100
AcDbArc
 50
0.0
 51
178.9999499999987
  0
ARC
  5
DB0A
330
1F
100
AcDbEntity
  8
AM_2
 48
0.3
100
AcDbCircle
 10
156.5999092901752
 20
173.6303676545075
 30
0.0
 40
1.8790936
100
AcDbArc
 50
0.0
 51
179.0001099999978
  0
ARC
  5
DB0B
330
1F
100
AcDbEntity
  8
AM_0
100
AcDbCircle
 10
277.8699823548274
 20
127.5094476545076
 30
0.0
 40
23.0
100
AcDbArc
 50
130.0000100000008
 51
180.0
  0
LINE
  5
DB0C
330
1F
100
AcDbEntity
  8
AM_0
 48
0.635671500000001
100
AcDbLine
 10
268.6699723548273
 20
143.0960276545075
 30
0.0
 11
268.6699723548273
 21
155.8094576545074
 31
0.0
  0
LINE
  5
DB0D
330
1F
100
AcDbEntity
  8
AM_7
100
AcDbLine
 10
277.8699823548274
 20
180.3668876545074
 30
0.0
 11
277.8699823548274
 21
109.1805181028416
 31
0.0
  0
LINE
  5
DB0E
330
1F
100
AcDbEntity
  8
AM_7
100
AcDbLine
 10
280.8699823548273
 20
173.1736184302748
 30
0.0
 11
280.8699823548273
 21
82.58522765450749
 31
0.0
  0
LINE
  5
DB0F
330
1F
100
AcDbEntity
  8
AM_0
100
AcDbLine
 10
273.4817314484252
 20
144.496065728584
 30
0.0
 11
273.9914723548273
 21
173.6980676545075
 31
0.0
  0
LINE
  5
DB10
330
1F
100
AcDbEntity
  8
AM_0
100
AcDbLine
 10
282.2581923548275
 20
144.4961576545075
 30
0.0
 11
281.7484623548273
 21
173.6980676545075
 31
0.0
  0
LINE
  5
DB11
330
1F
100
AcDbEntity
  8
AM_2
100
AcDbLine
 10
280.3315923548275
 20
140.2742576545075
 30
0.0
 11
279.7487623548274
 21
173.6631576545075
 31
0.0
  0
LINE
  5
DB12
330
1F
100
AcDbEntity
  8
AM_2
100
AcDbLine
 10
275.4083423548274
 20
140.2742676545076
 30
0.0
 11
275.9911623548276
 21
173.6631676545075
 31
0.0
  0
LINE
  5
DB13
330
1F
100
AcDbEntity
  8
AM_0
100
AcDbLine
 10
293.0699923548274
 20
128.5094476545076
 30
0.0
 11
293.0699923548274
 21
155.8094576545074
 31
0.0
  0
ARC
  5
DB14
330
1F
100
AcDbEntity
  8
AM_0
100
AcDbCircle
 10
280.8699823548273
 20
99.2094476545073
 30
0.0
 40
12.200012
100
AcDbArc
 50
180.0
 51
0.0
  0
ARC
  5
DB15
330
1F
100
AcDbEntity
  8
AM_0
100
AcDbCircle
 10
277.8699823548274
 20
127.5094476545076
 30
0.0
 40
13.0
100
AcDbArc
 50
58.21832000000358
 51
121.7816799999964
  0
CIRCLE
  5
DB16
330
1F
100
AcDbEntity
  8
AM_0
100
AcDbCircle
 10
277.8699823548274
 20
127.5094476545076
 30
0.0
 40
12.5
  0
LINE
  5
DB17
330
1F
100
AcDbEntity
  8
AM_7
100
AcDbLine
 10
250.1001947715383
 20
127.5094476545076
 30
0.0
 11
297.1481347642172
 21
127.5094476545076
 31
0.0
  0
LINE
  5
DB18
330
1F
100
AcDbEntity
  8
AM_0
 48
0.6155325095281761
100
AcDbLine
 10
273.4817314484252
 20
144.496065728584
 30
0.0
 11
267.1500423548275
 21
133.9385176545075
 31
0.0
  0
LINE
  5
DB19
330
1F
100
AcDbEntity
  8
AM_0
 48
0.7509809689148163
100
AcDbLine
 10
277.1996623548272
 20
115.0274376545075
 30
0.0
 11
263.0858323548274
 21
109.8904376545075
 31
0.0
  0
LINE
  5
DB1A
330
1F
100
AcDbEntity
  8
AM_0
 48
0.4706065752826393
100
AcDbLine
 10
271.9304023548274
 20
141.9093276545075
 30
0.0
 11
263.0858923548274
 21
145.1284676545076
 31
0.0
  0
ARC
  5
DB1B
330
1F
100
AcDbEntity
  8
AM_0
100
AcDbCircle
 10
277.8699823548274
 20
127.5094476545076
 30
0.0
 40
23.0
100
AcDbArc
 50
180.0
 51
229.9999899999991
  0
ARC
  5
DB1C
330
1F
100
AcDbEntity
  8
AM_0
100
AcDbCircle
 10
279.8699823548274
 20
127.5094476545076
 30
0.0
 40
23.0
100
AcDbArc
 50
180.0
 51
222.891440000003
  0
ARC
  5
DB1D
330
1F
100
AcDbEntity
  8
AM_0
100
AcDbCircle
 10
277.8699823548274
 20
127.5094476545076
 30
0.0
 40
18.0
100
AcDbArc
 50
180.0
 51
239.709030000001
  0
LINE
  5
DB1E
330
1F
100
AcDbEntity
  8
AM_2
 48
0.15
100
AcDbLine
 10
255.6537023548274
 20
121.5566176545075
 30
0.0
 11
257.5253723548274
 21
122.0581276545076
 31
0.0
  0
LINE
  5
DB1F
330
1F
100
AcDbEntity
  8
AM_2
 48
0.15
100
AcDbLine
 10
255.6537023548274
 20
121.5566176545075
 30
0.0
 11
257.5253723548274
 21
122.0581276545076
 31
0.0
  0
ARC
  5
DB20
330
1F
100
AcDbEntity
  8
AM_0
 48
0.3
100
AcDbCircle
 10
261.9201823548274
 20
110.8344676545076
 30
0.0
 40
1.5
100
AcDbArc
 50
320.9975700000029
 51
42.89147300000279
  0
LINE
  5
DB21
330
1F
100
AcDbEntity
  8
AM_0
 48
0.6356719999999996
100
AcDbLine
 10
268.6699723548273
 20
111.9228876545075
 30
0.0
 11
268.6699723548273
 21
99.2094476545073
 31
0.0
  0
ARC
  5
DB22
330
1F
100
AcDbEntity
  8
AM_0
100
AcDbCircle
 10
279.8699823548274
 20
127.5094476545076
 30
0.0
 40
23.0
100
AcDbArc
 50
137.108559999997
 51
180.0
  0
ARC
  5
DB23
330
1F
100
AcDbEntity
  8
AM_0
100
AcDbCircle
 10
277.8699823548274
 20
127.5094476545076
 30
0.0
 40
18.0
100
AcDbArc
 50
120.2909699999989
 51
180.0
  0
LINE
  5
DB24
330
1F
100
AcDbEntity
  8
AM_2
 48
0.15
100
AcDbLine
 10
255.6536723548277
 20
133.4622976545075
 30
0.0
 11
257.5253123548275
 21
132.9607876545075
 31
0.0
  0
ARC
  5
DB25
330
1F
100
AcDbEntity
  8
AM_0
 48
0.3
100
AcDbCircle
 10
261.9201823548274
 20
144.1844376545074
 30
0.0
 40
1.5
100
AcDbArc
 50
317.1085300000029
 51
39.00242700000158
  0
ARC
  5
DB26
330
1F
100
AcDbEntity
  8
AM_0
 48
0.3
100
AcDbCircle
 10
270.7597523548273
 20
138.9852776545075
 30
0.0
 40
0.5
100
AcDbArc
 50
149.048539999999
 51
301.7809300000028
  0
LINE
  5
DB27
330
1F
100
AcDbEntity
  8
AM_0
100
AcDbLine
 10
293.0699923548274
 20
128.5094476545076
 30
0.0
 11
293.0699923548274
 21
99.2094476545073
 31
0.0
  0
LINE
  5
DB28
330
1F
100
AcDbEntity
  8
AM_0
 48
0.8146729999999934
100
AcDbLine
 10
275.7765323548274
 20
114.5094476545076
 30
0.0
 11
292.0699923548274
 21
114.5094476545076
 31
0.0
  0
ARC
  5
DB29
330
1F
100
AcDbEntity
  8
AM_0
 48
0.3
100
AcDbCircle
 10
292.0699923548274
 20
113.5094476545076
 30
0.0
 40
1.0
100
AcDbArc
 50
0.0
 51
90.0
  0
ARC
  5
DB2A
330
1F
100
AcDbEntity
  8
AM_0
 48
0.3
100
AcDbCircle
 10
292.0699923548274
 20
115.5094476545076
 30
0.0
 40
1.0
100
AcDbArc
 50
270.0
 51
0.0
  0
LINE
  5
DB2B
330
1F
100
AcDbEntity
  8
AM_0
 48
0.6155383608445937
100
AcDbLine
 10
282.2581923548275
 20
144.4961776545075
 30
0.0
 11
288.5899223548274
 21
133.9385176545075
 31
0.0
  0
LINE
  5
DB2C
330
1F
100
AcDbEntity
  8
AM_0
 48
0.3710419999999999
100
AcDbLine
 10
284.6491523548274
 20
140.5094476545076
 30
0.0
 11
292.0699923548274
 21
140.5094476545076
 31
0.0
  0
ARC
  5
DB2E
330
1F
100
AcDbEntity
  8
AM_0
 48
0.3
100
AcDbCircle
 10
284.9802123548274
 20
138.9852776545075
 30
0.0
 40
0.5
100
AcDbArc
 50
238.2190699999972
 51
30.95146199999939
  0
ARC
  5
DB2F
330
1F
100
AcDbEntity
  8
AM_2
 48
0.3
100
AcDbCircle
 10
292.0699923548274
 20
127.5094476545076
 30
0.0
 40
1.0
100
AcDbArc
 50
270.0
 51
90.0
  0
ARC
  5
DB30
330
1F
100
AcDbEntity
  8
AM_2
 48
0.3
100
AcDbCircle
 10
289.3699823548274
 20
127.5094476545076
 30
0.0
 40
1.0
100
AcDbArc
 50
270.0
 51
90.0
  0
LINE
  5
DB31
330
1F
100
AcDbEntity
  8
AM_2
 48
0.164999499999999
100
AcDbLine
 10
286.0699923548274
 20
126.5094476545076
 30
0.0
 11
289.3699823548274
 21
126.5094476545076
 31
0.0
  0
LINE
  5
DB32
330
1F
100
AcDbEntity
  8
AM_2
 48
0.15
100
AcDbLine
 10
290.3299181492045
 20
126.5094476545076
 30
0.0
 11
292.0699923548274
 21
126.5094476545076
 31
0.0
  0
LINE
  5
DB33
330
1F
100
AcDbEntity
  8
AM_2
 48
0.164999499999999
100
AcDbLine
 10
286.0699923548274
 20
128.5094476545076
 30
0.0
 11
289.3699823548274
 21
128.5094476545076
 31
0.0
  0
LINE
  5
DB34
330
1F
100
AcDbEntity
  8
AM_2
 48
0.15
100
AcDbLine
 10
290.3299181492045
 20
128.5094476545076
 30
0.0
 11
292.0699923548274
 21
128.5094476545076
 31
0.0
  0
ARC
  5
DB35
330
1F
100
AcDbEntity
  8
AM_0
 48
0.3
100
AcDbCircle
 10
292.0699923548274
 20
139.5094476545075
 30
0.0
 40
1.0
100
AcDbArc
 50
0.0
 51
90.0
  0
ARC
  5
DB36
330
1F
100
AcDbEntity
  8
AM_0
 48
0.3
100
AcDbCircle
 10
292.0699923548274
 20
141.5094476545075
 30
0.0
 40
1.0
100
AcDbArc
 50
270.0
 51
0.0
  0
ARC
  5
DB37
330
1F
100
AcDbEntity
  8
AM_0
100
AcDbCircle
 10
280.8699823548273
 20
155.8094576545074
 30
0.0
 40
12.200012
100
AcDbArc
 50
125.108419999996
 51
180.0
  0
ARC
  5
DB38
330
1F
100
AcDbEntity
  8
AM_0
100
AcDbCircle
 10
280.8699823548273
 20
155.8094576545074
 30
0.0
 40
12.200012
100
AcDbArc
 50
0.0
 51
85.39983641268051
  0
ARC
  5
DB39
330
1F
100
AcDbEntity
  8
AM_0
 48
0.38790936
100
AcDbCircle
 10
277.8699523548273
 20
173.6303676545075
 30
0.0
 40
3.8790936
100
AcDbArc
 50
0.0
 51
178.9999499999987
  0
ARC
  5
DB3A
330
1F
100
AcDbEntity
  8
AM_2
 48
0.3
100
AcDbCircle
 10
277.8699523548273
 20
173.6303676545075
 30
0.0
 40
1.8790936
100
AcDbArc
 50
0.0
 51
179.0001099999978
  0
LINE
  5
DB3B
330
1F
100
AcDbEntity
  8
AM_2
100
AcDbLine
 10
268.6699723548273
 20
250.2511304045076
 30
0.0
 11
293.0699923548274
 21
250.2511304045076
 31
0.0
  0
LINE
  5
DB3C
330
1F
100
AcDbEntity
  8
AM_2
100
AcDbLine
 10
268.6699723548273
 20
251.2511304045076
 30
0.0
 11
293.0699923548274
 21
251.2511304045076
 31
0.0
  0
LINE
  5
DB3D
330
1F
100
AcDbEntity
  8
AM_2
100
AcDbLine
 10
268.6699723548273
 20
252.2511304045076
 30
0.0
 11
293.0699923548274
 21
252.2511304045076
 31
0.0
  0
LINE
  5
DB3E
330
1F
100
AcDbEntity
  8
AM_0
100
AcDbLine
 10
268.6699723548273
 20
253.2511304045076
 30
0.0
 11
293.0699923548274
 21
253.2511304045076
 31
0.0
  0
LINE
  5
DB3F
330
1F
100
AcDbEntity
  8
AM_2
100
AcDbLine
 10
378.7189993548277
 20
87.0094376545075
 30
0.0
 11
378.7189993548274
 21
168.0094476545075
 31
0.0
  0
LINE
  5
DB40
330
1F
100
AcDbEntity
  8
AM_2
100
AcDbLine
 10
379.7189993548277
 20
87.0094376545075
 30
0.0
 11
379.7189993548272
 21
168.0094476545075
 31
0.0
  0
LINE
  5
DB41
330
1F
100
AcDbEntity
  8
AM_2
100
AcDbLine
 10
380.7189993548277
 20
87.0094376545075
 30
0.0
 11
380.7189993548274
 21
168.0094476545075
 31
0.0
  0
LINE
  5
DB42
330
1F
100
AcDbEntity
  8
AM_0
100
AcDbLine
 10
381.7189993548274
 20
87.0094376545075
 30
0.0
 11
381.7189993548274
 21
168.0094476545075
 31
0.0
  0
ARC
  5
DB43
330
1F
100
AcDbEntity
  8
AM_3
 48
0.5
100
AcDbCircle
 10
280.8699823548273
 20
155.8094576545074
 30
0.0
 40
12.200012
100
AcDbArc
 50
85.39983641268051
 51
125.1085093901803
  0
LINE
  5
DB44
330
1F
100
AcDbEntity
  8
AM_7
 48
0.8215154936094677
100
AcDbLine
 10
288.9453876017967
 20
101.2594476545076
 30
0.0
 11
272.5150777296073
 21
101.2594476545076
 31
0.0
1001
GENIUS_GENODEF_13
1002
{
1000
HIER
1070
     0
1002
}
1002
{
1000
MANEDIT
1070
     0
1002
}
1002
{
1000
NOSEL
1070
     0
1002
}
1002
{
1000
BEHIND
1070
     0
1002
}
1002
{
1000
OTHER
1070
     0
1002
}
1002
{
1000
REACTOR
1002
}
1001
GENIUS_GENOBJ-N-CEN_13
1002
{
1000
OWNER
1000
GEN
1002
}
  0
LINE
  5
DB45
330
1F
100
AcDbEntity
  8
AM_7
 48
0.8215154936094677
100
AcDbLine
 10
288.9453876017967
 20
153.7594476545075
 30
0.0
 11
272.5150777296073
 21
153.7594476545075
 31
0.0
1001
GENIUS_GENODEF_13
1002
{
1000
HIER
1070
     0
1002
}
1002
{
1000
MANEDIT
1070
     0
1002
}
1002
{
1000
NOSEL
1070
     0
1002
}
1002
{
1000
BEHIND
1070
     0
1002
}
1002
{
1000
OTHER
1070
     0
1002
}
1002
{
1000
REACTOR
1002
}
1001
GENIUS_GENOBJ-N-CEN_13
1002
{
1000
OWNER
1000
GEN
1002
}
  0
DIMENSION
  5
DB46
330
1F
100
AcDbEntity
  8
AM_5
 48
1.01
100
AcDbDimension
  2
*D6
 10
159.5999392901756
 20
187.5094612543914
 30
0.0
 11
147.5999392901756
 21
190.6094612543914
 31
0.0
 70
    32
 71
     5
 42
24.0
  3
SYS$0
100
AcDbAlignedDimension
 13
135.5999392901756
 23
127.5094476545076
 33
0.0
 14
159.5999392901756
 24
173.1736184302748
 34
0.0
100
AcDbRotatedDimension
  0
DIMENSION
  5
DB47
330
1F
100
AcDbEntity
  8
AM_5
 48
1.01
100
AcDbDimension
  2
*D7
 10
205.5999082901756
 20
187.5094612543914
 30
0.0
 11
196.5999082901755
 21
190.6094612543914
 31
0.0
 70
    32
 71
     5
 42
18.0
  3
SYS$0
100
AcDbAlignedDimension
 13
187.5999082901755
 23
127.5094476545076
 33
0.0
 14
205.5999082901756
 24
172.1532721733516
 34
0.0
100
AcDbRotatedDimension
  0
DIMENSION
  5
DB48
330
1F
100
AcDbEntity
  8
AM_5
 48
1.01
100
AcDbDimension
  2
*D8
 10
256.8699823548274
 20
187.5094612543914
 30
0.0
 11
250.560933732848
 21
187.5094612543914
 31
0.0
 70
   160
 71
     5
 42
2.0
  3
SYS$0
100
AcDbAlignedDimension
 13
254.8699823548274
 23
127.5094476545076
 33
0.0
 14
256.8699823548274
 24
127.5094476545076
 34
0.0
100
AcDbRotatedDimension
  0
DIMENSION
  5
DB49
330
1F
100
AcDbEntity
  8
AM_5
 48
1.01
100
AcDbDimension
  2
*D9
 10
277.8699823548274
 20
187.5094612543914
 30
0.0
 11
267.3699823548274
 21
190.6094612543914
 31
0.0
 70
    32
 71
     5
 42
21.0
  3
SYS$0
100
AcDbAlignedDimension
 13
256.8699823548274
 23
127.5094476545076
 33
0.0
 14
277.8699823548274
 24
180.3668876545074
 34
0.0
100
AcDbRotatedDimension
  0
DIMENSION
  5
DB4A
330
1F
100
AcDbEntity
  8
AM_5
 48
1.01
100
AcDbDimension
  2
*D10
 10
362.2189993548273
 20
187.5094612543914
 30
0.0
 11
354.7189993548274
 21
190.6094612543914
 31
0.0
 70
    32
 71
     5
 42
14.99999999999988
  3
SYS$0
100
AcDbAlignedDimension
 13
347.2189993548275
 23
139.0094476545076
 33
0.0
 14
362.2189993548273
 24
177.5094612543914
 34
0.0
100
AcDbRotatedDimension
  0
DIMENSION
  5
DB4B
330
1F
100
AcDbEntity
  8
AM_5
 48
1.01
100
AcDbDimension
  2
*D11
 10
369.2189993548274
 20
187.5094612543908
 30
0.0
 11
365.7189993548274
 21
190.6094612543908
 31
0.0
 70
    32
 71
     5
 42
7.0
  3
SYS$0
100
AcDbAlignedDimension
 13
362.2189993548273
 23
177.5094476545075
 33
0.0
 14
369.2189993548274
 24
167.0094476545075
 34
0.0
100
AcDbRotatedDimension
  0
DIMENSION
  5
DB4C
330
1F
100
AcDbEntity
  8
AM_5
 48
1.01
100
AcDbDimension
  2
*D12
 10
381.7189993548274
 20
187.5094612543908
 30
0.0
 11
375.4689993548274
 21
190.6094612543908
 31
0.0
 70
    32
 71
     5
 42
12.5
  3
SYS$0
100
AcDbAlignedDimension
 13
369.2189993548274
 23
167.0094476545075
 33
0.0
 14
381.7189993548274
 24
168.0094476545075
 34
0.0
100
AcDbRotatedDimension
  0
DIMENSION
  5
DB4D
330
1F
100
AcDbEntity
  8
AM_5
 48
1.01
100
AcDbDimension
  2
*D13
 10
293.0699923548274
 20
62.00943565450751
 30
0.0
 11
280.8699813548273
 21
65.10943565450751
 31
0.0
 70
    32
 71
     5
 42
24.40002200000004
  3
SYS$0
100
AcDbAlignedDimension
 13
268.6699703548273
 23
99.2094476545073
 33
0.0
 14
293.0699923548274
 24
99.20246195163697
 34
0.0
100
AcDbRotatedDimension
  0
DIMENSION
  5
DB4E
330
1F
100
AcDbEntity
  8
AM_5
 48
1.01
100
AcDbDimension
  2
*D14
 10
357.7189993548274
 20
62.00943565450751
 30
0.0
 11
352.4689993548274
 21
65.10943565450751
 31
0.0
 70
    32
 71
     5
 42
10.49999999999988
  3
SYS$0
100
AcDbAlignedDimension
 13
347.2189993548275
 23
116.0094476545076
 33
0.0
 14
357.7189993548274
 24
121.9710776545075
 34
0.0
100
AcDbRotatedDimension
  0
DIMENSION
  5
DB4F
330
1F
100
AcDbEntity
  8
AM_5
 48
1.01
100
AcDbDimension
  2
*D15
 10
367.7189993548275
 20
62.00943565450649
 30
0.0
 11
362.7189993548274
 21
65.10943565450649
 31
0.0
 70
    32
 71
     5
 42
10.00000000000011
  3
SYS$0
100
AcDbAlignedDimension
 13
357.7189993548274
 23
121.9710776545075
 33
0.0
 14
367.7189993548275
 24
109.8904376545076
 34
0.0
100
AcDbRotatedDimension
  0
DIMENSION
  5
DB50
330
1F
100
AcDbEntity
  8
AM_5
 48
1.01
100
AcDbDimension
  2
*D16
 10
377.7189993548275
 20
72.00943565450558
 30
0.0
 11
372.7189993548275
 21
75.10943565450557
 31
0.0
 70
    32
 71
     5
 42
10.0
  3
SYS$0
100
AcDbAlignedDimension
 13
367.7189993548275
 23
109.8904376545076
 33
0.0
 14
377.7189993548275
 24
87.00943565450751
 34
0.0
100
AcDbRotatedDimension
  0
DIMENSION
  5
DB51
330
1F
100
AcDbEntity
  8
AM_5
 48
1.01
100
AcDbDimension
  2
*D17
 10
381.7189993548274
 20
72.00943565450467
 30
0.0
 11
386.0189993548274
 21
75.10943565450467
 31
0.0
 70
    32
 71
     5
 42
3.999999999999886
  3
SYS$0
100
AcDbAlignedDimension
 13
377.7189993548275
 23
87.0094376545075
 33
0.0
 14
381.7189993548274
 24
87.0094376545075
 34
0.0
100
AcDbRotatedDimension
  0
DIMENSION
  5
DB52
330
1F
100
AcDbEntity
  8
AM_5
 48
1.01
100
AcDbDimension
  2
*D18
 10
381.7189993548274
 20
62.00943565450399
 30
0.0
 11
374.7189993548274
 21
65.10943565450398
 31
0.0
 70
    32
 71
     5
 42
13.99999999999989
  3
SYS$0
100
AcDbAlignedDimension
 13
367.7189993548275
 23
109.8904376545076
 33
0.0
 14
381.7189993548274
 24
87.00943565450751
 34
0.0
100
AcDbRotatedDimension
  0
DIMENSION
  5
DB53
330
1F
100
AcDbEntity
  8
AM_5
 48
1.01
100
AcDbDimension
  2
*D19
 10
272.3190288519802
 20
72.00943565450649
 30
0.0
 11
276.5945056034038
 21
75.10943565450649
 31
0.0
 70
    32
  1
4
 71
     5
 42
8.550953502847164
  3
SYS$0
100
AcDbAlignedDimension
 13
280.8699823548273
 23
82.58522765450749
 33
0.0
 14
272.3190288519802
 24
82.71441028369276
 34
0.0
100
AcDbRotatedDimension
1001
ACAD
1000
DSTYLE
1002
{
1070
    76
1070
     1
1070
   173
1070
     1
1070
     5
1000

1070
     6
1000
DOT
1070
     7
1000
OPEN
1002
}
  0
DIMENSION
  5
DB54
330
1F
100
AcDbEntity
  8
AM_5
 48
1.01
100
AcDbDimension
  2
*D20
 10
289.4209358576744
 20
72.00943565450649
 30
0.0
 11
285.1454591062509
 21
75.10943565450649
 31
0.0
 70
    32
  1
4
 71
     5
 42
8.55095350284705
  3
SYS$0
100
AcDbAlignedDimension
 13
280.8699823548273
 23
82.58522765450749
 33
0.0
 14
289.4209358576744
 24
82.71441028369276
 34
0.0
 50
180.0
100
AcDbRotatedDimension
1001
ACAD
1000
DSTYLE
1002
{
1070
    76
1070
     1
1070
   173
1070
     1
1070
     5
1000

1070
     6
1000
DOT
1070
     7
1000
OPEN
1002
}
  0
DIMENSION
  5
DB58
330
1F
100
AcDbEntity
  8
AM_5
 48
1.01
100
AcDbDimension
  2
*D21
 10
305.0699923548274
 20
218.7511304045076
 30
0.0
 11
301.9699923548273
 21
236.0011304045076
 31
0.0
 70
    32
 71
     5
 42
34.5
  3
SYS$0
100
AcDbAlignedDimension
 13
293.0699923548274
 23
253.2511304045076
 33
0.0
 14
289.3699823548274
 24
218.7511304045076
 34
0.0
 50
90.0
100
AcDbRotatedDimension
  0
DIMENSION
  5
DB59
330
1F
100
AcDbEntity
  8
AM_5
 48
1.01
100
AcDbDimension
  2
*D22
 10
305.0699923548274
 20
153.7594476545075
 30
0.0
 11
301.9699923548273
 21
127.5094476545076
 31
0.0
 70
    32
  1
<>
 71
     5
 42
52.49999999999987
  3
SYS$0
100
AcDbAlignedDimension
 13
288.9453876017967
 23
101.2594476545076
 33
0.0
 14
288.9453876017967
 24
153.7594476545075
 34
0.0
 50
90.0
100
AcDbRotatedDimension
  0
DIMENSION
  5
DB5D
330
1F
100
AcDbEntity
  8
AM_5
 48
1.01
100
AcDbDimension
  2
*D24
 10
315.0699923548274
 20
87.00943565450749
 30
0.0
 11
311.9699923548274
 21
127.5094526545075
 31
0.0
 70
    32
 71
     5
 42
81.00003400000003
  3
SYS$0
100
AcDbAlignedDimension
 13
280.8699823548273
 23
168.0094696545075
 33
0.0
 14
280.8699823548273
 24
87.00943565450751
 34
0.0
 50
90.0
100
AcDbRotatedDimension
  0
ARC
  5
DB5E
330
1F
100
AcDbEntity
  8
AM_2
 48
0.3
100
AcDbCircle
 10
164.7999492901756
 20
127.5094476545076
 30
0.0
 40
1.0
100
AcDbArc
 50
90.0
 51
270.0
  0
ARC
  5
DB5F
330
1F
100
AcDbEntity
  8
AM_2
 48
0.3
100
AcDbCircle
 10
200.3998982901754
 20
127.5094476545075
 30
0.0
 40
1.0
100
AcDbArc
 50
270.0
 51
90.0
  0
ARC
  5
DB60
330
1F
100
AcDbEntity
  8
AM_2
 48
0.3
100
AcDbCircle
 10
286.0699923548274
 20
127.5094476545076
 30
0.0
 40
1.0
100
AcDbArc
 50
90.0
 51
270.0
  0
DIMENSION
  5
DB61
330
1F
100
AcDbEntity
  8
AM_5
 48
1.01
100
AcDbDimension
  2
*D25
 10
244.8699823548273
 20
177.5094612543914
 30
0.0
 11
241.7699823548272
 21
152.5094544544495
 31
0.0
 70
    32
 71
     5
 42
50.0000135998838
  3
SYS$0
100
AcDbAlignedDimension
 13
250.1001947715383
 23
127.5094476545076
 33
0.0
 14
277.8699823548274
 24
177.5094612543914
 34
0.0
 50
90.0
100
AcDbRotatedDimension
  0
LINE
  5
DB62
330
1F
100
AcDbEntity
  8
AM_0
 48
0.15
100
AcDbLine
 10
348.2189993548275
 20
140.0094476545076
 30
0.0
 11
348.7190293548275
 21
140.0094476545076
 31
0.0
  0
LINE
  5
DB63
330
1F
100
AcDbEntity
  8
AM_2
 48
0.15
100
AcDbLine
 10
275.4083423548274
 20
220.2511304045076
 30
0.0
 11
275.4083423548274
 21
219.7511304045076
 31
0.0
  0
LINE
  5
DB64
330
1F
100
AcDbEntity
  8
AM_2
 48
0.2461625000000026
100
AcDbLine
 10
275.4083423548274
 20
219.7511304045076
 30
0.0
 11
280.3315923548275
 21
219.7511304045076
 31
0.0
  0
LINE
  5
DB65
330
1F
100
AcDbEntity
  8
AM_2
 48
0.15
100
AcDbLine
 10
280.3315923548275
 20
219.7511304045076
 30
0.0
 11
280.3315923548275
 21
220.2511304045076
 31
0.0
  0
XLINE
  5
DD77
330
1F
100
AcDbEntity
  8
AM_CL
100
AcDbXline
 10
305.0699923548274
 20
127.5094476545076
 30
0.0
 11
0.0
 21
1.0
 31
0.0
  0
MTEXT
  5
DDB7
330
1F
100
AcDbEntity
  8
AM_6
100
AcDbMText
 10
182.5999237901756
 20
62.7727005706625
 30
0.0
 40
3.2
 41
65.99996899999997
 71
     2
 72
     5
  1
{\Lキャップ組替えにより貝ガラ出寸法18、24変更可能}
 73
     1
 44
1.0
1001
ACAD
1000
MTEXTBEGIN
1070
    73
1070
     1
1070
    44
1040
1.0
1070
    74
1070
     0
1000
MTEXTEND
  0
DIMENSION
  5
DE95
330
1F
100
AcDbEntity
  8
AM_5
100
AcDbDimension
  2
*D26
 10
279.7742612672553
 20
157.5442671025574
 30
0.0
 11
308.0511817865585
 21
177.5093135357389
 31
0.0
 70
   163
  1
2-<>×16スロット
 71
     5
 42
4.5
  3
SYS$3
100
AcDbDiametricDimension
 15
281.9657034423983
 25
161.4746082064572
 35
0.0
 40
0.0
  0
ENDSEC
  0
SECTION
  2
OBJECTS
  0
DICTIONARY
  5
C
330
0
100
AcDbDictionary
281
     1
  3
ACAD_2007HEADERVARS_RT
350
DED7
  3
ACAD_BGPLOT_KEY
350
AB06
  3
ACAD_COLOR
350
A91D
  3
ACAD_GROUP
350
D
  3
ACAD_LAYOUT
350
1A
  3
ACAD_MATERIAL
350
A91C
  3
ACAD_MLINESTYLE
350
17
  3
ACAD_PLOTSETTINGS
350
19
  3
ACAD_PLOTSTYLENAME
350
E
  3
ACAD_TABLESTYLE
350
AAB9
  3
ACAD_VISUALSTYLE
350
B0F1
  3
AcAsAppObject
350
3DA1
  3
ACASGREF_MASTER
350
3DE9
  3
AcDbVariableDictionary
350
34
  3
AcmDictionary
350
47
  3
AD_GREF_MODULE
350
3DEA
  3
AD_MAPI_MODULE
350
3E06
  3
AMG
350
2B
  3
AMGSNAPSETTINGS
350
7D
  3
ASE_INDEX_DICTIONARY
350
B331
  3
DWGPROPS
350
DED6
  3
MAPISURF_MODULE
350
3DEB
  0
DICTIONARY
  5
3F95
330
2
100
AcDbDictionary
280
     1
281
     1
  3
ACAD_LAYERFILTERS
360
B466
  3
ACAD_LAYERSTATES
360
3F96
  3
ACLYDICTIONARY
360
B465
  3
AMLAYER_GROUPCOLORS
360
AAB4
  0
DICTIONARY
  5
8A
330
1F
100
AcDbDictionary
280
     1
281
     1
  3
ACAD_SORTENTS
360
B1BA
  0
DICTIONARY
  5
DEE7
330
B547
100
AcDbDictionary
280
     1
281
     1
  3
ACAD_MTEXT_RT
360
DEE8
  0
DICTIONARY
  5
DEE9
330
B548
100
AcDbDictionary
280
     1
281
     1
  3
ACAD_MTEXT_RT
360
DEEA
  0
DICTIONARY
  5
DEEB
330
B551
100
AcDbDictionary
280
     1
281
     1
  3
ACAD_MTEXT_RT
360
DEEC
  0
DICTIONARY
  5
DEED
330
D71C
100
AcDbDictionary
280
     1
281
     1
  3
ACAD_MTEXT_RT
360
DEEE
  0
DICTIONARY
  5
DEEF
330
D71D
100
AcDbDictionary
280
     1
281
     1
  3
ACAD_MTEXT_RT
360
DEF0
  0
DICTIONARY
  5
DEF1
330
D71E
100
AcDbDictionary
280
     1
281
     1
  3
ACAD_MTEXT_RT
360
DEF2
  0
DICTIONARY
  5
DEF3
330
D743
100
AcDbDictionary
280
     1
281
     1
  3
ACAD_MTEXT_RT
360
DEF4
  0
DICTIONARY
  5
DEF5
330
D744
100
AcDbDictionary
280
     1
281
     1
  3
ACAD_MTEXT_RT
360
DEF6
  0
DICTIONARY
  5
DEF7
330
D745
100
AcDbDictionary
280
     1
281
     1
  3
ACAD_MTEXT_RT
360
DEF8
  0
DICTIONARY
  5
DEF9
330
D746
100
AcDbDictionary
280
     1
281
     1
  3
ACAD_MTEXT_RT
360
DEFA
  0
DICTIONARY
  5
DEFB
330
D747
100
AcDbDictionary
280
     1
281
     1
  3
ACAD_MTEXT_RT
360
DEFC
  0
DICTIONARY
  5
DEFD
330
D748
100
AcDbDictionary
280
     1
281
     1
  3
ACAD_MTEXT_RT
360
DEFE
  0
DICTIONARY
  5
DED7
102
{ACAD_REACTORS
330
C
102
}
330
C
100
AcDbDictionary
281
     1
  3
DIMARCSYM
350
DED8
  0
DICTIONARY
  5
AB06
102
{ACAD_REACTORS
330
C
102
}
330
C
100
AcDbDictionary
280
     1
281
     1
  0
DICTIONARY
  5
A91D
102
{ACAD_REACTORS
330
C
102
}
330
C
100
AcDbDictionary
281
     1
  0
DICTIONARY
  5
D
102
{ACAD_REACTORS
330
C
102
}
330
C
100
AcDbDictionary
281
     1
  0
DICTIONARY
  5
1A
102
{ACAD_REACTORS
330
C
102
}
330
C
100
AcDbDictionary
281
     1
  3
Model
350
22
  3
ﾚｲｱｳﾄ1
350
1E
  3
ﾚｲｱｳﾄ2
350
26
  0
DICTIONARY
  5
A91C
102
{ACAD_REACTORS
330
C
102
}
330
C
100
AcDbDictionary
281
     1
  3
ByBlock
350
B0EF
  3
ByLayer
350
B0EE
  3
Global
350
B0F0
  0
DICTIONARY
  5
17
102
{ACAD_REACTORS
330
C
102
}
330
C
100
AcDbDictionary
281
     1
  3
Standard
350
18
  0
DICTIONARY
  5
19
102
{ACAD_REACTORS
330
C
102
}
330
C
100
AcDbDictionary
281
     1
  0
ACDBDICTIONARYWDFLT
  5
E
102
{ACAD_REACTORS
330
C
102
}
330
C
100
AcDbDictionary
281
     1
  3
Normal
350
F
100
AcDbDictionaryWithDefault
340
F
  0
DICTIONARY
  5
AAB9
102
{ACAD_REACTORS
330
C
102
}
330
C
100
AcDbDictionary
281
     1
  3
Standard
350
AABA
  0
DICTIONARY
  5
B0F1
102
{ACAD_REACTORS
330
C
102
}
330
C
100
AcDbDictionary
281
     1
  3
2dWireframe
350
B0F7
  3
3D Hidden
350
B0F9
  3
3dWireframe
350
B0F8
  3
Basic
350
B0F6
  3
Brighten
350
B0FD
  3
ColorChange
350
B101
  3
Conceptual
350
B0FA
  3
Dim
350
B0FC
  3
Facepattern
350
B100
  3
Flat
350
B0F2
  3
FlatWithEdges
350
B0F3
  3
Gouraud
350
B0F4
  3
GouraudWithEdges
350
B0F5
  3
Linepattern
350
B0FF
  3
Realistic
350
B0FB
  3
Thicken
350
B0FE
  0
ACAD_PROXY_OBJECT
  5
3DA1
102
{ACAD_REACTORS
330
C
102
}
330
C
100
AcDbProxyObject
 90
      499
 91
      576
 95
   917527
 70
     0
 93
       10
310
407F
 94
        0
1001
ACAD
1000
AcRTDxfName
1000
ASAPP
  0
ACAD_PROXY_OBJECT
  5
3DE9
102
{ACAD_REACTORS
330
C
102
}
330
C
100
AcDbProxyObject
 90
      499
 91
      581
 95
   917527
 70
     0
 93
       34
310
010000407F
 94
        0
1001
ACAD
1000
AcRTDxfName
1000
ACASGREFMASTER
  0
DICTIONARY
  5
34
102
{ACAD_REACTORS
330
C
102
}
330
C
100
AcDbDictionary
281
     1
  3
CTABLESTYLE
350
AAF3
  3
DIMASSOC
350
A10C
  3
FIELDEVAL
350
AB07
  3
INDEXCTL
350
35
  3
SORTENTS
350
194C
  0
DICTIONARY
  5
47
102
{ACAD_REACTORS
330
C
102
}
330
C
100
AcDbDictionary
281
     1
  3
AcmBOM
350
7E8
  3
AcmStdDictionary
350
4C
  3
AMDTSECTSYM_ARROWCOLOR
350
A929
  0
ACAD_PROXY_OBJECT
  5
3DEA
102
{ACAD_REACTORS
330
C
102
}
330
C
100
AcDbProxyObject
 90
      499
 91
      582
 95
   917527
 70
     0
 93
      114
310
00000043800000000000000000003F
 94
        0
1001
ACAD
1000
AcRTDxfName
1000
ACADGREFMODULE
  0
ACAD_PROXY_OBJECT
  5
3E06
102
{ACAD_REACTORS
330
C
102
}
330
C
100
AcDbProxyObject
 90
      499
 91
      594
 95
   917527
 70
     0
 93
       34
310
05000044FF
 94
        0
1001
ACAD
1000
AcRTDxfName
1000
MAPIADMODULE
  0
DICTIONARY
  5
2B
102
{ACAD_REACTORS
330
C
102
}
330
C
100
AcDbDictionary
281
     1
  0
DICTIONARY
  5
7D
102
{ACAD_REACTORS
330
C
102
}
330
C
100
AcDbDictionary
281
     1
  0
DICTIONARY
  5
B331
102
{ACAD_REACTORS
330
C
102
}
330
C
100
AcDbDictionary
281
     1
  3
ASEBlockHierarchyIndexRecord
350
B332
1001
DCO15
1040
1594111214.218
  0
XRECORD
  5
DED6
102
{ACAD_REACTORS
330
C
102
}
330
C
100
AcDbXrecord
280
     1
  1
DWGPROPS COOKIE
  2

  3

  4

  6

  7

  8
Administrator
  9

300
AmdtFileType=84
301
=
302
=
303
=
304
=
305
=
306
=
307
=
308
=
309
=
 40
0.1199614699074074
 41
2455832.665277408
 42
2455846.739366678
  1

 90
        1
  0
ACAD_PROXY_OBJECT
  5
3DEB
102
{ACAD_REACTORS
330
C
102
}
330
C
100
AcDbProxyObject
 90
      499
 91
      583
 95
   917527
 70
     0
 93
        8
310
047E
 94
        0
1001
ACAD
1000
AcRTDxfName
1000
AMDTMAPISURFMOUDULE
  0
DICTIONARY
  5
B466
102
{ACAD_REACTORS
330
3F95
102
}
330
3F95
100
AcDbDictionary
281
     1
  0
DICTIONARY
  5
3F96
102
{ACAD_REACTORS
330
3F95
102
}
330
3F95
100
AcDbDictionary
281
     1
  3
20011210
350
3FB7
  0
DICTIONARY
  5
B465
102
{ACAD_REACTORS
330
3F95
102
}
330
3F95
100
AcDbDictionary
281
     1
1001
ACAD
1000
<All
  0
DICTIONARY
  5
AAB4
102
{ACAD_REACTORS
330
3F95
102
}
330
3F95
100
AcDbDictionary
280
     1
281
     1
  0
SORTENTSTABLE
  5
B1BA
102
{ACAD_REACTORS
330
8A
102
}
330
8A
100
AcDbSortentsTable
330
1F
331
B545
  5
B545
331
CB0B
  5
CB0B
331
B535
  5
B535
331
CB13
  5
CB13
331
B536
  5
B536
331
B546
  5
B546
331
CB0C
  5
CB0C
331
CB14
  5
CB14
331
CB05
  5
CB05
331
B547
  5
B547
331
CB0D
  5
CB0D
331
B537
  5
B537
331
B538
  5
B538
331
CB06
  5
CB06
331
B530
  5
B530
331
B548
  5
B548
331
CB0E
  5
CB0E
331
CB07
  5
CB07
331
B531
  5
B531
331
CB0F
  5
CB0F
331
B551
  5
B551
331
CB08
  5
CB08
331
B532
  5
B532
331
CB10
  5
CB10
331
CB09
  5
CB09
331
B533
  5
B533
331
CB11
  5
CB11
331
B553
  5
B553
331
CB0A
  5
CB0A
331
B534
  5
B534
331
CB12
  5
CB12
  0
XRECORD
  5
DEE8
102
{ACAD_REACTORS
330
DEE7
102
}
330
DEE7
100
AcDbXrecord
280
     1
 40
-22353.0
  1
　　台座^I^I：亜鉛ダイキャスト
  0
XRECORD
  5
DEEA
102
{ACAD_REACTORS
330
DEE9
102
}
330
DEE9
100
AcDbXrecord
280
     1
 40
-22462.0
  1
　　レバー^I：亜鉛ダイキャスト
  0
XRECORD
  5
DEEC
102
{ACAD_REACTORS
330
DEEB
102
}
330
DEEB
100
AcDbXrecord
280
     1
 40
-23645.0
  1
　　貝ガラ^I：亜鉛ダイキャスト
  0
XRECORD
  5
DEEE
102
{ACAD_REACTORS
330
DEED
102
}
330
DEED
100
AcDbXrecord
280
     1
 40
-41626.0
  1
　　ビスカバー^I：ポリプロピレン樹脂
  0
XRECORD
  5
DEF0
102
{ACAD_REACTORS
330
DEEF
102
}
330
DEEF
100
AcDbXrecord
280
     1
 40
-19459.0
  1
　　キャップ^I：ポリアミド樹脂
  0
XRECORD
  5
DEF2
102
{ACAD_REACTORS
330
DEF1
102
}
330
DEF1
100
AcDbXrecord
280
     1
 40
-41690.0
  1
　　スペーサー^I：ポリプロピレン樹脂
  0
XRECORD
  5
DEF4
102
{ACAD_REACTORS
330
DEF3
102
}
330
DEF3
100
AcDbXrecord
280
     1
 40
-44947.0
  1
　　台座^I^I：焼付塗装（グレー・ブロンズ）
  0
XRECORD
  5
DEF6
102
{ACAD_REACTORS
330
DEF5
102
}
330
DEF5
100
AcDbXrecord
280
     1
 40
-45056.0
  1
　　レバー^I：焼付塗装（グレー・ブロンズ）
  0
XRECORD
  5
DEF8
102
{ACAD_REACTORS
330
DEF7
102
}
330
DEF7
100
AcDbXrecord
280
     1
 40
-46239.0
  1
　　貝ガラ^I：焼付塗装（グレー・ブロンズ）
  0
XRECORD
  5
DEFA
102
{ACAD_REACTORS
330
DEF9
102
}
330
DEF9
100
AcDbXrecord
280
     1
 40
-42885.0
  1
　　ビスカバー^I：シボ加工（グレー・ブロンズ）
  0
XRECORD
  5
DEFC
102
{ACAD_REACTORS
330
DEFB
102
}
330
DEFB
100
AcDbXrecord
280
     1
 40
-43252.0
  1
　　キャップ^I：シボ加工（グレー・ブロンズ）
  0
XRECORD
  5
DEFE
102
{ACAD_REACTORS
330
DEFD
102
}
330
DEFD
100
AcDbXrecord
280
     1
 40
-42949.0
  1
　　スペーサー^I：シボ加工（グレー・ブロンズ）
  0
XRECORD
  5
DED8
102
{ACAD_REACTORS
330
DED7
102
}
330
DED7
100
AcDbXrecord
280
     1
 70
     1
  0
LAYOUT
  5
22
102
{ACAD_XDICTIONARY
360
DEDB
102
}
102
{ACAD_REACTORS
330
1A
102
}
330
1A
100
AcDbPlotSettings
  1

  2
Adobe PDF
  4
A3
  6
AM_VIEW1
 40
3.174999952316284
 41
3.174999952316284
 42
3.17498779296875
 43
3.17498779296875
 44
297.0318298339844
 45
420.1583251953125
 46
-3.179963645754128
 47
-3.101271268800132
 48
214.3704939521119
 49
367.5855324241176
140
275.6727856380065
141
407.629191407817
142
1.0
143
1.0
 70
  3748
 72
     1
 73
     1
 74
     1
  7
monochrome.ctb
 75
     0
147
0.9696348792030697
148
0.0096845249206581
149
0.0204273727567852
100
AcDbLayout
  1
Model
 70
     1
 71
     0
 10
0.0
 20
0.0
 11
12.0
 21
9.0
 12
0.0
 22
0.0
 32
0.0
 14
0.0
 24
0.0
 34
0.0
 15
0.0
 25
0.0
 35
0.0
146
0.0
 13
0.0
 23
0.0
 33
0.0
 16
1.0
 26
0.0
 36
0.0
 17
0.0
 27
1.0
 37
0.0
 76
     0
330
1F
331
B0EC
1001
ACAD_PSEXT
1000
Adobe PDF
1000
Adobe PDF Converter
1000
My Documents\*.pdf
1000

1070
     0
  0
LAYOUT
  5
1E
102
{ACAD_XDICTIONARY
360
DED9
102
}
102
{ACAD_REACTORS
330
1A
102
}
330
1A
100
AcDbPlotSettings
  1

  2
\\ML370\XEROX
  4
A4
  6

 40
3.174999952316284
 41
3.174999952316284
 42
3.175003051757812
 43
3.17498779296875
 44
209.8674926757813
 45
296.6719970703125
 46
0.0
 47
0.0
 48
0.0
 49
0.0
140
0.0
141
0.0
142
1.0
143
1.0
 70
   688
 72
     1
 73
     1
 74
     5
  7
monochrome.ctb
 75
    16
147
1.0
148
0.0
149
0.0
100
AcDbLayout
  1
ﾚｲｱｳﾄ1
 70
     1
 71
     1
 10
-3.17498779296875
 20
-3.174999952316284
 11
293.4970092773438
 21
206.692492723465
 12
0.0
 22
0.0
 32
0.0
 14
1.000000000000000E+20
 24
1.000000000000000E+20
 34
1.000000000000000E+20
 15
-1.000000000000000E+20
 25
-1.000000000000000E+20
 35
-1.000000000000000E+20
146
0.0
 13
0.0
 23
0.0
 33
0.0
 16
1.0
 26
0.0
 36
0.0
 17
0.0
 27
1.0
 37
0.0
 76
     0
330
1B
  0
LAYOUT
  5
26
102
{ACAD_XDICTIONARY
360
DEDD
102
}
102
{ACAD_REACTORS
330
1A
102
}
330
1A
100
AcDbPlotSettings
  1

  2
\\ML370\XEROX
  4

  6

 40
0.0
 41
0.0
 42
0.0
 43
0.0
 44
0.0
 45
0.0
 46
0.0
 47
0.0
 48
0.0
 49
0.0
140
0.0
141
0.0
142
1.0
143
1.0
 70
   688
 72
     0
 73
     0
 74
     5
  7
monochrome.ctb
 75
    16
147
1.0
148
0.0
149
0.0
100
AcDbLayout
  1
ﾚｲｱｳﾄ2
 70
     1
 71
     2
 10
0.0
 20
0.0
 11
12.0
 21
9.0
 12
0.0
 22
0.0
 32
0.0
 14
0.0
 24
0.0
 34
0.0
 15
0.0
 25
0.0
 35
0.0
146
0.0
 13
0.0
 23
0.0
 33
0.0
 16
1.0
 26
0.0
 36
0.0
 17
0.0
 27
1.0
 37
0.0
 76
     0
330
23
  0
MATERIAL
  5
B0EF
102
{ACAD_XDICTIONARY
360
DEE3
102
}
102
{ACAD_REACTORS
330
A91C
102
}
330
A91C
100
AcDbMaterial
  1
ByBlock
  0
MATERIAL
  5
B0EE
102
{ACAD_XDICTIONARY
360
DEE1
102
}
102
{ACAD_REACTORS
330
A91C
102
}
330
A91C
100
AcDbMaterial
  1
ByLayer
  0
MATERIAL
  5
B0F0
102
{ACAD_XDICTIONARY
360
DEE5
102
}
102
{ACAD_REACTORS
330
A91C
102
}
330
A91C
100
AcDbMaterial
  1
Global
  0
MLINESTYLE
  5
18
102
{ACAD_REACTORS
330
17
102
}
330
17
100
AcDbMlineStyle
  2
STANDARD
 70
     0
  3

 62
   256
 51
90.0
 52
90.0
 71
     2
 49
0.5
 62
   256
  6
BYLAYER
 49
-0.5
 62
   256
  6
BYLAYER
  0
ACDBPLACEHOLDER
  5
F
102
{ACAD_REACTORS
330
E
102
}
330
E
  0
TABLESTYLE
  5
AABA
102
{ACAD_XDICTIONARY
360
DEDF
102
}
102
{ACAD_REACTORS
330
AAB9
102
}
330
AAB9
100
AcDbTableStyle
  3
Standard
 70
     0
 71
     0
 40
1.5
 41
1.5
280
     0
281
     0
  7
STANDARD
140
4.5
170
     2
 62
     0
 63
     7
283
     0
274
    -2
284
     1
 64
     0
275
    -2
285
     1
 65
     0
276
    -2
286
     1
 66
     0
277
    -2
287
     1
 67
     0
278
    -2
288
     1
 68
     0
279
    -2
289
     1
 69
     0
  7
STANDARD
140
6.0
170
     5
 62
     0
 63
     7
283
     0
274
    -2
284
     1
 64
     0
275
    -2
285
     1
 65
     0
276
    -2
286
     1
 66
     0
277
    -2
287
     1
 67
     0
278
    -2
288
     1
 68
     0
279
    -2
289
     1
 69
     0
  7
STANDARD
140
4.5
170
     5
 62
     0
 63
     7
283
     0
274
    -2
284
     1
 64
     0
275
    -2
285
     1
 65
     0
276
    -2
286
     1
 66
     0
277
    -2
287
     1
 67
     0
278
    -2
288
     1
 68
     0
279
    -2
289
     1
 69
     0
  0
VISUALSTYLE
  5
B0F7
102
{ACAD_REACTORS
330
B0F1
102
}
330
B0F1
100
AcDbVisualStyle
  2
2dWireframe
 70
     4
 71
     0
 72
     2
 73
     0
 90
        0
 40
-0.6
 41
-30.0
 62
     5
 63
     7
 74
     1
 91
        4
 64
     7
 65
   257
 75
     1
175
     1
 42
1.0
 92
        0
 66
   257
 43
1.0
 76
     1
 77
     6
 78
     2
 67
     7
 79
     5
170
     0
171
     0
290
     0
174
     0
 93
        1
 44
0.0
173
     0
291
     0
 45
0.0
1001
ACAD
1000
AcDbSavedByObjectVersion
1070
     0
  0
VISUALSTYLE
  5
B0F9
102
{ACAD_REACTORS
330
B0F1
102
}
330
B0F1
100
AcDbVisualStyle
  2
3D Hidden
 70
     6
 71
     1
 72
     2
 73
     2
 90
        0
 40
-0.6
 41
-30.0
 62
     5
 63
     7
 74
     2
 91
        2
 64
     7
 65
   257
 75
     2
175
     1
 42
40.0
 92
        0
 66
   257
 43
1.0
 76
     1
 77
     6
 78
     2
 67
     7
 79
     3
170
     0
171
     0
290
     0
174
     0
 93
        1
 44
0.0
173
     0
291
     0
 45
0.0
1001
ACAD
1000
AcDbSavedByObjectVersion
1070
     0
  0
VISUALSTYLE
  5
B0F8
102
{ACAD_REACTORS
330
B0F1
102
}
330
B0F1
100
AcDbVisualStyle
  2
3dWireframe
 70
     5
 71
     0
 72
     2
 73
     0
 90
        0
 40
-0.6
 41
-30.0
 62
     5
 63
     7
 74
     1
 91
        4
 64
     7
 65
   257
 75
     1
175
     1
 42
1.0
 92
        0
 66
   257
 43
1.0
 76
     1
 77
     6
 78
     2
 67
     7
 79
     5
170
     0
171
     0
290
     0
174
     0
 93
        1
 44
0.0
173
     0
291
     0
 45
0.0
1001
ACAD
1000
AcDbSavedByObjectVersion
1070
     0
  0
VISUALSTYLE
  5
B0F6
102
{ACAD_REACTORS
330
B0F1
102
}
330
B0F1
100
AcDbVisualStyle
  2
Basic
 70
     7
 71
     1
 72
     0
 73
     1
 90
        0
 40
-0.6
 41
-30.0
 62
     5
 63
     7
 74
     0
 91
        4
 64
     7
 65
   257
 75
     1
175
     1
 42
1.0
 92
        8
 66
     7
 43
1.0
 76
     1
 77
     6
 78
     2
 67
     7
 79
     5
170
     0
171
     0
290
     0
174
     0
 93
        1
 44
0.0
173
     0
291
     1
 45
0.0
1001
ACAD
1000
AcDbSavedByObjectVersion
1070
     0
  0
VISUALSTYLE
  5
B0FD
102
{ACAD_REACTORS
330
B0F1
102
}
330
B0F1
100
AcDbVisualStyle
  2
Brighten
 70
    12
 71
     2
 72
     2
 73
     0
 90
        0
 40
-0.6
 41
-30.0
 62
     5
 63
     7
 74
     1
 91
        4
 64
     7
 65
   257
 75
     1
175
     1
 42
1.0
 92
        8
 66
     7
 43
1.0
 76
     1
 77
     6
 78
     2
 67
     7
 79
     5
170
     0
171
     0
290
     0
174
     0
 93
        1
 44
50.0
173
     0
291
     1
 45
0.0
1001
ACAD
1000
AcDbSavedByObjectVersion
1070
     0
  0
VISUALSTYLE
  5
B101
102
{ACAD_REACTORS
330
B0F1
102
}
330
B0F1
100
AcDbVisualStyle
  2
ColorChange
 70
    16
 71
     2
 72
     2
 73
     3
 90
        0
 40
-0.6
 41
-30.0
 62
     5
 63
     8
 74
     1
 91
        4
 64
     7
 65
   257
 75
     1
175
     1
 42
1.0
 92
        8
 66
     8
 43
1.0
 76
     1
 77
     6
 78
     2
 67
     7
 79
     5
170
     0
171
     0
290
     0
174
     0
 93
        1
 44
0.0
173
     0
291
     1
 45
0.0
1001
ACAD
1000
AcDbSavedByObjectVersion
1070
     0
  0
VISUALSTYLE
  5
B0FA
102
{ACAD_REACTORS
330
B0F1
102
}
330
B0F1
100
AcDbVisualStyle
  2
Conceptual
 70
     9
 71
     3
 72
     2
 73
     0
 90
        0
 40
-0.6
 41
-30.0
 62
     5
 63
     7
 74
     2
 91
        2
 64
     7
 65
   257
 75
     1
175
     1
 42
40.0
 92
        8
 66
     7
 43
1.0
 76
     1
 77
     6
 78
     2
 67
     7
 79
     3
170
     0
171
     0
290
     0
174
     0
 93
        1
 44
0.0
173
     0
291
     0
 45
0.0
1001
ACAD
1000
AcDbSavedByObjectVersion
1070
     0
  0
VISUALSTYLE
  5
B0FC
102
{ACAD_REACTORS
330
B0F1
102
}
330
B0F1
100
AcDbVisualStyle
  2
Dim
 70
    11
 71
     2
 72
     2
 73
     0
 90
        0
 40
-0.6
 41
-30.0
 62
     5
 63
     7
 74
     1
 91
        4
 64
     7
 65
   257
 75
     1
175
     1
 42
1.0
 92
        8
 66
     7
 43
1.0
 76
     1
 77
     6
 78
     2
 67
     7
 79
     5
170
     0
171
     0
290
     0
174
     0
 93
        1
 44
-50.0
173
     0
291
     1
 45
0.0
1001
ACAD
1000
AcDbSavedByObjectVersion
1070
     0
  0
VISUALSTYLE
  5
B100
102
{ACAD_REACTORS
330
B0F1
102
}
330
B0F1
100
AcDbVisualStyle
  2
Facepattern
 70
    15
 71
     2
 72
     2
 73
     0
 90
        0
 40
-0.6
 41
-30.0
 62
     5
 63
     7
 74
     1
 91
        4
 64
     7
 65
   257
 75
     1
175
     1
 42
1.0
 92
        8
 66
     7
 43
1.0
 76
     1
 77
     6
 78
     2
 67
     7
 79
     5
170
     0
171
     0
290
     0
174
     0
 93
        1
 44
0.0
173
     0
291
     1
 45
0.0
1001
ACAD
1000
AcDbSavedByObjectVersion
1070
     0
  0
VISUALSTYLE
  5
B0F2
102
{ACAD_REACTORS
330
B0F1
102
}
330
B0F1
100
AcDbVisualStyle
  2
Flat
 70
     0
 71
     2
 72
     1
 73
     1
 90
        2
 40
-0.6
 41
30.0
 62
     5
 63
     7
 74
     0
 91
        4
 64
     7
 65
   257
 75
     1
175
     1
 42
1.0
 92
        8
 66
     7
 43
1.0
 76
     1
 77
     6
 78
     2
 67
     7
 79
     5
170
     0
171
     0
290
     0
174
     0
 93
       13
 44
0.0
173
     0
291
     1
 45
0.0
1001
ACAD
1000
AcDbSavedByObjectVersion
1070
     0
  0
VISUALSTYLE
  5
B0F3
102
{ACAD_REACTORS
330
B0F1
102
}
330
B0F1
100
AcDbVisualStyle
  2
FlatWithEdges
 70
     1
 71
     2
 72
     1
 73
     1
 90
        2
 40
-0.6
 41
30.0
 62
     5
 63
     7
 74
     1
 91
        4
 64
     7
 65
   257
 75
     1
175
     1
 42
1.0
 92
        0
 66
   257
 43
1.0
 76
     1
 77
     6
 78
     2
 67
     7
 79
     5
170
     0
171
     0
290
     0
174
     0
 93
       13
 44
0.0
173
     0
291
     1
 45
0.0
1001
ACAD
1000
AcDbSavedByObjectVersion
1070
     0
  0
VISUALSTYLE
  5
B0F4
102
{ACAD_REACTORS
330
B0F1
102
}
330
B0F1
100
AcDbVisualStyle
  2
Gouraud
 70
     2
 71
     2
 72
     2
 73
     1
 90
        2
 40
-0.6
 41
30.0
 62
     5
 63
     7
 74
     0
 91
        4
 64
     7
 65
   257
 75
     1
175
     1
 42
1.0
 92
        0
 66
     7
 43
1.0
 76
     1
 77
     6
 78
     2
 67
     7
 79
     5
170
     0
171
     0
290
     0
174
     0
 93
       13
 44
0.0
173
     0
291
     1
 45
0.0
1001
ACAD
1000
AcDbSavedByObjectVersion
1070
     0
  0
VISUALSTYLE
  5
B0F5
102
{ACAD_REACTORS
330
B0F1
102
}
330
B0F1
100
AcDbVisualStyle
  2
GouraudWithEdges
 70
     3
 71
     2
 72
     2
 73
     1
 90
        2
 40
-0.6
 41
30.0
 62
     5
 63
     7
 74
     1
 91
        4
 64
     7
 65
   257
 75
     1
175
     1
 42
1.0
 92
        0
 66
   257
 43
1.0
 76
     1
 77
     6
 78
     2
 67
     7
 79
     5
170
     0
171
     0
290
     0
174
     0
 93
       13
 44
0.0
173
     0
291
     1
 45
0.0
1001
ACAD
1000
AcDbSavedByObjectVersion
1070
     0
  0
VISUALSTYLE
  5
B0FF
102
{ACAD_REACTORS
330
B0F1
102
}
330
B0F1
100
AcDbVisualStyle
  2
Linepattern
 70
    14
 71
     2
 72
     2
 73
     0
 90
        0
 40
-0.6
 41
-30.0
 62
     5
 63
     7
 74
     1
 91
        4
 64
     7
 65
   257
 75
     7
175
     7
 42
1.0
 92
        8
 66
     7
 43
1.0
 76
     1
 77
     6
 78
     2
 67
     7
 79
     5
170
     0
171
     0
290
     0
174
     0
 93
        1
 44
0.0
173
     0
291
     1
 45
0.0
1001
ACAD
1000
AcDbSavedByObjectVersion
1070
     0
  0
VISUALSTYLE
  5
B0FB
102
{ACAD_REACTORS
330
B0F1
102
}
330
B0F1
100
AcDbVisualStyle
  2
Realistic
 70
     8
 71
     2
 72
     2
 73
     0
 90
        0
 40
-0.6
 41
-30.0
 62
     5
 63
     7
 74
     1
 91
        0
 64
     7
 65
   257
 75
     1
175
     1
 42
1.0
 92
        8
 66
     8
 43
1.0
 76
     1
 77
     6
 78
     2
 67
     7
 79
     5
170
     0
171
     0
290
     0
174
     0
 93
       13
 44
0.0
173
     0
291
     0
 45
0.0
1001
ACAD
1000
AcDbSavedByObjectVersion
1070
     0
  0
VISUALSTYLE
  5
B0FE
102
{ACAD_REACTORS
330
B0F1
102
}
330
B0F1
100
AcDbVisualStyle
  2
Thicken
 70
    13
 71
     2
 72
     2
 73
     0
 90
        0
 40
-0.6
 41
-30.0
 62
     5
 63
     7
 74
     1
 91
        4
 64
     7
 65
   257
 75
     1
175
     1
 42
1.0
 92
       12
 66
     7
 43
1.0
 76
     1
 77
     6
 78
     2
 67
     7
 79
     5
170
     0
171
     0
290
     0
174
     0
 93
        1
 44
0.0
173
     0
291
     1
 45
0.0
1001
ACAD
1000
AcDbSavedByObjectVersion
1070
     0
  0
DICTIONARYVAR
  5
AAF3
102
{ACAD_REACTORS
330
34
102
}
330
34
100
DictionaryVariables
280
     0
  1
STANDARD
  0
DICTIONARYVAR
  5
A10C
102
{ACAD_REACTORS
330
34
102
}
330
34
100
DictionaryVariables
280
     0
  1
1
  0
DICTIONARYVAR
  5
AB07
102
{ACAD_REACTORS
330
34
102
}
330
34
100
DictionaryVariables
280
     0
  1
4
  0
DICTIONARYVAR
  5
35
102
{ACAD_REACTORS
330
34
102
}
330
34
100
DictionaryVariables
280
     0
  1
0
  0
DICTIONARYVAR
  5
194C
102
{ACAD_REACTORS
330
34
102
}
330
34
100
DictionaryVariables
280
     0
  1
96
  0
DICTIONARY
  5
7E8
102
{ACAD_REACTORS
330
47
102
}
330
47
100
AcDbDictionary
281
     1
  0
DICTIONARY
  5
4C
102
{ACAD_REACTORS
330
47
102
}
330
47
100
AcDbDictionary
281
     1
  0
XRECORD
  5
A929
102
{ACAD_REACTORS
330
47
102
}
330
47
100
AcDbXrecord
280
     1
 90
-1023410169
  0
XRECORD
  5
B332
102
{ACAD_REACTORS
330
B331
102
}
330
B331
100
AcDbXrecord
280
     1
  0
XRECORD
  5
3FB7
102
{ACAD_REACTORS
330
3F96
102
}
330
3F96
100
AcDbXrecord
280
     1
 91
        3
330
0
 90
        8
 62
     7
370
    40
331
16
  1
Color_7
330
0
 90
        0
 62
    14
370
    -3
331
16
  1
Color_14
330
0
 90
        8
 62
     7
370
    20
331
16
  1
Color_7
330
6D1
 90
        0
 62
     7
370
    -3
331
16
  1
Color_7
330
0
 90
        8
 62
     7
370
    50
331
16
  1
Color_7
330
0
 90
        8
 62
     2
370
    35
331
16
  1
Color_2
330
0
 90
        8
 62
     7
370
    -3
331
16
  1
Color_7
330
10
 90
        8
 62
     7
370
    -3
331
16
  1
Color_7
  0
DICTIONARY
  5
DEDB
330
22
100
AcDbDictionary
280
     1
281
     1
  3
ACAD_XREC_ROUNDTRIP
360
DEDC
  0
DICTIONARY
  5
DED9
330
1E
100
AcDbDictionary
280
     1
281
     1
  3
ACAD_XREC_ROUNDTRIP
360
DEDA
  0
DICTIONARY
  5
DEDD
330
26
100
AcDbDictionary
280
     1
281
     1
  3
ACAD_XREC_ROUNDTRIP
360
DEDE
  0
DICTIONARY
  5
DEE3
330
B0EF
100
AcDbDictionary
280
     1
281
     1
  3
ACAD_XREC_ROUNDTRIP
360
DEE4
  0
DICTIONARY
  5
DEE1
330
B0EE
100
AcDbDictionary
280
     1
281
     1
  3
ACAD_XREC_ROUNDTRIP
360
DEE2
  0
DICTIONARY
  5
DEE5
330
B0F0
100
AcDbDictionary
280
     1
281
     1
  3
ACAD_XREC_ROUNDTRIP
360
DEE6
  0
DICTIONARY
  5
DEDF
330
AABA
100
AcDbDictionary
280
     1
281
     1
  3
ACAD_XREC_ROUNDTRIP
360
DEE0
  0
XRECORD
  5
DEDC
102
{ACAD_REACTORS
330
DEDB
102
}
330
DEDB
100
AcDbXrecord
280
     1
102
SHADEPLOT
 70
     0
102
SHADEPLOTRESLEVEL
 70
     2
102
SHADEPLOTCUSTOMDPI
 70
   200
  0
XRECORD
  5
DEDA
102
{ACAD_REACTORS
330
DED9
102
}
330
DED9
100
AcDbXrecord
280
     1
102
SHADEPLOT
 70
     0
102
SHADEPLOTRESLEVEL
 70
     2
102
SHADEPLOTCUSTOMDPI
 70
   300
  0
XRECORD
  5
DEDE
102
{ACAD_REACTORS
330
DEDD
102
}
330
DEDD
100
AcDbXrecord
280
     1
102
SHADEPLOT
 70
     0
102
SHADEPLOTRESLEVEL
 70
     2
102
SHADEPLOTCUSTOMDPI
 70
   300
  0
XRECORD
  5
DEE4
102
{ACAD_REACTORS
330
DEE3
102
}
330
DEE3
100
AcDbXrecord
280
     1
102
MATERIAL
148
0.0
149
0.0
149
0.0
 93
        0
 94
       63
282
     0
 72
     1
 77
     1
171
     1
175
     1
179
     1
273
     0
  0
XRECORD
  5
DEE2
102
{ACAD_REACTORS
330
DEE1
102
}
330
DEE1
100
AcDbXrecord
280
     1
102
MATERIAL
148
0.0
149
0.0
149
0.0
 93
        0
 94
       63
282
     0
 72
     1
 77
     1
171
     1
175
     1
179
     1
273
     0
  0
XRECORD
  5
DEE6
102
{ACAD_REACTORS
330
DEE5
102
}
330
DEE5
100
AcDbXrecord
280
     1
102
MATERIAL
148
0.0
149
0.0
149
0.0
 93
        0
 94
       63
282
     0
 72
     1
 77
     1
171
     1
175
     1
179
     1
273
     0
  0
XRECORD
  5
DEE0
102
{ACAD_REACTORS
330
DEDF
102
}
330
DEDF
100
AcDbXrecord
280
     1
102
ACAD_ROUNDTRIP_PRE2007_TABLESTYLE
 90
        4
 91
        0
  1

 92
        4
 93
        0
  2

 94
        4
 95
        0
  3

  0
ENDSEC
  0
EOF
