  0
SECTION
  2
HEADER
  9
$ACADVER
  1
AC1015
  9
$ACADMAINTVER
 70
    20
  9
$DWGCODEPAGE
  3
ANSI_932
  9
$INSBASE
 10
0.0
 20
0.0
 30
0.0
  9
$EXTMIN
 10
3637.950868591838
 20
2984.602719217685
 30
-0.0015258207003583
  9
$EXTMAX
 10
5435.03290494222
 20
4403.730302306268
 30
0.0000000349246037
  9
$LIMMIN
 10
4594.867033308703
 20
3809.595904971132
  9
$LIMMAX
 10
5434.867033308703
 20
4403.595904971132
  9
$ORTHOMODE
 70
     0
  9
$REGENMODE
 70
     1
  9
$FILLMODE
 70
     1
  9
$QTEXTMODE
 70
     0
  9
$MIRRTEXT
 70
     0
  9
$LTSCALE
 40
2.0
  9
$ATTMODE
 70
     1
  9
$TEXTSIZE
 40
3.2
  9
$TRACEWID
 40
1.0
  9
$TEXTSTYLE
  7
STANDARD
  9
$CLAYER
  8
AM_6
  9
$CELTYPE
  6
ByLayer
  9
$CECOLOR
 62
   256
  9
$CELTSCALE
 40
1.0
  9
$DISPSILH
 70
     0
  9
$DIMSCALE
 40
1.0
  9
$DIMASZ
 40
1.0
  9
$DIMEXO
 40
1.0
  9
$DIMDLI
 40
10.0
  9
$DIMRND
 40
0.0
  9
$DIMDLE
 40
0.0
  9
$DIMEXE
 40
1.0
  9
$DIMTP
 40
0.1
  9
$DIMTM
 40
0.1
  9
$DIMTXT
 40
3.5
  9
$DIMCEN
 40
0.0
  9
$DIMTSZ
 40
0.0
  9
$DIMTOL
 70
     0
  9
$DIMLIM
 70
     0
  9
$DIMTIH
 70
     0
  9
$DIMTOH
 70
     0
  9
$DIMSE1
 70
     0
  9
$DIMSE2
 70
     0
  9
$DIMTAD
 70
     1
  9
$DIMZIN
 70
     8
  9
$DIMBLK
  1

  9
$DIMASO
 70
     1
  9
$DIMSHO
 70
     1
  9
$DIMPOST
  1

  9
$DIMAPOST
  1
"
  9
$DIMALT
 70
     0
  9
$DIMALTD
 70
     2
  9
$DIMALTF
 40
0.0393701
  9
$DIMLFAC
 40
1.0
  9
$DIMTOFL
 70
     1
  9
$DIMTVP
 40
0.0
  9
$DIMTIX
 70
     0
  9
$DIMSOXD
 70
     0
  9
$DIMSAH
 70
     0
  9
$DIMBLK1
  1

  9
$DIMBLK2
  1

  9
$DIMSTYLE
  2
SYS
  9
$DIMCLRD
 70
   256
  9
$DIMCLRE
 70
   256
  9
$DIMCLRT
 70
     7
  9
$DIMTFAC
 40
0.71
  9
$DIMGAP
 40
1.5
  9
$DIMJUST
 70
     0
  9
$DIMSD1
 70
     0
  9
$DIMSD2
 70
     0
  9
$DIMTOLJ
 70
     0
  9
$DIMTZIN
 70
     8
  9
$DIMALTZ
 70
     0
  9
$DIMALTTZ
 70
     0
  9
$DIMUPT
 70
     0
  9
$DIMDEC
 70
     2
  9
$DIMTDEC
 70
     2
  9
$DIMALTU
 70
     2
  9
$DIMALTTD
 70
     2
  9
$DIMTXSTY
  7
STANDARD
  9
$DIMAUNIT
 70
     0
  9
$DIMADEC
 70
     0
  9
$DIMALTRND
 40
0.0
  9
$DIMAZIN
 70
     2
  9
$DIMDSEP
 70
    46
  9
$DIMATFIT
 70
     3
  9
$DIMFRAC
 70
     0
  9
$DIMLDRBLK
  1

  9
$DIMLUNIT
 70
     2
  9
$DIMLWD
 70
    -1
  9
$DIMLWE
 70
    -1
  9
$DIMTMOVE
 70
     0
  9
$LUNITS
 70
     2
  9
$LUPREC
 70
     2
  9
$SKETCHINC
 40
1.0
  9
$FILLETRAD
 40
1.5
  9
$AUNITS
 70
     0
  9
$AUPREC
 70
     0
  9
$MENU
  1
.
  9
$ELEVATION
 40
0.0
  9
$PELEVATION
 40
0.0
  9
$THICKNESS
 40
0.0
  9
$LIMCHECK
 70
     0
  9
$CHAMFERA
 40
0.0
  9
$CHAMFERB
 40
0.0
  9
$CHAMFERC
 40
20.0
  9
$CHAMFERD
 40
0.0
  9
$SKPOLY
 70
     0
  9
$TDCREATE
 40
2455244.694444445
  9
$TDUCREATE
 40
2455244.319444445
  9
$TDUPDATE
 40
2455246.666209491
  9
$TDUUPDATE
 40
2455246.291209491
  9
$TDINDWG
 40
0.2747290972
  9
$TDUSRTIMER
 40
0.2747289120
  9
$USRTIMER
 70
     1
  9
$ANGBASE
 50
0.0
  9
$ANGDIR
 70
     0
  9
$PDMODE
 70
     0
  9
$PDSIZE
 40
-3.0
  9
$PLINEWID
 40
0.0
  9
$SPLFRAME
 70
     0
  9
$SPLINETYPE
 70
     6
  9
$SPLINESEGS
 70
     8
  9
$HANDSEED
  5
C767
  9
$SURFTAB1
 70
     6
  9
$SURFTAB2
 70
     6
  9
$SURFTYPE
 70
     6
  9
$SURFU
 70
     6
  9
$SURFV
 70
     6
  9
$UCSBASE
  2

  9
$UCSNAME
  2

  9
$UCSORG
 10
0.0
 20
0.0
 30
0.0
  9
$UCSXDIR
 10
1.0
 20
0.0
 30
0.0
  9
$UCSYDIR
 10
0.0
 20
1.0
 30
0.0
  9
$UCSORTHOREF
  2

  9
$UCSORTHOVIEW
 70
     0
  9
$UCSORGTOP
 10
0.0
 20
0.0
 30
0.0
  9
$UCSORGBOTTOM
 10
0.0
 20
0.0
 30
0.0
  9
$UCSORGLEFT
 10
0.0
 20
0.0
 30
0.0
  9
$UCSORGRIGHT
 10
0.0
 20
0.0
 30
0.0
  9
$UCSORGFRONT
 10
0.0
 20
0.0
 30
0.0
  9
$UCSORGBACK
 10
0.0
 20
0.0
 30
0.0
  9
$PUCSBASE
  2

  9
$PUCSNAME
  2

  9
$PUCSORG
 10
0.0
 20
0.0
 30
0.0
  9
$PUCSXDIR
 10
1.0
 20
0.0
 30
0.0
  9
$PUCSYDIR
 10
0.0
 20
1.0
 30
0.0
  9
$PUCSORTHOREF
  2

  9
$PUCSORTHOVIEW
 70
     0
  9
$PUCSORGTOP
 10
0.0
 20
0.0
 30
0.0
  9
$PUCSORGBOTTOM
 10
0.0
 20
0.0
 30
0.0
  9
$PUCSORGLEFT
 10
0.0
 20
0.0
 30
0.0
  9
$PUCSORGRIGHT
 10
0.0
 20
0.0
 30
0.0
  9
$PUCSORGFRONT
 10
0.0
 20
0.0
 30
0.0
  9
$PUCSORGBACK
 10
0.0
 20
0.0
 30
0.0
  9
$USERI1
 70
     0
  9
$USERI2
 70
     0
  9
$USERI3
 70
     0
  9
$USERI4
 70
     0
  9
$USERI5
 70
     0
  9
$USERR1
 40
0.0
  9
$USERR2
 40
0.0
  9
$USERR3
 40
0.0
  9
$USERR4
 40
0.0
  9
$USERR5
 40
0.0
  9
$WORLDVIEW
 70
     1
  9
$SHADEDGE
 70
     3
  9
$SHADEDIF
 70
    70
  9
$TILEMODE
 70
     1
  9
$MAXACTVP
 70
    64
  9
$PINSBASE
 10
0.0
 20
0.0
 30
0.0
  9
$PLIMCHECK
 70
     0
  9
$PEXTMIN
 10
1.000000000000000E+20
 20
1.000000000000000E+20
 30
1.000000000000000E+20
  9
$PEXTMAX
 10
-1.000000000000000E+20
 20
-1.000000000000000E+20
 30
-1.000000000000000E+20
  9
$PLIMMIN
 10
-3.17498779296875
 20
-3.174999952316284
  9
$PLIMMAX
 10
293.4970092773438
 20
206.692492723465
  9
$UNITMODE
 70
     0
  9
$VISRETAIN
 70
     1
  9
$PLINEGEN
 70
     0
  9
$PSLTSCALE
 70
     1
  9
$TREEDEPTH
 70
  3020
  9
$CMLSTYLE
  2
Standard
  9
$CMLJUST
 70
     0
  9
$CMLSCALE
 40
20.0
  9
$PROXYGRAPHICS
 70
     1
  9
$MEASUREMENT
 70
     1
  9
$CELWEIGHT
370
    -1
  9
$ENDCAPS
280
     0
  9
$JOINSTYLE
280
     0
  9
$LWDISPLAY
290
     1
  9
$INSUNITS
 70
     4
  9
$HYPERLINKBASE
  1

  9
$STYLESHEET
  1
monochrome.ctb
  9
$XEDIT
290
     1
  9
$CEPSNTYPE
380
     0
  9
$PSTYLEMODE
290
     1
  9
$FINGERPRINTGUID
  2
{6E81AC8A-BD4B-4A23-8802-C301C1844868}
  9
$VERSIONGUID
  2
{6DBEBAF0-0085-4C21-82E2-C5B00BAFF650}
  9
$EXTNAMES
290
     1
  9
$PSVPSCALE
 40
0.0
  9
$OLESTARTUP
290
     0
  0
ENDSEC
  0
SECTION
  2
CLASSES
  0
CLASS
  1
ACDBDICTIONARYWDFLT
  2
AcDbDictionaryWithDefault
  3
ObjectDBX Classes
 90
        0
280
     0
281
     0
  0
CLASS
  1
ACDBPLACEHOLDER
  2
AcDbPlaceHolder
  3
ObjectDBX Classes
 90
        0
280
     0
281
     0
  0
CLASS
  1
LAYOUT
  2
AcDbLayout
  3
ObjectDBX Classes
 90
        0
280
     0
281
     0
  0
CLASS
  1
AMGSETTINGSOBJ
  2
AmgSettingsObj
  3
"AcadM|Product Description: AutoCAD Mechanical|Company: Autodesk"
 90
        0
280
     0
281
     0
  0
CLASS
  1
ACME_DOCUMENT
  2
AcMeDbDoc
  3
AcMeServices
 90
        0
280
     0
281
     0
  0
CLASS
  1
ACMESCOPE
  2
AcMeScope
  3
AcMeServices
 90
        0
280
     0
281
     0
  0
CLASS
  1
ACMECOMMANDHISTORY
  2
AcMeCommandHistory
  3
AcMeServices
 90
        0
280
     0
281
     0
  0
CLASS
  1
DICTIONARYVAR
  2
AcDbDictionaryVar
  3
ObjectDBX Classes
 90
        0
280
     0
281
     0
  0
CLASS
  1
ACIMSYSVARMAN
  2
AcImSysVarManager
  3
AcMeServices
 90
        0
280
     0
281
     0
  0
CLASS
  1
ACIMREALSYSVAR
  2
AcImRealSysVar
  3
AcMeServices
 90
        0
280
     0
281
     0
  0
CLASS
  1
ACIMINTSYSVAR
  2
AcImIntSysVar
  3
AcMeServices
 90
        0
280
     0
281
     0
  0
CLASS
  1
ACMEDRAWINGMAN
  2
AcMeDrawingMan
  3
AcMeServices
 90
        0
280
     0
281
     0
  0
CLASS
  1
ACMEVIEW
  2
AcMeView
  3
AcMeServices
 90
        0
280
     0
281
     0
  0
CLASS
  1
ACDBENTITYCACHE
  2
AcMeEntityCache
  3
AcMeServices
 90
        0
280
     0
281
     0
  0
CLASS
  1
GSMANAGER
  2
AcMeGSManager
  3
AcMeServices
 90
        0
280
     0
281
     0
  0
CLASS
  1
AMDTINTERNALREACTOR
  2
AmdtInternalReactor
  3
AcMeServices
 90
        0
280
     0
281
     0
  0
CLASS
  1
ACMESTATEMGR
  2
AcMeStateMgr
  3
AcMeServices
 90
        0
280
     0
281
     0
  0
CLASS
  1
ACGREFMASTER
  2
AcGrefMaster
  3
AcAttribServices
 90
        0
280
     0
281
     0
  0
CLASS
  1
ACME_DATABASE
  2
AcMeDbDatabase
  3
AcMeServices
 90
        0
280
     0
281
     0
  0
CLASS
  1
ACRFINSADJUSTERMGR
  2
AcRfInsAdjusterMgr
  3
AcMeServices
 90
        0
280
     0
281
     0
  0
CLASS
  1
ACGREFACADMASTER
  2
AcGrefacadMaster
  3
AcGrefServices
 90
        0
280
     0
281
     0
  0
CLASS
  1
AMIMASTER
  2
AmiMaster
  3
AmiServices
 90
        0
280
     0
281
     0
  0
CLASS
  1
ACMDATADICTIONARY
  2
AcmDataDictionary
  3
"AcmSymBB|Product Description: AutoCAD Mechanical|Company: Autodesk"
 90
        0
280
     0
281
     0
  0
CLASS
  1
ACMDATAENTRYBLOCK
  2
AcmDataEntryBlock
  3
"AcmSymBB|Product Description: AutoCAD Mechanical|Company: Autodesk"
 90
        0
280
     0
281
     0
  0
CLASS
  1
ACIMSTRSYSVAR
  2
AcImStrSysVar
  3
AcMeServices
 90
        0
280
     0
281
     0
  0
CLASS
  1
ACMSTANDARDISO
  2
AcmStandardISO
  3
"Amdt_StdImp|Product Description: AutoCAD Mechanical|Company: Autodesk"
 90
        0
280
     0
281
     0
  0
CLASS
  1
AMGOBJPROPCFG
  2
AmgObjPropCfg
  3
"AmgLay|Product Description: AutoCAD Mechanical|Company: Autodesk"
 90
        1
280
     0
281
     0
  0
CLASS
  1
AMDTEDGESTANDARDISO
  2
AmdtEdgeStdISO
  3
"Amdt_StdImp|Product Description: AutoCAD Mechanical|Company: Autodesk"
 90
        0
280
     0
281
     0
  0
CLASS
  1
ACMSURFSTANDARDISO
  2
AcmSurfTextStdISO
  3
"Amdt_StdImp|Product Description: AutoCAD Mechanical|Company: Autodesk"
 90
        0
280
     0
281
     0
  0
CLASS
  1
ACMFCFSTANDARDISO
  2
AcmFCFStdISO
  3
"Amdt_StdImp|Product Description: AutoCAD Mechanical|Company: Autodesk"
 90
        0
280
     0
281
     0
  0
CLASS
  1
ACMWELDSTANDARDISO
  2
AcmWeldingStdISO
  3
"Amdt_StdImp|Product Description: AutoCAD Mechanical|Company: Autodesk"
 90
        0
280
     0
281
     0
  0
CLASS
  1
ACMIDSTANDARDISO
  2
AcmIdStdISO
  3
"Amdt_StdImp|Product Description: AutoCAD Mechanical|Company: Autodesk"
 90
        0
280
     0
281
     0
  0
CLASS
  1
ACMDATUMSTANDARDISO
  2
AcmDatumStdISO
  3
"Amdt_StdImp|Product Description: AutoCAD Mechanical|Company: Autodesk"
 90
        0
280
     0
281
     0
  0
CLASS
  1
ACMBOMSTANDARDISO
  2
AcmBOMStdISO
  3
"Amdt_StdImp|Product Description: AutoCAD Mechanical|Company: Autodesk"
 90
        0
280
     0
281
     0
  0
CLASS
  1
ACMDETAILSTANDARDISO
  2
AmdtDetailSymStdISO
  3
"Amdt_StdImp|Product Description: AutoCAD Mechanical|Company: Autodesk"
 90
        0
280
     0
281
     0
  0
CLASS
  1
ACMSECTIONSTANDARDISO
  2
AmdtSectionSymStdISO
  3
"Amdt_StdImp|Product Description: AutoCAD Mechanical|Company: Autodesk"
 90
        0
280
     0
281
     0
  0
CLASS
  1
ACMCENTERLINESTANDARDISO
  2
AmdtCenterLineStdISO
  3
"Amdt_StdImp|Product Description: AutoCAD Mechanical|Company: Autodesk"
 90
        0
280
     0
281
     0
  0
CLASS
  1
ACAMGLAYSTD
  2
AcAmgLayStd
  3
"AmgLay|Product Description: AutoCAD Mechanical|Company: Autodesk"
 90
        0
280
     0
281
     0
  0
CLASS
  1
ACAMGDIMSTD
  2
AcAmgDimStd
  3
"AmgDim|Product Description: AutoCAD Mechanical|Company: Autodesk"
 90
        0
280
     0
281
     0
  0
CLASS
  1
ACAMGTITLESTD
  2
AcAmgTitleStd
  3
"AmgTitle|Product Description: AutoCAD Mechanical|Company: Autodesk"
 90
        0
280
     0
281
     0
  0
CLASS
  1
ACAMGFILTERDAT
  2
AcAmgFilterDat
  3
"AcadM|Product Description: AutoCAD Mechanical|Company: Autodesk"
 90
        0
280
     0
281
     0
  0
CLASS
  1
LAYER_INDEX
  2
AcDbLayerIndex
  3
ObjectDBX Classes
 90
    32768
280
     0
281
     0
  0
CLASS
  1
IDBUFFER
  2
AcDbIdBuffer
  3
ObjectDBX Classes
 90
    32768
280
     0
281
     0
  0
CLASS
  1
PLOTSETTINGS
  2
AcDbPlotSettings
  3
ObjectDBX Classes
 90
        0
280
     0
281
     0
  0
CLASS
  1
AMDTFORMULAUPDATEDISPATCHER
  2
AmdtFormulaUpdateDispatcher
  3
AcMeServices
 90
        0
280
     0
281
     0
  0
CLASS
  1
ACMSTANDARDANSI
  2
AcmStandardANSI
  3
"Amdt_StdImp|Product Description: AutoCAD Mechanical|Company: Autodesk"
 90
        0
280
     0
281
     0
  0
CLASS
  1
ACMSURFSTANDARDANSI
  2
AcmSurfTextStdANSI
  3
"Amdt_StdImp|Product Description: AutoCAD Mechanical|Company: Autodesk"
 90
        0
280
     0
281
     0
  0
CLASS
  1
ACMFCFSTANDARDANSI
  2
AcmFCFStdANSI
  3
"Amdt_StdImp|Product Description: AutoCAD Mechanical|Company: Autodesk"
 90
        0
280
     0
281
     0
  0
CLASS
  1
ACMWELDSTANDARDANSI
  2
AcmWeldingStdANSI
  3
"Amdt_StdImp|Product Description: AutoCAD Mechanical|Company: Autodesk"
 90
        0
280
     0
281
     0
  0
CLASS
  1
ACMIDSTANDARDANSI
  2
AcmIdStdANSI
  3
"Amdt_StdImp|Product Description: AutoCAD Mechanical|Company: Autodesk"
 90
        0
280
     0
281
     0
  0
CLASS
  1
ACMDATUMSTANDARDANSI
  2
AcmDatumStdANSI
  3
"Amdt_StdImp|Product Description: AutoCAD Mechanical|Company: Autodesk"
 90
        0
280
     0
281
     0
  0
CLASS
  1
ACMBOMSTANDARDANSI
  2
AcmBOMStdANSI
  3
"Amdt_StdImp|Product Description: AutoCAD Mechanical|Company: Autodesk"
 90
        0
280
     0
281
     0
  0
CLASS
  1
ACMDETAILSTANDARDANSI
  2
AmdtDetailSymStdANSI
  3
"Amdt_StdImp|Product Description: AutoCAD Mechanical|Company: Autodesk"
 90
        0
280
     0
281
     0
  0
CLASS
  1
ACMSECTIONSTANDARDANSI
  2
AmdtSectionSymStdANSI
  3
"Amdt_StdImp|Product Description: AutoCAD Mechanical|Company: Autodesk"
 90
        0
280
     0
281
     0
  0
CLASS
  1
ACMCENTERLINESTANDARDANSI
  2
AmdtCenterLineStdANSI
  3
"Amdt_StdImp|Product Description: AutoCAD Mechanical|Company: Autodesk"
 90
        0
280
     0
281
     0
  0
CLASS
  1
ACMBOM
  2
AcmBom
  3
"AcmSymBB|Product Description: AutoCAD Mechanical|Company: Autodesk"
 90
        0
280
     0
281
     0
  0
CLASS
  1
ACMDATAENTRYPART
  2
AcmDataEntryPart
  3
"AcmSymBB|Product Description: AutoCAD Mechanical|Company: Autodesk"
 90
    32768
280
     0
281
     0
  0
CLASS
  1
ACMPARTREF
  2
AcmPartRef
  3
"AcmSymBB|Product Description: AutoCAD Mechanical|Company: Autodesk"
 90
    35839
280
     0
281
     1
  0
CLASS
  1
ACDBCIRCARCRES
  2
AcDbCircArcRes
  3
AcGrefServices
 90
    32768
280
     0
281
     0
  0
CLASS
  1
ACMBOMROW
  2
AcmBomRow
  3
"AcmSymBB|Product Description: AutoCAD Mechanical|Company: Autodesk"
 90
    32768
280
     0
281
     0
  0
CLASS
  1
ACMBALLOON
  2
AcmBalloon
  3
"AcmSymBB|Product Description: AutoCAD Mechanical|Company: Autodesk"
 90
    35839
280
     0
281
     1
  0
CLASS
  1
AMDTNOTE
  2
AmdtNote
  3
"AcmSymBB|Product Description: AutoCAD Mechanical|Company: Autodesk"
 90
    35839
280
     0
281
     1
  0
CLASS
  1
STDPART2D
  2
AmgStdPart
  3
"g3vace|Class: AmgStdPart|Product Description: AutoCAD Mechanical|Company: Autodesk"
 90
    35839
280
     0
281
     1
  0
CLASS
  1
ACDBSTDPARTRES_LINE
  2
AcDbStdPartRes_Line
  3
"g3vace|Class: AcDbStdPartRes_Line|Product Description: AutoCAD Mechanical|Company: Autodesk"
 90
    32768
280
     0
281
     0
  0
CLASS
  1
ACMDATAENTRY
  2
AcmDataEntry
  3
"AcmSymBB|Product Description: AutoCAD Mechanical|Company: Autodesk"
 90
        0
280
     0
281
     0
  0
CLASS
  1
ACDBOPPOLYLINERES
  2
AcDbOpPolylineRes
  3
AcGrefServices
 90
    32768
280
     0
281
     0
  0
CLASS
  1
ACMPARTLIST
  2
AcmPartList
  3
"AcmSymBB|Product Description: AutoCAD Mechanical|Company: Autodesk"
 90
    35839
280
     0
281
     1
  0
CLASS
  1
ACDBLINERES
  2
AcDbLineRes
  3
AcGrefServices
 90
    32768
280
     0
281
     0
  0
CLASS
  1
ACRFINSADJ
  2
AcRfInsAdjuster
  3
AcMeServices
 90
    32768
280
     0
281
     0
  0
CLASS
  1
AM_DRAWING_MGR
  2
AcDmDwgMgr
  3
AcMechDwgViewMgmt
 90
        0
280
     0
281
     0
  0
CLASS
  1
AM_DWG_DOCUMENT
  2
AcDmDwgDocument
  3
AcMechDwgViewMgmt
 90
        0
280
     0
281
     0
  0
CLASS
  1
AM_DWG_SHEET
  2
AcDmSheet
  3
AcMechDwgViewMgmt
 90
        0
280
     0
281
     0
  0
CLASS
  1
AM_VIEWDIMPARMAP
  2
AcDmViewDimParMap
  3
AcMechDwgViewMgmt
 90
        0
280
     0
281
     0
  0
CLASS
  1
AM_DWGMGR_NAME
  2
AcDmDwgMgrName
  3
AcMechDwgViewMgmt
 90
        0
280
     0
281
     0
  0
CLASS
  1
AMDTMENUSTATEMGR
  2
AmdtMenuStateMgr
  3
McadcomServices
 90
        0
280
     0
281
     0
  0
CLASS
  1
AMDTMCOMMENUSTATE
  2
AmdtMcomMenuState
  3
McadcomServices
 90
        0
280
     0
281
     0
  0
CLASS
  1
ASAPP
  2
AcAsAppObject
  3
AutoSurfServices
 90
        0
280
     0
281
     0
  0
CLASS
  1
IM_STATIC_MAN
  2
AcImStaticVarManager
  3
AcMeServices
 90
        0
280
     0
281
     0
  0
CLASS
  1
ACIMDBLSTATICVAR
  2
AcImDblStaticVar
  3
AcMeServices
 90
        0
280
     0
281
     0
  0
CLASS
  1
ACIMSTRSTATICVAR
  2
AcImStrStaticVar
  3
AcMeServices
 90
        0
280
     0
281
     0
  0
CLASS
  1
ACIMINTSTATICVAR
  2
AcImIntStaticVar
  3
AcMeServices
 90
        0
280
     0
281
     0
  0
CLASS
  1
ACASGREFMASTER
  2
AcAsGrefMaster
  3
AutoSurfResolverServices
 90
        0
280
     0
281
     0
  0
CLASS
  1
ACADGREFMODULE
  2
AcAdGrefModule
  3
AdGrefServices
 90
        0
280
     0
281
     0
  0
CLASS
  1
AMDTMAPISURFMOUDULE
  2
AmdtMApiSurfModule
  3
MApiSurfServices
 90
        0
280
     0
281
     0
  0
CLASS
  1
MAPIAMMOUDLE
  2
MApiAmModule
  3
MApiAmServices
 90
        0
280
     0
281
     0
  0
CLASS
  1
AMDTADMENUSTATE
  2
AmdtAdMenuState
  3
DesignerServices
 90
        0
280
     0
281
     0
  0
CLASS
  1
ADAPPL
  2
AcAdAppl
  3
DesignerServices
 90
        0
280
     0
281
     0
  0
CLASS
  1
DEPMGR
  2
AcAdDepMgr
  3
DesignerServices
 90
        0
280
     0
281
     0
  0
CLASS
  1
PARAMMGR
  2
AcAdParamMgr
  3
DesignerServices
 90
        0
280
     0
281
     0
  0
CLASS
  1
PARAMSCOPE
  2
AcAdParamScope
  3
DesignerServices
 90
        0
280
     0
281
     0
  0
CLASS
  1
NAMEDAPPL
  2
AcAdNamedAppl
  3
DesignerServices
 90
        0
280
     0
281
     0
  0
CLASS
  1
ADHNTMPLT
  2
AdHoleNoteTemplateMgr
  3
DesignerServices
 90
    32768
280
     0
281
     0
  0
CLASS
  1
AM_HNTEMPLATE_MGR_NAME
  2
AdHoleNoteTemplateMgrName
  3
DesignerServices
 90
    32768
280
     0
281
     0
  0
CLASS
  1
AMDTDMMENUSTATE
  2
AmdtDmMenuState
  3
AcMechDwgViewMgmt
 90
        0
280
     0
281
     0
  0
CLASS
  1
MAPIADMODULE
  2
MApiAdModule
  3
MApiAdServices
 90
        0
280
     0
281
     0
  0
CLASS
  1
AMDTAMMENUSTATE
  2
AmdtAmMenuState
  3
DesignerAssemblies
 90
        0
280
     0
281
     0
  0
CLASS
  1
ACAMPROJECT
  2
AcAmProject
  3
DesignerAssemblies
 90
        0
280
     0
281
     0
  0
CLASS
  1
ACAMGRCOMPDEF
  2
AcAmGrCompDef
  3
DesignerAssemblies
 90
        0
280
     0
281
     0
  0
CLASS
  1
ACCMCONTEXT
  2
AcCmContext
  3
DesignerAssemblies
 90
        0
280
     0
281
     0
  0
CLASS
  1
ACAMCOMPDEF
  2
AcAmCompDef
  3
DesignerAssemblies
 90
        0
280
     0
281
     0
  0
CLASS
  1
ACAMCOMPDEFMGR
  2
AcAmCompDefMgr
  3
DesignerAssemblies
 90
        0
280
     0
281
     0
  0
CLASS
  1
AMCONTEXTMGR
  2
AcAmContextMgr
  3
DesignerAssemblies
 90
        0
280
     0
281
     0
  0
CLASS
  1
ACAMCONTEXTMODELER
  2
AcAmContextModeler
  3
DesignerAssemblies
 90
        0
280
     0
281
     0
  0
CLASS
  1
CATALOGSTATE
  2
AcAmCatalogState
  3
DesignerAssemblies
 90
        0
280
     0
281
     0
  0
CLASS
  1
ACAMGRCOMPDEFSET
  2
AcAmGrCompDefSet
  3
DesignerAssemblies
 90
        0
280
     0
281
     0
  0
CLASS
  1
AMDTBROWSERDBTAB
  2
AmdtBrowserDbTab
  3
McadcomServices
 90
        0
280
     0
281
     0
  0
CLASS
  1
CBROWSERAPPOBJECT
  2
CBrowserAppObject
  3
McadcomServices
 90
        0
280
     0
281
     0
  0
CLASS
  1
DM_PLACEHOLDER
  2
AcDmSelsetPlaceholder
  3
AcMechDwgViewMgmt
 90
        0
280
     0
281
     0
  0
CLASS
  1
ACMPICKOBJ
  2
AcmPickEnt
  3
"AcmSymBB|Product Description: AutoCAD Mechanical|Company: Autodesk"
 90
    32768
280
     0
281
     1
  0
CLASS
  1
ACMNOTESTANDARDISO
  2
AmdtNoteStdISO
  3
"Amdt_StdImp|Product Description: AutoCAD Mechanical|Company: Autodesk"
 90
        0
280
     0
281
     0
  0
CLASS
  1
ACMNOTESTANDARDANSI
  2
AmdtNoteStdANSI
  3
"Amdt_StdImp|Product Description: AutoCAD Mechanical|Company: Autodesk"
 90
        0
280
     0
281
     0
  0
CLASS
  1
ACMTHREADLINESTANDARDISO
  2
AmdtThreadLineStdISO
  3
"Amdt_StdImp|Product Description: AutoCAD Mechanical|Company: Autodesk"
 90
        0
280
     0
281
     0
  0
CLASS
  1
ACMTHREADLINESTANDARDANSI
  2
AmdtThreadLineStdANSI
  3
"Amdt_StdImp|Product Description: AutoCAD Mechanical|Company: Autodesk"
 90
        0
280
     0
281
     0
  0
CLASS
  1
TABLESTYLE
  2
AcDbTableStyle
  3
ObjectDBX Classes
 90
     4095
280
     0
281
     0
  0
CLASS
  1
SORTENTSTABLE
  2
AcDbSortentsTable
  3
ObjectDBX Classes
 90
        0
280
     0
281
     0
  0
CLASS
  1
MATERIAL
  2
AcDbMaterial
  3
ObjectDBX Classes
 90
     1153
280
     0
281
     0
  0
CLASS
  1
VISUALSTYLE
  2
AcDbVisualStyle
  3
ObjectDBX Classes
 90
     4095
280
     0
281
     0
  0
CLASS
  1
ACRFATTGENMGR
  2
AcRfAttGeneralMgr
  3
AcAttribServices
 90
        0
280
     0
281
     0
  0
CLASS
  1
ACRFOBJATTMGR
  2
AcRfObjAttGroupMgr
  3
AcAttribServices
 90
        0
280
     0
281
     0
  0
CLASS
  1
ACRFMCADAPIATTHOLDER
  2
AcRfMCADAPIAttHolder
  3
AcAttribServices
 90
        0
280
     0
281
     0
  0
CLASS
  1
AMDTSYSATTR
  2
AmdtSystemAttribute
  3
AcAttribServices
 90
        0
280
     0
281
     0
  0
CLASS
  1
ACMTAPERSTANDARDISO
  2
AcmTaperStdISO
  3
"Amdt_StdImp|Product Description: AutoCAD Mechanical|Company: Autodesk"
 90
        0
280
     0
281
     0
  0
CLASS
  1
CAMSSTRUCTBTNSTATE
  2
StructBtnState
  3
L"DesignerAssemblies"
 90
        0
280
     0
281
     0
  0
CLASS
  1
DIMASSOC
  2
AcDbDimAssoc
  3
"AcDbDimAssoc|Product Desc:     AcDim ARX App For Dimension|Company:          Autodesk, Inc.|WEB Address:      www.autodesk.com"
 90
        0
280
     0
281
     0
  0
CLASS
  1
AMDTNOTETEMPLATEDB
  2
AmdtNoteTemplateDB
  3
AMDT_STDIMP_MODULE_NAME
 90
        0
280
     0
281
     0
  0
CLASS
  1
ACMTAPERSTANDARDANSI
  2
AcmTaperStdANSI
  3
"Amdt_StdImp|Product Description: AutoCAD Mechanical|Company: Autodesk"
 90
        0
280
     0
281
     0
  0
CLASS
  1
ACAMGHOLECHARTSTDANSI
  2
AcAmgHoleChartStdANSI
  3
ACMSYMBB_MODULE_NAME
 90
        0
280
     0
281
     0
  0
CLASS
  1
AMDTEDGESTANDARDISO13715
  2
AmdtEdgeStdISO13715
  3
"Amdt_StdImp|Product Description: AutoCAD Mechanical|Company: Autodesk"
 90
        0
280
     0
281
     0
  0
CLASS
  1
ACAMGHOLECHARTSTDISO
  2
AcAmgHoleChartStdISO
  3
ACMSYMBB_MODULE_NAME
 90
        0
280
     0
281
     0
  0
ENDSEC
  0
SECTION
  2
TABLES
  0
TABLE
  2
VPORT
  5
8
330
0
100
AcDbSymbolTable
 70
     1
  0
VPORT
  5
B0EC
330
8
100
AcDbSymbolTableRecord
100
AcDbViewportTableRecord
  2
*Active
 70
     0
 10
0.0
 20
0.0
 11
1.0
 21
1.0
 12
5111.45409596566
 22
4115.875710886899
 13
0.0
 23
0.0
 14
5.0
 24
5.0
 15
20.0
 25
20.0
 16
0.0
 26
0.0
 36
1.0
 17
0.0
 27
0.0
 37
0.0
 40
623.9765643798746
 41
1.916666666666666
 42
50.0
 43
-1370.695619172058
 44
-1370.695619172058
 50
0.0
 51
0.0
 71
     0
 72
   100
 73
     1
 74
     3
 75
     0
 76
     0
 77
     0
 78
     0
281
     0
 65
     0
110
0.0
120
0.0
130
0.0
111
1.0
121
0.0
131
0.0
112
0.0
122
1.0
132
0.0
 79
     0
146
0.0
  0
ENDTAB
  0
TABLE
  2
LTYPE
  5
5
330
0
100
AcDbSymbolTable
 70
    35
  0
LTYPE
  5
14
330
5
100
AcDbSymbolTableRecord
100
AcDbLinetypeTableRecord
  2
ByBlock
 70
     0
  3

 72
    65
 73
     0
 40
0.0
  0
LTYPE
  5
15
330
5
100
AcDbSymbolTableRecord
100
AcDbLinetypeTableRecord
  2
ByLayer
 70
     0
  3

 72
    65
 73
     0
 40
0.0
  0
LTYPE
  5
16
330
5
100
AcDbSymbolTableRecord
100
AcDbLinetypeTableRecord
  2
Continuous
 70
     0
  3
Solid line
 72
    65
 73
     0
 40
0.0
  0
LTYPE
  5
4F
330
5
100
AcDbSymbolTableRecord
100
AcDbLinetypeTableRecord
  2
AM_ISO02W050
 70
     0
  3
__ __ __ __ __ __ __ __ __ __ __ __ __ __ __
 72
    65
 73
     2
 40
7.5
 49
6.0
 74
     0
 49
-1.5
 74
     0
  0
LTYPE
  5
52
330
5
100
AcDbSymbolTableRecord
100
AcDbLinetypeTableRecord
  2
Amconstr
 70
     0
  3
_______________________
 72
    65
 73
     2
 40
9999.0
 49
9999.0
 74
     0
 49
0.0
 74
     0
  0
LTYPE
  5
64
330
5
100
AcDbSymbolTableRecord
100
AcDbLinetypeTableRecord
  2
ACISOWELD
 70
     0
  3
_ _ _ _ _
 72
    65
 73
     2
 40
2.0
 49
2.0
 74
     0
 49
-1.0
 74
     0
  0
LTYPE
  5
65
330
5
100
AcDbSymbolTableRecord
100
AcDbLinetypeTableRecord
  2
ACISOTGB
 70
     0
  3
__ . . __ . .
 72
    65
 73
     6
 40
9.0
 49
4.0
 74
     0
 49
-1.0
 74
     0
 49
1.0
 74
     0
 49
-1.0
 74
     0
 49
1.0
 74
     0
 49
-1.0
 74
     0
  0
LTYPE
  5
66
330
5
100
AcDbSymbolTableRecord
100
AcDbLinetypeTableRecord
  2
ACISOTGL
 70
     0
  3
_ _ _ _ _
 72
    65
 73
     2
 40
3.0
 49
2.0
 74
     0
 49
-1.0
 74
     0
  0
LTYPE
  5
69
330
5
100
AcDbSymbolTableRecord
100
AcDbLinetypeTableRecord
  2
CENTER
 70
     0
  3
__ . __
 72
    65
 73
     4
 40
7.0
 49
4.0
 74
     0
 49
-1.0
 74
     0
 49
1.0
 74
     0
 49
-1.0
 74
     0
  0
LTYPE
  5
A6E
330
5
100
AcDbSymbolTableRecord
100
AcDbLinetypeTableRecord
  2
PHANTOM2
 70
     0
  3
Phantom (.5x) ___ _ _ ___ _ _ ___ _ _ ___ _ _
 72
    65
 73
     6
 40
31.75
 49
15.875
 74
     0
 49
-3.174999999999999
 74
     0
 49
3.174999999999999
 74
     0
 49
-3.174999999999999
 74
     0
 49
3.174999999999999
 74
     0
 49
-3.174999999999999
 74
     0
  0
LTYPE
  5
4DED
330
5
100
AcDbSymbolTableRecord
100
AcDbLinetypeTableRecord
  2
中線
 70
     0
  3
___________________
 72
    65
 73
     2
 40
2.0
 49
1.0
 74
     0
 49
1.0
 74
     0
  0
LTYPE
  5
4DF6
330
5
100
AcDbSymbolTableRecord
100
AcDbLinetypeTableRecord
  2
細線
 70
     0
  3
___________________
 72
    65
 73
     2
 40
2.0
 49
1.0
 74
     0
 49
1.0
 74
     0
  0
LTYPE
  5
4DF7
330
5
100
AcDbSymbolTableRecord
100
AcDbLinetypeTableRecord
  2
太線
 70
     0
  3
___________________
 72
    65
 73
     2
 40
2.0
 49
1.0
 74
     0
 49
1.0
 74
     0
  0
LTYPE
  5
4EA7
330
5
100
AcDbSymbolTableRecord
100
AcDbLinetypeTableRecord
  2
文字
 70
     0
  3
_________________
 72
    65
 73
     2
 40
2.0
 49
1.0
 74
     0
 49
1.0
 74
     0
  0
LTYPE
  5
4EA9
330
5
100
AcDbSymbolTableRecord
100
AcDbLinetypeTableRecord
  2
寸法線
 70
     0
  3
________________
 72
    65
 73
     2
 40
2.0
 49
1.0
 74
     0
 49
1.0
 74
     0
  0
LTYPE
  5
4F12
330
5
100
AcDbSymbolTableRecord
100
AcDbLinetypeTableRecord
  2
ハッチング
 70
     0
  3
_________________
 72
    65
 73
     2
 40
2.0
 49
1.0
 74
     0
 49
1.0
 74
     0
  0
LTYPE
  5
5180
330
5
100
AcDbSymbolTableRecord
100
AcDbLinetypeTableRecord
  2
陰線1
 70
     0
  3
__ __ __ __
 72
    65
 73
     2
 40
4.0
 49
2.2
 74
     0
 49
-1.8
 74
     0
  0
LTYPE
  5
5182
330
5
100
AcDbSymbolTableRecord
100
AcDbLinetypeTableRecord
  2
切断線
 70
     0
  3
/\/-/\/-/\/-/\/-/\/-/\/
 72
    65
 73
     2
 40
11.0001
 49
0.0001
 74
     4
 75
   135
340
56
 46
0.04
 50
0.0
 44
0.0
 45
0.0
 49
-11.0
 74
     0
  0
LTYPE
  5
5183
330
5
100
AcDbSymbolTableRecord
100
AcDbLinetypeTableRecord
  2
想像線1
 70
     0
  3
__ __ __ _____ __ __ ____
 72
    65
 73
     6
 40
14.5
 49
6.0
 74
     0
 49
-1.5
 74
     0
 49
2.0
 74
     0
 49
-1.5
 74
     0
 49
2.0
 74
     0
 49
-1.5
 74
     0
  0
LTYPE
  5
5185
330
5
100
AcDbSymbolTableRecord
100
AcDbLinetypeTableRecord
  2
中心線1
 70
     0
  3
___ _ ___ _ ___
 72
    65
 73
     4
 40
18.0
 49
12.0
 74
     0
 49
-2.0
 74
     0
 49
2.0
 74
     0
 49
-2.0
 74
     0
  0
LTYPE
  5
5188
330
5
100
AcDbSymbolTableRecord
100
AcDbLinetypeTableRecord
  2
補助線
 70
     0
  3
______________
 72
    65
 73
     2
 40
2.0
 49
1.0
 74
     0
 49
1.0
 74
     0
  0
LTYPE
  5
6427
330
5
100
AcDbSymbolTableRecord
100
AcDbLinetypeTableRecord
  2
HIDDEN
 70
     0
  3
Hidden __ __ __ __ __ __ __ __ __ __ __ __ __ _
 72
    65
 73
     2
 40
0.375
 49
0.25
 74
     0
 49
-0.125
 74
     0
  0
LTYPE
  5
AC81
330
5
100
AcDbSymbolTableRecord
100
AcDbLinetypeTableRecord
  2
破断線
 70
     0
  3
/\/-/\/-/\/-/\/-/\/-/\/
 72
    65
 73
     2
 40
0.4401
 49
0.0001
 74
     4
 75
   136
340
AC80
 46
0.0016
 50
0.0
 44
0.0
 45
0.0
 49
-0.4400000000000001
 74
     0
  0
LTYPE
  5
AC9E
330
5
100
AcDbSymbolTableRecord
100
AcDbLinetypeTableRecord
  2
Amzigzag
 70
     0
  3
/\/-/\/-/\/-/\/-/\/-/\/
 72
    65
 73
     2
 40
11.0001
 49
0.0001
 74
     4
 75
   135
340
56
 46
0.04
 50
0.0
 44
0.0
 45
0.0
 49
-11.0
 74
     0
  0
LTYPE
  5
AF0F
330
5
100
AcDbSymbolTableRecord
100
AcDbLinetypeTableRecord
  2
genzigzag
 70
     0
  3
/\/-/\/-/\/-/\/-/\/-/\/
 72
    65
 73
     2
 40
12.0001
 49
0.0001
 74
     4
 75
   135
340
AC80
 46
2.0
 50
0.0
 44
0.0
 45
0.0
 49
-12.0
 74
     0
  0
LTYPE
  5
AF95
330
5
100
AcDbSymbolTableRecord
100
AcDbLinetypeTableRecord
  2
AM_ISO08W050
 70
     0
  3
____ . ____ . ____ . ____ . ____ . ____ . ____
 72
    65
 73
     4
 40
18.0
 49
12.0
 74
     0
 49
-1.5
 74
     0
 49
3.0
 74
     0
 49
-1.5
 74
     0
  0
LTYPE
  5
AF96
330
5
100
AcDbSymbolTableRecord
100
AcDbLinetypeTableRecord
  2
AM_ISO09W050
 70
     0
  3
_____ . . _____ . . _____ . . ____ .. ____
 72
    65
 73
     6
 40
22.5
 49
12.0
 74
     0
 49
-1.5
 74
     0
 49
3.0
 74
     0
 49
-1.5
 74
     0
 49
3.0
 74
     0
 49
-1.5
 74
     0
  0
LTYPE
  5
AF97
330
5
100
AcDbSymbolTableRecord
100
AcDbLinetypeTableRecord
  2
AM_ISO08W050x2
 70
     0
  3
__ . __ . __ . __ . __ . __
 72
    65
 73
     4
 40
9.0
 49
6.0
 74
     0
 49
-0.75
 74
     0
 49
1.5
 74
     0
 49
-0.75
 74
     0
  0
LTYPE
  5
AF98
330
5
100
AcDbSymbolTableRecord
100
AcDbLinetypeTableRecord
  2
AM_ISO02W050x2
 70
     0
  3
 _ _ _ _ _ _ _ _ _ _ _ _
 72
    65
 73
     2
 40
3.75
 49
3.0
 74
     0
 49
-0.75
 74
     0
  0
LTYPE
  5
B3F0
330
5
100
AcDbSymbolTableRecord
100
AcDbLinetypeTableRecord
  2
DASHED
 70
     0
  3
__ __ __ __ __ __ __ __ __ __ __ __ __ __ __
 72
    65
 73
     2
 40
3.5
 49
2.0
 74
     0
 49
-1.5
 74
     0
  0
LTYPE
  5
B3F1
330
5
100
AcDbSymbolTableRecord
100
AcDbLinetypeTableRecord
  2
PHANTOM
 70
     0
  3
_____ _ _ _____ _ _ _____ _ _ _____ _ _ ____  
 72
    65
 73
     6
 40
15.5
 49
8.0
 74
     0
 49
-1.5
 74
     0
 49
1.5
 74
     0
 49
-1.5
 74
     0
 49
1.5
 74
     0
 49
-1.5
 74
     0
  0
LTYPE
  5
B3F2
330
5
100
AcDbSymbolTableRecord
100
AcDbLinetypeTableRecord
  2
CENTER2
 70
     0
  3
Center (.5x) ___ _ ___ _ ___ _ ___ _ ___ _ ___
 72
    65
 73
     4
 40
1.125
 49
0.75
 74
     0
 49
-0.125
 74
     0
 49
0.125
 74
     0
 49
-0.125
 74
     0
  0
LTYPE
  5
B3F3
330
5
100
AcDbSymbolTableRecord
100
AcDbLinetypeTableRecord
  2
HIDDEN2
 70
     0
  3
Hidden (.5x) _ _ _ _ _ _ _ _ _ _ _ _ _ _ _ _ _
 72
    65
 73
     2
 40
0.1875
 49
0.125
 74
     0
 49
-0.0625
 74
     0
  0
LTYPE
  5
B3F4
330
5
100
AcDbSymbolTableRecord
100
AcDbLinetypeTableRecord
  2
AMZIGZAG2
 70
     0
  3
/\/-/\/-/\/-/\/-/\/-/\/
 72
    65
 73
     2
 40
0.4401
 49
0.0001
 74
     0
 49
-0.4400000000000002
 74
     0
  0
LTYPE
  5
B3F5
330
5
100
AcDbSymbolTableRecord
100
AcDbLinetypeTableRecord
  2
ACANSTGB
 70
     0
  3
__ . . __ . .
 72
    65
 73
     6
 40
0.35433070866
 49
0.15748031496
 74
     0
 49
-0.03937007874
 74
     0
 49
0.03937007874
 74
     0
 49
-0.03937007874
 74
     0
 49
0.03937007874
 74
     0
 49
-0.03937007874
 74
     0
  0
LTYPE
  5
B3F6
330
5
100
AcDbSymbolTableRecord
100
AcDbLinetypeTableRecord
  2
ACANSTGL
 70
     0
  3
_ _ _ _ _
 72
    65
 73
     2
 40
0.11811023622
 49
0.07874015748
 74
     0
 49
-0.03937007874
 74
     0
  0
ENDTAB
  0
TABLE
  2
LAYER
  5
2
102
{ACAD_XDICTIONARY
360
3F95
102
}
330
0
100
AcDbSymbolTable
 70
    20
  0
LAYER
  5
10
330
2
100
AcDbSymbolTableRecord
100
AcDbLayerTableRecord
  2
0
 70
     0
 62
     7
  6
Continuous
370
    -3
390
F
  0
LAYER
  5
6D1
330
2
100
AcDbSymbolTableRecord
100
AcDbLayerTableRecord
  2
Defpoints
 70
     0
 62
     7
  6
Continuous
290
     0
370
    -3
390
F
  0
LAYER
  5
AC9F
330
2
100
AcDbSymbolTableRecord
100
AcDbLayerTableRecord
  2
size
 70
     0
 62
     5
  6
Continuous
290
     0
370
    25
390
F
  0
LAYER
  5
ACA0
330
2
100
AcDbSymbolTableRecord
100
AcDbLayerTableRecord
  2
waku
 70
     0
 62
     7
  6
Continuous
370
    35
390
F
  0
LAYER
  5
ACC8
330
2
100
AcDbSymbolTableRecord
100
AcDbLayerTableRecord
  2
hyomoji
 70
     0
 62
     2
  6
Continuous
370
    15
390
F
  0
LAYER
  5
ACC9
330
2
100
AcDbSymbolTableRecord
100
AcDbLayerTableRecord
  2
hyosen1
 70
     0
 62
     1
  6
Continuous
370
    25
390
F
  0
LAYER
  5
ACCA
330
2
100
AcDbSymbolTableRecord
100
AcDbLayerTableRecord
  2
hyosen2
 70
     0
 62
     1
  6
Continuous
370
    15
390
F
  0
LAYER
  5
AD69
330
2
100
AcDbSymbolTableRecord
100
AcDbLayerTableRecord
  2
AM_7
 70
     0
 62
     4
  6
中心線1
370
    15
390
F
1001
AcAecLayerStandard
1000

1000

  0
LAYER
  5
B1B6
330
2
100
AcDbSymbolTableRecord
100
AcDbLayerTableRecord
  2
AM_CL
 70
     0
 62
     1
  6
Amconstr
370
    15
390
F
1001
AcAecLayerStandard
1000

1000

  0
LAYER
  5
B796
330
2
100
AcDbSymbolTableRecord
100
AcDbLayerTableRecord
  2
AM_0
 70
     0
 62
    30
  6
中線
370
    25
390
F
1001
AcAecLayerStandard
1000

1000

  0
LAYER
  5
B7C5
330
2
100
AcDbSymbolTableRecord
100
AcDbLayerTableRecord
  2
AM_11
 70
     0
 62
     2
  6
想像線1
370
    15
390
F
1001
AcAecLayerStandard
1000

1000

  0
LAYER
  5
B8A4
330
2
100
AcDbSymbolTableRecord
100
AcDbLayerTableRecord
  2
AM_5
 70
     0
 62
     3
  6
寸法線
370
    15
390
F
1001
AcAecLayerStandard
1000

1000

  0
LAYER
  5
BC2E
330
2
100
AcDbSymbolTableRecord
100
AcDbLayerTableRecord
  2
0DFB-2010
 70
     0
 62
   140
  6
Continuous
370
    25
390
F
1001
AcAecLayerStandard
1000

1000

  0
LAYER
  5
BD61
330
2
100
AcDbSymbolTableRecord
100
AcDbLayerTableRecord
  2
AM_10
 70
     0
 62
     7
  6
切断線
370
    25
390
F
1001
AcAecLayerStandard
1000

1000

  0
LAYER
  5
BFC4
330
2
100
AcDbSymbolTableRecord
100
AcDbLayerTableRecord
  2
0DFB-2020
 70
     0
 62
   140
  6
Continuous
370
    25
390
F
1001
AcAecLayerStandard
1000

1000

  0
LAYER
  5
C0ED
330
2
100
AcDbSymbolTableRecord
100
AcDbLayerTableRecord
  2
AM_6
 70
     0
 62
     2
  6
文字
370
    15
390
F
  0
LAYER
  5
C109
330
2
100
AcDbSymbolTableRecord
100
AcDbLayerTableRecord
  2
AM_1
 70
     0
 62
    30
  6
太線
370
    25
390
F
1001
AcAecLayerStandard
1000

1000

  0
LAYER
  5
C10A
330
2
100
AcDbSymbolTableRecord
100
AcDbLayerTableRecord
  2
AM_2
 70
     0
 62
     1
  6
細線
370
    15
390
F
1001
AcAecLayerStandard
1000

1000

  0
LAYER
  5
C10B
330
2
100
AcDbSymbolTableRecord
100
AcDbLayerTableRecord
  2
AM_3
 70
     0
 62
     6
  6
陰線1
370
    15
390
F
1001
AcAecLayerStandard
1000

1000

  0
LAYER
  5
C10C
330
2
100
AcDbSymbolTableRecord
100
AcDbLayerTableRecord
  2
AM_8
 70
     0
 62
     1
  6
ハッチング
370
    15
390
F
1001
AcAecLayerStandard
1000

1000

  0
ENDTAB
  0
TABLE
  2
STYLE
  5
3
330
0
100
AcDbSymbolTable
 70
    10
  0
STYLE
  5
11
330
3
100
AcDbSymbolTableRecord
100
AcDbTextStyleTableRecord
  2
STANDARD
 70
     0
 40
0.0
 41
0.7
 50
0.0
 71
     0
 42
3.2
  3
romans.shx
  4
extfont.shx
  0
STYLE
  5
56
330
3
100
AcDbSymbolTableRecord
100
AcDbTextStyleTableRecord
  2

 70
     1
 40
0.0
 41
1.0
 50
0.0
 71
     0
 42
2.5
  3
ltypeshp.shx
  4

  0
STYLE
  5
58
330
3
100
AcDbSymbolTableRecord
100
AcDbTextStyleTableRecord
  2
ACISOTS
 70
     0
 40
1.0
 41
1.0
 50
0.0
 71
     0
 42
2.5
  3
isocp.shx
  4
extfont.shx
  0
STYLE
  5
63
330
3
100
AcDbSymbolTableRecord
100
AcDbTextStyleTableRecord
  2
ACISOGDT
 70
     0
 40
0.0
 41
1.0
 50
0.0
 71
     0
 42
2.5
  3
amgdt.shx
  4

  0
STYLE
  5
A74
330
3
100
AcDbSymbolTableRecord
100
AcDbTextStyleTableRecord
  2
DIM
 70
     0
 40
0.0
 41
1.0
 50
0.0
 71
     0
 42
2.5
  3
monotxt.shx
  4
extfont.shx
  0
STYLE
  5
AC80
330
3
100
AcDbSymbolTableRecord
100
AcDbTextStyleTableRecord
  2

 70
     1
 40
0.0
 41
1.0
 50
0.0
 71
     0
 42
3.2
  3
genltshp.shx
  4

  0
STYLE
  5
B3F7
330
3
100
AcDbSymbolTableRecord
100
AcDbTextStyleTableRecord
  2
ACANSTS
 70
     0
 40
1.0
 41
1.0
 50
0.0
 71
     0
 42
0.2
  3
romans.shx
  4
extfont.shx
  0
STYLE
  5
B3F8
330
3
100
AcDbSymbolTableRecord
100
AcDbTextStyleTableRecord
  2
ACANSGDT
 70
     0
 40
0.0
 41
1.0
 50
0.0
 71
     0
 42
0.2
  3
amgdt.shx
  4

  0
ENDTAB
  0
TABLE
  2
VIEW
  5
6
330
0
100
AcDbSymbolTable
 70
     6
  0
VIEW
  5
AE1
330
6
100
AcDbSymbolTableRecord
100
AcDbViewTableRecord
  2
AM_VIEW1
 70
     0
 40
297.0
 10
4879.332449486898
 20
4255.095904971133
 41
568.9308323563891
 11
0.0
 21
0.0
 31
1.0
 12
0.0
 22
0.0
 32
0.0
 42
50.0
 43
-1370.695619172058
 44
-1370.695619172058
 50
0.0
 71
     0
281
     0
 72
     0
  0
VIEW
  5
AE2
330
6
100
AcDbSymbolTableRecord
100
AcDbViewTableRecord
  2
AM_VIEW2
 70
     0
 40
297.0
 10
5150.401617130508
 20
4255.095904971133
 41
568.9308323563891
 11
0.0
 21
0.0
 31
1.0
 12
0.0
 22
0.0
 32
0.0
 42
50.0
 43
-1370.695619172058
 44
-1370.695619172058
 50
0.0
 71
     0
281
     0
 72
     0
  0
VIEW
  5
AE3
330
6
100
AcDbSymbolTableRecord
100
AcDbViewTableRecord
  2
AM_VIEW3
 70
     0
 40
297.0
 10
4879.332449486898
 20
3958.095904971133
 41
568.9308323563891
 11
0.0
 21
0.0
 31
1.0
 12
0.0
 22
0.0
 32
0.0
 42
50.0
 43
-1370.695619172058
 44
-1370.695619172058
 50
0.0
 71
     0
281
     0
 72
     0
  0
VIEW
  5
AE4
330
6
100
AcDbSymbolTableRecord
100
AcDbViewTableRecord
  2
AM_VIEW4
 70
     0
 40
297.0
 10
5150.401617130508
 20
3958.095904971133
 41
568.9308323563891
 11
0.0
 21
0.0
 31
1.0
 12
0.0
 22
0.0
 32
0.0
 42
50.0
 43
-1370.695619172058
 44
-1370.695619172058
 50
0.0
 71
     0
281
     0
 72
     0
  0
VIEW
  5
AE5
330
6
100
AcDbSymbolTableRecord
100
AcDbViewTableRecord
  2
AM_VIEW5
 70
     0
 40
297.0
 10
5014.867033308703
 20
4106.595904971133
 41
568.9308323563891
 11
0.0
 21
0.0
 31
1.0
 12
0.0
 22
0.0
 32
0.0
 42
50.0
 43
-1370.695619172058
 44
-1370.695619172058
 50
0.0
 71
     0
281
     0
 72
     0
  0
VIEW
  5
AE6
330
6
100
AcDbSymbolTableRecord
100
AcDbViewTableRecord
  2
AM_VIEW6
 70
     0
 40
593.9940600000004
 10
5014.867033308703
 20
4106.595904971133
 41
1137.850286096131
 11
0.0
 21
0.0
 31
1.0
 12
0.0
 22
0.0
 32
0.0
 42
50.0
 43
-1370.695619172058
 44
-1370.695619172058
 50
0.0
 71
     0
281
     0
 72
     0
  0
ENDTAB
  0
TABLE
  2
UCS
  5
7
330
0
100
AcDbSymbolTable
 70
     0
  0
ENDTAB
  0
TABLE
  2
APPID
  5
9
330
0
100
AcDbSymbolTable
 70
    55
  0
APPID
  5
12
330
9
100
AcDbSymbolTableRecord
100
AcDbRegAppTableRecord
  2
ACAD
 70
     0
  0
APPID
  5
30
330
9
100
AcDbSymbolTableRecord
100
AcDbRegAppTableRecord
  2
MCAD_NO_VIS
 70
     0
  0
APPID
  5
31
330
9
100
AcDbSymbolTableRecord
100
AcDbRegAppTableRecord
  2
ACAD_TEMP_GRAPHIC
 70
     0
  0
APPID
  5
44
330
9
100
AcDbSymbolTableRecord
100
AcDbRegAppTableRecord
  2
ACATTRIBSERVICES
 70
     0
  0
APPID
  5
7A1
330
9
100
AcDbSymbolTableRecord
100
AcDbRegAppTableRecord
  2
GENIUS_GENDIMSH_14
 70
     0
  0
APPID
  5
A49
330
9
100
AcDbSymbolTableRecord
100
AcDbRegAppTableRecord
  2
GENIUS_GENREC_14
 70
     0
  0
APPID
  5
A4A
330
9
100
AcDbSymbolTableRecord
100
AcDbRegAppTableRecord
  2
GENIUS_GENOBJ-N-REC_13
 70
     0
  0
APPID
  5
A4B
330
9
100
AcDbSymbolTableRecord
100
AcDbRegAppTableRecord
  2
GENIUS_GENODEF_13
 70
     0
  0
APPID
  5
A4C
330
9
100
AcDbSymbolTableRecord
100
AcDbRegAppTableRecord
  2
DCO15
 70
     0
  0
APPID
  5
ADC
330
9
100
AcDbSymbolTableRecord
100
AcDbRegAppTableRecord
  2
GENIUS_GENOLIS_13
 70
     0
  0
APPID
  5
ADD
330
9
100
AcDbSymbolTableRecord
100
AcDbRegAppTableRecord
  2
GENIUS_GENOENT_13
 70
     0
  0
APPID
  5
ADE
330
9
100
AcDbSymbolTableRecord
100
AcDbRegAppTableRecord
  2
GENIUS_GENOBJ-N-TIT_13
 70
     0
  0
APPID
  5
ADF
330
9
100
AcDbSymbolTableRecord
100
AcDbRegAppTableRecord
  2
GENIUS_GENTITLE_13
 70
     0
  0
APPID
  5
AE0
330
9
100
AcDbSymbolTableRecord
100
AcDbRegAppTableRecord
  2
GENIUS_GENOREF_13
 70
     0
  0
APPID
  5
AE7
330
9
100
AcDbSymbolTableRecord
100
AcDbRegAppTableRecord
  2
GENIUS_GENSCREG_15
 70
     0
  0
APPID
  5
AE8
330
9
100
AcDbSymbolTableRecord
100
AcDbRegAppTableRecord
  2
GENIUS_GENOBJ-N-SDF_13
 70
     0
  0
APPID
  5
FAF
330
9
100
AcDbSymbolTableRecord
100
AcDbRegAppTableRecord
  2
GENIUS_GENBLLY_14
 70
     0
  0
APPID
  5
FB0
330
9
100
AcDbSymbolTableRecord
100
AcDbRegAppTableRecord
  2
GENIUS_GENTRA_14
 70
     0
  0
APPID
  5
1285
330
9
100
AcDbSymbolTableRecord
100
AcDbRegAppTableRecord
  2
GENIUS_GENDTOL_13
 70
     0
  0
APPID
  5
142D
330
9
100
AcDbSymbolTableRecord
100
AcDbRegAppTableRecord
  2
GENIUS_GENOBJ-N-CEN_13
 70
     0
  0
APPID
  5
1AB5
330
9
100
AcDbSymbolTableRecord
100
AcDbRegAppTableRecord
  2
GENIUS_GENOBJ-N-CRS_13
 70
     0
  0
APPID
  5
1B36
330
9
100
AcDbSymbolTableRecord
100
AcDbRegAppTableRecord
  2
GENIUS_GENOBJ-N-HTC_13
 70
     0
  0
APPID
  5
1B37
330
9
100
AcDbSymbolTableRecord
100
AcDbRegAppTableRecord
  2
GENIUS_GENHATCH_13
 70
     0
  0
APPID
  5
216D
330
9
100
AcDbSymbolTableRecord
100
AcDbRegAppTableRecord
  2
GENIUS_GENOBJ-N-FIL_13
 70
     0
  0
APPID
  5
2356
330
9
100
AcDbSymbolTableRecord
100
AcDbRegAppTableRecord
  2
GEVID990412420
 70
     0
  0
APPID
  5
2357
330
9
100
AcDbSymbolTableRecord
100
AcDbRegAppTableRecord
  2
GEVDC
 70
     0
  0
APPID
  5
2358
330
9
100
AcDbSymbolTableRecord
100
AcDbRegAppTableRecord
  2
GEVCON
 70
     0
  0
APPID
  5
235B
330
9
100
AcDbSymbolTableRecord
100
AcDbRegAppTableRecord
  2
GEVRADREF
 70
     0
  0
APPID
  5
2360
330
9
100
AcDbSymbolTableRecord
100
AcDbRegAppTableRecord
  2
GENIUS_GENBH_13
 70
     0
  0
APPID
  5
2362
330
9
100
AcDbSymbolTableRecord
100
AcDbRegAppTableRecord
  2
GENIUS_GENOBJ-NBEHI-BHF_13
 70
     0
  0
APPID
  5
2364
330
9
100
AcDbSymbolTableRecord
100
AcDbRegAppTableRecord
  2
GENIUS_GENOBJ-NBEHI-BHB_13
 70
     0
  0
APPID
  5
2379
330
9
100
AcDbSymbolTableRecord
100
AcDbRegAppTableRecord
  2
GENIUS_GENOBJ-F-SCPASSM_13
 70
     0
  0
APPID
  5
3D74
330
9
100
AcDbSymbolTableRecord
100
AcDbRegAppTableRecord
  2
GENIUS_GENDIM_13
 70
     0
  0
APPID
  5
3D76
330
9
100
AcDbSymbolTableRecord
100
AcDbRegAppTableRecord
  2
GENIUS_GE3DTOL_13
 70
     0
  0
APPID
  5
3D9C
330
9
100
AcDbSymbolTableRecord
100
AcDbRegAppTableRecord
  2
AD_DRAW
 70
     0
  0
APPID
  5
3DE8
330
9
100
AcDbSymbolTableRecord
100
AcDbRegAppTableRecord
  2
ASURF_PCURVE_APPNAME
 70
     0
  0
APPID
  5
3DED
330
9
100
AcDbSymbolTableRecord
100
AcDbRegAppTableRecord
  2
AMG_3D2D_5.0
 70
     0
  0
APPID
  5
3E1B
330
9
100
AcDbSymbolTableRecord
100
AcDbRegAppTableRecord
  2
DESIGNERASSEMBLIES
 70
     0
  0
APPID
  5
3E20
330
9
100
AcDbSymbolTableRecord
100
AcDbRegAppTableRecord
  2
ACADM_DIM_EDIT
 70
     0
  0
APPID
  5
3E21
330
9
100
AcDbSymbolTableRecord
100
AcDbRegAppTableRecord
  2
AMDT_DM_ADJ
 70
     0
  0
APPID
  5
4143
330
9
100
AcDbSymbolTableRecord
100
AcDbRegAppTableRecord
  2
GENIUS_GENFIL_13
 70
     0
  0
APPID
  5
4144
330
9
100
AcDbSymbolTableRecord
100
AcDbRegAppTableRecord
  2
GENIUS_GENOBJ-N-CHA_13
 70
     0
  0
APPID
  5
4E17
330
9
100
AcDbSymbolTableRecord
100
AcDbRegAppTableRecord
  2
GEVID1008153417
 70
     0
  0
APPID
  5
4E58
330
9
100
AcDbSymbolTableRecord
100
AcDbRegAppTableRecord
  2
GEVID1008153418
 70
     0
  0
APPID
  5
4E5E
330
9
100
AcDbSymbolTableRecord
100
AcDbRegAppTableRecord
  2
GEVID1008153419
 70
     0
  0
APPID
  5
4E64
330
9
100
AcDbSymbolTableRecord
100
AcDbRegAppTableRecord
  2
GEVID1008153420
 70
     0
  0
APPID
  5
4E75
330
9
100
AcDbSymbolTableRecord
100
AcDbRegAppTableRecord
  2
GEVID1008153421
 70
     0
  0
APPID
  5
4EB7
330
9
100
AcDbSymbolTableRecord
100
AcDbRegAppTableRecord
  2
GENIUS_AMGTXT_16
 70
     0
  0
APPID
  5
7645
330
9
100
AcDbSymbolTableRecord
100
AcDbRegAppTableRecord
  2
GENIUS_GENOBJ-N-DIM_13
 70
     0
  0
APPID
  5
AAD0
330
9
100
AcDbSymbolTableRecord
100
AcDbRegAppTableRecord
  2
ACAD_DSTYLE_DIMARC_LENGTH_SYMBOL
 70
     0
  0
APPID
  5
AAD1
330
9
100
AcDbSymbolTableRecord
100
AcDbRegAppTableRecord
  2
ACAD_DSTYLE_DIMJOGGED_JOGANGLE_SYMBOL
 70
     0
  0
APPID
  5
AAFD
330
9
100
AcDbSymbolTableRecord
100
AcDbRegAppTableRecord
  2
ACAD_PSEXT
 70
     0
  0
APPID
  5
AD61
330
9
100
AcDbSymbolTableRecord
100
AcDbRegAppTableRecord
  2
AcAecLayerStandard
 70
     0
  0
APPID
  5
AEE3
330
9
100
AcDbSymbolTableRecord
100
AcDbRegAppTableRecord
  2
ACAD_EXEMPT_FROM_CAD_STANDARDS
 70
     0
  0
APPID
  5
B1BE
330
9
100
AcDbSymbolTableRecord
100
AcDbRegAppTableRecord
  2
GENIUS_GENCEN_19
 70
     0
  0
ENDTAB
  0
TABLE
  2
DIMSTYLE
  5
A
330
0
100
AcDbSymbolTable
 70
    28
100
AcDbDimStyleTable
 71
     1
340
2515
  0
DIMSTYLE
105
A76
330
A
100
AcDbSymbolTableRecord
100
AcDbDimStyleTableRecord
  2
STANDARD
 70
     0
 41
3.0
 42
1.0
 43
7.0
 44
2.0
 73
     0
 74
     0
 77
     1
140
2.799999999999999
141
0.0
143
0.0394
147
0.7
171
     4
172
     1
173
     1
176
     3
177
     3
178
     2
271
     3
272
     3
273
     8
274
     4
289
     0
340
A74
341
A66
343
A66
344
A66
  0
DIMSTYLE
105
2515
330
A
100
AcDbSymbolTableRecord
100
AcDbDimStyleTableRecord
  2
SYS
 70
     0
  4
"
 41
1.0
 42
1.0
 43
10.0
 44
1.0
 47
0.1
 48
0.1
 73
     0
 74
     0
 77
     1
 78
     8
 79
     2
140
3.5
141
0.0
143
0.0393701
146
0.71
147
1.5
172
     1
176
   256
177
   256
178
     7
271
     2
272
     2
283
     0
284
     8
340
11
371
    -1
372
    -1
1001
ACAD_DSTYLE_DIMJOGGED_JOGANGLE_SYMBOL
1070
   384
1040
0.7853981633974483
1001
ACAD_DSTYLE_DIMARC_LENGTH_SYMBOL
1070
   379
1070
     1
  0
DIMSTYLE
105
2516
330
A
100
AcDbSymbolTableRecord
100
AcDbDimStyleTableRecord
  2
SYS$3
 70
     0
  4
"
 41
2.0
 42
1.0
 43
10.0
 44
1.0
 47
0.1
 48
0.1
 73
     0
 77
     1
 78
     8
 79
     2
140
3.5
141
0.0
143
0.0393701
146
0.71
147
1.5
176
   256
177
   256
178
     2
271
     2
272
     2
283
     0
284
     8
288
     1
340
11
342
A66
371
    -1
372
    -1
1001
ACAD_DSTYLE_DIMJOGGED_JOGANGLE_SYMBOL
1070
   384
1040
0.7853981633974483
1001
ACAD_DSTYLE_DIMARC_LENGTH_SYMBOL
1070
   379
1070
     1
  0
DIMSTYLE
105
2517
330
A
100
AcDbSymbolTableRecord
100
AcDbDimStyleTableRecord
  2
SYS$4
 70
     0
  4
"
 41
2.0
 42
1.0
 43
10.0
 44
1.0
 47
0.1
 48
0.1
 73
     0
 77
     1
 78
     8
 79
     2
140
3.5
141
0.0
143
0.0393701
146
0.71
147
1.5
173
     1
176
   256
177
   256
178
     2
271
     2
272
     2
283
     0
284
     8
288
     1
340
11
344
A66
371
    -1
372
    -1
1001
ACAD_DSTYLE_DIMJOGGED_JOGANGLE_SYMBOL
1070
   384
1040
0.7853981633974483
1001
ACAD_DSTYLE_DIMARC_LENGTH_SYMBOL
1070
   379
1070
     1
  0
DIMSTYLE
105
2518
330
A
100
AcDbSymbolTableRecord
100
AcDbDimStyleTableRecord
  2
SYS$6
 70
     0
  4
"
 41
2.0
 42
1.0
 43
10.0
 44
1.0
 47
0.1
 48
0.1
 73
     0
 74
     0
 78
     8
 79
     2
140
3.5
141
0.0
143
0.0393701
146
0.71
147
1.5
172
     1
176
   256
177
   256
178
     2
271
     2
272
     2
283
     0
284
     8
340
11
341
A66
371
    -1
372
    -1
1001
ACAD_DSTYLE_DIMJOGGED_JOGANGLE_SYMBOL
1070
   384
1040
0.7853981633974483
1001
ACAD_DSTYLE_DIMARC_LENGTH_SYMBOL
1070
   379
1070
     1
  0
DIMSTYLE
105
2519
330
A
100
AcDbSymbolTableRecord
100
AcDbDimStyleTableRecord
  2
SYS$7
 70
     0
  4
"
 41
2.0
 42
1.0
 43
10.0
 44
1.0
 47
0.1
 48
0.1
 73
     0
 74
     0
 77
     1
 78
     8
 79
     2
140
5.0
141
0.0
143
0.0393701
146
0.71
147
1.5
172
     1
176
   256
177
   256
178
     2
271
     2
272
     2
283
     0
284
     8
340
11
341
A66
342
A66
371
    -1
372
    -1
1001
ACAD_DSTYLE_DIMJOGGED_JOGANGLE_SYMBOL
1070
   384
1040
0.7853981633974483
1001
ACAD_DSTYLE_DIMARC_LENGTH_SYMBOL
1070
   379
1070
     1
  0
DIMSTYLE
105
251A
330
A
100
AcDbSymbolTableRecord
100
AcDbDimStyleTableRecord
  2
SYS$SF
 70
     0
  4
"
 41
2.5
 42
1.0
 43
10.0
 44
1.0
 47
0.1
 48
0.1
 73
     0
 74
     0
 75
     1
 76
     1
 77
     1
 78
     8
 79
     2
140
3.5
141
0.0
143
0.0393701
146
0.71
147
1.5
172
     1
176
   256
177
   256
178
     2
271
     2
272
     3
283
     0
284
     8
340
11
341
6C4
342
6C4
371
    -1
372
    -1
1001
ACAD_DSTYLE_DIMJOGGED_JOGANGLE_SYMBOL
1070
   384
1040
0.7853981633974483
1001
ACAD_DSTYLE_DIMARC_LENGTH_SYMBOL
1070
   379
1070
     1
  0
DIMSTYLE
105
251B
330
A
100
AcDbSymbolTableRecord
100
AcDbDimStyleTableRecord
  2
SYS$SH
 70
     0
  4
"
 41
2.5
 42
1.0
 43
10.0
 44
1.0
 47
0.1
 48
0.1
 73
     0
 74
     0
 75
     1
 76
     1
 77
     1
 78
     8
 79
     2
140
3.5
141
0.0
143
0.0393701
144
2.0
146
0.71
147
1.5
172
     1
173
     1
176
   256
177
   256
178
     2
271
     2
272
     3
283
     0
284
     8
340
11
341
6C4
343
72
344
6C4
371
    -1
372
    -1
1001
ACAD_DSTYLE_DIMJOGGED_JOGANGLE_SYMBOL
1070
   384
1040
0.7853981633974483
1001
ACAD_DSTYLE_DIMARC_LENGTH_SYMBOL
1070
   379
1070
     1
  0
DIMSTYLE
105
2A59
330
A
100
AcDbSymbolTableRecord
100
AcDbDimStyleTableRecord
  2
SYS$2
 70
     0
  4
"
 41
1.0
 42
1.0
 43
10.0
 44
1.0
 47
0.1
 48
0.1
 73
     0
 74
     0
 77
     1
 78
     8
 79
     2
140
3.5
141
0.0
143
0.0393701
146
0.71
147
1.5
172
     1
176
   256
177
   256
178
     2
271
     2
272
     2
283
     0
284
     8
340
11
342
6C4
371
    -1
372
    -1
1001
ACAD_DSTYLE_DIMJOGGED_JOGANGLE_SYMBOL
1070
   384
1040
0.7853981633974483
1001
ACAD_DSTYLE_DIMARC_LENGTH_SYMBOL
1070
   379
1070
     1
  0
DIMSTYLE
105
2AAB
102
{ACAD_REACTORS
330
C3A1
330
C3B7
330
C3D1
330
C416
330
C58B
330
C5A1
330
C5B9
330
C5EA
102
}
330
A
100
AcDbSymbolTableRecord
100
AcDbDimStyleTableRecord
  2
SYS$0
 70
     0
  4
"
 41
1.0
 42
1.0
 43
8.0
 44
1.0
 47
0.1
 48
0.1
 73
     0
 74
     0
 77
     1
 78
     8
 79
     2
140
3.200000000000001
141
0.0
143
0.0393701
146
0.71
147
1.5
172
     1
176
   256
177
   256
178
     2
271
     2
272
     2
283
     0
284
     8
340
11
341
A66
342
6C4
371
    -1
372
    -1
1001
ACAD_DSTYLE_DIMJOGGED_JOGANGLE_SYMBOL
1070
   384
1040
0.7853981633974483
1001
ACAD_DSTYLE_DIMARC_LENGTH_SYMBOL
1070
   379
1070
     1
  0
DIMSTYLE
105
AF99
330
A
100
AcDbSymbolTableRecord
100
AcDbDimStyleTableRecord
  2
AM_ISO
 70
     0
  4
"
 41
2.5
 42
1.0
 43
10.0
 44
1.0
 47
0.1
 48
0.1
 73
     0
 74
     0
 77
     1
 78
     8
 79
     2
140
3.5
141
0.0
143
0.0393701
146
0.71
147
1.5
172
     1
176
   256
177
   256
178
     2
271
     2
272
     3
274
     4
283
     0
284
     8
340
11
371
    -1
372
    -1
  0
DIMSTYLE
105
AF9A
330
A
100
AcDbSymbolTableRecord
100
AcDbDimStyleTableRecord
  2
AM_ISO$3
 70
     0
  4
"
 41
2.5
 42
1.0
 43
10.0
 44
1.0
 47
0.1
 48
0.1
 73
     0
 77
     1
 78
     8
 79
     2
140
3.5
141
0.0
143
0.0393701
146
0.71
147
1.5
176
   256
177
   256
178
     2
271
     2
272
     3
274
     4
283
     0
284
     8
288
     1
289
     0
340
11
371
    -1
372
    -1
  0
DIMSTYLE
105
AF9B
330
A
100
AcDbSymbolTableRecord
100
AcDbDimStyleTableRecord
  2
AM_ISO$4
 70
     0
  4
"
 41
2.5
 42
1.0
 43
10.0
 44
1.0
 47
0.1
 48
0.1
 73
     0
 77
     1
 78
     8
 79
     2
140
3.5
141
0.0
143
0.0393701
146
0.71
147
1.5
176
   256
177
   256
178
     2
271
     2
272
     3
274
     4
283
     0
284
     8
288
     1
289
     0
340
11
371
    -1
372
    -1
  0
DIMSTYLE
105
AF9C
330
A
100
AcDbSymbolTableRecord
100
AcDbDimStyleTableRecord
  2
AM_ISO$6
 70
     0
  4
"
 41
2.5
 42
1.0
 43
10.0
 44
1.0
 47
0.1
 48
0.1
 73
     0
 74
     0
 78
     8
 79
     2
140
3.5
141
0.0
143
0.0393701
146
0.71
147
1.5
172
     1
176
   256
177
   256
178
     2
271
     2
272
     3
274
     4
283
     0
284
     8
340
11
371
    -1
372
    -1
  0
DIMSTYLE
105
AF9D
330
A
100
AcDbSymbolTableRecord
100
AcDbDimStyleTableRecord
  2
AM_ISO$7
 70
     0
  4
"
 41
2.5
 42
1.0
 43
10.0
 44
1.0
 47
0.1
 48
0.1
 73
     0
 74
     0
 77
     1
 78
     8
 79
     2
140
5.0
141
0.0
143
0.0393701
146
0.71
147
1.5
172
     1
176
   256
177
   256
178
     2
271
     2
272
     3
274
     4
283
     0
284
     8
340
11
371
    -1
372
    -1
  0
DIMSTYLE
105
AF9E
330
A
100
AcDbSymbolTableRecord
100
AcDbDimStyleTableRecord
  2
AM_ISO$SF
 70
     0
  4
"
 41
2.5
 42
1.0
 43
10.0
 44
1.0
 47
0.1
 48
0.1
 73
     0
 74
     0
 75
     1
 76
     1
 77
     1
 78
     8
 79
     2
140
3.5
141
0.0
143
0.0393701
146
0.71
147
1.5
172
     1
176
   256
177
   256
178
     2
271
     2
272
     3
274
     4
283
     0
284
     8
340
11
371
    -1
372
    -1
  0
DIMSTYLE
105
AF9F
330
A
100
AcDbSymbolTableRecord
100
AcDbDimStyleTableRecord
  2
AM_ISO$SH
 70
     0
  4
"
 41
2.5
 42
1.0
 43
10.0
 44
1.0
 47
0.1
 48
0.1
 73
     0
 74
     0
 75
     1
 76
     1
 77
     1
 78
     8
 79
     2
140
3.5
141
0.0
143
0.0393701
144
2.0
146
0.71
147
1.5
172
     1
173
     1
176
   256
177
   256
178
     2
271
     2
272
     3
274
     4
283
     0
284
     8
340
11
343
72
371
    -1
372
    -1
  0
DIMSTYLE
105
B3F9
330
A
100
AcDbSymbolTableRecord
100
AcDbDimStyleTableRecord
  2
AM_ANSI
 70
     0
  4
mm
 41
0.1
 42
0.05
 43
0.5
 44
0.1
 47
0.1
 48
0.1
 78
     7
140
0.12
141
0.0
146
0.71
147
0.06
176
   256
177
   256
178
     2
279
     2
340
11
  0
DIMSTYLE
105
B3FA
330
A
100
AcDbSymbolTableRecord
100
AcDbDimStyleTableRecord
  2
AM_ANSI$3
 70
     0
  4
mm
 41
0.1
 42
0.05
 43
0.5
 44
0.1
 47
0.1
 48
0.1
 78
     7
140
0.12
141
0.0
146
0.71
147
0.06
176
   256
177
   256
178
     2
279
     2
340
11
  0
DIMSTYLE
105
B3FB
330
A
100
AcDbSymbolTableRecord
100
AcDbDimStyleTableRecord
  2
AM_ANSI$4
 70
     0
  4
mm
 41
0.1
 42
0.05
 43
0.5
 44
0.1
 47
0.1
 48
0.1
 78
     7
140
0.12
141
0.0
146
0.71
147
0.06
176
   256
177
   256
178
     2
279
     2
340
11
  0
DIMSTYLE
105
B3FC
330
A
100
AcDbSymbolTableRecord
100
AcDbDimStyleTableRecord
  2
AM_ANSI$7
 70
     0
  4
mm
 41
0.1
 42
0.05
 43
0.5
 44
0.1
 47
0.1
 48
0.1
 78
     7
140
0.24
141
0.0
146
0.71
147
0.06
176
   256
177
   256
178
     2
279
     2
340
11
  0
DIMSTYLE
105
B3FD
330
A
100
AcDbSymbolTableRecord
100
AcDbDimStyleTableRecord
  2
AM_ANSI$SF
 70
     0
  4
mm
 41
0.1
 42
0.05
 43
0.5
 44
0.1
 47
0.1
 48
0.1
 75
     1
 76
     1
 78
     7
140
0.12
141
0.0
146
0.71
147
0.06
176
   256
177
   256
178
     2
279
     2
340
11
  0
DIMSTYLE
105
B3FE
330
A
100
AcDbSymbolTableRecord
100
AcDbDimStyleTableRecord
  2
AM_ANSI$SH
 70
     0
  4
mm
 41
0.1
 42
0.05
 43
0.5
 44
0.1
 47
0.1
 48
0.1
 75
     1
 76
     1
 78
     7
140
0.12
141
0.0
146
0.71
147
0.06
173
     1
176
   256
177
   256
178
     2
279
     2
340
11
  0
DIMSTYLE
105
BFFE
330
A
100
AcDbSymbolTableRecord
100
AcDbDimStyleTableRecord
  2
AM_ISO$0
 70
     0
  4
"
 41
0.8
 42
1.0
 43
10.0
 44
1.0
 47
0.1
 48
0.1
 73
     0
 74
     0
 77
     1
 78
     8
 79
     2
140
3.2
141
0.0
143
0.0393701
146
0.71
147
0.9999999999999996
172
     1
176
   256
177
   256
178
     2
271
     2
272
     2
283
     0
284
     8
340
11
341
6C4
342
6C4
371
    -1
372
    -1
1001
ACAD_DSTYLE_DIMJOGGED_JOGANGLE_SYMBOL
1070
   384
1040
0.7853981633974483
1001
ACAD_DSTYLE_DIMARC_LENGTH_SYMBOL
1070
   379
1070
     1
  0
DIMSTYLE
105
BFFF
330
A
100
AcDbSymbolTableRecord
100
AcDbDimStyleTableRecord
  2
AM_ISO$2
 70
     0
  4
"
 41
0.8
 42
1.0
 43
10.0
 44
1.0
 47
0.1
 48
0.1
 73
     0
 74
     0
 77
     3
 78
     8
 79
     2
140
3.200000000000001
141
0.0
143
0.0393701
146
0.71
147
0.9999999999999996
172
     1
176
   256
177
   256
178
     2
271
     2
272
     2
283
     0
284
     8
340
11
342
6C4
371
    -1
372
    -1
1001
ACAD_DSTYLE_DIMJOGGED_JOGANGLE_SYMBOL
1070
   384
1040
0.7853981633974483
1001
ACAD_DSTYLE_DIMARC_LENGTH_SYMBOL
1070
   379
1070
     1
  0
ENDTAB
  0
TABLE
  2
BLOCK_RECORD
  5
1
330
0
100
AcDbSymbolTable
 70
    47
  0
BLOCK_RECORD
  5
1F
102
{ACAD_XDICTIONARY
360
8A
102
}
330
1
100
AcDbSymbolTableRecord
100
AcDbBlockTableRecord
  2
*Model_Space
340
22
  0
BLOCK_RECORD
  5
1B
330
1
100
AcDbSymbolTableRecord
100
AcDbBlockTableRecord
  2
*Paper_Space
340
1E
  0
BLOCK_RECORD
  5
23
330
1
100
AcDbSymbolTableRecord
100
AcDbBlockTableRecord
  2
*Paper_Space0
340
26
  0
BLOCK_RECORD
  5
72
330
1
100
AcDbSymbolTableRecord
100
AcDbBlockTableRecord
  2
GENAXEH
340
0
  0
BLOCK_RECORD
  5
6C4
330
1
100
AcDbSymbolTableRecord
100
AcDbBlockTableRecord
  2
_Dot
340
0
102
{BLKREFS
331
BB8E
331
BB8F
331
BBCD
331
BBCE
331
BD19
331
BD1A
331
BD7C
331
BD7D
331
C1B1
331
C1B2
331
C1BC
331
C1BD
331
C492
331
C493
331
C4BC
331
C4BD
331
C4C8
331
C4C9
331
C4D4
331
C4D5
331
C4E0
331
C4E1
331
C4EC
331
C4ED
331
C4B0
331
C4B1
331
C547
331
C548
331
C553
331
C554
331
C55F
331
C560
331
C56B
331
C56C
331
C577
331
C578
331
C583
331
C584
331
C665
331
C666
331
C670
331
C671
331
C679
331
C67A
331
C682
331
C683
331
C68B
331
C68C
331
C694
331
C695
331
C69D
331
C69E
331
C6A8
331
C6A9
102
}
  0
BLOCK_RECORD
  5
A66
330
1
100
AcDbSymbolTableRecord
100
AcDbBlockTableRecord
  2
_OPEN30
340
0
  0
BLOCK_RECORD
  5
C3A2
330
1
100
AcDbSymbolTableRecord
100
AcDbBlockTableRecord
  2
*D23
340
0
  0
BLOCK_RECORD
  5
C3B8
330
1
100
AcDbSymbolTableRecord
100
AcDbBlockTableRecord
  2
*D24
340
0
  0
BLOCK_RECORD
  5
C3D2
330
1
100
AcDbSymbolTableRecord
100
AcDbBlockTableRecord
  2
*D25
340
0
  0
BLOCK_RECORD
  5
C417
330
1
100
AcDbSymbolTableRecord
100
AcDbBlockTableRecord
  2
*D26
340
0
  0
BLOCK_RECORD
  5
C58C
330
1
100
AcDbSymbolTableRecord
100
AcDbBlockTableRecord
  2
*D41
340
0
  0
BLOCK_RECORD
  5
C5A2
330
1
100
AcDbSymbolTableRecord
100
AcDbBlockTableRecord
  2
*D42
340
0
  0
BLOCK_RECORD
  5
C5BA
330
1
100
AcDbSymbolTableRecord
100
AcDbBlockTableRecord
  2
*D43
340
0
  0
BLOCK_RECORD
  5
C5EB
330
1
100
AcDbSymbolTableRecord
100
AcDbBlockTableRecord
  2
*D44
340
0
  0
ENDTAB
  0
ENDSEC
  0
SECTION
  2
BLOCKS
  0
BLOCK
  5
20
330
1F
100
AcDbEntity
  8
0
100
AcDbBlockBegin
  2
*Model_Space
 70
     0
 10
0.0
 20
0.0
 30
0.0
  3
*Model_Space
  1

  0
ENDBLK
  5
21
330
1F
100
AcDbEntity
  8
0
100
AcDbBlockEnd
  0
BLOCK
  5
1C
330
1B
100
AcDbEntity
 67
     1
  8
0
100
AcDbBlockBegin
  2
*Paper_Space
 70
     0
 10
0.0
 20
0.0
 30
0.0
  3
*Paper_Space
  1

  0
ENDBLK
  5
1D
330
1B
100
AcDbEntity
 67
     1
  8
0
100
AcDbBlockEnd
  0
BLOCK
  5
24
330
23
100
AcDbEntity
 67
     1
  8
0
100
AcDbBlockBegin
  2
*Paper_Space0
 70
     0
 10
0.0
 20
0.0
 30
0.0
  3
*Paper_Space0
  1

  0
ENDBLK
  5
25
330
23
100
AcDbEntity
 67
     1
  8
0
100
AcDbBlockEnd
  0
BLOCK
  5
74
330
72
100
AcDbEntity
  8
0
100
AcDbBlockBegin
  2
GENAXEH
 70
     0
 10
0.0
 20
0.0
 30
0.0
  3
GENAXEH
  1

  0
LINE
  5
73
330
72
100
AcDbEntity
  8
0
100
AcDbLine
 10
-1.0
 20
0.0
 30
0.0
 11
1.0
 21
0.0
 31
0.0
  0
ENDBLK
  5
75
330
72
100
AcDbEntity
  8
0
100
AcDbBlockEnd
  0
BLOCK
  5
6C7
330
6C4
100
AcDbEntity
  8
0
100
AcDbBlockBegin
  2
_Dot
 70
     0
 10
0.0
 20
0.0
 30
0.0
  3
_Dot
  1

  0
LWPOLYLINE
  5
6C5
330
6C4
100
AcDbEntity
  8
0
  6
ByBlock
 62
     0
100
AcDbPolyline
 90
        2
 70
     1
 43
0.5
 10
-0.25
 20
0.0
 42
1.0
 10
0.25
 20
0.0
 42
1.0
  0
LINE
  5
6C6
330
6C4
100
AcDbEntity
  8
0
  6
ByBlock
 62
     0
370
    -2
100
AcDbLine
 10
-0.5
 20
0.0
 30
0.0
 11
-1.0
 21
0.0
 31
0.0
  0
ENDBLK
  5
6C8
330
6C4
100
AcDbEntity
  8
0
100
AcDbBlockEnd
  0
BLOCK
  5
A6A
330
A66
100
AcDbEntity
  8
0
100
AcDbBlockBegin
  2
_OPEN30
 70
     0
 10
0.0
 20
0.0
 30
0.0
  3
_OPEN30
  1

  0
LINE
  5
A67
330
A66
100
AcDbEntity
  8
0
  6
ByBlock
 62
     0
100
AcDbLine
 10
-1.0
 20
0.26794919
 30
0.0
 11
0.0
 21
0.0
 31
0.0
  0
LINE
  5
A68
330
A66
100
AcDbEntity
  8
0
  6
ByBlock
 62
     0
100
AcDbLine
 10
0.0
 20
0.0
 30
0.0
 11
-1.0
 21
-0.26794919
 31
0.0
  0
LINE
  5
A69
330
A66
100
AcDbEntity
  8
0
  6
ByBlock
 62
     0
100
AcDbLine
 10
0.0
 20
0.0
 30
0.0
 11
-1.0
 21
0.0
 31
0.0
  0
ENDBLK
  5
A6B
330
A66
100
AcDbEntity
  8
0
100
AcDbBlockEnd
  0
BLOCK
  5
C3AC
330
C3A2
100
AcDbEntity
  8
0
100
AcDbBlockBegin
  2
*D23
 70
     1
 10
0.0
 20
0.0
 30
0.0
  3
*D23
  1

  0
LINE
  5
C662
330
C3A2
100
AcDbEntity
  8
AM_5
100
AcDbLine
 10
4686.173989578177
 20
4046.937537527182
 30
0.0
 11
4662.173989709415
 21
4046.937537527182
 31
0.0
  0
LINE
  5
C663
330
C3A2
100
AcDbEntity
  8
AM_5
100
AcDbLine
 10
4696.173989120594
 20
4071.937537838426
 30
0.0
 11
4662.173989709415
 21
4071.937537838426
 31
0.0
  0
LINE
  5
C664
330
C3A2
100
AcDbEntity
  8
AM_5
100
AcDbLine
 10
4664.173989709416
 20
4048.937537527183
 30
0.0
 11
4664.173989709416
 21
4069.937537838426
 31
0.0
  0
INSERT
  5
C665
330
C3A2
100
AcDbEntity
  8
AM_5
100
AcDbBlockReference
  2
_Dot
 10
4664.173989709416
 20
4046.937537527182
 30
0.0
 41
2.0
 42
2.0
 43
2.0
 50
270.0
  0
INSERT
  5
C666
330
C3A2
100
AcDbEntity
  8
AM_5
100
AcDbBlockReference
  2
_Dot
 10
4664.173989709416
 20
4071.937537838426
 30
0.0
 41
2.0
 42
2.0
 43
2.0
 50
90.0
  0
MTEXT
  5
C667
330
C3A2
100
AcDbEntity
  8
AM_5
 62
     2
100
AcDbMText
 10
4657.973989709415
 20
4059.437537682805
 30
0.0
 40
6.400000000000002
 41
0.0
 71
     5
 72
     1
  1
25
 11
0.0000000000000001
 21
1.0
 31
0.0
 73
     1
 44
1.0
1001
ACAD
1000
MTEXTBEGIN
1070
    73
1070
     1
1070
    44
1040
1.0
1070
    74
1070
     0
1000
MTEXTEND
  0
POINT
  5
C668
330
C3A2
100
AcDbEntity
  8
Defpoints
 62
     0
100
AcDbPoint
 10
4688.173989578177
 20
4046.937537527182
 30
0.0
  0
POINT
  5
C669
330
C3A2
100
AcDbEntity
  8
Defpoints
 62
     0
100
AcDbPoint
 10
4698.173989120594
 20
4071.937537838426
 30
0.0
  0
POINT
  5
C66A
330
C3A2
100
AcDbEntity
  8
Defpoints
 62
     0
100
AcDbPoint
 10
4664.173989709416
 20
4071.937537838426
 30
0.0
  0
ENDBLK
  5
C3AD
330
C3A2
100
AcDbEntity
  8
0
100
AcDbBlockEnd
  0
BLOCK
  5
C3C4
330
C3B8
100
AcDbEntity
  8
0
100
AcDbBlockBegin
  2
*D24
 70
     1
 10
0.0
 20
0.0
 30
0.0
  3
*D24
  1

  0
LINE
  5
C66B
330
C3B8
100
AcDbEntity
  8
AM_5
100
AcDbLine
 10
4728.185871639144
 20
4175.638219243364
 30
0.0
 11
4653.173989120594
 21
4175.638219243364
 31
0.0
  0
LINE
  5
C66C
330
C3B8
100
AcDbEntity
  8
AM_5
100
AcDbLine
 10
4677.173989120595
 20
4174.63821924337
 30
0.0
 11
4653.173989120594
 21
4174.63821924337
 31
0.0
  0
LINE
  5
C66D
330
C3B8
100
AcDbEntity
  8
AM_5
100
AcDbLine
 10
4655.173989120595
 20
4177.638219243365
 30
0.0
 11
4655.173989120595
 21
4179.638219243364
 31
0.0
  0
LINE
  5
C66E
330
C3B8
100
AcDbEntity
  8
AM_5
100
AcDbLine
 10
4655.173989120595
 20
4172.63821924337
 30
0.0
 11
4655.173989120595
 21
4163.571552576704
 31
0.0
  0
LINE
  5
C66F
330
C3B8
100
AcDbEntity
  8
AM_5
100
AcDbLine
 10
4655.173989120595
 20
4175.638219243364
 30
0.0
 11
4655.173989120595
 21
4174.63821924337
 31
0.0
  0
INSERT
  5
C670
330
C3B8
100
AcDbEntity
  8
AM_5
100
AcDbBlockReference
  2
_Dot
 10
4655.173989120595
 20
4175.638219243364
 30
0.0
 41
2.0
 42
2.0
 43
2.0
 50
270.0
  0
INSERT
  5
C671
330
C3B8
100
AcDbEntity
  8
AM_5
100
AcDbBlockReference
  2
_Dot
 10
4655.173989120595
 20
4174.63821924337
 30
0.0
 41
2.0
 42
2.0
 43
2.0
 50
90.0
  0
MTEXT
  5
C672
330
C3B8
100
AcDbEntity
  8
AM_5
 62
     2
100
AcDbMText
 10
4648.973989120594
 20
4167.104885910037
 30
0.0
 40
6.400000000000002
 41
0.0
 71
     5
 72
     1
  1
1
 11
0.0000000000000001
 21
1.0
 31
0.0
 73
     1
 44
1.0
1001
ACAD
1000
MTEXTBEGIN
1070
    73
1070
     1
1070
    44
1040
1.0
1070
    74
1070
     0
1000
MTEXTEND
  0
POINT
  5
C673
330
C3B8
100
AcDbEntity
  8
Defpoints
 62
     0
100
AcDbPoint
 10
4730.185871639144
 20
4175.638219243364
 30
0.0
  0
POINT
  5
C674
330
C3B8
100
AcDbEntity
  8
Defpoints
 62
     0
100
AcDbPoint
 10
4679.173989120595
 20
4174.63821924337
 30
0.0
  0
POINT
  5
C675
330
C3B8
100
AcDbEntity
  8
Defpoints
 62
     0
100
AcDbPoint
 10
4655.173989120595
 20
4174.63821924337
 30
0.0
  0
ENDBLK
  5
C3C5
330
C3B8
100
AcDbEntity
  8
0
100
AcDbBlockEnd
  0
BLOCK
  5
C3DC
330
C3D2
100
AcDbEntity
  8
0
100
AcDbBlockBegin
  2
*D25
 70
     1
 10
0.0
 20
0.0
 30
0.0
  3
*D25
  1

  0
LINE
  5
C676
330
C3D2
100
AcDbEntity
  8
AM_5
100
AcDbLine
 10
4677.173989120595
 20
4174.63821924337
 30
0.0
 11
4637.173989120716
 21
4174.63821924337
 31
0.0
  0
LINE
  5
C677
330
C3D2
100
AcDbEntity
  8
AM_5
100
AcDbLine
 10
4688.673989120595
 20
4221.638219243372
 30
0.0
 11
4637.173989120716
 21
4221.638219243372
 31
0.0
  0
LINE
  5
C678
330
C3D2
100
AcDbEntity
  8
AM_5
100
AcDbLine
 10
4639.173989120716
 20
4176.63821924337
 30
0.0
 11
4639.173989120716
 21
4219.638219243372
 31
0.0
  0
INSERT
  5
C679
330
C3D2
100
AcDbEntity
  8
AM_5
100
AcDbBlockReference
  2
_Dot
 10
4639.173989120716
 20
4174.63821924337
 30
0.0
 41
2.0
 42
2.0
 43
2.0
 50
270.0
  0
INSERT
  5
C67A
330
C3D2
100
AcDbEntity
  8
AM_5
100
AcDbBlockReference
  2
_Dot
 10
4639.173989120716
 20
4221.638219243372
 30
0.0
 41
2.0
 42
2.0
 43
2.0
 50
90.0
  0
MTEXT
  5
C67B
330
C3D2
100
AcDbEntity
  8
AM_5
 62
     2
100
AcDbMText
 10
4632.973989120715
 20
4198.138219243372
 30
0.0
 40
6.400000000000002
 41
0.0
 71
     5
 72
     1
  1
47
 11
0.0000000000000001
 21
1.0
 31
0.0
 73
     1
 44
1.0
1001
ACAD
1000
MTEXTBEGIN
1070
    73
1070
     1
1070
    44
1040
1.0
1070
    74
1070
     0
1000
MTEXTEND
  0
POINT
  5
C67C
330
C3D2
100
AcDbEntity
  8
Defpoints
 62
     0
100
AcDbPoint
 10
4679.173989120595
 20
4174.63821924337
 30
0.0
  0
POINT
  5
C67D
330
C3D2
100
AcDbEntity
  8
Defpoints
 62
     0
100
AcDbPoint
 10
4690.673989120595
 20
4221.638219243372
 30
0.0
  0
POINT
  5
C67E
330
C3D2
100
AcDbEntity
  8
Defpoints
 62
     0
100
AcDbPoint
 10
4639.173989120716
 20
4221.638219243372
 30
0.0
  0
ENDBLK
  5
C3DD
330
C3D2
100
AcDbEntity
  8
0
100
AcDbBlockEnd
  0
BLOCK
  5
C421
330
C417
100
AcDbEntity
  8
0
100
AcDbBlockBegin
  2
*D26
 70
     1
 10
0.0
 20
0.0
 30
0.0
  3
*D26
  1

  0
LINE
  5
C67F
330
C417
100
AcDbEntity
  8
AM_5
100
AcDbLine
 10
4704.173989120596
 20
4142.63821924337
 30
0.0
 11
4704.173989120596
 21
4123.638218233369
 31
0.0
  0
LINE
  5
C680
330
C417
100
AcDbEntity
  8
AM_5
100
AcDbLine
 10
4769.173989120594
 20
4153.63821924337
 30
0.0
 11
4769.173989120594
 21
4123.638218233369
 31
0.0
  0
LINE
  5
C681
330
C417
100
AcDbEntity
  8
AM_5
100
AcDbLine
 10
4706.173989120595
 20
4125.63821823337
 30
0.0
 11
4767.173989120594
 21
4125.63821823337
 31
0.0
  0
INSERT
  5
C682
330
C417
100
AcDbEntity
  8
AM_5
100
AcDbBlockReference
  2
_Dot
 10
4704.173989120596
 20
4125.63821823337
 30
0.0
 41
2.0
 42
2.0
 43
2.0
 50
180.0
  0
INSERT
  5
C683
330
C417
100
AcDbEntity
  8
AM_5
100
AcDbBlockReference
  2
_Dot
 10
4769.173989120594
 20
4125.63821823337
 30
0.0
 41
2.0
 42
2.0
 43
2.0
  0
MTEXT
  5
C684
330
C417
100
AcDbEntity
  8
AM_5
 62
     2
100
AcDbMText
 10
4736.673989120594
 20
4131.83821823337
 30
0.0
 40
6.400000000000002
 41
0.0
 71
     5
 72
     1
  1
65
 73
     1
 44
1.0
1001
ACAD
1000
MTEXTBEGIN
1070
    73
1070
     1
1070
    44
1040
1.0
1070
    74
1070
     0
1000
MTEXTEND
  0
POINT
  5
C685
330
C417
100
AcDbEntity
  8
Defpoints
 62
     0
100
AcDbPoint
 10
4704.173989120596
 20
4144.63821924337
 30
0.0
  0
POINT
  5
C686
330
C417
100
AcDbEntity
  8
Defpoints
 62
     0
100
AcDbPoint
 10
4769.173989120594
 20
4155.63821924337
 30
0.0
  0
POINT
  5
C687
330
C417
100
AcDbEntity
  8
Defpoints
 62
     0
100
AcDbPoint
 10
4769.173989120594
 20
4125.63821823337
 30
0.0
  0
ENDBLK
  5
C422
330
C417
100
AcDbEntity
  8
0
100
AcDbBlockEnd
  0
BLOCK
  5
C596
330
C58C
100
AcDbEntity
  8
0
100
AcDbBlockBegin
  2
*D41
 70
     1
 10
0.0
 20
0.0
 30
0.0
  3
*D41
  1

  0
LINE
  5
C688
330
C58C
100
AcDbEntity
  8
AM_5
100
AcDbLine
 10
5091.168616984688
 20
4046.937537527182
 30
0.0
 11
5076.668615198403
 21
4046.937537527182
 31
0.0
  0
LINE
  5
C689
330
C58C
100
AcDbEntity
  8
AM_5
100
AcDbLine
 10
5103.968616727102
 20
4086.937537263218
 30
0.0
 11
5076.668615198403
 21
4086.937537263218
 31
0.0
  0
LINE
  5
C68A
330
C58C
100
AcDbEntity
  8
AM_5
100
AcDbLine
 10
5078.668615198402
 20
4048.937537527182
 30
0.0
 11
5078.668615198402
 21
4084.937537263218
 31
0.0
  0
INSERT
  5
C68B
330
C58C
100
AcDbEntity
  8
AM_5
100
AcDbBlockReference
  2
_Dot
 10
5078.668615198402
 20
4046.937537527182
 30
0.0
 41
2.0
 42
2.0
 43
2.0
 50
270.0
  0
INSERT
  5
C68C
330
C58C
100
AcDbEntity
  8
AM_5
100
AcDbBlockReference
  2
_Dot
 10
5078.668615198402
 20
4086.937537263218
 30
0.0
 41
2.0
 42
2.0
 43
2.0
 50
90.0
  0
MTEXT
  5
C68D
330
C58C
100
AcDbEntity
  8
AM_5
 62
     2
100
AcDbMText
 10
5072.468615198402
 20
4066.9375373952
 30
0.0
 40
6.400000000000002
 41
0.0
 71
     5
 72
     1
  1
40
 11
0.0000000000000001
 21
1.0
 31
0.0
 73
     1
 44
1.0
1001
ACAD
1000
MTEXTBEGIN
1070
    73
1070
     1
1070
    44
1040
1.0
1070
    74
1070
     0
1000
MTEXTEND
  0
POINT
  5
C68E
330
C58C
100
AcDbEntity
  8
Defpoints
 62
     0
100
AcDbPoint
 10
5093.168616984688
 20
4046.937537527182
 30
0.0
  0
POINT
  5
C68F
330
C58C
100
AcDbEntity
  8
Defpoints
 62
     0
100
AcDbPoint
 10
5105.968616727103
 20
4086.937537263218
 30
0.0
  0
POINT
  5
C690
330
C58C
100
AcDbEntity
  8
Defpoints
 62
     0
100
AcDbPoint
 10
5078.668615198402
 20
4086.937537263218
 30
0.0
  0
ENDBLK
  5
C597
330
C58C
100
AcDbEntity
  8
0
100
AcDbBlockEnd
  0
BLOCK
  5
C5AC
330
C5A2
100
AcDbEntity
  8
0
100
AcDbBlockBegin
  2
*D42
 70
     1
 10
0.0
 20
0.0
 30
0.0
  3
*D42
  1

  0
LINE
  5
C691
330
C5A2
100
AcDbEntity
  8
AM_5
100
AcDbLine
 10
5115.168616527103
 20
4170.638219243372
 30
0.0
 11
5115.168616527103
 21
4135.638218233371
 31
0.0
  0
LINE
  5
C692
330
C5A2
100
AcDbEntity
  8
AM_5
100
AcDbLine
 10
5174.168616527104
 20
4153.638219243371
 30
0.0
 11
5174.168616527104
 21
4135.638218233371
 31
0.0
  0
LINE
  5
C693
330
C5A2
100
AcDbEntity
  8
AM_5
100
AcDbLine
 10
5117.168616527103
 20
4137.63821823337
 30
0.0
 11
5172.168616527104
 21
4137.63821823337
 31
0.0
  0
INSERT
  5
C694
330
C5A2
100
AcDbEntity
  8
AM_5
100
AcDbBlockReference
  2
_Dot
 10
5115.168616527103
 20
4137.63821823337
 30
0.0
 41
2.0
 42
2.0
 43
2.0
 50
180.0
  0
INSERT
  5
C695
330
C5A2
100
AcDbEntity
  8
AM_5
100
AcDbBlockReference
  2
_Dot
 10
5174.168616527104
 20
4137.63821823337
 30
0.0
 41
2.0
 42
2.0
 43
2.0
  0
MTEXT
  5
C696
330
C5A2
100
AcDbEntity
  8
AM_5
 62
     2
100
AcDbMText
 10
5144.668616527104
 20
4143.838218233371
 30
0.0
 40
6.400000000000002
 41
0.0
 71
     5
 72
     1
  1
59
 73
     1
 44
1.0
1001
ACAD
1000
MTEXTBEGIN
1070
    73
1070
     1
1070
    44
1040
1.0
1070
    74
1070
     0
1000
MTEXTEND
  0
POINT
  5
C697
330
C5A2
100
AcDbEntity
  8
Defpoints
 62
     0
100
AcDbPoint
 10
5115.168616527103
 20
4172.638219243372
 30
0.0
  0
POINT
  5
C698
330
C5A2
100
AcDbEntity
  8
Defpoints
 62
     0
100
AcDbPoint
 10
5174.168616527104
 20
4155.63821924337
 30
0.0
  0
POINT
  5
C699
330
C5A2
100
AcDbEntity
  8
Defpoints
 62
     0
100
AcDbPoint
 10
5174.168616527104
 20
4137.63821823337
 30
0.0
  0
ENDBLK
  5
C5AD
330
C5A2
100
AcDbEntity
  8
0
100
AcDbBlockEnd
  0
BLOCK
  5
C5C4
330
C5BA
100
AcDbEntity
  8
0
100
AcDbBlockBegin
  2
*D43
 70
     1
 10
0.0
 20
0.0
 30
0.0
  3
*D43
  1

  0
LINE
  5
C69A
330
C5BA
100
AcDbEntity
  8
AM_5
100
AcDbLine
 10
5091.168616527102
 20
4196.638219243371
 30
0.0
 11
5046.168616527102
 21
4196.638219243371
 31
0.0
  0
LINE
  5
C69B
330
C5BA
100
AcDbEntity
  8
AM_5
100
AcDbLine
 10
5070.168616527102
 20
4221.638219243372
 30
0.0
 11
5046.168616527102
 21
4221.638219243372
 31
0.0
  0
LINE
  5
C69C
330
C5BA
100
AcDbEntity
  8
AM_5
100
AcDbLine
 10
5048.168616527102
 20
4198.638219243372
 30
0.0
 11
5048.168616527102
 21
4219.638219243372
 31
0.0
  0
INSERT
  5
C69D
330
C5BA
100
AcDbEntity
  8
AM_5
100
AcDbBlockReference
  2
_Dot
 10
5048.168616527102
 20
4196.638219243371
 30
0.0
 41
2.0
 42
2.0
 43
2.0
 50
270.0
  0
INSERT
  5
C69E
330
C5BA
100
AcDbEntity
  8
AM_5
100
AcDbBlockReference
  2
_Dot
 10
5048.168616527102
 20
4221.638219243372
 30
0.0
 41
2.0
 42
2.0
 43
2.0
 50
90.0
  0
MTEXT
  5
C69F
330
C5BA
100
AcDbEntity
  8
AM_5
 62
     2
100
AcDbMText
 10
5041.968616527102
 20
4209.138219243373
 30
0.0
 40
6.400000000000002
 41
0.0
 71
     5
 72
     1
  1
25
 11
0.0000000000000001
 21
1.0
 31
0.0
 73
     1
 44
1.0
1001
ACAD
1000
MTEXTBEGIN
1070
    73
1070
     1
1070
    44
1040
1.0
1070
    74
1070
     0
1000
MTEXTEND
  0
POINT
  5
C6A0
330
C5BA
100
AcDbEntity
  8
Defpoints
 62
     0
100
AcDbPoint
 10
5093.168616527103
 20
4196.638219243371
 30
0.0
  0
POINT
  5
C6A1
330
C5BA
100
AcDbEntity
  8
Defpoints
 62
     0
100
AcDbPoint
 10
5072.168616527102
 20
4221.638219243372
 30
0.0
  0
POINT
  5
C6A2
330
C5BA
100
AcDbEntity
  8
Defpoints
 62
     0
100
AcDbPoint
 10
5048.168616527102
 20
4221.638219243372
 30
0.0
  0
ENDBLK
  5
C5C5
330
C5BA
100
AcDbEntity
  8
0
100
AcDbBlockEnd
  0
BLOCK
  5
C5F7
330
C5EB
100
AcDbEntity
  8
0
100
AcDbBlockBegin
  2
*D44
 70
     1
 10
0.0
 20
0.0
 30
0.0
  3
*D44
  1

  0
LINE
  5
C6A3
330
C5EB
100
AcDbEntity
  8
AM_5
100
AcDbLine
 10
5091.168616527102
 20
4196.638219243371
 30
0.0
 11
5046.168616527101
 21
4196.638219243371
 31
0.0
  0
LINE
  5
C6A4
330
C5EB
100
AcDbEntity
  8
AM_5
100
AcDbLine
 10
5100.668616527103
 20
4188.638219243371
 30
0.0
 11
5046.168616527101
 21
4188.638219243371
 31
0.0
  0
LINE
  5
C6A5
330
C5EB
100
AcDbEntity
  8
AM_5
100
AcDbLine
 10
5048.1686165271
 20
4198.638219243372
 30
0.0
 11
5048.1686165271
 21
4200.638219243372
 31
0.0
  0
LINE
  5
C6A6
330
C5EB
100
AcDbEntity
  8
AM_5
100
AcDbLine
 10
5048.1686165271
 20
4186.638219243372
 30
0.0
 11
5048.1686165271
 21
4175.651552576705
 31
0.0
  0
LINE
  5
C6A7
330
C5EB
100
AcDbEntity
  8
AM_5
100
AcDbLine
 10
5048.1686165271
 20
4196.638219243371
 30
0.0
 11
5048.1686165271
 21
4188.638219243371
 31
0.0
  0
INSERT
  5
C6A8
330
C5EB
100
AcDbEntity
  8
AM_5
100
AcDbBlockReference
  2
_Dot
 10
5048.1686165271
 20
4196.638219243371
 30
0.0
 41
2.0
 42
2.0
 43
2.0
 50
270.0
  0
INSERT
  5
C6A9
330
C5EB
100
AcDbEntity
  8
AM_5
100
AcDbBlockReference
  2
_Dot
 10
5048.1686165271
 20
4188.638219243371
 30
0.0
 41
2.0
 42
2.0
 43
2.0
 50
90.0
  0
MTEXT
  5
C6AA
330
C5EB
100
AcDbEntity
  8
AM_5
 62
     2
100
AcDbMText
 10
5041.9686165271
 20
4180.14488591004
 30
0.0
 40
6.400000000000002
 41
0.0
 71
     5
 72
     1
  1
8
 11
0.0000000000000001
 21
1.0
 31
0.0
 73
     1
 44
1.0
1001
ACAD
1000
MTEXTBEGIN
1070
    73
1070
     1
1070
    44
1040
1.0
1070
    74
1070
     0
1000
MTEXTEND
  0
POINT
  5
C6AB
330
C5EB
100
AcDbEntity
  8
Defpoints
 62
     0
100
AcDbPoint
 10
5093.168616527103
 20
4196.638219243371
 30
0.0
  0
POINT
  5
C6AC
330
C5EB
100
AcDbEntity
  8
Defpoints
 62
     0
100
AcDbPoint
 10
5102.668616527103
 20
4188.638219243371
 30
0.0
  0
POINT
  5
C6AD
330
C5EB
100
AcDbEntity
  8
Defpoints
 62
     0
100
AcDbPoint
 10
5048.1686165271
 20
4188.638219243371
 30
0.0
  0
ENDBLK
  5
C5F8
330
C5EB
100
AcDbEntity
  8
0
100
AcDbBlockEnd
  0
ENDSEC
  0
SECTION
  2
ENTITIES
  0
LINE
  5
B5D8
330
1F
100
AcDbEntity
  8
0
  6
CENTER
 62
     7
100
AcDbLine
 10
4013.926892047756
 20
3445.782932934113
 30
0.0
 11
4013.926892047756
 21
3281.485624934113
 31
0.0
  0
LINE
  5
B5D9
330
1F
100
AcDbEntity
  8
AM_0
100
AcDbLine
 10
3990.734250047756
 20
3395.828312934113
 30
0.0
 11
4013.926892047756
 21
3395.828312934113
 31
0.0
  0
LINE
  5
B5DA
330
1F
100
AcDbEntity
  8
0
  6
CENTER
 62
     7
100
AcDbLine
 10
3993.926892047756
 20
3304.164426934113
 30
0.0
 11
3993.926892047756
 21
3286.887112934113
 31
0.0
  0
LINE
  5
B5DB
330
1F
100
AcDbEntity
  8
0
  6
CENTER
 62
     7
100
AcDbLine
 10
3984.188976047755
 20
3295.828290934113
 30
0.0
 11
4002.816082047756
 21
3295.828290934113
 31
0.0
  0
LINE
  5
B5DC
330
1F
100
AcDbEntity
  8
0
  6
CENTER
 62
     7
100
AcDbLine
 10
4034.728894047755
 20
3310.828290934113
 30
0.0
 11
4053.895900647755
 21
3310.828290934113
 31
0.0
  0
LINE
  5
B5DD
330
1F
100
AcDbEntity
  8
0
  6
CENTER
 62
     7
100
AcDbLine
 10
4043.926891247756
 20
3318.963804934113
 30
0.0
 11
4043.926891247756
 21
3301.686490934113
 31
0.0
  0
LINE
  5
B5DE
330
1F
100
AcDbEntity
  8
0
  6
CENTER
 62
     7
100
AcDbLine
 10
4043.926891247756
 20
3379.164432934113
 30
0.0
 11
4043.926891247756
 21
3361.887112934113
 31
0.0
  0
LINE
  5
B5DF
330
1F
100
AcDbEntity
  8
0
  6
CENTER
 62
     7
100
AcDbLine
 10
4034.188976047756
 20
3370.828292934113
 30
0.0
 11
4052.816082047756
 21
3370.828292934113
 31
0.0
  0
LINE
  5
B5E0
330
1F
100
AcDbEntity
  8
0
  6
CENTER
 62
     7
100
AcDbLine
 10
3993.926892047756
 20
3394.164432934112
 30
0.0
 11
3993.926892047756
 21
3376.887112934114
 31
0.0
  0
LINE
  5
B5E1
330
1F
100
AcDbEntity
  8
0
  6
CENTER
 62
     7
100
AcDbLine
 10
3984.188976047755
 20
3385.828312934112
 30
0.0
 11
4002.816082047756
 21
3385.828312934112
 31
0.0
  0
LINE
  5
B5E2
330
1F
100
AcDbEntity
  8
AM_0
100
AcDbLine
 10
3990.734250047756
 20
3285.828290934113
 30
0.0
 11
4013.926892047756
 21
3285.828290934113
 31
0.0
  0
LINE
  5
B5E3
330
1F
100
AcDbEntity
  8
0
  6
CENTER
 62
     7
100
AcDbLine
 10
4003.364312047755
 20
3369.848732934114
 30
0.0
 11
4076.401954647755
 21
3169.179476934113
 31
0.0
  0
LINE
  5
B5E4
330
1F
100
AcDbEntity
  8
0
  6
CENTER
 62
     7
100
AcDbLine
 10
3933.948712047755
 20
3340.828292934113
 30
0.0
 11
4199.623028047755
 21
3340.828292934113
 31
0.0
  0
LINE
  5
B5E5
330
1F
100
AcDbEntity
  8
0
  6
CENTER
 62
     7
100
AcDbLine
 10
3982.296016047755
 20
3329.315592934113
 30
0.0
 11
4087.797654047754
 21
3367.715052934113
 31
0.0
  0
LINE
  5
B5E6
330
1F
100
AcDbEntity
  8
AM_11
100
AcDbLine
 10
4193.926892047755
 20
3331.226212934113
 30
0.0
 11
4193.926892047755
 21
3350.430372934113
 31
0.0
  0
LINE
  5
B5E7
330
1F
100
AcDbEntity
  8
AM_11
100
AcDbLine
 10
4190.530452047755
 20
3327.727752934113
 30
0.0
 11
4082.856114047755
 21
3324.540012934112
 31
0.0
  0
LINE
  5
B5E8
330
1F
100
AcDbEntity
  8
AM_11
100
AcDbLine
 10
4190.530468047755
 20
3353.928852934113
 30
0.0
 11
4081.083900047754
 21
3357.169052934113
 31
0.0
  0
LINE
  5
B5E9
330
1F
100
AcDbEntity
  8
AM_0
100
AcDbLine
 10
4066.467510647756
 20
3168.399510934114
 30
0.0
 11
4084.513528047756
 21
3174.967726934113
 31
0.0
  0
LINE
  5
B5EA
330
1F
100
AcDbEntity
  8
AM_0
100
AcDbLine
 10
4086.639364047755
 20
3179.355870934113
 30
0.0
 11
4045.011229447755
 21
3305.196484934113
 31
0.0
  0
LINE
  5
B5EB
330
1F
100
AcDbEntity
  8
AM_0
100
AcDbLine
 10
4062.018382567755
 20
3170.394562934113
 30
0.0
 11
4009.441642047755
 21
3302.542538934112
 31
0.0
  0
LINE
  5
B5EC
330
1F
100
AcDbEntity
  8
AM_0
100
AcDbLine
 10
3970.926892047756
 20
3353.328292934114
 30
0.0
 11
3970.926892047756
 21
3328.328292934113
 31
0.0
  0
LINE
  5
B5ED
330
1F
100
AcDbEntity
  8
AM_0
100
AcDbLine
 10
3970.926892047756
 20
3328.328292934113
 30
0.0
 11
3993.044270047755
 21
3319.169842934113
 31
0.0
  0
LINE
  5
B5EE
330
1F
100
AcDbEntity
  8
AM_0
100
AcDbLine
 10
3970.926892047756
 20
3353.328292934114
 30
0.0
 11
4003.214626047756
 21
3366.698112934113
 31
0.0
  0
LINE
  5
B5EF
330
1F
100
AcDbEntity
  8
AM_0
100
AcDbLine
 10
3938.926892047756
 20
3351.828292934114
 30
0.0
 11
3938.926892047756
 21
3329.828292934113
 31
0.0
  0
LINE
  5
B5F0
330
1F
100
AcDbEntity
  8
0
  6
CENTER
 62
     7
100
AcDbLine
 10
3823.926884047756
 20
3414.480932934114
 30
0.0
 11
3823.926884047756
 21
3281.485624934113
 31
0.0
  0
LINE
  5
B5F1
330
1F
100
AcDbEntity
  8
AM_0
100
AcDbLine
 10
3847.119524047755
 20
3395.828312934113
 30
0.0
 11
3823.926884047756
 21
3395.828312934113
 31
0.0
  0
LINE
  5
B5F2
330
1F
100
AcDbEntity
  8
0
  6
CENTER
 62
     7
100
AcDbLine
 10
3843.926884047755
 20
3304.164426934113
 30
0.0
 11
3843.926884047755
 21
3286.887112934113
 31
0.0
  0
LINE
  5
B5F3
330
1F
100
AcDbEntity
  8
0
  6
CENTER
 62
     7
100
AcDbLine
 10
3853.664804047756
 20
3295.828290934113
 30
0.0
 11
3835.037704047755
 21
3295.828290934113
 31
0.0
  0
LINE
  5
B5F4
330
1F
100
AcDbEntity
  8
0
  6
CENTER
 62
     7
100
AcDbLine
 10
3803.124884047756
 20
3310.828290934113
 30
0.0
 11
3783.957864047756
 21
3310.828290934113
 31
0.0
  0
LINE
  5
B5F5
330
1F
100
AcDbEntity
  8
0
  6
CENTER
 62
     7
100
AcDbLine
 10
3793.926884047755
 20
3318.963804934113
 30
0.0
 11
3793.926884047755
 21
3301.686490934113
 31
0.0
  0
LINE
  5
B5F6
330
1F
100
AcDbEntity
  8
0
  6
CENTER
 62
     7
100
AcDbLine
 10
3793.926884047755
 20
3379.164432934113
 30
0.0
 11
3793.926884047755
 21
3361.887112934113
 31
0.0
  0
LINE
  5
B5F7
330
1F
100
AcDbEntity
  8
0
  6
CENTER
 62
     7
100
AcDbLine
 10
3803.664804047756
 20
3370.828292934113
 30
0.0
 11
3785.037704047756
 21
3370.828292934113
 31
0.0
  0
LINE
  5
B5F8
330
1F
100
AcDbEntity
  8
0
  6
CENTER
 62
     7
100
AcDbLine
 10
3843.926884047755
 20
3394.164432934112
 30
0.0
 11
3843.926884047755
 21
3376.887112934114
 31
0.0
  0
LINE
  5
B5F9
330
1F
100
AcDbEntity
  8
0
  6
CENTER
 62
     7
100
AcDbLine
 10
3853.664804047756
 20
3385.828312934112
 30
0.0
 11
3835.037704047755
 21
3385.828312934112
 31
0.0
  0
LINE
  5
B5FA
330
1F
100
AcDbEntity
  8
AM_0
100
AcDbLine
 10
3847.119524047755
 20
3285.828290934113
 30
0.0
 11
3823.926884047756
 21
3285.828290934113
 31
0.0
  0
LINE
  5
B5FB
330
1F
100
AcDbEntity
  8
0
  6
CENTER
 62
     7
100
AcDbLine
 10
3834.489464047755
 20
3369.848752934113
 30
0.0
 11
3761.451824047756
 21
3169.179476934113
 31
0.0
  0
LINE
  5
B5FC
330
1F
100
AcDbEntity
  8
0
  6
CENTER
 62
     7
100
AcDbLine
 10
3871.853954047755
 20
3340.828292934113
 30
0.0
 11
3638.230764047756
 21
3340.828292934113
 31
0.0
  0
LINE
  5
B5FD
330
1F
100
AcDbEntity
  8
0
  6
CENTER
 62
     7
100
AcDbLine
 10
3855.557764047756
 20
3329.315592934113
 30
0.0
 11
3749.682144047755
 21
3367.851172934113
 31
0.0
  0
LINE
  5
B5FE
330
1F
100
AcDbEntity
  8
AM_11
100
AcDbLine
 10
3643.926884047755
 20
3331.226212934113
 30
0.0
 11
3643.926884047755
 21
3350.430372934113
 31
0.0
  0
LINE
  5
B5FF
330
1F
100
AcDbEntity
  8
AM_11
100
AcDbLine
 10
3647.323324047756
 20
3327.727732934113
 30
0.0
 11
3754.997664047755
 21
3324.540012934112
 31
0.0
  0
LINE
  5
B600
330
1F
100
AcDbEntity
  8
AM_11
100
AcDbLine
 10
3647.323324047756
 20
3353.928852934113
 30
0.0
 11
3756.769904047756
 21
3357.169052934113
 31
0.0
  0
LINE
  5
B601
330
1F
100
AcDbEntity
  8
AM_0
100
AcDbLine
 10
3771.386264047756
 20
3168.399514934113
 30
0.0
 11
3753.340244047756
 21
3174.967726934113
 31
0.0
  0
LINE
  5
B602
330
1F
100
AcDbEntity
  8
AM_0
100
AcDbLine
 10
3751.214424047756
 20
3179.355874934113
 30
0.0
 11
3792.842564047756
 21
3305.196484934113
 31
0.0
  0
LINE
  5
B603
330
1F
100
AcDbEntity
  8
AM_0
100
AcDbLine
 10
3775.835404047756
 20
3170.394562934113
 30
0.0
 11
3824.835184047755
 21
3293.552122934113
 31
0.0
  0
LINE
  5
B605
330
1F
100
AcDbEntity
  8
AM_0
100
AcDbLine
 10
3943.926892047755
 20
3212.444066934113
 30
0.0
 11
3943.926892047755
 21
3102.444070934113
 31
0.0
  0
LINE
  5
B606
330
1F
100
AcDbEntity
  8
AM_0
100
AcDbLine
 10
3950.926892047755
 20
3212.444066934113
 30
0.0
 11
3943.926892047755
 21
3212.444066934113
 31
0.0
  0
LINE
  5
B607
330
1F
100
AcDbEntity
  8
AM_0
100
AcDbLine
 10
3950.926892047755
 20
3102.444070934113
 30
0.0
 11
3943.926892047755
 21
3102.444070934113
 31
0.0
  0
LINE
  5
B608
330
1F
100
AcDbEntity
  8
AM_0
100
AcDbLine
 10
3953.926892047756
 20
3209.444066934113
 30
0.0
 11
3953.926892047756
 21
3105.444071134114
 31
0.0
  0
LINE
  5
B609
330
1F
100
AcDbEntity
  8
AM_0
100
AcDbLine
 10
3975.926892047755
 20
3182.444078934113
 30
0.0
 11
3975.926892047755
 21
2989.804212934113
 31
0.0
  0
LINE
  5
B60A
330
1F
100
AcDbEntity
  8
AM_0
100
AcDbLine
 10
3956.390232047755
 20
3185.996198934113
 30
0.0
 11
3975.926892047755
 21
3182.444082934113
 31
0.0
  0
LINE
  5
B60B
330
1F
100
AcDbEntity
  8
AM_0
100
AcDbLine
 10
3975.926884047755
 20
3132.444068134113
 30
0.0
 11
3956.390232047755
 21
3128.891949334113
 31
0.0
  0
LINE
  5
B60C
330
1F
100
AcDbEntity
  8
AM_0
100
AcDbLine
 10
3998.926892047757
 20
2984.804212934113
 30
0.0
 11
3980.926892047756
 21
2984.804212934113
 31
0.0
  0
LINE
  5
B60D
330
1F
100
AcDbEntity
  8
AM_0
100
AcDbLine
 10
4003.926892047756
 20
3180.444070934113
 30
0.0
 11
4003.926892047756
 21
2989.804212934113
 31
0.0
  0
LINE
  5
B60E
330
1F
100
AcDbEntity
  8
0
  6
CENTER
 62
     7
100
AcDbLine
 10
3989.926892047756
 20
3232.605032934112
 30
0.0
 11
3989.926892047756
 21
3138.991545934113
 31
0.0
  0
LINE
  5
B60F
330
1F
100
AcDbEntity
  8
AM_0
100
AcDbLine
 10
3998.926892047757
 20
3185.444070934113
 30
0.0
 11
3980.926892047756
 21
3185.444070934113
 31
0.0
  0
LINE
  5
B610
330
1F
100
AcDbEntity
  8
AM_0
100
AcDbLine
 10
3893.926892047755
 20
3212.444066934113
 30
0.0
 11
3893.926892047755
 21
3102.444070934113
 31
0.0
  0
LINE
  5
B611
330
1F
100
AcDbEntity
  8
AM_0
100
AcDbLine
 10
3886.926892047755
 20
3212.444066934113
 30
0.0
 11
3893.926892047755
 21
3212.444066934113
 31
0.0
  0
LINE
  5
B612
330
1F
100
AcDbEntity
  8
AM_0
100
AcDbLine
 10
3886.926892047755
 20
3102.444070934113
 30
0.0
 11
3893.926892047755
 21
3102.444070934113
 31
0.0
  0
LINE
  5
B613
330
1F
100
AcDbEntity
  8
AM_0
100
AcDbLine
 10
3883.926892047755
 20
3209.444066934113
 30
0.0
 11
3883.926892047755
 21
3105.444071134114
 31
0.0
  0
LINE
  5
B614
330
1F
100
AcDbEntity
  8
AM_0
100
AcDbLine
 10
3861.926892047755
 20
3182.444078934113
 30
0.0
 11
3861.926892047755
 21
2989.804212934113
 31
0.0
  0
LINE
  5
B615
330
1F
100
AcDbEntity
  8
AM_0
100
AcDbLine
 10
3881.463542047755
 20
3185.996198934113
 30
0.0
 11
3861.926892047755
 21
3182.444082934113
 31
0.0
  0
LINE
  5
B616
330
1F
100
AcDbEntity
  8
AM_0
100
AcDbLine
 10
3861.926892047755
 20
3132.444070134113
 30
0.0
 11
3881.463542047755
 21
3128.891951334113
 31
0.0
  0
LINE
  5
B617
330
1F
100
AcDbEntity
  8
AM_0
100
AcDbLine
 10
3838.926884047756
 20
2984.804212934113
 30
0.0
 11
3856.926884047755
 21
2984.804212934113
 31
0.0
  0
LINE
  5
B618
330
1F
100
AcDbEntity
  8
AM_0
100
AcDbLine
 10
3833.926884047755
 20
3180.444070934113
 30
0.0
 11
3833.926884047755
 21
2989.804212934113
 31
0.0
  0
LINE
  5
B619
330
1F
100
AcDbEntity
  8
AM_0
100
AcDbLine
 10
3838.926884047756
 20
3185.444070934113
 30
0.0
 11
3856.926884047755
 21
3185.444070934113
 31
0.0
  0
LINE
  5
B61A
330
1F
100
AcDbEntity
  8
AM_0
100
AcDbLine
 10
3943.926892047755
 20
3162.444070934113
 30
0.0
 11
3893.926892047755
 21
3162.444070934113
 31
0.0
  0
LINE
  5
B61B
330
1F
100
AcDbEntity
  8
AM_0
100
AcDbLine
 10
3943.926892047755
 20
3152.444070934113
 30
0.0
 11
3893.926892047755
 21
3152.444070934113
 31
0.0
  0
ARC
  5
B61E
330
1F
100
AcDbEntity
  8
AM_0
100
AcDbCircle
 10
4278.926884047755
 20
3340.828292934113
 30
0.0
 40
300.0
100
AcDbArc
 50
170.7374399999902
 51
176.9448300000014
  0
ARC
  5
B61F
330
1F
100
AcDbEntity
  8
AM_0
100
AcDbCircle
 10
3990.734250047756
 20
3387.828312934113
 30
0.0
 40
8.0
100
AcDbArc
 50
90.00000300001072
 51
170.7374399999902
  0
ARC
  5
B620
330
1F
100
AcDbEntity
  8
AM_0
100
AcDbCircle
 10
3990.734250047756
 20
3293.828290934113
 30
0.0
 40
8.0
100
AcDbArc
 50
189.2625600000098
 51
270.0
  0
ARC
  5
B621
330
1F
100
AcDbEntity
  8
AM_0
100
AcDbCircle
 10
4013.926892047756
 20
3340.828292934113
 30
0.0
 40
55.0
100
AcDbArc
 50
307.7617399999956
 51
90.00000300001072
  0
ARC
  5
B622
330
1F
100
AcDbEntity
  8
AM_0
100
AcDbCircle
 10
4043.926891247756
 20
3310.828290934113
 30
0.0
 40
3.1
100
AcDbArc
 50
275.407920000006
 51
112.4414500000131
  0
ARC
  5
B623
330
1F
100
AcDbEntity
  8
AM_0
100
AcDbCircle
 10
4043.926891247756
 20
3310.828290934113
 30
0.0
 40
6.199999799999997
100
AcDbArc
 50
281.4562099999864
 51
106.3795300000037
  0
CIRCLE
  5
B624
330
1F
100
AcDbEntity
  8
AM_0
100
AcDbCircle
 10
3993.926892047756
 20
3295.828290934113
 30
0.0
 40
6.199999799999997
  0
CIRCLE
  5
B625
330
1F
100
AcDbEntity
  8
AM_0
100
AcDbCircle
 10
3993.926892047756
 20
3295.828290934113
 30
0.0
 40
3.1
  0
CIRCLE
  5
B626
330
1F
100
AcDbEntity
  8
AM_0
100
AcDbCircle
 10
4043.926891247756
 20
3370.828292934113
 30
0.0
 40
6.199999799999997
  0
CIRCLE
  5
B627
330
1F
100
AcDbEntity
  8
AM_0
100
AcDbCircle
 10
4043.926891247756
 20
3370.828292934113
 30
0.0
 40
3.1
  0
CIRCLE
  5
B628
330
1F
100
AcDbEntity
  8
AM_0
100
AcDbCircle
 10
3993.926892047756
 20
3385.828312934112
 30
0.0
 40
6.199999799999997
  0
CIRCLE
  5
B629
330
1F
100
AcDbEntity
  8
AM_0
100
AcDbCircle
 10
3993.926892047756
 20
3385.828312934112
 30
0.0
 40
3.1
  0
ARC
  5
B62A
330
1F
100
AcDbEntity
  8
AM_0
100
AcDbCircle
 10
4013.926892047756
 20
3340.828292934113
 30
0.0
 40
28.0
100
AcDbArc
 50
353.2663799999994
 51
112.4936299999951
  0
ARC
  5
B62B
330
1F
100
AcDbEntity
  8
AM_11
100
AcDbCircle
 10
4190.426892047756
 20
3331.226212934113
 30
0.0
 40
3.5
100
AcDbArc
 50
271.6957600000053
 51
0.0000006594025708
  0
ARC
  5
B62C
330
1F
100
AcDbEntity
  8
AM_11
100
AcDbCircle
 10
4190.426892047756
 20
3350.430372934113
 30
0.0
 40
3.5
100
AcDbArc
 50
0.0000006594025708
 51
88.30423699999883
  0
ARC
  5
B62D
330
1F
100
AcDbEntity
  8
AM_0
100
AcDbCircle
 10
4116.216400047756
 20
3328.751192934113
 30
0.0
 40
75.0
100
AcDbArc
 50
173.2663799999994
 51
198.304239999994
  0
ARC
  5
B62E
330
1F
100
AcDbEntity
  8
0
  6
DASHED
 62
     7
100
AcDbCircle
 10
4043.926891247756
 20
3310.828290934113
 30
0.0
 40
6.199999799999997
100
AcDbArc
 50
106.3795300000037
 51
281.4561999999983
  0
ARC
  5
B62F
330
1F
100
AcDbEntity
  8
0
  6
DASHED
 62
     7
100
AcDbCircle
 10
4043.926891247756
 20
3310.828290934113
 30
0.0
 40
3.1
100
AcDbArc
 50
112.4414500000131
 51
275.4079299999899
  0
ARC
  5
B630
330
1F
100
AcDbEntity
  8
0
  6
DASHED
 62
     7
100
AcDbCircle
 10
4013.926892047756
 20
3340.828292934113
 30
0.0
 40
55.0
100
AcDbArc
 50
272.2382600000104
 51
307.7617399999956
  0
ARC
  5
B631
330
1F
100
AcDbEntity
  8
AM_0
100
AcDbCircle
 10
4013.926892047756
 20
3340.828292934113
 30
0.0
 40
55.0
100
AcDbArc
 50
270.0
 51
272.2382600000104
  0
ARC
  5
B632
330
1F
100
AcDbEntity
  8
AM_0
100
AcDbCircle
 10
4065.270440647756
 20
3171.688436934113
 30
0.0
 40
3.5
100
AcDbArc
 50
201.6957599999993
 51
289.9999999999892
  0
ARC
  5
B633
330
1F
100
AcDbEntity
  8
AM_0
100
AcDbCircle
 10
4083.316458047756
 20
3178.256650934113
 30
0.0
 40
3.5
100
AcDbArc
 50
289.9999999999892
 51
18.30423899999834
  0
ARC
  5
B634
330
1F
100
AcDbEntity
  8
AM_0
100
AcDbCircle
 10
3981.566844047756
 20
3291.452192934113
 30
0.0
 40
30.0
100
AcDbArc
 50
21.69576299999934
 51
67.50636600001159
  0
ARC
  5
B635
330
1F
100
AcDbEntity
  8
0
  6
DASHED
 62
     7
100
AcDbCircle
 10
4278.926884047755
 20
3340.828292934113
 30
0.0
 40
300.0
100
AcDbArc
 50
176.9448300000014
 51
183.0551600000113
  0
ARC
  5
B636
330
1F
100
AcDbEntity
  8
AM_0
100
AcDbCircle
 10
4278.926884047755
 20
3340.828292934113
 30
0.0
 40
300.0
100
AcDbArc
 50
183.0551699999985
 51
189.2625600000098
  0
ARC
  5
B637
330
1F
100
AcDbEntity
  8
AM_0
100
AcDbCircle
 10
3954.926892047755
 20
3288.828290934112
 30
0.0
 40
65.0
100
AcDbArc
 50
75.74996700000891
 51
104.2500300000132
  0
ARC
  5
B638
330
1F
100
AcDbEntity
  8
AM_0
100
AcDbCircle
 10
3954.926892047755
 20
3392.828312934113
 30
0.0
 40
65.0
100
AcDbArc
 50
255.7499699999868
 51
284.2500300000132
  0
ARC
  5
B639
330
1F
100
AcDbEntity
  8
AM_0
100
AcDbCircle
 10
3558.926884047755
 20
3340.828292934113
 30
0.0
 40
300.0
100
AcDbArc
 50
350.7374399999902
 51
9.262564699987748
  0
ARC
  5
B63A
330
1F
100
AcDbEntity
  8
AM_0
100
AcDbCircle
 10
3847.119524047755
 20
3387.828312934113
 30
0.0
 40
8.0
100
AcDbArc
 50
9.262564699987748
 51
89.99999599999439
  0
ARC
  5
B63B
330
1F
100
AcDbEntity
  8
AM_0
100
AcDbCircle
 10
3847.119524047755
 20
3293.828290934113
 30
0.0
 40
8.0
100
AcDbArc
 50
270.0
 51
350.7374399999902
  0
ARC
  5
B63C
330
1F
100
AcDbEntity
  8
AM_0
100
AcDbCircle
 10
3823.926884047756
 20
3340.828292934113
 30
0.0
 40
55.0
100
AcDbArc
 50
90.00000300001072
 51
232.2382600000044
  0
ARC
  5
B63D
330
1F
100
AcDbEntity
  8
AM_0
100
AcDbCircle
 10
3793.926884047755
 20
3310.828290934113
 30
0.0
 40
3.1
100
AcDbArc
 50
67.55855500000656
 51
264.592079999994
  0
ARC
  5
B63E
330
1F
100
AcDbEntity
  8
AM_0
100
AcDbCircle
 10
3793.926884047755
 20
3310.828290934113
 30
0.0
 40
6.199999799999997
100
AcDbArc
 50
73.62046400000039
 51
258.5438099999925
  0
CIRCLE
  5
B63F
330
1F
100
AcDbEntity
  8
AM_0
100
AcDbCircle
 10
3843.926884047755
 20
3295.828290934113
 30
0.0
 40
6.199999799999997
  0
CIRCLE
  5
B640
330
1F
100
AcDbEntity
  8
AM_0
100
AcDbCircle
 10
3843.926884047755
 20
3295.828290934113
 30
0.0
 40
3.1
  0
CIRCLE
  5
B641
330
1F
100
AcDbEntity
  8
AM_0
100
AcDbCircle
 10
3793.926884047755
 20
3370.828292934113
 30
0.0
 40
6.199999799999997
  0
CIRCLE
  5
B642
330
1F
100
AcDbEntity
  8
AM_0
100
AcDbCircle
 10
3793.926884047755
 20
3370.828292934113
 30
0.0
 40
3.1
  0
CIRCLE
  5
B643
330
1F
100
AcDbEntity
  8
AM_0
100
AcDbCircle
 10
3843.926884047755
 20
3385.828312934112
 30
0.0
 40
6.199999799999997
  0
CIRCLE
  5
B644
330
1F
100
AcDbEntity
  8
AM_0
100
AcDbCircle
 10
3843.926884047755
 20
3385.828312934112
 30
0.0
 40
3.1
  0
ARC
  5
B645
330
1F
100
AcDbEntity
  8
AM_0
100
AcDbCircle
 10
3823.926884047756
 20
3340.828292934113
 30
0.0
 40
28.0
100
AcDbArc
 50
313.266379999991
 51
186.7336200000006
  0
ARC
  5
B646
330
1F
100
AcDbEntity
  8
AM_11
100
AcDbCircle
 10
3647.426884047756
 20
3331.226212934113
 30
0.0
 40
3.5
100
AcDbArc
 50
180.000010000001
 51
268.3042299999917
  0
ARC
  5
B647
330
1F
100
AcDbEntity
  8
AM_11
100
AcDbCircle
 10
3647.426884047756
 20
3350.430372934113
 30
0.0
 40
3.5
100
AcDbArc
 50
91.69576099999531
 51
180.000010000001
  0
ARC
  5
B648
330
1F
100
AcDbEntity
  8
AM_0
100
AcDbCircle
 10
3894.522182047756
 20
3265.826260934113
 30
0.0
 40
75.0
100
AcDbArc
 50
133.266379999991
 51
158.3042400000007
  0
ARC
  5
B649
330
1F
100
AcDbEntity
  8
AM_0
100
AcDbCircle
 10
3721.637364047757
 20
3328.751192934113
 30
0.0
 40
75.0
100
AcDbArc
 50
341.695760000006
 51
6.733617600004225
  0
ARC
  5
B64A
330
1F
100
AcDbEntity
  8
0
  6
DASHED
 62
     7
100
AcDbCircle
 10
3793.926884047755
 20
3310.828290934113
 30
0.0
 40
6.199999799999997
100
AcDbArc
 50
258.5438000000017
 51
73.62046400000039
  0
ARC
  5
B64B
330
1F
100
AcDbEntity
  8
0
  6
DASHED
 62
     7
100
AcDbCircle
 10
3793.926884047755
 20
3310.828290934113
 30
0.0
 40
3.1
100
AcDbArc
 50
264.592090000004
 51
67.55855500000656
  0
ARC
  5
B64C
330
1F
100
AcDbEntity
  8
0
  6
DASHED
 62
     7
100
AcDbCircle
 10
3823.926884047756
 20
3340.828292934113
 30
0.0
 40
55.0
100
AcDbArc
 50
232.2382500000034
 51
267.7617399999896
  0
ARC
  5
B64D
330
1F
100
AcDbEntity
  8
0
  6
Continuous
 62
     7
100
AcDbCircle
 10
3823.926884047756
 20
3340.828292934113
 30
0.0
 40
55.0
100
AcDbArc
 50
267.7617399999896
 51
270.0
  0
ARC
  5
B64E
330
1F
100
AcDbEntity
  8
AM_0
100
AcDbCircle
 10
3772.583364047755
 20
3171.688436934113
 30
0.0
 40
3.5
100
AcDbArc
 50
250.0000000000108
 51
338.3042400000007
  0
ARC
  5
B64F
330
1F
100
AcDbEntity
  8
AM_0
100
AcDbCircle
 10
3754.537344047756
 20
3178.256650934113
 30
0.0
 40
3.5
100
AcDbArc
 50
161.6957499999912
 51
250.0000000000108
  0
ARC
  5
B650
330
1F
100
AcDbEntity
  8
AM_0
100
AcDbCircle
 10
3950.926892047755
 20
3209.444066934113
 30
0.0
 40
3.0
100
AcDbArc
 50
0.0000025044687019
 51
90.00000300001072
  0
ARC
  5
B651
330
1F
100
AcDbEntity
  8
AM_0
100
AcDbCircle
 10
3950.926892047755
 20
3105.444071134114
 30
0.0
 40
3.0
100
AcDbArc
 50
270.0
 51
0.0000025044687019
  0
ARC
  5
B652
330
1F
100
AcDbEntity
  8
AM_0
100
AcDbCircle
 10
3956.926892047756
 20
3188.947790934113
 30
0.0
 40
3.0
100
AcDbArc
 50
179.999989999999
 51
259.6951600000139
  0
ARC
  5
B653
330
1F
100
AcDbEntity
  8
AM_0
100
AcDbCircle
 10
3956.926892047756
 20
3125.940347934113
 30
0.0
 40
3.0
100
AcDbArc
 50
100.3048500000085
 51
179.999989999999
  0
ARC
  5
B654
330
1F
100
AcDbEntity
  8
AM_0
100
AcDbCircle
 10
3998.926892047757
 20
3180.444070934113
 30
0.0
 40
5.0
100
AcDbArc
 50
0.0000025044687019
 51
90.00000300001072
  0
ARC
  5
B655
330
1F
100
AcDbEntity
  8
AM_0
100
AcDbCircle
 10
3980.926892047756
 20
3180.444070934113
 30
0.0
 40
5.0
100
AcDbArc
 50
89.99999599999439
 51
179.999989999999
  0
ARC
  5
B656
330
1F
100
AcDbEntity
  8
AM_0
100
AcDbCircle
 10
3998.926892047757
 20
2989.804212934113
 30
0.0
 40
5.0
100
AcDbArc
 50
270.0
 51
0.0000025044687019
  0
ARC
  5
B657
330
1F
100
AcDbEntity
  8
AM_0
100
AcDbCircle
 10
3980.926892047756
 20
2989.804212934113
 30
0.0
 40
5.0
100
AcDbArc
 50
179.999989999999
 51
270.0
  0
CIRCLE
  5
B658
330
1F
100
AcDbEntity
  8
AM_0
100
AcDbCircle
 10
3989.926892047756
 20
3157.444070934113
 30
0.0
 40
13.0
  0
CIRCLE
  5
B659
330
1F
100
AcDbEntity
  8
AM_0
100
AcDbCircle
 10
3989.926892047756
 20
3157.444070934113
 30
0.0
 40
11.0
  0
ARC
  5
B65A
330
1F
100
AcDbEntity
  8
AM_0
100
AcDbCircle
 10
3886.926892047755
 20
3209.444066934113
 30
0.0
 40
3.0
100
AcDbArc
 50
89.99999599999439
 51
179.999989999999
  0
ARC
  5
B65B
330
1F
100
AcDbEntity
  8
AM_0
100
AcDbCircle
 10
3886.926892047755
 20
3105.444071134114
 30
0.0
 40
3.0
100
AcDbArc
 50
179.999989999999
 51
270.0
  0
ARC
  5
B65C
330
1F
100
AcDbEntity
  8
AM_0
100
AcDbCircle
 10
3880.926892047756
 20
3188.947790934113
 30
0.0
 40
3.0
100
AcDbArc
 50
280.3048500000085
 51
0.0000025044687019
  0
ARC
  5
B65D
330
1F
100
AcDbEntity
  8
AM_0
100
AcDbCircle
 10
3880.926892047756
 20
3125.940347934113
 30
0.0
 40
3.0
100
AcDbArc
 50
0.0000025044687019
 51
79.69514600000441
  0
ARC
  5
B65E
330
1F
100
AcDbEntity
  8
AM_0
100
AcDbCircle
 10
3838.926884047756
 20
3180.444070934113
 30
0.0
 40
5.0
100
AcDbArc
 50
89.99999599999439
 51
179.999989999999
  0
ARC
  5
B65F
330
1F
100
AcDbEntity
  8
AM_0
100
AcDbCircle
 10
3856.926884047755
 20
3180.444070934113
 30
0.0
 40
5.0
100
AcDbArc
 50
0.0000025044687019
 51
90.00000300001072
  0
ARC
  5
B660
330
1F
100
AcDbEntity
  8
AM_0
100
AcDbCircle
 10
3838.926884047756
 20
2989.804212934113
 30
0.0
 40
5.0
100
AcDbArc
 50
179.999989999999
 51
270.0
  0
ARC
  5
B661
330
1F
100
AcDbEntity
  8
AM_0
100
AcDbCircle
 10
3856.926884047755
 20
2989.804212934113
 30
0.0
 40
5.0
100
AcDbArc
 50
270.0
 51
0.0000025044687019
  0
CIRCLE
  5
B662
330
1F
100
AcDbEntity
  8
0
  6
Continuous
 62
     7
100
AcDbCircle
 10
3995.476894047757
 20
3298.512968934113
 30
0.0
 40
0.8000000200000002
  0
CIRCLE
  5
B663
330
1F
100
AcDbEntity
  8
0
  6
Continuous
 62
     7
100
AcDbCircle
 10
3992.376888047756
 20
3293.143614934113
 30
0.0
 40
0.8000000200000002
  0
CIRCLE
  5
B664
330
1F
100
AcDbEntity
  8
0
  6
Continuous
 62
     7
100
AcDbCircle
 10
3990.826892047756
 20
3290.458936934113
 30
0.0
 40
0.8000000200000002
  0
CIRCLE
  5
B665
330
1F
100
AcDbEntity
  8
0
  6
Continuous
 62
     7
100
AcDbCircle
 10
3842.376884047757
 20
3298.512968934113
 30
0.0
 40
0.8000000200000002
  0
CIRCLE
  5
B666
330
1F
100
AcDbEntity
  8
0
  6
Continuous
 62
     7
100
AcDbCircle
 10
3845.476904047755
 20
3293.143614934113
 30
0.0
 40
0.8000000200000002
  0
CIRCLE
  5
B667
330
1F
100
AcDbEntity
  8
0
  6
Continuous
 62
     7
100
AcDbCircle
 10
3847.026904047755
 20
3290.458936934113
 30
0.0
 40
0.8000000200000002
  0
TEXT
  5
B6AD
330
1F
100
AcDbEntity
  8
0
  6
Continuous
 62
     7
100
AcDbText
 10
4064.492220047755
 20
3293.956252934113
 30
0.0
 40
6.4
  1
70%%D
 50
54.40000099999917
 41
1.085714399999998
100
AcDbText
  0
ARC
  5
B6AE
330
1F
100
AcDbEntity
  8
0
  6
Continuous
 62
     7
100
AcDbCircle
 10
4013.926892047756
 20
3340.828292934113
 30
0.0
 40
70.0
100
AcDbArc
 50
289.9999999999892
 51
324.9999999999845
  0
CIRCLE
  5
B6AF
330
1F
100
AcDbEntity
  8
0
  6
Continuous
 62
     7
100
AcDbCircle
 10
4037.868302047756
 20
3275.049802934113
 30
0.0
 40
0.6
  0
ARC
  5
B6B0
330
1F
100
AcDbEntity
  8
0
  6
Continuous
 62
     7
100
AcDbCircle
 10
4013.926892047756
 20
3340.828292934113
 30
0.0
 40
70.0
100
AcDbArc
 50
324.9999999999845
 51
0.0
  0
CIRCLE
  5
B6B1
330
1F
100
AcDbEntity
  8
0
  6
Continuous
 62
     7
100
AcDbCircle
 10
4083.926892047756
 20
3340.828292934113
 30
0.0
 40
0.6
  0
CIRCLE
  5
B6DE
330
1F
100
AcDbEntity
  8
0
  6
Continuous
 62
     7
100
AcDbCircle
 10
3989.926892047756
 20
3227.444066934114
 30
0.0
 40
0.6
  0
LINE
  5
B70A
330
1F
100
AcDbEntity
  8
0
  6
Continuous
 62
     7
100
AcDbLine
 10
3997.026898047755
 20
3301.197644934113
 30
0.0
 11
3970.832890047756
 21
3255.828290934112
 31
0.0
  0
LINE
  5
B70B
330
1F
100
AcDbEntity
  8
0
  6
Continuous
 62
     7
100
AcDbLine
 10
3970.832890047756
 20
3255.828290934112
 30
0.0
 11
3876.201930047756
 21
3255.828290934112
 31
0.0
  0
CIRCLE
  5
B70C
330
1F
100
AcDbEntity
  8
0
  6
Continuous
 62
     7
100
AcDbCircle
 10
3997.026898047755
 20
3301.197644934113
 30
0.0
 40
0.6
  0
TEXT
  5
B70D
330
1F
100
AcDbEntity
  8
0
  6
Continuous
 62
     7
100
AcDbText
 10
3878.030504047755
 20
3257.428290934113
 30
0.0
 40
6.4
  1
４－%%C６．２ｘ%%C１２．４サラ
 41
0.8634387799999998
100
AcDbText
  0
LINE
  5
B70E
330
1F
100
AcDbEntity
  8
0
  6
Continuous
 62
     7
100
AcDbLine
 10
3840.826904047755
 20
3301.197644934113
 30
0.0
 11
3858.360644047755
 21
3270.828290934112
 31
0.0
  0
LINE
  5
B70F
330
1F
100
AcDbEntity
  8
0
  6
Continuous
 62
     7
100
AcDbLine
 10
3858.360644047755
 20
3270.828290934112
 30
0.0
 11
3951.365978047756
 21
3270.828290934112
 31
0.0
  0
CIRCLE
  5
B710
330
1F
100
AcDbEntity
  8
0
  6
Continuous
 62
     7
100
AcDbCircle
 10
3840.826904047755
 20
3301.197644934113
 30
0.0
 40
0.6
  0
TEXT
  5
B711
330
1F
100
AcDbEntity
  8
0
  6
Continuous
 62
     7
100
AcDbText
 10
3860.851690047756
 20
3272.428290934113
 30
0.0
 40
6.4
  1
４－%%C６．２ｘ%%C１２．４サラ
 41
0.8634387799999998
100
AcDbText
  0
LINE
  5
B7C6
330
1F
100
AcDbEntity
  8
AM_11
100
AcDbLine
 10
4102.42729970956
 20
3259.988921260567
 30
0.0
 11
4175.64360687712
 21
3259.988921260567
 31
0.0
  0
LINE
  5
B7CB
330
1F
100
AcDbEntity
  8
AM_7
100
AcDbLine
 10
3827.926884047755
 20
3157.444070934113
 30
0.0
 11
4009.926892047756
 21
3157.444070934113
 31
0.0
1001
GENIUS_GENOBJ-N-CEN_13
1002
{
1000
OWNER
1000
GEN
1002
}
1001
GENIUS_GENODEF_13
1002
{
1000
HIER
1070
     0
1002
}
1002
{
1000
MANEDIT
1070
     0
1002
}
1002
{
1000
NOSEL
1070
     0
1002
}
1002
{
1000
BEHIND
1070
     0
1002
}
1002
{
1000
OTHER
1070
     0
1002
}
1002
{
1000
REACTOR
1002
}
1001
GENIUS_GENCEN_19
1002
{
1040
3.0
1002
}
  0
LINE
  5
B7EA
330
1F
100
AcDbEntity
  8
AM_0
100
AcDbLine
 10
4634.969782547738
 20
3395.828312934113
 30
0.0
 11
4658.162424547739
 21
3395.828312934113
 31
0.0
  0
LINE
  5
B7F3
330
1F
100
AcDbEntity
  8
AM_0
  6
陰線1
370
    13
100
AcDbLine
 10
4634.969782547738
 20
3285.828290934113
 30
0.0
 11
4651.762749386729
 21
3285.828290934113
 31
0.0
  0
LINE
  5
B7FA
330
1F
100
AcDbEntity
  8
AM_0
100
AcDbLine
 10
4838.162431079799
 20
3331.226204118373
 30
0.0
 11
4838.162428430475
 21
3350.430375681441
 31
0.0
  0
LINE
  5
B7FB
330
1F
100
AcDbEntity
  8
AM_0
100
AcDbLine
 10
4834.766000628138
 20
3353.928841723455
 30
0.0
 11
4702.276843694898
 21
3357.851215659224
 31
0.0
  0
LINE
  5
B7FC
330
1F
100
AcDbEntity
  8
AM_0
100
AcDbLine
 10
4834.766004013719
 20
3327.727739263647
 30
0.0
 11
4692.605221786479
 21
3323.519033863744
 31
0.0
  0
LINE
  5
B7FD
330
1F
100
AcDbEntity
  8
AM_0
100
AcDbLine
 10
4631.709403196477
 20
3304.696758359312
 30
0.0
 11
4655.201718716124
 21
3296.146254776169
 31
0.0
  0
LINE
  5
B7FE
330
1F
100
AcDbEntity
  8
AM_0
100
AcDbLine
 10
4655.201718716124
 20
3296.146254776169
 30
0.0
 11
4671.372435392509
 21
3313.797417292263
 31
0.0
  0
LINE
  5
B7FF
330
1F
100
AcDbEntity
  8
AM_0
100
AcDbLine
 10
4631.709403196477
 20
3304.696758359312
 30
0.0
 11
4630.188937411582
 21
3339.61005149365
 31
0.0
  0
LINE
  5
B800
330
1F
100
AcDbEntity
  8
AM_0
100
AcDbLine
 10
4622.174297541235
 20
3274.113564279176
 30
0.0
 11
4642.847535198524
 21
3266.589121126012
 31
0.0
  0
LINE
  5
B801
330
1F
100
AcDbEntity
  8
0
  6
CENTER
 62
     7
100
AcDbLine
 10
4468.162416547738
 20
3414.480932934114
 30
0.0
 11
4468.162416547738
 21
3281.485624934113
 31
0.0
  0
LINE
  5
B802
330
1F
100
AcDbEntity
  8
AM_0
100
AcDbLine
 10
4491.355056547739
 20
3395.828312934113
 30
0.0
 11
4468.162416547738
 21
3395.828312934113
 31
0.0
  0
LINE
  5
B803
330
1F
100
AcDbEntity
  8
0
  6
CENTER
 62
     7
100
AcDbLine
 10
4488.162416547737
 20
3304.164426934113
 30
0.0
 11
4488.162416547737
 21
3286.887112934113
 31
0.0
  0
LINE
  5
B804
330
1F
100
AcDbEntity
  8
0
  6
CENTER
 62
     7
100
AcDbLine
 10
4497.900336547737
 20
3295.828290934113
 30
0.0
 11
4479.273236547737
 21
3295.828290934113
 31
0.0
  0
LINE
  5
B805
330
1F
100
AcDbEntity
  8
0
  6
CENTER
 62
     7
100
AcDbLine
 10
4447.360416547738
 20
3310.828290934113
 30
0.0
 11
4428.193396547737
 21
3310.828290934113
 31
0.0
  0
LINE
  5
B806
330
1F
100
AcDbEntity
  8
0
  6
CENTER
 62
     7
100
AcDbLine
 10
4438.162416547737
 20
3318.963804934113
 30
0.0
 11
4438.162416547737
 21
3301.686490934113
 31
0.0
  0
LINE
  5
B807
330
1F
100
AcDbEntity
  8
0
  6
CENTER
 62
     7
100
AcDbLine
 10
4438.162416547737
 20
3379.164432934113
 30
0.0
 11
4438.162416547737
 21
3361.887112934113
 31
0.0
  0
LINE
  5
B808
330
1F
100
AcDbEntity
  8
0
  6
CENTER
 62
     7
100
AcDbLine
 10
4447.900336547737
 20
3370.828292934113
 30
0.0
 11
4429.273236547738
 21
3370.828292934113
 31
0.0
  0
LINE
  5
B809
330
1F
100
AcDbEntity
  8
0
  6
CENTER
 62
     7
100
AcDbLine
 10
4488.162416547737
 20
3394.164432934112
 30
0.0
 11
4488.162416547737
 21
3376.887112934114
 31
0.0
  0
LINE
  5
B80A
330
1F
100
AcDbEntity
  8
0
  6
CENTER
 62
     7
100
AcDbLine
 10
4497.900336547737
 20
3385.828312934112
 30
0.0
 11
4479.273236547737
 21
3385.828312934112
 31
0.0
  0
LINE
  5
B80B
330
1F
100
AcDbEntity
  8
AM_0
100
AcDbLine
 10
4491.355056547739
 20
3285.828290934113
 30
0.0
 11
4468.162416547738
 21
3285.828290934113
 31
0.0
  0
LINE
  5
B80C
330
1F
100
AcDbEntity
  8
0
  6
CENTER
 62
     7
100
AcDbLine
 10
4478.724996547738
 20
3369.848752934113
 30
0.0
 11
4405.687356547737
 21
3169.179476934113
 31
0.0
  0
LINE
  5
B80D
330
1F
100
AcDbEntity
  8
0
  6
CENTER
 62
     7
100
AcDbLine
 10
4516.089486547737
 20
3340.828292934113
 30
0.0
 11
4282.466296547737
 21
3340.828292934113
 31
0.0
  0
LINE
  5
B80E
330
1F
100
AcDbEntity
  8
0
  6
CENTER
 62
     7
100
AcDbLine
 10
4499.793296547738
 20
3329.315592934113
 30
0.0
 11
4393.917676547737
 21
3367.851172934113
 31
0.0
  0
LINE
  5
B80F
330
1F
100
AcDbEntity
  8
AM_11
100
AcDbLine
 10
4288.162416547737
 20
3331.226212934113
 30
0.0
 11
4288.162416547737
 21
3350.430372934113
 31
0.0
  0
LINE
  5
B810
330
1F
100
AcDbEntity
  8
AM_11
100
AcDbLine
 10
4291.558856547738
 20
3327.727732934113
 30
0.0
 11
4399.233196547737
 21
3324.540012934112
 31
0.0
  0
LINE
  5
B811
330
1F
100
AcDbEntity
  8
AM_11
100
AcDbLine
 10
4291.558856547738
 20
3353.928852934113
 30
0.0
 11
4401.005436547738
 21
3357.169052934113
 31
0.0
  0
LINE
  5
B812
330
1F
100
AcDbEntity
  8
AM_0
100
AcDbLine
 10
4415.621796547738
 20
3168.399514934113
 30
0.0
 11
4397.575776547738
 21
3174.967726934113
 31
0.0
  0
LINE
  5
B813
330
1F
100
AcDbEntity
  8
AM_0
100
AcDbLine
 10
4395.449956547738
 20
3179.355874934113
 30
0.0
 11
4437.078096547738
 21
3305.196484934113
 31
0.0
  0
LINE
  5
B814
330
1F
100
AcDbEntity
  8
AM_0
100
AcDbLine
 10
4420.070936547738
 20
3170.394562934113
 30
0.0
 11
4469.070716547737
 21
3293.552122934113
 31
0.0
  0
LINE
  5
B815
330
1F
100
AcDbEntity
  8
AM_0
100
AcDbLine
 10
4588.162424547737
 20
3212.444066934113
 30
0.0
 11
4588.162424547737
 21
3102.444070934113
 31
0.0
  0
LINE
  5
B816
330
1F
100
AcDbEntity
  8
AM_0
100
AcDbLine
 10
4595.162424547736
 20
3212.444066934113
 30
0.0
 11
4588.162424547737
 21
3212.444066934113
 31
0.0
  0
LINE
  5
B817
330
1F
100
AcDbEntity
  8
AM_0
100
AcDbLine
 10
4595.162424547736
 20
3102.444070934113
 30
0.0
 11
4588.162424547737
 21
3102.444070934113
 31
0.0
  0
LINE
  5
B818
330
1F
100
AcDbEntity
  8
AM_0
100
AcDbLine
 10
4598.162424547736
 20
3209.444066934113
 30
0.0
 11
4598.162424547736
 21
3105.444071134114
 31
0.0
  0
LINE
  5
B819
330
1F
100
AcDbEntity
  8
AM_0
100
AcDbLine
 10
4620.162424547737
 20
3182.444078934113
 30
0.0
 11
4620.162424547737
 21
2989.804212934113
 31
0.0
  0
LINE
  5
B81A
330
1F
100
AcDbEntity
  8
AM_0
100
AcDbLine
 10
4600.625764547738
 20
3185.996198934113
 30
0.0
 11
4620.162424547737
 21
3182.444082934113
 31
0.0
  0
LINE
  5
B81B
330
1F
100
AcDbEntity
  8
AM_0
100
AcDbLine
 10
4620.162416547738
 20
3132.444068134113
 30
0.0
 11
4600.625764547738
 21
3128.891949334113
 31
0.0
  0
LINE
  5
B81C
330
1F
100
AcDbEntity
  8
AM_0
100
AcDbLine
 10
4643.162424547738
 20
2984.804212934113
 30
0.0
 11
4625.162424547737
 21
2984.804212934113
 31
0.0
  0
LINE
  5
B81D
330
1F
100
AcDbEntity
  8
AM_0
100
AcDbLine
 10
4648.162424547739
 20
3180.444070934113
 30
0.0
 11
4648.162424547739
 21
2989.804212934113
 31
0.0
  0
LINE
  5
B81E
330
1F
100
AcDbEntity
  8
0
  6
CENTER
 62
     7
100
AcDbLine
 10
4634.162424547739
 20
3232.605032934112
 30
0.0
 11
4634.162424547739
 21
3138.991545934113
 31
0.0
  0
LINE
  5
B81F
330
1F
100
AcDbEntity
  8
AM_0
100
AcDbLine
 10
4643.162424547738
 20
3185.444070934113
 30
0.0
 11
4625.162424547737
 21
3185.444070934113
 31
0.0
  0
LINE
  5
B820
330
1F
100
AcDbEntity
  8
AM_0
100
AcDbLine
 10
4538.162424547737
 20
3212.444066934113
 30
0.0
 11
4538.162424547737
 21
3102.444070934113
 31
0.0
  0
LINE
  5
B821
330
1F
100
AcDbEntity
  8
AM_0
100
AcDbLine
 10
4531.162424547736
 20
3212.444066934113
 30
0.0
 11
4538.162424547737
 21
3212.444066934113
 31
0.0
  0
LINE
  5
B822
330
1F
100
AcDbEntity
  8
AM_0
100
AcDbLine
 10
4531.162424547736
 20
3102.444070934113
 30
0.0
 11
4538.162424547737
 21
3102.444070934113
 31
0.0
  0
LINE
  5
B823
330
1F
100
AcDbEntity
  8
AM_0
100
AcDbLine
 10
4528.162424547736
 20
3209.444066934113
 30
0.0
 11
4528.162424547736
 21
3105.444071134114
 31
0.0
  0
LINE
  5
B824
330
1F
100
AcDbEntity
  8
AM_0
100
AcDbLine
 10
4506.162424547737
 20
3182.444078934113
 30
0.0
 11
4506.162424547737
 21
2989.804212934113
 31
0.0
  0
LINE
  5
B825
330
1F
100
AcDbEntity
  8
AM_0
100
AcDbLine
 10
4525.699074547739
 20
3185.996198934113
 30
0.0
 11
4506.162424547737
 21
3182.444082934113
 31
0.0
  0
LINE
  5
B826
330
1F
100
AcDbEntity
  8
AM_0
100
AcDbLine
 10
4506.162424547737
 20
3132.444070134113
 30
0.0
 11
4525.699074547739
 21
3128.891951334113
 31
0.0
  0
LINE
  5
B827
330
1F
100
AcDbEntity
  8
AM_0
100
AcDbLine
 10
4483.162416547737
 20
2984.804212934113
 30
0.0
 11
4501.162416547738
 21
2984.804212934113
 31
0.0
  0
LINE
  5
B828
330
1F
100
AcDbEntity
  8
AM_0
100
AcDbLine
 10
4478.162416547738
 20
3180.444070934113
 30
0.0
 11
4478.162416547738
 21
2989.804212934113
 31
0.0
  0
LINE
  5
B829
330
1F
100
AcDbEntity
  8
AM_0
100
AcDbLine
 10
4483.162416547737
 20
3185.444070934113
 30
0.0
 11
4501.162416547738
 21
3185.444070934113
 31
0.0
  0
LINE
  5
B82A
330
1F
100
AcDbEntity
  8
AM_0
100
AcDbLine
 10
4588.162424547737
 20
3162.444070934113
 30
0.0
 11
4538.162424547737
 21
3162.444070934113
 31
0.0
  0
LINE
  5
B82B
330
1F
100
AcDbEntity
  8
AM_0
100
AcDbLine
 10
4588.162424547737
 20
3152.444070934113
 30
0.0
 11
4538.162424547737
 21
3152.444070934113
 31
0.0
  0
ARC
  5
B82C
330
1F
100
AcDbEntity
  8
AM_0
100
AcDbCircle
 10
4923.162416547738
 20
3340.828292934113
 30
0.0
 40
300.0
100
AcDbArc
 50
170.7374399999902
 51
180.0
  0
ARC
  5
B82D
330
1F
100
AcDbEntity
  8
AM_0
100
AcDbCircle
 10
4634.969782547738
 20
3387.828312934113
 30
0.0
 40
8.0
100
AcDbArc
 50
90.00000300001072
 51
170.7374399999902
  0
ARC
  5
B82E
330
1F
100
AcDbEntity
  8
AM_0
  6
陰線1
370
    13
100
AcDbCircle
 10
4634.969782547738
 20
3293.828290934113
 30
0.0
 40
8.0
100
AcDbArc
 50
189.2625600000098
 51
270.0
  0
ARC
  5
B82F
330
1F
100
AcDbEntity
  8
AM_0
100
AcDbCircle
 10
4658.162424547739
 20
3340.828292934113
 30
0.0
 40
55.0
100
AcDbArc
 50
270.0
 51
342.2382557137744
  0
CIRCLE
  5
B832
330
1F
100
AcDbEntity
  8
AM_0
  6
陰線1
370
    13
100
AcDbCircle
 10
4638.162424547739
 20
3295.828290934113
 30
0.0
 40
6.199999799999997
  0
CIRCLE
  5
B833
330
1F
100
AcDbEntity
  8
AM_0
  6
陰線1
370
    13
100
AcDbCircle
 10
4638.162424547739
 20
3295.828290934113
 30
0.0
 40
3.1
  0
CIRCLE
  5
B834
330
1F
100
AcDbEntity
  8
AM_0
100
AcDbCircle
 10
4688.162423747738
 20
3370.828292934113
 30
0.0
 40
6.199999799999997
  0
CIRCLE
  5
B835
330
1F
100
AcDbEntity
  8
AM_0
100
AcDbCircle
 10
4688.162423747738
 20
3370.828292934113
 30
0.0
 40
3.1
  0
CIRCLE
  5
B836
330
1F
100
AcDbEntity
  8
AM_0
100
AcDbCircle
 10
4638.162424547739
 20
3385.828312934112
 30
0.0
 40
6.199999799999997
  0
CIRCLE
  5
B837
330
1F
100
AcDbEntity
  8
AM_0
100
AcDbCircle
 10
4638.162424547739
 20
3385.828312934112
 30
0.0
 40
3.1
  0
ARC
  5
B838
330
1F
100
AcDbEntity
  8
AM_0
100
AcDbCircle
 10
4658.162427119304
 20
3340.828289261537
 30
0.0
 40
28.0
100
AcDbArc
 50
63.26638000001925
 51
182.4936299999963
  0
ARC
  5
B83B
330
1F
100
AcDbEntity
  8
AM_0
100
AcDbCircle
 10
4704.496261056672
 20
3432.818373639999
 30
0.0
 40
74.99999999999999
100
AcDbArc
 50
243.2663800000192
 51
268.3042399999687
  0
ARC
  5
B840
330
1F
100
AcDbEntity
  8
AM_0
100
AcDbCircle
 10
4834.662429534316
 20
3331.226205214716
 30
0.0
 40
3.499999999999999
100
AcDbArc
 50
271.6957599999791
 51
0.0
  0
ARC
  5
B841
330
1F
100
AcDbEntity
  8
AM_0
100
AcDbCircle
 10
4834.66242876438
 20
3350.430376093746
 30
0.0
 40
3.499999999999999
100
AcDbArc
 50
0.0
 51
88.30423900000468
  0
ARC
  5
B842
330
1F
100
AcDbEntity
  8
AM_0
100
AcDbCircle
 10
4693.492995677508
 20
3293.532170148797
 30
0.0
 40
30.0
100
AcDbArc
 50
91.69576299997514
 51
137.5063660000177
  0
ARC
  5
B844
330
1F
100
AcDbEntity
  8
AM_0
100
AcDbCircle
 10
4923.162416547738
 20
3340.828292934113
 30
0.0
 40
300.0
100
AcDbArc
 50
180.0
 51
189.1787545482867
  0
ARC
  5
B845
330
1F
100
AcDbEntity
  8
AM_0
100
AcDbCircle
 10
4686.847256823342
 20
3267.601376498191
 30
0.0
 40
64.99999999999999
100
AcDbArc
 50
145.7499669999758
 51
174.2500300000007
  0
ARC
  5
B846
330
1F
100
AcDbEntity
  8
AM_0
100
AcDbCircle
 10
4589.11920358837
 20
3303.171478928506
 30
0.0
 40
64.99999999999999
100
AcDbArc
 50
325.7499699999905
 51
354.2500300000007
  0
ARC
  5
B847
330
1F
100
AcDbEntity
  8
AM_0
100
AcDbCircle
 10
4203.162416547738
 20
3340.828292934113
 30
0.0
 40
300.0
100
AcDbArc
 50
350.7374399999902
 51
9.262564699987748
  0
ARC
  5
B848
330
1F
100
AcDbEntity
  8
AM_0
100
AcDbCircle
 10
4491.355056547739
 20
3387.828312934113
 30
0.0
 40
8.0
100
AcDbArc
 50
9.262564699987748
 51
89.99999599999439
  0
ARC
  5
B849
330
1F
100
AcDbEntity
  8
AM_0
100
AcDbCircle
 10
4491.355056547739
 20
3293.828290934113
 30
0.0
 40
8.0
100
AcDbArc
 50
270.0
 51
350.7374399999902
  0
ARC
  5
B84A
330
1F
100
AcDbEntity
  8
AM_0
100
AcDbCircle
 10
4468.162416547738
 20
3340.828292934113
 30
0.0
 40
55.0
100
AcDbArc
 50
90.00000300001072
 51
232.2382600000044
  0
ARC
  5
B84B
330
1F
100
AcDbEntity
  8
AM_0
100
AcDbCircle
 10
4438.162416547737
 20
3310.828290934113
 30
0.0
 40
3.1
100
AcDbArc
 50
67.55855500000656
 51
264.592079999994
  0
ARC
  5
B84C
330
1F
100
AcDbEntity
  8
AM_0
100
AcDbCircle
 10
4438.162416547737
 20
3310.828290934113
 30
0.0
 40
6.199999799999997
100
AcDbArc
 50
73.62046400000039
 51
258.5438099999925
  0
CIRCLE
  5
B84D
330
1F
100
AcDbEntity
  8
AM_0
100
AcDbCircle
 10
4488.162416547737
 20
3295.828290934113
 30
0.0
 40
6.199999799999997
  0
CIRCLE
  5
B84E
330
1F
100
AcDbEntity
  8
AM_0
100
AcDbCircle
 10
4488.162416547737
 20
3295.828290934113
 30
0.0
 40
3.1
  0
CIRCLE
  5
B84F
330
1F
100
AcDbEntity
  8
AM_0
100
AcDbCircle
 10
4438.162416547737
 20
3370.828292934113
 30
0.0
 40
6.199999799999997
  0
CIRCLE
  5
B850
330
1F
100
AcDbEntity
  8
AM_0
100
AcDbCircle
 10
4438.162416547737
 20
3370.828292934113
 30
0.0
 40
3.1
  0
CIRCLE
  5
B851
330
1F
100
AcDbEntity
  8
AM_0
100
AcDbCircle
 10
4488.162416547737
 20
3385.828312934112
 30
0.0
 40
6.199999799999997
  0
CIRCLE
  5
B852
330
1F
100
AcDbEntity
  8
AM_0
100
AcDbCircle
 10
4488.162416547737
 20
3385.828312934112
 30
0.0
 40
3.1
  0
ARC
  5
B853
330
1F
100
AcDbEntity
  8
AM_0
100
AcDbCircle
 10
4468.162416547738
 20
3340.828292934113
 30
0.0
 40
28.0
100
AcDbArc
 50
313.266379999991
 51
186.7336200000006
  0
ARC
  5
B854
330
1F
100
AcDbEntity
  8
AM_11
100
AcDbCircle
 10
4291.662416547738
 20
3331.226212934113
 30
0.0
 40
3.5
100
AcDbArc
 50
180.000010000001
 51
268.3042299999917
  0
ARC
  5
B855
330
1F
100
AcDbEntity
  8
AM_11
100
AcDbCircle
 10
4291.662416547738
 20
3350.430372934113
 30
0.0
 40
3.5
100
AcDbArc
 50
91.69576099999531
 51
180.000010000001
  0
ARC
  5
B856
330
1F
100
AcDbEntity
  8
AM_0
100
AcDbCircle
 10
4538.757714547737
 20
3265.826260934113
 30
0.0
 40
75.0
100
AcDbArc
 50
133.266379999991
 51
158.3042400000007
  0
ARC
  5
B857
330
1F
100
AcDbEntity
  8
AM_0
100
AcDbCircle
 10
4365.872896547739
 20
3328.751192934113
 30
0.0
 40
75.0
100
AcDbArc
 50
341.695760000006
 51
6.733617600004225
  0
ARC
  5
B858
330
1F
100
AcDbEntity
  8
0
  6
DASHED
 62
     7
100
AcDbCircle
 10
4438.162416547737
 20
3310.828290934113
 30
0.0
 40
6.199999799999997
100
AcDbArc
 50
258.5438000000017
 51
73.62046400000039
  0
ARC
  5
B859
330
1F
100
AcDbEntity
  8
0
  6
DASHED
 62
     7
100
AcDbCircle
 10
4438.162416547737
 20
3310.828290934113
 30
0.0
 40
3.1
100
AcDbArc
 50
264.592090000004
 51
67.55855500000656
  0
ARC
  5
B85A
330
1F
100
AcDbEntity
  8
0
  6
DASHED
 62
     7
100
AcDbCircle
 10
4468.162416547738
 20
3340.828292934113
 30
0.0
 40
55.0
100
AcDbArc
 50
232.2382500000034
 51
267.7617399999896
  0
ARC
  5
B85B
330
1F
100
AcDbEntity
  8
0
  6
Continuous
 62
     7
100
AcDbCircle
 10
4468.162416547738
 20
3340.828292934113
 30
0.0
 40
55.0
100
AcDbArc
 50
267.7617399999896
 51
270.0
  0
ARC
  5
B85C
330
1F
100
AcDbEntity
  8
AM_0
100
AcDbCircle
 10
4416.818896547737
 20
3171.688436934113
 30
0.0
 40
3.5
100
AcDbArc
 50
250.0000000000108
 51
338.3042400000007
  0
ARC
  5
B85D
330
1F
100
AcDbEntity
  8
AM_0
100
AcDbCircle
 10
4398.772876547737
 20
3178.256650934113
 30
0.0
 40
3.5
100
AcDbArc
 50
161.6957499999912
 51
250.0000000000108
  0
ARC
  5
B85E
330
1F
100
AcDbEntity
  8
AM_0
100
AcDbCircle
 10
4595.162424547736
 20
3209.444066934113
 30
0.0
 40
3.0
100
AcDbArc
 50
0.0000025044687019
 51
90.00000300001072
  0
ARC
  5
B85F
330
1F
100
AcDbEntity
  8
AM_0
100
AcDbCircle
 10
4595.162424547736
 20
3105.444071134114
 30
0.0
 40
3.0
100
AcDbArc
 50
270.0
 51
0.0000025044687019
  0
ARC
  5
B860
330
1F
100
AcDbEntity
  8
AM_0
100
AcDbCircle
 10
4601.162424547736
 20
3188.947790934113
 30
0.0
 40
3.0
100
AcDbArc
 50
179.999989999999
 51
259.6951600000139
  0
ARC
  5
B861
330
1F
100
AcDbEntity
  8
AM_0
100
AcDbCircle
 10
4601.162424547736
 20
3125.940347934113
 30
0.0
 40
3.0
100
AcDbArc
 50
100.3048500000062
 51
179.999989999999
  0
ARC
  5
B862
330
1F
100
AcDbEntity
  8
AM_0
100
AcDbCircle
 10
4643.162424547738
 20
3180.444070934113
 30
0.0
 40
5.0
100
AcDbArc
 50
0.0000025044687019
 51
90.00000300001072
  0
ARC
  5
B863
330
1F
100
AcDbEntity
  8
AM_0
100
AcDbCircle
 10
4625.162424547737
 20
3180.444070934113
 30
0.0
 40
5.0
100
AcDbArc
 50
89.99999599999439
 51
179.999989999999
  0
ARC
  5
B864
330
1F
100
AcDbEntity
  8
AM_0
100
AcDbCircle
 10
4643.162424547738
 20
2989.804212934113
 30
0.0
 40
5.0
100
AcDbArc
 50
270.0
 51
0.0000025044687019
  0
ARC
  5
B865
330
1F
100
AcDbEntity
  8
AM_0
100
AcDbCircle
 10
4625.162424547737
 20
2989.804212934113
 30
0.0
 40
5.0
100
AcDbArc
 50
179.999989999999
 51
270.0
  0
CIRCLE
  5
B866
330
1F
100
AcDbEntity
  8
AM_0
100
AcDbCircle
 10
4634.162424547739
 20
3157.444070934113
 30
0.0
 40
13.0
  0
CIRCLE
  5
B867
330
1F
100
AcDbEntity
  8
AM_0
100
AcDbCircle
 10
4634.162424547739
 20
3157.444070934113
 30
0.0
 40
11.0
  0
ARC
  5
B868
330
1F
100
AcDbEntity
  8
AM_0
100
AcDbCircle
 10
4531.162424547736
 20
3209.444066934113
 30
0.0
 40
3.0
100
AcDbArc
 50
89.99999599999439
 51
179.999989999999
  0
ARC
  5
B869
330
1F
100
AcDbEntity
  8
AM_0
100
AcDbCircle
 10
4531.162424547736
 20
3105.444071134114
 30
0.0
 40
3.0
100
AcDbArc
 50
179.999989999999
 51
270.0
  0
ARC
  5
B86A
330
1F
100
AcDbEntity
  8
AM_0
100
AcDbCircle
 10
4525.162424547737
 20
3188.947790934113
 30
0.0
 40
3.0
100
AcDbArc
 50
280.3048500000062
 51
0.0000025044687019
  0
ARC
  5
B86B
330
1F
100
AcDbEntity
  8
AM_0
100
AcDbCircle
 10
4525.162424547737
 20
3125.940347934113
 30
0.0
 40
3.0
100
AcDbArc
 50
0.0000025044687019
 51
79.69514600000441
  0
ARC
  5
B86C
330
1F
100
AcDbEntity
  8
AM_0
100
AcDbCircle
 10
4483.162416547737
 20
3180.444070934113
 30
0.0
 40
5.0
100
AcDbArc
 50
89.99999599999439
 51
179.999989999999
  0
ARC
  5
B86D
330
1F
100
AcDbEntity
  8
AM_0
100
AcDbCircle
 10
4501.162416547738
 20
3180.444070934113
 30
0.0
 40
5.0
100
AcDbArc
 50
0.0000025044687019
 51
90.00000300001072
  0
ARC
  5
B86E
330
1F
100
AcDbEntity
  8
AM_0
100
AcDbCircle
 10
4483.162416547737
 20
2989.804212934113
 30
0.0
 40
5.0
100
AcDbArc
 50
179.999989999999
 51
270.0
  0
ARC
  5
B86F
330
1F
100
AcDbEntity
  8
AM_0
100
AcDbCircle
 10
4501.162416547738
 20
2989.804212934113
 30
0.0
 40
5.0
100
AcDbArc
 50
270.0
 51
0.0000025044687019
  0
CIRCLE
  5
B873
330
1F
100
AcDbEntity
  8
0
  6
Continuous
 62
     7
100
AcDbCircle
 10
4486.612416547738
 20
3298.512968934113
 30
0.0
 40
0.8000000200000002
  0
CIRCLE
  5
B874
330
1F
100
AcDbEntity
  8
0
  6
Continuous
 62
     7
100
AcDbCircle
 10
4489.712436547736
 20
3293.143614934113
 30
0.0
 40
0.8000000200000002
  0
CIRCLE
  5
B875
330
1F
100
AcDbEntity
  8
0
  6
Continuous
 62
     7
100
AcDbCircle
 10
4491.262436547738
 20
3290.458936934113
 30
0.0
 40
0.8000000200000002
  0
CIRCLE
  5
B87B
330
1F
100
AcDbEntity
  8
0
  6
Continuous
 62
     7
100
AcDbCircle
 10
4634.162424547739
 20
3227.444066934114
 30
0.0
 40
0.6
  0
LINE
  5
B880
330
1F
100
AcDbEntity
  8
0
  6
Continuous
 62
     7
100
AcDbLine
 10
4485.062436547738
 20
3301.197644934113
 30
0.0
 11
4502.596176547737
 21
3270.828290934112
 31
0.0
  0
CIRCLE
  5
B882
330
1F
100
AcDbEntity
  8
0
  6
Continuous
 62
     7
100
AcDbCircle
 10
4485.062436547738
 20
3301.197644934113
 30
0.0
 40
0.6
  0
TEXT
  5
B883
330
1F
100
AcDbEntity
  8
0
  6
Continuous
 62
     7
100
AcDbText
 10
4505.087222547737
 20
3272.428290934113
 30
0.0
 40
6.4
  1
４－%%C６．２ｘ%%C１２．４サラ
 41
0.8634387799999998
100
AcDbText
  0
LINE
  5
B885
330
1F
100
AcDbEntity
  8
AM_7
100
AcDbLine
 10
4472.162416547738
 20
3157.444070934113
 30
0.0
 11
4654.162424547738
 21
3157.444070934113
 31
0.0
1001
GENIUS_GENOBJ-N-CEN_13
1002
{
1000
OWNER
1000
GEN
1002
}
1001
GENIUS_GENODEF_13
1002
{
1000
HIER
1070
     0
1002
}
1002
{
1000
MANEDIT
1070
     0
1002
}
1002
{
1000
NOSEL
1070
     0
1002
}
1002
{
1000
BEHIND
1070
     0
1002
}
1002
{
1000
OTHER
1070
     0
1002
}
1002
{
1000
REACTOR
1002
}
1001
GENIUS_GENCEN_19
1002
{
1040
3.0
1002
}
  0
LINE
  5
B886
330
1F
100
AcDbEntity
  8
AM_0
100
AcDbLine
 10
4734.173990645646
 20
4261.638219243372
 30
0.0
 11
4824.173998645646
 21
4261.638219243372
 31
0.0
  0
LINE
  5
B887
330
1F
100
AcDbEntity
  8
AM_0
100
AcDbLine
 10
4734.173990645646
 20
4268.638219243372
 30
0.0
 11
4734.173990645646
 21
4261.638219243372
 31
0.0
  0
LINE
  5
B888
330
1F
100
AcDbEntity
  8
AM_0
100
AcDbLine
 10
4824.173998645646
 20
4268.638219243372
 30
0.0
 11
4824.173998645646
 21
4261.638219243372
 31
0.0
  0
LINE
  5
B889
330
1F
100
AcDbEntity
  8
AM_0
100
AcDbLine
 10
4737.173990645646
 20
4271.638219243372
 30
0.0
 11
4821.173998445644
 21
4271.638219243372
 31
0.0
  0
LINE
  5
B88A
330
1F
100
AcDbEntity
  8
AM_0
100
AcDbLine
 10
4744.173980608128
 20
4293.638219243372
 30
0.0
 11
4944.174003853043
 21
4293.638219243372
 31
0.0
  0
LINE
  5
B88D
330
1F
100
AcDbEntity
  8
AM_0
100
AcDbLine
 10
4949.174003853044
 20
4316.638219243373
 30
0.0
 11
4949.174003853044
 21
4298.638219243372
 31
0.0
  0
LINE
  5
B88E
330
1F
100
AcDbEntity
  8
AM_0
100
AcDbLine
 10
4746.174001217212
 20
4321.638219243374
 30
0.0
 11
4944.174003853043
 21
4321.638219243374
 31
0.0
  0
LINE
  5
B88F
330
1F
100
AcDbEntity
  8
AM_0
100
AcDbLine
 10
4741.174001217211
 20
4316.638219243373
 30
0.0
 11
4741.174001217211
 21
4298.638219243372
 31
0.0
  0
ARC
  5
B890
330
1F
100
AcDbEntity
  8
AM_0
100
AcDbCircle
 10
4737.173990645646
 20
4268.638219243372
 30
0.0
 40
3.0
100
AcDbArc
 50
90.00000250446868
 51
180.0000030000107
  0
ARC
  5
B891
330
1F
100
AcDbEntity
  8
AM_0
100
AcDbCircle
 10
4821.173998445644
 20
4268.638219243372
 30
0.0
 40
3.0
100
AcDbArc
 50
0.0
 51
90.00000250446868
  0
ARC
  5
B894
330
1F
100
AcDbEntity
  8
AM_0
100
AcDbCircle
 10
4746.174001217212
 20
4316.638219243373
 30
0.0
 40
5.0
100
AcDbArc
 50
90.0
 51
180.0000030000107
  0
ARC
  5
B895
330
1F
100
AcDbEntity
  8
AM_0
100
AcDbCircle
 10
4746.174001217212
 20
4298.638219243372
 30
0.0
 40
5.0
100
AcDbArc
 50
179.9999959999944
 51
270.0
  0
ARC
  5
B896
330
1F
100
AcDbEntity
  8
AM_0
100
AcDbCircle
 10
4944.174003853043
 20
4316.638219243373
 30
0.0
 40
5.0
100
AcDbArc
 50
0.0
 51
90.00000250446868
  0
ARC
  5
B897
330
1F
100
AcDbEntity
  8
AM_0
100
AcDbCircle
 10
4944.174003853043
 20
4298.638219243372
 30
0.0
 40
5.0
100
AcDbArc
 50
269.999989999999
 51
0.0
  0
LINE
  5
B942
330
1F
100
AcDbEntity
  8
AM_0
100
AcDbLine
 10
4734.173990645646
 20
4221.638219243372
 30
0.0
 11
4824.173998645646
 21
4221.638219243372
 31
0.0
  0
LINE
  5
B943
330
1F
100
AcDbEntity
  8
AM_0
100
AcDbLine
 10
4734.173990645646
 20
4214.638219243371
 30
0.0
 11
4734.173990645646
 21
4221.638219243372
 31
0.0
  0
LINE
  5
B944
330
1F
100
AcDbEntity
  8
AM_0
100
AcDbLine
 10
4824.173998645646
 20
4214.638219243371
 30
0.0
 11
4824.173998645646
 21
4221.638219243372
 31
0.0
  0
LINE
  5
B945
330
1F
100
AcDbEntity
  8
AM_0
100
AcDbLine
 10
4737.173990645646
 20
4211.638219243371
 30
0.0
 11
4821.173998445644
 21
4211.638219243371
 31
0.0
  0
LINE
  5
B946
330
1F
100
AcDbEntity
  8
AM_0
100
AcDbLine
 10
4744.173980608128
 20
4189.638219243372
 30
0.0
 11
4944.174003853043
 21
4189.638219243372
 31
0.0
  0
LINE
  5
B949
330
1F
100
AcDbEntity
  8
AM_0
100
AcDbLine
 10
4949.174003853044
 20
4166.638219243369
 30
0.0
 11
4949.174003853044
 21
4184.638219243372
 31
0.0
  0
LINE
  5
B94A
330
1F
100
AcDbEntity
  8
AM_0
100
AcDbLine
 10
4746.174001217212
 20
4161.63821924337
 30
0.0
 11
4944.174003853043
 21
4161.63821924337
 31
0.0
  0
LINE
  5
B94B
330
1F
100
AcDbEntity
  8
AM_0
100
AcDbLine
 10
4741.174001217211
 20
4166.638219243369
 30
0.0
 11
4741.174001217211
 21
4184.638219243372
 31
0.0
  0
ARC
  5
B94C
330
1F
100
AcDbEntity
  8
AM_0
100
AcDbCircle
 10
4737.173990645646
 20
4214.638219243371
 30
0.0
 40
3.0
100
AcDbArc
 50
179.9999970000153
 51
269.9999974955313
  0
ARC
  5
B94D
330
1F
100
AcDbEntity
  8
AM_0
100
AcDbCircle
 10
4821.173998445644
 20
4214.638219243371
 30
0.0
 40
3.0
100
AcDbArc
 50
269.9999974955313
 51
0.0
  0
ARC
  5
B950
330
1F
100
AcDbEntity
  8
AM_0
100
AcDbCircle
 10
4746.174001217212
 20
4166.638219243369
 30
0.0
 40
5.0
100
AcDbArc
 50
179.9999970000153
 51
270.0
  0
ARC
  5
B951
330
1F
100
AcDbEntity
  8
AM_0
100
AcDbCircle
 10
4746.174001217212
 20
4184.638219243372
 30
0.0
 40
5.0
100
AcDbArc
 50
90.0
 51
180.0000040000317
  0
ARC
  5
B952
330
1F
100
AcDbEntity
  8
AM_0
100
AcDbCircle
 10
4944.174003853043
 20
4166.638219243369
 30
0.0
 40
5.0
100
AcDbArc
 50
269.9999974955313
 51
0.0
  0
ARC
  5
B953
330
1F
100
AcDbEntity
  8
AM_0
100
AcDbCircle
 10
4944.174003853043
 20
4184.638219243372
 30
0.0
 40
5.0
100
AcDbArc
 50
0.0
 51
90.00001000000096
  0
ELLIPSE
  5
B954
330
1F
100
AcDbEntity
  8
AM_0
100
AcDbEllipse
 10
4743.522490467788
 20
4175.63821924337
 30
0.0
 11
0.0
 21
-11.0
 31
0.0
210
0.0
220
0.0
230
-1.0
 40
0.9396926207857838
 41
0.1964616996592963
 42
2.945130953930325
  0
LINE
  5
B956
330
1F
100
AcDbEntity
  8
AM_0
100
AcDbLine
 10
4651.762749386729
 20
3285.828290934113
 30
0.0
 11
4658.162424547739
 21
3285.828290934113
 31
0.0
  0
ARC
  5
B9B0
330
1F
100
AcDbEntity
  8
AM_0
  6
陰線1
370
    13
100
AcDbCircle
 10
4923.162416547738
 20
3340.828292934113
 30
0.0
 40
300.0
100
AcDbArc
 50
189.1787545482867
 51
189.2625600000098
  0
CIRCLE
  5
B9B2
330
1F
100
AcDbEntity
  8
AM_0
100
AcDbCircle
 10
4688.162423747738
 20
3310.828290934113
 30
0.0
 40
6.199999799999997
  0
CIRCLE
  5
B9B3
330
1F
100
AcDbEntity
  8
AM_0
100
AcDbCircle
 10
4688.162423747738
 20
3310.828290934113
 30
0.0
 40
3.1
  0
LINE
  5
B9B4
330
1F
100
AcDbEntity
  8
AM_7
100
AcDbLine
 10
4678.962423947738
 20
3310.828290934113
 30
0.0
 11
4697.362423547738
 21
3310.828290934113
 31
0.0
1001
GENIUS_GENOBJ-N-CEN_13
1002
{
1000
OWNER
1000
GEN
1002
}
1001
GENIUS_GENODEF_13
1002
{
1000
HIER
1070
     0
1002
}
1002
{
1000
MANEDIT
1070
     0
1002
}
1002
{
1000
NOSEL
1070
     0
1002
}
1002
{
1000
BEHIND
1070
     0
1002
}
1002
{
1000
OTHER
1070
     0
1002
}
1002
{
1000
REACTOR
1002
}
1001
GENIUS_GENCEN_19
1002
{
1040
3.0
1002
}
  0
LINE
  5
B9B5
330
1F
100
AcDbEntity
  8
AM_7
100
AcDbLine
 10
4688.162423747738
 20
3301.628291134112
 30
0.0
 11
4688.162423747738
 21
3320.028290734113
 31
0.0
1001
GENIUS_GENODEF_13
1002
{
1000
HIER
1070
     0
1002
}
1002
{
1000
MANEDIT
1070
     0
1002
}
1002
{
1000
NOSEL
1070
     0
1002
}
1002
{
1000
BEHIND
1070
     0
1002
}
1002
{
1000
OTHER
1070
     0
1002
}
1002
{
1000
REACTOR
1002
}
1001
GENIUS_GENOBJ-N-CEN_13
1002
{
1000
OWNER
1000
GEN
1002
}
1001
GENIUS_GENCEN_19
1002
{
1040
3.0
1002
}
  0
LINE
  5
B9B6
330
1F
100
AcDbEntity
  8
AM_7
100
AcDbLine
 10
4678.962423947738
 20
3370.828292934113
 30
0.0
 11
4697.362423547738
 21
3370.828292934113
 31
0.0
1001
GENIUS_GENOBJ-N-CEN_13
1002
{
1000
OWNER
1000
GEN
1002
}
1001
GENIUS_GENODEF_13
1002
{
1000
HIER
1070
     0
1002
}
1002
{
1000
MANEDIT
1070
     0
1002
}
1002
{
1000
NOSEL
1070
     0
1002
}
1002
{
1000
BEHIND
1070
     0
1002
}
1002
{
1000
OTHER
1070
     0
1002
}
1002
{
1000
REACTOR
1002
}
1001
GENIUS_GENCEN_19
1002
{
1040
3.0
1002
}
  0
LINE
  5
B9B7
330
1F
100
AcDbEntity
  8
AM_7
100
AcDbLine
 10
4688.162423747738
 20
3361.628293134113
 30
0.0
 11
4688.162423747738
 21
3380.028292734113
 31
0.0
1001
GENIUS_GENODEF_13
1002
{
1000
HIER
1070
     0
1002
}
1002
{
1000
MANEDIT
1070
     0
1002
}
1002
{
1000
NOSEL
1070
     0
1002
}
1002
{
1000
BEHIND
1070
     0
1002
}
1002
{
1000
OTHER
1070
     0
1002
}
1002
{
1000
REACTOR
1002
}
1001
GENIUS_GENOBJ-N-CEN_13
1002
{
1000
OWNER
1000
GEN
1002
}
1001
GENIUS_GENCEN_19
1002
{
1040
3.0
1002
}
  0
LINE
  5
B9B8
330
1F
100
AcDbEntity
  8
AM_7
100
AcDbLine
 10
4628.962424747738
 20
3385.828312934112
 30
0.0
 11
4647.362424347739
 21
3385.828312934112
 31
0.0
1001
GENIUS_GENOBJ-N-CEN_13
1002
{
1000
OWNER
1000
GEN
1002
}
1001
GENIUS_GENODEF_13
1002
{
1000
HIER
1070
     0
1002
}
1002
{
1000
MANEDIT
1070
     0
1002
}
1002
{
1000
NOSEL
1070
     0
1002
}
1002
{
1000
BEHIND
1070
     0
1002
}
1002
{
1000
OTHER
1070
     0
1002
}
1002
{
1000
REACTOR
1002
}
1001
GENIUS_GENCEN_19
1002
{
1040
3.0
1002
}
  0
LINE
  5
B9B9
330
1F
100
AcDbEntity
  8
AM_7
100
AcDbLine
 10
4638.162424547739
 20
3376.628313134113
 30
0.0
 11
4638.162424547739
 21
3395.028312734113
 31
0.0
1001
GENIUS_GENODEF_13
1002
{
1000
HIER
1070
     0
1002
}
1002
{
1000
MANEDIT
1070
     0
1002
}
1002
{
1000
NOSEL
1070
     0
1002
}
1002
{
1000
BEHIND
1070
     0
1002
}
1002
{
1000
OTHER
1070
     0
1002
}
1002
{
1000
REACTOR
1002
}
1001
GENIUS_GENOBJ-N-CEN_13
1002
{
1000
OWNER
1000
GEN
1002
}
1001
GENIUS_GENCEN_19
1002
{
1040
3.0
1002
}
  0
LINE
  5
B9BA
330
1F
100
AcDbEntity
  8
AM_7
100
AcDbLine
 10
4628.962424747738
 20
3295.828290934113
 30
0.0
 11
4647.362424347739
 21
3295.828290934113
 31
0.0
1001
GENIUS_GENOBJ-N-CEN_13
1002
{
1000
OWNER
1000
GEN
1002
}
1001
GENIUS_GENODEF_13
1002
{
1000
HIER
1070
     0
1002
}
1002
{
1000
MANEDIT
1070
     0
1002
}
1002
{
1000
NOSEL
1070
     0
1002
}
1002
{
1000
BEHIND
1070
     0
1002
}
1002
{
1000
OTHER
1070
     0
1002
}
1002
{
1000
REACTOR
1002
}
1001
GENIUS_GENCEN_19
1002
{
1040
3.0
1002
}
  0
LINE
  5
B9BB
330
1F
100
AcDbEntity
  8
AM_7
100
AcDbLine
 10
4638.162424547739
 20
3286.628291134113
 30
0.0
 11
4638.162424547739
 21
3305.028290734113
 31
0.0
1001
GENIUS_GENODEF_13
1002
{
1000
HIER
1070
     0
1002
}
1002
{
1000
MANEDIT
1070
     0
1002
}
1002
{
1000
NOSEL
1070
     0
1002
}
1002
{
1000
BEHIND
1070
     0
1002
}
1002
{
1000
OTHER
1070
     0
1002
}
1002
{
1000
REACTOR
1002
}
1001
GENIUS_GENOBJ-N-CEN_13
1002
{
1000
OWNER
1000
GEN
1002
}
1001
GENIUS_GENCEN_19
1002
{
1040
3.0
1002
}
  0
LINE
  5
B9F5
330
1F
100
AcDbEntity
  8
AM_11
100
AcDbLine
 10
4689.173989120595
 20
4223.138219243372
 30
0.0
 11
4689.173989120595
 21
4260.138219243372
 31
0.0
  0
LINE
  5
B9F6
330
1F
100
AcDbEntity
  8
AM_11
100
AcDbLine
 10
4690.673989120595
 20
4221.638219243372
 30
0.0
 11
4986.631649566769
 21
4221.638219243372
 31
0.0
  0
LINE
  5
B9F7
330
1F
100
AcDbEntity
  8
AM_11
100
AcDbLine
 10
4690.673989120595
 20
4261.638219243372
 30
0.0
 11
4986.631649566769
 21
4261.638219243373
 31
0.0
  0
LINE
  5
B9F8
330
1F
100
AcDbEntity
  8
AM_11
100
AcDbLine
 10
4690.673989120595
 20
4223.138219243372
 30
0.0
 11
4986.631649566769
 21
4223.138219243372
 31
0.0
  0
LINE
  5
B9F9
330
1F
100
AcDbEntity
  8
AM_11
100
AcDbLine
 10
4690.673989120595
 20
4260.138219243372
 30
0.0
 11
4986.631649566769
 21
4260.138219243373
 31
0.0
  0
LINE
  5
B9FA
330
1F
100
AcDbEntity
  8
AM_11
100
AcDbLine
 10
4690.673989120595
 20
4223.138219243372
 30
0.0
 11
4690.673989120595
 21
4260.138219243372
 31
0.0
  0
LINE
  5
B9FB
330
1F
100
AcDbEntity
  8
AM_11
100
AcDbLine
 10
4692.673989120595
 20
4225.138219243372
 30
0.0
 11
4712.673989120594
 21
4225.138219243372
 31
0.0
  0
LINE
  5
B9FC
330
1F
100
AcDbEntity
  8
AM_11
100
AcDbLine
 10
4692.673989120595
 20
4225.138219243372
 30
0.0
 11
4692.673989120595
 21
4258.138219243372
 31
0.0
  0
LINE
  5
B9FD
330
1F
100
AcDbEntity
  8
AM_11
100
AcDbLine
 10
4692.673989120595
 20
4258.138219243372
 30
0.0
 11
4712.673989120594
 21
4258.138219243372
 31
0.0
  0
LINE
  5
B9FE
330
1F
100
AcDbEntity
  8
AM_11
100
AcDbLine
 10
4712.673989120594
 20
4223.138219243372
 30
0.0
 11
4712.673989120594
 21
4225.138219243372
 31
0.0
  0
LINE
  5
B9FF
330
1F
100
AcDbEntity
  8
AM_11
100
AcDbLine
 10
4712.673989120594
 20
4258.138219243372
 30
0.0
 11
4712.673989120594
 21
4260.138219243372
 31
0.0
  0
LINE
  5
BA01
330
1F
100
AcDbEntity
  8
AM_11
100
AcDbLine
 10
4694.673989120595
 20
4221.638219243372
 30
0.0
 11
4696.173989120595
 21
4221.638219243372
 31
0.0
  0
LINE
  5
BA02
330
1F
100
AcDbEntity
  8
AM_11
100
AcDbLine
 10
4689.173989120595
 20
4241.638219243372
 30
0.0
 11
4690.673989120595
 21
4241.638219243372
 31
0.0
  0
LINE
  5
BA03
330
1F
100
AcDbEntity
  8
AM_11
100
AcDbLine
 10
4689.173989120595
 20
4219.138219243371
 30
0.0
 11
4689.173989120595
 21
4241.638219243372
 31
0.0
  0
LINE
  5
BA04
330
1F
100
AcDbEntity
  8
AM_11
100
AcDbLine
 10
4690.673989120595
 20
4219.138219243371
 30
0.0
 11
4690.673989120595
 21
4241.638219243372
 31
0.0
  0
LINE
  5
BA05
330
1F
100
AcDbEntity
  8
AM_11
100
AcDbLine
 10
4696.173989120595
 20
4215.138219243372
 30
0.0
 11
4696.173989120595
 21
4221.638219243372
 31
0.0
  0
LINE
  5
BA06
330
1F
100
AcDbEntity
  8
AM_11
100
AcDbLine
 10
4694.673989120595
 20
4215.138219243372
 30
0.0
 11
4694.673989120595
 21
4221.638219243372
 31
0.0
  0
LINE
  5
BA07
330
1F
100
AcDbEntity
  8
AM_11
100
AcDbLine
 10
4693.613331120594
 20
4214.077558243372
 30
0.0
 11
4689.613331120595
 21
4218.077558243372
 31
0.0
  0
LINE
  5
BA08
330
1F
100
AcDbEntity
  8
AM_11
100
AcDbLine
 10
4694.673989120595
 20
4215.138219243372
 30
0.0
 11
4690.673993120594
 21
4219.138219243371
 31
0.0
  0
ARC
  5
BA09
330
1F
100
AcDbEntity
  8
AM_11
100
AcDbCircle
 10
4690.673989120595
 20
4260.138219243372
 30
0.0
 40
1.5
100
AcDbArc
 50
90.0
 51
180.0000029999847
  0
ARC
  5
BA0A
330
1F
100
AcDbEntity
  8
AM_11
100
AcDbCircle
 10
4692.673989120595
 20
4225.138219243372
 30
0.0
 40
2.0
100
AcDbArc
 50
180.0000029999847
 51
270.0000099999489
  0
ARC
  5
BA0B
330
1F
100
AcDbEntity
  8
AM_11
100
AcDbCircle
 10
4692.673989120595
 20
4258.138219243372
 30
0.0
 40
2.0
100
AcDbArc
 50
90.0
 51
180.0000029999847
  0
ARC
  5
BA0C
330
1F
100
AcDbEntity
  8
AM_11
100
AcDbCircle
 10
4694.673989120595
 20
4215.138219243372
 30
0.0
 40
1.5
100
AcDbArc
 50
224.9999999999954
 51
0.0
  0
ARC
  5
BA0D
330
1F
100
AcDbEntity
  8
AM_11
100
AcDbCircle
 10
4690.673989120595
 20
4219.138219243371
 30
0.0
 40
1.5
100
AcDbArc
 50
180.0000029999847
 51
224.9999999999954
  0
LINE
  5
BA92
330
1F
100
AcDbEntity
  8
AM_11
100
AcDbLine
 10
4704.173989120596
 20
4214.63821924337
 30
0.0
 11
4704.173989120596
 21
4193.63821924337
 31
0.0
  0
LINE
  5
BA94
330
1F
100
AcDbEntity
  8
AM_11
100
AcDbLine
 10
4702.173989120595
 20
4214.64128924337
 30
0.0
 11
4702.173989120595
 21
4193.63821924337
 31
0.0
  0
LINE
  5
BA97
330
1F
100
AcDbEntity
  8
AM_11
100
AcDbLine
 10
4684.173989120595
 20
4201.63821924337
 30
0.0
 11
4700.173989120595
 21
4201.63821924337
 31
0.0
  0
LINE
  5
BA98
330
1F
100
AcDbEntity
  8
AM_11
100
AcDbLine
 10
4700.173989120595
 20
4214.63821924337
 30
0.0
 11
4700.173989120595
 21
4201.63821924337
 31
0.0
  0
LINE
  5
BA99
330
1F
100
AcDbEntity
  8
AM_11
100
AcDbLine
 10
4684.173989120595
 20
4199.638219243371
 30
0.0
 11
4700.173989120595
 21
4199.638219243371
 31
0.0
  0
LINE
  5
BA9A
330
1F
100
AcDbEntity
  8
AM_11
100
AcDbLine
 10
4684.173989120595
 20
4261.638219243372
 30
0.0
 11
4684.173989120595
 21
4201.63821924337
 31
0.0
  0
LINE
  5
BA9D
330
1F
100
AcDbEntity
  8
AM_11
100
AcDbLine
 10
4704.173989120596
 20
4155.63821924337
 30
0.0
 11
4704.173989120596
 21
4144.63821924337
 31
0.0
  0
LINE
  5
BA9F
330
1F
100
AcDbEntity
  8
AM_11
100
AcDbLine
 10
4702.173989120595
 20
4155.63821924337
 30
0.0
 11
4702.173989120595
 21
4144.63821924337
 31
0.0
  0
LINE
  5
BAA0
330
1F
100
AcDbEntity
  8
AM_11
100
AcDbLine
 10
4682.173989120594
 20
4261.638219243372
 30
0.0
 11
4682.173989120594
 21
4201.63821924337
 31
0.0
  0
LINE
  5
BACE
330
1F
100
AcDbEntity
  8
AM_11
100
AcDbLine
 10
4702.173989120595
 20
4194.63821924337
 30
0.0
 11
4704.173989120596
 21
4194.63821924337
 31
0.0
  0
LINE
  5
BACF
330
1F
100
AcDbEntity
  8
AM_11
100
AcDbLine
 10
4702.173989120595
 20
4154.63821924337
 30
0.0
 11
4704.173989120596
 21
4154.63821924337
 31
0.0
  0
ARC
  5
BAD1
330
1F
100
AcDbEntity
  8
AM_11
100
AcDbCircle
 10
4702.173989120595
 20
4214.63821924337
 30
0.0
 40
2.0
100
AcDbArc
 50
0.0
 51
90.00000299998461
  0
ARC
  5
BAD2
330
1F
100
AcDbEntity
  8
AM_11
100
AcDbCircle
 10
4702.173989120595
 20
4214.63821924337
 30
0.0
 40
2.0
100
AcDbArc
 50
90.00000299998461
 51
180.000010000001
  0
ARC
  5
BAD3
330
1F
100
AcDbEntity
  8
AM_11
100
AcDbCircle
 10
4700.173989120595
 20
4201.63821924337
 30
0.0
 40
2.0
100
AcDbArc
 50
270.0
 51
0.0
  0
ARC
  5
BAD4
330
1F
100
AcDbEntity
  8
AM_11
100
AcDbCircle
 10
4684.173989120595
 20
4201.63821924337
 30
0.0
 40
2.0
100
AcDbArc
 50
179.999989999999
 51
270.0
  0
LINE
  5
BB0A
330
1F
100
AcDbEntity
  8
AM_7
100
AcDbLine
 10
4658.162427427541
 20
3282.828292934113
 30
0.0
 11
4658.162421510856
 21
3398.828292934113
 31
0.0
1001
GENIUS_GENODEF_13
1002
{
1000
HIER
1070
     0
1002
}
1002
{
1000
MANEDIT
1070
     0
1002
}
1002
{
1000
NOSEL
1070
     0
1002
}
1002
{
1000
BEHIND
1070
     0
1002
}
1002
{
1000
OTHER
1070
     0
1002
}
1002
{
1000
REACTOR
1002
}
1001
GENIUS_GENOBJ-N-CEN_13
1002
{
1000
OWNER
1000
GEN
1002
}
1001
GENIUS_GENCEN_19
1002
{
1040
3.0
1002
}
  0
LINE
  5
BB11
330
1F
100
AcDbEntity
  8
AM_7
100
AcDbLine
 10
4620.162416547738
 20
3340.828292976451
 30
0.0
 11
4841.162429755136
 21
3340.828289857569
 31
0.0
1001
GENIUS_GENOBJ-N-CEN_13
1002
{
1000
OWNER
1000
GEN
1002
}
1001
GENIUS_GENODEF_13
1002
{
1000
HIER
1070
     0
1002
}
1002
{
1000
MANEDIT
1070
     0
1002
}
1002
{
1000
NOSEL
1070
     0
1002
}
1002
{
1000
BEHIND
1070
     0
1002
}
1002
{
1000
OTHER
1070
     0
1002
}
1002
{
1000
REACTOR
1002
}
1001
GENIUS_GENCEN_19
1002
{
1040
3.0
1002
}
  0
ARC
  5
BB12
330
1F
100
AcDbEntity
  8
AM_0
  6
陰線1
370
    13
100
AcDbCircle
 10
4658.162424547739
 20
3340.828292934113
 30
0.0
 40
55.0
100
AcDbArc
 50
342.2382557137744
 51
17.76173817817016
  0
ARC
  5
BB13
330
1F
100
AcDbEntity
  8
AM_0
100
AcDbCircle
 10
4658.162424547739
 20
3340.828292934113
 30
0.0
 40
55.0
100
AcDbArc
 50
17.76173817817016
 51
90.00000300001072
  0
LINE
  5
BB15
330
1F
100
AcDbEntity
  8
AM_7
100
AcDbLine
 10
4769.173989120594
 20
4155.63821924337
 30
0.0
 11
4769.173989120594
 21
4327.638219243373
 31
0.0
1001
GENIUS_GENOBJ-N-CEN_13
1002
{
1000
OWNER
1000
GEN
1002
}
1001
GENIUS_GENODEF_13
1002
{
1000
HIER
1070
     0
1002
}
1002
{
1000
MANEDIT
1070
     0
1002
}
1002
{
1000
NOSEL
1070
     0
1002
}
1002
{
1000
BEHIND
1070
     0
1002
}
1002
{
1000
OTHER
1070
     0
1002
}
1002
{
1000
REACTOR
1002
}
1001
GENIUS_GENCEN_19
1002
{
1040
3.0
1002
}
  0
LINE
  5
BD62
330
1F
100
AcDbEntity
  8
AM_10
370
    13
100
AcDbLine
 10
4986.631649566769
 20
4267.638219243372
 30
0.0
 11
4986.631649566769
 21
4215.638219243373
 31
0.0
  0
LINE
  5
BDCD
330
1F
100
AcDbEntity
  8
AM_7
100
AcDbLine
 10
4679.173989120595
 20
4174.63821924337
 30
0.0
 11
4717.673989120595
 21
4174.63821924337
 31
0.0
1001
GENIUS_GENODEF_13
1002
{
1000
HIER
1070
     0
1002
}
1002
{
1000
MANEDIT
1070
     0
1002
}
1002
{
1000
NOSEL
1070
     0
1002
}
1002
{
1000
BEHIND
1070
     0
1002
}
1002
{
1000
OTHER
1070
     0
1002
}
1002
{
1000
REACTOR
1002
}
1001
GENIUS_GENOBJ-N-CEN_13
1002
{
1000
OWNER
1000
GEN
1002
}
1001
GENIUS_GENCEN_19
1002
{
1040
3.0
1002
}
  0
LINE
  5
BE9B
330
1F
100
AcDbEntity
  8
0
  6
Continuous
 62
     7
100
AcDbLine
 10
5090.205909181044
 20
3177.166582897978
 30
0.0
 11
5090.205909181044
 21
3083.166582897979
 31
0.0
  0
LINE
  5
BE9C
330
1F
100
AcDbEntity
  8
0
  6
Continuous
 62
     7
100
AcDbLine
 10
5115.205909181043
 20
3177.166582897978
 30
0.0
 11
5115.205909181043
 21
3083.166582897979
 31
0.0
  0
LINE
  5
BE9D
330
1F
100
AcDbEntity
  8
0
  6
Continuous
 62
     7
100
AcDbLine
 10
5091.205909181043
 20
3082.166582897979
 30
0.0
 11
5114.205909181044
 21
3082.166582897979
 31
0.0
  0
LINE
  5
BE9E
330
1F
100
AcDbEntity
  8
0
  6
Continuous
 62
     7
100
AcDbLine
 10
5091.205909181043
 20
3178.166582897979
 30
0.0
 11
5114.205909181044
 21
3178.166582897979
 31
0.0
  0
LINE
  5
BE9F
330
1F
100
AcDbEntity
  8
0
  6
Continuous
 62
     7
100
AcDbLine
 10
5090.205909181044
 20
3098.166582897979
 30
0.0
 11
5115.205909181043
 21
3098.166582897979
 31
0.0
  0
LINE
  5
BEA0
330
1F
100
AcDbEntity
  8
0
  6
CENTER
 62
     7
100
AcDbLine
 10
5095.205909181043
 20
3170.166582897979
 30
0.0
 11
5110.205909181043
 21
3170.166582897979
 31
0.0
  0
LINE
  5
BEA1
330
1F
100
AcDbEntity
  8
0
  6
CENTER
 62
     7
100
AcDbLine
 10
5095.205909181043
 20
3090.166582897979
 30
0.0
 11
5110.205909181043
 21
3090.166582897979
 31
0.0
  0
LINE
  5
BEA2
330
1F
100
AcDbEntity
  8
0
  6
CENTER
 62
     7
100
AcDbLine
 10
5102.705909181043
 20
3183.166582897979
 30
0.0
 11
5102.705909181043
 21
3077.166582897979
 31
0.0
  0
LINE
  5
BEA3
330
1F
100
AcDbEntity
  8
0
  6
Continuous
 62
     7
100
AcDbLine
 10
5090.205909181044
 20
3156.166582897979
 30
0.0
 11
5115.205909181043
 21
3156.166582897979
 31
0.0
  0
LINE
  5
BEA4
330
1F
100
AcDbEntity
  8
0
  6
Continuous
 62
     7
100
AcDbLine
 10
5090.205909181044
 20
3148.166582897979
 30
0.0
 11
5115.205909181043
 21
3148.166582897979
 31
0.0
  0
LINE
  5
BEA5
330
1F
100
AcDbEntity
  8
0
  6
Continuous
 62
     7
100
AcDbLine
 10
5215.181824881043
 20
3156.166582897979
 30
0.0
 11
5215.181824881043
 21
3148.166582897979
 31
0.0
  0
LINE
  5
BEA6
330
1F
100
AcDbEntity
  8
0
  6
Continuous
 62
     7
100
AcDbLine
 10
5237.181825181043
 20
3178.166582897979
 30
0.0
 11
5237.181825181043
 21
3082.166582897979
 31
0.0
  0
LINE
  5
BEA7
330
1F
100
AcDbEntity
  8
0
  6
Continuous
 62
     7
100
AcDbLine
 10
5233.181825181043
 20
3082.166582897979
 30
0.0
 11
5237.181825181043
 21
3082.166582897979
 31
0.0
  0
LINE
  5
BEA8
330
1F
100
AcDbEntity
  8
0
  6
Continuous
 62
     7
100
AcDbLine
 10
5233.181825181043
 20
3178.166582897979
 30
0.0
 11
5237.181825181043
 21
3178.166582897979
 31
0.0
  0
LINE
  5
BEA9
330
1F
100
AcDbEntity
  8
0
  6
Continuous
 62
     7
100
AcDbLine
 10
5215.181824881043
 20
3156.166582897979
 30
0.0
 11
5229.181825181043
 21
3156.166582897979
 31
0.0
  0
LINE
  5
BEAA
330
1F
100
AcDbEntity
  8
0
  6
Continuous
 62
     7
100
AcDbLine
 10
5215.181824881043
 20
3148.166582897979
 30
0.0
 11
5219.181824781042
 21
3148.166582897979
 31
0.0
  0
LINE
  5
BEAB
330
1F
100
AcDbEntity
  8
0
  6
Continuous
 62
     7
100
AcDbLine
 10
5232.181825181043
 20
3098.166582897979
 30
0.0
 11
5232.181825181043
 21
3083.166582897979
 31
0.0
  0
LINE
  5
BEAC
330
1F
100
AcDbEntity
  8
0
  6
Continuous
 62
     7
100
AcDbLine
 10
5229.181825181043
 20
3138.166582897979
 30
0.0
 11
5229.181825181043
 21
3118.166582897979
 31
0.0
  0
LINE
  5
BEAD
330
1F
100
AcDbEntity
  8
0
  6
Continuous
 62
     7
100
AcDbLine
 10
5229.181824181043
 20
3118.166580897979
 30
0.0
 11
5232.181824181044
 21
3098.166582897979
 31
0.0
  0
LINE
  5
BEAE
330
1F
100
AcDbEntity
  8
0
  6
Continuous
 62
     7
100
AcDbLine
 10
5090.205909181044
 20
3239.229082897979
 30
0.0
 11
5090.205909181044
 21
3219.229082897979
 31
0.0
  0
LINE
  5
BEAF
330
1F
100
AcDbEntity
  8
0
  6
PHANTOM
 62
     7
100
AcDbLine
 10
5115.205909181043
 20
3255.729082897979
 30
0.0
 11
5115.205909181043
 21
3240.729082897978
 31
0.0
  0
LINE
  5
BEB0
330
1F
100
AcDbEntity
  8
0
  6
Continuous
 62
     7
100
AcDbLine
 10
5091.205909181043
 20
3218.229082897979
 30
0.0
 11
5114.205909181044
 21
3218.229082897979
 31
0.0
  0
LINE
  5
BEB1
330
1F
100
AcDbEntity
  8
0
  6
DASHED
 62
     7
100
AcDbLine
 10
5090.205909181044
 20
3231.229082897979
 30
0.0
 11
5115.205909181043
 21
3231.229082897979
 31
0.0
  0
LINE
  5
BEB2
330
1F
100
AcDbEntity
  8
0
  6
PHANTOM
 62
     7
100
AcDbLine
 10
5080.705909181044
 20
3239.229082897979
 30
0.0
 11
5090.205909181044
 21
3239.229082897979
 31
0.0
  0
LINE
  5
BEB3
330
1F
100
AcDbEntity
  8
0
  6
Continuous
 62
     7
100
AcDbLine
 10
5232.181825181043
 20
3177.166582897978
 30
0.0
 11
5232.181825181043
 21
3159.166582897979
 31
0.0
  0
LINE
  5
BEB4
330
1F
100
AcDbEntity
  8
0
  6
Continuous
 62
     7
100
AcDbLine
 10
5091.205909181043
 20
3234.229082897979
 30
0.0
 11
5114.205909181044
 21
3234.229082897979
 31
0.0
  0
LINE
  5
BEB5
330
1F
100
AcDbEntity
  8
0
  6
PHANTOM
 62
     7
100
AcDbLine
 10
5079.205909181042
 20
3262.729082897979
 30
0.0
 11
5079.205909181042
 21
3240.729082897978
 31
0.0
  0
LINE
  5
BEB6
330
1F
100
AcDbEntity
  8
0
  6
PHANTOM
 62
     7
100
AcDbLine
 10
5080.705909181044
 20
3240.729082897978
 30
0.0
 11
5113.705909181042
 21
3240.729082897978
 31
0.0
  0
LINE
  5
BEB7
330
1F
100
AcDbEntity
  8
0
  6
Continuous
 62
     7
100
AcDbLine
 10
5113.705909181042
 20
3257.229082897979
 30
0.0
 11
5113.705909181042
 21
3257.229082897979
 31
0.0
  0
LINE
  5
BEB8
330
1F
100
AcDbEntity
  8
0
  6
Continuous
 62
     7
100
AcDbLine
 10
5115.205909181043
 20
3239.229082897979
 30
0.0
 11
5115.205909181043
 21
3219.229082897979
 31
0.0
  0
LINE
  5
BEB9
330
1F
100
AcDbEntity
  8
0
  6
PHANTOM
 62
     7
100
AcDbLine
 10
5113.705909181042
 20
3255.909812897979
 30
0.0
 11
5113.705909181042
 21
3240.729082897978
 31
0.0
  0
LINE
  5
BEBA
330
1F
100
AcDbEntity
  8
0
  6
PHANTOM
 62
     7
100
AcDbLine
 10
5112.205909181043
 20
3255.729082897979
 30
0.0
 11
5112.205909181043
 21
3242.229082897978
 31
0.0
  0
LINE
  5
BEBB
330
1F
100
AcDbEntity
  8
0
  6
PHANTOM
 62
     7
100
AcDbLine
 10
5089.705909181042
 20
3242.229082897978
 30
0.0
 11
5113.705909181042
 21
3242.229082897978
 31
0.0
  0
LINE
  5
BEBC
330
1F
100
AcDbEntity
  8
0
  6
Continuous
 62
     7
100
AcDbLine
 10
5090.205909181044
 20
3239.229082897979
 30
0.0
 11
5115.205909181043
 21
3239.229082897979
 31
0.0
  0
LINE
  5
BEBD
330
1F
100
AcDbEntity
  8
0
  6
PHANTOM
 62
     7
100
AcDbLine
 10
5080.705909181044
 20
3262.729082897979
 30
0.0
 11
5080.705909181044
 21
3240.729082897978
 31
0.0
  0
LINE
  5
BEBE
330
1F
100
AcDbEntity
  8
0
  6
PHANTOM
 62
     7
100
AcDbLine
 10
5059.705909181042
 20
3264.229082897979
 30
0.0
 11
5088.205909181043
 21
3264.229082897979
 31
0.0
  0
LINE
  5
BEBF
330
1F
100
AcDbEntity
  8
0
  6
PHANTOM
 62
     7
100
AcDbLine
 10
5064.205909181044
 20
3264.229082897979
 30
0.0
 11
5064.205909181044
 21
3262.729082897979
 31
0.0
  0
LINE
  5
BEC0
330
1F
100
AcDbEntity
  8
0
  6
PHANTOM
 62
     7
100
AcDbLine
 10
5064.205909181044
 20
3262.729082897979
 30
0.0
 11
5079.205909181042
 21
3262.729082897979
 31
0.0
  0
LINE
  5
BEC1
330
1F
100
AcDbEntity
  8
0
  6
PHANTOM
 62
     7
100
AcDbLine
 10
5088.205909181043
 20
3294.229082897979
 30
0.0
 11
5088.205909181043
 21
3242.229082897978
 31
0.0
  0
LINE
  5
BEC2
330
1F
100
AcDbEntity
  8
0
  6
PHANTOM
 62
     7
100
AcDbLine
 10
5089.705909181042
 20
3294.229082897979
 30
0.0
 11
5089.705909181042
 21
3242.229082897978
 31
0.0
  0
LINE
  5
BEC3
330
1F
100
AcDbEntity
  8
0
  6
PHANTOM
 62
     7
100
AcDbLine
 10
5059.705909181042
 20
3265.729082897979
 30
0.0
 11
5088.205909181043
 21
3265.729082897979
 31
0.0
  0
LINE
  5
BEC4
330
1F
100
AcDbEntity
  8
0
  6
PHANTOM
 62
     7
100
AcDbLine
 10
5069.205909181043
 20
3267.729082897979
 30
0.0
 11
5086.205909181043
 21
3267.729082897979
 31
0.0
  0
LINE
  5
BEC5
330
1F
100
AcDbEntity
  8
0
  6
PHANTOM
 62
     7
100
AcDbLine
 10
5086.205909181043
 20
3294.229082897979
 30
0.0
 11
5086.205909181043
 21
3267.729082897979
 31
0.0
  0
LINE
  5
BEC6
330
1F
100
AcDbEntity
  8
0
  6
PHANTOM
 62
     7
100
AcDbLine
 10
5069.205909181043
 20
3267.729082897979
 30
0.0
 11
5069.205909181043
 21
3265.729082897979
 31
0.0
  0
LINE
  5
BEC7
330
1F
100
AcDbEntity
  8
0
  6
PHANTOM
 62
     7
100
AcDbLine
 10
5101.902059181043
 20
3263.229082897979
 30
0.0
 11
5115.705909181042
 21
3263.229082897979
 31
0.0
  0
LINE
  5
BEC8
330
1F
100
AcDbEntity
  8
0
  6
PHANTOM
 62
     7
100
AcDbLine
 10
5096.705909181043
 20
3264.229082897979
 30
0.0
 11
5145.705909181042
 21
3264.229082897979
 31
0.0
  0
LINE
  5
BEC9
330
1F
100
AcDbEntity
  8
0
  6
PHANTOM
 62
     7
100
AcDbLine
 10
5095.705909181043
 20
3294.229082897979
 30
0.0
 11
5095.705909181043
 21
3256.229082897978
 31
0.0
  0
LINE
  5
BECA
330
1F
100
AcDbEntity
  8
0
  6
PHANTOM
 62
     7
100
AcDbLine
 10
5096.705909181043
 20
3294.229082897979
 30
0.0
 11
5096.705909181043
 21
3256.602292897979
 31
0.0
  0
LINE
  5
BECB
330
1F
100
AcDbEntity
  8
0
  6
PHANTOM
 62
     7
100
AcDbLine
 10
5097.571949181043
 20
3255.729082897979
 30
0.0
 11
5101.902069181043
 21
3263.229082897979
 31
0.0
  0
LINE
  5
BECC
330
1F
100
AcDbEntity
  8
0
  6
PHANTOM
 62
     7
100
AcDbLine
 10
5096.892519181043
 20
3256.552282897978
 30
0.0
 11
5101.324719181043
 21
3264.229082897979
 31
0.0
  0
LINE
  5
BECD
330
1F
100
AcDbEntity
  8
0
  6
PHANTOM
 62
     7
100
AcDbLine
 10
5095.705909181043
 20
3286.729082897978
 30
0.0
 11
5096.705909181043
 21
3286.729082897978
 31
0.0
  0
LINE
  5
BECE
330
1F
100
AcDbEntity
  8
0
  6
PHANTOM
 62
     7
100
AcDbLine
 10
5115.705909181042
 20
3264.229082897979
 30
0.0
 11
5115.705909181042
 21
3263.229082897979
 31
0.0
  0
LINE
  5
BECF
330
1F
100
AcDbEntity
  8
0
  6
PHANTOM
 62
     7
100
AcDbLine
 10
5096.705909181043
 20
3265.729082897979
 30
0.0
 11
5145.705909181042
 21
3265.729082897979
 31
0.0
  0
LINE
  5
BED0
330
1F
100
AcDbEntity
  8
0
  6
PHANTOM
 62
     7
100
AcDbLine
 10
5098.705909181042
 20
3294.229082897979
 30
0.0
 11
5098.705909181042
 21
3267.729082897979
 31
0.0
  0
LINE
  5
BED1
330
1F
100
AcDbEntity
  8
0
  6
PHANTOM
 62
     7
100
AcDbLine
 10
5098.705909181042
 20
3267.729082897979
 30
0.0
 11
5120.705909181043
 21
3267.729082897979
 31
0.0
  0
LINE
  5
BED2
330
1F
100
AcDbEntity
  8
0
  6
PHANTOM
 62
     7
100
AcDbLine
 10
5120.705909181043
 20
3267.729082897979
 30
0.0
 11
5120.705909181043
 21
3265.729082897979
 31
0.0
  0
LINE
  5
BED3
330
1F
100
AcDbEntity
  8
0
  6
CENTER
 62
     7
100
AcDbLine
 10
5102.705909181043
 20
3249.229082897978
 30
0.0
 11
5102.705909181043
 21
3213.229082897978
 31
0.0
  0
LINE
  5
BED4
330
1F
100
AcDbEntity
  8
0
  6
DASHED
 62
     7
100
AcDbLine
 10
5099.705909181043
 20
3245.229082897978
 30
0.0
 11
5099.705909181043
 21
3237.229082897979
 31
0.0
  0
LINE
  5
BED5
330
1F
100
AcDbEntity
  8
0
  6
DASHED
 62
     7
100
AcDbLine
 10
5105.705909181043
 20
3245.229082897978
 30
0.0
 11
5105.705909181043
 21
3237.229082897979
 31
0.0
  0
LINE
  5
BED6
330
1F
100
AcDbEntity
  8
0
  6
DASHED
 62
     7
100
AcDbLine
 10
5100.705909181043
 20
3246.229082897979
 30
0.0
 11
5104.705909181043
 21
3246.229082897979
 31
0.0
  0
LINE
  5
BED7
330
1F
100
AcDbEntity
  8
0
  6
DASHED
 62
     7
100
AcDbLine
 10
5100.705909181043
 20
3246.229082897979
 30
0.0
 11
5100.705909181043
 21
3237.229082897979
 31
0.0
  0
LINE
  5
BED8
330
1F
100
AcDbEntity
  8
0
  6
DASHED
 62
     7
100
AcDbLine
 10
5104.705909181043
 20
3246.229082897979
 30
0.0
 11
5104.705909181043
 21
3237.229082897979
 31
0.0
  0
LINE
  5
BED9
330
1F
100
AcDbEntity
  8
0
  6
DASHED
 62
     7
100
AcDbLine
 10
5099.705909181043
 20
3245.229082897978
 30
0.0
 11
5105.705909181043
 21
3245.229082897978
 31
0.0
  0
LINE
  5
BEDA
330
1F
100
AcDbEntity
  8
0
  6
DASHED
 62
     7
100
AcDbLine
 10
5100.705909181043
 20
3246.229082897979
 30
0.0
 11
5099.705909181043
 21
3245.229082897978
 31
0.0
  0
LINE
  5
BEDB
330
1F
100
AcDbEntity
  8
0
  6
DASHED
 62
     7
100
AcDbLine
 10
5104.705919181043
 20
3246.229082897979
 30
0.0
 11
5105.705919181043
 21
3245.229072897979
 31
0.0
  0
LINE
  5
BEDC
330
1F
100
AcDbEntity
  8
0
  6
DASHED
 62
     7
100
AcDbLine
 10
5096.705899181042
 20
3234.229090897978
 30
0.0
 11
5099.705899181042
 21
3237.229090897979
 31
0.0
  0
LINE
  5
BEDD
330
1F
100
AcDbEntity
  8
0
  6
DASHED
 62
     7
100
AcDbLine
 10
5105.705909181043
 20
3237.229082897979
 30
0.0
 11
5108.705909181042
 21
3234.229082897979
 31
0.0
  0
LINE
  5
BEDE
330
1F
100
AcDbEntity
  8
0
  6
DASHED
 62
     7
100
AcDbLine
 10
5099.705909181043
 20
3237.229082897979
 30
0.0
 11
5105.705909181043
 21
3237.229082897979
 31
0.0
  0
LINE
  5
BEDF
330
1F
100
AcDbEntity
  8
0
  6
CENTER
 62
     7
100
AcDbLine
 10
5216.181824781042
 20
3145.166582897978
 30
0.0
 11
5216.181824781042
 21
3115.166582897979
 31
0.0
  0
LINE
  5
BEE0
330
1F
100
AcDbEntity
  8
0
  6
CENTER
 62
     7
100
AcDbLine
 10
5201.181825181043
 20
3130.166582897979
 30
0.0
 11
5231.181825181042
 21
3130.166582897979
 31
0.0
  0
LINE
  5
BEE1
330
1F
100
AcDbEntity
  8
0
  6
Continuous
 62
     7
100
AcDbLine
 10
5090.205909181044
 20
3118.166582897979
 30
0.0
 11
5115.205909181043
 21
3118.166582897979
 31
0.0
  0
ARC
  5
BEE2
330
1F
100
AcDbEntity
  8
0
  6
Continuous
 62
     7
100
AcDbCircle
 10
5091.205909181043
 20
3177.166582897978
 30
0.0
 40
1.0
100
AcDbArc
 50
90.00000299998466
 51
180.000010000001
  0
ARC
  5
BEE3
330
1F
100
AcDbEntity
  8
0
  6
Continuous
 62
     7
100
AcDbCircle
 10
5114.205909181044
 20
3177.166582897978
 30
0.0
 40
1.0
100
AcDbArc
 50
0.0
 51
90.00000299998466
  0
ARC
  5
BEE4
330
1F
100
AcDbEntity
  8
0
  6
Continuous
 62
     7
100
AcDbCircle
 10
5091.205909181043
 20
3083.166582897979
 30
0.0
 40
1.0
100
AcDbArc
 50
179.999989999999
 51
270.0
  0
ARC
  5
BEE5
330
1F
100
AcDbEntity
  8
0
  6
Continuous
 62
     7
100
AcDbCircle
 10
5114.205909181044
 20
3083.166582897979
 30
0.0
 40
1.0
100
AcDbArc
 50
270.0
 51
0.0
  0
CIRCLE
  5
BEE6
330
1F
100
AcDbEntity
  8
0
  6
Continuous
 62
     7
100
AcDbCircle
 10
5102.705909181043
 20
3170.166582897979
 30
0.0
 40
3.099999899999998
  0
CIRCLE
  5
BEE7
330
1F
100
AcDbEntity
  8
0
  6
Continuous
 62
     7
100
AcDbCircle
 10
5102.705909181043
 20
3090.166582897979
 30
0.0
 40
3.099999899999998
  0
CIRCLE
  5
BEE8
330
1F
100
AcDbEntity
  8
0
  6
Continuous
 62
     7
100
AcDbCircle
 10
5102.705909181043
 20
3090.166582897979
 30
0.0
 40
6.199999799999999
  0
CIRCLE
  5
BEE9
330
1F
100
AcDbEntity
  8
0
  6
Continuous
 62
     7
100
AcDbCircle
 10
5102.705909181043
 20
3170.166582897979
 30
0.0
 40
6.199999799999999
  0
ARC
  5
BEEA
330
1F
100
AcDbEntity
  8
0
  6
Continuous
 62
     7
100
AcDbCircle
 10
5233.181825181043
 20
3083.166582897979
 30
0.0
 40
1.0
100
AcDbArc
 50
179.999989999999
 51
270.0
  0
ARC
  5
BEEB
330
1F
100
AcDbEntity
  8
0
  6
Continuous
 62
     7
100
AcDbCircle
 10
5219.181824781042
 20
3138.166582897979
 30
0.0
 40
10.0
100
AcDbArc
 50
0.0
 51
90.00000299998466
  0
ARC
  5
BEEC
330
1F
100
AcDbEntity
  8
0
  6
Continuous
 62
     7
100
AcDbCircle
 10
5091.205909181043
 20
3219.229082897979
 30
0.0
 40
1.0
100
AcDbArc
 50
179.999989999999
 51
270.0
  0
ARC
  5
BEED
330
1F
100
AcDbEntity
  8
0
  6
Continuous
 62
     7
100
AcDbCircle
 10
5114.205909181044
 20
3219.229082897979
 30
0.0
 40
1.0
100
AcDbArc
 50
270.0
 51
0.0
  0
ARC
  5
BEEE
330
1F
100
AcDbEntity
  8
0
  6
Continuous
 62
     7
100
AcDbCircle
 10
5233.181825181043
 20
3177.166582897978
 30
0.0
 40
1.0
100
AcDbArc
 50
90.00000299998466
 51
180.000010000001
  0
ARC
  5
BEEF
330
1F
100
AcDbEntity
  8
0
  6
Continuous
 62
     7
100
AcDbCircle
 10
5229.181825181043
 20
3159.166582897979
 30
0.0
 40
3.0
100
AcDbArc
 50
270.0
 51
0.0
  0
ARC
  5
BEF0
330
1F
100
AcDbEntity
  8
0
  6
Continuous
 62
     7
100
AcDbCircle
 10
5091.205909181043
 20
3235.229082897979
 30
0.0
 40
1.0
100
AcDbArc
 50
179.999989999999
 51
270.0
  0
ARC
  5
BEF1
330
1F
100
AcDbEntity
  8
0
  6
Continuous
 62
     7
100
AcDbCircle
 10
5114.205909181044
 20
3235.229082897979
 30
0.0
 40
1.0
100
AcDbArc
 50
270.0
 51
0.0
  0
ARC
  5
BEF2
330
1F
100
AcDbEntity
  8
0
  6
PHANTOM
 62
     7
100
AcDbCircle
 10
5113.705909181042
 20
3255.729082897979
 30
0.0
 40
1.5
100
AcDbArc
 50
90.00000299998466
 51
180.000010000001
  0
ARC
  5
BEF3
330
1F
100
AcDbEntity
  8
0
  6
PHANTOM
 62
     7
100
AcDbCircle
 10
5113.705909181042
 20
3255.729082897979
 30
0.0
 40
1.5
100
AcDbArc
 50
0.0
 51
90.00000299998466
  0
ARC
  5
BEF4
330
1F
100
AcDbEntity
  8
0
  6
PHANTOM
 62
     7
100
AcDbCircle
 10
5113.705909181042
 20
3240.729082897978
 30
0.0
 40
1.5
100
AcDbArc
 50
270.0
 51
0.0
  0
ARC
  5
BEF5
330
1F
100
AcDbEntity
  8
0
  6
PHANTOM
 62
     7
100
AcDbCircle
 10
5080.705909181044
 20
3240.729082897978
 30
0.0
 40
1.5
100
AcDbArc
 50
179.999989999999
 51
270.0
  0
ARC
  5
BEF6
330
1F
100
AcDbEntity
  8
0
  6
PHANTOM
 62
     7
100
AcDbCircle
 10
5079.205909181042
 20
3262.729082897979
 30
0.0
 40
1.5
100
AcDbArc
 50
0.0
 51
90.00000299998466
  0
ARC
  5
BEF7
330
1F
100
AcDbEntity
  8
0
  6
PHANTOM
 62
     7
100
AcDbCircle
 10
5089.705909181042
 20
3242.229082897978
 30
0.0
 40
1.5
100
AcDbArc
 50
179.999989999999
 51
270.0
  0
ARC
  5
BEF8
330
1F
100
AcDbEntity
  8
0
  6
PHANTOM
 62
     7
100
AcDbCircle
 10
5086.205909181043
 20
3267.729082897979
 30
0.0
 40
2.0
100
AcDbArc
 50
270.0
 51
0.0
  0
ARC
  5
BEF9
330
1F
100
AcDbEntity
  8
0
  6
PHANTOM
 62
     7
100
AcDbCircle
 10
5096.705909181043
 20
3256.229082897978
 30
0.0
 40
1.0
100
AcDbArc
 50
179.999989999999
 51
329.9999900000081
  0
ARC
  5
BEFA
330
1F
100
AcDbEntity
  8
0
  6
PHANTOM
 62
     7
100
AcDbCircle
 10
5096.805909181043
 20
3256.602292897979
 30
0.0
 40
0.1
100
AcDbArc
 50
179.999989999999
 51
329.9999900000081
  0
ARC
  5
BEFB
330
1F
100
AcDbEntity
  8
0
  6
PHANTOM
 62
     7
100
AcDbCircle
 10
5098.705909181042
 20
3267.729082897979
 30
0.0
 40
2.0
100
AcDbArc
 50
179.999989999999
 51
270.0
  0
CIRCLE
  5
BEFC
330
1F
100
AcDbEntity
  8
0
  6
PHANTOM
 62
     7
100
AcDbCircle
 10
5216.181824781042
 20
3130.166582897979
 30
0.0
 40
13.0
  0
TEXT
  5
BEFD
330
1F
100
AcDbEntity
  8
0
  6
Continuous
 62
     7
100
AcDbText
 10
5105.241619181043
 20
3067.666582897979
 30
0.0
 40
2.0
  1
12.5
 41
1.392857299999999
100
AcDbText
  0
LINE
  5
BEFE
330
1F
100
AcDbEntity
  8
0
  6
Continuous
 62
     7
100
AcDbLine
 10
5102.705909181043
 20
3067.166582897979
 30
0.0
 11
5108.955909181044
 21
3067.166582897979
 31
0.0
  0
CIRCLE
  5
BEFF
330
1F
100
AcDbEntity
  8
0
  6
Continuous
 62
     7
100
AcDbCircle
 10
5102.705909181043
 20
3067.166582897979
 30
0.0
 40
0.3
  0
LINE
  5
BF00
330
1F
100
AcDbEntity
  8
0
  6
Continuous
 62
     7
100
AcDbLine
 10
5115.205909181043
 20
3067.166582897979
 30
0.0
 11
5108.955909181044
 21
3067.166582897979
 31
0.0
  0
CIRCLE
  5
BF01
330
1F
100
AcDbEntity
  8
0
  6
Continuous
 62
     7
100
AcDbCircle
 10
5115.205909181043
 20
3067.166582897979
 30
0.0
 40
0.3
  0
LINE
  5
BF02
330
1F
100
AcDbEntity
  8
0
  6
Continuous
 62
     7
100
AcDbLine
 10
5102.705909181043
 20
3077.166582897979
 30
0.0
 11
5102.705909181043
 21
3065.966585897979
 31
0.0
  0
LINE
  5
BF03
330
1F
100
AcDbEntity
  8
0
  6
Continuous
 62
     7
100
AcDbLine
 10
5115.205909181043
 20
3083.166582897979
 30
0.0
 11
5115.205909181043
 21
3065.966585897979
 31
0.0
  0
TEXT
  5
BF04
330
1F
100
AcDbEntity
  8
0
  6
Continuous
 62
     7
100
AcDbText
 10
5092.741619181043
 20
3067.666582897979
 30
0.0
 40
2.0
  1
12.5
 41
1.392857299999999
100
AcDbText
  0
LINE
  5
BF05
330
1F
100
AcDbEntity
  8
0
  6
Continuous
 62
     7
100
AcDbLine
 10
5090.205909181044
 20
3067.166582897979
 30
0.0
 11
5096.455909181043
 21
3067.166582897979
 31
0.0
  0
CIRCLE
  5
BF06
330
1F
100
AcDbEntity
  8
0
  6
Continuous
 62
     7
100
AcDbCircle
 10
5090.205909181044
 20
3067.166582897979
 30
0.0
 40
0.3
  0
LINE
  5
BF07
330
1F
100
AcDbEntity
  8
0
  6
Continuous
 62
     7
100
AcDbLine
 10
5102.705909181043
 20
3067.166582897979
 30
0.0
 11
5096.455909181043
 21
3067.166582897979
 31
0.0
  0
CIRCLE
  5
BF08
330
1F
100
AcDbEntity
  8
0
  6
Continuous
 62
     7
100
AcDbCircle
 10
5102.705909181043
 20
3067.166582897979
 30
0.0
 40
0.3
  0
LINE
  5
BF09
330
1F
100
AcDbEntity
  8
0
  6
Continuous
 62
     7
100
AcDbLine
 10
5090.205909181044
 20
3083.166582897979
 30
0.0
 11
5090.205909181044
 21
3065.966585897979
 31
0.0
  0
TEXT
  5
BF0A
330
1F
100
AcDbEntity
  8
0
  6
Continuous
 62
     7
100
AcDbText
 10
5100.991619181042
 20
3057.666582897978
 30
0.0
 40
2.0
  1
25
 41
1.0285716
100
AcDbText
  0
LINE
  5
BF0B
330
1F
100
AcDbEntity
  8
0
  6
Continuous
 62
     7
100
AcDbLine
 10
5090.205909181044
 20
3057.166582897979
 30
0.0
 11
5102.705909181043
 21
3057.166582897979
 31
0.0
  0
CIRCLE
  5
BF0C
330
1F
100
AcDbEntity
  8
0
  6
Continuous
 62
     7
100
AcDbCircle
 10
5090.205909181044
 20
3057.166582897979
 30
0.0
 40
0.3
  0
LINE
  5
BF0D
330
1F
100
AcDbEntity
  8
0
  6
Continuous
 62
     7
100
AcDbLine
 10
5115.205909181043
 20
3057.166582897979
 30
0.0
 11
5102.705909181043
 21
3057.166582897979
 31
0.0
  0
CIRCLE
  5
BF0E
330
1F
100
AcDbEntity
  8
0
  6
Continuous
 62
     7
100
AcDbCircle
 10
5115.205909181043
 20
3057.166582897979
 30
0.0
 40
0.3
  0
LINE
  5
BF0F
330
1F
100
AcDbEntity
  8
0
  6
Continuous
 62
     7
100
AcDbLine
 10
5090.205909181044
 20
3083.166582897979
 30
0.0
 11
5090.205909181044
 21
3055.966585897979
 31
0.0
  0
LINE
  5
BF10
330
1F
100
AcDbEntity
  8
0
  6
Continuous
 62
     7
100
AcDbLine
 10
5115.205909181043
 20
3083.166582897979
 30
0.0
 11
5115.205909181043
 21
3055.966585897979
 31
0.0
  0
TEXT
  5
BF11
330
1F
100
AcDbEntity
  8
0
  6
Continuous
 62
     7
100
AcDbText
 10
5129.705909181042
 20
3085.452296897979
 30
0.0
 40
2.0
  1
8
 50
90.00000300000001
 41
1.071429
100
AcDbText
  0
LINE
  5
BF12
330
1F
100
AcDbEntity
  8
0
  6
Continuous
 62
     7
100
AcDbLine
 10
5130.205909181043
 20
3082.166582897979
 30
0.0
 11
5130.205909181043
 21
3086.166582897979
 31
0.0
  0
CIRCLE
  5
BF13
330
1F
100
AcDbEntity
  8
0
  6
Continuous
 62
     7
100
AcDbCircle
 10
5130.205909181043
 20
3082.166582897979
 30
0.0
 40
0.3
  0
LINE
  5
BF14
330
1F
100
AcDbEntity
  8
0
  6
Continuous
 62
     7
100
AcDbLine
 10
5130.205909181043
 20
3090.166582897979
 30
0.0
 11
5130.205909181043
 21
3086.166582897979
 31
0.0
  0
CIRCLE
  5
BF15
330
1F
100
AcDbEntity
  8
0
  6
Continuous
 62
     7
100
AcDbCircle
 10
5130.205909181043
 20
3090.166582897979
 30
0.0
 40
0.3
  0
LINE
  5
BF16
330
1F
100
AcDbEntity
  8
0
  6
Continuous
 62
     7
100
AcDbLine
 10
5114.205909181044
 20
3082.166582897979
 30
0.0
 11
5131.405906181043
 21
3082.166582897979
 31
0.0
  0
LINE
  5
BF17
330
1F
100
AcDbEntity
  8
0
  6
Continuous
 62
     7
100
AcDbLine
 10
5110.205909181043
 20
3090.166582897979
 30
0.0
 11
5131.405906181043
 21
3090.166582897979
 31
0.0
  0
TEXT
  5
BF18
330
1F
100
AcDbEntity
  8
0
  6
Continuous
 62
     7
100
AcDbText
 10
5129.705909181042
 20
3173.452296897979
 30
0.0
 40
2.0
  1
8
 50
90.00000300000001
 41
1.071429
100
AcDbText
  0
LINE
  5
BF19
330
1F
100
AcDbEntity
  8
0
  6
Continuous
 62
     7
100
AcDbLine
 10
5130.205909181043
 20
3170.166582897979
 30
0.0
 11
5130.205909181043
 21
3174.166582897979
 31
0.0
  0
CIRCLE
  5
BF1A
330
1F
100
AcDbEntity
  8
0
  6
Continuous
 62
     7
100
AcDbCircle
 10
5130.205909181043
 20
3170.166582897979
 30
0.0
 40
0.3
  0
LINE
  5
BF1B
330
1F
100
AcDbEntity
  8
0
  6
Continuous
 62
     7
100
AcDbLine
 10
5130.205909181043
 20
3178.166582897979
 30
0.0
 11
5130.205909181043
 21
3174.166582897979
 31
0.0
  0
CIRCLE
  5
BF1C
330
1F
100
AcDbEntity
  8
0
  6
Continuous
 62
     7
100
AcDbCircle
 10
5130.205909181043
 20
3178.166582897979
 30
0.0
 40
0.3
  0
LINE
  5
BF1D
330
1F
100
AcDbEntity
  8
0
  6
Continuous
 62
     7
100
AcDbLine
 10
5110.205909181043
 20
3170.166582897979
 30
0.0
 11
5131.405906181043
 21
3170.166582897979
 31
0.0
  0
LINE
  5
BF1E
330
1F
100
AcDbEntity
  8
0
  6
Continuous
 62
     7
100
AcDbLine
 10
5114.205909181044
 20
3178.166582897979
 30
0.0
 11
5131.405906181043
 21
3178.166582897979
 31
0.0
  0
TEXT
  5
BF1F
330
1F
100
AcDbEntity
  8
0
  6
Continuous
 62
     7
100
AcDbText
 10
5129.705909181042
 20
3128.452296897979
 30
0.0
 40
2.0
  1
80
 50
90.00000300000001
 41
1.102041
100
AcDbText
  0
LINE
  5
BF20
330
1F
100
AcDbEntity
  8
0
  6
Continuous
 62
     7
100
AcDbLine
 10
5130.205909181043
 20
3090.166582897979
 30
0.0
 11
5130.205909181043
 21
3130.166582897979
 31
0.0
  0
CIRCLE
  5
BF21
330
1F
100
AcDbEntity
  8
0
  6
Continuous
 62
     7
100
AcDbCircle
 10
5130.205909181043
 20
3090.166582897979
 30
0.0
 40
0.3
  0
LINE
  5
BF22
330
1F
100
AcDbEntity
  8
0
  6
Continuous
 62
     7
100
AcDbLine
 10
5130.205909181043
 20
3170.166582897979
 30
0.0
 11
5130.205909181043
 21
3130.166582897979
 31
0.0
  0
CIRCLE
  5
BF23
330
1F
100
AcDbEntity
  8
0
  6
Continuous
 62
     7
100
AcDbCircle
 10
5130.205909181043
 20
3170.166582897979
 30
0.0
 40
0.3
  0
LINE
  5
BF24
330
1F
100
AcDbEntity
  8
0
  6
Continuous
 62
     7
100
AcDbLine
 10
5110.205909181043
 20
3090.166582897979
 30
0.0
 11
5131.405906181043
 21
3090.166582897979
 31
0.0
  0
LINE
  5
BF25
330
1F
100
AcDbEntity
  8
0
  6
Continuous
 62
     7
100
AcDbLine
 10
5131.405906181043
 20
3170.166582897979
 30
0.0
 11
5129.005912181042
 21
3170.166582897979
 31
0.0
  0
TEXT
  5
BF26
330
1F
100
AcDbEntity
  8
0
  6
Continuous
 62
     7
100
AcDbText
 10
5139.705909181042
 20
3128.452296897979
 30
0.0
 40
2.0
  1
96
 50
90.00000300000001
 41
1.0285716
100
AcDbText
  0
LINE
  5
BF27
330
1F
100
AcDbEntity
  8
0
  6
Continuous
 62
     7
100
AcDbLine
 10
5140.205909181043
 20
3082.166582897979
 30
0.0
 11
5140.205909181043
 21
3130.166582897979
 31
0.0
  0
CIRCLE
  5
BF28
330
1F
100
AcDbEntity
  8
0
  6
Continuous
 62
     7
100
AcDbCircle
 10
5140.205909181043
 20
3082.166582897979
 30
0.0
 40
0.3
  0
LINE
  5
BF29
330
1F
100
AcDbEntity
  8
0
  6
Continuous
 62
     7
100
AcDbLine
 10
5140.205909181043
 20
3178.166582897979
 30
0.0
 11
5140.205909181043
 21
3130.166582897979
 31
0.0
  0
CIRCLE
  5
BF2A
330
1F
100
AcDbEntity
  8
0
  6
Continuous
 62
     7
100
AcDbCircle
 10
5140.205909181043
 20
3178.166582897979
 30
0.0
 40
0.3
  0
LINE
  5
BF2B
330
1F
100
AcDbEntity
  8
0
  6
Continuous
 62
     7
100
AcDbLine
 10
5114.205909181044
 20
3082.166582897979
 30
0.0
 11
5141.405906181043
 21
3082.166582897979
 31
0.0
  0
LINE
  5
BF2C
330
1F
100
AcDbEntity
  8
0
  6
Continuous
 62
     7
100
AcDbLine
 10
5114.205909181044
 20
3178.166582897979
 30
0.0
 11
5141.405906181043
 21
3178.166582897979
 31
0.0
  0
LINE
  5
BF2D
330
1F
100
AcDbEntity
  8
0
  6
Continuous
 62
     7
100
AcDbLine
 10
5073.824639181043
 20
3078.666582897979
 30
0.0
 11
5044.267099181043
 21
3078.666582897979
 31
0.0
  0
LINE
  5
BF2E
330
1F
100
AcDbEntity
  8
0
  6
Continuous
 62
     7
100
AcDbLine
 10
5096.945749181043
 20
3087.872988897979
 30
0.0
 11
5073.824619181043
 21
3078.666578897979
 31
0.0
  0
LINE
  5
BF2F
330
1F
100
AcDbEntity
  8
0
  6
Continuous
 62
     7
100
AcDbLine
 10
5108.466059181043
 20
3092.460169897979
 30
0.0
 11
5096.945749181043
 21
3087.872988897979
 31
0.0
  0
CIRCLE
  5
BF30
330
1F
100
AcDbEntity
  8
0
  6
Continuous
 62
     7
100
AcDbCircle
 10
5108.466059181043
 20
3092.460169897979
 30
0.0
 40
0.3
  0
LINE
  5
BF31
330
1F
100
AcDbEntity
  8
0
  6
Continuous
 62
     7
100
AcDbLine
 10
5096.945749181043
 20
3087.872988897979
 30
0.0
 11
5108.466059181043
 21
3092.460169897979
 31
0.0
  0
CIRCLE
  5
BF32
330
1F
100
AcDbEntity
  8
0
  6
Continuous
 62
     7
100
AcDbCircle
 10
5096.945749181043
 20
3087.872988897979
 30
0.0
 40
0.3
  0
TEXT
  5
BF33
330
1F
100
AcDbEntity
  8
0
  6
Continuous
 62
     7
100
AcDbText
 10
5044.267109181042
 20
3079.166582897979
 30
0.0
 40
2.0
  1
２－%%C６．２×%%C１２．４サラ
 41
0.8634387799999998
100
AcDbText
  0
TEXT
  5
BF34
330
1F
100
AcDbEntity
  8
0
  6
Continuous
 62
     7
100
AcDbText
 10
5229.967539181043
 20
3067.666582897979
 30
0.0
 40
2.0
  1
3
 41
1.071429
100
AcDbText
  0
LINE
  5
BF35
330
1F
100
AcDbEntity
  8
0
  6
Continuous
 62
     7
100
AcDbLine
 10
5232.181825181043
 20
3067.166582897979
 30
0.0
 11
5230.681825181043
 21
3067.166582897979
 31
0.0
  0
CIRCLE
  5
BF36
330
1F
100
AcDbEntity
  8
0
  6
Continuous
 62
     7
100
AcDbCircle
 10
5232.181825181043
 20
3067.166582897979
 30
0.0
 40
0.3
  0
LINE
  5
BF37
330
1F
100
AcDbEntity
  8
0
  6
Continuous
 62
     7
100
AcDbLine
 10
5229.181825181043
 20
3067.166582897979
 30
0.0
 11
5230.681825181043
 21
3067.166582897979
 31
0.0
  0
CIRCLE
  5
BF38
330
1F
100
AcDbEntity
  8
0
  6
Continuous
 62
     7
100
AcDbCircle
 10
5229.181825181043
 20
3067.166582897979
 30
0.0
 40
0.3
  0
LINE
  5
BF39
330
1F
100
AcDbEntity
  8
0
  6
Continuous
 62
     7
100
AcDbLine
 10
5232.181825181043
 20
3082.166582897979
 30
0.0
 11
5232.181825181043
 21
3065.966585897979
 31
0.0
  0
LINE
  5
BF3A
330
1F
100
AcDbEntity
  8
0
  6
Continuous
 62
     7
100
AcDbLine
 10
5229.181825181043
 20
3118.166582897979
 30
0.0
 11
5229.181825181043
 21
3065.966585897979
 31
0.0
  0
TEXT
  5
BF3B
330
1F
100
AcDbEntity
  8
0
  6
Continuous
 62
     7
100
AcDbText
 10
5233.967539181043
 20
3067.666582897979
 30
0.0
 40
2.0
  1
5
 41
1.071429
100
AcDbText
  0
LINE
  5
BF3C
330
1F
100
AcDbEntity
  8
0
  6
Continuous
 62
     7
100
AcDbLine
 10
5237.181825181043
 20
3067.166582897979
 30
0.0
 11
5234.681825181042
 21
3067.166582897979
 31
0.0
  0
CIRCLE
  5
BF3D
330
1F
100
AcDbEntity
  8
0
  6
Continuous
 62
     7
100
AcDbCircle
 10
5237.181825181043
 20
3067.166582897979
 30
0.0
 40
0.3
  0
LINE
  5
BF3E
330
1F
100
AcDbEntity
  8
0
  6
Continuous
 62
     7
100
AcDbLine
 10
5232.181825181043
 20
3067.166582897979
 30
0.0
 11
5234.681825181042
 21
3067.166582897979
 31
0.0
  0
CIRCLE
  5
BF3F
330
1F
100
AcDbEntity
  8
0
  6
Continuous
 62
     7
100
AcDbCircle
 10
5232.181825181043
 20
3067.166582897979
 30
0.0
 40
0.3
  0
LINE
  5
BF40
330
1F
100
AcDbEntity
  8
0
  6
Continuous
 62
     7
100
AcDbLine
 10
5237.181825181043
 20
3082.166582897979
 30
0.0
 11
5237.181825181043
 21
3065.966585897979
 31
0.0
  0
TEXT
  5
BF41
330
1F
100
AcDbEntity
  8
0
  6
Continuous
 62
     7
100
AcDbText
 10
5187.681825181043
 20
3159.966529897979
 30
0.0
 40
2.0
  1
48
 50
90.00000300000001
 41
1.0285716
100
AcDbText
  0
LINE
  5
BF42
330
1F
100
AcDbEntity
  8
0
  6
Continuous
 62
     7
100
AcDbLine
 10
5188.181825181043
 20
3130.166582897979
 30
0.0
 11
5188.181825181043
 21
3154.166582897979
 31
0.0
  0
CIRCLE
  5
BF43
330
1F
100
AcDbEntity
  8
0
  6
Continuous
 62
     7
100
AcDbCircle
 10
5188.181825181043
 20
3130.166582897979
 30
0.0
 40
0.3
  0
LINE
  5
BF44
330
1F
100
AcDbEntity
  8
0
  6
Continuous
 62
     7
100
AcDbLine
 10
5188.181825181043
 20
3178.166582897979
 30
0.0
 11
5188.181825181043
 21
3154.166582897979
 31
0.0
  0
CIRCLE
  5
BF45
330
1F
100
AcDbEntity
  8
0
  6
Continuous
 62
     7
100
AcDbCircle
 10
5188.181825181043
 20
3178.166582897979
 30
0.0
 40
0.3
  0
LINE
  5
BF46
330
1F
100
AcDbEntity
  8
0
  6
Continuous
 62
     7
100
AcDbLine
 10
5201.181825181043
 20
3130.166582897979
 30
0.0
 11
5186.981824181042
 21
3130.166582897979
 31
0.0
  0
LINE
  5
BF47
330
1F
100
AcDbEntity
  8
0
  6
Continuous
 62
     7
100
AcDbLine
 10
5232.181825181043
 20
3178.166582897979
 30
0.0
 11
5186.981824181042
 21
3178.166582897979
 31
0.0
  0
TEXT
  5
BF48
330
1F
100
AcDbEntity
  8
0
  6
Continuous
 62
     7
100
AcDbText
 10
5187.681825181043
 20
3104.452296897979
 30
0.0
 40
2.0
  1
48
 50
90.00000300000001
 41
1.0285716
100
AcDbText
  0
LINE
  5
BF49
330
1F
100
AcDbEntity
  8
0
  6
Continuous
 62
     7
100
AcDbLine
 10
5188.181825181043
 20
3082.166582897979
 30
0.0
 11
5188.181825181043
 21
3106.166582897979
 31
0.0
  0
CIRCLE
  5
BF4A
330
1F
100
AcDbEntity
  8
0
  6
Continuous
 62
     7
100
AcDbCircle
 10
5188.181825181043
 20
3082.166582897979
 30
0.0
 40
0.3
  0
LINE
  5
BF4B
330
1F
100
AcDbEntity
  8
0
  6
Continuous
 62
     7
100
AcDbLine
 10
5188.181825181043
 20
3130.166582897979
 30
0.0
 11
5188.181825181043
 21
3106.166582897979
 31
0.0
  0
CIRCLE
  5
BF4C
330
1F
100
AcDbEntity
  8
0
  6
Continuous
 62
     7
100
AcDbCircle
 10
5188.181825181043
 20
3130.166582897979
 30
0.0
 40
0.3
  0
LINE
  5
BF4D
330
1F
100
AcDbEntity
  8
0
  6
Continuous
 62
     7
100
AcDbLine
 10
5233.181825181043
 20
3082.166582897979
 30
0.0
 11
5186.981824181042
 21
3082.166582897979
 31
0.0
  0
LINE
  5
BF4E
330
1F
100
AcDbEntity
  8
0
  6
Continuous
 62
     7
100
AcDbLine
 10
5201.181825181043
 20
3130.166582897979
 30
0.0
 11
5186.981824181042
 21
3130.166582897979
 31
0.0
  0
TEXT
  5
BF4F
330
1F
100
AcDbEntity
  8
0
  6
Continuous
 62
     7
100
AcDbText
 10
5129.705909181042
 20
3246.014792897979
 30
0.0
 40
2.0
  1
33
 50
90.00000300000001
 41
1.0285716
100
AcDbText
  0
LINE
  5
BF50
330
1F
100
AcDbEntity
  8
0
  6
Continuous
 62
     7
100
AcDbLine
 10
5130.205909181043
 20
3231.229082897979
 30
0.0
 11
5130.205909181043
 21
3247.729082897978
 31
0.0
  0
CIRCLE
  5
BF51
330
1F
100
AcDbEntity
  8
0
  6
Continuous
 62
     7
100
AcDbCircle
 10
5130.205909181043
 20
3231.229082897979
 30
0.0
 40
0.3
  0
LINE
  5
BF52
330
1F
100
AcDbEntity
  8
0
  6
Continuous
 62
     7
100
AcDbLine
 10
5130.205909181043
 20
3264.229082897979
 30
0.0
 11
5130.205909181043
 21
3247.729082897978
 31
0.0
  0
CIRCLE
  5
BF53
330
1F
100
AcDbEntity
  8
0
  6
Continuous
 62
     7
100
AcDbCircle
 10
5130.205909181043
 20
3264.229082897979
 30
0.0
 40
0.3
  0
LINE
  5
BF54
330
1F
100
AcDbEntity
  8
0
  6
Continuous
 62
     7
100
AcDbLine
 10
5115.205909181043
 20
3231.229082897979
 30
0.0
 11
5131.405906181043
 21
3231.229082897979
 31
0.0
  0
TEXT
  5
BF55
330
1F
100
AcDbEntity
  8
0
  6
Continuous
 62
     7
100
AcDbText
 10
5233.967539181043
 20
3193.666582897979
 30
0.0
 40
2.0
  1
5
 41
1.071429
100
AcDbText
  0
LINE
  5
BF56
330
1F
100
AcDbEntity
  8
0
  6
Continuous
 62
     7
100
AcDbLine
 10
5232.181825181043
 20
3193.166582897978
 30
0.0
 11
5234.681825181042
 21
3193.166582897978
 31
0.0
  0
CIRCLE
  5
BF57
330
1F
100
AcDbEntity
  8
0
  6
Continuous
 62
     7
100
AcDbCircle
 10
5232.181825181043
 20
3193.166582897978
 30
0.0
 40
0.3
  0
LINE
  5
BF58
330
1F
100
AcDbEntity
  8
0
  6
Continuous
 62
     7
100
AcDbLine
 10
5237.181825181043
 20
3193.166582897978
 30
0.0
 11
5234.681825181042
 21
3193.166582897978
 31
0.0
  0
CIRCLE
  5
BF59
330
1F
100
AcDbEntity
  8
0
  6
Continuous
 62
     7
100
AcDbCircle
 10
5237.181825181043
 20
3193.166582897978
 30
0.0
 40
0.3
  0
LINE
  5
BF5A
330
1F
100
AcDbEntity
  8
0
  6
Continuous
 62
     7
100
AcDbLine
 10
5232.181825181043
 20
3178.166582897979
 30
0.0
 11
5232.181825181043
 21
3194.366583897979
 31
0.0
  0
LINE
  5
BF5B
330
1F
100
AcDbEntity
  8
0
  6
Continuous
 62
     7
100
AcDbLine
 10
5237.181825181043
 20
3178.166582897979
 30
0.0
 11
5237.181825181043
 21
3194.366583897979
 31
0.0
  0
TEXT
  5
BF5C
330
1F
100
AcDbEntity
  8
0
  6
Continuous
 62
     7
100
AcDbText
 10
5224.467539081043
 20
3203.666582897979
 30
0.0
 40
2.0
  1
22
 41
1.0285716
100
AcDbText
  0
LINE
  5
BF5D
330
1F
100
AcDbEntity
  8
0
  6
Continuous
 62
     7
100
AcDbLine
 10
5237.181825181043
 20
3203.166582897978
 30
0.0
 11
5226.181824981043
 21
3203.166582897978
 31
0.0
  0
CIRCLE
  5
BF5E
330
1F
100
AcDbEntity
  8
0
  6
Continuous
 62
     7
100
AcDbCircle
 10
5237.181825181043
 20
3203.166582897978
 30
0.0
 40
0.3
  0
LINE
  5
BF5F
330
1F
100
AcDbEntity
  8
0
  6
Continuous
 62
     7
100
AcDbLine
 10
5215.181824881043
 20
3203.166582897978
 30
0.0
 11
5226.181824981043
 21
3203.166582897978
 31
0.0
  0
CIRCLE
  5
BF60
330
1F
100
AcDbEntity
  8
0
  6
Continuous
 62
     7
100
AcDbCircle
 10
5215.181824881043
 20
3203.166582897978
 30
0.0
 40
0.3
  0
LINE
  5
BF61
330
1F
100
AcDbEntity
  8
0
  6
Continuous
 62
     7
100
AcDbLine
 10
5237.181825181043
 20
3178.166582897979
 30
0.0
 11
5237.181825181043
 21
3204.366579897979
 31
0.0
  0
LINE
  5
BF62
330
1F
100
AcDbEntity
  8
0
  6
Continuous
 62
     7
100
AcDbLine
 10
5215.181824881043
 20
3156.166582897979
 30
0.0
 11
5215.181824881043
 21
3204.366579897979
 31
0.0
  0
LINE
  5
BF63
330
1F
100
AcDbEntity
  8
0DFB-2020
100
AcDbLine
 10
5102.668616527103
 20
4196.638219243371
 30
0.0
 11
5102.668616527103
 21
4176.638219243372
 31
0.0
  0
LINE
  5
BF64
330
1F
100
AcDbEntity
  8
AM_11
100
AcDbLine
 10
5127.668616527103
 20
4213.138219243371
 30
0.0
 11
5127.668616527103
 21
4198.138219243372
 31
0.0
  0
LINE
  5
BF65
330
1F
100
AcDbEntity
  8
0DFB-2020
100
AcDbLine
 10
5103.668616527103
 20
4175.638219243372
 30
0.0
 11
5126.668616527103
 21
4175.638219243372
 31
0.0
  0
LINE
  5
BF66
330
1F
100
AcDbEntity
  8
0DFB-2020
  6
陰線1
370
    13
100
AcDbLine
 10
5102.668616527103
 20
4188.638219243371
 30
0.0
 11
5127.668616527103
 21
4188.638219243371
 31
0.0
  0
LINE
  5
BF67
330
1F
100
AcDbEntity
  8
AM_11
100
AcDbLine
 10
5093.168616527103
 20
4196.638219243371
 30
0.0
 11
5126.168616527102
 21
4196.638219243371
 31
0.0
  0
LINE
  5
BF68
330
1F
100
AcDbEntity
  8
0DFB-2020
100
AcDbLine
 10
5103.668616527103
 20
4191.638219243372
 30
0.0
 11
5126.668616527103
 21
4191.638219243372
 31
0.0
  0
LINE
  5
BF69
330
1F
100
AcDbEntity
  8
AM_11
100
AcDbLine
 10
5091.668616527102
 20
4220.138219243372
 30
0.0
 11
5091.668616527102
 21
4198.138219243372
 31
0.0
  0
LINE
  5
BF6A
330
1F
100
AcDbEntity
  8
AM_11
100
AcDbLine
 10
5093.168616527103
 20
4198.138219243372
 30
0.0
 11
5126.168616527102
 21
4198.138219243372
 31
0.0
  0
LINE
  5
BF6B
330
1F
100
AcDbEntity
  8
AM_11
100
AcDbLine
 10
5126.168616527102
 20
4214.638219243371
 30
0.0
 11
5126.168616527102
 21
4214.638219243371
 31
0.0
  0
LINE
  5
BF6C
330
1F
100
AcDbEntity
  8
0DFB-2020
100
AcDbLine
 10
5127.668616527103
 20
4196.638219243371
 30
0.0
 11
5127.668616527103
 21
4176.638219243372
 31
0.0
  0
LINE
  5
BF6D
330
1F
100
AcDbEntity
  8
AM_11
100
AcDbLine
 10
5126.168616527102
 20
4213.318949243372
 30
0.0
 11
5126.168616527102
 21
4198.138219243372
 31
0.0
  0
LINE
  5
BF6E
330
1F
100
AcDbEntity
  8
AM_11
100
AcDbLine
 10
5124.668616527102
 20
4213.138219243371
 30
0.0
 11
5124.668616527102
 21
4199.638219243372
 31
0.0
  0
LINE
  5
BF6F
330
1F
100
AcDbEntity
  8
AM_11
100
AcDbLine
 10
5102.168616527102
 20
4199.638219243372
 30
0.0
 11
5126.168616527102
 21
4199.638219243372
 31
0.0
  0
LINE
  5
BF70
330
1F
100
AcDbEntity
  8
0DFB-2020
100
AcDbLine
 10
5102.668616527103
 20
4196.638219243371
 30
0.0
 11
5127.668616527103
 21
4196.638219243371
 31
0.0
  0
LINE
  5
BF71
330
1F
100
AcDbEntity
  8
AM_11
100
AcDbLine
 10
5093.168616527103
 20
4220.138219243372
 30
0.0
 11
5093.168616527103
 21
4198.138219243372
 31
0.0
  0
LINE
  5
BF72
330
1F
100
AcDbEntity
  8
AM_11
100
AcDbLine
 10
5072.168616527102
 20
4221.638219243372
 30
0.0
 11
5100.668616527103
 21
4221.638219243372
 31
0.0
  0
LINE
  5
BF73
330
1F
100
AcDbEntity
  8
AM_11
100
AcDbLine
 10
5076.668616527103
 20
4221.638219243372
 30
0.0
 11
5076.668616527103
 21
4220.138219243372
 31
0.0
  0
LINE
  5
BF74
330
1F
100
AcDbEntity
  8
AM_11
100
AcDbLine
 10
5076.668616527103
 20
4220.138219243372
 30
0.0
 11
5091.668616527102
 21
4220.138219243372
 31
0.0
  0
LINE
  5
BF75
330
1F
100
AcDbEntity
  8
AM_11
100
AcDbLine
 10
5100.668616527102
 20
4260.138219243374
 30
0.0
 11
5100.668616527103
 21
4199.638219243372
 31
0.0
  0
LINE
  5
BF76
330
1F
100
AcDbEntity
  8
AM_11
100
AcDbLine
 10
5102.168616527102
 20
4260.138219243373
 30
0.0
 11
5102.168616527102
 21
4199.638219243372
 31
0.0
  0
LINE
  5
BF77
330
1F
100
AcDbEntity
  8
AM_11
100
AcDbLine
 10
5072.168616527102
 20
4223.138219243372
 30
0.0
 11
5100.668616527103
 21
4223.138219243372
 31
0.0
  0
LINE
  5
BF78
330
1F
100
AcDbEntity
  8
AM_11
100
AcDbLine
 10
5081.668616527103
 20
4225.138219243372
 30
0.0
 11
5098.668616527103
 21
4225.138219243372
 31
0.0
  0
LINE
  5
BF79
330
1F
100
AcDbEntity
  8
AM_11
100
AcDbLine
 10
5098.668616527103
 20
4258.138219243374
 30
0.0
 11
5098.668616527103
 21
4225.138219243372
 31
0.0
  0
LINE
  5
BF7A
330
1F
100
AcDbEntity
  8
AM_11
100
AcDbLine
 10
5081.668616527103
 20
4225.138219243372
 30
0.0
 11
5081.668616527103
 21
4223.138219243372
 31
0.0
  0
LINE
  5
BF7C
330
1F
100
AcDbEntity
  8
AM_11
100
AcDbLine
 10
5109.668615517103
 20
4221.638219243373
 30
0.0
 11
5391.62627697328
 21
4221.638219243372
 31
0.0
  0
LINE
  5
BF83
330
1F
100
AcDbEntity
  8
AM_11
100
AcDbLine
 10
5109.168616527102
 20
4223.138219243372
 30
0.0
 11
5391.626276973278
 21
4223.138219243372
 31
0.0
  0
LINE
  5
BF88
330
1F
100
AcDbEntity
  8
0DFB-2020
  6
陰線1
370
    13
100
AcDbLine
 10
5112.168616527103
 20
4203.138219243372
 30
0.0
 11
5112.168616527103
 21
4194.638219243372
 31
0.0
  0
LINE
  5
BF89
330
1F
100
AcDbEntity
  8
0DFB-2020
  6
陰線1
370
    13
100
AcDbLine
 10
5118.168616527103
 20
4203.138214243373
 30
0.0
 11
5118.168616527103
 21
4194.638219243372
 31
0.0
  0
LINE
  5
BF8A
330
1F
100
AcDbEntity
  8
0DFB-2020
  6
陰線1
370
    13
100
AcDbLine
 10
5112.668616527103
 20
4203.638219243372
 30
0.0
 11
5117.668616527103
 21
4203.638219243372
 31
0.0
  0
LINE
  5
BF8D
330
1F
100
AcDbEntity
  8
0DFB-2020
  6
陰線1
370
    13
100
AcDbLine
 10
5112.168616527103
 20
4203.138219243372
 30
0.0
 11
5118.168616527103
 21
4203.138219243372
 31
0.0
  0
LINE
  5
BF8E
330
1F
100
AcDbEntity
  8
0DFB-2020
  6
陰線1
370
    13
100
AcDbLine
 10
5112.668616527103
 20
4203.638219243372
 30
0.0
 11
5112.168616527103
 21
4203.138219243372
 31
0.0
  0
LINE
  5
BF8F
330
1F
100
AcDbEntity
  8
0DFB-2020
  6
陰線1
370
    13
100
AcDbLine
 10
5117.668616527103
 20
4203.638219243372
 30
0.0
 11
5118.168616527103
 21
4203.138214243373
 31
0.0
  0
LINE
  5
BF90
330
1F
100
AcDbEntity
  8
0DFB-2020
  6
陰線1
370
    13
100
AcDbLine
 10
5109.168606527102
 20
4191.638227243372
 30
0.0
 11
5112.168606527102
 21
4194.638227243372
 31
0.0
  0
LINE
  5
BF91
330
1F
100
AcDbEntity
  8
0DFB-2020
  6
陰線1
370
    13
100
AcDbLine
 10
5118.168616527103
 20
4194.638219243372
 30
0.0
 11
5121.168616527103
 21
4191.638219243372
 31
0.0
  0
LINE
  5
BF92
330
1F
100
AcDbEntity
  8
0DFB-2020
  6
陰線1
370
    13
100
AcDbLine
 10
5112.168616527103
 20
4194.638219243372
 30
0.0
 11
5118.168616527103
 21
4194.638219243372
 31
0.0
  0
ARC
  5
BF93
330
1F
100
AcDbEntity
  8
0DFB-2020
100
AcDbCircle
 10
5103.668616527103
 20
4176.638219243372
 30
0.0
 40
1.0
100
AcDbArc
 50
179.999989999999
 51
270.0
  0
ARC
  5
BF94
330
1F
100
AcDbEntity
  8
0DFB-2020
100
AcDbCircle
 10
5126.668616527103
 20
4176.638219243372
 30
0.0
 40
1.0
100
AcDbArc
 50
270.0
 51
0.0
  0
ARC
  5
BF95
330
1F
100
AcDbEntity
  8
0DFB-2020
100
AcDbCircle
 10
5103.668616527103
 20
4192.638219243372
 30
0.0
 40
1.0
100
AcDbArc
 50
179.999989999999
 51
270.0
  0
ARC
  5
BF96
330
1F
100
AcDbEntity
  8
0DFB-2020
100
AcDbCircle
 10
5126.668616527103
 20
4192.638219243372
 30
0.0
 40
1.0
100
AcDbArc
 50
270.0
 51
0.0
  0
ARC
  5
BF97
330
1F
100
AcDbEntity
  8
AM_11
100
AcDbCircle
 10
5126.168616527102
 20
4213.138219243371
 30
0.0
 40
1.5
100
AcDbArc
 50
90.00000299998461
 51
180.000010000001
  0
ARC
  5
BF98
330
1F
100
AcDbEntity
  8
AM_11
100
AcDbCircle
 10
5126.168616527102
 20
4213.138219243371
 30
0.0
 40
1.5
100
AcDbArc
 50
0.0
 51
90.00000299998461
  0
ARC
  5
BF99
330
1F
100
AcDbEntity
  8
AM_11
100
AcDbCircle
 10
5126.168616527102
 20
4198.138219243372
 30
0.0
 40
1.5
100
AcDbArc
 50
270.0
 51
0.0
  0
ARC
  5
BF9A
330
1F
100
AcDbEntity
  8
AM_11
100
AcDbCircle
 10
5093.168616527103
 20
4198.138219243372
 30
0.0
 40
1.5
100
AcDbArc
 50
179.999989999999
 51
270.0
  0
ARC
  5
BF9B
330
1F
100
AcDbEntity
  8
AM_11
100
AcDbCircle
 10
5091.668616527102
 20
4220.138219243372
 30
0.0
 40
1.5
100
AcDbArc
 50
0.0
 51
90.00000299998461
  0
ARC
  5
BF9C
330
1F
100
AcDbEntity
  8
AM_11
100
AcDbCircle
 10
5102.168616527102
 20
4199.638219243372
 30
0.0
 40
1.5
100
AcDbArc
 50
179.999989999999
 51
270.0
  0
ARC
  5
BF9D
330
1F
100
AcDbEntity
  8
AM_11
100
AcDbCircle
 10
5098.668616527103
 20
4225.138219243372
 30
0.0
 40
2.0
100
AcDbArc
 50
270.0
 51
0.0
  0
LINE
  5
BFE4
330
1F
100
AcDbEntity
  8
0DFB-2020
  6
陰線1
370
    13
100
AcDbLine
 10
5117.668616527103
 20
4203.638219243372
 30
0.0
 11
5117.668616527103
 21
4194.638219243372
 31
0.0
  0
LINE
  5
BFE5
330
1F
100
AcDbEntity
  8
0DFB-2020
  6
陰線1
370
    13
100
AcDbLine
 10
5112.668616527103
 20
4203.638219243372
 30
0.0
 11
5112.668616527103
 21
4194.638219243372
 31
0.0
  0
LINE
  5
BFE6
330
1F
100
AcDbEntity
  8
AM_7
100
AcDbLine
 10
5115.168616527103
 20
4206.638219243372
 30
0.0
 11
5115.168616527103
 21
4172.638219243372
 31
0.0
1001
GENIUS_GENODEF_13
1002
{
1000
HIER
1070
     0
1002
}
1002
{
1000
MANEDIT
1070
     0
1002
}
1002
{
1000
NOSEL
1070
     0
1002
}
1002
{
1000
BEHIND
1070
     0
1002
}
1002
{
1000
OTHER
1070
     0
1002
}
1002
{
1000
REACTOR
1002
}
1001
GENIUS_GENOBJ-N-CEN_13
1002
{
1000
OWNER
1000
GEN
1002
}
1001
GENIUS_GENCEN_19
1002
{
1040
3.0
1002
}
  0
LINE
  5
C050
330
1F
100
AcDbEntity
  8
0DFB-2010
100
AcDbLine
 10
4682.173989120594
 20
4193.63821924337
 30
0.0
 11
4682.173989120594
 21
4155.63821924337
 31
0.0
  0
LINE
  5
C051
330
1F
100
AcDbEntity
  8
0DFB-2010
100
AcDbLine
 10
4714.673989120595
 20
4198.638219243369
 30
0.0
 11
4714.673989120595
 21
4150.63821924337
 31
0.0
  0
LINE
  5
C052
330
1F
100
AcDbEntity
  8
0DFB-2010
100
AcDbLine
 10
4682.173989120594
 20
4155.63821924337
 30
0.0
 11
4704.173989120596
 21
4155.63821924337
 31
0.0
  0
LINE
  5
C053
330
1F
100
AcDbEntity
  8
0DFB-2010
100
AcDbLine
 10
4682.173989120594
 20
4193.63821924337
 30
0.0
 11
4704.173989120596
 21
4193.63821924337
 31
0.0
  0
LINE
  5
C054
330
1F
100
AcDbEntity
  8
0DFB-2010
100
AcDbLine
 10
4704.673989120595
 20
4149.63821924337
 30
0.0
 11
4713.673989120596
 21
4149.63821924337
 31
0.0
  0
LINE
  5
C055
330
1F
100
AcDbEntity
  8
0DFB-2010
100
AcDbLine
 10
4704.673989120595
 20
4199.638219243371
 30
0.0
 11
4713.673989120596
 21
4199.638219243371
 31
0.0
  0
LINE
  5
C056
330
1F
100
AcDbEntity
  8
0DFB-2010
100
AcDbLine
 10
4704.173989120596
 20
4193.63821924337
 30
0.0
 11
4704.173989120596
 21
4155.63821924337
 31
0.0
  0
LINE
  5
C057
330
1F
100
AcDbEntity
  8
0DFB-2010
  6
陰線1
370
    13
100
AcDbLine
 10
4711.473989120595
 20
4197.63821924337
 30
0.0
 11
4711.473989120595
 21
4151.63821924337
 31
0.0
  0
LINE
  5
C058
330
1F
100
AcDbEntity
  8
0DFB-2010
  6
陰線1
370
    13
100
AcDbLine
 10
4704.673989120595
 20
4197.63821924337
 30
0.0
 11
4711.473989120595
 21
4197.63821924337
 31
0.0
  0
LINE
  5
C059
330
1F
100
AcDbEntity
  8
0DFB-2010
  6
陰線1
370
    13
100
AcDbLine
 10
4704.673989120595
 20
4151.63821924337
 30
0.0
 11
4711.473989120595
 21
4151.63821924337
 31
0.0
  0
LINE
  5
C05A
330
1F
100
AcDbEntity
  8
0DFB-2010
  6
陰線1
370
    13
100
AcDbLine
 10
4709.173989120595
 20
4197.63821924337
 30
0.0
 11
4709.173989120595
 21
4151.63821924337
 31
0.0
  0
LINE
  5
C05B
330
1F
100
AcDbEntity
  8
0DFB-2010
  6
陰線1
370
    13
100
AcDbLine
 10
4704.673989120595
 20
4156.13821924337
 30
0.0
 11
4709.173989120595
 21
4156.13821924337
 31
0.0
  0
LINE
  5
C05C
330
1F
100
AcDbEntity
  8
0DFB-2010
  6
陰線1
370
    13
100
AcDbLine
 10
4699.173989120596
 20
4159.13821924337
 30
0.0
 11
4714.673989120595
 21
4159.13821924337
 31
0.0
  0
LINE
  5
C05D
330
1F
100
AcDbEntity
  8
0DFB-2010
  6
陰線1
370
    13
100
AcDbLine
 10
4698.673989120595
 20
4159.63821924337
 30
0.0
 11
4714.673989120595
 21
4159.63821924337
 31
0.0
  0
LINE
  5
C05E
330
1F
100
AcDbEntity
  8
0DFB-2010
  6
陰線1
370
    13
100
AcDbLine
 10
4699.173989120595
 20
4165.138219243369
 30
0.0
 11
4714.673989120595
 21
4165.138219243369
 31
0.0
  0
LINE
  5
C05F
330
1F
100
AcDbEntity
  8
0DFB-2010
  6
陰線1
370
    13
100
AcDbLine
 10
4698.673989120595
 20
4164.638219243371
 30
0.0
 11
4714.673989120595
 21
4164.638219243371
 31
0.0
  0
LINE
  5
C060
330
1F
100
AcDbEntity
  8
0DFB-2010
  6
陰線1
370
    13
100
AcDbLine
 10
4698.673989120595
 20
4164.638219243371
 30
0.0
 11
4698.673989120595
 21
4159.63821924337
 31
0.0
  0
LINE
  5
C061
330
1F
100
AcDbEntity
  8
0DFB-2010
  6
陰線1
370
    13
100
AcDbLine
 10
4699.173989120595
 20
4165.138219243369
 30
0.0
 11
4698.673989120595
 21
4164.638219243371
 31
0.0
  0
LINE
  5
C062
330
1F
100
AcDbEntity
  8
0DFB-2010
  6
陰線1
370
    13
100
AcDbLine
 10
4699.173989120596
 20
4159.13821924337
 30
0.0
 11
4698.673989120595
 21
4159.63821924337
 31
0.0
  0
LINE
  5
C063
330
1F
100
AcDbEntity
  8
0DFB-2010
  6
陰線1
370
    13
100
AcDbLine
 10
4699.173989120596
 20
4165.138219243369
 30
0.0
 11
4699.173989120596
 21
4159.13821924337
 31
0.0
  0
LINE
  5
C064
330
1F
100
AcDbEntity
  8
0DFB-2010
  6
陰線1
370
    13
100
AcDbLine
 10
4699.073989120596
 20
4172.13821924337
 30
0.0
 11
4704.173989120596
 21
4172.13821924337
 31
0.0
  0
LINE
  5
C065
330
1F
100
AcDbEntity
  8
0DFB-2010
  6
陰線1
370
    13
100
AcDbLine
 10
4698.673989120595
 20
4172.53821924337
 30
0.0
 11
4704.173989120596
 21
4172.53821924337
 31
0.0
  0
LINE
  5
C066
330
1F
100
AcDbEntity
  8
0DFB-2010
  6
陰線1
370
    13
100
AcDbLine
 10
4699.073985120596
 20
4177.13821924337
 30
0.0
 11
4704.173989120596
 21
4177.13821924337
 31
0.0
  0
LINE
  5
C067
330
1F
100
AcDbEntity
  8
0DFB-2010
  6
陰線1
370
    13
100
AcDbLine
 10
4698.673989120596
 20
4176.738219243371
 30
0.0
 11
4704.173989120596
 21
4176.738219243371
 31
0.0
  0
LINE
  5
C068
330
1F
100
AcDbEntity
  8
0DFB-2010
  6
陰線1
370
    13
100
AcDbLine
 10
4698.673989120596
 20
4176.738219243371
 30
0.0
 11
4698.673989120595
 21
4172.53821924337
 31
0.0
  0
LINE
  5
C069
330
1F
100
AcDbEntity
  8
0DFB-2010
  6
陰線1
370
    13
100
AcDbLine
 10
4699.073985120596
 20
4177.13821924337
 30
0.0
 11
4699.073985120596
 21
4172.13821924337
 31
0.0
  0
LINE
  5
C06A
330
1F
100
AcDbEntity
  8
0DFB-2010
  6
陰線1
370
    13
100
AcDbLine
 10
4699.073985120596
 20
4177.13821924337
 30
0.0
 11
4698.673999120595
 21
4176.738229243468
 31
0.0
  0
LINE
  5
C06B
330
1F
100
AcDbEntity
  8
0DFB-2010
  6
陰線1
370
    13
100
AcDbLine
 10
4699.073989120596
 20
4172.13821924337
 30
0.0
 11
4698.673979120595
 21
4172.53822924337
 31
0.0
  0
LINE
  5
C06C
330
1F
100
AcDbEntity
  8
0DFB-2010
100
AcDbLine
 10
4704.673989120595
 20
4199.638219243371
 30
0.0
 11
4704.673989120595
 21
4196.638219243371
 31
0.0
  0
LINE
  5
C06D
330
1F
100
AcDbEntity
  8
0DFB-2010
100
AcDbLine
 10
4704.673989120595
 20
4152.63821924337
 30
0.0
 11
4704.673989120595
 21
4149.63821924337
 31
0.0
  0
ARC
  5
C06E
330
1F
100
AcDbEntity
  8
0DFB-2010
100
AcDbCircle
 10
4713.673989120596
 20
4150.63821924337
 30
0.0
 40
1.0
100
AcDbArc
 50
270.0
 51
0.0
  0
ARC
  5
C06F
330
1F
100
AcDbEntity
  8
0DFB-2010
100
AcDbCircle
 10
4713.673989120596
 20
4198.638219243369
 30
0.0
 40
1.0
100
AcDbArc
 50
0.0
 51
90.00000299998461
  0
ARC
  5
C070
330
1F
100
AcDbEntity
  8
0DFB-2010
100
AcDbCircle
 10
4708.007329120595
 20
4187.138219243371
 30
0.0
 40
9.666667
100
AcDbArc
 50
313.6028199999769
 51
46.39718100001392
  0
ARC
  5
C071
330
1F
100
AcDbEntity
  8
0DFB-2010
100
AcDbCircle
 10
4708.007329120595
 20
4162.13821924337
 30
0.0
 40
9.666667
100
AcDbArc
 50
313.6028199999769
 51
46.39718100001392
  0
LINE
  5
C072
330
1F
100
AcDbEntity
  8
0DFB-2010
  6
陰線1
370
    13
100
AcDbLine
 10
4699.173989120596
 20
4184.13821924337
 30
0.0
 11
4714.673989120595
 21
4184.13821924337
 31
0.0
  0
LINE
  5
C073
330
1F
100
AcDbEntity
  8
0DFB-2010
  6
陰線1
370
    13
100
AcDbLine
 10
4698.673989120595
 20
4184.63821924337
 30
0.0
 11
4714.673989120595
 21
4184.63821924337
 31
0.0
  0
LINE
  5
C074
330
1F
100
AcDbEntity
  8
0DFB-2010
  6
陰線1
370
    13
100
AcDbLine
 10
4699.173989120595
 20
4190.13821924337
 30
0.0
 11
4714.673989120595
 21
4190.13821924337
 31
0.0
  0
LINE
  5
C075
330
1F
100
AcDbEntity
  8
0DFB-2010
  6
陰線1
370
    13
100
AcDbLine
 10
4698.673989120595
 20
4189.63821924337
 30
0.0
 11
4714.673989120595
 21
4189.63821924337
 31
0.0
  0
LINE
  5
C076
330
1F
100
AcDbEntity
  8
0DFB-2010
  6
陰線1
370
    13
100
AcDbLine
 10
4698.673989120595
 20
4189.63821924337
 30
0.0
 11
4698.673989120595
 21
4184.63821924337
 31
0.0
  0
LINE
  5
C077
330
1F
100
AcDbEntity
  8
0DFB-2010
  6
陰線1
370
    13
100
AcDbLine
 10
4699.173989120595
 20
4190.13821924337
 30
0.0
 11
4698.673989120595
 21
4189.63821924337
 31
0.0
  0
LINE
  5
C078
330
1F
100
AcDbEntity
  8
0DFB-2010
  6
陰線1
370
    13
100
AcDbLine
 10
4699.173989120596
 20
4184.13821924337
 30
0.0
 11
4698.673989120595
 21
4184.63821924337
 31
0.0
  0
LINE
  5
C079
330
1F
100
AcDbEntity
  8
0DFB-2010
  6
陰線1
370
    13
100
AcDbLine
 10
4699.173989120596
 20
4190.13821924337
 30
0.0
 11
4699.173989120596
 21
4184.13821924337
 31
0.0
  0
LINE
  5
C07A
330
1F
100
AcDbEntity
  8
0DFB-2010
100
AcDbLine
 10
4704.673989120595
 20
4196.638219243371
 30
0.0
 11
4705.273989120596
 21
4196.638219243371
 31
0.0
  0
LINE
  5
C07B
330
1F
100
AcDbEntity
  8
0DFB-2010
100
AcDbLine
 10
4705.273989120596
 20
4196.638219243371
 30
0.0
 11
4705.273989120596
 21
4152.63821924337
 31
0.0
  0
LINE
  5
C07C
330
1F
100
AcDbEntity
  8
0DFB-2010
100
AcDbLine
 10
4705.273989120596
 20
4152.63821924337
 30
0.0
 11
4704.673989120595
 21
4152.63821924337
 31
0.0
  0
LINE
  5
C07D
330
1F
100
AcDbEntity
  8
0DFB-2010
100
AcDbLine
 10
4704.673989120595
 20
4151.63821924337
 30
0.0
 11
4704.673989120595
 21
4193.13821924337
 31
0.0
  0
LINE
  5
C07E
330
1F
100
AcDbEntity
  8
0DFB-2010
100
AcDbLine
 10
4704.673989120595
 20
4196.638219243371
 30
0.0
 11
4704.673989120595
 21
4197.63821924337
 31
0.0
  0
LINE
  5
C07F
330
1F
100
AcDbEntity
  8
0DFB-2010
100
AcDbLine
 10
4704.173989120596
 20
4193.13821924337
 30
0.0
 11
4704.673989120595
 21
4193.13821924337
 31
0.0
  0
LINE
  5
C080
330
1F
100
AcDbEntity
  8
0DFB-2010
100
AcDbLine
 10
4704.173989120596
 20
4156.13821924337
 30
0.0
 11
4704.673989120595
 21
4156.13821924337
 31
0.0
  0
LINE
  5
C081
330
1F
100
AcDbEntity
  8
0DFB-2010
  6
陰線1
370
    13
100
AcDbLine
 10
4704.673989120595
 20
4193.13821924337
 30
0.0
 11
4709.173989120595
 21
4193.13821924337
 31
0.0
  0
LINE
  5
C082
330
1F
100
AcDbEntity
  8
AM_7
100
AcDbLine
 10
4730.185871639144
 20
4175.638219243364
 30
0.0
 11
4955.173997364876
 21
4175.638219243371
 31
0.0
1001
GENIUS_GENODEF_13
1002
{
1000
HIER
1070
     0
1002
}
1002
{
1000
MANEDIT
1070
     0
1002
}
1002
{
1000
NOSEL
1070
     0
1002
}
1002
{
1000
BEHIND
1070
     0
1002
}
1002
{
1000
OTHER
1070
     0
1002
}
1002
{
1000
REACTOR
1002
}
1001
GENIUS_GENOBJ-N-CEN_13
1002
{
1000
OWNER
1000
GEN
1002
}
1001
GENIUS_GENCEN_19
1002
{
1040
3.0
1002
}
  0
LINE
  5
C1C4
330
1F
100
AcDbEntity
  8
AM_0
100
AcDbLine
 10
5139.168618052156
 20
4261.638219243373
 30
0.0
 11
5229.168626052156
 21
4261.638219243373
 31
0.0
  0
LINE
  5
C1C5
330
1F
100
AcDbEntity
  8
AM_0
100
AcDbLine
 10
5139.168618052156
 20
4268.638219243373
 30
0.0
 11
5139.168618052156
 21
4261.638219243373
 31
0.0
  0
LINE
  5
C1C6
330
1F
100
AcDbEntity
  8
AM_0
100
AcDbLine
 10
5229.168626052156
 20
4268.638219243373
 30
0.0
 11
5229.168626052156
 21
4261.638219243373
 31
0.0
  0
LINE
  5
C1C7
330
1F
100
AcDbEntity
  8
AM_0
100
AcDbLine
 10
5142.168618052156
 20
4271.638219243373
 30
0.0
 11
5226.168625852154
 21
4271.638219243373
 31
0.0
  0
LINE
  5
C1C8
330
1F
100
AcDbEntity
  8
AM_0
100
AcDbLine
 10
5149.168608014639
 20
4293.638219243373
 30
0.0
 11
5349.168631259553
 21
4293.638219243373
 31
0.0
  0
LINE
  5
C1C9
330
1F
100
AcDbEntity
  8
AM_0
100
AcDbLine
 10
5145.616492014638
 20
4274.101559243375
 30
0.0
 11
5149.168608014639
 21
4293.638219243373
 31
0.0
  0
LINE
  5
C1CA
330
1F
100
AcDbEntity
  8
AM_0
100
AcDbLine
 10
5199.168622814639
 20
4293.638211243374
 30
0.0
 11
5202.720741614637
 21
4274.101559243375
 31
0.0
  0
LINE
  5
C1CB
330
1F
100
AcDbEntity
  8
AM_0
100
AcDbLine
 10
5354.168631259553
 20
4316.638219243375
 30
0.0
 11
5354.168631259553
 21
4298.638219243373
 31
0.0
  0
LINE
  5
C1CC
330
1F
100
AcDbEntity
  8
AM_0
100
AcDbLine
 10
5151.168628623721
 20
4321.638219243374
 30
0.0
 11
5349.168631259553
 21
4321.638219243374
 31
0.0
  0
LINE
  5
C1CD
330
1F
100
AcDbEntity
  8
AM_0
100
AcDbLine
 10
5146.168628623721
 20
4316.638219243375
 30
0.0
 11
5146.168628623721
 21
4298.638219243373
 31
0.0
  0
ARC
  5
C1CE
330
1F
100
AcDbEntity
  8
AM_0
100
AcDbCircle
 10
5142.168618052156
 20
4268.638219243373
 30
0.0
 40
3.0
100
AcDbArc
 50
90.00000250446868
 51
180.0000030000107
  0
ARC
  5
C1CF
330
1F
100
AcDbEntity
  8
AM_0
100
AcDbCircle
 10
5226.168625852154
 20
4268.638219243373
 30
0.0
 40
3.0
100
AcDbArc
 50
0.0
 51
90.00000250446868
  0
ARC
  5
C1D0
330
1F
100
AcDbEntity
  8
AM_0
100
AcDbCircle
 10
5142.664900014638
 20
4274.638219243373
 30
0.0
 40
3.0
100
AcDbArc
 50
269.999989999999
 51
349.6951600000138
  0
ARC
  5
C1D1
330
1F
100
AcDbEntity
  8
AM_0
100
AcDbCircle
 10
5205.672343014636
 20
4274.638219243373
 30
0.0
 40
3.0
100
AcDbArc
 50
190.3048500000073
 51
269.999989999999
  0
ARC
  5
C1D2
330
1F
100
AcDbEntity
  8
AM_0
100
AcDbCircle
 10
5151.168628623721
 20
4316.638219243375
 30
0.0
 40
5.0
100
AcDbArc
 50
90.0
 51
180.0000030000107
  0
ARC
  5
C1D3
330
1F
100
AcDbEntity
  8
AM_0
100
AcDbCircle
 10
5151.168628623721
 20
4298.638219243373
 30
0.0
 40
5.0
100
AcDbArc
 50
179.9999959999944
 51
270.0
  0
ARC
  5
C1D4
330
1F
100
AcDbEntity
  8
AM_0
100
AcDbCircle
 10
5349.168631259553
 20
4316.638219243375
 30
0.0
 40
5.0
100
AcDbArc
 50
0.0
 51
90.00000250446868
  0
ARC
  5
C1D5
330
1F
100
AcDbEntity
  8
AM_0
100
AcDbCircle
 10
5349.168631259553
 20
4298.638219243373
 30
0.0
 40
5.0
100
AcDbArc
 50
269.999989999999
 51
0.0
  0
LINE
  5
C1D6
330
1F
100
AcDbEntity
  8
AM_0
100
AcDbLine
 10
5139.168618052156
 20
4221.638219243373
 30
0.0
 11
5229.168626052156
 21
4221.638219243373
 31
0.0
  0
LINE
  5
C1D7
330
1F
100
AcDbEntity
  8
AM_0
100
AcDbLine
 10
5139.168618052156
 20
4214.638219243373
 30
0.0
 11
5139.168618052156
 21
4221.638219243373
 31
0.0
  0
LINE
  5
C1D8
330
1F
100
AcDbEntity
  8
AM_0
100
AcDbLine
 10
5229.168626052156
 20
4214.638219243373
 30
0.0
 11
5229.168626052156
 21
4221.638219243373
 31
0.0
  0
LINE
  5
C1D9
330
1F
100
AcDbEntity
  8
AM_0
100
AcDbLine
 10
5142.168618052156
 20
4211.638219243373
 30
0.0
 11
5226.168625852154
 21
4211.638219243373
 31
0.0
  0
LINE
  5
C1DA
330
1F
100
AcDbEntity
  8
AM_0
100
AcDbLine
 10
5149.168608014639
 20
4189.638219243373
 30
0.0
 11
5349.168631259553
 21
4189.638219243373
 31
0.0
  0
LINE
  5
C1DB
330
1F
100
AcDbEntity
  8
AM_0
100
AcDbLine
 10
5145.616492014638
 20
4209.174879243371
 30
0.0
 11
5149.168608014639
 21
4189.638219243373
 31
0.0
  0
LINE
  5
C1DC
330
1F
100
AcDbEntity
  8
AM_0
100
AcDbLine
 10
5199.168622814639
 20
4189.638227243372
 30
0.0
 11
5202.720741614637
 21
4209.174879243371
 31
0.0
  0
LINE
  5
C1DD
330
1F
100
AcDbEntity
  8
AM_0
100
AcDbLine
 10
5354.168631259553
 20
4166.638219243371
 30
0.0
 11
5354.168631259553
 21
4184.638219243373
 31
0.0
  0
LINE
  5
C1DE
330
1F
100
AcDbEntity
  8
AM_0
100
AcDbLine
 10
5151.168628623721
 20
4161.63821924337
 30
0.0
 11
5349.168631259553
 21
4161.63821924337
 31
0.0
  0
LINE
  5
C1DF
330
1F
100
AcDbEntity
  8
AM_0
100
AcDbLine
 10
5146.168628623721
 20
4166.638219243371
 30
0.0
 11
5146.168628623721
 21
4184.638219243373
 31
0.0
  0
ARC
  5
C1E0
330
1F
100
AcDbEntity
  8
AM_0
100
AcDbCircle
 10
5142.168618052156
 20
4214.638219243373
 30
0.0
 40
3.0
100
AcDbArc
 50
179.9999970000153
 51
269.9999974955313
  0
ARC
  5
C1E1
330
1F
100
AcDbEntity
  8
AM_0
100
AcDbCircle
 10
5226.168625852154
 20
4214.638219243373
 30
0.0
 40
3.0
100
AcDbArc
 50
269.9999974955313
 51
0.0
  0
ARC
  5
C1E2
330
1F
100
AcDbEntity
  8
AM_0
100
AcDbCircle
 10
5142.664900014638
 20
4208.638219243373
 30
0.0
 40
3.0
100
AcDbArc
 50
10.30483999995976
 51
90.00001000000095
  0
ARC
  5
C1E3
330
1F
100
AcDbEntity
  8
AM_0
100
AcDbCircle
 10
5205.672343014636
 20
4208.638219243373
 30
0.0
 40
3.0
100
AcDbArc
 50
90.00001000000095
 51
169.6951499999666
  0
ARC
  5
C1E4
330
1F
100
AcDbEntity
  8
AM_0
100
AcDbCircle
 10
5151.168628623721
 20
4166.638219243371
 30
0.0
 40
5.0
100
AcDbArc
 50
179.9999970000153
 51
270.0
  0
ARC
  5
C1E5
330
1F
100
AcDbEntity
  8
AM_0
100
AcDbCircle
 10
5151.168628623721
 20
4184.638219243373
 30
0.0
 40
5.0
100
AcDbArc
 50
90.0
 51
180.0000040000317
  0
ARC
  5
C1E6
330
1F
100
AcDbEntity
  8
AM_0
100
AcDbCircle
 10
5349.168631259553
 20
4166.638219243371
 30
0.0
 40
5.0
100
AcDbArc
 50
269.9999974955313
 51
0.0
  0
ARC
  5
C1E7
330
1F
100
AcDbEntity
  8
AM_0
100
AcDbCircle
 10
5349.168631259553
 20
4184.638219243373
 30
0.0
 40
5.0
100
AcDbArc
 50
0.0
 51
90.00001000000096
  0
ELLIPSE
  5
C1E8
330
1F
100
AcDbEntity
  8
AM_0
100
AcDbEllipse
 10
5148.517117874297
 20
4175.638219243371
 30
0.0
 11
0.0
 21
-11.0
 31
0.0
210
0.0
220
0.0
230
-1.0
 40
0.9396926207857838
 41
0.1964616996592963
 42
2.945130953930325
  0
LINE
  5
C1E9
330
1F
100
AcDbEntity
  8
AM_7
100
AcDbLine
 10
5174.168616527104
 20
4155.63821924337
 30
0.0
 11
5174.168616527104
 21
4327.638219243374
 31
0.0
1001
GENIUS_GENOBJ-N-CEN_13
1002
{
1000
OWNER
1000
GEN
1002
}
1001
GENIUS_GENODEF_13
1002
{
1000
HIER
1070
     0
1002
}
1002
{
1000
MANEDIT
1070
     0
1002
}
1002
{
1000
NOSEL
1070
     0
1002
}
1002
{
1000
BEHIND
1070
     0
1002
}
1002
{
1000
OTHER
1070
     0
1002
}
1002
{
1000
REACTOR
1002
}
1001
GENIUS_GENCEN_19
1002
{
1040
3.0
1002
}
  0
LINE
  5
C1EA
330
1F
100
AcDbEntity
  8
AM_7
100
AcDbLine
 10
5135.180499045654
 20
4175.638219243365
 30
0.0
 11
5357.168631259553
 21
4175.638219243372
 31
0.0
1001
GENIUS_GENODEF_13
1002
{
1000
HIER
1070
     0
1002
}
1002
{
1000
MANEDIT
1070
     0
1002
}
1002
{
1000
NOSEL
1070
     0
1002
}
1002
{
1000
BEHIND
1070
     0
1002
}
1002
{
1000
OTHER
1070
     0
1002
}
1002
{
1000
REACTOR
1002
}
1001
GENIUS_GENOBJ-N-CEN_13
1002
{
1000
OWNER
1000
GEN
1002
}
1001
GENIUS_GENCEN_19
1002
{
1040
3.0
1002
}
  0
LINE
  5
C1EC
330
1F
100
AcDbEntity
  8
AM_11
100
AcDbLine
 10
5109.668616527102
 20
4261.638219243371
 30
0.0
 11
5391.62627697328
 21
4261.638219243374
 31
0.0
  0
LINE
  5
C1ED
330
1F
100
AcDbEntity
  8
AM_11
100
AcDbLine
 10
5109.668615517103
 20
4260.138219243372
 30
0.0
 11
5391.62627697328
 21
4260.138219243373
 31
0.0
  0
LINE
  5
C2F8
330
1F
100
AcDbEntity
  8
AM_11
100
AcDbLine
 10
5108.168615517103
 20
4223.138219243373
 30
0.0
 11
5108.168615517103
 21
4260.138219243373
 31
0.0
  0
LINE
  5
C2F9
330
1F
100
AcDbEntity
  8
AM_11
100
AcDbLine
 10
5109.668615517103
 20
4223.138219243373
 30
0.0
 11
5109.668615517103
 21
4260.138219243372
 31
0.0
  0
LINE
  5
C2FA
330
1F
100
AcDbEntity
  8
AM_11
100
AcDbLine
 10
5111.668615517103
 20
4225.138219243373
 30
0.0
 11
5131.668617517103
 21
4225.138219243373
 31
0.0
  0
LINE
  5
C2FB
330
1F
100
AcDbEntity
  8
AM_11
100
AcDbLine
 10
5111.668615517103
 20
4225.138219243373
 30
0.0
 11
5111.668615517103
 21
4258.138219243373
 31
0.0
  0
LINE
  5
C2FC
330
1F
100
AcDbEntity
  8
AM_11
100
AcDbLine
 10
5111.668615517103
 20
4258.138219243373
 30
0.0
 11
5131.668617517103
 21
4258.138219243373
 31
0.0
  0
LINE
  5
C2FD
330
1F
100
AcDbEntity
  8
AM_11
100
AcDbLine
 10
5131.668617517103
 20
4223.138219243373
 30
0.0
 11
5131.668617517103
 21
4225.138219243373
 31
0.0
  0
LINE
  5
C2FE
330
1F
100
AcDbEntity
  8
AM_11
100
AcDbLine
 10
5131.668617517103
 20
4258.138219243373
 30
0.0
 11
5131.668617517103
 21
4260.138219243373
 31
0.0
  0
LINE
  5
C2FF
330
1F
100
AcDbEntity
  8
AM_11
100
AcDbLine
 10
5108.168615517103
 20
4241.638219243372
 30
0.0
 11
5109.668615517103
 21
4241.638219243372
 31
0.0
  0
LINE
  5
C300
330
1F
100
AcDbEntity
  8
AM_11
100
AcDbLine
 10
5108.168615517103
 20
4212.588216243372
 30
0.0
 11
5108.168615517103
 21
4241.638219243372
 31
0.0
  0
LINE
  5
C301
330
1F
100
AcDbEntity
  8
AM_11
100
AcDbLine
 10
5109.668615517103
 20
4215.760465243373
 30
0.0
 11
5109.668615517103
 21
4241.638219243372
 31
0.0
  0
LINE
  5
C302
330
1F
100
AcDbEntity
  8
AM_11
100
AcDbLine
 10
5129.668615517103
 20
4220.138219243373
 30
0.0
 11
5129.668615517103
 21
4221.638219243373
 31
0.0
  0
LINE
  5
C303
330
1F
100
AcDbEntity
  8
AM_11
100
AcDbLine
 10
5115.729276517104
 20
4220.138219243373
 30
0.0
 11
5129.668615517103
 21
4220.138219243373
 31
0.0
  0
LINE
  5
C304
330
1F
100
AcDbEntity
  8
AM_11
100
AcDbLine
 10
5115.729276517104
 20
4221.638219243373
 30
0.0
 11
5129.668615517103
 21
4221.638219243373
 31
0.0
  0
LINE
  5
C305
330
1F
100
AcDbEntity
  8
AM_11
100
AcDbLine
 10
5109.941339517103
 20
4212.113218243373
 30
0.0
 11
5113.997224517103
 21
4219.138219243372
 31
0.0
  0
LINE
  5
C306
330
1F
100
AcDbEntity
  8
AM_11
100
AcDbLine
 10
5110.228422517103
 20
4215.610463243372
 30
0.0
 11
5112.698186517103
 21
4219.888219243372
 31
0.0
  0
ARC
  5
C307
330
1F
100
AcDbEntity
  8
AM_11
100
AcDbCircle
 10
5109.668615517103
 20
4223.138219243373
 30
0.0
 40
1.5
100
AcDbArc
 50
180.0000029999847
 51
270.0000099999489
  0
ARC
  5
C308
330
1F
100
AcDbEntity
  8
AM_11
100
AcDbCircle
 10
5109.668615517103
 20
4260.138219243373
 30
0.0
 40
1.5
100
AcDbArc
 50
90.0
 51
180.0000029999847
  0
ARC
  5
C309
330
1F
100
AcDbEntity
  8
AM_11
100
AcDbCircle
 10
5111.668615517103
 20
4225.138219243373
 30
0.0
 40
2.0
100
AcDbArc
 50
180.0000029999847
 51
270.0000099999489
  0
ARC
  5
C30A
330
1F
100
AcDbEntity
  8
AM_11
100
AcDbCircle
 10
5111.668615517103
 20
4258.138219243373
 30
0.0
 40
2.0
100
AcDbArc
 50
90.0
 51
180.0000029999847
  0
ARC
  5
C30B
330
1F
100
AcDbEntity
  8
AM_11
100
AcDbCircle
 10
5109.118616517103
 20
4212.588216243372
 30
0.0
 40
0.94999999
100
AcDbArc
 50
180.0000029999847
 51
330.000009999977
  0
ARC
  5
C30C
330
1F
100
AcDbEntity
  8
AM_11
100
AcDbCircle
 10
5115.729276517104
 20
4218.138219243373
 30
0.0
 40
3.5
100
AcDbArc
 50
90.0
 51
150.0000019999714
  0
ARC
  5
C30D
330
1F
100
AcDbEntity
  8
AM_11
100
AcDbCircle
 10
5115.729276517104
 20
4218.138219243373
 30
0.0
 40
2.0
100
AcDbArc
 50
90.0
 51
150.0000019999714
  0
ARC
  5
C30E
330
1F
100
AcDbEntity
  8
AM_11
100
AcDbCircle
 10
5109.968614517103
 20
4215.760465243373
 30
0.0
 40
0.30000001
100
AcDbArc
 50
180.0000029999847
 51
330.000009999977
  0
ARC
  5
C310
330
1F
100
AcDbEntity
  8
AM_11
100
AcDbCircle
 10
5100.668616527102
 20
4260.138219243373
 30
0.0
 40
1.5
100
AcDbArc
 50
0.0
 51
90.0
  0
ARC
  5
C311
330
1F
100
AcDbEntity
  8
AM_11
100
AcDbCircle
 10
5098.668616527103
 20
4258.138219243373
 30
0.0
 40
2.0
100
AcDbArc
 50
0.0
 51
90.0
  0
LINE
  5
C312
330
1F
100
AcDbEntity
  8
AM_11
100
AcDbLine
 10
5081.668616527103
 20
4258.138219243374
 30
0.0
 11
5098.668616527103
 21
4258.138219243374
 31
0.0
  0
LINE
  5
C313
330
1F
100
AcDbEntity
  8
AM_11
100
AcDbLine
 10
5081.668616527103
 20
4258.138219243374
 30
0.0
 11
5081.668616527103
 21
4260.138219243374
 31
0.0
  0
LINE
  5
C315
330
1F
100
AcDbEntity
  8
AM_11
100
AcDbLine
 10
5072.168616527102
 20
4261.638219243374
 30
0.0
 11
5100.668616527103
 21
4261.638219243374
 31
0.0
  0
LINE
  5
C316
330
1F
100
AcDbEntity
  8
AM_11
100
AcDbLine
 10
5072.168616527102
 20
4260.138219243374
 30
0.0
 11
5100.668616527102
 21
4260.138219243374
 31
0.0
  0
LINE
  5
C317
330
1F
100
AcDbEntity
  8
AM_10
100
AcDbLine
 10
5072.168616527102
 20
4267.638219243374
 30
0.0
 11
5072.168616527102
 21
4215.638219243373
 31
0.0
  0
LINE
  5
C318
330
1F
100
AcDbEntity
  8
AM_11
100
AcDbLine
 10
5014.867033308703
 20
4386.595904971133
 30
0.0
 11
5014.867033308703
 21
3826.595904971133
 31
0.0
  0
LINE
  5
C319
330
1F
100
AcDbEntity
  8
AM_0
100
AcDbLine
 10
4745.981350157477
 20
4101.937557442506
 30
0.0
 11
4769.173992157477
 21
4101.937557442506
 31
0.0
  0
LINE
  5
C31A
330
1F
100
AcDbEntity
  8
AM_0
  6
陰線1
370
    13
100
AcDbLine
 10
4745.981350157477
 20
3991.937535442506
 30
0.0
 11
4762.774316996466
 21
3991.937535442506
 31
0.0
  0
LINE
  5
C31B
330
1F
100
AcDbEntity
  8
AM_0
100
AcDbLine
 10
4762.774316996466
 20
3991.937535442506
 30
0.0
 11
4769.173992157477
 21
3991.937535442506
 31
0.0
  0
LINE
  5
C31C
330
1F
100
AcDbEntity
  8
AM_0
100
AcDbLine
 10
4949.173998689538
 20
4037.335448626767
 30
0.0
 11
4949.173996040213
 21
4056.539620189834
 31
0.0
  0
LINE
  5
C31D
330
1F
100
AcDbEntity
  8
AM_0
100
AcDbLine
 10
4945.777568237875
 20
4060.038086231848
 30
0.0
 11
4813.288411304636
 21
4063.960460167618
 31
0.0
  0
LINE
  5
C31E
330
1F
100
AcDbEntity
  8
AM_0
100
AcDbLine
 10
4945.777571623457
 20
4033.836983772039
 30
0.0
 11
4803.616789396217
 21
4029.628278372138
 31
0.0
  0
LINE
  5
C31F
330
1F
100
AcDbEntity
  8
AM_0
100
AcDbLine
 10
4742.720970806217
 20
4010.806002867706
 30
0.0
 11
4766.213286325863
 21
4002.255499284563
 31
0.0
  0
LINE
  5
C320
330
1F
100
AcDbEntity
  8
AM_0
100
AcDbLine
 10
4766.213286325863
 20
4002.255499284563
 30
0.0
 11
4782.384003002247
 21
4019.906661800656
 31
0.0
  0
LINE
  5
C321
330
1F
100
AcDbEntity
  8
AM_0
100
AcDbLine
 10
4742.720970806217
 20
4010.806002867706
 30
0.0
 11
4741.20050502132
 21
4045.719296002044
 31
0.0
  0
LINE
  5
C322
330
1F
100
AcDbEntity
  8
AM_0
100
AcDbLine
 10
4733.185865150974
 20
3980.222808787571
 30
0.0
 11
4753.859102808262
 21
3972.698365634406
 31
0.0
  0
ARC
  5
C323
330
1F
100
AcDbEntity
  8
AM_0
100
AcDbCircle
 10
5034.173984157476
 20
4046.937537442507
 30
0.0
 40
300.0
100
AcDbArc
 50
170.7374399999885
 51
180.0
  0
ARC
  5
C324
330
1F
100
AcDbEntity
  8
AM_0
100
AcDbCircle
 10
4745.981350157477
 20
4093.937557442506
 30
0.0
 40
8.0
100
AcDbArc
 50
90.00000300001072
 51
170.7374399999885
  0
ARC
  5
C325
330
1F
100
AcDbEntity
  8
AM_0
  6
陰線1
370
    13
100
AcDbCircle
 10
4745.981350157477
 20
3999.937535442506
 30
0.0
 40
8.0
100
AcDbArc
 50
189.262560000011
 51
270.0
  0
ARC
  5
C326
330
1F
100
AcDbEntity
  8
AM_0
100
AcDbCircle
 10
4769.173992157477
 20
4046.937537442507
 30
0.0
 40
55.0
100
AcDbArc
 50
270.0
 51
342.2382557137763
  0
ARC
  5
C327
330
1F
100
AcDbEntity
  8
AM_0
  6
陰線1
370
    13
100
AcDbCircle
 10
4769.173992157477
 20
4046.937537442507
 30
0.0
 40
55.0
100
AcDbArc
 50
342.2382557137763
 51
17.76173817817307
  0
ARC
  5
C328
330
1F
100
AcDbEntity
  8
AM_0
100
AcDbCircle
 10
4769.173992157477
 20
4046.937537442507
 30
0.0
 40
55.0
100
AcDbArc
 50
17.76173817817307
 51
90.00000300001072
  0
CIRCLE
  5
C329
330
1F
100
AcDbEntity
  8
AM_0
  6
陰線1
370
    13
100
AcDbCircle
 10
4749.173992157476
 20
4001.937535442507
 30
0.0
 40
6.199999799999997
  0
CIRCLE
  5
C32A
330
1F
100
AcDbEntity
  8
AM_0
  6
陰線1
370
    13
100
AcDbCircle
 10
4749.173992157476
 20
4001.937535442507
 30
0.0
 40
3.1
  0
CIRCLE
  5
C32B
330
1F
100
AcDbEntity
  8
AM_0
100
AcDbCircle
 10
4799.173991357476
 20
4076.937537442507
 30
0.0
 40
6.199999799999997
  0
CIRCLE
  5
C32C
330
1F
100
AcDbEntity
  8
AM_0
100
AcDbCircle
 10
4799.173991357476
 20
4076.937537442507
 30
0.0
 40
3.1
  0
CIRCLE
  5
C32D
330
1F
100
AcDbEntity
  8
AM_0
100
AcDbCircle
 10
4749.173992157476
 20
4091.937557442506
 30
0.0
 40
6.199999799999997
  0
CIRCLE
  5
C32E
330
1F
100
AcDbEntity
  8
AM_0
100
AcDbCircle
 10
4749.173992157476
 20
4091.937557442506
 30
0.0
 40
3.1
  0
ARC
  5
C32F
330
1F
100
AcDbEntity
  8
AM_0
100
AcDbCircle
 10
4769.173994729043
 20
4046.937533769931
 30
0.0
 40
28.0
100
AcDbArc
 50
63.26638000001992
 51
182.4936299999959
  0
ARC
  5
C330
330
1F
100
AcDbEntity
  8
AM_0
100
AcDbCircle
 10
4815.50782866641
 20
4138.927618148392
 30
0.0
 40
74.99999999999999
100
AcDbArc
 50
243.26638000002
 51
268.3042399999685
  0
ARC
  5
C331
330
1F
100
AcDbEntity
  8
AM_0
100
AcDbCircle
 10
4945.673997144055
 20
4037.33544972311
 30
0.0
 40
3.499999999999999
100
AcDbArc
 50
271.6957599999791
 51
0.0
  0
ARC
  5
C332
330
1F
100
AcDbEntity
  8
AM_0
100
AcDbCircle
 10
4945.673996374118
 20
4056.53962060214
 30
0.0
 40
3.499999999999999
100
AcDbArc
 50
0.0
 51
88.30423900000489
  0
ARC
  5
C333
330
1F
100
AcDbEntity
  8
AM_0
100
AcDbCircle
 10
4804.504563287246
 20
3999.641414657192
 30
0.0
 40
30.0
100
AcDbArc
 50
91.69576299997485
 51
137.5063660000167
  0
ARC
  5
C334
330
1F
100
AcDbEntity
  8
AM_0
100
AcDbCircle
 10
5034.173984157476
 20
4046.937537442507
 30
0.0
 40
300.0
100
AcDbArc
 50
180.0
 51
189.178754548285
  0
ARC
  5
C335
330
1F
100
AcDbEntity
  8
AM_0
  6
陰線1
370
    13
100
AcDbCircle
 10
5034.173984157476
 20
4046.937537442507
 30
0.0
 40
300.0
100
AcDbArc
 50
189.178754548285
 51
189.262560000011
  0
ARC
  5
C336
330
1F
100
AcDbEntity
  8
AM_0
100
AcDbCircle
 10
4797.85882443308
 20
3973.710621006585
 30
0.0
 40
64.99999999999999
100
AcDbArc
 50
145.7499669999779
 51
174.2500299999999
  0
ARC
  5
C337
330
1F
100
AcDbEntity
  8
AM_0
100
AcDbCircle
 10
4700.130771198108
 20
4009.280723436899
 30
0.0
 40
64.99999999999999
100
AcDbArc
 50
325.7499699999883
 51
354.2500299999999
  0
CIRCLE
  5
C338
330
1F
100
AcDbEntity
  8
AM_0
100
AcDbCircle
 10
4799.173991357476
 20
4016.937535442506
 30
0.0
 40
6.199999799999997
  0
CIRCLE
  5
C339
330
1F
100
AcDbEntity
  8
AM_0
100
AcDbCircle
 10
4799.173991357476
 20
4016.937535442506
 30
0.0
 40
3.1
  0
LINE
  5
C33A
330
1F
100
AcDbEntity
  8
AM_7
 48
0.5
100
AcDbLine
 10
4786.973991557476
 20
4016.937535442506
 30
0.0
 11
4811.373991157477
 21
4016.937535442506
 31
0.0
1001
GENIUS_GENOBJ-N-CEN_13
1002
{
1000
OWNER
1000
GEN
1002
}
1001
GENIUS_GENODEF_13
1002
{
1000
HIER
1070
     0
1002
}
1002
{
1000
MANEDIT
1070
     0
1002
}
1002
{
1000
NOSEL
1070
     0
1002
}
1002
{
1000
BEHIND
1070
     0
1002
}
1002
{
1000
OTHER
1070
     0
1002
}
1002
{
1000
REACTOR
1002
}
1001
GENIUS_GENCEN_19
1002
{
1040
3.0
1002
}
  0
LINE
  5
C33B
330
1F
100
AcDbEntity
  8
AM_7
 48
0.5
100
AcDbLine
 10
4799.173991357476
 20
4004.737535642506
 30
0.0
 11
4799.173991357476
 21
4029.137535242506
 31
0.0
1001
GENIUS_GENODEF_13
1002
{
1000
HIER
1070
     0
1002
}
1002
{
1000
MANEDIT
1070
     0
1002
}
1002
{
1000
NOSEL
1070
     0
1002
}
1002
{
1000
BEHIND
1070
     0
1002
}
1002
{
1000
OTHER
1070
     0
1002
}
1002
{
1000
REACTOR
1002
}
1001
GENIUS_GENOBJ-N-CEN_13
1002
{
1000
OWNER
1000
GEN
1002
}
1001
GENIUS_GENCEN_19
1002
{
1040
3.0
1002
}
  0
LINE
  5
C35B
330
1F
100
AcDbEntity
  8
0DFB-2010
100
AcDbLine
 10
4714.673989120595
 20
4082.937537838426
 30
0.0
 11
4714.673989120595
 21
3970.937537838427
 31
0.0
  0
LINE
  5
C35C
330
1F
100
AcDbEntity
  8
0DFB-2010
100
AcDbLine
 10
4704.673989120595
 20
3969.937537838427
 30
0.0
 11
4713.673989120596
 21
3969.937537838427
 31
0.0
  0
LINE
  5
C35D
330
1F
100
AcDbEntity
  8
0DFB-2010
100
AcDbLine
 10
4704.673989120595
 20
4083.937537838426
 30
0.0
 11
4713.673989120596
 21
4083.937537838426
 31
0.0
  0
LINE
  5
C35E
330
1F
100
AcDbEntity
  8
0DFB-2010
100
AcDbLine
 10
4704.173989120596
 20
4078.937537838426
 30
0.0
 11
4704.173989120596
 21
4064.437537838426
 31
0.0
  0
LINE
  5
C35F
330
1F
100
AcDbEntity
  8
0DFB-2010
100
AcDbLine
 10
4682.173989120594
 20
4064.437537838426
 30
0.0
 11
4682.173989120594
 21
3989.437537838427
 31
0.0
  0
LINE
  5
C360
330
1F
100
AcDbEntity
  8
0DFB-2010
100
AcDbLine
 10
4682.173989120594
 20
4064.437537838426
 30
0.0
 11
4704.673989120595
 21
4064.437537838426
 31
0.0
  0
LINE
  5
C361
330
1F
100
AcDbEntity
  8
0DFB-2010
100
AcDbLine
 10
4682.173989120594
 20
3989.437537838427
 30
0.0
 11
4704.673989120595
 21
3989.437537838427
 31
0.0
  0
LINE
  5
C362
330
1F
100
AcDbEntity
  8
0DFB-2010
100
AcDbLine
 10
4704.673989120595
 20
4083.937537838426
 30
0.0
 11
4704.673989120595
 21
3969.937537838427
 31
0.0
  0
LINE
  5
C363
330
1F
100
AcDbEntity
  8
0DFB-2010
100
AcDbLine
 10
4704.173989120596
 20
3974.937537838427
 30
0.0
 11
4704.673989120595
 21
3974.937537838427
 31
0.0
  0
LINE
  5
C364
330
1F
100
AcDbEntity
  8
0DFB-2010
100
AcDbLine
 10
4704.173989120596
 20
4078.937537838426
 30
0.0
 11
4704.673989120595
 21
4078.937537838426
 31
0.0
  0
LINE
  5
C365
330
1F
100
AcDbEntity
  8
0DFB-2010
100
AcDbLine
 10
4704.173989120596
 20
3989.437537838427
 30
0.0
 11
4704.173989120596
 21
3974.937537838427
 31
0.0
  0
ARC
  5
C366
330
1F
100
AcDbEntity
  8
0DFB-2010
100
AcDbCircle
 10
4713.673989120596
 20
3970.937537838427
 30
0.0
 40
1.0
100
AcDbArc
 50
270.0
 51
0.0
  0
ARC
  5
C367
330
1F
100
AcDbEntity
  8
0DFB-2010
100
AcDbCircle
 10
4713.673989120596
 20
4082.937537838426
 30
0.0
 40
1.0
100
AcDbArc
 50
0.0
 51
90.00000299998459
  0
LINE
  5
C369
330
1F
100
AcDbEntity
  8
AM_7
  6
AM_ISO08W050x2
100
AcDbLine
 10
4698.173989120595
 20
3981.937537838427
 30
0.0
 11
4720.673989120595
 21
3981.937537838427
 31
0.0
1001
GENIUS_GENOBJ-N-CEN_13
1002
{
1000
OWNER
1000
GEN
1002
}
1001
GENIUS_GENODEF_13
1002
{
1000
HIER
1070
     0
1002
}
1002
{
1000
MANEDIT
1070
     0
1002
}
1002
{
1000
NOSEL
1070
     0
1002
}
1002
{
1000
BEHIND
1070
     0
1002
}
1002
{
1000
OTHER
1070
     0
1002
}
1002
{
1000
REACTOR
1002
}
1001
GENIUS_GENCEN_19
1002
{
1040
3.0
1002
}
  0
LINE
  5
C36C
330
1F
100
AcDbEntity
  8
AM_11
100
AcDbLine
 10
4704.173989120596
 20
4094.937537838427
 30
0.0
 11
4704.173989120596
 21
4064.437537838426
 31
0.0
  0
LINE
  5
C36D
330
1F
100
AcDbEntity
  8
AM_11
100
AcDbLine
 10
4702.173989120595
 20
4094.937537838427
 30
0.0
 11
4702.173989120595
 21
4064.437537838426
 31
0.0
  0
LINE
  5
C36E
330
1F
100
AcDbEntity
  8
AM_11
100
AcDbLine
 10
4702.173989120595
 20
4065.437537838426
 30
0.0
 11
4704.173989120596
 21
4065.437537838426
 31
0.0
  0
LINE
  5
C36F
330
1F
100
AcDbEntity
  8
AM_11
100
AcDbLine
 10
4702.173989120595
 20
3988.437537838427
 30
0.0
 11
4704.173989120596
 21
3988.437537838427
 31
0.0
  0
LINE
  5
C370
330
1F
100
AcDbEntity
  8
AM_11
100
AcDbLine
 10
4704.173989120596
 20
3958.937537838427
 30
0.0
 11
4704.173989120596
 21
3989.437537838427
 31
0.0
  0
LINE
  5
C371
330
1F
100
AcDbEntity
  8
AM_11
100
AcDbLine
 10
4702.173989120595
 20
3958.937537838427
 30
0.0
 11
4702.173989120595
 21
3989.437537838427
 31
0.0
  0
LINE
  5
C372
330
1F
100
AcDbEntity
  8
AM_7
  6
AM_ISO08W050x2
100
AcDbLine
 10
4698.173989120595
 20
4071.937537838426
 30
0.0
 11
4720.673989120595
 21
4071.937537838426
 31
0.0
1001
GENIUS_GENOBJ-N-CEN_13
1002
{
1000
OWNER
1000
GEN
1002
}
1001
GENIUS_GENODEF_13
1002
{
1000
HIER
1070
     0
1002
}
1002
{
1000
MANEDIT
1070
     0
1002
}
1002
{
1000
NOSEL
1070
     0
1002
}
1002
{
1000
BEHIND
1070
     0
1002
}
1002
{
1000
OTHER
1070
     0
1002
}
1002
{
1000
REACTOR
1002
}
1001
GENIUS_GENCEN_19
1002
{
1040
3.0
1002
}
  0
LINE
  5
C373
330
1F
100
AcDbEntity
  8
AM_7
100
AcDbLine
 10
4676.173989120595
 20
4026.937537838427
 30
0.0
 11
4720.673989120595
 21
4026.937537838427
 31
0.0
1001
GENIUS_GENOBJ-N-CEN_13
1002
{
1000
OWNER
1000
GEN
1002
}
1001
GENIUS_GENODEF_13
1002
{
1000
HIER
1070
     0
1002
}
1002
{
1000
MANEDIT
1070
     0
1002
}
1002
{
1000
NOSEL
1070
     0
1002
}
1002
{
1000
BEHIND
1070
     0
1002
}
1002
{
1000
OTHER
1070
     0
1002
}
1002
{
1000
REACTOR
1002
}
1001
GENIUS_GENCEN_19
1002
{
1040
6.0
1002
}
  0
LINE
  5
C374
330
1F
100
AcDbEntity
  8
AM_7
100
AcDbLine
 10
4769.173992314557
 20
3985.937535442507
 30
0.0
 11
4769.173989120594
 21
4107.937537442507
 31
0.0
1001
GENIUS_GENOBJ-N-CEN_13
1002
{
1000
OWNER
1000
GEN
1002
}
1001
GENIUS_GENODEF_13
1002
{
1000
HIER
1070
     0
1002
}
1002
{
1000
MANEDIT
1070
     0
1002
}
1002
{
1000
NOSEL
1070
     0
1002
}
1002
{
1000
BEHIND
1070
     0
1002
}
1002
{
1000
OTHER
1070
     0
1002
}
1002
{
1000
REACTOR
1002
}
1001
GENIUS_GENCEN_19
1002
{
1040
6.0
1002
}
  0
LINE
  5
C375
330
1F
100
AcDbEntity
  8
AM_7
100
AcDbLine
 10
4688.173989578178
 20
4046.937537527182
 30
0.0
 11
4955.173997364876
 21
4046.937534323626
 31
0.0
1001
GENIUS_GENODEF_13
1002
{
1000
HIER
1070
     0
1002
}
1002
{
1000
MANEDIT
1070
     0
1002
}
1002
{
1000
NOSEL
1070
     0
1002
}
1002
{
1000
BEHIND
1070
     0
1002
}
1002
{
1000
OTHER
1070
     0
1002
}
1002
{
1000
REACTOR
1002
}
1001
GENIUS_GENOBJ-N-CEN_13
1002
{
1000
OWNER
1000
GEN
1002
}
1001
GENIUS_GENCEN_19
1002
{
1040
6.0
1002
}
  0
LINE
  5
C390
330
1F
100
AcDbEntity
  8
AM_7
 48
0.5
100
AcDbLine
 10
4786.973991557476
 20
4076.937537442507
 30
0.0
 11
4811.373991157477
 21
4076.937537442507
 31
0.0
1001
GENIUS_GENOBJ-N-CEN_13
1002
{
1000
OWNER
1000
GEN
1002
}
1001
GENIUS_GENODEF_13
1002
{
1000
HIER
1070
     0
1002
}
1002
{
1000
MANEDIT
1070
     0
1002
}
1002
{
1000
NOSEL
1070
     0
1002
}
1002
{
1000
BEHIND
1070
     0
1002
}
1002
{
1000
OTHER
1070
     0
1002
}
1002
{
1000
REACTOR
1002
}
1001
GENIUS_GENCEN_19
1002
{
1040
3.0
1002
}
  0
LINE
  5
C391
330
1F
100
AcDbEntity
  8
AM_7
 48
0.5
100
AcDbLine
 10
4799.173991357476
 20
4064.737537642507
 30
0.0
 11
4799.173991357476
 21
4089.137537242507
 31
0.0
1001
GENIUS_GENODEF_13
1002
{
1000
HIER
1070
     0
1002
}
1002
{
1000
MANEDIT
1070
     0
1002
}
1002
{
1000
NOSEL
1070
     0
1002
}
1002
{
1000
BEHIND
1070
     0
1002
}
1002
{
1000
OTHER
1070
     0
1002
}
1002
{
1000
REACTOR
1002
}
1001
GENIUS_GENOBJ-N-CEN_13
1002
{
1000
OWNER
1000
GEN
1002
}
1001
GENIUS_GENCEN_19
1002
{
1040
3.0
1002
}
  0
LINE
  5
C392
330
1F
100
AcDbEntity
  8
AM_7
 48
0.5
100
AcDbLine
 10
4736.973992357476
 20
4091.937557442506
 30
0.0
 11
4761.373991957477
 21
4091.937557442506
 31
0.0
1001
GENIUS_GENOBJ-N-CEN_13
1002
{
1000
OWNER
1000
GEN
1002
}
1001
GENIUS_GENODEF_13
1002
{
1000
HIER
1070
     0
1002
}
1002
{
1000
MANEDIT
1070
     0
1002
}
1002
{
1000
NOSEL
1070
     0
1002
}
1002
{
1000
BEHIND
1070
     0
1002
}
1002
{
1000
OTHER
1070
     0
1002
}
1002
{
1000
REACTOR
1002
}
1001
GENIUS_GENCEN_19
1002
{
1040
3.0
1002
}
  0
LINE
  5
C393
330
1F
100
AcDbEntity
  8
AM_7
 48
0.5
100
AcDbLine
 10
4749.173992157476
 20
4079.737557642507
 30
0.0
 11
4749.173992157476
 21
4104.137557242506
 31
0.0
1001
GENIUS_GENODEF_13
1002
{
1000
HIER
1070
     0
1002
}
1002
{
1000
MANEDIT
1070
     0
1002
}
1002
{
1000
NOSEL
1070
     0
1002
}
1002
{
1000
BEHIND
1070
     0
1002
}
1002
{
1000
OTHER
1070
     0
1002
}
1002
{
1000
REACTOR
1002
}
1001
GENIUS_GENOBJ-N-CEN_13
1002
{
1000
OWNER
1000
GEN
1002
}
1001
GENIUS_GENCEN_19
1002
{
1040
3.0
1002
}
  0
LINE
  5
C394
330
1F
100
AcDbEntity
  8
AM_7
 48
0.5
100
AcDbLine
 10
4736.973992357476
 20
4001.937535442507
 30
0.0
 11
4761.373991957477
 21
4001.937535442507
 31
0.0
1001
GENIUS_GENOBJ-N-CEN_13
1002
{
1000
OWNER
1000
GEN
1002
}
1001
GENIUS_GENODEF_13
1002
{
1000
HIER
1070
     0
1002
}
1002
{
1000
MANEDIT
1070
     0
1002
}
1002
{
1000
NOSEL
1070
     0
1002
}
1002
{
1000
BEHIND
1070
     0
1002
}
1002
{
1000
OTHER
1070
     0
1002
}
1002
{
1000
REACTOR
1002
}
1001
GENIUS_GENCEN_19
1002
{
1040
3.0
1002
}
  0
LINE
  5
C395
330
1F
100
AcDbEntity
  8
AM_7
 48
0.5
100
AcDbLine
 10
4749.173992157476
 20
3989.737535642507
 30
0.0
 11
4749.173992157476
 21
4014.137535242507
 31
0.0
1001
GENIUS_GENODEF_13
1002
{
1000
HIER
1070
     0
1002
}
1002
{
1000
MANEDIT
1070
     0
1002
}
1002
{
1000
NOSEL
1070
     0
1002
}
1002
{
1000
BEHIND
1070
     0
1002
}
1002
{
1000
OTHER
1070
     0
1002
}
1002
{
1000
REACTOR
1002
}
1001
GENIUS_GENOBJ-N-CEN_13
1002
{
1000
OWNER
1000
GEN
1002
}
1001
GENIUS_GENCEN_19
1002
{
1040
3.0
1002
}
  0
LINE
  5
C396
330
1F
100
AcDbEntity
  8
AM_11
100
AcDbLine
 10
4821.714608178178
 20
3874.508749758886
 30
0.0
 11
4839.760625578177
 21
3881.076965758887
 31
0.0
  0
LINE
  5
C397
330
1F
100
AcDbEntity
  8
AM_11
100
AcDbLine
 10
4841.886461578178
 20
3885.465109758885
 30
0.0
 11
4800.25832697818
 21
4011.305723758884
 31
0.0
  0
LINE
  5
C398
330
1F
100
AcDbEntity
  8
AM_11
100
AcDbLine
 10
4817.265480098178
 20
3876.503801758885
 30
0.0
 11
4764.688739578176
 21
4008.651777758884
 31
0.0
  0
LINE
  5
C399
330
1F
100
AcDbEntity
  8
AM_11
100
AcDbLine
 10
4694.173989578178
 20
4057.937531758885
 30
0.0
 11
4694.173989578178
 21
4035.937531758886
 31
0.0
  0
ARC
  5
C39A
330
1F
100
AcDbEntity
  8
AM_11
100
AcDbCircle
 10
4820.517538178179
 20
3877.797675758887
 30
0.0
 40
3.499999999999999
100
AcDbArc
 50
201.6957599999748
 51
290.0000000000042
  0
ARC
  5
C39B
330
1F
100
AcDbEntity
  8
AM_11
100
AcDbCircle
 10
4838.56355557818
 20
3884.365889758886
 30
0.0
 40
3.499999999999999
100
AcDbArc
 50
290.0000000000042
 51
18.3042389999986
  0
ARC
  5
C39C
330
1F
100
AcDbEntity
  8
AM_11
100
AcDbCircle
 10
4710.173989578176
 20
3994.937529758886
 30
0.0
 40
64.99999999999997
100
AcDbArc
 50
75.74996699997742
 51
104.2500300000005
  0
ARC
  5
C39D
330
1F
100
AcDbEntity
  8
AM_11
100
AcDbCircle
 10
4710.173989578177
 20
4098.937551758886
 30
0.0
 40
64.99999999999997
100
AcDbArc
 50
255.7499699999868
 51
284.2500300000006
  0
LINE
  5
C3A0
330
1F
100
AcDbEntity
  8
AM_7
100
AcDbLine
 10
4755.151163141259
 20
4085.464940763164
 30
0.0
 11
4832.789737183023
 21
3872.154702338187
 31
0.0
1001
GENIUS_GENODEF_13
1002
{
1000
HIER
1070
     0
1002
}
1002
{
1000
MANEDIT
1070
     0
1002
}
1002
{
1000
NOSEL
1070
     0
1002
}
1002
{
1000
BEHIND
1070
     0
1002
}
1002
{
1000
OTHER
1070
     0
1002
}
1002
{
1000
REACTOR
1002
}
1001
GENIUS_GENOBJ-N-CEN_13
1002
{
1000
OWNER
1000
GEN
1002
}
1001
GENIUS_GENCEN_19
1002
{
1040
6.0
1002
}
  0
DIMENSION
  5
C3A1
330
1F
100
AcDbEntity
  8
AM_5
100
AcDbDimension
  2
*D23
 10
4664.173989709416
 20
4071.937537838426
 30
0.0
 11
4657.973989709415
 21
4059.437537682805
 31
0.0
 70
    32
 71
     5
 42
25.0000003112441
  3
SYS$0
100
AcDbAlignedDimension
 13
4688.173989578177
 23
4046.937537527182
 33
0.0
 14
4698.173989120594
 24
4071.937537838426
 34
0.0
 50
89.99999931254576
100
AcDbRotatedDimension
1001
ACAD
1000
DSTYLE
1002
{
1070
    40
1040
2.0
1002
}
  0
DIMENSION
  5
C3B7
330
1F
100
AcDbEntity
  8
AM_5
100
AcDbDimension
  2
*D24
 10
4655.173989120595
 20
4174.63821924337
 30
0.0
 11
4648.973989120594
 21
4167.104885910037
 31
0.0
 70
    32
 71
     5
 42
0.999999999994543
  3
SYS$0
100
AcDbAlignedDimension
 13
4730.185871639144
 23
4175.638219243364
 33
0.0
 14
4679.173989120595
 24
4174.63821924337
 34
0.0
 50
90.00000000000161
100
AcDbRotatedDimension
1001
ACAD
1000
DSTYLE
1002
{
1070
    40
1040
2.0
1002
}
  0
DIMENSION
  5
C3D1
330
1F
100
AcDbEntity
  8
AM_5
100
AcDbDimension
  2
*D25
 10
4639.173989120716
 20
4221.638219243372
 30
0.0
 11
4632.973989120715
 21
4198.138219243372
 31
0.0
 70
    32
 71
     5
 42
47.00000000000182
  3
SYS$0
100
AcDbAlignedDimension
 13
4679.173989120595
 23
4174.63821924337
 33
0.0
 14
4690.673989120595
 24
4221.638219243372
 34
0.0
 50
90.0
100
AcDbRotatedDimension
1001
ACAD
1000
DSTYLE
1002
{
1070
    40
1040
2.0
1002
}
  0
DIMENSION
  5
C416
330
1F
100
AcDbEntity
  8
AM_5
100
AcDbDimension
  2
*D26
 10
4769.173989120594
 20
4125.63821823337
 30
0.0
 11
4736.673989120594
 21
4131.83821823337
 31
0.0
 70
    32
 71
     5
 42
64.99999999999909
  3
SYS$0
100
AcDbAlignedDimension
 13
4704.173989120596
 23
4144.63821924337
 33
0.0
 14
4769.173989120594
 24
4155.63821924337
 34
0.0
100
AcDbRotatedDimension
1001
ACAD
1000
DSTYLE
1002
{
1070
    40
1040
2.0
1002
}
  0
LINE
  5
C435
330
1F
100
AcDbEntity
  8
AM_10
370
    13
100
AcDbLine
 10
5391.626276973278
 20
4267.638219243374
 30
0.0
 11
5391.626276973278
 21
4215.638219243373
 31
0.0
  0
LINE
  5
C438
330
1F
100
AcDbEntity
  8
AM_0
100
AcDbLine
 10
5150.975977563987
 20
4101.937557442506
 30
0.0
 11
5174.168619563987
 21
4101.937557442506
 31
0.0
  0
LINE
  5
C439
330
1F
100
AcDbEntity
  8
AM_0
  6
陰線1
370
    13
100
AcDbLine
 10
5150.975977563987
 20
3991.937535442506
 30
0.0
 11
5167.768944402976
 21
3991.937535442506
 31
0.0
  0
LINE
  5
C43A
330
1F
100
AcDbEntity
  8
AM_0
100
AcDbLine
 10
5167.768944402976
 20
3991.937535442506
 30
0.0
 11
5174.168619563987
 21
3991.937535442506
 31
0.0
  0
LINE
  5
C43B
330
1F
100
AcDbEntity
  8
AM_0
100
AcDbLine
 10
5354.168626096047
 20
4037.335448626767
 30
0.0
 11
5354.168623446724
 21
4056.539620189834
 31
0.0
  0
LINE
  5
C43C
330
1F
100
AcDbEntity
  8
AM_0
100
AcDbLine
 10
5350.772195644386
 20
4060.038086231848
 30
0.0
 11
5218.283038711146
 21
4063.960460167618
 31
0.0
  0
LINE
  5
C43D
330
1F
100
AcDbEntity
  8
AM_0
100
AcDbLine
 10
5350.772199029967
 20
4033.836983772039
 30
0.0
 11
5208.611416802727
 21
4029.628278372138
 31
0.0
  0
LINE
  5
C43E
330
1F
100
AcDbEntity
  8
AM_0
100
AcDbLine
 10
5147.715598212727
 20
4010.806002867706
 30
0.0
 11
5171.207913732373
 21
4002.255499284563
 31
0.0
  0
LINE
  5
C43F
330
1F
100
AcDbEntity
  8
AM_0
100
AcDbLine
 10
5171.207913732373
 20
4002.255499284563
 30
0.0
 11
5187.378630408757
 21
4019.906661800656
 31
0.0
  0
LINE
  5
C440
330
1F
100
AcDbEntity
  8
AM_0
100
AcDbLine
 10
5147.715598212727
 20
4010.806002867706
 30
0.0
 11
5146.19513242783
 21
4045.719296002044
 31
0.0
  0
LINE
  5
C441
330
1F
100
AcDbEntity
  8
AM_0
100
AcDbLine
 10
5138.180492557483
 20
3980.222808787571
 30
0.0
 11
5158.853730214772
 21
3972.698365634406
 31
0.0
  0
ARC
  5
C442
330
1F
100
AcDbEntity
  8
AM_0
100
AcDbCircle
 10
5439.168611563985
 20
4046.937537442507
 30
0.0
 40
300.0
100
AcDbArc
 50
170.7374399999885
 51
180.0
  0
ARC
  5
C443
330
1F
100
AcDbEntity
  8
AM_0
100
AcDbCircle
 10
5150.975977563987
 20
4093.937557442506
 30
0.0
 40
8.0
100
AcDbArc
 50
90.00000300001072
 51
170.7374399999885
  0
ARC
  5
C444
330
1F
100
AcDbEntity
  8
AM_0
  6
陰線1
370
    13
100
AcDbCircle
 10
5150.975977563987
 20
3999.937535442506
 30
0.0
 40
8.0
100
AcDbArc
 50
189.262560000011
 51
270.0
  0
ARC
  5
C445
330
1F
100
AcDbEntity
  8
AM_0
100
AcDbCircle
 10
5174.168619563987
 20
4046.937537442507
 30
0.0
 40
55.0
100
AcDbArc
 50
270.0
 51
342.2382557137763
  0
ARC
  5
C446
330
1F
100
AcDbEntity
  8
AM_0
  6
陰線1
370
    13
100
AcDbCircle
 10
5174.168619563987
 20
4046.937537442507
 30
0.0
 40
55.0
100
AcDbArc
 50
342.2382557137763
 51
17.76173817817307
  0
ARC
  5
C447
330
1F
100
AcDbEntity
  8
AM_0
100
AcDbCircle
 10
5174.168619563987
 20
4046.937537442507
 30
0.0
 40
55.0
100
AcDbArc
 50
17.76173817817307
 51
90.00000300001072
  0
CIRCLE
  5
C448
330
1F
100
AcDbEntity
  8
AM_0
  6
陰線1
370
    13
100
AcDbCircle
 10
5154.168619563987
 20
4001.937535442507
 30
0.0
 40
6.199999799999997
  0
CIRCLE
  5
C449
330
1F
100
AcDbEntity
  8
AM_0
  6
陰線1
370
    13
100
AcDbCircle
 10
5154.168619563987
 20
4001.937535442507
 30
0.0
 40
3.1
  0
CIRCLE
  5
C44A
330
1F
100
AcDbEntity
  8
AM_0
100
AcDbCircle
 10
5204.168618763986
 20
4076.937537442507
 30
0.0
 40
6.199999799999997
  0
CIRCLE
  5
C44B
330
1F
100
AcDbEntity
  8
AM_0
100
AcDbCircle
 10
5204.168618763986
 20
4076.937537442507
 30
0.0
 40
3.1
  0
CIRCLE
  5
C44C
330
1F
100
AcDbEntity
  8
AM_0
100
AcDbCircle
 10
5154.168619563987
 20
4091.937557442506
 30
0.0
 40
6.199999799999997
  0
CIRCLE
  5
C44D
330
1F
100
AcDbEntity
  8
AM_0
100
AcDbCircle
 10
5154.168619563987
 20
4091.937557442506
 30
0.0
 40
3.1
  0
ARC
  5
C44E
330
1F
100
AcDbEntity
  8
AM_0
100
AcDbCircle
 10
5174.168622135552
 20
4046.937533769931
 30
0.0
 40
28.0
100
AcDbArc
 50
63.26638000001891
 51
182.4936299999959
  0
ARC
  5
C44F
330
1F
100
AcDbEntity
  8
AM_0
100
AcDbCircle
 10
5220.50245607292
 20
4138.927618148392
 30
0.0
 40
74.99999999999999
100
AcDbArc
 50
243.2663800000189
 51
268.3042399999686
  0
ARC
  5
C450
330
1F
100
AcDbEntity
  8
AM_0
100
AcDbCircle
 10
5350.668624550564
 20
4037.33544972311
 30
0.0
 40
3.499999999999999
100
AcDbArc
 50
271.6957599999793
 51
0.0
  0
ARC
  5
C451
330
1F
100
AcDbEntity
  8
AM_0
100
AcDbCircle
 10
5350.668623780627
 20
4056.53962060214
 30
0.0
 40
3.499999999999999
100
AcDbArc
 50
0.0
 51
88.3042390000048
  0
ARC
  5
C452
330
1F
100
AcDbEntity
  8
AM_0
100
AcDbCircle
 10
5209.499190693755
 20
3999.641414657192
 30
0.0
 40
30.0
100
AcDbArc
 50
91.69576299997499
 51
137.5063660000158
  0
ARC
  5
C453
330
1F
100
AcDbEntity
  8
AM_0
100
AcDbCircle
 10
5439.168611563985
 20
4046.937537442507
 30
0.0
 40
300.0
100
AcDbArc
 50
180.0
 51
189.1787545482846
  0
ARC
  5
C454
330
1F
100
AcDbEntity
  8
AM_0
  6
陰線1
370
    13
100
AcDbCircle
 10
5439.168611563985
 20
4046.937537442507
 30
0.0
 40
300.0
100
AcDbArc
 50
189.1787545482846
 51
189.262560000011
  0
ARC
  5
C455
330
1F
100
AcDbEntity
  8
AM_0
100
AcDbCircle
 10
5202.85345183959
 20
3973.710621006585
 30
0.0
 40
64.99999999999999
100
AcDbArc
 50
145.7499669999783
 51
174.2500299999999
  0
ARC
  5
C456
330
1F
100
AcDbEntity
  8
AM_0
100
AcDbCircle
 10
5105.125398604617
 20
4009.280723436899
 30
0.0
 40
64.99999999999999
100
AcDbArc
 50
325.7499699999873
 51
354.2500299999999
  0
CIRCLE
  5
C457
330
1F
100
AcDbEntity
  8
AM_0
100
AcDbCircle
 10
5204.168618763986
 20
4016.937535442506
 30
0.0
 40
6.199999799999997
  0
CIRCLE
  5
C458
330
1F
100
AcDbEntity
  8
AM_0
100
AcDbCircle
 10
5204.168618763986
 20
4016.937535442506
 30
0.0
 40
3.1
  0
LINE
  5
C459
330
1F
100
AcDbEntity
  8
AM_7
 48
0.5
100
AcDbLine
 10
5191.968618963986
 20
4016.937535442506
 30
0.0
 11
5216.368618563986
 21
4016.937535442506
 31
0.0
1001
GENIUS_GENOBJ-N-CEN_13
1002
{
1000
OWNER
1000
GEN
1002
}
1001
GENIUS_GENODEF_13
1002
{
1000
HIER
1070
     0
1002
}
1002
{
1000
MANEDIT
1070
     0
1002
}
1002
{
1000
NOSEL
1070
     0
1002
}
1002
{
1000
BEHIND
1070
     0
1002
}
1002
{
1000
OTHER
1070
     0
1002
}
1002
{
1000
REACTOR
1002
}
1001
GENIUS_GENCEN_19
1002
{
1040
3.0
1002
}
  0
LINE
  5
C45A
330
1F
100
AcDbEntity
  8
AM_7
 48
0.5
100
AcDbLine
 10
5204.168618763986
 20
4004.737535642506
 30
0.0
 11
5204.168618763986
 21
4029.137535242506
 31
0.0
1001
GENIUS_GENODEF_13
1002
{
1000
HIER
1070
     0
1002
}
1002
{
1000
MANEDIT
1070
     0
1002
}
1002
{
1000
NOSEL
1070
     0
1002
}
1002
{
1000
BEHIND
1070
     0
1002
}
1002
{
1000
OTHER
1070
     0
1002
}
1002
{
1000
REACTOR
1002
}
1001
GENIUS_GENOBJ-N-CEN_13
1002
{
1000
OWNER
1000
GEN
1002
}
1001
GENIUS_GENCEN_19
1002
{
1040
3.0
1002
}
  0
LINE
  5
C471
330
1F
100
AcDbEntity
  8
AM_7
100
AcDbLine
 10
5174.168619721067
 20
3985.937535442507
 30
0.0
 11
5174.168616527104
 21
4107.937537442507
 31
0.0
1001
GENIUS_GENOBJ-N-CEN_13
1002
{
1000
OWNER
1000
GEN
1002
}
1001
GENIUS_GENODEF_13
1002
{
1000
HIER
1070
     0
1002
}
1002
{
1000
MANEDIT
1070
     0
1002
}
1002
{
1000
NOSEL
1070
     0
1002
}
1002
{
1000
BEHIND
1070
     0
1002
}
1002
{
1000
OTHER
1070
     0
1002
}
1002
{
1000
REACTOR
1002
}
1001
GENIUS_GENCEN_19
1002
{
1040
6.0
1002
}
  0
LINE
  5
C472
330
1F
100
AcDbEntity
  8
AM_7
100
AcDbLine
 10
5093.168616984688
 20
4046.937537527182
 30
0.0
 11
5360.168624771385
 21
4046.937534323626
 31
0.0
1001
GENIUS_GENODEF_13
1002
{
1000
HIER
1070
     0
1002
}
1002
{
1000
MANEDIT
1070
     0
1002
}
1002
{
1000
NOSEL
1070
     0
1002
}
1002
{
1000
BEHIND
1070
     0
1002
}
1002
{
1000
OTHER
1070
     0
1002
}
1002
{
1000
REACTOR
1002
}
1001
GENIUS_GENOBJ-N-CEN_13
1002
{
1000
OWNER
1000
GEN
1002
}
1001
GENIUS_GENCEN_19
1002
{
1040
6.0
1002
}
  0
LINE
  5
C473
330
1F
100
AcDbEntity
  8
AM_7
 48
0.5
100
AcDbLine
 10
5191.968618963986
 20
4076.937537442507
 30
0.0
 11
5216.368618563986
 21
4076.937537442507
 31
0.0
1001
GENIUS_GENOBJ-N-CEN_13
1002
{
1000
OWNER
1000
GEN
1002
}
1001
GENIUS_GENODEF_13
1002
{
1000
HIER
1070
     0
1002
}
1002
{
1000
MANEDIT
1070
     0
1002
}
1002
{
1000
NOSEL
1070
     0
1002
}
1002
{
1000
BEHIND
1070
     0
1002
}
1002
{
1000
OTHER
1070
     0
1002
}
1002
{
1000
REACTOR
1002
}
1001
GENIUS_GENCEN_19
1002
{
1040
3.0
1002
}
  0
LINE
  5
C474
330
1F
100
AcDbEntity
  8
AM_7
 48
0.5
100
AcDbLine
 10
5204.168618763986
 20
4064.737537642507
 30
0.0
 11
5204.168618763986
 21
4089.137537242507
 31
0.0
1001
GENIUS_GENODEF_13
1002
{
1000
HIER
1070
     0
1002
}
1002
{
1000
MANEDIT
1070
     0
1002
}
1002
{
1000
NOSEL
1070
     0
1002
}
1002
{
1000
BEHIND
1070
     0
1002
}
1002
{
1000
OTHER
1070
     0
1002
}
1002
{
1000
REACTOR
1002
}
1001
GENIUS_GENOBJ-N-CEN_13
1002
{
1000
OWNER
1000
GEN
1002
}
1001
GENIUS_GENCEN_19
1002
{
1040
3.0
1002
}
  0
LINE
  5
C475
330
1F
100
AcDbEntity
  8
AM_7
 48
0.5
100
AcDbLine
 10
5141.968619763987
 20
4091.937557442506
 30
0.0
 11
5166.368619363987
 21
4091.937557442506
 31
0.0
1001
GENIUS_GENOBJ-N-CEN_13
1002
{
1000
OWNER
1000
GEN
1002
}
1001
GENIUS_GENODEF_13
1002
{
1000
HIER
1070
     0
1002
}
1002
{
1000
MANEDIT
1070
     0
1002
}
1002
{
1000
NOSEL
1070
     0
1002
}
1002
{
1000
BEHIND
1070
     0
1002
}
1002
{
1000
OTHER
1070
     0
1002
}
1002
{
1000
REACTOR
1002
}
1001
GENIUS_GENCEN_19
1002
{
1040
3.0
1002
}
  0
LINE
  5
C476
330
1F
100
AcDbEntity
  8
AM_7
 48
0.5
100
AcDbLine
 10
5154.168619563987
 20
4079.737557642507
 30
0.0
 11
5154.168619563987
 21
4104.137557242506
 31
0.0
1001
GENIUS_GENODEF_13
1002
{
1000
HIER
1070
     0
1002
}
1002
{
1000
MANEDIT
1070
     0
1002
}
1002
{
1000
NOSEL
1070
     0
1002
}
1002
{
1000
BEHIND
1070
     0
1002
}
1002
{
1000
OTHER
1070
     0
1002
}
1002
{
1000
REACTOR
1002
}
1001
GENIUS_GENOBJ-N-CEN_13
1002
{
1000
OWNER
1000
GEN
1002
}
1001
GENIUS_GENCEN_19
1002
{
1040
3.0
1002
}
  0
LINE
  5
C477
330
1F
100
AcDbEntity
  8
AM_7
 48
0.5
100
AcDbLine
 10
5141.968619763987
 20
4001.937535442507
 30
0.0
 11
5166.368619363987
 21
4001.937535442507
 31
0.0
1001
GENIUS_GENOBJ-N-CEN_13
1002
{
1000
OWNER
1000
GEN
1002
}
1001
GENIUS_GENODEF_13
1002
{
1000
HIER
1070
     0
1002
}
1002
{
1000
MANEDIT
1070
     0
1002
}
1002
{
1000
NOSEL
1070
     0
1002
}
1002
{
1000
BEHIND
1070
     0
1002
}
1002
{
1000
OTHER
1070
     0
1002
}
1002
{
1000
REACTOR
1002
}
1001
GENIUS_GENCEN_19
1002
{
1040
3.0
1002
}
  0
LINE
  5
C478
330
1F
100
AcDbEntity
  8
AM_7
 48
0.5
100
AcDbLine
 10
5154.168619563987
 20
3989.737535642507
 30
0.0
 11
5154.168619563987
 21
4014.137535242507
 31
0.0
1001
GENIUS_GENODEF_13
1002
{
1000
HIER
1070
     0
1002
}
1002
{
1000
MANEDIT
1070
     0
1002
}
1002
{
1000
NOSEL
1070
     0
1002
}
1002
{
1000
BEHIND
1070
     0
1002
}
1002
{
1000
OTHER
1070
     0
1002
}
1002
{
1000
REACTOR
1002
}
1001
GENIUS_GENOBJ-N-CEN_13
1002
{
1000
OWNER
1000
GEN
1002
}
1001
GENIUS_GENCEN_19
1002
{
1040
3.0
1002
}
  0
LINE
  5
C479
330
1F
100
AcDbEntity
  8
AM_11
100
AcDbLine
 10
5226.709235584689
 20
3874.508749758886
 30
0.0
 11
5244.755252984687
 21
3881.076965758887
 31
0.0
  0
LINE
  5
C47A
330
1F
100
AcDbEntity
  8
AM_11
100
AcDbLine
 10
5246.881088984687
 20
3885.465109758885
 30
0.0
 11
5205.25295438469
 21
4011.305723758884
 31
0.0
  0
LINE
  5
C47B
330
1F
100
AcDbEntity
  8
AM_11
100
AcDbLine
 10
5222.260107504687
 20
3876.503801758885
 30
0.0
 11
5169.683366984687
 21
4008.651777758884
 31
0.0
  0
LINE
  5
C47C
330
1F
100
AcDbEntity
  8
AM_11
100
AcDbLine
 10
5099.168616984687
 20
4057.937531758885
 30
0.0
 11
5099.168616984687
 21
4035.937531758886
 31
0.0
  0
ARC
  5
C47D
330
1F
100
AcDbEntity
  8
AM_11
100
AcDbCircle
 10
5225.512165584688
 20
3877.797675758887
 30
0.0
 40
3.499999999999999
100
AcDbArc
 50
201.6957599999748
 51
290.0000000000034
  0
ARC
  5
C47E
330
1F
100
AcDbEntity
  8
AM_11
100
AcDbCircle
 10
5243.558182984689
 20
3884.365889758886
 30
0.0
 40
3.499999999999999
100
AcDbArc
 50
290.0000000000034
 51
18.30423899999818
  0
ARC
  5
C47F
330
1F
100
AcDbEntity
  8
AM_11
100
AcDbCircle
 10
5115.168616984686
 20
3994.937529758886
 30
0.0
 40
64.99999999999997
100
AcDbArc
 50
75.74996699997616
 51
104.2500300000017
  0
ARC
  5
C480
330
1F
100
AcDbEntity
  8
AM_11
100
AcDbCircle
 10
5115.168616984687
 20
4098.937551758886
 30
0.0
 40
64.99999999999997
100
AcDbArc
 50
255.7499699999882
 51
284.2500300000017
  0
LINE
  5
C481
330
1F
100
AcDbEntity
  8
AM_7
100
AcDbLine
 10
5160.145790547768
 20
4085.464940763164
 30
0.0
 11
5237.784364589533
 21
3872.154702338187
 31
0.0
1001
GENIUS_GENODEF_13
1002
{
1000
HIER
1070
     0
1002
}
1002
{
1000
MANEDIT
1070
     0
1002
}
1002
{
1000
NOSEL
1070
     0
1002
}
1002
{
1000
BEHIND
1070
     0
1002
}
1002
{
1000
OTHER
1070
     0
1002
}
1002
{
1000
REACTOR
1002
}
1001
GENIUS_GENOBJ-N-CEN_13
1002
{
1000
OWNER
1000
GEN
1002
}
1001
GENIUS_GENCEN_19
1002
{
1040
6.0
1002
}
  0
LINE
  5
C51E
330
1F
100
AcDbEntity
  8
0DFB-2020
100
AcDbLine
 10
5102.668616527103
 20
4093.937537263218
 30
0.0
 11
5102.668616527103
 21
3999.937537263219
 31
0.0
  0
LINE
  5
C51F
330
1F
100
AcDbEntity
  8
0DFB-2020
100
AcDbLine
 10
5127.668616527103
 20
4093.937537263218
 30
0.0
 11
5127.668616527103
 21
3999.937537263219
 31
0.0
  0
LINE
  5
C520
330
1F
100
AcDbEntity
  8
0DFB-2020
100
AcDbLine
 10
5103.668616527103
 20
3998.937537263219
 30
0.0
 11
5126.668616527103
 21
3998.937537263219
 31
0.0
  0
LINE
  5
C521
330
1F
100
AcDbEntity
  8
0DFB-2020
100
AcDbLine
 10
5103.668616527103
 20
4094.937537263218
 30
0.0
 11
5126.668616527103
 21
4094.937537263218
 31
0.0
  0
LINE
  5
C522
330
1F
100
AcDbEntity
  8
0DFB-2020
100
AcDbLine
 10
5102.668616527103
 20
4014.937537263219
 30
0.0
 11
5127.668616527103
 21
4014.937537263219
 31
0.0
  0
LINE
  5
C523
330
1F
100
AcDbEntity
  8
0DFB-2020
100
AcDbLine
 10
5102.668616527103
 20
4072.937537263218
 30
0.0
 11
5127.668616527103
 21
4072.937537263218
 31
0.0
  0
LINE
  5
C524
330
1F
100
AcDbEntity
  8
0DFB-2020
100
AcDbLine
 10
5102.668616527103
 20
4064.937537263219
 30
0.0
 11
5127.668616527103
 21
4064.937537263219
 31
0.0
  0
LINE
  5
C525
330
1F
100
AcDbEntity
  8
0DFB-2020
100
AcDbLine
 10
5102.668616527103
 20
4034.937537263219
 30
0.0
 11
5127.668616527103
 21
4034.937537263219
 31
0.0
  0
ARC
  5
C526
330
1F
100
AcDbEntity
  8
0DFB-2020
100
AcDbCircle
 10
5103.668616527103
 20
4093.937537263218
 30
0.0
 40
1.0
100
AcDbArc
 50
90.00000299998461
 51
180.000010000001
  0
ARC
  5
C527
330
1F
100
AcDbEntity
  8
0DFB-2020
100
AcDbCircle
 10
5126.668616527103
 20
4093.937537263218
 30
0.0
 40
1.0
100
AcDbArc
 50
0.0
 51
90.00000299998461
  0
ARC
  5
C528
330
1F
100
AcDbEntity
  8
0DFB-2020
100
AcDbCircle
 10
5103.668616527103
 20
3999.937537263219
 30
0.0
 40
1.0
100
AcDbArc
 50
179.999989999999
 51
270.0
  0
ARC
  5
C529
330
1F
100
AcDbEntity
  8
0DFB-2020
100
AcDbCircle
 10
5126.668616527103
 20
3999.937537263219
 30
0.0
 40
1.0
100
AcDbArc
 50
270.0
 51
0.0
  0
CIRCLE
  5
C52A
330
1F
100
AcDbEntity
  8
0DFB-2020
100
AcDbCircle
 10
5115.168616527103
 20
4086.937537263218
 30
0.0
 40
3.099999899999998
  0
CIRCLE
  5
C52B
330
1F
100
AcDbEntity
  8
0DFB-2020
100
AcDbCircle
 10
5115.168616527103
 20
4006.937537263218
 30
0.0
 40
3.099999899999998
  0
CIRCLE
  5
C52C
330
1F
100
AcDbEntity
  8
0DFB-2020
100
AcDbCircle
 10
5115.168616527103
 20
4006.937537263218
 30
0.0
 40
6.199999799999999
  0
CIRCLE
  5
C52D
330
1F
100
AcDbEntity
  8
0DFB-2020
100
AcDbCircle
 10
5115.168616527103
 20
4086.937537263218
 30
0.0
 40
6.199999799999999
  0
LINE
  5
C52E
330
1F
100
AcDbEntity
  8
AM_7
100
AcDbLine
 10
5115.168616527103
 20
3995.937537263219
 30
0.0
 11
5115.168616527103
 21
4097.937537263218
 31
0.0
1001
GENIUS_GENODEF_13
1002
{
1000
HIER
1070
     0
1002
}
1002
{
1000
MANEDIT
1070
     0
1002
}
1002
{
1000
NOSEL
1070
     0
1002
}
1002
{
1000
BEHIND
1070
     0
1002
}
1002
{
1000
OTHER
1070
     0
1002
}
1002
{
1000
REACTOR
1002
}
1001
GENIUS_GENOBJ-N-CEN_13
1002
{
1000
OWNER
1000
GEN
1002
}
1001
GENIUS_GENCEN_19
1002
{
1040
3.0
1002
}
  0
LINE
  5
C52F
330
1F
100
AcDbEntity
  8
AM_7
  6
AM_ISO08W050x2
100
AcDbLine
 10
5105.968616727103
 20
4086.937537263218
 30
0.0
 11
5124.368616327103
 21
4086.937537263218
 31
0.0
1001
GENIUS_GENOBJ-N-CEN_13
1002
{
1000
OWNER
1000
GEN
1002
}
1001
GENIUS_GENODEF_13
1002
{
1000
HIER
1070
     0
1002
}
1002
{
1000
MANEDIT
1070
     0
1002
}
1002
{
1000
NOSEL
1070
     0
1002
}
1002
{
1000
BEHIND
1070
     0
1002
}
1002
{
1000
OTHER
1070
     0
1002
}
1002
{
1000
REACTOR
1002
}
1001
GENIUS_GENCEN_19
1002
{
1040
3.0
1002
}
  0
LINE
  5
C530
330
1F
100
AcDbEntity
  8
AM_7
  6
AM_ISO08W050x2
100
AcDbLine
 10
5105.968616727103
 20
4006.937537263218
 30
0.0
 11
5124.368616327103
 21
4006.937537263218
 31
0.0
1001
GENIUS_GENOBJ-N-CEN_13
1002
{
1000
OWNER
1000
GEN
1002
}
1001
GENIUS_GENODEF_13
1002
{
1000
HIER
1070
     0
1002
}
1002
{
1000
MANEDIT
1070
     0
1002
}
1002
{
1000
NOSEL
1070
     0
1002
}
1002
{
1000
BEHIND
1070
     0
1002
}
1002
{
1000
OTHER
1070
     0
1002
}
1002
{
1000
REACTOR
1002
}
1001
GENIUS_GENCEN_19
1002
{
1040
3.0
1002
}
  0
DIMENSION
  5
C58B
330
1F
100
AcDbEntity
  8
AM_5
100
AcDbDimension
  2
*D41
 10
5078.668615198402
 20
4086.937537263218
 30
0.0
 11
5072.468615198402
 21
4066.9375373952
 31
0.0
 70
    32
 71
     5
 42
39.99999973603645
  3
SYS$0
100
AcDbAlignedDimension
 13
5093.168616984688
 23
4046.937537527182
 33
0.0
 14
5105.968616727103
 24
4086.937537263218
 34
0.0
 50
89.99999931254565
100
AcDbRotatedDimension
1001
ACAD
1000
DSTYLE
1002
{
1070
    40
1040
2.0
1002
}
  0
DIMENSION
  5
C5A1
330
1F
100
AcDbEntity
  8
AM_5
100
AcDbDimension
  2
*D42
 10
5174.168616527104
 20
4137.63821823337
 30
0.0
 11
5144.668616527104
 21
4143.838218233371
 31
0.0
 70
    32
 71
     5
 42
59.0000000000009
  3
SYS$0
100
AcDbAlignedDimension
 13
5115.168616527103
 23
4172.638219243372
 33
0.0
 14
5174.168616527104
 24
4155.63821924337
 34
0.0
100
AcDbRotatedDimension
1001
ACAD
1000
DSTYLE
1002
{
1070
    40
1040
2.0
1002
}
  0
LINE
  5
C5B7
330
1F
100
AcDbEntity
  8
AM_7
100
AcDbLine
 10
4735.174001217211
 20
4307.638219243373
 30
0.0
 11
4955.173997364876
 21
4307.638219243373
 31
0.0
1001
GENIUS_GENODEF_13
1002
{
1000
HIER
1070
     0
1002
}
1002
{
1000
MANEDIT
1070
     0
1002
}
1002
{
1000
NOSEL
1070
     0
1002
}
1002
{
1000
BEHIND
1070
     0
1002
}
1002
{
1000
OTHER
1070
     0
1002
}
1002
{
1000
REACTOR
1002
}
1001
GENIUS_GENOBJ-N-CEN_13
1002
{
1000
OWNER
1000
GEN
1002
}
1001
GENIUS_GENCEN_19
1002
{
1040
3.0
1002
}
  0
DIMENSION
  5
C5B9
330
1F
100
AcDbEntity
  8
AM_5
100
AcDbDimension
  2
*D43
 10
5048.168616527102
 20
4221.638219243372
 30
0.0
 11
5041.968616527102
 21
4209.138219243373
 31
0.0
 70
    32
 71
     5
 42
25.0
  3
SYS$0
100
AcDbAlignedDimension
 13
5093.168616527103
 23
4196.638219243371
 33
0.0
 14
5072.168616527102
 24
4221.638219243372
 34
0.0
 50
90.0
100
AcDbRotatedDimension
1001
ACAD
1000
DSTYLE
1002
{
1070
    40
1040
2.0
1002
}
  0
DIMENSION
  5
C5EA
330
1F
100
AcDbEntity
  8
AM_5
100
AcDbDimension
  2
*D44
 10
5048.1686165271
 20
4188.638219243371
 30
0.0
 11
5041.9686165271
 21
4180.14488591004
 31
0.0
 70
    32
 71
     5
 42
8.0
  3
SYS$0
100
AcDbAlignedDimension
 13
5093.168616527103
 23
4196.638219243371
 33
0.0
 14
5102.668616527103
 24
4188.638219243371
 34
0.0
 50
90.00000000000003
100
AcDbRotatedDimension
1001
ACAD
1000
DSTYLE
1002
{
1070
    40
1040
2.0
1002
}
  0
TEXT
  5
C604
330
1F
100
AcDbEntity
  8
AM_6
 60
     1
100
AcDbText
 10
5411.867033308703
 20
3826.595904971133
 30
0.0
 40
5.0
  1
!GENTITLE-INSERT
100
AcDbText
  0
TEXT
  5
C605
330
1F
100
AcDbEntity
  8
AM_6
 60
     1
100
AcDbText
 10
4594.867033308703
 20
3809.595904971132
 30
0.0
 40
5.0
  1
!GENTITLE-LL
100
AcDbText
  0
TEXT
  5
C606
330
1F
100
AcDbEntity
  8
AM_6
 60
     1
100
AcDbText
 10
5434.867033308703
 20
4403.595904971132
 30
0.0
 40
5.0
  1
!GENTITLE-RU
100
AcDbText
  0
TEXT
  5
C607
330
1F
100
AcDbEntity
  8
AM_6
 60
     1
100
AcDbText
 10
5434.867033308703
 20
4403.595904971132
 30
0.0
 40
5.0
  1
!GENTITLE-MAX
100
AcDbText
  0
LINE
  5
C609
330
1F
100
AcDbEntity
  8
size
100
AcDbLine
 10
4594.867033308703
 20
3809.595904971132
 30
0.0
 11
5434.867033308703
 21
3809.595904971132
 31
0.0
1001
GENIUS_GENREC_14
1002
{
1000
PYDIR
1011
4594.867033308703
1021
4403.595904971132
1031
0.0
1002
}
1002
{
1000
PXDIR
1011
5434.867033308703
1021
3809.595904971132
1031
0.0
1002
}
1002
{
1000
PORI
1011
4594.867033308703
1021
3809.595904971132
1031
0.0
1002
}
1002
{
1000
PINS
1011
5014.867033308703
1021
4106.595904971133
1031
0.0
1002
}
1002
{
1000
HVAL
1000
297
1002
}
1002
{
1000
H
1070
     2
1002
}
1002
{
1000
WVAL
1000
420
1002
}
1002
{
1000
W
1070
     2
1002
}
1002
{
1000
C
1070
     4
1002
}
1001
GENIUS_GENOBJ-N-REC_13
1002
{
1000
OWNER
1000
GEN
1002
}
1001
GENIUS_GENODEF_13
1002
{
1000
HIER
1070
     0
1002
}
1002
{
1000
MANEDIT
1070
     0
1002
}
1002
{
1000
NOSEL
1070
     0
1002
}
1002
{
1000
BEHIND
1070
     0
1002
}
1002
{
1000
OTHER
1070
     0
1002
}
1002
{
1000
REACTOR
1002
}
  0
LINE
  5
C60A
330
1F
100
AcDbEntity
  8
size
100
AcDbLine
 10
5434.867033308703
 20
3809.595904971132
 30
0.0
 11
5434.867033308703
 21
4403.595904971132
 31
0.0
1001
GENIUS_GENREC_14
1002
{
1000
PYDIR
1011
4594.867033308703
1021
4403.595904971132
1031
0.0
1002
}
1002
{
1000
PXDIR
1011
5434.867033308703
1021
3809.595904971132
1031
0.0
1002
}
1002
{
1000
PORI
1011
4594.867033308703
1021
3809.595904971132
1031
0.0
1002
}
1002
{
1000
PINS
1011
5014.867033308703
1021
4106.595904971133
1031
0.0
1002
}
1002
{
1000
HVAL
1000
297
1002
}
1002
{
1000
H
1070
     2
1002
}
1002
{
1000
WVAL
1000
420
1002
}
1002
{
1000
W
1070
     2
1002
}
1002
{
1000
C
1070
     4
1002
}
1001
GENIUS_GENOBJ-N-REC_13
1002
{
1000
OWNER
1000
GEN
1002
}
1001
GENIUS_GENODEF_13
1002
{
1000
HIER
1070
     0
1002
}
1002
{
1000
MANEDIT
1070
     0
1002
}
1002
{
1000
NOSEL
1070
     0
1002
}
1002
{
1000
BEHIND
1070
     0
1002
}
1002
{
1000
OTHER
1070
     0
1002
}
1002
{
1000
REACTOR
1002
}
  0
LINE
  5
C60B
330
1F
100
AcDbEntity
  8
size
100
AcDbLine
 10
5434.867033308703
 20
4403.595904971132
 30
0.0
 11
4594.867033308703
 21
4403.595904971132
 31
0.0
1001
GENIUS_GENREC_14
1002
{
1000
PYDIR
1011
4594.867033308703
1021
4403.595904971132
1031
0.0
1002
}
1002
{
1000
PXDIR
1011
5434.867033308703
1021
3809.595904971132
1031
0.0
1002
}
1002
{
1000
PORI
1011
4594.867033308703
1021
3809.595904971132
1031
0.0
1002
}
1002
{
1000
PINS
1011
5014.867033308703
1021
4106.595904971133
1031
0.0
1002
}
1002
{
1000
HVAL
1000
297
1002
}
1002
{
1000
H
1070
     2
1002
}
1002
{
1000
WVAL
1000
420
1002
}
1002
{
1000
W
1070
     2
1002
}
1002
{
1000
C
1070
     4
1002
}
1001
GENIUS_GENOBJ-N-REC_13
1002
{
1000
OWNER
1000
GEN
1002
}
1001
GENIUS_GENODEF_13
1002
{
1000
HIER
1070
     0
1002
}
1002
{
1000
MANEDIT
1070
     0
1002
}
1002
{
1000
NOSEL
1070
     0
1002
}
1002
{
1000
BEHIND
1070
     0
1002
}
1002
{
1000
OTHER
1070
     0
1002
}
1002
{
1000
REACTOR
1002
}
  0
LINE
  5
C60C
330
1F
100
AcDbEntity
  8
size
100
AcDbLine
 10
4594.867033308703
 20
4403.595904971132
 30
0.0
 11
4594.867033308703
 21
3809.595904971132
 31
0.0
1001
GENIUS_GENREC_14
1002
{
1000
PYDIR
1011
4594.867033308703
1021
4403.595904971132
1031
0.0
1002
}
1002
{
1000
PXDIR
1011
5434.867033308703
1021
3809.595904971132
1031
0.0
1002
}
1002
{
1000
PORI
1011
4594.867033308703
1021
3809.595904971132
1031
0.0
1002
}
1002
{
1000
PINS
1011
5014.867033308703
1021
4106.595904971133
1031
0.0
1002
}
1002
{
1000
HVAL
1000
297
1002
}
1002
{
1000
H
1070
     2
1002
}
1002
{
1000
WVAL
1000
420
1002
}
1002
{
1000
W
1070
     2
1002
}
1002
{
1000
C
1070
     4
1002
}
1001
GENIUS_GENOBJ-N-REC_13
1002
{
1000
OWNER
1000
GEN
1002
}
1001
GENIUS_GENODEF_13
1002
{
1000
HIER
1070
     0
1002
}
1002
{
1000
MANEDIT
1070
     0
1002
}
1002
{
1000
NOSEL
1070
     0
1002
}
1002
{
1000
BEHIND
1070
     0
1002
}
1002
{
1000
OTHER
1070
     0
1002
}
1002
{
1000
REACTOR
1002
}
  0
LINE
  5
C60D
330
1F
100
AcDbEntity
  8
waku
100
AcDbLine
 10
5411.867033308703
 20
3826.595904971133
 30
0.0
 11
5411.867033308703
 21
4386.595904971133
 31
0.0
1001
GENIUS_GENREC_14
1002
{
1000
PYDIR
1011
4594.867033308703
1021
4403.595904971132
1031
0.0
1002
}
1002
{
1000
PXDIR
1011
5434.867033308703
1021
3809.595904971132
1031
0.0
1002
}
1002
{
1000
PORI
1011
4594.867033308703
1021
3809.595904971132
1031
0.0
1002
}
1002
{
1000
PINS
1011
5014.867033308703
1021
4106.595904971133
1031
0.0
1002
}
1002
{
1000
HVAL
1000
297
1002
}
1002
{
1000
H
1070
     2
1002
}
1002
{
1000
WVAL
1000
420
1002
}
1002
{
1000
W
1070
     2
1002
}
1002
{
1000
C
1070
     4
1002
}
1001
GENIUS_GENOBJ-N-REC_13
1002
{
1000
OWNER
1000
GEN
1002
}
1001
GENIUS_GENODEF_13
1002
{
1000
HIER
1070
     0
1002
}
1002
{
1000
MANEDIT
1070
     0
1002
}
1002
{
1000
NOSEL
1070
     0
1002
}
1002
{
1000
BEHIND
1070
     0
1002
}
1002
{
1000
OTHER
1070
     0
1002
}
1002
{
1000
REACTOR
1002
}
  0
LINE
  5
C60E
330
1F
100
AcDbEntity
  8
waku
100
AcDbLine
 10
4617.867033308703
 20
4386.595904971133
 30
0.0
 11
4617.867033308703
 21
3826.595904971133
 31
0.0
1001
GENIUS_GENREC_14
1002
{
1000
PYDIR
1011
4594.867033308703
1021
4403.595904971132
1031
0.0
1002
}
1002
{
1000
PXDIR
1011
5434.867033308703
1021
3809.595904971132
1031
0.0
1002
}
1002
{
1000
PORI
1011
4594.867033308703
1021
3809.595904971132
1031
0.0
1002
}
1002
{
1000
PINS
1011
5014.867033308703
1021
4106.595904971133
1031
0.0
1002
}
1002
{
1000
HVAL
1000
297
1002
}
1002
{
1000
H
1070
     2
1002
}
1002
{
1000
WVAL
1000
420
1002
}
1002
{
1000
W
1070
     2
1002
}
1002
{
1000
C
1070
     4
1002
}
1001
GENIUS_GENOBJ-N-REC_13
1002
{
1000
OWNER
1000
GEN
1002
}
1001
GENIUS_GENODEF_13
1002
{
1000
HIER
1070
     0
1002
}
1002
{
1000
MANEDIT
1070
     0
1002
}
1002
{
1000
NOSEL
1070
     0
1002
}
1002
{
1000
BEHIND
1070
     0
1002
}
1002
{
1000
OTHER
1070
     0
1002
}
1002
{
1000
REACTOR
1002
}
  0
LINE
  5
C60F
330
1F
100
AcDbEntity
  8
waku
100
AcDbLine
 10
5411.867033308703
 20
4386.595904971133
 30
0.0
 11
4617.867033308703
 21
4386.595904971133
 31
0.0
1001
GENIUS_GENREC_14
1002
{
1000
PYDIR
1011
4594.867033308703
1021
4403.595904971132
1031
0.0
1002
}
1002
{
1000
PXDIR
1011
5434.867033308703
1021
3809.595904971132
1031
0.0
1002
}
1002
{
1000
PORI
1011
4594.867033308703
1021
3809.595904971132
1031
0.0
1002
}
1002
{
1000
PINS
1011
5014.867033308703
1021
4106.595904971133
1031
0.0
1002
}
1002
{
1000
HVAL
1000
297
1002
}
1002
{
1000
H
1070
     2
1002
}
1002
{
1000
WVAL
1000
420
1002
}
1002
{
1000
W
1070
     2
1002
}
1002
{
1000
C
1070
     4
1002
}
1001
GENIUS_GENOBJ-N-REC_13
1002
{
1000
OWNER
1000
GEN
1002
}
1001
GENIUS_GENODEF_13
1002
{
1000
HIER
1070
     0
1002
}
1002
{
1000
MANEDIT
1070
     0
1002
}
1002
{
1000
NOSEL
1070
     0
1002
}
1002
{
1000
BEHIND
1070
     0
1002
}
1002
{
1000
OTHER
1070
     0
1002
}
1002
{
1000
REACTOR
1002
}
  0
TEXT
  5
C610
330
1F
100
AcDbEntity
  8
AM_6
 60
     1
100
AcDbText
 10
4594.867033308703
 20
3809.595904971132
 30
0.0
 40
5.0
  1
!GENTITLE-LL
100
AcDbText
  0
TEXT
  5
C611
330
1F
100
AcDbEntity
  8
AM_6
 60
     1
100
AcDbText
 10
5411.867033308703
 20
4386.595904971133
 30
0.0
 40
5.0
  1
!GENTITLE-RU
100
AcDbText
  0
TEXT
  5
C612
330
1F
100
AcDbEntity
  8
AM_6
 60
     1
100
AcDbText
 10
5434.867033308703
 20
4403.595904971132
 30
0.0
 40
5.0
  1
!GENTITLE-MAX
100
AcDbText
  0
TEXT
  5
C613
330
1F
100
AcDbEntity
  8
AM_6
 60
     1
100
AcDbText
 10
5411.867033308703
 20
3826.595904971133
 30
0.0
 40
5.0
  1
!GENTITLE-INSERT
100
AcDbText
  0
LINE
  5
C614
330
1F
100
AcDbEntity
  8
waku
100
AcDbLine
 10
4617.867033308703
 20
3826.595904971133
 30
0.0
 11
5411.867033308703
 21
3826.595904971133
 31
0.0
  0
MTEXT
  5
C6AE
330
1F
100
AcDbEntity
  8
AM_6
100
AcDbMText
 10
4772.843672422052
 20
3853.864111558398
 30
0.0
 40
6.4
 41
455.5611713415564
 71
     1
 72
     5
  1
{\LH8030、DFB-2010納まり図}
 73
     1
 44
1.0
1001
ACAD
1000
MTEXTBEGIN
1070
    73
1070
     1
1070
    44
1040
1.0
1070
    74
1070
     0
1000
MTEXTEND
  0
MTEXT
  5
C6B1
330
1F
100
AcDbEntity
  8
AM_6
100
AcDbMText
 10
5169.843672422052
 20
3856.52705146456
 30
0.0
 40
6.4
 41
455.5611713415564
 71
     1
 72
     5
  1
{\LH8030、DFB-2020納まり図}
 73
     1
 44
1.0
1001
ACAD
1000
MTEXTBEGIN
1070
    73
1070
     1
1070
    44
1040
1.0
1070
    74
1070
     0
1000
MTEXTEND
  0
LINE
  5
C6FB
330
1F
100
AcDbEntity
  8
AM_0
100
AcDbLine
 10
4740.621864608128
 20
4274.101559243374
 30
0.0
 11
4744.173980608128
 21
4293.638219243372
 31
0.0
  0
LINE
  5
C6FC
330
1F
100
AcDbEntity
  8
AM_0
100
AcDbLine
 10
4794.173995408129
 20
4293.638211243373
 30
0.0
 11
4797.726114208127
 21
4274.101559243374
 31
0.0
  0
ARC
  5
C6FD
330
1F
100
AcDbEntity
  8
AM_0
100
AcDbCircle
 10
4737.670272608128
 20
4274.638219243372
 30
0.0
 40
3.0
100
AcDbArc
 50
269.999989999999
 51
349.6951600000139
  0
ARC
  5
C6FE
330
1F
100
AcDbEntity
  8
AM_0
100
AcDbCircle
 10
4800.677715608127
 20
4274.638219243372
 30
0.0
 40
3.0
100
AcDbArc
 50
190.3048500000073
 51
269.999989999999
  0
LINE
  5
C6FF
330
1F
100
AcDbEntity
  8
AM_0
100
AcDbLine
 10
4740.621864608128
 20
4209.174879243369
 30
0.0
 11
4744.173980608128
 21
4189.638219243372
 31
0.0
  0
LINE
  5
C700
330
1F
100
AcDbEntity
  8
AM_0
100
AcDbLine
 10
4794.173995408129
 20
4189.638227243371
 30
0.0
 11
4797.726114208127
 21
4209.174879243369
 31
0.0
  0
ARC
  5
C701
330
1F
100
AcDbEntity
  8
AM_0
100
AcDbCircle
 10
4737.670272608128
 20
4208.638219243372
 30
0.0
 40
3.0
100
AcDbArc
 50
10.30483999995988
 51
90.00001000000102
  0
ARC
  5
C702
330
1F
100
AcDbEntity
  8
AM_0
100
AcDbCircle
 10
4800.677715608127
 20
4208.638219243372
 30
0.0
 40
3.0
100
AcDbArc
 50
90.00001000000102
 51
169.6951499999668
  0
LINE
  5
C703
330
1F
100
AcDbEntity
  8
AM_7
100
AcDbLine
 10
5140.168628623721
 20
4307.638219243374
 30
0.0
 11
5360.168631259553
 21
4307.638219243374
 31
0.0
1001
GENIUS_GENODEF_13
1002
{
1000
HIER
1070
     0
1002
}
1002
{
1000
MANEDIT
1070
     0
1002
}
1002
{
1000
NOSEL
1070
     0
1002
}
1002
{
1000
BEHIND
1070
     0
1002
}
1002
{
1000
OTHER
1070
     0
1002
}
1002
{
1000
REACTOR
1002
}
1001
GENIUS_GENOBJ-N-CEN_13
1002
{
1000
OWNER
1000
GEN
1002
}
1001
GENIUS_GENCEN_19
1002
{
1040
6.0
1002
}
  0
ENDSEC
  0
SECTION
  2
OBJECTS
  0
DICTIONARY
  5
C
330
0
100
AcDbDictionary
281
     1
  3
ACAD_2007HEADERVARS_RT
350
C747
  3
ACAD_BGPLOT_KEY
350
AB06
  3
ACAD_COLOR
350
A91D
  3
ACAD_GROUP
350
D
  3
ACAD_LAYOUT
350
1A
  3
ACAD_MATERIAL
350
A91C
  3
ACAD_MLINESTYLE
350
17
  3
ACAD_PLOTSETTINGS
350
19
  3
ACAD_PLOTSTYLENAME
350
E
  3
ACAD_TABLESTYLE
350
AAB9
  3
ACAD_VISUALSTYLE
350
B0F1
  3
AcAsAppObject
350
3DA1
  3
ACASGREF_MASTER
350
3DE9
  3
AcDbVariableDictionary
350
34
  3
AcmDictionary
350
47
  3
AD_GREF_MODULE
350
3DEA
  3
AD_MAPI_MODULE
350
3E06
  3
AMG
350
2B
  3
AMGSNAPSETTINGS
350
7D
  3
ASE_INDEX_DICTIONARY
350
B331
  3
DWGPROPS
350
C746
  3
MAPISURF_MODULE
350
3DEB
  0
DICTIONARY
  5
3F95
330
2
100
AcDbDictionary
280
     1
281
     1
  3
ACAD_LAYERFILTERS
360
BFC6
  3
ACAD_LAYERSTATES
360
3F96
  3
ACLYDICTIONARY
360
BFC5
  3
AMLAYER_GROUPCOLORS
360
AAB4
  0
DICTIONARY
  5
8A
330
1F
100
AcDbDictionary
280
     1
281
     1
  3
ACAD_SORTENTS
360
B1BA
  0
DICTIONARY
  5
C747
102
{ACAD_REACTORS
330
C
102
}
330
C
100
AcDbDictionary
281
     1
  3
DIMARCSYM
350
C748
  0
DICTIONARY
  5
AB06
102
{ACAD_REACTORS
330
C
102
}
330
C
100
AcDbDictionary
280
     1
281
     1
  0
DICTIONARY
  5
A91D
102
{ACAD_REACTORS
330
C
102
}
330
C
100
AcDbDictionary
281
     1
  0
DICTIONARY
  5
D
102
{ACAD_REACTORS
330
C
102
}
330
C
100
AcDbDictionary
281
     1
  0
DICTIONARY
  5
1A
102
{ACAD_REACTORS
330
C
102
}
330
C
100
AcDbDictionary
281
     1
  3
Model
350
22
  3
ﾚｲｱｳﾄ1
350
1E
  3
ﾚｲｱｳﾄ2
350
26
  0
DICTIONARY
  5
A91C
102
{ACAD_REACTORS
330
C
102
}
330
C
100
AcDbDictionary
281
     1
  3
ByBlock
350
B0EF
  3
ByLayer
350
B0EE
  3
Global
350
B0F0
  0
DICTIONARY
  5
17
102
{ACAD_REACTORS
330
C
102
}
330
C
100
AcDbDictionary
281
     1
  3
Standard
350
18
  0
DICTIONARY
  5
19
102
{ACAD_REACTORS
330
C
102
}
330
C
100
AcDbDictionary
281
     1
  3
01 A3フィット
350
C10D
  3
02 A3
350
C10E
  3
03 A2フィット
350
C10F
  3
04 A2
350
C110
  3
05 A1フィット
350
C111
  3
06 A1
350
C112
  3
06 A4フィット
350
C113
  3
07 A4
350
C114
  0
ACDBDICTIONARYWDFLT
  5
E
102
{ACAD_REACTORS
330
C
102
}
330
C
100
AcDbDictionary
281
     1
  3
Normal
350
F
100
AcDbDictionaryWithDefault
340
F
  0
DICTIONARY
  5
AAB9
102
{ACAD_REACTORS
330
C
102
}
330
C
100
AcDbDictionary
281
     1
  3
Standard
350
AABA
  0
DICTIONARY
  5
B0F1
102
{ACAD_REACTORS
330
C
102
}
330
C
100
AcDbDictionary
281
     1
  3
2dWireframe
350
B0F7
  3
3D Hidden
350
B0F9
  3
3dWireframe
350
B0F8
  3
Basic
350
B0F6
  3
Brighten
350
B0FD
  3
ColorChange
350
B101
  3
Conceptual
350
B0FA
  3
Dim
350
B0FC
  3
Facepattern
350
B100
  3
Flat
350
B0F2
  3
FlatWithEdges
350
B0F3
  3
Gouraud
350
B0F4
  3
GouraudWithEdges
350
B0F5
  3
Linepattern
350
B0FF
  3
Realistic
350
B0FB
  3
Thicken
350
B0FE
  0
ACAD_PROXY_OBJECT
  5
3DA1
102
{ACAD_REACTORS
330
C
102
}
330
C
100
AcDbProxyObject
 90
      499
 91
      576
 95
       23
 70
     0
 93
       10
310
407F
 94
        0
1001
ACAD
1000
AcRTDxfName
1000
ASAPP
  0
ACAD_PROXY_OBJECT
  5
3DE9
102
{ACAD_REACTORS
330
C
102
}
330
C
100
AcDbProxyObject
 90
      499
 91
      581
 95
       23
 70
     0
 93
       34
310
010000407F
 94
        0
1001
ACAD
1000
AcRTDxfName
1000
ACASGREFMASTER
  0
DICTIONARY
  5
34
102
{ACAD_REACTORS
330
C
102
}
330
C
100
AcDbDictionary
281
     1
  3
CTABLESTYLE
350
AAF3
  3
DIMASSOC
350
A10C
  3
FIELDEVAL
350
AB07
  3
INDEXCTL
350
35
  3
SORTENTS
350
194C
  0
DICTIONARY
  5
47
102
{ACAD_REACTORS
330
C
102
}
330
C
100
AcDbDictionary
281
     1
  3
AcmBOM
350
7E8
  3
AcmStdDictionary
350
4C
  3
AMDTSECTSYM_ARROWCOLOR
350
A929
  0
ACAD_PROXY_OBJECT
  5
3DEA
102
{ACAD_REACTORS
330
C
102
}
330
C
100
AcDbProxyObject
 90
      499
 91
      582
 95
       23
 70
     0
 93
      114
310
00000043800000000000000000003F
 94
        0
1001
ACAD
1000
AcRTDxfName
1000
ACADGREFMODULE
  0
ACAD_PROXY_OBJECT
  5
3E06
102
{ACAD_REACTORS
330
C
102
}
330
C
100
AcDbProxyObject
 90
      499
 91
      594
 95
       23
 70
     0
 93
       34
310
05000044FF
 94
        0
1001
ACAD
1000
AcRTDxfName
1000
MAPIADMODULE
  0
DICTIONARY
  5
2B
102
{ACAD_REACTORS
330
C
102
}
330
C
100
AcDbDictionary
281
     1
  0
DICTIONARY
  5
7D
102
{ACAD_REACTORS
330
C
102
}
330
C
100
AcDbDictionary
281
     1
  0
DICTIONARY
  5
B331
102
{ACAD_REACTORS
330
C
102
}
330
C
100
AcDbDictionary
281
     1
  3
ASEBlockHierarchyIndexRecord
350
B332
1001
DCO15
1040
1594111214.218
  0
XRECORD
  5
C746
102
{ACAD_REACTORS
330
C
102
}
330
C
100
AcDbXrecord
280
     1
  1
DWGPROPS COOKIE
  2

  3

  4

  6

  7

  8
Administrator
  9

300
AmdtFileType=84
301
=
302
=
303
=
304
=
305
=
306
=
307
=
308
=
309
=
 40
0.2747285532407408
 41
2455244.694444445
 42
2455246.666209491
  1

 90
        1
  0
ACAD_PROXY_OBJECT
  5
3DEB
102
{ACAD_REACTORS
330
C
102
}
330
C
100
AcDbProxyObject
 90
      499
 91
      583
 95
       23
 70
     0
 93
        8
310
047E
 94
        0
1001
ACAD
1000
AcRTDxfName
1000
AMDTMAPISURFMOUDULE
  0
DICTIONARY
  5
BFC6
102
{ACAD_REACTORS
330
3F95
102
}
330
3F95
100
AcDbDictionary
281
     1
  0
DICTIONARY
  5
3F96
102
{ACAD_REACTORS
330
3F95
102
}
330
3F95
100
AcDbDictionary
281
     1
  3
20011210
350
3FB7
  0
DICTIONARY
  5
BFC5
102
{ACAD_REACTORS
330
3F95
102
}
330
3F95
100
AcDbDictionary
281
     1
1001
ACAD
1000
<All
  0
DICTIONARY
  5
AAB4
102
{ACAD_REACTORS
330
3F95
102
}
330
3F95
100
AcDbDictionary
280
     1
281
     1
  0
SORTENTSTABLE
  5
B1BA
102
{ACAD_REACTORS
330
8A
102
}
330
8A
100
AcDbSortentsTable
330
1F
331
C078
  5
C078
331
B950
  5
B954
331
BF69
  5
BF69
331
B861
  5
B865
331
C1C5
  5
C1D7
331
BE9C
  5
BE9C
331
C1E7
  5
C304
331
BEBE
  5
BEBE
331
BDCD
  5
BDCD
331
C52F
  5
C60F
331
C440
  5
C452
331
BED8
  5
BED8
331
C2FB
  5
C30D
331
BEFA
  5
BEFA
331
BA9F
  5
BAA1
331
B883
  5
B889
331
B652
  5
B652
331
B630
  5
B630
331
C47C
  5
C52A
331
BF1C
  5
BF1C
331
C315
  5
C327
331
B814
  5
B815
331
BF3E
  5
BF3E
331
C337
  5
C369
331
C067
  5
C067
331
B836
  5
B83B
331
BF58
  5
BF58
331
B850
  5
B854
331
BF7A
  5
BF7A
331
BF9C
  5
BF9E
331
BA94
  5
BA96
331
C395
  5
C43B
331
BEAD
  5
BEAD
331
B894
  5
B941
331
C51E
  5
C530
331
C1D6
  5
C1E8
331
C3B7
  5
C446
331
C610
  5
C1D0
331
BECF
  5
BECF
331
C451
  5
C479
331
BF0B
  5
BF0B
331
BAD2
  5
BAD8
331
BEE9
  5
BEE9
331
BA03
  5
BA05
331
B803
  5
B804
331
B70D
  5
B70D
331
B663
  5
B663
331
B641
  5
B641
331
B627
  5
B627
331
B605
  5
B605
331
BF2D
  5
BF2D
331
C326
  5
C338
331
C056
  5
C056
331
B825
  5
B826
331
B616
  5
B616
331
B5F4
  5
B5F4
331
B5E3
  5
B5E3
331
BF89
  5
BF8A
331
C1E5
  5
C302
331
BEBC
  5
BEBC
331
C52D
  5
C60D
331
C43E
  5
C450
331
C2F9
  5
C30B
331
BEF8
  5
BEF8
331
BED6
  5
BED6
331
BA9D
  5
BA9F
331
B650
  5
B650
331
C47A
  5
C528
331
BF1A
  5
BF1A
331
C58B
  5
C611
331
C313
  5
C326
331
B812
  5
B813
331
BF3C
  5
BF3C
331
C335
  5
C366
331
C065
  5
C065
331
B834
  5
B837
331
BF56
  5
BF56
331
B84E
  5
B852
331
BF78
  5
BF78
331
BF9A
  5
BF9C
331
BA92
  5
BA94
331
C393
  5
C439
331
BEAB
  5
BEAB
331
C1D4
  5
C1E6
331
C60E
  5
C1CE
331
BECD
  5
BECD
331
C44F
  5
C477
331
BF09
  5
BF09
331
BEE7
  5
BEE7
331
BA01
  5
BA03
331
B801
  5
B802
331
B70B
  5
B70B
331
B661
  5
B661
331
B63F
  5
B63F
331
B625
  5
B625
331
B603
  5
B603
331
BF2B
  5
BF2B
331
C324
  5
C336
331
C054
  5
C054
331
B823
  5
B824
331
C076
  5
C076
331
BF67
  5
BF67
331
B85F
  5
B863
331
B614
  5
B614
331
B5F2
  5
B5F2
331
B5E1
  5
B5E1
331
C52B
  5
C60B
331
C1E3
  5
C300
331
BEBA
  5
BEBA
331
C43C
  5
C44E
331
BFE5
  5
BF89
331
BEF6
  5
BEF6
331
BED4
  5
BED4
331
B6B0
  5
B6B0
331
C478
  5
C526
331
BF18
  5
BF18
331
C311
  5
C324
331
B810
  5
B811
331
BF3A
  5
BF3A
331
C333
  5
C364
331
C063
  5
C063
331
B832
  5
B835
331
BF54
  5
BF54
331
B84C
  5
B850
331
BF76
  5
BF76
331
B86E
  5
B875
331
BF98
  5
BF9A
331
C391
  5
C435
331
C5EA
  5
C615
331
C1D2
  5
C1E4
331
BECB
  5
BECB
331
BEA9
  5
BEA9
331
C60C
  5
C1CC
331
C44D
  5
C475
331
BEE5
  5
BEE5
331
BF07
  5
BF07
331
BACE
  5
BAD4
331
B9BB
  5
B9F6
331
B890
  5
B895
331
B9FF
  5
BA01
331
B7FF
  5
B800
331
B65F
  5
B65F
331
B63D
  5
B63D
331
B623
  5
B623
331
B601
  5
B601
331
BF29
  5
BF29
331
C322
  5
C334
331
C052
  5
C052
331
B821
  5
B822
331
C074
  5
C074
331
BF65
  5
BF65
331
B94C
  5
B950
331
C366
  5
C395
331
B85D
  5
B861
331
B64E
  5
B64E
331
B612
  5
B612
331
B5F0
  5
B5F0
331
B5DF
  5
B5DF
331
C3A0
  5
C444
331
C1E1
  5
C2FE
331
BEB8
  5
BEB8
331
C529
  5
C609
331
C43A
  5
C44C
331
BEF4
  5
BEF4
331
BED2
  5
BED2
331
BA99
  5
BA9B
331
C476
  5
C524
331
BF16
  5
BF16
331
B80E
  5
B80F
331
C331
  5
C362
331
C061
  5
C061
331
BF38
  5
BF38
331
BF52
  5
BF52
331
B84A
  5
B84E
331
BF74
  5
BF74
331
C375
  5
C3D1
331
B86C
  5
B873
331
BF96
  5
BF98
331
C1D0
  5
C1E2
331
BEC9
  5
BEC9
331
BEA7
  5
BEA7
331
C60A
  5
C1CA
331
C44B
  5
C473
331
BEE3
  5
BEE3
331
BF05
  5
BF05
331
B9B9
  5
B9BB
331
B88E
  5
B893
331
B9FD
  5
B9FF
331
C306
  5
C31A
331
B7FD
  5
B7FE
331
B65D
  5
B65D
331
B63B
  5
B63B
331
B621
  5
B621
331
B5FF
  5
B5FF
331
BF27
  5
BF27
331
C320
  5
C332
331
C050
  5
C050
331
B81F
  5
B820
331
C072
  5
C072
331
BF63
  5
BF63
331
B94A
  5
B94E
331
C364
  5
C393
331
B85B
  5
B85F
331
B6AE
  5
B6AE
331
B64C
  5
B64C
331
B610
  5
B610
331
B5EE
  5
B5EE
331
B5DD
  5
B5DD
331
C438
  5
C44A
331
C45A
  5
C51E
331
BEF2
  5
BEF2
331
BED0
  5
BED0
331
B7EA
  5
B7EA
331
C474
  5
C522
331
BF14
  5
BF14
331
BA0C
  5
BA91
331
C30D
  5
C321
331
B80C
  5
B80D
331
BF36
  5
BF36
331
C32F
  5
C360
331
C05F
  5
C05F
331
B82E
  5
B82F
331
BF50
  5
BF50
331
C081
  5
C081
331
B848
  5
B84C
331
BF72
  5
BF72
331
C373
  5
C3A1
331
B86A
  5
B86E
331
BF94
  5
BF96
331
C1CE
  5
C1E0
331
BEC7
  5
BEC7
331
BEA5
  5
BEA5
331
C449
  5
C471
331
C3D1
  5
C447
331
BF03
  5
BF03
331
BEE1
  5
BEE1
331
B9B7
  5
B9B9
331
B9FB
  5
B9FD
331
C304
  5
C318
331
B7FB
  5
B7FC
331
B65B
  5
B65B
331
B639
  5
B639
331
B61F
  5
B61F
331
B5FD
  5
B5FD
331
BF25
  5
BF25
331
C31E
  5
C330
331
B81D
  5
B81E
331
C070
  5
C070
331
BF47
  5
BF47
331
BF61
  5
BF61
331
C362
  5
C391
331
B859
  5
B85D
331
BF83
  5
BF83
331
C416
  5
C448
331
C527
  5
C607
331
C1DF
  5
C2FC
331
BEB6
  5
BEB6
331
B87B
  5
B885
331
B64A
  5
B64A
331
B60E
  5
B60E
331
B5EC
  5
B5EC
331
B5DB
  5
B5DB
331
C458
  5
C480
331
BEF0
  5
BEF0
331
C472
  5
C520
331
BF12
  5
BF12
331
BA0A
  5
BA0C
331
C30B
  5
C31F
331
B80A
  5
B80B
331
BF34
  5
BF34
331
C32D
  5
C35E
331
C05D
  5
C05D
331
BF4E
  5
BF4E
331
BB15
  5
BC7C
331
C07F
  5
C07F
331
B846
  5
B84A
331
B82C
  5
B82D
331
BF70
  5
BF70
331
C371
  5
C39D
331
B868
  5
B86C
331
BF92
  5
BF94
331
C1CC
  5
C1DE
331
BEC5
  5
BEC5
331
BEA3
  5
BEA3
331
C606
  5
C1C6
331
C447
  5
C459
331
BEDF
  5
BEDF
331
BF01
  5
BF01
331
B9B5
  5
B9B7
331
B88A
  5
B88F
331
C302
  5
C316
331
B9F9
  5
B9FB
331
B659
  5
B659
331
B637
  5
B637
331
B5FB
  5
B5FB
331
BF23
  5
BF23
331
C31C
  5
C32E
331
B81B
  5
B81C
331
C06E
  5
C06E
331
BF45
  5
BF45
331
B946
  5
B94A
331
BF5F
  5
BF5F
331
C360
  5
C375
331
B857
  5
B85B
331
C39C
  5
C442
331
C525
  5
C605
331
C1DD
  5
C2FA
331
BEB4
  5
BEB4
331
B648
  5
B648
331
B62E
  5
B62E
331
B60C
  5
B60C
331
B5EA
  5
B5EA
331
B5D9
  5
B5D9
331
BF10
  5
BF10
331
BA08
  5
BA0A
331
C309
  5
C31D
331
B808
  5
B809
331
BF32
  5
BF32
331
C32B
  5
C35C
331
C05B
  5
C05B
331
BB13
  5
B834
331
B82A
  5
B82B
331
BF4C
  5
BF4C
331
C07D
  5
C07D
331
B844
  5
B847
331
BF6E
  5
BF6E
331
C36F
  5
C39B
331
B866
  5
B86A
331
BF90
  5
BF92
331
C1CA
  5
C1DC
331
BEC3
  5
BEC3
331
BEA1
  5
BEA1
331
C1EC
  5
C308
331
C604
  5
C1C4
331
C445
  5
C457
331
BEDD
  5
BEDD
331
BEFF
  5
BEFF
331
B9B3
  5
B9B5
331
B888
  5
B88D
331
C300
  5
C313
331
B9F7
  5
B9F9
331
B657
  5
B657
331
B635
  5
B635
331
B61B
  5
B61B
331
B5F9
  5
B5F9
331
C481
  5
C52F
331
BF21
  5
BF21
331
C31A
  5
C32C
331
BB0A
  5
BB17
331
B819
  5
B81A
331
BF43
  5
BF43
331
C06C
  5
C06C
331
B944
  5
B948
331
B83B
  5
B842
331
BF5D
  5
BF5D
331
C35E
  5
C373
331
B855
  5
B859
331
C39A
  5
C440
331
C523
  5
C5EA
331
C1DB
  5
C2F8
331
C456
  5
C47E
331
BEEE
  5
BEEE
331
BEB2
  5
BEB2
331
B646
  5
B646
331
B62C
  5
B62C
331
B60A
  5
B60A
331
B5E8
  5
B5E8
331
BF30
  5
BF30
331
C329
  5
C33B
331
C059
  5
C059
331
C5A1
  5
C612
331
BB11
  5
BC33
331
B828
  5
B829
331
BF4A
  5
BF4A
331
C07B
  5
C07B
331
B953
  5
B9B2
331
B842
  5
B846
331
BF6C
  5
BF6C
331
C36D
  5
C399
331
B864
  5
B868
331
BF8E
  5
BF90
331
C1C8
  5
C1DA
331
C1EA
  5
C307
331
C443
  5
C455
331
BEFD
  5
BEFD
331
BEDB
  5
BEDB
331
BEC1
  5
BEC1
331
BE9F
  5
BE9F
331
B886
  5
B88B
331
C2FE
  5
C311
331
B9F5
  5
B9F7
331
B655
  5
B655
331
B633
  5
B633
331
B619
  5
B619
331
C47F
  5
C52D
331
BF1F
  5
BF1F
331
C318
  5
C32A
331
B817
  5
B818
331
C33A
  5
C36E
331
C06A
  5
C06A
331
BF41
  5
BF41
331
B942
  5
B946
331
BF5B
  5
BF5B
331
C35C
  5
C371
331
B853
  5
B857
331
B875
  5
B883
331
BA97
  5
BA99
331
C398
  5
C43E
331
BEB0
  5
BEB0
331
B897
  5
B945
331
C521
  5
C5B7
331
C1D9
  5
C1EC
331
C613
  5
C1D3
331
C454
  5
C47C
331
BEEC
  5
BEEC
331
BF0E
  5
BF0E
331
BA06
  5
BA08
331
B806
  5
B807
331
B710
  5
B710
331
B666
  5
B666
331
B644
  5
B644
331
B62A
  5
B62A
331
B608
  5
B608
331
B5F7
  5
B5F7
331
B5E6
  5
B5E6
331
BF48
  5
BF48
331
C079
  5
C079
331
B951
  5
B956
331
B840
  5
B843
331
BF6A
  5
BF6A
331
B862
  5
B866
331
C1C6
  5
C1D8
331
C1E8
  5
C305
331
BEBF
  5
BEBF
331
BE9D
  5
BE9D
331
C530
  5
C610
331
C441
  5
C453
331
BEFB
  5
BEFB
331
BED9
  5
BED9
331
BAA0
  5
BAA2
331
C2FC
  5
C30E
331
B7F3
  5
B7F3
331
B653
  5
B653
331
B631
  5
B631
331
C47D
  5
C52B
331
BF1D
  5
BF1D
331
C316
  5
C328
331
B815
  5
B816
331
BF3F
  5
BF3F
331
C338
  5
C36C
331
C068
  5
C068
331
B837
  5
B83C
331
BF59
  5
BF59
331
B851
  5
B855
331
B873
  5
B87B
331
BF9D
  5
BF9F
331
C396
  5
C43C
331
BEAE
  5
BEAE
331
B895
  5
B942
331
C51F
  5
C58B
331
C1D7
  5
C1E9
331
C611
  5
C1D1
331
C452
  5
C47A
331
BEEA
  5
BEEA
331
BF0C
  5
BF0C
331
BAD3
  5
BADE
331
BA04
  5
BA06
331
B804
  5
B805
331
B70E
  5
B70E
331
B664
  5
B664
331
B642
  5
B642
331
B628
  5
B628
331
B606
  5
B606
331
BF2E
  5
BF2E
331
C327
  5
C339
331
C057
  5
C057
331
B826
  5
B827
331
B617
  5
B617
331
B5F5
  5
B5F5
331
B5E4
  5
B5E4
331
BF68
  5
BF68
331
C369
  5
C397
331
B860
  5
B864
331
BF8A
  5
BF8C
331
C1C4
  5
C1D6
331
C52E
  5
C60E
331
C1E6
  5
C303
331
BEBD
  5
BEBD
331
BE9B
  5
BE9B
331
C43F
  5
C451
331
C2FA
  5
C30C
331
BEF9
  5
BEF9
331
BED7
  5
BED7
331
B882
  5
B888
331
B651
  5
B651
331
C47B
  5
C529
331
BF1B
  5
BF1B
331
BF3D
  5
BF3D
331
C336
  5
C367
331
C066
  5
C066
331
B835
  5
B838
331
B813
  5
B814
331
BF57
  5
BF57
331
B84F
  5
B853
331
BF79
  5
BF79
331
BF9B
  5
BF9D
331
C394
  5
C43A
331
BEAC
  5
BEAC
331
C1D5
  5
C1E7
331
BECE
  5
BECE
331
C60F
  5
C1CF
331
C450
  5
C478
331
BEE8
  5
BEE8
331
BF0A
  5
BF0A
331
BAD1
  5
BAD7
331
BA02
  5
BA04
331
B802
  5
B803
331
B7C6
  5
B7C6
331
B70C
  5
B70C
331
B662
  5
B662
331
B640
  5
B640
331
B626
  5
B626
331
BF2C
  5
BF2C
331
C325
  5
C337
331
C055
  5
C055
331
B824
  5
B825
331
C077
  5
C077
331
B615
  5
B615
331
B5F3
  5
B5F3
331
B5E2
  5
B5E2
331
BF88
  5
BF88
331
B880
  5
B886
331
C52C
  5
C60C
331
C1E4
  5
C301
331
BEBB
  5
BEBB
331
C43D
  5
C44F
331
BFE6
  5
BFE6
331
C2F8
  5
C30A
331
BEF7
  5
BEF7
331
BED5
  5
BED5
331
B6B1
  5
B6B1
331
C479
  5
C527
331
BF19
  5
BF19
331
C312
  5
C325
331
B811
  5
B812
331
BF3B
  5
BF3B
331
C334
  5
C365
331
C064
  5
C064
331
B833
  5
B836
331
BF55
  5
BF55
331
B84D
  5
B851
331
BF77
  5
BF77
331
B86F
  5
B87A
331
BF99
  5
BF9B
331
C392
  5
C438
331
BEAA
  5
BEAA
331
B891
  5
B896
331
C1D3
  5
C1E5
331
C60D
  5
C1CD
331
BECC
  5
BECC
331
C44E
  5
C476
331
BF08
  5
BF08
331
BACF
  5
BAD5
331
BEE6
  5
BEE6
331
B800
  5
B801
331
B70A
  5
B70A
331
B660
  5
B660
331
B63E
  5
B63E
331
B624
  5
B624
331
B602
  5
B602
331
BF2A
  5
BF2A
331
C323
  5
C335
331
C053
  5
C053
331
B822
  5
B823
331
C075
  5
C075
331
BF66
  5
BF66
331
B94D
  5
B951
331
C367
  5
C396
331
B85E
  5
B862
331
B64F
  5
B64F
331
B613
  5
B613
331
B5F1
  5
B5F1
331
B5E0
  5
B5E0
331
C3A1
  5
C445
331
C1E2
  5
C2FF
331
BEB9
  5
BEB9
331
C52A
  5
C60A
331
C43B
  5
C44D
331
BED3
  5
BED3
331
BA9A
  5
BA9C
331
BFE4
  5
BF8B
331
BEF5
  5
BEF5
331
B7CB
  5
B7CB
331
C477
  5
C525
331
BF17
  5
BF17
331
C310
  5
C323
331
B80F
  5
B810
331
C332
  5
C363
331
C062
  5
C062
331
BF39
  5
BF39
331
BF53
  5
BF53
331
B84B
  5
B84F
331
BF75
  5
BF75
331
B86D
  5
B874
331
BF97
  5
BF99
331
C390
  5
C416
331
C1D1
  5
C1E3
331
BECA
  5
BECA
331
BEA8
  5
BEA8
331
C60B
  5
C1CB
331
C44C
  5
C474
331
BEE4
  5
BEE4
331
BF06
  5
BF06
331
B9BA
  5
B9F5
331
B88F
  5
B894
331
B9FE
  5
BA00
331
C307
  5
C31B
331
B7FE
  5
B7FF
331
B65E
  5
B65E
331
B63C
  5
B63C
331
B622
  5
B622
331
B600
  5
B600
331
BF28
  5
BF28
331
C321
  5
C333
331
C051
  5
C051
331
B820
  5
B821
331
C073
  5
C073
331
BF64
  5
BF64
331
B94B
  5
B94F
331
C365
  5
C394
331
B85C
  5
B860
331
B6AF
  5
B6AF
331
B64D
  5
B64D
331
B611
  5
B611
331
B5EF
  5
B5EF
331
B5DE
  5
B5DE
331
C1E0
  5
C2FD
331
C528
  5
C608
331
C439
  5
C44B
331
BED1
  5
BED1
331
BEF3
  5
BEF3
331
BA98
  5
BA9A
331
C475
  5
C523
331
BF15
  5
BF15
331
BA0D
  5
BA92
331
C30E
  5
C322
331
B80D
  5
B80E
331
BF37
  5
BF37
331
C330
  5
C361
331
C060
  5
C060
331
B82F
  5
B830
331
BF51
  5
BF51
331
C082
  5
C082
331
B849
  5
B84D
331
BF73
  5
BF73
331
C374
  5
C3B7
331
B86B
  5
B86F
331
BF95
  5
BF97
331
BEA6
  5
BEA6
331
B88D
  5
B892
331
C1CF
  5
C1E1
331
BEC8
  5
BEC8
331
C609
  5
C1C9
331
C44A
  5
C472
331
BEE2
  5
BEE2
331
BF04
  5
BF04
331
B9B8
  5
B9BA
331
B9FC
  5
B9FE
331
C305
  5
C319
331
B7FC
  5
B7FD
331
B6DE
  5
B6DE
331
B65C
  5
B65C
331
B63A
  5
B63A
331
B620
  5
B620
331
B5FE
  5
B5FE
331
BF26
  5
BF26
331
C31F
  5
C331
331
B81E
  5
B81F
331
C071
  5
C071
331
C5B9
  5
C614
331
BF62
  5
BF62
331
B949
  5
B94D
331
C363
  5
C392
331
B85A
  5
B85E
331
BEB7
  5
BEB7
331
B6AD
  5
B6AD
331
B64B
  5
B64B
331
B60F
  5
B60F
331
B5ED
  5
B5ED
331
B5DC
  5
B5DC
331
C459
  5
C481
331
BEF1
  5
BEF1
331
C473
  5
C521
331
BF13
  5
BF13
331
BA0B
  5
BA0D
331
C30C
  5
C320
331
B80B
  5
B80C
331
BF35
  5
BF35
331
C32E
  5
C35F
331
C05E
  5
C05E
331
B82D
  5
B82E
331
BF4F
  5
BF4F
331
C080
  5
C080
331
B847
  5
B84B
331
BF71
  5
BF71
331
C372
  5
C3A0
331
B869
  5
B86D
331
BF93
  5
BF95
331
C1CD
  5
C1DF
331
BEC6
  5
BEC6
331
BEA4
  5
BEA4
331
C607
  5
C1C7
331
C448
  5
C45A
331
BF02
  5
BF02
331
BEE0
  5
BEE0
331
B9B6
  5
B9B8
331
B9FA
  5
B9FC
331
C303
  5
C317
331
B7FA
  5
B7FB
331
B65A
  5
B65A
331
B638
  5
B638
331
B61E
  5
B61E
331
B5FC
  5
B5FC
331
BF24
  5
BF24
331
C31D
  5
C32F
331
B81C
  5
B81D
331
C06F
  5
C06F
331
BF46
  5
BF46
331
C5B7
  5
C613
331
BF60
  5
BF60
331
C361
  5
C390
331
B858
  5
B85C
331
C39D
  5
C443
331
C526
  5
C606
331
C1DE
  5
C2FB
331
BEB5
  5
BEB5
331
B649
  5
B649
331
B62F
  5
B62F
331
B60D
  5
B60D
331
B5EB
  5
B5EB
331
B5DA
  5
B5DA
331
C471
  5
C51F
331
BF11
  5
BF11
331
BA09
  5
BA0B
331
C30A
  5
C31E
331
B809
  5
B80A
331
BF33
  5
BF33
331
C32C
  5
C35D
331
C05C
  5
C05C
331
BF4D
  5
BF4D
331
C07E
  5
C07E
331
B845
  5
B849
331
B82B
  5
B82C
331
B956
  5
B7F5
331
BF6F
  5
BF6F
331
C370
  5
C39C
331
B867
  5
B86B
331
BF91
  5
BF93
331
C1CB
  5
C1DD
331
BEC4
  5
BEC4
331
BEA2
  5
BEA2
331
C1ED
  5
C309
331
C605
  5
C1C5
331
C446
  5
C458
331
BEDE
  5
BEDE
331
BF00
  5
BF00
331
B9B4
  5
B9B6
331
B889
  5
B88E
331
C301
  5
C315
331
B9F8
  5
B9FA
331
B658
  5
B658
331
B636
  5
B636
331
B5FA
  5
B5FA
331
BF22
  5
BF22
331
C31B
  5
C32D
331
B81A
  5
B81B
331
C06D
  5
C06D
331
BF44
  5
BF44
331
B945
  5
B949
331
BF5E
  5
BF5E
331
C35F
  5
C374
331
B856
  5
B85A
331
C39B
  5
C441
331
C524
  5
C604
331
C1DC
  5
C2F9
331
C435
  5
C449
331
C457
  5
C47F
331
BEEF
  5
BEEF
331
BEB3
  5
BEB3
331
B647
  5
B647
331
B62D
  5
B62D
331
B60B
  5
B60B
331
B5E9
  5
B5E9
331
B5D8
  5
B5D8
331
C308
  5
C31C
331
BF31
  5
BF31
331
C32A
  5
C35B
331
C05A
  5
C05A
331
BB12
  5
B833
331
B829
  5
B82A
331
C07C
  5
C07C
331
BF4B
  5
BF4B
331
B954
  5
B9B3
331
BF6D
  5
BF6D
331
C36E
  5
C39A
331
B865
  5
B869
331
BF8F
  5
BF91
331
C1C9
  5
C1DB
331
BEC2
  5
BEC2
331
BEA0
  5
BEA0
331
C444
  5
C456
331
BEFE
  5
BEFE
331
BEDC
  5
BEDC
331
B9B2
  5
B9B4
331
B887
  5
B88C
331
C2FF
  5
C312
331
B9F6
  5
B9F8
331
B656
  5
B656
331
B634
  5
B634
331
B61A
  5
B61A
331
B5F8
  5
B5F8
331
C480
  5
C52E
331
BF20
  5
BF20
331
C319
  5
C32B
331
B818
  5
B819
331
BF42
  5
BF42
331
C33B
  5
C36F
331
C06B
  5
C06B
331
BD62
  5
BD62
331
B943
  5
B947
331
BF5C
  5
BF5C
331
C35D
  5
C372
331
B854
  5
B858
331
C399
  5
C43F
331
BEB1
  5
BEB1
331
C522
  5
C5B9
331
C1DA
  5
C1F0
331
C614
  5
C1D4
331
C455
  5
C47D
331
BEED
  5
BEED
331
BF0F
  5
BF0F
331
BA07
  5
BA09
331
B807
  5
B808
331
B711
  5
B711
331
B667
  5
B667
331
B645
  5
B645
331
B62B
  5
B62B
331
B609
  5
B609
331
B5E7
  5
B5E7
331
C328
  5
C33A
331
C058
  5
C058
331
BF49
  5
BF49
331
C07A
  5
C07A
331
B952
  5
B9B0
331
B841
  5
B845
331
BF6B
  5
BF6B
331
C36C
  5
C398
331
B863
  5
B867
331
BF8D
  5
BF8F
331
C1C7
  5
C1D9
331
BEC0
  5
BEC0
331
BE9E
  5
BE9E
331
B885
  5
B88A
331
C1E9
  5
C306
331
C442
  5
C454
331
C2FD
  5
C310
331
BEFC
  5
BEFC
331
BEDA
  5
BEDA
331
B9B0
  5
B848
331
B654
  5
B654
331
B632
  5
B632
331
B618
  5
B618
331
C47E
  5
C52C
331
BF1E
  5
BF1E
331
C317
  5
C329
331
B816
  5
B817
331
BF40
  5
BF40
331
C339
  5
C36D
331
C069
  5
C069
331
B838
  5
B841
331
BF5A
  5
BF5A
331
C35B
  5
C370
331
B852
  5
B856
331
BF7C
  5
BF7C
331
B874
  5
B882
331
C397
  5
C43D
331
BEAF
  5
BEAF
331
B896
  5
B944
331
C520
  5
C5A1
331
C1D8
  5
C1EA
331
C612
  5
C1D2
331
C453
  5
C47B
331
BEEB
  5
BEEB
331
BF0D
  5
BF0D
331
BAD4
  5
BADF
331
BA05
  5
BA07
331
B805
  5
B806
331
B70F
  5
B70F
331
B665
  5
B665
331
B643
  5
B643
331
B629
  5
B629
331
B607
  5
B607
331
BF2F
  5
BF2F
331
B827
  5
B828
331
B5F6
  5
B5F6
331
B5E5
  5
B5E5
  0
XRECORD
  5
C748
102
{ACAD_REACTORS
330
C747
102
}
330
C747
100
AcDbXrecord
280
     1
 70
     1
  0
LAYOUT
  5
22
102
{ACAD_XDICTIONARY
360
C74B
102
}
102
{ACAD_REACTORS
330
1A
102
}
330
1A
100
AcDbPlotSettings
  1

  2
クセロPDF2
  4
A3
  6
AM_VIEW1
 40
3.174999952316284
 41
3.174999952316284
 42
3.17498779296875
 43
3.17498779296875
 44
296.9259948730469
 45
419.9466552734374
 46
0.0
 47
1.340550946466834
 48
214.3704939521119
 49
367.5855324241176
140
275.6727856380065
141
407.629191407817
142
1.0
143
2.044215576748658
 70
  3764
 72
     1
 73
     1
 74
     2
  7
monochrome.ctb
 75
     0
147
0.4891851971847843
148
-4594.867033308703
149
-3809.595904971132
100
AcDbLayout
  1
Model
 70
     1
 71
     0
 10
0.0
 20
0.0
 11
12.0
 21
9.0
 12
0.0
 22
0.0
 32
0.0
 14
0.0
 24
0.0
 34
0.0
 15
0.0
 25
0.0
 35
0.0
146
0.0
 13
0.0
 23
0.0
 33
0.0
 16
1.0
 26
0.0
 36
0.0
 17
0.0
 27
1.0
 37
0.0
 76
     0
330
1F
331
B0EC
1001
ACAD_PSEXT
1000
クセロPDF2
1000
XeloPDF2
1000
Xelo PDF Port2
1000

1070
     0
  0
LAYOUT
  5
1E
102
{ACAD_XDICTIONARY
360
C749
102
}
102
{ACAD_REACTORS
330
1A
102
}
330
1A
100
AcDbPlotSettings
  1

  2
\\ML370\XEROX
  4
A4
  6

 40
3.174999952316284
 41
3.174999952316284
 42
3.175003051757812
 43
3.17498779296875
 44
209.8674926757813
 45
296.6719970703125
 46
0.0
 47
0.0
 48
0.0
 49
0.0
140
0.0
141
0.0
142
1.0
143
1.0
 70
   688
 72
     1
 73
     1
 74
     5
  7
monochrome.ctb
 75
    16
147
1.0
148
0.0
149
0.0
100
AcDbLayout
  1
ﾚｲｱｳﾄ1
 70
     1
 71
     1
 10
-3.17498779296875
 20
-3.174999952316284
 11
293.4970092773438
 21
206.692492723465
 12
0.0
 22
0.0
 32
0.0
 14
1.000000000000000E+20
 24
1.000000000000000E+20
 34
1.000000000000000E+20
 15
-1.000000000000000E+20
 25
-1.000000000000000E+20
 35
-1.000000000000000E+20
146
0.0
 13
0.0
 23
0.0
 33
0.0
 16
1.0
 26
0.0
 36
0.0
 17
0.0
 27
1.0
 37
0.0
 76
     0
330
1B
  0
LAYOUT
  5
26
102
{ACAD_XDICTIONARY
360
C74D
102
}
102
{ACAD_REACTORS
330
1A
102
}
330
1A
100
AcDbPlotSettings
  1

  2
\\ML370\XEROX
  4

  6

 40
0.0
 41
0.0
 42
0.0
 43
0.0
 44
0.0
 45
0.0
 46
0.0
 47
0.0
 48
0.0
 49
0.0
140
0.0
141
0.0
142
1.0
143
1.0
 70
   688
 72
     0
 73
     0
 74
     5
  7
monochrome.ctb
 75
    16
147
1.0
148
0.0
149
0.0
100
AcDbLayout
  1
ﾚｲｱｳﾄ2
 70
     1
 71
     2
 10
0.0
 20
0.0
 11
12.0
 21
9.0
 12
0.0
 22
0.0
 32
0.0
 14
0.0
 24
0.0
 34
0.0
 15
0.0
 25
0.0
 35
0.0
146
0.0
 13
0.0
 23
0.0
 33
0.0
 16
1.0
 26
0.0
 36
0.0
 17
0.0
 27
1.0
 37
0.0
 76
     0
330
23
  0
MATERIAL
  5
B0EF
102
{ACAD_XDICTIONARY
360
C753
102
}
102
{ACAD_REACTORS
330
A91C
102
}
330
A91C
100
AcDbMaterial
  1
ByBlock
  0
MATERIAL
  5
B0EE
102
{ACAD_XDICTIONARY
360
C751
102
}
102
{ACAD_REACTORS
330
A91C
102
}
330
A91C
100
AcDbMaterial
  1
ByLayer
  0
MATERIAL
  5
B0F0
102
{ACAD_XDICTIONARY
360
C755
102
}
102
{ACAD_REACTORS
330
A91C
102
}
330
A91C
100
AcDbMaterial
  1
Global
  0
MLINESTYLE
  5
18
102
{ACAD_REACTORS
330
17
102
}
330
17
100
AcDbMlineStyle
  2
STANDARD
 70
     0
  3

 62
   256
 51
90.0
 52
90.0
 71
     2
 49
0.5
 62
   256
  6
BYLAYER
 49
-0.5
 62
   256
  6
BYLAYER
  0
PLOTSETTINGS
  5
C10D
102
{ACAD_XDICTIONARY
360
C757
102
}
102
{ACAD_REACTORS
330
19
102
}
330
19
100
AcDbPlotSettings
  1
01 A3フィット
  2
FX DocuWide 2050/2051
  4
A3
  6

 40
3.174999952316284
 41
3.174999952316284
 42
3.17498779296875
 43
3.17498779296875
 44
296.989501953125
 45
419.9889831542968
 46
0.0
 47
1.295841228961961
 48
214.3704939521119
 49
367.5855324241176
140
275.6727856380065
141
407.629191407817
142
1.0
143
1.445089120606129
 70
  3764
 72
     1
 73
     1
 74
     2
  7
monochrome.ctb
 75
     0
147
0.6919988433519999
148
0.0
149
0.0
1001
ACAD_PSEXT
1000
FX DocuWide 2050/2051
1000
FX DocuWide 2050/2051
1000
IP_192.200.15.252
1000

1070
     0
  0
PLOTSETTINGS
  5
C10E
102
{ACAD_XDICTIONARY
360
C759
102
}
102
{ACAD_REACTORS
330
19
102
}
330
19
100
AcDbPlotSettings
  1
02 A3
  2
FX DocuWide 2050/2051
  4
A3
  6

 40
3.174999952316284
 41
3.174999952316284
 42
3.17498779296875
 43
3.17498779296875
 44
296.989501953125
 45
419.9889831542968
 46
-64.68024289608002
 47
-90.18050229549407
 48
214.3704939521119
 49
367.5855324241176
140
275.6727856380065
141
407.629191407817
142
1.0
143
1.0
 70
  3764
 72
     1
 73
     1
 74
     2
  7
monochrome.ctb
 75
    16
147
1.0
148
0.0
149
0.0
1001
ACAD_PSEXT
1000
FX DocuWide 2050/2051
1000
FX DocuWide 2050/2051
1000
IP_192.200.15.252
1000

1070
     0
  0
PLOTSETTINGS
  5
C10F
102
{ACAD_XDICTIONARY
360
C75B
102
}
102
{ACAD_REACTORS
330
19
102
}
330
19
100
AcDbPlotSettings
  1
03 A2フィット
  2
FX DocuWide 2050/2051
  4
User66
  6

 40
3.174999952316284
 41
3.174999952316284
 42
3.17498779296875
 43
3.17498779296875
 44
419.9889831542968
 45
593.97900390625
 46
0.0
 47
1.312647041252716
 48
214.3704939521119
 49
367.5855324241176
140
275.6727856380065
141
407.629191407817
142
1.0
143
1.015378155013403
 70
  3764
 72
     1
 73
     1
 74
     2
  7
monochrome.ctb
 75
     0
147
0.9848547509738377
148
0.0
149
0.0
1001
ACAD_PSEXT
1000
FX DocuWide 2050/2051
1000
FX DocuWide 2050/2051
1000
IP_192.200.15.252
1000

1070
     0
  0
PLOTSETTINGS
  5
C110
102
{ACAD_XDICTIONARY
360
C75D
102
}
102
{ACAD_REACTORS
330
19
102
}
330
19
100
AcDbPlotSettings
  1
04 A2
  2
FX DocuWide 2050/2051
  4
User66
  6

 40
3.174999952316284
 41
3.174999952316284
 42
3.17498779296875
 43
3.17498779296875
 44
419.9889831542968
 45
593.97900390625
 46
-3.180502295494079
 47
-3.185491919517517
 48
214.3704939521119
 49
367.5855324241176
140
275.6727856380065
141
407.629191407817
142
1.0
143
1.0
 70
  3764
 72
     1
 73
     1
 74
     2
  7
monochrome.ctb
 75
    16
147
1.0
148
0.0
149
0.0
1001
ACAD_PSEXT
1000
FX DocuWide 2050/2051
1000
FX DocuWide 2050/2051
1000
IP_192.200.15.252
1000

1070
     0
  0
PLOTSETTINGS
  5
C111
102
{ACAD_XDICTIONARY
360
C75F
102
}
102
{ACAD_REACTORS
330
19
102
}
330
19
100
AcDbPlotSettings
  1
05 A1フィット
  2
FX DocuWide 2050/2051
  4
User139
  6

 40
3.174999952316284
 41
3.174999952316284
 42
3.17498779296875
 43
3.17498779296875
 44
593.97900390625
 45
840.9939575195313
 46
0.0
 47
1.784323459012171
 48
214.3704939521119
 49
367.5855324241176
140
275.6727856380065
141
407.629191407817
142
1.0
143
0.7147366594384652
 70
  3764
 72
     1
 73
     1
 74
     2
  7
monochrome.ctb
 75
     0
147
1.399116705145154
148
0.0
149
0.0
1001
ACAD_PSEXT
1000
FX DocuWide 2050/2051
1000
FX DocuWide 2050/2051
1000
IP_192.200.15.252
1000

1070
     0
  0
PLOTSETTINGS
  5
C112
102
{ACAD_XDICTIONARY
360
C761
102
}
102
{ACAD_REACTORS
330
19
102
}
330
19
100
AcDbPlotSettings
  1
06 A1
  2
FX DocuWide 2050/2051
  4
User139
  6

 40
3.174999952316284
 41
3.174999952316284
 42
3.17498779296875
 43
3.17498779296875
 44
593.97900390625
 45
840.9939575195313
 46
83.81450808048247
 47
120.3219848871231
 48
214.3704939521119
 49
367.5855324241176
140
275.6727856380065
141
407.629191407817
142
1.0
143
1.0
 70
  3764
 72
     1
 73
     1
 74
     2
  7
monochrome.ctb
 75
    16
147
1.0
148
0.0
149
0.0
1001
ACAD_PSEXT
1000
FX DocuWide 2050/2051
1000
FX DocuWide 2050/2051
1000
IP_192.200.15.252
1000

1070
     0
  0
PLOTSETTINGS
  5
C113
102
{ACAD_XDICTIONARY
360
C763
102
}
102
{ACAD_REACTORS
330
19
102
}
330
19
100
AcDbPlotSettings
  1
06 A4フィット
  2
FX DocuWide 2050/2051
  4
A4
  6

 40
3.174999952316284
 41
3.174999952316284
 42
3.175003051757812
 43
3.17498779296875
 44
209.9944915771484
 45
296.989501953125
 46
0.0
 47
1.314011612960285
 48
214.3704939521119
 49
367.5855324241176
140
275.6727856380065
141
407.629191407817
142
1.0
143
2.06241771109504
 70
  3764
 72
     1
 73
     1
 74
     2
  7
monochrome.ctb
 75
     0
147
0.4848678299358913
148
0.0
149
0.0
1001
ACAD_PSEXT
1000
FX DocuWide 2050/2051
1000
FX DocuWide 2050/2051
1000
IP_192.200.15.252
1000

1070
     0
  0
PLOTSETTINGS
  5
C114
102
{ACAD_XDICTIONARY
360
C765
102
}
102
{ACAD_REACTORS
330
19
102
}
330
19
100
AcDbPlotSettings
  1
07 A4
  2
FX DocuWide 2050/2051
  4
A4
  6

 40
3.174999952316284
 41
3.174999952316284
 42
3.175003051757812
 43
3.17498779296875
 44
209.9944915771484
 45
296.989501953125
 46
-108.1777557134628
 47
-151.68024289608
 48
214.3704939521119
 49
367.5855324241176
140
275.6727856380065
141
407.629191407817
142
1.0
143
1.0
 70
  3764
 72
     1
 73
     1
 74
     2
  7
monochrome.ctb
 75
    16
147
1.0
148
0.0
149
0.0
1001
ACAD_PSEXT
1000
FX DocuWide 2050/2051
1000
FX DocuWide 2050/2051
1000
IP_192.200.15.252
1000

1070
     0
  0
ACDBPLACEHOLDER
  5
F
102
{ACAD_REACTORS
330
E
102
}
330
E
  0
TABLESTYLE
  5
AABA
102
{ACAD_XDICTIONARY
360
C74F
102
}
102
{ACAD_REACTORS
330
AAB9
102
}
330
AAB9
100
AcDbTableStyle
  3
Standard
 70
     0
 71
     0
 40
1.5
 41
1.5
280
     0
281
     0
  7
STANDARD
140
4.5
170
     2
 62
     0
 63
     7
283
     0
274
    -2
284
     1
 64
     0
275
    -2
285
     1
 65
     0
276
    -2
286
     1
 66
     0
277
    -2
287
     1
 67
     0
278
    -2
288
     1
 68
     0
279
    -2
289
     1
 69
     0
  7
STANDARD
140
6.0
170
     5
 62
     0
 63
     7
283
     0
274
    -2
284
     1
 64
     0
275
    -2
285
     1
 65
     0
276
    -2
286
     1
 66
     0
277
    -2
287
     1
 67
     0
278
    -2
288
     1
 68
     0
279
    -2
289
     1
 69
     0
  7
STANDARD
140
4.5
170
     5
 62
     0
 63
     7
283
     0
274
    -2
284
     1
 64
     0
275
    -2
285
     1
 65
     0
276
    -2
286
     1
 66
     0
277
    -2
287
     1
 67
     0
278
    -2
288
     1
 68
     0
279
    -2
289
     1
 69
     0
  0
VISUALSTYLE
  5
B0F7
102
{ACAD_REACTORS
330
B0F1
102
}
330
B0F1
100
AcDbVisualStyle
  2
2dWireframe
 70
     4
 71
     0
 72
     2
 73
     0
 90
        0
 40
-0.6
 41
-30.0
 62
     5
 63
     7
 74
     1
 91
        4
 64
     7
 65
   257
 75
     1
175
     1
 42
1.0
 92
        0
 66
   257
 43
1.0
 76
     1
 77
     6
 78
     2
 67
     7
 79
     5
170
     0
171
     0
290
     0
174
     0
 93
        1
 44
0.0
173
     0
291
     0
 45
0.0
1001
ACAD
1000
AcDbSavedByObjectVersion
1070
     0
  0
VISUALSTYLE
  5
B0F9
102
{ACAD_REACTORS
330
B0F1
102
}
330
B0F1
100
AcDbVisualStyle
  2
3D Hidden
 70
     6
 71
     1
 72
     2
 73
     2
 90
        0
 40
-0.6
 41
-30.0
 62
     5
 63
     7
 74
     2
 91
        2
 64
     7
 65
   257
 75
     2
175
     1
 42
40.0
 92
        0
 66
   257
 43
1.0
 76
     1
 77
     6
 78
     2
 67
     7
 79
     3
170
     0
171
     0
290
     0
174
     0
 93
        1
 44
0.0
173
     0
291
     0
 45
0.0
1001
ACAD
1000
AcDbSavedByObjectVersion
1070
     0
  0
VISUALSTYLE
  5
B0F8
102
{ACAD_REACTORS
330
B0F1
102
}
330
B0F1
100
AcDbVisualStyle
  2
3dWireframe
 70
     5
 71
     0
 72
     2
 73
     0
 90
        0
 40
-0.6
 41
-30.0
 62
     5
 63
     7
 74
     1
 91
        4
 64
     7
 65
   257
 75
     1
175
     1
 42
1.0
 92
        0
 66
   257
 43
1.0
 76
     1
 77
     6
 78
     2
 67
     7
 79
     5
170
     0
171
     0
290
     0
174
     0
 93
        1
 44
0.0
173
     0
291
     0
 45
0.0
1001
ACAD
1000
AcDbSavedByObjectVersion
1070
     0
  0
VISUALSTYLE
  5
B0F6
102
{ACAD_REACTORS
330
B0F1
102
}
330
B0F1
100
AcDbVisualStyle
  2
Basic
 70
     7
 71
     1
 72
     0
 73
     1
 90
        0
 40
-0.6
 41
-30.0
 62
     5
 63
     7
 74
     0
 91
        4
 64
     7
 65
   257
 75
     1
175
     1
 42
1.0
 92
        8
 66
     7
 43
1.0
 76
     1
 77
     6
 78
     2
 67
     7
 79
     5
170
     0
171
     0
290
     0
174
     0
 93
        1
 44
0.0
173
     0
291
     1
 45
0.0
1001
ACAD
1000
AcDbSavedByObjectVersion
1070
     0
  0
VISUALSTYLE
  5
B0FD
102
{ACAD_REACTORS
330
B0F1
102
}
330
B0F1
100
AcDbVisualStyle
  2
Brighten
 70
    12
 71
     2
 72
     2
 73
     0
 90
        0
 40
-0.6
 41
-30.0
 62
     5
 63
     7
 74
     1
 91
        4
 64
     7
 65
   257
 75
     1
175
     1
 42
1.0
 92
        8
 66
     7
 43
1.0
 76
     1
 77
     6
 78
     2
 67
     7
 79
     5
170
     0
171
     0
290
     0
174
     0
 93
        1
 44
50.0
173
     0
291
     1
 45
0.0
1001
ACAD
1000
AcDbSavedByObjectVersion
1070
     0
  0
VISUALSTYLE
  5
B101
102
{ACAD_REACTORS
330
B0F1
102
}
330
B0F1
100
AcDbVisualStyle
  2
ColorChange
 70
    16
 71
     2
 72
     2
 73
     3
 90
        0
 40
-0.6
 41
-30.0
 62
     5
 63
     8
 74
     1
 91
        4
 64
     7
 65
   257
 75
     1
175
     1
 42
1.0
 92
        8
 66
     8
 43
1.0
 76
     1
 77
     6
 78
     2
 67
     7
 79
     5
170
     0
171
     0
290
     0
174
     0
 93
        1
 44
0.0
173
     0
291
     1
 45
0.0
1001
ACAD
1000
AcDbSavedByObjectVersion
1070
     0
  0
VISUALSTYLE
  5
B0FA
102
{ACAD_REACTORS
330
B0F1
102
}
330
B0F1
100
AcDbVisualStyle
  2
Conceptual
 70
     9
 71
     3
 72
     2
 73
     0
 90
        0
 40
-0.6
 41
-30.0
 62
     5
 63
     7
 74
     2
 91
        2
 64
     7
 65
   257
 75
     1
175
     1
 42
40.0
 92
        8
 66
     7
 43
1.0
 76
     1
 77
     6
 78
     2
 67
     7
 79
     3
170
     0
171
     0
290
     0
174
     0
 93
        1
 44
0.0
173
     0
291
     0
 45
0.0
1001
ACAD
1000
AcDbSavedByObjectVersion
1070
     0
  0
VISUALSTYLE
  5
B0FC
102
{ACAD_REACTORS
330
B0F1
102
}
330
B0F1
100
AcDbVisualStyle
  2
Dim
 70
    11
 71
     2
 72
     2
 73
     0
 90
        0
 40
-0.6
 41
-30.0
 62
     5
 63
     7
 74
     1
 91
        4
 64
     7
 65
   257
 75
     1
175
     1
 42
1.0
 92
        8
 66
     7
 43
1.0
 76
     1
 77
     6
 78
     2
 67
     7
 79
     5
170
     0
171
     0
290
     0
174
     0
 93
        1
 44
-50.0
173
     0
291
     1
 45
0.0
1001
ACAD
1000
AcDbSavedByObjectVersion
1070
     0
  0
VISUALSTYLE
  5
B100
102
{ACAD_REACTORS
330
B0F1
102
}
330
B0F1
100
AcDbVisualStyle
  2
Facepattern
 70
    15
 71
     2
 72
     2
 73
     0
 90
        0
 40
-0.6
 41
-30.0
 62
     5
 63
     7
 74
     1
 91
        4
 64
     7
 65
   257
 75
     1
175
     1
 42
1.0
 92
        8
 66
     7
 43
1.0
 76
     1
 77
     6
 78
     2
 67
     7
 79
     5
170
     0
171
     0
290
     0
174
     0
 93
        1
 44
0.0
173
     0
291
     1
 45
0.0
1001
ACAD
1000
AcDbSavedByObjectVersion
1070
     0
  0
VISUALSTYLE
  5
B0F2
102
{ACAD_REACTORS
330
B0F1
102
}
330
B0F1
100
AcDbVisualStyle
  2
Flat
 70
     0
 71
     2
 72
     1
 73
     1
 90
        2
 40
-0.6
 41
30.0
 62
     5
 63
     7
 74
     0
 91
        4
 64
     7
 65
   257
 75
     1
175
     1
 42
1.0
 92
        8
 66
     7
 43
1.0
 76
     1
 77
     6
 78
     2
 67
     7
 79
     5
170
     0
171
     0
290
     0
174
     0
 93
       13
 44
0.0
173
     0
291
     1
 45
0.0
1001
ACAD
1000
AcDbSavedByObjectVersion
1070
     0
  0
VISUALSTYLE
  5
B0F3
102
{ACAD_REACTORS
330
B0F1
102
}
330
B0F1
100
AcDbVisualStyle
  2
FlatWithEdges
 70
     1
 71
     2
 72
     1
 73
     1
 90
        2
 40
-0.6
 41
30.0
 62
     5
 63
     7
 74
     1
 91
        4
 64
     7
 65
   257
 75
     1
175
     1
 42
1.0
 92
        0
 66
   257
 43
1.0
 76
     1
 77
     6
 78
     2
 67
     7
 79
     5
170
     0
171
     0
290
     0
174
     0
 93
       13
 44
0.0
173
     0
291
     1
 45
0.0
1001
ACAD
1000
AcDbSavedByObjectVersion
1070
     0
  0
VISUALSTYLE
  5
B0F4
102
{ACAD_REACTORS
330
B0F1
102
}
330
B0F1
100
AcDbVisualStyle
  2
Gouraud
 70
     2
 71
     2
 72
     2
 73
     1
 90
        2
 40
-0.6
 41
30.0
 62
     5
 63
     7
 74
     0
 91
        4
 64
     7
 65
   257
 75
     1
175
     1
 42
1.0
 92
        0
 66
     7
 43
1.0
 76
     1
 77
     6
 78
     2
 67
     7
 79
     5
170
     0
171
     0
290
     0
174
     0
 93
       13
 44
0.0
173
     0
291
     1
 45
0.0
1001
ACAD
1000
AcDbSavedByObjectVersion
1070
     0
  0
VISUALSTYLE
  5
B0F5
102
{ACAD_REACTORS
330
B0F1
102
}
330
B0F1
100
AcDbVisualStyle
  2
GouraudWithEdges
 70
     3
 71
     2
 72
     2
 73
     1
 90
        2
 40
-0.6
 41
30.0
 62
     5
 63
     7
 74
     1
 91
        4
 64
     7
 65
   257
 75
     1
175
     1
 42
1.0
 92
        0
 66
   257
 43
1.0
 76
     1
 77
     6
 78
     2
 67
     7
 79
     5
170
     0
171
     0
290
     0
174
     0
 93
       13
 44
0.0
173
     0
291
     1
 45
0.0
1001
ACAD
1000
AcDbSavedByObjectVersion
1070
     0
  0
VISUALSTYLE
  5
B0FF
102
{ACAD_REACTORS
330
B0F1
102
}
330
B0F1
100
AcDbVisualStyle
  2
Linepattern
 70
    14
 71
     2
 72
     2
 73
     0
 90
        0
 40
-0.6
 41
-30.0
 62
     5
 63
     7
 74
     1
 91
        4
 64
     7
 65
   257
 75
     7
175
     7
 42
1.0
 92
        8
 66
     7
 43
1.0
 76
     1
 77
     6
 78
     2
 67
     7
 79
     5
170
     0
171
     0
290
     0
174
     0
 93
        1
 44
0.0
173
     0
291
     1
 45
0.0
1001
ACAD
1000
AcDbSavedByObjectVersion
1070
     0
  0
VISUALSTYLE
  5
B0FB
102
{ACAD_REACTORS
330
B0F1
102
}
330
B0F1
100
AcDbVisualStyle
  2
Realistic
 70
     8
 71
     2
 72
     2
 73
     0
 90
        0
 40
-0.6
 41
-30.0
 62
     5
 63
     7
 74
     1
 91
        0
 64
     7
 65
   257
 75
     1
175
     1
 42
1.0
 92
        8
 66
     8
 43
1.0
 76
     1
 77
     6
 78
     2
 67
     7
 79
     5
170
     0
171
     0
290
     0
174
     0
 93
       13
 44
0.0
173
     0
291
     0
 45
0.0
1001
ACAD
1000
AcDbSavedByObjectVersion
1070
     0
  0
VISUALSTYLE
  5
B0FE
102
{ACAD_REACTORS
330
B0F1
102
}
330
B0F1
100
AcDbVisualStyle
  2
Thicken
 70
    13
 71
     2
 72
     2
 73
     0
 90
        0
 40
-0.6
 41
-30.0
 62
     5
 63
     7
 74
     1
 91
        4
 64
     7
 65
   257
 75
     1
175
     1
 42
1.0
 92
       12
 66
     7
 43
1.0
 76
     1
 77
     6
 78
     2
 67
     7
 79
     5
170
     0
171
     0
290
     0
174
     0
 93
        1
 44
0.0
173
     0
291
     1
 45
0.0
1001
ACAD
1000
AcDbSavedByObjectVersion
1070
     0
  0
DICTIONARYVAR
  5
AAF3
102
{ACAD_REACTORS
330
34
102
}
330
34
100
DictionaryVariables
280
     0
  1
STANDARD
  0
DICTIONARYVAR
  5
A10C
102
{ACAD_REACTORS
330
34
102
}
330
34
100
DictionaryVariables
280
     0
  1
1
  0
DICTIONARYVAR
  5
AB07
102
{ACAD_REACTORS
330
34
102
}
330
34
100
DictionaryVariables
280
     0
  1
4
  0
DICTIONARYVAR
  5
35
102
{ACAD_REACTORS
330
34
102
}
330
34
100
DictionaryVariables
280
     0
  1
0
  0
DICTIONARYVAR
  5
194C
102
{ACAD_REACTORS
330
34
102
}
330
34
100
DictionaryVariables
280
     0
  1
96
  0
DICTIONARY
  5
7E8
102
{ACAD_REACTORS
330
47
102
}
330
47
100
AcDbDictionary
281
     1
  0
DICTIONARY
  5
4C
102
{ACAD_REACTORS
330
47
102
}
330
47
100
AcDbDictionary
281
     1
  0
XRECORD
  5
A929
102
{ACAD_REACTORS
330
47
102
}
330
47
100
AcDbXrecord
280
     1
 90
-1023410169
  0
XRECORD
  5
B332
102
{ACAD_REACTORS
330
B331
102
}
330
B331
100
AcDbXrecord
280
     1
  0
XRECORD
  5
3FB7
102
{ACAD_REACTORS
330
3F96
102
}
330
3F96
100
AcDbXrecord
280
     1
 91
        3
330
0
 90
        8
 62
     7
370
    40
331
16
  1
Color_7
330
0
 90
        0
 62
    14
370
    -3
331
16
  1
Color_14
330
0
 90
        8
 62
     7
370
    20
331
16
  1
Color_7
330
6D1
 90
        0
 62
     7
370
    -3
331
16
  1
Color_7
330
0
 90
        8
 62
     7
370
    50
331
16
  1
Color_7
330
0
 90
        8
 62
     2
370
    35
331
16
  1
Color_2
330
0
 90
        8
 62
     7
370
    -3
331
16
  1
Color_7
330
10
 90
        8
 62
     7
370
    -3
331
16
  1
Color_7
  0
DICTIONARY
  5
C74B
330
22
100
AcDbDictionary
280
     1
281
     1
  3
ACAD_XREC_ROUNDTRIP
360
C74C
  0
DICTIONARY
  5
C749
330
1E
100
AcDbDictionary
280
     1
281
     1
  3
ACAD_XREC_ROUNDTRIP
360
C74A
  0
DICTIONARY
  5
C74D
330
26
100
AcDbDictionary
280
     1
281
     1
  3
ACAD_XREC_ROUNDTRIP
360
C74E
  0
DICTIONARY
  5
C753
330
B0EF
100
AcDbDictionary
280
     1
281
     1
  3
ACAD_XREC_ROUNDTRIP
360
C754
  0
DICTIONARY
  5
C751
330
B0EE
100
AcDbDictionary
280
     1
281
     1
  3
ACAD_XREC_ROUNDTRIP
360
C752
  0
DICTIONARY
  5
C755
330
B0F0
100
AcDbDictionary
280
     1
281
     1
  3
ACAD_XREC_ROUNDTRIP
360
C756
  0
DICTIONARY
  5
C757
330
C10D
100
AcDbDictionary
280
     1
281
     1
  3
ACAD_XREC_ROUNDTRIP
360
C758
  0
DICTIONARY
  5
C759
330
C10E
100
AcDbDictionary
280
     1
281
     1
  3
ACAD_XREC_ROUNDTRIP
360
C75A
  0
DICTIONARY
  5
C75B
330
C10F
100
AcDbDictionary
280
     1
281
     1
  3
ACAD_XREC_ROUNDTRIP
360
C75C
  0
DICTIONARY
  5
C75D
330
C110
100
AcDbDictionary
280
     1
281
     1
  3
ACAD_XREC_ROUNDTRIP
360
C75E
  0
DICTIONARY
  5
C75F
330
C111
100
AcDbDictionary
280
     1
281
     1
  3
ACAD_XREC_ROUNDTRIP
360
C760
  0
DICTIONARY
  5
C761
330
C112
100
AcDbDictionary
280
     1
281
     1
  3
ACAD_XREC_ROUNDTRIP
360
C762
  0
DICTIONARY
  5
C763
330
C113
100
AcDbDictionary
280
     1
281
     1
  3
ACAD_XREC_ROUNDTRIP
360
C764
  0
DICTIONARY
  5
C765
330
C114
100
AcDbDictionary
280
     1
281
     1
  3
ACAD_XREC_ROUNDTRIP
360
C766
  0
DICTIONARY
  5
C74F
330
AABA
100
AcDbDictionary
280
     1
281
     1
  3
ACAD_XREC_ROUNDTRIP
360
C750
  0
XRECORD
  5
C74C
102
{ACAD_REACTORS
330
C74B
102
}
330
C74B
100
AcDbXrecord
280
     1
102
SHADEPLOT
 70
     0
102
SHADEPLOTRESLEVEL
 70
     2
102
SHADEPLOTCUSTOMDPI
 70
   200
  0
XRECORD
  5
C74A
102
{ACAD_REACTORS
330
C749
102
}
330
C749
100
AcDbXrecord
280
     1
102
SHADEPLOT
 70
     0
102
SHADEPLOTRESLEVEL
 70
     2
102
SHADEPLOTCUSTOMDPI
 70
   300
  0
XRECORD
  5
C74E
102
{ACAD_REACTORS
330
C74D
102
}
330
C74D
100
AcDbXrecord
280
     1
102
SHADEPLOT
 70
     0
102
SHADEPLOTRESLEVEL
 70
     2
102
SHADEPLOTCUSTOMDPI
 70
   300
  0
XRECORD
  5
C754
102
{ACAD_REACTORS
330
C753
102
}
330
C753
100
AcDbXrecord
280
     1
102
MATERIAL
148
0.0
149
0.0
149
0.0
 93
        0
 94
       63
282
     0
 72
     1
 77
     1
171
     1
175
     1
179
     1
273
     0
  0
XRECORD
  5
C752
102
{ACAD_REACTORS
330
C751
102
}
330
C751
100
AcDbXrecord
280
     1
102
MATERIAL
148
0.0
149
0.0
149
0.0
 93
        0
 94
       63
282
     0
 72
     1
 77
     1
171
     1
175
     1
179
     1
273
     0
  0
XRECORD
  5
C756
102
{ACAD_REACTORS
330
C755
102
}
330
C755
100
AcDbXrecord
280
     1
102
MATERIAL
148
0.0
149
0.0
149
0.0
 93
        0
 94
       63
282
     0
 72
     1
 77
     1
171
     1
175
     1
179
     1
273
     0
  0
XRECORD
  5
C758
102
{ACAD_REACTORS
330
C757
102
}
330
C757
100
AcDbXrecord
280
     1
102
SHADEPLOT
 70
     0
102
SHADEPLOTRESLEVEL
 70
     2
102
SHADEPLOTCUSTOMDPI
 70
   200
  0
XRECORD
  5
C75A
102
{ACAD_REACTORS
330
C759
102
}
330
C759
100
AcDbXrecord
280
     1
102
SHADEPLOT
 70
     0
102
SHADEPLOTRESLEVEL
 70
     2
102
SHADEPLOTCUSTOMDPI
 70
   200
  0
XRECORD
  5
C75C
102
{ACAD_REACTORS
330
C75B
102
}
330
C75B
100
AcDbXrecord
280
     1
102
SHADEPLOT
 70
     0
102
SHADEPLOTRESLEVEL
 70
     2
102
SHADEPLOTCUSTOMDPI
 70
   200
  0
XRECORD
  5
C75E
102
{ACAD_REACTORS
330
C75D
102
}
330
C75D
100
AcDbXrecord
280
     1
102
SHADEPLOT
 70
     0
102
SHADEPLOTRESLEVEL
 70
     2
102
SHADEPLOTCUSTOMDPI
 70
   200
  0
XRECORD
  5
C760
102
{ACAD_REACTORS
330
C75F
102
}
330
C75F
100
AcDbXrecord
280
     1
102
SHADEPLOT
 70
     0
102
SHADEPLOTRESLEVEL
 70
     2
102
SHADEPLOTCUSTOMDPI
 70
   200
  0
XRECORD
  5
C762
102
{ACAD_REACTORS
330
C761
102
}
330
C761
100
AcDbXrecord
280
     1
102
SHADEPLOT
 70
     0
102
SHADEPLOTRESLEVEL
 70
     2
102
SHADEPLOTCUSTOMDPI
 70
   200
  0
XRECORD
  5
C764
102
{ACAD_REACTORS
330
C763
102
}
330
C763
100
AcDbXrecord
280
     1
102
SHADEPLOT
 70
     0
102
SHADEPLOTRESLEVEL
 70
     2
102
SHADEPLOTCUSTOMDPI
 70
   200
  0
XRECORD
  5
C766
102
{ACAD_REACTORS
330
C765
102
}
330
C765
100
AcDbXrecord
280
     1
102
SHADEPLOT
 70
     0
102
SHADEPLOTRESLEVEL
 70
     2
102
SHADEPLOTCUSTOMDPI
 70
   200
  0
XRECORD
  5
C750
102
{ACAD_REACTORS
330
C74F
102
}
330
C74F
100
AcDbXrecord
280
     1
102
ACAD_ROUNDTRIP_PRE2007_TABLESTYLE
 90
        4
 91
        0
  1

 92
        4
 93
        0
  2

 94
        4
 95
        0
  3

  0
ENDSEC
  0
EOF
