  0
SECTION
  2
HEADER
  9
$ACADVER
  1
AC1015
  9
$ACADMAINTVER
 70
    20
  9
$DWGCODEPAGE
  3
ANSI_932
  9
$INSBASE
 10
0.0
 20
0.0
 30
0.0
  9
$EXTMIN
 10
0.0000000354804115
 20
-0.0000010992660009
 30
0.0
  9
$EXTMAX
 10
2100.00000003548
 20
1484.999998900733
 30
0.0
  9
$LIMMIN
 10
1700.85588156276
 20
1647.985052086429
  9
$LIMMAX
 10
1997.85588156276
 20
1857.985052086429
  9
$ORTHOMODE
 70
     0
  9
$REGENMODE
 70
     1
  9
$FILLMODE
 70
     1
  9
$QTEXTMODE
 70
     0
  9
$MIRRTEXT
 70
     0
  9
$LTSCALE
 40
1.0
  9
$ATTMODE
 70
     1
  9
$TEXTSIZE
 40
3.2
  9
$TRACEWID
 40
1.0
  9
$TEXTSTYLE
  7
STANDARD
  9
$CLAYER
  8
AM_0
  9
$CELTYPE
  6
ByLayer
  9
$CECOLOR
 62
   256
  9
$CELTSCALE
 40
1.0
  9
$DISPSILH
 70
     0
  9
$DIMSCALE
 40
1.0
  9
$DIMASZ
 40
1.0
  9
$DIMEXO
 40
1.0
  9
$DIMDLI
 40
10.0
  9
$DIMRND
 40
0.0
  9
$DIMDLE
 40
0.0
  9
$DIMEXE
 40
1.0
  9
$DIMTP
 40
0.1
  9
$DIMTM
 40
0.1
  9
$DIMTXT
 40
3.5
  9
$DIMCEN
 40
0.0
  9
$DIMTSZ
 40
0.0
  9
$DIMTOL
 70
     0
  9
$DIMLIM
 70
     0
  9
$DIMTIH
 70
     0
  9
$DIMTOH
 70
     0
  9
$DIMSE1
 70
     0
  9
$DIMSE2
 70
     0
  9
$DIMTAD
 70
     1
  9
$DIMZIN
 70
     8
  9
$DIMBLK
  1

  9
$DIMASO
 70
     1
  9
$DIMSHO
 70
     1
  9
$DIMPOST
  1

  9
$DIMAPOST
  1
"
  9
$DIMALT
 70
     0
  9
$DIMALTD
 70
     2
  9
$DIMALTF
 40
0.0393701
  9
$DIMLFAC
 40
1.0
  9
$DIMTOFL
 70
     1
  9
$DIMTVP
 40
0.0
  9
$DIMTIX
 70
     0
  9
$DIMSOXD
 70
     0
  9
$DIMSAH
 70
     0
  9
$DIMBLK1
  1

  9
$DIMBLK2
  1

  9
$DIMSTYLE
  2
SYS
  9
$DIMCLRD
 70
   256
  9
$DIMCLRE
 70
   256
  9
$DIMCLRT
 70
     7
  9
$DIMTFAC
 40
0.71
  9
$DIMGAP
 40
1.5
  9
$DIMJUST
 70
     0
  9
$DIMSD1
 70
     0
  9
$DIMSD2
 70
     0
  9
$DIMTOLJ
 70
     0
  9
$DIMTZIN
 70
     8
  9
$DIMALTZ
 70
     0
  9
$DIMALTTZ
 70
     0
  9
$DIMUPT
 70
     0
  9
$DIMDEC
 70
     2
  9
$DIMTDEC
 70
     2
  9
$DIMALTU
 70
     2
  9
$DIMALTTD
 70
     2
  9
$DIMTXSTY
  7
STANDARD
  9
$DIMAUNIT
 70
     0
  9
$DIMADEC
 70
     0
  9
$DIMALTRND
 40
0.0
  9
$DIMAZIN
 70
     2
  9
$DIMDSEP
 70
    46
  9
$DIMATFIT
 70
     3
  9
$DIMFRAC
 70
     0
  9
$DIMLDRBLK
  1

  9
$DIMLUNIT
 70
     2
  9
$DIMLWD
 70
    -1
  9
$DIMLWE
 70
    -1
  9
$DIMTMOVE
 70
     0
  9
$LUNITS
 70
     2
  9
$LUPREC
 70
     2
  9
$SKETCHINC
 40
1.0
  9
$FILLETRAD
 40
0.0
  9
$AUNITS
 70
     0
  9
$AUPREC
 70
     0
  9
$MENU
  1
.
  9
$ELEVATION
 40
0.0
  9
$PELEVATION
 40
0.0
  9
$THICKNESS
 40
0.0
  9
$LIMCHECK
 70
     0
  9
$CHAMFERA
 40
0.0
  9
$CHAMFERB
 40
0.0
  9
$CHAMFERC
 40
20.0
  9
$CHAMFERD
 40
0.0
  9
$SKPOLY
 70
     0
  9
$TDCREATE
 40
2455063.328317419
  9
$TDUCREATE
 40
2455062.953317419
  9
$TDUPDATE
 40
2455517.347586076
  9
$TDUUPDATE
 40
2455516.972586076
  9
$TDINDWG
 40
0.0621015972
  9
$TDUSRTIMER
 40
0.0621014120
  9
$USRTIMER
 70
     1
  9
$ANGBASE
 50
0.0
  9
$ANGDIR
 70
     0
  9
$PDMODE
 70
     0
  9
$PDSIZE
 40
-3.0
  9
$PLINEWID
 40
0.0
  9
$SPLFRAME
 70
     0
  9
$SPLINETYPE
 70
     6
  9
$SPLINESEGS
 70
     8
  9
$HANDSEED
  5
F110
  9
$SURFTAB1
 70
     6
  9
$SURFTAB2
 70
     6
  9
$SURFTYPE
 70
     6
  9
$SURFU
 70
     6
  9
$SURFV
 70
     6
  9
$UCSBASE
  2

  9
$UCSNAME
  2

  9
$UCSORG
 10
0.0
 20
0.0
 30
0.0
  9
$UCSXDIR
 10
1.0
 20
0.0
 30
0.0
  9
$UCSYDIR
 10
0.0
 20
1.0
 30
0.0
  9
$UCSORTHOREF
  2

  9
$UCSORTHOVIEW
 70
     0
  9
$UCSORGTOP
 10
0.0
 20
0.0
 30
0.0
  9
$UCSORGBOTTOM
 10
0.0
 20
0.0
 30
0.0
  9
$UCSORGLEFT
 10
0.0
 20
0.0
 30
0.0
  9
$UCSORGRIGHT
 10
0.0
 20
0.0
 30
0.0
  9
$UCSORGFRONT
 10
0.0
 20
0.0
 30
0.0
  9
$UCSORGBACK
 10
0.0
 20
0.0
 30
0.0
  9
$PUCSBASE
  2

  9
$PUCSNAME
  2

  9
$PUCSORG
 10
0.0
 20
0.0
 30
0.0
  9
$PUCSXDIR
 10
1.0
 20
0.0
 30
0.0
  9
$PUCSYDIR
 10
0.0
 20
1.0
 30
0.0
  9
$PUCSORTHOREF
  2

  9
$PUCSORTHOVIEW
 70
     0
  9
$PUCSORGTOP
 10
0.0
 20
0.0
 30
0.0
  9
$PUCSORGBOTTOM
 10
0.0
 20
0.0
 30
0.0
  9
$PUCSORGLEFT
 10
0.0
 20
0.0
 30
0.0
  9
$PUCSORGRIGHT
 10
0.0
 20
0.0
 30
0.0
  9
$PUCSORGFRONT
 10
0.0
 20
0.0
 30
0.0
  9
$PUCSORGBACK
 10
0.0
 20
0.0
 30
0.0
  9
$USERI1
 70
     0
  9
$USERI2
 70
     0
  9
$USERI3
 70
     0
  9
$USERI4
 70
     0
  9
$USERI5
 70
     0
  9
$USERR1
 40
0.0
  9
$USERR2
 40
0.0
  9
$USERR3
 40
0.0
  9
$USERR4
 40
0.0
  9
$USERR5
 40
0.0
  9
$WORLDVIEW
 70
     1
  9
$SHADEDGE
 70
     3
  9
$SHADEDIF
 70
    70
  9
$TILEMODE
 70
     1
  9
$MAXACTVP
 70
    64
  9
$PINSBASE
 10
0.0
 20
0.0
 30
0.0
  9
$PLIMCHECK
 70
     0
  9
$PEXTMIN
 10
1.000000000000000E+20
 20
1.000000000000000E+20
 30
1.000000000000000E+20
  9
$PEXTMAX
 10
-1.000000000000000E+20
 20
-1.000000000000000E+20
 30
-1.000000000000000E+20
  9
$PLIMMIN
 10
-3.17498779296875
 20
-3.174999952316284
  9
$PLIMMAX
 10
293.4970092773438
 20
206.692492723465
  9
$UNITMODE
 70
     0
  9
$VISRETAIN
 70
     1
  9
$PLINEGEN
 70
     0
  9
$PSLTSCALE
 70
     1
  9
$TREEDEPTH
 70
  3020
  9
$CMLSTYLE
  2
Standard
  9
$CMLJUST
 70
     0
  9
$CMLSCALE
 40
20.0
  9
$PROXYGRAPHICS
 70
     1
  9
$MEASUREMENT
 70
     1
  9
$CELWEIGHT
370
    -1
  9
$ENDCAPS
280
     0
  9
$JOINSTYLE
280
     0
  9
$LWDISPLAY
290
     0
  9
$INSUNITS
 70
     4
  9
$HYPERLINKBASE
  1

  9
$STYLESHEET
  1
monochrome.ctb
  9
$XEDIT
290
     1
  9
$CEPSNTYPE
380
     0
  9
$PSTYLEMODE
290
     1
  9
$FINGERPRINTGUID
  2
{E79C15E8-FBB8-41AF-8E39-D911DFE9EF0A}
  9
$VERSIONGUID
  2
{73792BFB-2575-424B-AA77-B62550343EA0}
  9
$EXTNAMES
290
     1
  9
$PSVPSCALE
 40
0.0
  9
$OLESTARTUP
290
     0
  0
ENDSEC
  0
SECTION
  2
CLASSES
  0
CLASS
  1
ACDBDICTIONARYWDFLT
  2
AcDbDictionaryWithDefault
  3
ObjectDBX Classes
 90
        0
280
     0
281
     0
  0
CLASS
  1
ACDBPLACEHOLDER
  2
AcDbPlaceHolder
  3
ObjectDBX Classes
 90
        0
280
     0
281
     0
  0
CLASS
  1
LAYOUT
  2
AcDbLayout
  3
ObjectDBX Classes
 90
        0
280
     0
281
     0
  0
CLASS
  1
AMGSETTINGSOBJ
  2
AmgSettingsObj
  3
"AcadM|Product Description: AutoCAD Mechanical|Company: Autodesk"
 90
        0
280
     0
281
     0
  0
CLASS
  1
ACME_DOCUMENT
  2
AcMeDbDoc
  3
AcMeServices
 90
        0
280
     0
281
     0
  0
CLASS
  1
ACMESCOPE
  2
AcMeScope
  3
AcMeServices
 90
        0
280
     0
281
     0
  0
CLASS
  1
ACMECOMMANDHISTORY
  2
AcMeCommandHistory
  3
AcMeServices
 90
        0
280
     0
281
     0
  0
CLASS
  1
DICTIONARYVAR
  2
AcDbDictionaryVar
  3
ObjectDBX Classes
 90
        0
280
     0
281
     0
  0
CLASS
  1
ACIMSYSVARMAN
  2
AcImSysVarManager
  3
AcMeServices
 90
        0
280
     0
281
     0
  0
CLASS
  1
ACIMREALSYSVAR
  2
AcImRealSysVar
  3
AcMeServices
 90
        0
280
     0
281
     0
  0
CLASS
  1
ACIMINTSYSVAR
  2
AcImIntSysVar
  3
AcMeServices
 90
        0
280
     0
281
     0
  0
CLASS
  1
ACMEDRAWINGMAN
  2
AcMeDrawingMan
  3
AcMeServices
 90
        0
280
     0
281
     0
  0
CLASS
  1
ACMEVIEW
  2
AcMeView
  3
AcMeServices
 90
        0
280
     0
281
     0
  0
CLASS
  1
ACDBENTITYCACHE
  2
AcMeEntityCache
  3
AcMeServices
 90
        0
280
     0
281
     0
  0
CLASS
  1
GSMANAGER
  2
AcMeGSManager
  3
AcMeServices
 90
        0
280
     0
281
     0
  0
CLASS
  1
AMDTINTERNALREACTOR
  2
AmdtInternalReactor
  3
AcMeServices
 90
        0
280
     0
281
     0
  0
CLASS
  1
ACMESTATEMGR
  2
AcMeStateMgr
  3
AcMeServices
 90
        0
280
     0
281
     0
  0
CLASS
  1
ACGREFMASTER
  2
AcGrefMaster
  3
AcAttribServices
 90
        0
280
     0
281
     0
  0
CLASS
  1
ACME_DATABASE
  2
AcMeDbDatabase
  3
AcMeServices
 90
        0
280
     0
281
     0
  0
CLASS
  1
ACRFINSADJUSTERMGR
  2
AcRfInsAdjusterMgr
  3
AcMeServices
 90
        0
280
     0
281
     0
  0
CLASS
  1
ACGREFACADMASTER
  2
AcGrefacadMaster
  3
AcGrefServices
 90
        0
280
     0
281
     0
  0
CLASS
  1
AMIMASTER
  2
AmiMaster
  3
AmiServices
 90
        0
280
     0
281
     0
  0
CLASS
  1
ACMDATADICTIONARY
  2
AcmDataDictionary
  3
"AcmSymBB|Product Description: AutoCAD Mechanical|Company: Autodesk"
 90
        0
280
     0
281
     0
  0
CLASS
  1
ACMDATAENTRYBLOCK
  2
AcmDataEntryBlock
  3
"AcmSymBB|Product Description: AutoCAD Mechanical|Company: Autodesk"
 90
        0
280
     0
281
     0
  0
CLASS
  1
ACIMSTRSYSVAR
  2
AcImStrSysVar
  3
AcMeServices
 90
        0
280
     0
281
     0
  0
CLASS
  1
ACMSTANDARDISO
  2
AcmStandardISO
  3
"Amdt_StdImp|Product Description: AutoCAD Mechanical|Company: Autodesk"
 90
        0
280
     0
281
     0
  0
CLASS
  1
AMGOBJPROPCFG
  2
AmgObjPropCfg
  3
"AmgLay|Product Description: AutoCAD Mechanical|Company: Autodesk"
 90
        1
280
     0
281
     0
  0
CLASS
  1
AMDTEDGESTANDARDISO
  2
AmdtEdgeStdISO
  3
"Amdt_StdImp|Product Description: AutoCAD Mechanical|Company: Autodesk"
 90
        0
280
     0
281
     0
  0
CLASS
  1
ACMSURFSTANDARDISO
  2
AcmSurfTextStdISO
  3
"Amdt_StdImp|Product Description: AutoCAD Mechanical|Company: Autodesk"
 90
        0
280
     0
281
     0
  0
CLASS
  1
ACMFCFSTANDARDISO
  2
AcmFCFStdISO
  3
"Amdt_StdImp|Product Description: AutoCAD Mechanical|Company: Autodesk"
 90
        0
280
     0
281
     0
  0
CLASS
  1
ACMWELDSTANDARDISO
  2
AcmWeldingStdISO
  3
"Amdt_StdImp|Product Description: AutoCAD Mechanical|Company: Autodesk"
 90
        0
280
     0
281
     0
  0
CLASS
  1
ACMIDSTANDARDISO
  2
AcmIdStdISO
  3
"Amdt_StdImp|Product Description: AutoCAD Mechanical|Company: Autodesk"
 90
        0
280
     0
281
     0
  0
CLASS
  1
ACMDATUMSTANDARDISO
  2
AcmDatumStdISO
  3
"Amdt_StdImp|Product Description: AutoCAD Mechanical|Company: Autodesk"
 90
        0
280
     0
281
     0
  0
CLASS
  1
ACMBOMSTANDARDISO
  2
AcmBOMStdISO
  3
"Amdt_StdImp|Product Description: AutoCAD Mechanical|Company: Autodesk"
 90
        0
280
     0
281
     0
  0
CLASS
  1
ACMDETAILSTANDARDISO
  2
AmdtDetailSymStdISO
  3
"Amdt_StdImp|Product Description: AutoCAD Mechanical|Company: Autodesk"
 90
        0
280
     0
281
     0
  0
CLASS
  1
ACMSECTIONSTANDARDISO
  2
AmdtSectionSymStdISO
  3
"Amdt_StdImp|Product Description: AutoCAD Mechanical|Company: Autodesk"
 90
        0
280
     0
281
     0
  0
CLASS
  1
ACMCENTERLINESTANDARDISO
  2
AmdtCenterLineStdISO
  3
"Amdt_StdImp|Product Description: AutoCAD Mechanical|Company: Autodesk"
 90
        0
280
     0
281
     0
  0
CLASS
  1
ACAMGLAYSTD
  2
AcAmgLayStd
  3
"AmgLay|Product Description: AutoCAD Mechanical|Company: Autodesk"
 90
        0
280
     0
281
     0
  0
CLASS
  1
ACAMGDIMSTD
  2
AcAmgDimStd
  3
"AmgDim|Product Description: AutoCAD Mechanical|Company: Autodesk"
 90
        0
280
     0
281
     0
  0
CLASS
  1
ACAMGTITLESTD
  2
AcAmgTitleStd
  3
"AmgTitle|Product Description: AutoCAD Mechanical|Company: Autodesk"
 90
        0
280
     0
281
     0
  0
CLASS
  1
ACAMGFILTERDAT
  2
AcAmgFilterDat
  3
"AcadM|Product Description: AutoCAD Mechanical|Company: Autodesk"
 90
        0
280
     0
281
     0
  0
CLASS
  1
LAYER_INDEX
  2
AcDbLayerIndex
  3
ObjectDBX Classes
 90
    32768
280
     0
281
     0
  0
CLASS
  1
IDBUFFER
  2
AcDbIdBuffer
  3
ObjectDBX Classes
 90
    32768
280
     0
281
     0
  0
CLASS
  1
PLOTSETTINGS
  2
AcDbPlotSettings
  3
ObjectDBX Classes
 90
        0
280
     0
281
     0
  0
CLASS
  1
AMDTFORMULAUPDATEDISPATCHER
  2
AmdtFormulaUpdateDispatcher
  3
AcMeServices
 90
        0
280
     0
281
     0
  0
CLASS
  1
ACMSTANDARDANSI
  2
AcmStandardANSI
  3
"Amdt_StdImp|Product Description: AutoCAD Mechanical|Company: Autodesk"
 90
    32768
280
     0
281
     0
  0
CLASS
  1
ACMSURFSTANDARDANSI
  2
AcmSurfTextStdANSI
  3
"Amdt_StdImp|Product Description: AutoCAD Mechanical|Company: Autodesk"
 90
    32768
280
     0
281
     0
  0
CLASS
  1
ACMFCFSTANDARDANSI
  2
AcmFCFStdANSI
  3
"Amdt_StdImp|Product Description: AutoCAD Mechanical|Company: Autodesk"
 90
    32768
280
     0
281
     0
  0
CLASS
  1
ACMWELDSTANDARDANSI
  2
AcmWeldingStdANSI
  3
"Amdt_StdImp|Product Description: AutoCAD Mechanical|Company: Autodesk"
 90
    32768
280
     0
281
     0
  0
CLASS
  1
ACMIDSTANDARDANSI
  2
AcmIdStdANSI
  3
"Amdt_StdImp|Product Description: AutoCAD Mechanical|Company: Autodesk"
 90
    32768
280
     0
281
     0
  0
CLASS
  1
ACMDATUMSTANDARDANSI
  2
AcmDatumStdANSI
  3
"Amdt_StdImp|Product Description: AutoCAD Mechanical|Company: Autodesk"
 90
    32768
280
     0
281
     0
  0
CLASS
  1
ACMBOMSTANDARDANSI
  2
AcmBOMStdANSI
  3
"Amdt_StdImp|Product Description: AutoCAD Mechanical|Company: Autodesk"
 90
    32768
280
     0
281
     0
  0
CLASS
  1
ACMDETAILSTANDARDANSI
  2
AmdtDetailSymStdANSI
  3
"Amdt_StdImp|Product Description: AutoCAD Mechanical|Company: Autodesk"
 90
    32768
280
     0
281
     0
  0
CLASS
  1
ACMSECTIONSTANDARDANSI
  2
AmdtSectionSymStdANSI
  3
"Amdt_StdImp|Product Description: AutoCAD Mechanical|Company: Autodesk"
 90
    32768
280
     0
281
     0
  0
CLASS
  1
ACMCENTERLINESTANDARDANSI
  2
AmdtCenterLineStdANSI
  3
"Amdt_StdImp|Product Description: AutoCAD Mechanical|Company: Autodesk"
 90
    32768
280
     0
281
     0
  0
CLASS
  1
ACMBOM
  2
AcmBom
  3
"AcmSymBB|Product Description: AutoCAD Mechanical|Company: Autodesk"
 90
        0
280
     0
281
     0
  0
CLASS
  1
ACMDATAENTRYPART
  2
AcmDataEntryPart
  3
"AcmSymBB|Product Description: AutoCAD Mechanical|Company: Autodesk"
 90
    32768
280
     0
281
     0
  0
CLASS
  1
ACMPARTREF
  2
AcmPartRef
  3
"AcmSymBB|Product Description: AutoCAD Mechanical|Company: Autodesk"
 90
    35839
280
     0
281
     1
  0
CLASS
  1
ACDBCIRCARCRES
  2
AcDbCircArcRes
  3
AcGrefServices
 90
        0
280
     0
281
     0
  0
CLASS
  1
ACMBOMROW
  2
AcmBomRow
  3
"AcmSymBB|Product Description: AutoCAD Mechanical|Company: Autodesk"
 90
    32768
280
     0
281
     0
  0
CLASS
  1
ACMBALLOON
  2
AcmBalloon
  3
"AcmSymBB|Product Description: AutoCAD Mechanical|Company: Autodesk"
 90
    35839
280
     0
281
     1
  0
CLASS
  1
AMDTNOTE
  2
AmdtNote
  3
"AcmSymBB|Product Description: AutoCAD Mechanical|Company: Autodesk"
 90
     3071
280
     0
281
     1
  0
CLASS
  1
STDPART2D
  2
AmgStdPart
  3
"AmgStdPart|Product Description: AutoCAD Mechanical|Company: Autodesk"
 90
    35839
280
     0
281
     1
  0
CLASS
  1
ACDBSTDPARTRES_LINE
  2
AcDbStdPartRes_Line
  3
"AmgStdPart|Product Description: AutoCAD Mechanical|Company: Autodesk"
 90
    32768
280
     0
281
     0
  0
CLASS
  1
ACMDATAENTRY
  2
AcmDataEntry
  3
"AcmSymBB|Product Description: AutoCAD Mechanical|Company: Autodesk"
 90
        0
280
     0
281
     0
  0
CLASS
  1
ACDBOPPOLYLINERES
  2
AcDbOpPolylineRes
  3
AcGrefServices
 90
    32768
280
     0
281
     0
  0
CLASS
  1
ACMPARTLIST
  2
AcmPartList
  3
"AcmSymBB|Product Description: AutoCAD Mechanical|Company: Autodesk"
 90
    35839
280
     0
281
     1
  0
CLASS
  1
ACDBLINERES
  2
AcDbLineRes
  3
AcGrefServices
 90
        0
280
     0
281
     0
  0
CLASS
  1
ACRFINSADJ
  2
AcRfInsAdjuster
  3
AcMeServices
 90
    32768
280
     0
281
     0
  0
CLASS
  1
AM_DRAWING_MGR
  2
AcDmDwgMgr
  3
AcMechDwgViewMgmt
 90
        0
280
     0
281
     0
  0
CLASS
  1
AM_DWG_DOCUMENT
  2
AcDmDwgDocument
  3
AcMechDwgViewMgmt
 90
        0
280
     0
281
     0
  0
CLASS
  1
AM_DWG_SHEET
  2
AcDmSheet
  3
AcMechDwgViewMgmt
 90
        0
280
     0
281
     0
  0
CLASS
  1
AM_VIEWDIMPARMAP
  2
AcDmViewDimParMap
  3
AcMechDwgViewMgmt
 90
        0
280
     0
281
     0
  0
CLASS
  1
AM_DWGMGR_NAME
  2
AcDmDwgMgrName
  3
AcMechDwgViewMgmt
 90
        0
280
     0
281
     0
  0
CLASS
  1
AMDTMENUSTATEMGR
  2
AmdtMenuStateMgr
  3
McadcomServices
 90
        0
280
     0
281
     0
  0
CLASS
  1
AMDTMCOMMENUSTATE
  2
AmdtMcomMenuState
  3
McadcomServices
 90
        0
280
     0
281
     0
  0
CLASS
  1
ASAPP
  2
AcAsAppObject
  3
AutoSurfServices
 90
        0
280
     0
281
     0
  0
CLASS
  1
IM_STATIC_MAN
  2
AcImStaticVarManager
  3
AcMeServices
 90
        0
280
     0
281
     0
  0
CLASS
  1
ACIMDBLSTATICVAR
  2
AcImDblStaticVar
  3
AcMeServices
 90
        0
280
     0
281
     0
  0
CLASS
  1
ACIMSTRSTATICVAR
  2
AcImStrStaticVar
  3
AcMeServices
 90
        0
280
     0
281
     0
  0
CLASS
  1
ACIMINTSTATICVAR
  2
AcImIntStaticVar
  3
AcMeServices
 90
        0
280
     0
281
     0
  0
CLASS
  1
ACASGREFMASTER
  2
AcAsGrefMaster
  3
AutoSurfResolverServices
 90
        0
280
     0
281
     0
  0
CLASS
  1
ACADGREFMODULE
  2
AcAdGrefModule
  3
AdGrefServices
 90
        0
280
     0
281
     0
  0
CLASS
  1
AMDTMAPISURFMOUDULE
  2
AmdtMApiSurfModule
  3
MApiSurfServices
 90
        0
280
     0
281
     0
  0
CLASS
  1
MAPIAMMOUDLE
  2
MApiAmModule
  3
MApiAmServices
 90
        0
280
     0
281
     0
  0
CLASS
  1
AMDTADMENUSTATE
  2
AmdtAdMenuState
  3
DesignerServices
 90
        0
280
     0
281
     0
  0
CLASS
  1
ADAPPL
  2
AcAdAppl
  3
DesignerServices
 90
        0
280
     0
281
     0
  0
CLASS
  1
DEPMGR
  2
AcAdDepMgr
  3
DesignerServices
 90
        0
280
     0
281
     0
  0
CLASS
  1
PARAMMGR
  2
AcAdParamMgr
  3
DesignerServices
 90
        0
280
     0
281
     0
  0
CLASS
  1
PARAMSCOPE
  2
AcAdParamScope
  3
DesignerServices
 90
        0
280
     0
281
     0
  0
CLASS
  1
NAMEDAPPL
  2
AcAdNamedAppl
  3
DesignerServices
 90
        0
280
     0
281
     0
  0
CLASS
  1
ADHNTMPLT
  2
AdHoleNoteTemplateMgr
  3
DesignerServices
 90
    32768
280
     0
281
     0
  0
CLASS
  1
AM_HNTEMPLATE_MGR_NAME
  2
AdHoleNoteTemplateMgrName
  3
DesignerServices
 90
    32768
280
     0
281
     0
  0
CLASS
  1
AMDTDMMENUSTATE
  2
AmdtDmMenuState
  3
AcMechDwgViewMgmt
 90
        0
280
     0
281
     0
  0
CLASS
  1
MAPIADMODULE
  2
MApiAdModule
  3
MApiAdServices
 90
        0
280
     0
281
     0
  0
CLASS
  1
AMDTAMMENUSTATE
  2
AmdtAmMenuState
  3
DesignerAssemblies
 90
        0
280
     0
281
     0
  0
CLASS
  1
ACAMPROJECT
  2
AcAmProject
  3
DesignerAssemblies
 90
        0
280
     0
281
     0
  0
CLASS
  1
ACAMGRCOMPDEF
  2
AcAmGrCompDef
  3
DesignerAssemblies
 90
        0
280
     0
281
     0
  0
CLASS
  1
ACCMCONTEXT
  2
AcCmContext
  3
DesignerAssemblies
 90
        0
280
     0
281
     0
  0
CLASS
  1
ACAMCOMPDEF
  2
AcAmCompDef
  3
DesignerAssemblies
 90
        0
280
     0
281
     0
  0
CLASS
  1
ACAMCOMPDEFMGR
  2
AcAmCompDefMgr
  3
DesignerAssemblies
 90
        0
280
     0
281
     0
  0
CLASS
  1
AMCONTEXTMGR
  2
AcAmContextMgr
  3
DesignerAssemblies
 90
        0
280
     0
281
     0
  0
CLASS
  1
ACAMCONTEXTMODELER
  2
AcAmContextModeler
  3
DesignerAssemblies
 90
        0
280
     0
281
     0
  0
CLASS
  1
CATALOGSTATE
  2
AcAmCatalogState
  3
DesignerAssemblies
 90
        0
280
     0
281
     0
  0
CLASS
  1
ACAMGRCOMPDEFSET
  2
AcAmGrCompDefSet
  3
DesignerAssemblies
 90
        0
280
     0
281
     0
  0
CLASS
  1
AMDTBROWSERDBTAB
  2
AmdtBrowserDbTab
  3
McadcomServices
 90
        0
280
     0
281
     0
  0
CLASS
  1
CBROWSERAPPOBJECT
  2
CBrowserAppObject
  3
McadcomServices
 90
        0
280
     0
281
     0
  0
CLASS
  1
DM_PLACEHOLDER
  2
AcDmSelsetPlaceholder
  3
AcMechDwgViewMgmt
 90
        0
280
     0
281
     0
  0
CLASS
  1
ACMPICKOBJ
  2
AcmPickEnt
  3
"AcmSymBB|Product Description: AutoCAD Mechanical|Company: Autodesk"
 90
    32768
280
     0
281
     1
  0
CLASS
  1
ACMNOTESTANDARDISO
  2
AmdtNoteStdISO
  3
"Amdt_StdImp|Product Description: AutoCAD Mechanical|Company: Autodesk"
 90
        0
280
     0
281
     0
  0
CLASS
  1
ACMNOTESTANDARDANSI
  2
AmdtNoteStdANSI
  3
"Amdt_StdImp|Product Description: AutoCAD Mechanical|Company: Autodesk"
 90
    32768
280
     0
281
     0
  0
CLASS
  1
ACMTHREADLINESTANDARDISO
  2
AmdtThreadLineStdISO
  3
"Amdt_StdImp|Product Description: AutoCAD Mechanical|Company: Autodesk"
 90
        0
280
     0
281
     0
  0
CLASS
  1
ACMTHREADLINESTANDARDANSI
  2
AmdtThreadLineStdANSI
  3
"Amdt_StdImp|Product Description: AutoCAD Mechanical|Company: Autodesk"
 90
    32768
280
     0
281
     0
  0
CLASS
  1
TABLESTYLE
  2
AcDbTableStyle
  3
ObjectDBX Classes
 90
     4095
280
     0
281
     0
  0
CLASS
  1
SORTENTSTABLE
  2
AcDbSortentsTable
  3
ObjectDBX Classes
 90
        0
280
     0
281
     0
  0
CLASS
  1
MATERIAL
  2
AcDbMaterial
  3
ObjectDBX Classes
 90
     1024
280
     0
281
     0
  0
CLASS
  1
VISUALSTYLE
  2
AcDbVisualStyle
  3
ObjectDBX Classes
 90
     4095
280
     0
281
     0
  0
CLASS
  1
ACRFATTGENMGR
  2
AcRfAttGeneralMgr
  3
AcAttribServices
 90
        0
280
     0
281
     0
  0
CLASS
  1
ACRFOBJATTMGR
  2
AcRfObjAttGroupMgr
  3
AcAttribServices
 90
        0
280
     0
281
     0
  0
CLASS
  1
ACRFMCADAPIATTHOLDER
  2
AcRfMCADAPIAttHolder
  3
AcAttribServices
 90
        0
280
     0
281
     0
  0
CLASS
  1
AMDTSYSATTR
  2
AmdtSystemAttribute
  3
AcAttribServices
 90
        0
280
     0
281
     0
  0
CLASS
  1
ACMTAPERSTANDARDISO
  2
AcmTaperStdISO
  3
"Amdt_StdImp|Product Description: AutoCAD Mechanical|Company: Autodesk"
 90
        0
280
     0
281
     0
  0
CLASS
  1
CAMSSTRUCTBTNSTATE
  2
StructBtnState
  3
L"DesignerAssemblies"
 90
        0
280
     0
281
     0
  0
CLASS
  1
DIMASSOC
  2
AcDbDimAssoc
  3
"AcDbDimAssoc|Product Desc:     AcDim ARX App For Dimension|Company:          Autodesk, Inc.|WEB Address:      www.autodesk.com"
 90
    32768
280
     0
281
     0
  0
CLASS
  1
AMDTEDGESTANDARDISO13715
  2
AmdtEdgeStdISO13715
  3
"Amdt_StdImp|Product Description: AutoCAD Mechanical|Company: Autodesk"
 90
        0
280
     0
281
     0
  0
CLASS
  1
AMDTNOTETEMPLATEDB
  2
AmdtNoteTemplateDB
  3
AMDT_STDIMP_MODULE_NAME
 90
        0
280
     0
281
     0
  0
CLASS
  1
ACAMGHOLECHARTSTDISO
  2
AcAmgHoleChartStdISO
  3
ACMSYMBB_MODULE_NAME
 90
        0
280
     0
281
     0
  0
ENDSEC
  0
SECTION
  2
TABLES
  0
TABLE
  2
VPORT
  5
8
330
0
100
AcDbSymbolTable
 70
     1
  0
VPORT
  5
B0EC
330
8
100
AcDbSymbolTableRecord
100
AcDbViewportTableRecord
  2
*Active
 70
     0
 10
0.0
 20
0.0
 11
1.0
 21
1.0
 12
1061.130660912319
 22
715.9584755932622
 13
0.0
 23
0.0
 14
2.5
 24
2.5
 15
10.0
 25
10.0
 16
0.0
 26
0.0
 36
1.0
 17
0.0
 27
0.0
 37
0.0
 40
1589.669000843653
 41
1.331611570247933
 42
50.0
 43
-1370.695619172058
 44
-1370.695619172058
 50
0.0
 51
0.0
 71
    16
 72
   100
 73
     1
 74
     3
 75
     0
 76
     0
 77
     0
 78
     0
281
     0
 65
     0
110
0.0
120
0.0
130
0.0
111
1.0
121
0.0
131
0.0
112
0.0
122
1.0
132
0.0
 79
     0
146
0.0
  0
ENDTAB
  0
TABLE
  2
LTYPE
  5
5
330
0
100
AcDbSymbolTable
 70
    41
  0
LTYPE
  5
14
330
5
100
AcDbSymbolTableRecord
100
AcDbLinetypeTableRecord
  2
ByBlock
 70
     0
  3

 72
    65
 73
     0
 40
0.0
  0
LTYPE
  5
15
330
5
100
AcDbSymbolTableRecord
100
AcDbLinetypeTableRecord
  2
ByLayer
 70
     0
  3

 72
    65
 73
     0
 40
0.0
  0
LTYPE
  5
16
330
5
100
AcDbSymbolTableRecord
100
AcDbLinetypeTableRecord
  2
Continuous
 70
     0
  3
Solid line
 72
    65
 73
     0
 40
0.0
  0
LTYPE
  5
4F
330
5
100
AcDbSymbolTableRecord
100
AcDbLinetypeTableRecord
  2
AM_ISO02W050
 70
     0
  3
__ __ __ __ __ __ __ __ __ __ __ __ __ __ __
 72
    65
 73
     2
 40
7.5
 49
6.0
 74
     0
 49
-1.5
 74
     0
  0
LTYPE
  5
52
330
5
100
AcDbSymbolTableRecord
100
AcDbLinetypeTableRecord
  2
Amconstr
 70
     0
  3
_______________________
 72
    65
 73
     2
 40
9999.0
 49
9999.0
 74
     0
 49
0.0
 74
     0
  0
LTYPE
  5
64
330
5
100
AcDbSymbolTableRecord
100
AcDbLinetypeTableRecord
  2
ACISOWELD
 70
     0
  3
_ _ _ _ _
 72
    65
 73
     2
 40
2.0
 49
2.0
 74
     0
 49
-1.0
 74
     0
  0
LTYPE
  5
65
330
5
100
AcDbSymbolTableRecord
100
AcDbLinetypeTableRecord
  2
ACISOTGB
 70
     0
  3
__ . . __ . .
 72
    65
 73
     6
 40
9.0
 49
4.0
 74
     0
 49
-1.0
 74
     0
 49
1.0
 74
     0
 49
-1.0
 74
     0
 49
1.0
 74
     0
 49
-1.0
 74
     0
  0
LTYPE
  5
66
330
5
100
AcDbSymbolTableRecord
100
AcDbLinetypeTableRecord
  2
ACISOTGL
 70
     0
  3
_ _ _ _ _
 72
    65
 73
     2
 40
3.0
 49
2.0
 74
     0
 49
-1.0
 74
     0
  0
LTYPE
  5
69
330
5
100
AcDbSymbolTableRecord
100
AcDbLinetypeTableRecord
  2
CENTER
 70
     0
  3
__ . __
 72
    65
 73
     4
 40
7.0
 49
4.0
 74
     0
 49
-1.0
 74
     0
 49
1.0
 74
     0
 49
-1.0
 74
     0
  0
LTYPE
  5
A6E
330
5
100
AcDbSymbolTableRecord
100
AcDbLinetypeTableRecord
  2
PHANTOM2
 70
     0
  3
Phantom (.5x) ___ _ _ ___ _ _ ___ _ _ ___ _ _
 72
    65
 73
     6
 40
31.75
 49
15.875
 74
     0
 49
-3.174999999999999
 74
     0
 49
3.174999999999999
 74
     0
 49
-3.174999999999999
 74
     0
 49
3.174999999999999
 74
     0
 49
-3.174999999999999
 74
     0
  0
LTYPE
  5
4DED
330
5
100
AcDbSymbolTableRecord
100
AcDbLinetypeTableRecord
  2
中線
 70
     0
  3
___________________
 72
    65
 73
     2
 40
2.0
 49
1.0
 74
     0
 49
1.0
 74
     0
  0
LTYPE
  5
4DF6
330
5
100
AcDbSymbolTableRecord
100
AcDbLinetypeTableRecord
  2
細線
 70
     0
  3
___________________
 72
    65
 73
     2
 40
2.0
 49
1.0
 74
     0
 49
1.0
 74
     0
  0
LTYPE
  5
4DF7
330
5
100
AcDbSymbolTableRecord
100
AcDbLinetypeTableRecord
  2
太線
 70
     0
  3
___________________
 72
    65
 73
     2
 40
2.0
 49
1.0
 74
     0
 49
1.0
 74
     0
  0
LTYPE
  5
4EA7
330
5
100
AcDbSymbolTableRecord
100
AcDbLinetypeTableRecord
  2
文字
 70
     0
  3
_________________
 72
    65
 73
     2
 40
2.0
 49
1.0
 74
     0
 49
1.0
 74
     0
  0
LTYPE
  5
4EA9
330
5
100
AcDbSymbolTableRecord
100
AcDbLinetypeTableRecord
  2
寸法線
 70
     0
  3
________________
 72
    65
 73
     2
 40
2.0
 49
1.0
 74
     0
 49
1.0
 74
     0
  0
LTYPE
  5
4F12
330
5
100
AcDbSymbolTableRecord
100
AcDbLinetypeTableRecord
  2
ハッチング
 70
     0
  3
_________________
 72
    65
 73
     2
 40
2.0
 49
1.0
 74
     0
 49
1.0
 74
     0
  0
LTYPE
  5
5180
330
5
100
AcDbSymbolTableRecord
100
AcDbLinetypeTableRecord
  2
陰線1
 70
     0
  3
__ __ __ __
 72
    65
 73
     2
 40
4.0
 49
2.2
 74
     0
 49
-1.8
 74
     0
  0
LTYPE
  5
5182
330
5
100
AcDbSymbolTableRecord
100
AcDbLinetypeTableRecord
  2
切断線
 70
     0
  3
/\/-/\/-/\/-/\/-/\/-/\/
 72
    65
 73
     2
 40
11.0001
 49
0.0001
 74
     4
 75
   135
340
56
 46
0.04
 50
0.0
 44
0.0
 45
0.0
 49
-11.0
 74
     0
  0
LTYPE
  5
5183
330
5
100
AcDbSymbolTableRecord
100
AcDbLinetypeTableRecord
  2
想像線1
 70
     0
  3
__ __ __ _____ __ __ ____
 72
    65
 73
     6
 40
14.5
 49
6.0
 74
     0
 49
-1.5
 74
     0
 49
2.0
 74
     0
 49
-1.5
 74
     0
 49
2.0
 74
     0
 49
-1.5
 74
     0
  0
LTYPE
  5
5185
330
5
100
AcDbSymbolTableRecord
100
AcDbLinetypeTableRecord
  2
中心線1
 70
     0
  3
___ _ ___ _ ___
 72
    65
 73
     4
 40
18.0
 49
12.0
 74
     0
 49
-2.0
 74
     0
 49
2.0
 74
     0
 49
-2.0
 74
     0
  0
LTYPE
  5
5188
330
5
100
AcDbSymbolTableRecord
100
AcDbLinetypeTableRecord
  2
補助線
 70
     0
  3
______________
 72
    65
 73
     2
 40
2.0
 49
1.0
 74
     0
 49
1.0
 74
     0
  0
LTYPE
  5
6427
330
5
100
AcDbSymbolTableRecord
100
AcDbLinetypeTableRecord
  2
HIDDEN
 70
     0
  3
Hidden __ __ __ __ __ __ __ __ __ __ __ __ __ _
 72
    65
 73
     2
 40
0.375
 49
0.25
 74
     0
 49
-0.125
 74
     0
  0
LTYPE
  5
AC81
330
5
100
AcDbSymbolTableRecord
100
AcDbLinetypeTableRecord
  2
破断線
 70
     0
  3
/\/-/\/-/\/-/\/-/\/-/\/
 72
    65
 73
     2
 40
0.4401
 49
0.0001
 74
     4
 75
   136
340
AC80
 46
0.0016
 50
0.0
 44
0.0
 45
0.0
 49
-0.4400000000000001
 74
     0
  0
LTYPE
  5
AC9E
330
5
100
AcDbSymbolTableRecord
100
AcDbLinetypeTableRecord
  2
Amzigzag
 70
     0
  3
/\/-/\/-/\/-/\/-/\/-/\/
 72
    65
 73
     2
 40
11.0001
 49
0.0001
 74
     4
 75
   135
340
56
 46
0.04
 50
0.0
 44
0.0
 45
0.0
 49
-11.0
 74
     0
  0
LTYPE
  5
AF0F
330
5
100
AcDbSymbolTableRecord
100
AcDbLinetypeTableRecord
  2
genzigzag
 70
     0
  3
/\/-/\/-/\/-/\/-/\/-/\/
 72
    65
 73
     2
 40
12.0001
 49
0.0001
 74
     4
 75
   135
340
AC80
 46
2.0
 50
0.0
 44
0.0
 45
0.0
 49
-12.0
 74
     0
  0
LTYPE
  5
AF95
330
5
100
AcDbSymbolTableRecord
100
AcDbLinetypeTableRecord
  2
AM_ISO08W050
 70
     0
  3
____ . ____ . ____ . ____ . ____ . ____ . ____
 72
    65
 73
     4
 40
18.0
 49
12.0
 74
     0
 49
-1.5
 74
     0
 49
3.0
 74
     0
 49
-1.5
 74
     0
  0
LTYPE
  5
AF96
330
5
100
AcDbSymbolTableRecord
100
AcDbLinetypeTableRecord
  2
AM_ISO09W050
 70
     0
  3
_____ . . _____ . . _____ . . ____ .. ____
 72
    65
 73
     6
 40
22.5
 49
12.0
 74
     0
 49
-1.5
 74
     0
 49
3.0
 74
     0
 49
-1.5
 74
     0
 49
3.0
 74
     0
 49
-1.5
 74
     0
  0
LTYPE
  5
AF97
330
5
100
AcDbSymbolTableRecord
100
AcDbLinetypeTableRecord
  2
AM_ISO08W050x2
 70
     0
  3
__ . __ . __ . __ . __ . __
 72
    65
 73
     4
 40
9.0
 49
6.0
 74
     0
 49
-0.75
 74
     0
 49
1.5
 74
     0
 49
-0.75
 74
     0
  0
LTYPE
  5
AF98
330
5
100
AcDbSymbolTableRecord
100
AcDbLinetypeTableRecord
  2
AM_ISO02W050x2
 70
     0
  3
 _ _ _ _ _ _ _ _ _ _ _ _
 72
    65
 73
     2
 40
3.75
 49
3.0
 74
     0
 49
-0.75
 74
     0
  0
LTYPE
  5
D861
330
5
100
AcDbSymbolTableRecord
100
AcDbLinetypeTableRecord
  2
ACANSTGB
 70
     0
  3
__ . . __ . .
 72
    65
 73
     6
 40
0.35433070866
 49
0.15748031496
 74
     0
 49
-0.03937007874
 74
     0
 49
0.03937007874
 74
     0
 49
-0.03937007874
 74
     0
 49
0.03937007874
 74
     0
 49
-0.03937007874
 74
     0
  0
LTYPE
  5
D862
330
5
100
AcDbSymbolTableRecord
100
AcDbLinetypeTableRecord
  2
ACANSTGL
 70
     0
  3
_ _ _ _ _
 72
    65
 73
     2
 40
0.11811023622
 49
0.07874015748
 74
     0
 49
-0.03937007874
 74
     0
  0
LTYPE
  5
D863
330
5
100
AcDbSymbolTableRecord
100
AcDbLinetypeTableRecord
  2
陰線2
 70
     0
  3
_ _ _ _
 72
    65
 73
     2
 40
1.199999999999999
 49
0.7
 74
     0
 49
-0.5
 74
     0
  0
LTYPE
  5
D864
330
5
100
AcDbSymbolTableRecord
100
AcDbLinetypeTableRecord
  2
想像線2
 70
     0
  3
__ _ _ __ _ _ __
 72
    65
 73
     6
 40
6.9
 49
2.5
 74
     0
 49
-0.8
 74
     0
 49
1.0
 74
     0
 49
-0.8
 74
     0
 49
1.0
 74
     0
 49
-0.8
 74
     0
  0
LTYPE
  5
D865
330
5
100
AcDbSymbolTableRecord
100
AcDbLinetypeTableRecord
  2
中心線2
 70
     0
  3
 -+-
 72
    65
 73
     4
 40
9.5
 49
6.0
 74
     0
 49
-1.0
 74
     0
 49
1.5
 74
     0
 49
-1.0
 74
     0
  0
LTYPE
  5
D866
330
5
100
AcDbSymbolTableRecord
100
AcDbLinetypeTableRecord
  2
中心線3
 70
     0
  3
 +
 72
    65
 73
     4
 40
3.799999999999999
 49
2.0
 74
     0
 49
-0.6
 74
     0
 49
0.6
 74
     0
 49
-0.6
 74
     0
  0
LTYPE
  5
D867
330
5
100
AcDbSymbolTableRecord
100
AcDbLinetypeTableRecord
  2
CENTER2
 70
     0
  3
Center (.5x) ___ _ ___ _ ___ _ ___ _ ___ _ ___
 72
    65
 73
     4
 40
1.125
 49
0.75
 74
     0
 49
-0.125
 74
     0
 49
0.125
 74
     0
 49
-0.125
 74
     0
  0
LTYPE
  5
D868
330
5
100
AcDbSymbolTableRecord
100
AcDbLinetypeTableRecord
  2
HIDDEN2
 70
     0
  3
Hidden (.5x) _ _ _ _ _ _ _ _ _ _ _ _ _ _ _ _ _
 72
    65
 73
     2
 40
0.1875
 49
0.125
 74
     0
 49
-0.0625
 74
     0
  0
LTYPE
  5
D869
330
5
100
AcDbSymbolTableRecord
100
AcDbLinetypeTableRecord
  2
Amzigzag2
 70
     0
  3
/\/-/\/-/\/-/\/-/\/-/\/
 72
    65
 73
     2
 40
0.4401
 49
0.0001
 74
     4
 75
   135
340
56
 46
0.0016
 50
0.0
 44
0.0
 45
0.0
 49
-0.4400000000000001
 74
     0
  0
LTYPE
  5
D86A
330
5
100
AcDbSymbolTableRecord
100
AcDbLinetypeTableRecord
  2
ACANSTGBM
 70
     0
  3
__ . . __ . .
 72
    65
 73
     6
 40
9.0
 49
4.0
 74
     0
 49
-1.0
 74
     0
 49
1.0
 74
     0
 49
-1.0
 74
     0
 49
1.0
 74
     0
 49
-1.0
 74
     0
  0
LTYPE
  5
D86B
330
5
100
AcDbSymbolTableRecord
100
AcDbLinetypeTableRecord
  2
ACANSTGLM
 70
     0
  3
_ _ _ _ _
 72
    65
 73
     2
 40
3.0
 49
2.0
 74
     0
 49
-1.0
 74
     0
  0
LTYPE
  5
D86C
330
5
100
AcDbSymbolTableRecord
100
AcDbLinetypeTableRecord
  2
想像線
 70
     0
  3
__ __ __ _____ __ __ ____
 72
    65
 73
     6
 40
12.5
 49
5.0
 74
     0
 49
-1.5
 74
     0
 49
1.5
 74
     0
 49
-1.5
 74
     0
 49
1.5
 74
     0
 49
-1.5
 74
     0
  0
LTYPE
  5
D86D
330
5
100
AcDbSymbolTableRecord
100
AcDbLinetypeTableRecord
  2
ASULTYPE
 70
     0
  3
実線
 72
    65
 73
     2
 40
3.0
 49
2.5
 74
     0
 49
0.5
 74
     0
  0
LTYPE
  5
D86E
330
5
100
AcDbSymbolTableRecord
100
AcDbLinetypeTableRecord
  2
ASVLTYPE
 70
     0
  3
__ __ __ __ __ __ __ __ __ __ __ __ __ __ __ __ __ __ __ __ __
 72
    65
 73
     2
 40
0.75
 49
0.5
 74
     0
 49
-0.25
 74
     0
  0
ENDTAB
  0
TABLE
  2
LAYER
  5
2
102
{ACAD_XDICTIONARY
360
3F95
102
}
330
0
100
AcDbSymbolTable
 70
    36
  0
LAYER
  5
10
330
2
100
AcDbSymbolTableRecord
100
AcDbLayerTableRecord
  2
0
 70
     0
 62
     7
  6
Continuous
370
    -3
390
F
  0
LAYER
  5
6D1
330
2
100
AcDbSymbolTableRecord
100
AcDbLayerTableRecord
  2
Defpoints
 70
     0
 62
     7
  6
Continuous
290
     0
370
    -3
390
F
  0
LAYER
  5
5F85
330
2
100
AcDbSymbolTableRecord
100
AcDbLayerTableRecord
  2
AM_0
 70
     0
 62
     7
  6
中線
370
    25
390
F
1001
AcAecLayerStandard
1000

1000

  0
LAYER
  5
AC9F
330
2
100
AcDbSymbolTableRecord
100
AcDbLayerTableRecord
  2
size
 70
     0
 62
     5
  6
Continuous
290
     0
370
    25
390
F
  0
LAYER
  5
ACA0
330
2
100
AcDbSymbolTableRecord
100
AcDbLayerTableRecord
  2
waku
 70
     0
 62
     7
  6
Continuous
370
    35
390
F
  0
LAYER
  5
ACA1
330
2
100
AcDbSymbolTableRecord
100
AcDbLayerTableRecord
  2
AM_6
 70
     0
 62
     2
  6
文字
370
    15
390
F
1001
AcAecLayerStandard
1000

1000

  0
LAYER
  5
ACC8
330
2
100
AcDbSymbolTableRecord
100
AcDbLayerTableRecord
  2
hyomoji
 70
     0
 62
     2
  6
Continuous
370
    15
390
F
  0
LAYER
  5
ACC9
330
2
100
AcDbSymbolTableRecord
100
AcDbLayerTableRecord
  2
hyosen1
 70
     0
 62
     1
  6
Continuous
370
    25
390
F
  0
LAYER
  5
ACCA
330
2
100
AcDbSymbolTableRecord
100
AcDbLayerTableRecord
  2
hyosen2
 70
     0
 62
     1
  6
Continuous
370
    15
390
F
  0
LAYER
  5
AD60
330
2
100
AcDbSymbolTableRecord
100
AcDbLayerTableRecord
  2
AM_1
 70
     0
 62
    30
  6
太線
370
    35
390
F
1001
AcAecLayerStandard
1000

1000

  0
LAYER
  5
AD64
330
2
100
AcDbSymbolTableRecord
100
AcDbLayerTableRecord
  2
AM_2
 70
     0
 62
     1
  6
細線
370
    15
390
F
1001
AcAecLayerStandard
1000

1000

  0
LAYER
  5
AD67
330
2
100
AcDbSymbolTableRecord
100
AcDbLayerTableRecord
  2
AM_3
 70
     0
 62
     6
  6
陰線1
370
    15
390
F
1001
AcAecLayerStandard
1000

1000

  0
LAYER
  5
AD68
330
2
100
AcDbSymbolTableRecord
100
AcDbLayerTableRecord
  2
AM_5
 70
     0
 62
     3
  6
寸法線
370
    15
390
F
1001
AcAecLayerStandard
1000

1000

  0
LAYER
  5
AD69
330
2
100
AcDbSymbolTableRecord
100
AcDbLayerTableRecord
  2
AM_7
 70
     0
 62
     4
  6
中心線1
370
    15
390
F
1001
AcAecLayerStandard
1000

1000

  0
LAYER
  5
AD6A
330
2
100
AcDbSymbolTableRecord
100
AcDbLayerTableRecord
  2
AM_8
 70
     0
 62
     1
  6
ハッチング
370
    15
390
F
1001
AcAecLayerStandard
1000

1000

  0
LAYER
  5
AD6E
330
2
100
AcDbSymbolTableRecord
100
AcDbLayerTableRecord
  2
AM_10
 70
     0
 62
     7
  6
切断線
370
    25
390
F
1001
AcAecLayerStandard
1000

1000

  0
LAYER
  5
AD6F
330
2
100
AcDbSymbolTableRecord
100
AcDbLayerTableRecord
  2
AM_11
 70
     0
 62
     2
  6
想像線1
370
    15
390
F
1001
AcAecLayerStandard
1000

1000

  0
LAYER
  5
B1B6
330
2
100
AcDbSymbolTableRecord
100
AcDbLayerTableRecord
  2
AM_CL
 70
     0
 62
     1
  6
Amconstr
370
    15
390
F
1001
AcAecLayerStandard
1000

1000

  0
LAYER
  5
B2EB
330
2
100
AcDbSymbolTableRecord
100
AcDbLayerTableRecord
  2
AM_14
 70
     0
 62
     5
  6
細線
370
     9
390
F
1001
AcAecLayerStandard
1000

1000

  0
LAYER
  5
B2EC
330
2
100
AcDbSymbolTableRecord
100
AcDbLayerTableRecord
  2
AM_15
 70
     0
 62
     6
  6
陰線1
370
     9
390
F
1001
AcAecLayerStandard
1000

1000

  0
LAYER
  5
D86F
102
{ACAD_XDICTIONARY
360
D870
102
}
330
2
100
AcDbSymbolTableRecord
100
AcDbLayerTableRecord
  2
1
 70
     0
 62
     7
  6
Continuous
370
    -3
390
F
  0
LAYER
  5
D872
102
{ACAD_XDICTIONARY
360
D873
102
}
330
2
100
AcDbSymbolTableRecord
100
AcDbLayerTableRecord
  2
AM_BOR
 70
     0
 62
     7
  6
Continuous
370
    15
390
F
  0
LAYER
  5
D875
102
{ACAD_XDICTIONARY
360
D876
102
}
330
2
100
AcDbSymbolTableRecord
100
AcDbLayerTableRecord
  2
AM_4
 70
     0
 62
     3
  6
補助線
370
    15
390
F
  0
LAYER
  5
D878
102
{ACAD_XDICTIONARY
360
D879
102
}
330
2
100
AcDbSymbolTableRecord
100
AcDbLayerTableRecord
  2
AM_FEA-AM_1
 70
     0
 62
    30
  6
太線
370
    25
390
F
  0
LAYER
  5
D87B
102
{ACAD_XDICTIONARY
360
D87C
102
}
330
2
100
AcDbSymbolTableRecord
100
AcDbLayerTableRecord
  2
AM_FEA-AM_6
 70
     0
 62
     2
  6
文字
370
    15
390
F
  0
LAYER
  5
D87E
102
{ACAD_XDICTIONARY
360
D87F
102
}
330
2
100
AcDbSymbolTableRecord
100
AcDbLayerTableRecord
  2
AM_12
 70
     0
 62
     7
  6
Continuous
290
     0
370
    15
390
F
  0
LAYER
  5
D881
102
{ACAD_XDICTIONARY
360
D882
102
}
330
2
100
AcDbSymbolTableRecord
100
AcDbLayerTableRecord
  2
AM_PAREF
 70
     0
 62
     4
  6
Continuous
290
     0
370
    15
390
F
  0
LAYER
  5
D884
102
{ACAD_XDICTIONARY
360
D885
102
}
330
2
100
AcDbSymbolTableRecord
100
AcDbLayerTableRecord
  2
busen1
 70
     0
 62
    30
  6
Continuous
370
    40
390
F
  0
LAYER
  5
D887
102
{ACAD_XDICTIONARY
360
D888
102
}
330
2
100
AcDbSymbolTableRecord
100
AcDbLayerTableRecord
  2
busen2
 70
     0
 62
     2
  6
Continuous
370
    20
390
F
  0
LAYER
  5
D88A
102
{ACAD_XDICTIONARY
360
D88B
102
}
330
2
100
AcDbSymbolTableRecord
100
AcDbLayerTableRecord
  2
PV0001_1
 70
     0
 62
     7
  6
Continuous
370
    -3
390
F
  0
LAYER
  5
D88D
102
{ACAD_XDICTIONARY
360
D88E
102
}
330
2
100
AcDbSymbolTableRecord
100
AcDbLayerTableRecord
  2
点-AM_0
 70
     0
 62
     7
  6
中線
370
    25
390
F
  0
LAYER
  5
D890
102
{ACAD_XDICTIONARY
360
D891
102
}
330
2
100
AcDbSymbolTableRecord
100
AcDbLayerTableRecord
  2
点-AM_1
 70
     0
 62
    30
  6
太線
370
    25
390
F
  0
LAYER
  5
D893
102
{ACAD_XDICTIONARY
360
D894
102
}
330
2
100
AcDbSymbolTableRecord
100
AcDbLayerTableRecord
  2
点-AM_2
 70
     0
 62
     1
  6
細線
370
    15
390
F
  0
LAYER
  5
D896
102
{ACAD_XDICTIONARY
360
D897
102
}
330
2
100
AcDbSymbolTableRecord
100
AcDbLayerTableRecord
  2
点-AM_7
 70
     0
 62
     4
  6
中心線1
370
    15
390
F
  0
LAYER
  5
D899
102
{ACAD_XDICTIONARY
360
D89A
102
}
330
2
100
AcDbSymbolTableRecord
100
AcDbLayerTableRecord
  2
点-AM_11
 70
     0
 62
     2
  6
想像線1
370
    15
390
F
  0
LAYER
  5
D89C
102
{ACAD_XDICTIONARY
360
D89D
102
}
330
2
100
AcDbSymbolTableRecord
100
AcDbLayerTableRecord
  2
子図情報-AM_0
 70
     0
 62
     7
  6
中線
370
    25
390
F
  0
ENDTAB
  0
TABLE
  2
STYLE
  5
3
330
0
100
AcDbSymbolTable
 70
    11
  0
STYLE
  5
11
330
3
100
AcDbSymbolTableRecord
100
AcDbTextStyleTableRecord
  2
STANDARD
 70
     0
 40
0.0
 41
0.7
 50
0.0
 71
     0
 42
3.2
  3
romans.shx
  4
extfont.shx
  0
STYLE
  5
56
330
3
100
AcDbSymbolTableRecord
100
AcDbTextStyleTableRecord
  2

 70
     1
 40
0.0
 41
1.0
 50
0.0
 71
     0
 42
2.5
  3
ltypeshp.shx
  4

  0
STYLE
  5
58
330
3
100
AcDbSymbolTableRecord
100
AcDbTextStyleTableRecord
  2
ACISOTS
 70
     0
 40
1.0
 41
1.0
 50
0.0
 71
     0
 42
2.5
  3
isocp.shx
  4
extfont.shx
  0
STYLE
  5
63
330
3
100
AcDbSymbolTableRecord
100
AcDbTextStyleTableRecord
  2
ACISOGDT
 70
     0
 40
0.0
 41
1.0
 50
0.0
 71
     0
 42
2.5
  3
amgdt.shx
  4

  0
STYLE
  5
A74
330
3
100
AcDbSymbolTableRecord
100
AcDbTextStyleTableRecord
  2
DIM
 70
     0
 40
0.0
 41
1.0
 50
0.0
 71
     0
 42
2.5
  3
monotxt.shx
  4
extfont.shx
  0
STYLE
  5
AC80
330
3
100
AcDbSymbolTableRecord
100
AcDbTextStyleTableRecord
  2

 70
     1
 40
0.0
 41
1.0
 50
0.0
 71
     0
 42
3.2
  3
genltshp.shx
  4

  0
STYLE
  5
D89F
330
3
100
AcDbSymbolTableRecord
100
AcDbTextStyleTableRecord
  2
ACANSTS
 70
     0
 40
1.0
 41
1.0
 50
0.0
 71
     0
 42
0.2
  3
romans.shx
  4
extfont.shx
  0
STYLE
  5
D8A0
330
3
100
AcDbSymbolTableRecord
100
AcDbTextStyleTableRecord
  2
ACANSGDT
 70
     0
 40
0.0
 41
1.0
 50
0.0
 71
     0
 42
0.2
  3
amgdtans.shx
  4

  0
STYLE
  5
D8A1
330
3
100
AcDbSymbolTableRecord
100
AcDbTextStyleTableRecord
  2
USER1
 70
     0
 40
0.0
 41
1.0
 50
0.0
 71
     0
 42
2.5
  3
TXT.SHX
  4

  0
STYLE
  5
D8A2
330
3
100
AcDbSymbolTableRecord
100
AcDbTextStyleTableRecord
  2
USER2
 70
     0
 40
0.0
 41
1.0
 50
0.0
 71
     0
 42
2.5
  3
SIMPLEX.SHX
  4

  0
STYLE
  5
D8A3
330
3
100
AcDbSymbolTableRecord
100
AcDbTextStyleTableRecord
  2
USER3
 70
     0
 40
0.0
 41
1.0
 50
0.0
 71
     0
 42
2.5
  3
ITALIC.SHX
  4

  0
ENDTAB
  0
TABLE
  2
VIEW
  5
6
330
0
100
AcDbSymbolTable
 70
     6
  0
VIEW
  5
AE1
330
6
100
AcDbSymbolTableRecord
100
AcDbViewTableRecord
  2
AM_VIEW1
 70
     0
 40
129.7276464542651
 10
1775.10588156276
 20
1793.121228859297
 41
148.5
 11
0.0
 21
0.0
 31
1.0
 12
0.0
 22
0.0
 32
0.0
 42
50.0
 43
-1370.695619172058
 44
-1370.695619172058
 50
0.0
 71
    16
281
     0
 72
     0
  0
VIEW
  5
AE2
330
6
100
AcDbSymbolTableRecord
100
AcDbViewTableRecord
  2
AM_VIEW2
 70
     0
 40
129.7276464542651
 10
1923.60588156276
 20
1793.121228859297
 41
148.5
 11
0.0
 21
0.0
 31
1.0
 12
0.0
 22
0.0
 32
0.0
 42
50.0
 43
-1370.695619172058
 44
-1370.695619172058
 50
0.0
 71
    16
281
     0
 72
     0
  0
VIEW
  5
AE3
330
6
100
AcDbSymbolTableRecord
100
AcDbViewTableRecord
  2
AM_VIEW3
 70
     0
 40
129.7276464542651
 10
1775.10588156276
 20
1712.848875313562
 41
148.5
 11
0.0
 21
0.0
 31
1.0
 12
0.0
 22
0.0
 32
0.0
 42
50.0
 43
-1370.695619172058
 44
-1370.695619172058
 50
0.0
 71
    16
281
     0
 72
     0
  0
VIEW
  5
AE4
330
6
100
AcDbSymbolTableRecord
100
AcDbViewTableRecord
  2
AM_VIEW4
 70
     0
 40
129.7276464542651
 10
1923.60588156276
 20
1712.848875313562
 41
148.5
 11
0.0
 21
0.0
 31
1.0
 12
0.0
 22
0.0
 32
0.0
 42
50.0
 43
-1370.695619172058
 44
-1370.695619172058
 50
0.0
 71
    16
281
     0
 72
     0
  0
VIEW
  5
AE5
330
6
100
AcDbSymbolTableRecord
100
AcDbViewTableRecord
  2
AM_VIEW5
 70
     0
 40
129.7276464542651
 10
1849.35588156276
 20
1752.985052086429
 41
148.5
 11
0.0
 21
0.0
 31
1.0
 12
0.0
 22
0.0
 32
0.0
 42
50.0
 43
-1370.695619172058
 44
-1370.695619172058
 50
0.0
 71
    16
281
     0
 72
     0
  0
VIEW
  5
AE6
330
6
100
AcDbSymbolTableRecord
100
AcDbViewTableRecord
  2
AM_VIEW6
 70
     0
 40
259.4526983556011
 10
1849.35588156276
 20
1752.985052086429
 41
296.99703
 11
0.0
 21
0.0
 31
1.0
 12
0.0
 22
0.0
 32
0.0
 42
50.0
 43
-1370.695619172058
 44
-1370.695619172058
 50
0.0
 71
    16
281
     0
 72
     0
  0
ENDTAB
  0
TABLE
  2
UCS
  5
7
330
0
100
AcDbSymbolTable
 70
     0
  0
ENDTAB
  0
TABLE
  2
APPID
  5
9
330
0
100
AcDbSymbolTable
 70
    56
  0
APPID
  5
12
330
9
100
AcDbSymbolTableRecord
100
AcDbRegAppTableRecord
  2
ACAD
 70
     0
  0
APPID
  5
30
330
9
100
AcDbSymbolTableRecord
100
AcDbRegAppTableRecord
  2
MCAD_NO_VIS
 70
     0
  0
APPID
  5
31
330
9
100
AcDbSymbolTableRecord
100
AcDbRegAppTableRecord
  2
ACAD_TEMP_GRAPHIC
 70
     0
  0
APPID
  5
44
330
9
100
AcDbSymbolTableRecord
100
AcDbRegAppTableRecord
  2
ACATTRIBSERVICES
 70
     0
  0
APPID
  5
7A1
330
9
100
AcDbSymbolTableRecord
100
AcDbRegAppTableRecord
  2
GENIUS_GENDIMSH_14
 70
     0
  0
APPID
  5
A49
330
9
100
AcDbSymbolTableRecord
100
AcDbRegAppTableRecord
  2
GENIUS_GENREC_14
 70
     0
  0
APPID
  5
A4A
330
9
100
AcDbSymbolTableRecord
100
AcDbRegAppTableRecord
  2
GENIUS_GENOBJ-N-REC_13
 70
     0
  0
APPID
  5
A4B
330
9
100
AcDbSymbolTableRecord
100
AcDbRegAppTableRecord
  2
GENIUS_GENODEF_13
 70
     0
  0
APPID
  5
A4C
330
9
100
AcDbSymbolTableRecord
100
AcDbRegAppTableRecord
  2
DCO15
 70
     0
  0
APPID
  5
ADC
330
9
100
AcDbSymbolTableRecord
100
AcDbRegAppTableRecord
  2
GENIUS_GENOLIS_13
 70
     0
  0
APPID
  5
ADD
330
9
100
AcDbSymbolTableRecord
100
AcDbRegAppTableRecord
  2
GENIUS_GENOENT_13
 70
     0
  0
APPID
  5
ADE
330
9
100
AcDbSymbolTableRecord
100
AcDbRegAppTableRecord
  2
GENIUS_GENOBJ-N-TIT_13
 70
     0
  0
APPID
  5
ADF
330
9
100
AcDbSymbolTableRecord
100
AcDbRegAppTableRecord
  2
GENIUS_GENTITLE_13
 70
     0
  0
APPID
  5
AE0
330
9
100
AcDbSymbolTableRecord
100
AcDbRegAppTableRecord
  2
GENIUS_GENOREF_13
 70
     0
  0
APPID
  5
AE7
330
9
100
AcDbSymbolTableRecord
100
AcDbRegAppTableRecord
  2
GENIUS_GENSCREG_15
 70
     0
  0
APPID
  5
AE8
330
9
100
AcDbSymbolTableRecord
100
AcDbRegAppTableRecord
  2
GENIUS_GENOBJ-N-SDF_13
 70
     0
  0
APPID
  5
FAF
330
9
100
AcDbSymbolTableRecord
100
AcDbRegAppTableRecord
  2
GENIUS_GENBLLY_14
 70
     0
  0
APPID
  5
FB0
330
9
100
AcDbSymbolTableRecord
100
AcDbRegAppTableRecord
  2
GENIUS_GENTRA_14
 70
     0
  0
APPID
  5
1285
330
9
100
AcDbSymbolTableRecord
100
AcDbRegAppTableRecord
  2
GENIUS_GENDTOL_13
 70
     0
  0
APPID
  5
142D
330
9
100
AcDbSymbolTableRecord
100
AcDbRegAppTableRecord
  2
GENIUS_GENOBJ-N-CEN_13
 70
     0
  0
APPID
  5
1AB5
330
9
100
AcDbSymbolTableRecord
100
AcDbRegAppTableRecord
  2
GENIUS_GENOBJ-N-CRS_13
 70
     0
  0
APPID
  5
1B36
330
9
100
AcDbSymbolTableRecord
100
AcDbRegAppTableRecord
  2
GENIUS_GENOBJ-N-HTC_13
 70
     0
  0
APPID
  5
1B37
330
9
100
AcDbSymbolTableRecord
100
AcDbRegAppTableRecord
  2
GENIUS_GENHATCH_13
 70
     0
  0
APPID
  5
216D
330
9
100
AcDbSymbolTableRecord
100
AcDbRegAppTableRecord
  2
GENIUS_GENOBJ-N-FIL_13
 70
     0
  0
APPID
  5
2356
330
9
100
AcDbSymbolTableRecord
100
AcDbRegAppTableRecord
  2
GEVID990412420
 70
     0
  0
APPID
  5
2357
330
9
100
AcDbSymbolTableRecord
100
AcDbRegAppTableRecord
  2
GEVDC
 70
     0
  0
APPID
  5
2358
330
9
100
AcDbSymbolTableRecord
100
AcDbRegAppTableRecord
  2
GEVCON
 70
     0
  0
APPID
  5
235B
330
9
100
AcDbSymbolTableRecord
100
AcDbRegAppTableRecord
  2
GEVRADREF
 70
     0
  0
APPID
  5
2360
330
9
100
AcDbSymbolTableRecord
100
AcDbRegAppTableRecord
  2
GENIUS_GENBH_13
 70
     0
  0
APPID
  5
2362
330
9
100
AcDbSymbolTableRecord
100
AcDbRegAppTableRecord
  2
GENIUS_GENOBJ-NBEHI-BHF_13
 70
     0
  0
APPID
  5
2364
330
9
100
AcDbSymbolTableRecord
100
AcDbRegAppTableRecord
  2
GENIUS_GENOBJ-NBEHI-BHB_13
 70
     0
  0
APPID
  5
2379
330
9
100
AcDbSymbolTableRecord
100
AcDbRegAppTableRecord
  2
GENIUS_GENOBJ-F-SCPASSM_13
 70
     0
  0
APPID
  5
3D74
330
9
100
AcDbSymbolTableRecord
100
AcDbRegAppTableRecord
  2
GENIUS_GENDIM_13
 70
     0
  0
APPID
  5
3D76
330
9
100
AcDbSymbolTableRecord
100
AcDbRegAppTableRecord
  2
GENIUS_GE3DTOL_13
 70
     0
  0
APPID
  5
3D9C
330
9
100
AcDbSymbolTableRecord
100
AcDbRegAppTableRecord
  2
AD_DRAW
 70
     0
  0
APPID
  5
3DE8
330
9
100
AcDbSymbolTableRecord
100
AcDbRegAppTableRecord
  2
ASURF_PCURVE_APPNAME
 70
     0
  0
APPID
  5
3DED
330
9
100
AcDbSymbolTableRecord
100
AcDbRegAppTableRecord
  2
AMG_3D2D_5.0
 70
     0
  0
APPID
  5
3E1B
330
9
100
AcDbSymbolTableRecord
100
AcDbRegAppTableRecord
  2
DESIGNERASSEMBLIES
 70
     0
  0
APPID
  5
3E20
330
9
100
AcDbSymbolTableRecord
100
AcDbRegAppTableRecord
  2
ACADM_DIM_EDIT
 70
     0
  0
APPID
  5
3E21
330
9
100
AcDbSymbolTableRecord
100
AcDbRegAppTableRecord
  2
AMDT_DM_ADJ
 70
     0
  0
APPID
  5
4143
330
9
100
AcDbSymbolTableRecord
100
AcDbRegAppTableRecord
  2
GENIUS_GENFIL_13
 70
     0
  0
APPID
  5
4144
330
9
100
AcDbSymbolTableRecord
100
AcDbRegAppTableRecord
  2
GENIUS_GENOBJ-N-CHA_13
 70
     0
  0
APPID
  5
4E17
330
9
100
AcDbSymbolTableRecord
100
AcDbRegAppTableRecord
  2
GEVID1008153417
 70
     0
  0
APPID
  5
4E58
330
9
100
AcDbSymbolTableRecord
100
AcDbRegAppTableRecord
  2
GEVID1008153418
 70
     0
  0
APPID
  5
4E5E
330
9
100
AcDbSymbolTableRecord
100
AcDbRegAppTableRecord
  2
GEVID1008153419
 70
     0
  0
APPID
  5
4E64
330
9
100
AcDbSymbolTableRecord
100
AcDbRegAppTableRecord
  2
GEVID1008153420
 70
     0
  0
APPID
  5
4E75
330
9
100
AcDbSymbolTableRecord
100
AcDbRegAppTableRecord
  2
GEVID1008153421
 70
     0
  0
APPID
  5
4EB7
330
9
100
AcDbSymbolTableRecord
100
AcDbRegAppTableRecord
  2
GENIUS_AMGTXT_16
 70
     0
  0
APPID
  5
7645
330
9
100
AcDbSymbolTableRecord
100
AcDbRegAppTableRecord
  2
GENIUS_GENOBJ-N-DIM_13
 70
     0
  0
APPID
  5
AAD0
330
9
100
AcDbSymbolTableRecord
100
AcDbRegAppTableRecord
  2
ACAD_DSTYLE_DIMARC_LENGTH_SYMBOL
 70
     0
  0
APPID
  5
AAD1
330
9
100
AcDbSymbolTableRecord
100
AcDbRegAppTableRecord
  2
ACAD_DSTYLE_DIMJOGGED_JOGANGLE_SYMBOL
 70
     0
  0
APPID
  5
AAFD
330
9
100
AcDbSymbolTableRecord
100
AcDbRegAppTableRecord
  2
ACAD_PSEXT
 70
     0
  0
APPID
  5
AD61
330
9
100
AcDbSymbolTableRecord
100
AcDbRegAppTableRecord
  2
AcAecLayerStandard
 70
     0
  0
APPID
  5
AEE3
330
9
100
AcDbSymbolTableRecord
100
AcDbRegAppTableRecord
  2
ACAD_EXEMPT_FROM_CAD_STANDARDS
 70
     0
  0
APPID
  5
B1BE
330
9
100
AcDbSymbolTableRecord
100
AcDbRegAppTableRecord
  2
GENIUS_GENCEN_19
 70
     0
  0
APPID
  5
D8B6
330
9
100
AcDbSymbolTableRecord
100
AcDbRegAppTableRecord
  2
ACAD_MLEADERVER
 70
     0
  0
ENDTAB
  0
TABLE
  2
DIMSTYLE
  5
A
330
0
100
AcDbSymbolTable
 70
    38
100
AcDbDimStyleTable
 71
     1
340
2515
  0
DIMSTYLE
105
A76
330
A
100
AcDbSymbolTableRecord
100
AcDbDimStyleTableRecord
  2
STANDARD
 70
     0
 41
3.0
 42
1.0
 43
7.0
 44
2.0
 73
     0
 74
     0
 77
     1
140
2.799999999999999
141
0.0
143
0.0394
147
0.7
171
     4
172
     1
173
     1
176
     3
177
     3
178
     2
271
     3
272
     3
273
     8
274
     4
289
     0
340
A74
341
A66
343
A66
344
A66
  0
DIMSTYLE
105
2515
330
A
100
AcDbSymbolTableRecord
100
AcDbDimStyleTableRecord
  2
SYS
 70
     0
  4
"
 41
1.0
 42
1.0
 43
10.0
 44
1.0
 47
0.1
 48
0.1
 73
     0
 74
     0
 77
     1
 78
     8
 79
     2
140
3.5
141
0.0
143
0.0393701
146
0.71
147
1.5
172
     1
176
   256
177
   256
178
     7
271
     2
272
     2
283
     0
284
     8
340
11
371
    -1
372
    -1
1001
ACAD_DSTYLE_DIMJOGGED_JOGANGLE_SYMBOL
1070
   384
1040
0.7853981633974483
1001
ACAD_DSTYLE_DIMARC_LENGTH_SYMBOL
1070
   379
1070
     1
  0
DIMSTYLE
105
2516
330
A
100
AcDbSymbolTableRecord
100
AcDbDimStyleTableRecord
  2
SYS$3
 70
     0
  4
"
 41
2.0
 42
1.0
 43
10.0
 44
1.0
 47
0.1
 48
0.1
 73
     0
 77
     1
 78
     8
 79
     2
140
3.5
141
0.0
143
0.0393701
146
0.71
147
1.5
176
   256
177
   256
178
     2
271
     2
272
     2
283
     0
284
     8
288
     1
340
11
342
A66
371
    -1
372
    -1
1001
ACAD_DSTYLE_DIMJOGGED_JOGANGLE_SYMBOL
1070
   384
1040
0.7853981633974483
1001
ACAD_DSTYLE_DIMARC_LENGTH_SYMBOL
1070
   379
1070
     1
  0
DIMSTYLE
105
2517
330
A
100
AcDbSymbolTableRecord
100
AcDbDimStyleTableRecord
  2
SYS$4
 70
     0
  4
"
 41
2.0
 42
1.0
 43
10.0
 44
1.0
 47
0.1
 48
0.1
 73
     0
 77
     1
 78
     8
 79
     2
140
3.5
141
0.0
143
0.0393701
146
0.71
147
1.5
173
     1
176
   256
177
   256
178
     2
271
     2
272
     2
283
     0
284
     8
288
     1
340
11
344
A66
371
    -1
372
    -1
1001
ACAD_DSTYLE_DIMJOGGED_JOGANGLE_SYMBOL
1070
   384
1040
0.7853981633974483
1001
ACAD_DSTYLE_DIMARC_LENGTH_SYMBOL
1070
   379
1070
     1
  0
DIMSTYLE
105
2518
330
A
100
AcDbSymbolTableRecord
100
AcDbDimStyleTableRecord
  2
SYS$6
 70
     0
  4
"
 41
2.0
 42
1.0
 43
10.0
 44
1.0
 47
0.1
 48
0.1
 73
     0
 74
     0
 78
     8
 79
     2
140
3.5
141
0.0
143
0.0393701
146
0.71
147
1.5
172
     1
176
   256
177
   256
178
     2
271
     2
272
     2
283
     0
284
     8
340
11
341
A66
371
    -1
372
    -1
1001
ACAD_DSTYLE_DIMJOGGED_JOGANGLE_SYMBOL
1070
   384
1040
0.7853981633974483
1001
ACAD_DSTYLE_DIMARC_LENGTH_SYMBOL
1070
   379
1070
     1
  0
DIMSTYLE
105
2519
330
A
100
AcDbSymbolTableRecord
100
AcDbDimStyleTableRecord
  2
SYS$7
 70
     0
  4
"
 41
2.0
 42
1.0
 43
10.0
 44
1.0
 47
0.1
 48
0.1
 73
     0
 74
     0
 77
     1
 78
     8
 79
     2
140
5.0
141
0.0
143
0.0393701
146
0.71
147
1.5
172
     1
176
   256
177
   256
178
     2
271
     2
272
     2
283
     0
284
     8
340
11
341
A66
342
A66
371
    -1
372
    -1
1001
ACAD_DSTYLE_DIMJOGGED_JOGANGLE_SYMBOL
1070
   384
1040
0.7853981633974483
1001
ACAD_DSTYLE_DIMARC_LENGTH_SYMBOL
1070
   379
1070
     1
  0
DIMSTYLE
105
251A
330
A
100
AcDbSymbolTableRecord
100
AcDbDimStyleTableRecord
  2
SYS$SF
 70
     0
  4
"
 41
2.5
 42
1.0
 43
10.0
 44
1.0
 47
0.1
 48
0.1
 73
     0
 74
     0
 75
     1
 76
     1
 77
     1
 78
     8
 79
     2
140
3.5
141
0.0
143
0.0393701
146
0.71
147
1.5
172
     1
176
   256
177
   256
178
     2
271
     2
272
     3
283
     0
284
     8
340
11
341
6C4
342
6C4
371
    -1
372
    -1
1001
ACAD_DSTYLE_DIMJOGGED_JOGANGLE_SYMBOL
1070
   384
1040
0.7853981633974483
1001
ACAD_DSTYLE_DIMARC_LENGTH_SYMBOL
1070
   379
1070
     1
  0
DIMSTYLE
105
251B
330
A
100
AcDbSymbolTableRecord
100
AcDbDimStyleTableRecord
  2
SYS$SH
 70
     0
  4
"
 41
2.5
 42
1.0
 43
10.0
 44
1.0
 47
0.1
 48
0.1
 73
     0
 74
     0
 75
     1
 76
     1
 77
     1
 78
     8
 79
     2
140
3.5
141
0.0
143
0.0393701
144
2.0
146
0.71
147
1.5
172
     1
173
     1
176
   256
177
   256
178
     2
271
     2
272
     3
283
     0
284
     8
340
11
341
6C4
343
72
344
6C4
371
    -1
372
    -1
1001
ACAD_DSTYLE_DIMJOGGED_JOGANGLE_SYMBOL
1070
   384
1040
0.7853981633974483
1001
ACAD_DSTYLE_DIMARC_LENGTH_SYMBOL
1070
   379
1070
     1
  0
DIMSTYLE
105
2A59
330
A
100
AcDbSymbolTableRecord
100
AcDbDimStyleTableRecord
  2
SYS$2
 70
     0
  4
"
 41
1.0
 42
1.0
 43
10.0
 44
1.0
 47
0.1
 48
0.1
 73
     0
 74
     0
 77
     1
 78
     8
 79
     2
140
3.5
141
0.0
143
0.0393701
146
0.71
147
1.5
172
     1
176
   256
177
   256
178
     2
271
     2
272
     2
283
     0
284
     8
340
11
342
6C4
371
    -1
372
    -1
1001
ACAD_DSTYLE_DIMJOGGED_JOGANGLE_SYMBOL
1070
   384
1040
0.7853981633974483
1001
ACAD_DSTYLE_DIMARC_LENGTH_SYMBOL
1070
   379
1070
     1
  0
DIMSTYLE
105
2AAB
102
{ACAD_REACTORS
330
D1FF
330
D201
330
D27C
330
D27D
330
D27E
330
D27F
330
D282
330
D289
330
D28A
330
D28B
330
D28E
330
D290
330
D291
330
D295
330
D298
330
D299
330
D29B
330
D29E
330
D78C
330
D7A2
330
E3DA
102
}
330
A
100
AcDbSymbolTableRecord
100
AcDbDimStyleTableRecord
  2
SYS$0
 70
     0
  4
"
 41
1.0
 42
1.0
 43
10.0
 44
1.0
 47
0.1
 48
0.1
 73
     0
 74
     0
 77
     1
 78
     8
 79
     2
140
3.200000000000001
141
0.0
143
0.0393701
146
0.71
147
1.5
172
     1
176
   256
177
   256
178
     2
271
     2
272
     2
283
     0
284
     8
340
11
341
A66
342
6C4
371
    -1
372
    -1
1001
ACAD_DSTYLE_DIMJOGGED_JOGANGLE_SYMBOL
1070
   384
1040
0.7853981633974483
1001
ACAD_DSTYLE_DIMARC_LENGTH_SYMBOL
1070
   379
1070
     1
  0
DIMSTYLE
105
AF99
330
A
100
AcDbSymbolTableRecord
100
AcDbDimStyleTableRecord
  2
AM_ISO
 70
     0
  4
"
 41
2.5
 42
1.0
 43
10.0
 44
1.0
 47
0.1
 48
0.1
 73
     0
 74
     0
 77
     1
 78
     8
 79
     2
140
3.5
141
0.0
143
0.0393701
146
0.71
147
1.5
172
     1
176
   256
177
   256
178
     2
271
     2
272
     3
274
     4
283
     0
284
     8
340
11
371
    -1
372
    -1
  0
DIMSTYLE
105
AF9A
330
A
100
AcDbSymbolTableRecord
100
AcDbDimStyleTableRecord
  2
AM_ISO$3
 70
     0
  4
"
 41
2.5
 42
1.0
 43
10.0
 44
1.0
 47
0.1
 48
0.1
 73
     0
 77
     1
 78
     8
 79
     2
140
3.5
141
0.0
143
0.0393701
146
0.71
147
1.5
176
   256
177
   256
178
     2
271
     2
272
     3
274
     4
283
     0
284
     8
288
     1
289
     0
340
11
371
    -1
372
    -1
  0
DIMSTYLE
105
AF9B
330
A
100
AcDbSymbolTableRecord
100
AcDbDimStyleTableRecord
  2
AM_ISO$4
 70
     0
  4
"
 41
2.5
 42
1.0
 43
10.0
 44
1.0
 47
0.1
 48
0.1
 73
     0
 77
     1
 78
     8
 79
     2
140
3.5
141
0.0
143
0.0393701
146
0.71
147
1.5
176
   256
177
   256
178
     2
271
     2
272
     3
274
     4
283
     0
284
     8
288
     1
289
     0
340
11
371
    -1
372
    -1
  0
DIMSTYLE
105
AF9C
330
A
100
AcDbSymbolTableRecord
100
AcDbDimStyleTableRecord
  2
AM_ISO$6
 70
     0
  4
"
 41
2.5
 42
1.0
 43
10.0
 44
1.0
 47
0.1
 48
0.1
 73
     0
 74
     0
 78
     8
 79
     2
140
3.5
141
0.0
143
0.0393701
146
0.71
147
1.5
172
     1
176
   256
177
   256
178
     2
271
     2
272
     3
274
     4
283
     0
284
     8
340
11
371
    -1
372
    -1
  0
DIMSTYLE
105
AF9D
330
A
100
AcDbSymbolTableRecord
100
AcDbDimStyleTableRecord
  2
AM_ISO$7
 70
     0
  4
"
 41
2.5
 42
1.0
 43
10.0
 44
1.0
 47
0.1
 48
0.1
 73
     0
 74
     0
 77
     1
 78
     8
 79
     2
140
5.0
141
0.0
143
0.0393701
146
0.71
147
1.5
172
     1
176
   256
177
   256
178
     2
271
     2
272
     3
274
     4
283
     0
284
     8
340
11
371
    -1
372
    -1
  0
DIMSTYLE
105
AF9E
330
A
100
AcDbSymbolTableRecord
100
AcDbDimStyleTableRecord
  2
AM_ISO$SF
 70
     0
  4
"
 41
2.5
 42
1.0
 43
10.0
 44
1.0
 47
0.1
 48
0.1
 73
     0
 74
     0
 75
     1
 76
     1
 77
     1
 78
     8
 79
     2
140
3.5
141
0.0
143
0.0393701
146
0.71
147
1.5
172
     1
176
   256
177
   256
178
     2
271
     2
272
     3
274
     4
283
     0
284
     8
340
11
371
    -1
372
    -1
  0
DIMSTYLE
105
AF9F
330
A
100
AcDbSymbolTableRecord
100
AcDbDimStyleTableRecord
  2
AM_ISO$SH
 70
     0
  4
"
 41
2.5
 42
1.0
 43
10.0
 44
1.0
 47
0.1
 48
0.1
 73
     0
 74
     0
 75
     1
 76
     1
 77
     1
 78
     8
 79
     2
140
3.5
141
0.0
143
0.0393701
144
2.0
146
0.71
147
1.5
172
     1
173
     1
176
   256
177
   256
178
     2
271
     2
272
     3
274
     4
283
     0
284
     8
340
11
343
72
371
    -1
372
    -1
  0
DIMSTYLE
105
B4E7
330
A
100
AcDbSymbolTableRecord
100
AcDbDimStyleTableRecord
  2
AM_ISO$0
 70
     0
  4
"
 41
0.8
 42
1.0
 43
10.0
 44
1.0
 47
0.1
 48
0.1
 73
     0
 74
     0
 77
     1
 78
     8
 79
     2
140
3.2
141
0.0
143
0.0393701
146
0.71
147
0.9999999999999996
172
     1
176
   256
177
   256
178
     2
271
     2
272
     2
283
     0
284
     8
340
11
341
6C4
342
6C4
371
    -1
372
    -1
1001
ACAD_DSTYLE_DIMJOGGED_JOGANGLE_SYMBOL
1070
   384
1040
0.7853981633974483
1001
ACAD_DSTYLE_DIMARC_LENGTH_SYMBOL
1070
   379
1070
     1
  0
DIMSTYLE
105
B4E8
330
A
100
AcDbSymbolTableRecord
100
AcDbDimStyleTableRecord
  2
AM_ISO$2
 70
     0
  4
"
 41
0.8
 42
1.0
 43
10.0
 44
1.0
 47
0.1
 48
0.1
 73
     0
 74
     0
 77
     3
 78
     8
 79
     2
140
3.200000000000001
141
0.0
143
0.0393701
146
0.71
147
0.9999999999999996
172
     1
176
   256
177
   256
178
     2
271
     2
272
     2
283
     0
284
     8
340
11
342
6C4
371
    -1
372
    -1
1001
ACAD_DSTYLE_DIMJOGGED_JOGANGLE_SYMBOL
1070
   384
1040
0.7853981633974483
1001
ACAD_DSTYLE_DIMARC_LENGTH_SYMBOL
1070
   379
1070
     1
  0
DIMSTYLE
105
B4E9
330
A
100
AcDbSymbolTableRecord
100
AcDbDimStyleTableRecord
  2
AM_ANSI
 70
     0
  4
mm
 41
0.1
 42
0.05
 43
0.5
 44
0.1
 47
0.1
 48
0.1
 78
     7
 79
     2
140
0.12
141
0.0
146
0.71
147
0.06
176
   256
177
   256
178
     2
274
     4
284
     7
340
11
371
    -1
372
    -1
1001
ACAD_DSTYLE_DIMJOGGED_JOGANGLE_SYMBOL
1070
   384
1040
0.7853981633974483
1001
ACAD_DSTYLE_DIMARC_LENGTH_SYMBOL
1070
   379
1070
     1
  0
DIMSTYLE
105
D8A4
330
A
100
AcDbSymbolTableRecord
100
AcDbDimStyleTableRecord
  2
AM_ANSI$3
 70
     0
  4
mm
 41
0.1
 42
0.05
 43
0.5
 44
0.1
 47
0.1
 48
0.1
 78
     7
 79
     2
140
0.12
141
0.0
146
0.71
147
0.06
176
   256
177
   256
178
     2
274
     4
284
     7
288
     1
289
     0
340
11
371
    -1
372
    -1
1001
ACAD_DSTYLE_DIMJOGGED_JOGANGLE_SYMBOL
1070
   384
1040
0.7853981633974483
1001
ACAD_DSTYLE_DIMARC_LENGTH_SYMBOL
1070
   379
1070
     1
  0
DIMSTYLE
105
D8A5
330
A
100
AcDbSymbolTableRecord
100
AcDbDimStyleTableRecord
  2
AM_ANSI$4
 70
     0
  4
mm
 41
0.1
 42
0.05
 43
0.5
 44
0.1
 47
0.1
 48
0.1
 78
     7
 79
     2
140
0.12
141
0.0
146
0.71
147
0.06
176
   256
177
   256
178
     2
274
     4
284
     7
288
     1
289
     0
340
11
371
    -1
372
    -1
1001
ACAD_DSTYLE_DIMJOGGED_JOGANGLE_SYMBOL
1070
   384
1040
0.7853981633974483
1001
ACAD_DSTYLE_DIMARC_LENGTH_SYMBOL
1070
   379
1070
     1
  0
DIMSTYLE
105
D8A6
330
A
100
AcDbSymbolTableRecord
100
AcDbDimStyleTableRecord
  2
AM_ANSI$7
 70
     0
  4
mm
 41
0.1
 42
0.05
 43
0.5
 44
0.1
 47
0.1
 48
0.1
 78
     7
 79
     2
140
0.24
141
0.0
146
0.71
147
0.06
176
   256
177
   256
178
     2
274
     4
284
     7
340
11
371
    -1
372
    -1
1001
ACAD_DSTYLE_DIMJOGGED_JOGANGLE_SYMBOL
1070
   384
1040
0.7853981633974483
1001
ACAD_DSTYLE_DIMARC_LENGTH_SYMBOL
1070
   379
1070
     1
  0
DIMSTYLE
105
D8A7
330
A
100
AcDbSymbolTableRecord
100
AcDbDimStyleTableRecord
  2
AM_ANSI$SF
 70
     0
  4
mm
 41
0.1
 42
0.05
 43
0.5
 44
0.1
 47
0.1
 48
0.1
 75
     1
 76
     1
 78
     7
 79
     2
140
0.12
141
0.0
146
0.71
147
0.06
176
   256
177
   256
178
     2
274
     4
284
     7
340
11
371
    -1
372
    -1
1001
ACAD_DSTYLE_DIMJOGGED_JOGANGLE_SYMBOL
1070
   384
1040
0.7853981633974483
1001
ACAD_DSTYLE_DIMARC_LENGTH_SYMBOL
1070
   379
1070
     1
  0
DIMSTYLE
105
D8A8
330
A
100
AcDbSymbolTableRecord
100
AcDbDimStyleTableRecord
  2
AM_ANSI$SH
 70
     0
  4
mm
 41
0.1
 42
0.05
 43
0.5
 44
0.1
 47
0.1
 48
0.1
 75
     1
 76
     1
 78
     7
 79
     2
140
0.12
141
0.0
146
0.71
147
0.06
173
     1
176
   256
177
   256
178
     2
274
     4
284
     7
340
11
343
72
371
    -1
372
    -1
1001
ACAD_DSTYLE_DIMJOGGED_JOGANGLE_SYMBOL
1070
   384
1040
0.7853981633974483
1001
ACAD_DSTYLE_DIMARC_LENGTH_SYMBOL
1070
   379
1070
     1
  0
DIMSTYLE
105
D8A9
330
A
100
AcDbSymbolTableRecord
100
AcDbDimStyleTableRecord
  2
SYSORG4P0
 70
     0
  4
"
 41
1.0
 42
1.0
 43
10.0
 44
1.0
 47
0.1
 48
0.1
 73
     0
 74
     0
 77
     1
 78
     8
 79
     2
140
3.5
141
0.0
143
0.0393701
144
3.999999618530336
146
0.71
147
1.5
172
     1
176
   256
177
   256
178
     7
271
     2
272
     2
283
     0
284
     8
340
11
371
    -1
372
    -1
  0
DIMSTYLE
105
D8AA
330
A
100
AcDbSymbolTableRecord
100
AcDbDimStyleTableRecord
  2
SYSORG4P0$0
 70
     0
  4
"
 41
1.0
 42
1.0
 43
10.0
 44
1.0
 47
0.1
 48
0.1
 73
     0
 74
     0
 77
     1
 78
     8
 79
     2
140
3.200000000000001
141
0.0
143
0.0393701
144
3.999999618530336
146
0.71
147
1.5
172
     1
176
   256
177
   256
178
     2
271
     2
272
     2
283
     0
284
     8
340
11
341
A66
342
6C4
371
    -1
372
    -1
  0
DIMSTYLE
105
D8AB
330
A
100
AcDbSymbolTableRecord
100
AcDbDimStyleTableRecord
  2
SYSORG2P0
 70
     0
  4
"
 41
1.0
 42
1.0
 43
10.0
 44
1.0
 47
0.1
 48
0.1
 73
     0
 74
     0
 77
     1
 78
     8
 79
     2
140
3.5
141
0.0
143
0.0393701
144
1.999999841054212
146
0.71
147
1.5
172
     1
176
   256
177
   256
178
     7
271
     2
272
     2
283
     0
284
     8
340
11
371
    -1
372
    -1
  0
DIMSTYLE
105
D8AC
330
A
100
AcDbSymbolTableRecord
100
AcDbDimStyleTableRecord
  2
SYSORG2P0$0
 70
     0
  4
"
 41
1.0
 42
1.0
 43
10.0
 44
1.0
 47
0.1
 48
0.1
 73
     0
 74
     0
 77
     1
 78
     8
 79
     2
140
3.200000000000001
141
0.0
143
0.0393701
144
1.999999841054212
146
0.71
147
1.5
172
     1
176
   256
177
   256
178
     2
271
     2
272
     2
283
     0
284
     8
340
11
341
A66
342
6C4
371
    -1
372
    -1
  0
DIMSTYLE
105
D8AD
330
A
100
AcDbSymbolTableRecord
100
AcDbDimStyleTableRecord
  2
SYMBOL
 70
     0
  4
"
 41
2.5
 42
1.0
 43
10.0
 44
1.0
 47
0.1
 48
0.1
 73
     0
 74
     0
 77
     1
 78
     8
 79
     2
140
3.5
141
0.0
143
0.0393701
146
0.71
147
1.5
172
     1
176
   256
177
   256
178
     7
271
     2
272
     3
274
     4
283
     0
284
     8
340
11
371
    -1
372
    -1
  0
DIMSTYLE
105
D8AE
330
A
100
AcDbSymbolTableRecord
100
AcDbDimStyleTableRecord
  2
SYMBOLSORG244P0
 70
     0
  4
"
 41
2.5
 42
1.0
 43
10.0
 44
1.0
 47
0.1
 48
0.1
 73
     0
 74
     0
 77
     1
 78
     8
 79
     2
140
3.5
141
0.0
143
0.0393701
144
4.000000575803018
146
0.71
147
1.5
172
     1
176
   256
177
   256
178
     7
271
     2
272
     3
274
     4
283
     0
284
     8
340
11
371
    -1
372
    -1
  0
DIMSTYLE
105
D8AF
330
A
100
AcDbSymbolTableRecord
100
AcDbDimStyleTableRecord
  2
SYMBOLSORG254P0
 70
     0
  4
"
 41
2.5
 42
1.0
 43
10.0
 44
1.0
 47
0.1
 48
0.1
 73
     0
 74
     0
 77
     1
 78
     8
 79
     2
140
3.5
141
0.0
143
0.0393701
144
4.0
146
0.71
147
1.5
172
     1
176
   256
177
   256
178
     7
271
     2
272
     3
274
     4
283
     0
284
     8
340
11
371
    -1
372
    -1
  0
DIMSTYLE
105
D8B0
330
A
100
AcDbSymbolTableRecord
100
AcDbDimStyleTableRecord
  2
SYSORG3P0
 70
     0
  4
"
 41
1.0
 42
1.0
 43
10.0
 44
1.0
 47
0.1
 48
0.1
 73
     0
 74
     0
 77
     1
 78
     8
 79
     2
140
3.5
141
0.0
143
0.0393701
144
3.000000058715038
146
0.71
147
1.5
172
     1
176
   256
177
   256
178
     7
271
     2
272
     2
283
     0
284
     8
340
11
371
    -1
372
    -1
  0
DIMSTYLE
105
D8B1
330
A
100
AcDbSymbolTableRecord
100
AcDbDimStyleTableRecord
  2
SYSORG3P0$0
 70
     0
  4
"
 41
1.0
 42
1.0
 43
10.0
 44
1.0
 47
0.1
 48
0.1
 73
     0
 74
     0
 77
     1
 78
     8
 79
     2
140
3.200000000000001
141
0.0
143
0.0393701
144
3.000000058715038
146
0.71
147
1.5
172
     1
176
   256
177
   256
178
     2
271
     2
272
     2
283
     0
284
     8
340
11
341
A66
342
6C4
371
    -1
372
    -1
  0
DIMSTYLE
105
D8B2
330
A
100
AcDbSymbolTableRecord
100
AcDbDimStyleTableRecord
  2
SYMBOLSORG34P0
 70
     0
  4
"
 41
2.5
 42
1.0
 43
10.0
 44
1.0
 47
0.1
 48
0.1
 73
     0
 74
     0
 77
     1
 78
     8
 79
     2
140
3.5
141
0.0
143
0.0393701
144
4.0
146
0.71
147
1.5
172
     1
176
   256
177
   256
178
     7
271
     2
272
     3
274
     4
283
     0
284
     8
340
11
371
    -1
372
    -1
  0
DIMSTYLE
105
D8B3
330
A
100
AcDbSymbolTableRecord
100
AcDbDimStyleTableRecord
  2
SYMBOLSORG44P0
 70
     0
  4
"
 41
2.5
 42
1.0
 43
10.0
 44
1.0
 47
0.1
 48
0.1
 73
     0
 74
     0
 77
     1
 78
     8
 79
     2
140
3.5
141
0.0
143
0.0393701
144
4.0
146
0.71
147
1.5
172
     1
176
   256
177
   256
178
     7
271
     2
272
     3
274
     4
283
     0
284
     8
340
11
371
    -1
372
    -1
  0
DIMSTYLE
105
D8B4
330
A
100
AcDbSymbolTableRecord
100
AcDbDimStyleTableRecord
  2
SYMBOLSORG54P0
 70
     0
  4
"
 41
2.5
 42
1.0
 43
10.0
 44
1.0
 47
0.1
 48
0.1
 73
     0
 74
     0
 77
     1
 78
     8
 79
     2
140
3.5
141
0.0
143
0.0393701
144
4.0
146
0.71
147
1.5
172
     1
176
   256
177
   256
178
     7
271
     2
272
     3
274
     4
283
     0
284
     8
340
11
371
    -1
372
    -1
  0
DIMSTYLE
105
D8B5
330
A
100
AcDbSymbolTableRecord
100
AcDbDimStyleTableRecord
  2
SYMBOLSORG64P0
 70
     0
  4
"
 41
2.5
 42
1.0
 43
10.0
 44
1.0
 47
0.1
 48
0.1
 73
     0
 74
     0
 77
     1
 78
     8
 79
     2
140
3.5
141
0.0
143
0.0393701
144
4.000001220703519
146
0.71
147
1.5
172
     1
176
   256
177
   256
178
     7
271
     2
272
     3
274
     4
283
     0
284
     8
340
11
371
    -1
372
    -1
  0
ENDTAB
  0
TABLE
  2
BLOCK_RECORD
  5
1
330
0
100
AcDbSymbolTable
 70
    33
  0
BLOCK_RECORD
  5
1F
102
{ACAD_XDICTIONARY
360
8A
102
}
330
1
100
AcDbSymbolTableRecord
100
AcDbBlockTableRecord
  2
*Model_Space
340
22
  0
BLOCK_RECORD
  5
1B
330
1
100
AcDbSymbolTableRecord
100
AcDbBlockTableRecord
  2
*Paper_Space
340
1E
  0
BLOCK_RECORD
  5
23
330
1
100
AcDbSymbolTableRecord
100
AcDbBlockTableRecord
  2
*Paper_Space0
340
26
  0
BLOCK_RECORD
  5
72
330
1
100
AcDbSymbolTableRecord
100
AcDbBlockTableRecord
  2
GENAXEH
340
0
  0
BLOCK_RECORD
  5
6C4
330
1
100
AcDbSymbolTableRecord
100
AcDbBlockTableRecord
  2
_Dot
340
0
102
{BLKREFS
331
EF2B
331
EF2C
331
EF34
331
EF35
331
EF3F
331
EF40
331
EF4E
331
EF4F
331
EF56
331
EF57
331
EF5F
331
EF60
331
EF68
331
EF69
331
EF71
331
EF72
331
EF7B
331
EF7C
331
EF84
331
EF85
331
EF8E
331
EF8F
331
EF96
331
EF97
331
EF9F
331
EFA0
331
EFA8
331
EFA9
331
EFBA
331
EFBB
331
EFC3
331
EFC4
331
EFCC
331
EFCD
331
EFD5
331
EFD6
331
EFE0
331
EFE1
331
EFEB
331
EFEC
331
F04E
331
F04F
102
}
  0
BLOCK_RECORD
  5
A66
330
1
100
AcDbSymbolTableRecord
100
AcDbBlockTableRecord
  2
_OPEN30
340
0
  0
BLOCK_RECORD
  5
BDE1
102
{ACAD_XDICTIONARY
360
BDE2
102
}
330
1
100
AcDbSymbolTableRecord
100
AcDbBlockTableRecord
  2
A$C27A855EC
340
0
102
{BLKREFS
331
D2C7
331
D2C8
102
}
1001
ACAD
1000
DesignCenter Data
1002
{
1070
     1
1070
     4
1002
}
  0
BLOCK_RECORD
  5
BDEA
102
{ACAD_XDICTIONARY
360
BDEB
102
}
330
1
100
AcDbSymbolTableRecord
100
AcDbBlockTableRecord
  2
A$C4E245893
340
0
102
{BLKREFS
331
D2CB
331
D2CC
102
}
1001
ACAD
1000
DesignCenter Data
1002
{
1070
     1
1070
     4
1002
}
  0
BLOCK_RECORD
  5
D2D0
330
1
100
AcDbSymbolTableRecord
100
AcDbBlockTableRecord
  2
*D7
340
0
  0
BLOCK_RECORD
  5
D2DC
330
1
100
AcDbSymbolTableRecord
100
AcDbBlockTableRecord
  2
*D8
340
0
  0
BLOCK_RECORD
  5
D2E8
330
1
100
AcDbSymbolTableRecord
100
AcDbBlockTableRecord
  2
*D9
340
0
  0
BLOCK_RECORD
  5
D2F6
330
1
100
AcDbSymbolTableRecord
100
AcDbBlockTableRecord
  2
*D10
340
0
  0
BLOCK_RECORD
  5
D307
330
1
100
AcDbSymbolTableRecord
100
AcDbBlockTableRecord
  2
*D11
340
0
  0
BLOCK_RECORD
  5
D313
330
1
100
AcDbSymbolTableRecord
100
AcDbBlockTableRecord
  2
*D12
340
0
  0
BLOCK_RECORD
  5
D337
330
1
100
AcDbSymbolTableRecord
100
AcDbBlockTableRecord
  2
*D13
340
0
  0
BLOCK_RECORD
  5
D343
330
1
100
AcDbSymbolTableRecord
100
AcDbBlockTableRecord
  2
*D14
340
0
  0
BLOCK_RECORD
  5
D34F
330
1
100
AcDbSymbolTableRecord
100
AcDbBlockTableRecord
  2
*D15
340
0
  0
BLOCK_RECORD
  5
D35C
330
1
100
AcDbSymbolTableRecord
100
AcDbBlockTableRecord
  2
*D16
340
0
  0
BLOCK_RECORD
  5
D374
330
1
100
AcDbSymbolTableRecord
100
AcDbBlockTableRecord
  2
*D17
340
0
  0
BLOCK_RECORD
  5
D38C
330
1
100
AcDbSymbolTableRecord
100
AcDbBlockTableRecord
  2
*D18
340
0
  0
BLOCK_RECORD
  5
D398
330
1
100
AcDbSymbolTableRecord
100
AcDbBlockTableRecord
  2
*D19
340
0
  0
BLOCK_RECORD
  5
D3B0
330
1
100
AcDbSymbolTableRecord
100
AcDbBlockTableRecord
  2
*D20
340
0
  0
BLOCK_RECORD
  5
D3BC
330
1
100
AcDbSymbolTableRecord
100
AcDbBlockTableRecord
  2
*D21
340
0
  0
BLOCK_RECORD
  5
D3C8
330
1
100
AcDbSymbolTableRecord
100
AcDbBlockTableRecord
  2
*D22
340
0
  0
BLOCK_RECORD
  5
D3D4
330
1
100
AcDbSymbolTableRecord
100
AcDbBlockTableRecord
  2
*D23
340
0
  0
BLOCK_RECORD
  5
D3E0
330
1
100
AcDbSymbolTableRecord
100
AcDbBlockTableRecord
  2
*D24
340
0
  0
BLOCK_RECORD
  5
D78D
330
1
100
AcDbSymbolTableRecord
100
AcDbBlockTableRecord
  2
*D25
340
0
  0
BLOCK_RECORD
  5
D7A3
330
1
100
AcDbSymbolTableRecord
100
AcDbBlockTableRecord
  2
*D26
340
0
  0
BLOCK_RECORD
  5
E3DB
330
1
100
AcDbSymbolTableRecord
100
AcDbBlockTableRecord
  2
*D27
340
0
  0
BLOCK_RECORD
  5
F0A5
330
1
100
AcDbSymbolTableRecord
100
AcDbBlockTableRecord
  2
*S28
340
0
  0
BLOCK_RECORD
  5
F0AF
330
1
100
AcDbSymbolTableRecord
100
AcDbBlockTableRecord
  2
*S29
340
0
  0
BLOCK_RECORD
  5
F0B9
330
1
100
AcDbSymbolTableRecord
100
AcDbBlockTableRecord
  2
*S30
340
0
  0
BLOCK_RECORD
  5
F0C3
330
1
100
AcDbSymbolTableRecord
100
AcDbBlockTableRecord
  2
*S31
340
0
  0
BLOCK_RECORD
  5
F0CD
330
1
100
AcDbSymbolTableRecord
100
AcDbBlockTableRecord
  2
*S32
340
0
  0
ENDTAB
  0
ENDSEC
  0
SECTION
  2
BLOCKS
  0
BLOCK
  5
20
330
1F
100
AcDbEntity
  8
0
100
AcDbBlockBegin
  2
*Model_Space
 70
     0
 10
0.0
 20
0.0
 30
0.0
  3
*Model_Space
  1

  0
ENDBLK
  5
21
330
1F
100
AcDbEntity
  8
0
100
AcDbBlockEnd
  0
BLOCK
  5
1C
330
1B
100
AcDbEntity
 67
     1
  8
0
100
AcDbBlockBegin
  2
*Paper_Space
 70
     0
 10
0.0
 20
0.0
 30
0.0
  3
*Paper_Space
  1

  0
ENDBLK
  5
1D
330
1B
100
AcDbEntity
 67
     1
  8
0
100
AcDbBlockEnd
  0
BLOCK
  5
24
330
23
100
AcDbEntity
 67
     1
  8
0
100
AcDbBlockBegin
  2
*Paper_Space0
 70
     0
 10
0.0
 20
0.0
 30
0.0
  3
*Paper_Space0
  1

  0
ENDBLK
  5
25
330
23
100
AcDbEntity
 67
     1
  8
0
100
AcDbBlockEnd
  0
BLOCK
  5
74
330
72
100
AcDbEntity
  8
0
100
AcDbBlockBegin
  2
GENAXEH
 70
     0
 10
0.0
 20
0.0
 30
0.0
  3
GENAXEH
  1

  0
LINE
  5
73
330
72
100
AcDbEntity
  8
0
100
AcDbLine
 10
-1.0
 20
0.0
 30
0.0
 11
1.0
 21
0.0
 31
0.0
  0
ENDBLK
  5
75
330
72
100
AcDbEntity
  8
0
100
AcDbBlockEnd
  0
BLOCK
  5
6C7
330
6C4
100
AcDbEntity
  8
0
100
AcDbBlockBegin
  2
_Dot
 70
     0
 10
0.0
 20
0.0
 30
0.0
  3
_Dot
  1

  0
LWPOLYLINE
  5
6C5
330
6C4
100
AcDbEntity
  8
0
  6
ByBlock
 62
     0
100
AcDbPolyline
 90
        2
 70
     1
 43
0.5
 10
-0.25
 20
0.0
 42
1.0
 10
0.25
 20
0.0
 42
1.0
  0
LINE
  5
6C6
330
6C4
100
AcDbEntity
  8
0
  6
ByBlock
 62
     0
370
    -2
100
AcDbLine
 10
-0.5
 20
0.0
 30
0.0
 11
-1.0
 21
0.0
 31
0.0
  0
ENDBLK
  5
6C8
330
6C4
100
AcDbEntity
  8
0
100
AcDbBlockEnd
  0
BLOCK
  5
A6A
330
A66
100
AcDbEntity
  8
0
100
AcDbBlockBegin
  2
_OPEN30
 70
     0
 10
0.0
 20
0.0
 30
0.0
  3
_OPEN30
  1

  0
LINE
  5
A67
330
A66
100
AcDbEntity
  8
0
  6
ByBlock
 62
     0
100
AcDbLine
 10
-1.0
 20
0.26794919
 30
0.0
 11
0.0
 21
0.0
 31
0.0
  0
LINE
  5
A68
330
A66
100
AcDbEntity
  8
0
  6
ByBlock
 62
     0
100
AcDbLine
 10
0.0
 20
0.0
 30
0.0
 11
-1.0
 21
-0.26794919
 31
0.0
  0
LINE
  5
A69
330
A66
100
AcDbEntity
  8
0
  6
ByBlock
 62
     0
100
AcDbLine
 10
0.0
 20
0.0
 30
0.0
 11
-1.0
 21
0.0
 31
0.0
  0
ENDBLK
  5
A6B
330
A66
100
AcDbEntity
  8
0
100
AcDbBlockEnd
  0
BLOCK
  5
BDE4
330
BDE1
100
AcDbEntity
  8
0
100
AcDbBlockBegin
  2
A$C27A855EC
 70
     0
 10
0.0
 20
0.0
 30
0.0
  3
A$C27A855EC
  1

  0
LWPOLYLINE
  5
BDE5
330
BDE1
100
AcDbEntity
  8
AM_0
100
AcDbPolyline
 90
        6
 70
     1
 43
0.0
 10
-74.2
 20
3.0
 10
74.19999999999999
 20
3.0
 42
-0.4142135623730951
 10
74.5
 20
2.699999999999988
 10
74.5
 20
1.0
 10
-74.5
 20
1.0
 10
-74.5
 20
2.699999999999988
 42
-0.4142135623730951
1001
GENIUS_GENREC_14
1002
{
1000
PYDIR
1011
-74.5
1021
1.0
1031
0.0
1002
}
1002
{
1000
PXDIR
1011
74.5
1021
3.0
1031
0.0
1002
}
1002
{
1000
PORI
1011
-74.5
1021
3.0
1031
0.0
1002
}
1002
{
1000
PINS
1011
-74.5
1021
3.0
1031
0.0
1002
}
1002
{
1000
PINS2
1011
74.5
1021
1.0
1031
0.0
1002
}
1002
{
1000
C
1070
     1
1002
}
1001
GENIUS_GENODEF_13
1002
{
1000
HIER
1070
     0
1002
}
1002
{
1000
MANEDIT
1070
     0
1002
}
1002
{
1000
NOSEL
1070
     0
1002
}
1002
{
1000
BEHIND
1070
     0
1002
}
1002
{
1000
OTHER
1070
     0
1002
}
1002
{
1000
REACTOR
1002
}
1001
GENIUS_GENOBJ-N-REC_13
1002
{
1000
OWNER
1000
GEN
1002
}
  0
LINE
  5
BDE6
330
BDE1
100
AcDbEntity
  8
AM_0
100
AcDbLine
 10
-63.5
 20
1.0
 30
0.0
 11
-62.5
 21
0.0
 31
0.0
  0
LINE
  5
BDE7
330
BDE1
100
AcDbEntity
  8
AM_0
100
AcDbLine
 10
63.5
 20
1.0
 30
0.0
 11
62.5
 21
0.0
 31
0.0
  0
LINE
  5
BDE8
330
BDE1
100
AcDbEntity
  8
AM_0
100
AcDbLine
 10
62.5
 20
0.0
 30
0.0
 11
-62.5
 21
0.0
 31
0.0
  0
ENDBLK
  5
BDE9
330
BDE1
100
AcDbEntity
  8
0
100
AcDbBlockEnd
  0
BLOCK
  5
BDED
330
BDEA
100
AcDbEntity
  8
0
100
AcDbBlockBegin
  2
A$C4E245893
 70
     0
 10
0.0
 20
0.0
 30
0.0
  3
A$C4E245893
  1

  0
LWPOLYLINE
  5
BDEE
330
BDEA
100
AcDbEntity
  8
AM_0
100
AcDbPolyline
 90
        6
 70
     1
 43
0.0
 10
13.44131439854959
 20
10.64657085913788
 10
15.14131439854958
 20
10.64657085913788
 42
-0.4142135623730951
 10
15.44131439854959
 20
10.34657085913788
 10
15.44131439854959
 20
-24.05342914086212
 42
-0.4142135623730951
 10
15.14131439854958
 20
-24.35342914086212
 10
13.44131439854959
 20
-24.35342914086212
1001
GENIUS_GENREC_14
1002
{
1000
PYDIR
1011
13.44131439854959
1021
-24.35342914086212
1031
0.0
1002
}
1002
{
1000
PXDIR
1011
15.44131439854959
1021
10.64657085913788
1031
0.0
1002
}
1002
{
1000
PORI
1011
13.44131439854959
1021
10.64657085913788
1031
0.0
1002
}
1002
{
1000
PINS
1011
13.44131439854959
1021
10.64657085913788
1031
0.0
1002
}
1002
{
1000
PINS2
1011
15.44131439854959
1021
-24.35342914086212
1031
0.0
1002
}
1002
{
1000
C
1070
     1
1002
}
1001
GENIUS_GENODEF_13
1002
{
1000
HIER
1070
     0
1002
}
1002
{
1000
MANEDIT
1070
     0
1002
}
1002
{
1000
NOSEL
1070
     0
1002
}
1002
{
1000
BEHIND
1070
     0
1002
}
1002
{
1000
OTHER
1070
     0
1002
}
1002
{
1000
REACTOR
1002
}
1001
GENIUS_GENOBJ-N-REC_13
1002
{
1000
OWNER
1000
GEN
1002
}
  0
LINE
  5
BDEF
330
BDEA
100
AcDbEntity
  8
AM_0
100
AcDbLine
 10
13.44131439854959
 20
6.146570859137881
 30
0.0
 11
15.14131439854964
 21
6.146570859137881
 31
0.0
  0
ARC
  5
BDF0
330
BDEA
100
AcDbEntity
  8
AM_0
100
AcDbCircle
 10
15.14131439854964
 20
5.84657085913787
 30
0.0
 40
0.3000000000000114
100
AcDbArc
 50
0.0000000000024427
 51
90.00000000000978
1001
GENIUS_GENREC_14
1002
{
1000
PYDIR
1011
13.44131439854959
1021
-28.85342914086212
1031
0.0
1002
}
1002
{
1000
PXDIR
1011
15.44131439854959
1021
6.146570859137881
1031
0.0
1002
}
1002
{
1000
PORI
1011
13.44131439854959
1021
6.146570859137881
1031
0.0
1002
}
1002
{
1000
PINS
1011
13.44131439854959
1021
6.146570859137881
1031
0.0
1002
}
1002
{
1000
PINS2
1011
15.44131439854959
1021
-28.85342914086212
1031
0.0
1002
}
1002
{
1000
C
1070
     1
1002
}
1001
GENIUS_GENODEF_13
1002
{
1000
HIER
1070
     0
1002
}
1002
{
1000
MANEDIT
1070
     0
1002
}
1002
{
1000
NOSEL
1070
     0
1002
}
1002
{
1000
BEHIND
1070
     0
1002
}
1002
{
1000
OTHER
1070
     0
1002
}
1002
{
1000
REACTOR
1002
}
1001
GENIUS_GENOBJ-N-REC_13
1002
{
1000
OWNER
1000
GEN
1002
}
  0
ENDBLK
  5
BDF1
330
BDEA
100
AcDbEntity
  8
0
100
AcDbBlockEnd
  0
BLOCK
  5
D2DA
330
D2D0
100
AcDbEntity
  8
0
100
AcDbBlockBegin
  2
*D7
 70
     1
 10
0.0
 20
0.0
 30
0.0
  3
*D7
  1

  0
LINE
  5
EF28
330
D2D0
100
AcDbEntity
  8
AM_5
100
AcDbLine
 10
351.7434749159384
 20
943.1082524189074
 30
0.0
 11
351.7434749159384
 21
1058.974466110911
 31
0.0
  0
LINE
  5
EF29
330
D2D0
100
AcDbEntity
  8
AM_5
100
AcDbLine
 10
451.7434749159384
 20
943.1082524189074
 30
0.0
 11
451.7434749159384
 21
1058.974466110911
 31
0.0
  0
LINE
  5
EF2A
330
D2D0
100
AcDbEntity
  8
AM_5
100
AcDbLine
 10
356.7434749159383
 20
1053.974466110911
 30
0.0
 11
446.7434749159383
 21
1053.974466110911
 31
0.0
  0
INSERT
  5
EF2B
330
D2D0
100
AcDbEntity
  8
AM_5
100
AcDbBlockReference
  2
_Dot
 10
351.7434749159384
 20
1053.974466110911
 30
0.0
 41
5.0
 42
5.0
 43
5.0
 50
180.0
  0
INSERT
  5
EF2C
330
D2D0
100
AcDbEntity
  8
AM_5
100
AcDbBlockReference
  2
_Dot
 10
451.7434749159384
 20
1053.974466110911
 30
0.0
 41
5.0
 42
5.0
 43
5.0
  0
MTEXT
  5
EF2D
330
D2D0
100
AcDbEntity
  8
AM_5
 62
     2
100
AcDbMText
 10
401.1813282578373
 20
1069.474466110911
 30
0.0
 40
16.0
 41
0.0
 71
     5
 72
     1
  1
100
 73
     1
 44
1.0
1001
ACAD
1000
MTEXTBEGIN
1070
    73
1070
     1
1070
    44
1040
1.0
1070
    74
1070
     0
1000
MTEXTEND
  0
POINT
  5
EF2E
330
D2D0
100
AcDbEntity
  8
Defpoints
 62
     0
100
AcDbPoint
 10
351.7434749159384
 20
938.1082524189073
 30
0.0
  0
POINT
  5
EF2F
330
D2D0
100
AcDbEntity
  8
Defpoints
 62
     0
100
AcDbPoint
 10
451.7434749159384
 20
938.1082524189073
 30
0.0
  0
POINT
  5
EF30
330
D2D0
100
AcDbEntity
  8
Defpoints
 62
     0
100
AcDbPoint
 10
451.7434749159384
 20
1053.974466110911
 30
0.0
  0
ENDBLK
  5
D2DB
330
D2D0
100
AcDbEntity
  8
0
100
AcDbBlockEnd
  0
BLOCK
  5
D2E6
330
D2DC
100
AcDbEntity
  8
0
100
AcDbBlockBegin
  2
*D8
 70
     1
 10
0.0
 20
0.0
 30
0.0
  3
*D8
  1

  0
LINE
  5
EF31
330
D2DC
100
AcDbEntity
  8
AM_5
100
AcDbLine
 10
376.7434749159384
 20
297.1080081931755
 30
0.0
 11
376.7434749159384
 21
237.1080081931754
 31
0.0
  0
LINE
  5
EF32
330
D2DC
100
AcDbEntity
  8
AM_5
100
AcDbLine
 10
426.7434749159384
 20
297.1080081931755
 30
0.0
 11
426.7434749159384
 21
237.1080081931754
 31
0.0
  0
LINE
  5
EF33
330
D2DC
100
AcDbEntity
  8
AM_5
100
AcDbLine
 10
381.7434749159383
 20
242.1080081931754
 30
0.0
 11
421.7434749159383
 21
242.1080081931754
 31
0.0
  0
INSERT
  5
EF34
330
D2DC
100
AcDbEntity
  8
AM_5
100
AcDbBlockReference
  2
_Dot
 10
376.7434749159384
 20
242.1080081931754
 30
0.0
 41
5.0
 42
5.0
 43
5.0
 50
180.0
  0
INSERT
  5
EF35
330
D2DC
100
AcDbEntity
  8
AM_5
100
AcDbBlockReference
  2
_Dot
 10
426.7434749159384
 20
242.1080081931754
 30
0.0
 41
5.0
 42
5.0
 43
5.0
  0
MTEXT
  5
EF36
330
D2DC
100
AcDbEntity
  8
AM_5
 62
     2
100
AcDbMText
 10
401.7434749159383
 20
257.6080081931754
 30
0.0
 40
16.0
 41
0.0
 71
     5
 72
     1
  1
50
 73
     1
 44
1.0
1001
ACAD
1000
MTEXTBEGIN
1070
    73
1070
     1
1070
    44
1040
1.0
1070
    74
1070
     0
1000
MTEXTEND
  0
POINT
  5
EF37
330
D2DC
100
AcDbEntity
  8
Defpoints
 62
     0
100
AcDbPoint
 10
376.7434749159384
 20
302.1080081931755
 30
0.0
  0
POINT
  5
EF38
330
D2DC
100
AcDbEntity
  8
Defpoints
 62
     0
100
AcDbPoint
 10
426.7434749159384
 20
302.1080081931755
 30
0.0
  0
POINT
  5
EF39
330
D2DC
100
AcDbEntity
  8
Defpoints
 62
     0
100
AcDbPoint
 10
426.7434749159384
 20
242.1080081931754
 30
0.0
  0
ENDBLK
  5
D2E7
330
D2DC
100
AcDbEntity
  8
0
100
AcDbBlockEnd
  0
BLOCK
  5
D2F4
330
D2E8
100
AcDbEntity
  8
0
100
AcDbBlockBegin
  2
*D9
 70
     1
 10
0.0
 20
0.0
 30
0.0
  3
*D9
  1

  0
LINE
  5
EF3A
330
D2E8
100
AcDbEntity
  8
AM_5
100
AcDbLine
 10
929.3332150220104
 20
290.1082715834732
 30
0.0
 11
991.3332150220105
 21
290.1082715834732
 31
0.0
  0
LINE
  5
EF3B
330
D2E8
100
AcDbEntity
  8
AM_5
100
AcDbLine
 10
895.8332150220103
 20
300.1082715834732
 30
0.0
 11
991.3332150220105
 21
300.1082715834731
 31
0.0
  0
LINE
  5
EF3C
330
D2E8
100
AcDbEntity
  8
AM_5
100
AcDbLine
 10
986.3332150220104
 20
305.1082715834732
 30
0.0
 11
986.3332150220104
 21
310.1082715834731
 31
0.0
  0
LINE
  5
EF3D
330
D2E8
100
AcDbEntity
  8
AM_5
100
AcDbLine
 10
986.3332150220104
 20
285.1082715834732
 30
0.0
 11
986.3332150220102
 21
247.7429011179208
 31
0.0
  0
LINE
  5
EF3E
330
D2E8
100
AcDbEntity
  8
AM_5
100
AcDbLine
 10
986.3332150220104
 20
300.1082715834731
 30
0.0
 11
986.3332150220104
 21
290.1082715834732
 31
0.0
  0
INSERT
  5
EF3F
330
D2E8
100
AcDbEntity
  8
AM_5
100
AcDbBlockReference
  2
_Dot
 10
986.3332150220104
 20
300.1082715834731
 30
0.0
 41
5.0
 42
5.0
 43
5.0
 50
270.0
  0
INSERT
  5
EF40
330
D2E8
100
AcDbEntity
  8
AM_5
100
AcDbBlockReference
  2
_Dot
 10
986.3332150220104
 20
290.1082715834732
 30
0.0
 41
5.0
 42
5.0
 43
5.0
 50
90.0
  0
MTEXT
  5
EF41
330
D2E8
100
AcDbEntity
  8
AM_5
 62
     2
100
AcDbMText
 10
970.8332150220103
 20
263.5095677845876
 30
0.0
 40
16.0
 41
0.0
 71
     5
 72
     1
  1
10
 11
0.0000000000000001
 21
1.0
 31
0.0
 73
     1
 44
1.0
1001
ACAD
1000
MTEXTBEGIN
1070
    73
1070
     1
1070
    44
1040
1.0
1070
    74
1070
     0
1000
MTEXTEND
  0
POINT
  5
EF42
330
D2E8
100
AcDbEntity
  8
Defpoints
 62
     0
100
AcDbPoint
 10
924.3332150220103
 20
290.1082715834732
 30
0.0
  0
POINT
  5
EF43
330
D2E8
100
AcDbEntity
  8
Defpoints
 62
     0
100
AcDbPoint
 10
890.8332150220102
 20
300.1082715834732
 30
0.0
  0
POINT
  5
EF44
330
D2E8
100
AcDbEntity
  8
Defpoints
 62
     0
100
AcDbPoint
 10
986.3332150220104
 20
300.1082715834731
 30
0.0
  0
ENDBLK
  5
D2F5
330
D2E8
100
AcDbEntity
  8
0
100
AcDbBlockEnd
  0
BLOCK
  5
D305
330
D2F6
100
AcDbEntity
  8
0
100
AcDbBlockBegin
  2
*D10
 70
     1
 10
0.0
 20
0.0
 30
0.0
  3
*D10
  1

  0
LINE
  5
EF45
330
D2F6
100
AcDbEntity
  8
AM_5
100
AcDbLine
 10
895.8332150220103
 20
300.1082715834732
 30
0.0
 11
991.3332150220103
 21
300.1082715834731
 31
0.0
  0
LINE
  5
EF46
330
D2F6
100
AcDbEntity
  8
AM_5
100
AcDbLine
 10
895.8332150220103
 20
310.1082715834732
 30
0.0
 11
991.3332150220103
 21
310.1082715834731
 31
0.0
  0
LINE
  5
EF47
330
D2F6
100
AcDbEntity
  8
AM_5
100
AcDbLine
 10
986.3332150220102
 20
295.1082715834731
 30
0.0
 11
986.3332150220102
 21
290.1082715834732
 31
0.0
  0
LINE
  5
EF48
330
D2F6
100
AcDbEntity
  8
AM_5
100
AcDbLine
 10
986.3332150220102
 20
315.1082715834732
 30
0.0
 11
986.3332150220102
 21
320.1082715834731
 31
0.0
  0
LINE
  5
EF49
330
D2F6
100
AcDbEntity
  8
AM_5
100
AcDbLine
 10
986.3332150220102
 20
305.1082715834732
 30
0.0
 11
1034.025066077043
 21
273.2294614520796
 31
0.0
  0
LINE
  5
EF4A
330
D2F6
100
AcDbEntity
  8
AM_5
100
AcDbLine
 10
1034.025066077043
 20
273.2294614520796
 30
0.0
 11
1034.025066077043
 21
241.6961281187462
 31
0.0
  0
MTEXT
  5
EF4B
330
D2F6
100
AcDbEntity
  8
AM_5
 62
     2
100
AcDbMText
 10
1018.525066077043
 20
257.4627947854131
 30
0.0
 40
16.0
 41
0.0
 71
     5
 72
     1
  1
10
 11
0.0000000000000001
 21
1.0
 31
0.0
 73
     1
 44
1.0
1001
ACAD
1000
MTEXTBEGIN
1070
    73
1070
     1
1070
    44
1040
1.0
1070
    74
1070
     0
1000
MTEXTEND
  0
LINE
  5
EF4C
330
D2F6
100
AcDbEntity
  8
AM_5
100
AcDbLine
 10
986.3332150220102
 20
300.1082715834731
 30
0.0
 11
986.3332150220102
 21
310.1082715834731
 31
0.0
  0
LINE
  5
EF4D
330
D2F6
100
AcDbEntity
  8
AM_5
100
AcDbLine
 10
986.3332150220102
 20
300.1082715834731
 30
0.0
 11
986.3332150220102
 21
310.1082715834731
 31
0.0
  0
INSERT
  5
EF4E
330
D2F6
100
AcDbEntity
  8
AM_5
100
AcDbBlockReference
  2
_Dot
 10
986.3332150220102
 20
300.1082715834731
 30
0.0
 41
5.0
 42
5.0
 43
5.0
 50
90.0
  0
INSERT
  5
EF4F
330
D2F6
100
AcDbEntity
  8
AM_5
100
AcDbBlockReference
  2
_Dot
 10
986.3332150220102
 20
310.1082715834731
 30
0.0
 41
5.0
 42
5.0
 43
5.0
 50
270.0
  0
POINT
  5
EF50
330
D2F6
100
AcDbEntity
  8
Defpoints
 62
     0
100
AcDbPoint
 10
890.8332150220102
 20
300.1082715834732
 30
0.0
  0
POINT
  5
EF51
330
D2F6
100
AcDbEntity
  8
Defpoints
 62
     0
100
AcDbPoint
 10
890.8332150220102
 20
310.1082715834732
 30
0.0
  0
POINT
  5
EF52
330
D2F6
100
AcDbEntity
  8
Defpoints
 62
     0
100
AcDbPoint
 10
986.3332150220102
 20
310.1082715834731
 30
0.0
  0
ENDBLK
  5
D306
330
D2F6
100
AcDbEntity
  8
0
100
AcDbBlockEnd
  0
BLOCK
  5
D311
330
D307
100
AcDbEntity
  8
0
100
AcDbBlockBegin
  2
*D11
 70
     1
 10
0.0
 20
0.0
 30
0.0
  3
*D11
  1

  0
LINE
  5
EF53
330
D307
100
AcDbEntity
  8
AM_5
100
AcDbLine
 10
895.8332150220103
 20
310.1082715834732
 30
0.0
 11
991.3332150220103
 21
310.1082715834731
 31
0.0
  0
LINE
  5
EF54
330
D307
100
AcDbEntity
  8
AM_5
100
AcDbLine
 10
920.3332150220104
 20
430.1082715834732
 30
0.0
 11
991.3332150220103
 21
430.1082715834732
 31
0.0
  0
LINE
  5
EF55
330
D307
100
AcDbEntity
  8
AM_5
100
AcDbLine
 10
986.3332150220102
 20
315.1082715834732
 30
0.0
 11
986.3332150220102
 21
425.1082715834732
 31
0.0
  0
INSERT
  5
EF56
330
D307
100
AcDbEntity
  8
AM_5
100
AcDbBlockReference
  2
_Dot
 10
986.3332150220102
 20
310.1082715834731
 30
0.0
 41
5.0
 42
5.0
 43
5.0
 50
270.0
  0
INSERT
  5
EF57
330
D307
100
AcDbEntity
  8
AM_5
100
AcDbBlockReference
  2
_Dot
 10
986.3332150220102
 20
430.1082715834732
 30
0.0
 41
5.0
 42
5.0
 43
5.0
 50
90.0
  0
MTEXT
  5
EF58
330
D307
100
AcDbEntity
  8
AM_5
 62
     2
100
AcDbMText
 10
970.8332150220101
 20
370.1082715834734
 30
0.0
 40
16.0
 41
0.0
 71
     5
 72
     1
  1
120
 11
0.0000000000000001
 21
1.0
 31
0.0
 73
     1
 44
1.0
1001
ACAD
1000
MTEXTBEGIN
1070
    73
1070
     1
1070
    44
1040
1.0
1070
    74
1070
     0
1000
MTEXTEND
  0
POINT
  5
EF59
330
D307
100
AcDbEntity
  8
Defpoints
 62
     0
100
AcDbPoint
 10
890.8332150220102
 20
310.1082715834732
 30
0.0
  0
POINT
  5
EF5A
330
D307
100
AcDbEntity
  8
Defpoints
 62
     0
100
AcDbPoint
 10
915.3332150220103
 20
430.1082715834732
 30
0.0
  0
POINT
  5
EF5B
330
D307
100
AcDbEntity
  8
Defpoints
 62
     0
100
AcDbPoint
 10
986.3332150220102
 20
430.1082715834732
 30
0.0
  0
ENDBLK
  5
D312
330
D307
100
AcDbEntity
  8
0
100
AcDbBlockEnd
  0
BLOCK
  5
D31D
330
D313
100
AcDbEntity
  8
0
100
AcDbBlockBegin
  2
*D12
 70
     1
 10
0.0
 20
0.0
 30
0.0
  3
*D12
  1

  0
LINE
  5
EF5C
330
D313
100
AcDbEntity
  8
AM_5
100
AcDbLine
 10
920.3332150220104
 20
430.1082715834732
 30
0.0
 11
991.3332150220103
 21
430.1082715834732
 31
0.0
  0
LINE
  5
EF5D
330
D313
100
AcDbEntity
  8
AM_5
100
AcDbLine
 10
920.3332150220104
 20
455.1082715834732
 30
0.0
 11
991.3332150220103
 21
455.1082715834732
 31
0.0
  0
LINE
  5
EF5E
330
D313
100
AcDbEntity
  8
AM_5
100
AcDbLine
 10
986.3332150220102
 20
435.1082715834731
 30
0.0
 11
986.3332150220102
 21
450.1082715834732
 31
0.0
  0
INSERT
  5
EF5F
330
D313
100
AcDbEntity
  8
AM_5
100
AcDbBlockReference
  2
_Dot
 10
986.3332150220102
 20
430.1082715834732
 30
0.0
 41
5.0
 42
5.0
 43
5.0
 50
270.0
  0
INSERT
  5
EF60
330
D313
100
AcDbEntity
  8
AM_5
100
AcDbBlockReference
  2
_Dot
 10
986.3332150220102
 20
455.1082715834732
 30
0.0
 41
5.0
 42
5.0
 43
5.0
 50
90.0
  0
MTEXT
  5
EF61
330
D313
100
AcDbEntity
  8
AM_5
 62
     2
100
AcDbMText
 10
970.8332150220101
 20
442.6082715834733
 30
0.0
 40
16.0
 41
0.0
 71
     5
 72
     1
  1
25
 11
0.0000000000000001
 21
1.0
 31
0.0
 73
     1
 44
1.0
1001
ACAD
1000
MTEXTBEGIN
1070
    73
1070
     1
1070
    44
1040
1.0
1070
    74
1070
     0
1000
MTEXTEND
  0
POINT
  5
EF62
330
D313
100
AcDbEntity
  8
Defpoints
 62
     0
100
AcDbPoint
 10
915.3332150220103
 20
430.1082715834732
 30
0.0
  0
POINT
  5
EF63
330
D313
100
AcDbEntity
  8
Defpoints
 62
     0
100
AcDbPoint
 10
915.3332150220103
 20
455.1082715834732
 30
0.0
  0
POINT
  5
EF64
330
D313
100
AcDbEntity
  8
Defpoints
 62
     0
100
AcDbPoint
 10
986.3332150220102
 20
455.1082715834732
 30
0.0
  0
ENDBLK
  5
D31E
330
D313
100
AcDbEntity
  8
0
100
AcDbBlockEnd
  0
BLOCK
  5
D341
330
D337
100
AcDbEntity
  8
0
100
AcDbBlockBegin
  2
*D13
 70
     1
 10
0.0
 20
0.0
 30
0.0
  3
*D13
  1

  0
LINE
  5
EF65
330
D337
100
AcDbEntity
  8
AM_5
100
AcDbLine
 10
931.3332150220103
 20
290.1082715834732
 30
0.0
 11
1041.33321502201
 21
290.1082715834732
 31
0.0
  0
LINE
  5
EF66
330
D337
100
AcDbEntity
  8
AM_5
100
AcDbLine
 10
931.3332150220103
 20
994.1082715834731
 30
0.0
 11
1041.33321502201
 21
994.1082715834731
 31
0.0
  0
LINE
  5
EF67
330
D337
100
AcDbEntity
  8
AM_5
100
AcDbLine
 10
1036.33321502201
 20
295.1082715834732
 30
0.0
 11
1036.33321502201
 21
989.1082715834732
 31
0.0
  0
INSERT
  5
EF68
330
D337
100
AcDbEntity
  8
AM_5
100
AcDbBlockReference
  2
_Dot
 10
1036.33321502201
 20
290.1082715834732
 30
0.0
 41
5.0
 42
5.0
 43
5.0
 50
270.0
  0
INSERT
  5
EF69
330
D337
100
AcDbEntity
  8
AM_5
100
AcDbBlockReference
  2
_Dot
 10
1036.33321502201
 20
994.1082715834731
 30
0.0
 41
5.0
 42
5.0
 43
5.0
 50
90.0
  0
MTEXT
  5
EF6A
330
D337
100
AcDbEntity
  8
AM_5
 62
     2
100
AcDbMText
 10
1020.83321502201
 20
642.1082715834733
 30
0.0
 40
16.0
 41
0.0
 71
     5
 72
     1
  1
704
 11
0.0000000000000001
 21
1.0
 31
0.0
 73
     1
 44
1.0
1001
ACAD
1000
MTEXTBEGIN
1070
    73
1070
     1
1070
    44
1040
1.0
1070
    74
1070
     0
1000
MTEXTEND
  0
POINT
  5
EF6B
330
D337
100
AcDbEntity
  8
Defpoints
 62
     0
100
AcDbPoint
 10
926.3332150220103
 20
290.1082715834732
 30
0.0
  0
POINT
  5
EF6C
330
D337
100
AcDbEntity
  8
Defpoints
 62
     0
100
AcDbPoint
 10
926.3332150220103
 20
994.1082715834731
 30
0.0
  0
POINT
  5
EF6D
330
D337
100
AcDbEntity
  8
Defpoints
 62
     0
100
AcDbPoint
 10
1036.33321502201
 20
994.1082715834731
 30
0.0
  0
ENDBLK
  5
D342
330
D337
100
AcDbEntity
  8
0
100
AcDbBlockEnd
  0
BLOCK
  5
D34D
330
D343
100
AcDbEntity
  8
0
100
AcDbBlockBegin
  2
*D14
 70
     1
 10
0.0
 20
0.0
 30
0.0
  3
*D14
  1

  0
LINE
  5
EF6E
330
D343
100
AcDbEntity
  8
AM_5
100
AcDbLine
 10
488.2434749159383
 20
760.1082576549028
 30
0.0
 11
548.2434749159383
 21
760.1082576549028
 31
0.0
  0
LINE
  5
EF6F
330
D343
100
AcDbEntity
  8
AM_5
100
AcDbLine
 10
449.7434749159383
 20
320.1080081931755
 30
0.0
 11
548.2434749159383
 21
320.1080081931755
 31
0.0
  0
LINE
  5
EF70
330
D343
100
AcDbEntity
  8
AM_5
100
AcDbLine
 10
543.2434749159383
 20
755.1082576549029
 30
0.0
 11
543.2434749159383
 21
325.1080081931755
 31
0.0
  0
INSERT
  5
EF71
330
D343
100
AcDbEntity
  8
AM_5
100
AcDbBlockReference
  2
_Dot
 10
543.2434749159383
 20
760.1082576549028
 30
0.0
 41
5.0
 42
5.0
 43
5.0
 50
90.0
  0
INSERT
  5
EF72
330
D343
100
AcDbEntity
  8
AM_5
100
AcDbBlockReference
  2
_Dot
 10
543.2434749159383
 20
320.1080081931755
 30
0.0
 41
5.0
 42
5.0
 43
5.0
 50
270.0
  0
MTEXT
  5
EF73
330
D343
100
AcDbEntity
  8
AM_5
 62
     2
100
AcDbMText
 10
527.7434749159382
 20
540.1081329240392
 30
0.0
 40
16.0
 41
0.0
 71
     5
 72
     1
  1
440
 11
0.0000000000000001
 21
1.0
 31
0.0
 73
     1
 44
1.0
1001
ACAD
1000
MTEXTBEGIN
1070
    73
1070
     1
1070
    44
1040
1.0
1070
    74
1070
     0
1000
MTEXTEND
  0
POINT
  5
EF74
330
D343
100
AcDbEntity
  8
Defpoints
 62
     0
100
AcDbPoint
 10
483.2434749159383
 20
760.1082576549028
 30
0.0
  0
POINT
  5
EF75
330
D343
100
AcDbEntity
  8
Defpoints
 62
     0
100
AcDbPoint
 10
444.7434749159383
 20
320.1080081931755
 30
0.0
  0
POINT
  5
EF76
330
D343
100
AcDbEntity
  8
Defpoints
 62
     0
100
AcDbPoint
 10
543.2434749159383
 20
320.1080081931755
 30
0.0
  0
ENDBLK
  5
D34E
330
D343
100
AcDbEntity
  8
0
100
AcDbBlockEnd
  0
BLOCK
  5
D35A
330
D34F
100
AcDbEntity
  8
0
100
AcDbBlockBegin
  2
*D15
 70
     1
 10
0.0
 20
0.0
 30
0.0
  3
*D15
  1

  0
LINE
  5
EF77
330
D34F
100
AcDbEntity
  8
AM_5
100
AcDbLine
 10
449.7434749159383
 20
320.1080081931755
 30
0.0
 11
548.2434749159383
 21
320.1080081931755
 31
0.0
  0
LINE
  5
EF78
330
D34F
100
AcDbEntity
  8
AM_5
100
AcDbLine
 10
480.7434749159383
 20
290.1082715834732
 30
0.0
 11
548.2434749159383
 21
290.1082715834732
 31
0.0
  0
LINE
  5
EF79
330
D34F
100
AcDbEntity
  8
AM_5
100
AcDbLine
 10
543.2434749159383
 20
315.1080081931755
 30
0.0
 11
543.2434749159383
 21
295.1082715834732
 31
0.0
  0
LINE
  5
EF7A
330
D34F
100
AcDbEntity
  8
AM_5
100
AcDbLine
 10
543.2434749159383
 20
290.1082715834732
 30
0.0
 11
543.2434749159382
 21
251.9749382501399
 31
0.0
  0
INSERT
  5
EF7B
330
D34F
100
AcDbEntity
  8
AM_5
100
AcDbBlockReference
  2
_Dot
 10
543.2434749159383
 20
320.1080081931755
 30
0.0
 41
5.0
 42
5.0
 43
5.0
 50
90.0
  0
INSERT
  5
EF7C
330
D34F
100
AcDbEntity
  8
AM_5
100
AcDbBlockReference
  2
_Dot
 10
543.2434749159383
 20
290.1082715834732
 30
0.0
 41
5.0
 42
5.0
 43
5.0
 50
270.0
  0
MTEXT
  5
EF7D
330
D34F
100
AcDbEntity
  8
AM_5
 62
     2
100
AcDbMText
 10
527.7434749159382
 20
268.5416049168066
 30
0.0
 40
16.0
 41
0.0
 71
     5
 72
     1
  1
30
 11
0.0000000000000001
 21
1.0
 31
0.0
 73
     1
 44
1.0
1001
ACAD
1000
MTEXTBEGIN
1070
    73
1070
     1
1070
    44
1040
1.0
1070
    74
1070
     0
1000
MTEXTEND
  0
POINT
  5
EF7E
330
D34F
100
AcDbEntity
  8
Defpoints
 62
     0
100
AcDbPoint
 10
444.7434749159383
 20
320.1080081931755
 30
0.0
  0
POINT
  5
EF7F
330
D34F
100
AcDbEntity
  8
Defpoints
 62
     0
100
AcDbPoint
 10
475.7434749159383
 20
290.1082715834732
 30
0.0
  0
POINT
  5
EF80
330
D34F
100
AcDbEntity
  8
Defpoints
 62
     0
100
AcDbPoint
 10
543.2434749159383
 20
290.1082715834732
 30
0.0
  0
ENDBLK
  5
D35B
330
D34F
100
AcDbEntity
  8
0
100
AcDbBlockEnd
  0
BLOCK
  5
D366
330
D35C
100
AcDbEntity
  8
0
100
AcDbBlockBegin
  2
*D16
 70
     1
 10
0.0
 20
0.0
 30
0.0
  3
*D16
  1

  0
LINE
  5
EF81
330
D35C
100
AcDbEntity
  8
AM_5
100
AcDbLine
 10
488.2434749159383
 20
760.1082576549028
 30
0.0
 11
548.2434749159382
 21
760.1082576549028
 31
0.0
  0
LINE
  5
EF82
330
D35C
100
AcDbEntity
  8
AM_5
100
AcDbLine
 10
474.7434749159383
 20
920.1082524189073
 30
0.0
 11
548.2434749159383
 21
920.1082524189073
 31
0.0
  0
LINE
  5
EF83
330
D35C
100
AcDbEntity
  8
AM_5
100
AcDbLine
 10
543.2434749159382
 20
765.1082576549029
 30
0.0
 11
543.2434749159383
 21
915.1082524189073
 31
0.0
  0
INSERT
  5
EF84
330
D35C
100
AcDbEntity
  8
AM_5
100
AcDbBlockReference
  2
_Dot
 10
543.2434749159382
 20
760.1082576549028
 30
0.0
 41
5.0
 42
5.0
 43
5.0
 50
270.0
  0
INSERT
  5
EF85
330
D35C
100
AcDbEntity
  8
AM_5
100
AcDbBlockReference
  2
_Dot
 10
543.2434749159383
 20
920.1082524189073
 30
0.0
 41
5.0
 42
5.0
 43
5.0
 50
90.0
  0
MTEXT
  5
EF86
330
D35C
100
AcDbEntity
  8
AM_5
 62
     2
100
AcDbMText
 10
527.7434749159381
 20
840.1082550369052
 30
0.0
 40
16.0
 41
0.0
 71
     5
 72
     1
  1
160
 11
0.0000000000000001
 21
1.0
 31
0.0
 73
     1
 44
1.0
1001
ACAD
1000
MTEXTBEGIN
1070
    73
1070
     1
1070
    44
1040
1.0
1070
    74
1070
     0
1000
MTEXTEND
  0
POINT
  5
EF87
330
D35C
100
AcDbEntity
  8
Defpoints
 62
     0
100
AcDbPoint
 10
483.2434749159383
 20
760.1082576549028
 30
0.0
  0
POINT
  5
EF88
330
D35C
100
AcDbEntity
  8
Defpoints
 62
     0
100
AcDbPoint
 10
469.7434749159383
 20
920.1082524189073
 30
0.0
  0
POINT
  5
EF89
330
D35C
100
AcDbEntity
  8
Defpoints
 62
     0
100
AcDbPoint
 10
543.2434749159383
 20
920.1082524189073
 30
0.0
  0
ENDBLK
  5
D367
330
D35C
100
AcDbEntity
  8
0
100
AcDbBlockEnd
  0
BLOCK
  5
D37E
330
D374
100
AcDbEntity
  8
0
100
AcDbBlockBegin
  2
*D17
 70
     1
 10
0.0
 20
0.0
 30
0.0
  3
*D17
  1

  0
LINE
  5
EF8A
330
D374
100
AcDbEntity
  8
AM_5
100
AcDbLine
 10
1297.698286207613
 20
998.5751674079883
 30
0.0
 11
1297.698286207613
 21
1058.974466110911
 31
0.0
  0
LINE
  5
EF8B
330
D374
100
AcDbEntity
  8
AM_5
100
AcDbLine
 10
1263.198286207613
 20
999.1082715834732
 30
0.0
 11
1263.198286207613
 21
1058.974466110911
 31
0.0
  0
LINE
  5
EF8C
330
D374
100
AcDbEntity
  8
AM_5
100
AcDbLine
 10
1292.698286207613
 20
1053.974466110911
 30
0.0
 11
1268.198286207613
 21
1053.974466110911
 31
0.0
  0
MTEXT
  5
EF8D
330
D374
100
AcDbEntity
  8
AM_5
 62
     2
100
AcDbMText
 10
1275.3837350592
 20
1069.49371085613
 30
0.0
 40
16.0
 41
0.0
 71
     5
 72
     1
  1
34.5
 73
     1
 44
1.0
1001
ACAD
1000
MTEXTBEGIN
1070
    73
1070
     1
1070
    44
1040
1.0
1070
    74
1070
     0
1000
MTEXTEND
  0
INSERT
  5
EF8E
330
D374
100
AcDbEntity
  8
AM_5
100
AcDbBlockReference
  2
_Dot
 10
1297.698286207613
 20
1053.974466110911
 30
0.0
 41
5.0
 42
5.0
 43
5.0
  0
INSERT
  5
EF8F
330
D374
100
AcDbEntity
  8
AM_5
100
AcDbBlockReference
  2
_Dot
 10
1263.198286207613
 20
1053.974466110911
 30
0.0
 41
5.0
 42
5.0
 43
5.0
 50
180.0
  0
POINT
  5
EF90
330
D374
100
AcDbEntity
  8
Defpoints
 62
     0
100
AcDbPoint
 10
1297.698286207613
 20
993.5751674079883
 30
0.0
  0
POINT
  5
EF91
330
D374
100
AcDbEntity
  8
Defpoints
 62
     0
100
AcDbPoint
 10
1263.198286207613
 20
994.1082715834731
 30
0.0
  0
POINT
  5
EF92
330
D374
100
AcDbEntity
  8
Defpoints
 62
     0
100
AcDbPoint
 10
1263.198286207613
 20
1053.974466110911
 30
0.0
  0
ENDBLK
  5
D37F
330
D374
100
AcDbEntity
  8
0
100
AcDbBlockEnd
  0
BLOCK
  5
D396
330
D38C
100
AcDbEntity
  8
0
100
AcDbBlockBegin
  2
*D18
 70
     1
 10
0.0
 20
0.0
 30
0.0
  3
*D18
  1

  0
LINE
  5
EF93
330
D38C
100
AcDbEntity
  8
AM_5
100
AcDbLine
 10
1297.698286207613
 20
285.4082715834768
 30
0.0
 11
1297.698286207613
 21
225.1082715834732
 31
0.0
  0
LINE
  5
EF94
330
D38C
100
AcDbEntity
  8
AM_5
100
AcDbLine
 10
1230.69828620761
 20
296.6082715834768
 30
0.0
 11
1230.69828620761
 21
225.1082715834732
 31
0.0
  0
LINE
  5
EF95
330
D38C
100
AcDbEntity
  8
AM_5
100
AcDbLine
 10
1292.698286207613
 20
230.1082715834732
 30
0.0
 11
1235.69828620761
 21
230.1082715834732
 31
0.0
  0
INSERT
  5
EF96
330
D38C
100
AcDbEntity
  8
AM_5
100
AcDbBlockReference
  2
_Dot
 10
1297.698286207613
 20
230.1082715834732
 30
0.0
 41
5.0
 42
5.0
 43
5.0
  0
INSERT
  5
EF97
330
D38C
100
AcDbEntity
  8
AM_5
100
AcDbBlockReference
  2
_Dot
 10
1230.69828620761
 20
230.1082715834732
 30
0.0
 41
5.0
 42
5.0
 43
5.0
 50
180.0
  0
MTEXT
  5
EF98
330
D38C
100
AcDbEntity
  8
AM_5
 62
     2
100
AcDbMText
 10
1264.198286207611
 20
245.6082715834732
 30
0.0
 40
16.0
 41
0.0
 71
     5
 72
     1
  1
67
 73
     1
 44
1.0
1001
ACAD
1000
MTEXTBEGIN
1070
    73
1070
     1
1070
    44
1040
1.0
1070
    74
1070
     0
1000
MTEXTEND
  0
POINT
  5
EF99
330
D38C
100
AcDbEntity
  8
Defpoints
 62
     0
100
AcDbPoint
 10
1297.698286207613
 20
290.4082715834769
 30
0.0
  0
POINT
  5
EF9A
330
D38C
100
AcDbEntity
  8
Defpoints
 62
     0
100
AcDbPoint
 10
1230.69828620761
 20
301.6082715834768
 30
0.0
  0
POINT
  5
EF9B
330
D38C
100
AcDbEntity
  8
Defpoints
 62
     0
100
AcDbPoint
 10
1230.69828620761
 20
230.1082715834732
 30
0.0
  0
ENDBLK
  5
D397
330
D38C
100
AcDbEntity
  8
0
100
AcDbBlockEnd
  0
BLOCK
  5
D3A2
330
D398
100
AcDbEntity
  8
0
100
AcDbBlockBegin
  2
*D19
 70
     1
 10
0.0
 20
0.0
 30
0.0
  3
*D19
  1

  0
LINE
  5
EF9C
330
D398
100
AcDbEntity
  8
AM_5
100
AcDbLine
 10
1297.698286207613
 20
285.4082715834768
 30
0.0
 11
1297.698286207613
 21
175.1082715834732
 31
0.0
  0
LINE
  5
EF9D
330
D398
100
AcDbEntity
  8
AM_5
100
AcDbLine
 10
1218.69828620761
 20
425.6082715834768
 30
0.0
 11
1218.69828620761
 21
175.1082715834732
 31
0.0
  0
LINE
  5
EF9E
330
D398
100
AcDbEntity
  8
AM_5
100
AcDbLine
 10
1292.698286207613
 20
180.1082715834732
 30
0.0
 11
1223.69828620761
 21
180.1082715834732
 31
0.0
  0
INSERT
  5
EF9F
330
D398
100
AcDbEntity
  8
AM_5
100
AcDbBlockReference
  2
_Dot
 10
1297.698286207613
 20
180.1082715834732
 30
0.0
 41
5.0
 42
5.0
 43
5.0
  0
INSERT
  5
EFA0
330
D398
100
AcDbEntity
  8
AM_5
100
AcDbBlockReference
  2
_Dot
 10
1218.69828620761
 20
180.1082715834732
 30
0.0
 41
5.0
 42
5.0
 43
5.0
 50
180.0
  0
MTEXT
  5
EFA1
330
D398
100
AcDbEntity
  8
AM_5
 62
     2
100
AcDbMText
 10
1258.198286207611
 20
195.6082715834732
 30
0.0
 40
16.0
 41
0.0
 71
     5
 72
     1
  1
79
 73
     1
 44
1.0
1001
ACAD
1000
MTEXTBEGIN
1070
    73
1070
     1
1070
    44
1040
1.0
1070
    74
1070
     0
1000
MTEXTEND
  0
POINT
  5
EFA2
330
D398
100
AcDbEntity
  8
Defpoints
 62
     0
100
AcDbPoint
 10
1297.698286207613
 20
290.4082715834769
 30
0.0
  0
POINT
  5
EFA3
330
D398
100
AcDbEntity
  8
Defpoints
 62
     0
100
AcDbPoint
 10
1218.69828620761
 20
430.6082715834768
 30
0.0
  0
POINT
  5
EFA4
330
D398
100
AcDbEntity
  8
Defpoints
 62
     0
100
AcDbPoint
 10
1218.69828620761
 20
180.1082715834732
 30
0.0
  0
ENDBLK
  5
D3A3
330
D398
100
AcDbEntity
  8
0
100
AcDbBlockEnd
  0
BLOCK
  5
D3BA
330
D3B0
100
AcDbEntity
  8
0
100
AcDbBlockBegin
  2
*D20
 70
     1
 10
0.0
 20
0.0
 30
0.0
  3
*D20
  1

  0
LINE
  5
EFA5
330
D3B0
100
AcDbEntity
  8
AM_5
100
AcDbLine
 10
778.3332150220103
 20
285.1082715834732
 30
0.0
 11
778.3332150220103
 21
225.1082715834732
 31
0.0
  0
LINE
  5
EFA6
330
D3B0
100
AcDbEntity
  8
AM_5
100
AcDbLine
 10
926.3332150220103
 20
285.1082715834732
 30
0.0
 11
926.3332150220103
 21
225.1082715834732
 31
0.0
  0
LINE
  5
EFA7
330
D3B0
100
AcDbEntity
  8
AM_5
100
AcDbLine
 10
783.3332150220103
 20
230.1082715834732
 30
0.0
 11
921.3332150220104
 21
230.1082715834732
 31
0.0
  0
INSERT
  5
EFA8
330
D3B0
100
AcDbEntity
  8
AM_5
100
AcDbBlockReference
  2
_Dot
 10
778.3332150220103
 20
230.1082715834732
 30
0.0
 41
5.0
 42
5.0
 43
5.0
 50
180.0
  0
INSERT
  5
EFA9
330
D3B0
100
AcDbEntity
  8
AM_5
100
AcDbBlockReference
  2
_Dot
 10
926.3332150220103
 20
230.1082715834732
 30
0.0
 41
5.0
 42
5.0
 43
5.0
  0
MTEXT
  5
EFAA
330
D3B0
100
AcDbEntity
  8
AM_5
 62
     2
100
AcDbMText
 10
852.3332150220102
 20
245.6082715834732
 30
0.0
 40
16.0
 41
0.0
 71
     5
 72
     1
  1
148
 73
     1
 44
1.0
1001
ACAD
1000
MTEXTBEGIN
1070
    73
1070
     1
1070
    44
1040
1.0
1070
    74
1070
     0
1000
MTEXTEND
  0
POINT
  5
EFAB
330
D3B0
100
AcDbEntity
  8
Defpoints
 62
     0
100
AcDbPoint
 10
778.3332150220103
 20
290.1082715834732
 30
0.0
  0
POINT
  5
EFAC
330
D3B0
100
AcDbEntity
  8
Defpoints
 62
     0
100
AcDbPoint
 10
926.3332150220103
 20
290.1082715834732
 30
0.0
  0
POINT
  5
EFAD
330
D3B0
100
AcDbEntity
  8
Defpoints
 62
     0
100
AcDbPoint
 10
926.3332150220103
 20
230.1082715834732
 30
0.0
  0
ENDBLK
  5
D3BB
330
D3B0
100
AcDbEntity
  8
0
100
AcDbBlockEnd
  0
BLOCK
  5
D3C6
330
D3BC
100
AcDbEntity
  8
0
100
AcDbBlockBegin
  2
*D21
 70
     1
 10
0.0
 20
0.0
 30
0.0
  3
*D21
  1

  0
LINE
  5
F04B
330
D3BC
100
AcDbEntity
  8
AM_5
100
AcDbLine
 10
920.8332150220101
 20
660.1082715834731
 30
0.0
 11
991.3332150220101
 21
660.1082715834731
 31
0.0
  0
LINE
  5
F04C
330
D3BC
100
AcDbEntity
  8
AM_5
100
AcDbLine
 10
920.8332150220101
 20
860.1082715834731
 30
0.0
 11
991.3332150220103
 21
860.1082715834731
 31
0.0
  0
LINE
  5
F04D
330
D3BC
100
AcDbEntity
  8
AM_5
100
AcDbLine
 10
986.3332150220102
 20
665.1082715834732
 30
0.0
 11
986.3332150220102
 21
855.1082715834732
 31
0.0
  0
INSERT
  5
F04E
330
D3BC
100
AcDbEntity
  8
AM_5
100
AcDbBlockReference
  2
_Dot
 10
986.3332150220102
 20
660.1082715834731
 30
0.0
 41
5.0
 42
5.0
 43
5.0
 50
270.0
  0
INSERT
  5
F04F
330
D3BC
100
AcDbEntity
  8
AM_5
100
AcDbBlockReference
  2
_Dot
 10
986.3332150220102
 20
860.1082715834731
 30
0.0
 41
5.0
 42
5.0
 43
5.0
 50
90.0
  0
MTEXT
  5
F050
330
D3BC
100
AcDbEntity
  8
AM_5
 62
     2
100
AcDbMText
 10
970.8332150220101
 20
766.836208658874
 30
0.0
 40
16.0
 41
0.0
 71
     5
 72
     1
  1
200
 11
0.0000000000000001
 21
1.0
 31
0.0
 73
     1
 44
1.0
1001
ACAD
1000
MTEXTBEGIN
1070
    73
1070
     1
1070
    44
1040
1.0
1070
    74
1070
     0
1000
MTEXTEND
  0
POINT
  5
F051
330
D3BC
100
AcDbEntity
  8
Defpoints
 62
     0
100
AcDbPoint
 10
915.83321502201
 20
660.1082715834731
 30
0.0
  0
POINT
  5
F052
330
D3BC
100
AcDbEntity
  8
Defpoints
 62
     0
100
AcDbPoint
 10
915.83321502201
 20
860.1082715834731
 30
0.0
  0
POINT
  5
F053
330
D3BC
100
AcDbEntity
  8
Defpoints
 62
     0
100
AcDbPoint
 10
986.3332150220102
 20
860.1082715834731
 30
0.0
  0
ENDBLK
  5
D3C7
330
D3BC
100
AcDbEntity
  8
0
100
AcDbBlockEnd
  0
BLOCK
  5
D3D2
330
D3C8
100
AcDbEntity
  8
0
100
AcDbBlockBegin
  2
*D22
 70
     1
 10
0.0
 20
0.0
 30
0.0
  3
*D22
  1

  0
LINE
  5
EFB7
330
D3C8
100
AcDbEntity
  8
AM_5
100
AcDbLine
 10
920.8332150220101
 20
860.1082715834731
 30
0.0
 11
991.3332150220105
 21
860.1082715834731
 31
0.0
  0
LINE
  5
EFB8
330
D3C8
100
AcDbEntity
  8
AM_5
100
AcDbLine
 10
920.8332102362962
 20
905.1082663474794
 30
0.0
 11
991.3332150220105
 21
905.1082663474794
 31
0.0
  0
LINE
  5
EFB9
330
D3C8
100
AcDbEntity
  8
AM_5
100
AcDbLine
 10
986.3332150220106
 20
865.1082715834732
 30
0.0
 11
986.3332150220106
 21
900.1082663474795
 31
0.0
  0
INSERT
  5
EFBA
330
D3C8
100
AcDbEntity
  8
AM_5
100
AcDbBlockReference
  2
_Dot
 10
986.3332150220106
 20
860.1082715834731
 30
0.0
 41
5.0
 42
5.0
 43
5.0
 50
270.0
  0
INSERT
  5
EFBB
330
D3C8
100
AcDbEntity
  8
AM_5
100
AcDbBlockReference
  2
_Dot
 10
986.3332150220106
 20
905.1082663474794
 30
0.0
 41
5.0
 42
5.0
 43
5.0
 50
90.0
  0
MTEXT
  5
EFBC
330
D3C8
100
AcDbEntity
  8
AM_5
 62
     2
100
AcDbMText
 10
970.8332150220103
 20
882.6082689654764
 30
0.0
 40
16.0
 41
0.0
 71
     5
 72
     1
  1
45
 11
0.0000000000000001
 21
1.0
 31
0.0
 73
     1
 44
1.0
1001
ACAD
1000
MTEXTBEGIN
1070
    73
1070
     1
1070
    44
1040
1.0
1070
    74
1070
     0
1000
MTEXTEND
  0
POINT
  5
EFBD
330
D3C8
100
AcDbEntity
  8
Defpoints
 62
     0
100
AcDbPoint
 10
915.83321502201
 20
860.1082715834731
 30
0.0
  0
POINT
  5
EFBE
330
D3C8
100
AcDbEntity
  8
Defpoints
 62
     0
100
AcDbPoint
 10
915.8332102362962
 20
905.1082663474794
 30
0.0
  0
POINT
  5
EFBF
330
D3C8
100
AcDbEntity
  8
Defpoints
 62
     0
100
AcDbPoint
 10
986.3332150220106
 20
905.1082663474794
 30
0.0
  0
ENDBLK
  5
D3D3
330
D3C8
100
AcDbEntity
  8
0
100
AcDbBlockEnd
  0
BLOCK
  5
D3DE
330
D3D4
100
AcDbEntity
  8
0
100
AcDbBlockBegin
  2
*D23
 70
     1
 10
0.0
 20
0.0
 30
0.0
  3
*D23
  1

  0
LINE
  5
EFC0
330
D3D4
100
AcDbEntity
  8
AM_5
100
AcDbLine
 10
920.8332150220101
 20
905.1082663474794
 30
0.0
 11
991.3332150220103
 21
905.1082663474794
 31
0.0
  0
LINE
  5
EFC1
330
D3D4
100
AcDbEntity
  8
AM_5
100
AcDbLine
 10
920.8332150220101
 20
942.1082715834732
 30
0.0
 11
991.3332150220103
 21
942.1082715834732
 31
0.0
  0
LINE
  5
EFC2
330
D3D4
100
AcDbEntity
  8
AM_5
100
AcDbLine
 10
986.3332150220102
 20
910.1082663474794
 30
0.0
 11
986.3332150220102
 21
937.1082715834731
 31
0.0
  0
INSERT
  5
EFC3
330
D3D4
100
AcDbEntity
  8
AM_5
100
AcDbBlockReference
  2
_Dot
 10
986.3332150220102
 20
905.1082663474794
 30
0.0
 41
5.0
 42
5.0
 43
5.0
 50
270.0
  0
INSERT
  5
EFC4
330
D3D4
100
AcDbEntity
  8
AM_5
100
AcDbBlockReference
  2
_Dot
 10
986.3332150220102
 20
942.1082715834732
 30
0.0
 41
5.0
 42
5.0
 43
5.0
 50
90.0
  0
MTEXT
  5
EFC5
330
D3D4
100
AcDbEntity
  8
AM_5
 62
     2
100
AcDbMText
 10
970.8332150220101
 20
923.6082689654764
 30
0.0
 40
16.0
 41
0.0
 71
     5
 72
     1
  1
37
 11
0.0000000000000001
 21
1.0
 31
0.0
 73
     1
 44
1.0
1001
ACAD
1000
MTEXTBEGIN
1070
    73
1070
     1
1070
    44
1040
1.0
1070
    74
1070
     0
1000
MTEXTEND
  0
POINT
  5
EFC6
330
D3D4
100
AcDbEntity
  8
Defpoints
 62
     0
100
AcDbPoint
 10
915.83321502201
 20
905.1082663474794
 30
0.0
  0
POINT
  5
EFC7
330
D3D4
100
AcDbEntity
  8
Defpoints
 62
     0
100
AcDbPoint
 10
915.83321502201
 20
942.1082715834732
 30
0.0
  0
POINT
  5
EFC8
330
D3D4
100
AcDbEntity
  8
Defpoints
 62
     0
100
AcDbPoint
 10
986.3332150220102
 20
942.1082715834732
 30
0.0
  0
ENDBLK
  5
D3DF
330
D3D4
100
AcDbEntity
  8
0
100
AcDbBlockEnd
  0
BLOCK
  5
D3EA
330
D3E0
100
AcDbEntity
  8
0
100
AcDbBlockBegin
  2
*D24
 70
     1
 10
0.0
 20
0.0
 30
0.0
  3
*D24
  1

  0
LINE
  5
EFC9
330
D3E0
100
AcDbEntity
  8
AM_5
100
AcDbLine
 10
920.8332150220101
 20
942.1082715834732
 30
0.0
 11
991.3332150220117
 21
942.1082715834732
 31
0.0
  0
LINE
  5
EFCA
330
D3E0
100
AcDbEntity
  8
AM_5
100
AcDbLine
 10
920.8332150220101
 20
990.1082715834732
 30
0.0
 11
991.3332150220117
 21
990.1082715834732
 31
0.0
  0
LINE
  5
EFCB
330
D3E0
100
AcDbEntity
  8
AM_5
100
AcDbLine
 10
986.3332150220117
 20
947.1082715834732
 30
0.0
 11
986.3332150220117
 21
985.1082715834731
 31
0.0
  0
INSERT
  5
EFCC
330
D3E0
100
AcDbEntity
  8
AM_5
100
AcDbBlockReference
  2
_Dot
 10
986.3332150220117
 20
942.1082715834732
 30
0.0
 41
5.0
 42
5.0
 43
5.0
 50
270.0
  0
INSERT
  5
EFCD
330
D3E0
100
AcDbEntity
  8
AM_5
100
AcDbBlockReference
  2
_Dot
 10
986.3332150220117
 20
990.1082715834732
 30
0.0
 41
5.0
 42
5.0
 43
5.0
 50
90.0
  0
MTEXT
  5
EFCE
330
D3E0
100
AcDbEntity
  8
AM_5
 62
     2
100
AcDbMText
 10
970.8332150220115
 20
966.1082715834734
 30
0.0
 40
16.0
 41
0.0
 71
     5
 72
     1
  1
48
 11
0.0000000000000001
 21
1.0
 31
0.0
 73
     1
 44
1.0
1001
ACAD
1000
MTEXTBEGIN
1070
    73
1070
     1
1070
    44
1040
1.0
1070
    74
1070
     0
1000
MTEXTEND
  0
POINT
  5
EFCF
330
D3E0
100
AcDbEntity
  8
Defpoints
 62
     0
100
AcDbPoint
 10
915.83321502201
 20
942.1082715834732
 30
0.0
  0
POINT
  5
EFD0
330
D3E0
100
AcDbEntity
  8
Defpoints
 62
     0
100
AcDbPoint
 10
915.83321502201
 20
990.1082715834732
 30
0.0
  0
POINT
  5
EFD1
330
D3E0
100
AcDbEntity
  8
Defpoints
 62
     0
100
AcDbPoint
 10
986.3332150220117
 20
990.1082715834732
 30
0.0
  0
ENDBLK
  5
D3EB
330
D3E0
100
AcDbEntity
  8
0
100
AcDbBlockEnd
  0
BLOCK
  5
D797
330
D78D
100
AcDbEntity
  8
0
100
AcDbBlockBegin
  2
*D25
 70
     1
 10
0.0
 20
0.0
 30
0.0
  3
*D25
  1

  0
LINE
  5
EFD2
330
D78D
100
AcDbEntity
  8
AM_5
100
AcDbLine
 10
920.8332150220101
 20
660.1082715834731
 30
0.0
 11
991.333215022011
 21
660.1082715834731
 31
0.0
  0
LINE
  5
EFD3
330
D78D
100
AcDbEntity
  8
AM_5
100
AcDbLine
 10
920.5332150220106
 20
455.1082715834732
 30
0.0
 11
991.333215022011
 21
455.1082715834732
 31
0.0
  0
LINE
  5
EFD4
330
D78D
100
AcDbEntity
  8
AM_5
100
AcDbLine
 10
986.3332150220109
 20
655.1082715834732
 30
0.0
 11
986.3332150220109
 21
460.1082715834731
 31
0.0
  0
INSERT
  5
EFD5
330
D78D
100
AcDbEntity
  8
AM_5
100
AcDbBlockReference
  2
_Dot
 10
986.3332150220109
 20
660.1082715834731
 30
0.0
 41
5.0
 42
5.0
 43
5.0
 50
90.0
  0
INSERT
  5
EFD6
330
D78D
100
AcDbEntity
  8
AM_5
100
AcDbBlockReference
  2
_Dot
 10
986.3332150220109
 20
455.1082715834732
 30
0.0
 41
5.0
 42
5.0
 43
5.0
 50
270.0
  0
MTEXT
  5
EFD7
330
D78D
100
AcDbEntity
  8
AM_5
 62
     2
100
AcDbMText
 10
970.8332150220108
 20
557.6082715834733
 30
0.0
 40
16.0
 41
0.0
 71
     5
 72
     1
  1
205
 11
0.0000000000000001
 21
1.0
 31
0.0
 73
     1
 44
1.0
1001
ACAD
1000
MTEXTBEGIN
1070
    73
1070
     1
1070
    44
1040
1.0
1070
    74
1070
     0
1000
MTEXTEND
  0
POINT
  5
EFD8
330
D78D
100
AcDbEntity
  8
Defpoints
 62
     0
100
AcDbPoint
 10
915.83321502201
 20
660.1082715834731
 30
0.0
  0
POINT
  5
EFD9
330
D78D
100
AcDbEntity
  8
Defpoints
 62
     0
100
AcDbPoint
 10
915.5332150220106
 20
455.1082715834732
 30
0.0
  0
POINT
  5
EFDA
330
D78D
100
AcDbEntity
  8
Defpoints
 62
     0
100
AcDbPoint
 10
986.3332150220109
 20
455.1082715834732
 30
0.0
  0
ENDBLK
  5
D798
330
D78D
100
AcDbEntity
  8
0
100
AcDbBlockEnd
  0
BLOCK
  5
D7AD
330
D7A3
100
AcDbEntity
  8
0
100
AcDbBlockBegin
  2
*D26
 70
     1
 10
0.0
 20
0.0
 30
0.0
  3
*D26
  1

  0
LINE
  5
EFDB
330
D7A3
100
AcDbEntity
  8
AM_5
100
AcDbLine
 10
920.8332150220101
 20
990.1082715834732
 30
0.0
 11
991.3332150220103
 21
990.1082715834732
 31
0.0
  0
LINE
  5
EFDC
330
D7A3
100
AcDbEntity
  8
AM_5
100
AcDbLine
 10
931.5332150220104
 20
994.1082715834731
 30
0.0
 11
991.3332150220103
 21
994.1082715834731
 31
0.0
  0
LINE
  5
EFDD
330
D7A3
100
AcDbEntity
  8
AM_5
100
AcDbLine
 10
986.3332150220102
 20
985.1082715834731
 30
0.0
 11
986.3332150220102
 21
980.1082715834732
 31
0.0
  0
LINE
  5
EFDE
330
D7A3
100
AcDbEntity
  8
AM_5
100
AcDbLine
 10
986.3332150220102
 20
999.1082715834732
 30
0.0
 11
986.3332150220102
 21
1027.108271583473
 31
0.0
  0
LINE
  5
EFDF
330
D7A3
100
AcDbEntity
  8
AM_5
100
AcDbLine
 10
986.3332150220102
 20
990.1082715834732
 30
0.0
 11
986.3332150220102
 21
994.1082715834731
 31
0.0
  0
INSERT
  5
EFE0
330
D7A3
100
AcDbEntity
  8
AM_5
100
AcDbBlockReference
  2
_Dot
 10
986.3332150220102
 20
990.1082715834732
 30
0.0
 41
5.0
 42
5.0
 43
5.0
 50
90.0
  0
INSERT
  5
EFE1
330
D7A3
100
AcDbEntity
  8
AM_5
100
AcDbBlockReference
  2
_Dot
 10
986.3332150220102
 20
994.1082715834731
 30
0.0
 41
5.0
 42
5.0
 43
5.0
 50
270.0
  0
MTEXT
  5
EFE2
330
D7A3
100
AcDbEntity
  8
AM_5
 62
     2
100
AcDbMText
 10
970.8332150220101
 20
1015.608271583473
 30
0.0
 40
16.0
 41
0.0
 71
     5
 72
     1
  1
4
 11
0.0000000000000001
 21
1.0
 31
0.0
 73
     1
 44
1.0
1001
ACAD
1000
MTEXTBEGIN
1070
    73
1070
     1
1070
    44
1040
1.0
1070
    74
1070
     0
1000
MTEXTEND
  0
POINT
  5
EFE3
330
D7A3
100
AcDbEntity
  8
Defpoints
 62
     0
100
AcDbPoint
 10
915.83321502201
 20
990.1082715834732
 30
0.0
  0
POINT
  5
EFE4
330
D7A3
100
AcDbEntity
  8
Defpoints
 62
     0
100
AcDbPoint
 10
926.5332150220103
 20
994.1082715834731
 30
0.0
  0
POINT
  5
EFE5
330
D7A3
100
AcDbEntity
  8
Defpoints
 62
     0
100
AcDbPoint
 10
986.3332150220102
 20
994.1082715834731
 30
0.0
  0
ENDBLK
  5
D7AE
330
D7A3
100
AcDbEntity
  8
0
100
AcDbBlockEnd
  0
BLOCK
  5
E3E7
330
E3DB
100
AcDbEntity
  8
0
100
AcDbBlockBegin
  2
*D27
 70
     1
 10
0.0
 20
0.0
 30
0.0
  3
*D27
  1

  0
LINE
  5
EFE6
330
E3DB
100
AcDbEntity
  8
AM_5
100
AcDbLine
 10
1263.198286207613
 20
865.1082576549029
 30
0.0
 11
1263.198286207613
 21
925.108257654903
 31
0.0
  0
LINE
  5
EFE7
330
E3DB
100
AcDbEntity
  8
AM_5
100
AcDbLine
 10
1245.698286207613
 20
863.6082576549028
 30
0.0
 11
1245.698286207613
 21
925.108257654903
 31
0.0
  0
LINE
  5
EFE8
330
E3DB
100
AcDbEntity
  8
AM_5
100
AcDbLine
 10
1268.198286207613
 20
920.108257654903
 30
0.0
 11
1273.198286207613
 21
920.108257654903
 31
0.0
  0
LINE
  5
EFE9
330
E3DB
100
AcDbEntity
  8
AM_5
100
AcDbLine
 10
1240.698286207613
 20
920.108257654903
 30
0.0
 11
1214.724952874279
 21
920.108257654903
 31
0.0
  0
LINE
  5
EFEA
330
E3DB
100
AcDbEntity
  8
AM_5
100
AcDbLine
 10
1263.198286207613
 20
920.108257654903
 30
0.0
 11
1245.698286207613
 21
920.108257654903
 31
0.0
  0
INSERT
  5
EFEB
330
E3DB
100
AcDbEntity
  8
AM_5
100
AcDbBlockReference
  2
_Dot
 10
1263.198286207613
 20
920.108257654903
 30
0.0
 41
5.0
 42
5.0
 43
5.0
 50
180.0
  0
INSERT
  5
EFEC
330
E3DB
100
AcDbEntity
  8
AM_5
100
AcDbBlockReference
  2
_Dot
 10
1245.698286207613
 20
920.108257654903
 30
0.0
 41
5.0
 42
5.0
 43
5.0
  0
MTEXT
  5
EFED
330
E3DB
100
AcDbEntity
  8
AM_5
 62
     2
100
AcDbMText
 10
1225.211619540946
 20
935.6082576549029
 30
0.0
 40
16.0
 41
0.0
 71
     5
 72
     1
  1
※
 73
     1
 44
1.0
1001
ACAD
1000
MTEXTBEGIN
1070
    73
1070
     1
1070
    44
1040
1.0
1070
    74
1070
     0
1000
MTEXTEND
  0
POINT
  5
EFEE
330
E3DB
100
AcDbEntity
  8
Defpoints
 62
     0
100
AcDbPoint
 10
1263.198286207613
 20
860.108257654903
 30
0.0
  0
POINT
  5
EFEF
330
E3DB
100
AcDbEntity
  8
Defpoints
 62
     0
100
AcDbPoint
 10
1245.698286207613
 20
858.608257654903
 30
0.0
  0
POINT
  5
EFF0
330
E3DB
100
AcDbEntity
  8
Defpoints
 62
     0
100
AcDbPoint
 10
1245.698286207613
 20
920.108257654903
 30
0.0
  0
ENDBLK
  5
E3E8
330
E3DB
100
AcDbEntity
  8
0
100
AcDbBlockEnd
  0
BLOCK
  5
F0AC
330
F0A5
100
AcDbEntity
  8
0
100
AcDbBlockBegin
  2
*S28
 70
     1
 10
0.0
 20
0.0
 30
0.0
  3
*S28
  1

  0
LINE
  5
F0A6
330
F0A5
100
AcDbEntity
  8
AM_5
 62
     3
100
AcDbLine
 10
200.9243907404418
 20
263.9361774132867
 30
0.0
 11
332.6577240737752
 21
263.9361774132867
 31
0.0
  0
LINE
  5
F0A7
330
F0A5
100
AcDbEntity
  8
AM_5
 62
     3
100
AcDbLine
 10
332.6577240737752
 20
263.9361774132867
 30
0.0
 11
364.6782784463891
 21
299.4889533854923
 31
0.0
  0
LINE
  5
F0A8
330
F0A5
100
AcDbEntity
  8
AM_5
  6
Continuous
 62
     3
100
AcDbLine
 10
364.678278446389
 20
299.4889533854923
 30
0.0
 11
371.3705876059339
 21
306.9194983260113
 31
0.0
  0
LINE
  5
F0A9
330
F0A5
100
AcDbEntity
  8
AM_5
  6
Continuous
 62
     3
100
AcDbLine
 10
366.6692869444597
 20
297.6957545669627
 30
0.0
 11
371.3705876059339
 21
306.9194983260113
 31
0.0
  0
LINE
  5
F0AA
330
F0A5
100
AcDbEntity
  8
AM_5
  6
Continuous
 62
     3
100
AcDbLine
 10
371.3705876059339
 20
306.9194983260113
 30
0.0
 11
362.6872699483184
 21
301.282152204022
 31
0.0
  0
MTEXT
  5
F0AB
330
F0A5
100
AcDbEntity
  8
AM_5
 62
     2
100
AcDbMText
 10
316.6577240737752
 20
271.9361774132867
 30
0.0
 40
16.0
 41
0.0
 71
     9
 72
     5
  1
下部取付ブラケット
 73
     1
 44
1.0
1001
ACAD
1000
MTEXTBEGIN
1070
    73
1070
     1
1070
    44
1040
1.0
1070
    74
1070
     0
1000
MTEXTEND
  0
ENDBLK
  5
F0AD
330
F0A5
100
AcDbEntity
  8
0
100
AcDbBlockEnd
  0
BLOCK
  5
F0B6
330
F0AF
100
AcDbEntity
  8
0
100
AcDbBlockBegin
  2
*S29
 70
     1
 10
0.0
 20
0.0
 30
0.0
  3
*S29
  1

  0
LINE
  5
F0B0
330
F0AF
100
AcDbEntity
  8
AM_5
 62
     3
100
AcDbLine
 10
235.1447726036621
 20
364.4394041392903
 30
0.0
 11
301.9181059369954
 21
364.4394041392903
 31
0.0
  0
LINE
  5
F0B1
330
F0AF
100
AcDbEntity
  8
AM_5
 62
     3
100
AcDbLine
 10
301.9181059369954
 20
364.4394041392903
 30
0.0
 11
365.5590580879382
 21
326.7343812748504
 31
0.0
  0
LINE
  5
F0B2
330
F0AF
100
AcDbEntity
  8
AM_5
  6
Continuous
 62
     3
100
AcDbLine
 10
365.5590580879382
 20
326.7343812748504
 30
0.0
 11
374.1624556479383
 21
321.6371712120235
 31
0.0
  0
LINE
  5
F0B3
330
F0AF
100
AcDbEntity
  8
AM_5
  6
Continuous
 62
     3
100
AcDbLine
 10
364.1932647803439
 20
324.4291078674004
 30
0.0
 11
374.1624556479383
 21
321.6371712120235
 31
0.0
  0
LINE
  5
F0B4
330
F0AF
100
AcDbEntity
  8
AM_5
  6
Continuous
 62
     3
100
AcDbLine
 10
374.1624556479383
 20
321.6371712120235
 30
0.0
 11
366.9248513955325
 21
329.0396546823004
 31
0.0
  0
MTEXT
  5
F0B5
330
F0AF
100
AcDbEntity
  8
AM_5
 62
     2
100
AcDbMText
 10
285.9181059369954
 20
372.4394041392903
 30
0.0
 40
16.0
 41
0.0
 71
     9
 72
     5
  1
下穴不要
 73
     1
 44
1.0
1001
ACAD
1000
MTEXTBEGIN
1070
    73
1070
     1
1070
    44
1040
1.0
1070
    74
1070
     0
1000
MTEXTEND
  0
ENDBLK
  5
F0B7
330
F0AF
100
AcDbEntity
  8
0
100
AcDbBlockEnd
  0
BLOCK
  5
F0C0
330
F0B9
100
AcDbEntity
  8
0
100
AcDbBlockBegin
  2
*S30
 70
     1
 10
0.0
 20
0.0
 30
0.0
  3
*S30
  1

  0
LINE
  5
F0BA
330
F0B9
100
AcDbEntity
  8
AM_5
 62
     3
100
AcDbLine
 10
661.8704889691615
 20
991.7678576486059
 30
0.0
 11
768.9638223024949
 21
991.7678576486059
 31
0.0
  0
LINE
  5
F0BB
330
F0B9
100
AcDbEntity
  8
AM_5
 62
     3
100
AcDbLine
 10
768.9638223024949
 20
991.7678576486059
 30
0.0
 11
792.8941731284951
 21
967.8375068226058
 31
0.0
  0
LINE
  5
F0BC
330
F0B9
100
AcDbEntity
  8
AM_5
  6
Continuous
 62
     3
100
AcDbLine
 10
792.8941731284951
 20
967.8375068226058
 30
0.0
 11
799.9652409403607
 21
960.7664390107402
 31
0.0
  0
LINE
  5
F0BD
330
F0B9
100
AcDbEntity
  8
AM_5
  6
Continuous
 62
     3
100
AcDbLine
 10
790.9994862358708
 20
965.9428199299812
 30
0.0
 11
799.9652409403607
 21
960.7664390107402
 31
0.0
  0
LINE
  5
F0BE
330
F0B9
100
AcDbEntity
  8
AM_5
  6
Continuous
 62
     3
100
AcDbLine
 10
799.9652409403607
 20
960.7664390107402
 30
0.0
 11
794.7888600211196
 21
969.7321937152301
 31
0.0
  0
MTEXT
  5
F0BF
330
F0B9
100
AcDbEntity
  8
AM_5
 62
     2
100
AcDbMText
 10
752.9638223024949
 20
999.7678576486059
 30
0.0
 40
16.0
 41
0.0
 71
     9
 72
     5
  1
室番号貼付位置\P（シール別途）
 73
     1
 44
1.0
1001
ACAD
1000
MTEXTBEGIN
1070
    73
1070
     1
1070
    44
1040
1.0
1070
    74
1070
     0
1000
MTEXTEND
  0
ENDBLK
  5
F0C1
330
F0B9
100
AcDbEntity
  8
0
100
AcDbBlockEnd
  0
BLOCK
  5
F0CA
330
F0C3
100
AcDbEntity
  8
0
100
AcDbBlockBegin
  2
*S31
 70
     1
 10
0.0
 20
0.0
 30
0.0
  3
*S31
  1

  0
LINE
  5
F0C4
330
F0C3
100
AcDbEntity
  8
AM_5
 62
     3
100
AcDbLine
 10
133.0843248906672
 20
823.2121513441905
 30
0.0
 11
292.4443248906673
 21
823.2121513441905
 31
0.0
  0
LINE
  5
F0C5
330
F0C3
100
AcDbEntity
  8
AM_5
 62
     3
100
AcDbLine
 10
292.4443248906673
 20
823.2121513441905
 30
0.0
 11
393.083220878094
 21
765.1082576549029
 31
0.0
  0
LINE
  5
F0C6
330
F0C3
100
AcDbEntity
  8
AM_5
  6
Continuous
 62
     3
100
AcDbLine
 10
393.083220878094
 20
765.1082576549029
 30
0.0
 11
401.7434749159383
 21
760.1082576549028
 31
0.0
  0
LINE
  5
F0C7
330
F0C3
100
AcDbEntity
  8
AM_5
  6
Continuous
 62
     3
100
AcDbLine
 10
391.743474928094
 20
762.7877496002683
 30
0.0
 11
401.7434749159383
 21
760.1082576549028
 31
0.0
  0
LINE
  5
F0C8
330
F0C3
100
AcDbEntity
  8
AM_5
  6
Continuous
 62
     3
100
AcDbLine
 10
401.7434749159383
 20
760.1082576549028
 30
0.0
 11
394.422966828094
 21
767.4287657095375
 31
0.0
  0
MTEXT
  5
F0C9
330
F0C3
100
AcDbEntity
  8
AM_5
 62
     2
100
AcDbMText
 10
276.4443248906673
 20
831.2121513441905
 30
0.0
 40
16.0
 41
0.0
 71
     9
 72
     5
  1
インターホン用結線位置
 73
     1
 44
1.0
1001
ACAD
1000
MTEXTBEGIN
1070
    73
1070
     1
1070
    44
1040
1.0
1070
    74
1070
     0
1000
MTEXTEND
  0
ENDBLK
  5
F0CB
330
F0C3
100
AcDbEntity
  8
0
100
AcDbBlockEnd
  0
BLOCK
  5
F0D4
330
F0CD
100
AcDbEntity
  8
0
100
AcDbBlockBegin
  2
*S32
 70
     1
 10
0.0
 20
0.0
 30
0.0
  3
*S32
  1

  0
LINE
  5
F0CE
330
F0CD
100
AcDbEntity
  8
AM_5
 62
     3
100
AcDbLine
 10
1055.467492451189
 20
986.9057837836599
 30
0.0
 11
1199.533230245486
 21
986.9057837836599
 31
0.0
  0
LINE
  5
F0CF
330
F0CD
100
AcDbEntity
  8
AM_5
 62
     3
100
AcDbLine
 10
1199.533230245486
 20
986.9057837836599
 30
0.0
 11
1210.858815025419
 21
960.1714707494487
 31
0.0
  0
LINE
  5
F0D0
330
F0CD
100
AcDbEntity
  8
AM_5
  6
Continuous
 62
     3
100
AcDbLine
 10
1210.858815025419
 20
960.1714707494487
 30
0.0
 11
1214.759571293771
 21
950.9636425291292
 31
0.0
  0
LINE
  5
F0D1
330
F0CD
100
AcDbEntity
  8
AM_5
  6
Continuous
 62
     3
100
AcDbLine
 10
1208.391584912125
 20
959.1262662669564
 30
0.0
 11
1214.759571293771
 21
950.9636425291292
 31
0.0
  0
LINE
  5
F0D2
330
F0CD
100
AcDbEntity
  8
AM_5
  6
Continuous
 62
     3
100
AcDbLine
 10
1214.759571293771
 20
950.9636425291292
 30
0.0
 11
1213.326045138713
 21
961.216675231941
 31
0.0
  0
MTEXT
  5
F0D3
330
F0CD
100
AcDbEntity
  8
AM_5
 62
     2
100
AcDbMText
 10
1055.467492451189
 20
992.3480161395971
 30
0.0
 40
16.0
 41
0.0
 71
     7
 72
     5
  1
使用する\Pインターホン子機により\P異なります
 73
     1
 44
1.0
1001
ACAD
1000
MTEXTBEGIN
1070
    73
1070
     1
1070
    44
1040
1.0
1070
    74
1070
     0
1000
MTEXTEND
  0
ENDBLK
  5
F0D5
330
F0CD
100
AcDbEntity
  8
0
100
AcDbBlockEnd
  0
ENDSEC
  0
SECTION
  2
ENTITIES
  0
LINE
  5
B66E
330
1F
100
AcDbEntity
  8
size
100
AcDbLine
 10
0.0000000354804115
 20
-0.0000010992660009
 30
0.0
 11
2100.00000003548
 21
-0.0000010992660009
 31
0.0
1001
GENIUS_GENREC_14
1002
{
1000
PYDIR
1011
0.0000000354805252
1021
1484.999998900733
1031
0.0
1002
}
1002
{
1000
PXDIR
1011
2100.00000003548
1021
-0.0000010992660009
1031
0.0
1002
}
1002
{
1000
PORI
1011
0.0000000354804115
1021
-0.0000010992660009
1031
0.0
1002
}
1002
{
1000
PINS
1011
1050.00000003548
1021
742.499998900733
1031
0.0
1002
}
1002
{
1000
HVAL
1000
297
1002
}
1002
{
1000
H
1070
     2
1002
}
1002
{
1000
WVAL
1000
420
1002
}
1002
{
1000
W
1070
     2
1002
}
1002
{
1000
C
1070
     4
1002
}
1001
GENIUS_GENOBJ-N-REC_13
1002
{
1000
OWNER
1000
GEN
1002
}
1001
GENIUS_GENODEF_13
1002
{
1000
HIER
1070
     0
1002
}
1002
{
1000
MANEDIT
1070
     0
1002
}
1002
{
1000
NOSEL
1070
     0
1002
}
1002
{
1000
BEHIND
1070
     0
1002
}
1002
{
1000
OTHER
1070
     0
1002
}
1002
{
1000
REACTOR
1002
}
  0
LINE
  5
B66F
330
1F
100
AcDbEntity
  8
size
100
AcDbLine
 10
2100.00000003548
 20
-0.0000010992660009
 30
0.0
 11
2100.00000003548
 21
1484.999998900733
 31
0.0
1001
GENIUS_GENREC_14
1002
{
1000
PYDIR
1011
0.0000000354805252
1021
1484.999998900733
1031
0.0
1002
}
1002
{
1000
PXDIR
1011
2100.00000003548
1021
-0.0000010992660009
1031
0.0
1002
}
1002
{
1000
PORI
1011
0.0000000354804115
1021
-0.0000010992660009
1031
0.0
1002
}
1002
{
1000
PINS
1011
1050.00000003548
1021
742.499998900733
1031
0.0
1002
}
1002
{
1000
HVAL
1000
297
1002
}
1002
{
1000
H
1070
     2
1002
}
1002
{
1000
WVAL
1000
420
1002
}
1002
{
1000
W
1070
     2
1002
}
1002
{
1000
C
1070
     4
1002
}
1001
GENIUS_GENOBJ-N-REC_13
1002
{
1000
OWNER
1000
GEN
1002
}
1001
GENIUS_GENODEF_13
1002
{
1000
HIER
1070
     0
1002
}
1002
{
1000
MANEDIT
1070
     0
1002
}
1002
{
1000
NOSEL
1070
     0
1002
}
1002
{
1000
BEHIND
1070
     0
1002
}
1002
{
1000
OTHER
1070
     0
1002
}
1002
{
1000
REACTOR
1002
}
  0
LINE
  5
B670
330
1F
100
AcDbEntity
  8
size
100
AcDbLine
 10
2100.00000003548
 20
1484.999998900733
 30
0.0
 11
0.0000000354805252
 21
1484.999998900733
 31
0.0
1001
GENIUS_GENREC_14
1002
{
1000
PYDIR
1011
0.0000000354805252
1021
1484.999998900733
1031
0.0
1002
}
1002
{
1000
PXDIR
1011
2100.00000003548
1021
-0.0000010992660009
1031
0.0
1002
}
1002
{
1000
PORI
1011
0.0000000354804115
1021
-0.0000010992660009
1031
0.0
1002
}
1002
{
1000
PINS
1011
1050.00000003548
1021
742.499998900733
1031
0.0
1002
}
1002
{
1000
HVAL
1000
297
1002
}
1002
{
1000
H
1070
     2
1002
}
1002
{
1000
WVAL
1000
420
1002
}
1002
{
1000
W
1070
     2
1002
}
1002
{
1000
C
1070
     4
1002
}
1001
GENIUS_GENOBJ-N-REC_13
1002
{
1000
OWNER
1000
GEN
1002
}
1001
GENIUS_GENODEF_13
1002
{
1000
HIER
1070
     0
1002
}
1002
{
1000
MANEDIT
1070
     0
1002
}
1002
{
1000
NOSEL
1070
     0
1002
}
1002
{
1000
BEHIND
1070
     0
1002
}
1002
{
1000
OTHER
1070
     0
1002
}
1002
{
1000
REACTOR
1002
}
  0
LINE
  5
B671
330
1F
100
AcDbEntity
  8
size
100
AcDbLine
 10
0.0000000354805252
 20
1484.999998900733
 30
0.0
 11
0.0000000354804115
 21
-0.0000010992660009
 31
0.0
1001
GENIUS_GENREC_14
1002
{
1000
PYDIR
1011
0.0000000354805252
1021
1484.999998900733
1031
0.0
1002
}
1002
{
1000
PXDIR
1011
2100.00000003548
1021
-0.0000010992660009
1031
0.0
1002
}
1002
{
1000
PORI
1011
0.0000000354804115
1021
-0.0000010992660009
1031
0.0
1002
}
1002
{
1000
PINS
1011
1050.00000003548
1021
742.499998900733
1031
0.0
1002
}
1002
{
1000
HVAL
1000
297
1002
}
1002
{
1000
H
1070
     2
1002
}
1002
{
1000
WVAL
1000
420
1002
}
1002
{
1000
W
1070
     2
1002
}
1002
{
1000
C
1070
     4
1002
}
1001
GENIUS_GENOBJ-N-REC_13
1002
{
1000
OWNER
1000
GEN
1002
}
1001
GENIUS_GENODEF_13
1002
{
1000
HIER
1070
     0
1002
}
1002
{
1000
MANEDIT
1070
     0
1002
}
1002
{
1000
NOSEL
1070
     0
1002
}
1002
{
1000
BEHIND
1070
     0
1002
}
1002
{
1000
OTHER
1070
     0
1002
}
1002
{
1000
REACTOR
1002
}
  0
LINE
  5
B672
330
1F
100
AcDbEntity
  8
waku
100
AcDbLine
 10
2042.50000003548
 20
42.49999890073286
 30
0.0
 11
2042.50000003548
 21
1442.499998900733
 31
0.0
1001
GENIUS_GENREC_14
1002
{
1000
PYDIR
1011
0.0000000354805252
1021
1484.999998900733
1031
0.0
1002
}
1002
{
1000
PXDIR
1011
2100.00000003548
1021
-0.0000010992660009
1031
0.0
1002
}
1002
{
1000
PORI
1011
0.0000000354804115
1021
-0.0000010992660009
1031
0.0
1002
}
1002
{
1000
PINS
1011
1050.00000003548
1021
742.499998900733
1031
0.0
1002
}
1002
{
1000
HVAL
1000
297
1002
}
1002
{
1000
H
1070
     2
1002
}
1002
{
1000
WVAL
1000
420
1002
}
1002
{
1000
W
1070
     2
1002
}
1002
{
1000
C
1070
     4
1002
}
1001
GENIUS_GENOBJ-N-REC_13
1002
{
1000
OWNER
1000
GEN
1002
}
1001
GENIUS_GENODEF_13
1002
{
1000
HIER
1070
     0
1002
}
1002
{
1000
MANEDIT
1070
     0
1002
}
1002
{
1000
NOSEL
1070
     0
1002
}
1002
{
1000
BEHIND
1070
     0
1002
}
1002
{
1000
OTHER
1070
     0
1002
}
1002
{
1000
REACTOR
1002
}
  0
LINE
  5
B673
330
1F
100
AcDbEntity
  8
waku
100
AcDbLine
 10
57.50000003548052
 20
1442.499998900733
 30
0.0
 11
57.50000003548041
 21
42.49999890073286
 31
0.0
1001
GENIUS_GENREC_14
1002
{
1000
PYDIR
1011
0.0000000354805252
1021
1484.999998900733
1031
0.0
1002
}
1002
{
1000
PXDIR
1011
2100.00000003548
1021
-0.0000010992660009
1031
0.0
1002
}
1002
{
1000
PORI
1011
0.0000000354804115
1021
-0.0000010992660009
1031
0.0
1002
}
1002
{
1000
PINS
1011
1050.00000003548
1021
742.499998900733
1031
0.0
1002
}
1002
{
1000
HVAL
1000
297
1002
}
1002
{
1000
H
1070
     2
1002
}
1002
{
1000
WVAL
1000
420
1002
}
1002
{
1000
W
1070
     2
1002
}
1002
{
1000
C
1070
     4
1002
}
1001
GENIUS_GENOBJ-N-REC_13
1002
{
1000
OWNER
1000
GEN
1002
}
1001
GENIUS_GENODEF_13
1002
{
1000
HIER
1070
     0
1002
}
1002
{
1000
MANEDIT
1070
     0
1002
}
1002
{
1000
NOSEL
1070
     0
1002
}
1002
{
1000
BEHIND
1070
     0
1002
}
1002
{
1000
OTHER
1070
     0
1002
}
1002
{
1000
REACTOR
1002
}
  0
LINE
  5
B674
330
1F
100
AcDbEntity
  8
waku
100
AcDbLine
 10
2042.50000003548
 20
1442.499998900733
 30
0.0
 11
57.50000003548052
 21
1442.499998900733
 31
0.0
1001
GENIUS_GENREC_14
1002
{
1000
PYDIR
1011
0.0000000354805252
1021
1484.999998900733
1031
0.0
1002
}
1002
{
1000
PXDIR
1011
2100.00000003548
1021
-0.0000010992660009
1031
0.0
1002
}
1002
{
1000
PORI
1011
0.0000000354804115
1021
-0.0000010992660009
1031
0.0
1002
}
1002
{
1000
PINS
1011
1050.00000003548
1021
742.499998900733
1031
0.0
1002
}
1002
{
1000
HVAL
1000
297
1002
}
1002
{
1000
H
1070
     2
1002
}
1002
{
1000
WVAL
1000
420
1002
}
1002
{
1000
W
1070
     2
1002
}
1002
{
1000
C
1070
     4
1002
}
1001
GENIUS_GENOBJ-N-REC_13
1002
{
1000
OWNER
1000
GEN
1002
}
1001
GENIUS_GENODEF_13
1002
{
1000
HIER
1070
     0
1002
}
1002
{
1000
MANEDIT
1070
     0
1002
}
1002
{
1000
NOSEL
1070
     0
1002
}
1002
{
1000
BEHIND
1070
     0
1002
}
1002
{
1000
OTHER
1070
     0
1002
}
1002
{
1000
REACTOR
1002
}
  0
LINE
  5
B675
330
1F
100
AcDbEntity
  8
waku
100
AcDbLine
 10
57.50000003548041
 20
42.49999890073286
 30
0.0
 11
2042.50000003548
 21
42.49999890073286
 31
0.0
  0
LINE
  5
B676
330
1F
100
AcDbEntity
  8
AM_0
100
AcDbLine
 10
57.50000003548041
 20
1442.499998900733
 30
0.0
 11
57.50000003548041
 21
899.324805496899
 31
0.0
  0
LINE
  5
B7AA
330
1F
100
AcDbEntity
  8
AM_0
100
AcDbLine
 10
57.50000003548041
 20
1442.499998900733
 30
0.0
 11
607.5000000354803
 21
1442.499998900733
 31
0.0
  0
LINE
  5
B7AB
330
1F
100
AcDbEntity
  8
AM_0
100
AcDbLine
 10
57.50000003548041
 20
1402.499998900733
 30
0.0
 11
607.5000000354803
 21
1402.499998900733
 31
0.0
  0
LINE
  5
B7AC
330
1F
100
AcDbEntity
  8
AM_0
100
AcDbLine
 10
157.5000000354803
 20
1442.499998900733
 30
0.0
 11
157.5000000354803
 21
1362.499998900733
 31
0.0
  0
LINE
  5
B7AD
330
1F
100
AcDbEntity
  8
AM_0
100
AcDbLine
 10
57.50000003548041
 20
1362.499998900733
 30
0.0
 11
607.5000000354803
 21
1362.499998900733
 31
0.0
  0
LINE
  5
B7AE
330
1F
100
AcDbEntity
  8
AM_0
100
AcDbLine
 10
607.5000000354803
 20
1442.499998900733
 30
0.0
 11
607.5000000354803
 21
1362.499998900733
 31
0.0
  0
TEXT
  5
B7AF
330
1F
100
AcDbEntity
  8
AM_6
100
AcDbText
 10
93.78500003548015
 20
1414.499998900734
 30
0.0
 40
16.0
  1
品名
 41
0.8643907499999999
100
AcDbText
  0
TEXT
  5
B7B0
330
1F
100
AcDbEntity
  8
AM_6
100
AcDbText
 10
93.78500003548015
 20
1374.499998900734
 30
0.0
 40
16.0
  1
品番
 41
0.8643907499999999
100
AcDbText
  0
TEXT
  5
B7B1
330
1F
100
AcDbEntity
  8
AM_6
100
AcDbText
 10
193.7850000354801
 20
1414.499998900734
 30
0.0
 40
16.0
  1
エントランスユニット
 41
0.8643907499999999
100
AcDbText
  0
TEXT
  5
B7B2
330
1F
100
AcDbEntity
  8
AM_6
100
AcDbText
 10
193.7850000354801
 20
1374.499998900734
 30
0.0
 40
16.0
  1
EP-A65-3「　」
 41
0.8643907499999999
100
AcDbText
  0
LINE
  5
B7B3
330
1F
100
AcDbEntity
  8
AM_0
100
AcDbLine
 10
1442.50000003548
 20
1397.499998900733
 30
0.0
 11
1992.50000003548
 21
1397.499998900733
 31
0.0
  0
LINE
  5
B7B4
330
1F
100
AcDbEntity
  8
AM_0
100
AcDbLine
 10
1567.50000003548
 20
1397.499998900733
 30
0.0
 11
1567.50000003548
 21
917.4999989007332
 31
0.0
  0
LINE
  5
B7B5
330
1F
100
AcDbEntity
  8
AM_0
100
AcDbLine
 10
1442.50000003548
 20
1397.499998900733
 30
0.0
 11
1442.50000003548
 21
917.4999989007332
 31
0.0
  0
LINE
  5
B7B7
330
1F
100
AcDbEntity
  8
AM_0
100
AcDbLine
 10
1992.50000003548
 20
1397.499998900733
 30
0.0
 11
1992.50000003548
 21
917.4999989007332
 31
0.0
  0
LINE
  5
B7B8
330
1F
100
AcDbEntity
  8
AM_0
100
AcDbLine
 10
1442.50000003548
 20
1277.499998900733
 30
0.0
 11
1992.50000003548
 21
1277.499998900733
 31
0.0
  0
LINE
  5
B7B9
330
1F
100
AcDbEntity
  8
AM_0
100
AcDbLine
 10
1442.50000003548
 20
917.4999989007332
 30
0.0
 11
1992.50000003548
 21
917.4999989007332
 31
0.0
  0
TEXT
  5
B7BA
330
1F
100
AcDbEntity
  8
AM_6
100
AcDbText
 10
1689.74905550726
 20
1407.499998900733
 30
0.0
 40
20.0
  1
仕様表
 41
0.8553702799999999
100
AcDbText
  0
LINE
  5
B7BE
330
1F
100
AcDbEntity
  8
AM_0
100
AcDbLine
 10
1442.50000003548
 20
1357.499998900733
 30
0.0
 11
1992.50000003548
 21
1357.499998900733
 31
0.0
  0
TEXT
  5
B7CA
330
1F
100
AcDbEntity
  8
AM_6
100
AcDbText
 10
1426.059904171242
 20
748.8386761594283
 30
0.0
 40
16.0
  1
※室番号シールは別途手配となります。
 41
0.8426054399999999
100
AcDbText
  0
TEXT
  5
B7CB
330
1F
100
AcDbEntity
  8
AM_6
100
AcDbText
 10
1426.059904171242
 20
707.838677659427
 30
0.0
 40
16.0
  1
※品番の「　」にはインターホンメーカー別の型番が入ります。インターホン
 41
0.8414926099999997
100
AcDbText
  0
TEXT
  5
B7CC
330
1F
100
AcDbEntity
  8
AM_6
100
AcDbText
 10
1426.059904171242
 20
683.8386766594274
 30
0.0
 40
16.0
  1
　対応メーカー及び機種についての詳しい情報はネスティブカタログインターホン
 41
0.8414601799999999
100
AcDbText
  0
TEXT
  5
B7CD
330
1F
100
AcDbEntity
  8
AM_6
100
AcDbText
 10
1426.059904171242
 20
659.8386751594264
 30
0.0
 40
16.0
  1
　パネルのページをご参照下さい。
 41
0.8455654
100
AcDbText
  0
TEXT
  5
B7CE
330
1F
100
AcDbEntity
  8
AM_6
100
AcDbText
 10
1426.059904171242
 20
615.838710159426
 30
0.0
 40
16.0
  1
※インターホン部切欠は使用するインターホン子機により異なります。
 41
0.8416021699999999
100
AcDbText
  0
TEXT
  5
B7CF
330
1F
100
AcDbEntity
  8
AM_6
100
AcDbText
 10
1426.059904171242
 20
591.8387101594273
 30
0.0
 40
16.0
  1
　詳しい情報はネスティブカタログインターホンパネルのページをご参照下さい。
 41
0.8417852099999999
100
AcDbText
  0
LINE
  5
D186
330
1F
100
AcDbEntity
  8
AM_0
370
    15
100
AcDbLine
 10
926.3332150220103
 20
292.1082715834732
 30
0.0
 11
926.3332150220103
 21
992.1082715834732
 31
0.0
  0
LINE
  5
D187
330
1F
100
AcDbEntity
  8
AM_0
370
    15
100
AcDbLine
 10
916.3332150220103
 20
292.1082715834732
 30
0.0
 11
916.3332150220103
 21
992.1082715834732
 31
0.0
  0
LINE
  5
D188
330
1F
100
AcDbEntity
  8
AM_0
370
    15
100
AcDbLine
 10
788.3332150220103
 20
292.1082715834732
 30
0.0
 11
788.3332150220103
 21
992.1082715834732
 31
0.0
  0
LINE
  5
D189
330
1F
100
AcDbEntity
  8
AM_0
370
    15
100
AcDbLine
 10
778.3332150220103
 20
292.1082715834732
 30
0.0
 11
778.3332150220103
 21
992.1082715834732
 31
0.0
  0
LINE
  5
D18A
330
1F
100
AcDbEntity
  8
AM_0
 48
0.5
370
     5
100
AcDbLine
 10
887.8332150220085
 20
297.6082715834732
 30
0.0
 11
881.3397767336409
 21
297.6082715834733
 31
0.0
  0
LINE
  5
D18B
330
1F
100
AcDbEntity
  8
AM_0
 48
0.5
370
     5
100
AcDbLine
 10
873.3266609397796
 20
297.6082715834732
 30
0.0
 11
831.3397767336409
 21
297.6082715834732
 31
0.0
  0
LINE
  5
D18C
330
1F
100
AcDbEntity
  8
AM_0
 48
0.5
370
     5
100
AcDbLine
 10
823.3266609397796
 20
297.6082715834732
 30
0.0
 11
816.8332150220104
 21
297.6082715834732
 31
0.0
  0
LINE
  5
D18D
330
1F
100
AcDbEntity
  8
AM_0
 48
0.3
370
     5
100
AcDbLine
 10
816.8332150220104
 20
297.6082715834732
 30
0.0
 11
816.8332150220081
 21
300.1082715834732
 31
0.0
  0
LINE
  5
D18E
330
1F
100
AcDbEntity
  8
AM_0
 48
0.3
370
     5
100
AcDbLine
 10
887.8332150220085
 20
297.6082715834732
 30
0.0
 11
887.8332150220085
 21
300.1082715834732
 31
0.0
  0
LINE
  5
D18F
330
1F
100
AcDbEntity
  8
AM_0
 48
0.5
370
     5
100
AcDbLine
 10
877.8332150220103
 20
300.1082715834732
 30
0.0
 11
826.8332150220086
 21
300.1082715834732
 31
0.0
  0
LINE
  5
D190
330
1F
100
AcDbEntity
  8
AM_0
 48
0.3
370
     5
100
AcDbLine
 10
887.3332150220104
 20
298.6080081931755
 30
0.0
 11
887.3332150220104
 21
300.1082715834732
 31
0.0
  0
LINE
  5
D191
330
1F
100
AcDbEntity
  8
AM_0
 48
0.5
370
     5
100
AcDbLine
 10
887.3332150220104
 20
298.6080081931755
 30
0.0
 11
817.3332150220103
 21
298.6080081931755
 31
0.0
  0
LINE
  5
D192
330
1F
100
AcDbEntity
  8
AM_0
 48
0.5
370
     5
100
AcDbLine
 10
887.3332150220104
 20
300.1080082005846
 30
0.0
 11
817.3332150214823
 21
300.1080081931755
 31
0.0
  0
LINE
  5
D193
330
1F
100
AcDbEntity
  8
AM_0
 48
0.3
370
     5
100
AcDbLine
 10
817.3332150214823
 20
298.6080081931755
 30
0.0
 11
817.3332150202504
 21
300.1082715834732
 31
0.0
  0
ARC
  5
D195
330
1F
100
AcDbEntity
  8
AM_0
 48
0.5
100
AcDbCircle
 10
813.8332150220103
 20
308.6082715834732
 30
0.0
 40
1.5
100
AcDbArc
 50
90.0
 51
180.0
1001
GENIUS_GENREC_14
1002
{
1000
PYDIR
1011
812.3332150220104
1021
300.1082715834732
1031
0.0
1002
}
1002
{
1000
PXDIR
1011
892.3332150220103
1021
310.1082715834732
1031
0.0
1002
}
1002
{
1000
PORI
1011
812.3332150220104
1021
310.1082715834732
1031
0.0
1002
}
1002
{
1000
PINS
1011
812.3332150220104
1021
310.1082715834732
1031
0.0
1002
}
1002
{
1000
PINS2
1011
892.3332150220103
1021
300.1082715834732
1031
0.0
1002
}
1002
{
1000
C
1070
     1
1002
}
1001
GENIUS_GENODEF_13
1002
{
1000
HIER
1070
     0
1002
}
1002
{
1000
MANEDIT
1070
     0
1002
}
1002
{
1000
NOSEL
1070
     0
1002
}
1002
{
1000
BEHIND
1070
     0
1002
}
1002
{
1000
OTHER
1070
     0
1002
}
1002
{
1000
REACTOR
1002
}
1001
GENIUS_GENOBJ-N-REC_13
1002
{
1000
OWNER
1000
GEN
1002
}
  0
LINE
  5
D196
330
1F
100
AcDbEntity
  8
AM_0
 48
0.5
100
AcDbLine
 10
813.8332150220103
 20
310.1082715834732
 30
0.0
 11
890.8332150220102
 21
310.1082715834732
 31
0.0
1001
GENIUS_GENREC_14
1002
{
1000
PYDIR
1011
812.3332150220104
1021
300.1082715834732
1031
0.0
1002
}
1002
{
1000
PXDIR
1011
892.3332150220103
1021
310.1082715834732
1031
0.0
1002
}
1002
{
1000
PORI
1011
812.3332150220104
1021
310.1082715834732
1031
0.0
1002
}
1002
{
1000
PINS
1011
812.3332150220104
1021
310.1082715834732
1031
0.0
1002
}
1002
{
1000
PINS2
1011
892.3332150220103
1021
300.1082715834732
1031
0.0
1002
}
1002
{
1000
C
1070
     1
1002
}
1001
GENIUS_GENODEF_13
1002
{
1000
HIER
1070
     0
1002
}
1002
{
1000
MANEDIT
1070
     0
1002
}
1002
{
1000
NOSEL
1070
     0
1002
}
1002
{
1000
BEHIND
1070
     0
1002
}
1002
{
1000
OTHER
1070
     0
1002
}
1002
{
1000
REACTOR
1002
}
1001
GENIUS_GENOBJ-N-REC_13
1002
{
1000
OWNER
1000
GEN
1002
}
  0
ARC
  5
D197
330
1F
100
AcDbEntity
  8
AM_0
 48
0.5
100
AcDbCircle
 10
890.8332150220102
 20
308.6082715834732
 30
0.0
 40
1.5
100
AcDbArc
 50
0.0
 51
90.0
1001
GENIUS_GENREC_14
1002
{
1000
PYDIR
1011
812.3332150220104
1021
300.1082715834732
1031
0.0
1002
}
1002
{
1000
PXDIR
1011
892.3332150220103
1021
310.1082715834732
1031
0.0
1002
}
1002
{
1000
PORI
1011
812.3332150220104
1021
310.1082715834732
1031
0.0
1002
}
1002
{
1000
PINS
1011
812.3332150220104
1021
310.1082715834732
1031
0.0
1002
}
1002
{
1000
PINS2
1011
892.3332150220103
1021
300.1082715834732
1031
0.0
1002
}
1002
{
1000
C
1070
     1
1002
}
1001
GENIUS_GENODEF_13
1002
{
1000
HIER
1070
     0
1002
}
1002
{
1000
MANEDIT
1070
     0
1002
}
1002
{
1000
NOSEL
1070
     0
1002
}
1002
{
1000
BEHIND
1070
     0
1002
}
1002
{
1000
OTHER
1070
     0
1002
}
1002
{
1000
REACTOR
1002
}
1001
GENIUS_GENOBJ-N-REC_13
1002
{
1000
OWNER
1000
GEN
1002
}
  0
LINE
  5
D198
330
1F
100
AcDbEntity
  8
AM_0
 48
0.5
100
AcDbLine
 10
892.3332150220103
 20
308.6082715834732
 30
0.0
 11
892.3332150220103
 21
297.6082715834727
 31
0.0
1001
GENIUS_GENREC_14
1002
{
1000
PYDIR
1011
812.3332150220104
1021
300.1082715834732
1031
0.0
1002
}
1002
{
1000
PXDIR
1011
892.3332150220103
1021
310.1082715834732
1031
0.0
1002
}
1002
{
1000
PORI
1011
812.3332150220104
1021
310.1082715834732
1031
0.0
1002
}
1002
{
1000
PINS
1011
812.3332150220104
1021
310.1082715834732
1031
0.0
1002
}
1002
{
1000
PINS2
1011
892.3332150220103
1021
300.1082715834732
1031
0.0
1002
}
1002
{
1000
C
1070
     1
1002
}
1001
GENIUS_GENODEF_13
1002
{
1000
HIER
1070
     0
1002
}
1002
{
1000
MANEDIT
1070
     0
1002
}
1002
{
1000
NOSEL
1070
     0
1002
}
1002
{
1000
BEHIND
1070
     0
1002
}
1002
{
1000
OTHER
1070
     0
1002
}
1002
{
1000
REACTOR
1002
}
1001
GENIUS_GENOBJ-N-REC_13
1002
{
1000
OWNER
1000
GEN
1002
}
  0
ARC
  5
D199
330
1F
100
AcDbEntity
  8
AM_0
 48
0.5
100
AcDbCircle
 10
890.8332150220102
 20
297.6082715834727
 30
0.0
 40
1.5
100
AcDbArc
 50
270.0
 51
0.0
1001
GENIUS_GENREC_14
1002
{
1000
PYDIR
1011
812.3332150220104
1021
296.1082715834727
1031
0.0
1002
}
1002
{
1000
PXDIR
1011
892.3332150220103
1021
306.1082715834727
1031
0.0
1002
}
1002
{
1000
PORI
1011
812.3332150220104
1021
306.1082715834727
1031
0.0
1002
}
1002
{
1000
PINS
1011
812.3332150220104
1021
306.1082715834727
1031
0.0
1002
}
1002
{
1000
PINS2
1011
892.3332150220103
1021
296.1082715834727
1031
0.0
1002
}
1002
{
1000
C
1070
     1
1002
}
1001
GENIUS_GENODEF_13
1002
{
1000
HIER
1070
     0
1002
}
1002
{
1000
MANEDIT
1070
     0
1002
}
1002
{
1000
NOSEL
1070
     0
1002
}
1002
{
1000
BEHIND
1070
     0
1002
}
1002
{
1000
OTHER
1070
     0
1002
}
1002
{
1000
REACTOR
1002
}
1001
GENIUS_GENOBJ-N-REC_13
1002
{
1000
OWNER
1000
GEN
1002
}
  0
LINE
  5
D19A
330
1F
100
AcDbEntity
  8
AM_0
 48
0.5
100
AcDbLine
 10
890.8332150220102
 20
296.1082715834727
 30
0.0
 11
890.3332150220103
 21
296.1082715834727
 31
0.0
1001
GENIUS_GENREC_14
1002
{
1000
PYDIR
1011
812.3332150220104
1021
296.1082715834727
1031
0.0
1002
}
1002
{
1000
PXDIR
1011
892.3332150220103
1021
306.1082715834727
1031
0.0
1002
}
1002
{
1000
PORI
1011
812.3332150220104
1021
306.1082715834727
1031
0.0
1002
}
1002
{
1000
PINS
1011
812.3332150220104
1021
306.1082715834727
1031
0.0
1002
}
1002
{
1000
PINS2
1011
892.3332150220103
1021
296.1082715834727
1031
0.0
1002
}
1002
{
1000
C
1070
     1
1002
}
1001
GENIUS_GENODEF_13
1002
{
1000
HIER
1070
     0
1002
}
1002
{
1000
MANEDIT
1070
     0
1002
}
1002
{
1000
NOSEL
1070
     0
1002
}
1002
{
1000
BEHIND
1070
     0
1002
}
1002
{
1000
OTHER
1070
     0
1002
}
1002
{
1000
REACTOR
1002
}
1001
GENIUS_GENOBJ-N-REC_13
1002
{
1000
OWNER
1000
GEN
1002
}
  0
ARC
  5
D19B
330
1F
100
AcDbEntity
  8
AM_0
 48
0.5
100
AcDbCircle
 10
890.3332150220103
 20
297.1082715834727
 30
0.0
 40
1.0
100
AcDbArc
 50
180.0
 51
270.0
1001
GENIUS_GENREC_14
1002
{
1000
PYDIR
1011
812.3332150220104
1021
296.1082715834727
1031
0.0
1002
}
1002
{
1000
PXDIR
1011
892.3332150220103
1021
306.1082715834727
1031
0.0
1002
}
1002
{
1000
PORI
1011
812.3332150220104
1021
306.1082715834727
1031
0.0
1002
}
1002
{
1000
PINS
1011
812.3332150220104
1021
306.1082715834727
1031
0.0
1002
}
1002
{
1000
PINS2
1011
892.3332150220103
1021
296.1082715834727
1031
0.0
1002
}
1002
{
1000
C
1070
     1
1002
}
1001
GENIUS_GENODEF_13
1002
{
1000
HIER
1070
     0
1002
}
1002
{
1000
MANEDIT
1070
     0
1002
}
1002
{
1000
NOSEL
1070
     0
1002
}
1002
{
1000
BEHIND
1070
     0
1002
}
1002
{
1000
OTHER
1070
     0
1002
}
1002
{
1000
REACTOR
1002
}
1001
GENIUS_GENOBJ-N-REC_13
1002
{
1000
OWNER
1000
GEN
1002
}
  0
LINE
  5
D19C
330
1F
100
AcDbEntity
  8
AM_0
 48
0.3
100
AcDbLine
 10
889.3332150220103
 20
297.1082715834727
 30
0.0
 11
889.3332150220103
 21
300.1082715834732
 31
0.0
1001
GENIUS_GENREC_14
1002
{
1000
PYDIR
1011
812.3332150220104
1021
300.1082715834732
1031
0.0
1002
}
1002
{
1000
PXDIR
1011
892.3332150220103
1021
310.1082715834732
1031
0.0
1002
}
1002
{
1000
PORI
1011
812.3332150220104
1021
310.1082715834732
1031
0.0
1002
}
1002
{
1000
PINS
1011
812.3332150220104
1021
310.1082715834732
1031
0.0
1002
}
1002
{
1000
PINS2
1011
892.3332150220103
1021
300.1082715834732
1031
0.0
1002
}
1002
{
1000
C
1070
     1
1002
}
1001
GENIUS_GENODEF_13
1002
{
1000
HIER
1070
     0
1002
}
1002
{
1000
MANEDIT
1070
     0
1002
}
1002
{
1000
NOSEL
1070
     0
1002
}
1002
{
1000
BEHIND
1070
     0
1002
}
1002
{
1000
OTHER
1070
     0
1002
}
1002
{
1000
REACTOR
1002
}
1001
GENIUS_GENOBJ-N-REC_13
1002
{
1000
OWNER
1000
GEN
1002
}
  0
LINE
  5
D19D
330
1F
100
AcDbEntity
  8
AM_0
 48
0.5
100
AcDbLine
 10
814.3332150220103
 20
300.1082715834732
 30
0.0
 11
890.3332150220103
 21
300.1082715834732
 31
0.0
  0
ARC
  5
D19E
330
1F
100
AcDbEntity
  8
AM_0
 48
0.5
100
AcDbCircle
 10
890.8332150220102
 20
301.6082715834732
 30
0.0
 40
1.5
100
AcDbArc
 50
270.0
 51
0.0
1001
GENIUS_GENREC_14
1002
{
1000
PYDIR
1011
812.3332150220104
1021
300.1082715834732
1031
0.0
1002
}
1002
{
1000
PXDIR
1011
892.3332150220103
1021
310.1082715834732
1031
0.0
1002
}
1002
{
1000
PORI
1011
812.3332150220104
1021
310.1082715834732
1031
0.0
1002
}
1002
{
1000
PINS
1011
812.3332150220104
1021
310.1082715834732
1031
0.0
1002
}
1002
{
1000
PINS2
1011
892.3332150220103
1021
300.1082715834732
1031
0.0
1002
}
1002
{
1000
C
1070
     1
1002
}
1001
GENIUS_GENODEF_13
1002
{
1000
HIER
1070
     0
1002
}
1002
{
1000
MANEDIT
1070
     0
1002
}
1002
{
1000
NOSEL
1070
     0
1002
}
1002
{
1000
BEHIND
1070
     0
1002
}
1002
{
1000
OTHER
1070
     0
1002
}
1002
{
1000
REACTOR
1002
}
1001
GENIUS_GENOBJ-N-REC_13
1002
{
1000
OWNER
1000
GEN
1002
}
  0
LINE
  5
D19F
330
1F
100
AcDbEntity
  8
AM_0
 48
0.5
100
AcDbLine
 10
890.8332150220102
 20
300.1082715834732
 30
0.0
 11
890.3332150220103
 21
300.1082715834732
 31
0.0
1001
GENIUS_GENREC_14
1002
{
1000
PYDIR
1011
812.3332150220104
1021
300.1082715834732
1031
0.0
1002
}
1002
{
1000
PXDIR
1011
892.3332150220103
1021
310.1082715834732
1031
0.0
1002
}
1002
{
1000
PORI
1011
812.3332150220104
1021
310.1082715834732
1031
0.0
1002
}
1002
{
1000
PINS
1011
812.3332150220104
1021
310.1082715834732
1031
0.0
1002
}
1002
{
1000
PINS2
1011
892.3332150220103
1021
300.1082715834732
1031
0.0
1002
}
1002
{
1000
C
1070
     1
1002
}
1001
GENIUS_GENODEF_13
1002
{
1000
HIER
1070
     0
1002
}
1002
{
1000
MANEDIT
1070
     0
1002
}
1002
{
1000
NOSEL
1070
     0
1002
}
1002
{
1000
BEHIND
1070
     0
1002
}
1002
{
1000
OTHER
1070
     0
1002
}
1002
{
1000
REACTOR
1002
}
1001
GENIUS_GENOBJ-N-REC_13
1002
{
1000
OWNER
1000
GEN
1002
}
  0
LINE
  5
D1A0
330
1F
100
AcDbEntity
  8
AM_0
 48
0.5
100
AcDbLine
 10
812.3332150220104
 20
308.6082715834732
 30
0.0
 11
812.3332150220104
 21
297.6082715834727
 31
0.0
1001
GENIUS_GENREC_14
1002
{
1000
PYDIR
1011
892.3332150220103
1021
300.1082715834732
1031
0.0
1002
}
1002
{
1000
PXDIR
1011
812.3332150220104
1021
310.1082715834732
1031
0.0
1002
}
1002
{
1000
PORI
1011
892.3332150220103
1021
310.1082715834732
1031
0.0
1002
}
1002
{
1000
PINS
1011
892.3332150220103
1021
310.1082715834732
1031
0.0
1002
}
1002
{
1000
PINS2
1011
812.3332150220104
1021
300.1082715834732
1031
0.0
1002
}
1002
{
1000
C
1070
     1
1002
}
1001
GENIUS_GENODEF_13
1002
{
1000
HIER
1070
     0
1002
}
1002
{
1000
MANEDIT
1070
     0
1002
}
1002
{
1000
NOSEL
1070
     0
1002
}
1002
{
1000
BEHIND
1070
     0
1002
}
1002
{
1000
OTHER
1070
     0
1002
}
1002
{
1000
REACTOR
1002
}
1001
GENIUS_GENOBJ-N-REC_13
1002
{
1000
OWNER
1000
GEN
1002
}
  0
ARC
  5
D1A1
330
1F
100
AcDbEntity
  8
AM_0
 48
0.5
100
AcDbCircle
 10
813.8332150220103
 20
297.6082715834727
 30
0.0
 40
1.5
100
AcDbArc
 50
180.0
 51
270.0
1001
GENIUS_GENREC_14
1002
{
1000
PYDIR
1011
892.3332150220103
1021
296.1082715834727
1031
0.0
1002
}
1002
{
1000
PXDIR
1011
812.3332150220104
1021
306.1082715834727
1031
0.0
1002
}
1002
{
1000
PORI
1011
892.3332150220103
1021
306.1082715834727
1031
0.0
1002
}
1002
{
1000
PINS
1011
892.3332150220103
1021
306.1082715834727
1031
0.0
1002
}
1002
{
1000
PINS2
1011
812.3332150220104
1021
296.1082715834727
1031
0.0
1002
}
1002
{
1000
C
1070
     1
1002
}
1001
GENIUS_GENODEF_13
1002
{
1000
HIER
1070
     0
1002
}
1002
{
1000
MANEDIT
1070
     0
1002
}
1002
{
1000
NOSEL
1070
     0
1002
}
1002
{
1000
BEHIND
1070
     0
1002
}
1002
{
1000
OTHER
1070
     0
1002
}
1002
{
1000
REACTOR
1002
}
1001
GENIUS_GENOBJ-N-REC_13
1002
{
1000
OWNER
1000
GEN
1002
}
  0
LINE
  5
D1A2
330
1F
100
AcDbEntity
  8
AM_0
 48
0.5
100
AcDbLine
 10
813.8332150220103
 20
296.1082715834727
 30
0.0
 11
814.3332150220103
 21
296.1082715834727
 31
0.0
1001
GENIUS_GENREC_14
1002
{
1000
PYDIR
1011
892.3332150220103
1021
296.1082715834727
1031
0.0
1002
}
1002
{
1000
PXDIR
1011
812.3332150220104
1021
306.1082715834727
1031
0.0
1002
}
1002
{
1000
PORI
1011
892.3332150220103
1021
306.1082715834727
1031
0.0
1002
}
1002
{
1000
PINS
1011
892.3332150220103
1021
306.1082715834727
1031
0.0
1002
}
1002
{
1000
PINS2
1011
812.3332150220104
1021
296.1082715834727
1031
0.0
1002
}
1002
{
1000
C
1070
     1
1002
}
1001
GENIUS_GENODEF_13
1002
{
1000
HIER
1070
     0
1002
}
1002
{
1000
MANEDIT
1070
     0
1002
}
1002
{
1000
NOSEL
1070
     0
1002
}
1002
{
1000
BEHIND
1070
     0
1002
}
1002
{
1000
OTHER
1070
     0
1002
}
1002
{
1000
REACTOR
1002
}
1001
GENIUS_GENOBJ-N-REC_13
1002
{
1000
OWNER
1000
GEN
1002
}
  0
ARC
  5
D1A3
330
1F
100
AcDbEntity
  8
AM_0
 48
0.5
100
AcDbCircle
 10
814.3332150220103
 20
297.1082715834727
 30
0.0
 40
1.0
100
AcDbArc
 50
270.0
 51
0.0
1001
GENIUS_GENREC_14
1002
{
1000
PYDIR
1011
892.3332150220103
1021
296.1082715834727
1031
0.0
1002
}
1002
{
1000
PXDIR
1011
812.3332150220104
1021
306.1082715834727
1031
0.0
1002
}
1002
{
1000
PORI
1011
892.3332150220103
1021
306.1082715834727
1031
0.0
1002
}
1002
{
1000
PINS
1011
892.3332150220103
1021
306.1082715834727
1031
0.0
1002
}
1002
{
1000
PINS2
1011
812.3332150220104
1021
296.1082715834727
1031
0.0
1002
}
1002
{
1000
C
1070
     1
1002
}
1001
GENIUS_GENODEF_13
1002
{
1000
HIER
1070
     0
1002
}
1002
{
1000
MANEDIT
1070
     0
1002
}
1002
{
1000
NOSEL
1070
     0
1002
}
1002
{
1000
BEHIND
1070
     0
1002
}
1002
{
1000
OTHER
1070
     0
1002
}
1002
{
1000
REACTOR
1002
}
1001
GENIUS_GENOBJ-N-REC_13
1002
{
1000
OWNER
1000
GEN
1002
}
  0
LINE
  5
D1A4
330
1F
100
AcDbEntity
  8
AM_0
 48
0.3
100
AcDbLine
 10
815.3332150220103
 20
297.1082715834727
 30
0.0
 11
815.3332150220103
 21
300.1082715834732
 31
0.0
1001
GENIUS_GENREC_14
1002
{
1000
PYDIR
1011
892.3332150220103
1021
300.1082715834732
1031
0.0
1002
}
1002
{
1000
PXDIR
1011
812.3332150220104
1021
310.1082715834732
1031
0.0
1002
}
1002
{
1000
PORI
1011
892.3332150220103
1021
310.1082715834732
1031
0.0
1002
}
1002
{
1000
PINS
1011
892.3332150220103
1021
310.1082715834732
1031
0.0
1002
}
1002
{
1000
PINS2
1011
812.3332150220104
1021
300.1082715834732
1031
0.0
1002
}
1002
{
1000
C
1070
     1
1002
}
1001
GENIUS_GENODEF_13
1002
{
1000
HIER
1070
     0
1002
}
1002
{
1000
MANEDIT
1070
     0
1002
}
1002
{
1000
NOSEL
1070
     0
1002
}
1002
{
1000
BEHIND
1070
     0
1002
}
1002
{
1000
OTHER
1070
     0
1002
}
1002
{
1000
REACTOR
1002
}
1001
GENIUS_GENOBJ-N-REC_13
1002
{
1000
OWNER
1000
GEN
1002
}
  0
ARC
  5
D1A5
330
1F
100
AcDbEntity
  8
AM_0
 48
0.5
100
AcDbCircle
 10
813.8332150220103
 20
301.6082715834732
 30
0.0
 40
1.5
100
AcDbArc
 50
180.0
 51
270.0
1001
GENIUS_GENREC_14
1002
{
1000
PYDIR
1011
892.3332150220103
1021
300.1082715834732
1031
0.0
1002
}
1002
{
1000
PXDIR
1011
812.3332150220104
1021
310.1082715834732
1031
0.0
1002
}
1002
{
1000
PORI
1011
892.3332150220103
1021
310.1082715834732
1031
0.0
1002
}
1002
{
1000
PINS
1011
892.3332150220103
1021
310.1082715834732
1031
0.0
1002
}
1002
{
1000
PINS2
1011
812.3332150220104
1021
300.1082715834732
1031
0.0
1002
}
1002
{
1000
C
1070
     1
1002
}
1001
GENIUS_GENODEF_13
1002
{
1000
HIER
1070
     0
1002
}
1002
{
1000
MANEDIT
1070
     0
1002
}
1002
{
1000
NOSEL
1070
     0
1002
}
1002
{
1000
BEHIND
1070
     0
1002
}
1002
{
1000
OTHER
1070
     0
1002
}
1002
{
1000
REACTOR
1002
}
1001
GENIUS_GENOBJ-N-REC_13
1002
{
1000
OWNER
1000
GEN
1002
}
  0
LINE
  5
D1A6
330
1F
100
AcDbEntity
  8
AM_0
 48
0.3
100
AcDbLine
 10
813.8332150220103
 20
300.1082715834732
 30
0.0
 11
814.3332150220103
 21
300.1082715834732
 31
0.0
1001
GENIUS_GENREC_14
1002
{
1000
PYDIR
1011
892.3332150220103
1021
300.1082715834732
1031
0.0
1002
}
1002
{
1000
PXDIR
1011
812.3332150220104
1021
310.1082715834732
1031
0.0
1002
}
1002
{
1000
PORI
1011
892.3332150220103
1021
310.1082715834732
1031
0.0
1002
}
1002
{
1000
PINS
1011
892.3332150220103
1021
310.1082715834732
1031
0.0
1002
}
1002
{
1000
PINS2
1011
812.3332150220104
1021
300.1082715834732
1031
0.0
1002
}
1002
{
1000
C
1070
     1
1002
}
1001
GENIUS_GENODEF_13
1002
{
1000
HIER
1070
     0
1002
}
1002
{
1000
MANEDIT
1070
     0
1002
}
1002
{
1000
NOSEL
1070
     0
1002
}
1002
{
1000
BEHIND
1070
     0
1002
}
1002
{
1000
OTHER
1070
     0
1002
}
1002
{
1000
REACTOR
1002
}
1001
GENIUS_GENOBJ-N-REC_13
1002
{
1000
OWNER
1000
GEN
1002
}
  0
LINE
  5
D1A8
330
1F
100
AcDbEntity
  8
AM_7
 48
5.0
100
AcDbLine
 10
852.3332150220102
 20
275.1082715834732
 30
0.0
 11
852.3332150220102
 21
1009.108271583473
 31
0.0
1001
GENIUS_GENODEF_13
1002
{
1000
HIER
1070
     0
1002
}
1002
{
1000
MANEDIT
1070
     0
1002
}
1002
{
1000
NOSEL
1070
     0
1002
}
1002
{
1000
BEHIND
1070
     0
1002
}
1002
{
1000
OTHER
1070
     0
1002
}
1002
{
1000
REACTOR
1002
}
1001
GENIUS_GENOBJ-N-CEN_13
1002
{
1000
OWNER
1000
GEN
1002
}
1001
GENIUS_GENCEN_19
1002
{
1040
15.0
1002
}
  0
LINE
  5
D1A9
330
1F
100
AcDbEntity
  8
AM_7
100
AcDbLine
 10
852.3332150220101
 20
678.5082715834732
 30
0.0
 11
852.3332150220101
 21
657.5082715834732
 31
0.0
1001
GENIUS_GENODEF_13
1002
{
1000
HIER
1070
     0
1002
}
1002
{
1000
MANEDIT
1070
     0
1002
}
1002
{
1000
NOSEL
1070
     0
1002
}
1002
{
1000
BEHIND
1070
     0
1002
}
1002
{
1000
OTHER
1070
     0
1002
}
1002
{
1000
REACTOR
1002
}
1001
GENIUS_GENOBJ-N-CEN_13
1002
{
1000
OWNER
1000
GEN
1002
}
1001
GENIUS_GENCEN_19
1002
{
1040
4.0
1002
}
  0
LINE
  5
D1AB
330
1F
100
AcDbEntity
  8
AM_2
 48
0.3
100
AcDbLine
 10
822.6332142590704
 20
298.3195560447357
 30
0.0
 11
832.0332157849506
 21
298.3195560447357
 31
0.0
  0
LINE
  5
D1AC
330
1F
100
AcDbEntity
  8
AM_2
 48
0.3
100
AcDbLine
 10
822.6332142590704
 20
298.6080081931755
 30
0.0
 11
822.6332142590704
 21
298.3195560447357
 31
0.0
  0
LINE
  5
D1AD
330
1F
100
AcDbEntity
  8
AM_2
 48
0.3
100
AcDbLine
 10
832.0332157849506
 20
298.3195560447357
 30
0.0
 11
832.0332157849506
 21
298.6080081931755
 31
0.0
  0
LINE
  5
D1AE
330
1F
100
AcDbEntity
  8
AM_2
 48
0.3
100
AcDbLine
 10
832.0332157849506
 20
298.6080081931755
 30
0.0
 11
822.6332142590704
 21
298.6080081931755
 31
0.0
  0
ARC
  5
D1AF
330
1F
100
AcDbEntity
  8
AM_2
 48
0.5
100
AcDbCircle
 10
827.3332188367103
 20
302.2079990379057
 30
0.0
 40
6.0999999046326
100
AcDbArc
 50
219.6019242556484
 51
320.398072101895
  0
LINE
  5
D1B0
330
1F
100
AcDbEntity
  8
AM_2
 48
0.3
100
AcDbLine
 10
872.6332142590704
 20
298.3195560447357
 30
0.0
 11
882.0332157849506
 21
298.3195560447357
 31
0.0
  0
LINE
  5
D1B1
330
1F
100
AcDbEntity
  8
AM_2
 48
0.3
100
AcDbLine
 10
872.6332142590704
 20
298.6080081931755
 30
0.0
 11
872.6332142590704
 21
298.3195560447357
 31
0.0
  0
LINE
  5
D1B2
330
1F
100
AcDbEntity
  8
AM_2
 48
0.3
100
AcDbLine
 10
882.0332157849506
 20
298.3195560447357
 30
0.0
 11
882.0332157849506
 21
298.6080081931755
 31
0.0
  0
LINE
  5
D1B3
330
1F
100
AcDbEntity
  8
AM_2
 48
0.3
100
AcDbLine
 10
882.0332157849506
 20
298.6080081931755
 30
0.0
 11
872.6332142590704
 21
298.6080081931755
 31
0.0
  0
ARC
  5
D1B4
330
1F
100
AcDbEntity
  8
AM_2
 48
0.3
100
AcDbCircle
 10
877.3332188367103
 20
302.2079990379057
 30
0.0
 40
6.0999999046326
100
AcDbArc
 50
219.6019242556484
 51
320.398072101895
  0
LINE
  5
D1E3
330
1F
100
AcDbEntity
  8
AM_0
370
    15
100
AcDbLine
 10
1263.198286207613
 20
992.1082715834732
 30
0.0
 11
1263.198286207613
 21
292.1082715834769
 31
0.0
  0
LINE
  5
D1E4
330
1F
100
AcDbEntity
  8
AM_0
370
    15
100
AcDbLine
 10
1297.698286207613
 20
992.1082715834732
 30
0.0
 11
1297.698286207613
 21
292.1082715834769
 31
0.0
  0
LINE
  5
D1EA
330
1F
100
AcDbEntity
  8
AM_0
100
AcDbLine
 10
1218.69828620761
 20
430.4082715834767
 30
0.0
 11
1218.69828620761
 21
454.8082715834766
 31
0.0
1001
GENIUS_GENREC_14
1002
{
1000
PYDIR
1011
1290.69828620761
1021
430.1082715834768
1031
0.0
1002
}
1002
{
1000
PXDIR
1011
1218.69828620761
1021
455.1082715834768
1031
0.0
1002
}
1002
{
1000
PORI
1011
1218.69828620761
1021
430.1082715834768
1031
0.0
1002
}
1002
{
1000
PINS
1011
1218.69828620761
1021
430.1082715834768
1031
0.0
1002
}
1002
{
1000
PINS2
1011
1290.69828620761
1021
455.1082715834768
1031
0.0
1002
}
1002
{
1000
C
1070
     1
1002
}
1001
GENIUS_GENOBJ-N-REC_13
1002
{
1000
OWNER
1000
GEN
1002
}
1001
GENIUS_GENODEF_13
1002
{
1000
HIER
1070
     0
1002
}
1002
{
1000
MANEDIT
1070
     0
1002
}
1002
{
1000
NOSEL
1070
     0
1002
}
1002
{
1000
BEHIND
1070
     0
1002
}
1002
{
1000
OTHER
1070
     0
1002
}
1002
{
1000
REACTOR
1002
}
  0
ARC
  5
D1EB
330
1F
100
AcDbEntity
  8
AM_0
100
AcDbCircle
 10
1218.99828620761
 20
430.4082715834767
 30
0.0
 40
0.3
100
AcDbArc
 50
180.0000000000008
 51
270.0
1001
GENIUS_GENREC_14
1002
{
1000
PYDIR
1011
1290.69828620761
1021
430.1082715834768
1031
0.0
1002
}
1002
{
1000
PXDIR
1011
1218.69828620761
1021
455.1082715834768
1031
0.0
1002
}
1002
{
1000
PORI
1011
1218.69828620761
1021
430.1082715834768
1031
0.0
1002
}
1002
{
1000
PINS
1011
1218.69828620761
1021
430.1082715834768
1031
0.0
1002
}
1002
{
1000
PINS2
1011
1290.69828620761
1021
455.1082715834768
1031
0.0
1002
}
1002
{
1000
C
1070
     1
1002
}
1001
GENIUS_GENOBJ-N-REC_13
1002
{
1000
OWNER
1000
GEN
1002
}
1001
GENIUS_GENOBJ-N-FIL_13
1002
{
1000
OWNER
1000
GEN
1002
}
1001
GENIUS_GENODEF_13
1002
{
1000
HIER
1070
     0
1002
}
1002
{
1000
MANEDIT
1070
     0
1002
}
1002
{
1000
NOSEL
1070
     0
1002
}
1002
{
1000
BEHIND
1070
     0
1002
}
1002
{
1000
OTHER
1070
     0
1002
}
1002
{
1000
REACTOR
1002
}
  0
LINE
  5
D1EC
330
1F
100
AcDbEntity
  8
AM_0
100
AcDbLine
 10
1218.99828620761
 20
455.1082715834767
 30
0.0
 11
1263.198286207613
 21
455.1082715834768
 31
0.0
1001
GENIUS_GENREC_14
1002
{
1000
PYDIR
1011
1290.69828620761
1021
430.1082715834768
1031
0.0
1002
}
1002
{
1000
PXDIR
1011
1218.69828620761
1021
455.1082715834768
1031
0.0
1002
}
1002
{
1000
PORI
1011
1218.69828620761
1021
430.1082715834768
1031
0.0
1002
}
1002
{
1000
PINS
1011
1218.69828620761
1021
430.1082715834768
1031
0.0
1002
}
1002
{
1000
PINS2
1011
1290.69828620761
1021
455.1082715834768
1031
0.0
1002
}
1002
{
1000
C
1070
     1
1002
}
1001
GENIUS_GENOBJ-N-REC_13
1002
{
1000
OWNER
1000
GEN
1002
}
1001
GENIUS_GENODEF_13
1002
{
1000
HIER
1070
     0
1002
}
1002
{
1000
MANEDIT
1070
     0
1002
}
1002
{
1000
NOSEL
1070
     0
1002
}
1002
{
1000
BEHIND
1070
     0
1002
}
1002
{
1000
OTHER
1070
     0
1002
}
1002
{
1000
REACTOR
1002
}
  0
ARC
  5
D1ED
330
1F
100
AcDbEntity
  8
AM_0
100
AcDbCircle
 10
1218.99828620761
 20
454.8082715834766
 30
0.0
 40
0.3
100
AcDbArc
 50
90.0
 51
180.0000000000008
1001
GENIUS_GENREC_14
1002
{
1000
PYDIR
1011
1290.69828620761
1021
430.1082715834768
1031
0.0
1002
}
1002
{
1000
PXDIR
1011
1218.69828620761
1021
455.1082715834768
1031
0.0
1002
}
1002
{
1000
PORI
1011
1218.69828620761
1021
430.1082715834768
1031
0.0
1002
}
1002
{
1000
PINS
1011
1218.69828620761
1021
430.1082715834768
1031
0.0
1002
}
1002
{
1000
PINS2
1011
1290.69828620761
1021
455.1082715834768
1031
0.0
1002
}
1002
{
1000
C
1070
     1
1002
}
1001
GENIUS_GENOBJ-N-REC_13
1002
{
1000
OWNER
1000
GEN
1002
}
1001
GENIUS_GENOBJ-N-FIL_13
1002
{
1000
OWNER
1000
GEN
1002
}
1001
GENIUS_GENODEF_13
1002
{
1000
HIER
1070
     0
1002
}
1002
{
1000
MANEDIT
1070
     0
1002
}
1002
{
1000
NOSEL
1070
     0
1002
}
1002
{
1000
BEHIND
1070
     0
1002
}
1002
{
1000
OTHER
1070
     0
1002
}
1002
{
1000
REACTOR
1002
}
  0
LINE
  5
D1EE
330
1F
100
AcDbEntity
  8
AM_0
100
AcDbLine
 10
1263.198286207613
 20
430.1082715834768
 30
0.0
 11
1218.99828620761
 21
430.1082715834768
 31
0.0
1001
GENIUS_GENREC_14
1002
{
1000
PYDIR
1011
1290.69828620761
1021
430.1082715834768
1031
0.0
1002
}
1002
{
1000
PXDIR
1011
1218.69828620761
1021
455.1082715834768
1031
0.0
1002
}
1002
{
1000
PORI
1011
1218.69828620761
1021
430.1082715834768
1031
0.0
1002
}
1002
{
1000
PINS
1011
1218.69828620761
1021
430.1082715834768
1031
0.0
1002
}
1002
{
1000
PINS2
1011
1290.69828620761
1021
455.1082715834768
1031
0.0
1002
}
1002
{
1000
C
1070
     1
1002
}
1001
GENIUS_GENOBJ-N-REC_13
1002
{
1000
OWNER
1000
GEN
1002
}
1001
GENIUS_GENODEF_13
1002
{
1000
HIER
1070
     0
1002
}
1002
{
1000
MANEDIT
1070
     0
1002
}
1002
{
1000
NOSEL
1070
     0
1002
}
1002
{
1000
BEHIND
1070
     0
1002
}
1002
{
1000
OTHER
1070
     0
1002
}
1002
{
1000
REACTOR
1002
}
  0
LWPOLYLINE
  5
D1EF
330
1F
100
AcDbEntity
  8
AM_0
100
AcDbPolyline
 90
        6
 70
     0
 43
0.0
 10
1263.198286207613
 20
310.1082715834768
 10
1232.19828620761
 20
310.1082715834768
 42
0.4142135623730971
 10
1230.69828620761
 20
308.6082715834769
 10
1230.69828620761
 20
301.6082715834768
 42
0.4142135623730951
 10
1232.19828620761
 20
300.1082715834769
 10
1232.69828620761
 20
300.1082715834769
1001
GENIUS_GENREC_14
1002
{
1000
PYDIR
1011
1290.69828620761
1021
300.1082715834769
1031
0.0
1002
}
1002
{
1000
PXDIR
1011
1230.69828620761
1021
310.1082715834768
1031
0.0
1002
}
1002
{
1000
PORI
1011
1290.69828620761
1021
310.1082715834768
1031
0.0
1002
}
1002
{
1000
PINS
1011
1290.69828620761
1021
310.1082715834768
1031
0.0
1002
}
1002
{
1000
PINS2
1011
1230.69828620761
1021
300.1082715834769
1031
0.0
1002
}
1002
{
1000
C
1070
     1
1002
}
1001
GENIUS_GENODEF_13
1002
{
1000
HIER
1070
     0
1002
}
1002
{
1000
MANEDIT
1070
     0
1002
}
1002
{
1000
NOSEL
1070
     0
1002
}
1002
{
1000
BEHIND
1070
     0
1002
}
1002
{
1000
OTHER
1070
     0
1002
}
1002
{
1000
REACTOR
1002
}
1001
GENIUS_GENOBJ-N-REC_13
1002
{
1000
OWNER
1000
GEN
1002
}
  0
LINE
  5
D1F0
330
1F
100
AcDbEntity
  8
AM_0
100
AcDbLine
 10
1232.19828620761
 20
300.1082715834755
 30
0.0
 11
1232.69828620761
 21
300.1082715834755
 31
0.0
1001
GENIUS_GENREC_14
1002
{
1000
PYDIR
1011
1310.69828620761
1021
300.1082715834759
1031
0.0
1002
}
1002
{
1000
PXDIR
1011
1230.69828620761
1021
310.1082715834759
1031
0.0
1002
}
1002
{
1000
PORI
1011
1310.69828620761
1021
310.1082715834759
1031
0.0
1002
}
1002
{
1000
PINS
1011
1310.69828620761
1021
310.1082715834759
1031
0.0
1002
}
1002
{
1000
PINS2
1011
1230.69828620761
1021
300.1082715834759
1031
0.0
1002
}
1002
{
1000
C
1070
     1
1002
}
1001
GENIUS_GENODEF_13
1002
{
1000
HIER
1070
     0
1002
}
1002
{
1000
MANEDIT
1070
     0
1002
}
1002
{
1000
NOSEL
1070
     0
1002
}
1002
{
1000
BEHIND
1070
     0
1002
}
1002
{
1000
OTHER
1070
     0
1002
}
1002
{
1000
REACTOR
1002
}
1001
GENIUS_GENOBJ-N-REC_13
1002
{
1000
OWNER
1000
GEN
1002
}
  0
LINE
  5
D1F1
330
1F
100
AcDbEntity
  8
AM_0
100
AcDbLine
 10
1260.430337015179
 20
300.1082715834769
 30
0.0
 11
1232.69828620761
 21
300.1082715834769
 31
0.0
  0
ARC
  5
D1F2
330
1F
100
AcDbEntity
  8
AM_0
100
AcDbCircle
 10
1260.430337015179
 20
299.1082715834768
 30
0.0
 40
1.0
100
AcDbArc
 50
59.99999999999985
 51
90.0
1001
GENIUS_GENOBJ-N-FIL_13
1002
{
1000
OWNER
1000
GEN
1002
}
1001
GENIUS_GENODEF_13
1002
{
1000
HIER
1070
     0
1002
}
1002
{
1000
MANEDIT
1070
     0
1002
}
1002
{
1000
NOSEL
1070
     0
1002
}
1002
{
1000
BEHIND
1070
     0
1002
}
1002
{
1000
OTHER
1070
     0
1002
}
1002
{
1000
REACTOR
1002
}
  0
LINE
  5
D1F3
330
1F
100
AcDbEntity
  8
AM_0
100
AcDbLine
 10
1260.930337015179
 20
299.9742969872609
 30
0.0
 11
1263.198286207613
 21
298.6648959105009
 31
0.0
  0
LINE
  5
D1F5
330
1F
100
AcDbEntity
  8
AM_7
 48
5.0
100
AcDbLine
 10
401.7434749159383
 20
275.1082715834733
 30
0.0
 11
401.7434749159383
 21
1012.393365569269
 31
0.0
1001
GENIUS_GENODEF_13
1002
{
1000
HIER
1070
     0
1002
}
1002
{
1000
MANEDIT
1070
     0
1002
}
1002
{
1000
NOSEL
1070
     0
1002
}
1002
{
1000
BEHIND
1070
     0
1002
}
1002
{
1000
OTHER
1070
     0
1002
}
1002
{
1000
REACTOR
1002
}
1001
GENIUS_GENOBJ-N-CEN_13
1002
{
1000
OWNER
1000
GEN
1002
}
1001
GENIUS_GENCEN_19
1002
{
1040
15.0
1002
}
  0
CIRCLE
  5
D1F6
330
1F
100
AcDbEntity
  8
AM_0
 48
0.5
370
     5
100
AcDbCircle
 10
376.7434749159384
 20
320.1080081931755
 30
0.0
 40
3.0
  0
CIRCLE
  5
D1F7
330
1F
100
AcDbEntity
  8
AM_0
 48
0.5
370
     5
100
AcDbCircle
 10
426.7434749159384
 20
320.1080081931755
 30
0.0
 40
3.0
  0
LINE
  5
D1F8
330
1F
100
AcDbEntity
  8
AM_7
 48
2.0
100
AcDbLine
 10
358.7434749159383
 20
320.1080081931755
 30
0.0
 11
444.7434749159383
 21
320.1080081931755
 31
0.0
1001
GENIUS_GENOBJ-N-CEN_13
1002
{
1000
OWNER
1000
GEN
1002
}
1001
GENIUS_GENODEF_13
1002
{
1000
HIER
1070
     0
1002
}
1002
{
1000
MANEDIT
1070
     0
1002
}
1002
{
1000
NOSEL
1070
     0
1002
}
1002
{
1000
BEHIND
1070
     0
1002
}
1002
{
1000
OTHER
1070
     0
1002
}
1002
{
1000
REACTOR
1002
}
1001
GENIUS_GENCEN_19
1002
{
1040
15.0
1002
}
  0
LINE
  5
D1F9
330
1F
100
AcDbEntity
  8
AM_7
100
AcDbLine
 10
426.7434749159384
 20
338.1080081931755
 30
0.0
 11
426.7434749159384
 21
302.1080081931755
 31
0.0
1001
GENIUS_GENODEF_13
1002
{
1000
HIER
1070
     0
1002
}
1002
{
1000
MANEDIT
1070
     0
1002
}
1002
{
1000
NOSEL
1070
     0
1002
}
1002
{
1000
BEHIND
1070
     0
1002
}
1002
{
1000
OTHER
1070
     0
1002
}
1002
{
1000
REACTOR
1002
}
1001
GENIUS_GENOBJ-N-CEN_13
1002
{
1000
OWNER
1000
GEN
1002
}
1001
GENIUS_GENCEN_19
1002
{
1040
15.0
1002
}
  0
LINE
  5
D1FA
330
1F
100
AcDbEntity
  8
AM_7
100
AcDbLine
 10
376.7434749159384
 20
338.1080081931755
 30
0.0
 11
376.7434749159384
 21
302.1080081931755
 31
0.0
1001
GENIUS_GENOBJ-N-CEN_13
1002
{
1000
OWNER
1000
GEN
1002
}
1001
GENIUS_GENODEF_13
1002
{
1000
HIER
1070
     0
1002
}
1002
{
1000
MANEDIT
1070
     0
1002
}
1002
{
1000
NOSEL
1070
     0
1002
}
1002
{
1000
BEHIND
1070
     0
1002
}
1002
{
1000
OTHER
1070
     0
1002
}
1002
{
1000
REACTOR
1002
}
1001
GENIUS_GENCEN_19
1002
{
1040
15.0
1002
}
  0
CIRCLE
  5
D1FB
330
1F
100
AcDbEntity
  8
AM_0
 48
0.5
370
     5
100
AcDbCircle
 10
451.7434749159384
 20
920.1082524189073
 30
0.0
 40
3.0
  0
LINE
  5
D1FC
330
1F
100
AcDbEntity
  8
AM_7
100
AcDbLine
 10
451.7434749159384
 20
938.1082524189073
 30
0.0
 11
451.7434749159384
 21
902.1082524189074
 31
0.0
1001
GENIUS_GENODEF_13
1002
{
1000
HIER
1070
     0
1002
}
1002
{
1000
MANEDIT
1070
     0
1002
}
1002
{
1000
NOSEL
1070
     0
1002
}
1002
{
1000
BEHIND
1070
     0
1002
}
1002
{
1000
OTHER
1070
     0
1002
}
1002
{
1000
REACTOR
1002
}
1001
GENIUS_GENOBJ-N-CEN_13
1002
{
1000
OWNER
1000
GEN
1002
}
1001
GENIUS_GENCEN_19
1002
{
1040
15.0
1002
}
  0
CIRCLE
  5
D1FD
330
1F
100
AcDbEntity
  8
AM_0
 48
0.5
370
     5
100
AcDbCircle
 10
351.7434749159384
 20
920.1082524189073
 30
0.0
 40
3.0
  0
LINE
  5
D1FE
330
1F
100
AcDbEntity
  8
AM_7
100
AcDbLine
 10
351.7434749159384
 20
938.1082524189073
 30
0.0
 11
351.7434749159384
 21
902.1082524189074
 31
0.0
1001
GENIUS_GENODEF_13
1002
{
1000
HIER
1070
     0
1002
}
1002
{
1000
MANEDIT
1070
     0
1002
}
1002
{
1000
NOSEL
1070
     0
1002
}
1002
{
1000
BEHIND
1070
     0
1002
}
1002
{
1000
OTHER
1070
     0
1002
}
1002
{
1000
REACTOR
1002
}
1001
GENIUS_GENOBJ-N-CEN_13
1002
{
1000
OWNER
1000
GEN
1002
}
1001
GENIUS_GENCEN_19
1002
{
1040
15.0
1002
}
  0
DIMENSION
  5
D1FF
330
1F
100
AcDbEntity
  8
AM_5
100
AcDbDimension
  2
*D7
 10
451.7434749159384
 20
1053.974466110911
 30
0.0
 11
401.1813282578373
 21
1053.974466110911
 31
0.0
 70
   160
 71
     5
 42
100.0
  3
SYS$0
100
AcDbAlignedDimension
 13
351.7434749159384
 23
938.1082524189073
 33
0.0
 14
451.7434749159384
 24
938.1082524189073
 34
0.0
100
AcDbRotatedDimension
1001
ACAD
1000
DSTYLE
1002
{
1070
    40
1040
5.0
1002
}
  0
LINE
  5
D200
330
1F
100
AcDbEntity
  8
AM_7
 48
3.0
100
AcDbLine
 10
333.7434749159383
 20
920.1082524189073
 30
0.0
 11
469.7434749159383
 21
920.1082524189073
 31
0.0
1001
GENIUS_GENOBJ-N-CEN_13
1002
{
1000
OWNER
1000
GEN
1002
}
1001
GENIUS_GENODEF_13
1002
{
1000
HIER
1070
     0
1002
}
1002
{
1000
MANEDIT
1070
     0
1002
}
1002
{
1000
NOSEL
1070
     0
1002
}
1002
{
1000
BEHIND
1070
     0
1002
}
1002
{
1000
OTHER
1070
     0
1002
}
1002
{
1000
REACTOR
1002
}
1001
GENIUS_GENCEN_19
1002
{
1040
15.0
1002
}
  0
DIMENSION
  5
D201
330
1F
100
AcDbEntity
  8
AM_5
100
AcDbDimension
  2
*D8
 10
426.7434749159384
 20
242.1080081931754
 30
0.0
 11
401.7434749159383
 21
257.6080081931754
 31
0.0
 70
    32
 71
     5
 42
50.0
  3
SYS$0
100
AcDbAlignedDimension
 13
376.7434749159384
 23
302.1080081931755
 33
0.0
 14
426.7434749159384
 24
302.1080081931755
 34
0.0
100
AcDbRotatedDimension
1001
ACAD
1000
DSTYLE
1002
{
1070
    40
1040
5.0
1002
}
  0
LINE
  5
D248
330
1F
100
AcDbEntity
  8
AM_7
 48
3.0
100
AcDbLine
 10
320.2434749159384
 20
760.1082576549028
 30
0.0
 11
483.2434749159383
 21
760.1082576549028
 31
0.0
1001
GENIUS_GENODEF_13
1002
{
1000
HIER
1070
     0
1002
}
1002
{
1000
MANEDIT
1070
     0
1002
}
1002
{
1000
NOSEL
1070
     0
1002
}
1002
{
1000
BEHIND
1070
     0
1002
}
1002
{
1000
OTHER
1070
     0
1002
}
1002
{
1000
REACTOR
1002
}
1001
GENIUS_GENOBJ-N-CEN_13
1002
{
1000
OWNER
1000
GEN
1002
}
1001
GENIUS_GENCEN_19
1002
{
1040
20.0
1002
}
  0
LWPOLYLINE
  5
D24E
330
1F
100
AcDbEntity
  8
AM_11
 48
5.0
100
AcDbPolyline
 90
        4
 70
     1
 43
0.0
 10
327.7434749159383
 20
994.1082715834731
 10
475.7434749159383
 20
994.1082715834731
 10
475.7434749159383
 20
290.1082715834732
 10
327.7434749159383
 20
290.1082715834732
1001
GENIUS_GENREC_14
1002
{
1000
PYDIR
1011
327.7434749159383
1021
290.1082715834732
1031
0.0
1002
}
1002
{
1000
PXDIR
1011
475.7434749159383
1021
994.1082715834731
1031
0.0
1002
}
1002
{
1000
PORI
1011
327.7434749159383
1021
994.1082715834731
1031
0.0
1002
}
1002
{
1000
PINS
1011
327.7434749159383
1021
994.1082715834731
1031
0.0
1002
}
1002
{
1000
PINS2
1011
475.7434749159383
1021
290.1082715834732
1031
0.0
1002
}
1002
{
1000
C
1070
     1
1002
}
1001
GENIUS_GENOBJ-N-REC_13
1002
{
1000
OWNER
1000
GEN
1002
}
1001
GENIUS_GENODEF_13
1002
{
1000
HIER
1070
     0
1002
}
1002
{
1000
MANEDIT
1070
     0
1002
}
1002
{
1000
NOSEL
1070
     0
1002
}
1002
{
1000
BEHIND
1070
     0
1002
}
1002
{
1000
OTHER
1070
     0
1002
}
1002
{
1000
REACTOR
1002
}
  0
LINE
  5
D27B
330
1F
100
AcDbEntity
  8
AM_7
 48
2.0
100
AcDbLine
 10
1323.398236170534
 20
760.1082576549028
 30
0.0
 11
1220.098091398048
 21
760.1082576549028
 31
0.0
1001
GENIUS_GENOBJ-N-CEN_13
1002
{
1000
OWNER
1000
GEN
1002
}
1001
GENIUS_GENODEF_13
1002
{
1000
HIER
1070
     0
1002
}
1002
{
1000
MANEDIT
1070
     0
1002
}
1002
{
1000
NOSEL
1070
     0
1002
}
1002
{
1000
BEHIND
1070
     0
1002
}
1002
{
1000
OTHER
1070
     0
1002
}
1002
{
1000
REACTOR
1002
}
1001
GENIUS_GENCEN_19
1002
{
1040
15.0
1002
}
  0
DIMENSION
  5
D27C
330
1F
100
AcDbEntity
  8
AM_5
100
AcDbDimension
  2
*D9
 10
986.3332150220104
 20
300.1082715834731
 30
0.0
 11
986.3332150220102
 21
263.5095677845876
 31
0.0
 70
   160
 71
     5
 42
9.999999999999943
  3
SYS$0
100
AcDbAlignedDimension
 13
924.3332150220103
 23
290.1082715834732
 33
0.0
 14
890.8332150220102
 24
300.1082715834732
 34
0.0
 50
90.0
100
AcDbRotatedDimension
1001
ACAD
1000
DSTYLE
1002
{
1070
    40
1040
5.0
1002
}
  0
DIMENSION
  5
D27D
330
1F
100
AcDbEntity
  8
AM_5
100
AcDbDimension
  2
*D10
 10
986.3332150220102
 20
310.1082715834731
 30
0.0
 11
1034.025066077043
 21
265.7294614520797
 31
0.0
 70
   160
 71
     5
 42
10.0
  3
SYS$0
100
AcDbAlignedDimension
 13
890.8332150220102
 23
300.1082715834732
 33
0.0
 14
890.8332150220102
 24
310.1082715834732
 34
0.0
 50
90.0
100
AcDbRotatedDimension
1001
ACAD
1000
DSTYLE
1002
{
1070
    40
1040
5.0
1070
   279
1070
     1
1002
}
  0
DIMENSION
  5
D27E
330
1F
100
AcDbEntity
  8
AM_5
100
AcDbDimension
  2
*D11
 10
986.3332150220102
 20
430.1082715834732
 30
0.0
 11
970.8332150220101
 21
370.1082715834734
 31
0.0
 70
    32
 71
     5
 42
120.0
  3
SYS$0
100
AcDbAlignedDimension
 13
890.8332150220102
 23
310.1082715834732
 33
0.0
 14
915.3332150220103
 24
430.1082715834732
 34
0.0
 50
90.0
100
AcDbRotatedDimension
1001
ACAD
1000
DSTYLE
1002
{
1070
    40
1040
5.0
1002
}
  0
DIMENSION
  5
D27F
330
1F
100
AcDbEntity
  8
AM_5
100
AcDbDimension
  2
*D12
 10
986.3332150220102
 20
455.1082715834732
 30
0.0
 11
986.3332150220102
 21
442.6082715834733
 31
0.0
 70
   160
 71
     5
 42
25.0
  3
SYS$0
100
AcDbAlignedDimension
 13
915.3332150220103
 23
430.1082715834732
 33
0.0
 14
915.3332150220103
 24
455.1082715834732
 34
0.0
 50
90.0
100
AcDbRotatedDimension
1001
ACAD
1000
DSTYLE
1002
{
1070
    40
1040
5.0
1002
}
  0
DIMENSION
  5
D282
330
1F
100
AcDbEntity
  8
AM_5
100
AcDbDimension
  2
*D13
 10
1036.33321502201
 20
994.1082715834731
 30
0.0
 11
1020.83321502201
 21
642.1082715834733
 31
0.0
 70
    32
 71
     5
 42
704.0
  3
SYS$0
100
AcDbAlignedDimension
 13
926.3332150220103
 23
290.1082715834732
 33
0.0
 14
926.3332150220103
 24
994.1082715834731
 34
0.0
 50
90.0
100
AcDbRotatedDimension
1001
ACAD
1000
DSTYLE
1002
{
1070
    40
1040
5.0
1002
}
  0
LINE
  5
D283
330
1F
100
AcDbEntity
  8
AM_11
 48
2.0
370
     5
100
AcDbLine
 10
436.7434749159383
 20
298.6080081931755
 30
0.0
 11
366.7434749159383
 21
298.6080081931755
 31
0.0
  0
LINE
  5
D284
330
1F
100
AcDbEntity
  8
AM_11
 48
2.0
370
     5
100
AcDbLine
 10
366.7434748948217
 20
328.6080081861367
 30
0.0
 11
436.7434748948217
 21
328.6080081931755
 31
0.0
  0
LINE
  5
D285
330
1F
100
AcDbEntity
  8
AM_11
 48
2.0
100
AcDbLine
 10
366.7434748948217
 20
328.6080081931755
 30
0.0
 11
366.7434749159383
 21
298.6080081931755
 31
0.0
  0
LINE
  5
D286
330
1F
100
AcDbEntity
  8
AM_11
 48
2.0
100
AcDbLine
 10
436.7434748948217
 20
328.6080081931755
 30
0.0
 11
436.7434749159383
 21
298.6080081931755
 31
0.0
  0
LINE
  5
D287
330
1F
100
AcDbEntity
  8
AM_11
 48
2.0
370
     5
100
AcDbLine
 10
436.7434749159383
 20
300.1080081931755
 30
0.0
 11
366.7434749159383
 21
300.1080081931755
 31
0.0
  0
INSERT
  5
D288
330
1F
100
AcDbEntity
  8
AM_5
100
AcDbBlockReference
  2
*S28
 10
0.0
 20
0.0
 30
0.0
  0
DIMENSION
  5
D289
330
1F
100
AcDbEntity
  8
AM_5
100
AcDbDimension
  2
*D14
 10
543.2434749159383
 20
320.1080081931755
 30
0.0
 11
527.7434749159382
 21
540.1081329240392
 31
0.0
 70
    32
 71
     5
 42
440.0002494617274
  3
SYS$0
100
AcDbAlignedDimension
 13
483.2434749159383
 23
760.1082576549028
 33
0.0
 14
444.7434749159383
 24
320.1080081931755
 34
0.0
 50
90.0
100
AcDbRotatedDimension
1001
ACAD
1000
DSTYLE
1002
{
1070
    40
1040
5.0
1002
}
  0
DIMENSION
  5
D28A
330
1F
100
AcDbEntity
  8
AM_5
100
AcDbDimension
  2
*D15
 10
543.2434749159383
 20
290.1082715834732
 30
0.0
 11
527.7434749159382
 21
268.5416049168066
 31
0.0
 70
    32
 71
     5
 42
29.99973660970227
  3
SYS$0
100
AcDbAlignedDimension
 13
444.7434749159383
 23
320.1080081931755
 33
0.0
 14
475.7434749159383
 24
290.1082715834732
 34
0.0
 50
90.0
100
AcDbRotatedDimension
1001
ACAD
1000
DSTYLE
1002
{
1070
    40
1040
5.0
1002
}
  0
DIMENSION
  5
D28B
330
1F
100
AcDbEntity
  8
AM_5
100
AcDbDimension
  2
*D16
 10
543.2434749159383
 20
920.1082524189073
 30
0.0
 11
527.7434749159381
 21
840.1082550369052
 31
0.0
 70
    32
 71
     5
 42
159.9999947640044
  3
SYS$0
100
AcDbAlignedDimension
 13
483.2434749159383
 23
760.1082576549028
 33
0.0
 14
469.7434749159383
 24
920.1082524189073
 34
0.0
 50
90.0
100
AcDbRotatedDimension
1001
ACAD
1000
DSTYLE
1002
{
1070
    40
1040
5.0
1002
}
  0
MTEXT
  5
D28D
330
1F
100
AcDbEntity
  8
AM_6
100
AcDbMText
 10
402.7342797884666
 20
217.805678162691
 30
0.0
 40
16.0
 41
0.0
 71
     2
 72
     5
  1
{\L壁面加工図}
 73
     1
 44
1.0
1001
ACAD
1000
MTEXTBEGIN
1070
    73
1070
     1
1070
    44
1040
1.0
1070
    74
1070
     0
1000
MTEXTEND
  0
DIMENSION
  5
D28E
330
1F
100
AcDbEntity
  8
AM_5
100
AcDbDimension
  2
*D17
 10
1263.198286207613
 20
1053.974466110911
 30
0.0
 11
1275.3837350592
 21
1069.49371085613
 31
0.0
 70
   160
 71
     5
 42
34.50000000000023
  3
SYS$0
100
AcDbAlignedDimension
 13
1297.698286207613
 23
993.5751674079883
 33
0.0
 14
1263.198286207613
 24
994.1082715834731
 34
0.0
100
AcDbRotatedDimension
1001
ACAD
1000
DSTYLE
1002
{
1070
    40
1040
5.0
1070
   279
1070
     2
1002
}
  0
DIMENSION
  5
D290
330
1F
100
AcDbEntity
  8
AM_5
100
AcDbDimension
  2
*D18
 10
1230.69828620761
 20
230.1082715834732
 30
0.0
 11
1264.198286207611
 21
245.6082715834732
 31
0.0
 70
    32
 71
     5
 42
67.00000000000295
  3
SYS$0
100
AcDbAlignedDimension
 13
1297.698286207613
 23
290.4082715834769
 33
0.0
 14
1230.69828620761
 24
301.6082715834768
 34
0.0
100
AcDbRotatedDimension
1001
ACAD
1000
DSTYLE
1002
{
1070
    40
1040
5.0
1002
}
  0
DIMENSION
  5
D291
330
1F
100
AcDbEntity
  8
AM_5
100
AcDbDimension
  2
*D19
 10
1218.69828620761
 20
180.1082715834732
 30
0.0
 11
1258.198286207611
 21
195.6082715834732
 31
0.0
 70
    32
 71
     5
 42
79.00000000000296
  3
SYS$0
100
AcDbAlignedDimension
 13
1297.698286207613
 23
290.4082715834769
 33
0.0
 14
1218.69828620761
 24
430.6082715834768
 34
0.0
100
AcDbRotatedDimension
1001
ACAD
1000
DSTYLE
1002
{
1070
    40
1040
5.0
1002
}
  0
DIMENSION
  5
D295
330
1F
100
AcDbEntity
  8
AM_5
100
AcDbDimension
  2
*D20
 10
926.3332150220103
 20
230.1082715834732
 30
0.0
 11
852.3332150220102
 21
245.6082715834732
 31
0.0
 70
    32
 71
     5
 42
148.0
  3
SYS$0
100
AcDbAlignedDimension
 13
778.3332150220103
 23
290.1082715834732
 33
0.0
 14
926.3332150220103
 24
290.1082715834732
 34
0.0
100
AcDbRotatedDimension
1001
ACAD
1000
DSTYLE
1002
{
1070
    40
1040
5.0
1002
}
  0
INSERT
  5
D296
330
1F
100
AcDbEntity
  8
AM_5
100
AcDbBlockReference
  2
*S29
 10
0.0
 20
0.0
 30
0.0
  0
DIMENSION
  5
D298
330
1F
100
AcDbEntity
  8
AM_5
100
AcDbDimension
  2
*D21
 10
986.3332150220102
 20
860.1082715834731
 30
0.0
 11
986.3332150220101
 21
766.836208658874
 31
0.0
 70
   160
 71
     5
 42
200.0
  3
SYS$0
100
AcDbAlignedDimension
 13
915.83321502201
 23
660.1082715834731
 33
0.0
 14
915.83321502201
 24
860.1082715834731
 34
0.0
 50
90.0
100
AcDbRotatedDimension
1001
ACAD
1000
DSTYLE
1002
{
1070
    40
1040
5.0
1002
}
  0
DIMENSION
  5
D299
330
1F
100
AcDbEntity
  8
AM_5
100
AcDbDimension
  2
*D22
 10
986.3332150220106
 20
905.1082663474794
 30
0.0
 11
970.8332150220103
 21
882.6082689654764
 31
0.0
 70
    32
 71
     5
 42
44.99999476400626
  3
SYS$0
100
AcDbAlignedDimension
 13
915.83321502201
 23
860.1082715834731
 33
0.0
 14
915.8332102362962
 24
905.1082663474794
 34
0.0
 50
90.0
100
AcDbRotatedDimension
1001
ACAD
1000
DSTYLE
1002
{
1070
    40
1040
5.0
1002
}
  0
LWPOLYLINE
  5
D29A
330
1F
100
AcDbEntity
  8
AM_0
100
AcDbPolyline
 90
        4
 70
     1
 43
0.0
 10
915.83321502201
 20
860.1082715834731
 10
915.83321502201
 20
660.1082715834731
 10
788.8332150220101
 20
660.1082715834731
 10
788.8332150220101
 20
860.1082715834731
1001
GENIUS_GENREC_14
1002
{
1000
PYDIR
1011
788.8332150220101
1021
860.1082715834731
1031
0.0
1002
}
1002
{
1000
PXDIR
1011
915.83321502201
1021
660.1082715834731
1031
0.0
1002
}
1002
{
1000
PORI
1011
915.83321502201
1021
860.1082715834731
1031
0.0
1002
}
1002
{
1000
PINS
1011
915.83321502201
1021
860.1082715834731
1031
0.0
1002
}
1002
{
1000
PINS2
1011
788.8332150220101
1021
660.1082715834731
1031
0.0
1002
}
1002
{
1000
C
1070
     1
1002
}
1001
GENIUS_GENODEF_13
1002
{
1000
HIER
1070
     0
1002
}
1002
{
1000
MANEDIT
1070
     0
1002
}
1002
{
1000
NOSEL
1070
     0
1002
}
1002
{
1000
BEHIND
1070
     0
1002
}
1002
{
1000
OTHER
1070
     0
1002
}
1002
{
1000
REACTOR
1002
}
1001
GENIUS_GENOBJ-N-REC_13
1002
{
1000
OWNER
1000
GEN
1002
}
  0
DIMENSION
  5
D29B
330
1F
100
AcDbEntity
  8
AM_5
100
AcDbDimension
  2
*D23
 10
986.3332150220102
 20
942.1082715834732
 30
0.0
 11
970.8332150220101
 21
923.6082689654764
 31
0.0
 70
    32
 71
     5
 42
37.00000523599374
  3
SYS$0
100
AcDbAlignedDimension
 13
915.83321502201
 23
905.1082663474794
 33
0.0
 14
915.83321502201
 24
942.1082715834732
 34
0.0
 50
90.0
100
AcDbRotatedDimension
1001
ACAD
1000
DSTYLE
1002
{
1070
    40
1040
5.0
1002
}
  0
LWPOLYLINE
  5
D29C
330
1F
100
AcDbEntity
  8
AM_0
100
AcDbPolyline
 90
        4
 70
     1
 43
0.0
 10
788.8332150220101
 20
990.1082715834732
 10
915.83321502201
 20
990.1082715834732
 10
915.83321502201
 20
860.1082715834731
 10
788.8332150220101
 20
860.1082715834731
1001
GENIUS_GENREC_14
1002
{
1000
PYDIR
1011
788.8332150220101
1021
860.1082715834731
1031
0.0
1002
}
1002
{
1000
PXDIR
1011
915.83321502201
1021
990.1082715834732
1031
0.0
1002
}
1002
{
1000
PORI
1011
788.8332150220101
1021
990.1082715834732
1031
0.0
1002
}
1002
{
1000
PINS
1011
788.8332150220101
1021
990.1082715834732
1031
0.0
1002
}
1002
{
1000
PINS2
1011
915.83321502201
1021
860.1082715834731
1031
0.0
1002
}
1002
{
1000
C
1070
     1
1002
}
1001
GENIUS_GENOBJ-N-REC_13
1002
{
1000
OWNER
1000
GEN
1002
}
1001
GENIUS_GENODEF_13
1002
{
1000
HIER
1070
     0
1002
}
1002
{
1000
MANEDIT
1070
     0
1002
}
1002
{
1000
NOSEL
1070
     0
1002
}
1002
{
1000
BEHIND
1070
     0
1002
}
1002
{
1000
OTHER
1070
     0
1002
}
1002
{
1000
REACTOR
1002
}
  0
LWPOLYLINE
  5
D29D
330
1F
100
AcDbEntity
  8
AM_0
100
AcDbPolyline
 90
        4
 70
     1
 43
0.0
 10
788.8332150220101
 20
942.1082715834732
 10
915.83321502201
 20
942.1082715834732
 10
915.83321502201
 20
905.1082715834732
 10
788.8332150220101
 20
905.1082715834732
1001
GENIUS_GENREC_14
1002
{
1000
PYDIR
1011
788.8332150220101
1021
905.1082715834732
1031
0.0
1002
}
1002
{
1000
PXDIR
1011
915.83321502201
1021
942.1082715834732
1031
0.0
1002
}
1002
{
1000
PORI
1011
788.8332150220101
1021
942.1082715834732
1031
0.0
1002
}
1002
{
1000
PINS
1011
788.8332150220101
1021
942.1082715834732
1031
0.0
1002
}
1002
{
1000
PINS2
1011
915.83321502201
1021
905.1082715834732
1031
0.0
1002
}
1002
{
1000
C
1070
     1
1002
}
1001
GENIUS_GENODEF_13
1002
{
1000
HIER
1070
     0
1002
}
1002
{
1000
MANEDIT
1070
     0
1002
}
1002
{
1000
NOSEL
1070
     0
1002
}
1002
{
1000
BEHIND
1070
     0
1002
}
1002
{
1000
OTHER
1070
     0
1002
}
1002
{
1000
REACTOR
1002
}
1001
GENIUS_GENOBJ-N-REC_13
1002
{
1000
OWNER
1000
GEN
1002
}
  0
DIMENSION
  5
D29E
330
1F
100
AcDbEntity
  8
AM_5
100
AcDbDimension
  2
*D24
 10
986.3332150220117
 20
990.1082715834732
 30
0.0
 11
970.8332150220115
 21
966.1082715834734
 31
0.0
 70
    32
 71
     5
 42
48.0
  3
SYS$0
100
AcDbAlignedDimension
 13
915.83321502201
 23
942.1082715834732
 33
0.0
 14
915.83321502201
 24
990.1082715834732
 34
0.0
 50
90.0
100
AcDbRotatedDimension
1001
ACAD
1000
DSTYLE
1002
{
1070
    40
1040
5.0
1002
}
  0
LWPOLYLINE
  5
D29F
330
1F
100
AcDbEntity
  8
AM_11
 48
0.3
100
AcDbPolyline
 90
        4
 70
     1
 43
0.0
 10
792.8157786352983
 20
966.6157734930612
 10
845.9775260101048
 20
966.6157734930612
 10
845.9775260101048
 20
947.9048492956327
 10
792.8157786352983
 20
947.9048492956327
1001
GENIUS_GENREC_14
1002
{
1000
PYDIR
1011
792.8157786352983
1021
947.9048492956327
1031
0.0
1002
}
1002
{
1000
PXDIR
1011
845.9775260101048
1021
966.6157734930612
1031
0.0
1002
}
1002
{
1000
PORI
1011
792.8157786352983
1021
966.6157734930612
1031
0.0
1002
}
1002
{
1000
PINS
1011
792.8157786352983
1021
966.6157734930612
1031
0.0
1002
}
1002
{
1000
PINS2
1011
845.9775260101048
1021
947.9048492956327
1031
0.0
1002
}
1002
{
1000
C
1070
     1
1002
}
1001
GENIUS_GENODEF_13
1002
{
1000
HIER
1070
     0
1002
}
1002
{
1000
MANEDIT
1070
     0
1002
}
1002
{
1000
NOSEL
1070
     0
1002
}
1002
{
1000
BEHIND
1070
     0
1002
}
1002
{
1000
OTHER
1070
     0
1002
}
1002
{
1000
REACTOR
1002
}
1001
GENIUS_GENOBJ-N-REC_13
1002
{
1000
OWNER
1000
GEN
1002
}
  0
INSERT
  5
D2A0
330
1F
100
AcDbEntity
  8
AM_5
100
AcDbBlockReference
  2
*S30
 10
0.0
 20
0.0
 30
0.0
  0
LINE
  5
D2B1
330
1F
100
AcDbEntity
  8
AM_0
100
AcDbLine
 10
802.3129612134871
 20
444.608271583473
 30
0.0
 11
802.3129612134871
 21
440.608271583473
 31
0.0
  0
ARC
  5
D2B2
330
1F
100
AcDbEntity
  8
AM_0
100
AcDbCircle
 10
803.3129612134871
 20
444.608271583473
 30
0.0
 40
1.0
100
AcDbArc
 50
90.0
 51
180.0
1001
GENIUS_GENODEF_13
1002
{
1000
HIER
1070
     0
1002
}
1002
{
1000
MANEDIT
1070
     0
1002
}
1002
{
1000
NOSEL
1070
     0
1002
}
1002
{
1000
BEHIND
1070
     0
1002
}
1002
{
1000
OTHER
1070
     0
1002
}
1002
{
1000
REACTOR
1002
}
1001
GENIUS_GENOBJ-N-FIL_13
1002
{
1000
OWNER
1000
GEN
1002
}
  0
LINE
  5
D2B3
330
1F
100
AcDbEntity
  8
AM_0
100
AcDbLine
 10
901.3129612134871
 20
445.6082715834731
 30
0.0
 11
803.3129612134871
 21
445.6082715834731
 31
0.0
  0
LINE
  5
D2B4
330
1F
100
AcDbEntity
  8
AM_0
100
AcDbLine
 10
902.3129612134871
 20
440.6082715834732
 30
0.0
 11
902.3129612134871
 21
444.608271583473
 31
0.0
  0
ARC
  5
D2B5
330
1F
100
AcDbEntity
  8
AM_0
100
AcDbCircle
 10
901.3129612134871
 20
444.608271583473
 30
0.0
 40
1.0
100
AcDbArc
 50
0.0
 51
90.0
1001
GENIUS_GENOBJ-N-FIL_13
1002
{
1000
OWNER
1000
GEN
1002
}
1001
GENIUS_GENODEF_13
1002
{
1000
HIER
1070
     0
1002
}
1002
{
1000
MANEDIT
1070
     0
1002
}
1002
{
1000
NOSEL
1070
     0
1002
}
1002
{
1000
BEHIND
1070
     0
1002
}
1002
{
1000
OTHER
1070
     0
1002
}
1002
{
1000
REACTOR
1002
}
  0
ARC
  5
D2B6
330
1F
100
AcDbEntity
  8
AM_0
100
AcDbCircle
 10
901.3129612134871
 20
440.6082715834732
 30
0.0
 40
1.0
100
AcDbArc
 50
270.0
 51
0.0
1001
GENIUS_GENOBJ-N-FIL_13
1002
{
1000
OWNER
1000
GEN
1002
}
1001
GENIUS_GENODEF_13
1002
{
1000
HIER
1070
     0
1002
}
1002
{
1000
MANEDIT
1070
     0
1002
}
1002
{
1000
NOSEL
1070
     0
1002
}
1002
{
1000
BEHIND
1070
     0
1002
}
1002
{
1000
OTHER
1070
     0
1002
}
1002
{
1000
REACTOR
1002
}
  0
LINE
  5
D2B7
330
1F
100
AcDbEntity
  8
AM_0
100
AcDbLine
 10
803.3129612134871
 20
439.608271583473
 30
0.0
 11
901.3129612134871
 21
439.6082715834731
 31
0.0
  0
ARC
  5
D2B8
330
1F
100
AcDbEntity
  8
AM_0
100
AcDbCircle
 10
803.3129612134871
 20
440.608271583473
 30
0.0
 40
1.0
100
AcDbArc
 50
180.0
 51
270.0
1001
GENIUS_GENODEF_13
1002
{
1000
HIER
1070
     0
1002
}
1002
{
1000
MANEDIT
1070
     0
1002
}
1002
{
1000
NOSEL
1070
     0
1002
}
1002
{
1000
BEHIND
1070
     0
1002
}
1002
{
1000
OTHER
1070
     0
1002
}
1002
{
1000
REACTOR
1002
}
1001
GENIUS_GENOBJ-N-FIL_13
1002
{
1000
OWNER
1000
GEN
1002
}
  0
LINE
  5
D2B9
330
1F
100
AcDbEntity
  8
AM_0
100
AcDbLine
 10
789.1332150220105
 20
455.1082715834732
 30
0.0
 11
915.5332150220106
 21
455.1082715834732
 31
0.0
  0
LINE
  5
D2BA
330
1F
100
AcDbEntity
  8
AM_0
100
AcDbLine
 10
789.1332150220105
 20
430.1082715834732
 30
0.0
 11
915.5332150220106
 21
430.1082715834732
 31
0.0
  0
LINE
  5
D2BB
330
1F
100
AcDbEntity
  8
AM_0
100
AcDbLine
 10
915.8332150220102
 20
430.4082715834731
 30
0.0
 11
915.8332150220102
 21
454.8082715834928
 31
0.0
  0
ARC
  5
D2BC
330
1F
100
AcDbEntity
  8
AM_0
100
AcDbCircle
 10
915.5332150220106
 20
430.4082715834731
 30
0.0
 40
0.3
100
AcDbArc
 50
270.0
 51
0.0
1001
GENIUS_GENOBJ-N-FIL_13
1002
{
1000
OWNER
1000
GEN
1002
}
1001
GENIUS_GENODEF_13
1002
{
1000
HIER
1070
     0
1002
}
1002
{
1000
MANEDIT
1070
     0
1002
}
1002
{
1000
NOSEL
1070
     0
1002
}
1002
{
1000
BEHIND
1070
     0
1002
}
1002
{
1000
OTHER
1070
     0
1002
}
1002
{
1000
REACTOR
1002
}
  0
ARC
  5
D2BD
330
1F
100
AcDbEntity
  8
AM_0
100
AcDbCircle
 10
915.5332150220106
 20
454.8082715834928
 30
0.0
 40
0.3
100
AcDbArc
 50
0.0
 51
90.00000000031267
1001
GENIUS_GENOBJ-N-FIL_13
1002
{
1000
OWNER
1000
GEN
1002
}
1001
GENIUS_GENODEF_13
1002
{
1000
HIER
1070
     0
1002
}
1002
{
1000
MANEDIT
1070
     0
1002
}
1002
{
1000
NOSEL
1070
     0
1002
}
1002
{
1000
BEHIND
1070
     0
1002
}
1002
{
1000
OTHER
1070
     0
1002
}
1002
{
1000
REACTOR
1002
}
  0
LINE
  5
D2BE
330
1F
100
AcDbEntity
  8
AM_0
100
AcDbLine
 10
788.8332150220103
 20
430.4082715834731
 30
0.0
 11
788.8332150220103
 21
454.8082715834731
 31
0.0
  0
ARC
  5
D2BF
330
1F
100
AcDbEntity
  8
AM_0
100
AcDbCircle
 10
789.1332150220105
 20
454.8082715834731
 30
0.0
 40
0.3
100
AcDbArc
 50
90.0
 51
180.0
1001
GENIUS_GENOBJ-N-FIL_13
1002
{
1000
OWNER
1000
GEN
1002
}
1001
GENIUS_GENODEF_13
1002
{
1000
HIER
1070
     0
1002
}
1002
{
1000
MANEDIT
1070
     0
1002
}
1002
{
1000
NOSEL
1070
     0
1002
}
1002
{
1000
BEHIND
1070
     0
1002
}
1002
{
1000
OTHER
1070
     0
1002
}
1002
{
1000
REACTOR
1002
}
  0
ARC
  5
D2C0
330
1F
100
AcDbEntity
  8
AM_0
100
AcDbCircle
 10
789.1332150220105
 20
430.4082715834731
 30
0.0
 40
0.3
100
AcDbArc
 50
180.0
 51
270.0
1001
GENIUS_GENODEF_13
1002
{
1000
HIER
1070
     0
1002
}
1002
{
1000
MANEDIT
1070
     0
1002
}
1002
{
1000
NOSEL
1070
     0
1002
}
1002
{
1000
BEHIND
1070
     0
1002
}
1002
{
1000
OTHER
1070
     0
1002
}
1002
{
1000
REACTOR
1002
}
1001
GENIUS_GENOBJ-N-FIL_13
1002
{
1000
OWNER
1000
GEN
1002
}
  0
LINE
  5
D2C5
330
1F
100
AcDbEntity
  8
AM_2
100
AcDbLine
 10
912.075988951215
 20
454.8082715834732
 30
0.0
 11
912.075988951215
 21
430.4082715834731
 31
0.0
  0
LINE
  5
D2C6
330
1F
100
AcDbEntity
  8
AM_2
100
AcDbLine
 10
792.5904410928051
 20
454.8082715834732
 30
0.0
 11
792.5904410928051
 21
430.4082715834731
 31
0.0
  0
INSERT
  5
D2C7
330
1F
100
AcDbEntity
  8
AM_2
100
AcDbBlockReference
  2
A$C27A855EC
 10
852.3332150220102
 20
991.1082715834732
 30
0.0
  0
INSERT
  5
D2C8
330
1F
100
AcDbEntity
  8
AM_2
100
AcDbBlockReference
  2
A$C27A855EC
 10
852.3332150220102
 20
293.1082715834732
 30
0.0
 41
-1.0
 50
180.0
  0
LINE
  5
D2C9
330
1F
100
AcDbEntity
  8
AM_0
100
AcDbLine
 10
778.3332150220103
 20
292.1082715834732
 30
0.0
 11
788.3332150220103
 21
292.1082715834732
 31
0.0
  0
LINE
  5
D2CA
330
1F
100
AcDbEntity
  8
AM_0
100
AcDbLine
 10
916.3332150220103
 20
292.1082715834732
 30
0.0
 11
926.3332150220103
 21
292.1082715834732
 31
0.0
  0
INSERT
  5
D2CB
330
1F
100
AcDbEntity
  8
AM_0
100
AcDbBlockReference
  2
A$C4E245893
 10
1287.051715348475
 20
305.5495859820264
 30
0.0
 50
270.0
  0
INSERT
  5
D2CC
330
1F
100
AcDbEntity
  8
AM_0
100
AcDbBlockReference
  2
A$C4E245893
 10
1287.051715348475
 20
978.6669571849236
 30
0.0
 41
-1.0
 50
270.0
  0
DIMENSION
  5
D78C
330
1F
100
AcDbEntity
  8
AM_5
100
AcDbDimension
  2
*D25
 10
986.3332150220109
 20
455.1082715834732
 30
0.0
 11
970.8332150220108
 21
557.6082715834733
 31
0.0
 70
    32
 71
     5
 42
205.0
  3
SYS$0
100
AcDbAlignedDimension
 13
915.83321502201
 23
660.1082715834731
 33
0.0
 14
915.5332150220106
 24
455.1082715834732
 34
0.0
 50
90.0
100
AcDbRotatedDimension
1001
ACAD
1000
DSTYLE
1002
{
1070
    40
1040
5.0
1002
}
  0
DIMENSION
  5
D7A2
330
1F
100
AcDbEntity
  8
AM_5
100
AcDbDimension
  2
*D26
 10
986.3332150220102
 20
994.1082715834731
 30
0.0
 11
970.8332150220101
 21
1015.608271583473
 31
0.0
 70
    32
 71
     5
 42
4.0
  3
SYS$0
100
AcDbAlignedDimension
 13
915.83321502201
 23
990.1082715834732
 33
0.0
 14
926.5332150220103
 24
994.1082715834731
 34
0.0
 50
90.0
100
AcDbRotatedDimension
1001
ACAD
1000
DSTYLE
1002
{
1070
    40
1040
5.0
1002
}
  0
LINE
  5
D8D1
330
1F
100
AcDbEntity
  8
AM_0
 48
0.5
100
AcDbLine
 10
832.3331692456443
 20
693.1083154524912
 30
0.0
 11
872.3332684277723
 21
693.1083154524912
 31
0.0
  0
LINE
  5
D8D2
330
1F
100
AcDbEntity
  8
AM_0
 48
0.5
100
AcDbLine
 10
832.3331692456443
 20
761.1083211745372
 30
0.0
 11
872.3332684277723
 21
761.1083211745372
 31
0.0
  0
LINE
  5
D8D3
330
1F
100
AcDbEntity
  8
AM_0
100
AcDbLine
 10
832.3331692456443
 20
693.1083154524912
 30
0.0
 11
832.3331692456443
 21
761.1083211745372
 31
0.0
  0
LINE
  5
D8D4
330
1F
100
AcDbEntity
  8
AM_0
 48
0.5
100
AcDbLine
 10
827.4333126782604
 20
702.6082696761252
 30
0.0
 11
827.4333126782604
 21
722.6082696761253
 31
0.0
  0
LINE
  5
D8D5
330
1F
100
AcDbEntity
  8
AM_0
 48
0.5
100
AcDbLine
 10
825.2331173657603
 20
702.6082696761252
 30
0.0
 11
825.2331173657603
 21
722.6082696761253
 31
0.0
  0
LINE
  5
D8D6
330
1F
100
AcDbEntity
  8
AM_0
 48
0.5
100
AcDbLine
 10
825.2331173657603
 20
702.6082696761252
 30
0.0
 11
827.4333126782604
 21
702.6082696761252
 31
0.0
  0
LINE
  5
D8D7
330
1F
100
AcDbEntity
  8
AM_0
 48
0.5
100
AcDbLine
 10
825.2331173657603
 20
722.6082696761253
 30
0.0
 11
827.4333126782604
 21
722.6082696761253
 31
0.0
  0
LINE
  5
D8D8
330
1F
100
AcDbEntity
  8
AM_0
100
AcDbLine
 10
872.3332684277723
 20
693.1083154524912
 30
0.0
 11
872.3332684277723
 21
761.1083211745372
 31
0.0
  0
LINE
  5
D8D9
330
1F
100
AcDbEntity
  8
AM_0
 48
0.5
100
AcDbLine
 10
849.9331982373423
 20
811.7082471694091
 30
0.0
 11
849.9331982373423
 21
816.5082959975332
 31
0.0
  0
LINE
  5
D8DA
330
1F
100
AcDbEntity
  8
AM_0
 48
0.5
100
AcDbLine
 10
863.7332470654682
 20
811.7082471694091
 30
0.0
 11
863.7332470654682
 21
816.5082959975332
 31
0.0
  0
LINE
  5
D8DB
330
1F
100
AcDbEntity
  8
AM_0
 48
0.5
100
AcDbLine
 10
845.7332470654682
 20
811.7082471694091
 30
0.0
 11
845.7332470654682
 21
816.5082959975332
 31
0.0
  0
LINE
  5
D8DC
330
1F
100
AcDbEntity
  8
AM_0
 48
0.5
100
AcDbLine
 10
831.9333126782604
 20
811.7082471694091
 30
0.0
 11
831.9333126782604
 21
816.5082959975332
 31
0.0
  0
LINE
  5
D8DD
330
1F
100
AcDbEntity
  8
AM_0
 48
0.5
100
AcDbLine
 10
836.7331173657603
 20
811.7082471694091
 30
0.0
 11
836.7331173657603
 21
816.5082959975332
 31
0.0
  0
LINE
  5
D8DE
330
1F
100
AcDbEntity
  8
AM_0
 48
0.5
100
AcDbLine
 10
854.7332470654682
 20
811.7082471694091
 30
0.0
 11
854.7332470654682
 21
816.5082959975332
 31
0.0
  0
LINE
  5
D8DF
330
1F
100
AcDbEntity
  8
AM_0
 48
0.5
100
AcDbLine
 10
858.9331982373423
 20
811.7082471694091
 30
0.0
 11
858.9331982373423
 21
816.5082959975332
 31
0.0
  0
LINE
  5
D8E0
330
1F
100
AcDbEntity
  8
AM_0
 48
0.5
100
AcDbLine
 10
840.9333203076563
 20
811.7082471694091
 30
0.0
 11
840.9333203076563
 21
816.5082959975332
 31
0.0
  0
LINE
  5
D8E1
330
1F
100
AcDbEntity
  8
AM_0
 48
0.5
100
AcDbLine
 10
858.9331982373423
 20
784.7082476462466
 30
0.0
 11
858.9331982373423
 21
789.5082964743716
 31
0.0
  0
LINE
  5
D8E2
330
1F
100
AcDbEntity
  8
AM_0
 48
0.5
100
AcDbLine
 10
863.7332470654682
 20
784.7082476462466
 30
0.0
 11
863.7332470654682
 21
789.5082964743716
 31
0.0
  0
LINE
  5
D8E3
330
1F
100
AcDbEntity
  8
AM_0
 48
0.5
100
AcDbLine
 10
840.9333203076563
 20
784.7082476462466
 30
0.0
 11
840.9333203076563
 21
789.5082964743716
 31
0.0
  0
LINE
  5
D8E4
330
1F
100
AcDbEntity
  8
AM_0
 48
0.5
100
AcDbLine
 10
831.9333126782604
 20
784.7082476462466
 30
0.0
 11
831.9333126782604
 21
789.5082964743716
 31
0.0
  0
LINE
  5
D8E5
330
1F
100
AcDbEntity
  8
AM_0
 48
0.5
100
AcDbLine
 10
836.7331173657603
 20
784.7082476462466
 30
0.0
 11
836.7331173657603
 21
789.5082964743716
 31
0.0
  0
LINE
  5
D8E6
330
1F
100
AcDbEntity
  8
AM_0
 48
0.5
100
AcDbLine
 10
845.7332470654682
 20
784.7082476462466
 30
0.0
 11
845.7332470654682
 21
789.5082964743716
 31
0.0
  0
LINE
  5
D8E7
330
1F
100
AcDbEntity
  8
AM_0
 48
0.5
100
AcDbLine
 10
854.7332470654682
 20
784.7082476462466
 30
0.0
 11
854.7332470654682
 21
789.5082964743716
 31
0.0
  0
LINE
  5
D8E8
330
1F
100
AcDbEntity
  8
AM_0
 48
0.5
100
AcDbLine
 10
849.9331982373423
 20
784.7082476462466
 30
0.0
 11
849.9331982373423
 21
789.5082964743716
 31
0.0
  0
LINE
  5
D8E9
330
1F
100
AcDbEntity
  8
AM_0
 48
0.5
100
AcDbLine
 10
840.9333203076563
 20
784.7082476462466
 30
0.0
 11
845.7332470654682
 21
784.7082476462466
 31
0.0
  0
LINE
  5
D8EA
330
1F
100
AcDbEntity
  8
AM_0
 48
0.5
100
AcDbLine
 10
840.9333203076563
 20
775.7082471694096
 30
0.0
 11
845.7332470654682
 21
775.7082471694096
 31
0.0
  0
LINE
  5
D8EB
330
1F
100
AcDbEntity
  8
AM_0
 48
0.5
100
AcDbLine
 10
840.9333203076563
 20
780.5082959975346
 30
0.0
 11
845.7332470654682
 21
780.5082959975346
 31
0.0
  0
LINE
  5
D8EC
330
1F
100
AcDbEntity
  8
AM_0
 48
0.5
100
AcDbLine
 10
840.9333203076563
 20
771.5082959975346
 30
0.0
 11
845.7332470654682
 21
771.5082959975346
 31
0.0
  0
LINE
  5
D8ED
330
1F
100
AcDbEntity
  8
AM_0
 48
0.5
100
AcDbLine
 10
840.9333203076563
 20
766.7082471694112
 30
0.0
 11
845.7332470654682
 21
766.7082471694112
 31
0.0
  0
LINE
  5
D8EE
330
1F
100
AcDbEntity
  8
AM_0
 48
0.5
100
AcDbLine
 10
831.9333126782604
 20
766.7082471694112
 30
0.0
 11
836.7331173657603
 21
766.7082471694112
 31
0.0
  0
LINE
  5
D8EF
330
1F
100
AcDbEntity
  8
AM_0
 48
0.5
100
AcDbLine
 10
831.9333126782604
 20
771.5082959975346
 30
0.0
 11
836.7331173657603
 21
771.5082959975346
 31
0.0
  0
LINE
  5
D8F0
330
1F
100
AcDbEntity
  8
AM_0
 48
0.5
100
AcDbLine
 10
831.9333126782604
 20
766.7082471694112
 30
0.0
 11
831.9333126782604
 21
771.5082959975346
 31
0.0
  0
LINE
  5
D8F1
330
1F
100
AcDbEntity
  8
AM_0
 48
0.5
100
AcDbLine
 10
836.7331173657603
 20
766.7082471694112
 30
0.0
 11
836.7331173657603
 21
771.5082959975346
 31
0.0
  0
LINE
  5
D8F2
330
1F
100
AcDbEntity
  8
AM_0
 48
0.5
100
AcDbLine
 10
840.9333203076563
 20
766.7082471694112
 30
0.0
 11
840.9333203076563
 21
771.5082959975346
 31
0.0
  0
LINE
  5
D8F3
330
1F
100
AcDbEntity
  8
AM_0
 48
0.5
100
AcDbLine
 10
831.9333126782604
 20
784.7082476462466
 30
0.0
 11
836.7331173657603
 21
784.7082476462466
 31
0.0
  0
LINE
  5
D8F4
330
1F
100
AcDbEntity
  8
AM_0
 48
0.5
100
AcDbLine
 10
831.9333126782604
 20
780.5082959975346
 30
0.0
 11
836.7331173657603
 21
780.5082959975346
 31
0.0
  0
LINE
  5
D8F5
330
1F
100
AcDbEntity
  8
AM_0
 48
0.5
100
AcDbLine
 10
831.9333126782604
 20
775.7082471694096
 30
0.0
 11
836.7331173657603
 21
775.7082471694096
 31
0.0
  0
LINE
  5
D8F6
330
1F
100
AcDbEntity
  8
AM_0
 48
0.5
100
AcDbLine
 10
831.9333126782604
 20
775.7082471694096
 30
0.0
 11
831.9333126782604
 21
780.5082959975346
 31
0.0
  0
LINE
  5
D8F7
330
1F
100
AcDbEntity
  8
AM_0
 48
0.5
100
AcDbLine
 10
836.7331173657603
 20
775.7082471694096
 30
0.0
 11
836.7331173657603
 21
780.5082959975346
 31
0.0
  0
LINE
  5
D8F8
330
1F
100
AcDbEntity
  8
AM_0
 48
0.5
100
AcDbLine
 10
840.9333203076563
 20
775.7082471694096
 30
0.0
 11
840.9333203076563
 21
780.5082959975346
 31
0.0
  0
LINE
  5
D8F9
330
1F
100
AcDbEntity
  8
AM_0
 48
0.5
100
AcDbLine
 10
849.9331982373423
 20
771.5082959975346
 30
0.0
 11
854.7332470654682
 21
771.5082959975346
 31
0.0
  0
LINE
  5
D8FA
330
1F
100
AcDbEntity
  8
AM_0
 48
0.5
100
AcDbLine
 10
849.9331982373423
 20
766.7082471694112
 30
0.0
 11
854.7332470654682
 21
766.7082471694112
 31
0.0
  0
LINE
  5
D8FB
330
1F
100
AcDbEntity
  8
AM_0
 48
0.5
100
AcDbLine
 10
849.9331982373423
 20
766.7082471694112
 30
0.0
 11
849.9331982373423
 21
771.5082959975346
 31
0.0
  0
LINE
  5
D8FC
330
1F
100
AcDbEntity
  8
AM_0
 48
0.5
100
AcDbLine
 10
845.7332470654682
 20
766.7082471694112
 30
0.0
 11
845.7332470654682
 21
771.5082959975346
 31
0.0
  0
LINE
  5
D8FD
330
1F
100
AcDbEntity
  8
AM_0
 48
0.5
100
AcDbLine
 10
854.7332470654682
 20
766.7082471694112
 30
0.0
 11
854.7332470654682
 21
771.5082959975346
 31
0.0
  0
LINE
  5
D8FE
330
1F
100
AcDbEntity
  8
AM_0
 48
0.5
100
AcDbLine
 10
858.9331982373423
 20
766.7082471694112
 30
0.0
 11
858.9331982373423
 21
771.5082959975346
 31
0.0
  0
LINE
  5
D8FF
330
1F
100
AcDbEntity
  8
AM_0
 48
0.5
100
AcDbLine
 10
863.7332470654682
 20
766.7082471694112
 30
0.0
 11
863.7332470654682
 21
771.5082959975346
 31
0.0
  0
LINE
  5
D900
330
1F
100
AcDbEntity
  8
AM_0
 48
0.5
100
AcDbLine
 10
858.9331982373423
 20
766.7082471694112
 30
0.0
 11
863.7332470654682
 21
766.7082471694112
 31
0.0
  0
LINE
  5
D901
330
1F
100
AcDbEntity
  8
AM_0
 48
0.5
100
AcDbLine
 10
858.9331982373423
 20
771.5082959975346
 30
0.0
 11
863.7332470654682
 21
771.5082959975346
 31
0.0
  0
LINE
  5
D902
330
1F
100
AcDbEntity
  8
AM_0
 48
0.5
100
AcDbLine
 10
849.9331982373423
 20
775.7082471694096
 30
0.0
 11
854.7332470654682
 21
775.7082471694096
 31
0.0
  0
LINE
  5
D903
330
1F
100
AcDbEntity
  8
AM_0
 48
0.5
100
AcDbLine
 10
849.9331982373423
 20
780.5082959975346
 30
0.0
 11
854.7332470654682
 21
780.5082959975346
 31
0.0
  0
LINE
  5
D904
330
1F
100
AcDbEntity
  8
AM_0
 48
0.5
100
AcDbLine
 10
849.9331982373423
 20
784.7082476462466
 30
0.0
 11
854.7332470654682
 21
784.7082476462466
 31
0.0
  0
LINE
  5
D905
330
1F
100
AcDbEntity
  8
AM_0
 48
0.5
100
AcDbLine
 10
845.7332470654682
 20
775.7082471694096
 30
0.0
 11
845.7332470654682
 21
780.5082959975346
 31
0.0
  0
LINE
  5
D906
330
1F
100
AcDbEntity
  8
AM_0
 48
0.5
100
AcDbLine
 10
849.9331982373423
 20
775.7082471694096
 30
0.0
 11
849.9331982373423
 21
780.5082959975346
 31
0.0
  0
LINE
  5
D907
330
1F
100
AcDbEntity
  8
AM_0
 48
0.5
100
AcDbLine
 10
858.9331982373423
 20
775.7082471694096
 30
0.0
 11
863.7332470654682
 21
775.7082471694096
 31
0.0
  0
LINE
  5
D908
330
1F
100
AcDbEntity
  8
AM_0
 48
0.5
100
AcDbLine
 10
858.9331982373423
 20
780.5082959975346
 30
0.0
 11
863.7332470654682
 21
780.5082959975346
 31
0.0
  0
LINE
  5
D909
330
1F
100
AcDbEntity
  8
AM_0
 48
0.5
100
AcDbLine
 10
858.9331982373423
 20
775.7082471694096
 30
0.0
 11
858.9331982373423
 21
780.5082959975346
 31
0.0
  0
LINE
  5
D90A
330
1F
100
AcDbEntity
  8
AM_0
 48
0.5
100
AcDbLine
 10
854.7332470654682
 20
775.7082471694096
 30
0.0
 11
854.7332470654682
 21
780.5082959975346
 31
0.0
  0
LINE
  5
D90B
330
1F
100
AcDbEntity
  8
AM_0
 48
0.5
100
AcDbLine
 10
863.7332470654682
 20
775.7082471694096
 30
0.0
 11
863.7332470654682
 21
780.5082959975346
 31
0.0
  0
LINE
  5
D90C
330
1F
100
AcDbEntity
  8
AM_0
 48
0.5
100
AcDbLine
 10
858.9331982373423
 20
784.7082476462466
 30
0.0
 11
863.7332470654682
 21
784.7082476462466
 31
0.0
  0
LINE
  5
D90D
330
1F
100
AcDbEntity
  8
AM_0
 48
0.5
100
AcDbLine
 10
840.9333203076563
 20
793.7082476462466
 30
0.0
 11
845.7332470654682
 21
793.7082476462466
 31
0.0
  0
LINE
  5
D90E
330
1F
100
AcDbEntity
  8
AM_0
 48
0.5
100
AcDbLine
 10
840.9333203076563
 20
789.5082964743716
 30
0.0
 11
845.7332470654682
 21
789.5082964743716
 31
0.0
  0
LINE
  5
D90F
330
1F
100
AcDbEntity
  8
AM_0
 48
0.5
100
AcDbLine
 10
840.9333203076563
 20
798.5082959975346
 30
0.0
 11
845.7332470654682
 21
798.5082959975346
 31
0.0
  0
LINE
  5
D910
330
1F
100
AcDbEntity
  8
AM_0
 48
0.5
100
AcDbLine
 10
840.9333203076563
 20
811.7082471694091
 30
0.0
 11
845.7332470654682
 21
811.7082471694091
 31
0.0
  0
LINE
  5
D911
330
1F
100
AcDbEntity
  8
AM_0
 48
0.5
100
AcDbLine
 10
840.9333203076563
 20
802.7082471694097
 30
0.0
 11
845.7332470654682
 21
802.7082471694097
 31
0.0
  0
LINE
  5
D912
330
1F
100
AcDbEntity
  8
AM_0
 48
0.5
100
AcDbLine
 10
840.9333203076563
 20
807.5082959975347
 30
0.0
 11
845.7332470654682
 21
807.5082959975347
 31
0.0
  0
LINE
  5
D913
330
1F
100
AcDbEntity
  8
AM_0
 48
0.5
100
AcDbLine
 10
831.9333126782604
 20
793.7082476462466
 30
0.0
 11
836.7331173657603
 21
793.7082476462466
 31
0.0
  0
LINE
  5
D914
330
1F
100
AcDbEntity
  8
AM_0
 48
0.5
100
AcDbLine
 10
831.9333126782604
 20
798.5082959975346
 30
0.0
 11
836.7331173657603
 21
798.5082959975346
 31
0.0
  0
LINE
  5
D915
330
1F
100
AcDbEntity
  8
AM_0
 48
0.5
100
AcDbLine
 10
831.9333126782604
 20
789.5082964743716
 30
0.0
 11
836.7331173657603
 21
789.5082964743716
 31
0.0
  0
LINE
  5
D916
330
1F
100
AcDbEntity
  8
AM_0
 48
0.5
100
AcDbLine
 10
831.9333126782604
 20
793.7082476462466
 30
0.0
 11
831.9333126782604
 21
798.5082959975346
 31
0.0
  0
LINE
  5
D917
330
1F
100
AcDbEntity
  8
AM_0
 48
0.5
100
AcDbLine
 10
836.7331173657603
 20
793.7082476462466
 30
0.0
 11
836.7331173657603
 21
798.5082959975346
 31
0.0
  0
LINE
  5
D918
330
1F
100
AcDbEntity
  8
AM_0
 48
0.5
100
AcDbLine
 10
840.9333203076563
 20
793.7082476462466
 30
0.0
 11
840.9333203076563
 21
798.5082959975346
 31
0.0
  0
LINE
  5
D919
330
1F
100
AcDbEntity
  8
AM_0
 48
0.5
100
AcDbLine
 10
831.9333126782604
 20
811.7082471694091
 30
0.0
 11
836.7331173657603
 21
811.7082471694091
 31
0.0
  0
LINE
  5
D91A
330
1F
100
AcDbEntity
  8
AM_0
 48
0.5
100
AcDbLine
 10
831.9333126782604
 20
807.5082959975347
 30
0.0
 11
836.7331173657603
 21
807.5082959975347
 31
0.0
  0
LINE
  5
D91B
330
1F
100
AcDbEntity
  8
AM_0
 48
0.5
100
AcDbLine
 10
831.9333126782604
 20
802.7082471694097
 30
0.0
 11
836.7331173657603
 21
802.7082471694097
 31
0.0
  0
LINE
  5
D91C
330
1F
100
AcDbEntity
  8
AM_0
 48
0.5
100
AcDbLine
 10
831.9333126782604
 20
802.7082471694097
 30
0.0
 11
831.9333126782604
 21
807.5082959975347
 31
0.0
  0
LINE
  5
D91D
330
1F
100
AcDbEntity
  8
AM_0
 48
0.5
100
AcDbLine
 10
836.7331173657603
 20
802.7082471694097
 30
0.0
 11
836.7331173657603
 21
807.5082959975347
 31
0.0
  0
LINE
  5
D91E
330
1F
100
AcDbEntity
  8
AM_0
 48
0.5
100
AcDbLine
 10
840.9333203076563
 20
802.7082471694097
 30
0.0
 11
840.9333203076563
 21
807.5082959975347
 31
0.0
  0
LINE
  5
D91F
330
1F
100
AcDbEntity
  8
AM_0
 48
0.5
100
AcDbLine
 10
849.9331982373423
 20
793.7082476462466
 30
0.0
 11
854.7332470654682
 21
793.7082476462466
 31
0.0
  0
LINE
  5
D920
330
1F
100
AcDbEntity
  8
AM_0
 48
0.5
100
AcDbLine
 10
849.9331982373423
 20
789.5082964743716
 30
0.0
 11
854.7332470654682
 21
789.5082964743716
 31
0.0
  0
LINE
  5
D921
330
1F
100
AcDbEntity
  8
AM_0
 48
0.5
100
AcDbLine
 10
849.9331982373423
 20
798.5082959975346
 30
0.0
 11
854.7332470654682
 21
798.5082959975346
 31
0.0
  0
LINE
  5
D922
330
1F
100
AcDbEntity
  8
AM_0
 48
0.5
100
AcDbLine
 10
845.7332470654682
 20
793.7082476462466
 30
0.0
 11
845.7332470654682
 21
798.5082959975346
 31
0.0
  0
LINE
  5
D923
330
1F
100
AcDbEntity
  8
AM_0
 48
0.5
100
AcDbLine
 10
849.9331982373423
 20
793.7082476462466
 30
0.0
 11
849.9331982373423
 21
798.5082959975346
 31
0.0
  0
LINE
  5
D924
330
1F
100
AcDbEntity
  8
AM_0
 48
0.5
100
AcDbLine
 10
858.9331982373423
 20
793.7082476462466
 30
0.0
 11
858.9331982373423
 21
798.5082959975346
 31
0.0
  0
LINE
  5
D925
330
1F
100
AcDbEntity
  8
AM_0
 48
0.5
100
AcDbLine
 10
863.7332470654682
 20
793.7082476462466
 30
0.0
 11
863.7332470654682
 21
798.5082959975346
 31
0.0
  0
LINE
  5
D926
330
1F
100
AcDbEntity
  8
AM_0
 48
0.5
100
AcDbLine
 10
854.7332470654682
 20
793.7082476462466
 30
0.0
 11
854.7332470654682
 21
798.5082959975346
 31
0.0
  0
LINE
  5
D927
330
1F
100
AcDbEntity
  8
AM_0
 48
0.5
100
AcDbLine
 10
858.9331982373423
 20
793.7082476462466
 30
0.0
 11
863.7332470654682
 21
793.7082476462466
 31
0.0
  0
LINE
  5
D928
330
1F
100
AcDbEntity
  8
AM_0
 48
0.5
100
AcDbLine
 10
858.9331982373423
 20
789.5082964743716
 30
0.0
 11
863.7332470654682
 21
789.5082964743716
 31
0.0
  0
LINE
  5
D929
330
1F
100
AcDbEntity
  8
AM_0
 48
0.5
100
AcDbLine
 10
858.9331982373423
 20
798.5082959975346
 30
0.0
 11
863.7332470654682
 21
798.5082959975346
 31
0.0
  0
LINE
  5
D92A
330
1F
100
AcDbEntity
  8
AM_0
 48
0.5
100
AcDbLine
 10
849.9331982373423
 20
802.7082471694097
 30
0.0
 11
854.7332470654682
 21
802.7082471694097
 31
0.0
  0
LINE
  5
D92B
330
1F
100
AcDbEntity
  8
AM_0
 48
0.5
100
AcDbLine
 10
849.9331982373423
 20
807.5082959975347
 30
0.0
 11
854.7332470654682
 21
807.5082959975347
 31
0.0
  0
LINE
  5
D92C
330
1F
100
AcDbEntity
  8
AM_0
 48
0.5
100
AcDbLine
 10
849.9331982373423
 20
811.7082471694091
 30
0.0
 11
854.7332470654682
 21
811.7082471694091
 31
0.0
  0
LINE
  5
D92D
330
1F
100
AcDbEntity
  8
AM_0
 48
0.5
100
AcDbLine
 10
845.7332470654682
 20
802.7082471694097
 30
0.0
 11
845.7332470654682
 21
807.5082959975347
 31
0.0
  0
LINE
  5
D92E
330
1F
100
AcDbEntity
  8
AM_0
 48
0.5
100
AcDbLine
 10
849.9331982373423
 20
802.7082471694097
 30
0.0
 11
849.9331982373423
 21
807.5082959975347
 31
0.0
  0
LINE
  5
D92F
330
1F
100
AcDbEntity
  8
AM_0
 48
0.5
100
AcDbLine
 10
858.9331982373423
 20
807.5082959975347
 30
0.0
 11
863.7332470654682
 21
807.5082959975347
 31
0.0
  0
LINE
  5
D930
330
1F
100
AcDbEntity
  8
AM_0
 48
0.5
100
AcDbLine
 10
858.9331982373423
 20
802.7082471694097
 30
0.0
 11
863.7332470654682
 21
802.7082471694097
 31
0.0
  0
LINE
  5
D931
330
1F
100
AcDbEntity
  8
AM_0
 48
0.5
100
AcDbLine
 10
858.9331982373423
 20
802.7082471694097
 30
0.0
 11
858.9331982373423
 21
807.5082959975347
 31
0.0
  0
LINE
  5
D932
330
1F
100
AcDbEntity
  8
AM_0
 48
0.5
100
AcDbLine
 10
854.7332470654682
 20
802.7082471694097
 30
0.0
 11
854.7332470654682
 21
807.5082959975347
 31
0.0
  0
LINE
  5
D933
330
1F
100
AcDbEntity
  8
AM_0
 48
0.5
100
AcDbLine
 10
863.7332470654682
 20
802.7082471694097
 30
0.0
 11
863.7332470654682
 21
807.5082959975347
 31
0.0
  0
LINE
  5
D934
330
1F
100
AcDbEntity
  8
AM_0
 48
0.5
100
AcDbLine
 10
858.9331982373423
 20
811.7082471694091
 30
0.0
 11
863.7332470654682
 21
811.7082471694091
 31
0.0
  0
LINE
  5
D935
330
1F
100
AcDbEntity
  8
AM_0
 48
0.5
100
AcDbLine
 10
840.9333203076563
 20
816.5082959975332
 30
0.0
 11
845.7332470654682
 21
816.5082959975332
 31
0.0
  0
LINE
  5
D936
330
1F
100
AcDbEntity
  8
AM_0
 48
0.5
100
AcDbLine
 10
840.9333203076563
 20
825.5082979048832
 30
0.0
 11
845.7332470654682
 21
825.5082979048832
 31
0.0
  0
LINE
  5
D937
330
1F
100
AcDbEntity
  8
AM_0
 48
0.5
100
AcDbLine
 10
840.9333203076563
 20
820.7082471694091
 30
0.0
 11
845.7332470654682
 21
820.7082471694091
 31
0.0
  0
LINE
  5
D938
330
1F
100
AcDbEntity
  8
AM_0
 48
0.5
100
AcDbLine
 10
831.9333126782604
 20
820.7082471694091
 30
0.0
 11
836.7331173657603
 21
820.7082471694091
 31
0.0
  0
LINE
  5
D939
330
1F
100
AcDbEntity
  8
AM_0
 48
0.5
100
AcDbLine
 10
831.9333126782604
 20
825.5082979048832
 30
0.0
 11
836.7331173657603
 21
825.5082979048832
 31
0.0
  0
LINE
  5
D93A
330
1F
100
AcDbEntity
  8
AM_0
 48
0.5
100
AcDbLine
 10
831.9333126782604
 20
816.5082959975332
 30
0.0
 11
836.7331173657603
 21
816.5082959975332
 31
0.0
  0
LINE
  5
D93B
330
1F
100
AcDbEntity
  8
AM_0
 48
0.5
100
AcDbLine
 10
831.9333126782604
 20
820.7082471694091
 30
0.0
 11
831.9333126782604
 21
825.5082979048832
 31
0.0
  0
LINE
  5
D93C
330
1F
100
AcDbEntity
  8
AM_0
 48
0.5
100
AcDbLine
 10
836.7331173657603
 20
820.7082471694091
 30
0.0
 11
836.7331173657603
 21
825.5082979048832
 31
0.0
  0
LINE
  5
D93D
330
1F
100
AcDbEntity
  8
AM_0
 48
0.5
100
AcDbLine
 10
840.9333203076563
 20
820.7082471694091
 30
0.0
 11
840.9333203076563
 21
825.5082979048832
 31
0.0
  0
LINE
  5
D93E
330
1F
100
AcDbEntity
  8
AM_0
 48
0.5
100
AcDbLine
 10
849.9331982373423
 20
816.5082959975332
 30
0.0
 11
854.7332470654682
 21
816.5082959975332
 31
0.0
  0
LINE
  5
D93F
330
1F
100
AcDbEntity
  8
AM_0
 48
0.5
100
AcDbLine
 10
849.9331982373423
 20
820.7082471694091
 30
0.0
 11
854.7332470654682
 21
820.7082471694091
 31
0.0
  0
LINE
  5
D940
330
1F
100
AcDbEntity
  8
AM_0
 48
0.5
100
AcDbLine
 10
849.9331982373423
 20
825.5082979048832
 30
0.0
 11
854.7332470654682
 21
825.5082979048832
 31
0.0
  0
LINE
  5
D941
330
1F
100
AcDbEntity
  8
AM_0
 48
0.5
100
AcDbLine
 10
845.7332470654682
 20
820.7082471694091
 30
0.0
 11
845.7332470654682
 21
825.5082979048832
 31
0.0
  0
LINE
  5
D942
330
1F
100
AcDbEntity
  8
AM_0
 48
0.5
100
AcDbLine
 10
849.9331982373423
 20
820.7082471694091
 30
0.0
 11
849.9331982373423
 21
825.5082979048832
 31
0.0
  0
LINE
  5
D943
330
1F
100
AcDbEntity
  8
AM_0
 48
0.5
100
AcDbLine
 10
858.9331982373423
 20
820.7082471694091
 30
0.0
 11
858.9331982373423
 21
825.5082979048832
 31
0.0
  0
LINE
  5
D944
330
1F
100
AcDbEntity
  8
AM_0
 48
0.5
100
AcDbLine
 10
854.7332470654682
 20
820.7082471694091
 30
0.0
 11
854.7332470654682
 21
825.5082979048832
 31
0.0
  0
LINE
  5
D945
330
1F
100
AcDbEntity
  8
AM_0
 48
0.5
100
AcDbLine
 10
863.7332470654682
 20
820.7082471694091
 30
0.0
 11
863.7332470654682
 21
825.5082979048832
 31
0.0
  0
LINE
  5
D946
330
1F
100
AcDbEntity
  8
AM_0
 48
0.5
100
AcDbLine
 10
858.9331982373423
 20
816.5082959975332
 30
0.0
 11
863.7332470654682
 21
816.5082959975332
 31
0.0
  0
LINE
  5
D947
330
1F
100
AcDbEntity
  8
AM_0
 48
0.5
100
AcDbLine
 10
858.9331982373423
 20
820.7082471694091
 30
0.0
 11
863.7332470654682
 21
820.7082471694091
 31
0.0
  0
LINE
  5
D948
330
1F
100
AcDbEntity
  8
AM_0
 48
0.5
100
AcDbLine
 10
858.9331982373423
 20
825.5082979048832
 30
0.0
 11
863.7332470654682
 21
825.5082979048832
 31
0.0
  0
LINE
  5
D949
330
1F
100
AcDbEntity
  8
AM_0
 48
0.5
100
AcDbLine
 10
867.9331982373424
 20
811.7082471694091
 30
0.0
 11
867.9331982373424
 21
816.5082959975332
 31
0.0
  0
LINE
  5
D94A
330
1F
100
AcDbEntity
  8
AM_0
 48
0.5
100
AcDbLine
 10
872.7332470654683
 20
811.7082471694091
 30
0.0
 11
872.7332470654683
 21
816.5082959975332
 31
0.0
  0
LINE
  5
D94B
330
1F
100
AcDbEntity
  8
AM_0
 48
0.5
100
AcDbLine
 10
872.7332470654683
 20
784.7082476462466
 30
0.0
 11
872.7332470654683
 21
789.5082964743716
 31
0.0
  0
LINE
  5
D94C
330
1F
100
AcDbEntity
  8
AM_0
 48
0.5
100
AcDbLine
 10
867.9331982373424
 20
784.7082476462466
 30
0.0
 11
867.9331982373424
 21
789.5082964743716
 31
0.0
  0
LINE
  5
D94D
330
1F
100
AcDbEntity
  8
AM_0
 48
0.5
100
AcDbLine
 10
872.7332470654683
 20
766.7082471694112
 30
0.0
 11
872.7332470654683
 21
771.5082959975346
 31
0.0
  0
LINE
  5
D94E
330
1F
100
AcDbEntity
  8
AM_0
 48
0.5
100
AcDbLine
 10
867.9331982373424
 20
766.7082471694112
 30
0.0
 11
867.9331982373424
 21
771.5082959975346
 31
0.0
  0
LINE
  5
D94F
330
1F
100
AcDbEntity
  8
AM_0
 48
0.5
100
AcDbLine
 10
867.9331982373424
 20
766.7082471694112
 30
0.0
 11
872.7332470654683
 21
766.7082471694112
 31
0.0
  0
LINE
  5
D950
330
1F
100
AcDbEntity
  8
AM_0
 48
0.5
100
AcDbLine
 10
867.9331982373424
 20
771.5082959975346
 30
0.0
 11
872.7332470654683
 21
771.5082959975346
 31
0.0
  0
LINE
  5
D951
330
1F
100
AcDbEntity
  8
AM_0
 48
0.5
100
AcDbLine
 10
867.9331982373424
 20
775.7082471694096
 30
0.0
 11
872.7332470654683
 21
775.7082471694096
 31
0.0
  0
LINE
  5
D952
330
1F
100
AcDbEntity
  8
AM_0
 48
0.5
100
AcDbLine
 10
867.9331982373424
 20
780.5082959975346
 30
0.0
 11
872.7332470654683
 21
780.5082959975346
 31
0.0
  0
LINE
  5
D953
330
1F
100
AcDbEntity
  8
AM_0
 48
0.5
100
AcDbLine
 10
867.9331982373424
 20
775.7082471694096
 30
0.0
 11
867.9331982373424
 21
780.5082959975346
 31
0.0
  0
LINE
  5
D954
330
1F
100
AcDbEntity
  8
AM_0
 48
0.5
100
AcDbLine
 10
872.7332470654683
 20
775.7082471694096
 30
0.0
 11
872.7332470654683
 21
780.5082959975346
 31
0.0
  0
LINE
  5
D955
330
1F
100
AcDbEntity
  8
AM_0
 48
0.5
100
AcDbLine
 10
867.9331982373424
 20
784.7082476462466
 30
0.0
 11
872.7332470654683
 21
784.7082476462466
 31
0.0
  0
LINE
  5
D956
330
1F
100
AcDbEntity
  8
AM_0
 48
0.5
100
AcDbLine
 10
867.9331982373424
 20
793.7082476462466
 30
0.0
 11
867.9331982373424
 21
798.5082959975346
 31
0.0
  0
LINE
  5
D957
330
1F
100
AcDbEntity
  8
AM_0
 48
0.5
100
AcDbLine
 10
872.7332470654683
 20
793.7082476462466
 30
0.0
 11
872.7332470654683
 21
798.5082959975346
 31
0.0
  0
LINE
  5
D958
330
1F
100
AcDbEntity
  8
AM_0
 48
0.5
100
AcDbLine
 10
867.9331982373424
 20
793.7082476462466
 30
0.0
 11
872.7332470654683
 21
793.7082476462466
 31
0.0
  0
LINE
  5
D959
330
1F
100
AcDbEntity
  8
AM_0
 48
0.5
100
AcDbLine
 10
867.9331982373424
 20
789.5082964743716
 30
0.0
 11
872.7332470654683
 21
789.5082964743716
 31
0.0
  0
LINE
  5
D95A
330
1F
100
AcDbEntity
  8
AM_0
 48
0.5
100
AcDbLine
 10
867.9331982373424
 20
798.5082959975346
 30
0.0
 11
872.7332470654683
 21
798.5082959975346
 31
0.0
  0
LINE
  5
D95B
330
1F
100
AcDbEntity
  8
AM_0
 48
0.5
100
AcDbLine
 10
867.9331982373424
 20
802.7082471694097
 30
0.0
 11
872.7332470654683
 21
802.7082471694097
 31
0.0
  0
LINE
  5
D95C
330
1F
100
AcDbEntity
  8
AM_0
 48
0.5
100
AcDbLine
 10
867.9331982373424
 20
807.5082959975347
 30
0.0
 11
872.7332470654683
 21
807.5082959975347
 31
0.0
  0
LINE
  5
D95D
330
1F
100
AcDbEntity
  8
AM_0
 48
0.5
100
AcDbLine
 10
867.9331982373424
 20
802.7082471694097
 30
0.0
 11
867.9331982373424
 21
807.5082959975347
 31
0.0
  0
LINE
  5
D95E
330
1F
100
AcDbEntity
  8
AM_0
 48
0.5
100
AcDbLine
 10
872.7332470654683
 20
802.7082471694097
 30
0.0
 11
872.7332470654683
 21
807.5082959975347
 31
0.0
  0
LINE
  5
D95F
330
1F
100
AcDbEntity
  8
AM_0
 48
0.5
100
AcDbLine
 10
867.9331982373424
 20
811.7082471694091
 30
0.0
 11
872.7332470654683
 21
811.7082471694091
 31
0.0
  0
LINE
  5
D960
330
1F
100
AcDbEntity
  8
AM_0
 48
0.5
100
AcDbLine
 10
867.9331982373424
 20
820.7082471694091
 30
0.0
 11
867.9331982373424
 21
825.5082979048832
 31
0.0
  0
LINE
  5
D961
330
1F
100
AcDbEntity
  8
AM_0
 48
0.5
100
AcDbLine
 10
872.7332470654683
 20
820.7082471694091
 30
0.0
 11
872.7332470654683
 21
825.5082979048832
 31
0.0
  0
LINE
  5
D962
330
1F
100
AcDbEntity
  8
AM_0
 48
0.5
100
AcDbLine
 10
867.9331982373424
 20
816.5082959975332
 30
0.0
 11
872.7332470654683
 21
816.5082959975332
 31
0.0
  0
LINE
  5
D963
330
1F
100
AcDbEntity
  8
AM_0
 48
0.5
100
AcDbLine
 10
867.9331982373424
 20
820.7082471694091
 30
0.0
 11
872.7332470654683
 21
820.7082471694091
 31
0.0
  0
LINE
  5
D964
330
1F
100
AcDbEntity
  8
AM_0
 48
0.5
100
AcDbLine
 10
867.9331982373424
 20
825.5082979048832
 30
0.0
 11
872.7332470654683
 21
825.5082979048832
 31
0.0
  0
MTEXT
  5
DA25
330
1F
100
AcDbEntity
  8
AM_6
100
AcDbMText
 10
1505.00000003548
 20
1377.499998900733
 30
0.0
 40
16.0
 41
125.0
 71
     5
 72
     5
  1
本体
 73
     1
 44
1.0
1001
ACAD
1000
MTEXTBEGIN
1070
    73
1070
     1
1070
    44
1040
1.0
1070
    74
1070
     0
1000
MTEXTEND
1000
ACAD_MTEXT_DEFINED_HEIGHT_BEGIN
1070
    46
1040
40.0
1000
ACAD_MTEXT_DEFINED_HEIGHT_END
  0
MTEXT
  5
DA26
330
1F
100
AcDbEntity
  8
AM_6
100
AcDbMText
 10
1505.00000003548
 20
1297.499998900733
 30
0.0
 40
16.0
 41
125.0
 71
     5
 72
     5
  1
インターホンパネル
 73
     1
 44
1.0
1001
ACAD
1000
MTEXTBEGIN
1070
    73
1070
     1
1070
    44
1040
1.0
1070
    74
1070
     0
1000
MTEXTEND
1000
ACAD_MTEXT_DEFINED_HEIGHT_BEGIN
1070
    46
1040
40.0
1000
ACAD_MTEXT_DEFINED_HEIGHT_END
  0
MTEXT
  5
DA29
330
1F
100
AcDbEntity
  8
AM_6
100
AcDbMText
 10
1780.00000003548
 20
1377.499998900733
 30
0.0
 40
16.0
 41
425.0
 71
     5
 72
     5
  1
アルミニウム押出材　アルマイト+電着塗装仕上
 73
     1
 44
1.0
1001
ACAD
1000
MTEXTBEGIN
1070
    73
1070
     1
1070
    44
1040
1.0
1070
    74
1070
     0
1000
MTEXTEND
1000
ACAD_MTEXT_DEFINED_HEIGHT_BEGIN
1070
    46
1040
40.0
1000
ACAD_MTEXT_DEFINED_HEIGHT_END
  0
MTEXT
  5
DA2B
330
1F
100
AcDbEntity
  8
AM_6
100
AcDbMText
 10
1505.00000003548
 20
1337.499998900733
 30
0.0
 40
16.0
 41
125.0
 71
     5
 72
     5
  1
室名札ユニット
 73
     1
 44
1.0
1001
ACAD
1000
MTEXTBEGIN
1070
    73
1070
     1
1070
    44
1040
1.0
1070
    74
1070
     0
1000
MTEXTEND
1000
ACAD_MTEXT_DEFINED_HEIGHT_BEGIN
1070
    46
1040
40.0
1000
ACAD_MTEXT_DEFINED_HEIGHT_END
  0
MTEXT
  5
DA2C
330
1F
100
AcDbEntity
  8
AM_6
100
AcDbMText
 10
1780.00000003548
 20
1337.499998900733
 30
0.0
 40
16.0
 41
425.0
 71
     5
 72
     5
  1
アルミニウム押出材　焼付塗装仕上
 73
     1
 44
1.0
1001
ACAD
1000
MTEXTBEGIN
1070
    73
1070
     1
1070
    44
1040
1.0
1070
    74
1070
     0
1000
MTEXTEND
1000
ACAD_MTEXT_DEFINED_HEIGHT_BEGIN
1070
    46
1040
40.0
1000
ACAD_MTEXT_DEFINED_HEIGHT_END
  0
MTEXT
  5
DA2D
330
1F
100
AcDbEntity
  8
AM_6
100
AcDbMText
 10
1780.00000003548
 20
1297.499998900733
 30
0.0
 40
16.0
 41
425.0
 71
     5
 72
     5
  1
アルミニウム　焼付塗装仕上
 73
     1
 44
1.0
1001
ACAD
1000
MTEXTBEGIN
1070
    73
1070
     1
1070
    44
1040
1.0
1070
    74
1070
     0
1000
MTEXTEND
1000
ACAD_MTEXT_DEFINED_HEIGHT_BEGIN
1070
    46
1040
40.0
1000
ACAD_MTEXT_DEFINED_HEIGHT_END
  0
LINE
  5
DA2E
330
1F
100
AcDbEntity
  8
AM_0
100
AcDbLine
 10
1442.50000003548
 20
1197.499998900733
 30
0.0
 11
1992.50000003548
 21
1197.499998900733
 31
0.0
  0
MTEXT
  5
DA2F
330
1F
100
AcDbEntity
  8
AM_6
100
AcDbMText
 10
1505.00000003548
 20
1217.499998900733
 30
0.0
 40
16.0
 41
125.0
 71
     5
 72
     5
  1
底板
 73
     1
 44
1.0
1001
ACAD
1000
MTEXTBEGIN
1070
    73
1070
     1
1070
    44
1040
1.0
1070
    74
1070
     0
1000
MTEXTEND
1000
ACAD_MTEXT_DEFINED_HEIGHT_BEGIN
1070
    46
1040
40.0
1000
ACAD_MTEXT_DEFINED_HEIGHT_END
  0
MTEXT
  5
DA30
330
1F
100
AcDbEntity
  8
AM_6
100
AcDbMText
 10
1505.00000003548
 20
1257.499998900733
 30
0.0
 40
16.0
 41
125.0
 71
     5
 72
     5
  1
新聞受ガイド
 73
     1
 44
1.0
1001
ACAD
1000
MTEXTBEGIN
1070
    73
1070
     1
1070
    44
1040
1.0
1070
    74
1070
     0
1000
MTEXTEND
1000
ACAD_MTEXT_DEFINED_HEIGHT_BEGIN
1070
    46
1040
40.0
1000
ACAD_MTEXT_DEFINED_HEIGHT_END
  0
MTEXT
  5
DA31
330
1F
100
AcDbEntity
  8
AM_6
100
AcDbMText
 10
1780.00000003548
 20
1237.499998900733
 30
0.0
 40
16.0
 41
425.0
 71
     5
 72
     5
  1
アルミダイキャスト　焼付塗装仕上
 73
     1
 44
1.0
1001
ACAD
1000
MTEXTBEGIN
1070
    73
1070
     1
1070
    44
1040
1.0
1070
    74
1070
     0
1000
MTEXTEND
1000
ACAD_MTEXT_DEFINED_HEIGHT_BEGIN
1070
    46
1040
80.0
1000
ACAD_MTEXT_DEFINED_HEIGHT_END
  0
LINE
  5
DA32
330
1F
100
AcDbEntity
  8
AM_0
100
AcDbLine
 10
1442.50000003548
 20
1157.499998900733
 30
0.0
 11
1992.50000003548
 21
1157.499998900733
 31
0.0
  0
MTEXT
  5
DA33
330
1F
100
AcDbEntity
  8
AM_6
100
AcDbMText
 10
1505.00000003548
 20
1177.499998900733
 30
0.0
 40
16.0
 41
125.0
 71
     5
 72
     5
  1
上下本体キャップ
 73
     1
 44
1.0
1001
ACAD
1000
MTEXTBEGIN
1070
    73
1070
     1
1070
    44
1040
1.0
1070
    74
1070
     0
1000
MTEXTEND
1000
ACAD_MTEXT_DEFINED_HEIGHT_BEGIN
1070
    46
1040
40.0
1000
ACAD_MTEXT_DEFINED_HEIGHT_END
  0
MTEXT
  5
DA34
330
1F
100
AcDbEntity
  8
AM_6
100
AcDbMText
 10
1780.00000003548
 20
1177.499998900733
 30
0.0
 40
16.0
 41
425.0
 71
     5
 72
     5
  1
AES樹脂（指定色）
 73
     1
 44
1.0
1001
ACAD
1000
MTEXTBEGIN
1070
    73
1070
     1
1070
    44
1040
1.0
1070
    74
1070
     0
1000
MTEXTEND
1000
ACAD_MTEXT_DEFINED_HEIGHT_BEGIN
1070
    46
1040
40.0
1000
ACAD_MTEXT_DEFINED_HEIGHT_END
  0
MTEXT
  5
DA35
330
1F
100
AcDbEntity
  8
AM_6
100
AcDbMText
 10
1742.73452511376
 20
1097.499998900733
 30
0.0
 40
16.0
 41
350.4690501565592
 71
     5
 72
     5
  1
ステンレス 十字穴付トラスアリンコネジ呼び4.0×30
 73
     1
 44
1.0
1001
ACAD
1000
MTEXTBEGIN
1070
    73
1070
     1
1070
    44
1040
1.0
1070
    74
1070
     0
1000
MTEXTEND
1000
ACAD_MTEXT_DEFINED_HEIGHT_BEGIN
1070
    46
1040
40.0
1000
ACAD_MTEXT_DEFINED_HEIGHT_END
  0
MTEXT
  5
DA36
330
1F
100
AcDbEntity
  8
AM_6
100
AcDbMText
 10
1742.73452511376
 20
1057.499998900733
 30
0.0
 40
16.0
 41
350.4690501565592
 71
     5
 72
     5
  1
ステンレス 十字穴付トラスアリンコネジ呼び4.0×40
 73
     1
 44
1.0
1001
ACAD
1000
MTEXTBEGIN
1070
    73
1070
     1
1070
    44
1040
1.0
1070
    74
1070
     0
1000
MTEXTEND
1000
ACAD_MTEXT_DEFINED_HEIGHT_BEGIN
1070
    46
1040
40.0
1000
ACAD_MTEXT_DEFINED_HEIGHT_END
  0
MTEXT
  5
DA37
330
1F
100
AcDbEntity
  8
AM_6
100
AcDbMText
 10
1736.600177032705
 20
1017.499998900733
 30
0.0
 40
16.0
 41
338.2003539944508
 71
     5
 72
     5
  1
ナイロン製カールプラグ
 73
     1
 44
1.0
1001
ACAD
1000
MTEXTBEGIN
1070
    73
1070
     1
1070
    44
1040
1.0
1070
    74
1070
     0
1000
MTEXTEND
1000
ACAD_MTEXT_DEFINED_HEIGHT_BEGIN
1070
    46
1040
40.0
1000
ACAD_MTEXT_DEFINED_HEIGHT_END
  0
MTEXT
  5
DA38
330
1F
100
AcDbEntity
  8
AM_6
100
AcDbMText
 10
1736.600177032705
 20
977.4999989007334
 30
0.0
 40
16.0
 41
338.2003539944508
 71
     5
 72
     5
  1
M4  六角ナット  1種（インターホン子機取付用）
 73
     1
 44
1.0
1001
ACAD
1000
MTEXTBEGIN
1070
    73
1070
     1
1070
    44
1040
1.0
1070
    74
1070
     0
1000
MTEXTEND
1000
ACAD_MTEXT_DEFINED_HEIGHT_BEGIN
1070
    46
1040
40.0
1000
ACAD_MTEXT_DEFINED_HEIGHT_END
  0
MTEXT
  5
DA39
330
1F
100
AcDbEntity
  8
AM_6
100
AcDbMText
 10
1736.600177032705
 20
937.4999989007333
 30
0.0
 40
16.0
 41
338.2003539944508
 71
     5
 72
     5
  1
ワッシャ　%%C4.5×%%C15×t1.5
 73
     1
 44
1.0
1001
ACAD
1000
MTEXTBEGIN
1070
    73
1070
     1
1070
    44
1040
1.0
1070
    74
1070
     0
1000
MTEXTEND
1000
ACAD_MTEXT_DEFINED_HEIGHT_BEGIN
1070
    46
1040
40.0
1000
ACAD_MTEXT_DEFINED_HEIGHT_END
  0
MTEXT
  5
DA3A
330
1F
100
AcDbEntity
  8
AM_6
100
AcDbMText
 10
1505.00000003548
 20
1017.499998900733
 30
0.0
 40
16.0
 41
125.0
 71
     5
 72
     5
  1
付属品
 73
     1
 44
1.0
1001
ACAD
1000
MTEXTBEGIN
1070
    73
1070
     1
1070
    44
1040
1.0
1070
    74
1070
     0
1000
MTEXTEND
1000
ACAD_MTEXT_DEFINED_HEIGHT_BEGIN
1070
    46
1040
200.0
1000
ACAD_MTEXT_DEFINED_HEIGHT_END
  0
MTEXT
  5
DA3C
330
1F
100
AcDbEntity
  8
AM_6
100
AcDbMText
 10
1949.100177032705
 20
1097.499998900733
 30
0.0
 40
16.0
 41
86.79964600554944
 71
     5
 72
     5
  1
2本
 73
     1
 44
1.0
1001
ACAD
1000
MTEXTBEGIN
1070
    73
1070
     1
1070
    44
1040
1.0
1070
    74
1070
     0
1000
MTEXTEND
1000
ACAD_MTEXT_DEFINED_HEIGHT_BEGIN
1070
    46
1040
40.0
1000
ACAD_MTEXT_DEFINED_HEIGHT_END
  0
MTEXT
  5
DA3D
330
1F
100
AcDbEntity
  8
AM_6
100
AcDbMText
 10
1949.100177032705
 20
1057.499998900733
 30
0.0
 40
16.0
 41
86.79964600554944
 71
     5
 72
     5
  1
2本
 73
     1
 44
1.0
1001
ACAD
1000
MTEXTBEGIN
1070
    73
1070
     1
1070
    44
1040
1.0
1070
    74
1070
     0
1000
MTEXTEND
1000
ACAD_MTEXT_DEFINED_HEIGHT_BEGIN
1070
    46
1040
40.0
1000
ACAD_MTEXT_DEFINED_HEIGHT_END
  0
MTEXT
  5
DA3E
330
1F
100
AcDbEntity
  8
AM_6
100
AcDbMText
 10
1949.100177032706
 20
1017.499998900733
 30
0.0
 40
16.0
 41
86.79964600554944
 71
     5
 72
     5
  1
4本
 73
     1
 44
1.0
1001
ACAD
1000
MTEXTBEGIN
1070
    73
1070
     1
1070
    44
1040
1.0
1070
    74
1070
     0
1000
MTEXTEND
1000
ACAD_MTEXT_DEFINED_HEIGHT_BEGIN
1070
    46
1040
40.0
1000
ACAD_MTEXT_DEFINED_HEIGHT_END
  0
MTEXT
  5
DA3F
330
1F
100
AcDbEntity
  8
AM_6
100
AcDbMText
 10
1949.100177032706
 20
977.4999989007334
 30
0.0
 40
16.0
 41
86.79964600554944
 71
     5
 72
     5
  1
4ヶ
 73
     1
 44
1.0
1001
ACAD
1000
MTEXTBEGIN
1070
    73
1070
     1
1070
    44
1040
1.0
1070
    74
1070
     0
1000
MTEXTEND
1000
ACAD_MTEXT_DEFINED_HEIGHT_BEGIN
1070
    46
1040
40.0
1000
ACAD_MTEXT_DEFINED_HEIGHT_END
  0
MTEXT
  5
DA40
330
1F
100
AcDbEntity
  8
AM_6
100
AcDbMText
 10
1949.100177032706
 20
937.4999989007333
 30
0.0
 40
16.0
 41
86.79964600554944
 71
     5
 72
     5
  1
2ヶ
 73
     1
 44
1.0
1001
ACAD
1000
MTEXTBEGIN
1070
    73
1070
     1
1070
    44
1040
1.0
1070
    74
1070
     0
1000
MTEXTEND
1000
ACAD_MTEXT_DEFINED_HEIGHT_BEGIN
1070
    46
1040
40.0
1000
ACAD_MTEXT_DEFINED_HEIGHT_END
  0
INSERT
  5
E3D0
330
1F
100
AcDbEntity
  8
AM_5
100
AcDbBlockReference
  2
*S31
 10
0.0
 20
0.0
 30
0.0
  0
LINE
  5
E3D3
330
1F
100
AcDbEntity
  8
AM_0
100
AcDbLine
 10
1263.198286207613
 20
858.6082576549033
 30
0.0
 11
1245.698286207613
 21
858.6082576549033
 31
0.0
  0
LINE
  5
E3D4
330
1F
100
AcDbEntity
  8
AM_0
100
AcDbLine
 10
1245.698286207613
 20
661.6082576549033
 30
0.0
 11
1263.198286207613
 21
661.6082576549033
 31
0.0
  0
LINE
  5
E3D5
330
1F
100
AcDbEntity
  8
AM_0
100
AcDbLine
 10
1263.198286207613
 20
660.1082576549028
 30
0.0
 11
1247.198286207613
 21
660.1082576549028
 31
0.0
  0
LINE
  5
E3D6
330
1F
100
AcDbEntity
  8
AM_0
100
AcDbLine
 10
1245.698286207613
 20
661.6082576549029
 30
0.0
 11
1245.698286207613
 21
858.608257654903
 31
0.0
  0
LINE
  5
E3D7
330
1F
100
AcDbEntity
  8
AM_0
100
AcDbLine
 10
1247.198286207613
 20
860.1082576549028
 30
0.0
 11
1263.198286207613
 21
860.108257654903
 31
0.0
  0
ARC
  5
E3D8
330
1F
100
AcDbEntity
  8
AM_0
100
AcDbCircle
 10
1247.198286207613
 20
661.6082576549029
 30
0.0
 40
1.5
100
AcDbArc
 50
180.0
 51
270.0
1001
GENIUS_GENOBJ-N-FIL_13
1002
{
1000
OWNER
1000
GEN
1002
}
1001
GENIUS_GENODEF_13
1002
{
1000
HIER
1070
     0
1002
}
1002
{
1000
MANEDIT
1070
     0
1002
}
1002
{
1000
NOSEL
1070
     0
1002
}
1002
{
1000
BEHIND
1070
     0
1002
}
1002
{
1000
OTHER
1070
     0
1002
}
1002
{
1000
REACTOR
1002
}
  0
ARC
  5
E3D9
330
1F
100
AcDbEntity
  8
AM_0
100
AcDbCircle
 10
1247.198286207613
 20
858.608257654903
 30
0.0
 40
1.5
100
AcDbArc
 50
90.0
 51
180.0
1001
GENIUS_GENOBJ-N-FIL_13
1002
{
1000
OWNER
1000
GEN
1002
}
1001
GENIUS_GENODEF_13
1002
{
1000
HIER
1070
     0
1002
}
1002
{
1000
MANEDIT
1070
     0
1002
}
1002
{
1000
NOSEL
1070
     0
1002
}
1002
{
1000
BEHIND
1070
     0
1002
}
1002
{
1000
OTHER
1070
     0
1002
}
1002
{
1000
REACTOR
1002
}
  0
DIMENSION
  5
E3DA
330
1F
100
AcDbEntity
  8
AM_5
100
AcDbDimension
  2
*D27
 10
1245.698286207613
 20
920.108257654903
 30
0.0
 11
1225.211619540946
 21
935.6082576549029
 31
0.0
 70
    32
  1
※
 71
     5
 42
17.5
  3
SYS$0
100
AcDbAlignedDimension
 13
1263.198286207613
 23
860.108257654903
 33
0.0
 14
1245.698286207613
 24
858.608257654903
 34
0.0
100
AcDbRotatedDimension
1001
ACAD
1000
DSTYLE
1002
{
1070
    40
1040
5.0
1002
}
  0
INSERT
  5
E405
330
1F
100
AcDbEntity
  8
AM_5
100
AcDbBlockReference
  2
*S32
 10
0.0
 20
0.0
 30
0.0
  0
CIRCLE
  5
E581
330
1F
100
AcDbEntity
  8
AM_11
100
AcDbCircle
 10
401.7434749159383
 20
760.1082576549028
 30
0.0
 40
8.0
  0
LINE
  5
EF06
330
1F
100
AcDbEntity
  8
AM_0
100
AcDbLine
 10
1442.50000003548
 20
1317.499998900733
 30
0.0
 11
1992.50000003548
 21
1317.499998900733
 31
0.0
  0
LWPOLYLINE
  5
EF08
330
1F
100
AcDbEntity
  8
AM_0
100
AcDbPolyline
 90
       19
 70
     0
 43
0.0
 10
782.8332150220103
 20
1195.819182230378
 10
782.8332150220103
 20
1191.319182230378
 10
781.3332150220103
 20
1191.319182230378
 42
0.4142135623730951
 10
777.8332150220103
 20
1187.819182230378
 10
777.8332150220103
 20
1164.319182230378
 42
0.4142135623730949
 10
781.3332150220103
 20
1160.819182230378
 10
785.3332150220103
 20
1160.819182230378
 42
0.4142135623730951
 10
788.8332150220103
 20
1164.319182230378
 10
788.8332150220103
 20
1187.319182230378
 10
915.8332150220102
 20
1187.319182230378
 10
915.8332150220102
 20
1164.319182230378
 42
0.4142135623730949
 10
919.3332150220102
 20
1160.819182230378
 10
923.3332150220103
 20
1160.819182230378
 42
0.4142135623730951
 10
926.8332150220103
 20
1164.319182230378
 10
926.8332150220103
 20
1187.619182230378
 42
0.3980378946567963
 10
923.3332150220103
 20
1191.319182230378
 10
921.8332150220103
 20
1191.319182230378
 10
921.8332150220103
 20
1195.819182230378
 10
782.8332150220103
 20
1195.819182230378
  0
LINE
  5
EF09
330
1F
100
AcDbEntity
  8
AM_0
100
AcDbLine
 10
788.8332150220103
 20
1166.819182230378
 30
0.0
 11
915.8332150220102
 21
1166.819182230378
 31
0.0
  0
LINE
  5
EF0B
330
1F
100
AcDbEntity
  8
AM_0
100
AcDbLine
 10
811.333215022014
 20
1187.319182230378
 30
0.0
 11
790.3332150220157
 21
1187.319182230378
 31
0.0
  0
LINE
  5
EF0C
330
1F
100
AcDbEntity
  8
AM_0
100
AcDbLine
 10
822.3332150220103
 20
1128.819182230378
 30
0.0
 11
882.3332150220103
 21
1128.819182230378
 31
0.0
1001
GENIUS_GENREC_14
1002
{
1000
PYDIR
1011
812.3332150220104
1021
1188.819182230378
1031
0.0
1002
}
1002
{
1000
PXDIR
1011
892.3332150220103
1021
1128.819182230378
1031
0.0
1002
}
1002
{
1000
PORI
1011
812.3332150220104
1021
1128.819182230378
1031
0.0
1002
}
1002
{
1000
PINS
1011
812.3332150220104
1021
1128.819182230378
1031
0.0
1002
}
1002
{
1000
PINS2
1011
892.3332150220103
1021
1188.819182230378
1031
0.0
1002
}
1002
{
1000
C
1070
     1
1002
}
1001
GENIUS_GENOBJ-N-REC_13
1002
{
1000
OWNER
1000
GEN
1002
}
1001
GENIUS_GENODEF_13
1002
{
1000
HIER
1070
     0
1002
}
1002
{
1000
MANEDIT
1070
     0
1002
}
1002
{
1000
NOSEL
1070
     0
1002
}
1002
{
1000
BEHIND
1070
     0
1002
}
1002
{
1000
OTHER
1070
     0
1002
}
1002
{
1000
REACTOR
1002
}
  0
ARC
  5
EF0D
330
1F
100
AcDbEntity
  8
AM_0
100
AcDbCircle
 10
882.3332150220103
 20
1138.819182230378
 30
0.0
 40
10.0
100
AcDbArc
 50
270.0
 51
0.0
1001
GENIUS_GENREC_14
1002
{
1000
PYDIR
1011
812.3332150220104
1021
1188.819182230378
1031
0.0
1002
}
1002
{
1000
PXDIR
1011
892.3332150220103
1021
1128.819182230378
1031
0.0
1002
}
1002
{
1000
PORI
1011
812.3332150220104
1021
1128.819182230378
1031
0.0
1002
}
1002
{
1000
PINS
1011
812.3332150220104
1021
1128.819182230378
1031
0.0
1002
}
1002
{
1000
PINS2
1011
892.3332150220103
1021
1188.819182230378
1031
0.0
1002
}
1002
{
1000
C
1070
     1
1002
}
1001
GENIUS_GENOBJ-N-REC_13
1002
{
1000
OWNER
1000
GEN
1002
}
1001
GENIUS_GENODEF_13
1002
{
1000
HIER
1070
     0
1002
}
1002
{
1000
MANEDIT
1070
     0
1002
}
1002
{
1000
NOSEL
1070
     0
1002
}
1002
{
1000
BEHIND
1070
     0
1002
}
1002
{
1000
OTHER
1070
     0
1002
}
1002
{
1000
REACTOR
1002
}
  0
LINE
  5
EF0E
330
1F
100
AcDbEntity
  8
AM_0
100
AcDbLine
 10
892.3332150220103
 20
1138.819182230378
 30
0.0
 11
892.3332150220103
 21
1143.319182230378
 31
0.0
1001
GENIUS_GENREC_14
1002
{
1000
PYDIR
1011
812.3332150220104
1021
1188.819182230378
1031
0.0
1002
}
1002
{
1000
PXDIR
1011
892.3332150220103
1021
1128.819182230378
1031
0.0
1002
}
1002
{
1000
PORI
1011
812.3332150220104
1021
1128.819182230378
1031
0.0
1002
}
1002
{
1000
PINS
1011
812.3332150220104
1021
1128.819182230378
1031
0.0
1002
}
1002
{
1000
PINS2
1011
892.3332150220103
1021
1188.819182230378
1031
0.0
1002
}
1002
{
1000
C
1070
     1
1002
}
1001
GENIUS_GENOBJ-N-REC_13
1002
{
1000
OWNER
1000
GEN
1002
}
1001
GENIUS_GENODEF_13
1002
{
1000
HIER
1070
     0
1002
}
1002
{
1000
MANEDIT
1070
     0
1002
}
1002
{
1000
NOSEL
1070
     0
1002
}
1002
{
1000
BEHIND
1070
     0
1002
}
1002
{
1000
OTHER
1070
     0
1002
}
1002
{
1000
REACTOR
1002
}
  0
LINE
  5
EF0F
330
1F
100
AcDbEntity
  8
AM_0
100
AcDbLine
 10
812.3332150220104
 20
1143.319182230378
 30
0.0
 11
812.3332150220104
 21
1138.819182230378
 31
0.0
1001
GENIUS_GENREC_14
1002
{
1000
PYDIR
1011
812.3332150220104
1021
1188.819182230378
1031
0.0
1002
}
1002
{
1000
PXDIR
1011
892.3332150220103
1021
1128.819182230378
1031
0.0
1002
}
1002
{
1000
PORI
1011
812.3332150220104
1021
1128.819182230378
1031
0.0
1002
}
1002
{
1000
PINS
1011
812.3332150220104
1021
1128.819182230378
1031
0.0
1002
}
1002
{
1000
PINS2
1011
892.3332150220103
1021
1188.819182230378
1031
0.0
1002
}
1002
{
1000
C
1070
     1
1002
}
1001
GENIUS_GENOBJ-N-REC_13
1002
{
1000
OWNER
1000
GEN
1002
}
1001
GENIUS_GENODEF_13
1002
{
1000
HIER
1070
     0
1002
}
1002
{
1000
MANEDIT
1070
     0
1002
}
1002
{
1000
NOSEL
1070
     0
1002
}
1002
{
1000
BEHIND
1070
     0
1002
}
1002
{
1000
OTHER
1070
     0
1002
}
1002
{
1000
REACTOR
1002
}
  0
ARC
  5
EF10
330
1F
100
AcDbEntity
  8
AM_0
100
AcDbCircle
 10
822.3332150220103
 20
1138.819182230378
 30
0.0
 40
10.0
100
AcDbArc
 50
180.0
 51
270.0
1001
GENIUS_GENREC_14
1002
{
1000
PYDIR
1011
812.3332150220104
1021
1188.819182230378
1031
0.0
1002
}
1002
{
1000
PXDIR
1011
892.3332150220103
1021
1128.819182230378
1031
0.0
1002
}
1002
{
1000
PORI
1011
812.3332150220104
1021
1128.819182230378
1031
0.0
1002
}
1002
{
1000
PINS
1011
812.3332150220104
1021
1128.819182230378
1031
0.0
1002
}
1002
{
1000
PINS2
1011
892.3332150220103
1021
1188.819182230378
1031
0.0
1002
}
1002
{
1000
C
1070
     1
1002
}
1001
GENIUS_GENOBJ-N-REC_13
1002
{
1000
OWNER
1000
GEN
1002
}
1001
GENIUS_GENODEF_13
1002
{
1000
HIER
1070
     0
1002
}
1002
{
1000
MANEDIT
1070
     0
1002
}
1002
{
1000
NOSEL
1070
     0
1002
}
1002
{
1000
BEHIND
1070
     0
1002
}
1002
{
1000
OTHER
1070
     0
1002
}
1002
{
1000
REACTOR
1002
}
  0
LINE
  5
EF11
330
1F
100
AcDbEntity
  8
AM_0
100
AcDbLine
 10
792.4414461886859
 20
1119.662174361649
 30
0.0
 11
791.2016349418045
 21
1143.319182230378
 31
0.0
  0
ARC
  5
EF12
330
1F
100
AcDbEntity
  8
AM_0
100
AcDbCircle
 10
795.4373347929495
 20
1119.819182230378
 30
0.0
 40
3.0
100
AcDbArc
 50
183.0000000000056
 51
270.0
1001
GENIUS_GENOBJ-N-FIL_13
1002
{
1000
OWNER
1000
GEN
1002
}
1001
GENIUS_GENODEF_13
1002
{
1000
HIER
1070
     0
1002
}
1002
{
1000
MANEDIT
1070
     0
1002
}
1002
{
1000
NOSEL
1070
     0
1002
}
1002
{
1000
BEHIND
1070
     0
1002
}
1002
{
1000
OTHER
1070
     0
1002
}
1002
{
1000
REACTOR
1002
}
  0
LINE
  5
EF13
330
1F
100
AcDbEntity
  8
AM_2
100
AcDbLine
 10
795.2883398888311
 20
1122.662174361635
 30
0.0
 11
794.2057519797981
 21
1143.319182230378
 31
0.0
  0
LINE
  5
EF14
330
1F
100
AcDbEntity
  8
AM_0
100
AcDbLine
 10
796.5965445793594
 20
1122.730734464313
 30
0.0
 11
795.5175497530554
 21
1143.319182230378
 31
0.0
  0
ARC
  5
EF15
330
1F
100
AcDbEntity
  8
AM_2
100
AcDbCircle
 10
798.2842284930947
 20
1122.819182230364
 30
0.0
 40
3.0
100
AcDbArc
 50
183.0000000000056
 51
270.0
1001
GENIUS_GENODEF_13
1002
{
1000
HIER
1070
     0
1002
}
1002
{
1000
MANEDIT
1070
     0
1002
}
1002
{
1000
NOSEL
1070
     0
1002
}
1002
{
1000
BEHIND
1070
     0
1002
}
1002
{
1000
OTHER
1070
     0
1002
}
1002
{
1000
REACTOR
1002
}
1001
GENIUS_GENOBJ-N-FIL_13
1002
{
1000
OWNER
1000
GEN
1002
}
  0
ARC
  5
EF16
330
1F
100
AcDbEntity
  8
AM_0
100
AcDbCircle
 10
798.2842284930947
 20
1122.819182230364
 30
0.0
 40
1.689999999999999
100
AcDbArc
 50
183.0000000000056
 51
270.0
1001
GENIUS_GENODEF_13
1002
{
1000
HIER
1070
     0
1002
}
1002
{
1000
MANEDIT
1070
     0
1002
}
1002
{
1000
NOSEL
1070
     0
1002
}
1002
{
1000
BEHIND
1070
     0
1002
}
1002
{
1000
OTHER
1070
     0
1002
}
1002
{
1000
REACTOR
1002
}
1001
GENIUS_GENOBJ-N-FIL_13
1002
{
1000
OWNER
1000
GEN
1002
}
  0
LINE
  5
EF17
330
1F
100
AcDbEntity
  8
AM_2
100
AcDbLine
 10
909.3780901551895
 20
1122.662174361635
 30
0.0
 11
910.4606780642225
 21
1143.319182230375
 31
0.0
  0
LINE
  5
EF18
330
1F
100
AcDbEntity
  8
AM_0
100
AcDbLine
 10
908.0698854646607
 20
1122.730734464313
 30
0.0
 11
909.1488802909648
 21
1143.319182230374
 31
0.0
  0
LINE
  5
EF19
330
1F
100
AcDbEntity
  8
AM_0
100
AcDbLine
 10
795.4373347929495
 20
1116.819182230378
 30
0.0
 11
909.2290952510706
 21
1116.819182230378
 31
0.0
  0
ARC
  5
EF1A
330
1F
100
AcDbEntity
  8
AM_0
100
AcDbCircle
 10
909.2290952510706
 20
1119.819182230378
 30
0.0
 40
3.0
100
AcDbArc
 50
270.0
 51
356.9999999999936
1001
GENIUS_GENOBJ-N-FIL_13
1002
{
1000
OWNER
1000
GEN
1002
}
1001
GENIUS_GENODEF_13
1002
{
1000
HIER
1070
     0
1002
}
1002
{
1000
MANEDIT
1070
     0
1002
}
1002
{
1000
NOSEL
1070
     0
1002
}
1002
{
1000
BEHIND
1070
     0
1002
}
1002
{
1000
OTHER
1070
     0
1002
}
1002
{
1000
REACTOR
1002
}
  0
LINE
  5
EF1B
330
1F
100
AcDbEntity
  8
AM_2
100
AcDbLine
 10
906.3822015509254
 20
1119.819182230363
 30
0.0
 11
798.2842284930947
 21
1119.819182230364
 31
0.0
  0
LINE
  5
EF1C
330
1F
100
AcDbEntity
  8
AM_0
100
AcDbLine
 10
906.3822015509254
 20
1121.129182230363
 30
0.0
 11
798.2842284930947
 21
1121.129182230363
 31
0.0
  0
ARC
  5
EF1D
330
1F
100
AcDbEntity
  8
AM_2
100
AcDbCircle
 10
906.3822015509254
 20
1122.819182230363
 30
0.0
 40
3.0
100
AcDbArc
 50
270.0
 51
356.9999999999936
1001
GENIUS_GENODEF_13
1002
{
1000
HIER
1070
     0
1002
}
1002
{
1000
MANEDIT
1070
     0
1002
}
1002
{
1000
NOSEL
1070
     0
1002
}
1002
{
1000
BEHIND
1070
     0
1002
}
1002
{
1000
OTHER
1070
     0
1002
}
1002
{
1000
REACTOR
1002
}
1001
GENIUS_GENOBJ-N-FIL_13
1002
{
1000
OWNER
1000
GEN
1002
}
  0
ARC
  5
EF1E
330
1F
100
AcDbEntity
  8
AM_0
100
AcDbCircle
 10
906.3822015509254
 20
1122.819182230363
 30
0.0
 40
1.689999999999999
100
AcDbArc
 50
270.0
 51
356.9999999999936
1001
GENIUS_GENODEF_13
1002
{
1000
HIER
1070
     0
1002
}
1002
{
1000
MANEDIT
1070
     0
1002
}
1002
{
1000
NOSEL
1070
     0
1002
}
1002
{
1000
BEHIND
1070
     0
1002
}
1002
{
1000
OTHER
1070
     0
1002
}
1002
{
1000
REACTOR
1002
}
1001
GENIUS_GENOBJ-N-FIL_13
1002
{
1000
OWNER
1000
GEN
1002
}
  0
LINE
  5
EF1F
330
1F
100
AcDbEntity
  8
AM_0
100
AcDbLine
 10
912.2249838553344
 20
1119.662174361649
 30
0.0
 11
913.4647951022161
 21
1143.319182230377
 31
0.0
  0
LINE
  5
EF20
330
1F
100
AcDbEntity
  8
AM_0
100
AcDbLine
 10
790.3332150220108
 20
1143.319182230378
 30
0.0
 11
914.3332150220098
 21
1143.319182230378
 31
0.0
  0
LINE
  5
EF21
330
1F
100
AcDbEntity
  8
AM_0
100
AcDbLine
 10
788.8332150220103
 20
1166.819182230378
 30
0.0
 11
788.8332150220108
 21
1144.819182230378
 31
0.0
  0
ARC
  5
EF22
330
1F
100
AcDbEntity
  8
AM_0
100
AcDbCircle
 10
790.3332150220108
 20
1144.819182230378
 30
0.0
 40
1.5
100
AcDbArc
 50
180.0
 51
270.0
1001
GENIUS_GENOBJ-N-FIL_13
1002
{
1000
OWNER
1000
GEN
1002
}
1001
GENIUS_GENODEF_13
1002
{
1000
HIER
1070
     0
1002
}
1002
{
1000
MANEDIT
1070
     0
1002
}
1002
{
1000
NOSEL
1070
     0
1002
}
1002
{
1000
BEHIND
1070
     0
1002
}
1002
{
1000
OTHER
1070
     0
1002
}
1002
{
1000
REACTOR
1002
}
  0
LINE
  5
EF24
330
1F
100
AcDbEntity
  8
AM_0
100
AcDbLine
 10
915.8332150220102
 20
1166.819182230378
 30
0.0
 11
915.8332150220099
 21
1144.819182230378
 31
0.0
  0
ARC
  5
EF25
330
1F
100
AcDbEntity
  8
AM_0
100
AcDbCircle
 10
914.3332150220098
 20
1144.819182230378
 30
0.0
 40
1.5
100
AcDbArc
 50
270.0
 51
0.0
1001
GENIUS_GENOBJ-N-FIL_13
1002
{
1000
OWNER
1000
GEN
1002
}
1001
GENIUS_GENODEF_13
1002
{
1000
HIER
1070
     0
1002
}
1002
{
1000
MANEDIT
1070
     0
1002
}
1002
{
1000
NOSEL
1070
     0
1002
}
1002
{
1000
BEHIND
1070
     0
1002
}
1002
{
1000
OTHER
1070
     0
1002
}
1002
{
1000
REACTOR
1002
}
  0
MTEXT
  5
F055
330
1F
100
AcDbEntity
  8
AM_6
100
AcDbMText
 10
1736.600177032705
 20
1137.499998900733
 30
0.0
 40
16.0
 41
338.2003539944508
 71
     5
 72
     5
  1
下部取付ブラケット：アルミニウム
 73
     1
 44
1.0
1001
ACAD
1000
MTEXTBEGIN
1070
    73
1070
     1
1070
    44
1040
1.0
1070
    74
1070
     0
1000
MTEXTEND
1000
ACAD_MTEXT_DEFINED_HEIGHT_BEGIN
1070
    46
1040
40.0
1000
ACAD_MTEXT_DEFINED_HEIGHT_END
  0
MTEXT
  5
F057
330
1F
100
AcDbEntity
  8
AM_6
100
AcDbMText
 10
1949.100177032705
 20
1137.499998900733
 30
0.0
 40
16.0
 41
86.79964600554944
 71
     5
 72
     5
  1
1ヶ
 73
     1
 44
1.0
1001
ACAD
1000
MTEXTBEGIN
1070
    73
1070
     1
1070
    44
1040
1.0
1070
    74
1070
     0
1000
MTEXTEND
1000
ACAD_MTEXT_DEFINED_HEIGHT_BEGIN
1070
    46
1040
40.0
1000
ACAD_MTEXT_DEFINED_HEIGHT_END
  0
ENDSEC
  0
SECTION
  2
OBJECTS
  0
DICTIONARY
  5
C
330
0
100
AcDbDictionary
281
     1
  3
ACAD_2007HEADERVARS_RT
350
F0D8
  3
ACAD_BGPLOT_KEY
350
AB06
  3
ACAD_COLOR
350
A91D
  3
ACAD_GROUP
350
D
  3
ACAD_LAYOUT
350
1A
  3
ACAD_MATERIAL
350
A91C
  3
ACAD_MLINESTYLE
350
17
  3
ACAD_PLOTSETTINGS
350
19
  3
ACAD_PLOTSTYLENAME
350
E
  3
ACAD_TABLESTYLE
350
AAB9
  3
ACAD_VISUALSTYLE
350
B0F1
  3
AcAsAppObject
350
3DA1
  3
ACASGREF_MASTER
350
3DE9
  3
AcDbVariableDictionary
350
34
  3
AcmDictionary
350
47
  3
AD_GREF_MODULE
350
3DEA
  3
AD_MAPI_MODULE
350
3E06
  3
AMG
350
2B
  3
AMGSNAPSETTINGS
350
7D
  3
ASE_INDEX_DICTIONARY
350
F082
  3
DWGPROPS
350
F0D7
  3
MAPISURF_MODULE
350
3DEB
  0
DICTIONARY
  5
3F95
330
2
100
AcDbDictionary
280
     1
281
     1
  3
ACAD_LAYERFILTERS
360
B3A8
  3
ACAD_LAYERSTATES
360
3F96
  3
ACLYDICTIONARY
360
B3A7
  3
AMLAYER_GROUPCOLORS
360
AAB4
  0
DICTIONARY
  5
D870
330
D86F
100
AcDbDictionary
280
     1
281
     1
  3
ADSK_XREC_LAYER_RECONCILED
360
D871
  0
DICTIONARY
  5
D873
330
D872
100
AcDbDictionary
280
     1
281
     1
  3
ADSK_XREC_LAYER_RECONCILED
360
D874
  0
DICTIONARY
  5
D876
330
D875
100
AcDbDictionary
280
     1
281
     1
  3
ADSK_XREC_LAYER_RECONCILED
360
D877
  0
DICTIONARY
  5
D879
330
D878
100
AcDbDictionary
280
     1
281
     1
  3
ADSK_XREC_LAYER_RECONCILED
360
D87A
  0
DICTIONARY
  5
D87C
330
D87B
100
AcDbDictionary
280
     1
281
     1
  3
ADSK_XREC_LAYER_RECONCILED
360
D87D
  0
DICTIONARY
  5
D87F
330
D87E
100
AcDbDictionary
280
     1
281
     1
  3
ADSK_XREC_LAYER_RECONCILED
360
D880
  0
DICTIONARY
  5
D882
330
D881
100
AcDbDictionary
280
     1
281
     1
  3
ADSK_XREC_LAYER_RECONCILED
360
D883
  0
DICTIONARY
  5
D885
330
D884
100
AcDbDictionary
280
     1
281
     1
  3
ADSK_XREC_LAYER_RECONCILED
360
D886
  0
DICTIONARY
  5
D888
330
D887
100
AcDbDictionary
280
     1
281
     1
  3
ADSK_XREC_LAYER_RECONCILED
360
D889
  0
DICTIONARY
  5
D88B
330
D88A
100
AcDbDictionary
280
     1
281
     1
  3
ADSK_XREC_LAYER_RECONCILED
360
D88C
  0
DICTIONARY
  5
D88E
330
D88D
100
AcDbDictionary
280
     1
281
     1
  3
ADSK_XREC_LAYER_RECONCILED
360
D88F
  0
DICTIONARY
  5
D891
330
D890
100
AcDbDictionary
280
     1
281
     1
  3
ADSK_XREC_LAYER_RECONCILED
360
D892
  0
DICTIONARY
  5
D894
330
D893
100
AcDbDictionary
280
     1
281
     1
  3
ADSK_XREC_LAYER_RECONCILED
360
D895
  0
DICTIONARY
  5
D897
330
D896
100
AcDbDictionary
280
     1
281
     1
  3
ADSK_XREC_LAYER_RECONCILED
360
D898
  0
DICTIONARY
  5
D89A
330
D899
100
AcDbDictionary
280
     1
281
     1
  3
ADSK_XREC_LAYER_RECONCILED
360
D89B
  0
DICTIONARY
  5
D89D
330
D89C
100
AcDbDictionary
280
     1
281
     1
  3
ADSK_XREC_LAYER_RECONCILED
360
D89E
  0
DICTIONARY
  5
8A
330
1F
100
AcDbDictionary
280
     1
281
     1
  3
ACAD_SORTENTS
360
B1BA
  0
DICTIONARY
  5
BDE2
330
BDE1
100
AcDbDictionary
280
     1
281
     1
  3
ACAD_SORTENTS
360
BDE3
  0
DICTIONARY
  5
BDEB
330
BDEA
100
AcDbDictionary
280
     1
281
     1
  3
ACAD_SORTENTS
360
BDEC
  0
DICTIONARY
  5
F0D8
102
{ACAD_REACTORS
330
C
102
}
330
C
100
AcDbDictionary
281
     1
  3
DIMARCSYM
350
F0D9
  0
DICTIONARY
  5
AB06
102
{ACAD_REACTORS
330
C
102
}
330
C
100
AcDbDictionary
280
     1
281
     1
  0
DICTIONARY
  5
A91D
102
{ACAD_REACTORS
330
C
102
}
330
C
100
AcDbDictionary
281
     1
  0
DICTIONARY
  5
D
102
{ACAD_REACTORS
330
C
102
}
330
C
100
AcDbDictionary
281
     1
  0
DICTIONARY
  5
1A
102
{ACAD_REACTORS
330
C
102
}
330
C
100
AcDbDictionary
281
     1
  3
Model
350
22
  3
ﾚｲｱｳﾄ1
350
1E
  3
ﾚｲｱｳﾄ2
350
26
  0
DICTIONARY
  5
A91C
102
{ACAD_REACTORS
330
C
102
}
330
C
100
AcDbDictionary
281
     1
  3
ByBlock
350
B0EF
  3
ByLayer
350
B0EE
  3
Global
350
B0F0
  0
DICTIONARY
  5
17
102
{ACAD_REACTORS
330
C
102
}
330
C
100
AcDbDictionary
281
     1
  3
Standard
350
18
  0
DICTIONARY
  5
19
102
{ACAD_REACTORS
330
C
102
}
330
C
100
AcDbDictionary
281
     1
  3
01   A1　１：１
350
D8B7
  3
02   A2　１：１
350
D8B8
  3
03   A3　１：１
350
D8B9
  3
04   A4  １：１
350
D8BA
  3
05   A1 自動調整
350
D8BB
  3
06   A2 自動調整
350
D8BC
  3
07   A3 自動調整
350
D8BD
  3
08   A4 自動調整
350
D8BE
  3
09   A1をA3に
350
D8BF
  3
10   A2をA3に
350
D8C0
  3
11　レーザー　A3　自動調整
350
D8C1
  3
０１　A3　自動調整
350
D8C2
  3
０２　A3　１：１
350
D8C3
  3
０３　A2　自動調整
350
D8C4
  3
０４　A2　１：１
350
D8C5
  3
０５　A4　自動調整
350
D8C6
  3
０６　A4　１：１
350
D8C7
  3
０７　A1　自動調整
350
D8C8
  3
０８　A1　１：１
350
D8C9
  3
０９　A4　検査表
350
D8CA
  0
ACDBDICTIONARYWDFLT
  5
E
102
{ACAD_REACTORS
330
C
102
}
330
C
100
AcDbDictionary
281
     1
  3
Normal
350
F
100
AcDbDictionaryWithDefault
340
F
  0
DICTIONARY
  5
AAB9
102
{ACAD_REACTORS
330
C
102
}
330
C
100
AcDbDictionary
281
     1
  3
Standard
350
AABA
  0
DICTIONARY
  5
B0F1
102
{ACAD_REACTORS
330
C
102
}
330
C
100
AcDbDictionary
281
     1
  3
2dWireframe
350
B0F7
  3
3D Hidden
350
B0F9
  3
3dWireframe
350
B0F8
  3
Basic
350
B0F6
  3
Brighten
350
B0FD
  3
ColorChange
350
B101
  3
Conceptual
350
B0FA
  3
Dim
350
B0FC
  3
Facepattern
350
B100
  3
Flat
350
B0F2
  3
FlatWithEdges
350
B0F3
  3
Gouraud
350
B0F4
  3
GouraudWithEdges
350
B0F5
  3
Linepattern
350
B0FF
  3
Realistic
350
B0FB
  3
Thicken
350
B0FE
  0
ACAD_PROXY_OBJECT
  5
3DA1
102
{ACAD_REACTORS
330
C
102
}
330
C
100
AcDbProxyObject
 90
      499
 91
      576
 95
   917527
 70
     0
 93
       10
310
407F
 94
        0
1001
ACAD
1000
AcRTDxfName
1000
ASAPP
  0
ACAD_PROXY_OBJECT
  5
3DE9
102
{ACAD_REACTORS
330
C
102
}
330
C
100
AcDbProxyObject
 90
      499
 91
      581
 95
   917527
 70
     0
 93
       34
310
010000407F
 94
        0
1001
ACAD
1000
AcRTDxfName
1000
ACASGREFMASTER
  0
DICTIONARY
  5
34
102
{ACAD_REACTORS
330
C
102
}
330
C
100
AcDbDictionary
281
     1
  3
CTABLESTYLE
350
AAF3
  3
DIMASSOC
350
A10C
  3
FIELDEVAL
350
AB07
  3
INDEXCTL
350
35
  3
SORTENTS
350
194C
  0
DICTIONARY
  5
47
102
{ACAD_REACTORS
330
C
102
}
330
C
100
AcDbDictionary
281
     1
  3
AcmBOM
350
7E8
  3
AcmStdDictionary
350
4C
  3
AMDTSECTSYM_ARROWCOLOR
350
A929
  0
ACAD_PROXY_OBJECT
  5
3DEA
102
{ACAD_REACTORS
330
C
102
}
330
C
100
AcDbProxyObject
 90
      499
 91
      582
 95
   917527
 70
     0
 93
      114
310
00000043800000000000000000003F
 94
        0
1001
ACAD
1000
AcRTDxfName
1000
ACADGREFMODULE
  0
ACAD_PROXY_OBJECT
  5
3E06
102
{ACAD_REACTORS
330
C
102
}
330
C
100
AcDbProxyObject
 90
      499
 91
      594
 95
   917527
 70
     0
 93
       34
310
05000044FF
 94
        0
1001
ACAD
1000
AcRTDxfName
1000
MAPIADMODULE
  0
DICTIONARY
  5
2B
102
{ACAD_REACTORS
330
C
102
}
330
C
100
AcDbDictionary
281
     1
  0
DICTIONARY
  5
7D
102
{ACAD_REACTORS
330
C
102
}
330
C
100
AcDbDictionary
281
     1
  0
DICTIONARY
  5
F082
102
{ACAD_REACTORS
330
C
102
}
330
C
100
AcDbDictionary
281
     1
  3
ASEBlockHierarchyIndexRecord
350
F083
1001
DCO15
1040
1703301327.437
  0
XRECORD
  5
F0D7
102
{ACAD_REACTORS
330
C
102
}
330
C
100
AcDbXrecord
280
     1
  1
DWGPROPS COOKIE
  2

  3

  4

  6

  7

  8
Administrator
  9

300
AmdtFileType=84
301
=
302
=
303
=
304
=
305
=
306
=
307
=
308
=
309
=
 40
0.0621012384259259
 41
2455063.328317419
 42
2455517.347586076
  1

 90
        1
  0
ACAD_PROXY_OBJECT
  5
3DEB
102
{ACAD_REACTORS
330
C
102
}
330
C
100
AcDbProxyObject
 90
      499
 91
      583
 95
   917527
 70
     0
 93
        8
310
0478
 94
        0
1001
ACAD
1000
AcRTDxfName
1000
AMDTMAPISURFMOUDULE
  0
DICTIONARY
  5
B3A8
102
{ACAD_REACTORS
330
3F95
102
}
330
3F95
100
AcDbDictionary
281
     1
  0
DICTIONARY
  5
3F96
102
{ACAD_REACTORS
330
3F95
102
}
330
3F95
100
AcDbDictionary
281
     1
  3
20011210
350
3FB7
  0
DICTIONARY
  5
B3A7
102
{ACAD_REACTORS
330
3F95
102
}
330
3F95
100
AcDbDictionary
281
     1
1001
ACAD
1000
<All
  0
DICTIONARY
  5
AAB4
102
{ACAD_REACTORS
330
3F95
102
}
330
3F95
100
AcDbDictionary
280
     1
281
     1
  0
XRECORD
  5
D871
102
{ACAD_REACTORS
330
D870
102
}
330
D870
100
AcDbXrecord
280
     1
290
     1
  0
XRECORD
  5
D874
102
{ACAD_REACTORS
330
D873
102
}
330
D873
100
AcDbXrecord
280
     1
290
     1
  0
XRECORD
  5
D877
102
{ACAD_REACTORS
330
D876
102
}
330
D876
100
AcDbXrecord
280
     1
290
     1
  0
XRECORD
  5
D87A
102
{ACAD_REACTORS
330
D879
102
}
330
D879
100
AcDbXrecord
280
     1
290
     1
  0
XRECORD
  5
D87D
102
{ACAD_REACTORS
330
D87C
102
}
330
D87C
100
AcDbXrecord
280
     1
290
     1
  0
XRECORD
  5
D880
102
{ACAD_REACTORS
330
D87F
102
}
330
D87F
100
AcDbXrecord
280
     1
290
     1
  0
XRECORD
  5
D883
102
{ACAD_REACTORS
330
D882
102
}
330
D882
100
AcDbXrecord
280
     1
290
     1
  0
XRECORD
  5
D886
102
{ACAD_REACTORS
330
D885
102
}
330
D885
100
AcDbXrecord
280
     1
290
     1
  0
XRECORD
  5
D889
102
{ACAD_REACTORS
330
D888
102
}
330
D888
100
AcDbXrecord
280
     1
290
     1
  0
XRECORD
  5
D88C
102
{ACAD_REACTORS
330
D88B
102
}
330
D88B
100
AcDbXrecord
280
     1
290
     1
  0
XRECORD
  5
D88F
102
{ACAD_REACTORS
330
D88E
102
}
330
D88E
100
AcDbXrecord
280
     1
290
     1
  0
XRECORD
  5
D892
102
{ACAD_REACTORS
330
D891
102
}
330
D891
100
AcDbXrecord
280
     1
290
     1
  0
XRECORD
  5
D895
102
{ACAD_REACTORS
330
D894
102
}
330
D894
100
AcDbXrecord
280
     1
290
     1
  0
XRECORD
  5
D898
102
{ACAD_REACTORS
330
D897
102
}
330
D897
100
AcDbXrecord
280
     1
290
     1
  0
XRECORD
  5
D89B
102
{ACAD_REACTORS
330
D89A
102
}
330
D89A
100
AcDbXrecord
280
     1
290
     1
  0
XRECORD
  5
D89E
102
{ACAD_REACTORS
330
D89D
102
}
330
D89D
100
AcDbXrecord
280
     1
290
     1
  0
SORTENTSTABLE
  5
B1BA
102
{ACAD_REACTORS
330
8A
102
}
330
8A
100
AcDbSortentsTable
330
1F
331
D93B
  5
D93B
331
D904
  5
D904
331
D943
  5
D943
331
D90C
  5
D90C
331
D94B
  5
D94B
331
D8D5
  5
D8D5
331
D914
  5
D914
331
D953
  5
D953
331
D8DD
  5
D8DD
331
D91C
  5
D91C
331
B672
  5
B672
331
D188
  5
D188
331
B7AA
  5
B7AA
331
D190
  5
D190
331
D1EF
  5
D1EF
331
D296
  5
D296
331
B7B2
  5
B7B2
331
D198
  5
D198
331
D1F7
  5
D1F7
331
D29E
  5
D29E
331
B7BA
  5
B7BA
331
D1A0
  5
D1A0
331
D1FF
  5
D1FF
331
D2B6
  5
D2B6
331
D95B
  5
D95B
331
D8E5
  5
D8E5
331
D924
  5
D924
331
D963
  5
D963
331
D8ED
  5
D8ED
331
D92C
  5
D92C
331
D934
  5
D934
331
D8F5
  5
D8F5
331
D8FD
  5
D8FD
331
B7CA
  5
B7CA
331
D1A8
  5
D1A8
331
D1B0
  5
D1B0
331
D2BE
  5
D2BE
331
D27F
  5
D27F
331
D2C6
  5
D2C6
331
D287
  5
D287
331
D93C
  5
D93C
331
D905
  5
D905
331
D944
  5
D944
331
D90D
  5
D90D
331
D94C
  5
D94C
331
D8D6
  5
D8D6
331
D915
  5
D915
331
D954
  5
D954
331
D8DE
  5
D8DE
331
D91D
  5
D91D
331
B673
  5
B673
331
D189
  5
D189
331
B7AB
  5
B7AB
331
D191
  5
D191
331
D1F0
  5
D1F0
331
B7B3
  5
B7B3
331
D199
  5
D199
331
D1F8
  5
D1F8
331
D29F
  5
D29F
331
D1A1
  5
D1A1
331
D200
  5
D200
331
D2B7
  5
D2B7
331
D95C
  5
D95C
331
D8E6
  5
D8E6
331
D925
  5
D925
331
D964
  5
D964
331
D8EE
  5
D8EE
331
D92D
  5
D92D
331
D935
  5
D935
331
D8F6
  5
D8F6
331
D8FE
  5
D8FE
331
B7CB
  5
B7CB
331
D1A9
  5
D1A9
331
D248
  5
D248
331
D1B1
  5
D1B1
331
D2BF
  5
D2BF
331
D2C7
  5
D2C7
331
D288
  5
D288
331
D93D
  5
D93D
331
D906
  5
D906
331
D945
  5
D945
331
D90E
  5
D90E
331
D94D
  5
D94D
331
D8D7
  5
D8D7
331
D916
  5
D916
331
D955
  5
D955
331
D8DF
  5
D8DF
331
D91E
  5
D91E
331
B674
  5
B674
331
D18A
  5
D18A
331
D290
  5
D290
331
B7AC
  5
B7AC
331
D192
  5
D192
331
D1F1
  5
D1F1
331
D298
  5
D298
331
B7B4
  5
B7B4
331
D19A
  5
D19A
331
D1F9
  5
D1F9
331
D2A0
  5
D2A0
331
D1A2
  5
D1A2
331
D201
  5
D201
331
D95D
  5
D95D
331
D8E7
  5
D8E7
331
D926
  5
D926
331
D8EF
  5
D8EF
331
D92E
  5
D92E
331
D936
  5
D936
331
D8F7
  5
D8F7
331
D8FF
  5
D8FF
331
B7CC
  5
B7CC
331
D2B8
  5
D2B8
331
D1B2
  5
D1B2
331
D2C0
  5
D2C0
331
D2C8
  5
D2C8
331
D289
  5
D289
331
D93E
  5
D93E
331
D7A2
  5
D7A2
331
D907
  5
D907
331
D946
  5
D946
331
D90F
  5
D90F
331
D94E
  5
D94E
331
D8D8
  5
D8D8
331
D917
  5
D917
331
D956
  5
D956
331
D91F
  5
D91F
331
B675
  5
B675
331
D18B
  5
D18B
331
D1EA
  5
D1EA
331
D291
  5
D291
331
B7AD
  5
B7AD
331
D193
  5
D193
331
D1F2
  5
D1F2
331
D299
  5
D299
331
B7B5
  5
B7B5
331
D19B
  5
D19B
331
D1FA
  5
D1FA
331
D1A3
  5
D1A3
331
D2B1
  5
D2B1
331
D8E0
  5
D8E0
331
D95E
  5
D95E
331
D8E8
  5
D8E8
331
D927
  5
D927
331
D92F
  5
D92F
331
D8F0
  5
D8F0
331
D937
  5
D937
331
D8F8
  5
D8F8
331
B7CD
  5
B7CD
331
D1AB
  5
D1AB
331
D2B9
  5
D2B9
331
D1B3
  5
D1B3
331
D2C9
  5
D2C9
331
D1E3
  5
D1E3
331
D282
  5
D282
331
B66E
  5
B66E
331
D28A
  5
D28A
331
D900
  5
D900
331
D93F
  5
D93F
331
D908
  5
D908
331
D947
  5
D947
331
D8D1
  5
D8D1
331
D910
  5
D910
331
D918
  5
D918
331
D8D9
  5
D8D9
331
D94F
  5
D94F
331
D957
  5
D957
331
B676
  5
B676
331
D18C
  5
D18C
331
D1EB
  5
D1EB
331
B7AE
  5
B7AE
331
D1F3
  5
D1F3
331
D29A
  5
D29A
331
D19C
  5
D19C
331
D1FB
  5
D1FB
331
B7BE
  5
B7BE
331
D1A4
  5
D1A4
331
D2B2
  5
D2B2
331
D8E1
  5
D8E1
331
D920
  5
D920
331
D8E9
  5
D8E9
331
D78C
  5
D78C
331
D928
  5
D928
331
D95F
  5
D95F
331
D930
  5
D930
331
D8F1
  5
D8F1
331
D8F9
  5
D8F9
331
B7CE
  5
B7CE
331
D1AC
  5
D1AC
331
D2BA
  5
D2BA
331
D1B4
  5
D1B4
331
D27B
  5
D27B
331
D2CA
  5
D2CA
331
D1E4
  5
D1E4
331
D283
  5
D283
331
B66F
  5
B66F
331
D28B
  5
D28B
331
D938
  5
D938
331
D901
  5
D901
331
D940
  5
D940
331
D909
  5
D909
331
D8D2
  5
D8D2
331
D911
  5
D911
331
D948
  5
D948
331
D919
  5
D919
331
D8DA
  5
D8DA
331
D950
  5
D950
331
D18D
  5
D18D
331
D1EC
  5
D1EC
331
D29B
  5
D29B
331
B7AF
  5
B7AF
331
D195
  5
D195
331
D1FC
  5
D1FC
331
B7B7
  5
B7B7
331
D19D
  5
D19D
331
D2B3
  5
D2B3
331
D1A5
  5
D1A5
331
D8E2
  5
D8E2
331
D921
  5
D921
331
D958
  5
D958
331
D8EA
  5
D8EA
331
D929
  5
D929
331
D960
  5
D960
331
D8F2
  5
D8F2
331
D931
  5
D931
331
D8FA
  5
D8FA
331
D2BB
  5
D2BB
331
B7CF
  5
B7CF
331
D1AD
  5
D1AD
331
D27C
  5
D27C
331
D2CB
  5
D2CB
331
D284
  5
D284
331
D186
  5
D186
331
D939
  5
D939
331
D902
  5
D902
331
D941
  5
D941
331
D90A
  5
D90A
331
D949
  5
D949
331
D8D3
  5
D8D3
331
D912
  5
D912
331
D951
  5
D951
331
D8DB
  5
D8DB
331
D91A
  5
D91A
331
B670
  5
B670
331
D18E
  5
D18E
331
D1ED
  5
D1ED
331
B7B0
  5
B7B0
331
D196
  5
D196
331
D1F5
  5
D1F5
331
D29C
  5
D29C
331
B7B8
  5
B7B8
331
D19E
  5
D19E
331
D1FD
  5
D1FD
331
D1A6
  5
D1A6
331
D2B4
  5
D2B4
331
D959
  5
D959
331
D8E3
  5
D8E3
331
D922
  5
D922
331
D961
  5
D961
331
D8EB
  5
D8EB
331
D92A
  5
D92A
331
D932
  5
D932
331
D8F3
  5
D8F3
331
D8FB
  5
D8FB
331
D1AE
  5
D1AE
331
D2BC
  5
D2BC
331
D27D
  5
D27D
331
D2CC
  5
D2CC
331
D285
  5
D285
331
D187
  5
D187
331
D28D
  5
D28D
331
D93A
  5
D93A
331
D903
  5
D903
331
D942
  5
D942
331
D90B
  5
D90B
331
D94A
  5
D94A
331
D8D4
  5
D8D4
331
D913
  5
D913
331
D952
  5
D952
331
D8DC
  5
D8DC
331
D91B
  5
D91B
331
B671
  5
B671
331
D18F
  5
D18F
331
D1EE
  5
D1EE
331
D295
  5
D295
331
B7B1
  5
B7B1
331
D197
  5
D197
331
D1F6
  5
D1F6
331
D29D
  5
D29D
331
B7B9
  5
B7B9
331
D19F
  5
D19F
331
D1FE
  5
D1FE
331
D2B5
  5
D2B5
331
D95A
  5
D95A
331
D8E4
  5
D8E4
331
D923
  5
D923
331
D962
  5
D962
331
D8EC
  5
D8EC
331
D92B
  5
D92B
331
D933
  5
D933
331
D8F4
  5
D8F4
331
D8FC
  5
D8FC
331
D1AF
  5
D1AF
331
D24E
  5
D24E
331
D2BD
  5
D2BD
331
D27E
  5
D27E
331
D2C5
  5
D2C5
331
D286
  5
D286
331
D28E
  5
D28E
  0
SORTENTSTABLE
  5
BDE3
102
{ACAD_REACTORS
330
BDE2
102
}
330
BDE2
100
AcDbSortentsTable
330
BDE1
  0
SORTENTSTABLE
  5
BDEC
102
{ACAD_REACTORS
330
BDEB
102
}
330
BDEB
100
AcDbSortentsTable
330
BDEA
  0
XRECORD
  5
F0D9
102
{ACAD_REACTORS
330
F0D8
102
}
330
F0D8
100
AcDbXrecord
280
     1
 70
     1
  0
LAYOUT
  5
22
102
{ACAD_XDICTIONARY
360
F0DC
102
}
102
{ACAD_REACTORS
330
1A
102
}
330
1A
100
AcDbPlotSettings
  1

  2
DocuCentre-II C5400
  4
A4
  6
AM_VIEW1
 40
4.857749938964843
 41
4.942390441894531
 42
4.942413330078125
 43
4.857757568359375
 44
209.9733276367187
 45
297.0106506347656
 46
0.0
 47
2.068670446222427
 48
0.0000000354802978
 49
-0.0000010992660009
140
2100.00000003548
141
1484.999998900733
142
1.0
143
7.418576834167282
 70
  3764
 72
     1
 73
     1
 74
     4
  7
monochrome.ctb
 75
     0
147
0.1347967436819366
148
-0.0000000354802978
149
0.0000010992660009
100
AcDbLayout
  1
Model
 70
     1
 71
     0
 10
0.0
 20
0.0
 11
12.0
 21
9.0
 12
0.0
 22
0.0
 32
0.0
 14
0.0
 24
0.0
 34
0.0
 15
0.0
 25
0.0
 35
0.0
146
0.0
 13
0.0
 23
0.0
 33
0.0
 16
1.0
 26
0.0
 36
0.0
 17
0.0
 27
1.0
 37
0.0
 76
     0
330
1F
331
B0EC
1001
ACAD_PSEXT
1000
DocuCentre-II C5400
1000
FX DocuCentre-II C5400
1000
192.168.2.200
1000

1070
     0
  0
LAYOUT
  5
1E
102
{ACAD_XDICTIONARY
360
F0DA
102
}
102
{ACAD_REACTORS
330
1A
102
}
330
1A
100
AcDbPlotSettings
  1

  2
\\ML370\XEROX
  4
A4
  6

 40
3.174999952316284
 41
3.174999952316284
 42
3.175003051757812
 43
3.17498779296875
 44
209.8674926757813
 45
296.6719970703125
 46
0.0
 47
0.0
 48
0.0
 49
0.0
140
0.0
141
0.0
142
1.0
143
1.0
 70
   688
 72
     1
 73
     1
 74
     5
  7
monochrome.ctb
 75
    16
147
1.0
148
0.0
149
0.0
100
AcDbLayout
  1
ﾚｲｱｳﾄ1
 70
     1
 71
     1
 10
-3.17498779296875
 20
-3.174999952316284
 11
293.4970092773438
 21
206.692492723465
 12
0.0
 22
0.0
 32
0.0
 14
1.000000000000000E+20
 24
1.000000000000000E+20
 34
1.000000000000000E+20
 15
-1.000000000000000E+20
 25
-1.000000000000000E+20
 35
-1.000000000000000E+20
146
0.0
 13
0.0
 23
0.0
 33
0.0
 16
1.0
 26
0.0
 36
0.0
 17
0.0
 27
1.0
 37
0.0
 76
     0
330
1B
  0
LAYOUT
  5
26
102
{ACAD_XDICTIONARY
360
F0DE
102
}
102
{ACAD_REACTORS
330
1A
102
}
330
1A
100
AcDbPlotSettings
  1

  2
\\ML370\XEROX
  4

  6

 40
0.0
 41
0.0
 42
0.0
 43
0.0
 44
0.0
 45
0.0
 46
0.0
 47
0.0
 48
0.0
 49
0.0
140
0.0
141
0.0
142
1.0
143
1.0
 70
   688
 72
     0
 73
     0
 74
     5
  7
monochrome.ctb
 75
    16
147
1.0
148
0.0
149
0.0
100
AcDbLayout
  1
ﾚｲｱｳﾄ2
 70
     1
 71
     2
 10
0.0
 20
0.0
 11
12.0
 21
9.0
 12
0.0
 22
0.0
 32
0.0
 14
0.0
 24
0.0
 34
0.0
 15
0.0
 25
0.0
 35
0.0
146
0.0
 13
0.0
 23
0.0
 33
0.0
 16
1.0
 26
0.0
 36
0.0
 17
0.0
 27
1.0
 37
0.0
 76
     0
330
23
  0
MATERIAL
  5
B0EF
102
{ACAD_XDICTIONARY
360
F0E4
102
}
102
{ACAD_REACTORS
330
A91C
102
}
330
A91C
100
AcDbMaterial
  1
ByBlock
  0
MATERIAL
  5
B0EE
102
{ACAD_XDICTIONARY
360
F0E2
102
}
102
{ACAD_REACTORS
330
A91C
102
}
330
A91C
100
AcDbMaterial
  1
ByLayer
  0
MATERIAL
  5
B0F0
102
{ACAD_XDICTIONARY
360
F0E6
102
}
102
{ACAD_REACTORS
330
A91C
102
}
330
A91C
100
AcDbMaterial
  1
Global
  0
MLINESTYLE
  5
18
102
{ACAD_REACTORS
330
17
102
}
330
17
100
AcDbMlineStyle
  2
STANDARD
 70
     0
  3

 62
   256
 51
90.0
 52
90.0
 71
     2
 49
0.5
 62
   256
  6
BYLAYER
 49
-0.5
 62
   256
  6
BYLAYER
  0
PLOTSETTINGS
  5
D8B7
102
{ACAD_XDICTIONARY
360
F0E8
102
}
102
{ACAD_REACTORS
330
19
102
}
330
19
100
AcDbPlotSettings
  1
01   A1　１：１
  2
\\ML370\Fuji Xerox BT8050(AutoCAD)
  4
User122
  6

 40
3.174999952316284
 41
3.174999952316284
 42
3.17498779296875
 43
3.17498779296875
 44
593.7249755859375
 45
840.6129760742187
 46
145.19
 47
207.13
 48
214.3704939521119
 49
367.5855324241176
140
275.6727856380065
141
407.629191407817
142
1.0
143
1.0
 70
  1716
 72
     1
 73
     1
 74
     2
  7
monochrome.ctb
 75
    16
147
1.0
148
-538.139750291099
149
411.0980235086544
  0
PLOTSETTINGS
  5
D8B8
102
{ACAD_XDICTIONARY
360
F0EA
102
}
102
{ACAD_REACTORS
330
19
102
}
330
19
100
AcDbPlotSettings
  1
02   A2　１：１
  2
\\ML370\Fuji Xerox BT8050(AutoCAD)
  4
User123
  6

 40
3.174999952316284
 41
3.174999952316284
 42
3.17498779296875
 43
3.17498779296875
 44
420.0
 45
594.0
 46
58.33
 47
83.83
 48
214.3704939521119
 49
367.5855324241176
140
275.6727856380065
141
407.629191407817
142
1.0
143
1.0
 70
  1716
 72
     1
 73
     1
 74
     2
  7
monochrome.ctb
 75
    16
147
1.0
148
-538.139750291099
149
411.0980235086544
  0
PLOTSETTINGS
  5
D8B9
102
{ACAD_XDICTIONARY
360
F0EC
102
}
102
{ACAD_REACTORS
330
19
102
}
330
19
100
AcDbPlotSettings
  1
03   A3　１：１
  2
\\ML370\Fuji Xerox BT8050(AutoCAD)
  4
User124
  6

 40
3.174999952316284
 41
3.174999952316284
 42
3.17498779296875
 43
3.17498779296875
 44
297.0
 45
420.0
 46
-3.169999999999999
 47
-3.169999999999999
 48
214.3704939521119
 49
367.5855324241176
140
275.6727856380065
141
407.629191407817
142
1.0
143
1.0
 70
  1716
 72
     1
 73
     1
 74
     2
  7
monochrome.ctb
 75
    16
147
1.0
148
-538.139750291099
149
411.0980235086544
  0
PLOTSETTINGS
  5
D8BA
102
{ACAD_XDICTIONARY
360
F0EE
102
}
102
{ACAD_REACTORS
330
19
102
}
330
19
100
AcDbPlotSettings
  1
04   A4  １：１
  2
\\ML370\Fuji Xerox BT8050(AutoCAD)
  4
User125
  6

 40
3.174999952316284
 41
3.174999952316284
 42
3.175003051757812
 43
3.17498779296875
 44
210.0
 45
297.0
 46
-46.68
 47
-64.67
 48
214.3704939521119
 49
367.5855324241176
140
275.6727856380065
141
407.629191407817
142
1.0
143
1.0
 70
  1716
 72
     1
 73
     1
 74
     2
  7
monochrome.ctb
 75
    16
147
1.0
148
-538.139750291099
149
411.0980235086544
  0
PLOTSETTINGS
  5
D8BB
102
{ACAD_XDICTIONARY
360
F0F0
102
}
102
{ACAD_REACTORS
330
19
102
}
330
19
100
AcDbPlotSettings
  1
05   A1 自動調整
  2
\\ML370\Fuji Xerox BT8050(AutoCAD)
  4
User122
  6

 40
3.174999952316284
 41
3.174999952316284
 42
3.17498779296875
 43
3.17498779296875
 44
593.7249755859375
 45
840.6129760742187
 46
0.0
 47
1.77
 48
214.3704939521119
 49
367.5855324241176
140
275.6727856380065
141
407.629191407817
142
1.0
143
0.7150457692181145
 70
  1716
 72
     1
 73
     1
 74
     2
  7
monochrome.ctb
 75
     0
147
1.398511875811077
148
-408.2719444961221
149
-428.6675171947154
  0
PLOTSETTINGS
  5
D8BC
102
{ACAD_XDICTIONARY
360
F0F2
102
}
102
{ACAD_REACTORS
330
19
102
}
330
19
100
AcDbPlotSettings
  1
06   A2 自動調整
  2
\\ML370\Fuji Xerox BT8050(AutoCAD)
  4
User123
  6

 40
3.174999952316284
 41
3.174999952316284
 42
3.17498779296875
 43
3.17498779296875
 44
420.0
 45
594.0
 46
0.0
 47
1.32
 48
214.3704939521119
 49
367.5855324241176
140
275.6727856380065
141
407.629191407817
142
1.0
143
1.015351112189439
 70
  1716
 72
     1
 73
     1
 74
     2
  7
monochrome.ctb
 75
     0
147
0.9848809815588451
148
-408.2719444961221
149
-428.6675171947154
  0
PLOTSETTINGS
  5
D8BD
102
{ACAD_XDICTIONARY
360
F0F4
102
}
102
{ACAD_REACTORS
330
19
102
}
330
19
100
AcDbPlotSettings
  1
07   A3 自動調整
  2
\\ML370\Fuji Xerox BT8050(AutoCAD)
  4
User124
  6

 40
3.174999952316284
 41
3.174999952316284
 42
3.17498779296875
 43
3.17498779296875
 44
297.0
 45
420.0
 46
0.0
 47
1.29
 48
214.3704939521119
 49
367.5855324241176
140
275.6727856380065
141
407.629191407817
142
1.0
143
1.445036925138428
 70
  1716
 72
     1
 73
     1
 74
     2
  7
monochrome.ctb
 75
     0
147
0.6920238387017023
148
-408.2719444961221
149
-428.6675171947154
  0
PLOTSETTINGS
  5
D8BE
102
{ACAD_XDICTIONARY
360
F0F6
102
}
102
{ACAD_REACTORS
330
19
102
}
330
19
100
AcDbPlotSettings
  1
08   A4 自動調整
  2
\\ML370\Fuji Xerox BT8050(AutoCAD)
  4
User125
  6

 40
3.174999952316284
 41
3.174999952316284
 42
3.175003051757812
 43
3.17498779296875
 44
210.0
 45
297.0
 46
0.0
 47
1.32
 48
214.3704939521119
 49
367.5855324241176
140
275.6727856380065
141
407.629191407817
142
1.0
143
2.062361925831023
 70
  1716
 72
     1
 73
     1
 74
     2
  7
monochrome.ctb
 75
     0
147
0.484880945228395
148
-408.2719444961221
149
-428.6675171947154
  0
PLOTSETTINGS
  5
D8BF
102
{ACAD_XDICTIONARY
360
F0F8
102
}
102
{ACAD_REACTORS
330
19
102
}
330
19
100
AcDbPlotSettings
  1
09   A1をA3に
  2
\\ML370\Fuji Xerox BT8050(AutoCAD)
  4
User124
  6

 40
3.174999952316284
 41
3.174999952316284
 42
3.17498779296875
 43
3.17498779296875
 44
297.0
 45
420.0
 46
-3.169999999999999
 47
-3.419999999999999
 48
214.3704939521119
 49
367.5855324241176
140
275.6727856380065
141
407.629191407817
142
1.0
143
20.0
 70
  1716
 72
     1
 73
     1
 74
     2
  7
monochrome.ctb
 75
    22
147
0.05
148
-66.24202774817149
149
-81.38953477958603
  0
PLOTSETTINGS
  5
D8C0
102
{ACAD_XDICTIONARY
360
F0FA
102
}
102
{ACAD_REACTORS
330
19
102
}
330
19
100
AcDbPlotSettings
  1
10   A2をA3に
  2
\\ML370\Fuji Xerox BT8050(AutoCAD)
  4
User124
  6

 40
3.174999952316284
 41
3.174999952316284
 42
3.17498779296875
 43
3.17498779296875
 44
297.0
 45
420.0
 46
-3.189999999999999
 47
-3.22
 48
214.3704939521119
 49
367.5855324241176
140
275.6727856380065
141
407.629191407817
142
1.0
143
1.414
 70
  1700
 72
     1
 73
     1
 74
     2
  7
monochrome.ctb
 75
     0
147
0.7072135785007072
148
-408.2719444961221
149
-428.6675171947154
  0
PLOTSETTINGS
  5
D8C1
102
{ACAD_XDICTIONARY
360
F0FC
102
}
102
{ACAD_REACTORS
330
19
102
}
330
19
100
AcDbPlotSettings
  1
11　レーザー　A3　自動調整
  2
\\ML370\NX710
  4
User124
  6

 40
3.174999952316284
 41
3.174999952316284
 42
3.17578125
 43
3.17578125
 44
25146.0
 45
35602.33203125
 46
0.0
 47
0.0
 48
214.3704939521119
 49
367.5855324241176
140
275.6727856380065
141
407.629191407817
142
1.0
143
0.0083533385120973
 70
  1712
 72
     1
 73
     1
 74
     2
  7
monochrome.ctb
 75
     0
147
119.712615327608
148
-26.69879532799951
149
-28.92730121669592
  0
PLOTSETTINGS
  5
D8C2
102
{ACAD_XDICTIONARY
360
F0FE
102
}
102
{ACAD_REACTORS
330
19
102
}
330
19
100
AcDbPlotSettings
  1
０１　A3　自動調整
  2
Fuji Xerox BT8050
  4
User121
  6

 40
3.174999952316284
 41
3.174999952316284
 42
3.17498779296875
 43
3.17498779296875
 44
297.0
 45
420.0
 46
3.0
 47
3.0
 48
214.3704939521119
 49
367.5855324241176
140
275.6727856380065
141
407.629191407817
142
1.0
143
70.78960651124565
 70
  1712
 72
     1
 73
     1
 74
     2
  7
monochrome.ctb
 75
     0
147
0.0141263675457942
148
0.0
149
0.0
  0
PLOTSETTINGS
  5
D8C3
102
{ACAD_XDICTIONARY
360
F100
102
}
102
{ACAD_REACTORS
330
19
102
}
330
19
100
AcDbPlotSettings
  1
０２　A3　１：１
  2
Fuji Xerox BT8050
  4
User121
  6

 40
3.174999952316284
 41
3.174999952316284
 42
3.17498779296875
 43
3.17498779296875
 44
297.0
 45
420.0
 46
1.0
 47
0.0
 48
214.3704939521119
 49
367.5855324241176
140
275.6727856380065
141
407.629191407817
142
1.0
143
1.0
 70
  1712
 72
     1
 73
     1
 74
     2
  7
monochrome.ctb
 75
    16
147
1.0
148
-272.6514664696806
149
-81.88818450151984
  0
PLOTSETTINGS
  5
D8C4
102
{ACAD_XDICTIONARY
360
F102
102
}
102
{ACAD_REACTORS
330
19
102
}
330
19
100
AcDbPlotSettings
  1
０３　A2　自動調整
  2
Fuji Xerox BT8050
  4
User120
  6

 40
3.174999952316284
 41
3.174999952316284
 42
3.17498779296875
 43
3.17498779296875
 44
420.0
 45
594.0
 46
3.0
 47
3.0
 48
214.3704939521119
 49
367.5855324241176
140
275.6727856380065
141
407.629191407817
142
1.0
143
49.74011698404217
 70
  1712
 72
     1
 73
     1
 74
     2
  7
monochrome.ctb
 75
     0
147
0.020104496342878
148
0.0
149
0.0
  0
PLOTSETTINGS
  5
D8C5
102
{ACAD_XDICTIONARY
360
F104
102
}
102
{ACAD_REACTORS
330
19
102
}
330
19
100
AcDbPlotSettings
  1
０４　A2　１：１
  2
Fuji Xerox BT8050
  4
User120
  6

 40
3.174999952316284
 41
3.174999952316284
 42
3.17498779296875
 43
3.17498779296875
 44
420.0
 45
594.0
 46
1.0
 47
0.0
 48
214.3704939521119
 49
367.5855324241176
140
275.6727856380065
141
407.629191407817
142
1.0
143
1.0
 70
  1712
 72
     1
 73
     1
 74
     2
  7
monochrome.ctb
 75
    16
147
1.0
148
-272.6514664696806
149
-81.88818450151984
  0
PLOTSETTINGS
  5
D8C6
102
{ACAD_XDICTIONARY
360
F106
102
}
102
{ACAD_REACTORS
330
19
102
}
330
19
100
AcDbPlotSettings
  1
０５　A4　自動調整
  2
Fuji Xerox BT8050
  4
User122
  6

 40
3.174999952316284
 41
3.174999952316284
 42
3.175003051757812
 43
3.17498779296875
 44
210.0
 45
297.0
 46
3.0
 47
3.0
 48
214.3704939521119
 49
367.5855324241176
140
275.6727856380065
141
407.629191407817
142
1.0
143
101.0311824380317
 70
  1712
 72
     1
 73
     1
 74
     2
  7
monochrome.ctb
 75
     0
147
0.0098979342403852
148
0.0
149
0.0
  0
PLOTSETTINGS
  5
D8C7
102
{ACAD_XDICTIONARY
360
F108
102
}
102
{ACAD_REACTORS
330
19
102
}
330
19
100
AcDbPlotSettings
  1
０６　A4　１：１
  2
Fuji Xerox BT8050
  4
User122
  6

 40
3.174999952316284
 41
3.174999952316284
 42
3.175003051757812
 43
3.17498779296875
 44
210.0
 45
297.0
 46
1.0
 47
0.0
 48
214.3704939521119
 49
367.5855324241176
140
275.6727856380065
141
407.629191407817
142
1.0
143
1.0
 70
  1712
 72
     1
 73
     1
 74
     2
  7
monochrome.ctb
 75
    16
147
1.0
148
-272.6514664696806
149
-81.88818450151984
  0
PLOTSETTINGS
  5
D8C8
102
{ACAD_XDICTIONARY
360
F10A
102
}
102
{ACAD_REACTORS
330
19
102
}
330
19
100
AcDbPlotSettings
  1
０７　A1　自動調整
  2
Fuji Xerox BT8050
  4
User119
  6

 40
3.174999952316284
 41
3.174999952316284
 42
3.17498779296875
 43
3.17498779296875
 44
593.7249755859375
 45
840.6129760742187
 46
3.0
 47
3.0
 48
214.3704939521119
 49
367.5855324241176
140
275.6727856380065
141
407.629191407817
142
1.0
143
35.02873024205406
 70
  1712
 72
     1
 73
     1
 74
     2
  7
monochrome.ctb
 75
     0
147
0.0285479945487559
148
0.0
149
0.0
  0
PLOTSETTINGS
  5
D8C9
102
{ACAD_XDICTIONARY
360
F10C
102
}
102
{ACAD_REACTORS
330
19
102
}
330
19
100
AcDbPlotSettings
  1
０８　A1　１：１
  2
Fuji Xerox BT8050
  4
User119
  6

 40
3.174999952316284
 41
3.174999952316284
 42
3.17498779296875
 43
3.17498779296875
 44
593.7249755859375
 45
840.6129760742187
 46
1.0
 47
0.0
 48
214.3704939521119
 49
367.5855324241176
140
275.6727856380065
141
407.629191407817
142
1.0
143
1.0
 70
  1712
 72
     1
 73
     1
 74
     2
  7
monochrome.ctb
 75
    16
147
1.0
148
-272.6514664696806
149
-81.88818450151984
  0
PLOTSETTINGS
  5
D8CA
102
{ACAD_XDICTIONARY
360
F10E
102
}
102
{ACAD_REACTORS
330
19
102
}
330
19
100
AcDbPlotSettings
  1
０９　A4　検査表
  2
Fuji Xerox BT8050
  4
User122
  6

 40
3.174999952316284
 41
3.174999952316284
 42
3.175003051757812
 43
3.17498779296875
 44
210.0
 45
297.0
 46
3.0
 47
3.0
 48
214.3704939521119
 49
367.5855324241176
140
275.6727856380065
141
407.629191407817
142
1.0
143
4.12963423719974
 70
  1712
 72
     1
 73
     0
 74
     2
  7
monochrome.ctb
 75
     0
147
0.2421521961901616
148
-272.6514664696806
149
-81.88818450151984
  0
ACDBPLACEHOLDER
  5
F
102
{ACAD_REACTORS
330
E
102
}
330
E
  0
TABLESTYLE
  5
AABA
102
{ACAD_XDICTIONARY
360
F0E0
102
}
102
{ACAD_REACTORS
330
AAB9
102
}
330
AAB9
100
AcDbTableStyle
  3
Standard
 70
     0
 71
     0
 40
1.5
 41
1.5
280
     0
281
     0
  7
STANDARD
140
4.5
170
     2
 62
     0
 63
     7
283
     0
274
    -2
284
     1
 64
     0
275
    -2
285
     1
 65
     0
276
    -2
286
     1
 66
     0
277
    -2
287
     1
 67
     0
278
    -2
288
     1
 68
     0
279
    -2
289
     1
 69
     0
  7
STANDARD
140
6.0
170
     5
 62
     0
 63
     7
283
     0
274
    -2
284
     1
 64
     0
275
    -2
285
     1
 65
     0
276
    -2
286
     1
 66
     0
277
    -2
287
     1
 67
     0
278
    -2
288
     1
 68
     0
279
    -2
289
     1
 69
     0
  7
STANDARD
140
4.5
170
     5
 62
     0
 63
     7
283
     0
274
    -2
284
     1
 64
     0
275
    -2
285
     1
 65
     0
276
    -2
286
     1
 66
     0
277
    -2
287
     1
 67
     0
278
    -2
288
     1
 68
     0
279
    -2
289
     1
 69
     0
  0
VISUALSTYLE
  5
B0F7
102
{ACAD_REACTORS
330
B0F1
102
}
330
B0F1
100
AcDbVisualStyle
  2
2dWireframe
 70
     4
 71
     0
 72
     2
 73
     0
 90
        0
 40
-0.6
 41
-30.0
 62
     5
 63
     7
 74
     1
 91
        4
 64
     7
 65
   257
 75
     1
175
     1
 42
1.0
 92
        0
 66
   257
 43
1.0
 76
     1
 77
     6
 78
     2
 67
     7
 79
     5
170
     0
171
     0
290
     0
174
     0
 93
        1
 44
0.0
173
     0
291
     0
 45
0.0
1001
ACAD
1000
AcDbSavedByObjectVersion
1070
     0
  0
VISUALSTYLE
  5
B0F9
102
{ACAD_REACTORS
330
B0F1
102
}
330
B0F1
100
AcDbVisualStyle
  2
3D Hidden
 70
     6
 71
     1
 72
     2
 73
     2
 90
        0
 40
-0.6
 41
-30.0
 62
     5
 63
     7
 74
     2
 91
        2
 64
     7
 65
   257
 75
     2
175
     1
 42
40.0
 92
        0
 66
   257
 43
1.0
 76
     1
 77
     6
 78
     2
 67
     7
 79
     3
170
     0
171
     0
290
     0
174
     0
 93
        1
 44
0.0
173
     0
291
     0
 45
0.0
1001
ACAD
1000
AcDbSavedByObjectVersion
1070
     0
  0
VISUALSTYLE
  5
B0F8
102
{ACAD_REACTORS
330
B0F1
102
}
330
B0F1
100
AcDbVisualStyle
  2
3dWireframe
 70
     5
 71
     0
 72
     2
 73
     0
 90
        0
 40
-0.6
 41
-30.0
 62
     5
 63
     7
 74
     1
 91
        4
 64
     7
 65
   257
 75
     1
175
     1
 42
1.0
 92
        0
 66
   257
 43
1.0
 76
     1
 77
     6
 78
     2
 67
     7
 79
     5
170
     0
171
     0
290
     0
174
     0
 93
        1
 44
0.0
173
     0
291
     0
 45
0.0
1001
ACAD
1000
AcDbSavedByObjectVersion
1070
     0
  0
VISUALSTYLE
  5
B0F6
102
{ACAD_REACTORS
330
B0F1
102
}
330
B0F1
100
AcDbVisualStyle
  2
Basic
 70
     7
 71
     1
 72
     0
 73
     1
 90
        0
 40
-0.6
 41
-30.0
 62
     5
 63
     7
 74
     0
 91
        4
 64
     7
 65
   257
 75
     1
175
     1
 42
1.0
 92
        8
 66
     7
 43
1.0
 76
     1
 77
     6
 78
     2
 67
     7
 79
     5
170
     0
171
     0
290
     0
174
     0
 93
        1
 44
0.0
173
     0
291
     1
 45
0.0
1001
ACAD
1000
AcDbSavedByObjectVersion
1070
     0
  0
VISUALSTYLE
  5
B0FD
102
{ACAD_REACTORS
330
B0F1
102
}
330
B0F1
100
AcDbVisualStyle
  2
Brighten
 70
    12
 71
     2
 72
     2
 73
     0
 90
        0
 40
-0.6
 41
-30.0
 62
     5
 63
     7
 74
     1
 91
        4
 64
     7
 65
   257
 75
     1
175
     1
 42
1.0
 92
        8
 66
     7
 43
1.0
 76
     1
 77
     6
 78
     2
 67
     7
 79
     5
170
     0
171
     0
290
     0
174
     0
 93
        1
 44
50.0
173
     0
291
     1
 45
0.0
1001
ACAD
1000
AcDbSavedByObjectVersion
1070
     0
  0
VISUALSTYLE
  5
B101
102
{ACAD_REACTORS
330
B0F1
102
}
330
B0F1
100
AcDbVisualStyle
  2
ColorChange
 70
    16
 71
     2
 72
     2
 73
     3
 90
        0
 40
-0.6
 41
-30.0
 62
     5
 63
     8
 74
     1
 91
        4
 64
     7
 65
   257
 75
     1
175
     1
 42
1.0
 92
        8
 66
     8
 43
1.0
 76
     1
 77
     6
 78
     2
 67
     7
 79
     5
170
     0
171
     0
290
     0
174
     0
 93
        1
 44
0.0
173
     0
291
     1
 45
0.0
1001
ACAD
1000
AcDbSavedByObjectVersion
1070
     0
  0
VISUALSTYLE
  5
B0FA
102
{ACAD_REACTORS
330
B0F1
102
}
330
B0F1
100
AcDbVisualStyle
  2
Conceptual
 70
     9
 71
     3
 72
     2
 73
     0
 90
        0
 40
-0.6
 41
-30.0
 62
     5
 63
     7
 74
     2
 91
        2
 64
     7
 65
   257
 75
     1
175
     1
 42
40.0
 92
        8
 66
     7
 43
1.0
 76
     1
 77
     6
 78
     2
 67
     7
 79
     3
170
     0
171
     0
290
     0
174
     0
 93
        1
 44
0.0
173
     0
291
     0
 45
0.0
1001
ACAD
1000
AcDbSavedByObjectVersion
1070
     0
  0
VISUALSTYLE
  5
B0FC
102
{ACAD_REACTORS
330
B0F1
102
}
330
B0F1
100
AcDbVisualStyle
  2
Dim
 70
    11
 71
     2
 72
     2
 73
     0
 90
        0
 40
-0.6
 41
-30.0
 62
     5
 63
     7
 74
     1
 91
        4
 64
     7
 65
   257
 75
     1
175
     1
 42
1.0
 92
        8
 66
     7
 43
1.0
 76
     1
 77
     6
 78
     2
 67
     7
 79
     5
170
     0
171
     0
290
     0
174
     0
 93
        1
 44
-50.0
173
     0
291
     1
 45
0.0
1001
ACAD
1000
AcDbSavedByObjectVersion
1070
     0
  0
VISUALSTYLE
  5
B100
102
{ACAD_REACTORS
330
B0F1
102
}
330
B0F1
100
AcDbVisualStyle
  2
Facepattern
 70
    15
 71
     2
 72
     2
 73
     0
 90
        0
 40
-0.6
 41
-30.0
 62
     5
 63
     7
 74
     1
 91
        4
 64
     7
 65
   257
 75
     1
175
     1
 42
1.0
 92
        8
 66
     7
 43
1.0
 76
     1
 77
     6
 78
     2
 67
     7
 79
     5
170
     0
171
     0
290
     0
174
     0
 93
        1
 44
0.0
173
     0
291
     1
 45
0.0
1001
ACAD
1000
AcDbSavedByObjectVersion
1070
     0
  0
VISUALSTYLE
  5
B0F2
102
{ACAD_REACTORS
330
B0F1
102
}
330
B0F1
100
AcDbVisualStyle
  2
Flat
 70
     0
 71
     2
 72
     1
 73
     1
 90
        2
 40
-0.6
 41
30.0
 62
     5
 63
     7
 74
     0
 91
        4
 64
     7
 65
   257
 75
     1
175
     1
 42
1.0
 92
        8
 66
     7
 43
1.0
 76
     1
 77
     6
 78
     2
 67
     7
 79
     5
170
     0
171
     0
290
     0
174
     0
 93
       13
 44
0.0
173
     0
291
     1
 45
0.0
1001
ACAD
1000
AcDbSavedByObjectVersion
1070
     0
  0
VISUALSTYLE
  5
B0F3
102
{ACAD_REACTORS
330
B0F1
102
}
330
B0F1
100
AcDbVisualStyle
  2
FlatWithEdges
 70
     1
 71
     2
 72
     1
 73
     1
 90
        2
 40
-0.6
 41
30.0
 62
     5
 63
     7
 74
     1
 91
        4
 64
     7
 65
   257
 75
     1
175
     1
 42
1.0
 92
        0
 66
   257
 43
1.0
 76
     1
 77
     6
 78
     2
 67
     7
 79
     5
170
     0
171
     0
290
     0
174
     0
 93
       13
 44
0.0
173
     0
291
     1
 45
0.0
1001
ACAD
1000
AcDbSavedByObjectVersion
1070
     0
  0
VISUALSTYLE
  5
B0F4
102
{ACAD_REACTORS
330
B0F1
102
}
330
B0F1
100
AcDbVisualStyle
  2
Gouraud
 70
     2
 71
     2
 72
     2
 73
     1
 90
        2
 40
-0.6
 41
30.0
 62
     5
 63
     7
 74
     0
 91
        4
 64
     7
 65
   257
 75
     1
175
     1
 42
1.0
 92
        0
 66
     7
 43
1.0
 76
     1
 77
     6
 78
     2
 67
     7
 79
     5
170
     0
171
     0
290
     0
174
     0
 93
       13
 44
0.0
173
     0
291
     1
 45
0.0
1001
ACAD
1000
AcDbSavedByObjectVersion
1070
     0
  0
VISUALSTYLE
  5
B0F5
102
{ACAD_REACTORS
330
B0F1
102
}
330
B0F1
100
AcDbVisualStyle
  2
GouraudWithEdges
 70
     3
 71
     2
 72
     2
 73
     1
 90
        2
 40
-0.6
 41
30.0
 62
     5
 63
     7
 74
     1
 91
        4
 64
     7
 65
   257
 75
     1
175
     1
 42
1.0
 92
        0
 66
   257
 43
1.0
 76
     1
 77
     6
 78
     2
 67
     7
 79
     5
170
     0
171
     0
290
     0
174
     0
 93
       13
 44
0.0
173
     0
291
     1
 45
0.0
1001
ACAD
1000
AcDbSavedByObjectVersion
1070
     0
  0
VISUALSTYLE
  5
B0FF
102
{ACAD_REACTORS
330
B0F1
102
}
330
B0F1
100
AcDbVisualStyle
  2
Linepattern
 70
    14
 71
     2
 72
     2
 73
     0
 90
        0
 40
-0.6
 41
-30.0
 62
     5
 63
     7
 74
     1
 91
        4
 64
     7
 65
   257
 75
     7
175
     7
 42
1.0
 92
        8
 66
     7
 43
1.0
 76
     1
 77
     6
 78
     2
 67
     7
 79
     5
170
     0
171
     0
290
     0
174
     0
 93
        1
 44
0.0
173
     0
291
     1
 45
0.0
1001
ACAD
1000
AcDbSavedByObjectVersion
1070
     0
  0
VISUALSTYLE
  5
B0FB
102
{ACAD_REACTORS
330
B0F1
102
}
330
B0F1
100
AcDbVisualStyle
  2
Realistic
 70
     8
 71
     2
 72
     2
 73
     0
 90
        0
 40
-0.6
 41
-30.0
 62
     5
 63
     7
 74
     1
 91
        0
 64
     7
 65
   257
 75
     1
175
     1
 42
1.0
 92
        8
 66
     8
 43
1.0
 76
     1
 77
     6
 78
     2
 67
     7
 79
     5
170
     0
171
     0
290
     0
174
     0
 93
       13
 44
0.0
173
     0
291
     0
 45
0.0
1001
ACAD
1000
AcDbSavedByObjectVersion
1070
     0
  0
VISUALSTYLE
  5
B0FE
102
{ACAD_REACTORS
330
B0F1
102
}
330
B0F1
100
AcDbVisualStyle
  2
Thicken
 70
    13
 71
     2
 72
     2
 73
     0
 90
        0
 40
-0.6
 41
-30.0
 62
     5
 63
     7
 74
     1
 91
        4
 64
     7
 65
   257
 75
     1
175
     1
 42
1.0
 92
       12
 66
     7
 43
1.0
 76
     1
 77
     6
 78
     2
 67
     7
 79
     5
170
     0
171
     0
290
     0
174
     0
 93
        1
 44
0.0
173
     0
291
     1
 45
0.0
1001
ACAD
1000
AcDbSavedByObjectVersion
1070
     0
  0
DICTIONARYVAR
  5
AAF3
102
{ACAD_REACTORS
330
34
102
}
330
34
100
DictionaryVariables
280
     0
  1
STANDARD
  0
DICTIONARYVAR
  5
A10C
102
{ACAD_REACTORS
330
34
102
}
330
34
100
DictionaryVariables
280
     0
  1
1
  0
DICTIONARYVAR
  5
AB07
102
{ACAD_REACTORS
330
34
102
}
330
34
100
DictionaryVariables
280
     0
  1
4
  0
DICTIONARYVAR
  5
35
102
{ACAD_REACTORS
330
34
102
}
330
34
100
DictionaryVariables
280
     0
  1
0
  0
DICTIONARYVAR
  5
194C
102
{ACAD_REACTORS
330
34
102
}
330
34
100
DictionaryVariables
280
     0
  1
96
  0
DICTIONARY
  5
7E8
102
{ACAD_REACTORS
330
47
102
}
330
47
100
AcDbDictionary
281
     1
  0
DICTIONARY
  5
4C
102
{ACAD_REACTORS
330
47
102
}
330
47
100
AcDbDictionary
281
     1
  0
XRECORD
  5
A929
102
{ACAD_REACTORS
330
47
102
}
330
47
100
AcDbXrecord
280
     1
 90
-1023410169
  0
XRECORD
  5
F083
102
{ACAD_REACTORS
330
F082
102
}
330
F082
100
AcDbXrecord
280
     1
330
F0AE
330
F0B8
330
F0C2
330
F0CC
330
F0D6
330
D2C7
330
D2C8
330
D2CB
330
D2CC
330
EF2B
330
EF2C
330
EF34
330
EF35
330
EF3F
330
EF40
330
EF4E
330
EF4F
330
EF56
330
EF57
330
EF5F
330
EF60
330
EF68
330
EF69
330
EF71
330
EF72
330
EF7B
330
EF7C
330
EF84
330
EF85
330
EF8E
330
EF8F
330
EF96
330
EF97
330
EF9F
330
EFA0
330
EFA8
330
EFA9
330
F04E
330
F04F
330
EFBA
330
EFBB
330
EFC3
330
EFC4
330
EFCC
330
EFCD
330
EFD5
330
EFD6
330
EFE0
330
EFE1
330
EFEB
330
EFEC
  0
XRECORD
  5
3FB7
102
{ACAD_REACTORS
330
3F96
102
}
330
3F96
100
AcDbXrecord
280
     1
 91
        3
330
0
 90
        8
 62
     7
370
    40
331
16
  1
Color_7
330
0
 90
        0
 62
    14
370
    -3
331
16
  1
Color_14
330
0
 90
        8
 62
     7
370
    20
331
16
  1
Color_7
330
6D1
 90
        0
 62
     7
370
    -3
331
16
  1
Color_7
330
0
 90
        8
 62
     7
370
    50
331
16
  1
Color_7
330
0
 90
        8
 62
     2
370
    35
331
16
  1
Color_2
330
0
 90
        8
 62
     7
370
    -3
331
16
  1
Color_7
330
10
 90
        8
 62
     7
370
    -3
331
16
  1
Color_7
  0
DICTIONARY
  5
F0DC
330
22
100
AcDbDictionary
280
     1
281
     1
  3
ACAD_XREC_ROUNDTRIP
360
F0DD
  0
DICTIONARY
  5
F0DA
330
1E
100
AcDbDictionary
280
     1
281
     1
  3
ACAD_XREC_ROUNDTRIP
360
F0DB
  0
DICTIONARY
  5
F0DE
330
26
100
AcDbDictionary
280
     1
281
     1
  3
ACAD_XREC_ROUNDTRIP
360
F0DF
  0
DICTIONARY
  5
F0E4
330
B0EF
100
AcDbDictionary
280
     1
281
     1
  3
ACAD_XREC_ROUNDTRIP
360
F0E5
  0
DICTIONARY
  5
F0E2
330
B0EE
100
AcDbDictionary
280
     1
281
     1
  3
ACAD_XREC_ROUNDTRIP
360
F0E3
  0
DICTIONARY
  5
F0E6
330
B0F0
100
AcDbDictionary
280
     1
281
     1
  3
ACAD_XREC_ROUNDTRIP
360
F0E7
  0
DICTIONARY
  5
F0E8
330
D8B7
100
AcDbDictionary
280
     1
281
     1
  3
ACAD_XREC_ROUNDTRIP
360
F0E9
  0
DICTIONARY
  5
F0EA
330
D8B8
100
AcDbDictionary
280
     1
281
     1
  3
ACAD_XREC_ROUNDTRIP
360
F0EB
  0
DICTIONARY
  5
F0EC
330
D8B9
100
AcDbDictionary
280
     1
281
     1
  3
ACAD_XREC_ROUNDTRIP
360
F0ED
  0
DICTIONARY
  5
F0EE
330
D8BA
100
AcDbDictionary
280
     1
281
     1
  3
ACAD_XREC_ROUNDTRIP
360
F0EF
  0
DICTIONARY
  5
F0F0
330
D8BB
100
AcDbDictionary
280
     1
281
     1
  3
ACAD_XREC_ROUNDTRIP
360
F0F1
  0
DICTIONARY
  5
F0F2
330
D8BC
100
AcDbDictionary
280
     1
281
     1
  3
ACAD_XREC_ROUNDTRIP
360
F0F3
  0
DICTIONARY
  5
F0F4
330
D8BD
100
AcDbDictionary
280
     1
281
     1
  3
ACAD_XREC_ROUNDTRIP
360
F0F5
  0
DICTIONARY
  5
F0F6
330
D8BE
100
AcDbDictionary
280
     1
281
     1
  3
ACAD_XREC_ROUNDTRIP
360
F0F7
  0
DICTIONARY
  5
F0F8
330
D8BF
100
AcDbDictionary
280
     1
281
     1
  3
ACAD_XREC_ROUNDTRIP
360
F0F9
  0
DICTIONARY
  5
F0FA
330
D8C0
100
AcDbDictionary
280
     1
281
     1
  3
ACAD_XREC_ROUNDTRIP
360
F0FB
  0
DICTIONARY
  5
F0FC
330
D8C1
100
AcDbDictionary
280
     1
281
     1
  3
ACAD_XREC_ROUNDTRIP
360
F0FD
  0
DICTIONARY
  5
F0FE
330
D8C2
100
AcDbDictionary
280
     1
281
     1
  3
ACAD_XREC_ROUNDTRIP
360
F0FF
  0
DICTIONARY
  5
F100
330
D8C3
100
AcDbDictionary
280
     1
281
     1
  3
ACAD_XREC_ROUNDTRIP
360
F101
  0
DICTIONARY
  5
F102
330
D8C4
100
AcDbDictionary
280
     1
281
     1
  3
ACAD_XREC_ROUNDTRIP
360
F103
  0
DICTIONARY
  5
F104
330
D8C5
100
AcDbDictionary
280
     1
281
     1
  3
ACAD_XREC_ROUNDTRIP
360
F105
  0
DICTIONARY
  5
F106
330
D8C6
100
AcDbDictionary
280
     1
281
     1
  3
ACAD_XREC_ROUNDTRIP
360
F107
  0
DICTIONARY
  5
F108
330
D8C7
100
AcDbDictionary
280
     1
281
     1
  3
ACAD_XREC_ROUNDTRIP
360
F109
  0
DICTIONARY
  5
F10A
330
D8C8
100
AcDbDictionary
280
     1
281
     1
  3
ACAD_XREC_ROUNDTRIP
360
F10B
  0
DICTIONARY
  5
F10C
330
D8C9
100
AcDbDictionary
280
     1
281
     1
  3
ACAD_XREC_ROUNDTRIP
360
F10D
  0
DICTIONARY
  5
F10E
330
D8CA
100
AcDbDictionary
280
     1
281
     1
  3
ACAD_XREC_ROUNDTRIP
360
F10F
  0
DICTIONARY
  5
F0E0
330
AABA
100
AcDbDictionary
280
     1
281
     1
  3
ACAD_XREC_ROUNDTRIP
360
F0E1
  0
XRECORD
  5
F0DD
102
{ACAD_REACTORS
330
F0DC
102
}
330
F0DC
100
AcDbXrecord
280
     1
102
SHADEPLOT
 70
     0
102
SHADEPLOTRESLEVEL
 70
     2
102
SHADEPLOTCUSTOMDPI
 70
   200
  0
XRECORD
  5
F0DB
102
{ACAD_REACTORS
330
F0DA
102
}
330
F0DA
100
AcDbXrecord
280
     1
102
SHADEPLOT
 70
     0
102
SHADEPLOTRESLEVEL
 70
     2
102
SHADEPLOTCUSTOMDPI
 70
   300
  0
XRECORD
  5
F0DF
102
{ACAD_REACTORS
330
F0DE
102
}
330
F0DE
100
AcDbXrecord
280
     1
102
SHADEPLOT
 70
     0
102
SHADEPLOTRESLEVEL
 70
     2
102
SHADEPLOTCUSTOMDPI
 70
   300
  0
XRECORD
  5
F0E5
102
{ACAD_REACTORS
330
F0E4
102
}
330
F0E4
100
AcDbXrecord
280
     1
102
MATERIAL
148
0.0
149
0.0
149
0.0
 93
        0
 94
       63
282
     0
 72
     1
 77
     1
171
     1
175
     1
179
     1
273
     0
  0
XRECORD
  5
F0E3
102
{ACAD_REACTORS
330
F0E2
102
}
330
F0E2
100
AcDbXrecord
280
     1
102
MATERIAL
148
0.0
149
0.0
149
0.0
 93
        0
 94
       63
282
     0
 72
     1
 77
     1
171
     1
175
     1
179
     1
273
     0
  0
XRECORD
  5
F0E7
102
{ACAD_REACTORS
330
F0E6
102
}
330
F0E6
100
AcDbXrecord
280
     1
102
MATERIAL
148
0.0
149
0.0
149
0.0
 93
        0
 94
       63
282
     0
 72
     1
 77
     1
171
     1
175
     1
179
     1
273
     0
  0
XRECORD
  5
F0E9
102
{ACAD_REACTORS
330
F0E8
102
}
330
F0E8
100
AcDbXrecord
280
     1
102
SHADEPLOT
 70
     0
102
SHADEPLOTRESLEVEL
 70
     2
102
SHADEPLOTCUSTOMDPI
 70
   300
  0
XRECORD
  5
F0EB
102
{ACAD_REACTORS
330
F0EA
102
}
330
F0EA
100
AcDbXrecord
280
     1
102
SHADEPLOT
 70
     0
102
SHADEPLOTRESLEVEL
 70
     2
102
SHADEPLOTCUSTOMDPI
 70
   300
  0
XRECORD
  5
F0ED
102
{ACAD_REACTORS
330
F0EC
102
}
330
F0EC
100
AcDbXrecord
280
     1
102
SHADEPLOT
 70
     0
102
SHADEPLOTRESLEVEL
 70
     2
102
SHADEPLOTCUSTOMDPI
 70
   300
  0
XRECORD
  5
F0EF
102
{ACAD_REACTORS
330
F0EE
102
}
330
F0EE
100
AcDbXrecord
280
     1
102
SHADEPLOT
 70
     0
102
SHADEPLOTRESLEVEL
 70
     2
102
SHADEPLOTCUSTOMDPI
 70
   300
  0
XRECORD
  5
F0F1
102
{ACAD_REACTORS
330
F0F0
102
}
330
F0F0
100
AcDbXrecord
280
     1
102
SHADEPLOT
 70
     0
102
SHADEPLOTRESLEVEL
 70
     2
102
SHADEPLOTCUSTOMDPI
 70
   300
  0
XRECORD
  5
F0F3
102
{ACAD_REACTORS
330
F0F2
102
}
330
F0F2
100
AcDbXrecord
280
     1
102
SHADEPLOT
 70
     0
102
SHADEPLOTRESLEVEL
 70
     2
102
SHADEPLOTCUSTOMDPI
 70
   300
  0
XRECORD
  5
F0F5
102
{ACAD_REACTORS
330
F0F4
102
}
330
F0F4
100
AcDbXrecord
280
     1
102
SHADEPLOT
 70
     0
102
SHADEPLOTRESLEVEL
 70
     2
102
SHADEPLOTCUSTOMDPI
 70
   300
  0
XRECORD
  5
F0F7
102
{ACAD_REACTORS
330
F0F6
102
}
330
F0F6
100
AcDbXrecord
280
     1
102
SHADEPLOT
 70
     0
102
SHADEPLOTRESLEVEL
 70
     2
102
SHADEPLOTCUSTOMDPI
 70
   300
  0
XRECORD
  5
F0F9
102
{ACAD_REACTORS
330
F0F8
102
}
330
F0F8
100
AcDbXrecord
280
     1
102
SHADEPLOT
 70
     0
102
SHADEPLOTRESLEVEL
 70
     2
102
SHADEPLOTCUSTOMDPI
 70
   300
  0
XRECORD
  5
F0FB
102
{ACAD_REACTORS
330
F0FA
102
}
330
F0FA
100
AcDbXrecord
280
     1
102
SHADEPLOT
 70
     0
102
SHADEPLOTRESLEVEL
 70
     2
102
SHADEPLOTCUSTOMDPI
 70
   300
  0
XRECORD
  5
F0FD
102
{ACAD_REACTORS
330
F0FC
102
}
330
F0FC
100
AcDbXrecord
280
     1
102
SHADEPLOT
 70
     0
102
SHADEPLOTRESLEVEL
 70
     2
102
SHADEPLOTCUSTOMDPI
 70
   300
  0
XRECORD
  5
F0FF
102
{ACAD_REACTORS
330
F0FE
102
}
330
F0FE
100
AcDbXrecord
280
     1
102
SHADEPLOT
 70
     0
102
SHADEPLOTRESLEVEL
 70
     2
102
SHADEPLOTCUSTOMDPI
 70
   300
  0
XRECORD
  5
F101
102
{ACAD_REACTORS
330
F100
102
}
330
F100
100
AcDbXrecord
280
     1
102
SHADEPLOT
 70
     0
102
SHADEPLOTRESLEVEL
 70
     2
102
SHADEPLOTCUSTOMDPI
 70
   300
  0
XRECORD
  5
F103
102
{ACAD_REACTORS
330
F102
102
}
330
F102
100
AcDbXrecord
280
     1
102
SHADEPLOT
 70
     0
102
SHADEPLOTRESLEVEL
 70
     2
102
SHADEPLOTCUSTOMDPI
 70
   300
  0
XRECORD
  5
F105
102
{ACAD_REACTORS
330
F104
102
}
330
F104
100
AcDbXrecord
280
     1
102
SHADEPLOT
 70
     0
102
SHADEPLOTRESLEVEL
 70
     2
102
SHADEPLOTCUSTOMDPI
 70
   300
  0
XRECORD
  5
F107
102
{ACAD_REACTORS
330
F106
102
}
330
F106
100
AcDbXrecord
280
     1
102
SHADEPLOT
 70
     0
102
SHADEPLOTRESLEVEL
 70
     2
102
SHADEPLOTCUSTOMDPI
 70
   300
  0
XRECORD
  5
F109
102
{ACAD_REACTORS
330
F108
102
}
330
F108
100
AcDbXrecord
280
     1
102
SHADEPLOT
 70
     0
102
SHADEPLOTRESLEVEL
 70
     2
102
SHADEPLOTCUSTOMDPI
 70
   300
  0
XRECORD
  5
F10B
102
{ACAD_REACTORS
330
F10A
102
}
330
F10A
100
AcDbXrecord
280
     1
102
SHADEPLOT
 70
     0
102
SHADEPLOTRESLEVEL
 70
     2
102
SHADEPLOTCUSTOMDPI
 70
   300
  0
XRECORD
  5
F10D
102
{ACAD_REACTORS
330
F10C
102
}
330
F10C
100
AcDbXrecord
280
     1
102
SHADEPLOT
 70
     0
102
SHADEPLOTRESLEVEL
 70
     2
102
SHADEPLOTCUSTOMDPI
 70
   300
  0
XRECORD
  5
F10F
102
{ACAD_REACTORS
330
F10E
102
}
330
F10E
100
AcDbXrecord
280
     1
102
SHADEPLOT
 70
     0
102
SHADEPLOTRESLEVEL
 70
     2
102
SHADEPLOTCUSTOMDPI
 70
   300
  0
XRECORD
  5
F0E1
102
{ACAD_REACTORS
330
F0E0
102
}
330
F0E0
100
AcDbXrecord
280
     1
102
ACAD_ROUNDTRIP_PRE2007_TABLESTYLE
 90
        4
 91
        0
  1

 92
        4
 93
        0
  2

 94
        4
 95
        0
  3

  0
ENDSEC
  0
EOF
