  0
SECTION
  2
HEADER
  9
$ACADVER
  1
AC1015
  9
$ACADMAINTVER
 70
    20
  9
$DWGCODEPAGE
  3
ANSI_932
  9
$INSBASE
 10
0.0
 20
0.0
 30
0.0
  9
$EXTMIN
 10
-0.0640820246935618
 20
-0.0453151460337722
 30
-0.0015258207003583
  9
$EXTMAX
 10
2100.064091803581
 20
1485.045322061103
 30
0.0000000349246037
  9
$LIMMIN
 10
0.0
 20
0.0
  9
$LIMMAX
 10
2100.0
 20
1485.0
  9
$ORTHOMODE
 70
     0
  9
$REGENMODE
 70
     1
  9
$FILLMODE
 70
     1
  9
$QTEXTMODE
 70
     0
  9
$MIRRTEXT
 70
     0
  9
$LTSCALE
 40
5.0
  9
$ATTMODE
 70
     1
  9
$TEXTSIZE
 40
3.2
  9
$TRACEWID
 40
1.0
  9
$TEXTSTYLE
  7
STANDARD
  9
$CLAYER
  8
AM_6
  9
$CELTYPE
  6
ByLayer
  9
$CECOLOR
 62
   256
  9
$CELTSCALE
 40
1.0
  9
$DISPSILH
 70
     0
  9
$DIMSCALE
 40
1.0
  9
$DIMASZ
 40
1.0
  9
$DIMEXO
 40
1.0
  9
$DIMDLI
 40
10.0
  9
$DIMRND
 40
0.0
  9
$DIMDLE
 40
0.0
  9
$DIMEXE
 40
1.0
  9
$DIMTP
 40
0.1
  9
$DIMTM
 40
0.1
  9
$DIMTXT
 40
3.5
  9
$DIMCEN
 40
0.0
  9
$DIMTSZ
 40
0.0
  9
$DIMTOL
 70
     0
  9
$DIMLIM
 70
     0
  9
$DIMTIH
 70
     0
  9
$DIMTOH
 70
     0
  9
$DIMSE1
 70
     0
  9
$DIMSE2
 70
     0
  9
$DIMTAD
 70
     1
  9
$DIMZIN
 70
     8
  9
$DIMBLK
  1

  9
$DIMASO
 70
     1
  9
$DIMSHO
 70
     1
  9
$DIMPOST
  1

  9
$DIMAPOST
  1
"
  9
$DIMALT
 70
     0
  9
$DIMALTD
 70
     2
  9
$DIMALTF
 40
0.0393701
  9
$DIMLFAC
 40
1.0
  9
$DIMTOFL
 70
     1
  9
$DIMTVP
 40
0.0
  9
$DIMTIX
 70
     0
  9
$DIMSOXD
 70
     0
  9
$DIMSAH
 70
     0
  9
$DIMBLK1
  1

  9
$DIMBLK2
  1

  9
$DIMSTYLE
  2
SYS
  9
$DIMCLRD
 70
   256
  9
$DIMCLRE
 70
   256
  9
$DIMCLRT
 70
     7
  9
$DIMTFAC
 40
0.71
  9
$DIMGAP
 40
1.5
  9
$DIMJUST
 70
     0
  9
$DIMSD1
 70
     0
  9
$DIMSD2
 70
     0
  9
$DIMTOLJ
 70
     0
  9
$DIMTZIN
 70
     8
  9
$DIMALTZ
 70
     0
  9
$DIMALTTZ
 70
     0
  9
$DIMUPT
 70
     0
  9
$DIMDEC
 70
     2
  9
$DIMTDEC
 70
     2
  9
$DIMALTU
 70
     2
  9
$DIMALTTD
 70
     2
  9
$DIMTXSTY
  7
STANDARD
  9
$DIMAUNIT
 70
     0
  9
$DIMADEC
 70
     0
  9
$DIMALTRND
 40
0.0
  9
$DIMAZIN
 70
     2
  9
$DIMDSEP
 70
    46
  9
$DIMATFIT
 70
     3
  9
$DIMFRAC
 70
     0
  9
$DIMLDRBLK
  1

  9
$DIMLUNIT
 70
     2
  9
$DIMLWD
 70
    -1
  9
$DIMLWE
 70
    -1
  9
$DIMTMOVE
 70
     0
  9
$LUNITS
 70
     2
  9
$LUPREC
 70
     2
  9
$SKETCHINC
 40
1.0
  9
$FILLETRAD
 40
5.0
  9
$AUNITS
 70
     0
  9
$AUPREC
 70
     0
  9
$MENU
  1
.
  9
$ELEVATION
 40
0.0
  9
$PELEVATION
 40
0.0
  9
$THICKNESS
 40
0.0
  9
$LIMCHECK
 70
     0
  9
$CHAMFERA
 40
0.0
  9
$CHAMFERB
 40
0.0
  9
$CHAMFERC
 40
20.0
  9
$CHAMFERD
 40
0.0
  9
$SKPOLY
 70
     0
  9
$TDCREATE
 40
2454134.451284178
  9
$TDUCREATE
 40
2454134.076284178
  9
$TDUPDATE
 40
2454279.384154722
  9
$TDUUPDATE
 40
2454279.009154722
  9
$TDINDWG
 40
0.0722887731
  9
$TDUSRTIMER
 40
0.0722885880
  9
$USRTIMER
 70
     1
  9
$ANGBASE
 50
0.0
  9
$ANGDIR
 70
     0
  9
$PDMODE
 70
     0
  9
$PDSIZE
 40
-3.0
  9
$PLINEWID
 40
0.0
  9
$SPLFRAME
 70
     0
  9
$SPLINETYPE
 70
     6
  9
$SPLINESEGS
 70
     8
  9
$HANDSEED
  5
DB0E
  9
$SURFTAB1
 70
     6
  9
$SURFTAB2
 70
     6
  9
$SURFTYPE
 70
     6
  9
$SURFU
 70
     6
  9
$SURFV
 70
     6
  9
$UCSBASE
  2

  9
$UCSNAME
  2

  9
$UCSORG
 10
0.0
 20
0.0
 30
0.0
  9
$UCSXDIR
 10
1.0
 20
0.0
 30
0.0
  9
$UCSYDIR
 10
0.0
 20
1.0
 30
0.0
  9
$UCSORTHOREF
  2

  9
$UCSORTHOVIEW
 70
     0
  9
$UCSORGTOP
 10
0.0
 20
0.0
 30
0.0
  9
$UCSORGBOTTOM
 10
0.0
 20
0.0
 30
0.0
  9
$UCSORGLEFT
 10
0.0
 20
0.0
 30
0.0
  9
$UCSORGRIGHT
 10
0.0
 20
0.0
 30
0.0
  9
$UCSORGFRONT
 10
0.0
 20
0.0
 30
0.0
  9
$UCSORGBACK
 10
0.0
 20
0.0
 30
0.0
  9
$PUCSBASE
  2

  9
$PUCSNAME
  2

  9
$PUCSORG
 10
0.0
 20
0.0
 30
0.0
  9
$PUCSXDIR
 10
1.0
 20
0.0
 30
0.0
  9
$PUCSYDIR
 10
0.0
 20
1.0
 30
0.0
  9
$PUCSORTHOREF
  2

  9
$PUCSORTHOVIEW
 70
     0
  9
$PUCSORGTOP
 10
0.0
 20
0.0
 30
0.0
  9
$PUCSORGBOTTOM
 10
0.0
 20
0.0
 30
0.0
  9
$PUCSORGLEFT
 10
0.0
 20
0.0
 30
0.0
  9
$PUCSORGRIGHT
 10
0.0
 20
0.0
 30
0.0
  9
$PUCSORGFRONT
 10
0.0
 20
0.0
 30
0.0
  9
$PUCSORGBACK
 10
0.0
 20
0.0
 30
0.0
  9
$USERI1
 70
     0
  9
$USERI2
 70
     0
  9
$USERI3
 70
     0
  9
$USERI4
 70
     0
  9
$USERI5
 70
     0
  9
$USERR1
 40
0.0
  9
$USERR2
 40
0.0
  9
$USERR3
 40
0.0
  9
$USERR4
 40
0.0
  9
$USERR5
 40
0.0
  9
$WORLDVIEW
 70
     1
  9
$SHADEDGE
 70
     3
  9
$SHADEDIF
 70
    70
  9
$TILEMODE
 70
     1
  9
$MAXACTVP
 70
    64
  9
$PINSBASE
 10
0.0
 20
0.0
 30
0.0
  9
$PLIMCHECK
 70
     0
  9
$PEXTMIN
 10
1.000000000000000E+20
 20
1.000000000000000E+20
 30
1.000000000000000E+20
  9
$PEXTMAX
 10
-1.000000000000000E+20
 20
-1.000000000000000E+20
 30
-1.000000000000000E+20
  9
$PLIMMIN
 10
-3.17498779296875
 20
-3.174999952316283
  9
$PLIMMAX
 10
293.4970092773438
 20
206.692492723465
  9
$UNITMODE
 70
     0
  9
$VISRETAIN
 70
     1
  9
$PLINEGEN
 70
     0
  9
$PSLTSCALE
 70
     1
  9
$TREEDEPTH
 70
  3020
  9
$CMLSTYLE
  2
Standard
  9
$CMLJUST
 70
     0
  9
$CMLSCALE
 40
20.0
  9
$PROXYGRAPHICS
 70
     1
  9
$MEASUREMENT
 70
     1
  9
$CELWEIGHT
370
    -1
  9
$ENDCAPS
280
     0
  9
$JOINSTYLE
280
     0
  9
$LWDISPLAY
290
     0
  9
$INSUNITS
 70
     4
  9
$HYPERLINKBASE
  1

  9
$STYLESHEET
  1
MONOCHROME.CTB
  9
$XEDIT
290
     1
  9
$CEPSNTYPE
380
     0
  9
$PSTYLEMODE
290
     1
  9
$FINGERPRINTGUID
  2
{3DD094A3-7F9B-45BB-A0C6-9634CE59286E}
  9
$VERSIONGUID
  2
{45B63C96-35EA-475C-A1FF-BECBC8387A3F}
  9
$EXTNAMES
290
     1
  9
$PSVPSCALE
 40
0.0
  9
$OLESTARTUP
290
     0
  0
ENDSEC
  0
SECTION
  2
CLASSES
  0
CLASS
  1
ACDBDICTIONARYWDFLT
  2
AcDbDictionaryWithDefault
  3
ObjectDBX Classes
 90
        0
280
     0
281
     0
  0
CLASS
  1
ACDBPLACEHOLDER
  2
AcDbPlaceHolder
  3
ObjectDBX Classes
 90
        0
280
     0
281
     0
  0
CLASS
  1
LAYOUT
  2
AcDbLayout
  3
ObjectDBX Classes
 90
        0
280
     0
281
     0
  0
CLASS
  1
AMGSETTINGSOBJ
  2
AmgSettingsObj
  3
"AcadM|Product Description: AutoCAD Mechanical|Company: Autodesk"
 90
        0
280
     0
281
     0
  0
CLASS
  1
ACME_DOCUMENT
  2
AcMeDbDoc
  3
AcMeServices
 90
        0
280
     0
281
     0
  0
CLASS
  1
ACMESCOPE
  2
AcMeScope
  3
AcMeServices
 90
        0
280
     0
281
     0
  0
CLASS
  1
ACMECOMMANDHISTORY
  2
AcMeCommandHistory
  3
AcMeServices
 90
        0
280
     0
281
     0
  0
CLASS
  1
DICTIONARYVAR
  2
AcDbDictionaryVar
  3
ObjectDBX Classes
 90
        0
280
     0
281
     0
  0
CLASS
  1
ACIMSYSVARMAN
  2
AcImSysVarManager
  3
AcMeServices
 90
        0
280
     0
281
     0
  0
CLASS
  1
ACIMREALSYSVAR
  2
AcImRealSysVar
  3
AcMeServices
 90
        0
280
     0
281
     0
  0
CLASS
  1
ACIMINTSYSVAR
  2
AcImIntSysVar
  3
AcMeServices
 90
        0
280
     0
281
     0
  0
CLASS
  1
ACMEDRAWINGMAN
  2
AcMeDrawingMan
  3
AcMeServices
 90
        0
280
     0
281
     0
  0
CLASS
  1
ACMEVIEW
  2
AcMeView
  3
AcMeServices
 90
        0
280
     0
281
     0
  0
CLASS
  1
ACDBENTITYCACHE
  2
AcMeEntityCache
  3
AcMeServices
 90
        0
280
     0
281
     0
  0
CLASS
  1
GSMANAGER
  2
AcMeGSManager
  3
AcMeServices
 90
        0
280
     0
281
     0
  0
CLASS
  1
AMDTINTERNALREACTOR
  2
AmdtInternalReactor
  3
AcMeServices
 90
        0
280
     0
281
     0
  0
CLASS
  1
ACMESTATEMGR
  2
AcMeStateMgr
  3
AcMeServices
 90
        0
280
     0
281
     0
  0
CLASS
  1
ACGREFMASTER
  2
AcGrefMaster
  3
AcAttribServices
 90
        0
280
     0
281
     0
  0
CLASS
  1
ACME_DATABASE
  2
AcMeDbDatabase
  3
AcMeServices
 90
        0
280
     0
281
     0
  0
CLASS
  1
ACRFINSADJUSTERMGR
  2
AcRfInsAdjusterMgr
  3
AcMeServices
 90
        0
280
     0
281
     0
  0
CLASS
  1
ACGREFACADMASTER
  2
AcGrefacadMaster
  3
AcGrefServices
 90
        0
280
     0
281
     0
  0
CLASS
  1
AMIMASTER
  2
AmiMaster
  3
AmiServices
 90
        0
280
     0
281
     0
  0
CLASS
  1
ACMDATADICTIONARY
  2
AcmDataDictionary
  3
"AcmSymBB|Product Description: AutoCAD Mechanical|Company: Autodesk"
 90
        0
280
     0
281
     0
  0
CLASS
  1
ACMDATAENTRYBLOCK
  2
AcmDataEntryBlock
  3
"AcmSymBB|Product Description: AutoCAD Mechanical|Company: Autodesk"
 90
    32768
280
     0
281
     0
  0
CLASS
  1
ACIMSTRSYSVAR
  2
AcImStrSysVar
  3
AcMeServices
 90
        0
280
     0
281
     0
  0
CLASS
  1
ACMSTANDARDISO
  2
AcmStandardISO
  3
"Amdt_StdImp|Product Description: AutoCAD Mechanical|Company: Autodesk"
 90
        0
280
     0
281
     0
  0
CLASS
  1
AMGOBJPROPCFG
  2
AmgObjPropCfg
  3
"AmgLay|Product Description: AutoCAD Mechanical|Company: Autodesk"
 90
        1
280
     0
281
     0
  0
CLASS
  1
AMDTEDGESTANDARDISO
  2
AmdtEdgeStdISO
  3
"Amdt_StdImp|Product Description: AutoCAD Mechanical|Company: Autodesk"
 90
    32768
280
     0
281
     0
  0
CLASS
  1
ACMSURFSTANDARDISO
  2
AcmSurfTextStdISO
  3
"Amdt_StdImp|Product Description: AutoCAD Mechanical|Company: Autodesk"
 90
        0
280
     0
281
     0
  0
CLASS
  1
ACMFCFSTANDARDISO
  2
AcmFCFStdISO
  3
"Amdt_StdImp|Product Description: AutoCAD Mechanical|Company: Autodesk"
 90
        0
280
     0
281
     0
  0
CLASS
  1
ACMWELDSTANDARDISO
  2
AcmWeldingStdISO
  3
"Amdt_StdImp|Product Description: AutoCAD Mechanical|Company: Autodesk"
 90
        0
280
     0
281
     0
  0
CLASS
  1
ACMIDSTANDARDISO
  2
AcmIdStdISO
  3
"Amdt_StdImp|Product Description: AutoCAD Mechanical|Company: Autodesk"
 90
        0
280
     0
281
     0
  0
CLASS
  1
ACMDATUMSTANDARDISO
  2
AcmDatumStdISO
  3
"Amdt_StdImp|Product Description: AutoCAD Mechanical|Company: Autodesk"
 90
        0
280
     0
281
     0
  0
CLASS
  1
ACMBOMSTANDARDISO
  2
AcmBOMStdISO
  3
"Amdt_StdImp|Product Description: AutoCAD Mechanical|Company: Autodesk"
 90
        0
280
     0
281
     0
  0
CLASS
  1
ACMDETAILSTANDARDISO
  2
AmdtDetailSymStdISO
  3
"Amdt_StdImp|Product Description: AutoCAD Mechanical|Company: Autodesk"
 90
        0
280
     0
281
     0
  0
CLASS
  1
ACMSECTIONSTANDARDISO
  2
AmdtSectionSymStdISO
  3
"Amdt_StdImp|Product Description: AutoCAD Mechanical|Company: Autodesk"
 90
        0
280
     0
281
     0
  0
CLASS
  1
ACMCENTERLINESTANDARDISO
  2
AmdtCenterLineStdISO
  3
"Amdt_StdImp|Product Description: AutoCAD Mechanical|Company: Autodesk"
 90
        0
280
     0
281
     0
  0
CLASS
  1
ACAMGLAYSTD
  2
AcAmgLayStd
  3
"AmgLay|Product Description: AutoCAD Mechanical|Company: Autodesk"
 90
        0
280
     0
281
     0
  0
CLASS
  1
ACAMGDIMSTD
  2
AcAmgDimStd
  3
"AmgDim|Product Description: AutoCAD Mechanical|Company: Autodesk"
 90
        0
280
     0
281
     0
  0
CLASS
  1
ACAMGTITLESTD
  2
AcAmgTitleStd
  3
"AmgTitle|Product Description: AutoCAD Mechanical|Company: Autodesk"
 90
        0
280
     0
281
     0
  0
CLASS
  1
ACAMGFILTERDAT
  2
AcAmgFilterDat
  3
"AcadM|Product Description: AutoCAD Mechanical|Company: Autodesk"
 90
    32768
280
     0
281
     0
  0
CLASS
  1
LAYER_INDEX
  2
AcDbLayerIndex
  3
ObjectDBX Classes
 90
    32768
280
     0
281
     0
  0
CLASS
  1
IDBUFFER
  2
AcDbIdBuffer
  3
ObjectDBX Classes
 90
    32768
280
     0
281
     0
  0
CLASS
  1
PLOTSETTINGS
  2
AcDbPlotSettings
  3
ObjectDBX Classes
 90
        0
280
     0
281
     0
  0
CLASS
  1
AMDTFORMULAUPDATEDISPATCHER
  2
AmdtFormulaUpdateDispatcher
  3
AcMeServices
 90
    32768
280
     0
281
     0
  0
CLASS
  1
ACMSTANDARDANSI
  2
AcmStandardANSI
  3
"Amdt_StdImp|Product Description: AutoCAD Mechanical|Company: Autodesk"
 90
    32768
280
     0
281
     0
  0
CLASS
  1
ACMSURFSTANDARDANSI
  2
AcmSurfTextStdANSI
  3
"Amdt_StdImp|Product Description: AutoCAD Mechanical|Company: Autodesk"
 90
    32768
280
     0
281
     0
  0
CLASS
  1
ACMFCFSTANDARDANSI
  2
AcmFCFStdANSI
  3
"Amdt_StdImp|Product Description: AutoCAD Mechanical|Company: Autodesk"
 90
    32768
280
     0
281
     0
  0
CLASS
  1
ACMWELDSTANDARDANSI
  2
AcmWeldingStdANSI
  3
"Amdt_StdImp|Product Description: AutoCAD Mechanical|Company: Autodesk"
 90
    32768
280
     0
281
     0
  0
CLASS
  1
ACMIDSTANDARDANSI
  2
AcmIdStdANSI
  3
"Amdt_StdImp|Product Description: AutoCAD Mechanical|Company: Autodesk"
 90
    32768
280
     0
281
     0
  0
CLASS
  1
ACMDATUMSTANDARDANSI
  2
AcmDatumStdANSI
  3
"Amdt_StdImp|Product Description: AutoCAD Mechanical|Company: Autodesk"
 90
    32768
280
     0
281
     0
  0
CLASS
  1
ACMBOMSTANDARDANSI
  2
AcmBOMStdANSI
  3
"Amdt_StdImp|Product Description: AutoCAD Mechanical|Company: Autodesk"
 90
    32768
280
     0
281
     0
  0
CLASS
  1
ACMDETAILSTANDARDANSI
  2
AmdtDetailSymStdANSI
  3
"Amdt_StdImp|Product Description: AutoCAD Mechanical|Company: Autodesk"
 90
    32768
280
     0
281
     0
  0
CLASS
  1
ACMSECTIONSTANDARDANSI
  2
AmdtSectionSymStdANSI
  3
"Amdt_StdImp|Product Description: AutoCAD Mechanical|Company: Autodesk"
 90
    32768
280
     0
281
     0
  0
CLASS
  1
ACMCENTERLINESTANDARDANSI
  2
AmdtCenterLineStdANSI
  3
"Amdt_StdImp|Product Description: AutoCAD Mechanical|Company: Autodesk"
 90
    32768
280
     0
281
     0
  0
CLASS
  1
ACMBOM
  2
AcmBom
  3
"AcmSymBB|Product Description: AutoCAD Mechanical|Company: Autodesk"
 90
    32768
280
     0
281
     0
  0
CLASS
  1
ACMDATAENTRYPART
  2
AcmDataEntryPart
  3
"AcmSymBB|Product Description: AutoCAD Mechanical|Company: Autodesk"
 90
    32768
280
     0
281
     0
  0
CLASS
  1
ACMPARTREF
  2
AcmPartRef
  3
"AcmSymBB|Product Description: AutoCAD Mechanical|Company: Autodesk"
 90
    35839
280
     0
281
     1
  0
CLASS
  1
ACDBCIRCARCRES
  2
AcDbCircArcRes
  3
AcGrefServices
 90
    32768
280
     0
281
     0
  0
CLASS
  1
ACMBOMROW
  2
AcmBomRow
  3
"AcmSymBB|Product Description: AutoCAD Mechanical|Company: Autodesk"
 90
    32768
280
     0
281
     0
  0
CLASS
  1
ACMBALLOON
  2
AcmBalloon
  3
"AcmSymBB|Product Description: AutoCAD Mechanical|Company: Autodesk"
 90
    35839
280
     0
281
     1
  0
CLASS
  1
AMDTNOTE
  2
AmdtNote
  3
"AcmSymBB|Product Description: AutoCAD Mechanical|Company: Autodesk"
 90
    35839
280
     0
281
     1
  0
CLASS
  1
STDPART2D
  2
AmgStdPart
  3
"g3vace|Class: AmgStdPart|Product Description: AutoCAD Mechanical|Company: Autodesk"
 90
    35839
280
     0
281
     1
  0
CLASS
  1
ACDBSTDPARTRES_LINE
  2
AcDbStdPartRes_Line
  3
"g3vace|Class: AcDbStdPartRes_Line|Product Description: AutoCAD Mechanical|Company: Autodesk"
 90
    32768
280
     0
281
     0
  0
CLASS
  1
ACMDATAENTRY
  2
AcmDataEntry
  3
"AcmSymBB|Product Description: AutoCAD Mechanical|Company: Autodesk"
 90
    32768
280
     0
281
     0
  0
CLASS
  1
ACDBOPPOLYLINERES
  2
AcDbOpPolylineRes
  3
AcGrefServices
 90
    32768
280
     0
281
     0
  0
CLASS
  1
ACMPARTLIST
  2
AcmPartList
  3
"AcmSymBB|Product Description: AutoCAD Mechanical|Company: Autodesk"
 90
    35839
280
     0
281
     1
  0
CLASS
  1
ACDBLINERES
  2
AcDbLineRes
  3
AcGrefServices
 90
    32768
280
     0
281
     0
  0
CLASS
  1
ACRFINSADJ
  2
AcRfInsAdjuster
  3
AcMeServices
 90
    32768
280
     0
281
     0
  0
CLASS
  1
AM_DRAWING_MGR
  2
AcDmDwgMgr
  3
AcMechDwgViewMgmt
 90
        0
280
     0
281
     0
  0
CLASS
  1
AM_DWG_DOCUMENT
  2
AcDmDwgDocument
  3
AcMechDwgViewMgmt
 90
        0
280
     0
281
     0
  0
CLASS
  1
AM_DWG_SHEET
  2
AcDmSheet
  3
AcMechDwgViewMgmt
 90
        0
280
     0
281
     0
  0
CLASS
  1
AM_VIEWDIMPARMAP
  2
AcDmViewDimParMap
  3
AcMechDwgViewMgmt
 90
        0
280
     0
281
     0
  0
CLASS
  1
AM_DWGMGR_NAME
  2
AcDmDwgMgrName
  3
AcMechDwgViewMgmt
 90
        0
280
     0
281
     0
  0
CLASS
  1
AMDTMENUSTATEMGR
  2
AmdtMenuStateMgr
  3
McadcomServices
 90
        0
280
     0
281
     0
  0
CLASS
  1
AMDTMCOMMENUSTATE
  2
AmdtMcomMenuState
  3
McadcomServices
 90
        0
280
     0
281
     0
  0
CLASS
  1
ASAPP
  2
AcAsAppObject
  3
AutoSurfServices
 90
        0
280
     0
281
     0
  0
CLASS
  1
IM_STATIC_MAN
  2
AcImStaticVarManager
  3
AcMeServices
 90
    32768
280
     0
281
     0
  0
CLASS
  1
ACIMDBLSTATICVAR
  2
AcImDblStaticVar
  3
AcMeServices
 90
    32768
280
     0
281
     0
  0
CLASS
  1
ACIMSTRSTATICVAR
  2
AcImStrStaticVar
  3
AcMeServices
 90
    32768
280
     0
281
     0
  0
CLASS
  1
ACIMINTSTATICVAR
  2
AcImIntStaticVar
  3
AcMeServices
 90
    32768
280
     0
281
     0
  0
CLASS
  1
ACASGREFMASTER
  2
AcAsGrefMaster
  3
AutoSurfResolverServices
 90
        0
280
     0
281
     0
  0
CLASS
  1
ACADGREFMODULE
  2
AcAdGrefModule
  3
AdGrefServices
 90
        0
280
     0
281
     0
  0
CLASS
  1
AMDTMAPISURFMOUDULE
  2
AmdtMApiSurfModule
  3
MApiSurfServices
 90
        0
280
     0
281
     0
  0
CLASS
  1
MAPIAMMOUDLE
  2
MApiAmModule
  3
MApiAmServices
 90
        0
280
     0
281
     0
  0
CLASS
  1
AMDTADMENUSTATE
  2
AmdtAdMenuState
  3
DesignerServices
 90
        0
280
     0
281
     0
  0
CLASS
  1
ADAPPL
  2
AcAdAppl
  3
DesignerServices
 90
        0
280
     0
281
     0
  0
CLASS
  1
DEPMGR
  2
AcAdDepMgr
  3
DesignerServices
 90
        0
280
     0
281
     0
  0
CLASS
  1
PARAMMGR
  2
AcAdParamMgr
  3
DesignerServices
 90
        0
280
     0
281
     0
  0
CLASS
  1
PARAMSCOPE
  2
AcAdParamScope
  3
DesignerServices
 90
        0
280
     0
281
     0
  0
CLASS
  1
NAMEDAPPL
  2
AcAdNamedAppl
  3
DesignerServices
 90
        0
280
     0
281
     0
  0
CLASS
  1
ADHNTMPLT
  2
AdHoleNoteTemplateMgr
  3
DesignerServices
 90
    32768
280
     0
281
     0
  0
CLASS
  1
AM_HNTEMPLATE_MGR_NAME
  2
AdHoleNoteTemplateMgrName
  3
DesignerServices
 90
    32768
280
     0
281
     0
  0
CLASS
  1
AMDTDMMENUSTATE
  2
AmdtDmMenuState
  3
AcMechDwgViewMgmt
 90
        0
280
     0
281
     0
  0
CLASS
  1
MAPIADMODULE
  2
MApiAdModule
  3
MApiAdServices
 90
        0
280
     0
281
     0
  0
CLASS
  1
AMDTAMMENUSTATE
  2
AmdtAmMenuState
  3
DesignerAssemblies
 90
        0
280
     0
281
     0
  0
CLASS
  1
ACAMPROJECT
  2
AcAmProject
  3
DesignerAssemblies
 90
        0
280
     0
281
     0
  0
CLASS
  1
ACAMGRCOMPDEF
  2
AcAmGrCompDef
  3
DesignerAssemblies
 90
        0
280
     0
281
     0
  0
CLASS
  1
ACCMCONTEXT
  2
AcCmContext
  3
DesignerAssemblies
 90
        0
280
     0
281
     0
  0
CLASS
  1
ACAMCOMPDEF
  2
AcAmCompDef
  3
DesignerAssemblies
 90
        0
280
     0
281
     0
  0
CLASS
  1
ACAMCOMPDEFMGR
  2
AcAmCompDefMgr
  3
DesignerAssemblies
 90
        0
280
     0
281
     0
  0
CLASS
  1
AMCONTEXTMGR
  2
AcAmContextMgr
  3
DesignerAssemblies
 90
        0
280
     0
281
     0
  0
CLASS
  1
ACAMCONTEXTMODELER
  2
AcAmContextModeler
  3
DesignerAssemblies
 90
        0
280
     0
281
     0
  0
CLASS
  1
CATALOGSTATE
  2
AcAmCatalogState
  3
DesignerAssemblies
 90
        0
280
     0
281
     0
  0
CLASS
  1
ACAMGRCOMPDEFSET
  2
AcAmGrCompDefSet
  3
DesignerAssemblies
 90
        0
280
     0
281
     0
  0
CLASS
  1
AMDTBROWSERDBTAB
  2
AmdtBrowserDbTab
  3
McadcomServices
 90
        0
280
     0
281
     0
  0
CLASS
  1
CBROWSERAPPOBJECT
  2
CBrowserAppObject
  3
McadcomServices
 90
        0
280
     0
281
     0
  0
CLASS
  1
DM_PLACEHOLDER
  2
AcDmSelsetPlaceholder
  3
AcMechDwgViewMgmt
 90
        0
280
     0
281
     0
  0
CLASS
  1
ACMPICKOBJ
  2
AcmPickEnt
  3
"AcmSymBB|Product Description: AutoCAD Mechanical|Company: Autodesk"
 90
    32768
280
     0
281
     1
  0
CLASS
  1
ACMNOTESTANDARDISO
  2
AmdtNoteStdISO
  3
"Amdt_StdImp|Product Description: AutoCAD Mechanical|Company: Autodesk"
 90
        0
280
     0
281
     0
  0
CLASS
  1
ACMNOTESTANDARDANSI
  2
AmdtNoteStdANSI
  3
"Amdt_StdImp|Product Description: AutoCAD Mechanical|Company: Autodesk"
 90
    32768
280
     0
281
     0
  0
CLASS
  1
ACMTHREADLINESTANDARDISO
  2
AmdtThreadLineStdISO
  3
"Amdt_StdImp|Product Description: AutoCAD Mechanical|Company: Autodesk"
 90
        0
280
     0
281
     0
  0
CLASS
  1
ACMTHREADLINESTANDARDANSI
  2
AmdtThreadLineStdANSI
  3
"Amdt_StdImp|Product Description: AutoCAD Mechanical|Company: Autodesk"
 90
    32768
280
     0
281
     0
  0
CLASS
  1
TABLESTYLE
  2
AcDbTableStyle
  3
ObjectDBX Classes
 90
     4095
280
     0
281
     0
  0
CLASS
  1
SORTENTSTABLE
  2
AcDbSortentsTable
  3
ObjectDBX Classes
 90
        0
280
     0
281
     0
  0
CLASS
  1
DIMASSOC
  2
AcDbDimAssoc
  3
"AcDbDimAssoc|Product Desc:     AcDim ARX App For Dimension|Company:          Autodesk, Inc.|WEB Address:      www.autodesk.com"
 90
        0
280
     0
281
     0
  0
CLASS
  1
AMDTNOTETEMPLATEDB
  2
AmdtNoteTemplateDB
  3
AMDT_STDIMP_MODULE_NAME
 90
        0
280
     0
281
     0
  0
CLASS
  1
ACAMGHOLECHARTSTDANSI
  2
AcAmgHoleChartStdANSI
  3
ACMSYMBB_MODULE_NAME
 90
    32768
280
     0
281
     0
  0
CLASS
  1
MATERIAL
  2
AcDbMaterial
  3
ObjectDBX Classes
 90
     1024
280
     0
281
     0
  0
CLASS
  1
VISUALSTYLE
  2
AcDbVisualStyle
  3
ObjectDBX Classes
 90
     4095
280
     0
281
     0
  0
CLASS
  1
ACRFATTGENMGR
  2
AcRfAttGeneralMgr
  3
AcAttribServices
 90
    32768
280
     0
281
     0
  0
CLASS
  1
ACRFOBJATTMGR
  2
AcRfObjAttGroupMgr
  3
AcAttribServices
 90
    32768
280
     0
281
     0
  0
CLASS
  1
ACRFMCADAPIATTHOLDER
  2
AcRfMCADAPIAttHolder
  3
AcAttribServices
 90
    32768
280
     0
281
     0
  0
CLASS
  1
AMDTSYSATTR
  2
AmdtSystemAttribute
  3
AcAttribServices
 90
    32768
280
     0
281
     0
  0
CLASS
  1
ACMTAPERSTANDARDISO
  2
AcmTaperStdISO
  3
"Amdt_StdImp|Product Description: AutoCAD Mechanical|Company: Autodesk"
 90
        0
280
     0
281
     0
  0
CLASS
  1
ACMTAPERSTANDARDANSI
  2
AcmTaperStdANSI
  3
"Amdt_StdImp|Product Description: AutoCAD Mechanical|Company: Autodesk"
 90
    32768
280
     0
281
     0
  0
CLASS
  1
CAMSSTRUCTBTNSTATE
  2
StructBtnState
  3
L"DesignerAssemblies"
 90
    32768
280
     0
281
     0
  0
CLASS
  1
AMDTEDGESTANDARDISO13715
  2
AmdtEdgeStdISO13715
  3
"Amdt_StdImp|Product Description: AutoCAD Mechanical|Company: Autodesk"
 90
        0
280
     0
281
     0
  0
CLASS
  1
ACAMGHOLECHARTSTDISO
  2
AcAmgHoleChartStdISO
  3
ACMSYMBB_MODULE_NAME
 90
        0
280
     0
281
     0
  0
ENDSEC
  0
SECTION
  2
TABLES
  0
TABLE
  2
VPORT
  5
8
330
0
100
AcDbSymbolTable
 70
     1
  0
VPORT
  5
D8F6
330
8
100
AcDbSymbolTableRecord
100
AcDbViewportTableRecord
  2
*Active
 70
     0
 10
0.0
 20
0.0
 11
1.0
 21
1.0
 12
1774.164563339365
 22
1047.583129597705
 13
0.0
 23
0.0
 14
12.5
 24
12.5
 15
50.0
 25
50.0
 16
0.0
 26
0.0
 36
1.0
 17
0.0
 27
0.0
 37
0.0
 40
936.3463774537486
 41
1.246867167919799
 42
50.0
 43
-1370.695619172058
 44
-1370.695619172058
 50
0.0
 51
0.0
 71
     0
 72
   100
 73
     1
 74
     3
 75
     0
 76
     0
 77
     0
 78
     0
281
     0
 65
     0
110
0.0
120
0.0
130
0.0
111
1.0
121
0.0
131
0.0
112
0.0
122
1.0
132
0.0
 79
     0
146
0.0
  0
ENDTAB
  0
TABLE
  2
LTYPE
  5
5
330
0
100
AcDbSymbolTable
 70
    42
  0
LTYPE
  5
14
330
5
100
AcDbSymbolTableRecord
100
AcDbLinetypeTableRecord
  2
ByBlock
 70
     0
  3

 72
    65
 73
     0
 40
0.0
  0
LTYPE
  5
15
330
5
100
AcDbSymbolTableRecord
100
AcDbLinetypeTableRecord
  2
ByLayer
 70
     0
  3

 72
    65
 73
     0
 40
0.0
  0
LTYPE
  5
16
330
5
100
AcDbSymbolTableRecord
100
AcDbLinetypeTableRecord
  2
Continuous
 70
     0
  3
Solid line
 72
    65
 73
     0
 40
0.0
  0
LTYPE
  5
4F
330
5
100
AcDbSymbolTableRecord
100
AcDbLinetypeTableRecord
  2
AM_ISO02W050
 70
     0
  3
__ __ __ __ __ __ __ __ __ __ __ __ __ __ __
 72
    65
 73
     2
 40
7.5
 49
6.0
 74
     0
 49
-1.5
 74
     0
  0
LTYPE
  5
52
330
5
100
AcDbSymbolTableRecord
100
AcDbLinetypeTableRecord
  2
Amconstr
 70
     0
  3
_______________________
 72
    65
 73
     2
 40
9999.0
 49
9999.0
 74
     0
 49
0.0
 74
     0
  0
LTYPE
  5
64
330
5
100
AcDbSymbolTableRecord
100
AcDbLinetypeTableRecord
  2
ACISOWELD
 70
     0
  3
_ _ _ _ _
 72
    65
 73
     2
 40
2.0
 49
2.0
 74
     0
 49
-1.0
 74
     0
  0
LTYPE
  5
65
330
5
100
AcDbSymbolTableRecord
100
AcDbLinetypeTableRecord
  2
ACISOTGB
 70
     0
  3
__ . . __ . .
 72
    65
 73
     6
 40
9.0
 49
4.0
 74
     0
 49
-1.0
 74
     0
 49
1.0
 74
     0
 49
-1.0
 74
     0
 49
1.0
 74
     0
 49
-1.0
 74
     0
  0
LTYPE
  5
66
330
5
100
AcDbSymbolTableRecord
100
AcDbLinetypeTableRecord
  2
ACISOTGL
 70
     0
  3
_ _ _ _ _
 72
    65
 73
     2
 40
3.0
 49
2.0
 74
     0
 49
-1.0
 74
     0
  0
LTYPE
  5
69
330
5
100
AcDbSymbolTableRecord
100
AcDbLinetypeTableRecord
  2
CENTER
 70
     0
  3
__ . __
 72
    65
 73
     4
 40
7.0
 49
4.0
 74
     0
 49
-1.0
 74
     0
 49
1.0
 74
     0
 49
-1.0
 74
     0
  0
LTYPE
  5
A6E
330
5
100
AcDbSymbolTableRecord
100
AcDbLinetypeTableRecord
  2
PHANTOM2
 70
     0
  3
Phantom (.5x) ___ _ _ ___ _ _ ___ _ _ ___ _ _
 72
    65
 73
     6
 40
31.75
 49
15.875
 74
     0
 49
-3.174999999999998
 74
     0
 49
3.174999999999998
 74
     0
 49
-3.174999999999998
 74
     0
 49
3.174999999999998
 74
     0
 49
-3.174999999999998
 74
     0
  0
LTYPE
  5
4DED
330
5
100
AcDbSymbolTableRecord
100
AcDbLinetypeTableRecord
  2
中線
 70
     0
  3
___________________
 72
    65
 73
     2
 40
2.0
 49
1.0
 74
     0
 49
1.0
 74
     0
  0
LTYPE
  5
4DF6
330
5
100
AcDbSymbolTableRecord
100
AcDbLinetypeTableRecord
  2
細線
 70
     0
  3
___________________
 72
    65
 73
     2
 40
2.0
 49
1.0
 74
     0
 49
1.0
 74
     0
  0
LTYPE
  5
4DF7
330
5
100
AcDbSymbolTableRecord
100
AcDbLinetypeTableRecord
  2
太線
 70
     0
  3
___________________
 72
    65
 73
     2
 40
2.0
 49
1.0
 74
     0
 49
1.0
 74
     0
  0
LTYPE
  5
4EA7
330
5
100
AcDbSymbolTableRecord
100
AcDbLinetypeTableRecord
  2
文字
 70
     0
  3
_________________
 72
    65
 73
     2
 40
2.0
 49
1.0
 74
     0
 49
1.0
 74
     0
  0
LTYPE
  5
4EA9
330
5
100
AcDbSymbolTableRecord
100
AcDbLinetypeTableRecord
  2
寸法線
 70
     0
  3
________________
 72
    65
 73
     2
 40
2.0
 49
1.0
 74
     0
 49
1.0
 74
     0
  0
LTYPE
  5
4F12
330
5
100
AcDbSymbolTableRecord
100
AcDbLinetypeTableRecord
  2
ハッチング
 70
     0
  3
_________________
 72
    65
 73
     2
 40
2.0
 49
1.0
 74
     0
 49
1.0
 74
     0
  0
LTYPE
  5
5180
330
5
100
AcDbSymbolTableRecord
100
AcDbLinetypeTableRecord
  2
陰線1
 70
     0
  3
__ __ __ __
 72
    65
 73
     2
 40
4.0
 49
2.2
 74
     0
 49
-1.8
 74
     0
  0
LTYPE
  5
5182
330
5
100
AcDbSymbolTableRecord
100
AcDbLinetypeTableRecord
  2
切断線
 70
     0
  3
/\/-/\/-/\/-/\/-/\/-/\/
 72
    65
 73
     2
 40
11.0001
 49
0.0001
 74
     4
 75
   135
340
56
 46
0.04
 50
0.0
 44
0.0
 45
0.0
 49
-11.0
 74
     0
  0
LTYPE
  5
5183
330
5
100
AcDbSymbolTableRecord
100
AcDbLinetypeTableRecord
  2
想像線1
 70
     0
  3
__ __ __ _____ __ __ ____
 72
    65
 73
     6
 40
14.5
 49
6.0
 74
     0
 49
-1.5
 74
     0
 49
2.0
 74
     0
 49
-1.5
 74
     0
 49
2.0
 74
     0
 49
-1.5
 74
     0
  0
LTYPE
  5
5185
330
5
100
AcDbSymbolTableRecord
100
AcDbLinetypeTableRecord
  2
中心線1
 70
     0
  3
___ _ ___ _ ___
 72
    65
 73
     4
 40
18.0
 49
12.0
 74
     0
 49
-2.0
 74
     0
 49
2.0
 74
     0
 49
-2.0
 74
     0
  0
LTYPE
  5
5188
330
5
100
AcDbSymbolTableRecord
100
AcDbLinetypeTableRecord
  2
補助線
 70
     0
  3
______________
 72
    65
 73
     2
 40
2.0
 49
1.0
 74
     0
 49
1.0
 74
     0
  0
LTYPE
  5
6427
330
5
100
AcDbSymbolTableRecord
100
AcDbLinetypeTableRecord
  2
HIDDEN
 70
     0
  3
Hidden __ __ __ __ __ __ __ __ __ __ __ __ __ _
 72
    65
 73
     2
 40
0.375
 49
0.25
 74
     0
 49
-0.125
 74
     0
  0
LTYPE
  5
AC81
330
5
100
AcDbSymbolTableRecord
100
AcDbLinetypeTableRecord
  2
破断線
 70
     0
  3
/\/-/\/-/\/-/\/-/\/-/\/
 72
    65
 73
     2
 40
0.4401
 49
0.0001
 74
     4
 75
   136
340
AC80
 46
0.0016
 50
0.0
 44
0.0
 45
0.0
 49
-0.4400000000000002
 74
     0
  0
LTYPE
  5
AC9E
330
5
100
AcDbSymbolTableRecord
100
AcDbLinetypeTableRecord
  2
Amzigzag
 70
     0
  3
/\/-/\/-/\/-/\/-/\/-/\/
 72
    65
 73
     2
 40
11.0001
 49
0.0001
 74
     4
 75
   135
340
56
 46
0.04
 50
0.0
 44
0.0
 45
0.0
 49
-11.0
 74
     0
  0
LTYPE
  5
AF0F
330
5
100
AcDbSymbolTableRecord
100
AcDbLinetypeTableRecord
  2
genzigzag
 70
     0
  3
/\/-/\/-/\/-/\/-/\/-/\/
 72
    65
 73
     2
 40
12.0001
 49
0.0001
 74
     4
 75
   135
340
AC80
 46
2.0
 50
0.0
 44
0.0
 45
0.0
 49
-12.0
 74
     0
  0
LTYPE
  5
AF95
330
5
100
AcDbSymbolTableRecord
100
AcDbLinetypeTableRecord
  2
AM_ISO08W050
 70
     0
  3
____ . ____ . ____ . ____ . ____ . ____ . ____
 72
    65
 73
     4
 40
18.0
 49
12.0
 74
     0
 49
-1.5
 74
     0
 49
3.0
 74
     0
 49
-1.5
 74
     0
  0
LTYPE
  5
AF96
330
5
100
AcDbSymbolTableRecord
100
AcDbLinetypeTableRecord
  2
AM_ISO09W050
 70
     0
  3
_____ . . _____ . . _____ . . ____ .. ____
 72
    65
 73
     6
 40
22.5
 49
12.0
 74
     0
 49
-1.5
 74
     0
 49
3.0
 74
     0
 49
-1.5
 74
     0
 49
3.0
 74
     0
 49
-1.5
 74
     0
  0
LTYPE
  5
AF97
330
5
100
AcDbSymbolTableRecord
100
AcDbLinetypeTableRecord
  2
AM_ISO08W050x2
 70
     0
  3
__ . __ . __ . __ . __ . __
 72
    65
 73
     4
 40
9.0
 49
6.0
 74
     0
 49
-0.75
 74
     0
 49
1.5
 74
     0
 49
-0.75
 74
     0
  0
LTYPE
  5
AF98
330
5
100
AcDbSymbolTableRecord
100
AcDbLinetypeTableRecord
  2
AM_ISO02W050x2
 70
     0
  3
 _ _ _ _ _ _ _ _ _ _ _ _
 72
    65
 73
     2
 40
3.75
 49
3.0
 74
     0
 49
-0.75
 74
     0
  0
LTYPE
  5
CFD3
330
5
100
AcDbSymbolTableRecord
100
AcDbLinetypeTableRecord
  2
CENTER2
 70
     0
  3
----------  --  ----------  --  
 72
    65
 73
     4
 40
20.0
 49
12.5
 74
     0
 49
-2.5
 74
     0
 49
2.5
 74
     0
 49
-2.5
 74
     0
  0
LTYPE
  5
CFD4
330
5
100
AcDbSymbolTableRecord
100
AcDbLinetypeTableRecord
  2
PHANTOM
 70
     0
  3
---------   ---   ---   --------
 72
    65
 73
     6
 40
15.5
 49
8.0
 74
     0
 49
-1.5
 74
     0
 49
1.5
 74
     0
 49
-1.5
 74
     0
 49
1.5
 74
     0
 49
-1.5
 74
     0
  0
LTYPE
  5
CFD5
330
5
100
AcDbSymbolTableRecord
100
AcDbLinetypeTableRecord
  2
HIDDEN2
 70
     0
  3
Hidden (.5x) _ _ _ _ _ _ _ _ _ _ _ _ _ _ _ _ _
 72
    65
 73
     2
 40
0.1875
 49
0.125
 74
     0
 49
-0.0625
 74
     0
  0
LTYPE
  5
CFD6
330
5
100
AcDbSymbolTableRecord
100
AcDbLinetypeTableRecord
  2
Amzigzag2
 70
     0
  3
/\/-/\/-/\/-/\/-/\/-/\/
 72
    65
 73
     2
 40
0.4401
 49
0.0001
 74
     4
 75
   136
340
AC80
 46
0.0016
 50
0.0
 44
0.0
 45
0.0
 49
-0.4400000000000002
 74
     0
  0
LTYPE
  5
CFD7
330
5
100
AcDbSymbolTableRecord
100
AcDbLinetypeTableRecord
  2
ACANSTGB
 70
     0
  3
__ . . __ . .
 72
    65
 73
     6
 40
0.35433070866
 49
0.15748031496
 74
     0
 49
-0.03937007874
 74
     0
 49
0.03937007874
 74
     0
 49
-0.03937007874
 74
     0
 49
0.03937007874
 74
     0
 49
-0.03937007874
 74
     0
  0
LTYPE
  5
CFD8
330
5
100
AcDbSymbolTableRecord
100
AcDbLinetypeTableRecord
  2
ACANSTGL
 70
     0
  3
_ _ _ _ _
 72
    65
 73
     2
 40
0.11811023622
 49
0.07874015748
 74
     0
 49
-0.03937007874
 74
     0
  0
LTYPE
  5
D4B2
330
5
100
AcDbSymbolTableRecord
100
AcDbLinetypeTableRecord
  2
陰線2
 70
     0
  3
_ _ _ _
 72
    65
 73
     2
 40
1.199999999999999
 49
0.7
 74
     0
 49
-0.5
 74
     0
  0
LTYPE
  5
D4B3
330
5
100
AcDbSymbolTableRecord
100
AcDbLinetypeTableRecord
  2
想像線2
 70
     0
  3
__ _ _ __ _ _ __
 72
    65
 73
     6
 40
6.9
 49
2.5
 74
     0
 49
-0.8
 74
     0
 49
1.0
 74
     0
 49
-0.8
 74
     0
 49
1.0
 74
     0
 49
-0.8
 74
     0
  0
LTYPE
  5
D4B4
330
5
100
AcDbSymbolTableRecord
100
AcDbLinetypeTableRecord
  2
中心線2
 70
     0
  3
 -+-
 72
    65
 73
     4
 40
9.5
 49
6.0
 74
     0
 49
-1.0
 74
     0
 49
1.5
 74
     0
 49
-1.0
 74
     0
  0
LTYPE
  5
D4B5
330
5
100
AcDbSymbolTableRecord
100
AcDbLinetypeTableRecord
  2
中心線3
 70
     0
  3
 +
 72
    65
 73
     4
 40
3.799999999999998
 49
2.0
 74
     0
 49
-0.6
 74
     0
 49
0.6
 74
     0
 49
-0.6
 74
     0
  0
LTYPE
  5
D4B6
330
5
100
AcDbSymbolTableRecord
100
AcDbLinetypeTableRecord
  2
ACANSTGBM
 70
     0
  3
__ . . __ . .
 72
    65
 73
     6
 40
9.0
 49
4.0
 74
     0
 49
-1.0
 74
     0
 49
1.0
 74
     0
 49
-1.0
 74
     0
 49
1.0
 74
     0
 49
-1.0
 74
     0
  0
LTYPE
  5
D4B7
330
5
100
AcDbSymbolTableRecord
100
AcDbLinetypeTableRecord
  2
ACANSTGLM
 70
     0
  3
_ _ _ _ _
 72
    65
 73
     2
 40
3.0
 49
2.0
 74
     0
 49
-1.0
 74
     0
  0
LTYPE
  5
D4B8
330
5
100
AcDbSymbolTableRecord
100
AcDbLinetypeTableRecord
  2
想像線
 70
     0
  3
__ __ __ _____ __ __ ____
 72
    65
 73
     6
 40
12.5
 49
5.0
 74
     0
 49
-1.5
 74
     0
 49
1.5
 74
     0
 49
-1.5
 74
     0
 49
1.5
 74
     0
 49
-1.5
 74
     0
  0
LTYPE
  5
D4B9
330
5
100
AcDbSymbolTableRecord
100
AcDbLinetypeTableRecord
  2
ASULTYPE
 70
     0
  3
実線
 72
    65
 73
     2
 40
3.0
 49
2.5
 74
     0
 49
0.5
 74
     0
  0
LTYPE
  5
D4BA
330
5
100
AcDbSymbolTableRecord
100
AcDbLinetypeTableRecord
  2
ASVLTYPE
 70
     0
  3
__ __ __ __ __ __ __ __ __ __ __ __ __ __ __ __ __ __ __ __ __
 72
    65
 73
     2
 40
0.75
 49
0.5
 74
     0
 49
-0.25
 74
     0
  0
ENDTAB
  0
TABLE
  2
LAYER
  5
2
102
{ACAD_XDICTIONARY
360
3F95
102
}
330
0
100
AcDbSymbolTable
 70
    38
  0
LAYER
  5
10
330
2
100
AcDbSymbolTableRecord
100
AcDbLayerTableRecord
  2
0
 70
     0
 62
     7
  6
Continuous
370
    -3
390
F
  0
LAYER
  5
6D1
330
2
100
AcDbSymbolTableRecord
100
AcDbLayerTableRecord
  2
Defpoints
 70
     0
 62
     7
  6
Continuous
290
     0
370
    -3
390
F
  0
LAYER
  5
5F85
330
2
100
AcDbSymbolTableRecord
100
AcDbLayerTableRecord
  2
AM_0
 70
     0
 62
     7
  6
中線
370
    25
390
F
1001
AcAecLayerStandard
1000

1000

  0
LAYER
  5
AC9F
330
2
100
AcDbSymbolTableRecord
100
AcDbLayerTableRecord
  2
size
 70
     0
 62
     5
  6
Continuous
290
     0
370
    25
390
F
  0
LAYER
  5
ACA0
330
2
100
AcDbSymbolTableRecord
100
AcDbLayerTableRecord
  2
waku
 70
     0
 62
     7
  6
Continuous
370
    35
390
F
  0
LAYER
  5
ACA1
330
2
100
AcDbSymbolTableRecord
100
AcDbLayerTableRecord
  2
AM_6
 70
     0
 62
     2
  6
文字
370
    15
390
F
1001
AcAecLayerStandard
1000

1000

  0
LAYER
  5
ACC8
330
2
100
AcDbSymbolTableRecord
100
AcDbLayerTableRecord
  2
hyomoji
 70
     0
 62
     2
  6
Continuous
370
    15
390
F
  0
LAYER
  5
ACC9
330
2
100
AcDbSymbolTableRecord
100
AcDbLayerTableRecord
  2
hyosen1
 70
     0
 62
     1
  6
Continuous
370
    25
390
F
  0
LAYER
  5
ACCA
330
2
100
AcDbSymbolTableRecord
100
AcDbLayerTableRecord
  2
hyosen2
 70
     0
 62
     1
  6
Continuous
370
    15
390
F
  0
LAYER
  5
AD60
330
2
100
AcDbSymbolTableRecord
100
AcDbLayerTableRecord
  2
AM_1
 70
     0
 62
    30
  6
太線
370
    25
390
F
1001
AcAecLayerStandard
1000

1000

  0
LAYER
  5
AD64
330
2
100
AcDbSymbolTableRecord
100
AcDbLayerTableRecord
  2
AM_2
 70
     0
 62
     1
  6
細線
370
    15
390
F
1001
AcAecLayerStandard
1000

1000

  0
LAYER
  5
AD67
330
2
100
AcDbSymbolTableRecord
100
AcDbLayerTableRecord
  2
AM_3
 70
     0
 62
     6
  6
陰線1
370
    15
390
F
1001
AcAecLayerStandard
1000

1000

  0
LAYER
  5
AD68
330
2
100
AcDbSymbolTableRecord
100
AcDbLayerTableRecord
  2
AM_5
 70
     0
 62
     3
  6
寸法線
370
    15
390
F
1001
AcAecLayerStandard
1000

1000

  0
LAYER
  5
AD69
330
2
100
AcDbSymbolTableRecord
100
AcDbLayerTableRecord
  2
AM_7
 70
     0
 62
     4
  6
中心線1
370
    15
390
F
1001
AcAecLayerStandard
1000

1000

  0
LAYER
  5
AD6A
330
2
100
AcDbSymbolTableRecord
100
AcDbLayerTableRecord
  2
AM_8
 70
     0
 62
     1
  6
ハッチング
370
    15
390
F
1001
AcAecLayerStandard
1000

1000

  0
LAYER
  5
AD6E
330
2
100
AcDbSymbolTableRecord
100
AcDbLayerTableRecord
  2
AM_10
 70
     0
 62
     7
  6
genzigzag
370
    25
390
F
1001
AcAecLayerStandard
1000

1000

  0
LAYER
  5
AD6F
330
2
100
AcDbSymbolTableRecord
100
AcDbLayerTableRecord
  2
AM_11
 70
     0
 62
     2
  6
想像線1
370
    15
390
F
1001
AcAecLayerStandard
1000

1000

  0
LAYER
  5
C26E
330
2
100
AcDbSymbolTableRecord
100
AcDbLayerTableRecord
  2
AM_14
 70
     0
 62
     5
  6
細線
370
     9
390
F
1001
AcAecLayerStandard
1000

1000

  0
LAYER
  5
CED4
330
2
100
AcDbSymbolTableRecord
100
AcDbLayerTableRecord
  2
AM_CL
 70
     0
 62
     1
  6
Amconstr
370
    15
390
F
1001
AcAecLayerStandard
1000

1000

  0
LAYER
  5
CFD9
330
2
100
AcDbSymbolTableRecord
100
AcDbLayerTableRecord
  2
_0-0_0
 70
     0
 62
     7
  6
Continuous
370
    -3
390
F
  0
LAYER
  5
CFDA
330
2
100
AcDbSymbolTableRecord
100
AcDbLayerTableRecord
  2
_0-1_1
 70
     0
 62
     7
  6
Continuous
370
    -3
390
F
  0
LAYER
  5
CFDB
330
2
100
AcDbSymbolTableRecord
100
AcDbLayerTableRecord
  2
_0-2_DEFPOINTS
 70
     0
 62
     7
  6
Continuous
370
    -3
390
F
  0
LAYER
  5
D4BB
330
2
100
AcDbSymbolTableRecord
100
AcDbLayerTableRecord
  2
1
 70
     0
 62
     7
  6
Continuous
370
    -3
390
F
  0
LAYER
  5
D4BC
330
2
100
AcDbSymbolTableRecord
100
AcDbLayerTableRecord
  2
AM_BOR
 70
     0
 62
     7
  6
Continuous
370
    25
390
F
  0
LAYER
  5
D4BD
330
2
100
AcDbSymbolTableRecord
100
AcDbLayerTableRecord
  2
AM_4
 70
     0
 62
     3
  6
補助線
370
    15
390
F
  0
LAYER
  5
D4BE
330
2
100
AcDbSymbolTableRecord
100
AcDbLayerTableRecord
  2
AM_FEA-AM_1
 70
     0
 62
    30
  6
太線
370
    25
390
F
  0
LAYER
  5
D4BF
330
2
100
AcDbSymbolTableRecord
100
AcDbLayerTableRecord
  2
AM_FEA-AM_6
 70
     0
 62
     2
  6
文字
370
    15
390
F
  0
LAYER
  5
D4C0
330
2
100
AcDbSymbolTableRecord
100
AcDbLayerTableRecord
  2
AM_12
 70
     0
 62
     7
  6
Continuous
290
     0
370
    15
390
F
  0
LAYER
  5
D4C1
330
2
100
AcDbSymbolTableRecord
100
AcDbLayerTableRecord
  2
AM_PAREF
 70
     0
 62
     4
  6
Continuous
290
     0
370
    15
390
F
  0
LAYER
  5
D4C2
330
2
100
AcDbSymbolTableRecord
100
AcDbLayerTableRecord
  2
busen1
 70
     0
 62
    30
  6
Continuous
370
    40
390
F
  0
LAYER
  5
D4C3
330
2
100
AcDbSymbolTableRecord
100
AcDbLayerTableRecord
  2
busen2
 70
     0
 62
     2
  6
Continuous
370
    20
390
F
  0
LAYER
  5
D4C4
330
2
100
AcDbSymbolTableRecord
100
AcDbLayerTableRecord
  2
PV0001_1
 70
     0
 62
     7
  6
Continuous
370
    -3
390
F
  0
LAYER
  5
D4C5
330
2
100
AcDbSymbolTableRecord
100
AcDbLayerTableRecord
  2
点-AM_0
 70
     0
 62
     7
  6
中線
370
    25
390
F
  0
LAYER
  5
D4C6
330
2
100
AcDbSymbolTableRecord
100
AcDbLayerTableRecord
  2
点-AM_1
 70
     0
 62
    30
  6
太線
370
    25
390
F
  0
LAYER
  5
D4C7
330
2
100
AcDbSymbolTableRecord
100
AcDbLayerTableRecord
  2
点-AM_2
 70
     0
 62
     1
  6
細線
370
    15
390
F
  0
LAYER
  5
D4C8
330
2
100
AcDbSymbolTableRecord
100
AcDbLayerTableRecord
  2
点-AM_7
 70
     0
 62
     4
  6
中心線1
370
    15
390
F
  0
LAYER
  5
D4C9
330
2
100
AcDbSymbolTableRecord
100
AcDbLayerTableRecord
  2
点-AM_11
 70
     0
 62
     2
  6
想像線1
370
    15
390
F
  0
LAYER
  5
D4CA
330
2
100
AcDbSymbolTableRecord
100
AcDbLayerTableRecord
  2
子図情報-AM_0
 70
     0
 62
     7
  6
中線
370
    25
390
F
  0
ENDTAB
  0
TABLE
  2
STYLE
  5
3
330
0
100
AcDbSymbolTable
 70
    11
  0
STYLE
  5
11
330
3
100
AcDbSymbolTableRecord
100
AcDbTextStyleTableRecord
  2
STANDARD
 70
     0
 40
0.0
 41
0.7
 50
0.0
 71
     0
 42
3.2
  3
romans.shx
  4
extfont.shx
  0
STYLE
  5
56
330
3
100
AcDbSymbolTableRecord
100
AcDbTextStyleTableRecord
  2

 70
     1
 40
0.0
 41
1.0
 50
0.0
 71
     0
 42
2.5
  3
ltypeshp.shx
  4

  0
STYLE
  5
58
330
3
100
AcDbSymbolTableRecord
100
AcDbTextStyleTableRecord
  2
ACISOTS
 70
     0
 40
1.0
 41
1.0
 50
0.0
 71
     0
 42
2.5
  3
isocp.shx
  4
extfont.shx
  0
STYLE
  5
63
330
3
100
AcDbSymbolTableRecord
100
AcDbTextStyleTableRecord
  2
ACISOGDT
 70
     0
 40
0.0
 41
1.0
 50
0.0
 71
     0
 42
2.5
  3
amgdt.shx
  4

  0
STYLE
  5
A74
330
3
100
AcDbSymbolTableRecord
100
AcDbTextStyleTableRecord
  2
DIM
 70
     0
 40
0.0
 41
1.0
 50
0.0
 71
     0
 42
2.5
  3
monotxt.shx
  4
extfont.shx
  0
STYLE
  5
AC80
330
3
100
AcDbSymbolTableRecord
100
AcDbTextStyleTableRecord
  2

 70
     1
 40
0.0
 41
1.0
 50
0.0
 71
     0
 42
3.2
  3
genltshp.shx
  4

  0
STYLE
  5
CFDC
330
3
100
AcDbSymbolTableRecord
100
AcDbTextStyleTableRecord
  2
ACANSTS
 70
     0
 40
1.0
 41
1.0
 50
0.0
 71
     0
 42
0.2
  3
romans.shx
  4
extfont.shx
  0
STYLE
  5
CFDD
330
3
100
AcDbSymbolTableRecord
100
AcDbTextStyleTableRecord
  2
ACANSGDT
 70
     0
 40
0.0
 41
1.0
 50
0.0
 71
     0
 42
0.2
  3
amgdt.shx
  4

  0
STYLE
  5
D4CB
330
3
100
AcDbSymbolTableRecord
100
AcDbTextStyleTableRecord
  2
USER1
 70
     0
 40
0.0
 41
1.0
 50
0.0
 71
     0
 42
2.5
  3
TXT.SHX
  4

  0
STYLE
  5
D4CC
330
3
100
AcDbSymbolTableRecord
100
AcDbTextStyleTableRecord
  2
USER2
 70
     0
 40
0.0
 41
1.0
 50
0.0
 71
     0
 42
2.5
  3
SIMPLEX.SHX
  4

  0
STYLE
  5
D4CD
330
3
100
AcDbSymbolTableRecord
100
AcDbTextStyleTableRecord
  2
USER3
 70
     0
 40
0.0
 41
1.0
 50
0.0
 71
     0
 42
2.5
  3
ITALIC.SHX
  4

  0
ENDTAB
  0
TABLE
  2
VIEW
  5
6
330
0
100
AcDbSymbolTable
 70
     6
  0
VIEW
  5
AE1
330
6
100
AcDbSymbolTableRecord
100
AcDbViewTableRecord
  2
AM_VIEW1
 70
     0
 40
828.0405405405405
 10
525.0
 20
1070.97972972973
 41
1050.0
 11
0.0
 21
0.0
 31
1.0
 12
0.0
 22
0.0
 32
0.0
 42
50.0
 43
-1370.695619172058
 44
-1370.695619172058
 50
0.0
 71
     0
281
     0
 72
     0
  0
VIEW
  5
AE2
330
6
100
AcDbSymbolTableRecord
100
AcDbViewTableRecord
  2
AM_VIEW2
 70
     0
 40
828.0405405405405
 10
1575.0
 20
1070.97972972973
 41
1050.0
 11
0.0
 21
0.0
 31
1.0
 12
0.0
 22
0.0
 32
0.0
 42
50.0
 43
-1370.695619172058
 44
-1370.695619172058
 50
0.0
 71
     0
281
     0
 72
     0
  0
VIEW
  5
AE3
330
6
100
AcDbSymbolTableRecord
100
AcDbViewTableRecord
  2
AM_VIEW3
 70
     0
 40
828.0405405405405
 10
525.0
 20
414.0202702702701
 41
1050.0
 11
0.0
 21
0.0
 31
1.0
 12
0.0
 22
0.0
 32
0.0
 42
50.0
 43
-1370.695619172058
 44
-1370.695619172058
 50
0.0
 71
     0
281
     0
 72
     0
  0
VIEW
  5
AE4
330
6
100
AcDbSymbolTableRecord
100
AcDbViewTableRecord
  2
AM_VIEW4
 70
     0
 40
828.0405405405405
 10
1575.0
 20
414.0202702702701
 41
1050.0
 11
0.0
 21
0.0
 31
1.0
 12
0.0
 22
0.0
 32
0.0
 42
50.0
 43
-1370.695619172058
 44
-1370.695619172058
 50
0.0
 71
     0
281
     0
 72
     0
  0
VIEW
  5
AE5
330
6
100
AcDbSymbolTableRecord
100
AcDbViewTableRecord
  2
AM_VIEW5
 70
     0
 40
828.0405405405403
 10
1050.0
 20
742.4999999999998
 41
1050.0
 11
0.0
 21
0.0
 31
1.0
 12
0.0
 22
0.0
 32
0.0
 42
50.0
 43
-1370.695619172058
 44
-1370.695619172058
 50
0.0
 71
     0
281
     0
 72
     0
  0
VIEW
  5
AE6
330
6
100
AcDbSymbolTableRecord
100
AcDbViewTableRecord
  2
AM_VIEW6
 70
     0
 40
1656.06452027027
 10
1050.0
 20
742.4999999999998
 41
2099.979000000001
 11
0.0
 21
0.0
 31
1.0
 12
0.0
 22
0.0
 32
0.0
 42
50.0
 43
-1370.695619172058
 44
-1370.695619172058
 50
0.0
 71
     0
281
     0
 72
     0
  0
ENDTAB
  0
TABLE
  2
UCS
  5
7
330
0
100
AcDbSymbolTable
 70
     0
  0
ENDTAB
  0
TABLE
  2
APPID
  5
9
330
0
100
AcDbSymbolTable
 70
    61
  0
APPID
  5
12
330
9
100
AcDbSymbolTableRecord
100
AcDbRegAppTableRecord
  2
ACAD
 70
     0
  0
APPID
  5
30
330
9
100
AcDbSymbolTableRecord
100
AcDbRegAppTableRecord
  2
MCAD_NO_VIS
 70
     0
  0
APPID
  5
31
330
9
100
AcDbSymbolTableRecord
100
AcDbRegAppTableRecord
  2
ACAD_TEMP_GRAPHIC
 70
     0
  0
APPID
  5
44
330
9
100
AcDbSymbolTableRecord
100
AcDbRegAppTableRecord
  2
ACATTRIBSERVICES
 70
     0
  0
APPID
  5
7A1
330
9
100
AcDbSymbolTableRecord
100
AcDbRegAppTableRecord
  2
GENIUS_GENDIMSH_14
 70
     0
  0
APPID
  5
A49
330
9
100
AcDbSymbolTableRecord
100
AcDbRegAppTableRecord
  2
GENIUS_GENREC_14
 70
     0
  0
APPID
  5
A4A
330
9
100
AcDbSymbolTableRecord
100
AcDbRegAppTableRecord
  2
GENIUS_GENOBJ-N-REC_13
 70
     0
  0
APPID
  5
A4B
330
9
100
AcDbSymbolTableRecord
100
AcDbRegAppTableRecord
  2
GENIUS_GENODEF_13
 70
     0
  0
APPID
  5
A4C
330
9
100
AcDbSymbolTableRecord
100
AcDbRegAppTableRecord
  2
DCO15
 70
     0
  0
APPID
  5
ADC
330
9
100
AcDbSymbolTableRecord
100
AcDbRegAppTableRecord
  2
GENIUS_GENOLIS_13
 70
     0
  0
APPID
  5
ADD
330
9
100
AcDbSymbolTableRecord
100
AcDbRegAppTableRecord
  2
GENIUS_GENOENT_13
 70
     0
  0
APPID
  5
ADE
330
9
100
AcDbSymbolTableRecord
100
AcDbRegAppTableRecord
  2
GENIUS_GENOBJ-N-TIT_13
 70
     0
  0
APPID
  5
ADF
330
9
100
AcDbSymbolTableRecord
100
AcDbRegAppTableRecord
  2
GENIUS_GENTITLE_13
 70
     0
  0
APPID
  5
AE0
330
9
100
AcDbSymbolTableRecord
100
AcDbRegAppTableRecord
  2
GENIUS_GENOREF_13
 70
     0
  0
APPID
  5
AE7
330
9
100
AcDbSymbolTableRecord
100
AcDbRegAppTableRecord
  2
GENIUS_GENSCREG_15
 70
     0
  0
APPID
  5
AE8
330
9
100
AcDbSymbolTableRecord
100
AcDbRegAppTableRecord
  2
GENIUS_GENOBJ-N-SDF_13
 70
     0
  0
APPID
  5
FAF
330
9
100
AcDbSymbolTableRecord
100
AcDbRegAppTableRecord
  2
GENIUS_GENBLLY_14
 70
     0
  0
APPID
  5
FB0
330
9
100
AcDbSymbolTableRecord
100
AcDbRegAppTableRecord
  2
GENIUS_GENTRA_14
 70
     0
  0
APPID
  5
1285
330
9
100
AcDbSymbolTableRecord
100
AcDbRegAppTableRecord
  2
GENIUS_GENDTOL_13
 70
     0
  0
APPID
  5
142D
330
9
100
AcDbSymbolTableRecord
100
AcDbRegAppTableRecord
  2
GENIUS_GENOBJ-N-CEN_13
 70
     0
  0
APPID
  5
1AB5
330
9
100
AcDbSymbolTableRecord
100
AcDbRegAppTableRecord
  2
GENIUS_GENOBJ-N-CRS_13
 70
     0
  0
APPID
  5
1B36
330
9
100
AcDbSymbolTableRecord
100
AcDbRegAppTableRecord
  2
GENIUS_GENOBJ-N-HTC_13
 70
     0
  0
APPID
  5
1B37
330
9
100
AcDbSymbolTableRecord
100
AcDbRegAppTableRecord
  2
GENIUS_GENHATCH_13
 70
     0
  0
APPID
  5
216D
330
9
100
AcDbSymbolTableRecord
100
AcDbRegAppTableRecord
  2
GENIUS_GENOBJ-N-FIL_13
 70
     0
  0
APPID
  5
2356
330
9
100
AcDbSymbolTableRecord
100
AcDbRegAppTableRecord
  2
GEVID990412420
 70
     0
  0
APPID
  5
2357
330
9
100
AcDbSymbolTableRecord
100
AcDbRegAppTableRecord
  2
GEVDC
 70
     0
  0
APPID
  5
2358
330
9
100
AcDbSymbolTableRecord
100
AcDbRegAppTableRecord
  2
GEVCON
 70
     0
  0
APPID
  5
235B
330
9
100
AcDbSymbolTableRecord
100
AcDbRegAppTableRecord
  2
GEVRADREF
 70
     0
  0
APPID
  5
2360
330
9
100
AcDbSymbolTableRecord
100
AcDbRegAppTableRecord
  2
GENIUS_GENBH_13
 70
     0
  0
APPID
  5
2362
330
9
100
AcDbSymbolTableRecord
100
AcDbRegAppTableRecord
  2
GENIUS_GENOBJ-NBEHI-BHF_13
 70
     0
  0
APPID
  5
2364
330
9
100
AcDbSymbolTableRecord
100
AcDbRegAppTableRecord
  2
GENIUS_GENOBJ-NBEHI-BHB_13
 70
     0
  0
APPID
  5
2379
330
9
100
AcDbSymbolTableRecord
100
AcDbRegAppTableRecord
  2
GENIUS_GENOBJ-F-SCPASSM_13
 70
     0
  0
APPID
  5
3D74
330
9
100
AcDbSymbolTableRecord
100
AcDbRegAppTableRecord
  2
GENIUS_GENDIM_13
 70
     0
  0
APPID
  5
3D76
330
9
100
AcDbSymbolTableRecord
100
AcDbRegAppTableRecord
  2
GENIUS_GE3DTOL_13
 70
     0
  0
APPID
  5
3D9C
330
9
100
AcDbSymbolTableRecord
100
AcDbRegAppTableRecord
  2
AD_DRAW
 70
     0
  0
APPID
  5
3DE8
330
9
100
AcDbSymbolTableRecord
100
AcDbRegAppTableRecord
  2
ASURF_PCURVE_APPNAME
 70
     0
  0
APPID
  5
3DED
330
9
100
AcDbSymbolTableRecord
100
AcDbRegAppTableRecord
  2
AMG_3D2D_5.0
 70
     0
  0
APPID
  5
3E1B
330
9
100
AcDbSymbolTableRecord
100
AcDbRegAppTableRecord
  2
DESIGNERASSEMBLIES
 70
     0
  0
APPID
  5
3E20
330
9
100
AcDbSymbolTableRecord
100
AcDbRegAppTableRecord
  2
ACADM_DIM_EDIT
 70
     0
  0
APPID
  5
3E21
330
9
100
AcDbSymbolTableRecord
100
AcDbRegAppTableRecord
  2
AMDT_DM_ADJ
 70
     0
  0
APPID
  5
4143
330
9
100
AcDbSymbolTableRecord
100
AcDbRegAppTableRecord
  2
GENIUS_GENFIL_13
 70
     0
  0
APPID
  5
4144
330
9
100
AcDbSymbolTableRecord
100
AcDbRegAppTableRecord
  2
GENIUS_GENOBJ-N-CHA_13
 70
     0
  0
APPID
  5
4E17
330
9
100
AcDbSymbolTableRecord
100
AcDbRegAppTableRecord
  2
GEVID1008153417
 70
     0
  0
APPID
  5
4E58
330
9
100
AcDbSymbolTableRecord
100
AcDbRegAppTableRecord
  2
GEVID1008153418
 70
     0
  0
APPID
  5
4E5E
330
9
100
AcDbSymbolTableRecord
100
AcDbRegAppTableRecord
  2
GEVID1008153419
 70
     0
  0
APPID
  5
4E64
330
9
100
AcDbSymbolTableRecord
100
AcDbRegAppTableRecord
  2
GEVID1008153420
 70
     0
  0
APPID
  5
4E75
330
9
100
AcDbSymbolTableRecord
100
AcDbRegAppTableRecord
  2
GEVID1008153421
 70
     0
  0
APPID
  5
4EB7
330
9
100
AcDbSymbolTableRecord
100
AcDbRegAppTableRecord
  2
GENIUS_AMGTXT_16
 70
     0
  0
APPID
  5
7645
330
9
100
AcDbSymbolTableRecord
100
AcDbRegAppTableRecord
  2
GENIUS_GENOBJ-N-DIM_13
 70
     0
  0
APPID
  5
AAD0
330
9
100
AcDbSymbolTableRecord
100
AcDbRegAppTableRecord
  2
ACAD_DSTYLE_DIMARC_LENGTH_SYMBOL
 70
     0
  0
APPID
  5
AAD1
330
9
100
AcDbSymbolTableRecord
100
AcDbRegAppTableRecord
  2
ACAD_DSTYLE_DIMJOGGED_JOGANGLE_SYMBOL
 70
     0
  0
APPID
  5
AAFD
330
9
100
AcDbSymbolTableRecord
100
AcDbRegAppTableRecord
  2
ACAD_PSEXT
 70
     0
  0
APPID
  5
AD61
330
9
100
AcDbSymbolTableRecord
100
AcDbRegAppTableRecord
  2
AcAecLayerStandard
 70
     0
  0
APPID
  5
AEE3
330
9
100
AcDbSymbolTableRecord
100
AcDbRegAppTableRecord
  2
ACAD_EXEMPT_FROM_CAD_STANDARDS
 70
     0
  0
APPID
  5
B0F5
330
9
100
AcDbSymbolTableRecord
100
AcDbRegAppTableRecord
  2
ACAD_DSTYLE_DIMTEXT_FILL
 70
     0
  0
APPID
  5
B0F6
330
9
100
AcDbSymbolTableRecord
100
AcDbRegAppTableRecord
  2
ACAD_DSTYLE_DIMEXT_LENGTH
 70
     0
  0
APPID
  5
B0F7
330
9
100
AcDbSymbolTableRecord
100
AcDbRegAppTableRecord
  2
ACAD_DSTYLE_DIMEXT_ENABLED
 70
     0
  0
APPID
  5
B0F8
330
9
100
AcDbSymbolTableRecord
100
AcDbRegAppTableRecord
  2
ACAD_DSTYLE_DIM_LINETYPE
 70
     0
  0
APPID
  5
B0F9
330
9
100
AcDbSymbolTableRecord
100
AcDbRegAppTableRecord
  2
ACAD_DSTYLE_DIM_EXT1_LINETYPE
 70
     0
  0
APPID
  5
B0FA
330
9
100
AcDbSymbolTableRecord
100
AcDbRegAppTableRecord
  2
ACAD_DSTYLE_DIM_EXT2_LINETYPE
 70
     0
  0
APPID
  5
C4F8
330
9
100
AcDbSymbolTableRecord
100
AcDbRegAppTableRecord
  2
GENIUS_GENCEN_19
 70
     0
  0
ENDTAB
  0
TABLE
  2
DIMSTYLE
  5
A
330
0
100
AcDbSymbolTable
 70
    38
100
AcDbDimStyleTable
 71
     3
340
2515
340
251A
340
251B
  0
DIMSTYLE
105
A76
330
A
100
AcDbSymbolTableRecord
100
AcDbDimStyleTableRecord
  2
STANDARD
 70
     0
 41
3.0
 42
1.0
 43
7.0
 44
2.0
 73
     0
 74
     0
 77
     1
140
2.799999999999998
141
0.0
143
0.0394
147
0.7
171
     4
172
     1
173
     1
176
     3
177
     3
178
     2
271
     3
272
     3
273
     8
274
     4
289
     0
340
A74
341
A66
343
A66
344
A66
  0
DIMSTYLE
105
2515
330
A
100
AcDbSymbolTableRecord
100
AcDbDimStyleTableRecord
  2
SYS
 70
     0
  4
"
 41
1.0
 42
1.0
 43
10.0
 44
1.0
 47
0.1
 48
0.1
 73
     0
 74
     0
 77
     1
 78
     8
 79
     2
140
3.5
141
0.0
143
0.0393701
146
0.71
147
1.5
172
     1
176
   256
177
   256
178
     7
271
     2
272
     2
283
     0
284
     8
340
11
371
    -1
372
    -1
1001
ACAD_DSTYLE_DIMJOGGED_JOGANGLE_SYMBOL
1070
   384
1040
0.7853981633974483
1001
ACAD_DSTYLE_DIMARC_LENGTH_SYMBOL
1070
   379
1070
     1
  0
DIMSTYLE
105
2516
102
{ACAD_REACTORS
330
CA80
102
}
330
A
100
AcDbSymbolTableRecord
100
AcDbDimStyleTableRecord
  2
SYS$3
 70
     0
  4
"
 41
2.0
 42
1.0
 43
10.0
 44
1.0
 47
0.1
 48
0.1
 73
     0
 77
     1
 78
     8
 79
     2
140
3.200000000000001
141
0.0
143
0.0393701
146
0.71
147
1.5
176
   256
177
   256
178
     2
271
     2
272
     2
283
     0
284
     8
288
     1
340
11
342
A66
371
    -1
372
    -1
1001
ACAD_DSTYLE_DIMJOGGED_JOGANGLE_SYMBOL
1070
   384
1040
0.7853981633974483
1001
ACAD_DSTYLE_DIMARC_LENGTH_SYMBOL
1070
   379
1070
     1
1001
ACAD_DSTYLE_DIMEXT_LENGTH
1070
   378
1040
0.0
  0
DIMSTYLE
105
2517
330
A
100
AcDbSymbolTableRecord
100
AcDbDimStyleTableRecord
  2
SYS$4
 70
     0
  4
"
 41
2.0
 42
1.0
 43
10.0
 44
1.0
 47
0.1
 48
0.1
 73
     0
 77
     1
 78
     8
 79
     2
140
3.200000000000001
141
0.0
143
0.0393701
146
0.71
147
1.5
173
     1
176
   256
177
   256
178
     2
271
     2
272
     2
283
     0
284
     8
288
     1
340
11
344
A66
371
    -1
372
    -1
1001
ACAD_DSTYLE_DIMJOGGED_JOGANGLE_SYMBOL
1070
   384
1040
0.7853981633974483
1001
ACAD_DSTYLE_DIMARC_LENGTH_SYMBOL
1070
   379
1070
     1
1001
ACAD_DSTYLE_DIMEXT_LENGTH
1070
   378
1040
0.0
  0
DIMSTYLE
105
2518
330
A
100
AcDbSymbolTableRecord
100
AcDbDimStyleTableRecord
  2
SYS$6
 70
     0
  4
"
 41
2.0
 42
1.0
 43
10.0
 44
1.0
 47
0.1
 48
0.1
 73
     0
 74
     0
 78
     8
 79
     2
140
3.200000000000001
141
0.0
143
0.0393701
146
0.71
147
1.5
172
     1
176
   256
177
   256
178
     2
271
     2
272
     2
283
     0
284
     8
340
11
341
A66
371
    -1
372
    -1
1001
ACAD_DSTYLE_DIMJOGGED_JOGANGLE_SYMBOL
1070
   384
1040
0.7853981633974483
1001
ACAD_DSTYLE_DIMARC_LENGTH_SYMBOL
1070
   379
1070
     1
1001
ACAD_DSTYLE_DIMEXT_LENGTH
1070
   378
1040
0.0
  0
DIMSTYLE
105
2519
330
A
100
AcDbSymbolTableRecord
100
AcDbDimStyleTableRecord
  2
SYS$7
 70
     0
  4
"
 41
2.0
 42
1.0
 43
10.0
 44
1.0
 47
0.1
 48
0.1
 73
     0
 74
     0
 77
     1
 78
     8
 79
     2
140
3.200000000000006
141
0.0
143
0.0393701
146
0.71
147
1.5
172
     1
176
   256
177
   256
178
     2
271
     2
272
     2
283
     0
284
     8
340
11
341
A66
342
A66
371
    -1
372
    -1
1001
ACAD_DSTYLE_DIMJOGGED_JOGANGLE_SYMBOL
1070
   384
1040
0.7853981633974483
1001
ACAD_DSTYLE_DIMARC_LENGTH_SYMBOL
1070
   379
1070
     1
1001
ACAD_DSTYLE_DIMEXT_LENGTH
1070
   378
1040
0.0
  0
DIMSTYLE
105
251A
330
A
100
AcDbSymbolTableRecord
100
AcDbDimStyleTableRecord
  2
SYS$SF
 70
     0
  4
"
 41
2.5
 42
1.0
 43
10.0
 44
1.0
 47
0.1
 48
0.1
 73
     0
 74
     0
 75
     1
 76
     1
 77
     1
 78
     8
 79
     2
140
3.200000000000001
141
0.0
143
0.0393701
146
0.71
147
1.5
172
     1
176
   256
177
   256
178
     2
271
     2
272
     2
283
     0
284
     8
340
11
341
6C4
342
6C4
371
    -1
372
    -1
1001
ACAD_DSTYLE_DIMJOGGED_JOGANGLE_SYMBOL
1070
   384
1040
0.7853981633974483
1001
ACAD_DSTYLE_DIMARC_LENGTH_SYMBOL
1070
   379
1070
     1
1001
ACAD_DSTYLE_DIMEXT_LENGTH
1070
   378
1040
0.0
  0
DIMSTYLE
105
251B
330
A
100
AcDbSymbolTableRecord
100
AcDbDimStyleTableRecord
  2
SYS$SH
 70
     0
  4
"
 41
2.5
 42
1.0
 43
10.0
 44
1.0
 47
0.1
 48
0.1
 73
     0
 74
     0
 75
     1
 76
     1
 77
     1
 78
     8
 79
     2
140
3.200000000000001
141
0.0
143
0.0393701
144
2.0
146
0.71
147
1.5
172
     1
173
     1
176
   256
177
   256
178
     2
271
     2
272
     2
283
     0
284
     8
340
11
341
6C4
343
72
344
6C4
371
    -1
372
    -1
1001
ACAD_DSTYLE_DIMJOGGED_JOGANGLE_SYMBOL
1070
   384
1040
0.7853981633974483
1001
ACAD_DSTYLE_DIMARC_LENGTH_SYMBOL
1070
   379
1070
     1
1001
ACAD_DSTYLE_DIMEXT_LENGTH
1070
   378
1040
0.0
  0
DIMSTYLE
105
2A59
330
A
100
AcDbSymbolTableRecord
100
AcDbDimStyleTableRecord
  2
SYS$2
 70
     0
  4
"
 41
1.0
 42
1.0
 43
10.0
 44
1.0
 47
0.1
 48
0.1
 73
     0
 74
     0
 77
     1
 78
     8
 79
     2
140
3.200000000000001
141
0.0
143
0.0393701
146
0.71
147
1.5
172
     1
176
   256
177
   256
178
     2
271
     2
272
     2
283
     0
284
     8
340
11
342
6C4
371
    -1
372
    -1
1001
ACAD_DSTYLE_DIMJOGGED_JOGANGLE_SYMBOL
1070
   384
1040
0.7853981633974483
1001
ACAD_DSTYLE_DIMARC_LENGTH_SYMBOL
1070
   379
1070
     1
1001
ACAD_DSTYLE_DIMEXT_LENGTH
1070
   378
1040
0.0
  0
DIMSTYLE
105
2AAB
102
{ACAD_REACTORS
330
C9E3
330
C9EC
330
CA7D
330
CC1D
330
CCF9
330
CD1F
330
CE2D
330
D47D
330
D719
330
D73F
330
D765
330
D78B
330
D7B5
330
D81C
102
}
330
A
100
AcDbSymbolTableRecord
100
AcDbDimStyleTableRecord
  2
SYS$0
 70
     0
  4
"
 41
1.0
 42
1.0
 43
10.0
 44
1.0
 47
0.1
 48
0.1
 73
     0
 74
     0
 77
     1
 78
     8
 79
     2
140
3.200000000000001
141
0.0
143
0.0393701
146
0.71
147
1.5
172
     1
176
   256
177
   256
178
     2
271
     2
272
     2
283
     0
284
     8
340
11
341
A66
342
6C4
371
    -1
372
    -1
1001
ACAD_DSTYLE_DIMJOGGED_JOGANGLE_SYMBOL
1070
   384
1040
0.7853981633974483
1001
ACAD_DSTYLE_DIMARC_LENGTH_SYMBOL
1070
   379
1070
     1
1001
ACAD_DSTYLE_DIMEXT_LENGTH
1070
   378
1040
0.0
  0
DIMSTYLE
105
AF99
330
A
100
AcDbSymbolTableRecord
100
AcDbDimStyleTableRecord
  2
AM_ISO
 70
     0
  4
"
 41
2.5
 42
1.0
 43
10.0
 44
1.0
 47
0.1
 48
0.1
 73
     0
 74
     0
 77
     1
 78
     8
 79
     2
140
3.5
141
0.0
143
0.0393701
146
0.71
147
1.5
172
     1
176
   256
177
   256
178
     2
271
     2
272
     3
274
     4
283
     0
284
     8
340
11
371
    -1
372
    -1
  0
DIMSTYLE
105
AF9A
330
A
100
AcDbSymbolTableRecord
100
AcDbDimStyleTableRecord
  2
AM_ISO$3
 70
     0
  4
"
 41
2.5
 42
1.0
 43
10.0
 44
1.0
 47
0.1
 48
0.1
 73
     0
 77
     1
 78
     8
 79
     2
140
3.5
141
0.0
143
0.0393701
146
0.71
147
1.5
176
   256
177
   256
178
     2
271
     2
272
     3
274
     4
283
     0
284
     8
288
     1
289
     0
340
11
371
    -1
372
    -1
  0
DIMSTYLE
105
AF9B
330
A
100
AcDbSymbolTableRecord
100
AcDbDimStyleTableRecord
  2
AM_ISO$4
 70
     0
  4
"
 41
2.5
 42
1.0
 43
10.0
 44
1.0
 47
0.1
 48
0.1
 73
     0
 77
     1
 78
     8
 79
     2
140
3.5
141
0.0
143
0.0393701
146
0.71
147
1.5
176
   256
177
   256
178
     2
271
     2
272
     3
274
     4
283
     0
284
     8
288
     1
289
     0
340
11
371
    -1
372
    -1
  0
DIMSTYLE
105
AF9C
330
A
100
AcDbSymbolTableRecord
100
AcDbDimStyleTableRecord
  2
AM_ISO$6
 70
     0
  4
"
 41
2.5
 42
1.0
 43
10.0
 44
1.0
 47
0.1
 48
0.1
 73
     0
 74
     0
 78
     8
 79
     2
140
3.5
141
0.0
143
0.0393701
146
0.71
147
1.5
172
     1
176
   256
177
   256
178
     2
271
     2
272
     3
274
     4
283
     0
284
     8
340
11
371
    -1
372
    -1
  0
DIMSTYLE
105
AF9D
330
A
100
AcDbSymbolTableRecord
100
AcDbDimStyleTableRecord
  2
AM_ISO$7
 70
     0
  4
"
 41
2.5
 42
1.0
 43
10.0
 44
1.0
 47
0.1
 48
0.1
 73
     0
 74
     0
 77
     1
 78
     8
 79
     2
140
5.0
141
0.0
143
0.0393701
146
0.71
147
1.5
172
     1
176
   256
177
   256
178
     2
271
     2
272
     3
274
     4
283
     0
284
     8
340
11
371
    -1
372
    -1
  0
DIMSTYLE
105
AF9E
330
A
100
AcDbSymbolTableRecord
100
AcDbDimStyleTableRecord
  2
AM_ISO$SF
 70
     0
  4
"
 41
2.5
 42
1.0
 43
10.0
 44
1.0
 47
0.1
 48
0.1
 73
     0
 74
     0
 75
     1
 76
     1
 77
     1
 78
     8
 79
     2
140
3.5
141
0.0
143
0.0393701
146
0.71
147
1.5
172
     1
176
   256
177
   256
178
     2
271
     2
272
     3
274
     4
283
     0
284
     8
340
11
371
    -1
372
    -1
  0
DIMSTYLE
105
AF9F
330
A
100
AcDbSymbolTableRecord
100
AcDbDimStyleTableRecord
  2
AM_ISO$SH
 70
     0
  4
"
 41
2.5
 42
1.0
 43
10.0
 44
1.0
 47
0.1
 48
0.1
 73
     0
 74
     0
 75
     1
 76
     1
 77
     1
 78
     8
 79
     2
140
3.5
141
0.0
143
0.0393701
144
2.0
146
0.71
147
1.5
172
     1
173
     1
176
   256
177
   256
178
     2
271
     2
272
     3
274
     4
283
     0
284
     8
340
11
343
72
371
    -1
372
    -1
  0
DIMSTYLE
105
CFDE
330
A
100
AcDbSymbolTableRecord
100
AcDbDimStyleTableRecord
  2
AM_ANSI
 70
     0
  4
mm
 41
0.1
 42
0.05
 43
0.5
 44
0.1
 47
0.1
 48
0.1
 78
     7
 79
     2
140
0.12
141
0.0
146
0.71
147
0.06
176
   256
177
   256
178
     2
274
     4
284
     7
340
11
371
    -1
372
    -1
1001
ACAD_DSTYLE_DIMJOGGED_JOGANGLE_SYMBOL
1070
   384
1040
0.7853981633974483
1001
ACAD_DSTYLE_DIMARC_LENGTH_SYMBOL
1070
   379
1070
     1
  0
DIMSTYLE
105
CFDF
330
A
100
AcDbSymbolTableRecord
100
AcDbDimStyleTableRecord
  2
AM_ANSI$3
 70
     0
  4
mm
 41
0.1
 42
0.05
 43
0.5
 44
0.1
 47
0.1
 48
0.1
 78
     7
 79
     2
140
0.12
141
0.0
146
0.71
147
0.06
176
   256
177
   256
178
     2
274
     4
284
     7
288
     1
289
     0
340
11
371
    -1
372
    -1
1001
ACAD_DSTYLE_DIMJOGGED_JOGANGLE_SYMBOL
1070
   384
1040
0.7853981633974483
1001
ACAD_DSTYLE_DIMARC_LENGTH_SYMBOL
1070
   379
1070
     1
  0
DIMSTYLE
105
CFE0
330
A
100
AcDbSymbolTableRecord
100
AcDbDimStyleTableRecord
  2
AM_ANSI$4
 70
     0
  4
mm
 41
0.1
 42
0.05
 43
0.5
 44
0.1
 47
0.1
 48
0.1
 78
     7
 79
     2
140
0.12
141
0.0
146
0.71
147
0.06
176
   256
177
   256
178
     2
274
     4
284
     7
288
     1
289
     0
340
11
371
    -1
372
    -1
1001
ACAD_DSTYLE_DIMJOGGED_JOGANGLE_SYMBOL
1070
   384
1040
0.7853981633974483
1001
ACAD_DSTYLE_DIMARC_LENGTH_SYMBOL
1070
   379
1070
     1
  0
DIMSTYLE
105
CFE1
330
A
100
AcDbSymbolTableRecord
100
AcDbDimStyleTableRecord
  2
AM_ANSI$7
 70
     0
  4
mm
 41
0.1
 42
0.05
 43
0.5
 44
0.1
 47
0.1
 48
0.1
 78
     7
 79
     2
140
0.24
141
0.0
146
0.71
147
0.06
176
   256
177
   256
178
     2
274
     4
284
     7
340
11
371
    -1
372
    -1
1001
ACAD_DSTYLE_DIMJOGGED_JOGANGLE_SYMBOL
1070
   384
1040
0.7853981633974483
1001
ACAD_DSTYLE_DIMARC_LENGTH_SYMBOL
1070
   379
1070
     1
  0
DIMSTYLE
105
CFE2
330
A
100
AcDbSymbolTableRecord
100
AcDbDimStyleTableRecord
  2
AM_ANSI$SF
 70
     0
  4
mm
 41
0.1
 42
0.05
 43
0.5
 44
0.1
 47
0.1
 48
0.1
 75
     1
 76
     1
 78
     7
 79
     2
140
0.12
141
0.0
146
0.71
147
0.06
176
   256
177
   256
178
     2
274
     4
284
     7
340
11
371
    -1
372
    -1
1001
ACAD_DSTYLE_DIMJOGGED_JOGANGLE_SYMBOL
1070
   384
1040
0.7853981633974483
1001
ACAD_DSTYLE_DIMARC_LENGTH_SYMBOL
1070
   379
1070
     1
  0
DIMSTYLE
105
CFE3
330
A
100
AcDbSymbolTableRecord
100
AcDbDimStyleTableRecord
  2
AM_ANSI$SH
 70
     0
  4
mm
 41
0.1
 42
0.05
 43
0.5
 44
0.1
 47
0.1
 48
0.1
 75
     1
 76
     1
 78
     7
 79
     2
140
0.12
141
0.0
146
0.71
147
0.06
173
     1
176
   256
177
   256
178
     2
274
     4
284
     7
340
11
343
72
371
    -1
372
    -1
1001
ACAD_DSTYLE_DIMJOGGED_JOGANGLE_SYMBOL
1070
   384
1040
0.7853981633974483
1001
ACAD_DSTYLE_DIMARC_LENGTH_SYMBOL
1070
   379
1070
     1
  0
DIMSTYLE
105
D4CE
330
A
100
AcDbSymbolTableRecord
100
AcDbDimStyleTableRecord
  2
AM_ISO$0
 70
     0
  4
"
 41
0.8
 42
1.0
 43
10.0
 44
1.0
 47
0.1
 48
0.1
 73
     0
 74
     0
 77
     1
 78
     8
 79
     2
140
3.2
141
0.0
143
0.0393701
146
0.71
147
0.9999999999999996
172
     1
176
   256
177
   256
178
     2
271
     2
272
     2
283
     0
284
     8
340
11
341
6C4
342
6C4
371
    -1
372
    -1
1001
ACAD_DSTYLE_DIMJOGGED_JOGANGLE_SYMBOL
1070
   384
1040
0.7853981633974483
1001
ACAD_DSTYLE_DIMARC_LENGTH_SYMBOL
1070
   379
1070
     1
  0
DIMSTYLE
105
D4CF
330
A
100
AcDbSymbolTableRecord
100
AcDbDimStyleTableRecord
  2
AM_ISO$2
 70
     0
  4
"
 41
0.8
 42
1.0
 43
10.0
 44
1.0
 47
0.1
 48
0.1
 73
     0
 74
     0
 77
     3
 78
     8
 79
     2
140
3.200000000000001
141
0.0
143
0.0393701
146
0.71
147
0.9999999999999996
172
     1
176
   256
177
   256
178
     2
271
     2
272
     2
283
     0
284
     8
340
11
342
6C4
371
    -1
372
    -1
1001
ACAD_DSTYLE_DIMJOGGED_JOGANGLE_SYMBOL
1070
   384
1040
0.7853981633974483
1001
ACAD_DSTYLE_DIMARC_LENGTH_SYMBOL
1070
   379
1070
     1
  0
DIMSTYLE
105
D4D0
330
A
100
AcDbSymbolTableRecord
100
AcDbDimStyleTableRecord
  2
SYSORG4P0
 70
     0
  4
"
 41
1.0
 42
1.0
 43
10.0
 44
1.0
 47
0.1
 48
0.1
 73
     0
 74
     0
 77
     1
 78
     8
 79
     2
140
3.5
141
0.0
143
0.0393701
144
3.999999618530336
146
0.71
147
1.5
172
     1
176
   256
177
   256
178
     7
271
     2
272
     2
283
     0
284
     8
340
11
371
    -1
372
    -1
  0
DIMSTYLE
105
D4D1
330
A
100
AcDbSymbolTableRecord
100
AcDbDimStyleTableRecord
  2
SYSORG4P0$0
 70
     0
  4
"
 41
1.0
 42
1.0
 43
10.0
 44
1.0
 47
0.1
 48
0.1
 73
     0
 74
     0
 77
     1
 78
     8
 79
     2
140
3.200000000000001
141
0.0
143
0.0393701
144
3.999999618530336
146
0.71
147
1.5
172
     1
176
   256
177
   256
178
     2
271
     2
272
     2
283
     0
284
     8
340
11
341
A66
342
6C4
371
    -1
372
    -1
  0
DIMSTYLE
105
D4D2
330
A
100
AcDbSymbolTableRecord
100
AcDbDimStyleTableRecord
  2
SYSORG2P0
 70
     0
  4
"
 41
1.0
 42
1.0
 43
10.0
 44
1.0
 47
0.1
 48
0.1
 73
     0
 74
     0
 77
     1
 78
     8
 79
     2
140
3.5
141
0.0
143
0.0393701
144
1.999999841054211
146
0.71
147
1.5
172
     1
176
   256
177
   256
178
     7
271
     2
272
     2
283
     0
284
     8
340
11
371
    -1
372
    -1
  0
DIMSTYLE
105
D4D3
330
A
100
AcDbSymbolTableRecord
100
AcDbDimStyleTableRecord
  2
SYSORG2P0$0
 70
     0
  4
"
 41
1.0
 42
1.0
 43
10.0
 44
1.0
 47
0.1
 48
0.1
 73
     0
 74
     0
 77
     1
 78
     8
 79
     2
140
3.200000000000001
141
0.0
143
0.0393701
144
1.999999841054211
146
0.71
147
1.5
172
     1
176
   256
177
   256
178
     2
271
     2
272
     2
283
     0
284
     8
340
11
341
A66
342
6C4
371
    -1
372
    -1
  0
DIMSTYLE
105
D4D4
330
A
100
AcDbSymbolTableRecord
100
AcDbDimStyleTableRecord
  2
SYMBOL
 70
     0
  4
"
 41
2.5
 42
1.0
 43
10.0
 44
1.0
 47
0.1
 48
0.1
 73
     0
 74
     0
 77
     1
 78
     8
 79
     2
140
3.5
141
0.0
143
0.0393701
146
0.71
147
1.5
172
     1
176
   256
177
   256
178
     7
271
     2
272
     3
274
     4
283
     0
284
     8
340
11
371
    -1
372
    -1
  0
DIMSTYLE
105
D4D5
330
A
100
AcDbSymbolTableRecord
100
AcDbDimStyleTableRecord
  2
SYMBOLSORG244P0
 70
     0
  4
"
 41
2.5
 42
1.0
 43
10.0
 44
1.0
 47
0.1
 48
0.1
 73
     0
 74
     0
 77
     1
 78
     8
 79
     2
140
3.5
141
0.0
143
0.0393701
144
4.000000575803018
146
0.71
147
1.5
172
     1
176
   256
177
   256
178
     7
271
     2
272
     3
274
     4
283
     0
284
     8
340
11
371
    -1
372
    -1
  0
DIMSTYLE
105
D4D6
330
A
100
AcDbSymbolTableRecord
100
AcDbDimStyleTableRecord
  2
SYMBOLSORG254P0
 70
     0
  4
"
 41
2.5
 42
1.0
 43
10.0
 44
1.0
 47
0.1
 48
0.1
 73
     0
 74
     0
 77
     1
 78
     8
 79
     2
140
3.5
141
0.0
143
0.0393701
144
4.0
146
0.71
147
1.5
172
     1
176
   256
177
   256
178
     7
271
     2
272
     3
274
     4
283
     0
284
     8
340
11
371
    -1
372
    -1
  0
DIMSTYLE
105
D4D7
330
A
100
AcDbSymbolTableRecord
100
AcDbDimStyleTableRecord
  2
SYSORG3P0
 70
     0
  4
"
 41
1.0
 42
1.0
 43
10.0
 44
1.0
 47
0.1
 48
0.1
 73
     0
 74
     0
 77
     1
 78
     8
 79
     2
140
3.5
141
0.0
143
0.0393701
144
3.000000058715038
146
0.71
147
1.5
172
     1
176
   256
177
   256
178
     7
271
     2
272
     2
283
     0
284
     8
340
11
371
    -1
372
    -1
  0
DIMSTYLE
105
D4D8
330
A
100
AcDbSymbolTableRecord
100
AcDbDimStyleTableRecord
  2
SYSORG3P0$0
 70
     0
  4
"
 41
1.0
 42
1.0
 43
10.0
 44
1.0
 47
0.1
 48
0.1
 73
     0
 74
     0
 77
     1
 78
     8
 79
     2
140
3.200000000000001
141
0.0
143
0.0393701
144
3.000000058715038
146
0.71
147
1.5
172
     1
176
   256
177
   256
178
     2
271
     2
272
     2
283
     0
284
     8
340
11
341
A66
342
6C4
371
    -1
372
    -1
  0
DIMSTYLE
105
D4D9
330
A
100
AcDbSymbolTableRecord
100
AcDbDimStyleTableRecord
  2
SYMBOLSORG34P0
 70
     0
  4
"
 41
2.5
 42
1.0
 43
10.0
 44
1.0
 47
0.1
 48
0.1
 73
     0
 74
     0
 77
     1
 78
     8
 79
     2
140
3.5
141
0.0
143
0.0393701
144
4.0
146
0.71
147
1.5
172
     1
176
   256
177
   256
178
     7
271
     2
272
     3
274
     4
283
     0
284
     8
340
11
371
    -1
372
    -1
  0
DIMSTYLE
105
D4DA
330
A
100
AcDbSymbolTableRecord
100
AcDbDimStyleTableRecord
  2
SYMBOLSORG44P0
 70
     0
  4
"
 41
2.5
 42
1.0
 43
10.0
 44
1.0
 47
0.1
 48
0.1
 73
     0
 74
     0
 77
     1
 78
     8
 79
     2
140
3.5
141
0.0
143
0.0393701
144
4.0
146
0.71
147
1.5
172
     1
176
   256
177
   256
178
     7
271
     2
272
     3
274
     4
283
     0
284
     8
340
11
371
    -1
372
    -1
  0
DIMSTYLE
105
D4DB
330
A
100
AcDbSymbolTableRecord
100
AcDbDimStyleTableRecord
  2
SYMBOLSORG54P0
 70
     0
  4
"
 41
2.5
 42
1.0
 43
10.0
 44
1.0
 47
0.1
 48
0.1
 73
     0
 74
     0
 77
     1
 78
     8
 79
     2
140
3.5
141
0.0
143
0.0393701
144
4.0
146
0.71
147
1.5
172
     1
176
   256
177
   256
178
     7
271
     2
272
     3
274
     4
283
     0
284
     8
340
11
371
    -1
372
    -1
  0
DIMSTYLE
105
D4DC
330
A
100
AcDbSymbolTableRecord
100
AcDbDimStyleTableRecord
  2
SYMBOLSORG64P0
 70
     0
  4
"
 41
2.5
 42
1.0
 43
10.0
 44
1.0
 47
0.1
 48
0.1
 73
     0
 74
     0
 77
     1
 78
     8
 79
     2
140
3.5
141
0.0
143
0.0393701
144
4.000001220703518
146
0.71
147
1.5
172
     1
176
   256
177
   256
178
     7
271
     2
272
     3
274
     4
283
     0
284
     8
340
11
371
    -1
372
    -1
  0
ENDTAB
  0
TABLE
  2
BLOCK_RECORD
  5
1
330
0
100
AcDbSymbolTable
 70
    22
  0
BLOCK_RECORD
  5
1F
102
{ACAD_XDICTIONARY
360
8A
102
}
330
1
100
AcDbSymbolTableRecord
100
AcDbBlockTableRecord
  2
*Model_Space
340
22
  0
BLOCK_RECORD
  5
1B
330
1
100
AcDbSymbolTableRecord
100
AcDbBlockTableRecord
  2
*Paper_Space
340
1E
  0
BLOCK_RECORD
  5
23
330
1
100
AcDbSymbolTableRecord
100
AcDbBlockTableRecord
  2
*Paper_Space0
340
26
  0
BLOCK_RECORD
  5
72
330
1
100
AcDbSymbolTableRecord
100
AcDbBlockTableRecord
  2
GENAXEH
340
0
  0
BLOCK_RECORD
  5
6C4
330
1
100
AcDbSymbolTableRecord
100
AcDbBlockTableRecord
  2
_Dot
340
0
102
{BLKREFS
331
CBC6
331
CBC7
331
CD0B
331
CD0C
331
CE3F
331
CE40
331
CEAC
331
CEAD
331
D45F
331
D460
331
D468
331
D469
331
D48F
331
D490
331
D72B
331
D72C
331
D751
331
D752
331
D777
331
D778
331
D807
331
D808
331
D82E
331
D82F
331
D86D
331
D86E
331
D887
331
D888
102
}
  0
BLOCK_RECORD
  5
A66
330
1
100
AcDbSymbolTableRecord
100
AcDbBlockTableRecord
  2
_OPEN30
340
0
102
{BLKREFS
331
CEBB
102
}
  0
BLOCK_RECORD
  5
CB09
330
1
100
AcDbSymbolTableRecord
100
AcDbBlockTableRecord
  2
*D4
340
0
  0
BLOCK_RECORD
  5
CB27
330
1
100
AcDbSymbolTableRecord
100
AcDbBlockTableRecord
  2
*D5
340
0
  0
BLOCK_RECORD
  5
CB63
330
1
100
AcDbSymbolTableRecord
100
AcDbBlockTableRecord
  2
*D6
340
0
  0
BLOCK_RECORD
  5
CB6D
330
1
100
AcDbSymbolTableRecord
100
AcDbBlockTableRecord
  2
*D7
340
0
  0
BLOCK_RECORD
  5
CC1E
330
1
100
AcDbSymbolTableRecord
100
AcDbBlockTableRecord
  2
*D8
340
0
  0
BLOCK_RECORD
  5
CCFA
330
1
100
AcDbSymbolTableRecord
100
AcDbBlockTableRecord
  2
*D9
340
0
  0
BLOCK_RECORD
  5
CD20
330
1
100
AcDbSymbolTableRecord
100
AcDbBlockTableRecord
  2
*D10
340
0
  0
BLOCK_RECORD
  5
CE2E
330
1
100
AcDbSymbolTableRecord
100
AcDbBlockTableRecord
  2
*D11
340
0
  0
BLOCK_RECORD
  5
D47E
330
1
100
AcDbSymbolTableRecord
100
AcDbBlockTableRecord
  2
*D12
340
0
  0
BLOCK_RECORD
  5
D71A
330
1
100
AcDbSymbolTableRecord
100
AcDbBlockTableRecord
  2
*D13
340
0
  0
BLOCK_RECORD
  5
D740
330
1
100
AcDbSymbolTableRecord
100
AcDbBlockTableRecord
  2
*D14
340
0
  0
BLOCK_RECORD
  5
D766
330
1
100
AcDbSymbolTableRecord
100
AcDbBlockTableRecord
  2
*D15
340
0
  0
BLOCK_RECORD
  5
D78C
330
1
100
AcDbSymbolTableRecord
100
AcDbBlockTableRecord
  2
*D16
340
0
  0
BLOCK_RECORD
  5
D7B6
330
1
100
AcDbSymbolTableRecord
100
AcDbBlockTableRecord
  2
*D17
340
0
  0
BLOCK_RECORD
  5
D81D
330
1
100
AcDbSymbolTableRecord
100
AcDbBlockTableRecord
  2
*D18
340
0
  0
BLOCK_RECORD
  5
D9EB
330
1
100
AcDbSymbolTableRecord
100
AcDbBlockTableRecord
  2
*S2019
340
0
102
{BLKREFS
331
CA83
102
}
  0
BLOCK_RECORD
  5
D9F5
330
1
100
AcDbSymbolTableRecord
100
AcDbBlockTableRecord
  2
*S2120
340
0
102
{BLKREFS
331
CA85
102
}
  0
ENDTAB
  0
ENDSEC
  0
SECTION
  2
BLOCKS
  0
BLOCK
  5
20
330
1F
100
AcDbEntity
  8
0
100
AcDbBlockBegin
  2
*Model_Space
 70
     0
 10
0.0
 20
0.0
 30
0.0
  3
*Model_Space
  1

  0
ENDBLK
  5
21
330
1F
100
AcDbEntity
  8
0
100
AcDbBlockEnd
  0
BLOCK
  5
1C
330
1B
100
AcDbEntity
 67
     1
  8
0
100
AcDbBlockBegin
  2
*Paper_Space
 70
     0
 10
0.0
 20
0.0
 30
0.0
  3
*Paper_Space
  1

  0
ENDBLK
  5
1D
330
1B
100
AcDbEntity
 67
     1
  8
0
100
AcDbBlockEnd
  0
BLOCK
  5
24
330
23
100
AcDbEntity
 67
     1
  8
0
100
AcDbBlockBegin
  2
*Paper_Space0
 70
     0
 10
0.0
 20
0.0
 30
0.0
  3
*Paper_Space0
  1

  0
ENDBLK
  5
25
330
23
100
AcDbEntity
 67
     1
  8
0
100
AcDbBlockEnd
  0
BLOCK
  5
74
330
72
100
AcDbEntity
  8
0
100
AcDbBlockBegin
  2
GENAXEH
 70
     0
 10
0.0
 20
0.0
 30
0.0
  3
GENAXEH
  1

  0
LINE
  5
73
330
72
100
AcDbEntity
  8
0
100
AcDbLine
 10
-1.0
 20
0.0
 30
0.0
 11
1.0
 21
0.0
 31
0.0
  0
ENDBLK
  5
75
330
72
100
AcDbEntity
  8
0
100
AcDbBlockEnd
  0
BLOCK
  5
6C7
330
6C4
100
AcDbEntity
  8
0
100
AcDbBlockBegin
  2
_Dot
 70
     0
 10
0.0
 20
0.0
 30
0.0
  3
_Dot
  1

  0
LWPOLYLINE
  5
6C5
330
6C4
100
AcDbEntity
  8
0
  6
ByBlock
 62
     0
100
AcDbPolyline
 90
        2
 70
     1
 43
0.5
 10
-0.25
 20
0.0
 42
1.0
 10
0.25
 20
0.0
 42
1.0
  0
LINE
  5
6C6
330
6C4
100
AcDbEntity
  8
0
  6
ByBlock
 62
     0
370
    -2
100
AcDbLine
 10
-0.5
 20
0.0
 30
0.0
 11
-1.0
 21
0.0
 31
0.0
  0
ENDBLK
  5
6C8
330
6C4
100
AcDbEntity
  8
0
100
AcDbBlockEnd
  0
BLOCK
  5
A6A
330
A66
100
AcDbEntity
  8
0
100
AcDbBlockBegin
  2
_OPEN30
 70
     0
 10
0.0
 20
0.0
 30
0.0
  3
_OPEN30
  1

  0
LINE
  5
A67
330
A66
100
AcDbEntity
  8
0
  6
ByBlock
 62
     0
100
AcDbLine
 10
-1.0
 20
0.26794919
 30
0.0
 11
0.0
 21
0.0
 31
0.0
  0
LINE
  5
A68
330
A66
100
AcDbEntity
  8
0
  6
ByBlock
 62
     0
100
AcDbLine
 10
0.0
 20
0.0
 30
0.0
 11
-1.0
 21
-0.26794919
 31
0.0
  0
LINE
  5
A69
330
A66
100
AcDbEntity
  8
0
  6
ByBlock
 62
     0
100
AcDbLine
 10
0.0
 20
0.0
 30
0.0
 11
-1.0
 21
0.0
 31
0.0
  0
ENDBLK
  5
A6B
330
A66
100
AcDbEntity
  8
0
100
AcDbBlockEnd
  0
BLOCK
  5
CB8A
330
CB09
100
AcDbEntity
  8
0
100
AcDbBlockBegin
  2
*D4
 70
     1
 10
0.0
 20
0.0
 30
0.0
  3
*D4
  1

  0
LINE
  5
D465
330
CB09
100
AcDbEntity
  8
AM_5
100
AcDbLine
 10
1344.298240405488
 20
222.9092659676542
 30
0.0
 11
1344.298240405488
 21
162.9092659676542
 31
0.0
  0
LINE
  5
D466
330
CB09
100
AcDbEntity
  8
AM_5
100
AcDbLine
 10
1274.298240405488
 20
222.9092659676546
 30
0.0
 11
1274.298240405488
 21
162.9092659676542
 31
0.0
  0
LINE
  5
D467
330
CB09
100
AcDbEntity
  8
AM_5
100
AcDbLine
 10
1339.298240405488
 20
167.9092659676542
 30
0.0
 11
1279.298240405488
 21
167.9092659676542
 31
0.0
  0
INSERT
  5
D468
330
CB09
100
AcDbEntity
  8
AM_5
100
AcDbBlockReference
  2
_Dot
 10
1344.298240405488
 20
167.9092659676542
 30
0.0
 41
5.0
 42
5.0
 43
5.0
  0
INSERT
  5
D469
330
CB09
100
AcDbEntity
  8
AM_5
100
AcDbBlockReference
  2
_Dot
 10
1274.298240405488
 20
167.9092659676542
 30
0.0
 41
5.0
 42
5.0
 43
5.0
 50
180.0
  0
MTEXT
  5
D46A
330
CB09
100
AcDbEntity
  8
AM_5
 62
     2
100
AcDbMText
 10
1309.298240405488
 20
183.4092659676542
 30
0.0
 40
16.0
 41
0.0
 71
     5
 72
     1
  1
70
 73
     1
 44
1.0
1001
ACAD
1000
MTEXTBEGIN
1070
    73
1070
     1
1070
    44
1040
1.0
1070
    74
1070
     0
1000
MTEXTEND
  0
POINT
  5
D46B
330
CB09
100
AcDbEntity
  8
Defpoints
 62
     0
100
AcDbPoint
 10
1344.298240405488
 20
227.9092659676542
 30
0.0
  0
POINT
  5
D46C
330
CB09
100
AcDbEntity
  8
Defpoints
 62
     0
100
AcDbPoint
 10
1274.298240405488
 20
227.9092659676547
 30
0.0
  0
POINT
  5
D46D
330
CB09
100
AcDbEntity
  8
Defpoints
 62
     0
100
AcDbPoint
 10
1274.298240405488
 20
167.9092659676542
 30
0.0
  0
ENDBLK
  5
CB8B
330
CB09
100
AcDbEntity
  8
0
100
AcDbBlockEnd
  0
BLOCK
  5
CB90
330
CB27
100
AcDbEntity
  8
0
100
AcDbBlockBegin
  2
*D5
 70
     1
 10
0.0
 20
0.0
 30
0.0
  3
*D5
  1

  0
LINE
  5
CBC3
330
CB27
100
AcDbEntity
  8
AM_5
100
AcDbLine
 10
1274.298240405488
 20
1182.909265967654
 30
0.0
 11
1274.298240405488
 21
1242.909266967654
 31
0.0
  0
LINE
  5
CBC4
330
CB27
100
AcDbEntity
  8
AM_5
100
AcDbLine
 10
1344.298240405488
 20
1182.909265967654
 30
0.0
 11
1344.298240405488
 21
1242.909266967654
 31
0.0
  0
LINE
  5
CBC5
330
CB27
100
AcDbEntity
  8
AM_5
100
AcDbLine
 10
1279.298240405488
 20
1237.909266967654
 30
0.0
 11
1339.298240405488
 21
1237.909266967654
 31
0.0
  0
INSERT
  5
CBC6
330
CB27
100
AcDbEntity
  8
AM_5
100
AcDbBlockReference
  2
_Dot
 10
1274.298240405488
 20
1237.909266967654
 30
0.0
 41
5.0
 42
5.0
 43
5.0
 50
180.0
  0
INSERT
  5
CBC7
330
CB27
100
AcDbEntity
  8
AM_5
100
AcDbBlockReference
  2
_Dot
 10
1344.298240405488
 20
1237.909266967654
 30
0.0
 41
5.0
 42
5.0
 43
5.0
  0
MTEXT
  5
CBC8
330
CB27
100
AcDbEntity
  8
AM_5
 62
     2
100
AcDbMText
 10
1309.298240405488
 20
1253.409266967654
 30
0.0
 40
16.0
 41
0.0
 71
     5
 72
     1
  1
70
 73
     1
 44
1.0
1001
ACAD
1000
MTEXTBEGIN
1070
    73
1070
     1
1070
    44
1040
1.0
1070
    74
1070
     0
1000
MTEXTEND
  0
POINT
  5
CBC9
330
CB27
100
AcDbEntity
  8
Defpoints
 62
     0
100
AcDbPoint
 10
1274.298240405488
 20
1177.909265967654
 30
0.0
  0
POINT
  5
CBCA
330
CB27
100
AcDbEntity
  8
Defpoints
 62
     0
100
AcDbPoint
 10
1344.298240405488
 20
1177.909265967654
 30
0.0
  0
POINT
  5
CBCB
330
CB27
100
AcDbEntity
  8
Defpoints
 62
     0
100
AcDbPoint
 10
1344.298240405488
 20
1237.909266967654
 30
0.0
  0
ENDBLK
  5
CB91
330
CB27
100
AcDbEntity
  8
0
100
AcDbBlockEnd
  0
BLOCK
  5
CB9C
330
CB63
100
AcDbEntity
  8
0
100
AcDbBlockBegin
  2
*D6
 70
     1
 10
0.0
 20
0.0
 30
0.0
  3
*D6
  1

  0
LINE
  5
CEA9
330
CB63
100
AcDbEntity
  8
AM_5
100
AcDbLine
 10
349.9674342138893
 20
237.9092659676545
 30
0.0
 11
349.9674342138893
 21
171.6173775863847
 31
0.0
  0
LINE
  5
CEAA
330
CB63
100
AcDbEntity
  8
AM_5
100
AcDbLine
 10
449.9674342138891
 20
237.9092659676545
 30
0.0
 11
449.9674342138891
 21
171.6173775863847
 31
0.0
  0
LINE
  5
CEAB
330
CB63
100
AcDbEntity
  8
AM_5
100
AcDbLine
 10
354.9674342138893
 20
176.6173775863847
 30
0.0
 11
444.9674342138893
 21
176.6173775863847
 31
0.0
  0
INSERT
  5
CEAC
330
CB63
100
AcDbEntity
  8
AM_5
100
AcDbBlockReference
  2
_Dot
 10
349.9674342138893
 20
176.6173775863847
 30
0.0
 41
5.0
 42
5.0
 43
5.0
 50
180.0
  0
INSERT
  5
CEAD
330
CB63
100
AcDbEntity
  8
AM_5
100
AcDbBlockReference
  2
_Dot
 10
449.9674342138891
 20
176.6173775863847
 30
0.0
 41
5.0
 42
5.0
 43
5.0
  0
MTEXT
  5
CEAE
330
CB63
100
AcDbEntity
  8
AM_5
 62
     2
100
AcDbMText
 10
399.9674342138893
 20
192.1173775863847
 30
0.0
 40
16.0
 41
0.0
 71
     5
 72
     1
  1
100
 73
     1
 44
1.0
1001
ACAD
1000
MTEXTBEGIN
1070
    73
1070
     1
1070
    44
1040
1.0
1070
    74
1070
     0
1000
MTEXTEND
  0
POINT
  5
CEAF
330
CB63
100
AcDbEntity
  8
Defpoints
 62
     0
100
AcDbPoint
 10
349.9674342138893
 20
242.9092659676545
 30
0.0
  0
POINT
  5
CEB0
330
CB63
100
AcDbEntity
  8
Defpoints
 62
     0
100
AcDbPoint
 10
449.9674342138891
 20
242.9092659676545
 30
0.0
  0
POINT
  5
CEB1
330
CB63
100
AcDbEntity
  8
Defpoints
 62
     0
100
AcDbPoint
 10
449.9674342138891
 20
176.6173775863847
 30
0.0
  0
ENDBLK
  5
CB9D
330
CB63
100
AcDbEntity
  8
0
100
AcDbBlockEnd
  0
BLOCK
  5
CB9E
330
CB6D
100
AcDbEntity
  8
0
100
AcDbBlockBegin
  2
*D7
 70
     1
 10
0.0
 20
0.0
 30
0.0
  3
*D7
  1

  0
LINE
  5
CEB8
330
CB6D
100
AcDbEntity
  8
AM_5
100
AcDbLine
 10
640.1067394946683
 20
176.314268993403
 30
0.0
 11
495.8150728279971
 21
176.314268993403
 31
0.0
  0
LINE
  5
CEB9
330
CB6D
100
AcDbEntity
  8
AM_5
100
AcDbLine
 10
495.8150728279971
 20
176.314268993403
 30
0.0
 11
455.7863013253056
 21
256.2842590627242
 31
0.0
  0
MTEXT
  5
CEBA
330
CB6D
100
AcDbEntity
  8
AM_5
 62
     2
100
AcDbMText
 10
574.7734061613349
 20
191.814268993403
 30
0.0
 40
16.0
 41
0.0
 71
     5
 72
     1
  1
4-\U+22056孔（深さ35）
 73
     1
 44
1.0
1001
ACAD
1000
MTEXTBEGIN
1070
    73
1070
     1
1070
    44
1040
1.0
1070
    74
1070
     0
1000
MTEXTEND
  0
INSERT
  5
CEBB
330
CB6D
100
AcDbEntity
  8
AM_5
100
AcDbBlockReference
  2
_OPEN30
 10
451.3102497011392
 20
265.2265720665166
 30
0.0
 41
10.0
 42
10.0
 43
10.0
 50
116.5901371635563
  0
POINT
  5
CEBC
330
CB6D
100
AcDbEntity
  8
Defpoints
 62
     0
100
AcDbPoint
 10
451.3102497011392
 20
265.2265720665166
 30
0.0
  0
POINT
  5
CEBD
330
CB6D
100
AcDbEntity
  8
Defpoints
 62
     0
100
AcDbPoint
 10
448.6246187266394
 20
270.5919598687919
 30
0.0
  0
ENDBLK
  5
CB9F
330
CB6D
100
AcDbEntity
  8
0
100
AcDbBlockEnd
  0
BLOCK
  5
CC28
330
CC1E
100
AcDbEntity
  8
0
100
AcDbBlockBegin
  2
*D8
 70
     1
 10
0.0
 20
0.0
 30
0.0
  3
*D8
  1

  0
LINE
  5
D45C
330
CC1E
100
AcDbEntity
  8
AM_5
100
AcDbLine
 10
891.891528063979
 20
597.9092659676537
 30
0.0
 11
828.0914868652541
 21
597.9092659676537
 31
0.0
  0
LINE
  5
D45D
330
CC1E
100
AcDbEntity
  8
AM_5
100
AcDbLine
 10
888.091486865254
 20
227.9092659676542
 30
0.0
 11
828.0914868652541
 21
227.9092659676542
 31
0.0
  0
LINE
  5
D45E
330
CC1E
100
AcDbEntity
  8
AM_5
100
AcDbLine
 10
833.091486865254
 20
592.9092659676537
 30
0.0
 11
833.091486865254
 21
232.9092659676542
 31
0.0
  0
INSERT
  5
D45F
330
CC1E
100
AcDbEntity
  8
AM_5
100
AcDbBlockReference
  2
_Dot
 10
833.091486865254
 20
597.9092659676537
 30
0.0
 41
5.0
 42
5.0
 43
5.0
 50
90.0
  0
INSERT
  5
D460
330
CC1E
100
AcDbEntity
  8
AM_5
100
AcDbBlockReference
  2
_Dot
 10
833.091486865254
 20
227.9092659676542
 30
0.0
 41
5.0
 42
5.0
 43
5.0
 50
270.0
  0
MTEXT
  5
D461
330
CC1E
100
AcDbEntity
  8
AM_5
 62
     2
100
AcDbMText
 10
817.591486865254
 20
412.909265967654
 30
0.0
 40
16.0
 41
0.0
 71
     5
 72
     1
  1
370
 11
0.0000000000000001
 21
1.0
 31
0.0
 73
     1
 44
1.0
1001
ACAD
1000
MTEXTBEGIN
1070
    73
1070
     1
1070
    44
1040
1.0
1070
    74
1070
     0
1000
MTEXTEND
  0
POINT
  5
D462
330
CC1E
100
AcDbEntity
  8
Defpoints
 62
     0
100
AcDbPoint
 10
896.8915280639791
 20
597.9092659676537
 30
0.0
  0
POINT
  5
D463
330
CC1E
100
AcDbEntity
  8
Defpoints
 62
     0
100
AcDbPoint
 10
893.0914868652541
 20
227.9092659676542
 30
0.0
  0
POINT
  5
D464
330
CC1E
100
AcDbEntity
  8
Defpoints
 62
     0
100
AcDbPoint
 10
833.091486865254
 20
227.9092659676542
 30
0.0
  0
ENDBLK
  5
CC29
330
CC1E
100
AcDbEntity
  8
0
100
AcDbBlockEnd
  0
BLOCK
  5
CD04
330
CCFA
100
AcDbEntity
  8
0
100
AcDbBlockBegin
  2
*D9
 70
     1
 10
0.0
 20
0.0
 30
0.0
  3
*D9
  1

  0
LINE
  5
CD08
330
CCFA
100
AcDbEntity
  8
AM_5
100
AcDbLine
 10
891.891528063979
 20
597.9092659676537
 30
0.0
 11
828.0914868652493
 21
597.9092659676537
 31
0.0
  0
LINE
  5
CD09
330
CCFA
100
AcDbEntity
  8
AM_5
100
AcDbLine
 10
892.0915318786798
 20
897.9092659676542
 30
0.0
 11
828.0914868652493
 21
897.9092659676542
 31
0.0
  0
LINE
  5
CD0A
330
CCFA
100
AcDbEntity
  8
AM_5
100
AcDbLine
 10
833.0914868652492
 20
602.9092659676536
 30
0.0
 11
833.0914868652495
 21
892.9092659676541
 31
0.0
  0
INSERT
  5
CD0B
330
CCFA
100
AcDbEntity
  8
AM_5
100
AcDbBlockReference
  2
_Dot
 10
833.0914868652492
 20
597.9092659676537
 30
0.0
 41
5.0
 42
5.0
 43
5.0
 50
270.0
  0
INSERT
  5
CD0C
330
CCFA
100
AcDbEntity
  8
AM_5
100
AcDbBlockReference
  2
_Dot
 10
833.0914868652495
 20
897.9092659676542
 30
0.0
 41
5.0
 42
5.0
 43
5.0
 50
90.0
  0
MTEXT
  5
CD0D
330
CCFA
100
AcDbEntity
  8
AM_5
 62
     2
100
AcDbMText
 10
817.5914868652492
 20
747.9092659676541
 30
0.0
 40
16.0
 41
0.0
 71
     5
 72
     1
  1
300
 11
0.0000000000000001
 21
1.0
 31
0.0
 73
     1
 44
1.0
1001
ACAD
1000
MTEXTBEGIN
1070
    73
1070
     1
1070
    44
1040
1.0
1070
    74
1070
     0
1000
MTEXTEND
  0
POINT
  5
CD0E
330
CCFA
100
AcDbEntity
  8
Defpoints
 62
     0
100
AcDbPoint
 10
896.8915280639791
 20
597.9092659676537
 30
0.0
  0
POINT
  5
CD0F
330
CCFA
100
AcDbEntity
  8
Defpoints
 62
     0
100
AcDbPoint
 10
897.0915318786797
 20
897.9092659676542
 30
0.0
  0
POINT
  5
CD10
330
CCFA
100
AcDbEntity
  8
Defpoints
 62
     0
100
AcDbPoint
 10
833.0914868652495
 20
897.9092659676542
 30
0.0
  0
ENDBLK
  5
CD05
330
CCFA
100
AcDbEntity
  8
0
100
AcDbBlockEnd
  0
BLOCK
  5
CD2A
330
CD20
100
AcDbEntity
  8
0
100
AcDbBlockBegin
  2
*D10
 70
     1
 10
0.0
 20
0.0
 30
0.0
  3
*D10
  1

  0
LINE
  5
D804
330
CD20
100
AcDbEntity
  8
AM_5
100
AcDbLine
 10
892.0915318786798
 20
897.9092659676542
 30
0.0
 11
828.0914868652551
 21
897.9092659676542
 31
0.0
  0
LINE
  5
D805
330
CD20
100
AcDbEntity
  8
AM_5
100
AcDbLine
 10
891.091486865254
 20
1037.909265967654
 30
0.0
 11
828.0914868652551
 21
1037.909265967654
 31
0.0
  0
LINE
  5
D806
330
CD20
100
AcDbEntity
  8
AM_5
100
AcDbLine
 10
833.091486865255
 20
902.9092659676539
 30
0.0
 11
833.091486865255
 21
1032.909265967654
 31
0.0
  0
INSERT
  5
D807
330
CD20
100
AcDbEntity
  8
AM_5
100
AcDbBlockReference
  2
_Dot
 10
833.091486865255
 20
897.9092659676542
 30
0.0
 41
5.0
 42
5.0
 43
5.0
 50
270.0
  0
INSERT
  5
D808
330
CD20
100
AcDbEntity
  8
AM_5
100
AcDbBlockReference
  2
_Dot
 10
833.091486865255
 20
1037.909265967654
 30
0.0
 41
5.0
 42
5.0
 43
5.0
 50
90.0
  0
MTEXT
  5
D809
330
CD20
100
AcDbEntity
  8
AM_5
 62
     2
100
AcDbMText
 10
817.5914868652549
 20
967.9092659676546
 30
0.0
 40
16.0
 41
0.0
 71
     5
 72
     1
  1
140
 11
0.0000000000000001
 21
1.0
 31
0.0
 73
     1
 44
1.0
1001
ACAD
1000
MTEXTBEGIN
1070
    73
1070
     1
1070
    44
1040
1.0
1070
    74
1070
     0
1000
MTEXTEND
  0
POINT
  5
D80A
330
CD20
100
AcDbEntity
  8
Defpoints
 62
     0
100
AcDbPoint
 10
897.0915318786797
 20
897.9092659676542
 30
0.0
  0
POINT
  5
D80B
330
CD20
100
AcDbEntity
  8
Defpoints
 62
     0
100
AcDbPoint
 10
896.091486865254
 20
1037.909265967654
 30
0.0
  0
POINT
  5
D80C
330
CD20
100
AcDbEntity
  8
Defpoints
 62
     0
100
AcDbPoint
 10
833.091486865255
 20
1037.909265967654
 30
0.0
  0
ENDBLK
  5
CD2B
330
CD20
100
AcDbEntity
  8
0
100
AcDbBlockEnd
  0
BLOCK
  5
CE38
330
CE2E
100
AcDbEntity
  8
0
100
AcDbBlockBegin
  2
*D11
 70
     1
 10
0.0
 20
0.0
 30
0.0
  3
*D11
  1

  0
LINE
  5
CE3C
330
CE2E
100
AcDbEntity
  8
AM_5
100
AcDbLine
 10
888.091486865254
 20
1177.909265967654
 30
0.0
 11
778.0914868652539
 21
1177.909265967654
 31
0.0
  0
LINE
  5
CE3D
330
CE2E
100
AcDbEntity
  8
AM_5
100
AcDbLine
 10
888.091486865254
 20
227.9092659676542
 30
0.0
 11
778.0914868652537
 21
227.9092659676542
 31
0.0
  0
LINE
  5
CE3E
330
CE2E
100
AcDbEntity
  8
AM_5
100
AcDbLine
 10
783.091486865254
 20
1172.909265967654
 30
0.0
 11
783.0914868652537
 21
232.9092659676542
 31
0.0
  0
INSERT
  5
CE3F
330
CE2E
100
AcDbEntity
  8
AM_5
100
AcDbBlockReference
  2
_Dot
 10
783.091486865254
 20
1177.909265967654
 30
0.0
 41
5.0
 42
5.0
 43
5.0
 50
90.0
  0
INSERT
  5
CE40
330
CE2E
100
AcDbEntity
  8
AM_5
100
AcDbBlockReference
  2
_Dot
 10
783.0914868652537
 20
227.9092659676542
 30
0.0
 41
5.0
 42
5.0
 43
5.0
 50
270.0
  0
MTEXT
  5
CE41
330
CE2E
100
AcDbEntity
  8
AM_5
 62
     2
100
AcDbMText
 10
767.5914868652537
 20
702.9092659676543
 30
0.0
 40
16.0
 41
0.0
 71
     5
 72
     1
  1
950
 11
0.0000000000000001
 21
1.0
 31
0.0
 73
     1
 44
1.0
1001
ACAD
1000
MTEXTBEGIN
1070
    73
1070
     1
1070
    44
1040
1.0
1070
    74
1070
     0
1000
MTEXTEND
  0
POINT
  5
CE42
330
CE2E
100
AcDbEntity
  8
Defpoints
 62
     0
100
AcDbPoint
 10
893.0914868652541
 20
1177.909265967654
 30
0.0
  0
POINT
  5
CE43
330
CE2E
100
AcDbEntity
  8
Defpoints
 62
     0
100
AcDbPoint
 10
893.0914868652541
 20
227.9092659676542
 30
0.0
  0
POINT
  5
CE44
330
CE2E
100
AcDbEntity
  8
Defpoints
 62
     0
100
AcDbPoint
 10
783.0914868652537
 20
227.9092659676542
 30
0.0
  0
ENDBLK
  5
CE39
330
CE2E
100
AcDbEntity
  8
0
100
AcDbBlockEnd
  0
BLOCK
  5
D488
330
D47E
100
AcDbEntity
  8
0
100
AcDbBlockBegin
  2
*D12
 70
     1
 10
0.0
 20
0.0
 30
0.0
  3
*D12
  1

  0
LINE
  5
D48C
330
D47E
100
AcDbEntity
  8
AM_5
100
AcDbLine
 10
893.0914868652541
 20
1182.909265967654
 30
0.0
 11
893.0914868652541
 21
1242.909266967655
 31
0.0
  0
LINE
  5
D48D
330
D47E
100
AcDbEntity
  8
AM_5
100
AcDbLine
 10
1033.091486865254
 20
1182.909265967654
 30
0.0
 11
1033.091486865254
 21
1242.909266967655
 31
0.0
  0
LINE
  5
D48E
330
D47E
100
AcDbEntity
  8
AM_5
100
AcDbLine
 10
898.091486865254
 20
1237.909266967655
 30
0.0
 11
1028.091486865254
 21
1237.909266967655
 31
0.0
  0
INSERT
  5
D48F
330
D47E
100
AcDbEntity
  8
AM_5
100
AcDbBlockReference
  2
_Dot
 10
893.0914868652541
 20
1237.909266967655
 30
0.0
 41
5.0
 42
5.0
 43
5.0
 50
180.0
  0
INSERT
  5
D490
330
D47E
100
AcDbEntity
  8
AM_5
100
AcDbBlockReference
  2
_Dot
 10
1033.091486865254
 20
1237.909266967655
 30
0.0
 41
5.0
 42
5.0
 43
5.0
  0
MTEXT
  5
D491
330
D47E
100
AcDbEntity
  8
AM_5
 62
     2
100
AcDbMText
 10
963.0914868652537
 20
1253.409266967655
 30
0.0
 40
16.0
 41
0.0
 71
     5
 72
     1
  1
140
 73
     1
 44
1.0
1001
ACAD
1000
MTEXTBEGIN
1070
    73
1070
     1
1070
    44
1040
1.0
1070
    74
1070
     0
1000
MTEXTEND
  0
POINT
  5
D492
330
D47E
100
AcDbEntity
  8
Defpoints
 62
     0
100
AcDbPoint
 10
893.0914868652541
 20
1177.909265967654
 30
0.0
  0
POINT
  5
D493
330
D47E
100
AcDbEntity
  8
Defpoints
 62
     0
100
AcDbPoint
 10
1033.091486865254
 20
1177.909265967654
 30
0.0
  0
POINT
  5
D494
330
D47E
100
AcDbEntity
  8
Defpoints
 62
     0
100
AcDbPoint
 10
1033.091486865254
 20
1237.909266967655
 30
0.0
  0
ENDBLK
  5
D489
330
D47E
100
AcDbEntity
  8
0
100
AcDbBlockEnd
  0
BLOCK
  5
D724
330
D71A
100
AcDbEntity
  8
0
100
AcDbBlockBegin
  2
*D13
 70
     1
 10
0.0
 20
0.0
 30
0.0
  3
*D13
  1

  0
LINE
  5
D728
330
D71A
100
AcDbEntity
  8
AM_5
100
AcDbLine
 10
477.9674342138893
 20
267.9092659676545
 30
0.0
 11
537.9674342138891
 21
267.9092659676545
 31
0.0
  0
LINE
  5
D729
330
D71A
100
AcDbEntity
  8
AM_5
100
AcDbLine
 10
477.9674342138893
 20
917.9092659676543
 30
0.0
 11
537.9674342138894
 21
917.9092659676543
 31
0.0
  0
LINE
  5
D72A
330
D71A
100
AcDbEntity
  8
AM_5
100
AcDbLine
 10
532.9674342138893
 20
272.9092659676545
 30
0.0
 11
532.9674342138893
 21
912.9092659676544
 31
0.0
  0
INSERT
  5
D72B
330
D71A
100
AcDbEntity
  8
AM_5
100
AcDbBlockReference
  2
_Dot
 10
532.9674342138893
 20
267.9092659676545
 30
0.0
 41
5.0
 42
5.0
 43
5.0
 50
270.0
  0
INSERT
  5
D72C
330
D71A
100
AcDbEntity
  8
AM_5
100
AcDbBlockReference
  2
_Dot
 10
532.9674342138893
 20
917.9092659676543
 30
0.0
 41
5.0
 42
5.0
 43
5.0
 50
90.0
  0
MTEXT
  5
D72D
330
D71A
100
AcDbEntity
  8
AM_5
 62
     2
100
AcDbMText
 10
517.4674342138891
 20
592.9092659676546
 30
0.0
 40
16.0
 41
0.0
 71
     5
 72
     1
  1
650
 11
0.0000000000000001
 21
1.0
 31
0.0
 73
     1
 44
1.0
1001
ACAD
1000
MTEXTBEGIN
1070
    73
1070
     1
1070
    44
1040
1.0
1070
    74
1070
     0
1000
MTEXTEND
  0
POINT
  5
D72E
330
D71A
100
AcDbEntity
  8
Defpoints
 62
     0
100
AcDbPoint
 10
472.9674342138893
 20
267.9092659676545
 30
0.0
  0
POINT
  5
D72F
330
D71A
100
AcDbEntity
  8
Defpoints
 62
     0
100
AcDbPoint
 10
472.9674342138893
 20
917.9092659676543
 30
0.0
  0
POINT
  5
D730
330
D71A
100
AcDbEntity
  8
Defpoints
 62
     0
100
AcDbPoint
 10
532.9674342138893
 20
917.9092659676543
 30
0.0
  0
ENDBLK
  5
D725
330
D71A
100
AcDbEntity
  8
0
100
AcDbBlockEnd
  0
BLOCK
  5
D74A
330
D740
100
AcDbEntity
  8
0
100
AcDbBlockBegin
  2
*D14
 70
     1
 10
0.0
 20
0.0
 30
0.0
  3
*D14
  1

  0
LINE
  5
D74E
330
D740
100
AcDbEntity
  8
AM_5
100
AcDbLine
 10
321.9674342138893
 20
267.9092659676545
 30
0.0
 11
253.4674342138903
 21
267.9092659676545
 31
0.0
  0
LINE
  5
D74F
330
D740
100
AcDbEntity
  8
AM_5
100
AcDbLine
 10
313.4674342138902
 20
697.9092659676543
 30
0.0
 11
253.4674342138904
 21
697.9092659676544
 31
0.0
  0
LINE
  5
D750
330
D740
100
AcDbEntity
  8
AM_5
100
AcDbLine
 10
258.4674342138903
 20
272.9092659676545
 30
0.0
 11
258.4674342138904
 21
692.9092659676542
 31
0.0
  0
INSERT
  5
D751
330
D740
100
AcDbEntity
  8
AM_5
100
AcDbBlockReference
  2
_Dot
 10
258.4674342138903
 20
267.9092659676545
 30
0.0
 41
5.0
 42
5.0
 43
5.0
 50
270.0
  0
INSERT
  5
D752
330
D740
100
AcDbEntity
  8
AM_5
100
AcDbBlockReference
  2
_Dot
 10
258.4674342138904
 20
697.9092659676543
 30
0.0
 41
5.0
 42
5.0
 43
5.0
 50
90.0
  0
MTEXT
  5
D753
330
D740
100
AcDbEntity
  8
AM_5
 62
     2
100
AcDbMText
 10
242.9674342138902
 20
482.9092659676545
 30
0.0
 40
16.0
 41
0.0
 71
     5
 72
     1
  1
430
 11
0.0000000000000001
 21
1.0
 31
0.0
 73
     1
 44
1.0
1001
ACAD
1000
MTEXTBEGIN
1070
    73
1070
     1
1070
    44
1040
1.0
1070
    74
1070
     0
1000
MTEXTEND
  0
POINT
  5
D754
330
D740
100
AcDbEntity
  8
Defpoints
 62
     0
100
AcDbPoint
 10
326.9674342138893
 20
267.9092659676545
 30
0.0
  0
POINT
  5
D755
330
D740
100
AcDbEntity
  8
Defpoints
 62
     0
100
AcDbPoint
 10
318.4674342138902
 20
697.9092659676543
 30
0.0
  0
POINT
  5
D756
330
D740
100
AcDbEntity
  8
Defpoints
 62
     0
100
AcDbPoint
 10
258.4674342138904
 20
697.9092659676543
 30
0.0
  0
ENDBLK
  5
D74B
330
D740
100
AcDbEntity
  8
0
100
AcDbBlockEnd
  0
BLOCK
  5
D770
330
D766
100
AcDbEntity
  8
0
100
AcDbBlockBegin
  2
*D15
 70
     1
 10
0.0
 20
0.0
 30
0.0
  3
*D15
  1

  0
LINE
  5
D774
330
D766
100
AcDbEntity
  8
AM_5
100
AcDbLine
 10
306.8741788794842
 20
697.9092659676543
 30
0.0
 11
253.4674342138903
 21
697.9092659676544
 31
0.0
  0
LINE
  5
D775
330
D766
100
AcDbEntity
  8
AM_5
100
AcDbLine
 10
321.9674342138893
 20
917.9092659676543
 30
0.0
 11
253.4674342138904
 21
917.9092659676546
 31
0.0
  0
LINE
  5
D776
330
D766
100
AcDbEntity
  8
AM_5
100
AcDbLine
 10
258.4674342138903
 20
702.9092659676543
 30
0.0
 11
258.4674342138904
 21
912.9092659676544
 31
0.0
  0
INSERT
  5
D777
330
D766
100
AcDbEntity
  8
AM_5
100
AcDbBlockReference
  2
_Dot
 10
258.4674342138903
 20
697.9092659676543
 30
0.0
 41
5.0
 42
5.0
 43
5.0
 50
270.0
  0
INSERT
  5
D778
330
D766
100
AcDbEntity
  8
AM_5
100
AcDbBlockReference
  2
_Dot
 10
258.4674342138904
 20
917.9092659676543
 30
0.0
 41
5.0
 42
5.0
 43
5.0
 50
90.0
  0
MTEXT
  5
D779
330
D766
100
AcDbEntity
  8
AM_5
 62
     2
100
AcDbMText
 10
242.9674342138902
 20
807.9092659676545
 30
0.0
 40
16.0
 41
0.0
 71
     5
 72
     1
  1
220
 11
0.0000000000000001
 21
1.0
 31
0.0
 73
     1
 44
1.0
1001
ACAD
1000
MTEXTBEGIN
1070
    73
1070
     1
1070
    44
1040
1.0
1070
    74
1070
     0
1000
MTEXTEND
  0
POINT
  5
D77A
330
D766
100
AcDbEntity
  8
Defpoints
 62
     0
100
AcDbPoint
 10
311.8741788794841
 20
697.9092659676543
 30
0.0
  0
POINT
  5
D77B
330
D766
100
AcDbEntity
  8
Defpoints
 62
     0
100
AcDbPoint
 10
326.9674342138893
 20
917.9092659676543
 30
0.0
  0
POINT
  5
D77C
330
D766
100
AcDbEntity
  8
Defpoints
 62
     0
100
AcDbPoint
 10
258.4674342138904
 20
917.9092659676543
 30
0.0
  0
ENDBLK
  5
D771
330
D766
100
AcDbEntity
  8
0
100
AcDbBlockEnd
  0
BLOCK
  5
D796
330
D78C
100
AcDbEntity
  8
0
100
AcDbBlockBegin
  2
*D16
 70
     1
 10
0.0
 20
0.0
 30
0.0
  3
*D16
  1

  0
LINE
  5
D86A
330
D78C
100
AcDbEntity
  8
AM_5
100
AcDbLine
 10
313.4674342138902
 20
697.9092659676543
 30
0.0
 11
193.6586149213118
 21
697.9092659676544
 31
0.0
  0
LINE
  5
D86B
330
D78C
100
AcDbEntity
  8
AM_5
100
AcDbLine
 10
312.9674342138893
 20
1107.909265967655
 30
0.0
 11
193.6586149213119
 21
1107.909265967655
 31
0.0
  0
LINE
  5
D86C
330
D78C
100
AcDbEntity
  8
AM_5
100
AcDbLine
 10
198.6586149213118
 20
702.9092659676543
 30
0.0
 11
198.6586149213119
 21
1102.909265967655
 31
0.0
  0
INSERT
  5
D86D
330
D78C
100
AcDbEntity
  8
AM_5
100
AcDbBlockReference
  2
_Dot
 10
198.6586149213118
 20
697.9092659676544
 30
0.0
 41
5.0
 42
5.0
 43
5.0
 50
270.0
  0
INSERT
  5
D86E
330
D78C
100
AcDbEntity
  8
AM_5
100
AcDbBlockReference
  2
_Dot
 10
198.6586149213119
 20
1107.909265967655
 30
0.0
 41
5.0
 42
5.0
 43
5.0
 50
90.0
  0
MTEXT
  5
D86F
330
D78C
100
AcDbEntity
  8
AM_5
 62
     2
100
AcDbMText
 10
183.1586149213117
 20
902.9092659676546
 30
0.0
 40
16.0
 41
0.0
 71
     5
 72
     1
  1
410
 11
0.0000000000000001
 21
1.0
 31
0.0
 73
     1
 44
1.0
1001
ACAD
1000
MTEXTBEGIN
1070
    73
1070
     1
1070
    44
1040
1.0
1070
    74
1070
     0
1000
MTEXTEND
  0
POINT
  5
D870
330
D78C
100
AcDbEntity
  8
Defpoints
 62
     0
100
AcDbPoint
 10
318.4674342138902
 20
697.9092659676543
 30
0.0
  0
POINT
  5
D871
330
D78C
100
AcDbEntity
  8
Defpoints
 62
     0
100
AcDbPoint
 10
317.9674342138893
 20
1107.909265967655
 30
0.0
  0
POINT
  5
D872
330
D78C
100
AcDbEntity
  8
Defpoints
 62
     0
100
AcDbPoint
 10
198.6586149213119
 20
1107.909265967655
 30
0.0
  0
ENDBLK
  5
D797
330
D78C
100
AcDbEntity
  8
0
100
AcDbBlockEnd
  0
BLOCK
  5
D7C0
330
D7B6
100
AcDbEntity
  8
0
100
AcDbBlockBegin
  2
*D17
 70
     1
 10
0.0
 20
0.0
 30
0.0
  3
*D17
  1

  0
LINE
  5
D884
330
D7B6
100
AcDbEntity
  8
AM_5
100
AcDbLine
 10
349.9674342138893
 20
947.9092659676544
 30
0.0
 11
349.9674342138893
 21
1189.929123799676
 31
0.0
  0
LINE
  5
D885
330
D7B6
100
AcDbEntity
  8
AM_5
100
AcDbLine
 10
449.9674342138891
 20
947.9092659676544
 30
0.0
 11
449.9674342138891
 21
1189.929123799676
 31
0.0
  0
LINE
  5
D886
330
D7B6
100
AcDbEntity
  8
AM_5
100
AcDbLine
 10
354.9674342138893
 20
1184.929123799677
 30
0.0
 11
444.9674342138893
 21
1184.929123799677
 31
0.0
  0
INSERT
  5
D887
330
D7B6
100
AcDbEntity
  8
AM_5
100
AcDbBlockReference
  2
_Dot
 10
349.9674342138893
 20
1184.929123799677
 30
0.0
 41
5.0
 42
5.0
 43
5.0
 50
180.0
  0
INSERT
  5
D888
330
D7B6
100
AcDbEntity
  8
AM_5
100
AcDbBlockReference
  2
_Dot
 10
449.9674342138891
 20
1184.929123799677
 30
0.0
 41
5.0
 42
5.0
 43
5.0
  0
MTEXT
  5
D889
330
D7B6
100
AcDbEntity
  8
AM_5
 62
     2
100
AcDbMText
 10
399.9674342138894
 20
1200.429123799677
 30
0.0
 40
16.0
 41
0.0
 71
     5
 72
     1
  1
100
 73
     1
 44
1.0
1001
ACAD
1000
MTEXTBEGIN
1070
    73
1070
     1
1070
    44
1040
1.0
1070
    74
1070
     0
1000
MTEXTEND
  0
POINT
  5
D88A
330
D7B6
100
AcDbEntity
  8
Defpoints
 62
     0
100
AcDbPoint
 10
349.9674342138893
 20
942.9092659676546
 30
0.0
  0
POINT
  5
D88B
330
D7B6
100
AcDbEntity
  8
Defpoints
 62
     0
100
AcDbPoint
 10
449.9674342138891
 20
942.9092659676546
 30
0.0
  0
POINT
  5
D88C
330
D7B6
100
AcDbEntity
  8
Defpoints
 62
     0
100
AcDbPoint
 10
449.9674342138891
 20
1184.929123799677
 30
0.0
  0
ENDBLK
  5
D7C1
330
D7B6
100
AcDbEntity
  8
0
100
AcDbBlockEnd
  0
BLOCK
  5
D827
330
D81D
100
AcDbEntity
  8
0
100
AcDbBlockBegin
  2
*D18
 70
     1
 10
0.0
 20
0.0
 30
0.0
  3
*D18
  1

  0
LINE
  5
D82B
330
D81D
100
AcDbEntity
  8
AM_5
100
AcDbLine
 10
891.091486865254
 20
1037.909265967654
 30
0.0
 11
828.0914868652555
 21
1037.909265967654
 31
0.0
  0
LINE
  5
D82C
330
D81D
100
AcDbEntity
  8
AM_5
100
AcDbLine
 10
888.091486865254
 20
1177.909265967654
 30
0.0
 11
828.0914868652555
 21
1177.909265967654
 31
0.0
  0
LINE
  5
D82D
330
D81D
100
AcDbEntity
  8
AM_5
100
AcDbLine
 10
833.0914868652556
 20
1042.909265967654
 30
0.0
 11
833.0914868652556
 21
1172.909265967654
 31
0.0
  0
INSERT
  5
D82E
330
D81D
100
AcDbEntity
  8
AM_5
100
AcDbBlockReference
  2
_Dot
 10
833.0914868652556
 20
1037.909265967654
 30
0.0
 41
5.0
 42
5.0
 43
5.0
 50
270.0
  0
INSERT
  5
D82F
330
D81D
100
AcDbEntity
  8
AM_5
100
AcDbBlockReference
  2
_Dot
 10
833.0914868652556
 20
1177.909265967654
 30
0.0
 41
5.0
 42
5.0
 43
5.0
 50
90.0
  0
MTEXT
  5
D830
330
D81D
100
AcDbEntity
  8
AM_5
 62
     2
100
AcDbMText
 10
817.5914868652554
 20
1107.909265967654
 30
0.0
 40
16.0
 41
0.0
 71
     5
 72
     1
  1
140
 11
0.0000000000000001
 21
1.0
 31
0.0
 73
     1
 44
1.0
1001
ACAD
1000
MTEXTBEGIN
1070
    73
1070
     1
1070
    44
1040
1.0
1070
    74
1070
     0
1000
MTEXTEND
  0
POINT
  5
D831
330
D81D
100
AcDbEntity
  8
Defpoints
 62
     0
100
AcDbPoint
 10
896.091486865254
 20
1037.909265967654
 30
0.0
  0
POINT
  5
D832
330
D81D
100
AcDbEntity
  8
Defpoints
 62
     0
100
AcDbPoint
 10
893.0914868652541
 20
1177.909265967654
 30
0.0
  0
POINT
  5
D833
330
D81D
100
AcDbEntity
  8
Defpoints
 62
     0
100
AcDbPoint
 10
833.0914868652556
 20
1177.909265967654
 30
0.0
  0
ENDBLK
  5
D828
330
D81D
100
AcDbEntity
  8
0
100
AcDbBlockEnd
  0
BLOCK
  5
D9F2
330
D9EB
100
AcDbEntity
  8
0
100
AcDbBlockBegin
  2
*S2019
 70
     1
 10
0.0
 20
0.0
 30
0.0
  3
*S2019
  1

  0
LINE
  5
D9EC
330
D9EB
100
AcDbEntity
  8
AM_5
 62
     3
100
AcDbLine
 10
98.47941073413997
 20
594.2026534075465
 30
0.0
 11
230.95941073414
 21
594.2026534075465
 31
0.0
  0
LINE
  5
D9ED
330
D9EB
100
AcDbEntity
  8
AM_5
 62
     3
100
AcDbLine
 10
230.95941073414
 20
594.2026534075465
 30
0.0
 11
391.6361820297246
 21
692.6835829726144
 31
0.0
  0
LINE
  5
D9EE
330
D9EB
100
AcDbEntity
  8
AM_5
  6
Continuous
 62
     3
100
AcDbLine
 10
391.6361820297246
 20
692.6835829726144
 30
0.0
 11
400.1621562987071
 21
697.9092659676543
 31
0.0
  0
LINE
  5
D9EF
330
D9EB
100
AcDbEntity
  8
AM_5
  6
Continuous
 62
     3
100
AcDbLine
 10
393.0363995554424
 20
690.3990550732796
 30
0.0
 11
400.1621562987071
 21
697.9092659676543
 31
0.0
  0
LINE
  5
D9F0
330
D9EB
100
AcDbEntity
  8
AM_5
  6
Continuous
 62
     3
100
AcDbLine
 10
400.1621562987071
 20
697.9092659676543
 30
0.0
 11
390.235964504007
 21
694.9681108719492
 31
0.0
  0
MTEXT
  5
D9F1
330
D9EB
100
AcDbEntity
  8
AM_5
 62
     2
100
AcDbMText
 10
98.47941073413997
 20
602.2026534075465
 30
0.0
 40
16.0
 41
0.0
 71
     7
 72
     5
  1
インターホン部切欠
 73
     1
 44
1.0
1001
ACAD
1000
MTEXTBEGIN
1070
    73
1070
     1
1070
    44
1040
1.0
1070
    74
1070
     0
1000
MTEXTEND
  0
ENDBLK
  5
D9F3
330
D9EB
100
AcDbEntity
  8
0
100
AcDbBlockEnd
  0
BLOCK
  5
D9FC
330
D9F5
100
AcDbEntity
  8
0
100
AcDbBlockBegin
  2
*S2120
 70
     1
 10
0.0
 20
0.0
 30
0.0
  3
*S2120
  1

  0
LINE
  5
D9F6
330
D9F5
100
AcDbEntity
  8
AM_5
 62
     3
100
AcDbLine
 10
201.4602991104446
 20
1166.009511599612
 30
0.0
 11
281.6736324437779
 21
1166.009511599612
 31
0.0
  0
LINE
  5
D9F7
330
D9F5
100
AcDbEntity
  8
AM_5
 62
     3
100
AcDbLine
 10
281.6736324437779
 20
1166.009511599612
 30
0.0
 11
392.1809763400103
 21
1112.281777964054
 31
0.0
  0
LINE
  5
D9F8
330
D9F5
100
AcDbEntity
  8
AM_5
  6
Continuous
 62
     3
100
AcDbLine
 10
392.1809763400103
 20
1112.281777964054
 30
0.0
 11
401.1743705180356
 21
1107.909265967655
 31
0.0
  0
LINE
  5
D9F9
330
D9F5
100
AcDbEntity
  8
AM_5
  6
Continuous
 62
     3
100
AcDbLine
 10
391.0093652923097
 20
1109.872005278701
 30
0.0
 11
401.1743705180356
 21
1107.909265967655
 31
0.0
  0
LINE
  5
D9FA
330
D9F5
100
AcDbEntity
  8
AM_5
  6
Continuous
 62
     3
100
AcDbLine
 10
401.1743705180356
 20
1107.909265967655
 30
0.0
 11
393.3525873877109
 21
1114.691550649407
 31
0.0
  0
MTEXT
  5
D9FB
330
D9F5
100
AcDbEntity
  8
AM_5
 62
     2
100
AcDbMText
 10
201.4602991104446
 20
1174.009511599612
 30
0.0
 40
16.0
 41
0.0
 71
     7
 72
     5
  1
照明用切欠
 73
     1
 44
1.0
1001
ACAD
1000
MTEXTBEGIN
1070
    73
1070
     1
1070
    44
1040
1.0
1070
    74
1070
     0
1000
MTEXTEND
  0
ENDBLK
  5
D9FD
330
D9F5
100
AcDbEntity
  8
0
100
AcDbBlockEnd
  0
ENDSEC
  0
SECTION
  2
ENTITIES
  0
LINE
  5
C3B5
330
1F
100
AcDbEntity
  8
size
100
AcDbLine
 10
0.0
 20
0.0
 30
0.0
 11
2100.0
 21
0.0
 31
0.0
1001
GENIUS_GENREC_14
1002
{
1000
PYDIR
1011
0.0
1021
1485.0
1031
0.0
1002
}
1002
{
1000
PXDIR
1011
2100.0
1021
0.0
1031
0.0
1002
}
1002
{
1000
PORI
1011
0.0
1021
0.0
1031
0.0
1002
}
1002
{
1000
PINS
1011
1050.0
1021
742.4999999999998
1031
0.0
1002
}
1002
{
1000
HVAL
1000
297
1002
}
1002
{
1000
H
1070
     2
1002
}
1002
{
1000
WVAL
1000
420
1002
}
1002
{
1000
W
1070
     2
1002
}
1002
{
1000
C
1070
     4
1002
}
1001
GENIUS_GENOBJ-N-REC_13
1002
{
1000
OWNER
1000
GEN
1002
}
1001
GENIUS_GENODEF_13
1002
{
1000
HIER
1070
     0
1002
}
1002
{
1000
MANEDIT
1070
     0
1002
}
1002
{
1000
NOSEL
1070
     0
1002
}
1002
{
1000
BEHIND
1070
     0
1002
}
1002
{
1000
OTHER
1070
     0
1002
}
1002
{
1000
REACTOR
1002
}
  0
LINE
  5
C3B6
330
1F
100
AcDbEntity
  8
size
100
AcDbLine
 10
2100.0
 20
0.0
 30
0.0
 11
2100.0
 21
1485.0
 31
0.0
1001
GENIUS_GENREC_14
1002
{
1000
PYDIR
1011
0.0
1021
1485.0
1031
0.0
1002
}
1002
{
1000
PXDIR
1011
2100.0
1021
0.0
1031
0.0
1002
}
1002
{
1000
PORI
1011
0.0
1021
0.0
1031
0.0
1002
}
1002
{
1000
PINS
1011
1050.0
1021
742.4999999999998
1031
0.0
1002
}
1002
{
1000
HVAL
1000
297
1002
}
1002
{
1000
H
1070
     2
1002
}
1002
{
1000
WVAL
1000
420
1002
}
1002
{
1000
W
1070
     2
1002
}
1002
{
1000
C
1070
     4
1002
}
1001
GENIUS_GENOBJ-N-REC_13
1002
{
1000
OWNER
1000
GEN
1002
}
1001
GENIUS_GENODEF_13
1002
{
1000
HIER
1070
     0
1002
}
1002
{
1000
MANEDIT
1070
     0
1002
}
1002
{
1000
NOSEL
1070
     0
1002
}
1002
{
1000
BEHIND
1070
     0
1002
}
1002
{
1000
OTHER
1070
     0
1002
}
1002
{
1000
REACTOR
1002
}
  0
LINE
  5
C3B7
330
1F
100
AcDbEntity
  8
size
100
AcDbLine
 10
2100.0
 20
1485.0
 30
0.0
 11
0.0
 21
1485.0
 31
0.0
1001
GENIUS_GENREC_14
1002
{
1000
PYDIR
1011
0.0
1021
1485.0
1031
0.0
1002
}
1002
{
1000
PXDIR
1011
2100.0
1021
0.0
1031
0.0
1002
}
1002
{
1000
PORI
1011
0.0
1021
0.0
1031
0.0
1002
}
1002
{
1000
PINS
1011
1050.0
1021
742.4999999999998
1031
0.0
1002
}
1002
{
1000
HVAL
1000
297
1002
}
1002
{
1000
H
1070
     2
1002
}
1002
{
1000
WVAL
1000
420
1002
}
1002
{
1000
W
1070
     2
1002
}
1002
{
1000
C
1070
     4
1002
}
1001
GENIUS_GENOBJ-N-REC_13
1002
{
1000
OWNER
1000
GEN
1002
}
1001
GENIUS_GENODEF_13
1002
{
1000
HIER
1070
     0
1002
}
1002
{
1000
MANEDIT
1070
     0
1002
}
1002
{
1000
NOSEL
1070
     0
1002
}
1002
{
1000
BEHIND
1070
     0
1002
}
1002
{
1000
OTHER
1070
     0
1002
}
1002
{
1000
REACTOR
1002
}
  0
LINE
  5
C3B8
330
1F
100
AcDbEntity
  8
size
100
AcDbLine
 10
0.0
 20
1485.0
 30
0.0
 11
0.0
 21
0.0
 31
0.0
1001
GENIUS_GENREC_14
1002
{
1000
PYDIR
1011
0.0
1021
1485.0
1031
0.0
1002
}
1002
{
1000
PXDIR
1011
2100.0
1021
0.0
1031
0.0
1002
}
1002
{
1000
PORI
1011
0.0
1021
0.0
1031
0.0
1002
}
1002
{
1000
PINS
1011
1050.0
1021
742.4999999999998
1031
0.0
1002
}
1002
{
1000
HVAL
1000
297
1002
}
1002
{
1000
H
1070
     2
1002
}
1002
{
1000
WVAL
1000
420
1002
}
1002
{
1000
W
1070
     2
1002
}
1002
{
1000
C
1070
     4
1002
}
1001
GENIUS_GENOBJ-N-REC_13
1002
{
1000
OWNER
1000
GEN
1002
}
1001
GENIUS_GENODEF_13
1002
{
1000
HIER
1070
     0
1002
}
1002
{
1000
MANEDIT
1070
     0
1002
}
1002
{
1000
NOSEL
1070
     0
1002
}
1002
{
1000
BEHIND
1070
     0
1002
}
1002
{
1000
OTHER
1070
     0
1002
}
1002
{
1000
REACTOR
1002
}
  0
LINE
  5
C3B9
330
1F
100
AcDbEntity
  8
waku
100
AcDbLine
 10
2042.5
 20
42.5
 30
0.0
 11
2042.5
 21
1442.5
 31
0.0
1001
GENIUS_GENREC_14
1002
{
1000
PYDIR
1011
0.0
1021
1485.0
1031
0.0
1002
}
1002
{
1000
PXDIR
1011
2100.0
1021
0.0
1031
0.0
1002
}
1002
{
1000
PORI
1011
0.0
1021
0.0
1031
0.0
1002
}
1002
{
1000
PINS
1011
1050.0
1021
742.4999999999998
1031
0.0
1002
}
1002
{
1000
HVAL
1000
297
1002
}
1002
{
1000
H
1070
     2
1002
}
1002
{
1000
WVAL
1000
420
1002
}
1002
{
1000
W
1070
     2
1002
}
1002
{
1000
C
1070
     4
1002
}
1001
GENIUS_GENOBJ-N-REC_13
1002
{
1000
OWNER
1000
GEN
1002
}
1001
GENIUS_GENODEF_13
1002
{
1000
HIER
1070
     0
1002
}
1002
{
1000
MANEDIT
1070
     0
1002
}
1002
{
1000
NOSEL
1070
     0
1002
}
1002
{
1000
BEHIND
1070
     0
1002
}
1002
{
1000
OTHER
1070
     0
1002
}
1002
{
1000
REACTOR
1002
}
  0
LINE
  5
C3BA
330
1F
100
AcDbEntity
  8
waku
100
AcDbLine
 10
57.5
 20
1442.5
 30
0.0
 11
57.5
 21
42.5
 31
0.0
1001
GENIUS_GENREC_14
1002
{
1000
PYDIR
1011
0.0
1021
1485.0
1031
0.0
1002
}
1002
{
1000
PXDIR
1011
2100.0
1021
0.0
1031
0.0
1002
}
1002
{
1000
PORI
1011
0.0
1021
0.0
1031
0.0
1002
}
1002
{
1000
PINS
1011
1050.0
1021
742.4999999999998
1031
0.0
1002
}
1002
{
1000
HVAL
1000
297
1002
}
1002
{
1000
H
1070
     2
1002
}
1002
{
1000
WVAL
1000
420
1002
}
1002
{
1000
W
1070
     2
1002
}
1002
{
1000
C
1070
     4
1002
}
1001
GENIUS_GENOBJ-N-REC_13
1002
{
1000
OWNER
1000
GEN
1002
}
1001
GENIUS_GENODEF_13
1002
{
1000
HIER
1070
     0
1002
}
1002
{
1000
MANEDIT
1070
     0
1002
}
1002
{
1000
NOSEL
1070
     0
1002
}
1002
{
1000
BEHIND
1070
     0
1002
}
1002
{
1000
OTHER
1070
     0
1002
}
1002
{
1000
REACTOR
1002
}
  0
LINE
  5
C3BB
330
1F
100
AcDbEntity
  8
waku
100
AcDbLine
 10
2042.5
 20
1442.5
 30
0.0
 11
57.5
 21
1442.5
 31
0.0
1001
GENIUS_GENREC_14
1002
{
1000
PYDIR
1011
0.0
1021
1485.0
1031
0.0
1002
}
1002
{
1000
PXDIR
1011
2100.0
1021
0.0
1031
0.0
1002
}
1002
{
1000
PORI
1011
0.0
1021
0.0
1031
0.0
1002
}
1002
{
1000
PINS
1011
1050.0
1021
742.4999999999998
1031
0.0
1002
}
1002
{
1000
HVAL
1000
297
1002
}
1002
{
1000
H
1070
     2
1002
}
1002
{
1000
WVAL
1000
420
1002
}
1002
{
1000
W
1070
     2
1002
}
1002
{
1000
C
1070
     4
1002
}
1001
GENIUS_GENOBJ-N-REC_13
1002
{
1000
OWNER
1000
GEN
1002
}
1001
GENIUS_GENODEF_13
1002
{
1000
HIER
1070
     0
1002
}
1002
{
1000
MANEDIT
1070
     0
1002
}
1002
{
1000
NOSEL
1070
     0
1002
}
1002
{
1000
BEHIND
1070
     0
1002
}
1002
{
1000
OTHER
1070
     0
1002
}
1002
{
1000
REACTOR
1002
}
  0
LINE
  5
C3BC
330
1F
100
AcDbEntity
  8
waku
100
AcDbLine
 10
57.5
 20
42.5
 30
0.0
 11
2042.5
 21
42.5
 31
0.0
  0
LINE
  5
C3BD
330
1F
100
AcDbEntity
  8
AM_0
100
AcDbLine
 10
57.5
 20
1442.5
 30
0.0
 11
607.5
 21
1442.5
 31
0.0
  0
LINE
  5
C3BE
330
1F
100
AcDbEntity
  8
AM_0
100
AcDbLine
 10
1449.992719050113
 20
1246.300409217617
 30
0.0
 11
2006.843941301622
 21
1246.300409217617
 31
0.0
  0
LINE
  5
C3BF
330
1F
100
AcDbEntity
  8
AM_0
100
AcDbLine
 10
1543.742719050113
 20
1276.300409217618
 30
0.0
 11
1543.742719050113
 21
826.3981426760937
 31
0.0
  0
LINE
  5
C3C0
330
1F
100
AcDbEntity
  8
AM_0
100
AcDbLine
 10
1449.992719050113
 20
1276.300409217618
 30
0.0
 11
1449.992719050113
 21
826.3981426760937
 31
0.0
  0
LINE
  5
C3C1
330
1F
100
AcDbEntity
  8
AM_0
100
AcDbLine
 10
1449.992719050113
 20
1276.300409217618
 30
0.0
 11
2006.843941301622
 21
1276.300409217618
 31
0.0
  0
LINE
  5
C3C2
330
1F
100
AcDbEntity
  8
AM_0
100
AcDbLine
 10
57.5
 20
1402.5
 30
0.0
 11
607.5
 21
1402.5
 31
0.0
  0
LINE
  5
C3C3
330
1F
100
AcDbEntity
  8
AM_0
100
AcDbLine
 10
157.5
 20
1442.5
 30
0.0
 11
157.5
 21
1362.5
 31
0.0
  0
LINE
  5
C3C4
330
1F
100
AcDbEntity
  8
AM_0
100
AcDbLine
 10
57.5
 20
1362.5
 30
0.0
 11
607.5
 21
1362.5
 31
0.0
  0
LINE
  5
C3C5
330
1F
100
AcDbEntity
  8
AM_0
100
AcDbLine
 10
2006.843941301622
 20
1276.300409217618
 30
0.0
 11
2006.843941301622
 21
826.3981426760937
 31
0.0
  0
LINE
  5
C3C6
330
1F
100
AcDbEntity
  8
AM_0
100
AcDbLine
 10
1449.992719050113
 20
1126.300409217617
 30
0.0
 11
2006.843941301622
 21
1126.300409217617
 31
0.0
  0
LINE
  5
C3C9
330
1F
100
AcDbEntity
  8
AM_0
100
AcDbLine
 10
1449.992719050113
 20
826.3981426760937
 30
0.0
 11
2006.843941301622
 21
826.3981426760937
 31
0.0
  0
LINE
  5
C3CA
330
1F
100
AcDbEntity
  8
AM_0
100
AcDbLine
 10
607.5
 20
1442.5
 30
0.0
 11
607.5
 21
1362.5
 31
0.0
  0
TEXT
  5
C3CC
330
1F
100
AcDbEntity
  8
AM_6
100
AcDbText
 10
1617.134906550115
 20
1283.800409217618
 30
0.0
 40
15.0
  1
仕様表
 41
0.8553702799999999
100
AcDbText
  0
TEXT
  5
C3CD
330
1F
100
AcDbEntity
  8
AM_6
100
AcDbText
 10
93.78499999999986
 20
1414.5
 30
0.0
 40
16.0
  1
品名
 41
0.8643907499999999
100
AcDbText
  0
TEXT
  5
C3CE
330
1F
100
AcDbEntity
  8
AM_6
100
AcDbText
 10
93.78499999999986
 20
1374.5
 30
0.0
 40
16.0
  1
品番
 41
0.8643907499999999
100
AcDbText
  0
TEXT
  5
C3CF
330
1F
100
AcDbEntity
  8
AM_6
100
AcDbText
 10
1482.387301904586
 20
1255.300409217618
 30
0.0
 40
12.0
  1
横板
 41
0.8643907499999999
100
AcDbText
  0
TEXT
  5
C3D0
330
1F
100
AcDbEntity
  8
AM_6
100
AcDbText
 10
1482.268894030002
 20
1179.990407160997
 30
0.0
 40
12.0
  1
照明
 41
0.84741102
100
AcDbText
  0
TEXT
  5
C3D1
330
1F
100
AcDbEntity
  8
AM_6
100
AcDbText
 10
1476.268894030002
 20
1104.836857006733
 30
0.0
 40
12.0
  1
室名札
 41
0.84634979
100
AcDbText
  0
TEXT
  5
C3D3
330
1F
100
AcDbEntity
  8
AM_6
100
AcDbText
 10
1477.448575600255
 20
954.8064016207673
 30
0.0
 40
12.0
  1
新聞受
 41
0.84634979
100
AcDbText
  0
TEXT
  5
C3D4
330
1F
100
AcDbEntity
  8
AM_6
100
AcDbText
 10
1474.581469050114
 20
867.010785950425
 30
0.0
 40
12.0
  1
付属部品
 41
0.8512700499999999
100
AcDbText
  0
TEXT
  5
C3D5
330
1F
100
AcDbEntity
  8
AM_6
100
AcDbText
 10
1447.372025000002
 20
603.8776059999994
 30
0.0
 40
16.0
  1
※室番号シールは別途手配となります。
 41
0.8426054399999999
100
AcDbText
  0
TEXT
  5
C3D6
330
1F
100
AcDbEntity
  8
AM_6
100
AcDbText
 10
1447.372025000002
 20
562.8776075000001
 30
0.0
 40
16.0
  1
※品番の「　」にはインターホンメーカー別の型番が入ります。インターホン
 41
0.8414926099999997
100
AcDbText
  0
TEXT
  5
C3D7
330
1F
100
AcDbEntity
  8
AM_6
100
AcDbText
 10
1447.372025000002
 20
538.8776065000001
 30
0.0
 40
16.0
  1
　対応メーカー及び機種についての詳しい情報はインターホンパネルのページを
 41
0.8414601799999999
100
AcDbText
  0
TEXT
  5
C3D8
330
1F
100
AcDbEntity
  8
AM_6
100
AcDbText
 10
1447.372025000002
 20
514.8776049999995
 30
0.0
 40
16.0
  1
　ご参照下さい。
 41
0.8455654
100
AcDbText
  0
TEXT
  5
C3D9
330
1F
100
AcDbEntity
  8
AM_6
100
AcDbText
 10
1447.372025000002
 20
470.8776399999996
 30
0.0
 40
16.0
  1
※インターホン部切欠は使用するインターホン子機により異なります。
 41
0.8416021699999999
100
AcDbText
  0
TEXT
  5
C3DA
330
1F
100
AcDbEntity
  8
AM_6
100
AcDbText
 10
1447.372025000002
 20
446.8776400000002
 30
0.0
 40
16.0
  1
　詳しい情報はインターホンパネルのページをご参照下さい。
 41
0.8417852099999999
100
AcDbText
  0
LWPOLYLINE
  5
C969
102
{ACAD_REACTORS
330
C9E5
330
C9EE
102
}
330
1F
100
AcDbEntity
  8
AM_0
100
AcDbPolyline
 90
        4
 70
     1
 43
0.0
 10
1344.298240405488
 20
227.9092659676542
 10
1324.298240405488
 20
227.9092659676542
 10
1324.298240405488
 20
1177.909265967654
 10
1344.298240405488
 20
1177.909265967654
1001
GENIUS_GENREC_14
1002
{
1000
PYDIR
1011
1344.298240405488
1021
1177.909265967654
1031
0.0
1002
}
1002
{
1000
PXDIR
1011
1324.298240405488
1021
227.9092659676542
1031
0.0
1002
}
1002
{
1000
PORI
1011
1344.298240405488
1021
227.9092659676542
1031
0.0
1002
}
1002
{
1000
PINS
1011
1344.298240405488
1021
227.9092659676542
1031
0.0
1002
}
1002
{
1000
PINS2
1011
1324.298240405488
1021
1177.909265967654
1031
0.0
1002
}
1002
{
1000
C
1070
     1
1002
}
1001
GENIUS_GENOBJ-N-REC_13
1002
{
1000
OWNER
1000
GEN
1002
}
1001
GENIUS_GENODEF_13
1002
{
1000
HIER
1070
     0
1002
}
1002
{
1000
MANEDIT
1070
     0
1002
}
1002
{
1000
NOSEL
1070
     0
1002
}
1002
{
1000
BEHIND
1070
     0
1002
}
1002
{
1000
OTHER
1070
     0
1002
}
1002
{
1000
REACTOR
1002
}
  0
LWPOLYLINE
  5
C96A
102
{ACAD_REACTORS
330
CC2B
330
CE3B
330
D48B
330
D82A
102
}
330
1F
100
AcDbEntity
  8
AM_0
100
AcDbPolyline
 90
        4
 70
     1
 43
0.0
 10
893.0914868652541
 20
1177.909265967654
 10
896.091486865254
 20
1177.909265967654
 10
896.091486865254
 20
227.9092659676542
 10
893.0914868652541
 20
227.9092659676542
1001
GENIUS_GENREC_14
1002
{
1000
PYDIR
1011
893.0914868652541
1021
227.9092659676542
1031
0.0
1002
}
1002
{
1000
PXDIR
1011
896.091486865254
1021
1177.909265967654
1031
0.0
1002
}
1002
{
1000
PORI
1011
893.0914868652541
1021
1177.909265967654
1031
0.0
1002
}
1002
{
1000
PINS
1011
893.0914868652541
1021
1177.909265967654
1031
0.0
1002
}
1002
{
1000
PINS2
1011
896.091486865254
1021
227.9092659676542
1031
0.0
1002
}
1002
{
1000
C
1070
     1
1002
}
1001
GENIUS_GENODEF_13
1002
{
1000
HIER
1070
     0
1002
}
1002
{
1000
MANEDIT
1070
     0
1002
}
1002
{
1000
NOSEL
1070
     0
1002
}
1002
{
1000
BEHIND
1070
     0
1002
}
1002
{
1000
OTHER
1070
     0
1002
}
1002
{
1000
REACTOR
1002
}
1001
GENIUS_GENOBJ-N-REC_13
1002
{
1000
OWNER
1000
GEN
1002
}
  0
LWPOLYLINE
  5
C96B
102
{ACAD_REACTORS
330
D48B
102
}
330
1F
100
AcDbEntity
  8
AM_0
100
AcDbPolyline
 90
        4
 70
     1
 43
0.0
 10
1030.091486865254
 20
1177.909265967654
 10
1033.091486865254
 20
1177.909265967654
 10
1033.091486865254
 20
227.9092659676542
 10
1030.091486865254
 20
227.9092659676542
1001
GENIUS_GENREC_14
1002
{
1000
PYDIR
1011
1030.091486865254
1021
227.9092659676542
1031
0.0
1002
}
1002
{
1000
PXDIR
1011
1033.091486865254
1021
1177.909265967654
1031
0.0
1002
}
1002
{
1000
PORI
1011
1030.091486865254
1021
1177.909265967654
1031
0.0
1002
}
1002
{
1000
PINS
1011
1030.091486865254
1021
1177.909265967654
1031
0.0
1002
}
1002
{
1000
PINS2
1011
1033.091486865254
1021
227.9092659676542
1031
0.0
1002
}
1002
{
1000
C
1070
     1
1002
}
1001
GENIUS_GENODEF_13
1002
{
1000
HIER
1070
     0
1002
}
1002
{
1000
MANEDIT
1070
     0
1002
}
1002
{
1000
NOSEL
1070
     0
1002
}
1002
{
1000
BEHIND
1070
     0
1002
}
1002
{
1000
OTHER
1070
     0
1002
}
1002
{
1000
REACTOR
1002
}
1001
GENIUS_GENOBJ-N-REC_13
1002
{
1000
OWNER
1000
GEN
1002
}
  0
LINE
  5
C96C
102
{ACAD_REACTORS
330
C9EE
102
}
330
1F
100
AcDbEntity
  8
AM_0
100
AcDbLine
 10
1329.298240405488
 20
1177.909265967654
 30
0.0
 11
1274.298240405488
 21
1177.909265967654
 31
0.0
  0
LINE
  5
C96D
330
1F
100
AcDbEntity
  8
AM_0
100
AcDbLine
 10
1274.298240405488
 20
1177.909265967654
 30
0.0
 11
1274.298240405488
 21
1037.909265967654
 31
0.0
  0
LINE
  5
C96E
330
1F
100
AcDbEntity
  8
AM_0
100
AcDbLine
 10
1274.298240405488
 20
1037.909265967654
 30
0.0
 11
1324.298240405488
 21
1037.909265967654
 31
0.0
  0
LINE
  5
C96F
330
1F
100
AcDbEntity
  8
AM_2
100
AcDbLine
 10
1294.298240405488
 20
1177.909265967654
 30
0.0
 11
1294.298240405488
 21
1037.909265967654
 31
0.0
  0
LWPOLYLINE
  5
C970
330
1F
100
AcDbEntity
  8
AM_0
100
AcDbPolyline
 90
        4
 70
     1
 43
0.0
 10
896.091486865254
 20
1177.909265967655
 10
1030.091486865254
 20
1177.909265967655
 10
1030.091486865254
 20
1037.909265967654
 10
896.091486865254
 20
1037.909265967654
1001
GENIUS_GENREC_14
1002
{
1000
PYDIR
1011
896.091486865254
1021
1037.909265967654
1031
0.0
1002
}
1002
{
1000
PXDIR
1011
1030.091486865254
1021
1177.909265967655
1031
0.0
1002
}
1002
{
1000
PORI
1011
896.091486865254
1021
1177.909265967655
1031
0.0
1002
}
1002
{
1000
PINS
1011
896.091486865254
1021
1177.909265967655
1031
0.0
1002
}
1002
{
1000
PINS2
1011
1030.091486865254
1021
1037.909265967654
1031
0.0
1002
}
1002
{
1000
C
1070
     1
1002
}
1001
GENIUS_GENOBJ-N-REC_13
1002
{
1000
OWNER
1000
GEN
1002
}
1001
GENIUS_GENODEF_13
1002
{
1000
HIER
1070
     0
1002
}
1002
{
1000
MANEDIT
1070
     0
1002
}
1002
{
1000
NOSEL
1070
     0
1002
}
1002
{
1000
BEHIND
1070
     0
1002
}
1002
{
1000
OTHER
1070
     0
1002
}
1002
{
1000
REACTOR
1002
}
  0
LINE
  5
C971
330
1F
100
AcDbEntity
  8
AM_2
100
AcDbLine
 10
916.091486865254
 20
1037.909265967654
 30
0.0
 11
916.091486865254
 21
1177.909265967655
 31
0.0
  0
LINE
  5
C972
330
1F
100
AcDbEntity
  8
AM_2
100
AcDbLine
 10
1010.091486865254
 20
1037.909265967654
 30
0.0
 11
1010.091486865254
 21
1177.909265967655
 31
0.0
  0
LWPOLYLINE
  5
C973
102
{ACAD_REACTORS
330
D82A
102
}
330
1F
100
AcDbEntity
  8
AM_0
100
AcDbPolyline
 90
        4
 70
     1
 43
0.0
 10
896.091486865254
 20
1037.909265967654
 10
1030.091486865254
 20
1037.909265967654
 10
1030.091486865254
 20
937.9092659676532
 10
896.091486865254
 20
937.9092659676532
1001
GENIUS_GENREC_14
1002
{
1000
PYDIR
1011
896.091486865254
1021
937.9092659676532
1031
0.0
1002
}
1002
{
1000
PXDIR
1011
1030.091486865254
1021
1037.909265967654
1031
0.0
1002
}
1002
{
1000
PORI
1011
896.091486865254
1021
1037.909265967654
1031
0.0
1002
}
1002
{
1000
PINS
1011
896.091486865254
1021
1037.909265967654
1031
0.0
1002
}
1002
{
1000
PINS2
1011
1030.091486865254
1021
937.9092659676532
1031
0.0
1002
}
1002
{
1000
C
1070
     1
1002
}
1001
GENIUS_GENOBJ-N-REC_13
1002
{
1000
OWNER
1000
GEN
1002
}
1001
GENIUS_GENODEF_13
1002
{
1000
HIER
1070
     0
1002
}
1002
{
1000
MANEDIT
1070
     0
1002
}
1002
{
1000
NOSEL
1070
     0
1002
}
1002
{
1000
BEHIND
1070
     0
1002
}
1002
{
1000
OTHER
1070
     0
1002
}
1002
{
1000
REACTOR
1002
}
  0
LINE
  5
C974
330
1F
100
AcDbEntity
  8
AM_0
100
AcDbLine
 10
896.091486865254
 20
987.9092659676539
 30
0.0
 11
1030.091486865254
 21
987.9092659676532
 31
0.0
  0
LINE
  5
C975
330
1F
100
AcDbEntity
  8
AM_0
100
AcDbLine
 10
1030.091486865254
 20
957.9092659676533
 30
0.0
 11
896.091486865254
 21
957.9092659676533
 31
0.0
  0
LWPOLYLINE
  5
C978
330
1F
100
AcDbEntity
  8
AM_0
100
AcDbPolyline
 90
        4
 70
     1
 43
0.0
 10
896.5914868652541
 20
987.4092659676533
 10
1029.591486865254
 20
987.4092659676533
 10
1029.591486865254
 20
958.4092659676532
 10
896.5914868652541
 20
958.4092659676532
1001
GENIUS_GENREC_14
1002
{
1000
PYDIR
1011
896.5914868652541
1021
958.4092659676532
1031
0.0
1002
}
1002
{
1000
PXDIR
1011
1029.591486865254
1021
987.4092659676533
1031
0.0
1002
}
1002
{
1000
PORI
1011
896.5914868652541
1021
987.4092659676533
1031
0.0
1002
}
1002
{
1000
PINS
1011
896.5914868652541
1021
987.4092659676533
1031
0.0
1002
}
1002
{
1000
PINS2
1011
1029.591486865254
1021
958.4092659676532
1031
0.0
1002
}
1002
{
1000
C
1070
     1
1002
}
1001
GENIUS_GENOBJ-N-REC_13
1002
{
1000
OWNER
1000
GEN
1002
}
1001
GENIUS_GENODEF_13
1002
{
1000
HIER
1070
     0
1002
}
1002
{
1000
MANEDIT
1070
     0
1002
}
1002
{
1000
NOSEL
1070
     0
1002
}
1002
{
1000
BEHIND
1070
     0
1002
}
1002
{
1000
OTHER
1070
     0
1002
}
1002
{
1000
REACTOR
1002
}
  0
LWPOLYLINE
  5
C979
330
1F
100
AcDbEntity
  8
AM_0
100
AcDbPolyline
 90
        4
 70
     1
 43
0.0
 10
896.5914868652541
 20
937.4092659676543
 10
1029.591486865254
 20
937.4092659676543
 10
1029.591486865254
 20
898.4092659676544
 10
896.5914868652541
 20
898.4092659676544
1001
GENIUS_GENREC_14
1002
{
1000
PYDIR
1011
896.5914868652541
1021
898.4092659676544
1031
0.0
1002
}
1002
{
1000
PXDIR
1011
1029.591486865254
1021
937.4092659676543
1031
0.0
1002
}
1002
{
1000
PORI
1011
896.5914868652541
1021
937.4092659676543
1031
0.0
1002
}
1002
{
1000
PINS
1011
896.5914868652541
1021
937.4092659676543
1031
0.0
1002
}
1002
{
1000
PINS2
1011
1029.591486865254
1021
898.4092659676544
1031
0.0
1002
}
1002
{
1000
C
1070
     1
1002
}
1001
GENIUS_GENOBJ-N-REC_13
1002
{
1000
OWNER
1000
GEN
1002
}
1001
GENIUS_GENODEF_13
1002
{
1000
HIER
1070
     0
1002
}
1002
{
1000
MANEDIT
1070
     0
1002
}
1002
{
1000
NOSEL
1070
     0
1002
}
1002
{
1000
BEHIND
1070
     0
1002
}
1002
{
1000
OTHER
1070
     0
1002
}
1002
{
1000
REACTOR
1002
}
  0
LINE
  5
C97A
330
1F
100
AcDbEntity
  8
AM_0
 48
0.5
100
AcDbLine
 10
896.8915280639791
 20
268.1092049420424
 30
0.0
 11
896.0914792358595
 21
268.1092049420424
 31
0.0
  0
LINE
  5
C97B
330
1F
100
AcDbEntity
  8
AM_0
100
AcDbLine
 10
896.0914792358595
 20
377.8592659676529
 30
0.0
 11
896.0914792358595
 21
268.1092049420424
 31
0.0
  0
LINE
  5
C97C
330
1F
100
AcDbEntity
  8
AM_0
 48
0.5
100
AcDbLine
 10
898.2914792358592
 20
377.8592659676547
 30
0.0
 11
896.0914792358595
 21
377.8592659676529
 31
0.0
  0
LINE
  5
C97D
330
1F
100
AcDbEntity
  8
AM_0
 48
0.5
100
AcDbLine
 10
898.2914792358592
 20
402.9592659676536
 30
0.0
 11
896.0914792358595
 21
402.9592659676536
 31
0.0
  0
LINE
  5
C97E
330
1F
100
AcDbEntity
  8
AM_0
 48
0.5
100
AcDbLine
 10
898.2914792358592
 20
402.9592659676536
 30
0.0
 11
898.2914792358592
 21
402.9092659676536
 31
0.0
  0
LINE
  5
C97F
330
1F
100
AcDbEntity
  8
AM_0
 48
0.5
100
AcDbLine
 10
898.2914792358592
 20
377.9092659676538
 30
0.0
 11
898.2914792358592
 21
377.8592659676538
 31
0.0
  0
LINE
  5
C980
330
1F
100
AcDbEntity
  8
AM_0
 48
0.5
100
AcDbLine
 10
1030.091494494648
 20
268.1092049420424
 30
0.0
 11
1029.291567736828
 21
268.1092049420424
 31
0.0
  0
LINE
  5
C981
330
1F
100
AcDbEntity
  8
AM_0
100
AcDbLine
 10
1030.091494494648
 20
268.1092049420424
 30
0.0
 11
1030.091494494648
 21
377.8592659676538
 31
0.0
  0
LINE
  5
C982
330
1F
100
AcDbEntity
  8
AM_0
 48
0.5
100
AcDbLine
 10
1030.091494494648
 20
377.8592659676538
 30
0.0
 11
1027.891494494648
 21
377.8592659676538
 31
0.0
  0
LINE
  5
C983
330
1F
100
AcDbEntity
  8
AM_0
 48
0.5
100
AcDbLine
 10
1030.091494494648
 20
402.9592659676536
 30
0.0
 11
1027.891494494648
 21
402.9592659676545
 31
0.0
  0
LINE
  5
C984
330
1F
100
AcDbEntity
  8
AM_0
 48
0.5
100
AcDbLine
 10
1027.891494494648
 20
377.8592659676538
 30
0.0
 11
1027.891494494648
 21
377.9092659676536
 31
0.0
  0
LINE
  5
C985
330
1F
100
AcDbEntity
  8
AM_0
 48
0.5
100
AcDbLine
 10
1027.891494494648
 20
402.9092659676536
 30
0.0
 11
1027.891494494648
 21
402.9592659676545
 31
0.0
  0
LINE
  5
C986
102
{ACAD_REACTORS
330
CD07
102
}
330
1F
100
AcDbEntity
  8
AM_0
100
AcDbLine
 10
1029.29156773683
 20
597.9092659676545
 30
0.0
 11
896.8915280639791
 21
597.9092659676537
 31
0.0
  0
LINE
  5
C987
330
1F
100
AcDbEntity
  8
AM_0
100
AcDbLine
 10
896.8915280639809
 20
597.1092171395341
 30
0.0
 11
896.0914792358595
 21
597.1092171395337
 31
0.0
  0
LINE
  5
C988
330
1F
100
AcDbEntity
  8
AM_0
100
AcDbLine
 10
1324.298240405488
 20
597.1092171395338
 30
0.0
 11
1324.298240405488
 21
267.9092659676546
 31
0.0
  0
LINE
  5
C989
330
1F
100
AcDbEntity
  8
AM_0
100
AcDbLine
 10
896.0914792358595
 20
597.1092171395337
 30
0.0
 11
896.0914792358595
 21
402.9592659676536
 31
0.0
  0
LINE
  5
C98A
330
1F
100
AcDbEntity
  8
AM_0
100
AcDbLine
 10
1030.091494494648
 20
402.9592659676536
 30
0.0
 11
1030.09149449465
 21
597.1092171395349
 31
0.0
  0
LINE
  5
C98B
330
1F
100
AcDbEntity
  8
AM_0
 48
0.5
100
AcDbLine
 10
1030.091616564959
 20
255.7092049420437
 30
0.0
 11
1030.091616564959
 21
240.2092995369942
 31
0.0
  0
LINE
  5
C98C
330
1F
100
AcDbEntity
  8
AM_0
100
AcDbLine
 10
896.8915280639791
 20
597.1092171395341
 30
0.0
 11
896.8915280639791
 21
597.9092659676537
 31
0.0
  0
LINE
  5
C98D
330
1F
100
AcDbEntity
  8
AM_0
100
AcDbLine
 10
1029.291567736828
 20
597.1092171395341
 30
0.0
 11
1030.09149449465
 21
597.1092171395349
 31
0.0
  0
LINE
  5
C98E
330
1F
100
AcDbEntity
  8
AM_0
100
AcDbLine
 10
1029.291567736828
 20
597.1092171395341
 30
0.0
 11
1029.29156773683
 21
597.9092659676545
 31
0.0
  0
LWPOLYLINE
  5
C98F
330
1F
100
AcDbEntity
  8
AM_0
100
AcDbPolyline
 90
        4
 70
     1
 43
0.0
 10
896.091486865254
 20
402.9092659676536
 10
1030.091486865253
 20
402.9092659676536
 10
1030.091486865253
 20
377.9092659676536
 10
896.091486865254
 20
377.9092659676538
1001
GENIUS_GENREC_14
1002
{
1000
PYDIR
1011
896.091486865254
1021
377.9092659676536
1031
0.0
1002
}
1002
{
1000
PXDIR
1011
1030.091486865253
1021
402.9092659676536
1031
0.0
1002
}
1002
{
1000
PORI
1011
896.091486865254
1021
402.9092659676536
1031
0.0
1002
}
1002
{
1000
PINS
1011
896.091486865254
1021
402.9092659676536
1031
0.0
1002
}
1002
{
1000
PINS2
1011
1030.091486865253
1021
377.9092659676536
1031
0.0
1002
}
1002
{
1000
C
1070
     1
1002
}
1001
GENIUS_GENOBJ-N-REC_13
1002
{
1000
OWNER
1000
GEN
1002
}
1001
GENIUS_GENODEF_13
1002
{
1000
HIER
1070
     0
1002
}
1002
{
1000
MANEDIT
1070
     0
1002
}
1002
{
1000
NOSEL
1070
     0
1002
}
1002
{
1000
BEHIND
1070
     0
1002
}
1002
{
1000
OTHER
1070
     0
1002
}
1002
{
1000
REACTOR
1002
}
  0
LINE
  5
C990
330
1F
100
AcDbEntity
  8
AM_2
100
AcDbLine
 10
1010.091486865253
 20
377.9092659676538
 30
0.0
 11
1010.091486865253
 21
402.9092659676538
 31
0.0
  0
LINE
  5
C991
330
1F
100
AcDbEntity
  8
AM_2
100
AcDbLine
 10
916.0914868652536
 20
377.9092659676538
 30
0.0
 11
916.0914868652536
 21
402.9092659676538
 31
0.0
  0
LWPOLYLINE
  5
C992
330
1F
100
AcDbEntity
  8
AM_0
100
AcDbPolyline
 90
        4
 70
     0
 43
0.0
 10
1324.298240405488
 20
377.9092659676536
 10
1274.298240405488
 20
377.9092659676536
 10
1274.298240405488
 20
402.9092659676536
 10
1324.298240405488
 20
402.9092659676536
1001
GENIUS_GENREC_14
1002
{
1000
PYDIR
1011
1343.298240405488
1021
377.9092659676536
1031
0.0
1002
}
1002
{
1000
PXDIR
1011
1274.298240405488
1021
402.9092659676536
1031
0.0
1002
}
1002
{
1000
PORI
1011
1274.298240405488
1021
377.9092659676536
1031
0.0
1002
}
1002
{
1000
PINS
1011
1274.298240405488
1021
377.9092659676536
1031
0.0
1002
}
1002
{
1000
PINS2
1011
1343.298240405488
1021
402.9092659676536
1031
0.0
1002
}
1002
{
1000
C
1070
     1
1002
}
1001
GENIUS_GENOBJ-N-REC_13
1002
{
1000
OWNER
1000
GEN
1002
}
1001
GENIUS_GENODEF_13
1002
{
1000
HIER
1070
     0
1002
}
1002
{
1000
MANEDIT
1070
     0
1002
}
1002
{
1000
NOSEL
1070
     0
1002
}
1002
{
1000
BEHIND
1070
     0
1002
}
1002
{
1000
OTHER
1070
     0
1002
}
1002
{
1000
REACTOR
1002
}
  0
LINE
  5
C993
330
1F
100
AcDbEntity
  8
AM_2
100
AcDbLine
 10
1293.735969157812
 20
377.9092659676536
 30
0.0
 11
1293.735969157812
 21
402.9092659676536
 31
0.0
  0
LWPOLYLINE
  5
C994
330
1F
100
AcDbEntity
  8
AM_0
100
AcDbPolyline
 90
        4
 70
     1
 43
0.0
 10
896.0914868652531
 20
267.9092659676546
 10
1030.091486865254
 20
267.9092659676546
 10
1030.091486865254
 20
227.9092659676547
 10
896.0914868652531
 20
227.9092659676547
1001
GENIUS_GENREC_14
1002
{
1000
PYDIR
1011
896.0914868652531
1021
227.9092659676547
1031
0.0
1002
}
1002
{
1000
PXDIR
1011
1030.091486865254
1021
267.9092659676546
1031
0.0
1002
}
1002
{
1000
PORI
1011
896.0914868652531
1021
267.9092659676546
1031
0.0
1002
}
1002
{
1000
PINS
1011
896.0914868652531
1021
267.9092659676546
1031
0.0
1002
}
1002
{
1000
PINS2
1011
1030.091486865254
1021
227.9092659676547
1031
0.0
1002
}
1002
{
1000
C
1070
     1
1002
}
1001
GENIUS_GENODEF_13
1002
{
1000
HIER
1070
     0
1002
}
1002
{
1000
MANEDIT
1070
     0
1002
}
1002
{
1000
NOSEL
1070
     0
1002
}
1002
{
1000
BEHIND
1070
     0
1002
}
1002
{
1000
OTHER
1070
     0
1002
}
1002
{
1000
REACTOR
1002
}
1001
GENIUS_GENOBJ-N-REC_13
1002
{
1000
OWNER
1000
GEN
1002
}
  0
LINE
  5
C995
330
1F
100
AcDbEntity
  8
AM_2
100
AcDbLine
 10
916.091486865255
 20
227.9092659676547
 30
0.0
 11
916.091486865255
 21
267.9092659676546
 31
0.0
  0
LINE
  5
C996
330
1F
100
AcDbEntity
  8
AM_2
100
AcDbLine
 10
1010.091486865251
 20
227.9092659676547
 30
0.0
 11
1010.091486865251
 21
267.9092659676546
 31
0.0
  0
LINE
  5
C997
330
1F
100
AcDbEntity
  8
AM_0
100
AcDbLine
 10
1029.291486865254
 20
267.9092659676546
 30
0.0
 11
1029.291567736828
 21
268.1092049420424
 31
0.0
  0
LINE
  5
C998
330
1F
100
AcDbEntity
  8
AM_0
100
AcDbLine
 10
896.8915280639791
 20
268.1092049420424
 30
0.0
 11
896.8915280639791
 21
267.9092659676546
 31
0.0
  0
LINE
  5
C999
102
{ACAD_REACTORS
330
C9E5
102
}
330
1F
100
AcDbEntity
  8
AM_0
100
AcDbLine
 10
1274.298240405488
 20
227.9092659676547
 30
0.0
 11
1341.298240405488
 21
227.9092659676547
 31
0.0
  0
LINE
  5
C99A
330
1F
100
AcDbEntity
  8
AM_0
100
AcDbLine
 10
1274.298240405488
 20
227.9092659676547
 30
0.0
 11
1274.298240405488
 21
267.9092659676546
 31
0.0
  0
LINE
  5
C99B
330
1F
100
AcDbEntity
  8
AM_0
100
AcDbLine
 10
1274.298240405488
 20
267.9092659676546
 30
0.0
 11
1324.298240405488
 21
267.9092659676546
 31
0.0
  0
LINE
  5
C99C
330
1F
100
AcDbEntity
  8
AM_2
100
AcDbLine
 10
1294.298240405489
 20
227.9092659676547
 30
0.0
 11
1294.298240405489
 21
267.9092659676546
 31
0.0
  0
LINE
  5
C99D
330
1F
100
AcDbEntity
  8
AM_0
100
AcDbLine
 10
1029.891490679954
 20
897.1092659676548
 30
0.0
 11
1029.091449481228
 21
897.1092659676548
 31
0.0
  0
LINE
  5
C99E
330
1F
100
AcDbEntity
  8
AM_0
100
AcDbLine
 10
1029.091449481228
 20
897.9092659676542
 30
0.0
 11
912.0914830505586
 21
897.9092659676542
 31
0.0
  0
LINE
  5
C99F
330
1F
100
AcDbEntity
  8
AM_0
100
AcDbLine
 10
896.2914983093494
 20
897.1092659676548
 30
0.0
 11
896.2914983093494
 21
598.7092659676533
 31
0.0
  0
LINE
  5
C9A0
102
{ACAD_REACTORS
330
CD07
330
CD2D
102
}
330
1F
100
AcDbEntity
  8
AM_0
 48
0.5
100
AcDbLine
 10
912.0914830505586
 20
897.9092659676542
 30
0.0
 11
897.0915318786797
 21
897.9092659676542
 31
0.0
  0
LINE
  5
C9A1
330
1F
100
AcDbEntity
  8
AM_0
100
AcDbLine
 10
1029.091449481228
 20
897.1092659676548
 30
0.0
 11
1029.091449481228
 21
897.9092659676542
 31
0.0
  0
LINE
  5
C9A2
330
1F
100
AcDbEntity
  8
AM_0
100
AcDbLine
 10
896.2914983093494
 20
897.1092659676548
 30
0.0
 11
897.0915318786797
 21
897.1092659676548
 31
0.0
  0
LINE
  5
C9A3
330
1F
100
AcDbEntity
  8
AM_0
100
AcDbLine
 10
897.0915318786797
 20
897.1092659676548
 30
0.0
 11
897.0915318786797
 21
897.9092659676542
 31
0.0
  0
LINE
  5
C9A4
330
1F
100
AcDbEntity
  8
AM_0
100
AcDbLine
 10
1029.091483050553
 20
597.9092659676541
 30
0.0
 11
897.091490679954
 21
597.9092659676541
 31
0.0
  0
LINE
  5
C9A5
330
1F
100
AcDbEntity
  8
AM_0
100
AcDbLine
 10
897.0914906799531
 20
598.7092659676553
 30
0.0
 11
896.2914906799538
 21
598.7092659676533
 31
0.0
  0
LINE
  5
C9A6
330
1F
100
AcDbEntity
  8
AM_0
100
AcDbLine
 10
1029.091483050553
 20
598.7092659922242
 30
0.0
 11
1029.891483050553
 21
598.7092659676533
 31
0.0
  0
LINE
  5
C9A7
330
1F
100
AcDbEntity
  8
AM_0
100
AcDbLine
 10
1029.891483050553
 20
598.7092659676533
 30
0.0
 11
1029.891490679954
 21
897.1092659676548
 31
0.0
  0
LINE
  5
C9A8
330
1F
100
AcDbEntity
  8
AM_0
100
AcDbLine
 10
897.091490679954
 20
597.9092659676541
 30
0.0
 11
897.0914906799531
 21
598.7092659676553
 31
0.0
  0
LINE
  5
C9A9
330
1F
100
AcDbEntity
  8
AM_0
100
AcDbLine
 10
1029.091483050553
 20
598.7092659922242
 30
0.0
 11
1029.091483050553
 21
597.9092659676541
 31
0.0
  0
DIMENSION
  5
C9E3
102
{ACAD_XDICTIONARY
360
C9E4
102
}
102
{ACAD_REACTORS
330
C9E5
102
}
330
1F
100
AcDbEntity
  8
AM_5
100
AcDbDimension
  2
*D4
 10
1274.298240405488
 20
167.9092659676542
 30
0.0
 11
1309.298240405488
 21
183.4092659676542
 31
0.0
 70
    32
 71
     5
 42
70.0
  3
SYS$0
100
AcDbAlignedDimension
 13
1344.298240405488
 23
227.9092659676542
 33
0.0
 14
1274.298240405488
 24
227.9092659676547
 34
0.0
100
AcDbRotatedDimension
1001
ACAD
1000
DSTYLE
1002
{
1070
    40
1040
5.0
1002
}
  0
DIMENSION
  5
C9EC
102
{ACAD_XDICTIONARY
360
C9ED
102
}
102
{ACAD_REACTORS
330
C9EE
102
}
330
1F
100
AcDbEntity
  8
AM_5
100
AcDbDimension
  2
*D5
 10
1344.298240405488
 20
1237.909266967654
 30
0.0
 11
1309.298240405488
 21
1253.409266967654
 31
0.0
 70
    32
 71
     5
 42
69.99999999999954
  3
SYS$0
100
AcDbAlignedDimension
 13
1274.298240405488
 23
1177.909265967654
 33
0.0
 14
1344.298240405488
 24
1177.909265967654
 34
0.0
100
AcDbRotatedDimension
1001
ACAD
1000
DSTYLE
1002
{
1070
    40
1040
5.0
1002
}
  0
LINE
  5
C9EF
330
1F
100
AcDbEntity
  8
AM_7
100
AcDbLine
 10
399.9674342138894
 20
1162.401101632089
 30
0.0
 11
399.9674342138893
 21
207.9092659676548
 31
0.0
1001
GENIUS_GENOBJ-N-CEN_13
1002
{
1000
OWNER
1000
GEN
1002
}
1001
GENIUS_GENODEF_13
1002
{
1000
HIER
1070
     0
1002
}
1002
{
1000
MANEDIT
1070
     0
1002
}
1002
{
1000
NOSEL
1070
     0
1002
}
1002
{
1000
BEHIND
1070
     0
1002
}
1002
{
1000
OTHER
1070
     0
1002
}
1002
{
1000
REACTOR
1002
}
1001
GENIUS_GENCEN_19
1002
{
1040
20.0
1002
}
  0
CIRCLE
  5
C9F4
102
{ACAD_REACTORS
330
CA82
102
}
330
1F
100
AcDbEntity
  8
AM_0
100
AcDbCircle
 10
449.9674342138891
 20
267.9092659676545
 30
0.0
 40
3.0
  0
LINE
  5
C9F5
102
{ACAD_REACTORS
330
CA7F
102
}
330
1F
100
AcDbEntity
  8
AM_7
 48
0.5
100
AcDbLine
 10
349.9674342138893
 20
242.9092659676545
 30
0.0
 11
349.9674342138893
 21
292.9092659676545
 31
0.0
1001
GENIUS_GENODEF_13
1002
{
1000
HIER
1070
     0
1002
}
1002
{
1000
MANEDIT
1070
     0
1002
}
1002
{
1000
NOSEL
1070
     0
1002
}
1002
{
1000
BEHIND
1070
     0
1002
}
1002
{
1000
OTHER
1070
     0
1002
}
1002
{
1000
REACTOR
1002
}
1001
GENIUS_GENOBJ-N-CEN_13
1002
{
1000
OWNER
1000
GEN
1002
}
1001
GENIUS_GENCEN_19
1002
{
1040
20.0
1002
}
  0
LINE
  5
C9F6
102
{ACAD_REACTORS
330
CA7F
102
}
330
1F
100
AcDbEntity
  8
AM_7
 48
0.5
100
AcDbLine
 10
449.9674342138891
 20
242.9092659676545
 30
0.0
 11
449.9674342138891
 21
292.9092659676545
 31
0.0
1001
GENIUS_GENODEF_13
1002
{
1000
HIER
1070
     0
1002
}
1002
{
1000
MANEDIT
1070
     0
1002
}
1002
{
1000
NOSEL
1070
     0
1002
}
1002
{
1000
BEHIND
1070
     0
1002
}
1002
{
1000
OTHER
1070
     0
1002
}
1002
{
1000
REACTOR
1002
}
1001
GENIUS_GENOBJ-N-CEN_13
1002
{
1000
OWNER
1000
GEN
1002
}
1001
GENIUS_GENCEN_19
1002
{
1040
20.0
1002
}
  0
CIRCLE
  5
C9F7
330
1F
100
AcDbEntity
  8
AM_0
100
AcDbCircle
 10
349.9674342138893
 20
267.9092659676545
 30
0.0
 40
2.999999999999998
  0
LINE
  5
C9F8
102
{ACAD_REACTORS
330
D727
330
D74D
102
}
330
1F
100
AcDbEntity
  8
AM_7
100
AcDbLine
 10
326.9674342138893
 20
267.9092659676545
 30
0.0
 11
472.9674342138893
 21
267.9092659676545
 31
0.0
1001
GENIUS_GENOBJ-N-CEN_13
1002
{
1000
OWNER
1000
GEN
1002
}
1001
GENIUS_GENODEF_13
1002
{
1000
HIER
1070
     0
1002
}
1002
{
1000
MANEDIT
1070
     0
1002
}
1002
{
1000
NOSEL
1070
     0
1002
}
1002
{
1000
BEHIND
1070
     0
1002
}
1002
{
1000
OTHER
1070
     0
1002
}
1002
{
1000
REACTOR
1002
}
1001
GENIUS_GENCEN_19
1002
{
1040
20.0
1002
}
  0
CIRCLE
  5
C9F9
330
1F
100
AcDbEntity
  8
AM_0
100
AcDbCircle
 10
449.9674342138891
 20
917.9092659676543
 30
0.0
 40
3.0
  0
LINE
  5
C9FA
102
{ACAD_REACTORS
330
D7C3
102
}
330
1F
100
AcDbEntity
  8
AM_7
 48
0.5
100
AcDbLine
 10
349.9674342138893
 20
892.9092659676546
 30
0.0
 11
349.9674342138893
 21
942.9092659676546
 31
0.0
1001
GENIUS_GENODEF_13
1002
{
1000
HIER
1070
     0
1002
}
1002
{
1000
MANEDIT
1070
     0
1002
}
1002
{
1000
NOSEL
1070
     0
1002
}
1002
{
1000
BEHIND
1070
     0
1002
}
1002
{
1000
OTHER
1070
     0
1002
}
1002
{
1000
REACTOR
1002
}
1001
GENIUS_GENOBJ-N-CEN_13
1002
{
1000
OWNER
1000
GEN
1002
}
1001
GENIUS_GENCEN_19
1002
{
1040
20.0
1002
}
  0
LINE
  5
C9FB
102
{ACAD_REACTORS
330
D7C3
102
}
330
1F
100
AcDbEntity
  8
AM_7
 48
0.5
100
AcDbLine
 10
449.9674342138891
 20
892.9092659676546
 30
0.0
 11
449.9674342138891
 21
942.9092659676546
 31
0.0
1001
GENIUS_GENODEF_13
1002
{
1000
HIER
1070
     0
1002
}
1002
{
1000
MANEDIT
1070
     0
1002
}
1002
{
1000
NOSEL
1070
     0
1002
}
1002
{
1000
BEHIND
1070
     0
1002
}
1002
{
1000
OTHER
1070
     0
1002
}
1002
{
1000
REACTOR
1002
}
1001
GENIUS_GENOBJ-N-CEN_13
1002
{
1000
OWNER
1000
GEN
1002
}
1001
GENIUS_GENCEN_19
1002
{
1040
20.0
1002
}
  0
CIRCLE
  5
C9FC
330
1F
100
AcDbEntity
  8
AM_0
100
AcDbCircle
 10
349.9674342138893
 20
917.9092659676543
 30
0.0
 40
2.999999999999998
  0
LINE
  5
C9FD
102
{ACAD_REACTORS
330
D727
330
D773
102
}
330
1F
100
AcDbEntity
  8
AM_7
100
AcDbLine
 10
326.9674342138893
 20
917.9092659676543
 30
0.0
 11
472.9674342138893
 21
917.9092659676543
 31
0.0
1001
GENIUS_GENOBJ-N-CEN_13
1002
{
1000
OWNER
1000
GEN
1002
}
1001
GENIUS_GENODEF_13
1002
{
1000
HIER
1070
     0
1002
}
1002
{
1000
MANEDIT
1070
     0
1002
}
1002
{
1000
NOSEL
1070
     0
1002
}
1002
{
1000
BEHIND
1070
     0
1002
}
1002
{
1000
OTHER
1070
     0
1002
}
1002
{
1000
REACTOR
1002
}
1001
GENIUS_GENCEN_19
1002
{
1040
20.0
1002
}
  0
LINE
  5
CA4D
102
{ACAD_REACTORS
330
D74D
102
}
330
1F
100
AcDbEntity
  8
AM_7
100
AcDbLine
 10
318.4674342138902
 20
697.9092659676543
 30
0.0
 11
481.4674342138901
 21
697.9092659676543
 31
0.0
1001
GENIUS_GENODEF_13
1002
{
1000
HIER
1070
     0
1002
}
1002
{
1000
MANEDIT
1070
     0
1002
}
1002
{
1000
NOSEL
1070
     0
1002
}
1002
{
1000
BEHIND
1070
     0
1002
}
1002
{
1000
OTHER
1070
     0
1002
}
1002
{
1000
REACTOR
1002
}
1001
GENIUS_GENOBJ-N-CEN_13
1002
{
1000
OWNER
1000
GEN
1002
}
1001
GENIUS_GENCEN_19
1002
{
1040
20.0
1002
}
  0
MTEXT
  5
CA7C
330
1F
100
AcDbEntity
  8
AM_6
100
AcDbMText
 10
400.6561117484426
 20
160.0772906477716
 30
0.0
 40
16.0
 41
0.0
 71
     2
 72
     5
  1
{\L壁面加工図}
 73
     1
 44
1.0
1001
ACAD
1000
MTEXTBEGIN
1070
    73
1070
     1
1070
    44
1040
1.0
1070
    74
1070
     0
1000
MTEXTEND
  0
DIMENSION
  5
CA7D
102
{ACAD_XDICTIONARY
360
CA7E
102
}
102
{ACAD_REACTORS
330
CA7F
102
}
330
1F
100
AcDbEntity
  8
AM_5
100
AcDbDimension
  2
*D6
 10
449.9674342138891
 20
176.6173775863847
 30
0.0
 11
399.9674342138893
 21
192.1173775863847
 31
0.0
 70
    32
 71
     5
 42
100.0
  3
SYS$0
100
AcDbAlignedDimension
 13
349.9674342138893
 23
242.9092659676545
 33
0.0
 14
449.9674342138891
 24
242.9092659676545
 34
0.0
100
AcDbRotatedDimension
1001
ACAD
1000
DSTYLE
1002
{
1070
    40
1040
5.0
1002
}
  0
DIMENSION
  5
CA80
102
{ACAD_XDICTIONARY
360
CA81
102
}
102
{ACAD_REACTORS
330
CA82
102
}
330
1F
100
AcDbEntity
  8
AM_5
100
AcDbDimension
  2
*D7
 10
448.6246187266394
 20
270.5919598687919
 30
0.0
 11
574.7734061613349
 21
176.314268993403
 31
0.0
 70
   163
  1
4-<>孔（深さ35）
 71
     5
 42
5.999999999999656
  3
SYS$3
100
AcDbDiametricDimension
 15
451.3102497011392
 25
265.2265720665166
 35
0.0
 40
0.0
1001
ACAD
1000
DSTYLE
1002
{
1070
    40
1040
5.0
1002
}
  0
INSERT
  5
CA83
330
1F
100
AcDbEntity
  8
AM_5
100
AcDbBlockReference
  2
*S2019
 10
0.0
 20
0.0
 30
0.0
  0
INSERT
  5
CA85
330
1F
100
AcDbEntity
  8
AM_5
100
AcDbBlockReference
  2
*S2120
 10
0.0
 20
0.0
 30
0.0
  0
DIMENSION
  5
CC1D
102
{ACAD_XDICTIONARY
360
CC2A
102
}
102
{ACAD_REACTORS
330
CC2B
102
}
330
1F
100
AcDbEntity
  8
AM_5
100
AcDbDimension
  2
*D8
 10
833.091486865254
 20
227.9092659676542
 30
0.0
 11
817.591486865254
 21
412.909265967654
 31
0.0
 70
    32
 71
     5
 42
369.9999999999996
  3
SYS$0
100
AcDbAlignedDimension
 13
896.8915280639791
 23
597.9092659676537
 33
0.0
 14
893.0914868652541
 24
227.9092659676542
 34
0.0
 50
90.0
100
AcDbRotatedDimension
1001
ACAD
1000
DSTYLE
1002
{
1070
    40
1040
5.0
1002
}
  0
DIMENSION
  5
CCF9
102
{ACAD_XDICTIONARY
360
CD06
102
}
102
{ACAD_REACTORS
330
CD07
102
}
330
1F
100
AcDbEntity
  8
AM_5
100
AcDbDimension
  2
*D9
 10
833.0914868652495
 20
897.9092659676542
 30
0.0
 11
817.5914868652492
 21
747.9092659676541
 31
0.0
 70
    32
 71
     5
 42
300.0000000000004
  3
SYS$0
100
AcDbAlignedDimension
 13
896.8915280639791
 23
597.9092659676537
 33
0.0
 14
897.0915318786797
 24
897.9092659676542
 34
0.0
 50
90.0000000000004
100
AcDbRotatedDimension
1001
ACAD
1000
DSTYLE
1002
{
1070
    40
1040
5.0
1002
}
  0
DIMENSION
  5
CD1F
102
{ACAD_XDICTIONARY
360
CD2C
102
}
102
{ACAD_REACTORS
330
CD2D
102
}
330
1F
100
AcDbEntity
  8
AM_5
100
AcDbDimension
  2
*D10
 10
833.091486865255
 20
1037.909265967654
 30
0.0
 11
817.5914868652549
 21
967.9092659676546
 31
0.0
 70
    32
 71
     5
 42
140.0000000000004
  3
SYS$0
100
AcDbAlignedDimension
 13
897.0915318786797
 23
897.9092659676542
 33
0.0
 14
896.091486865254
 24
1037.909265967654
 34
0.0
 50
90.00000000000005
100
AcDbRotatedDimension
1001
ACAD
1000
DSTYLE
1002
{
1070
    40
1040
5.0
1002
}
  0
DIMENSION
  5
CE2D
102
{ACAD_XDICTIONARY
360
CE3A
102
}
102
{ACAD_REACTORS
330
CE3B
102
}
330
1F
100
AcDbEntity
  8
AM_5
100
AcDbDimension
  2
*D11
 10
783.0914868652537
 20
227.9092659676542
 30
0.0
 11
767.5914868652537
 21
702.9092659676543
 31
0.0
 70
    32
 71
     5
 42
950.0
  3
SYS$0
100
AcDbAlignedDimension
 13
893.0914868652541
 23
1177.909265967654
 33
0.0
 14
893.0914868652541
 24
227.9092659676542
 34
0.0
 50
90.00000000000005
100
AcDbRotatedDimension
1001
ACAD
1000
DSTYLE
1002
{
1070
    40
1040
5.0
1002
}
  0
TEXT
  5
CECA
330
1F
100
AcDbEntity
  8
AM_6
100
AcDbText
 10
1552.347677777991
 20
1255.300409217618
 30
0.0
 40
12.0
  1
ユニット材質：ステンレス（ヘアーライン+クリアー塗装仕上）
 41
0.8643907499999999
100
AcDbText
  0
LINE
  5
CEE2
330
1F
100
AcDbEntity
  8
AM_0
100
AcDbLine
 10
1449.992719050113
 20
1066.300409217618
 30
0.0
 11
2006.843941301622
 21
1066.300409217618
 31
0.0
  0
LINE
  5
CEE3
330
1F
100
AcDbEntity
  8
AM_0
100
AcDbLine
 10
1449.992719050113
 20
1006.300409217617
 30
0.0
 11
2006.843941301622
 21
1006.300409217617
 31
0.0
  0
TEXT
  5
CEE4
330
1F
100
AcDbEntity
  8
AM_6
100
AcDbText
 10
1473.430144030002
 20
1045.798739160288
 30
0.0
 40
12.0
  1
インターホン
 41
0.62481887
100
AcDbText
  0
LINE
  5
CEEA
330
1F
100
AcDbEntity
  8
AM_0
100
AcDbLine
 10
1449.992719050113
 20
916.398142676094
 30
0.0
 11
2006.843941301622
 21
916.398142676094
 31
0.0
  0
TEXT
  5
CEEC
330
1F
100
AcDbEntity
  8
AM_6
100
AcDbText
 10
1552.347677777991
 20
1225.300409217618
 30
0.0
 40
12.0
  1
ユニット材質：ステンレス（ヘアーライン+クリアー塗装仕上）
 41
0.8643907499999999
100
AcDbText
  0
TEXT
  5
CEED
330
1F
100
AcDbEntity
  8
AM_6
100
AcDbText
 10
1552.347677777991
 20
1105.300409217617
 30
0.0
 40
12.0
  1
ユニット材質：ステンレス（ヘアーライン+クリアー塗装仕上）
 41
0.8643907499999999
100
AcDbText
  0
TEXT
  5
CEEE
330
1F
100
AcDbEntity
  8
AM_6
100
AcDbText
 10
1552.347677777991
 20
1045.300409217618
 30
0.0
 40
12.0
  1
ユニット材質：ステンレス（ヘアーライン+クリアー塗装仕上）
 41
0.8643907499999999
100
AcDbText
  0
TEXT
  5
CEEF
330
1F
100
AcDbEntity
  8
AM_6
100
AcDbText
 10
1552.347677777991
 20
985.3004092176176
 30
0.0
 40
12.0
  1
ユニット材質：ステンレス（ヘアーライン+クリアー塗装仕上）
 41
0.8643907499999999
100
AcDbText
  0
TEXT
  5
CEF0
330
1F
100
AcDbEntity
  8
AM_6
100
AcDbText
 10
1552.347677777991
 20
925.398142676094
 30
0.0
 40
12.0
  1
下部ガイド材質：ステンレス（ヘアーライン+クリアー塗装仕上）
 41
0.8599999999999997
100
AcDbText
  0
TEXT
  5
D28B
330
1F
100
AcDbEntity
  8
AM_6
100
AcDbText
 10
1552.347677777991
 20
1137.621996659428
 30
0.0
 40
12.0
  1
推奨電球：25W以下E17口金ミニ電球
 41
0.8643907499999999
100
AcDbText
  0
TEXT
  5
D28E
330
1F
100
AcDbEntity
  8
AM_6
100
AcDbText
 10
1552.347677777991
 20
1075.300409217617
 30
0.0
 40
12.0
  1
室番号札・室名札材質：アクリル樹脂（白色　マグネット付）
 41
0.8643907499999999
100
AcDbText
  0
TEXT
  5
D29C
330
1F
100
AcDbEntity
  8
AM_6
100
AcDbText
 10
1552.347677777991
 20
895.3981426760936
 30
0.0
 40
12.0
  1
下部取付用ブラケット（ステンレス）　1ヶ
 41
0.8643907499999999
100
AcDbText
  0
TEXT
  5
D29F
330
1F
100
AcDbEntity
  8
AM_6
100
AcDbText
 10
1552.347677777991
 20
865.3981426760937
 30
0.0
 40
12.0
  1
取付ビス：呼び4.0×30十字穴付トラスAタッピンネジ（ステンレス）　4本
 41
0.8643907499999999
100
AcDbText
  0
TEXT
  5
D2A9
330
1F
100
AcDbEntity
  8
AM_6
100
AcDbText
 10
1552.347677777991
 20
835.3981426760936
 30
0.0
 40
12.0
  1
　　　　：カールプラグ（ナイロン）　4本
 41
0.8643907499999999
100
AcDbText
  0
TEXT
  5
D2AB
330
1F
100
AcDbEntity
  8
AM_6
100
AcDbText
 10
194.1030628937369
 20
1414.5
 30
0.0
 40
16.0
  1
エントランスユニット（領収書クリップ付）
 41
0.8643907499999999
100
AcDbText
  0
TEXT
  5
D2AC
330
1F
100
AcDbEntity
  8
AM_6
100
AcDbText
 10
194.1030628937369
 20
1374.5
 30
0.0
 40
16.0
  1
EP-24SC-5「　」
 41
0.8643907499999999
100
AcDbText
  0
LINE
  5
D384
330
1F
100
AcDbEntity
  8
AM_0
100
AcDbLine
 10
896.006447221907
 20
557.9092659676963
 30
0.0
 11
1030.006462480696
 21
557.9092659676355
 31
0.0
  0
LINE
  5
D385
330
1F
100
AcDbEntity
  8
AM_0
100
AcDbLine
 10
896.006447221907
 20
517.9092659675568
 30
0.0
 11
1030.006462480696
 21
517.9092659674958
 31
0.0
  0
LINE
  5
D386
330
1F
100
AcDbEntity
  8
AM_0
100
AcDbLine
 10
1029.0064548513
 20
557.9092659676359
 30
0.0
 11
1029.0064548513
 21
546.6777306375853
 31
0.0
1001
GENIUS_GENREC_14
1002
{
1000
PYDIR
1011
897.0064548513006
1021
546.6777306375853
1031
0.0
1002
}
1002
{
1000
PXDIR
1011
1029.0064548513
1021
557.9092659676359
1031
0.0
1002
}
1002
{
1000
PORI
1011
897.0064548513006
1021
558.90926596754
1031
0.0
1002
}
1002
{
1000
PINS
1011
897.0064548513006
1021
558.90926596754
1031
0.0
1002
}
1002
{
1000
PINS2
1011
1029.0064548513
1021
546.6777306375853
1031
0.0
1002
}
1002
{
1000
C
1070
     1
1002
}
1001
GENIUS_GENOBJ-N-REC_13
1002
{
1000
OWNER
1000
GEN
1002
}
1001
GENIUS_GENODEF_13
1002
{
1000
HIER
1070
     0
1002
}
1002
{
1000
MANEDIT
1070
     0
1002
}
1002
{
1000
NOSEL
1070
     0
1002
}
1002
{
1000
BEHIND
1070
     0
1002
}
1002
{
1000
OTHER
1070
     0
1002
}
1002
{
1000
REACTOR
1002
}
  0
LINE
  5
D387
330
1F
100
AcDbEntity
  8
AM_0
100
AcDbLine
 10
1029.0064548513
 20
546.6777306375853
 30
0.0
 11
897.0064548513006
 21
546.6777306375853
 31
0.0
1001
GENIUS_GENREC_14
1002
{
1000
PYDIR
1011
897.0064548513006
1021
546.6777306375853
1031
0.0
1002
}
1002
{
1000
PXDIR
1011
1029.0064548513
1021
558.90926596754
1031
0.0
1002
}
1002
{
1000
PORI
1011
897.0064548513006
1021
558.90926596754
1031
0.0
1002
}
1002
{
1000
PINS
1011
897.0064548513006
1021
558.90926596754
1031
0.0
1002
}
1002
{
1000
PINS2
1011
1029.0064548513
1021
546.6777306375853
1031
0.0
1002
}
1002
{
1000
C
1070
     1
1002
}
1001
GENIUS_GENOBJ-N-REC_13
1002
{
1000
OWNER
1000
GEN
1002
}
1001
GENIUS_GENODEF_13
1002
{
1000
HIER
1070
     0
1002
}
1002
{
1000
MANEDIT
1070
     0
1002
}
1002
{
1000
NOSEL
1070
     0
1002
}
1002
{
1000
BEHIND
1070
     0
1002
}
1002
{
1000
OTHER
1070
     0
1002
}
1002
{
1000
REACTOR
1002
}
  0
LINE
  5
D388
330
1F
100
AcDbEntity
  8
AM_0
100
AcDbLine
 10
897.0064548513006
 20
546.6777306375853
 30
0.0
 11
897.0064548513001
 21
557.9092659676963
 31
0.0
1001
GENIUS_GENREC_14
1002
{
1000
PYDIR
1011
897.0064548513006
1021
546.6777306375853
1031
0.0
1002
}
1002
{
1000
PXDIR
1011
1029.0064548513
1021
558.90926596754
1031
0.0
1002
}
1002
{
1000
PORI
1011
897.0064548513001
1021
557.9092659676963
1031
0.0
1002
}
1002
{
1000
PINS
1011
897.0064548513001
1021
557.9092659676963
1031
0.0
1002
}
1002
{
1000
PINS2
1011
1029.0064548513
1021
546.6777306375853
1031
0.0
1002
}
1002
{
1000
C
1070
     1
1002
}
1001
GENIUS_GENOBJ-N-REC_13
1002
{
1000
OWNER
1000
GEN
1002
}
1001
GENIUS_GENODEF_13
1002
{
1000
HIER
1070
     0
1002
}
1002
{
1000
MANEDIT
1070
     0
1002
}
1002
{
1000
NOSEL
1070
     0
1002
}
1002
{
1000
BEHIND
1070
     0
1002
}
1002
{
1000
OTHER
1070
     0
1002
}
1002
{
1000
REACTOR
1002
}
  0
LINE
  5
D389
330
1F
100
AcDbEntity
  8
AM_2
100
AcDbLine
 10
1024.006454851301
 20
525.3091530524947
 30
0.0
 11
902.0064548513014
 21
525.3091530524947
 31
0.0
  0
LINE
  5
D38A
330
1F
100
AcDbEntity
  8
AM_0
100
AcDbLine
 10
897.0064548513015
 20
546.6777306375809
 30
0.0
 11
897.0064548513015
 21
517.9092659675331
 31
0.0
  0
LINE
  5
D38B
330
1F
100
AcDbEntity
  8
AM_0
100
AcDbLine
 10
1029.006454851301
 20
546.6777306375809
 30
0.0
 11
1029.006454851301
 21
517.9092659675331
 31
0.0
  0
MTEXT
  5
D38C
330
1F
100
AcDbEntity
  8
AM_6
100
AcDbMText
 10
925.6325327118954
 20
528.6530692655271
 30
0.0
 40
2.299999999999998
 41
0.0
 71
     4
 72
     5
  1
この面を押し上げるように領収書をはさんで使用して下さい。
 11
0.9999999999999992
 21
0.0000000437114029
 31
0.0
 73
     1
 44
1.0
1001
ACAD
1000
MTEXTBEGIN
1070
    73
1070
     1
1070
    44
1040
1.0
1070
    74
1070
     0
1000
MTEXTEND
  0
LINE
  5
D38D
330
1F
100
AcDbEntity
  8
AM_2
100
AcDbLine
 10
921.3082279225902
 20
526.4530892097448
 30
0.0
 11
1004.704697038801
 21
526.4530892097448
 31
0.0
  0
LINE
  5
D38E
330
1F
100
AcDbEntity
  8
AM_2
100
AcDbLine
 10
1004.704697038801
 20
545.2768807136437
 30
0.0
 11
921.3082279225902
 21
545.2768807136437
 31
0.0
  0
ARC
  5
D38F
330
1F
100
AcDbEntity
  8
AM_2
100
AcDbCircle
 10
974.3112033864614
 20
539.0122933113036
 30
0.0
 40
0.2533143162727
100
AcDbArc
 50
0.0000025044687019
 51
180.0000006832169
  0
LINE
  5
D390
330
1F
100
AcDbEntity
  8
AM_2
100
AcDbLine
 10
966.1431430837303
 20
538.0588936531046
 30
0.0
 11
967.3759616872407
 21
535.9236092292742
 31
0.0
  0
LINE
  5
D391
330
1F
100
AcDbEntity
  8
AM_2
100
AcDbLine
 10
972.6024631520806
 20
538.7226814948937
 30
0.0
 11
972.6024631520806
 21
535.9114937507548
 31
0.0
  0
LINE
  5
D392
330
1F
100
AcDbEntity
  8
AM_2
100
AcDbLine
 10
974.057907488021
 20
539.0122933113036
 30
0.0
 11
974.057907488021
 21
535.6199288093546
 31
0.0
  0
LINE
  5
D393
330
1F
100
AcDbEntity
  8
AM_2
100
AcDbLine
 10
974.5645298024806
 20
539.0122933113036
 30
0.0
 11
974.5645298024806
 21
537.6849007331753
 31
0.0
  0
ARC
  5
D394
330
1F
100
AcDbEntity
  8
AM_2
100
AcDbCircle
 10
948.1634372731805
 20
535.7115120613037
 30
0.0
 40
1.299999952316299
100
AcDbArc
 50
270.0
 51
0.0000025044687019
  0
ARC
  5
D395
330
1F
100
AcDbEntity
  8
AM_2
100
AcDbCircle
 10
948.1634372731805
 20
536.3918099128643
 30
0.0
 40
1.299999952316299
100
AcDbArc
 50
0.0000025044687019
 51
54.99999834320258
  0
LINE
  5
D396
330
1F
100
AcDbEntity
  8
AM_2
100
AcDbLine
 10
946.7037662526704
 20
537.352869483175
 30
0.0
 11
947.7863773366513
 21
536.5947823249737
 31
0.0
  0
LINE
  5
D397
330
1F
100
AcDbEntity
  8
AM_2
100
AcDbLine
 10
947.5367893239614
 20
536.5274300300536
 30
0.0
 11
947.5367893239614
 21
535.5980171882548
 31
0.0
  0
LINE
  5
D398
330
1F
100
AcDbEntity
  8
AM_2
100
AcDbLine
 10
947.9995883962306
 20
536.185205908964
 30
0.0
 11
947.9995883962306
 21
535.5980171882548
 31
0.0
  0
LINE
  5
D399
330
1F
100
AcDbEntity
  8
AM_2
100
AcDbLine
 10
946.1920475026705
 20
536.5274300300536
 30
0.0
 11
947.5367893239614
 21
536.5274300300536
 31
0.0
  0
LINE
  5
D39A
330
1F
100
AcDbEntity
  8
AM_2
100
AcDbLine
 10
947.4920505544305
 20
534.411493750755
 30
0.0
 11
948.1634372731805
 21
534.411493750755
 31
0.0
  0
LINE
  5
D39B
330
1F
100
AcDbEntity
  8
AM_2
100
AcDbLine
 10
949.4634555837306
 20
536.3918099128643
 30
0.0
 11
949.4634555837306
 21
535.7115120613037
 31
0.0
  0
LINE
  5
D39C
330
1F
100
AcDbEntity
  8
AM_2
100
AcDbLine
 10
946.1920475026705
 20
536.5274300300536
 30
0.0
 11
946.1920475026705
 21
535.7115120613037
 31
0.0
  0
LINE
  5
D39D
330
1F
100
AcDbEntity
  8
AM_2
100
AcDbLine
 10
943.8881076833306
 20
534.411493750755
 30
0.0
 11
944.2077945729812
 21
534.411493750755
 31
0.0
  0
ARC
  5
D39E
330
1F
100
AcDbEntity
  8
AM_2
100
AcDbCircle
 10
947.7681888600903
 20
535.5980171882548
 30
0.0
 40
0.2314004451036
100
AcDbArc
 50
179.9999974955313
 51
0.0000025044687019
  0
ARC
  5
D39F
330
1F
100
AcDbEntity
  8
AM_2
100
AcDbCircle
 10
947.4995883962304
 20
536.185205908964
 30
0.0
 40
0.5
100
AcDbArc
 50
0.0000025044687019
 51
54.99999834320258
  0
ARC
  5
D3A0
330
1F
100
AcDbEntity
  8
AM_2
100
AcDbCircle
 10
947.4920505544305
 20
535.7115120613037
 30
0.0
 40
1.299999952316299
100
AcDbArc
 50
179.9999974955313
 51
270.0
  0
ARC
  5
D3A1
330
1F
100
AcDbEntity
  8
AM_2
100
AcDbCircle
 10
944.0479129811915
 20
535.5873970710638
 30
0.0
 40
0.2037682086229
100
AcDbArc
 50
179.9999974955313
 51
0.0000025044687019
  0
ARC
  5
D3A2
330
1F
100
AcDbEntity
  8
AM_2
100
AcDbCircle
 10
943.8881076833306
 20
535.9114937507548
 30
0.0
 40
1.5
100
AcDbArc
 50
179.9999974955313
 51
270.0
  0
ARC
  5
D3A3
330
1F
100
AcDbEntity
  8
AM_2
100
AcDbCircle
 10
944.2077945729812
 20
535.9114937507548
 30
0.0
 40
1.5
100
AcDbArc
 50
270.0
 51
0.0000025044687019
  0
LINE
  5
D3A4
330
1F
100
AcDbEntity
  8
AM_2
100
AcDbLine
 10
951.791305925521
 20
536.8796944343546
 30
0.0
 11
951.791305925521
 21
534.5320992195048
 31
0.0
  0
LINE
  5
D3A5
330
1F
100
AcDbEntity
  8
AM_2
100
AcDbLine
 10
951.3726657888014
 20
536.8796944343546
 30
0.0
 11
951.3726657888014
 21
534.5320992195048
 31
0.0
  0
LINE
  5
D3A6
330
1F
100
AcDbEntity
  8
AM_2
100
AcDbLine
 10
951.791305925521
 20
534.5320992195048
 30
0.0
 11
953.2471775075514
 21
534.5320992195048
 31
0.0
  0
LINE
  5
D3A7
330
1F
100
AcDbEntity
  8
AM_2
100
AcDbLine
 10
951.3726657888014
 20
536.8796944343546
 30
0.0
 11
951.791305925521
 21
536.8796944343546
 31
0.0
  0
LINE
  5
D3A8
330
1F
100
AcDbEntity
  8
AM_2
100
AcDbLine
 10
949.9171299001314
 20
534.5320992195048
 30
0.0
 11
951.3726657888014
 21
534.5320992195048
 31
0.0
  0
LINE
  5
D3A9
330
1F
100
AcDbEntity
  8
AM_2
100
AcDbLine
 10
957.3562168141913
 20
533.7053169929443
 30
0.0
 11
956.328903581771
 21
531.9259590827844
 31
0.0
  0
ARC
  5
D3AA
330
1F
100
AcDbEntity
  8
AM_2
100
AcDbCircle
 10
948.0453189870507
 20
538.9226631843546
 30
0.0
 40
1.299999952316299
100
AcDbArc
 50
0.0000025044687019
 51
90.00000500893738
  0
LINE
  5
D3AB
330
1F
100
AcDbEntity
  8
AM_2
100
AcDbLine
 10
947.5367893239614
 20
539.0342049323938
 30
0.0
 11
947.5367893239614
 21
538.677881690214
 31
0.0
  0
LINE
  5
D3AC
330
1F
100
AcDbEntity
  8
AM_2
100
AcDbLine
 10
947.9995883962306
 20
538.4230904304443
 30
0.0
 11
949.3453220388014
 21
538.4230904304443
 31
0.0
  0
LINE
  5
D3AD
330
1F
100
AcDbEntity
  8
AM_2
100
AcDbLine
 10
947.4494022390004
 20
540.2226814948938
 30
0.0
 11
948.0453189870507
 21
540.2226814948938
 31
0.0
  0
LINE
  5
D3AE
330
1F
100
AcDbEntity
  8
AM_2
100
AcDbLine
 10
944.2516788503311
 20
540.1110176765343
 30
0.0
 11
945.7077945729809
 21
540.1110176765343
 31
0.0
  0
LINE
  5
D3AF
330
1F
100
AcDbEntity
  8
AM_2
100
AcDbLine
 10
946.1493991872407
 20
538.9226631843546
 30
0.0
 11
946.1493991872407
 21
538.4177498542745
 31
0.0
  0
LINE
  5
D3B0
330
1F
100
AcDbEntity
  8
AM_2
100
AcDbLine
 10
949.3453220388014
 20
538.9226631843546
 30
0.0
 11
949.3453220388014
 21
538.4230904304443
 31
0.0
  0
LINE
  5
D3B1
330
1F
100
AcDbEntity
  8
AM_2
100
AcDbLine
 10
947.9995883962306
 20
539.0342049323938
 30
0.0
 11
947.9995883962306
 21
538.4230904304443
 31
0.0
  0
LINE
  5
D3B2
330
1F
100
AcDbEntity
  8
AM_2
100
AcDbLine
 10
942.3881076833307
 20
540.1110176765343
 30
0.0
 11
943.8441471120508
 21
540.1110176765343
 31
0.0
  0
ARC
  5
D3B3
330
1F
100
AcDbEntity
  8
AM_2
100
AcDbCircle
 10
947.4494022390004
 20
538.9226631843546
 30
0.0
 40
1.299999952316299
100
AcDbArc
 50
89.99999134855904
 51
180.0000006832169
  0
ARC
  5
D3B4
330
1F
100
AcDbEntity
  8
AM_2
100
AcDbCircle
 10
947.7681888600903
 20
539.0342049323938
 30
0.0
 40
0.2314004451036
100
AcDbArc
 50
0.0000025044687019
 51
180.0000006832169
  0
ARC
  5
D3B5
330
1F
100
AcDbEntity
  8
AM_2
100
AcDbCircle
 10
948.0367893239613
 20
538.677881690214
 30
0.0
 40
0.5
100
AcDbArc
 50
179.9999974955313
 51
235.0000001643989
  0
LINE
  5
D3B6
330
1F
100
AcDbEntity
  8
AM_2
100
AcDbLine
 10
951.791305925521
 20
540.1110176765343
 30
0.0
 11
953.2471775075514
 21
540.1110176765343
 31
0.0
  0
LINE
  5
D3B7
330
1F
100
AcDbEntity
  8
AM_2
100
AcDbLine
 10
951.3726657888014
 20
540.1110176765343
 30
0.0
 11
951.3726657888014
 21
538.1260018073938
 31
0.0
  0
LINE
  5
D3B8
330
1F
100
AcDbEntity
  8
AM_2
100
AcDbLine
 10
951.791305925521
 20
540.1110176765343
 30
0.0
 11
951.791305925521
 21
538.1260018073938
 31
0.0
  0
LINE
  5
D3B9
330
1F
100
AcDbEntity
  8
AM_2
100
AcDbLine
 10
951.3726657888014
 20
538.1260018073938
 30
0.0
 11
951.791305925521
 21
538.1260018073938
 31
0.0
  0
LINE
  5
D3BA
330
1F
100
AcDbEntity
  8
AM_2
100
AcDbLine
 10
949.9171299001314
 20
540.1110176765343
 30
0.0
 11
951.3726657888014
 21
540.1110176765343
 31
0.0
  0
LINE
  5
D3BB
330
1F
100
AcDbEntity
  8
AM_2
100
AcDbLine
 10
945.7077945729809
 20
540.1110176765343
 30
0.0
 11
945.7077945729809
 21
535.9114937507548
 31
0.0
  0
LINE
  5
D3BC
330
1F
100
AcDbEntity
  8
AM_2
100
AcDbLine
 10
942.3881076833307
 20
540.1110176765343
 30
0.0
 11
942.3881076833307
 21
535.9114937507548
 31
0.0
  0
LINE
  5
D3BD
330
1F
100
AcDbEntity
  8
AM_2
100
AcDbLine
 10
943.8441471120508
 20
540.1110176765343
 30
0.0
 11
943.8441471120508
 21
535.5873970710638
 31
0.0
  0
LINE
  5
D3BE
330
1F
100
AcDbEntity
  8
AM_2
100
AcDbLine
 10
944.2516788503311
 20
540.1110176765343
 30
0.0
 11
944.2516788503311
 21
535.5873970710638
 31
0.0
  0
LINE
  5
D3BF
330
1F
100
AcDbEntity
  8
AM_2
100
AcDbLine
 10
947.7500003835316
 20
538.2683052741943
 30
0.0
 11
948.9091037770807
 21
537.4567208015344
 31
0.0
  0
ARC
  5
D3C0
330
1F
100
AcDbEntity
  8
AM_2
100
AcDbCircle
 10
947.4494022390004
 20
538.4177498542745
 30
0.0
 40
1.299999952316299
100
AcDbArc
 50
179.9999974955313
 51
235.0000001643989
  0
LINE
  5
D3C1
330
1F
100
AcDbEntity
  8
AM_2
100
AcDbLine
 10
949.9171299001314
 20
540.1110176765343
 30
0.0
 11
949.9171299001314
 21
534.5320992195048
 31
0.0
  0
LINE
  5
D3C2
330
1F
100
AcDbEntity
  8
AM_2
100
AcDbLine
 10
953.2471775075514
 20
540.1110176765343
 30
0.0
 11
953.2471775075514
 21
534.5320992195048
 31
0.0
  0
LINE
  5
D3C3
330
1F
100
AcDbEntity
  8
AM_2
100
AcDbLine
 10
968.6566928884108
 20
533.7053475105245
 30
0.0
 11
957.3562168141913
 21
533.7053475105245
 31
0.0
  0
LINE
  5
D3C4
330
1F
100
AcDbEntity
  8
AM_2
100
AcDbLine
 10
967.3759616872407
 20
535.9236092292742
 30
0.0
 11
958.6369480153711
 21
535.9236092292742
 31
0.0
  0
LINE
  5
D3C5
330
1F
100
AcDbEntity
  8
AM_2
100
AcDbLine
 10
958.6369480153711
 20
535.9236092292742
 30
0.0
 11
959.8697666188812
 21
538.0589241706753
 31
0.0
  0
ARC
  5
D3C6
330
1F
100
AcDbEntity
  8
AM_2
100
AcDbCircle
 10
956.5897068044305
 20
531.7777352058349
 30
0.0
 40
0.3000000119209
100
AcDbArc
 50
149.6073427457011
 51
270.0
  0
ARC
  5
D3C7
330
1F
100
AcDbEntity
  8
AM_2
100
AcDbCircle
 10
969.423202898181
 20
531.7777352058349
 30
0.0
 40
0.3000000119209
100
AcDbArc
 50
270.0
 51
30.49261024262022
  0
HATCH
  5
D3C8
330
1F
100
AcDbEntity
  8
AM_8
100
AcDbHatch
 10
0.0
 20
0.0
 30
0.0
210
0.0
220
0.0
230
1.0
  2
ANSI31
 70
     0
 71
     0
 91
        3
 92
        1
 93
        6
 72
     1
 10
968.6566928884108
 20
533.7053475105245
 11
957.3562168141902
 21
533.7053475105245
 72
     1
 10
957.3562168141913
 20
533.7053475105245
 11
956.328903581771
 21
531.9259590827848
 72
     2
 10
956.5897068044305
 20
531.7777352058349
 40
0.3000000119209
 50
-209.6074996884589
 51
-90.00000000000005
 73
     1
 72
     1
 10
956.5897068044305
 20
531.4777474128643
 11
969.423202898181
 21
531.4777474128643
 72
     2
 10
969.423202898181
 20
531.7777352058349
 40
0.3000000119209
 50
-90.00000000000005
 51
30.49261024262209
 73
     1
 72
     1
 10
969.6817173024806
 20
531.9299874031046
 11
968.6566928884108
 21
533.7053169929447
 97
        0
 92
        1
 93
        4
 72
     1
 10
959.8697666188812
 20
538.0589241706753
 11
958.6369480153711
 21
535.9236397468554
 72
     1
 10
958.6369480153711
 20
535.9236397468546
 11
967.3759616872407
 21
535.9236092292746
 72
     1
 10
967.3759616872407
 20
535.9236092292742
 11
966.1431430837303
 21
538.0589241706741
 72
     1
 10
966.1431430837303
 20
538.0589241706753
 11
959.8697666188803
 21
538.0589241706753
 97
        0
 92
        1
 93
        4
 72
     1
 10
964.8623203298207
 20
540.2773689948937
 11
961.1505893727912
 21
540.2773689948937
 72
     1
 10
961.1505893727912
 20
540.2773689948937
 11
962.7475132009108
 21
543.043329688254
 72
     2
 10
963.0064548513015
 20
542.8918099128643
 40
0.3000000119209
 50
210.3323230056485
 51
330.355671931534
 73
     0
 72
     1
 10
963.2671970388015
 20
543.0402168952844
 11
964.8623203298216
 21
540.2773689948937
 97
        0
 75
     0
 76
     1
 52
-90.00000000000005
 41
0.0500000007451
 77
     0
 78
     1
 53
314.9999999999999
 43
693.2168735524806
 44
269.1812996589636
 45
0.1122532031861616
 46
0.1122532031861616
 79
     0
 98
        1
 10
693.2168735524806
 20
269.1812996589636
  0
LINE
  5
D3C9
330
1F
100
AcDbEntity
  8
AM_2
100
AcDbLine
 10
938.8683170339204
 20
534.5320992195048
 30
0.0
 11
940.3248600026705
 21
534.5320992195048
 31
0.0
  0
LINE
  5
D3CA
330
1F
100
AcDbEntity
  8
AM_2
100
AcDbLine
 10
940.3248600026705
 20
536.781885596464
 30
0.0
 11
940.3248600026705
 21
534.5320992195048
 31
0.0
  0
LINE
  5
D3CB
330
1F
100
AcDbEntity
  8
AM_2
100
AcDbLine
 10
940.3248600026705
 20
536.781885596464
 30
0.0
 11
940.9905246755212
 21
536.781885596464
 31
0.0
  0
HATCH
  5
D3CC
330
1F
100
AcDbEntity
  8
AM_8
100
AcDbHatch
 10
0.0
 20
0.0
 30
0.0
210
0.0
220
0.0
230
1.0
  2
SOLID
 70
     1
 71
     0
 91
        1
 92
        1
 93
        3
 72
     1
 10
940.3847660085316
 20
536.7807564460641
 11
940.7697147390022
 21
536.7812752448942
 72
     1
 10
940.7697147390004
 20
536.7812752448937
 11
940.3267673513003
 21
536.7807564460638
 72
     1
 10
940.3267673513012
 20
536.7807564460641
 11
940.3847660085316
 21
536.7807869636442
 97
        0
 75
     0
 76
     1
 98
        1
 10
693.2168735524806
 20
269.1812996589636
  0
LINE
  5
D3CD
330
1F
100
AcDbEntity
  8
AM_2
100
AcDbLine
 10
938.8683170339204
 20
540.1110176765343
 30
0.0
 11
940.890518572011
 21
540.1110176765343
 31
0.0
  0
LINE
  5
D3CE
330
1F
100
AcDbEntity
  8
AM_2
100
AcDbLine
 10
940.3248600026705
 20
539.1469979011437
 30
0.0
 11
940.3695072194707
 21
539.1469979011437
 31
0.0
  0
LINE
  5
D3CF
330
1F
100
AcDbEntity
  8
AM_2
100
AcDbLine
 10
940.3248600026705
 20
539.1469979011437
 30
0.0
 11
940.3248600026705
 21
537.7445320808349
 31
0.0
  0
LINE
  5
D3D0
330
1F
100
AcDbEntity
  8
AM_2
100
AcDbLine
 10
940.7695163747407
 20
538.7470040046653
 30
0.0
 11
940.7695163747407
 21
538.1420540534946
 31
0.0
  0
LINE
  5
D3D1
330
1F
100
AcDbEntity
  8
AM_2
100
AcDbLine
 10
940.3248600026705
 20
537.7420601570048
 30
0.0
 11
940.3695072194707
 21
537.7420601570048
 31
0.0
  0
ARC
  5
D3D2
330
1F
100
AcDbEntity
  8
AM_2
100
AcDbCircle
 10
940.3695072194707
 20
538.7470040046653
 30
0.0
 40
0.4000000059605
100
AcDbArc
 50
0.0000025044687019
 51
90.00000500893738
  0
LINE
  5
D3D3
330
1F
100
AcDbEntity
  8
AM_2
100
AcDbLine
 10
941.9905246755211
 20
539.0110115730245
 30
0.0
 11
941.9905246755211
 21
537.781885596464
 31
0.0
  0
LINE
  5
D3D4
330
1F
100
AcDbEntity
  8
AM_2
100
AcDbLine
 10
938.8683170339204
 20
540.1110176765343
 30
0.0
 11
938.8683170339204
 21
534.5320992195048
 31
0.0
  0
ARC
  5
D3D5
330
1F
100
AcDbEntity
  8
AM_2
100
AcDbCircle
 10
940.3695072194707
 20
538.1420540534946
 30
0.0
 40
0.4000000059605
100
AcDbArc
 50
270.0
 51
0.0000025044687019
  0
HATCH
  5
D3D6
330
1F
100
AcDbEntity
  8
AM_8
100
AcDbHatch
 10
0.0
 20
0.0
 30
0.0
210
0.0
220
0.0
230
1.0
  2
ANSI31
 70
     0
 71
     0
 91
        5
 92
        1
 93
        8
 72
     1
 10
938.8683170339204
 20
540.1110176765343
 11
938.8683170339204
 21
534.5320992195048
 72
     1
 10
938.8683170339204
 20
534.5320992195048
 11
940.3248600026705
 21
534.5320992195048
 72
     1
 10
940.3248600026705
 20
534.5320992195048
 11
940.3248600026705
 21
536.7818855964652
 72
     1
 10
940.3248600026705
 20
536.781885596464
 11
940.9905246755199
 21
536.781885596464
 72
     2
 10
940.9905246755212
 20
537.781885596464
 40
1.0
 50
-90.00000000000005
 51
0.0000025044789052
 73
     1
 72
     1
 10
941.9905246755211
 20
537.781885596464
 11
941.9905246755211
 21
539.0110115730236
 72
     2
 10
940.890518572011
 20
539.0110115730245
 40
1.100000023841899
 50
0.0000025044789052
 51
90.00000500895779
 73
     1
 72
     1
 10
940.890518572011
 20
540.1110176765343
 11
938.8683170339204
 21
540.1110176765343
 97
        0
 92
        1
 93
        6
 72
     1
 10
940.3695072194707
 20
539.1469979011437
 11
940.3248600026705
 21
539.1469979011437
 72
     1
 10
940.3248600026705
 20
539.1469979011437
 11
940.3248600026705
 21
537.742060157004
 72
     1
 10
940.3248600026705
 20
537.7420601570048
 11
940.3695072194707
 21
537.7420601570048
 72
     2
 10
940.3695072194707
 20
538.1420540534946
 40
0.4000000059605
 50
-89.99998067187616
 51
0.0000025044789052
 73
     1
 72
     1
 10
940.7695163747407
 20
538.1420540534946
 11
940.7695163747407
 21
538.7470040046649
 72
     2
 10
940.3695072194707
 20
538.7470040046653
 40
0.4000000059605
 50
0.0000025044789052
 51
89.99997768819865
 73
     1
 97
        0
 92
        1
 93
       10
 72
     1
 10
942.3881076833307
 20
540.1110176765343
 11
942.3881076833307
 21
535.9114937507548
 72
     2
 10
943.8881076833306
 20
535.9114937507548
 40
1.5
 50
-180.0000025044789
 51
-90.00000000000005
 73
     1
 72
     1
 10
943.8881076833306
 20
534.411493750755
 11
944.2077945729812
 21
534.411493750755
 72
     2
 10
944.2077945729812
 20
535.9114937507548
 40
1.5
 50
-90.00000000000005
 51
0.0000025044789052
 73
     1
 72
     1
 10
945.7077945729809
 20
535.9114937507548
 11
945.7077945729809
 21
540.1110176765343
 72
     1
 10
945.7077945729809
 20
540.1110176765343
 11
944.2516788503311
 21
540.1110176765343
 72
     1
 10
944.2516788503311
 20
540.1110176765343
 11
944.2516788503311
 21
535.5873970710638
 72
     2
 10
944.0479129811915
 20
535.5873970710638
 40
0.2037682086229
 50
360.0000111559007
 51
540.0000025044788
 73
     0
 72
     1
 10
943.8441471120508
 20
535.5873970710638
 11
943.8441471120508
 21
540.1110176765343
 72
     1
 10
943.8441471120508
 20
540.1110176765343
 11
942.3881076833307
 21
540.1110176765343
 97
        0
 92
        1
 93
       24
 72
     1
 10
946.1920475026705
 20
536.5274300300536
 11
946.1920475026705
 21
535.7115120613037
 72
     2
 10
947.4920505544305
 20
535.7115120613037
 40
1.299999952316299
 50
-179.9999956742892
 51
-90.00000000000005
 73
     1
 72
     1
 10
947.4920505544305
 20
534.411493750755
 11
948.1634372731805
 21
534.411493750755
 72
     2
 10
948.1634372731805
 20
535.7115120613037
 40
1.299999952316299
 50
-90.00000000000005
 51
-0.0000043257108628
 73
     1
 72
     1
 10
949.4634555837306
 20
535.7115120613037
 11
949.4634555837306
 21
536.3918099128634
 72
     2
 10
948.1634372731805
 20
536.3918099128643
 40
1.299999952316299
 50
0.0000025044789052
 51
54.99999834316767
 73
     1
 72
     1
 10
948.9090885183008
 20
537.456690283964
 11
947.7500003835308
 21
538.2683052741938
 72
     2
 10
948.0367893239613
 20
538.677881690214
 40
0.5
 50
485.0000100808822
 51
540.0000025044788
 73
     0
 72
     1
 10
947.5367893239614
 20
538.677881690214
 11
947.5367893239614
 21
539.0342049323942
 72
     2
 10
947.7681888600903
 20
539.0342049323938
 40
0.2314004451036
 50
179.999999316753
 51
359.9999974955211
 73
     0
 72
     1
 10
947.9995883962306
 20
539.0342049323938
 11
947.9995883962306
 21
538.4230904304433
 72
     1
 10
947.9995883962306
 20
538.4230904304443
 11
949.3453220388003
 21
538.4230904304443
 72
     1
 10
949.3453220388014
 20
538.4230904304443
 11
949.3453220388014
 21
538.922663184354
 72
     2
 10
948.0453189870507
 20
538.9226631843546
 40
1.299999952316299
 50
0.0000025044789052
 51
90.00000500895779
 73
     1
 72
     1
 10
948.0453189870507
 20
540.2226814948938
 11
947.4494022390004
 21
540.2226814948938
 72
     2
 10
947.4494022390004
 20
538.9226631843546
 40
1.299999952316299
 50
90.00000500895779
 51
180.0000006832469
 73
     1
 72
     1
 10
946.1493991872407
 20
538.9226631843546
 11
946.1493991872407
 21
538.4177498542745
 72
     2
 10
947.4494022390004
 20
538.4177498542745
 40
1.299999952316299
 50
-179.9999956742892
 51
-125.0000100808821
 73
     1
 72
     1
 10
946.7037509938814
 20
537.3528389656046
 11
947.7863773366513
 21
536.5947823249741
 72
     2
 10
947.4995883962304
 20
536.185205908964
 40
0.5
 50
305.0000016568323
 51
359.9999974955211
 73
     0
 72
     1
 10
947.9995883962306
 20
536.185205908964
 11
947.9995883962306
 21
535.5980171882545
 72
     2
 10
947.7681888600903
 20
535.5980171882548
 40
0.2314004451036
 50
360.0000111559007
 51
540.0000025044788
 73
     0
 72
     1
 10
947.5367893239614
 20
535.5980171882548
 11
947.5367893239614
 21
536.5274300300553
 72
     1
 10
947.5367893239614
 20
536.5274300300536
 11
946.1920475026714
 21
536.5274300300536
 97
        0
 92
        1
 93
       12
 72
     1
 10
949.9171299001314
 20
540.1110176765343
 11
949.9171299001314
 21
534.5320992195048
 72
     1
 10
949.9171299001314
 20
534.5320992195048
 11
951.3726657888014
 21
534.5320992195048
 72
     1
 10
951.3726657888014
 20
534.5320992195048
 11
951.3726657888014
 21
536.8796944343549
 72
     1
 10
951.3726657888014
 20
536.8796944343546
 11
951.7913059255219
 21
536.8796944343546
 72
     1
 10
951.791305925521
 20
536.8796944343546
 11
951.791305925521
 21
534.5320992195045
 72
     1
 10
951.791305925521
 20
534.5320992195048
 11
953.2471775075514
 21
534.5320992195048
 72
     1
 10
953.2471775075514
 20
534.5320992195048
 11
953.2471775075514
 21
540.1110176765343
 72
     1
 10
953.2471775075514
 20
540.1110176765343
 11
951.7913059255219
 21
540.1110176765343
 72
     1
 10
951.791305925521
 20
540.1110176765343
 11
951.791305925521
 21
538.1260018073938
 72
     1
 10
951.791305925521
 20
538.1260018073938
 11
951.3726657888014
 21
538.1260018073938
 72
     1
 10
951.3726657888014
 20
538.1260018073938
 11
951.3726657888014
 21
540.1110176765334
 72
     1
 10
951.3726657888014
 20
540.1110176765343
 11
949.9171299001314
 21
540.1110176765343
 97
        0
 75
     0
 76
     1
 52
-90.00000000000005
 41
0.0500000007451
 77
     0
 78
     1
 53
314.9999999999999
 43
693.2168735524806
 44
269.1812996589636
 45
0.1122532031861616
 46
0.1122532031861616
 79
     0
 98
        1
 10
693.2168735524806
 20
269.1812996589636
  0
ARC
  5
D3D7
330
1F
100
AcDbEntity
  8
AM_2
100
AcDbCircle
 10
940.890518572011
 20
539.0110115730245
 30
0.0
 40
1.100000023841899
100
AcDbArc
 50
0.0000025044687019
 51
90.00000500893738
  0
ARC
  5
D3D8
330
1F
100
AcDbEntity
  8
AM_2
100
AcDbCircle
 10
940.9905246755212
 20
537.781885596464
 30
0.0
 40
1.0
100
AcDbArc
 50
270.0
 51
0.0000025044687019
  0
LINE
  5
D3D9
330
1F
100
AcDbEntity
  8
AM_2
100
AcDbLine
 10
921.3082279225902
 20
545.2768807136437
 30
0.0
 11
921.3082279225902
 21
526.4530892097448
 31
0.0
  0
HATCH
  5
D3DA
330
1F
100
AcDbEntity
  8
AM_8
100
AcDbHatch
 10
0.0
 20
0.0
 30
0.0
210
0.0
220
0.0
230
1.0
  2
ANSI31
 70
     0
 71
     0
 91
        5
 92
        1
 93
       16
 72
     1
 10
972.6024631520806
 20
538.7226814948937
 11
972.6024631520806
 21
535.911493750754
 72
     2
 10
974.1024631520806
 20
535.9114937507548
 40
1.5
 50
-180.0000025044789
 51
-90.00000000000005
 73
     1
 72
     1
 10
974.1024631520806
 20
534.411493750755
 11
974.5203098317713
 21
534.411493750755
 72
     2
 10
974.5203098317713
 20
535.9114937507548
 40
1.5
 50
-90.00000000000005
 51
0.0000025044789052
 73
     1
 72
     1
 10
976.0203098317711
 20
535.9114937507548
 11
976.0203098317711
 21
536.7699837409948
 72
     1
 10
976.0203098317711
 20
536.7699837409948
 11
974.5645298024806
 21
536.7699837409948
 72
     1
 10
974.5645298024806
 20
536.7699837409948
 11
974.5645298024806
 21
535.6199288093542
 72
     2
 10
974.3112033864614
 20
535.6199288093546
 40
0.2533143162727
 50
360.0000111559007
 51
540.0000025044788
 73
     0
 72
     1
 10
974.057907488021
 20
535.6199288093546
 11
974.057907488021
 21
539.012293311304
 72
     2
 10
974.3112033864614
 20
539.0122933113036
 40
0.2533143162727
 50
179.999999316753
 51
359.9999974955211
 73
     0
 72
     1
 10
974.5645298024806
 20
539.0122933113036
 11
974.5645298024806
 21
537.6849007331741
 72
     1
 10
974.5645298024806
 20
537.6849007331753
 11
976.0203098317699
 21
537.6849007331753
 72
     1
 10
976.0203098317711
 20
537.6849007331753
 11
976.0203098317711
 21
538.722681494896
 72
     2
 10
974.5203098317713
 20
538.7226814948937
 40
1.5
 50
0.0000025044789052
 51
90.00000500895779
 73
     1
 72
     1
 10
974.5203098317713
 20
540.2226814948938
 11
974.1024631520806
 21
540.2226814948938
 72
     2
 10
974.1024631520806
 20
538.7226814948937
 40
1.5
 50
90.00000500895779
 51
180.0000006832469
 73
     1
 97
        0
 92
        1
 93
        6
 72
     1
 10
976.5415805837303
 20
540.1110176765343
 11
976.5415805837303
 21
534.5320992195048
 72
     1
 10
976.5415805837303
 20
534.5320992195048
 11
978.8685764333306
 21
534.5320992195048
 72
     1
 10
978.8685764333306
 20
534.5320992195048
 11
978.8685764333306
 21
535.6448616706749
 72
     1
 10
978.8685764333306
 20
535.6448616706749
 11
977.9973300954402
 21
535.6448616706749
 72
     1
 10
977.9973300954413
 20
535.6448616706749
 11
977.9973300954413
 21
540.1110176765343
 72
     1
 10
977.9973300954413
 20
540.1110176765343
 11
976.5415805837303
 21
540.1110176765343
 97
        0
 92
        1
 93
        4
 72
     1
 10
979.2255100270805
 20
540.1110176765343
 11
979.2255100270805
 21
534.5320992195048
 72
     1
 10
979.2255100270805
 20
534.5320992195048
 11
980.6814121266903
 21
534.5320992195048
 72
     1
 10
980.6814121266912
 20
534.5320992195048
 11
980.6814121266912
 21
540.1110176765343
 72
     1
 10
980.6814121266912
 20
540.1110176765343
 11
979.2255100270805
 21
540.1110176765343
 97
        0
 92
        1
 93
        8
 72
     1
 10
981.2584690114611
 20
540.1110176765343
 11
981.2584690114611
 21
534.5320992195048
 72
     1
 10
981.2584690114611
 20
534.5320992195048
 11
982.7150119802112
 21
534.5320992195048
 72
     1
 10
982.7150119802112
 20
534.5320992195048
 11
982.7150119802112
 21
536.7818855964652
 72
     1
 10
982.7150119802112
 20
536.781885596464
 11
983.3806919118519
 21
536.781885596464
 72
     2
 10
983.380691911851
 20
537.781885596464
 40
1.0
 50
-90.00000000000005
 51
0.0000025044789052
 73
     1
 72
     1
 10
984.380691911851
 20
537.781885596464
 11
984.380691911851
 21
539.0110115730236
 72
     2
 10
983.2806858083307
 20
539.0110115730245
 40
1.100000023841899
 50
0.0000025044789052
 51
90.00000500895779
 73
     1
 72
     1
 10
983.2806858083307
 20
540.1110176765343
 11
981.2584690114611
 21
540.1110176765343
 97
        0
 92
        1
 93
        6
 72
     1
 10
982.7596897145806
 20
539.1469979011437
 11
982.7150119802112
 21
539.1469979011437
 72
     1
 10
982.7150119802112
 20
539.1469979011437
 11
982.7150119802112
 21
537.742060157004
 72
     1
 10
982.7150119802112
 20
537.7420601570048
 11
982.7596897145806
 21
537.7420601570048
 72
     2
 10
982.7596897145806
 20
538.1420540534946
 40
0.4000000059605
 50
-89.99998067187616
 51
0.0000025044789052
 73
     1
 72
     1
 10
983.1596836110707
 20
538.1420540534946
 11
983.1596836110707
 21
538.7470040046649
 72
     2
 10
982.7596897145806
 20
538.7470040046653
 40
0.4000000059605
 50
0.0000025044789052
 51
89.99997768819865
 73
     1
 97
        0
 75
     0
 76
     1
 52
-90.00000000000005
 41
0.0500000007451
 77
     0
 78
     1
 53
314.9999999999999
 43
693.2168735524806
 44
269.1812996589636
 45
0.1122532031861616
 46
0.1122532031861616
 79
     0
 98
        1
 10
693.2168735524806
 20
269.1812996589636
  0
LINE
  5
D3DB
330
1F
100
AcDbEntity
  8
AM_2
100
AcDbLine
 10
974.5645298024806
 20
537.6849007331753
 30
0.0
 11
976.0203098317711
 21
537.6849007331753
 31
0.0
  0
ARC
  5
D3DC
330
1F
100
AcDbEntity
  8
AM_2
100
AcDbCircle
 10
974.5203098317713
 20
538.7226814948937
 30
0.0
 40
1.5
100
AcDbArc
 50
0.0000025044687019
 51
90.00000500893738
  0
LINE
  5
D3DD
330
1F
100
AcDbEntity
  8
AM_2
100
AcDbLine
 10
974.5645298024806
 20
536.7699837409948
 30
0.0
 11
976.0203098317711
 21
536.7699837409948
 31
0.0
  0
ARC
  5
D3DE
330
1F
100
AcDbEntity
  8
AM_2
100
AcDbCircle
 10
974.5203098317713
 20
535.9114937507548
 30
0.0
 40
1.5
100
AcDbArc
 50
270.0
 51
0.0000025044687019
  0
LINE
  5
D3DF
330
1F
100
AcDbEntity
  8
AM_2
100
AcDbLine
 10
979.2255100270805
 20
534.5320992195048
 30
0.0
 11
980.6814121266912
 21
534.5320992195048
 31
0.0
  0
LINE
  5
D3E0
330
1F
100
AcDbEntity
  8
AM_2
100
AcDbLine
 10
976.5415805837303
 20
534.5320992195048
 30
0.0
 11
978.8685764333306
 21
534.5320992195048
 31
0.0
  0
LINE
  5
D3E1
330
1F
100
AcDbEntity
  8
AM_2
100
AcDbLine
 10
978.8685764333306
 20
535.6448616706749
 30
0.0
 11
978.8685764333306
 21
534.5320992195048
 31
0.0
  0
LINE
  5
D3E2
330
1F
100
AcDbEntity
  8
AM_2
100
AcDbLine
 10
977.9973300954413
 20
535.6448616706749
 30
0.0
 11
978.8685764333306
 21
535.6448616706749
 31
0.0
  0
LINE
  5
D3E3
330
1F
100
AcDbEntity
  8
AM_2
100
AcDbLine
 10
976.0203098317711
 20
536.7699837409948
 30
0.0
 11
976.0203098317711
 21
535.9114937507548
 31
0.0
  0
LINE
  5
D3E4
330
1F
100
AcDbEntity
  8
AM_2
100
AcDbLine
 10
981.2584690114611
 20
534.5320992195048
 30
0.0
 11
982.7150119802112
 21
534.5320992195048
 31
0.0
  0
LINE
  5
D3E5
330
1F
100
AcDbEntity
  8
AM_2
100
AcDbLine
 10
982.7150119802112
 20
536.781885596464
 30
0.0
 11
982.7150119802112
 21
534.5320992195048
 31
0.0
  0
LINE
  5
D3E6
330
1F
100
AcDbEntity
  8
AM_2
100
AcDbLine
 10
982.7150119802112
 20
536.781885596464
 30
0.0
 11
983.380691911851
 21
536.781885596464
 31
0.0
  0
HATCH
  5
D3E7
330
1F
100
AcDbEntity
  8
AM_8
100
AcDbHatch
 10
0.0
 20
0.0
 30
0.0
210
0.0
220
0.0
230
1.0
  2
SOLID
 70
     1
 71
     0
 91
        1
 92
        1
 93
        3
 72
     1
 10
982.7742465993511
 20
536.7807564460641
 11
983.1591953298207
 21
536.7812752448942
 72
     1
 10
983.1591953298207
 20
536.7812752448937
 11
982.7162632009107
 21
536.7807564460638
 72
     1
 10
982.7162632009107
 20
536.7807564460641
 11
982.7742465993511
 21
536.7807869636442
 97
        0
 75
     0
 76
     1
 98
        1
 10
693.2168735524806
 20
269.1812996589636
  0
HATCH
  5
D3E8
330
1F
100
AcDbEntity
  8
AM_8
100
AcDbHatch
 10
0.0
 20
0.0
 30
0.0
210
0.0
220
0.0
230
1.0
  2
SOLID
 70
     1
 71
     0
 91
        1
 92
        1
 93
        3
 72
     1
 10
982.7749485036504
 20
536.7807564460641
 11
983.1598972341211
 21
536.7812752448942
 72
     1
 10
983.1598972341211
 20
536.7812752448937
 11
982.7169345876312
 21
536.7807564460638
 72
     1
 10
982.7169345876312
 20
536.7807564460641
 11
982.7749485036516
 21
536.7807869636442
 97
        0
 75
     0
 76
     1
 98
        1
 10
693.2168735524806
 20
269.1812996589636
  0
LINE
  5
D3E9
330
1F
100
AcDbEntity
  8
AM_2
100
AcDbLine
 10
979.2255100270805
 20
540.1110176765343
 30
0.0
 11
980.6814121266912
 21
540.1110176765343
 31
0.0
  0
LINE
  5
D3EA
330
1F
100
AcDbEntity
  8
AM_2
100
AcDbLine
 10
976.5415805837303
 20
540.1110176765343
 30
0.0
 11
977.9973300954413
 21
540.1110176765343
 31
0.0
  0
LINE
  5
D3EB
330
1F
100
AcDbEntity
  8
AM_2
100
AcDbLine
 10
981.2584690114611
 20
540.1110176765343
 30
0.0
 11
983.2806858083307
 21
540.1110176765343
 31
0.0
  0
LINE
  5
D3EC
330
1F
100
AcDbEntity
  8
AM_2
100
AcDbLine
 10
984.380691911851
 20
539.0110115730245
 30
0.0
 11
984.380691911851
 21
537.781885596464
 31
0.0
  0
LINE
  5
D3ED
330
1F
100
AcDbEntity
  8
AM_2
100
AcDbLine
 10
983.1596836110707
 20
538.7470040046653
 30
0.0
 11
983.1596836110707
 21
538.1420540534946
 31
0.0
  0
LINE
  5
D3EE
330
1F
100
AcDbEntity
  8
AM_2
100
AcDbLine
 10
982.7150119802112
 20
539.1469979011437
 30
0.0
 11
982.7150119802112
 21
537.7445320808349
 31
0.0
  0
LINE
  5
D3EF
330
1F
100
AcDbEntity
  8
AM_2
100
AcDbLine
 10
982.7150119802112
 20
539.1469979011437
 30
0.0
 11
982.7596897145806
 21
539.1469979011437
 31
0.0
  0
LINE
  5
D3F0
330
1F
100
AcDbEntity
  8
AM_2
100
AcDbLine
 10
982.7150119802112
 20
537.7420601570048
 30
0.0
 11
982.7596897145806
 21
537.7420601570048
 31
0.0
  0
ARC
  5
D3F1
330
1F
100
AcDbEntity
  8
AM_2
100
AcDbCircle
 10
983.2806858083307
 20
539.0110115730245
 30
0.0
 40
1.100000023841899
100
AcDbArc
 50
0.0000025044687019
 51
90.00000500893738
  0
ARC
  5
D3F2
330
1F
100
AcDbEntity
  8
AM_2
100
AcDbCircle
 10
982.7596897145806
 20
538.7470040046653
 30
0.0
 40
0.4000000059605
100
AcDbArc
 50
0.0000025044687019
 51
90.00000500893738
  0
LINE
  5
D3F3
330
1F
100
AcDbEntity
  8
AM_2
100
AcDbLine
 10
979.2255100270805
 20
540.1110176765343
 30
0.0
 11
979.2255100270805
 21
534.5320992195048
 31
0.0
  0
LINE
  5
D3F4
330
1F
100
AcDbEntity
  8
AM_2
100
AcDbLine
 10
980.6814121266912
 20
540.1110176765343
 30
0.0
 11
980.6814121266912
 21
534.5320992195048
 31
0.0
  0
LINE
  5
D3F5
330
1F
100
AcDbEntity
  8
AM_2
100
AcDbLine
 10
977.9973300954413
 20
540.1110176765343
 30
0.0
 11
977.9973300954413
 21
535.6448616706749
 31
0.0
  0
LINE
  5
D3F6
330
1F
100
AcDbEntity
  8
AM_2
100
AcDbLine
 10
976.5415805837303
 20
540.1110176765343
 30
0.0
 11
976.5415805837303
 21
534.5320992195048
 31
0.0
  0
LINE
  5
D3F7
330
1F
100
AcDbEntity
  8
AM_2
100
AcDbLine
 10
976.0203098317711
 20
538.7226814948937
 30
0.0
 11
976.0203098317711
 21
537.6849007331753
 31
0.0
  0
LINE
  5
D3F8
330
1F
100
AcDbEntity
  8
AM_2
100
AcDbLine
 10
981.2584690114611
 20
540.1110176765343
 30
0.0
 11
981.2584690114611
 21
534.5320992195048
 31
0.0
  0
ARC
  5
D3F9
330
1F
100
AcDbEntity
  8
AM_2
100
AcDbCircle
 10
983.380691911851
 20
537.781885596464
 30
0.0
 40
1.0
100
AcDbArc
 50
270.0
 51
0.0000025044687019
  0
ARC
  5
D3FA
330
1F
100
AcDbEntity
  8
AM_2
100
AcDbCircle
 10
982.7596897145806
 20
538.1420540534946
 30
0.0
 40
0.4000000059605
100
AcDbArc
 50
270.0
 51
0.0000025044687019
  0
LINE
  5
D3FB
330
1F
100
AcDbEntity
  8
AM_2
100
AcDbLine
 10
956.5897068044305
 20
531.4777474128643
 30
0.0
 11
969.423202898181
 21
531.4777474128643
 31
0.0
  0
ARC
  5
D3FC
330
1F
100
AcDbEntity
  8
AM_2
100
AcDbCircle
 10
974.1024631520806
 20
535.9114937507548
 30
0.0
 40
1.5
100
AcDbArc
 50
179.9999974955313
 51
270.0
  0
LINE
  5
D3FD
330
1F
100
AcDbEntity
  8
AM_2
100
AcDbLine
 10
974.5645298024806
 20
536.7699837409948
 30
0.0
 11
974.5645298024806
 21
535.6199288093546
 31
0.0
  0
LINE
  5
D3FE
330
1F
100
AcDbEntity
  8
AM_2
100
AcDbLine
 10
974.1024631520806
 20
534.411493750755
 30
0.0
 11
974.5203098317713
 21
534.411493750755
 31
0.0
  0
ARC
  5
D3FF
330
1F
100
AcDbEntity
  8
AM_2
100
AcDbCircle
 10
974.3112033864614
 20
535.6199288093546
 30
0.0
 40
0.2533143162727
100
AcDbArc
 50
179.9999974955313
 51
0.0000025044687019
  0
LINE
  5
D400
330
1F
100
AcDbEntity
  8
AM_2
100
AcDbLine
 10
969.6842807790412
 20
531.9255013191143
 30
0.0
 11
968.6566928884108
 21
533.7053169929443
 31
0.0
  0
ARC
  5
D401
330
1F
100
AcDbEntity
  8
AM_2
100
AcDbCircle
 10
974.1024631520806
 20
538.7226814948937
 30
0.0
 40
1.5
100
AcDbArc
 50
89.99999134855904
 51
180.0000006832169
  0
LINE
  5
D402
330
1F
100
AcDbEntity
  8
AM_2
100
AcDbLine
 10
964.8623203298207
 20
540.2773689948937
 30
0.0
 11
963.2662509938814
 21
543.0418038093546
 31
0.0
  0
LINE
  5
D403
330
1F
100
AcDbEntity
  8
AM_2
100
AcDbLine
 10
962.7466281911507
 20
543.0418038093546
 30
0.0
 11
961.1505893727912
 21
540.2773689948937
 31
0.0
  0
ARC
  5
D404
330
1F
100
AcDbEntity
  8
AM_2
100
AcDbCircle
 10
963.0064548513015
 20
542.8918099128643
 30
0.0
 40
0.3000000119209
100
AcDbArc
 50
30.00008530158129
 51
149.9999247163441
  0
LINE
  5
D405
330
1F
100
AcDbEntity
  8
AM_2
100
AcDbLine
 10
959.8697666188812
 20
538.0589241706753
 30
0.0
 11
966.1431430837303
 21
538.0589241706753
 31
0.0
  0
LINE
  5
D406
330
1F
100
AcDbEntity
  8
AM_2
100
AcDbLine
 10
961.1505893727912
 20
540.2773689948937
 30
0.0
 11
964.8623203298207
 21
540.2773689948937
 31
0.0
  0
LINE
  5
D407
330
1F
100
AcDbEntity
  8
AM_2
100
AcDbLine
 10
974.1024631520806
 20
540.2226814948938
 30
0.0
 11
974.5203098317713
 21
540.2226814948938
 31
0.0
  0
LINE
  5
D408
330
1F
100
AcDbEntity
  8
AM_2
100
AcDbLine
 10
1004.704697038801
 20
545.2768807136437
 30
0.0
 11
1004.704697038801
 21
526.4530892097448
 31
0.0
  0
LINE
  5
D409
330
1F
100
AcDbEntity
  8
AM_0
100
AcDbLine
 10
1449.992719050113
 20
1036.300409217618
 30
0.0
 11
2006.843941301622
 21
1036.300409217618
 31
0.0
  0
TEXT
  5
D40A
330
1F
100
AcDbEntity
  8
AM_6
100
AcDbText
 10
1477.451790486564
 20
1015.798739160288
 30
0.0
 40
12.0
  1
クリップ
 41
0.62481887
100
AcDbText
  0
TEXT
  5
D40B
330
1F
100
AcDbEntity
  8
AM_6
100
AcDbText
 10
1552.347677777991
 20
1015.300409217617
 30
0.0
 40
12.0
  1
ユニット材質：ステンレス（ヘアーライン+クリアー塗装仕上）
 41
0.8643907499999999
100
AcDbText
  0
DIMENSION
  5
D47D
102
{ACAD_XDICTIONARY
360
D48A
102
}
102
{ACAD_REACTORS
330
D48B
102
}
330
1F
100
AcDbEntity
  8
AM_5
100
AcDbDimension
  2
*D12
 10
1033.091486865254
 20
1237.909266967655
 30
0.0
 11
963.0914868652537
 21
1253.409266967655
 31
0.0
 70
    32
 71
     5
 42
139.9999999999999
  3
SYS$0
100
AcDbAlignedDimension
 13
893.0914868652541
 23
1177.909265967654
 33
0.0
 14
1033.091486865254
 24
1177.909265967654
 34
0.0
 50
0.0000000000000114
100
AcDbRotatedDimension
1001
ACAD
1000
DSTYLE
1002
{
1070
    40
1040
5.0
1002
}
  0
LINE
  5
D60F
330
1F
100
AcDbEntity
  8
AM_2
 48
0.9000001907348501
100
AcDbLine
 10
953.4384407243859
 20
637.9092678750021
 30
0.0
 11
989.4384483537798
 21
637.9092678750021
 31
0.0
  0
LINE
  5
D610
330
1F
100
AcDbEntity
  8
AM_2
 48
0.9000001907348501
100
AcDbLine
 10
953.4384407243859
 20
673.9092716897
 30
0.0
 11
989.4384483537798
 21
673.9092716897
 31
0.0
  0
LINE
  5
D611
330
1F
100
AcDbEntity
  8
AM_2
 48
0.175
100
AcDbLine
 10
962.43844835378
 20
720.9092712128622
 30
0.0
 11
969.4384483537801
 21
720.9092712128622
 31
0.0
  0
LINE
  5
D612
330
1F
100
AcDbEntity
  8
AM_2
 48
0.175
100
AcDbLine
 10
962.43844835378
 20
727.9092713320713
 30
0.0
 11
969.4384483537801
 21
727.9092713320713
 31
0.0
  0
LINE
  5
D613
330
1F
100
AcDbEntity
  8
AM_2
 48
0.175
100
AcDbLine
 10
962.43844835378
 20
730.9093935215932
 30
0.0
 11
969.4384483537801
 21
730.9093935215932
 31
0.0
  0
LINE
  5
D614
330
1F
100
AcDbEntity
  8
AM_2
 48
0.175
100
AcDbLine
 10
962.43844835378
 20
737.9092716896995
 30
0.0
 11
969.4384483537801
 21
737.9092716896995
 31
0.0
  0
LINE
  5
D615
330
1F
100
AcDbEntity
  8
AM_2
 48
0.175
100
AcDbLine
 10
962.43844835378
 20
740.9093937600118
 30
0.0
 11
969.4384483537801
 21
740.9093937600118
 31
0.0
  0
LINE
  5
D616
330
1F
100
AcDbEntity
  8
AM_2
 48
0.175
100
AcDbLine
 10
962.43844835378
 20
747.9093937600102
 30
0.0
 11
969.4384483537801
 21
747.9093937600102
 31
0.0
  0
LINE
  5
D617
330
1F
100
AcDbEntity
  8
AM_2
 48
0.175
100
AcDbLine
 10
962.43844835378
 20
750.90939376001
 30
0.0
 11
969.4384483537801
 21
750.90939376001
 31
0.0
  0
LINE
  5
D618
330
1F
100
AcDbEntity
  8
AM_2
 48
0.175
100
AcDbLine
 10
962.43844835378
 20
757.90939376001
 30
0.0
 11
969.4384483537801
 21
757.90939376001
 31
0.0
  0
LINE
  5
D619
330
1F
100
AcDbEntity
  8
AM_2
 48
0.175
100
AcDbLine
 10
959.4384483537799
 20
710.9092716896996
 30
0.0
 11
959.4384483537799
 21
717.9092716896995
 31
0.0
  0
LINE
  5
D61A
330
1F
100
AcDbEntity
  8
AM_2
 48
0.175
100
AcDbLine
 10
952.4384407243859
 20
710.9092716896996
 30
0.0
 11
952.4384407243859
 21
717.9092716896995
 31
0.0
  0
LINE
  5
D61B
330
1F
100
AcDbEntity
  8
AM_2
 48
0.175
100
AcDbLine
 10
949.438440724386
 20
710.9092716896996
 30
0.0
 11
949.438440724386
 21
717.9092716896995
 31
0.0
  0
LINE
  5
D61C
330
1F
100
AcDbEntity
  8
AM_2
 48
0.175
100
AcDbLine
 10
942.4384483537799
 20
710.9092716896996
 30
0.0
 11
942.4384483537799
 21
717.9092716896995
 31
0.0
  0
LINE
  5
D61D
330
1F
100
AcDbEntity
  8
AM_2
 48
0.175
100
AcDbLine
 10
939.4384483537798
 20
710.9092716896996
 30
0.0
 11
939.4384483537798
 21
717.9092716896995
 31
0.0
  0
LINE
  5
D61E
330
1F
100
AcDbEntity
  8
AM_2
 48
0.175
100
AcDbLine
 10
932.4384483537798
 20
710.9092716896996
 30
0.0
 11
932.4384483537798
 21
717.9092716896995
 31
0.0
  0
LINE
  5
D61F
330
1F
100
AcDbEntity
  8
AM_2
 48
0.9000000953674497
100
AcDbLine
 10
953.4384407243859
 20
637.9092678750021
 30
0.0
 11
953.4384407243859
 21
673.9092716897
 31
0.0
  0
LINE
  5
D620
330
1F
100
AcDbEntity
  8
AM_2
 48
0.1750000953674501
100
AcDbLine
 10
932.4384483537798
 20
663.9092678750021
 30
0.0
 11
932.4384483537798
 21
670.9092716897003
 31
0.0
  0
LINE
  5
D621
330
1F
100
AcDbEntity
  8
AM_2
 48
0.1750000953674501
100
AcDbLine
 10
939.4384483537798
 20
663.9092678750021
 30
0.0
 11
939.4384483537798
 21
670.9092716897003
 31
0.0
  0
LINE
  5
D622
330
1F
100
AcDbEntity
  8
AM_2
 48
0.325
100
AcDbLine
 10
940.9384483537801
 20
640.9092678750019
 30
0.0
 11
940.9384483537801
 21
653.9092678750021
 31
0.0
  0
LINE
  5
D623
330
1F
100
AcDbEntity
  8
AM_2
 48
0.325
100
AcDbLine
 10
937.9384483537799
 20
640.9092678750019
 30
0.0
 11
937.9384483537799
 21
653.9092678750021
 31
0.0
  0
LINE
  5
D624
330
1F
100
AcDbEntity
  8
AM_2
 48
0.15
100
AcDbLine
 10
937.9384483537799
 20
640.9092678750019
 30
0.0
 11
940.9384483537801
 21
640.9092678750019
 31
0.0
  0
LINE
  5
D625
330
1F
100
AcDbEntity
  8
AM_2
 48
0.325
100
AcDbLine
 10
932.4384483537798
 20
640.9092678750019
 30
0.0
 11
932.4384483537798
 21
653.9092678750021
 31
0.0
  0
LINE
  5
D626
330
1F
100
AcDbEntity
  8
AM_2
 48
0.15
100
AcDbLine
 10
937.9384483537799
 20
653.9092678750021
 30
0.0
 11
940.9384483537801
 21
653.9092678750021
 31
0.0
  0
LINE
  5
D627
330
1F
100
AcDbEntity
  8
AM_2
 48
0.15
100
AcDbLine
 10
932.4384483537798
 20
653.9092678750021
 30
0.0
 11
935.4384483537799
 21
653.9092678750021
 31
0.0
  0
LINE
  5
D628
330
1F
100
AcDbEntity
  8
AM_2
 48
0.15
100
AcDbLine
 10
932.4384483537798
 20
640.9092678750019
 30
0.0
 11
935.4384483537799
 21
640.9092678750019
 31
0.0
  0
LINE
  5
D629
330
1F
100
AcDbEntity
  8
AM_2
 48
0.325
100
AcDbLine
 10
935.4384483537799
 20
640.9092678750019
 30
0.0
 11
935.4384483537799
 21
653.9092678750021
 31
0.0
  0
LINE
  5
D62A
330
1F
100
AcDbEntity
  8
AM_2
 48
0.175
100
AcDbLine
 10
932.4384483537798
 20
663.9092678750021
 30
0.0
 11
939.4384483537798
 21
663.9092678750021
 31
0.0
  0
LINE
  5
D62B
330
1F
100
AcDbEntity
  8
AM_2
 48
0.175
100
AcDbLine
 10
932.4384483537798
 20
670.9092716897003
 30
0.0
 11
939.4384483537798
 21
670.9092716897003
 31
0.0
  0
LINE
  5
D62C
330
1F
100
AcDbEntity
  8
AM_2
 48
0.175
100
AcDbLine
 10
932.4384483537798
 20
690.9092716897001
 30
0.0
 11
939.4384483537798
 21
690.9092716897001
 31
0.0
  0
LINE
  5
D62D
330
1F
100
AcDbEntity
  8
AM_2
 48
0.175
100
AcDbLine
 10
932.4384483537798
 20
697.9092735970482
 30
0.0
 11
939.4384483537798
 21
697.9092735970482
 31
0.0
  0
LINE
  5
D62E
330
1F
100
AcDbEntity
  8
AM_2
 48
0.175
100
AcDbLine
 10
932.4384483537798
 20
700.9092735970482
 30
0.0
 11
939.4384483537798
 21
700.9092735970482
 31
0.0
  0
LINE
  5
D62F
330
1F
100
AcDbEntity
  8
AM_2
 48
0.175
100
AcDbLine
 10
932.4384483537798
 20
707.9092716896996
 30
0.0
 11
939.4384483537798
 21
707.9092716896996
 31
0.0
  0
LINE
  5
D630
330
1F
100
AcDbEntity
  8
AM_2
 48
0.175
100
AcDbLine
 10
932.4384483537798
 20
710.9092716896996
 30
0.0
 11
939.4384483537798
 21
710.9092716896996
 31
0.0
  0
LINE
  5
D631
330
1F
100
AcDbEntity
  8
AM_2
 48
0.1750000476836999
100
AcDbLine
 10
939.4384483537798
 20
690.9092716897001
 30
0.0
 11
939.4384483537798
 21
697.9092735970482
 31
0.0
  0
LINE
  5
D632
330
1F
100
AcDbEntity
  8
AM_2
 48
0.1750000476836999
100
AcDbLine
 10
932.4384483537798
 20
690.9092716897001
 30
0.0
 11
932.4384483537798
 21
697.9092735970482
 31
0.0
  0
LINE
  5
D633
330
1F
100
AcDbEntity
  8
AM_2
 48
0.174999952316285
100
AcDbLine
 10
932.4384483537798
 20
700.9092735970482
 30
0.0
 11
932.4384483537798
 21
707.9092716896996
 31
0.0
  0
LINE
  5
D634
330
1F
100
AcDbEntity
  8
AM_2
 48
0.174999952316285
100
AcDbLine
 10
939.4384483537798
 20
700.9092735970482
 30
0.0
 11
939.4384483537798
 21
707.9092716896996
 31
0.0
  0
LINE
  5
D635
330
1F
100
AcDbEntity
  8
AM_2
 48
0.1750001907348502
100
AcDbLine
 10
952.4384407243859
 20
710.9092716896996
 30
0.0
 11
959.4384483537799
 21
710.9092716896996
 31
0.0
  0
LINE
  5
D636
330
1F
100
AcDbEntity
  8
AM_2
 48
0.1749998092651499
100
AcDbLine
 10
942.4384483537799
 20
700.9092735970482
 30
0.0
 11
949.438440724386
 21
700.9092735970482
 31
0.0
  0
LINE
  5
D637
330
1F
100
AcDbEntity
  8
AM_2
 48
0.1749998092651499
100
AcDbLine
 10
942.4384483537799
 20
707.9092716896996
 30
0.0
 11
949.438440724386
 21
707.9092716896996
 31
0.0
  0
LINE
  5
D638
330
1F
100
AcDbEntity
  8
AM_2
 48
0.1749998092651499
100
AcDbLine
 10
942.4384483537799
 20
710.9092716896996
 30
0.0
 11
949.438440724386
 21
710.9092716896996
 31
0.0
  0
LINE
  5
D639
330
1F
100
AcDbEntity
  8
AM_2
 48
0.174999952316285
100
AcDbLine
 10
942.4384483537799
 20
700.9092735970482
 30
0.0
 11
942.4384483537799
 21
707.9092716896996
 31
0.0
  0
LINE
  5
D63A
330
1F
100
AcDbEntity
  8
AM_2
 48
0.174999952316285
100
AcDbLine
 10
949.438440724386
 20
700.9092735970482
 30
0.0
 11
949.438440724386
 21
707.9092716896996
 31
0.0
  0
LINE
  5
D63B
330
1F
100
AcDbEntity
  8
AM_2
 48
0.175
100
AcDbLine
 10
932.4384483537798
 20
717.9092716896995
 30
0.0
 11
939.4384483537798
 21
717.9092716896995
 31
0.0
  0
LINE
  5
D63C
330
1F
100
AcDbEntity
  8
AM_2
 48
0.175
100
AcDbLine
 10
932.4384483537798
 20
720.9092712128622
 30
0.0
 11
939.4384483537798
 21
720.9092712128622
 31
0.0
  0
LINE
  5
D63D
330
1F
100
AcDbEntity
  8
AM_2
 48
0.175
100
AcDbLine
 10
932.4384483537798
 20
727.9092713320713
 30
0.0
 11
939.4384483537798
 21
727.9092713320713
 31
0.0
  0
LINE
  5
D63E
330
1F
100
AcDbEntity
  8
AM_2
 48
0.175
100
AcDbLine
 10
932.4384483537798
 20
730.9093935215932
 30
0.0
 11
939.4384483537798
 21
730.9093935215932
 31
0.0
  0
LINE
  5
D63F
330
1F
100
AcDbEntity
  8
AM_2
 48
0.175
100
AcDbLine
 10
932.4384483537798
 20
737.9092716896995
 30
0.0
 11
939.4384483537798
 21
737.9092716896995
 31
0.0
  0
LINE
  5
D640
330
1F
100
AcDbEntity
  8
AM_2
 48
0.174996954202655
100
AcDbLine
 10
939.4384483537798
 20
730.9093935215932
 30
0.0
 11
939.4384483537798
 21
737.9092716896995
 31
0.0
  0
LINE
  5
D641
330
1F
100
AcDbEntity
  8
AM_2
 48
0.174996954202655
100
AcDbLine
 10
932.4384483537798
 20
730.9093935215932
 30
0.0
 11
932.4384483537798
 21
737.9092716896995
 31
0.0
  0
LINE
  5
D642
330
1F
100
AcDbEntity
  8
AM_2
 48
0.175213626027105
100
AcDbLine
 10
932.4384483537798
 20
720.9092712128622
 30
0.0
 11
932.4384483537798
 21
727.9178162539465
 31
0.0
  0
LINE
  5
D643
330
1F
100
AcDbEntity
  8
AM_2
 48
0.17500000298023
100
AcDbLine
 10
939.4384483537798
 20
720.9092712128622
 30
0.0
 11
939.4384483537798
 21
727.9092713320713
 31
0.0
  0
LINE
  5
D644
330
1F
100
AcDbEntity
  8
AM_2
 48
0.175
100
AcDbLine
 10
932.4384483537798
 20
740.9093937600118
 30
0.0
 11
939.4384483537798
 21
740.9093937600118
 31
0.0
  0
LINE
  5
D645
330
1F
100
AcDbEntity
  8
AM_2
 48
0.175
100
AcDbLine
 10
932.4384483537798
 20
747.9093937600102
 30
0.0
 11
939.4384483537798
 21
747.9093937600102
 31
0.0
  0
LINE
  5
D646
330
1F
100
AcDbEntity
  8
AM_2
 48
0.175
100
AcDbLine
 10
932.4384483537798
 20
750.90939376001
 30
0.0
 11
939.4384483537798
 21
750.90939376001
 31
0.0
  0
LINE
  5
D647
330
1F
100
AcDbEntity
  8
AM_2
 48
0.175
100
AcDbLine
 10
932.4384483537798
 20
757.90939376001
 30
0.0
 11
939.4384483537798
 21
757.90939376001
 31
0.0
  0
LINE
  5
D648
330
1F
100
AcDbEntity
  8
AM_2
 48
0.175
100
AcDbLine
 10
939.4384483537798
 20
750.90939376001
 30
0.0
 11
939.4384483537798
 21
757.90939376001
 31
0.0
  0
LINE
  5
D649
330
1F
100
AcDbEntity
  8
AM_2
 48
0.175
100
AcDbLine
 10
932.4384483537798
 20
750.90939376001
 30
0.0
 11
932.4384483537798
 21
757.90939376001
 31
0.0
  0
LINE
  5
D64A
330
1F
100
AcDbEntity
  8
AM_2
 48
0.174999999999955
100
AcDbLine
 10
932.4384483537798
 20
740.9093937600118
 30
0.0
 11
932.4384483537798
 21
747.9093937600102
 31
0.0
  0
LINE
  5
D64B
330
1F
100
AcDbEntity
  8
AM_2
 48
0.174999999999955
100
AcDbLine
 10
939.4384483537798
 20
740.9093937600118
 30
0.0
 11
939.4384483537798
 21
747.9093937600102
 31
0.0
  0
LINE
  5
D64C
330
1F
100
AcDbEntity
  8
AM_2
 48
0.1750001907348502
100
AcDbLine
 10
952.4384407243859
 20
737.9092716896995
 30
0.0
 11
959.4384483537799
 21
737.9092716896995
 31
0.0
  0
LINE
  5
D64D
330
1F
100
AcDbEntity
  8
AM_2
 48
0.1750001907348502
100
AcDbLine
 10
952.4384407243859
 20
730.9093935215932
 30
0.0
 11
959.4384483537799
 21
730.9093935215932
 31
0.0
  0
LINE
  5
D64E
330
1F
100
AcDbEntity
  8
AM_2
 48
0.1750001907348502
100
AcDbLine
 10
952.4384407243859
 20
727.9092713320713
 30
0.0
 11
959.4384483537799
 21
727.9092713320713
 31
0.0
  0
LINE
  5
D64F
330
1F
100
AcDbEntity
  8
AM_2
 48
0.1750001907348502
100
AcDbLine
 10
952.4384407243859
 20
720.9092712128622
 30
0.0
 11
959.4384483537799
 21
720.9092712128622
 31
0.0
  0
LINE
  5
D650
330
1F
100
AcDbEntity
  8
AM_2
 48
0.1750001907348502
100
AcDbLine
 10
952.4384407243859
 20
717.9092716896995
 30
0.0
 11
959.4384483537799
 21
717.9092716896995
 31
0.0
  0
LINE
  5
D651
330
1F
100
AcDbEntity
  8
AM_2
 48
0.1749998092651499
100
AcDbLine
 10
942.4384483537799
 20
717.9092716896995
 30
0.0
 11
949.438440724386
 21
717.9092716896995
 31
0.0
  0
LINE
  5
D652
330
1F
100
AcDbEntity
  8
AM_2
 48
0.1749998092651499
100
AcDbLine
 10
942.4384483537799
 20
720.9092712128622
 30
0.0
 11
949.438440724386
 21
720.9092712128622
 31
0.0
  0
LINE
  5
D653
330
1F
100
AcDbEntity
  8
AM_2
 48
0.1749998092651499
100
AcDbLine
 10
942.4384483537799
 20
727.9092713320713
 30
0.0
 11
949.438440724386
 21
727.9092713320713
 31
0.0
  0
LINE
  5
D654
330
1F
100
AcDbEntity
  8
AM_2
 48
0.1749998092651499
100
AcDbLine
 10
942.4384483537799
 20
730.9093935215932
 30
0.0
 11
949.438440724386
 21
730.9093935215932
 31
0.0
  0
LINE
  5
D655
330
1F
100
AcDbEntity
  8
AM_2
 48
0.1749998092651499
100
AcDbLine
 10
942.4384483537799
 20
737.9092716896995
 30
0.0
 11
949.438440724386
 21
737.9092716896995
 31
0.0
  0
LINE
  5
D656
330
1F
100
AcDbEntity
  8
AM_2
 48
0.174996954202655
100
AcDbLine
 10
952.4384407243859
 20
730.9093935215932
 30
0.0
 11
952.4384407243859
 21
737.9092716896995
 31
0.0
  0
LINE
  5
D657
330
1F
100
AcDbEntity
  8
AM_2
 48
0.174996954202655
100
AcDbLine
 10
949.438440724386
 20
730.9093935215932
 30
0.0
 11
949.438440724386
 21
737.9092716896995
 31
0.0
  0
LINE
  5
D658
330
1F
100
AcDbEntity
  8
AM_2
 48
0.174996954202655
100
AcDbLine
 10
942.4384483537799
 20
730.9093935215932
 30
0.0
 11
942.4384483537799
 21
737.9092716896995
 31
0.0
  0
LINE
  5
D659
330
1F
100
AcDbEntity
  8
AM_2
 48
0.17500000298023
100
AcDbLine
 10
942.4384483537799
 20
720.9092712128622
 30
0.0
 11
942.4384483537799
 21
727.9092713320713
 31
0.0
  0
LINE
  5
D65A
330
1F
100
AcDbEntity
  8
AM_2
 48
0.17500000298023
100
AcDbLine
 10
949.438440724386
 20
720.9092712128622
 30
0.0
 11
949.438440724386
 21
727.9092713320713
 31
0.0
  0
LINE
  5
D65B
330
1F
100
AcDbEntity
  8
AM_2
 48
0.17500000298023
100
AcDbLine
 10
952.4384407243859
 20
720.9092712128622
 30
0.0
 11
952.4384407243859
 21
727.9092713320713
 31
0.0
  0
LINE
  5
D65C
330
1F
100
AcDbEntity
  8
AM_2
 48
0.174996954202655
100
AcDbLine
 10
962.43844835378
 20
730.9093935215932
 30
0.0
 11
962.43844835378
 21
737.9092716896995
 31
0.0
  0
LINE
  5
D65D
330
1F
100
AcDbEntity
  8
AM_2
 48
0.174996954202655
100
AcDbLine
 10
959.4384483537799
 20
730.9093935215932
 30
0.0
 11
959.4384483537799
 21
737.9092716896995
 31
0.0
  0
LINE
  5
D65E
330
1F
100
AcDbEntity
  8
AM_2
 48
0.17500000298023
100
AcDbLine
 10
959.4384483537799
 20
720.9092712128622
 30
0.0
 11
959.4384483537799
 21
727.9092713320713
 31
0.0
  0
LINE
  5
D65F
330
1F
100
AcDbEntity
  8
AM_2
 48
0.17500000298023
100
AcDbLine
 10
962.43844835378
 20
720.9092712128622
 30
0.0
 11
962.43844835378
 21
727.9092713320713
 31
0.0
  0
LINE
  5
D660
330
1F
100
AcDbEntity
  8
AM_2
 48
0.1750001907348502
100
AcDbLine
 10
952.4384407243859
 20
757.90939376001
 30
0.0
 11
959.4384483537799
 21
757.90939376001
 31
0.0
  0
LINE
  5
D661
330
1F
100
AcDbEntity
  8
AM_2
 48
0.1750001907348502
100
AcDbLine
 10
952.4384407243859
 20
750.90939376001
 30
0.0
 11
959.4384483537799
 21
750.90939376001
 31
0.0
  0
LINE
  5
D662
330
1F
100
AcDbEntity
  8
AM_2
 48
0.1750001907348502
100
AcDbLine
 10
952.4384407243859
 20
747.9093937600102
 30
0.0
 11
959.4384483537799
 21
747.9093937600102
 31
0.0
  0
LINE
  5
D663
330
1F
100
AcDbEntity
  8
AM_2
 48
0.1750001907348502
100
AcDbLine
 10
952.4384407243859
 20
740.9093937600118
 30
0.0
 11
959.4384483537799
 21
740.9093937600118
 31
0.0
  0
LINE
  5
D664
330
1F
100
AcDbEntity
  8
AM_2
 48
0.1749998092651499
100
AcDbLine
 10
942.4384483537799
 20
740.9093937600118
 30
0.0
 11
949.438440724386
 21
740.9093937600118
 31
0.0
  0
LINE
  5
D665
330
1F
100
AcDbEntity
  8
AM_2
 48
0.1749998092651499
100
AcDbLine
 10
942.4384483537799
 20
747.9093937600102
 30
0.0
 11
949.438440724386
 21
747.9093937600102
 31
0.0
  0
LINE
  5
D666
330
1F
100
AcDbEntity
  8
AM_2
 48
0.1749998092651499
100
AcDbLine
 10
942.4384483537799
 20
750.90939376001
 30
0.0
 11
949.438440724386
 21
750.90939376001
 31
0.0
  0
LINE
  5
D667
330
1F
100
AcDbEntity
  8
AM_2
 48
0.1749998092651499
100
AcDbLine
 10
942.4384483537799
 20
757.90939376001
 30
0.0
 11
949.438440724386
 21
757.90939376001
 31
0.0
  0
LINE
  5
D668
330
1F
100
AcDbEntity
  8
AM_2
 48
0.175
100
AcDbLine
 10
952.4384407243859
 20
750.90939376001
 30
0.0
 11
952.4384407243859
 21
757.90939376001
 31
0.0
  0
LINE
  5
D669
330
1F
100
AcDbEntity
  8
AM_2
 48
0.175
100
AcDbLine
 10
949.438440724386
 20
750.90939376001
 30
0.0
 11
949.438440724386
 21
757.90939376001
 31
0.0
  0
LINE
  5
D66A
330
1F
100
AcDbEntity
  8
AM_2
 48
0.175
100
AcDbLine
 10
942.4384483537799
 20
750.90939376001
 30
0.0
 11
942.4384483537799
 21
757.90939376001
 31
0.0
  0
LINE
  5
D66B
330
1F
100
AcDbEntity
  8
AM_2
 48
0.174999999999955
100
AcDbLine
 10
942.4384483537799
 20
740.9093937600118
 30
0.0
 11
942.4384483537799
 21
747.9093937600102
 31
0.0
  0
LINE
  5
D66C
330
1F
100
AcDbEntity
  8
AM_2
 48
0.174999999999955
100
AcDbLine
 10
949.438440724386
 20
740.9093937600118
 30
0.0
 11
949.438440724386
 21
747.9093937600102
 31
0.0
  0
LINE
  5
D66D
330
1F
100
AcDbEntity
  8
AM_2
 48
0.174999999999955
100
AcDbLine
 10
952.4384407243859
 20
740.9093937600118
 30
0.0
 11
952.4384407243859
 21
747.9093937600102
 31
0.0
  0
LINE
  5
D66E
330
1F
100
AcDbEntity
  8
AM_2
 48
0.175
100
AcDbLine
 10
962.43844835378
 20
750.90939376001
 30
0.0
 11
962.43844835378
 21
757.90939376001
 31
0.0
  0
LINE
  5
D66F
330
1F
100
AcDbEntity
  8
AM_2
 48
0.175
100
AcDbLine
 10
959.4384483537799
 20
750.90939376001
 30
0.0
 11
959.4384483537799
 21
757.90939376001
 31
0.0
  0
LINE
  5
D670
330
1F
100
AcDbEntity
  8
AM_2
 48
0.174999999999955
100
AcDbLine
 10
959.4384483537799
 20
740.9093937600118
 30
0.0
 11
959.4384483537799
 21
747.9093937600102
 31
0.0
  0
LINE
  5
D671
330
1F
100
AcDbEntity
  8
AM_2
 48
0.174999999999955
100
AcDbLine
 10
962.43844835378
 20
740.9093937600118
 30
0.0
 11
962.43844835378
 21
747.9093937600102
 31
0.0
  0
LINE
  5
D672
330
1F
100
AcDbEntity
  8
AM_2
 48
0.9000000953674497
100
AcDbLine
 10
989.4384483537798
 20
637.9092678750021
 30
0.0
 11
989.4384483537798
 21
673.9092716897
 31
0.0
  0
LINE
  5
D673
330
1F
100
AcDbEntity
  8
AM_2
 48
0.175
100
AcDbLine
 10
972.4384483537798
 20
737.9092716896995
 30
0.0
 11
979.43844835378
 21
737.9092716896995
 31
0.0
  0
LINE
  5
D674
330
1F
100
AcDbEntity
  8
AM_2
 48
0.175
100
AcDbLine
 10
972.4384483537798
 20
730.9093935215932
 30
0.0
 11
979.43844835378
 21
730.9093935215932
 31
0.0
  0
LINE
  5
D675
330
1F
100
AcDbEntity
  8
AM_2
 48
0.174996954202655
100
AcDbLine
 10
979.43844835378
 20
730.9093935215932
 30
0.0
 11
979.43844835378
 21
737.9092716896995
 31
0.0
  0
LINE
  5
D676
330
1F
100
AcDbEntity
  8
AM_2
 48
0.174996954202655
100
AcDbLine
 10
972.4384483537798
 20
730.9093935215932
 30
0.0
 11
972.4384483537798
 21
737.9092716896995
 31
0.0
  0
LINE
  5
D677
330
1F
100
AcDbEntity
  8
AM_2
 48
0.174996954202655
100
AcDbLine
 10
969.4384483537801
 20
730.9093935215932
 30
0.0
 11
969.4384483537801
 21
737.9092716896995
 31
0.0
  0
LINE
  5
D678
330
1F
100
AcDbEntity
  8
AM_2
 48
0.175000002980235
100
AcDbLine
 10
969.4384483537801
 20
720.9093932831747
 30
0.0
 11
969.4384483537801
 21
727.9093934023842
 31
0.0
  0
LINE
  5
D679
330
1F
100
AcDbEntity
  8
AM_2
 48
0.175
100
AcDbLine
 10
972.4384483537798
 20
757.90939376001
 30
0.0
 11
979.43844835378
 21
757.90939376001
 31
0.0
  0
LINE
  5
D67A
330
1F
100
AcDbEntity
  8
AM_2
 48
0.175
100
AcDbLine
 10
972.4384483537798
 20
750.90939376001
 30
0.0
 11
979.43844835378
 21
750.90939376001
 31
0.0
  0
LINE
  5
D67B
330
1F
100
AcDbEntity
  8
AM_2
 48
0.175
100
AcDbLine
 10
972.4384483537798
 20
747.9093937600102
 30
0.0
 11
979.43844835378
 21
747.9093937600102
 31
0.0
  0
LINE
  5
D67C
330
1F
100
AcDbEntity
  8
AM_2
 48
0.175
100
AcDbLine
 10
972.4384483537798
 20
740.9093937600118
 30
0.0
 11
979.43844835378
 21
740.9093937600118
 31
0.0
  0
LINE
  5
D67D
330
1F
100
AcDbEntity
  8
AM_2
 48
0.175
100
AcDbLine
 10
979.43844835378
 20
750.90939376001
 30
0.0
 11
979.43844835378
 21
757.90939376001
 31
0.0
  0
LINE
  5
D67E
330
1F
100
AcDbEntity
  8
AM_2
 48
0.175
100
AcDbLine
 10
972.4384483537798
 20
750.90939376001
 30
0.0
 11
972.4384483537798
 21
757.90939376001
 31
0.0
  0
LINE
  5
D67F
330
1F
100
AcDbEntity
  8
AM_2
 48
0.175
100
AcDbLine
 10
969.4384483537801
 20
750.90939376001
 30
0.0
 11
969.4384483537801
 21
757.90939376001
 31
0.0
  0
LINE
  5
D680
330
1F
100
AcDbEntity
  8
AM_2
 48
0.174999999999955
100
AcDbLine
 10
969.4384483537801
 20
740.9093937600118
 30
0.0
 11
969.4384483537801
 21
747.9093937600102
 31
0.0
  0
LINE
  5
D681
330
1F
100
AcDbEntity
  8
AM_2
 48
0.174999999999955
100
AcDbLine
 10
972.4384483537798
 20
740.9093937600118
 30
0.0
 11
972.4384483537798
 21
747.9093937600102
 31
0.0
  0
LINE
  5
D682
330
1F
100
AcDbEntity
  8
AM_2
 48
0.174999999999955
100
AcDbLine
 10
979.43844835378
 20
740.9093937600118
 30
0.0
 11
979.43844835378
 21
747.9093937600102
 31
0.0
  0
LINE
  5
D683
330
1F
100
AcDbEntity
  8
AM_2
 48
0.175
100
AcDbLine
 10
982.4384483537798
 20
740.9093937600118
 30
0.0
 11
989.4384483537798
 21
740.9093937600118
 31
0.0
  0
LINE
  5
D684
330
1F
100
AcDbEntity
  8
AM_2
 48
0.175
100
AcDbLine
 10
982.4384483537798
 20
747.9093937600102
 30
0.0
 11
989.4384483537798
 21
747.9093937600102
 31
0.0
  0
LINE
  5
D685
330
1F
100
AcDbEntity
  8
AM_2
 48
0.175
100
AcDbLine
 10
982.4384483537798
 20
750.90939376001
 30
0.0
 11
989.4384483537798
 21
750.90939376001
 31
0.0
  0
LINE
  5
D686
330
1F
100
AcDbEntity
  8
AM_2
 48
0.175
100
AcDbLine
 10
982.4384483537798
 20
757.90939376001
 30
0.0
 11
989.4384483537798
 21
757.90939376001
 31
0.0
  0
LINE
  5
D687
330
1F
100
AcDbEntity
  8
AM_2
 48
0.175
100
AcDbLine
 10
989.4384483537798
 20
750.90939376001
 30
0.0
 11
989.4384483537798
 21
757.90939376001
 31
0.0
  0
LINE
  5
D688
330
1F
100
AcDbEntity
  8
AM_2
 48
0.175
100
AcDbLine
 10
982.4384483537798
 20
750.90939376001
 30
0.0
 11
982.4384483537798
 21
757.90939376001
 31
0.0
  0
LINE
  5
D689
330
1F
100
AcDbEntity
  8
AM_2
 48
0.174999999999955
100
AcDbLine
 10
982.4384483537798
 20
740.9093937600118
 30
0.0
 11
982.4384483537798
 21
747.9093937600102
 31
0.0
  0
LINE
  5
D68A
330
1F
100
AcDbEntity
  8
AM_2
 48
0.174999999999955
100
AcDbLine
 10
989.4384483537798
 20
740.9093937600118
 30
0.0
 11
989.4384483537798
 21
747.9093937600102
 31
0.0
  0
LWPOLYLINE
  5
D6BE
102
{ACAD_REACTORS
330
D89C
102
}
330
1F
100
AcDbEntity
  8
AM_0
100
AcDbPolyline
 90
        4
 70
     1
 43
0.0
 10
337.9674342138893
 20
780.9092659676541
 10
461.9674342138893
 20
780.9092659676541
 10
461.9674342138893
 20
614.9092659676541
 10
337.9674342138893
 20
614.9092659676541
1001
GENIUS_GENREC_14
1002
{
1000
PYDIR
1011
337.9674342138893
1021
614.9092659676541
1031
0.0
1002
}
1002
{
1000
PXDIR
1011
461.9674342138893
1021
780.9092659676541
1031
0.0
1002
}
1002
{
1000
PORI
1011
337.9674342138893
1021
780.9092659676541
1031
0.0
1002
}
1002
{
1000
PINS
1011
337.9674342138893
1021
780.9092659676541
1031
0.0
1002
}
1002
{
1000
PINS2
1011
461.9674342138893
1021
614.9092659676541
1031
0.0
1002
}
1002
{
1000
C
1070
     1
1002
}
1001
GENIUS_GENODEF_13
1002
{
1000
HIER
1070
     0
1002
}
1002
{
1000
MANEDIT
1070
     0
1002
}
1002
{
1000
NOSEL
1070
     0
1002
}
1002
{
1000
BEHIND
1070
     0
1002
}
1002
{
1000
OTHER
1070
     0
1002
}
1002
{
1000
REACTOR
1002
}
1001
GENIUS_GENOBJ-N-REC_13
1002
{
1000
OWNER
1000
GEN
1002
}
  0
LWPOLYLINE
  5
D6F2
102
{ACAD_REACTORS
330
D8A9
102
}
330
1F
100
AcDbEntity
  8
AM_0
100
AcDbPolyline
 90
        4
 70
     1
 43
0.0
 10
337.9674342138893
 20
1145.409265967655
 10
461.9674342138893
 20
1145.409265967655
 10
461.9674342138893
 20
1070.409265967655
 10
337.9674342138893
 20
1070.409265967655
1001
GENIUS_GENREC_14
1002
{
1000
PYDIR
1011
337.9674342138893
1021
1070.409265967655
1031
0.0
1002
}
1002
{
1000
PXDIR
1011
461.9674342138893
1021
1145.409265967655
1031
0.0
1002
}
1002
{
1000
PORI
1011
337.9674342138893
1021
1145.409265967655
1031
0.0
1002
}
1002
{
1000
PINS
1011
337.9674342138893
1021
1145.409265967655
1031
0.0
1002
}
1002
{
1000
PINS2
1011
461.9674342138893
1021
1070.409265967655
1031
0.0
1002
}
1002
{
1000
C
1070
     1
1002
}
1001
GENIUS_GENODEF_13
1002
{
1000
HIER
1070
     0
1002
}
1002
{
1000
MANEDIT
1070
     0
1002
}
1002
{
1000
NOSEL
1070
     0
1002
}
1002
{
1000
BEHIND
1070
     0
1002
}
1002
{
1000
OTHER
1070
     0
1002
}
1002
{
1000
REACTOR
1002
}
1001
GENIUS_GENOBJ-N-REC_13
1002
{
1000
OWNER
1000
GEN
1002
}
  0
LINE
  5
D6FF
102
{ACAD_REACTORS
330
D799
102
}
330
1F
100
AcDbEntity
  8
AM_7
100
AcDbLine
 10
317.9674342138893
 20
1107.909265967655
 30
0.0
 11
481.9674342138893
 21
1107.909265967655
 31
0.0
1001
GENIUS_GENODEF_13
1002
{
1000
HIER
1070
     0
1002
}
1002
{
1000
MANEDIT
1070
     0
1002
}
1002
{
1000
NOSEL
1070
     0
1002
}
1002
{
1000
BEHIND
1070
     0
1002
}
1002
{
1000
OTHER
1070
     0
1002
}
1002
{
1000
REACTOR
1002
}
1001
GENIUS_GENOBJ-N-CEN_13
1002
{
1000
OWNER
1000
GEN
1002
}
1001
GENIUS_GENCEN_19
1002
{
1040
20.0
1002
}
  0
DIMENSION
  5
D719
102
{ACAD_XDICTIONARY
360
D726
102
}
102
{ACAD_REACTORS
330
D727
102
}
330
1F
100
AcDbEntity
  8
AM_5
100
AcDbDimension
  2
*D13
 10
532.9674342138893
 20
917.9092659676543
 30
0.0
 11
517.4674342138891
 21
592.9092659676546
 31
0.0
 70
    32
 71
     5
 42
650.0
  3
SYS$0
100
AcDbAlignedDimension
 13
472.9674342138893
 23
267.9092659676545
 33
0.0
 14
472.9674342138893
 24
917.9092659676543
 34
0.0
 50
90.00000000000005
100
AcDbRotatedDimension
1001
ACAD
1000
DSTYLE
1002
{
1070
    40
1040
5.0
1002
}
  0
DIMENSION
  5
D73F
102
{ACAD_XDICTIONARY
360
D74C
102
}
102
{ACAD_REACTORS
330
D74D
102
}
330
1F
100
AcDbEntity
  8
AM_5
100
AcDbDimension
  2
*D14
 10
258.4674342138904
 20
697.9092659676543
 30
0.0
 11
242.9674342138902
 21
482.9092659676545
 31
0.0
 70
    32
 71
     5
 42
429.9999999999998
  3
SYS$0
100
AcDbAlignedDimension
 13
326.9674342138893
 23
267.9092659676545
 33
0.0
 14
318.4674342138902
 24
697.9092659676543
 34
0.0
 50
90.00000000000005
100
AcDbRotatedDimension
1001
ACAD
1000
DSTYLE
1002
{
1070
    40
1040
5.0
1002
}
  0
DIMENSION
  5
D765
102
{ACAD_XDICTIONARY
360
D772
102
}
102
{ACAD_REACTORS
330
D773
102
}
330
1F
100
AcDbEntity
  8
AM_5
100
AcDbDimension
  2
*D15
 10
258.4674342138904
 20
917.9092659676543
 30
0.0
 11
242.9674342138902
 21
807.9092659676545
 31
0.0
 70
    32
 71
     5
 42
220.0000000000002
  3
SYS$0
100
AcDbAlignedDimension
 13
311.8741788794841
 23
697.9092659676543
 33
0.0
 14
326.9674342138893
 24
917.9092659676543
 34
0.0
 50
90.00000000000005
100
AcDbRotatedDimension
1001
ACAD
1000
DSTYLE
1002
{
1070
    40
1040
5.0
1002
}
  0
DIMENSION
  5
D78B
102
{ACAD_XDICTIONARY
360
D798
102
}
102
{ACAD_REACTORS
330
D799
102
}
330
1F
100
AcDbEntity
  8
AM_5
100
AcDbDimension
  2
*D16
 10
198.6586149213119
 20
1107.909265967655
 30
0.0
 11
198.6586149213117
 21
902.9092659676546
 31
0.0
 70
   160
 71
     5
 42
410.0000000000004
  3
SYS$0
100
AcDbAlignedDimension
 13
318.4674342138902
 23
697.9092659676543
 33
0.0
 14
317.9674342138893
 24
1107.909265967655
 34
0.0
 50
90.00000000000005
100
AcDbRotatedDimension
1001
ACAD
1000
DSTYLE
1002
{
1070
    40
1040
5.0
1002
}
  0
DIMENSION
  5
D7B5
102
{ACAD_XDICTIONARY
360
D7C2
102
}
102
{ACAD_REACTORS
330
D7C3
102
}
330
1F
100
AcDbEntity
  8
AM_5
100
AcDbDimension
  2
*D17
 10
449.9674342138891
 20
1184.929123799677
 30
0.0
 11
399.9674342138894
 21
1184.929123799677
 31
0.0
 70
   160
 71
     5
 42
100.0
  3
SYS$0
100
AcDbAlignedDimension
 13
349.9674342138893
 23
942.9092659676546
 33
0.0
 14
449.9674342138891
 24
942.9092659676546
 34
0.0
100
AcDbRotatedDimension
1001
ACAD
1000
DSTYLE
1002
{
1070
    40
1040
5.0
1002
}
  0
DIMENSION
  5
D81C
102
{ACAD_XDICTIONARY
360
D829
102
}
102
{ACAD_REACTORS
330
D82A
102
}
330
1F
100
AcDbEntity
  8
AM_5
100
AcDbDimension
  2
*D18
 10
833.0914868652556
 20
1177.909265967654
 30
0.0
 11
817.5914868652554
 21
1107.909265967654
 31
0.0
 70
    32
 71
     5
 42
139.9999999999995
  3
SYS$0
100
AcDbAlignedDimension
 13
896.091486865254
 23
1037.909265967654
 33
0.0
 14
893.0914868652541
 24
1177.909265967654
 34
0.0
 50
90.0
100
AcDbRotatedDimension
1001
ACAD
1000
DSTYLE
1002
{
1070
    40
1040
5.0
1002
}
  0
HATCH
  5
D89C
330
1F
100
AcDbEntity
  8
AM_8
100
AcDbHatch
 10
0.0
 20
0.0
 30
0.0
210
0.0
220
0.0
230
1.0
  2
_U
 70
     0
 71
     1
 91
        1
 92
        7
 72
     0
 73
     1
 93
        4
 10
337.9674342138893
 20
780.9092659676541
 10
337.9674342138893
 20
614.9092659676541
 10
461.9674342138893
 20
614.9092659676541
 10
461.9674342138893
 20
780.9092659676541
 97
        1
330
D6BE
 75
     0
 76
     0
 52
45.0
 41
12.5
 77
     0
 78
     1
 53
45.0
 43
0.0
 44
0.0
 45
-8.838834764831842
 46
8.838834764831842
 79
     0
 47
0.5476993005547275
 98
        1
 10
371.8601189705814
 20
756.2450134263626
1001
ACAD
1010
0.0
1020
0.0
1030
0.0
1001
GENIUS_GENODEF_13
1002
{
1000
HIER
1070
     0
1002
}
1002
{
1000
MANEDIT
1070
     0
1002
}
1002
{
1000
NOSEL
1070
     0
1002
}
1002
{
1000
BEHIND
1070
     0
1002
}
1002
{
1000
OTHER
1070
     0
1002
}
1002
{
1000
REACTOR
1002
}
1001
GENIUS_GENOBJ-N-HTC_13
1002
{
1000
OWNER
1000
GEN
1002
}
1001
GENIUS_GENHATCH_13
1002
{
1000
DATA
1040
45.0
1042
2.5
1000
_U
1070
     0
1011
371.8601189705814
1021
756.2450134263626
1031
0.0
1002
}
1002
{
1000
UCS
1010
0.0
1020
0.0
1030
0.0
1010
1.0
1020
0.0
1030
0.0
1010
0.0
1020
1.0
1030
0.0
1002
}
  0
HATCH
  5
D8A9
330
1F
100
AcDbEntity
  8
AM_8
100
AcDbHatch
 10
0.0
 20
0.0
 30
0.0
210
0.0
220
0.0
230
1.0
  2
_U
 70
     0
 71
     1
 91
        1
 92
        7
 72
     0
 73
     1
 93
        4
 10
461.9674342138891
 20
1070.409265967655
 10
461.9674342138893
 20
1145.409265967655
 10
337.9674342138892
 20
1145.409265967654
 10
337.9674342138894
 20
1070.409265967655
 97
        1
330
D6F2
 75
     0
 76
     0
 52
45.0
 41
12.5
 77
     0
 78
     1
 53
45.0
 43
0.0
 44
0.0
 45
-8.838834764831842
 46
8.838834764831842
 79
     0
 47
0.6916357991953273
 98
        1
 10
359.3583026081487
 20
1086.019128097799
1001
ACAD
1010
0.0
1020
0.0
1030
0.0
1001
GENIUS_GENODEF_13
1002
{
1000
HIER
1070
     0
1002
}
1002
{
1000
MANEDIT
1070
     0
1002
}
1002
{
1000
NOSEL
1070
     0
1002
}
1002
{
1000
BEHIND
1070
     0
1002
}
1002
{
1000
OTHER
1070
     0
1002
}
1002
{
1000
REACTOR
1002
}
1001
GENIUS_GENOBJ-N-HTC_13
1002
{
1000
OWNER
1000
GEN
1002
}
1001
GENIUS_GENHATCH_13
1002
{
1000
DATA
1040
45.0
1042
2.5
1000
_U
1070
     0
1011
359.3583026081487
1021
1086.019128097799
1031
0.0
1002
}
1002
{
1000
UCS
1010
0.0
1020
0.0
1030
0.0
1010
1.0
1020
0.0
1030
0.0
1010
0.0
1020
1.0
1030
0.0
1002
}
  0
TEXT
  5
D937
330
1F
100
AcDbEntity
  8
AM_6
100
AcDbText
 10
1552.347677777991
 20
1195.278450886051
 30
0.0
 40
12.0
  1
カバー材質：ステンレス（ヘアーライン+クリアー塗装仕上）
 41
0.8643907499999999
100
AcDbText
  0
TEXT
  5
D938
330
1F
100
AcDbEntity
  8
AM_6
100
AcDbText
 10
1552.500195989204
 20
954.4369066450231
 30
0.0
 40
12.0
  1
上部ガイド材質：ステンレス（鏡面仕上）
 41
0.8599999999999997
100
AcDbText
  0
TEXT
  5
D939
330
1F
100
AcDbEntity
  8
AM_6
100
AcDbText
 10
1552.347677777991
 20
1167.503956006324
 30
0.0
 40
12.0
  1
ソケット材質：セラミック
 41
0.8643907499999999
100
AcDbText
  0
ENDSEC
  0
SECTION
  2
OBJECTS
  0
DICTIONARY
  5
C
330
0
100
AcDbDictionary
281
     1
  3
ACAD_2007HEADERVARS_RT
350
DACB
  3
ACAD_BGPLOT_KEY
350
AB06
  3
ACAD_COLOR
350
A91D
  3
ACAD_GROUP
350
D
  3
ACAD_LAYOUT
350
1A
  3
ACAD_MATERIAL
350
A91C
  3
ACAD_MLINESTYLE
350
17
  3
ACAD_PLOTSETTINGS
350
19
  3
ACAD_PLOTSTYLENAME
350
E
  3
ACAD_TABLESTYLE
350
AAB9
  3
ACAD_VISUALSTYLE
350
D8FB
  3
AcAsAppObject
350
3DA1
  3
ACASGREF_MASTER
350
3DE9
  3
AcDbVariableDictionary
350
34
  3
AcmDictionary
350
47
  3
AD_GREF_MODULE
350
3DEA
  3
AD_MAPI_MODULE
350
3E06
  3
AMG
350
2B
  3
AMGSNAPSETTINGS
350
7D
  3
ASE_INDEX_DICTIONARY
350
9F48
  3
DWGPROPS
350
DACA
  3
MAPISURF_MODULE
350
3DEB
  0
DICTIONARY
  5
3F95
330
2
100
AcDbDictionary
280
     1
281
     1
  3
ACAD_LAYERFILTERS
360
C291
  3
ACAD_LAYERSTATES
360
3F96
  3
ACLYDICTIONARY
360
C290
  3
AMLAYER_GROUPCOLORS
360
AAB4
  0
DICTIONARY
  5
8A
330
1F
100
AcDbDictionary
280
     1
281
     1
  3
ACAD_SORTENTS
360
D89D
  0
DICTIONARY
  5
C9E4
330
C9E3
100
AcDbDictionary
280
     1
281
     1
  3
ACAD_DIMASSOC
360
C9E5
  0
DICTIONARY
  5
C9ED
330
C9EC
100
AcDbDictionary
280
     1
281
     1
  3
ACAD_DIMASSOC
360
C9EE
  0
DICTIONARY
  5
CA7E
330
CA7D
100
AcDbDictionary
280
     1
281
     1
  3
ACAD_DIMASSOC
360
CA7F
  0
DICTIONARY
  5
CA81
330
CA80
100
AcDbDictionary
280
     1
281
     1
  3
ACAD_DIMASSOC
360
CA82
  0
DICTIONARY
  5
CC2A
330
CC1D
100
AcDbDictionary
280
     1
281
     1
  3
ACAD_DIMASSOC
360
CC2B
  0
DICTIONARY
  5
CD06
330
CCF9
100
AcDbDictionary
280
     1
281
     1
  3
ACAD_DIMASSOC
360
CD07
  0
DICTIONARY
  5
CD2C
330
CD1F
100
AcDbDictionary
280
     1
281
     1
  3
ACAD_DIMASSOC
360
CD2D
  0
DICTIONARY
  5
CE3A
330
CE2D
100
AcDbDictionary
280
     1
281
     1
  3
ACAD_DIMASSOC
360
CE3B
  0
DICTIONARY
  5
D48A
330
D47D
100
AcDbDictionary
280
     1
281
     1
  3
ACAD_DIMASSOC
360
D48B
  0
DICTIONARY
  5
D726
330
D719
100
AcDbDictionary
280
     1
281
     1
  3
ACAD_DIMASSOC
360
D727
  0
DICTIONARY
  5
D74C
330
D73F
100
AcDbDictionary
280
     1
281
     1
  3
ACAD_DIMASSOC
360
D74D
  0
DICTIONARY
  5
D772
330
D765
100
AcDbDictionary
280
     1
281
     1
  3
ACAD_DIMASSOC
360
D773
  0
DICTIONARY
  5
D798
330
D78B
100
AcDbDictionary
280
     1
281
     1
  3
ACAD_DIMASSOC
360
D799
  0
DICTIONARY
  5
D7C2
330
D7B5
100
AcDbDictionary
280
     1
281
     1
  3
ACAD_DIMASSOC
360
D7C3
  0
DICTIONARY
  5
D829
330
D81C
100
AcDbDictionary
280
     1
281
     1
  3
ACAD_DIMASSOC
360
D82A
  0
DICTIONARY
  5
DACB
102
{ACAD_REACTORS
330
C
102
}
330
C
100
AcDbDictionary
281
     1
  3
DIMARCSYM
350
DACD
  3
DIMFXL
350
DACC
  0
DICTIONARY
  5
AB06
102
{ACAD_REACTORS
330
C
102
}
330
C
100
AcDbDictionary
280
     1
281
     1
  0
DICTIONARY
  5
A91D
102
{ACAD_REACTORS
330
C
102
}
330
C
100
AcDbDictionary
281
     1
  0
DICTIONARY
  5
D
102
{ACAD_REACTORS
330
C
102
}
330
C
100
AcDbDictionary
281
     1
  0
DICTIONARY
  5
1A
102
{ACAD_REACTORS
330
C
102
}
330
C
100
AcDbDictionary
281
     1
  3
Model
350
22
  3
ﾚｲｱｳﾄ1
350
1E
  3
ﾚｲｱｳﾄ2
350
26
  0
DICTIONARY
  5
A91C
102
{ACAD_REACTORS
330
C
102
}
330
C
100
AcDbDictionary
281
     1
  3
ByBlock
350
D8F9
  3
ByLayer
350
D8F8
  3
Global
350
D8FA
  0
DICTIONARY
  5
17
102
{ACAD_REACTORS
330
C
102
}
330
C
100
AcDbDictionary
281
     1
  3
Standard
350
18
  0
DICTIONARY
  5
19
102
{ACAD_REACTORS
330
C
102
}
330
C
100
AcDbDictionary
281
     1
  3
01   A1　１：１
350
D4DD
  3
01 A3フィット
350
C2E7
  3
02   A2　１：１
350
D4DE
  3
02 A3
350
C2E8
  3
03   A3　１：１
350
D4DF
  3
03 A2フィット
350
C2E9
  3
04   A4  １：１
350
D4E0
  3
04 A2
350
C2EA
  3
05   A1 自動調整
350
D4E1
  3
05 A1フィット
350
C2EB
  3
06   A2 自動調整
350
D4E2
  3
06 A1
350
C2EC
  3
06 A4フィット
350
C2ED
  3
07   A3 自動調整
350
D4E3
  3
07 A4
350
C2EE
  3
08   A4 自動調整
350
D4E4
  3
09   A1をA3に
350
D4E5
  3
10   A2をA3に
350
D4E6
  3
11　レーザー　A3　自動調整
350
D4E7
  3
０１　A3　自動調整
350
D4E8
  3
０２　A3　１：１
350
D4E9
  3
０３　A2　自動調整
350
D4EA
  3
０４　A2　１：１
350
D4EB
  3
０５　A4　自動調整
350
D4EC
  3
０６　A4　１：１
350
D4ED
  3
０７　A1　自動調整
350
D4EE
  3
０８　A1　１：１
350
D4EF
  3
０９　A4　検査表
350
D4F0
  0
ACDBDICTIONARYWDFLT
  5
E
102
{ACAD_REACTORS
330
C
102
}
330
C
100
AcDbDictionary
281
     1
  3
Normal
350
F
100
AcDbDictionaryWithDefault
340
F
  0
DICTIONARY
  5
AAB9
102
{ACAD_REACTORS
330
C
102
}
330
C
100
AcDbDictionary
281
     1
  3
Standard
350
AABA
  0
DICTIONARY
  5
D8FB
102
{ACAD_REACTORS
330
C
102
}
330
C
100
AcDbDictionary
281
     1
  3
2dWireframe
350
D901
  3
3D Hidden
350
D903
  3
3dWireframe
350
D902
  3
Basic
350
D900
  3
Brighten
350
D907
  3
ColorChange
350
D90B
  3
Conceptual
350
D904
  3
Dim
350
D906
  3
Facepattern
350
D90A
  3
Flat
350
D8FC
  3
FlatWithEdges
350
D8FD
  3
Gouraud
350
D8FE
  3
GouraudWithEdges
350
D8FF
  3
Linepattern
350
D909
  3
Realistic
350
D905
  3
Thicken
350
D908
  0
ACAD_PROXY_OBJECT
  5
3DA1
102
{ACAD_REACTORS
330
C
102
}
330
C
100
AcDbProxyObject
 90
      499
 91
      576
 95
   917527
 70
     0
 93
       10
310
407F
 94
        0
1001
ACAD
1000
AcRTDxfName
1000
ASAPP
1000
AcRTDxfName
1000
ASAPP
  0
ACAD_PROXY_OBJECT
  5
3DE9
102
{ACAD_REACTORS
330
C
102
}
330
C
100
AcDbProxyObject
 90
      499
 91
      581
 95
   917527
 70
     0
 93
       34
310
010000407F
 94
        0
1001
ACAD
1000
AcRTDxfName
1000
ACASGREFMASTER
1000
AcRTDxfName
1000
ACASGREFMASTER
  0
DICTIONARY
  5
34
102
{ACAD_REACTORS
330
C
102
}
330
C
100
AcDbDictionary
281
     1
  3
CTABLESTYLE
350
AAF3
  3
DIMASSOC
350
A10C
  3
FIELDEVAL
350
AB07
  3
INDEXCTL
350
35
  3
SORTENTS
350
194C
  0
DICTIONARY
  5
47
102
{ACAD_REACTORS
330
C
102
}
330
C
100
AcDbDictionary
281
     1
  3
AcmBOM
350
7E8
  3
AcmStdDictionary
350
4C
  3
AMDTSECTSYM_ARROWCOLOR
350
A929
  0
ACAD_PROXY_OBJECT
  5
3DEA
102
{ACAD_REACTORS
330
C
102
}
330
C
100
AcDbProxyObject
 90
      499
 91
      582
 95
   917527
 70
     0
 93
      114
310
00000043800000000000000000003F
 94
        0
1001
ACAD
1000
AcRTDxfName
1000
ACADGREFMODULE
1000
AcRTDxfName
1000
ACADGREFMODULE
  0
ACAD_PROXY_OBJECT
  5
3E06
102
{ACAD_REACTORS
330
C
102
}
330
C
100
AcDbProxyObject
 90
      499
 91
      594
 95
   917527
 70
     0
 93
       34
310
05000044FF
 94
        0
1001
ACAD
1000
AcRTDxfName
1000
MAPIADMODULE
1000
AcRTDxfName
1000
MAPIADMODULE
  0
DICTIONARY
  5
2B
102
{ACAD_REACTORS
330
C
102
}
330
C
100
AcDbDictionary
281
     1
  0
DICTIONARY
  5
7D
102
{ACAD_REACTORS
330
C
102
}
330
C
100
AcDbDictionary
281
     1
  0
DICTIONARY
  5
9F48
102
{ACAD_REACTORS
330
C
102
}
330
C
100
AcDbDictionary
281
     1
  3
ASEBlockHierarchyIndexRecord
350
9F49
1001
DCO15
1040
1425739953.442
  0
XRECORD
  5
DACA
102
{ACAD_REACTORS
330
C
102
}
330
C
100
AcDbXrecord
280
     1
  1
DWGPROPS COOKIE
  2

  3

  4

  6

  7

  8
OSK-CAD18
  9

300
AmdtFileType=84
301
=
302
=
303
=
304
=
305
=
306
=
307
=
308
=
309
=
 40
0.0722884027777778
 41
2454134.451284178
 42
2454279.384154722
  1

 90
        1
  0
ACAD_PROXY_OBJECT
  5
3DEB
102
{ACAD_REACTORS
330
C
102
}
330
C
100
AcDbProxyObject
 90
      499
 91
      583
 95
   917527
 70
     0
 93
        8
310
047E
 94
        0
1001
ACAD
1000
AcRTDxfName
1000
AMDTMAPISURFMOUDULE
1000
AcRTDxfName
1000
AMDTMAPISURFMOUDULE
  0
DICTIONARY
  5
C291
102
{ACAD_REACTORS
330
3F95
102
}
330
3F95
100
AcDbDictionary
281
     1
  0
DICTIONARY
  5
3F96
102
{ACAD_REACTORS
330
3F95
102
}
330
3F95
100
AcDbDictionary
281
     1
  3
20011210
350
3FB7
  0
DICTIONARY
  5
C290
102
{ACAD_REACTORS
330
3F95
102
}
330
3F95
100
AcDbDictionary
281
     1
1001
ACAD
1000
<All
  0
DICTIONARY
  5
AAB4
102
{ACAD_REACTORS
330
3F95
102
}
330
3F95
100
AcDbDictionary
280
     1
281
     1
  0
SORTENTSTABLE
  5
D89D
102
{ACAD_REACTORS
330
8A
102
}
330
8A
100
AcDbSortentsTable
330
1F
331
D407
  5
D407
331
C3C1
  5
C3C1
331
C3C9
  5
C3C9
331
D3D0
  5
D3D0
331
D765
  5
D7B5
331
D60F
  5
D60F
331
C3D1
  5
C3D1
331
D3D8
  5
D3D8
331
D689
  5
D689
331
D613
  5
D613
331
D652
  5
D652
331
CEED
  5
CEED
331
D39C
  5
D39C
331
D3A4
  5
D3A4
331
D61B
  5
D61B
331
D65A
  5
D65A
331
D662
  5
D662
331
D3AC
  5
D3AC
331
D623
  5
D623
331
D62B
  5
D62B
331
D66A
  5
D66A
331
D3B4
  5
D3B4
331
D8A9
  5
D6FF
331
C9A4
  5
C9A4
331
C96D
  5
C96D
331
C975
  5
C975
331
C9F4
  5
C9F4
331
C97D
  5
C97D
331
C9FC
  5
C9FC
331
D3E0
  5
D3E0
331
D3E8
  5
D3E8
331
D3F0
  5
D3F0
331
C9EC
  5
C9EC
331
D3F8
  5
D3F8
331
C3BA
  5
C3BA
331
CA7C
  5
CA7C
331
D633
  5
D633
331
D672
  5
D672
331
D3BC
  5
D3BC
331
D3C4
  5
D3C4
331
D63B
  5
D63B
331
D385
  5
D385
331
D67A
  5
D67A
331
D682
  5
D682
331
D38D
  5
D38D
331
D3CC
  5
D3CC
331
D643
  5
D643
331
D395
  5
D395
331
D64B
  5
D64B
331
C985
  5
C985
331
C98D
  5
C98D
331
CEE4
  5
CEE4
331
C995
  5
C995
331
C99D
  5
C99D
331
D400
  5
D400
331
D408
  5
D408
331
C3C2
  5
C3C2
331
D3D1
  5
D3D1
331
CA85
  5
CA85
331
C3CA
  5
C3CA
331
D3D9
  5
D3D9
331
D653
  5
D653
331
D68A
  5
D68A
331
CEEE
  5
CEEE
331
D39D
  5
D39D
331
D614
  5
D614
331
D61C
  5
D61C
331
D65B
  5
D65B
331
D3A5
  5
D3A5
331
D624
  5
D624
331
D663
  5
D663
331
D28E
  5
D28E
331
D3AD
  5
D3AD
331
D3B5
  5
D3B5
331
D62C
  5
D62C
331
D66B
  5
D66B
331
C9A5
  5
C9A5
331
C96E
  5
C96E
331
C9F5
  5
C9F5
331
C9FD
  5
C9FD
331
C97E
  5
C97E
331
D3E1
  5
D3E1
331
D3E9
  5
D3E9
331
D3F1
  5
D3F1
331
D3F9
  5
D3F9
331
CA7D
  5
CA7D
331
C3BB
  5
C3BB
331
D673
  5
D673
331
D6F2
  5
D719
331
D3BD
  5
D3BD
331
D634
  5
D634
331
D63C
  5
D63C
331
D67B
  5
D67B
331
D386
  5
D386
331
D3C5
  5
D3C5
331
D644
  5
D644
331
D683
  5
D683
331
D38E
  5
D38E
331
D3CD
  5
D3CD
331
D64C
  5
D64C
331
D396
  5
D396
331
C986
  5
C986
331
CA4D
  5
CA4D
331
C98E
  5
C98E
331
C996
  5
C996
331
C99E
  5
C99E
331
D401
  5
D401
331
C3C3
  5
C3C3
331
CC1D
  5
CC1D
331
D73F
  5
D78B
331
D409
  5
D409
331
D3D2
  5
D3D2
331
D3DA
  5
D3DA
331
C3D3
  5
C3D3
331
D39E
  5
D39E
331
D615
  5
D615
331
CEEF
  5
CEEF
331
D654
  5
D654
331
D3A6
  5
D3A6
331
D61D
  5
D61D
331
D65C
  5
D65C
331
D664
  5
D664
331
D3AE
  5
D3AE
331
D625
  5
D625
331
D62D
  5
D62D
331
D66C
  5
D66C
331
D29F
  5
D29F
331
D3B6
  5
D3B6
331
C9A6
  5
C9A6
331
C96F
  5
C96F
331
C9F6
  5
C9F6
331
C97F
  5
C97F
331
D3E2
  5
D3E2
331
D3EA
  5
D3EA
331
D3F2
  5
D3F2
331
D3FA
  5
D3FA
331
C3BC
  5
C3BC
331
D635
  5
D635
331
D674
  5
D674
331
D3BE
  5
D3BE
331
D3C6
  5
D3C6
331
D63D
  5
D63D
331
D387
  5
D387
331
D67C
  5
D67C
331
D684
  5
D684
331
D38F
  5
D38F
331
D3CE
  5
D3CE
331
D645
  5
D645
331
D64D
  5
D64D
331
D397
  5
D397
331
C987
  5
C987
331
C98F
  5
C98F
331
C997
  5
C997
331
C99F
  5
C99F
331
D402
  5
D402
331
D40A
  5
D40A
331
C3C4
  5
C3C4
331
D3D3
  5
D3D3
331
C3CC
  5
C3CC
331
C3D4
  5
C3D4
331
D3DB
  5
D3DB
331
D655
  5
D655
331
CEF0
  5
CEF0
331
D39F
  5
D39F
331
D616
  5
D616
331
D61E
  5
D61E
331
D65D
  5
D65D
331
D3A7
  5
D3A7
331
D89C
  5
D6BE
331
D3AF
  5
D3AF
331
D626
  5
D626
331
D665
  5
D665
331
D3B7
  5
D3B7
331
D62E
  5
D62E
331
D66D
  5
D66D
331
C3D8
  5
C3D8
331
C9A7
  5
C9A7
331
C970
  5
C970
331
C978
  5
C978
331
C9F7
  5
C9F7
331
D3E3
  5
D3E3
331
D3EB
  5
D3EB
331
D3F3
  5
D3F3
331
C3B5
  5
C3B5
331
D719
  5
D765
331
D3FB
  5
D3FB
331
C9EF
  5
C9EF
331
C3BD
  5
C3BD
331
D675
  5
D675
331
D3BF
  5
D3BF
331
D636
  5
D636
331
D63E
  5
D63E
331
D67D
  5
D67D
331
D388
  5
D388
331
D3C7
  5
D3C7
331
D646
  5
D646
331
D685
  5
D685
331
D390
  5
D390
331
D3CF
  5
D3CF
331
D64E
  5
D64E
331
C980
  5
C980
331
C988
  5
C988
331
C990
  5
C990
331
C998
  5
C998
331
D403
  5
D403
331
CA80
  5
CA80
331
C3C5
  5
C3C5
331
D81C
  5
D8A5
331
D40B
  5
D40B
331
C3CD
  5
C3CD
331
D3D4
  5
D3D4
331
C3D5
  5
C3D5
331
D3DC
  5
D3DC
331
CD1F
  5
CD1F
331
D398
  5
D398
331
D3A0
  5
D3A0
331
D617
  5
D617
331
D656
  5
D656
331
D65E
  5
D65E
331
D3A8
  5
D3A8
331
D61F
  5
D61F
331
D666
  5
D666
331
D3B0
  5
D3B0
331
D627
  5
D627
331
D62F
  5
D62F
331
D66E
  5
D66E
331
C3D9
  5
C3D9
331
C9A0
  5
C9A0
331
C9A8
  5
C9A8
331
C969
  5
C969
331
C971
  5
C971
331
C979
  5
C979
331
C9F8
  5
C9F8
331
D3E4
  5
D3E4
331
D3EC
  5
D3EC
331
D3F4
  5
D3F4
331
D3FC
  5
D3FC
331
C3B6
  5
C3B6
331
C3BE
  5
C3BE
331
D2A9
  5
D2A9
331
D3B8
  5
D3B8
331
D3C0
  5
D3C0
331
D637
  5
D637
331
D676
  5
D676
331
D3C8
  5
D3C8
331
D63F
  5
D63F
331
D389
  5
D389
331
D67E
  5
D67E
331
D686
  5
D686
331
D391
  5
D391
331
D647
  5
D647
331
D64F
  5
D64F
331
C981
  5
C981
331
C989
  5
C989
331
C991
  5
C991
331
C999
  5
C999
331
D404
  5
D404
331
D7B5
  5
D898
331
C3C6
  5
C3C6
331
D3D5
  5
D3D5
331
C3CE
  5
C3CE
331
C3D6
  5
C3D6
331
D3DD
  5
D3DD
331
CEEA
  5
CEEA
331
D399
  5
D399
331
D610
  5
D610
331
D657
  5
D657
331
D3A1
  5
D3A1
331
D618
  5
D618
331
D620
  5
D620
331
D65F
  5
D65F
331
D3A9
  5
D3A9
331
D6BE
  5
D6F2
331
D3B1
  5
D3B1
331
D628
  5
D628
331
D667
  5
D667
331
D66F
  5
D66F
331
C9A1
  5
C9A1
331
C3DA
  5
C3DA
331
C96A
  5
C96A
331
C9A9
  5
C9A9
331
C972
  5
C972
331
C9F9
  5
C9F9
331
C97A
  5
C97A
331
D3E5
  5
D3E5
331
D3ED
  5
D3ED
331
D3F5
  5
D3F5
331
D3FD
  5
D3FD
331
C3B7
  5
C3B7
331
C3BF
  5
C3BF
331
D3B9
  5
D3B9
331
D630
  5
D630
331
D677
  5
D677
331
D3C1
  5
D3C1
331
D638
  5
D638
331
D640
  5
D640
331
D67F
  5
D67F
331
D38A
  5
D38A
331
D3C9
  5
D3C9
331
D648
  5
D648
331
D392
  5
D392
331
D687
  5
D687
331
C982
  5
C982
331
C98A
  5
C98A
331
C992
  5
C992
331
C99A
  5
C99A
331
D405
  5
D405
331
CCF9
  5
CCF9
331
C3CF
  5
C3CF
331
D3D6
  5
D3D6
331
D78B
  5
D81C
331
D3DE
  5
D3DE
331
C3D7
  5
C3D7
331
D611
  5
D611
331
D650
  5
D650
331
D39A
  5
D39A
331
D3A2
  5
D3A2
331
D619
  5
D619
331
D658
  5
D658
331
D660
  5
D660
331
D28B
  5
D28B
331
D3AA
  5
D3AA
331
D621
  5
D621
331
D668
  5
D668
331
D3B2
  5
D3B2
331
D629
  5
D629
331
C9A2
  5
C9A2
331
C96B
  5
C96B
331
C973
  5
C973
331
C97B
  5
C97B
331
C9FA
  5
C9FA
331
D3E6
  5
D3E6
331
D3EE
  5
D3EE
331
D3F6
  5
D3F6
331
D3FE
  5
D3FE
331
C3B8
  5
C3B8
331
D631
  5
D631
331
D670
  5
D670
331
D2AB
  5
D2AB
331
D3BA
  5
D3BA
331
D3C2
  5
D3C2
331
D639
  5
D639
331
D678
  5
D678
331
D680
  5
D680
331
D3CA
  5
D3CA
331
D641
  5
D641
331
D38B
  5
D38B
331
D6FF
  5
D73F
331
D393
  5
D393
331
D649
  5
D649
331
C983
  5
C983
331
CECA
  5
CECA
331
C98B
  5
C98B
331
CEE2
  5
CEE2
331
C993
  5
C993
331
C99B
  5
C99B
331
D406
  5
D406
331
C3C0
  5
C3C0
331
CA83
  5
CA83
331
D3D7
  5
D3D7
331
C3D0
  5
C3D0
331
D3DF
  5
D3DF
331
D651
  5
D651
331
D688
  5
D688
331
CEEC
  5
CEEC
331
D39B
  5
D39B
331
D612
  5
D612
331
D61A
  5
D61A
331
D659
  5
D659
331
D3A3
  5
D3A3
331
D622
  5
D622
331
D661
  5
D661
331
D3AB
  5
D3AB
331
D3B3
  5
D3B3
331
D62A
  5
D62A
331
D29C
  5
D29C
331
D669
  5
D669
331
C9A3
  5
C9A3
331
C96C
  5
C96C
331
C974
  5
C974
331
C9FB
  5
C9FB
331
C97C
  5
C97C
331
D3E7
  5
D3E7
331
C9E3
  5
C9E3
331
D3EF
  5
D3EF
331
CE2D
  5
CE2D
331
D47D
  5
D47D
331
D3F7
  5
D3F7
331
D3FF
  5
D3FF
331
C3B9
  5
C3B9
331
D671
  5
D671
331
D2AC
  5
D2AC
331
D3BB
  5
D3BB
331
D632
  5
D632
331
D679
  5
D679
331
D384
  5
D384
331
D3C3
  5
D3C3
331
D63A
  5
D63A
331
D642
  5
D642
331
D681
  5
D681
331
D38C
  5
D38C
331
D3CB
  5
D3CB
331
D64A
  5
D64A
331
D394
  5
D394
331
C984
  5
C984
331
C98C
  5
C98C
331
C994
  5
C994
331
CEE3
  5
CEE3
331
C99C
  5
C99C
  0
DIMASSOC
  5
C9E5
102
{ACAD_REACTORS
330
C9E4
102
}
330
C9E4
100
AcDbDimAssoc
330
C9E3
 90
        3
 70
     0
 71
     0
  1
AcDbOsnapPointRef
 72
     1
331
C969
 73
     2
 91
        4
 40
0.0
 10
0.0
 20
0.0
 30
2.000000000000000E+50
 75
     0
  1
AcDbOsnapPointRef
 72
    13
331
C999
 73
     0
 91
        0
 40
0.0
 10
0.0
 20
0.0
 30
2.000000000000000E+50
 75
     0
  0
DIMASSOC
  5
C9EE
102
{ACAD_REACTORS
330
C9ED
102
}
330
C9ED
100
AcDbDimAssoc
330
C9EC
 90
        3
 70
     0
 71
     0
  1
AcDbOsnapPointRef
 72
     1
331
C96C
 73
     0
 91
        0
 40
0.0
 10
0.0
 20
0.0
 30
2.000000000000000E+50
 75
     0
  1
AcDbOsnapPointRef
 72
     1
331
C969
 73
     2
 91
        3
 40
0.0
 10
0.0
 20
0.0
 30
2.000000000000000E+50
 75
     0
  0
DIMASSOC
  5
CA7F
102
{ACAD_REACTORS
330
CA7E
102
}
330
CA7E
100
AcDbDimAssoc
330
CA7D
 90
        3
 70
     0
 71
     0
  1
AcDbOsnapPointRef
 72
    13
331
C9F5
 73
     0
 91
        0
 40
0.0
 10
0.0
 20
0.0
 30
2.000000000000000E+50
 75
     0
  1
AcDbOsnapPointRef
 72
    13
331
C9F6
 73
     0
 91
        0
 40
0.0
 10
0.0
 20
0.0
 30
2.000000000000000E+50
 75
     0
  0
DIMASSOC
  5
CA82
102
{ACAD_REACTORS
330
CA81
102
}
330
CA81
100
AcDbDimAssoc
330
CA80
 90
        2
 70
     0
 71
     0
  1
AcDbOsnapPointRef
 72
     3
331
C9F4
 73
     2
 91
        0
 40
0.0
 10
0.0
 20
0.0
 30
0.0
 75
     0
  0
DIMASSOC
  5
CC2B
102
{ACAD_REACTORS
330
CC2A
102
}
330
CC2A
100
AcDbDimAssoc
330
CC1D
 90
        2
 70
     0
 71
     0
  1
AcDbOsnapPointRef
 72
     1
331
C96A
 73
     2
 91
        3
 40
0.0
 10
0.0
 20
0.0
 30
2.000000000000000E+50
 75
     0
  0
DIMASSOC
  5
CD07
102
{ACAD_REACTORS
330
CD06
102
}
330
CD06
100
AcDbDimAssoc
330
CCF9
 90
        3
 70
     0
 71
     0
  1
AcDbOsnapPointRef
 72
     1
331
C986
 73
     0
 91
        0
 40
0.0
 10
0.0
 20
0.0
 30
2.000000000000000E+50
 75
     0
  1
AcDbOsnapPointRef
 72
     1
331
C9A0
 73
     0
 91
        0
 40
0.0
 10
0.0
 20
0.0
 30
2.000000000000000E+50
 75
     0
  0
DIMASSOC
  5
CD2D
102
{ACAD_REACTORS
330
CD2C
102
}
330
CD2C
100
AcDbDimAssoc
330
CD1F
 90
        1
 70
     0
 71
     0
  1
AcDbOsnapPointRef
 72
     1
331
C9A0
 73
     0
 91
        0
 40
0.0
 10
0.0
 20
0.0
 30
2.000000000000000E+50
 75
     0
  0
DIMASSOC
  5
CE3B
102
{ACAD_REACTORS
330
CE3A
102
}
330
CE3A
100
AcDbDimAssoc
330
CE2D
 90
        3
 70
     0
 71
     0
  1
AcDbOsnapPointRef
 72
     1
331
C96A
 73
     2
 91
        4
 40
0.0
 10
0.0
 20
0.0
 30
2.000000000000000E+50
 75
     0
  1
AcDbOsnapPointRef
 72
     1
331
C96A
 73
     2
 91
        3
 40
0.0
 10
0.0
 20
0.0
 30
2.000000000000000E+50
 75
     0
  0
DIMASSOC
  5
D48B
102
{ACAD_REACTORS
330
D48A
102
}
330
D48A
100
AcDbDimAssoc
330
D47D
 90
        3
 70
     0
 71
     0
  1
AcDbOsnapPointRef
 72
     1
331
C96A
 73
     2
 91
        4
 40
0.0
 10
0.0
 20
0.0
 30
2.000000000000000E+50
 75
     0
  1
AcDbOsnapPointRef
 72
    13
331
C96B
 73
     2
 91
        2
 40
0.0
 10
0.0
 20
0.0
 30
2.000000000000000E+50
 75
     0
  0
DIMASSOC
  5
D727
102
{ACAD_REACTORS
330
D726
102
}
330
D726
100
AcDbDimAssoc
330
D719
 90
        3
 70
     0
 71
     0
  1
AcDbOsnapPointRef
 72
     1
331
C9F8
 73
     0
 91
        0
 40
0.0
 10
0.0
 20
0.0
 30
2.000000000000000E+50
 75
     0
  1
AcDbOsnapPointRef
 72
     1
331
C9FD
 73
     0
 91
        0
 40
0.0
 10
0.0
 20
0.0
 30
2.000000000000000E+50
 75
     0
  0
DIMASSOC
  5
D74D
102
{ACAD_REACTORS
330
D74C
102
}
330
D74C
100
AcDbDimAssoc
330
D73F
 90
        3
 70
     0
 71
     0
  1
AcDbOsnapPointRef
 72
    13
331
C9F8
 73
     0
 91
        0
 40
0.0
 10
0.0
 20
0.0
 30
2.000000000000000E+50
 75
     0
  1
AcDbOsnapPointRef
 72
    13
331
CA4D
 73
     0
 91
        0
 40
0.0
 10
0.0
 20
0.0
 30
2.000000000000000E+50
 75
     0
  0
DIMASSOC
  5
D773
102
{ACAD_REACTORS
330
D772
102
}
330
D772
100
AcDbDimAssoc
330
D765
 90
        2
 70
     0
 71
     0
  1
AcDbOsnapPointRef
 72
    13
331
C9FD
 73
     0
 91
        0
 40
0.0
 10
0.0
 20
0.0
 30
2.000000000000000E+50
 75
     0
  0
DIMASSOC
  5
D799
102
{ACAD_REACTORS
330
D798
102
}
330
D798
100
AcDbDimAssoc
330
D78B
 90
        2
 70
     0
 71
     0
  1
AcDbOsnapPointRef
 72
    13
331
D6FF
 73
     0
 91
        0
 40
0.0
 10
0.0
 20
0.0
 30
2.000000000000000E+50
 75
     0
  0
DIMASSOC
  5
D7C3
102
{ACAD_REACTORS
330
D7C2
102
}
330
D7C2
100
AcDbDimAssoc
330
D7B5
 90
        3
 70
     0
 71
     0
  1
AcDbOsnapPointRef
 72
     1
331
C9FA
 73
     0
 91
        0
 40
0.0
 10
0.0
 20
0.0
 30
2.000000000000000E+50
 75
     0
  1
AcDbOsnapPointRef
 72
     1
331
C9FB
 73
     0
 91
        0
 40
0.0
 10
0.0
 20
0.0
 30
2.000000000000000E+50
 75
     0
  0
DIMASSOC
  5
D82A
102
{ACAD_REACTORS
330
D829
102
}
330
D829
100
AcDbDimAssoc
330
D81C
 90
        3
 70
     0
 71
     0
  1
AcDbOsnapPointRef
 72
     1
331
C973
 73
     2
 91
        4
 40
0.0
 10
0.0
 20
0.0
 30
2.000000000000000E+50
 75
     0
  1
AcDbOsnapPointRef
 72
     1
331
C96A
 73
     2
 91
        4
 40
0.0
 10
0.0
 20
0.0
 30
2.000000000000000E+50
 75
     0
  0
XRECORD
  5
DACD
102
{ACAD_REACTORS
330
DACB
102
}
330
DACB
100
AcDbXrecord
280
     1
 70
     1
  0
XRECORD
  5
DACC
102
{ACAD_REACTORS
330
DACB
102
}
330
DACB
100
AcDbXrecord
280
     1
 40
0.0
  0
LAYOUT
  5
22
102
{ACAD_XDICTIONARY
360
DAD0
102
}
102
{ACAD_REACTORS
330
1A
102
}
330
1A
100
AcDbPlotSettings
  1

  2
FX DocuWide 2050/2051
  4
A4
  6
AM_VIEW1
 40
3.174999952316283
 41
3.174999952316283
 42
3.175003051757812
 43
3.17498779296875
 44
209.9944915771484
 45
296.989501953125
 46
0.0
 47
1.328704577503771
 48
214.3704939521119
 49
367.5855324241177
140
275.6727856380065
141
407.6291914078169
142
1.0
143
7.292119764228891
 70
  3764
 72
     1
 73
     1
 74
     2
  7
monochrome.ctb
 75
     0
147
0.137134335739444
148
0.0
149
0.0
100
AcDbLayout
  1
Model
 70
     1
 71
     0
 10
0.0
 20
0.0
 11
12.0
 21
9.0
 12
0.0
 22
0.0
 32
0.0
 14
0.0
 24
0.0
 34
0.0
 15
0.0
 25
0.0
 35
0.0
146
0.0
 13
0.0
 23
0.0
 33
0.0
 16
1.0
 26
0.0
 36
0.0
 17
0.0
 27
1.0
 37
0.0
 76
     0
330
1F
331
D8F6
1001
ACAD_PSEXT
1000
FX DocuWide 2050/2051
1000
FX DocuWide 2050/2051
1000
IP_192.168.2.203
1000

1070
     0
  0
LAYOUT
  5
1E
102
{ACAD_XDICTIONARY
360
DACE
102
}
102
{ACAD_REACTORS
330
1A
102
}
330
1A
100
AcDbPlotSettings
  1

  2
\\ML370\XEROX
  4
A4
  6

 40
3.174999952316283
 41
3.174999952316283
 42
3.175003051757812
 43
3.17498779296875
 44
209.8674926757813
 45
296.6719970703125
 46
0.0
 47
0.0
 48
0.0
 49
0.0
140
0.0
141
0.0
142
1.0
143
1.0
 70
   688
 72
     1
 73
     1
 74
     5
  7
monochrome.ctb
 75
    16
147
1.0
148
0.0
149
0.0
100
AcDbLayout
  1
ﾚｲｱｳﾄ1
 70
     1
 71
     1
 10
-3.17498779296875
 20
-3.174999952316283
 11
293.4970092773438
 21
206.692492723465
 12
0.0
 22
0.0
 32
0.0
 14
1.000000000000000E+20
 24
1.000000000000000E+20
 34
1.000000000000000E+20
 15
-1.000000000000000E+20
 25
-1.000000000000000E+20
 35
-1.000000000000000E+20
146
0.0
 13
0.0
 23
0.0
 33
0.0
 16
1.0
 26
0.0
 36
0.0
 17
0.0
 27
1.0
 37
0.0
 76
     0
330
1B
  0
LAYOUT
  5
26
102
{ACAD_XDICTIONARY
360
DAD2
102
}
102
{ACAD_REACTORS
330
1A
102
}
330
1A
100
AcDbPlotSettings
  1

  2
\\ML370\XEROX
  4

  6

 40
0.0
 41
0.0
 42
0.0
 43
0.0
 44
0.0
 45
0.0
 46
0.0
 47
0.0
 48
0.0
 49
0.0
140
0.0
141
0.0
142
1.0
143
1.0
 70
   688
 72
     0
 73
     0
 74
     5
  7
monochrome.ctb
 75
    16
147
1.0
148
0.0
149
0.0
100
AcDbLayout
  1
ﾚｲｱｳﾄ2
 70
     1
 71
     2
 10
0.0
 20
0.0
 11
12.0
 21
9.0
 12
0.0
 22
0.0
 32
0.0
 14
0.0
 24
0.0
 34
0.0
 15
0.0
 25
0.0
 35
0.0
146
0.0
 13
0.0
 23
0.0
 33
0.0
 16
1.0
 26
0.0
 36
0.0
 17
0.0
 27
1.0
 37
0.0
 76
     0
330
23
  0
MATERIAL
  5
D8F9
102
{ACAD_XDICTIONARY
360
DA45
102
}
102
{ACAD_REACTORS
330
A91C
102
}
330
A91C
100
AcDbMaterial
  1
ByBlock
  0
MATERIAL
  5
D8F8
102
{ACAD_XDICTIONARY
360
DA43
102
}
102
{ACAD_REACTORS
330
A91C
102
}
330
A91C
100
AcDbMaterial
  1
ByLayer
  0
MATERIAL
  5
D8FA
102
{ACAD_XDICTIONARY
360
DA47
102
}
102
{ACAD_REACTORS
330
A91C
102
}
330
A91C
100
AcDbMaterial
  1
Global
  0
MLINESTYLE
  5
18
102
{ACAD_REACTORS
330
17
102
}
330
17
100
AcDbMlineStyle
  2
STANDARD
 70
     0
  3

 62
   256
 51
90.0
 52
90.0
 71
     2
 49
0.5
 62
   256
  6
BYLAYER
 49
-0.5
 62
   256
  6
BYLAYER
  0
PLOTSETTINGS
  5
D4DD
102
{ACAD_XDICTIONARY
360
DAE6
102
}
102
{ACAD_REACTORS
330
19
102
}
330
19
100
AcDbPlotSettings
  1
01   A1　１：１
  2
\\ML370\Fuji Xerox BT8050(AutoCAD)
  4
User122
  6

 40
3.174999952316283
 41
3.174999952316283
 42
3.17498779296875
 43
3.17498779296875
 44
593.7249755859375
 45
840.6129760742187
 46
145.19
 47
207.13
 48
214.3704939521119
 49
367.5855324241177
140
275.6727856380065
141
407.6291914078169
142
1.0
143
1.0
 70
  1716
 72
     1
 73
     1
 74
     2
  7
monochrome.ctb
 75
    16
147
1.0
148
-538.139750291099
149
411.0980235086544
  0
PLOTSETTINGS
  5
C2E7
102
{ACAD_XDICTIONARY
360
DAD6
102
}
102
{ACAD_REACTORS
330
19
102
}
330
19
100
AcDbPlotSettings
  1
01 A3フィット
  2
FX DocuWide 2050/2051
  4
A3
  6

 40
3.174999952316283
 41
3.174999952316283
 42
3.17498779296875
 43
3.17498779296875
 44
296.989501953125
 45
419.9889831542968
 46
0.0
 47
1.29584122896196
 48
214.3704939521119
 49
367.5855324241177
140
275.6727856380065
141
407.6291914078169
142
1.0
143
1.445089120606129
 70
  3764
 72
     1
 73
     1
 74
     2
  7
monochrome.ctb
 75
     0
147
0.6919988433519999
148
0.0
149
0.0
1001
ACAD_PSEXT
1000
FX DocuWide 2050/2051
1000
FX DocuWide 2050/2051
1000
IP_192.200.15.252
1000

1070
     0
  0
PLOTSETTINGS
  5
D4DE
102
{ACAD_XDICTIONARY
360
DAE8
102
}
102
{ACAD_REACTORS
330
19
102
}
330
19
100
AcDbPlotSettings
  1
02   A2　１：１
  2
\\ML370\Fuji Xerox BT8050(AutoCAD)
  4
User123
  6

 40
3.174999952316283
 41
3.174999952316283
 42
3.17498779296875
 43
3.17498779296875
 44
420.0
 45
594.0
 46
58.33
 47
83.83
 48
214.3704939521119
 49
367.5855324241177
140
275.6727856380065
141
407.6291914078169
142
1.0
143
1.0
 70
  1716
 72
     1
 73
     1
 74
     2
  7
monochrome.ctb
 75
    16
147
1.0
148
-538.139750291099
149
411.0980235086544
  0
PLOTSETTINGS
  5
C2E8
102
{ACAD_XDICTIONARY
360
DAD8
102
}
102
{ACAD_REACTORS
330
19
102
}
330
19
100
AcDbPlotSettings
  1
02 A3
  2
FX DocuWide 2050/2051
  4
A3
  6

 40
3.174999952316283
 41
3.174999952316283
 42
3.17498779296875
 43
3.17498779296875
 44
296.989501953125
 45
419.9889831542968
 46
-64.68024289608003
 47
-90.18050229549407
 48
214.3704939521119
 49
367.5855324241177
140
275.6727856380065
141
407.6291914078169
142
1.0
143
1.0
 70
  3764
 72
     1
 73
     1
 74
     2
  7
monochrome.ctb
 75
    16
147
1.0
148
0.0
149
0.0
1001
ACAD_PSEXT
1000
FX DocuWide 2050/2051
1000
FX DocuWide 2050/2051
1000
IP_192.200.15.252
1000

1070
     0
  0
PLOTSETTINGS
  5
D4DF
102
{ACAD_XDICTIONARY
360
DAEA
102
}
102
{ACAD_REACTORS
330
19
102
}
330
19
100
AcDbPlotSettings
  1
03   A3　１：１
  2
\\ML370\Fuji Xerox BT8050(AutoCAD)
  4
User124
  6

 40
3.174999952316283
 41
3.174999952316283
 42
3.17498779296875
 43
3.17498779296875
 44
297.0
 45
420.0
 46
-3.169999999999998
 47
-3.169999999999998
 48
214.3704939521119
 49
367.5855324241177
140
275.6727856380065
141
407.6291914078169
142
1.0
143
1.0
 70
  1716
 72
     1
 73
     1
 74
     2
  7
monochrome.ctb
 75
    16
147
1.0
148
-538.139750291099
149
411.0980235086544
  0
PLOTSETTINGS
  5
C2E9
102
{ACAD_XDICTIONARY
360
DADA
102
}
102
{ACAD_REACTORS
330
19
102
}
330
19
100
AcDbPlotSettings
  1
03 A2フィット
  2
FX DocuWide 2050/2051
  4
User66
  6

 40
3.174999952316283
 41
3.174999952316283
 42
3.17498779296875
 43
3.17498779296875
 44
419.9889831542968
 45
593.97900390625
 46
0.0
 47
1.312647041252715
 48
214.3704939521119
 49
367.5855324241177
140
275.6727856380065
141
407.6291914078169
142
1.0
143
1.015378155013402
 70
  3764
 72
     1
 73
     1
 74
     2
  7
monochrome.ctb
 75
     0
147
0.9848547509738375
148
0.0
149
0.0
1001
ACAD_PSEXT
1000
FX DocuWide 2050/2051
1000
FX DocuWide 2050/2051
1000
IP_192.200.15.252
1000

1070
     0
  0
PLOTSETTINGS
  5
D4E0
102
{ACAD_XDICTIONARY
360
DAEC
102
}
102
{ACAD_REACTORS
330
19
102
}
330
19
100
AcDbPlotSettings
  1
04   A4  １：１
  2
\\ML370\Fuji Xerox BT8050(AutoCAD)
  4
User125
  6

 40
3.174999952316283
 41
3.174999952316283
 42
3.175003051757812
 43
3.17498779296875
 44
210.0
 45
297.0
 46
-46.68
 47
-64.67
 48
214.3704939521119
 49
367.5855324241177
140
275.6727856380065
141
407.6291914078169
142
1.0
143
1.0
 70
  1716
 72
     1
 73
     1
 74
     2
  7
monochrome.ctb
 75
    16
147
1.0
148
-538.139750291099
149
411.0980235086544
  0
PLOTSETTINGS
  5
C2EA
102
{ACAD_XDICTIONARY
360
DADC
102
}
102
{ACAD_REACTORS
330
19
102
}
330
19
100
AcDbPlotSettings
  1
04 A2
  2
FX DocuWide 2050/2051
  4
User66
  6

 40
3.174999952316283
 41
3.174999952316283
 42
3.17498779296875
 43
3.17498779296875
 44
419.9889831542968
 45
593.97900390625
 46
-3.180502295494078
 47
-3.185491919517517
 48
214.3704939521119
 49
367.5855324241177
140
275.6727856380065
141
407.6291914078169
142
1.0
143
1.0
 70
  3764
 72
     1
 73
     1
 74
     2
  7
monochrome.ctb
 75
    16
147
1.0
148
0.0
149
0.0
1001
ACAD_PSEXT
1000
FX DocuWide 2050/2051
1000
FX DocuWide 2050/2051
1000
IP_192.200.15.252
1000

1070
     0
  0
PLOTSETTINGS
  5
D4E1
102
{ACAD_XDICTIONARY
360
DAEE
102
}
102
{ACAD_REACTORS
330
19
102
}
330
19
100
AcDbPlotSettings
  1
05   A1 自動調整
  2
\\ML370\Fuji Xerox BT8050(AutoCAD)
  4
User122
  6

 40
3.174999952316283
 41
3.174999952316283
 42
3.17498779296875
 43
3.17498779296875
 44
593.7249755859375
 45
840.6129760742187
 46
0.0
 47
1.77
 48
214.3704939521119
 49
367.5855324241177
140
275.6727856380065
141
407.6291914078169
142
1.0
143
0.7150457692181145
 70
  1716
 72
     1
 73
     1
 74
     2
  7
monochrome.ctb
 75
     0
147
1.398511875811077
148
-408.2719444961221
149
-428.6675171947153
  0
PLOTSETTINGS
  5
C2EB
102
{ACAD_XDICTIONARY
360
DADE
102
}
102
{ACAD_REACTORS
330
19
102
}
330
19
100
AcDbPlotSettings
  1
05 A1フィット
  2
FX DocuWide 2050/2051
  4
User139
  6

 40
3.174999952316283
 41
3.174999952316283
 42
3.17498779296875
 43
3.17498779296875
 44
593.97900390625
 45
840.9939575195313
 46
0.0
 47
1.784323459012171
 48
214.3704939521119
 49
367.5855324241177
140
275.6727856380065
141
407.6291914078169
142
1.0
143
0.7147366594384652
 70
  3764
 72
     1
 73
     1
 74
     2
  7
monochrome.ctb
 75
     0
147
1.399116705145154
148
0.0
149
0.0
1001
ACAD_PSEXT
1000
FX DocuWide 2050/2051
1000
FX DocuWide 2050/2051
1000
IP_192.200.15.252
1000

1070
     0
  0
PLOTSETTINGS
  5
D4E2
102
{ACAD_XDICTIONARY
360
DAF0
102
}
102
{ACAD_REACTORS
330
19
102
}
330
19
100
AcDbPlotSettings
  1
06   A2 自動調整
  2
\\ML370\Fuji Xerox BT8050(AutoCAD)
  4
User123
  6

 40
3.174999952316283
 41
3.174999952316283
 42
3.17498779296875
 43
3.17498779296875
 44
420.0
 45
594.0
 46
0.0
 47
1.32
 48
214.3704939521119
 49
367.5855324241177
140
275.6727856380065
141
407.6291914078169
142
1.0
143
1.015351112189439
 70
  1716
 72
     1
 73
     1
 74
     2
  7
monochrome.ctb
 75
     0
147
0.9848809815588451
148
-408.2719444961221
149
-428.6675171947153
  0
PLOTSETTINGS
  5
C2EC
102
{ACAD_XDICTIONARY
360
DAE0
102
}
102
{ACAD_REACTORS
330
19
102
}
330
19
100
AcDbPlotSettings
  1
06 A1
  2
FX DocuWide 2050/2051
  4
User139
  6

 40
3.174999952316283
 41
3.174999952316283
 42
3.17498779296875
 43
3.17498779296875
 44
593.97900390625
 45
840.9939575195313
 46
83.81450808048247
 47
120.3219848871231
 48
214.3704939521119
 49
367.5855324241177
140
275.6727856380065
141
407.6291914078169
142
1.0
143
1.0
 70
  3764
 72
     1
 73
     1
 74
     2
  7
monochrome.ctb
 75
    16
147
1.0
148
0.0
149
0.0
1001
ACAD_PSEXT
1000
FX DocuWide 2050/2051
1000
FX DocuWide 2050/2051
1000
IP_192.200.15.252
1000

1070
     0
  0
PLOTSETTINGS
  5
C2ED
102
{ACAD_XDICTIONARY
360
DAE2
102
}
102
{ACAD_REACTORS
330
19
102
}
330
19
100
AcDbPlotSettings
  1
06 A4フィット
  2
FX DocuWide 2050/2051
  4
A4
  6

 40
3.174999952316283
 41
3.174999952316283
 42
3.175003051757812
 43
3.17498779296875
 44
209.9944915771484
 45
296.989501953125
 46
0.0
 47
1.314011612960285
 48
214.3704939521119
 49
367.5855324241177
140
275.6727856380065
141
407.6291914078169
142
1.0
143
2.06241771109504
 70
  3764
 72
     1
 73
     1
 74
     2
  7
monochrome.ctb
 75
     0
147
0.4848678299358913
148
0.0
149
0.0
1001
ACAD_PSEXT
1000
FX DocuWide 2050/2051
1000
FX DocuWide 2050/2051
1000
IP_192.200.15.252
1000

1070
     0
  0
PLOTSETTINGS
  5
D4E3
102
{ACAD_XDICTIONARY
360
DAF2
102
}
102
{ACAD_REACTORS
330
19
102
}
330
19
100
AcDbPlotSettings
  1
07   A3 自動調整
  2
\\ML370\Fuji Xerox BT8050(AutoCAD)
  4
User124
  6

 40
3.174999952316283
 41
3.174999952316283
 42
3.17498779296875
 43
3.17498779296875
 44
297.0
 45
420.0
 46
0.0
 47
1.29
 48
214.3704939521119
 49
367.5855324241177
140
275.6727856380065
141
407.6291914078169
142
1.0
143
1.445036925138428
 70
  1716
 72
     1
 73
     1
 74
     2
  7
monochrome.ctb
 75
     0
147
0.6920238387017023
148
-408.2719444961221
149
-428.6675171947153
  0
PLOTSETTINGS
  5
C2EE
102
{ACAD_XDICTIONARY
360
DAE4
102
}
102
{ACAD_REACTORS
330
19
102
}
330
19
100
AcDbPlotSettings
  1
07 A4
  2
FX DocuWide 2050/2051
  4
A4
  6

 40
3.174999952316283
 41
3.174999952316283
 42
3.175003051757812
 43
3.17498779296875
 44
209.9944915771484
 45
296.989501953125
 46
-108.1777557134628
 47
-151.68024289608
 48
214.3704939521119
 49
367.5855324241177
140
275.6727856380065
141
407.6291914078169
142
1.0
143
1.0
 70
  3764
 72
     1
 73
     1
 74
     2
  7
monochrome.ctb
 75
    16
147
1.0
148
0.0
149
0.0
1001
ACAD_PSEXT
1000
FX DocuWide 2050/2051
1000
FX DocuWide 2050/2051
1000
IP_192.200.15.252
1000

1070
     0
  0
PLOTSETTINGS
  5
D4E4
102
{ACAD_XDICTIONARY
360
DAF4
102
}
102
{ACAD_REACTORS
330
19
102
}
330
19
100
AcDbPlotSettings
  1
08   A4 自動調整
  2
\\ML370\Fuji Xerox BT8050(AutoCAD)
  4
User125
  6

 40
3.174999952316283
 41
3.174999952316283
 42
3.175003051757812
 43
3.17498779296875
 44
210.0
 45
297.0
 46
0.0
 47
1.32
 48
214.3704939521119
 49
367.5855324241177
140
275.6727856380065
141
407.6291914078169
142
1.0
143
2.062361925831023
 70
  1716
 72
     1
 73
     1
 74
     2
  7
monochrome.ctb
 75
     0
147
0.484880945228395
148
-408.2719444961221
149
-428.6675171947153
  0
PLOTSETTINGS
  5
D4E5
102
{ACAD_XDICTIONARY
360
DAF6
102
}
102
{ACAD_REACTORS
330
19
102
}
330
19
100
AcDbPlotSettings
  1
09   A1をA3に
  2
\\ML370\Fuji Xerox BT8050(AutoCAD)
  4
User124
  6

 40
3.174999952316283
 41
3.174999952316283
 42
3.17498779296875
 43
3.17498779296875
 44
297.0
 45
420.0
 46
-3.169999999999998
 47
-3.419999999999998
 48
214.3704939521119
 49
367.5855324241177
140
275.6727856380065
141
407.6291914078169
142
1.0
143
20.0
 70
  1716
 72
     1
 73
     1
 74
     2
  7
monochrome.ctb
 75
    22
147
0.05
148
-66.24202774817149
149
-81.38953477958603
  0
PLOTSETTINGS
  5
D4E6
102
{ACAD_XDICTIONARY
360
DAF8
102
}
102
{ACAD_REACTORS
330
19
102
}
330
19
100
AcDbPlotSettings
  1
10   A2をA3に
  2
\\ML370\Fuji Xerox BT8050(AutoCAD)
  4
User124
  6

 40
3.174999952316283
 41
3.174999952316283
 42
3.17498779296875
 43
3.17498779296875
 44
297.0
 45
420.0
 46
-3.189999999999998
 47
-3.22
 48
214.3704939521119
 49
367.5855324241177
140
275.6727856380065
141
407.6291914078169
142
1.0
143
1.414
 70
  1700
 72
     1
 73
     1
 74
     2
  7
monochrome.ctb
 75
     0
147
0.7072135785007072
148
-408.2719444961221
149
-428.6675171947153
  0
PLOTSETTINGS
  5
D4E7
102
{ACAD_XDICTIONARY
360
DAFA
102
}
102
{ACAD_REACTORS
330
19
102
}
330
19
100
AcDbPlotSettings
  1
11　レーザー　A3　自動調整
  2
\\ML370\NX710
  4
User124
  6

 40
3.174999952316283
 41
3.174999952316283
 42
3.17578125
 43
3.17578125
 44
25146.0
 45
35602.33203125
 46
0.0
 47
0.0
 48
214.3704939521119
 49
367.5855324241177
140
275.6727856380065
141
407.6291914078169
142
1.0
143
0.0083533385120973
 70
  1712
 72
     1
 73
     1
 74
     2
  7
monochrome.ctb
 75
     0
147
119.712615327608
148
-26.69879532799952
149
-28.92730121669592
  0
PLOTSETTINGS
  5
D4E8
102
{ACAD_XDICTIONARY
360
DAFC
102
}
102
{ACAD_REACTORS
330
19
102
}
330
19
100
AcDbPlotSettings
  1
０１　A3　自動調整
  2
Fuji Xerox BT8050
  4
User121
  6

 40
3.174999952316283
 41
3.174999952316283
 42
3.17498779296875
 43
3.17498779296875
 44
297.0
 45
420.0
 46
3.0
 47
3.0
 48
214.3704939521119
 49
367.5855324241177
140
275.6727856380065
141
407.6291914078169
142
1.0
143
70.78960651124567
 70
  1712
 72
     1
 73
     1
 74
     2
  7
monochrome.ctb
 75
     0
147
0.0141263675457942
148
0.0
149
0.0
  0
PLOTSETTINGS
  5
D4E9
102
{ACAD_XDICTIONARY
360
DAFE
102
}
102
{ACAD_REACTORS
330
19
102
}
330
19
100
AcDbPlotSettings
  1
０２　A3　１：１
  2
Fuji Xerox BT8050
  4
User121
  6

 40
3.174999952316283
 41
3.174999952316283
 42
3.17498779296875
 43
3.17498779296875
 44
297.0
 45
420.0
 46
1.0
 47
0.0
 48
214.3704939521119
 49
367.5855324241177
140
275.6727856380065
141
407.6291914078169
142
1.0
143
1.0
 70
  1712
 72
     1
 73
     1
 74
     2
  7
monochrome.ctb
 75
    16
147
1.0
148
-272.6514664696806
149
-81.88818450151984
  0
PLOTSETTINGS
  5
D4EA
102
{ACAD_XDICTIONARY
360
DB00
102
}
102
{ACAD_REACTORS
330
19
102
}
330
19
100
AcDbPlotSettings
  1
０３　A2　自動調整
  2
Fuji Xerox BT8050
  4
User120
  6

 40
3.174999952316283
 41
3.174999952316283
 42
3.17498779296875
 43
3.17498779296875
 44
420.0
 45
594.0
 46
3.0
 47
3.0
 48
214.3704939521119
 49
367.5855324241177
140
275.6727856380065
141
407.6291914078169
142
1.0
143
49.74011698404217
 70
  1712
 72
     1
 73
     1
 74
     2
  7
monochrome.ctb
 75
     0
147
0.020104496342878
148
0.0
149
0.0
  0
PLOTSETTINGS
  5
D4EB
102
{ACAD_XDICTIONARY
360
DB02
102
}
102
{ACAD_REACTORS
330
19
102
}
330
19
100
AcDbPlotSettings
  1
０４　A2　１：１
  2
Fuji Xerox BT8050
  4
User120
  6

 40
3.174999952316283
 41
3.174999952316283
 42
3.17498779296875
 43
3.17498779296875
 44
420.0
 45
594.0
 46
1.0
 47
0.0
 48
214.3704939521119
 49
367.5855324241177
140
275.6727856380065
141
407.6291914078169
142
1.0
143
1.0
 70
  1712
 72
     1
 73
     1
 74
     2
  7
monochrome.ctb
 75
    16
147
1.0
148
-272.6514664696806
149
-81.88818450151984
  0
PLOTSETTINGS
  5
D4EC
102
{ACAD_XDICTIONARY
360
DB04
102
}
102
{ACAD_REACTORS
330
19
102
}
330
19
100
AcDbPlotSettings
  1
０５　A4　自動調整
  2
Fuji Xerox BT8050
  4
User122
  6

 40
3.174999952316283
 41
3.174999952316283
 42
3.175003051757812
 43
3.17498779296875
 44
210.0
 45
297.0
 46
3.0
 47
3.0
 48
214.3704939521119
 49
367.5855324241177
140
275.6727856380065
141
407.6291914078169
142
1.0
143
101.0311824380317
 70
  1712
 72
     1
 73
     1
 74
     2
  7
monochrome.ctb
 75
     0
147
0.0098979342403852
148
0.0
149
0.0
  0
PLOTSETTINGS
  5
D4ED
102
{ACAD_XDICTIONARY
360
DB06
102
}
102
{ACAD_REACTORS
330
19
102
}
330
19
100
AcDbPlotSettings
  1
０６　A4　１：１
  2
Fuji Xerox BT8050
  4
User122
  6

 40
3.174999952316283
 41
3.174999952316283
 42
3.175003051757812
 43
3.17498779296875
 44
210.0
 45
297.0
 46
1.0
 47
0.0
 48
214.3704939521119
 49
367.5855324241177
140
275.6727856380065
141
407.6291914078169
142
1.0
143
1.0
 70
  1712
 72
     1
 73
     1
 74
     2
  7
monochrome.ctb
 75
    16
147
1.0
148
-272.6514664696806
149
-81.88818450151984
  0
PLOTSETTINGS
  5
D4EE
102
{ACAD_XDICTIONARY
360
DB08
102
}
102
{ACAD_REACTORS
330
19
102
}
330
19
100
AcDbPlotSettings
  1
０７　A1　自動調整
  2
Fuji Xerox BT8050
  4
User119
  6

 40
3.174999952316283
 41
3.174999952316283
 42
3.17498779296875
 43
3.17498779296875
 44
593.7249755859375
 45
840.6129760742187
 46
3.0
 47
3.0
 48
214.3704939521119
 49
367.5855324241177
140
275.6727856380065
141
407.6291914078169
142
1.0
143
35.02873024205406
 70
  1712
 72
     1
 73
     1
 74
     2
  7
monochrome.ctb
 75
     0
147
0.0285479945487559
148
0.0
149
0.0
  0
PLOTSETTINGS
  5
D4EF
102
{ACAD_XDICTIONARY
360
DB0A
102
}
102
{ACAD_REACTORS
330
19
102
}
330
19
100
AcDbPlotSettings
  1
０８　A1　１：１
  2
Fuji Xerox BT8050
  4
User119
  6

 40
3.174999952316283
 41
3.174999952316283
 42
3.17498779296875
 43
3.17498779296875
 44
593.7249755859375
 45
840.6129760742187
 46
1.0
 47
0.0
 48
214.3704939521119
 49
367.5855324241177
140
275.6727856380065
141
407.6291914078169
142
1.0
143
1.0
 70
  1712
 72
     1
 73
     1
 74
     2
  7
monochrome.ctb
 75
    16
147
1.0
148
-272.6514664696806
149
-81.88818450151984
  0
PLOTSETTINGS
  5
D4F0
102
{ACAD_XDICTIONARY
360
DB0C
102
}
102
{ACAD_REACTORS
330
19
102
}
330
19
100
AcDbPlotSettings
  1
０９　A4　検査表
  2
Fuji Xerox BT8050
  4
User122
  6

 40
3.174999952316283
 41
3.174999952316283
 42
3.175003051757812
 43
3.17498779296875
 44
210.0
 45
297.0
 46
3.0
 47
3.0
 48
214.3704939521119
 49
367.5855324241177
140
275.6727856380065
141
407.6291914078169
142
1.0
143
4.12963423719974
 70
  1712
 72
     1
 73
     0
 74
     2
  7
monochrome.ctb
 75
     0
147
0.2421521961901616
148
-272.6514664696806
149
-81.88818450151984
  0
ACDBPLACEHOLDER
  5
F
102
{ACAD_REACTORS
330
E
102
}
330
E
  0
TABLESTYLE
  5
AABA
102
{ACAD_XDICTIONARY
360
DAD4
102
}
102
{ACAD_REACTORS
330
AAB9
102
}
330
AAB9
100
AcDbTableStyle
  3
Standard
 70
     0
 71
     0
 40
1.5
 41
1.5
280
     0
281
     0
  7
STANDARD
140
4.5
170
     2
 62
     0
 63
     7
283
     0
274
    -2
284
     1
 64
     0
275
    -2
285
     1
 65
     0
276
    -2
286
     1
 66
     0
277
    -2
287
     1
 67
     0
278
    -2
288
     1
 68
     0
279
    -2
289
     1
 69
     0
  7
STANDARD
140
6.0
170
     5
 62
     0
 63
     7
283
     0
274
    -2
284
     1
 64
     0
275
    -2
285
     1
 65
     0
276
    -2
286
     1
 66
     0
277
    -2
287
     1
 67
     0
278
    -2
288
     1
 68
     0
279
    -2
289
     1
 69
     0
  7
STANDARD
140
4.5
170
     5
 62
     0
 63
     7
283
     0
274
    -2
284
     1
 64
     0
275
    -2
285
     1
 65
     0
276
    -2
286
     1
 66
     0
277
    -2
287
     1
 67
     0
278
    -2
288
     1
 68
     0
279
    -2
289
     1
 69
     0
  0
VISUALSTYLE
  5
D901
102
{ACAD_REACTORS
330
D8FB
102
}
330
D8FB
100
AcDbVisualStyle
  2
2dWireframe
 70
     4
 71
     0
 72
     2
 73
     0
 90
        0
 40
-0.6
 41
-30.0
 62
     5
 63
     7
 74
     1
 91
        4
 64
     7
 65
   257
 75
     1
175
     1
 42
1.0
 92
        0
 66
   257
 43
1.0
 76
     1
 77
     6
 78
     2
 67
     7
 79
     5
170
     0
171
     0
290
     0
174
     0
 93
        1
 44
0.0
173
     0
291
     0
 45
0.0
1001
ACAD
1000
AcDbSavedByObjectVersion
1070
     0
1000
AcDbSavedByObjectVersion
1070
     0
  0
VISUALSTYLE
  5
D903
102
{ACAD_REACTORS
330
D8FB
102
}
330
D8FB
100
AcDbVisualStyle
  2
3D Hidden
 70
     6
 71
     1
 72
     2
 73
     2
 90
        0
 40
-0.6
 41
-30.0
 62
     5
 63
     7
 74
     2
 91
        2
 64
     7
 65
   257
 75
     2
175
     1
 42
40.0
 92
        0
 66
   257
 43
1.0
 76
     1
 77
     6
 78
     2
 67
     7
 79
     3
170
     0
171
     0
290
     0
174
     0
 93
        1
 44
0.0
173
     0
291
     0
 45
0.0
1001
ACAD
1000
AcDbSavedByObjectVersion
1070
     0
1000
AcDbSavedByObjectVersion
1070
     0
  0
VISUALSTYLE
  5
D902
102
{ACAD_REACTORS
330
D8FB
102
}
330
D8FB
100
AcDbVisualStyle
  2
3dWireframe
 70
     5
 71
     0
 72
     2
 73
     0
 90
        0
 40
-0.6
 41
-30.0
 62
     5
 63
     7
 74
     1
 91
        4
 64
     7
 65
   257
 75
     1
175
     1
 42
1.0
 92
        0
 66
   257
 43
1.0
 76
     1
 77
     6
 78
     2
 67
     7
 79
     5
170
     0
171
     0
290
     0
174
     0
 93
        1
 44
0.0
173
     0
291
     0
 45
0.0
1001
ACAD
1000
AcDbSavedByObjectVersion
1070
     0
1000
AcDbSavedByObjectVersion
1070
     0
  0
VISUALSTYLE
  5
D900
102
{ACAD_REACTORS
330
D8FB
102
}
330
D8FB
100
AcDbVisualStyle
  2
Basic
 70
     7
 71
     1
 72
     0
 73
     1
 90
        0
 40
-0.6
 41
-30.0
 62
     5
 63
     7
 74
     0
 91
        4
 64
     7
 65
   257
 75
     1
175
     1
 42
1.0
 92
        8
 66
     7
 43
1.0
 76
     1
 77
     6
 78
     2
 67
     7
 79
     5
170
     0
171
     0
290
     0
174
     0
 93
        1
 44
0.0
173
     0
291
     1
 45
0.0
1001
ACAD
1000
AcDbSavedByObjectVersion
1070
     0
1000
AcDbSavedByObjectVersion
1070
     0
  0
VISUALSTYLE
  5
D907
102
{ACAD_REACTORS
330
D8FB
102
}
330
D8FB
100
AcDbVisualStyle
  2
Brighten
 70
    12
 71
     2
 72
     2
 73
     0
 90
        0
 40
-0.6
 41
-30.0
 62
     5
 63
     7
 74
     1
 91
        4
 64
     7
 65
   257
 75
     1
175
     1
 42
1.0
 92
        8
 66
     7
 43
1.0
 76
     1
 77
     6
 78
     2
 67
     7
 79
     5
170
     0
171
     0
290
     0
174
     0
 93
        1
 44
50.0
173
     0
291
     1
 45
0.0
1001
ACAD
1000
AcDbSavedByObjectVersion
1070
     0
1000
AcDbSavedByObjectVersion
1070
     0
  0
VISUALSTYLE
  5
D90B
102
{ACAD_REACTORS
330
D8FB
102
}
330
D8FB
100
AcDbVisualStyle
  2
ColorChange
 70
    16
 71
     2
 72
     2
 73
     3
 90
        0
 40
-0.6
 41
-30.0
 62
     5
 63
     8
 74
     1
 91
        4
 64
     7
 65
   257
 75
     1
175
     1
 42
1.0
 92
        8
 66
     8
 43
1.0
 76
     1
 77
     6
 78
     2
 67
     7
 79
     5
170
     0
171
     0
290
     0
174
     0
 93
        1
 44
0.0
173
     0
291
     1
 45
0.0
1001
ACAD
1000
AcDbSavedByObjectVersion
1070
     0
1000
AcDbSavedByObjectVersion
1070
     0
  0
VISUALSTYLE
  5
D904
102
{ACAD_REACTORS
330
D8FB
102
}
330
D8FB
100
AcDbVisualStyle
  2
Conceptual
 70
     9
 71
     3
 72
     2
 73
     0
 90
        0
 40
-0.6
 41
-30.0
 62
     5
 63
     7
 74
     2
 91
        2
 64
     7
 65
   257
 75
     1
175
     1
 42
40.0
 92
        8
 66
     7
 43
1.0
 76
     1
 77
     6
 78
     2
 67
     7
 79
     3
170
     0
171
     0
290
     0
174
     0
 93
        1
 44
0.0
173
     0
291
     0
 45
0.0
1001
ACAD
1000
AcDbSavedByObjectVersion
1070
     0
1000
AcDbSavedByObjectVersion
1070
     0
  0
VISUALSTYLE
  5
D906
102
{ACAD_REACTORS
330
D8FB
102
}
330
D8FB
100
AcDbVisualStyle
  2
Dim
 70
    11
 71
     2
 72
     2
 73
     0
 90
        0
 40
-0.6
 41
-30.0
 62
     5
 63
     7
 74
     1
 91
        4
 64
     7
 65
   257
 75
     1
175
     1
 42
1.0
 92
        8
 66
     7
 43
1.0
 76
     1
 77
     6
 78
     2
 67
     7
 79
     5
170
     0
171
     0
290
     0
174
     0
 93
        1
 44
-50.0
173
     0
291
     1
 45
0.0
1001
ACAD
1000
AcDbSavedByObjectVersion
1070
     0
1000
AcDbSavedByObjectVersion
1070
     0
  0
VISUALSTYLE
  5
D90A
102
{ACAD_REACTORS
330
D8FB
102
}
330
D8FB
100
AcDbVisualStyle
  2
Facepattern
 70
    15
 71
     2
 72
     2
 73
     0
 90
        0
 40
-0.6
 41
-30.0
 62
     5
 63
     7
 74
     1
 91
        4
 64
     7
 65
   257
 75
     1
175
     1
 42
1.0
 92
        8
 66
     7
 43
1.0
 76
     1
 77
     6
 78
     2
 67
     7
 79
     5
170
     0
171
     0
290
     0
174
     0
 93
        1
 44
0.0
173
     0
291
     1
 45
0.0
1001
ACAD
1000
AcDbSavedByObjectVersion
1070
     0
1000
AcDbSavedByObjectVersion
1070
     0
  0
VISUALSTYLE
  5
D8FC
102
{ACAD_REACTORS
330
D8FB
102
}
330
D8FB
100
AcDbVisualStyle
  2
Flat
 70
     0
 71
     2
 72
     1
 73
     1
 90
        2
 40
-0.6
 41
30.0
 62
     5
 63
     7
 74
     0
 91
        4
 64
     7
 65
   257
 75
     1
175
     1
 42
1.0
 92
        8
 66
     7
 43
1.0
 76
     1
 77
     6
 78
     2
 67
     7
 79
     5
170
     0
171
     0
290
     0
174
     0
 93
       13
 44
0.0
173
     0
291
     1
 45
0.0
1001
ACAD
1000
AcDbSavedByObjectVersion
1070
     0
1000
AcDbSavedByObjectVersion
1070
     0
  0
VISUALSTYLE
  5
D8FD
102
{ACAD_REACTORS
330
D8FB
102
}
330
D8FB
100
AcDbVisualStyle
  2
FlatWithEdges
 70
     1
 71
     2
 72
     1
 73
     1
 90
        2
 40
-0.6
 41
30.0
 62
     5
 63
     7
 74
     1
 91
        4
 64
     7
 65
   257
 75
     1
175
     1
 42
1.0
 92
        0
 66
   257
 43
1.0
 76
     1
 77
     6
 78
     2
 67
     7
 79
     5
170
     0
171
     0
290
     0
174
     0
 93
       13
 44
0.0
173
     0
291
     1
 45
0.0
1001
ACAD
1000
AcDbSavedByObjectVersion
1070
     0
1000
AcDbSavedByObjectVersion
1070
     0
  0
VISUALSTYLE
  5
D8FE
102
{ACAD_REACTORS
330
D8FB
102
}
330
D8FB
100
AcDbVisualStyle
  2
Gouraud
 70
     2
 71
     2
 72
     2
 73
     1
 90
        2
 40
-0.6
 41
30.0
 62
     5
 63
     7
 74
     0
 91
        4
 64
     7
 65
   257
 75
     1
175
     1
 42
1.0
 92
        0
 66
     7
 43
1.0
 76
     1
 77
     6
 78
     2
 67
     7
 79
     5
170
     0
171
     0
290
     0
174
     0
 93
       13
 44
0.0
173
     0
291
     1
 45
0.0
1001
ACAD
1000
AcDbSavedByObjectVersion
1070
     0
1000
AcDbSavedByObjectVersion
1070
     0
  0
VISUALSTYLE
  5
D8FF
102
{ACAD_REACTORS
330
D8FB
102
}
330
D8FB
100
AcDbVisualStyle
  2
GouraudWithEdges
 70
     3
 71
     2
 72
     2
 73
     1
 90
        2
 40
-0.6
 41
30.0
 62
     5
 63
     7
 74
     1
 91
        4
 64
     7
 65
   257
 75
     1
175
     1
 42
1.0
 92
        0
 66
   257
 43
1.0
 76
     1
 77
     6
 78
     2
 67
     7
 79
     5
170
     0
171
     0
290
     0
174
     0
 93
       13
 44
0.0
173
     0
291
     1
 45
0.0
1001
ACAD
1000
AcDbSavedByObjectVersion
1070
     0
1000
AcDbSavedByObjectVersion
1070
     0
  0
VISUALSTYLE
  5
D909
102
{ACAD_REACTORS
330
D8FB
102
}
330
D8FB
100
AcDbVisualStyle
  2
Linepattern
 70
    14
 71
     2
 72
     2
 73
     0
 90
        0
 40
-0.6
 41
-30.0
 62
     5
 63
     7
 74
     1
 91
        4
 64
     7
 65
   257
 75
     7
175
     7
 42
1.0
 92
        8
 66
     7
 43
1.0
 76
     1
 77
     6
 78
     2
 67
     7
 79
     5
170
     0
171
     0
290
     0
174
     0
 93
        1
 44
0.0
173
     0
291
     1
 45
0.0
1001
ACAD
1000
AcDbSavedByObjectVersion
1070
     0
1000
AcDbSavedByObjectVersion
1070
     0
  0
VISUALSTYLE
  5
D905
102
{ACAD_REACTORS
330
D8FB
102
}
330
D8FB
100
AcDbVisualStyle
  2
Realistic
 70
     8
 71
     2
 72
     2
 73
     0
 90
        0
 40
-0.6
 41
-30.0
 62
     5
 63
     7
 74
     1
 91
        0
 64
     7
 65
   257
 75
     1
175
     1
 42
1.0
 92
        8
 66
     8
 43
1.0
 76
     1
 77
     6
 78
     2
 67
     7
 79
     5
170
     0
171
     0
290
     0
174
     0
 93
       13
 44
0.0
173
     0
291
     0
 45
0.0
1001
ACAD
1000
AcDbSavedByObjectVersion
1070
     0
1000
AcDbSavedByObjectVersion
1070
     0
  0
VISUALSTYLE
  5
D908
102
{ACAD_REACTORS
330
D8FB
102
}
330
D8FB
100
AcDbVisualStyle
  2
Thicken
 70
    13
 71
     2
 72
     2
 73
     0
 90
        0
 40
-0.6
 41
-30.0
 62
     5
 63
     7
 74
     1
 91
        4
 64
     7
 65
   257
 75
     1
175
     1
 42
1.0
 92
       12
 66
     7
 43
1.0
 76
     1
 77
     6
 78
     2
 67
     7
 79
     5
170
     0
171
     0
290
     0
174
     0
 93
        1
 44
0.0
173
     0
291
     1
 45
0.0
1001
ACAD
1000
AcDbSavedByObjectVersion
1070
     0
1000
AcDbSavedByObjectVersion
1070
     0
  0
DICTIONARYVAR
  5
AAF3
102
{ACAD_REACTORS
330
34
102
}
330
34
100
DictionaryVariables
280
     0
  1
STANDARD
  0
DICTIONARYVAR
  5
A10C
102
{ACAD_REACTORS
330
34
102
}
330
34
100
DictionaryVariables
280
     0
  1
2
  0
DICTIONARYVAR
  5
AB07
102
{ACAD_REACTORS
330
34
102
}
330
34
100
DictionaryVariables
280
     0
  1
4
  0
DICTIONARYVAR
  5
35
102
{ACAD_REACTORS
330
34
102
}
330
34
100
DictionaryVariables
280
     0
  1
0
  0
DICTIONARYVAR
  5
194C
102
{ACAD_REACTORS
330
34
102
}
330
34
100
DictionaryVariables
280
     0
  1
96
  0
DICTIONARY
  5
7E8
102
{ACAD_REACTORS
330
47
102
}
330
47
100
AcDbDictionary
281
     1
  0
DICTIONARY
  5
4C
102
{ACAD_REACTORS
330
47
102
}
330
47
100
AcDbDictionary
281
     1
  0
XRECORD
  5
A929
102
{ACAD_REACTORS
330
47
102
}
330
47
100
AcDbXrecord
280
     1
 90
-1023410169
  0
XRECORD
  5
9F49
102
{ACAD_REACTORS
330
9F48
102
}
330
9F48
100
AcDbXrecord
280
     1
330
0
330
0
330
0
330
0
330
0
330
0
330
0
330
0
  0
XRECORD
  5
3FB7
102
{ACAD_REACTORS
330
3F96
102
}
330
3F96
100
AcDbXrecord
280
     1
 91
        3
330
0
 90
        8
 62
     7
370
    40
331
16
  1
Color_7
330
0
 90
        0
 62
    14
370
    -3
331
16
  1
Color_14
330
0
 90
        8
 62
     7
370
    20
331
16
  1
Color_7
330
6D1
 90
        0
 62
     7
370
    -3
331
16
  1
Color_7
330
0
 90
        8
 62
     7
370
    50
331
16
  1
Color_7
330
0
 90
        8
 62
     2
370
    35
331
16
  1
Color_2
330
0
 90
        8
 62
     7
370
    -3
331
16
  1
Color_7
330
10
 90
        8
 62
     7
370
    -3
331
16
  1
Color_7
  0
DICTIONARY
  5
DAD0
330
22
100
AcDbDictionary
280
     1
281
     1
  3
ACAD_XREC_ROUNDTRIP
360
DAD1
  0
DICTIONARY
  5
DACE
330
1E
100
AcDbDictionary
280
     1
281
     1
  3
ACAD_XREC_ROUNDTRIP
360
DACF
  0
DICTIONARY
  5
DAD2
330
26
100
AcDbDictionary
280
     1
281
     1
  3
ACAD_XREC_ROUNDTRIP
360
DAD3
  0
DICTIONARY
  5
DA45
330
D8F9
100
AcDbDictionary
280
     1
281
     1
  3
ACAD_XREC_ROUNDTRIP
360
DA46
  0
DICTIONARY
  5
DA43
330
D8F8
100
AcDbDictionary
280
     1
281
     1
  3
ACAD_XREC_ROUNDTRIP
360
DA44
  0
DICTIONARY
  5
DA47
330
D8FA
100
AcDbDictionary
280
     1
281
     1
  3
ACAD_XREC_ROUNDTRIP
360
DA48
  0
DICTIONARY
  5
DAE6
330
D4DD
100
AcDbDictionary
280
     1
281
     1
  3
ACAD_XREC_ROUNDTRIP
360
DAE7
  0
DICTIONARY
  5
DAD6
330
C2E7
100
AcDbDictionary
280
     1
281
     1
  3
ACAD_XREC_ROUNDTRIP
360
DAD7
  0
DICTIONARY
  5
DAE8
330
D4DE
100
AcDbDictionary
280
     1
281
     1
  3
ACAD_XREC_ROUNDTRIP
360
DAE9
  0
DICTIONARY
  5
DAD8
330
C2E8
100
AcDbDictionary
280
     1
281
     1
  3
ACAD_XREC_ROUNDTRIP
360
DAD9
  0
DICTIONARY
  5
DAEA
330
D4DF
100
AcDbDictionary
280
     1
281
     1
  3
ACAD_XREC_ROUNDTRIP
360
DAEB
  0
DICTIONARY
  5
DADA
330
C2E9
100
AcDbDictionary
280
     1
281
     1
  3
ACAD_XREC_ROUNDTRIP
360
DADB
  0
DICTIONARY
  5
DAEC
330
D4E0
100
AcDbDictionary
280
     1
281
     1
  3
ACAD_XREC_ROUNDTRIP
360
DAED
  0
DICTIONARY
  5
DADC
330
C2EA
100
AcDbDictionary
280
     1
281
     1
  3
ACAD_XREC_ROUNDTRIP
360
DADD
  0
DICTIONARY
  5
DAEE
330
D4E1
100
AcDbDictionary
280
     1
281
     1
  3
ACAD_XREC_ROUNDTRIP
360
DAEF
  0
DICTIONARY
  5
DADE
330
C2EB
100
AcDbDictionary
280
     1
281
     1
  3
ACAD_XREC_ROUNDTRIP
360
DADF
  0
DICTIONARY
  5
DAF0
330
D4E2
100
AcDbDictionary
280
     1
281
     1
  3
ACAD_XREC_ROUNDTRIP
360
DAF1
  0
DICTIONARY
  5
DAE0
330
C2EC
100
AcDbDictionary
280
     1
281
     1
  3
ACAD_XREC_ROUNDTRIP
360
DAE1
  0
DICTIONARY
  5
DAE2
330
C2ED
100
AcDbDictionary
280
     1
281
     1
  3
ACAD_XREC_ROUNDTRIP
360
DAE3
  0
DICTIONARY
  5
DAF2
330
D4E3
100
AcDbDictionary
280
     1
281
     1
  3
ACAD_XREC_ROUNDTRIP
360
DAF3
  0
DICTIONARY
  5
DAE4
330
C2EE
100
AcDbDictionary
280
     1
281
     1
  3
ACAD_XREC_ROUNDTRIP
360
DAE5
  0
DICTIONARY
  5
DAF4
330
D4E4
100
AcDbDictionary
280
     1
281
     1
  3
ACAD_XREC_ROUNDTRIP
360
DAF5
  0
DICTIONARY
  5
DAF6
330
D4E5
100
AcDbDictionary
280
     1
281
     1
  3
ACAD_XREC_ROUNDTRIP
360
DAF7
  0
DICTIONARY
  5
DAF8
330
D4E6
100
AcDbDictionary
280
     1
281
     1
  3
ACAD_XREC_ROUNDTRIP
360
DAF9
  0
DICTIONARY
  5
DAFA
330
D4E7
100
AcDbDictionary
280
     1
281
     1
  3
ACAD_XREC_ROUNDTRIP
360
DAFB
  0
DICTIONARY
  5
DAFC
330
D4E8
100
AcDbDictionary
280
     1
281
     1
  3
ACAD_XREC_ROUNDTRIP
360
DAFD
  0
DICTIONARY
  5
DAFE
330
D4E9
100
AcDbDictionary
280
     1
281
     1
  3
ACAD_XREC_ROUNDTRIP
360
DAFF
  0
DICTIONARY
  5
DB00
330
D4EA
100
AcDbDictionary
280
     1
281
     1
  3
ACAD_XREC_ROUNDTRIP
360
DB01
  0
DICTIONARY
  5
DB02
330
D4EB
100
AcDbDictionary
280
     1
281
     1
  3
ACAD_XREC_ROUNDTRIP
360
DB03
  0
DICTIONARY
  5
DB04
330
D4EC
100
AcDbDictionary
280
     1
281
     1
  3
ACAD_XREC_ROUNDTRIP
360
DB05
  0
DICTIONARY
  5
DB06
330
D4ED
100
AcDbDictionary
280
     1
281
     1
  3
ACAD_XREC_ROUNDTRIP
360
DB07
  0
DICTIONARY
  5
DB08
330
D4EE
100
AcDbDictionary
280
     1
281
     1
  3
ACAD_XREC_ROUNDTRIP
360
DB09
  0
DICTIONARY
  5
DB0A
330
D4EF
100
AcDbDictionary
280
     1
281
     1
  3
ACAD_XREC_ROUNDTRIP
360
DB0B
  0
DICTIONARY
  5
DB0C
330
D4F0
100
AcDbDictionary
280
     1
281
     1
  3
ACAD_XREC_ROUNDTRIP
360
DB0D
  0
DICTIONARY
  5
DAD4
330
AABA
100
AcDbDictionary
280
     1
281
     1
  3
ACAD_XREC_ROUNDTRIP
360
DAD5
  0
XRECORD
  5
DAD1
102
{ACAD_REACTORS
330
DAD0
102
}
330
DAD0
100
AcDbXrecord
280
     1
102
SHADEPLOT
 70
     0
102
SHADEPLOTRESLEVEL
 70
     2
102
SHADEPLOTCUSTOMDPI
 70
   200
  0
XRECORD
  5
DACF
102
{ACAD_REACTORS
330
DACE
102
}
330
DACE
100
AcDbXrecord
280
     1
102
SHADEPLOT
 70
     0
102
SHADEPLOTRESLEVEL
 70
     2
102
SHADEPLOTCUSTOMDPI
 70
   300
  0
XRECORD
  5
DAD3
102
{ACAD_REACTORS
330
DAD2
102
}
330
DAD2
100
AcDbXrecord
280
     1
102
SHADEPLOT
 70
     0
102
SHADEPLOTRESLEVEL
 70
     2
102
SHADEPLOTCUSTOMDPI
 70
   300
  0
XRECORD
  5
DA46
102
{ACAD_REACTORS
330
DA45
102
}
330
DA45
100
AcDbXrecord
280
     1
102
MATERIAL
148
0.0
149
0.0
149
0.0
 93
        0
 94
       63
282
     0
 72
     1
 77
     1
171
     1
175
     1
179
     1
273
     0
  0
XRECORD
  5
DA44
102
{ACAD_REACTORS
330
DA43
102
}
330
DA43
100
AcDbXrecord
280
     1
102
MATERIAL
148
0.0
149
0.0
149
0.0
 93
        0
 94
       63
282
     0
 72
     1
 77
     1
171
     1
175
     1
179
     1
273
     0
  0
XRECORD
  5
DA48
102
{ACAD_REACTORS
330
DA47
102
}
330
DA47
100
AcDbXrecord
280
     1
102
MATERIAL
148
0.0
149
0.0
149
0.0
 93
        0
 94
       63
282
     0
 72
     1
 77
     1
171
     1
175
     1
179
     1
273
     0
  0
XRECORD
  5
DAE7
102
{ACAD_REACTORS
330
DAE6
102
}
330
DAE6
100
AcDbXrecord
280
     1
102
SHADEPLOT
 70
     0
102
SHADEPLOTRESLEVEL
 70
     2
102
SHADEPLOTCUSTOMDPI
 70
   300
  0
XRECORD
  5
DAD7
102
{ACAD_REACTORS
330
DAD6
102
}
330
DAD6
100
AcDbXrecord
280
     1
102
SHADEPLOT
 70
     0
102
SHADEPLOTRESLEVEL
 70
     2
102
SHADEPLOTCUSTOMDPI
 70
   200
  0
XRECORD
  5
DAE9
102
{ACAD_REACTORS
330
DAE8
102
}
330
DAE8
100
AcDbXrecord
280
     1
102
SHADEPLOT
 70
     0
102
SHADEPLOTRESLEVEL
 70
     2
102
SHADEPLOTCUSTOMDPI
 70
   300
  0
XRECORD
  5
DAD9
102
{ACAD_REACTORS
330
DAD8
102
}
330
DAD8
100
AcDbXrecord
280
     1
102
SHADEPLOT
 70
     0
102
SHADEPLOTRESLEVEL
 70
     2
102
SHADEPLOTCUSTOMDPI
 70
   200
  0
XRECORD
  5
DAEB
102
{ACAD_REACTORS
330
DAEA
102
}
330
DAEA
100
AcDbXrecord
280
     1
102
SHADEPLOT
 70
     0
102
SHADEPLOTRESLEVEL
 70
     2
102
SHADEPLOTCUSTOMDPI
 70
   300
  0
XRECORD
  5
DADB
102
{ACAD_REACTORS
330
DADA
102
}
330
DADA
100
AcDbXrecord
280
     1
102
SHADEPLOT
 70
     0
102
SHADEPLOTRESLEVEL
 70
     2
102
SHADEPLOTCUSTOMDPI
 70
   200
  0
XRECORD
  5
DAED
102
{ACAD_REACTORS
330
DAEC
102
}
330
DAEC
100
AcDbXrecord
280
     1
102
SHADEPLOT
 70
     0
102
SHADEPLOTRESLEVEL
 70
     2
102
SHADEPLOTCUSTOMDPI
 70
   300
  0
XRECORD
  5
DADD
102
{ACAD_REACTORS
330
DADC
102
}
330
DADC
100
AcDbXrecord
280
     1
102
SHADEPLOT
 70
     0
102
SHADEPLOTRESLEVEL
 70
     2
102
SHADEPLOTCUSTOMDPI
 70
   200
  0
XRECORD
  5
DAEF
102
{ACAD_REACTORS
330
DAEE
102
}
330
DAEE
100
AcDbXrecord
280
     1
102
SHADEPLOT
 70
     0
102
SHADEPLOTRESLEVEL
 70
     2
102
SHADEPLOTCUSTOMDPI
 70
   300
  0
XRECORD
  5
DADF
102
{ACAD_REACTORS
330
DADE
102
}
330
DADE
100
AcDbXrecord
280
     1
102
SHADEPLOT
 70
     0
102
SHADEPLOTRESLEVEL
 70
     2
102
SHADEPLOTCUSTOMDPI
 70
   200
  0
XRECORD
  5
DAF1
102
{ACAD_REACTORS
330
DAF0
102
}
330
DAF0
100
AcDbXrecord
280
     1
102
SHADEPLOT
 70
     0
102
SHADEPLOTRESLEVEL
 70
     2
102
SHADEPLOTCUSTOMDPI
 70
   300
  0
XRECORD
  5
DAE1
102
{ACAD_REACTORS
330
DAE0
102
}
330
DAE0
100
AcDbXrecord
280
     1
102
SHADEPLOT
 70
     0
102
SHADEPLOTRESLEVEL
 70
     2
102
SHADEPLOTCUSTOMDPI
 70
   200
  0
XRECORD
  5
DAE3
102
{ACAD_REACTORS
330
DAE2
102
}
330
DAE2
100
AcDbXrecord
280
     1
102
SHADEPLOT
 70
     0
102
SHADEPLOTRESLEVEL
 70
     2
102
SHADEPLOTCUSTOMDPI
 70
   200
  0
XRECORD
  5
DAF3
102
{ACAD_REACTORS
330
DAF2
102
}
330
DAF2
100
AcDbXrecord
280
     1
102
SHADEPLOT
 70
     0
102
SHADEPLOTRESLEVEL
 70
     2
102
SHADEPLOTCUSTOMDPI
 70
   300
  0
XRECORD
  5
DAE5
102
{ACAD_REACTORS
330
DAE4
102
}
330
DAE4
100
AcDbXrecord
280
     1
102
SHADEPLOT
 70
     0
102
SHADEPLOTRESLEVEL
 70
     2
102
SHADEPLOTCUSTOMDPI
 70
   200
  0
XRECORD
  5
DAF5
102
{ACAD_REACTORS
330
DAF4
102
}
330
DAF4
100
AcDbXrecord
280
     1
102
SHADEPLOT
 70
     0
102
SHADEPLOTRESLEVEL
 70
     2
102
SHADEPLOTCUSTOMDPI
 70
   300
  0
XRECORD
  5
DAF7
102
{ACAD_REACTORS
330
DAF6
102
}
330
DAF6
100
AcDbXrecord
280
     1
102
SHADEPLOT
 70
     0
102
SHADEPLOTRESLEVEL
 70
     2
102
SHADEPLOTCUSTOMDPI
 70
   300
  0
XRECORD
  5
DAF9
102
{ACAD_REACTORS
330
DAF8
102
}
330
DAF8
100
AcDbXrecord
280
     1
102
SHADEPLOT
 70
     0
102
SHADEPLOTRESLEVEL
 70
     2
102
SHADEPLOTCUSTOMDPI
 70
   300
  0
XRECORD
  5
DAFB
102
{ACAD_REACTORS
330
DAFA
102
}
330
DAFA
100
AcDbXrecord
280
     1
102
SHADEPLOT
 70
     0
102
SHADEPLOTRESLEVEL
 70
     2
102
SHADEPLOTCUSTOMDPI
 70
   300
  0
XRECORD
  5
DAFD
102
{ACAD_REACTORS
330
DAFC
102
}
330
DAFC
100
AcDbXrecord
280
     1
102
SHADEPLOT
 70
     0
102
SHADEPLOTRESLEVEL
 70
     2
102
SHADEPLOTCUSTOMDPI
 70
   300
  0
XRECORD
  5
DAFF
102
{ACAD_REACTORS
330
DAFE
102
}
330
DAFE
100
AcDbXrecord
280
     1
102
SHADEPLOT
 70
     0
102
SHADEPLOTRESLEVEL
 70
     2
102
SHADEPLOTCUSTOMDPI
 70
   300
  0
XRECORD
  5
DB01
102
{ACAD_REACTORS
330
DB00
102
}
330
DB00
100
AcDbXrecord
280
     1
102
SHADEPLOT
 70
     0
102
SHADEPLOTRESLEVEL
 70
     2
102
SHADEPLOTCUSTOMDPI
 70
   300
  0
XRECORD
  5
DB03
102
{ACAD_REACTORS
330
DB02
102
}
330
DB02
100
AcDbXrecord
280
     1
102
SHADEPLOT
 70
     0
102
SHADEPLOTRESLEVEL
 70
     2
102
SHADEPLOTCUSTOMDPI
 70
   300
  0
XRECORD
  5
DB05
102
{ACAD_REACTORS
330
DB04
102
}
330
DB04
100
AcDbXrecord
280
     1
102
SHADEPLOT
 70
     0
102
SHADEPLOTRESLEVEL
 70
     2
102
SHADEPLOTCUSTOMDPI
 70
   300
  0
XRECORD
  5
DB07
102
{ACAD_REACTORS
330
DB06
102
}
330
DB06
100
AcDbXrecord
280
     1
102
SHADEPLOT
 70
     0
102
SHADEPLOTRESLEVEL
 70
     2
102
SHADEPLOTCUSTOMDPI
 70
   300
  0
XRECORD
  5
DB09
102
{ACAD_REACTORS
330
DB08
102
}
330
DB08
100
AcDbXrecord
280
     1
102
SHADEPLOT
 70
     0
102
SHADEPLOTRESLEVEL
 70
     2
102
SHADEPLOTCUSTOMDPI
 70
   300
  0
XRECORD
  5
DB0B
102
{ACAD_REACTORS
330
DB0A
102
}
330
DB0A
100
AcDbXrecord
280
     1
102
SHADEPLOT
 70
     0
102
SHADEPLOTRESLEVEL
 70
     2
102
SHADEPLOTCUSTOMDPI
 70
   300
  0
XRECORD
  5
DB0D
102
{ACAD_REACTORS
330
DB0C
102
}
330
DB0C
100
AcDbXrecord
280
     1
102
SHADEPLOT
 70
     0
102
SHADEPLOTRESLEVEL
 70
     2
102
SHADEPLOTCUSTOMDPI
 70
   300
  0
XRECORD
  5
DAD5
102
{ACAD_REACTORS
330
DAD4
102
}
330
DAD4
100
AcDbXrecord
280
     1
102
ACAD_ROUNDTRIP_PRE2007_TABLESTYLE
 90
        4
 91
        0
  1

 92
        4
 93
        0
  2

 94
        4
 95
        0
  3

  0
ENDSEC
  0
EOF
