  0
SECTION
  2
HEADER
  9
$ACADVER
  1
AC1027
  9
$ACADMAINTVER
 70
   105
  9
$DWGCODEPAGE
  3
ANSI_932
  9
$REQUIREDVERSIONS
160
                 0
  9
$LASTSAVEDBY
  1
G1032U
  9
$CUSTOMPROPERTYTAG
  1
AmdtFileType
  9
$CUSTOMPROPERTY
  1
84
  9
$INSBASE
 10
0.0
 20
0.0
 30
0.0
  9
$EXTMIN
 10
0.0
 20
-0.0000000000000426
 30
0.0
  9
$EXTMAX
 10
297.0
 20
210.0
 30
0.0
  9
$LIMMIN
 10
0.0
 20
0.0
  9
$LIMMAX
 10
297.0
 20
210.0
  9
$ORTHOMODE
 70
     0
  9
$REGENMODE
 70
     1
  9
$FILLMODE
 70
     1
  9
$QTEXTMODE
 70
     0
  9
$MIRRTEXT
 70
     0
  9
$LTSCALE
 40
1.0
  9
$ATTMODE
 70
     1
  9
$TEXTSIZE
 40
3.2
  9
$TRACEWID
 40
1.0
  9
$TEXTSTYLE
  7
STANDARD
  9
$CLAYER
  8
AM_5
  9
$CELTYPE
  6
ByLayer
  9
$CECOLOR
 62
   256
  9
$CELTSCALE
 40
1.0
  9
$DISPSILH
 70
     0
  9
$DIMSCALE
 40
1.0
  9
$DIMASZ
 40
2.5
  9
$DIMEXO
 40
1.0
  9
$DIMDLI
 40
10.0
  9
$DIMRND
 40
0.0
  9
$DIMDLE
 40
0.0
  9
$DIMEXE
 40
1.0
  9
$DIMTP
 40
0.1
  9
$DIMTM
 40
0.1
  9
$DIMTXT
 40
3.5
  9
$DIMCEN
 40
0.0
  9
$DIMTSZ
 40
0.0
  9
$DIMTOL
 70
     0
  9
$DIMLIM
 70
     0
  9
$DIMTIH
 70
     0
  9
$DIMTOH
 70
     0
  9
$DIMSE1
 70
     0
  9
$DIMSE2
 70
     0
  9
$DIMTAD
 70
     1
  9
$DIMZIN
 70
     8
  9
$DIMBLK
  1

  9
$DIMASO
 70
     1
  9
$DIMSHO
 70
     1
  9
$DIMPOST
  1

  9
$DIMAPOST
  1
"
  9
$DIMALT
 70
     0
  9
$DIMALTD
 70
     2
  9
$DIMALTF
 40
0.0393701
  9
$DIMLFAC
 40
1.0
  9
$DIMTOFL
 70
     1
  9
$DIMTVP
 40
0.0
  9
$DIMTIX
 70
     0
  9
$DIMSOXD
 70
     0
  9
$DIMSAH
 70
     0
  9
$DIMBLK1
  1

  9
$DIMBLK2
  1

  9
$DIMSTYLE
  2
SYS
  9
$DIMCLRD
 70
   256
  9
$DIMCLRE
 70
   256
  9
$DIMCLRT
 70
     7
  9
$DIMTFAC
 40
0.71
  9
$DIMGAP
 40
1.5
  9
$DIMJUST
 70
     0
  9
$DIMSD1
 70
     0
  9
$DIMSD2
 70
     0
  9
$DIMTOLJ
 70
     0
  9
$DIMTZIN
 70
     8
  9
$DIMALTZ
 70
     0
  9
$DIMALTTZ
 70
     0
  9
$DIMUPT
 70
     0
  9
$DIMDEC
 70
     2
  9
$DIMTDEC
 70
     3
  9
$DIMALTU
 70
     2
  9
$DIMALTTD
 70
     4
  9
$DIMTXSTY
  7
STANDARD
  9
$DIMAUNIT
 70
     0
  9
$DIMADEC
 70
     0
  9
$DIMALTRND
 40
0.0
  9
$DIMAZIN
 70
     2
  9
$DIMDSEP
 70
    46
  9
$DIMATFIT
 70
     3
  9
$DIMFRAC
 70
     0
  9
$DIMLDRBLK
  1

  9
$DIMLUNIT
 70
     2
  9
$DIMLWD
 70
    -1
  9
$DIMLWE
 70
    -1
  9
$DIMTMOVE
 70
     0
  9
$DIMFXL
 40
1.0
  9
$DIMFXLON
 70
     0
  9
$DIMJOGANG
 40
0.7853981633974483
  9
$DIMTFILL
 70
     0
  9
$DIMTFILLCLR
 70
     0
  9
$DIMARCSYM
 70
     0
  9
$DIMLTYPE
  6

  9
$DIMLTEX1
  6

  9
$DIMLTEX2
  6

  9
$DIMTXTDIRECTION
 70
     0
  9
$LUNITS
 70
     2
  9
$LUPREC
 70
     2
  9
$SKETCHINC
 40
1.0
  9
$FILLETRAD
 40
2.0
  9
$AUNITS
 70
     0
  9
$AUPREC
 70
     0
  9
$MENU
  1
.
  9
$ELEVATION
 40
0.0
  9
$PELEVATION
 40
0.0
  9
$THICKNESS
 40
0.0
  9
$LIMCHECK
 70
     0
  9
$CHAMFERA
 40
0.0
  9
$CHAMFERB
 40
0.0
  9
$CHAMFERC
 40
20.0
  9
$CHAMFERD
 40
0.0
  9
$SKPOLY
 70
     0
  9
$TDCREATE
 40
2452002.615067627
  9
$TDUCREATE
 40
2452002.240067627
  9
$TDUPDATE
 40
2459872.455773067
  9
$TDUUPDATE
 40
2459872.080773067
  9
$TDINDWG
 40
4.480699456
  9
$TDUSRTIMER
 40
4.4806535185
  9
$USRTIMER
 70
     1
  9
$ANGBASE
 50
0.0
  9
$ANGDIR
 70
     0
  9
$PDMODE
 70
     0
  9
$PDSIZE
 40
0.0
  9
$PLINEWID
 40
0.0
  9
$SPLFRAME
 70
     0
  9
$SPLINETYPE
 70
     6
  9
$SPLINESEGS
 70
     8
  9
$HANDSEED
  5
13722
  9
$SURFTAB1
 70
     6
  9
$SURFTAB2
 70
     6
  9
$SURFTYPE
 70
     6
  9
$SURFU
 70
     6
  9
$SURFV
 70
     6
  9
$UCSBASE
  2

  9
$UCSNAME
  2

  9
$UCSORG
 10
0.0
 20
0.0
 30
0.0
  9
$UCSXDIR
 10
1.0
 20
0.0
 30
0.0
  9
$UCSYDIR
 10
0.0
 20
1.0
 30
0.0
  9
$UCSORTHOREF
  2

  9
$UCSORTHOVIEW
 70
     0
  9
$UCSORGTOP
 10
0.0
 20
0.0
 30
0.0
  9
$UCSORGBOTTOM
 10
0.0
 20
0.0
 30
0.0
  9
$UCSORGLEFT
 10
0.0
 20
0.0
 30
0.0
  9
$UCSORGRIGHT
 10
0.0
 20
0.0
 30
0.0
  9
$UCSORGFRONT
 10
0.0
 20
0.0
 30
0.0
  9
$UCSORGBACK
 10
0.0
 20
0.0
 30
0.0
  9
$PUCSBASE
  2

  9
$PUCSNAME
  2

  9
$PUCSORG
 10
0.0
 20
0.0
 30
0.0
  9
$PUCSXDIR
 10
1.0
 20
0.0
 30
0.0
  9
$PUCSYDIR
 10
0.0
 20
1.0
 30
0.0
  9
$PUCSORTHOREF
  2

  9
$PUCSORTHOVIEW
 70
     0
  9
$PUCSORGTOP
 10
0.0
 20
0.0
 30
0.0
  9
$PUCSORGBOTTOM
 10
0.0
 20
0.0
 30
0.0
  9
$PUCSORGLEFT
 10
0.0
 20
0.0
 30
0.0
  9
$PUCSORGRIGHT
 10
0.0
 20
0.0
 30
0.0
  9
$PUCSORGFRONT
 10
0.0
 20
0.0
 30
0.0
  9
$PUCSORGBACK
 10
0.0
 20
0.0
 30
0.0
  9
$USERI1
 70
     0
  9
$USERI2
 70
     0
  9
$USERI3
 70
     0
  9
$USERI4
 70
     0
  9
$USERI5
 70
     0
  9
$USERR1
 40
0.0
  9
$USERR2
 40
0.0
  9
$USERR3
 40
0.0
  9
$USERR4
 40
0.0
  9
$USERR5
 40
0.0
  9
$WORLDVIEW
 70
     1
  9
$SHADEDGE
 70
     3
  9
$SHADEDIF
 70
    70
  9
$TILEMODE
 70
     1
  9
$MAXACTVP
 70
    64
  9
$PINSBASE
 10
0.0
 20
0.0
 30
0.0
  9
$PLIMCHECK
 70
     0
  9
$PEXTMIN
 10
1.000000000000000E+20
 20
1.000000000000000E+20
 30
1.000000000000000E+20
  9
$PEXTMAX
 10
-1.000000000000000E+20
 20
-1.000000000000000E+20
 30
-1.000000000000000E+20
  9
$PLIMMIN
 10
-3.17498779296875
 20
-3.174999952316284
  9
$PLIMMAX
 10
293.4970092773438
 20
206.692492723465
  9
$UNITMODE
 70
     0
  9
$VISRETAIN
 70
     1
  9
$PLINEGEN
 70
     0
  9
$PSLTSCALE
 70
     1
  9
$TREEDEPTH
 70
  3020
  9
$CMLSTYLE
  2
Standard
  9
$CMLJUST
 70
     0
  9
$CMLSCALE
 40
20.0
  9
$PROXYGRAPHICS
 70
     1
  9
$MEASUREMENT
 70
     1
  9
$CELWEIGHT
370
    -1
  9
$ENDCAPS
280
     0
  9
$JOINSTYLE
280
     0
  9
$LWDISPLAY
290
     1
  9
$INSUNITS
 70
     4
  9
$HYPERLINKBASE
  1

  9
$STYLESHEET
  1
monochrome.ctb
  9
$XEDIT
290
     1
  9
$CEPSNTYPE
380
     0
  9
$PSTYLEMODE
290
     1
  9
$FINGERPRINTGUID
  2
{83FB3AA1-FF18-4BFE-AFE0-611B71DE056D}
  9
$VERSIONGUID
  2
{6184CAE3-8FBE-476F-9827-67D04AF973A0}
  9
$EXTNAMES
290
     1
  9
$PSVPSCALE
 40
0.0
  9
$OLESTARTUP
290
     0
  9
$SORTENTS
280
   127
  9
$INDEXCTL
280
     0
  9
$HIDETEXT
280
     0
  9
$XCLIPFRAME
280
     0
  9
$HALOGAP
280
     0
  9
$OBSCOLOR
 70
   257
  9
$OBSLTYPE
280
     0
  9
$INTERSECTIONDISPLAY
280
     0
  9
$INTERSECTIONCOLOR
 70
   257
  9
$DIMASSOC
280
     2
  9
$PROJECTNAME
  1

  9
$CAMERADISPLAY
290
     0
  9
$LENSLENGTH
 40
50.0
  9
$CAMERAHEIGHT
 40
0.0
  9
$STEPSPERSEC
 40
2.0
  9
$STEPSIZE
 40
6.0
  9
$3DDWFPREC
 40
2.0
  9
$PSOLWIDTH
 40
0.25
  9
$PSOLHEIGHT
 40
4.0
  9
$LOFTANG1
 40
1.570796326794897
  9
$LOFTANG2
 40
1.570796326794897
  9
$LOFTMAG1
 40
0.0
  9
$LOFTMAG2
 40
0.0
  9
$LOFTPARAM
 70
     7
  9
$LOFTNORMALS
280
     1
  9
$LATITUDE
 40
37.795
  9
$LONGITUDE
 40
-122.394
  9
$NORTHDIRECTION
 40
0.0
  9
$TIMEZONE
 70
 -8000
  9
$LIGHTGLYPHDISPLAY
280
     1
  9
$TILEMODELIGHTSYNCH
280
     1
  9
$CMATERIAL
347
C447
  9
$SOLIDHIST
280
     1
  9
$SHOWHIST
280
     1
  9
$DWFFRAME
280
     2
  9
$DGNFRAME
280
     0
  9
$REALWORLDSCALE
290
     1
  9
$INTERFERECOLOR
 62
     1
  9
$INTERFEREOBJVS
345
C454
  9
$INTERFEREVPVS
346
E577
  9
$CSHADOW
280
     0
  9
$SHADOWPLANELOCATION
 40
0.0
  0
ENDSEC
  0
SECTION
  2
CLASSES
  0
CLASS
  1
ACDBDICTIONARYWDFLT
  2
AcDbDictionaryWithDefault
  3
ObjectDBX Classes
 90
        0
 91
        4
280
     0
281
     0
  0
CLASS
  1
ACDBPLACEHOLDER
  2
AcDbPlaceHolder
  3
ObjectDBX Classes
 90
        0
 91
        1
280
     0
281
     0
  0
CLASS
  1
LAYOUT
  2
AcDbLayout
  3
ObjectDBX Classes
 90
        0
 91
        1
280
     0
281
     0
  0
CLASS
  1
AMGSETTINGSOBJ
  2
AmgSettingsObj
  3
AmgSettingsObj|...|...
 90
        0
 91
        4
280
     0
281
     0
  0
CLASS
  1
ACME_DOCUMENT
  2
AcMeDbDoc
  3
AcMeServices
 90
     1024
 91
        1
280
     1
281
     0
  0
CLASS
  1
ACMESCOPE
  2
AcMeScope
  3
AcMeScope|...|...
 90
        0
 91
        4
280
     0
281
     0
  0
CLASS
  1
ACMECOMMANDHISTORY
  2
AcMeCommandHistory
  3
AcMeServices
 90
     1024
 91
        1
280
     1
281
     0
  0
CLASS
  1
DICTIONARYVAR
  2
AcDbDictionaryVar
  3
ObjectDBX Classes
 90
        0
 91
        4
280
     0
281
     0
  0
CLASS
  1
ACIMSYSVARMAN
  2
AcImSysVarManager
  3
AcImSysVarManager|...|...
 90
        0
 91
        4
280
     0
281
     0
  0
CLASS
  1
ACIMREALSYSVAR
  2
AcImRealSysVar
  3
AcMeServices
 90
     1024
 91
       17
280
     1
281
     0
  0
CLASS
  1
ACIMINTSYSVAR
  2
AcImIntSysVar
  3
AcImIntSysVar|...|...
 90
        0
 91
        4
280
     0
281
     0
  0
CLASS
  1
ACMEDRAWINGMAN
  2
AcMeDrawingMan
  3
AcMeServices
 90
     1024
 91
        1
280
     1
281
     0
  0
CLASS
  1
ACMEVIEW
  2
AcMeView
  3
AcMeServices
 90
     1024
 91
        1
280
     1
281
     0
  0
CLASS
  1
ACDBENTITYCACHE
  2
AcMeEntityCache
  3
AcMeServices
 90
     1024
 91
        1
280
     1
281
     0
  0
CLASS
  1
GSMANAGER
  2
AcMeGSManager
  3
AcMeServices
 90
        0
 91
        1
280
     1
281
     0
  0
CLASS
  1
AMDTINTERNALREACTOR
  2
AmdtInternalReactor
  3
AcMeServices
 90
     1024
 91
        1
280
     1
281
     0
  0
CLASS
  1
ACMESTATEMGR
  2
AcMeStateMgr
  3
AcMeStateMgr|...|...
 90
        0
 91
        4
280
     0
281
     0
  0
CLASS
  1
ACGREFMASTER
  2
AcGrefMaster
  3
AcAttribServices
 90
     1024
 91
        2
280
     1
281
     0
  0
CLASS
  1
ACME_DATABASE
  2
AcMeDbDatabase
  3
AcMeServices
 90
     1024
 91
        1
280
     1
281
     0
  0
CLASS
  1
ACRFINSADJUSTERMGR
  2
AcRfInsAdjusterMgr
  3
AcMeServices
 90
     1024
 91
        1
280
     1
281
     0
  0
CLASS
  1
ACGREFACADMASTER
  2
AcGrefacadMaster
  3
AcGrefServices
 90
     1024
 91
        2
280
     1
281
     0
  0
CLASS
  1
AMIMASTER
  2
AmiMaster
  3
AmiServices
 90
     1024
 91
        2
280
     1
281
     0
  0
CLASS
  1
ACMDATADICTIONARY
  2
AcmDataDictionary
  3
AcmDataDictionary|...|...
 90
        0
 91
        4
280
     0
281
     0
  0
CLASS
  1
ACMDATAENTRYBLOCK
  2
AcmDataEntryBlock
  3
AcmDataEntryBlock|...|...
 90
        0
 91
        4
280
     0
281
     0
  0
CLASS
  1
ACIMSTRSYSVAR
  2
AcImStrSysVar
  3
AcImStrSysVar|...|...
 90
        0
 91
        4
280
     0
281
     0
  0
CLASS
  1
ACMSTANDARDISO
  2
AcmStandardISO
  3
AcmStandardISO|...|...
 90
        0
 91
        6
280
     0
281
     0
  0
CLASS
  1
AMGOBJPROPCFG
  2
AmgObjPropCfg
  3
AmgObjPropCfg|...|...
 90
        0
 91
        4
280
     0
281
     0
  0
CLASS
  1
AMDTEDGESTANDARDISO
  2
AmdtEdgeStdISO
  3
AmdtEdgeStdISO|...|...
 90
        0
 91
        6
280
     0
281
     0
  0
CLASS
  1
ACMSURFSTANDARDISO
  2
AcmSurfTextStdISO
  3
AcmSurfTextStdISO|...|...
 90
        0
 91
        8
280
     0
281
     0
  0
CLASS
  1
ACMFCFSTANDARDISO
  2
AcmFCFStdISO
  3
AcmFCFStdISO|...|...
 90
        0
 91
        7
280
     0
281
     0
  0
CLASS
  1
ACMWELDSTANDARDISO
  2
AcmWeldingStdISO
  3
AcmWeldingStdISO|...|...
 90
        0
 91
        8
280
     0
281
     0
  0
CLASS
  1
ACMIDSTANDARDISO
  2
AcmIdStdISO
  3
AcmIdStdISO|...|...
 90
        0
 91
        8
280
     0
281
     0
  0
CLASS
  1
ACMDATUMSTANDARDISO
  2
AcmDatumStdISO
  3
AcmDatumStdISO|...|...
 90
        0
 91
        9
280
     0
281
     0
  0
CLASS
  1
ACMBOMSTANDARDISO
  2
AcmBOMStdISO
  3
AcmBOMStdISO|...|...
 90
        0
 91
        6
280
     0
281
     0
  0
CLASS
  1
ACMDETAILSTANDARDISO
  2
AmdtDetailSymStdISO
  3
AmdtDetailSymStdISO|...|...
 90
        0
 91
        4
280
     0
281
     0
  0
CLASS
  1
ACMSECTIONSTANDARDISO
  2
AmdtSectionSymStdISO
  3
AmdtSectionSymStdISO|...|...
 90
        0
 91
        5
280
     0
281
     0
  0
CLASS
  1
ACMCENTERLINESTANDARDISO
  2
AmdtCenterLineStdISO
  3
AmdtCenterLineStdISO|...|...
 90
        0
 91
        4
280
     0
281
     0
  0
CLASS
  1
ACAMGLAYSTD
  2
AcAmgLayStd
  3
AcAmgLayStd|...|...
 90
        0
 91
        4
280
     0
281
     0
  0
CLASS
  1
ACAMGDIMSTD
  2
AcAmgDimStd
  3
AcAmgDimStd|...|...
 90
        0
 91
        4
280
     0
281
     0
  0
CLASS
  1
ACAMGTITLESTD
  2
AcAmgTitleStd
  3
AcAmgTitleStd|...|...
 90
        0
 91
        4
280
     0
281
     0
  0
CLASS
  1
ACAMGFILTERDAT
  2
AcAmgFilterDat
  3
"AcadM|Product Description: AutoCAD Mechanical|Company: Autodesk, Inc."
 90
     1024
 91
        7
280
     1
281
     0
  0
CLASS
  1
LAYER_INDEX
  2
AcDbLayerIndex
  3
ObjectDBX Classes
 90
        0
 91
        4
280
     0
281
     0
  0
CLASS
  1
IDBUFFER
  2
AcDbIdBuffer
  3
ObjectDBX Classes
 90
        0
 91
        4
280
     0
281
     0
  0
CLASS
  1
PLOTSETTINGS
  2
AcDbPlotSettings
  3
ObjectDBX Classes
 90
        0
 91
        4
280
     0
281
     0
  0
CLASS
  1
AMDTFORMULAUPDATEDISPATCHER
  2
AmdtFormulaUpdateDispatcher
  3
AcMeServices
 90
     1024
 91
        2
280
     1
281
     0
  0
CLASS
  1
ACMSTANDARDANSI
  2
AcmStandardANSI
  3
AcmStandardANSI|...|...
 90
        0
 91
        4
280
     0
281
     0
  0
CLASS
  1
ACMSURFSTANDARDANSI
  2
AcmSurfTextStdANSI
  3
AcmSurfTextStdANSI|...|...
 90
        0
 91
        4
280
     0
281
     0
  0
CLASS
  1
ACMFCFSTANDARDANSI
  2
AcmFCFStdANSI
  3
AcmFCFStdANSI|...|...
 90
        0
 91
        5
280
     0
281
     0
  0
CLASS
  1
ACMWELDSTANDARDANSI
  2
AcmWeldingStdANSI
  3
AcmWeldingStdANSI|...|...
 90
        0
 91
        4
280
     0
281
     0
  0
CLASS
  1
ACMIDSTANDARDANSI
  2
AcmIdStdANSI
  3
AcmIdStdANSI|...|...
 90
        0
 91
        5
280
     0
281
     0
  0
CLASS
  1
ACMDATUMSTANDARDANSI
  2
AcmDatumStdANSI
  3
AcmDatumStdANSI|...|...
 90
        0
 91
        4
280
     0
281
     0
  0
CLASS
  1
ACMBOMSTANDARDANSI
  2
AcmBOMStdANSI
  3
AcmBOMStdANSI|...|...
 90
        0
 91
        4
280
     0
281
     0
  0
CLASS
  1
ACMDETAILSTANDARDANSI
  2
AmdtDetailSymStdANSI
  3
AmdtDetailSymStdANSI|...|...
 90
        0
 91
        4
280
     0
281
     0
  0
CLASS
  1
ACMSECTIONSTANDARDANSI
  2
AmdtSectionSymStdANSI
  3
AmdtSectionSymStdANSI|...|...
 90
        0
 91
        4
280
     0
281
     0
  0
CLASS
  1
ACMCENTERLINESTANDARDANSI
  2
AmdtCenterLineStdANSI
  3
AmdtCenterLineStdANSI|...|...
 90
        0
 91
        4
280
     0
281
     0
  0
CLASS
  1
ACMBOM
  2
AcmBom
  3
AcmBom|...|...
 90
        0
 91
        4
280
     0
281
     0
  0
CLASS
  1
ACMDATAENTRYPART
  2
AcmDataEntryPart
  3
AcmDataEntryPart|...|...
 90
        0
 91
        4
280
     0
281
     0
  0
CLASS
  1
ACMPARTREF
  2
AcmPartRef
  3
AcmPartRef|...|...
 90
        0
 91
        4
280
     0
281
     1
  0
CLASS
  1
ACDBCIRCARCRES
  2
AcDbCircArcRes
  3
AcDbCircArcRes|...|...
 90
        0
 91
        5
280
     0
281
     0
  0
CLASS
  1
ACMBOMROW
  2
AcmBomRow
  3
AcmBomRow|...|...
 90
        0
 91
        4
280
     0
281
     0
  0
CLASS
  1
ACMBALLOON
  2
AcmBalloon
  3
AcmBalloon|...|...
 90
        0
 91
        4
280
     0
281
     1
  0
CLASS
  1
AMDTNOTE
  2
AmdtNote
  3
AmdtNote|...|...
 90
        0
 91
        4
280
     0
281
     1
  0
CLASS
  1
STDPART2D
  2
AmgStdPart
  3
AmgStdPart|...|...
 90
        0
 91
        4
280
     0
281
     1
  0
CLASS
  1
ACDBSTDPARTRES_LINE
  2
AcDbStdPartRes_Line
  3
AcDbStdPartRes_Line|...|...
 90
        0
 91
        4
280
     0
281
     0
  0
CLASS
  1
ACMDATAENTRY
  2
AcmDataEntry
  3
AcmDataEntry|...|...
 90
        0
 91
        6
280
     0
281
     0
  0
CLASS
  1
ACDBOPPOLYLINERES
  2
AcDbOpPolylineRes
  3
AcDbOpPolylineRes|...|...
 90
        0
 91
        4
280
     0
281
     0
  0
CLASS
  1
ACMPARTLIST
  2
AcmPartList
  3
AcmPartList|...|...
 90
        0
 91
        4
280
     0
281
     1
  0
CLASS
  1
ACDBLINERES
  2
AcDbLineRes
  3
AcDbLineRes|...|...
 90
        0
 91
        5
280
     0
281
     0
  0
CLASS
  1
ACRFINSADJ
  2
AcRfInsAdjuster
  3
AcRfInsAdjuster|...|...
 90
        0
 91
        5
280
     0
281
     0
  0
CLASS
  1
AM_DRAWING_MGR
  2
AcDmDwgMgr
  3
AcMechDwgViewMgmt
 90
     1024
 91
        1
280
     1
281
     0
  0
CLASS
  1
AM_DWG_DOCUMENT
  2
AcDmDwgDocument
  3
AcMechDwgViewMgmt
 90
     1024
 91
        1
280
     1
281
     0
  0
CLASS
  1
AM_DWG_SHEET
  2
AcDmSheet
  3
AcMechDwgViewMgmt
 90
     1024
 91
        1
280
     1
281
     0
  0
CLASS
  1
AM_VIEWDIMPARMAP
  2
AcDmViewDimParMap
  3
AcMechDwgViewMgmt
 90
     1024
 91
        1
280
     1
281
     0
  0
CLASS
  1
AM_DWGMGR_NAME
  2
AcDmDwgMgrName
  3
AcMechDwgViewMgmt
 90
     1024
 91
        1
280
     1
281
     0
  0
CLASS
  1
AMDTMENUSTATEMGR
  2
AmdtMenuStateMgr
  3
McadcomServices
 90
     1024
 91
        1
280
     1
281
     0
  0
CLASS
  1
AMDTMCOMMENUSTATE
  2
AmdtMcomMenuState
  3
McadcomServices
 90
     1024
 91
        1
280
     1
281
     0
  0
CLASS
  1
ASAPP
  2
AcAsAppObject
  3
AutoSurfServices
 90
        0
 91
        2
280
     1
281
     0
  0
CLASS
  1
IM_STATIC_MAN
  2
AcImStaticVarManager
  3
AcMeServices
 90
     1024
 91
        2
280
     1
281
     0
  0
CLASS
  1
ACIMDBLSTATICVAR
  2
AcImDblStaticVar
  3
AcMeServices
 90
     1024
 91
       21
280
     1
281
     0
  0
CLASS
  1
ACIMSTRSTATICVAR
  2
AcImStrStaticVar
  3
AcMeServices
 90
     1024
 91
       13
280
     1
281
     0
  0
CLASS
  1
ACIMINTSTATICVAR
  2
AcImIntStaticVar
  3
AcMeServices
 90
     1024
 91
       18
280
     1
281
     0
  0
CLASS
  1
ACASGREFMASTER
  2
AcAsGrefMaster
  3
AutoSurfResolverServices
 90
        0
 91
        2
280
     1
281
     0
  0
CLASS
  1
ACADGREFMODULE
  2
AcAdGrefModule
  3
AdGrefServices
 90
        0
 91
        2
280
     1
281
     0
  0
CLASS
  1
AMDTMAPISURFMOUDULE
  2
AmdtMApiSurfModule
  3
MApiSurfServices
 90
        0
 91
        2
280
     1
281
     0
  0
CLASS
  1
MAPIAMMOUDLE
  2
MApiAmModule
  3
MApiAmServices
 90
     1024
 91
        1
280
     1
281
     0
  0
CLASS
  1
AMDTADMENUSTATE
  2
AmdtAdMenuState
  3
DesignerServices
 90
        0
 91
        1
280
     1
281
     0
  0
CLASS
  1
ADAPPL
  2
AcAdAppl
  3
DesignerAssemblies
 90
     1024
 91
        1
280
     1
281
     0
  0
CLASS
  1
DEPMGR
  2
AcAdDepMgr
  3
DesignerAssemblies
 90
     1024
 91
        1
280
     1
281
     0
  0
CLASS
  1
PARAMMGR
  2
AcAdParamMgr
  3
DesignerAssemblies
 90
     1024
 91
        1
280
     1
281
     0
  0
CLASS
  1
PARAMSCOPE
  2
AcAdParamScope
  3
DesignerAssemblies
 90
     1024
 91
        1
280
     1
281
     0
  0
CLASS
  1
NAMEDAPPL
  2
AcAdNamedAppl
  3
DesignerAssemblies
 90
     1024
 91
        1
280
     1
281
     0
  0
CLASS
  1
ADHNTMPLT
  2
AdHoleNoteTemplateMgr
  3
DesignerServices
 90
        0
 91
        1
280
     1
281
     0
  0
CLASS
  1
AM_HNTEMPLATE_MGR_NAME
  2
AdHoleNoteTemplateMgrName
  3
DesignerServices
 90
        0
 91
        1
280
     1
281
     0
  0
CLASS
  1
AMDTDMMENUSTATE
  2
AmdtDmMenuState
  3
AcMechDwgViewMgmt
 90
        0
 91
        1
280
     1
281
     0
  0
CLASS
  1
MAPIADMODULE
  2
MApiAdModule
  3
MApiAdServices
 90
        0
 91
        2
280
     1
281
     0
  0
CLASS
  1
AMDTAMMENUSTATE
  2
AmdtAmMenuState
  3
DesignerAssemblies
 90
     1024
 91
        1
280
     1
281
     0
  0
CLASS
  1
ACAMPROJECT
  2
AcAmProject
  3
AcAmProject|...|...
 90
        0
 91
        4
280
     0
281
     0
  0
CLASS
  1
ACAMGRCOMPDEF
  2
AcAmGrCompDef
  3
AcAmGrCompDef|...|...
 90
        0
 91
        4
280
     0
281
     0
  0
CLASS
  1
ACCMCONTEXT
  2
AcCmContext
  3
DesignerAssemblies
 90
     1024
 91
        2
280
     1
281
     0
  0
CLASS
  1
ACAMCOMPDEF
  2
AcAmCompDef
  3
AcAmCompDef|...|...
 90
        0
 91
        4
280
     0
281
     0
  0
CLASS
  1
ACAMCOMPDEFMGR
  2
AcAmCompDefMgr
  3
AcAmCompDefMgr|...|...
 90
        0
 91
        4
280
     0
281
     0
  0
CLASS
  1
ACAMCONTEXTMGR
  2
AcAmContextMgr
  3
AcAmContextMgr|...|...
 90
        0
 91
        4
280
     0
281
     0
  0
CLASS
  1
ACAMCONTEXTMODELER
  2
AcAmContextModeler
  3
AcAmContextModeler|...|...
 90
        0
 91
        4
280
     0
281
     0
  0
CLASS
  1
CATALOGSTATE
  2
AcAmCatalogState
  3
DesignerAssemblies
 90
     1024
 91
        1
280
     1
281
     0
  0
CLASS
  1
ACAMGRCOMPDEFSET
  2
AcAmGrCompDefSet
  3
DesignerAssemblies
 90
     1024
 91
        1
280
     1
281
     0
  0
CLASS
  1
AMDTBROWSERDBTAB
  2
AmdtBrowserDbTab
  3
McadcomServices
 90
     1024
 91
        1
280
     1
281
     0
  0
CLASS
  1
CBROWSERAPPOBJECT
  2
CBrowserAppObject
  3
McadcomServices
 90
     1024
 91
        1
280
     1
281
     0
  0
CLASS
  1
DM_PLACEHOLDER
  2
AcDmSelsetPlaceholder
  3
McadcomServices
 90
     1024
 91
        1
280
     1
281
     0
  0
CLASS
  1
ACMPICKOBJ
  2
AcmPickEnt
  3
"AcmSymBB|Product Description: AutoCAD Mechanical|Company: Autodesk, Inc."
 90
     1024
 91
        1
280
     1
281
     1
  0
CLASS
  1
MATERIAL
  2
AcDbMaterial
  3
ObjectDBX Classes
 90
     1153
 91
        4
280
     0
281
     0
  0
CLASS
  1
VISUALSTYLE
  2
AcDbVisualStyle
  3
ObjectDBX Classes
 90
     4095
 91
        4
280
     0
281
     0
  0
CLASS
  1
TABLESTYLE
  2
AcDbTableStyle
  3
ObjectDBX Classes
 90
     4095
 91
        4
280
     0
281
     0
  0
CLASS
  1
ACRFATTGENMGR
  2
AcRfAttGeneralMgr
  3
AcAttribServices
 90
     1024
 91
        2
280
     1
281
     0
  0
CLASS
  1
ACRFOBJATTMGR
  2
AcRfObjAttGroupMgr
  3
AcAttribServices
 90
     1024
 91
        2
280
     1
281
     0
  0
CLASS
  1
ACRFMCADAPIATTHOLDER
  2
AcRfMCADAPIAttHolder
  3
AcAttribServices
 90
     1024
 91
        2
280
     1
281
     0
  0
CLASS
  1
AMDTSYSATTR
  2
AmdtSystemAttribute
  3
AmdtSystemAttribute|...|...
 90
        0
 91
        4
280
     0
281
     0
  0
CLASS
  1
ACMTHREADLINESTANDARDISO
  2
AmdtThreadLineStdISO
  3
AmdtThreadLineStdISO|...|...
 90
        0
 91
        4
280
     0
281
     0
  0
CLASS
  1
ACMNOTESTANDARDISO
  2
AmdtNoteStdISO
  3
AmdtNoteStdISO|...|...
 90
        0
 91
        4
280
     0
281
     0
  0
CLASS
  1
AMDTNOTETEMPLATEDB
  2
AmdtNoteTemplateDB
  3
AmdtNoteTemplateDB|...|...
 90
        0
 91
        4
280
     0
281
     0
  0
CLASS
  1
ACMTAPERSTANDARDISO
  2
AcmTaperStdISO
  3
AcmTaperStdISO|...|...
 90
        0
 91
        7
280
     0
281
     0
  0
CLASS
  1
ACMTHREADLINESTANDARDANSI
  2
AmdtThreadLineStdANSI
  3
AmdtThreadLineStdANSI|...|...
 90
        0
 91
        4
280
     0
281
     0
  0
CLASS
  1
ACMNOTESTANDARDANSI
  2
AmdtNoteStdANSI
  3
AmdtNoteStdANSI|...|...
 90
        0
 91
        4
280
     0
281
     0
  0
CLASS
  1
ACMTAPERSTANDARDANSI
  2
AcmTaperStdANSI
  3
AcmTaperStdANSI|...|...
 90
        0
 91
        4
280
     0
281
     0
  0
CLASS
  1
CAMSSTRUCTBTNSTATE
  2
StructBtnState
  3
DesignerAssemblies
 90
     1024
 91
        1
280
     1
281
     0
  0
CLASS
  1
SORTENTSTABLE
  2
AcDbSortentsTable
  3
ObjectDBX Classes
 90
        0
 91
        4
280
     0
281
     0
  0
CLASS
  1
DIMASSOC
  2
AcDbDimAssoc
  3
"AcDbDimAssoc|Product Desc:     AcDim ARX App For Dimension|Company:          Autodesk, Inc.|WEB Address:      www.autodesk.com"
 90
        0
 91
        4
280
     0
281
     0
  0
CLASS
  1
SCALE
  2
AcDbScale
  3
ObjectDBX Classes
 90
     1153
 91
        4
280
     0
281
     0
  0
CLASS
  1
MLEADERSTYLE
  2
AcDbMLeaderStyle
  3
ACDB_MLEADERSTYLE_CLASS
 90
     4095
 91
        4
280
     0
281
     0
  0
CLASS
  1
ACDBSECTIONVIEWSTYLE
  2
AcDbSectionViewStyle
  3
ObjectDBX Classes
 90
     1025
 91
        4
280
     0
281
     0
  0
CLASS
  1
ACDBDETAILVIEWSTYLE
  2
AcDbDetailViewStyle
  3
ObjectDBX Classes
 90
     1025
 91
        4
280
     0
281
     0
  0
CLASS
  1
ACMANOOTATIONVIEWSTANDARDISO
  2
AmdtAnViewStdISO
  3
AmdtAnViewStdISO|...|...
 90
        0
 91
        4
280
     0
281
     0
  0
CLASS
  1
ACMANOOTATIONVIEWSTANDARDANSI
  2
AmdtAnViewStdANSI
  3
AmdtAnViewStdANSI|...|...
 90
        0
 91
        4
280
     0
281
     0
  0
CLASS
  1
EXACXREFPANELOBJECT
  2
ExAcXREFPanelObject
  3
EXAC_ESW
 90
     1025
 91
        1
280
     1
281
     0
  0
CLASS
  1
NPOCOLLECTION
  2
AcDbImpNonPersistentObjectsCollection
  3
ObjectDBX Classes
 90
     1153
 91
        1
280
     1
281
     0
  0
CLASS
  1
CELLSTYLEMAP
  2
AcDbCellStyleMap
  3
ObjectDBX Classes
 90
     1152
 91
        4
280
     0
281
     0
  0
CLASS
  1
LSSTROKEPATTERNCOMPONENT
  2
AcDbLSStrokePatternComponent
  3
AcDgnLS
 90
        0
 91
        5
280
     0
281
     0
  0
CLASS
  1
LSINTERNALCOMPONENT
  2
AcDbLSInternalComponent
  3
AcDgnLS
 90
        0
 91
        4
280
     0
281
     0
  0
CLASS
  1
ACMSECTIONSTANDARDCUSTOM
  2
AmdtSectionSymStdCustom
  3
AmdtSectionSymStdCustom|...|...
 90
        0
 91
        4
280
     0
281
     0
  0
CLASS
  1
ACMDETAILSTANDARDCUSTOM
  2
AmdtDetailSymStdCustom
  3
AmdtDetailSymStdCustom|...|...
 90
        0
 91
        4
280
     0
281
     0
  0
ENDSEC
  0
SECTION
  2
TABLES
  0
TABLE
  2
VPORT
  5
8
330
0
100
AcDbSymbolTable
 70
     1
  0
VPORT
  5
C444
330
8
100
AcDbSymbolTableRecord
100
AcDbViewportTableRecord
  2
*Active
 70
     0
 10
0.0
 20
0.0
 11
1.0
 21
1.0
 12
164.9897203947369
 22
98.42310855263153
 13
0.0
 23
0.0
 14
2.5
 24
2.5
 15
10.0
 25
10.0
 16
0.0
 26
0.0
 36
1.0
 17
0.0
 27
0.0
 37
0.0
 40
339.9298245614036
 41
2.007225433526012
 42
50.0
 43
-1370.695619172059
 44
-1370.695619172059
 50
0.0
 51
0.0
 71
    16
 72
   100
 73
     1
 74
     3
 75
     0
 76
     0
 77
     0
 78
     0
281
     0
 65
     0
110
0.0
120
0.0
130
0.0
111
1.0
121
0.0
131
0.0
112
0.0
122
1.0
132
0.0
 79
     0
146
0.0
348
C450
 60
     3
 61
     5
292
     1
282
     1
141
0.0
142
0.0
 63
   250
421
  3355443
1001
ACAD_NAV_VCDISPLAY
1070
     3
  0
ENDTAB
  0
TABLE
  2
LTYPE
  5
5
330
0
100
AcDbSymbolTable
 70
    21
  0
LTYPE
  5
14
330
5
100
AcDbSymbolTableRecord
100
AcDbLinetypeTableRecord
  2
ByBlock
 70
     0
  3

 72
    65
 73
     0
 40
0.0
  0
LTYPE
  5
15
330
5
100
AcDbSymbolTableRecord
100
AcDbLinetypeTableRecord
  2
ByLayer
 70
     0
  3

 72
    65
 73
     0
 40
0.0
  0
LTYPE
  5
16
330
5
100
AcDbSymbolTableRecord
100
AcDbLinetypeTableRecord
  2
Continuous
 70
     0
  3
Solid line
 72
    65
 73
     0
 40
0.0
  0
LTYPE
  5
4F
330
5
100
AcDbSymbolTableRecord
100
AcDbLinetypeTableRecord
  2
AM_ISO02W050
 70
     0
  3
__ __ __ __ __ __ __ __ __ __ __ __ __ __ __
 72
    65
 73
     2
 40
7.5
 49
6.0
 74
     0
 49
-1.5
 74
     0
  0
LTYPE
  5
52
330
5
100
AcDbSymbolTableRecord
100
AcDbLinetypeTableRecord
  2
Amconstr
 70
     0
  3
_______________________
 72
    65
 73
     2
 40
9999.0
 49
9999.0
 74
     0
 49
0.0
 74
     0
  0
LTYPE
  5
64
330
5
100
AcDbSymbolTableRecord
100
AcDbLinetypeTableRecord
  2
ACISOWELD
 70
     0
  3
_ _ _ _ _
 72
    65
 73
     2
 40
2.0
 49
2.0
 74
     0
 49
-1.0
 74
     0
  0
LTYPE
  5
65
330
5
100
AcDbSymbolTableRecord
100
AcDbLinetypeTableRecord
  2
ACISOTGB
 70
     0
  3
__ . . __ . .
 72
    65
 73
     6
 40
9.0
 49
4.0
 74
     0
 49
-1.0
 74
     0
 49
1.0
 74
     0
 49
-1.0
 74
     0
 49
1.0
 74
     0
 49
-1.0
 74
     0
  0
LTYPE
  5
66
330
5
100
AcDbSymbolTableRecord
100
AcDbLinetypeTableRecord
  2
ACISOTGL
 70
     0
  3
_ _ _ _ _
 72
    65
 73
     2
 40
3.0
 49
2.0
 74
     0
 49
-1.0
 74
     0
  0
LTYPE
  5
69
330
5
100
AcDbSymbolTableRecord
100
AcDbLinetypeTableRecord
  2
CENTER
 70
     0
  3
__ . __
 72
    65
 73
     4
 40
7.0
 49
4.0
 74
     0
 49
-1.0
 74
     0
 49
1.0
 74
     0
 49
-1.0
 74
     0
  0
LTYPE
  5
A6E
330
5
100
AcDbSymbolTableRecord
100
AcDbLinetypeTableRecord
  2
PHANTOM2
 70
     0
  3
Phantom (.5x) ___ _ _ ___ _ _ ___ _ _ ___ _ _
 72
    65
 73
     6
 40
31.75
 49
15.875
 74
     0
 49
-3.175
 74
     0
 49
3.175
 74
     0
 49
-3.175
 74
     0
 49
3.175
 74
     0
 49
-3.175
 74
     0
  0
LTYPE
  5
FA3
330
5
100
AcDbSymbolTableRecord
100
AcDbLinetypeTableRecord
  2
ACANSTGB
 70
     0
  3
__ . . __ . .
 72
    65
 73
     6
 40
0.35433070866
 49
0.15748031496
 74
     0
 49
-0.03937007874
 74
     0
 49
0.03937007874
 74
     0
 49
-0.03937007874
 74
     0
 49
0.03937007874
 74
     0
 49
-0.03937007874
 74
     0
  0
LTYPE
  5
FA4
330
5
100
AcDbSymbolTableRecord
100
AcDbLinetypeTableRecord
  2
ACANSTGL
 70
     0
  3
_ _ _ _ _
 72
    65
 73
     2
 40
0.11811023622
 49
0.07874015748
 74
     0
 49
-0.03937007874
 74
     0
  0
LTYPE
  5
4DED
330
5
100
AcDbSymbolTableRecord
100
AcDbLinetypeTableRecord
  2
中線
 70
     0
  3
___________________
 72
    65
 73
     2
 40
2.0
 49
1.0
 74
     0
 49
1.0
 74
     0
  0
LTYPE
  5
4DF6
330
5
100
AcDbSymbolTableRecord
100
AcDbLinetypeTableRecord
  2
細線
 70
     0
  3
___________________
 72
    65
 73
     2
 40
2.0
 49
1.0
 74
     0
 49
1.0
 74
     0
  0
LTYPE
  5
4DF7
330
5
100
AcDbSymbolTableRecord
100
AcDbLinetypeTableRecord
  2
太線
 70
     0
  3
___________________
 72
    65
 73
     2
 40
2.0
 49
1.0
 74
     0
 49
1.0
 74
     0
  0
LTYPE
  5
4EA7
330
5
100
AcDbSymbolTableRecord
100
AcDbLinetypeTableRecord
  2
文字
 70
     0
  3
_________________
 72
    65
 73
     2
 40
2.0
 49
1.0
 74
     0
 49
1.0
 74
     0
  0
LTYPE
  5
4EA9
330
5
100
AcDbSymbolTableRecord
100
AcDbLinetypeTableRecord
  2
寸法線
 70
     0
  3
________________
 72
    65
 73
     2
 40
2.0
 49
1.0
 74
     0
 49
1.0
 74
     0
  0
LTYPE
  5
4F12
330
5
100
AcDbSymbolTableRecord
100
AcDbLinetypeTableRecord
  2
ハッチング
 70
     0
  3
_________________
 72
    65
 73
     2
 40
2.0
 49
1.0
 74
     0
 49
1.0
 74
     0
  0
LTYPE
  5
5180
330
5
100
AcDbSymbolTableRecord
100
AcDbLinetypeTableRecord
  2
陰線1
 70
     0
  3
__ __ __ __
 72
    65
 73
     2
 40
4.0
 49
2.2
 74
     0
 49
-1.8
 74
     0
  0
LTYPE
  5
5182
330
5
100
AcDbSymbolTableRecord
100
AcDbLinetypeTableRecord
  2
切断線
 70
     0
  3
/\/-/\/-/\/-/\/-/\/-/\/
 72
    65
 73
     2
 40
11.0001
 49
0.0001
 74
     4
 75
   135
340
56
 46
0.04
 50
0.0
 44
0.0
 45
0.0
 49
-11.0
 74
     0
  0
LTYPE
  5
5183
330
5
100
AcDbSymbolTableRecord
100
AcDbLinetypeTableRecord
  2
想像線1
 70
     0
  3
__ __ __ _____ __ __ ____
 72
    65
 73
     6
 40
14.5
 49
6.0
 74
     0
 49
-1.5
 74
     0
 49
2.0
 74
     0
 49
-1.5
 74
     0
 49
2.0
 74
     0
 49
-1.5
 74
     0
  0
LTYPE
  5
5185
330
5
100
AcDbSymbolTableRecord
100
AcDbLinetypeTableRecord
  2
中心線1
 70
     0
  3
___ _ ___ _ ___
 72
    65
 73
     4
 40
18.0
 49
12.0
 74
     0
 49
-2.0
 74
     0
 49
2.0
 74
     0
 49
-2.0
 74
     0
  0
LTYPE
  5
5188
330
5
100
AcDbSymbolTableRecord
100
AcDbLinetypeTableRecord
  2
補助線
 70
     0
  3
______________
 72
    65
 73
     2
 40
2.0
 49
1.0
 74
     0
 49
1.0
 74
     0
  0
ENDTAB
  0
TABLE
  2
LAYER
  5
2
102
{ACAD_XDICTIONARY
360
3F95
102
}
330
0
100
AcDbSymbolTable
 70
    21
  0
LAYER
  5
10
102
{ACAD_XDICTIONARY
360
E663
102
}
330
2
100
AcDbSymbolTableRecord
100
AcDbLayerTableRecord
  2
0
 70
     0
 62
     7
  6
Continuous
370
    -3
390
F
347
C449
348
0
  0
LAYER
  5
6D1
330
2
100
AcDbSymbolTableRecord
100
AcDbLayerTableRecord
  2
Defpoints
 70
     0
 62
     7
  6
Continuous
290
     0
370
    -3
390
F
347
C449
348
0
  0
LAYER
  5
A46
102
{ACAD_XDICTIONARY
360
E665
102
}
330
2
100
AcDbSymbolTableRecord
100
AcDbLayerTableRecord
  2
size
 70
     0
 62
     5
  6
Continuous
290
     0
370
    30
390
F
347
C449
348
0
  0
LAYER
  5
A47
102
{ACAD_XDICTIONARY
360
E667
102
}
330
2
100
AcDbSymbolTableRecord
100
AcDbLayerTableRecord
  2
waku
 70
     0
 62
     7
  6
Continuous
370
    40
390
F
347
C449
348
0
  0
LAYER
  5
A48
102
{ACAD_XDICTIONARY
360
E669
102
}
330
2
100
AcDbSymbolTableRecord
100
AcDbLayerTableRecord
  2
AM_6
 70
     0
 62
     2
  6
文字
370
    20
390
F
347
C449
348
0
  0
LAYER
  5
3A31
102
{ACAD_XDICTIONARY
360
E66D
102
}
330
2
100
AcDbSymbolTableRecord
100
AcDbLayerTableRecord
  2
hyosen1
 70
     0
 62
     1
  6
Continuous
370
    30
390
F
347
C449
348
0
  0
LAYER
  5
5765
102
{ACAD_XDICTIONARY
360
E66F
102
}
330
2
100
AcDbSymbolTableRecord
100
AcDbLayerTableRecord
  2
hyomoji
 70
     0
 62
     2
  6
Continuous
370
    20
390
F
347
C449
348
0
  0
LAYER
  5
591A
102
{ACAD_XDICTIONARY
360
E671
102
}
330
2
100
AcDbSymbolTableRecord
100
AcDbLayerTableRecord
  2
hyosen2
 70
     0
 62
     1
  6
Continuous
370
    20
390
F
347
C449
348
0
  0
LAYER
  5
5F85
102
{ACAD_XDICTIONARY
360
E673
102
}
330
2
100
AcDbSymbolTableRecord
100
AcDbLayerTableRecord
  2
AM_0
 70
     0
 62
     7
  6
中線
370
    30
390
F
347
C449
348
0
  0
LAYER
  5
BFAA
102
{ACAD_XDICTIONARY
360
E67F
102
}
330
2
100
AcDbSymbolTableRecord
100
AcDbLayerTableRecord
  2
AM_2
 70
     0
 62
     1
  6
細線
370
    20
390
F
347
C449
348
0
  0
LAYER
  5
BFAB
102
{ACAD_XDICTIONARY
360
E681
102
}
330
2
100
AcDbSymbolTableRecord
100
AcDbLayerTableRecord
  2
AM_5
 70
     0
 62
     3
  6
寸法線
370
    18
390
F
347
C449
348
0
  0
LAYER
  5
BFAC
102
{ACAD_XDICTIONARY
360
E683
102
}
330
2
100
AcDbSymbolTableRecord
100
AcDbLayerTableRecord
  2
AM_7
 70
     0
 62
     4
  6
中心線1
370
    15
390
F
347
C449
348
0
  0
LAYER
  5
C7E8
102
{ACAD_XDICTIONARY
360
E687
102
}
330
2
100
AcDbSymbolTableRecord
100
AcDbLayerTableRecord
  2
AM_3
 70
     0
 62
     6
  6
陰線1
370
    20
390
F
347
C449
348
0
  0
LAYER
  5
13707
330
2
100
AcDbSymbolTableRecord
100
AcDbLayerTableRecord
  2
AM_CL
 70
     0
 62
     1
  6
Amconstr
370
    20
390
F
347
C449
348
0
1001
AcAecLayerStandard
1000

1000

  0
ENDTAB
  0
TABLE
  2
STYLE
  5
3
330
0
100
AcDbSymbolTable
 70
     7
  0
STYLE
  5
11
330
3
100
AcDbSymbolTableRecord
100
AcDbTextStyleTableRecord
  2
STANDARD
 70
     0
 40
0.0
 41
0.7
 50
0.0
 71
     0
 42
3.2
  3
romans.shx
  4
extfont.shx
  0
STYLE
  5
56
330
3
100
AcDbSymbolTableRecord
100
AcDbTextStyleTableRecord
  2

 70
     1
 40
0.0
 41
1.0
 50
0.0
 71
     0
 42
2.5
  3
ltypeshp.shx
  4

  0
STYLE
  5
58
330
3
100
AcDbSymbolTableRecord
100
AcDbTextStyleTableRecord
  2
ACISOTS
 70
     0
 40
1.0
 41
1.0
 50
0.0
 71
     0
 42
2.5
  3
isocp.shx
  4
extfont.shx
  0
STYLE
  5
63
330
3
100
AcDbSymbolTableRecord
100
AcDbTextStyleTableRecord
  2
ACISOGDT
 70
     0
 40
0.0
 41
1.0
 50
0.0
 71
     0
 42
2.5
  3
amgdt.shx
  4

  0
STYLE
  5
A74
330
3
100
AcDbSymbolTableRecord
100
AcDbTextStyleTableRecord
  2
DIM
 70
     0
 40
0.0
 41
1.0
 50
0.0
 71
     0
 42
2.5
  3
monotxt.shx
  4
extfont.shx
  0
STYLE
  5
FA7
330
3
100
AcDbSymbolTableRecord
100
AcDbTextStyleTableRecord
  2
ACANSTS
 70
     0
 40
1.0
 41
1.0
 50
0.0
 71
     0
 42
0.2
  3
romans.shx
  4
extfont.shx
  0
STYLE
  5
FA8
330
3
100
AcDbSymbolTableRecord
100
AcDbTextStyleTableRecord
  2
ACANSGDT
 70
     0
 40
0.0
 41
1.0
 50
0.0
 71
     0
 42
0.2
  3
amgdtans.shx
  4

  0
ENDTAB
  0
TABLE
  2
VIEW
  5
6
330
0
100
AcDbSymbolTable
 70
     6
  0
VIEW
  5
AE1
330
6
100
AcDbSymbolTableRecord
100
AcDbViewTableRecord
  2
AM_VIEW1
 70
     0
 40
105.0
 10
90.503120124805
 20
157.5
 41
181.00624024961
 11
0.0
 21
0.0
 31
1.0
 12
0.0
 22
0.0
 32
0.0
 42
50.0
 43
-1370.695619172059
 44
-1370.695619172059
 50
0.0
 71
    16
281
     0
 72
     0
 73
     0
348
C450
  0
VIEW
  5
AE2
330
6
100
AcDbSymbolTableRecord
100
AcDbViewTableRecord
  2
AM_VIEW2
 70
     0
 40
105.0
 10
206.496879875195
 20
157.5
 41
181.00624024961
 11
0.0
 21
0.0
 31
1.0
 12
0.0
 22
0.0
 32
0.0
 42
50.0
 43
-1370.695619172059
 44
-1370.695619172059
 50
0.0
 71
    16
281
     0
 72
     0
 73
     0
348
C450
  0
VIEW
  5
AE3
330
6
100
AcDbSymbolTableRecord
100
AcDbViewTableRecord
  2
AM_VIEW3
 70
     0
 40
105.0
 10
90.503120124805
 20
52.50000000000001
 41
181.00624024961
 11
0.0
 21
0.0
 31
1.0
 12
0.0
 22
0.0
 32
0.0
 42
50.0
 43
-1370.695619172059
 44
-1370.695619172059
 50
0.0
 71
    16
281
     0
 72
     0
 73
     0
348
C450
  0
VIEW
  5
AE4
330
6
100
AcDbSymbolTableRecord
100
AcDbViewTableRecord
  2
AM_VIEW4
 70
     0
 40
105.0
 10
206.496879875195
 20
52.50000000000001
 41
181.00624024961
 11
0.0
 21
0.0
 31
1.0
 12
0.0
 22
0.0
 32
0.0
 42
50.0
 43
-1370.695619172059
 44
-1370.695619172059
 50
0.0
 71
    16
281
     0
 72
     0
 73
     0
348
C450
  0
VIEW
  5
AE5
330
6
100
AcDbSymbolTableRecord
100
AcDbViewTableRecord
  2
AM_VIEW5
 70
     0
 40
105.0
 10
148.5
 20
105.0
 41
181.00624024961
 11
0.0
 21
0.0
 31
1.0
 12
0.0
 22
0.0
 32
0.0
 42
50.0
 43
-1370.695619172059
 44
-1370.695619172059
 50
0.0
 71
    16
281
     0
 72
     0
 73
     0
348
C450
  0
VIEW
  5
AE6
330
6
100
AcDbSymbolTableRecord
100
AcDbViewTableRecord
  2
AM_VIEW6
 70
     0
 40
209.9979
 10
148.5
 20
105.0
 41
362.008860374415
 11
0.0
 21
0.0
 31
1.0
 12
0.0
 22
0.0
 32
0.0
 42
50.0
 43
-1370.695619172059
 44
-1370.695619172059
 50
0.0
 71
    16
281
     0
 72
     0
 73
     0
348
C450
  0
ENDTAB
  0
TABLE
  2
UCS
  5
7
330
0
100
AcDbSymbolTable
 70
     0
  0
ENDTAB
  0
TABLE
  2
APPID
  5
9
330
0
100
AcDbSymbolTable
 70
    81
  0
APPID
  5
12
330
9
100
AcDbSymbolTableRecord
100
AcDbRegAppTableRecord
  2
ACAD
 70
     0
  0
APPID
  5
30
330
9
100
AcDbSymbolTableRecord
100
AcDbRegAppTableRecord
  2
MCAD_NO_VIS
 70
     0
  0
APPID
  5
31
330
9
100
AcDbSymbolTableRecord
100
AcDbRegAppTableRecord
  2
ACAD_TEMP_GRAPHIC
 70
     0
  0
APPID
  5
44
330
9
100
AcDbSymbolTableRecord
100
AcDbRegAppTableRecord
  2
ACATTRIBSERVICES
 70
     0
  0
APPID
  5
7A1
330
9
100
AcDbSymbolTableRecord
100
AcDbRegAppTableRecord
  2
GENIUS_GENDIMSH_14
 70
     0
  0
APPID
  5
A49
330
9
100
AcDbSymbolTableRecord
100
AcDbRegAppTableRecord
  2
GENIUS_GENREC_14
 70
     0
  0
APPID
  5
A4A
330
9
100
AcDbSymbolTableRecord
100
AcDbRegAppTableRecord
  2
GENIUS_GENOBJ-N-REC_13
 70
     0
  0
APPID
  5
A4B
330
9
100
AcDbSymbolTableRecord
100
AcDbRegAppTableRecord
  2
GENIUS_GENODEF_13
 70
     0
  0
APPID
  5
A4C
330
9
100
AcDbSymbolTableRecord
100
AcDbRegAppTableRecord
  2
DCO15
 70
     0
  0
APPID
  5
ADC
330
9
100
AcDbSymbolTableRecord
100
AcDbRegAppTableRecord
  2
GENIUS_GENOLIS_13
 70
     0
  0
APPID
  5
ADD
330
9
100
AcDbSymbolTableRecord
100
AcDbRegAppTableRecord
  2
GENIUS_GENOENT_13
 70
     0
  0
APPID
  5
ADE
330
9
100
AcDbSymbolTableRecord
100
AcDbRegAppTableRecord
  2
GENIUS_GENOBJ-N-TIT_13
 70
     0
  0
APPID
  5
ADF
330
9
100
AcDbSymbolTableRecord
100
AcDbRegAppTableRecord
  2
GENIUS_GENTITLE_13
 70
     0
  0
APPID
  5
AE0
330
9
100
AcDbSymbolTableRecord
100
AcDbRegAppTableRecord
  2
GENIUS_GENOREF_13
 70
     0
  0
APPID
  5
AE7
330
9
100
AcDbSymbolTableRecord
100
AcDbRegAppTableRecord
  2
GENIUS_GENSCREG_15
 70
     0
  0
APPID
  5
AE8
330
9
100
AcDbSymbolTableRecord
100
AcDbRegAppTableRecord
  2
GENIUS_GENOBJ-N-SDF_13
 70
     0
  0
APPID
  5
FAF
330
9
100
AcDbSymbolTableRecord
100
AcDbRegAppTableRecord
  2
GENIUS_GENBLLY_14
 70
     0
  0
APPID
  5
FB0
330
9
100
AcDbSymbolTableRecord
100
AcDbRegAppTableRecord
  2
GENIUS_GENTRA_14
 70
     0
  0
APPID
  5
1285
330
9
100
AcDbSymbolTableRecord
100
AcDbRegAppTableRecord
  2
GENIUS_GENDTOL_13
 70
     0
  0
APPID
  5
142D
330
9
100
AcDbSymbolTableRecord
100
AcDbRegAppTableRecord
  2
GENIUS_GENOBJ-N-CEN_13
 70
     0
  0
APPID
  5
1AB5
330
9
100
AcDbSymbolTableRecord
100
AcDbRegAppTableRecord
  2
GENIUS_GENOBJ-N-CRS_13
 70
     0
  0
APPID
  5
1B36
330
9
100
AcDbSymbolTableRecord
100
AcDbRegAppTableRecord
  2
GENIUS_GENOBJ-N-HTC_13
 70
     0
  0
APPID
  5
1B37
330
9
100
AcDbSymbolTableRecord
100
AcDbRegAppTableRecord
  2
GENIUS_GENHATCH_13
 70
     0
  0
APPID
  5
216D
330
9
100
AcDbSymbolTableRecord
100
AcDbRegAppTableRecord
  2
GENIUS_GENOBJ-N-FIL_13
 70
     0
  0
APPID
  5
2356
330
9
100
AcDbSymbolTableRecord
100
AcDbRegAppTableRecord
  2
GEVID990412420
 70
     0
  0
APPID
  5
2357
330
9
100
AcDbSymbolTableRecord
100
AcDbRegAppTableRecord
  2
GEVDC
 70
     0
  0
APPID
  5
2358
330
9
100
AcDbSymbolTableRecord
100
AcDbRegAppTableRecord
  2
GEVCON
 70
     0
  0
APPID
  5
235B
330
9
100
AcDbSymbolTableRecord
100
AcDbRegAppTableRecord
  2
GEVRADREF
 70
     0
  0
APPID
  5
2360
330
9
100
AcDbSymbolTableRecord
100
AcDbRegAppTableRecord
  2
GENIUS_GENBH_13
 70
     0
  0
APPID
  5
2362
330
9
100
AcDbSymbolTableRecord
100
AcDbRegAppTableRecord
  2
GENIUS_GENOBJ-NBEHI-BHF_13
 70
     0
  0
APPID
  5
2364
330
9
100
AcDbSymbolTableRecord
100
AcDbRegAppTableRecord
  2
GENIUS_GENOBJ-NBEHI-BHB_13
 70
     0
  0
APPID
  5
2379
330
9
100
AcDbSymbolTableRecord
100
AcDbRegAppTableRecord
  2
GENIUS_GENOBJ-F-SCPASSM_13
 70
     0
  0
APPID
  5
3D74
330
9
100
AcDbSymbolTableRecord
100
AcDbRegAppTableRecord
  2
GENIUS_GENDIM_13
 70
     0
  0
APPID
  5
3D76
330
9
100
AcDbSymbolTableRecord
100
AcDbRegAppTableRecord
  2
GENIUS_GE3DTOL_13
 70
     0
  0
APPID
  5
3D9C
330
9
100
AcDbSymbolTableRecord
100
AcDbRegAppTableRecord
  2
AD_DRAW
 70
     0
  0
APPID
  5
3DE8
330
9
100
AcDbSymbolTableRecord
100
AcDbRegAppTableRecord
  2
ASURF_PCURVE_APPNAME
 70
     0
  0
APPID
  5
3DED
330
9
100
AcDbSymbolTableRecord
100
AcDbRegAppTableRecord
  2
AMG_3D2D_5.0
 70
     0
  0
APPID
  5
3E1B
330
9
100
AcDbSymbolTableRecord
100
AcDbRegAppTableRecord
  2
DESIGNERASSEMBLIES
 70
     0
  0
APPID
  5
3E20
330
9
100
AcDbSymbolTableRecord
100
AcDbRegAppTableRecord
  2
ACADM_DIM_EDIT
 70
     0
  0
APPID
  5
3E21
330
9
100
AcDbSymbolTableRecord
100
AcDbRegAppTableRecord
  2
AMDT_DM_ADJ
 70
     0
  0
APPID
  5
4143
330
9
100
AcDbSymbolTableRecord
100
AcDbRegAppTableRecord
  2
GENIUS_GENFIL_13
 70
     0
  0
APPID
  5
4144
330
9
100
AcDbSymbolTableRecord
100
AcDbRegAppTableRecord
  2
GENIUS_GENOBJ-N-CHA_13
 70
     0
  0
APPID
  5
4E17
330
9
100
AcDbSymbolTableRecord
100
AcDbRegAppTableRecord
  2
GEVID1008153417
 70
     0
  0
APPID
  5
4E58
330
9
100
AcDbSymbolTableRecord
100
AcDbRegAppTableRecord
  2
GEVID1008153418
 70
     0
  0
APPID
  5
4E5E
330
9
100
AcDbSymbolTableRecord
100
AcDbRegAppTableRecord
  2
GEVID1008153419
 70
     0
  0
APPID
  5
4E64
330
9
100
AcDbSymbolTableRecord
100
AcDbRegAppTableRecord
  2
GEVID1008153420
 70
     0
  0
APPID
  5
4E75
330
9
100
AcDbSymbolTableRecord
100
AcDbRegAppTableRecord
  2
GEVID1008153421
 70
     0
  0
APPID
  5
4EB7
330
9
100
AcDbSymbolTableRecord
100
AcDbRegAppTableRecord
  2
GENIUS_AMGTXT_16
 70
     0
  0
APPID
  5
7645
330
9
100
AcDbSymbolTableRecord
100
AcDbRegAppTableRecord
  2
GENIUS_GENOBJ-N-DIM_13
 70
     0
  0
APPID
  5
C5F0
330
9
100
AcDbSymbolTableRecord
100
AcDbRegAppTableRecord
  2
GENIUS_GENCEN_19
 70
     0
  0
APPID
  5
C5FB
330
9
100
AcDbSymbolTableRecord
100
AcDbRegAppTableRecord
  2
ACAD_DSTYLE_DIMJOGGED_JOGANGLE_SYMBOL
 70
     0
  0
APPID
  5
C5FC
330
9
100
AcDbSymbolTableRecord
100
AcDbRegAppTableRecord
  2
ACAD_PSEXT
 70
     0
  0
APPID
  5
CA37
330
9
100
AcDbSymbolTableRecord
100
AcDbRegAppTableRecord
  2
AcAecLayerStandard
 70
     0
  0
APPID
  5
E5BA
330
9
100
AcDbSymbolTableRecord
100
AcDbRegAppTableRecord
  2
ACAD_NAV_VCDISPLAY
 70
     0
  0
APPID
  5
E6D9
330
9
100
AcDbSymbolTableRecord
100
AcDbRegAppTableRecord
  2
ACAD_MLEADERVER
 70
     0
  0
APPID
  5
E89F
330
9
100
AcDbSymbolTableRecord
100
AcDbRegAppTableRecord
  2
AcDbDynamicBlockGUID
 70
     0
  0
APPID
  5
E959
330
9
100
AcDbSymbolTableRecord
100
AcDbRegAppTableRecord
  2
HC_SUPERPART
 70
     0
  0
APPID
  5
E95A
330
9
100
AcDbSymbolTableRecord
100
AcDbRegAppTableRecord
  2
HC_SP4BLOCK
 70
     0
  0
APPID
  5
E95B
330
9
100
AcDbSymbolTableRecord
100
AcDbRegAppTableRecord
  2
HC_XDATA_SPRING
 70
     0
  0
APPID
  5
E95C
330
9
100
AcDbSymbolTableRecord
100
AcDbRegAppTableRecord
  2
HCCAD_FRAME
 70
     0
  0
APPID
  5
E95D
330
9
100
AcDbSymbolTableRecord
100
AcDbRegAppTableRecord
  2
GENIUS_GENOBJ-N-ZOO_13
 70
     0
  0
APPID
  5
E95E
330
9
100
AcDbSymbolTableRecord
100
AcDbRegAppTableRecord
  2
GENIUS_GENSYMENT_13
 70
     0
  0
APPID
  5
E95F
330
9
100
AcDbSymbolTableRecord
100
AcDbRegAppTableRecord
  2
GENIUS_GENSCSYM_13
 70
     0
  0
APPID
  5
E960
330
9
100
AcDbSymbolTableRecord
100
AcDbRegAppTableRecord
  2
GENIUS_GENOBJ-N-REV_13
 70
     0
  0
APPID
  5
E961
330
9
100
AcDbSymbolTableRecord
100
AcDbRegAppTableRecord
  2
GENIUS_GENOBJ-N-RSSYM_13
 70
     0
  0
APPID
  5
E962
330
9
100
AcDbSymbolTableRecord
100
AcDbRegAppTableRecord
  2
GENIUS_GENREV_15
 70
     0
  0
APPID
  5
E963
330
9
100
AcDbSymbolTableRecord
100
AcDbRegAppTableRecord
  2
HRA
 70
     0
  0
APPID
  5
E964
330
9
100
AcDbSymbolTableRecord
100
AcDbRegAppTableRecord
  2
HTIT
 70
     0
  0
APPID
  5
E965
330
9
100
AcDbSymbolTableRecord
100
AcDbRegAppTableRecord
  2
GENIUS_GENZOO_17
 70
     0
  0
APPID
  5
E966
330
9
100
AcDbSymbolTableRecord
100
AcDbRegAppTableRecord
  2
GENIUS_GENCRS_20
 70
     0
  0
APPID
  5
E967
330
9
100
AcDbSymbolTableRecord
100
AcDbRegAppTableRecord
  2
GENIUS_GENOBJ-N-CRC_13
 70
     0
  0
APPID
  5
E968
330
9
100
AcDbSymbolTableRecord
100
AcDbRegAppTableRecord
  2
GENIUS_GENCRC_14
 70
     0
  0
APPID
  5
E969
330
9
100
AcDbSymbolTableRecord
100
AcDbRegAppTableRecord
  2
GENIUS_GENOBJ-N-DIMLI_13
 70
     0
  0
APPID
  5
E96A
330
9
100
AcDbSymbolTableRecord
100
AcDbRegAppTableRecord
  2
GENIUS_GENOBJ-N-FITL_13
 70
     0
  0
APPID
  5
E96B
330
9
100
AcDbSymbolTableRecord
100
AcDbRegAppTableRecord
  2
GENIUS_GENFITL_13
 70
     0
  0
APPID
  5
E96C
330
9
100
AcDbSymbolTableRecord
100
AcDbRegAppTableRecord
  2
GENLAYCOLOR
 70
     0
  0
APPID
  5
E9EF
330
9
100
AcDbSymbolTableRecord
100
AcDbRegAppTableRecord
  2
ACAD_DSTYLE_DIMINSPECT
 70
     0
  0
APPID
  5
E9F0
330
9
100
AcDbSymbolTableRecord
100
AcDbRegAppTableRecord
  2
ACAD_DSTYLE_DIMRADIAL_EXTENSION
 70
     0
  0
APPID
  5
E9F1
330
9
100
AcDbSymbolTableRecord
100
AcDbRegAppTableRecord
  2
PLOTTRANSPARENCY
 70
     0
  0
APPID
  5
10EA7
330
9
100
AcDbSymbolTableRecord
100
AcDbRegAppTableRecord
  2
AcLayerTools
 70
     0
  0
APPID
  5
12839
330
9
100
AcDbSymbolTableRecord
100
AcDbRegAppTableRecord
  2
HATCHBACKGROUNDCOLOR
 70
     0
  0
ENDTAB
  0
TABLE
  2
DIMSTYLE
  5
A
330
0
100
AcDbSymbolTable
 70
    25
100
AcDbDimStyleTable
  0
DIMSTYLE
105
6C
330
A
100
AcDbSymbolTableRecord
100
AcDbDimStyleTableRecord
  2
AM_ISO
 70
     0
  4
"
 41
2.5
 42
1.0
 43
10.0
 44
1.0
 47
0.1
 48
0.1
 73
     0
 74
     0
 77
     1
 78
     8
 79
     2
140
3.5
141
0.0
143
0.0393701
146
0.71
147
1.5
172
     1
176
   256
177
   256
271
     2
178
     2
271
     2
272
     3
274
     4
283
     0
284
     8
340
11
371
    -1
372
    -1
  0
DIMSTYLE
105
6D
330
A
100
AcDbSymbolTableRecord
100
AcDbDimStyleTableRecord
  2
AM_ISO$3
 70
     0
  4
"
 41
0.8
 42
1.0
 43
10.0
 44
1.0
 47
0.1
 48
0.1
 73
     0
 77
     1
 78
     8
 79
     2
140
3.2
141
0.0
143
0.0393701
146
0.71
147
0.9999999999999996
176
   256
177
   256
271
     2
178
     2
271
     2
272
     2
283
     0
284
     8
288
     1
289
     0
340
11
342
6C4
371
    -1
372
    -1
  0
DIMSTYLE
105
6E
330
A
100
AcDbSymbolTableRecord
100
AcDbDimStyleTableRecord
  2
AM_ISO$4
 70
     0
  4
"
 41
0.8
 42
1.0
 43
10.0
 44
1.0
 47
0.1
 48
0.1
 73
     0
 77
     1
 78
     8
 79
     2
140
3.2
141
0.0
143
0.0393701
146
0.71
147
1.0
173
     1
176
   256
177
   256
271
     2
178
     2
271
     2
272
     2
283
     0
284
     8
288
     1
289
     0
340
11
344
6C4
371
    -1
372
    -1
  0
DIMSTYLE
105
6F
330
A
100
AcDbSymbolTableRecord
100
AcDbDimStyleTableRecord
  2
AM_ISO$6
 70
     0
  4
"
 41
0.8
 42
1.0
 43
10.0
 44
1.0
 47
0.1
 48
0.1
 73
     0
 74
     0
 78
     8
 79
     2
140
3.2
141
0.0
143
0.0393701
146
0.71
147
1.0
172
     1
176
   256
177
   256
271
     2
178
     2
271
     2
272
     2
283
     0
284
     8
340
11
341
6C4
371
    -1
372
    -1
  0
DIMSTYLE
105
70
330
A
100
AcDbSymbolTableRecord
100
AcDbDimStyleTableRecord
  2
AM_ISO$7
 70
     0
  4
"
 41
0.8
 42
1.0
 43
10.0
 44
1.0
 47
0.1
 48
0.1
 73
     0
 74
     0
 77
     1
 78
     8
 79
     2
140
3.2
141
0.0
143
0.0393701
146
0.71
147
1.0
172
     1
176
   256
177
   256
271
     2
178
     2
271
     2
272
     2
283
     0
284
     8
340
11
341
6C4
342
6C4
371
    -1
372
    -1
  0
DIMSTYLE
105
71
330
A
100
AcDbSymbolTableRecord
100
AcDbDimStyleTableRecord
  2
AM_ISO$SF
 70
     0
  4
"
 41
0.8
 42
1.0
 43
10.0
 44
1.0
 47
0.1
 48
0.1
 73
     0
 74
     0
 75
     1
 76
     1
 77
     1
 78
     8
 79
     2
140
3.2
141
0.0
143
0.0393701
146
0.71
147
1.0
172
     1
176
   256
177
   256
271
     2
178
     2
271
     2
272
     2
283
     0
284
     8
340
11
341
6C4
342
6C4
371
    -1
372
    -1
  0
DIMSTYLE
105
76
330
A
100
AcDbSymbolTableRecord
100
AcDbDimStyleTableRecord
  2
AM_ISO$SH
 70
     0
  4
"
 41
0.8
 42
1.0
 43
10.0
 44
1.0
 47
0.1
 48
0.1
 73
     0
 74
     0
 75
     1
 76
     1
 77
     1
 78
     8
 79
     2
140
3.2
141
0.0
143
0.0393701
144
2.0
146
0.71
147
1.0
172
     1
176
   256
177
   256
271
     2
178
     2
271
     2
272
     2
283
     0
284
     8
340
11
341
6C4
342
6C4
371
    -1
372
    -1
  0
DIMSTYLE
105
6BE
330
A
100
AcDbSymbolTableRecord
100
AcDbDimStyleTableRecord
  2
AM_ISO$0
 70
     0
  4
"
 41
0.8
 42
1.0
 43
10.0
 44
1.0
 47
0.1
 48
0.1
 73
     0
 74
     0
 77
     1
 78
     8
 79
     2
140
3.2
141
0.0
143
0.0393701
146
0.71
147
0.9999999999999996
172
     1
176
   256
177
   256
271
     2
178
     2
271
     2
272
     2
283
     0
284
     8
340
11
341
6C4
342
6C4
371
    -1
372
    -1
  0
DIMSTYLE
105
6BF
330
A
100
AcDbSymbolTableRecord
100
AcDbDimStyleTableRecord
  2
AM_ISO$2
 70
     0
  4
"
 41
0.8
 42
1.0
 43
10.0
 44
1.0
 47
0.1
 48
0.1
 73
     0
 74
     0
 77
     3
 78
     8
 79
     2
140
3.200000000000001
141
0.0
143
0.0393701
146
0.71
147
0.9999999999999996
172
     1
176
   256
177
   256
271
     2
178
     2
271
     2
272
     2
283
     0
284
     8
340
11
342
6C4
371
    -1
372
    -1
  0
DIMSTYLE
105
A76
330
A
100
AcDbSymbolTableRecord
100
AcDbDimStyleTableRecord
  2
STANDARD
 70
     0
 41
3.0
 42
1.0
 43
7.0
 44
2.0
 73
     0
 74
     0
 77
     1
140
2.8
141
0.0
143
0.0394
147
0.7
171
     4
172
     1
173
     1
176
     3
177
     3
271
     3
178
     2
271
     3
272
     3
273
     8
274
     4
289
     0
340
A74
341
A66
343
A66
344
A66
  0
DIMSTYLE
105
FA9
330
A
100
AcDbSymbolTableRecord
100
AcDbDimStyleTableRecord
  2
AM_ANSI
 70
     0
  4
mm
 41
0.1
 42
0.05
 43
0.5
 44
0.1
 47
0.1
 48
0.1
 78
     7
 79
     2
140
0.12
141
0.0
146
0.71
147
0.06
176
   256
177
   256
178
     2
274
     4
284
     7
340
11
371
    -1
372
    -1
  0
DIMSTYLE
105
FAA
330
A
100
AcDbSymbolTableRecord
100
AcDbDimStyleTableRecord
  2
AM_ANSI$3
 70
     0
  4
mm
 41
0.1
 42
0.05
 43
0.5
 44
0.1
 47
0.1
 48
0.1
 78
     7
 79
     2
140
0.12
141
0.0
146
0.71
147
0.06
176
   256
177
   256
178
     2
274
     4
284
     7
288
     1
289
     0
340
11
371
    -1
372
    -1
  0
DIMSTYLE
105
FAB
330
A
100
AcDbSymbolTableRecord
100
AcDbDimStyleTableRecord
  2
AM_ANSI$4
 70
     0
  4
mm
 41
0.1
 42
0.05
 43
0.5
 44
0.1
 47
0.1
 48
0.1
 78
     7
 79
     2
140
0.12
141
0.0
146
0.71
147
0.06
176
   256
177
   256
178
     2
274
     4
284
     7
288
     1
289
     0
340
11
371
    -1
372
    -1
  0
DIMSTYLE
105
FAC
330
A
100
AcDbSymbolTableRecord
100
AcDbDimStyleTableRecord
  2
AM_ANSI$7
 70
     0
  4
mm
 41
0.1
 42
0.05
 43
0.5
 44
0.1
 47
0.1
 48
0.1
 78
     7
 79
     2
140
0.24
141
0.0
146
0.71
147
0.06
176
   256
177
   256
178
     2
274
     4
284
     7
340
11
371
    -1
372
    -1
  0
DIMSTYLE
105
FAD
330
A
100
AcDbSymbolTableRecord
100
AcDbDimStyleTableRecord
  2
AM_ANSI$SF
 70
     0
  4
mm
 41
0.1
 42
0.05
 43
0.5
 44
0.1
 47
0.1
 48
0.1
 75
     1
 76
     1
 78
     7
 79
     2
140
0.12
141
0.0
146
0.71
147
0.06
176
   256
177
   256
178
     2
274
     4
284
     7
340
11
371
    -1
372
    -1
  0
DIMSTYLE
105
FAE
330
A
100
AcDbSymbolTableRecord
100
AcDbDimStyleTableRecord
  2
AM_ANSI$SH
 70
     0
  4
mm
 41
0.1
 42
0.05
 43
0.5
 44
0.1
 47
0.1
 48
0.1
 75
     1
 76
     1
 78
     7
 79
     2
140
0.12
141
0.0
146
0.71
147
0.06
173
     1
176
   256
177
   256
178
     2
274
     4
284
     7
340
11
343
72
371
    -1
372
    -1
  0
DIMSTYLE
105
2515
330
A
100
AcDbSymbolTableRecord
100
AcDbDimStyleTableRecord
  2
SYS
 70
     0
  4
"
 41
2.5
 42
1.0
 43
10.0
 44
1.0
 47
0.1
 48
0.1
 73
     0
 74
     0
 77
     1
 78
     8
 79
     2
140
3.5
141
0.0
143
0.0393701
146
0.71
147
1.5
172
     1
176
   256
177
   256
271
     2
178
     7
271
     2
272
     3
274
     4
283
     0
284
     8
340
11
371
    -1
372
    -1
  0
DIMSTYLE
105
2516
102
{ACAD_REACTORS
330
13310
102
}
330
A
100
AcDbSymbolTableRecord
100
AcDbDimStyleTableRecord
  2
SYS$3
 70
     0
  4
"
 41
2.0
 42
1.0
 43
10.0
 44
1.0
 47
0.1
 48
0.1
 73
     0
 77
     1
 78
     8
 79
     2
140
3.200000000000001
141
0.0
143
0.0393701
146
0.71
147
0.9999999999999996
176
   256
177
   256
271
     1
178
     2
271
     1
272
     1
283
     0
284
     8
288
     1
340
11
342
A66
371
    -1
372
    -1
  0
DIMSTYLE
105
2517
330
A
100
AcDbSymbolTableRecord
100
AcDbDimStyleTableRecord
  2
SYS$4
 70
     0
  4
"
 41
2.0
 42
1.0
 43
10.0
 44
1.0
 47
0.1
 48
0.1
 73
     0
 77
     1
 78
     8
 79
     2
140
3.2
141
0.0
143
0.0393701
146
0.71
147
0.9999999999999996
173
     1
176
   256
177
   256
271
     2
178
     2
271
     2
272
     2
283
     0
284
     8
288
     1
340
11
344
A66
371
    -1
372
    -1
  0
DIMSTYLE
105
2518
330
A
100
AcDbSymbolTableRecord
100
AcDbDimStyleTableRecord
  2
SYS$6
 70
     0
  4
"
 41
2.0
 42
1.0
 43
10.0
 44
1.0
 47
0.1
 48
0.1
 73
     0
 74
     0
 78
     8
 79
     2
140
3.2
141
0.0
143
0.0393701
146
0.71
147
0.9999999999999996
172
     1
176
   256
177
   256
271
     2
178
     2
271
     2
272
     2
283
     0
284
     8
340
11
341
A66
371
    -1
372
    -1
  0
DIMSTYLE
105
2519
330
A
100
AcDbSymbolTableRecord
100
AcDbDimStyleTableRecord
  2
SYS$7
 70
     0
  4
"
 41
2.0
 42
1.5
 43
10.0
 44
1.0
 47
0.1
 48
0.1
 73
     0
 74
     0
 77
     1
 78
     8
 79
     2
140
3.2
141
0.0
143
0.0393701
146
0.71
147
0.9999999999999996
172
     1
176
   256
177
   256
271
     2
178
     2
271
     2
272
     2
283
     0
284
     8
340
11
341
A66
342
A66
371
    -1
372
    -1
  0
DIMSTYLE
105
251A
330
A
100
AcDbSymbolTableRecord
100
AcDbDimStyleTableRecord
  2
SYS$SF
 70
     0
  4
"
 41
1.0
 42
1.0
 43
10.0
 44
1.0
 47
0.1
 48
0.1
 73
     0
 74
     0
 75
     1
 76
     1
 77
     1
 78
     8
 79
     2
140
3.2
141
0.0
143
0.0393701
146
0.71
147
0.9999999999999996
172
     1
176
   256
177
   256
271
     2
178
     2
271
     2
272
     2
283
     0
284
     8
340
11
341
6C4
342
6C4
371
    -1
372
    -1
  0
DIMSTYLE
105
251B
330
A
100
AcDbSymbolTableRecord
100
AcDbDimStyleTableRecord
  2
SYS$SH
 70
     0
  4
"
 41
1.0
 42
1.0
 43
10.0
 44
1.0
 47
0.1
 48
0.1
 73
     0
 74
     0
 75
     1
 76
     1
 77
     1
 78
     8
 79
     2
140
3.2
141
0.0
143
0.0393701
144
2.0
146
0.71
147
0.9999999999999996
172
     1
173
     1
176
   256
177
   256
271
     2
178
     2
271
     2
272
     2
283
     0
284
     8
340
11
341
6C4
343
72
344
6C4
371
    -1
372
    -1
  0
DIMSTYLE
105
2A59
330
A
100
AcDbSymbolTableRecord
100
AcDbDimStyleTableRecord
  2
SYS$2
 70
     0
  4
"
 41
1.0
 42
1.5
 43
10.0
 44
1.0
 47
0.1
 48
0.1
 73
     0
 74
     0
 77
     1
 78
     8
 79
     2
140
3.2
141
0.0
143
0.0393701
146
0.71
147
0.9999999999999996
172
     1
176
   256
177
   256
271
     2
178
     2
271
     2
272
     2
283
     0
284
     8
340
11
342
6C4
371
    -1
372
    -1
  0
DIMSTYLE
105
2AAB
102
{ACAD_REACTORS
330
132E8
330
132EB
330
132E2
330
132E5
330
132DC
330
132DF
330
132EE
330
1330D
102
}
330
A
100
AcDbSymbolTableRecord
100
AcDbDimStyleTableRecord
  2
SYS$0
 70
     0
  4
"
 41
1.0
 42
1.5
 43
10.0
 44
1.0
 47
0.1
 48
0.1
 73
     0
 74
     0
 77
     1
 78
     8
 79
     2
140
3.2
141
0.0
143
0.0393701
146
0.71
147
0.9999999999999996
172
     1
176
   256
177
   256
271
     1
178
     2
271
     1
272
     1
283
     0
284
     8
340
11
341
A66
342
6C4
371
    -1
372
    -1
  0
ENDTAB
  0
TABLE
  2
BLOCK_RECORD
  5
1
330
0
100
AcDbSymbolTable
 70
   929
  0
BLOCK_RECORD
  5
1F
102
{ACAD_XDICTIONARY
360
8A
102
}
330
1
100
AcDbSymbolTableRecord
100
AcDbBlockTableRecord
  2
*Model_Space
340
22
 70
     0
280
     1
281
     0
  0
BLOCK_RECORD
  5
1B
330
1
100
AcDbSymbolTableRecord
100
AcDbBlockTableRecord
  2
*Paper_Space
340
1E
 70
     0
280
     1
281
     0
  0
BLOCK_RECORD
  5
23
330
1
100
AcDbSymbolTableRecord
100
AcDbBlockTableRecord
  2
*Paper_Space0
340
26
 70
     0
280
     1
281
     0
  0
BLOCK_RECORD
  5
72
330
1
100
AcDbSymbolTableRecord
100
AcDbBlockTableRecord
  2
GENAXEH
340
0
 70
     0
280
     1
281
     0
  0
BLOCK_RECORD
  5
6C4
330
1
100
AcDbSymbolTableRecord
100
AcDbBlockTableRecord
  2
_Dot
340
0
102
{BLKREFS
331
13317
331
13318
331
13323
331
13324
331
1332F
331
13330
331
1333B
331
1333C
331
13347
331
13348
331
13353
331
13354
331
13360
331
13361
331
1338A
331
1338B
102
}
 70
     0
280
     1
281
     0
  0
BLOCK_RECORD
  5
A66
330
1
100
AcDbSymbolTableRecord
100
AcDbBlockTableRecord
  2
_OPEN30
340
0
102
{BLKREFS
331
13396
102
}
 70
     0
280
     1
281
     0
  0
BLOCK_RECORD
  5
E81B
102
{ACAD_XDICTIONARY
360
E81C
102
}
330
1
100
AcDbSymbolTableRecord
100
AcDbBlockTableRecord
  2
SYS表題(AIS2008)
340
0
 70
     0
280
     1
281
     0
1001
AcDbDynamicBlockGUID
1000
{D6BADEB1-C0F9-4340-A09C-889A7F165AD1}
  0
BLOCK_RECORD
  5
E879
330
1
100
AcDbSymbolTableRecord
100
AcDbBlockTableRecord
  2
SYS図枠A4(AIS2008)
340
0
 70
     0
280
     1
281
     0
  0
BLOCK_RECORD
  5
E971
330
1
100
AcDbSymbolTableRecord
100
AcDbBlockTableRecord
  2
_ACMFILLED
340
0
 70
     0
280
     1
281
     0
  0
BLOCK_RECORD
  5
E979
330
1
100
AcDbSymbolTableRecord
100
AcDbBlockTableRecord
  2
_ACMFILLED15
340
0
 70
     0
280
     1
281
     0
  0
BLOCK_RECORD
  5
E981
330
1
100
AcDbSymbolTableRecord
100
AcDbBlockTableRecord
  2
_ACMOPEN30
340
0
 70
     0
280
     1
281
     0
  0
BLOCK_RECORD
  5
13313
330
1
100
AcDbSymbolTableRecord
100
AcDbBlockTableRecord
  2
*D917
340
0
 70
     0
280
     1
281
     0
  0
BLOCK_RECORD
  5
1331F
330
1
100
AcDbSymbolTableRecord
100
AcDbBlockTableRecord
  2
*D918
340
0
 70
     0
280
     1
281
     0
  0
BLOCK_RECORD
  5
1332B
330
1
100
AcDbSymbolTableRecord
100
AcDbBlockTableRecord
  2
*D919
340
0
 70
     0
280
     1
281
     0
  0
BLOCK_RECORD
  5
13337
330
1
100
AcDbSymbolTableRecord
100
AcDbBlockTableRecord
  2
*D920
340
0
 70
     0
280
     1
281
     0
  0
BLOCK_RECORD
  5
13343
330
1
100
AcDbSymbolTableRecord
100
AcDbBlockTableRecord
  2
*D921
340
0
 70
     0
280
     1
281
     0
  0
BLOCK_RECORD
  5
1334F
330
1
100
AcDbSymbolTableRecord
100
AcDbBlockTableRecord
  2
*D922
340
0
 70
     0
280
     1
281
     0
  0
BLOCK_RECORD
  5
1335B
330
1
100
AcDbSymbolTableRecord
100
AcDbBlockTableRecord
  2
*D923
340
0
 70
     0
280
     1
281
     0
  0
BLOCK_RECORD
  5
13384
330
1
100
AcDbSymbolTableRecord
100
AcDbBlockTableRecord
  2
*D927
340
0
 70
     0
280
     1
281
     0
  0
BLOCK_RECORD
  5
13392
330
1
100
AcDbSymbolTableRecord
100
AcDbBlockTableRecord
  2
*D928
340
0
 70
     0
280
     1
281
     0
  0
ENDTAB
  0
ENDSEC
  0
SECTION
  2
BLOCKS
  0
BLOCK
  5
20
330
1F
100
AcDbEntity
  8
0
100
AcDbBlockBegin
  2
*Model_Space
 70
     0
 10
0.0
 20
0.0
 30
0.0
  3
*Model_Space
  1

  0
ENDBLK
  5
21
330
1F
100
AcDbEntity
  8
0
100
AcDbBlockEnd
  0
BLOCK
  5
1C
330
1B
100
AcDbEntity
 67
     1
  8
0
100
AcDbBlockBegin
  2
*Paper_Space
 70
     0
 10
0.0
 20
0.0
 30
0.0
  3
*Paper_Space
  1

  0
ENDBLK
  5
1D
330
1B
100
AcDbEntity
 67
     1
  8
0
100
AcDbBlockEnd
  0
BLOCK
  5
24
330
23
100
AcDbEntity
  8
0
100
AcDbBlockBegin
  2
*Paper_Space0
 70
     0
 10
0.0
 20
0.0
 30
0.0
  3
*Paper_Space0
  1

  0
ENDBLK
  5
25
330
23
100
AcDbEntity
  8
0
100
AcDbBlockEnd
  0
BLOCK
  5
74
330
72
100
AcDbEntity
  8
0
100
AcDbBlockBegin
  2
GENAXEH
 70
     0
 10
0.0
 20
0.0
 30
0.0
  3
GENAXEH
  1

  0
LINE
  5
73
330
72
100
AcDbEntity
  8
0
100
AcDbLine
 10
-1.0
 20
0.0
 30
0.0
 11
1.0
 21
0.0
 31
0.0
  0
ENDBLK
  5
75
330
72
100
AcDbEntity
  8
0
100
AcDbBlockEnd
  0
BLOCK
  5
6C7
330
6C4
100
AcDbEntity
  8
0
100
AcDbBlockBegin
  2
_Dot
 70
     0
 10
0.0
 20
0.0
 30
0.0
  3
_Dot
  1

  0
LWPOLYLINE
  5
6C5
330
6C4
100
AcDbEntity
  8
0
  6
ByBlock
 62
     0
100
AcDbPolyline
 90
        2
 70
     1
 43
0.5
 10
-0.25
 20
0.0
 42
1.0
 10
0.25
 20
0.0
 42
1.0
  0
LINE
  5
6C6
330
6C4
100
AcDbEntity
  8
0
  6
ByBlock
 62
     0
370
    -2
100
AcDbLine
 10
-0.5
 20
0.0
 30
0.0
 11
-1.0
 21
0.0
 31
0.0
  0
ENDBLK
  5
6C8
330
6C4
100
AcDbEntity
  8
0
100
AcDbBlockEnd
  0
BLOCK
  5
A6A
330
A66
100
AcDbEntity
  8
0
100
AcDbBlockBegin
  2
_OPEN30
 70
     0
 10
0.0
 20
0.0
 30
0.0
  3
_OPEN30
  1

  0
LINE
  5
A67
330
A66
100
AcDbEntity
  8
0
  6
ByBlock
 62
     0
100
AcDbLine
 10
-1.0
 20
0.26794919
 30
0.0
 11
0.0
 21
0.0
 31
0.0
  0
LINE
  5
A68
330
A66
100
AcDbEntity
  8
0
  6
ByBlock
 62
     0
100
AcDbLine
 10
0.0
 20
0.0
 30
0.0
 11
-1.0
 21
-0.26794919
 31
0.0
  0
LINE
  5
A69
330
A66
100
AcDbEntity
  8
0
  6
ByBlock
 62
     0
100
AcDbLine
 10
0.0
 20
0.0
 30
0.0
 11
-1.0
 21
0.0
 31
0.0
  0
ENDBLK
  5
A6B
330
A66
100
AcDbEntity
  8
0
100
AcDbBlockEnd
  0
BLOCK
  5
E81E
330
E81B
100
AcDbEntity
  8
0
100
AcDbBlockBegin
  2
SYS表題(AIS2008)
 70
     2
 10
0.0
 20
0.0
 30
0.0
  3
SYS表題(AIS2008)
  1

  0
LINE
  5
E81F
330
E81B
100
AcDbEntity
  8
waku
  6
Continuous
370
    40
100
AcDbLine
 10
-162.0
 20
0.0
 30
0.0
 11
0.0000000000004547
 21
0.0
 31
0.0
  0
LINE
  5
E820
330
E81B
100
AcDbEntity
  8
hyosen2
  6
Continuous
370
    40
100
AcDbLine
 10
-115.0000000000005
 20
25.0
 30
0.0
 11
-115.0000000000005
 21
0.0
 31
0.0
  0
LINE
  5
E821
330
E81B
100
AcDbEntity
  8
waku
  6
Continuous
370
    40
100
AcDbLine
 10
0.0
 20
25.0
 30
0.0
 11
0.0
 21
0.0
 31
0.0
  0
LINE
  5
E822
330
E81B
100
AcDbEntity
  8
waku
  6
Continuous
370
    40
100
AcDbLine
 10
-162.0000000000007
 20
24.99999999999977
 30
0.0
 11
-162.0000000000014
 21
-0.0000000000002274
 31
0.0
  0
LINE
  5
E823
330
E81B
100
AcDbEntity
  8
hyosen2
  6
Continuous
370
    40
100
AcDbLine
 10
-115.0000000000005
 20
14.0
 30
0.0
 11
-68.00000000000023
 21
14.0
 31
0.0
  0
LINE
  5
E824
330
E81B
100
AcDbEntity
  8
hyosen2
  6
Continuous
100
AcDbLine
 10
-62.99999999999977
 20
25.0
 30
0.0
 11
-62.99999999999977
 21
0.0
 31
0.0
  0
TEXT
  5
E825
330
E81B
100
AcDbEntity
  8
hyomoji
  6
Continuous
100
AcDbText
 10
-66.38199999999978
 20
3.886829357835941
 30
0.0
 40
2.7
  1
図
 41
0.7
 72
     4
 11
-65.49999999999977
 21
5.146829357835941
 31
0.0
100
AcDbText
  0
TEXT
  5
E826
330
E81B
100
AcDbEntity
  8
hyomoji
  6
Continuous
100
AcDbText
 10
-66.38199999999978
 20
0.6847767415209991
 30
0.0
 40
2.7
  1
番
 41
0.7
 72
     4
 11
-65.49999999999977
 21
2.034776741521
 31
0.0
100
AcDbText
  0
LINE
  5
E827
330
E81B
100
AcDbEntity
  8
hyosen2
  6
Continuous
100
AcDbLine
 10
-16.0
 20
6.935723472010068
 30
0.0
 11
-16.0
 21
-0.0642765279899322
 31
0.0
  0
LINE
  5
E828
330
E81B
100
AcDbEntity
  8
hyosen1
  6
Continuous
370
    40
100
AcDbLine
 10
-68.0
 20
7.0
 30
0.0
 11
0.0
 21
7.0
 31
0.0
  0
LINE
  5
E829
330
E81B
100
AcDbEntity
  8
hyosen2
  6
Continuous
370
    40
100
AcDbLine
 10
-68.0
 20
25.0
 30
0.0
 11
-68.0
 21
0.0
 31
0.0
  0
LINE
  5
E82A
330
E81B
100
AcDbEntity
  8
hyosen2
  6
Continuous
100
AcDbLine
 10
-11.0
 20
6.935723472010068
 30
0.0
 11
-11.0
 21
-0.0642765279899322
 31
0.0
  0
TEXT
  5
E82B
330
E81B
100
AcDbEntity
  8
hyomoji
  6
Continuous
100
AcDbText
 10
-15.46193093476272
 20
4.000214592721325
 30
0.0
 40
2.5
  1
図面
 41
0.7
 72
     4
 11
-13.53693093476272
 21
5.166881259387992
 31
0.0
100
AcDbText
  0
TEXT
  5
E82C
330
E81B
100
AcDbEntity
  8
hyomoji
  6
Continuous
100
AcDbText
 10
-15.40359760142939
 20
0.6302759610207431
 30
0.0
 40
2.5
  1
枚数
 41
0.7
 72
     4
 11
-13.53693093476272
 21
1.880275961020743
 31
0.0
100
AcDbText
  0
LINE
  5
E82D
330
E81B
100
AcDbEntity
  8
waku
  6
Continuous
370
    40
100
AcDbLine
 10
-162.0000000000007
 20
24.99999999999955
 30
0.0
 11
0.0
 21
25.00000000000114
 31
0.0
  0
LINE
  5
E82E
330
E81B
100
AcDbEntity
  8
hyosen2
  6
Continuous
370
    40
100
AcDbLine
 10
-162.0000000000002
 20
14.0
 30
0.0
 11
-115.0000000000005
 21
14.0
 31
0.0
  0
LINE
  5
E82F
330
E81B
100
AcDbEntity
  8
hyosen2
  6
Continuous
100
AcDbLine
 10
-150.0000000000002
 20
14.0
 30
0.0
 11
-150.0000000000002
 21
0.0
 31
0.0
  0
TEXT
  5
E830
330
E81B
100
AcDbEntity
  8
hyomoji
  6
Continuous
100
AcDbText
 10
-158.2400000000002
 20
10.25
 30
0.0
 40
3.0
  1
承認
 41
0.7
 72
     4
 11
-156.0000000000002
 21
11.75
 31
0.0
100
AcDbText
  0
LINE
  5
E831
330
E81B
100
AcDbEntity
  8
hyosen2
  6
Continuous
100
AcDbLine
 10
-127.0000000000002
 20
14.0
 30
0.0
 11
-127.0000000000002
 21
0.0
 31
0.0
  0
TEXT
  5
E832
330
E81B
100
AcDbEntity
  8
hyomoji
  6
Continuous
100
AcDbText
 10
-140.7400000000002
 20
10.25
 30
0.0
 40
3.0
  1
確認
 41
0.7
 72
     4
 11
-138.5000000000002
 21
11.75
 31
0.0
100
AcDbText
  0
TEXT
  5
E833
330
E81B
100
AcDbEntity
  8
hyomoji
  6
Continuous
100
AcDbText
 10
-123.5436856926269
 20
10.25
 30
0.0
 40
3.0
  1
作成
 41
0.7
 72
     4
 11
-121.3036856926269
 21
11.75
 31
0.0
100
AcDbText
  0
LINE
  5
E834
330
E81B
100
AcDbEntity
  8
hyosen2
  6
Continuous
100
AcDbLine
 10
-162.0000000000007
 20
9.5
 30
0.0
 11
-115.0000000000009
 21
9.5
 31
0.0
  0
LINE
  5
E835
330
E81B
100
AcDbEntity
  8
hyosen1
  6
Continuous
370
    40
100
AcDbLine
 10
-68.0
 20
14.0
 30
0.0
 11
0.0
 21
14.0
 31
0.0
  0
TEXT
  5
E836
330
E81B
100
AcDbEntity
  8
hyomoji
  6
Continuous
100
AcDbText
 10
-66.382
 20
10.83643685350829
 30
0.0
 40
2.7
  1
品
 41
0.7
 72
     4
 11
-65.5
 21
12.09643685350829
 31
0.0
100
AcDbText
  0
TEXT
  5
E837
330
E81B
100
AcDbEntity
  8
hyomoji
  6
Continuous
100
AcDbText
 10
-66.382
 20
7.751387192220044
 30
0.0
 40
2.7
  1
番
 41
0.7
 72
     4
 11
-65.5
 21
9.101387192220045
 31
0.0
100
AcDbText
  0
LINE
  5
E838
330
E81B
100
AcDbEntity
  8
hyosen2
  6
Continuous
100
AcDbLine
 10
-63.0
 20
18.0
 30
0.0
 11
0.0000000000004547
 21
18.0
 31
0.0
  0
TEXT
  5
E839
330
E81B
100
AcDbEntity
  8
hyomoji
  6
Continuous
100
AcDbText
 10
-66.382
 20
20.15681154346952
 30
0.0
 40
2.7
  1
品
 41
0.7
 72
     4
 11
-65.5
 21
21.41681154346952
 31
0.0
100
AcDbText
  0
TEXT
  5
E83A
330
E81B
100
AcDbEntity
  8
hyomoji
  6
Continuous
100
AcDbText
 10
-66.319
 20
16.7971877465483
 30
0.0
 40
2.7
  1
名
 41
0.7
 72
     4
 11
-65.5
 21
18.1471877465483
 31
0.0
100
AcDbText
  0
LWPOLYLINE
  5
E83B
330
E81B
100
AcDbEntity
  8
hyomoji
  6
Continuous
370
     9
100
AcDbPolyline
 90
        8
 70
   129
 43
0.0
 10
-94.71664269381063
 20
7.51672279306581
 42
-0.6021429256477855
 10
-94.7487625750839
 20
7.577406929225617
 10
-94.3643184158509
 20
8.142763822137113
 42
-0.2483280785897051
 10
-94.3000786533039
 20
8.17676568286356
 10
-93.49406859106216
 20
8.17676568286356
 42
-0.2483286500869998
 10
-93.42982873445726
 20
8.142763683815474
 10
-93.04538640247893
 20
7.577406860064912
 42
-0.6021421921708056
 10
-93.07750633078172
 20
7.51672279306581
  0
LWPOLYLINE
  5
E83C
330
E81B
100
AcDbEntity
  8
hyomoji
  6
Continuous
370
     9
100
AcDbPolyline
 90
       12
 70
   129
 43
0.0
 10
-95.10066352813692
 20
7.206114336880773
 10
-95.10066352813692
 20
7.381138154179553
 42
0.4422835312456967
 10
-95.14318581001339
 20
7.419805994050648
 10
-95.48861490902391
 20
7.386933916044882
 10
-94.80150443173147
 20
8.397389580015442
 42
-0.251104977230494
 10
-94.64166799998497
 20
8.487374139048597
 10
-93.16046721299699
 20
8.487374139048597
 42
-0.2453004937928962
 10
-92.99950197713906
 20
8.407546927133808
 10
-92.30556057799777
 20
7.387044538439795
 10
-92.650906417339
 20
7.419908976284205
 42
0.4422837740584967
 10
-92.69342873062669
 20
7.381241139402164
 10
-92.69342873062669
 20
7.206114336880773
  0
LWPOLYLINE
  5
E83D
330
E81B
100
AcDbEntity
  8
hyomoji
  6
Continuous
370
     9
100
AcDbPolyline
 90
       18
 70
   129
 43
0.0
 10
-93.52253906807528
 20
6.50724534230244
 10
-92.81460158919413
 20
6.50724534230244
 10
-92.4622790295914
 20
5.862752078807262
 42
-0.56960330458711
 10
-92.63269060855964
 20
5.575381194890269
 10
-95.16142443937724
 20
5.575381194890269
 42
-0.5696037030708909
 10
-95.33183590623185
 20
5.862752283892632
 10
-94.92603195720221
 20
6.605075352594667
 42
0.5696037030709009
 10
-94.9601142505735
 20
6.662549570394731
 10
-95.48894367882554
 20
6.662549570394731
 10
-95.48894367882554
 20
6.973158026579995
 10
-92.30514857993808
 20
6.973158026579995
 10
-92.30514857993808
 20
6.662549570394731
 10
-94.16361950950045
 20
6.662549570394731
 42
0.2742066828570859
 10
-94.1977017820227
 20
6.642338759809945
 10
-94.57975501613532
 20
5.943463907013665
 42
0.569604073583639
 10
-94.54567274361307
 20
5.885989651075306
 10
-93.24842050934785
 20
5.885989651075306
 42
0.5696036141370884
 10
-93.21433821097276
 20
5.943463859721533
  0
LWPOLYLINE
  5
E83E
330
E81B
100
AcDbEntity
  8
hyomoji
  6
Continuous
370
     9
100
AcDbPolyline
 90
       23
 70
   129
 43
0.0
 10
-113.7268241398469
 20
6.250351779631046
 42
0.0223985860000053
 10
-113.5470175960388
 20
6.069365314279821
 42
0.0223985860000067
 10
-113.329818427957
 20
5.895937796930184
 42
0.0223985860000024
 10
-113.0769694554942
 20
5.731459981301896
 42
0.0220669162099173
 10
-112.7948354676328
 20
5.579344997231374
 42
0.4330144820686968
 10
-112.7627586028536
 20
5.591673044677009
 10
-112.5949318145867
 20
6.003944023309487
 42
0.1957402929298021
 10
-112.594931331543
 20
6.414003627072816
 10
-113.0029292479371
 20
7.416268145310141
 42
-0.1957419841521856
 10
-113.0029276888965
 20
7.767750618383161
 10
-112.7323557985662
 20
8.432405278217402
 42
0.6213425724569266
 10
-112.7650957515457
 20
8.459104097606996
 42
0.0223985860000949
 10
-113.0542784116799
 20
8.305810639210904
 42
0.0223985859999093
 10
-113.3100201977245
 20
8.142141767095154
 42
0.0223985859999842
 10
-113.5302700965744
 20
7.969410104177996
 42
0.0223985860000033
 10
-113.7132623648729
 20
7.78900073698901
 42
0.0223985859999945
 10
-113.8575286275093
 20
7.602360390702188
 42
0.0223985860000046
 10
-113.9619125231659
 20
7.410985776373764
 42
0.0223985860000011
 10
-114.0255773454699
 20
7.216411492448287
 42
0.0223985859999998
 10
-114.0480117738614
 20
7.020197926266974
 42
0.0223985859999993
 10
-114.029036877982
 20
6.823918455131661
 42
0.0223985859999987
 10
-113.968803570624
 20
6.629147156783574
 42
0.0223985859999964
 10
-113.8677964283099
 20
6.437445819441564
 42
0.0223985860000001
  0
LWPOLYLINE
  5
E83F
330
E81B
100
AcDbEntity
  8
hyomoji
  6
Continuous
370
     9
100
AcDbPolyline
 90
       23
 70
   129
 43
0.0
 10
-103.8091594853931
 20
6.606475788939406
 42
-0.0225609849999951
 10
-103.9158153508642
 20
6.41386534529056
 42
-0.0225609850000035
 10
-104.0628916479152
 20
6.226121043267085
 42
-0.0225609850000059
 10
-104.2491918991691
 20
6.044770222218631
 42
-0.0225609849999973
 10
-104.4732006090658
 20
5.871288388998892
 42
-0.0225609849999908
 10
-104.733094725593
 20
5.707086928443005
 42
-0.0225466705714751
 10
-105.0265696694339
 20
5.553590591288184
 42
-0.6820149919169938
 10
-105.0583583690729
 20
5.58382178252532
 10
-104.813222817605
 20
6.185992327983513
 42
0.1957433897416817
 10
-104.8132220528773
 20
6.596057940510036
 10
-105.2092974689358
 20
7.569019615279558
 42
-0.1957432007478236
 10
-105.2092968534885
 20
7.979084861101001
 10
-105.0215968014395
 20
8.44016722022775
 42
-0.4317106519725616
 10
-104.9896131621474
 20
8.452539934886317
 42
-0.0225711483270752
 10
-104.6997818408374
 20
8.297536988598267
 42
-0.0225609850000041
 10
-104.4441260177748
 20
8.132138986989048
 42
-0.022560984999992
 10
-104.2245931138832
 20
7.957627826638145
 42
-0.0225609849999975
 10
-104.0429679754031
 20
7.775423170297017
 42
-0.0225609850000031
 10
-103.9007291656501
 20
7.5870074018585
 42
-0.0225609849999971
 10
-103.7990336827058
 20
7.393913464184607
 42
-0.0225609850000056
 10
-103.7387080447365
 20
7.19771225120212
 42
-0.0225609849999966
 10
-103.7202444694171
 20
7.0
 42
-0.0225609849999982
 10
-103.7437919592537
 20
6.802385300864671
 42
-0.0225609850000013
  0
LWPOLYLINE
  5
E840
330
E81B
100
AcDbEntity
  8
hyomoji
  6
Continuous
370
     9
100
AcDbPolyline
 90
       46
 70
   129
 43
0.0
 10
-110.519768731164
 20
4.931233688523662
 42
0.0067740668000082
 10
-110.3864681614014
 20
4.913172228938265
 42
0.0067740667999966
 10
-110.2520640816365
 20
4.896651608074308
 42
0.00677406679999
 10
-110.1166558268724
 20
4.881683988101486
 42
0.0067740668000013
 10
-109.9803427321119
 20
4.868280257664765
 42
0.0067740668000002
 10
-109.8432247691212
 20
4.856450350263913
 42
0.0067636405007582
 10
-109.705614869343
 20
4.846215763771625
 42
0.3216815158956166
 10
-109.6823639763015
 20
4.860849479223816
 10
-109.0305054224016
 20
6.462145869264987
 42
0.6036079430413215
 10
-109.057350599905
 20
6.494047360847617
 42
-0.0968770041122301
 10
-110.2622835208153
 20
6.467861583611239
 42
-0.4787358622778684
 10
-110.8492829567522
 20
7.526226966682088
 10
-110.2098189151504
 20
9.097085087812047
 42
0.5685357036715336
 10
-110.2342375268879
 20
9.129384786912851
 42
0.0037682570573848
 10
-110.3092103627439
 20
9.120496988302875
 42
0.003796761400007
 10
-110.384421605633
 20
9.111059971979785
 42
0.0037967614000019
 10
-110.4592877230614
 20
9.101138888545393
 42
0.0037967614000093
 10
-110.5337902489084
 20
9.090735902993856
 42
0.0037967613999978
 10
-110.6079119905773
 20
9.079853435023324
 42
0.0037967614000032
 10
-110.6816363922337
 20
9.068494095361757
 42
0.0037967614000015
 10
-110.754946261281
 20
9.056660431060209
 42
0.0037967613999987
 10
-110.827825041885
 20
9.044355180199318
 42
0.0037967613999957
 10
-110.9002549046868
 20
9.031581208211719
 42
0.0037967613999885
 10
-110.972219930615
 20
9.018341444206271
 42
0.0037967613999968
 10
-111.0437035638358
 20
9.00463888096806
 42
0.003796761399993
 10
-111.1146886117533
 20
8.990476765988205
 42
0.0037967614000086
 10
-111.1851597920581
 20
8.97585834675715
 42
0.0037967614000003
 10
-111.255099912154
 20
8.96078693444133
 42
0.0037967613999995
 10
-111.3244930529702
 20
8.945266094912995
 42
0.0038055234898924
 10
-111.3934824936703
 20
8.92926127468536
 42
0.2417074229057139
 10
-111.4098051015228
 20
8.915234771530322
 10
-111.8650382388573
 20
7.796940065814169
 42
0.1957404060663561
 10
-111.865038329053
 20
7.386880242530424
 10
-111.4689880787043
 20
6.413968958653641
 42
-0.195740547604407
 10
-111.4689882806954
 20
6.00390886074274
 10
-111.7862250935464
 20
5.224607739534122
 42
0.4443455524912625
 10
-111.7710237743845
 20
5.193113677398742
 42
0.0067708198256604
 10
-111.654021643431
 20
5.1605708935449
 42
0.0067740668000073
 10
-111.5349304364506
 20
5.129370851569774
 42
0.0067740668000071
 10
-111.4138932822307
 20
5.099552967015597
 42
0.0067740668000066
 10
-111.2909986908046
 20
5.07113908084807
 42
0.0067740667999989
 10
-111.1663370824974
 20
5.044150015212153
 42
0.0067740668000009
 10
-111.0400001511566
 20
5.018605637108294
 42
0.0067740668000062
 10
-110.9120802273951
 20
4.994524667364431
 42
0.0067740668000053
 10
-110.7826715521128
 20
4.971924807987307
 42
0.0067740668000071
 10
-110.6518690029729
 20
4.950822678486702
 42
0.0067740668000022
  0
LWPOLYLINE
  5
E841
330
E81B
100
AcDbEntity
  8
hyomoji
  6
Continuous
370
     9
100
AcDbPolyline
 90
       42
 70
   129
 43
0.0
 10
-107.0325217536542
 20
4.964147322978988
 42
0.0068021948000069
 10
-106.9020636932109
 20
4.986304122771799
 42
0.0068021948000013
 10
-106.7730727343519
 20
5.009960371701254
 42
0.0068021947999925
 10
-106.6456443915033
 20
5.035098622465057
 42
0.0068021948000045
 10
-106.5198729055644
 20
5.061700281589083
 42
0.0067876847517197
 10
-106.3961149632876
 20
5.0896821989827
 42
0.2416094440683337
 10
-106.3798008370786
 20
5.103706663032881
 10
-105.9412231671286
 20
6.181086424920977
 42
0.1957413290603471
 10
-105.941223786604
 20
6.601231521413183
 10
-106.3352129692119
 20
7.569070096907808
 42
-0.1957413474957244
 10
-106.3352135592584
 20
7.979131746854137
 10
-105.9993061639691
 20
8.804298600408856
 42
0.4460668776922763
 10
-106.0146375343697
 20
8.835830324484732
 42
0.0028283786038634
 10
-106.0633916340969
 20
8.84950307664667
 42
0.0028494113000101
 10
-106.1128738376581
 20
8.86304090933777
 42
0.0028494112999968
 10
-106.1627164489871
 20
8.876338300380667
 42
0.0028494113000006
 10
-106.212912463692
 20
8.889393466838783
 42
0.0028494113000024
 10
-106.2634555141451
 20
8.902204753128672
 42
0.002849411299989
 10
-106.3143385959552
 20
8.914770503667796
 42
0.0028494113000037
 10
-106.3655559782565
 20
8.927089062872255
 42
0.0028494112999894
 10
-106.4171000198944
 20
8.939158838834828
 42
0.0028494113000082
 10
-106.4689649900042
 20
8.950978239648975
 42
0.0028494112999955
 10
-106.5211432474314
 20
8.962545800759244
 42
0.0028494113000056
 10
-106.5736290613102
 20
8.973859930259096
 42
0.0028494113000083
 10
-106.6264147904874
 20
8.984919290946664
 42
0.0028494112999919
 10
-106.6794934305706
 20
8.9957222909145
 42
0.0028494112999998
 10
-106.7328586139322
 20
9.006267592961194
 42
0.0028494113000083
 10
-106.7865033361811
 20
9.016553859884425
 42
0.0028485312981507
 10
-106.8404039239449
 20
9.026576689379226
 42
0.3543993923517316
 10
-106.8664005303706
 20
9.012272432784357
 10
-108.5584562824822
 20
4.855704245478137
 42
0.5392714590992973
 10
-108.536142824908
 20
4.823266086778858
 42
0.0068019099602671
 10
-108.3961118072659
 20
4.828097465976725
 42
0.0068021947999971
 10
-108.2564359679457
 20
4.834545517526749
 42
0.0068021947999996
 10
-108.1172249654992
 20
4.842605470531225
 42
0.0068021948000011
 10
-107.978581318743
 20
4.852271275742851
 42
0.0068021947999982
 10
-107.8406081832579
 20
4.863535801417584
 42
0.0068021948000013
 10
-107.7034080778608
 20
4.876390769638647
 42
0.0068021947999974
 10
-107.5670809743181
 20
4.890826565286943
 42
0.0068021948000009
 10
-107.4317293914467
 20
4.906832554423772
 42
0.0068021948000053
 10
-107.2974533010122
 20
4.924396829583202
 42
0.0068021947999869
 10
-107.1643507644931
 20
4.943506528156149
 42
0.006802194800004
  0
LWPOLYLINE
  5
E842
330
E81B
100
AcDbEntity
  8
hyomoji
  6
Continuous
370
     9
100
AcDbPolyline
 90
       23
 70
   129
 43
0.0
 10
-109.423142974081
 20
6.882717884956719
 42
0.1173827961225227
 10
-108.8350126422351
 20
6.998518263554388
 42
0.1913082464585806
 10
-108.7953116152546
 20
7.039902503188159
 10
-107.9519330850699
 20
9.111683775963002
 42
0.5046897278906438
 10
-107.9716881113106
 20
9.144036257163862
 42
0.0053970181929799
 10
-108.0815331347715
 20
9.152514060678413
 42
0.0031368713999882
 10
-108.1455316208044
 20
9.156812146174616
 42
0.003136871399997
 10
-108.2096530020647
 20
9.160768799436028
 42
0.0031368714000045
 10
-108.2738858168229
 20
9.16438332002258
 42
0.0031368713999919
 10
-108.3382198768725
 20
9.167655262201833
 42
0.0031368714000049
 10
-108.402646267534
 20
9.170583989209717
 42
0.0031368713999963
 10
-108.4671535270759
 20
9.173169055312655
 42
0.0031368714000025
 10
-108.5317321040561
 20
9.175410142129067
 42
0.0031368714000093
 10
-108.5963718102691
 20
9.177306803925603
 42
0.003136871400002
 10
-108.6610624575092
 20
9.178858785996454
 42
0.0031368714000044
 10
-108.7257944943337
 20
9.18006583363649
 42
0.0031368714000004
 10
-108.7905564590121
 20
9.180927755817038
 42
0.0031368713999985
 10
-108.8553388001012
 20
9.181444361509648
 42
0.0031368713999931
 10
-108.9201313293959
 20
9.181615714389864
 42
0.0031368713999985
 10
-108.9849238586901
 20
9.181441623429464
 42
0.0023783812883705
 10
-109.0340426873699
 20
9.181122365766441
 42
0.3019404427550624
 10
-109.0555989232341
 20
9.166446722909313
 10
-109.7676455081021
 20
7.417294429240201
 42
0.5200087835236675
  0
LWPOLYLINE
  5
E843
330
E81B
100
AcDbEntity
  8
hyomoji
  6
Continuous
370
     9
100
AcDbPolyline
 90
       70
 70
   128
 43
0.0
 10
-99.76233953213477
 20
6.306771465494876
 42
0.8374115646471505
 10
-99.83752001083462
 20
6.29291573978071
 10
-99.83752001083462
 20
5.575381194890269
 10
-100.3810849683493
 20
5.575381194890269
 10
-100.3810849683493
 20
6.281787728428299
 42
0.8134131176983945
 10
-100.455548825774
 20
6.297275260672905
 10
-100.769415810897
 20
5.575381194890269
 10
-101.1576200999968
 20
5.575381194890269
 10
-100.5509443035839
 20
7.03589334323874
 42
0.534832613937013
 10
-100.5868152422815
 20
7.089636149892385
 10
-101.0680049636264
 20
7.089636149892385
 42
0.5537200791098316
 10
-101.1032359636654
 20
7.034043017295517
 10
-100.8856723246893
 20
6.639085554925032
 10
-101.2351669936095
 20
6.662385730247024
 10
-101.2869971928119
 20
6.778995892082321
 42
0.8100448096721721
 10
-101.3905813946451
 20
6.757012486332769
 10
-101.3905813946451
 20
5.575381194890269
 10
-101.8953203747317
 20
5.575381194890269
 10
-101.8953203747317
 20
6.414624213681009
 42
0.8775035382925872
 10
-101.9416452787266
 20
6.420694930355467
 10
-102.0117741193615
 20
6.157717653634791
 10
-102.3225133761698
 20
6.118874928028163
 10
-101.909605046741
 20
7.507745460299247
 42
0.4860089347694501
 10
-101.9475909800196
 20
7.555548834169713
 10
-102.2447745479931
 20
7.555548834169713
 10
-102.2447745479931
 20
7.827331185574394
 10
-101.9339469658978
 20
7.827331185574394
 42
0.4143902720061033
 10
-101.8953203747317
 20
7.866380099852449
 10
-101.8953203747317
 20
8.487374139048597
 10
-101.3905813946451
 20
8.487374139048597
 10
-101.3905813946451
 20
7.866380099852449
 42
0.417402060528375
 10
-101.3515560309561
 20
7.827331185574394
 10
-101.2543221953897
 20
7.827331185574394
 42
0.2351357873419996
 10
-101.130740170976
 20
7.889680286716384
 10
-101.1187989158877
 20
7.905032989719075
 10
-101.1187989158877
 20
7.555548834169713
 10
-101.3250916272889
 20
7.555548834169713
 42
0.5903409348321762
 10
-101.3576144516721
 20
7.495842772770402
 10
-101.1859875423436
 20
7.184273741280094
 42
0.7474984379804729
 10
-101.1576255300783
 20
7.193389032087453
 10
-101.1576255300783
 20
7.361418564973064
 10
-100.4196995232653
 20
7.361418564973064
 42
0.4142994654112848
 10
-100.3810849683493
 20
7.400467415574667
 10
-100.3810849683493
 20
7.788727953967964
 42
0.4109416450539158
 10
-100.4196995232653
 20
7.827331185574394
 10
-100.7912990946368
 20
7.827331185574394
 42
-0.3758657869825331
 10
-101.1576255300783
 20
8.09918460794438
 10
-101.1576255300783
 20
8.487374139048597
 10
-100.6528865499915
 20
8.487374139048597
 10
-100.6528865499915
 20
8.137956133917442
 42
0.414213562373095
 10
-100.6140440167301
 20
8.099113600655528
 10
-100.4199275016106
 20
8.099113600655528
 42
0.414213562373095
 10
-100.3810849683493
 20
8.137956133917442
 10
-100.3810849683493
 20
8.487374139048597
 10
-99.83752001083462
 20
8.487374139048597
 10
-99.83752001083462
 20
8.137956133917442
 42
0.414213562373095
 10
-99.79867747757294
 20
8.099113600655528
 10
-99.13863140396074
 20
8.099113600655528
 10
-99.13863140396074
 20
7.827331185574394
 10
-99.79890545591866
 20
7.827331185574394
 42
0.4142994654112847
 10
-99.83752001083462
 20
7.788282334972791
 10
-99.83752001083462
 20
7.400021796579722
 42
0.414127664552564
 10
-99.79848261089501
 20
7.361418564973064
 10
-99.13863140396074
 20
7.361418564973064
 10
-99.13863140396074
 20
7.089636149892385
 10
-99.63201946690424
 20
7.089636149892385
 42
0.5442124499672577
 10
-99.66712910962997
 20
7.034687810013565
 10
-99.06095619162488
 20
5.575381194890269
 10
-99.48806833688013
 20
5.575381194890269
 10
-99.7623392852854
 20
6.306771558063019
  0
LWPOLYLINE
  5
E844
330
E81B
100
AcDbEntity
  8
hyomoji
  6
Continuous
370
     9
100
AcDbPolyline
 90
       43
 70
   129
 43
0.0
 10
-97.74087392986144
 20
5.955563778585429
 42
0.4538928057970519
 10
-97.68002238129179
 20
5.900852078569415
 10
-96.92552713035275
 20
6.080493954769508
 10
-96.92552713035275
 20
5.76925577305974
 10
-98.04681412898071
 20
5.614595287471957
 10
-98.82802294777548
 20
5.575534718410836
 10
-98.82802294777548
 20
5.885989651075306
 10
-98.32330116028584
 20
5.885989651075306
 42
0.414213562373095
 10
-98.28445862702415
 20
5.924832184336765
 10
-98.28445862702415
 20
7.051032918285728
 42
0.4109416450539176
 10
-98.32307318194012
 20
7.089636149892385
 10
-98.82802294777548
 20
7.089636149892385
 10
-98.82802294777548
 20
7.361418564973064
 10
-97.08909590725148
 20
7.361418564973064
 42
0.4890132124780573
 10
-97.01379679493016
 20
7.458208951288725
 10
-97.10002099772487
 20
7.798041312208852
 42
0.3431714260423211
 10
-97.13767055388575
 20
7.827331185574394
 10
-98.82802294777548
 20
7.827331185574394
 10
-98.82802294777548
 20
8.099113600655528
 10
-97.27627109140235
 20
8.099113600655528
 42
0.4890148091784922
 10
-97.20097207755612
 20
8.195904375080545
 10
-97.27492704572978
 20
8.487374139048597
 10
-96.7313603934831
 20
8.487374139048597
 10
-96.64027730647194
 20
8.128403185169645
 42
0.3431692821353876
 10
-96.60262782360155
 20
8.099113600655528
 10
-96.30432359000201
 20
8.099113600655528
 42
0.414213562373095
 10
-96.22663852347887
 20
8.176798667178673
 10
-96.22663852347887
 20
8.487374139048597
 10
-95.72190018015522
 20
8.487374139048597
 10
-95.72190018015522
 20
8.105346657236623
 42
-0.3824524618302969
 10
-95.96511368153051
 20
7.827331185574394
 10
-96.51379435024182
 20
7.827331185574394
 42
0.479097895737895
 10
-96.5519720678858
 20
7.780377008076584
 10
-96.0787382155197
 20
5.915279322624883
 42
0.3431699281256742
 10
-96.04108871056587
 20
5.885989651075306
 10
-95.72190018015522
 20
5.885989651075306
 10
-95.72190018015522
 20
5.575322530045923
 10
-96.34468932008144
 20
5.60466636629576
 42
-0.3300656182922443
 10
-96.595439102804
 20
5.809392782018676
 10
-96.91284524296384
 20
7.060346475641381
 42
0.3431699481782171
 10
-96.95049474860343
 20
7.089636149892385
 10
-97.7022593749457
 20
7.089636149892385
 42
0.4109416450539142
 10
-97.74087392986144
 20
7.051032918285728
  0
LWPOLYLINE
  5
E845
330
E81B
100
AcDbEntity
  8
hyomoji
  6
Continuous
370
     9
100
AcDbPolyline
 90
       21
 70
   128
 43
0.0
 10
-69.43627218490224
 20
8.681543250778532
 10
-69.43627218490224
 20
8.254417828748274
 10
-73.08597964968567
 20
8.254417828748274
 10
-73.08597964968567
 20
8.914499624755535
 10
-69.63040270880379
 20
8.914499624755535
 42
-0.0245951489999901
 10
-69.61133802936365
 20
8.913441706972435
 42
-0.0245951489999939
 10
-69.59245801114707
 20
8.910142001933764
 42
-0.0245951490000111
 10
-69.57394413156362
 20
8.90463241145767
 42
-0.0245951489999947
 10
-69.55597659449745
 20
8.89696623259374
 42
-0.0245951490000167
 10
-69.53872859944067
 20
8.887217584536756
 42
-0.0245951489999851
 10
-69.52236634149494
 20
8.875480644510844
 42
-0.0245951489999982
 10
-69.5070490113701
 20
8.86186888365387
 42
-0.0245951490000079
 10
-69.49292370128296
 20
8.846513920845382
 42
-0.0245951489999929
 10
-69.48012731524318
 20
8.829564185503386
 42
-0.024595149000012
 10
-69.46878402200468
 20
8.811183516706024
 42
-0.0245951489999839
 10
-69.45900334477687
 20
8.791549634962848
 42
-0.0245951490000097
 10
-69.45087888769717
 20
8.770852295599752
 42
-0.0245951489999972
 10
-69.44449024611959
 20
8.749291633178018
 42
-0.0245951490000035
 10
-69.43989918604052
 20
8.72707599649857
 42
-0.0245951490000047
 10
-69.43714900733312
 20
8.704420229343896
 42
-0.024595148999995
 10
-69.43626772756238
 20
8.681543250778532
  0
LWPOLYLINE
  5
E846
330
E81B
100
AcDbEntity
  8
hyomoji
  6
Continuous
370
     9
100
AcDbPolyline
 90
       21
 70
   128
 43
0.0
 10
-73.39658810587048
 20
6.19659804358389
 10
-69.2445712434644
 20
6.19659804358389
 42
-0.0277241649809472
 10
-69.22307761832303
 20
6.195540125801244
 42
-0.0245951490000116
 10
-69.20419696334375
 20
6.192240420762346
 42
-0.0245951489999535
 10
-69.18568372052323
 20
6.186730893962476
 42
-0.0245951490000357
 10
-69.16771618345683
 20
6.179064715098548
 42
-0.0245951489999617
 10
-69.15046755163712
 20
6.169316003365793
 42
-0.024595149000028
 10
-69.13410593045433
 20
6.157579063339654
 42
-0.0245951489999838
 10
-69.118787963567
 20
6.143967366158904
 42
-0.0245951490000106
 10
-69.10466329024257
 20
6.128612403350189
 42
-0.0245951489999761
 10
-69.09186690420233
 20
6.111662668008194
 42
-0.0245951490000292
 10
-69.08052361096452
 20
6.093281999210831
 42
-0.0245951489999958
 10
-69.07074229697378
 20
6.073648053791203
 42
-0.0245951489999834
 10
-69.06261847665633
 20
6.052950778104787
 42
-0.0245951490000133
 10
-69.0562298350792
 20
6.0313900520066
 42
-0.0245951489999937
 10
-69.0516381382372
 20
6.009174415327379
 42
-0.0245951490001447
 10
-69.04888859629295
 20
5.98651864817225
 42
-0.0188381928052038
 10
-69.04801177386162
 20
5.969001055394301
 10
-69.04801177386162
 20
5.342424884589718
 10
-73.39658810587048
 20
5.342424884589718
 10
-73.39658810587048
 20
6.196636949793856
  0
LWPOLYLINE
  5
E847
330
E81B
100
AcDbEntity
  8
hyomoji
  6
Continuous
370
     9
100
AcDbPolyline
 90
       46
 70
   128
 43
0.0
 10
-79.91946565752278
 20
8.526239086362011
 42
0.0246113600000082
 10
-79.9187754066038
 20
8.50334701651741
 42
0.0246113599999873
 10
-79.916588126247
 20
8.480676540141303
 42
0.0246113599999939
 10
-79.9129254663892
 20
8.458447149384256
 42
0.0246113600000089
 10
-79.9078230857499
 20
8.436873942734792
 42
0.0246113600000195
 10
-79.90133001506638
 20
8.41616577840341
 42
0.0246113599999893
 10
-79.89350865709798
 20
8.396523109333202
 42
0.0246113599999934
 10
-79.8844354233861
 20
8.378136009231412
 42
0.0246113599999928
 10
-79.87419818720196
 20
8.361182580664263
 42
0.0246113599999958
 10
-79.86289564678577
 20
8.345826790064166
 42
0.0246113600000034
 10
-79.85063732534604
 20
8.332217385229796
 42
0.0246113599999883
 10
-79.83754229753413
 20
8.320486112393155
 42
0.0246113600000125
 10
-79.82373600562937
 20
8.310746442692107
 42
0.0246113599999954
 10
-79.80935408011737
 20
8.303092680703685
 42
0.024611359999985
 10
-79.79453406177072
 20
8.29759894562244
 42
0.024611360000015
 10
-79.77941985899201
 20
8.294318343469058
 42
0.0246113600000176
 10
-79.76415856399717
 20
8.293282712385235
 10
-79.22064009017026
 20
8.293282712385235
 42
-0.414213562373095
 10
-79.06526995712352
 20
8.137912579338717
 10
-79.06526995712352
 20
7.748711594328597
 42
-0.0244511737842624
 10
-79.07462846058843
 20
7.506115916052522
 42
-0.0245486219999786
 10
-79.10258234927983
 20
7.264898435690156
 42
-0.0245486220000839
 10
-79.14887373424813
 20
7.028349636796065
 42
-0.0245486219998618
 10
-79.2130556079785
 20
6.798747602111007
 42
-0.0245486220001097
 10
-79.29451031051713
 20
6.578303617945721
 42
-0.024548621999966
 10
-79.3924533500433
 20
6.369140587938091
 42
-0.0245486220000008
 10
-79.50594231755395
 20
6.173272847655426
 42
-0.0245486220000017
 10
-79.63388325448909
 20
5.992586807012458
 42
-0.0245486219999997
 10
-79.77504402475347
 20
5.82882254782271
 42
-0.0245486220000006
 10
-79.92806577644433
 20
5.683557204289855
 42
-0.0245486219999995
 10
-80.09147440358743
 20
5.558189680697524
 42
-0.0245486219999993
 10
-80.26369646520402
 20
5.45392740674356
 42
-0.0245486219999995
 10
-80.44307255733224
 20
5.371774493750763
 42
-0.0245486220000024
 10
-80.62787641591103
 20
5.312522119548703
 42
-0.0245486220000146
 10
-80.81632765203994
 20
5.276740887318738
 42
-0.0245738278590478
 10
-81.00680723741584
 20
5.264772738705233
 10
-83.25856148230673
 20
5.264772738705233
 10
-83.25856148230673
 20
5.885989651075306
 10
-81.47239523142503
 20
5.885989651075306
 42
0.414213562373095
 10
-80.23007092989315
 20
7.128313952606959
 10
-80.23007092989315
 20
7.904857379768828
 42
0.414213562373095
 10
-80.61849626250978
 20
8.293282712385235
 10
-83.49151798363641
 20
8.293282712385235
 10
-83.49151798363641
 20
8.914499624755535
 10
-79.91946247370856
 20
8.914499624755535
 10
-79.91946247370856
 20
8.526239086362011
  0
LWPOLYLINE
  5
E848
330
E81B
100
AcDbEntity
  8
hyomoji
  6
Continuous
370
     9
100
AcDbPolyline
 90
       23
 70
   129
 43
0.0
 10
-91.60627971271242
 20
5.575381194890269
 10
-91.60627971271242
 20
6.349339719704176
 42
0.4352566975870339
 10
-91.64788966816946
 20
6.38808354198045
 10
-92.1495801525407
 20
6.352248425560447
 10
-91.28410272412839
 20
7.650464568178677
 42
0.5990215383385383
 10
-91.31642166536153
 20
7.710853062262458
 10
-92.07219271537133
 20
7.710853062262458
 10
-92.07219271537133
 20
7.982635413666912
 10
-91.64531711265727
 20
7.982635413666912
 42
0.4141276645926777
 10
-91.60627971271242
 20
8.02123864527357
 10
-91.60627971271242
 20
8.526239086362011
 10
-91.06269565231264
 20
8.526239086362011
 10
-91.06269565231264
 20
8.021684264268515
 42
0.4142994653711661
 10
-91.02408109740213
 20
7.982635413666912
 10
-90.86551748421448
 20
7.982635413666912
 42
-0.5990232472207202
 10
-90.70392331998141
 20
7.680692130354146
 10
-90.88163173258704
 20
7.414132416776738
 42
0.2779035425008353
 10
-90.88608304644868
 20
7.374314542745196
 10
-90.40242475165451
 20
6.50706549938468
 10
-90.9130461012187
 20
6.545888321219763
 10
-90.98992940035373
 20
6.683748944059062
 42
0.7732509487775635
 10
-91.06269565231264
 20
6.664830072530094
 10
-91.06269565231264
 20
5.575381194890269
  0
LWPOLYLINE
  5
E849
330
E81B
100
AcDbEntity
  8
hyomoji
  6
Continuous
370
     9
100
AcDbPolyline
 90
       22
 70
   129
 43
0.0
 10
-90.6744352412718
 20
5.575381194890269
 10
-90.6744352412718
 20
5.885989651075306
 10
-90.05323488473596
 20
5.885989651075306
 42
0.414213562373095
 10
-90.01439235147427
 20
5.924832184336765
 10
-90.01439235147427
 20
7.400021796579722
 42
0.4142994653711524
 10
-90.05300690638478
 20
7.439070647181552
 10
-90.48030471737047
 20
7.439070647181552
 10
-90.48030471737047
 20
7.710853062262458
 10
-90.05342975141662
 20
7.710853062262458
 42
0.4141276645726238
 10
-90.01439235147427
 20
7.749456293868661
 10
-90.01439235147427
 20
8.526239086362011
 10
-89.47080765431133
 20
8.526239086362011
 10
-89.47080765431133
 20
7.749901912863606
 42
0.4142994653912224
 10
-89.43219309939832
 20
7.710853062262458
 10
-89.00489528841536
 20
7.710853062262458
 10
-89.00489528841536
 20
7.439070647181552
 10
-89.43177025436671
 20
7.439070647181552
 42
0.4141276645926917
 10
-89.47080765431133
 20
7.400467415574667
 10
-89.47080765431133
 20
5.924832184336765
 42
0.414213562373095
 10
-89.43196512104987
 20
5.885989651075306
 10
-88.8107647645138
 20
5.885989651075306
 10
-88.8107647645138
 20
5.575381194890269
  0
LWPOLYLINE
  5
E84A
330
E81B
100
AcDbEntity
  8
hyomoji
  6
Continuous
370
     9
100
AcDbPolyline
 90
       24
 70
   129
 43
0.0
 10
-85.58827868192066
 20
5.264772738705233
 10
-88.07305081697496
 20
5.264772738705233
 10
-88.07305081697496
 20
5.885989651075306
 10
-86.17042573669505
 20
5.885989651075306
 42
0.414213562373095
 10
-84.92810143516363
 20
7.128313952606959
 10
-84.92810143516363
 20
8.060326402084684
 10
-83.88050297316818
 20
8.060326402084684
 42
-0.0257155487687808
 10
-83.86455466869006
 20
8.059188443213088
 42
-0.024549926000034
 10
-83.84947803491855
 20
8.055833594512023
 42
-0.0245499260000084
 10
-83.83469303852871
 20
8.050278093435054
 42
-0.0245499259999808
 10
-83.82034231439525
 20
8.042575491736443
 42
-0.0245499260000123
 10
-83.80656404005617
 20
8.03279990861165
 42
-0.024549925999984
 10
-83.7934906621806
 20
8.021045521283668
 42
-0.0245499259999858
 10
-83.78124889657465
 20
8.007425546186369
 42
-0.0245499260000007
 10
-83.76995527083864
 20
7.992071156464135
 42
-0.024549925999996
 10
-83.75971994494262
 20
7.975130272125625
 42
-0.02454992599999
 10
-83.75064098036455
 20
7.956766031809593
 42
-0.0245499260000124
 10
-83.74280625037682
 20
7.937155328233757
 42
-0.0245499259999989
 10
-83.73629025623131
 20
7.916487025256401
 42
-0.0245499259999953
 10
-83.73115603744986
 20
7.894960174941389
 42
-0.0245499260000016
 10
-83.72745389829606
 20
7.872782170945811
 42
-0.0245499260000116
 10
-83.72521886072627
 20
7.850166583526288
 42
-0.024673292203941
 10
-83.72447384820316
 20
7.827216389945761
 10
-83.72447384820316
 20
7.128577572422955
 42
-0.414213562373095
  0
LWPOLYLINE
  5
E84B
330
E81B
100
AcDbEntity
  8
hyomoji
  6
Continuous
370
     9
100
AcDbPolyline
 90
       21
 70
   128
 43
0.0
 10
-85.4328397784875
 20
8.914502872245976
 42
-0.0246113600000175
 10
-85.40994815437693
 20
8.913812430298321
 42
-0.0246113599999931
 10
-85.3872774869717
 20
8.911625340970431
 42
-0.0246113599999957
 10
-85.36504809621442
 20
8.9079628084653
 42
-0.0246113600000006
 10
-85.34347457118383
 20
8.902860173120189
 42
-0.0246113599999799
 10
-85.32276640685268
 20
8.896366911408222
 42
-0.0246113600000132
 10
-85.30312418351605
 20
8.888545871821634
 42
-0.0246113600000103
 10
-85.2847370197378
 20
8.87947276546197
 42
-0.0246113599999903
 10
-85.26778320911353
 20
8.869235338248927
 42
-0.02461135999999
 10
-85.25242767321834
 20
8.857932797832518
 42
-0.0246113599999982
 10
-85.23881814103152
 20
8.845674540069012
 42
-0.0246113600000129
 10
-85.22708705922378
 20
8.832579130199292
 42
-0.024611360000001
 10
-85.2173471348176
 20
8.818773411381471
 42
-0.0246113599999927
 10
-85.20969388223943
 20
8.804390912782765
 42
-0.0246113599999868
 10
-85.2041998924526
 20
8.789571021788788
 42
-0.024611360000012
 10
-85.20091929029923
 20
8.774457073715212
 42
-0.0246113600013111
 10
-85.19988391392121
 20
8.759195396662108
 10
-85.19988391392121
 20
8.254417828748274
 10
-88.07305081697496
 20
8.254417828748274
 10
-88.07305081697496
 20
8.914499624755535
 10
-85.4328397784875
 20
8.914499624755535
  0
LWPOLYLINE
  5
E84C
330
E81B
100
AcDbEntity
  8
hyomoji
  6
Continuous
370
     9
100
AcDbPolyline
 90
        4
 70
   129
 43
0.0
 10
-88.07305081697496
 20
7.128462254672513
 10
-88.07305081697496
 20
7.788505144470264
 10
-85.19988391392121
 20
7.788505144470264
 10
-85.19988391392121
 20
7.128462254672513
  0
LWPOLYLINE
  5
E84D
330
E81B
100
AcDbEntity
  8
hyomoji
  6
Continuous
370
     9
100
AcDbPolyline
 90
       44
 70
   128
 43
0.0
 10
-74.37174773276342
 20
5.963681151450373
 42
0.2129151059966407
 10
-74.40063715169867
 20
5.950794998102538
 42
-0.220358021742929
 10
-75.88149459788451
 20
5.264772738705233
 10
-78.28874849827935
 20
5.264772738705233
 10
-78.28874849827935
 20
5.885989651075306
 10
-76.50273061313965
 20
5.885989651075306
 42
0.0137554371945167
 10
-76.43015365812153
 20
5.888354842969648
 42
0.0137524419998822
 10
-76.35779511275882
 20
5.895394574551119
 42
0.0137524420004598
 10
-76.28587593375232
 20
5.907103879070064
 42
0.013752441999331
 10
-76.21461262047751
 20
5.923447225158725
 42
0.0137524420003075
 10
-76.14422039876331
 20
5.944375263699385
 42
0.0137524420000012
 10
-76.07491258416758
 20
5.969824636787052
 42
0.0137524419999966
 10
-76.00689930842668
 20
5.999718359795224
 42
0.0137524419999994
 10
-75.94038560917443
 20
6.033966076077377
 42
0.0137524420000046
 10
-75.87557334023177
 20
6.072464056966282
 42
0.0137524419999986
 10
-75.81265798779054
 20
6.115095965890532
 42
0.0137524419999979
 10
-75.75182994394027
 20
6.161732858375899
 42
0.0137524419999974
 10
-75.6932732331411
 20
6.212233564100188
 42
0.013752441999999
 10
-75.63716551222615
 20
6.266445323658218
 42
0.0137524419999974
 10
-75.58367552334767
 20
6.324204234294484
 42
0.0137524420000003
 10
-75.53296564103016
 20
6.385335568285655
 42
0.0138047286378086
 10
-75.48501449973173
 20
6.449903806133307
 42
0.4326750878113177
 10
-75.5081279300357
 20
6.560768619332976
 10
-76.0185765317326
 20
6.872710173877522
 42
0.1380038353994479
 10
-76.09959442946615
 20
6.895505880695737
 10
-77.04629557065437
 20
6.895505880695737
 10
-77.04629557065437
 20
7.462633158448625
 42
0.4831248143620979
 10
-77.0937344731376
 20
7.500715229543403
 10
-77.39202878477204
 20
7.401283899550208
 42
-0.080611490271625
 10
-77.63769029675723
 20
7.361418564973064
 10
-78.44405304475367
 20
7.361418564973064
 10
-78.44405304475367
 20
7.982635413666912
 10
-78.0728225926191
 20
7.982635413666912
 42
0.240345900807993
 10
-77.94703331635242
 20
8.046808308710979
 10
-77.36448237994364
 20
8.850326729711242
 42
-0.2403459008079905
 10
-77.23869310367695
 20
8.914499624755535
 10
-74.3305227382632
 20
8.914499624755535
 42
-0.4142866644357847
 10
-73.94017216627049
 20
8.528231708575959
 10
-73.94017216627049
 20
7.20040165387104
 42
-0.073920925025852
 10
-74.02577777181159
 20
6.635956043364558
 42
0.5098120014094599
 10
-73.98913988271079
 20
6.584897488186925
 10
-73.86252021141468
 20
6.584897488186925
 10
-73.86252021141468
 20
5.963641733283566
 10
-74.37174773276342
 20
5.963641733283566
  0
LWPOLYLINE
  5
E84E
330
E81B
100
AcDbEntity
  8
hyomoji
  6
Continuous
370
     9
100
AcDbPolyline
 90
        8
 70
   129
 43
0.0
 10
-79.64764688328364
 20
8.487374139048597
 42
-0.414213562373095
 10
-79.72533194980656
 20
8.56505920557197
 10
-79.72533194980656
 20
9.069770868532942
 42
-0.414213562373095
 10
-79.64764688328364
 20
9.14745593505586
 10
-79.14295502364712
 20
9.14745593505586
 42
-0.414213562373095
 10
-79.06526995712352
 20
9.069770868532942
 10
-79.06526995712352
 20
8.56505920557197
 42
-0.414213562373095
 10
-79.14295502364712
 20
8.487374139048597
  0
LWPOLYLINE
  5
E84F
330
E81B
100
AcDbEntity
  8
hyomoji
  6
Continuous
370
     9
100
AcDbPolyline
 90
        8
 70
   129
 43
0.0
 10
-78.75462838927092
 20
8.487374139048597
 42
-0.414213562373095
 10
-78.83231345579406
 20
8.56505920557197
 10
-78.83231345579406
 20
9.069770868532942
 42
-0.414213562373095
 10
-78.75462838927092
 20
9.14745593505586
 10
-78.2499365296344
 20
9.14745593505586
 42
-0.414213562373095
 10
-78.17225146311102
 20
9.069770868532942
 10
-78.17225146311102
 20
8.56505920557197
 42
-0.414213562373095
 10
-78.2499365296344
 20
8.487374139048597
  0
LWPOLYLINE
  5
E850
330
E81B
100
AcDbEntity
  8
hyomoji
  6
Continuous
370
     9
100
AcDbPolyline
 90
       26
 70
   129
 43
0.0
 10
-75.25867901228753
 20
7.136315150465862
 10
-75.84386225628009
 20
7.493927168456366
 42
0.1380035768931157
 10
-75.92488001949027
 20
7.51672279306581
 10
-76.91275368502374
 20
7.51672279306581
 42
-0.5877959702502288
 10
-76.9454333722108
 20
7.576180874061492
 10
-76.47548726699483
 20
8.22438360138949
 42
-0.2488102192010769
 10
-76.34727028910561
 20
8.293282712385235
 10
-75.33876402902683
 20
8.293282712385235
 42
-0.4141055155693935
 10
-75.1826257306584
 20
8.138870166012111
 10
-75.1826257306584
 20
7.439070647185872
 42
-0.0027675332005429
 10
-75.18270659953964
 20
7.421878432550102
 42
-0.0027675332004465
 10
-75.18294920618155
 20
7.404688319233173
 42
-0.0027675331990674
 10
-75.18335355058525
 20
7.387502408559158
 42
-0.0027675332013063
 10
-75.1839196327503
 20
7.370322801823249
 42
-0.0027675331985318
 10
-75.1846474526767
 20
7.353151600374304
 42
-0.0027675332011082
 10
-75.18553637360196
 20
7.335990969172599
 42
-0.0027675332007225
 10
-75.18658703228925
 20
7.318842945877122
 42
-0.0027675331990705
 10
-75.18779879197359
 20
7.301709695490217
 42
-0.0027675331994759
 10
-75.18917228942018
 20
7.284593191963268
 42
-0.0027675332004882
 10
-75.19070625110271
 20
7.267495727639243
 42
-0.0027675331980648
 10
-75.19240067701958
 20
7.25041921282741
 42
-0.0027675332032427
 10
-75.19425620393872
 20
7.233365876150856
 42
-0.0027675331997779
 10
-75.1962721950913
 20
7.216337691627814
 42
-0.0027675331988507
 10
-75.19844801371573
 20
7.19933682423698
 42
-0.0027675331998305
 10
-75.20078365981408
 20
7.182365311606418
 42
-0.0029245593357009
 10
-75.20342566968748
 20
7.164465011015636
 42
-0.498504514683721
  0
LINE
  5
E851
330
E81B
100
AcDbEntity
  8
hyosen2
  6
Continuous
370
    40
100
AcDbLine
 10
-99.00000000000023
 20
25.0
 30
0.0
 11
-99.00000000000023
 21
14.0
 31
0.0
  0
LINE
  5
E852
330
E81B
100
AcDbEntity
  8
AM_2
100
AcDbLine
 10
-115.0000000000005
 20
20.5
 30
0.0
 11
-68.0
 21
20.49999999999977
 31
0.0
  0
TEXT
  5
E853
330
E81B
100
AcDbEntity
  8
hyomoji
  6
Continuous
100
AcDbText
 10
-108.8084654141801
 20
21.23246297775404
 30
0.0
 40
3.0
  1
尺度
 41
0.7
 72
     4
 11
-106.5684654141801
 21
22.73246297775404
 31
0.0
100
AcDbText
  0
TEXT
  5
E854
330
E81B
100
AcDbEntity
  8
hyomoji
  6
Continuous
100
AcDbText
 10
-79.52
 20
21.25
 30
0.0
 40
3.0
  1
投影法
 41
0.7
 72
     4
 11
-76.0
 21
22.75
 31
0.0
100
AcDbText
  0
LINE
  5
E855
330
E81B
100
AcDbEntity
  8
hyosen2
  6
Continuous
370
    40
100
AcDbLine
 10
-84.0
 20
25.0
 30
0.0
 11
-84.0
 21
14.0
 31
0.0
  0
TEXT
  5
E856
330
E81B
100
AcDbEntity
  8
hyomoji
  6
Continuous
100
AcDbText
 10
-95.14000000000023
 20
21.15
 30
0.0
 40
3.0
  1
サイズ
 41
0.7
 72
     4
 11
-91.50000000000023
 21
22.75
 31
0.0
100
AcDbText
  0
CIRCLE
  5
E857
330
E81B
100
AcDbEntity
  8
AM_0
370
    25
100
AcDbCircle
 10
-79.26619211742923
 20
17.25
 30
0.0
 40
1.25
  0
CIRCLE
  5
E858
330
E81B
100
AcDbEntity
  8
AM_0
370
    25
100
AcDbCircle
 10
-79.26619211742923
 20
17.25
 30
0.0
 40
1.9
  0
LINE
  5
E859
330
E81B
100
AcDbEntity
  8
AM_0
370
    25
100
AcDbLine
 10
-75.56619211742918
 20
18.5
 30
0.0
 11
-75.56619211742918
 21
16.0
 31
0.0
  0
LINE
  5
E85A
330
E81B
100
AcDbEntity
  8
AM_0
370
    25
100
AcDbLine
 10
-75.56619211742918
 20
16.0
 30
0.0
 11
-71.56619211742918
 21
15.34999999999991
 31
0.0
  0
LINE
  5
E85B
330
E81B
100
AcDbEntity
  8
AM_0
370
    25
100
AcDbLine
 10
-71.56619211742918
 20
15.34999999999991
 30
0.0
 11
-71.56619211742918
 21
19.14999999999986
 31
0.0
  0
LINE
  5
E85C
330
E81B
100
AcDbEntity
  8
AM_0
370
    25
100
AcDbLine
 10
-71.56619211742918
 20
19.14999999999986
 30
0.0
 11
-75.56619211742918
 21
18.5
 31
0.0
  0
LINE
  5
E85D
330
E81B
100
AcDbEntity
  8
AM_2
370
     9
100
AcDbLine
 10
-73.76970082765683
 20
17.25
 30
0.0
 11
-73.03098608735286
 21
17.25
 31
0.0
  0
LINE
  5
E85E
330
E81B
100
AcDbEntity
  8
AM_2
370
     9
100
AcDbLine
 10
-70.28729095201743
 20
17.25
 30
0.0
 11
-72.34381719255157
 21
17.25
 31
0.0
  0
LINE
  5
E85F
330
E81B
100
AcDbEntity
  8
AM_2
370
     9
100
AcDbLine
 10
-79.6355494875811
 20
17.25
 30
0.0
 11
-78.89683474727713
 21
17.25
 31
0.0
  0
LINE
  5
E860
330
E81B
100
AcDbEntity
  8
AM_2
370
     9
100
AcDbLine
 10
-74.45686972245835
 20
17.25
 30
0.0
 11
-78.20966585247584
 21
17.25
 31
0.0
  0
LINE
  5
E861
330
E81B
100
AcDbEntity
  8
AM_2
370
     9
100
AcDbLine
 10
-79.26619211742923
 20
16.8806426298479
 30
0.0
 11
-79.26619211742923
 21
17.6193573701521
 31
0.0
  0
LINE
  5
E862
330
E81B
100
AcDbEntity
  8
AM_2
370
     9
100
AcDbLine
 10
-79.26619211742923
 20
20.10439489183659
 30
0.0
 11
-79.26619211742923
 21
18.30652626495339
 31
0.0
  0
LINE
  5
E863
330
E81B
100
AcDbEntity
  8
AM_2
370
     9
100
AcDbLine
 10
-79.26619211743014
 20
14.39560510816341
 30
0.0
 11
-79.26619211742945
 21
16.19347373504638
 31
0.0
  0
LINE
  5
E864
330
E81B
100
AcDbEntity
  8
AM_2
370
     9
100
AcDbLine
 10
-82.12058700926582
 20
17.25000000000045
 30
0.0
 11
-80.32271838238262
 21
17.25
 31
0.0
  0
LINE
  5
E865
330
E81B
100
AcDbEntity
  8
AM_2
100
AcDbLine
 10
-162.0000000000009
 20
19.49999999999977
 30
0.0
 11
-115.0000000000011
 21
19.49999999999977
 31
0.0
  0
TEXT
  5
E866
330
E81B
100
AcDbEntity
  8
hyomoji
  6
Continuous
100
AcDbText
 10
-158.8197690813726
 20
20.74999999999955
 30
0.0
 40
3.0
  1
作成日
 41
0.7
 72
     4
 11
-155.4597690813725
 21
22.24999999999955
 31
0.0
100
AcDbText
  0
LINE
  5
E867
330
E81B
100
AcDbEntity
  8
hyosen2
  6
Continuous
100
AcDbLine
 10
-150.0000000000002
 20
24.99999999999977
 30
0.0
 11
-150.0000000000002
 21
14.0
 31
0.0
  0
TEXT
  5
E868
330
E81B
100
AcDbEntity
  8
hyomoji
  6
Continuous
100
AcDbText
 10
-158.8197690813726
 20
15.25
 30
0.0
 40
3.0
  1
更新日
 41
0.7
 72
     4
 11
-155.4597690813725
 21
16.75
 31
0.0
100
AcDbText
  0
LWPOLYLINE
  5
E869
330
E81B
100
AcDbEntity
  8
hyosen2
100
AcDbPolyline
 90
        3
 70
     1
 43
0.0
 10
-144.104867507461
 20
19.44306130048881
 10
-146.832847529382
 20
14.7180613004889
 10
-141.37688748554
 20
14.7180613004889
  0
ATTDEF
  5
E86A
330
E81B
100
AcDbEntity
  8
hyomoji
100
AcDbText
 10
-39.49999999999989
 20
1.5
 30
0.0
 40
4.0
  1

 41
0.7
 72
     1
 11
-39.49999999999989
 21
3.5
 31
0.0
100
AcDbAttributeDefinition
  3
図番
  2
XXX000000-00-00
 70
     0
 74
     2
280
     1
  0
ATTDEF
  5
E86B
330
E81B
100
AcDbEntity
  8
hyomoji
100
AcDbText
 10
-31.49999999999977
 20
19.50000000000057
 30
0.0
 40
4.0
  1

 41
0.7
 72
     1
 11
-31.49999999999977
 21
21.50000000000057
 31
0.0
100
AcDbAttributeDefinition
  3
品名
  2
品名
 70
     0
 74
     2
280
     1
  0
ATTDEF
  5
E86C
330
E81B
100
AcDbEntity
  8
hyomoji
100
AcDbText
 10
-121.0000000000003
 20
2.75
 30
0.0
 40
4.0
  1

 41
0.7
 72
     1
 11
-121.0000000000003
 21
4.75
 31
0.0
100
AcDbAttributeDefinition
  3
作成
  2
作成
 70
     0
 74
     2
280
     1
  0
ATTDEF
  5
E86D
330
E81B
100
AcDbEntity
  8
hyomoji
100
AcDbText
 10
-133.0000000000001
 20
2.75
 30
0.0
 40
4.0
  1

 41
0.7
 72
     1
 11
-133.0000000000001
 21
4.75
 31
0.0
100
AcDbAttributeDefinition
  3
確認1
  2
確認1
 70
     0
 74
     2
280
     1
  0
ATTDEF
  5
E86E
330
E81B
100
AcDbEntity
  8
hyomoji
100
AcDbText
 10
-144.0000000000007
 20
2.75
 30
0.0
 40
4.0
  1

 41
0.7
 72
     1
 11
-144.0000000000007
 21
4.75
 31
0.0
100
AcDbAttributeDefinition
  3
確認2
  2
確認2
 70
     0
 74
     2
280
     1
  0
ATTDEF
  5
E86F
330
E81B
100
AcDbEntity
  8
hyomoji
100
AcDbText
 10
-156.0000000000005
 20
2.75
 30
0.0
 40
4.0
  1

 41
0.7
 72
     1
 11
-156.0000000000005
 21
4.75
 31
0.0
100
AcDbAttributeDefinition
  3
承認
  2
承認
 70
     0
 74
     2
280
     1
  0
ATTDEF
  5
E870
330
E81B
100
AcDbEntity
  8
hyomoji
100
AcDbText
 10
-107.0000000000003
 20
15.25
 30
0.0
 40
4.0
  1

 41
0.7
 72
     1
 11
-107.0000000000003
 21
17.25
 31
0.0
100
AcDbAttributeDefinition
  3
尺度
  2
1:1
 70
     0
 74
     2
280
     1
  0
ATTDEF
  5
E871
330
E81B
100
AcDbEntity
  8
hyomoji
100
AcDbText
 10
-127.0214335782293
 20
20.75000000000001
 30
0.0
 40
3.0
  1

 41
0.7
 72
     1
 11
-127.0214335782293
 21
22.25000000000001
 31
0.0
100
AcDbAttributeDefinition
  3
作成日
  2
2011.01.01
 70
     0
 74
     2
280
     1
  0
ATTDEF
  5
E872
330
E81B
100
AcDbEntity
  8
hyomoji
100
AcDbText
 10
-144.221153111999
 20
14.90156448787789
 30
0.0
 40
3.0
  1

 41
0.7
 72
     1
 11
-144.221153111999
 21
16.40156448787789
 31
0.0
100
AcDbAttributeDefinition
  3
△
  2
1
 70
     0
 74
     2
280
     1
  0
ATTDEF
  5
E873
330
E81B
100
AcDbEntity
  8
hyomoji
100
AcDbText
 10
-127.0214335782293
 20
15.24999999999989
 30
0.0
 40
3.0
  1

 41
0.7
 72
     1
 11
-127.0214335782293
 21
16.74999999999989
 31
0.0
100
AcDbAttributeDefinition
  3
更新日
  2
2011.01.10
 70
     0
 74
     2
280
     1
  0
ATTDEF
  5
E874
330
E81B
100
AcDbEntity
  8
hyomoji
100
AcDbText
 10
-5.5
 20
1.5
 30
0.0
 40
4.0
  1

 41
0.7
 72
     1
 11
-5.5
 21
3.5
 31
0.0
100
AcDbAttributeDefinition
  3
図面枚数
  2
10
 70
     0
 74
     2
280
     1
  0
ATTDEF
  5
E875
330
E81B
100
AcDbEntity
  8
hyomoji
100
AcDbText
 10
-31.49999999999989
 20
8.5
 30
0.0
 40
4.0
  1

 41
0.7
 72
     1
 11
-31.49999999999989
 21
10.5
 31
0.0
100
AcDbAttributeDefinition
  3
品番
  2
品番
 70
     0
 74
     2
280
     1
  0
ATTDEF
  5
E876
330
E81B
100
AcDbEntity
  8
hyomoji
100
AcDbText
 10
-31.49999999999989
 20
14.5
 30
0.0
 40
3.0
  1

 41
0.7
 72
     1
 11
-31.49999999999989
 21
16.0
 31
0.0
100
AcDbAttributeDefinition
  3
現場名／部品名
  2
現場名／部品名
 70
     0
 74
     2
280
     1
  0
HATCH
  5
E877
330
E81B
100
AcDbEntity
  8
hyomoji
 62
     2
100
AcDbHatch
 10
0.0
 20
0.0
 30
0.0
210
0.0
220
0.0
230
1.0
  2
SOLID
 70
     1
 71
     0
 91
       22
 92
        7
 72
     1
 73
     1
 93
       69
 10
-99.66712910962951
 20
7.034687810013565
 42
-0.5477467214253071
 10
-99.63159662187991
 20
7.089636149892385
 42
0.0
 10
-99.1386314039603
 20
7.089636149892386
 42
0.0
 10
-99.13863140396029
 20
7.361418564973064
 42
0.0
 10
-99.79848261089455
 20
7.361418564973064
 42
-0.4174930671450113
 10
-99.83752001083417
 20
7.400467415575721
 42
0.0
 10
-99.83752001083417
 20
7.788282334972791
 42
-0.4174930671373218
 10
-99.79848261089452
 20
7.827331185574394
 42
0.0
 10
-99.13863140396029
 20
7.827331185574394
 42
0.0
 10
-99.13863140396028
 20
8.099113600655528
 42
0.0
 10
-99.79867747757248
 20
8.099113600655528
 42
-0.414213562373095
 10
-99.83752001083417
 20
8.137956133917442
 42
0.0
 10
-99.83752001083417
 20
8.487374139048597
 42
0.0
 10
-100.3810849683489
 20
8.487374139048597
 42
0.0
 10
-100.3810849683489
 20
8.137956133917442
 42
-0.4142135623730951
 10
-100.4199275016101
 20
8.099113600655528
 42
0.0
 10
-100.6140440167296
 20
8.099113600655528
 42
-0.4142135623730951
 10
-100.6528865499911
 20
8.137956133917442
 42
0.0
 10
-100.6528865499911
 20
8.4873741390486
 42
0.0
 10
-101.1576255300779
 20
8.487374139048597
 42
0.0
 10
-101.1576255300779
 20
8.09918460794438
 42
0.3758657869825331
 10
-100.7912990946363
 20
7.827331185574394
 42
0.0
 10
-100.4201223682884
 20
7.827331185574394
 42
-0.4174930671349325
 10
-100.3810849683489
 20
7.788282334973121
 42
0.0
 10
-100.3810849683489
 20
7.400467415574667
 42
-0.4174930671373218
 10
-100.4201223682885
 20
7.361418564973064
 42
0.0
 10
-101.1576255300779
 20
7.361418564973064
 42
0.0
 10
-101.1576255300779
 20
7.193389032087453
 42
-0.8238804307606035
 10
-101.1874012419661
 20
7.186840151314986
 42
0.0
 10
-101.3576144516717
 20
7.495842772770402
 42
-0.5940183717981689
 10
-101.324668782265
 20
7.555548834169713
 42
0.0
 10
-101.1187989158873
 20
7.555548834169712
 42
0.0
 10
-101.1187989158873
 20
7.905032989719074
 42
0.0
 10
-101.1307401709755
 20
7.889680286716384
 42
-0.2379723849506233
 10
-101.2559909727034
 20
7.827331185574394
 42
0.0
 10
-101.3515560309556
 20
7.827331185574394
 42
-0.417402060528375
 10
-101.3905813946446
 20
7.866380099852449
 42
0.0
 10
-101.3905813946446
 20
8.487374139048597
 42
0.0
 10
-101.8953203747312
 20
8.487374139048597
 42
0.0
 10
-101.8953203747312
 20
7.866380099852449
 42
-0.4174020605319965
 10
-101.9343457384207
 20
7.827331185574394
 42
0.0
 10
-102.2447745479926
 20
7.827331185574394
 42
0.0
 10
-102.2447745479926
 20
7.555548834169713
 42
0.0
 10
-101.9475909800192
 20
7.555548834169713
 42
-0.5208861567097101
 10
-101.910835855688
 20
7.503605475329121
 42
0.0
 10
-102.3225133761694
 20
6.118874928028162
 42
0.0
 10
-102.011774119361
 20
6.15771765363479
 42
0.0
 10
-101.9416452787261
 20
6.420694930355467
 42
-0.8775035382925878
 10
-101.8953203747312
 20
6.414624213681009
 42
0.0
 10
-101.8953203747312
 20
5.57538119489027
 42
0.0
 10
-101.3905813946446
 20
5.575381194890269
 42
0.0
 10
-101.3905813946446
 20
6.757012486332769
 42
-0.8100448096721719
 10
-101.2869971928114
 20
6.778995892082321
 42
0.0
 10
-101.235166993609
 20
6.662385730247023
 42
0.0
 10
-100.8856723246888
 20
6.639085554925034
 42
0.0
 10
-101.1011029739704
 20
7.030170861998885
 42
-0.5915391543358812
 10
-101.068004963626
 20
7.089636149892385
 42
0.0
 10
-100.5868152422811
 20
7.089636149892385
 42
-0.534832613937013
 10
-100.5509443035835
 20
7.03589334323874
 42
0.0
 10
-101.1576200999964
 20
5.575381194890269
 42
0.0
 10
-100.7694158108966
 20
5.575381194890269
 42
0.0
 10
-100.4555488257736
 20
6.297275260672905
 42
-0.8134131176983947
 10
-100.3810849683489
 20
6.281787728428299
 42
0.0
 10
-100.3810849683489
 20
5.57538119489027
 42
0.0
 10
-99.83752001083417
 20
5.575381194890269
 42
0.0
 10
-99.83752001083417
 20
6.29291573978071
 42
-0.8374112775618955
 10
-99.76218291124283
 20
6.306353809546367
 42
0.0
 10
-99.48806833687968
 20
5.575381194890269
 42
0.0
 10
-99.06095619162443
 20
5.575381194890269
 42
0.0
 97
        0
 92
        7
 72
     1
 73
     1
 93
       23
 10
-113.0029292479367
 20
7.416268145310141
 42
-0.1957419841521856
 10
-113.0029276888961
 20
7.767750618383161
 42
0.0
 10
-112.7323557985658
 20
8.432405278217402
 42
0.6213425724569267
 10
-112.7650957515452
 20
8.459104097606996
 42
0.0223985860000949
 10
-113.0542784116794
 20
8.305810639210904
 42
0.0223985859999093
 10
-113.310020197724
 20
8.142141767095154
 42
0.0223985859999841
 10
-113.530270096574
 20
7.969410104177996
 42
0.0223985860000033
 10
-113.7132623648724
 20
7.78900073698901
 42
0.0223985859999945
 10
-113.8575286275088
 20
7.602360390702188
 42
0.0223985860000046
 10
-113.9619125231654
 20
7.410985776373764
 42
0.0223985860000011
 10
-114.0255773454694
 20
7.216411492448287
 42
0.0223985859999998
 10
-114.0480117738609
 20
7.020197926266974
 42
0.0223985859999993
 10
-114.0290368779815
 20
6.823918455131661
 42
0.0223985859999987
 10
-113.9688035706235
 20
6.629147156783574
 42
0.0223985859999964
 10
-113.8677964283095
 20
6.437445819441564
 42
0.0223985860000001
 10
-113.7268241398465
 20
6.250351779631046
 42
0.0223985860000053
 10
-113.5470175960384
 20
6.069365314279821
 42
0.0223985860000067
 10
-113.3298184279565
 20
5.895937796930184
 42
0.0223985860000024
 10
-113.0769694554938
 20
5.731459981301896
 42
0.0220669162099173
 10
-112.7948354676323
 20
5.579344997231374
 42
0.4330144820686967
 10
-112.7627586028532
 20
5.591673044677009
 42
0.0
 10
-112.5949318145863
 20
6.003944023309487
 42
0.1957402929298021
 10
-112.5949313315425
 20
6.414003627072816
 42
0.0
 97
        0
 92
        7
 72
     1
 73
     1
 93
       46
 10
-109.0305054224011
 20
6.462145869264987
 42
0.6036079430413214
 10
-109.0573505999046
 20
6.494047360847617
 42
-0.0968770041122301
 10
-110.2622835208149
 20
6.467861583611239
 42
-0.4787358622778684
 10
-110.8492829567517
 20
7.526226966682088
 42
0.0
 10
-110.20981891515
 20
9.097085087812047
 42
0.5685357036715338
 10
-110.2342375268875
 20
9.129384786912851
 42
0.0037682570573848
 10
-110.3092103627434
 20
9.120496988302875
 42
0.003796761400007
 10
-110.3844216056325
 20
9.111059971979785
 42
0.0037967614000019
 10
-110.4592877230609
 20
9.101138888545393
 42
0.0037967614000093
 10
-110.533790248908
 20
9.090735902993856
 42
0.0037967613999978
 10
-110.6079119905769
 20
9.079853435023324
 42
0.0037967614000032
 10
-110.6816363922333
 20
9.068494095361757
 42
0.0037967614000015
 10
-110.7549462612806
 20
9.056660431060209
 42
0.0037967613999987
 10
-110.8278250418846
 20
9.044355180199318
 42
0.0037967613999957
 10
-110.9002549046863
 20
9.031581208211719
 42
0.0037967613999885
 10
-110.9722199306145
 20
9.018341444206271
 42
0.0037967613999968
 10
-111.0437035638354
 20
9.00463888096806
 42
0.003796761399993
 10
-111.1146886117529
 20
8.990476765988205
 42
0.0037967614000086
 10
-111.1851597920577
 20
8.97585834675715
 42
0.0037967614000003
 10
-111.2550999121536
 20
8.96078693444133
 42
0.0037967613999995
 10
-111.3244930529697
 20
8.945266094912995
 42
0.0038055234898924
 10
-111.3934824936698
 20
8.92926127468536
 42
0.2417074229057139
 10
-111.4098051015224
 20
8.915234771530322
 42
0.0
 10
-111.8650382388569
 20
7.796940065814169
 42
0.1957404060663562
 10
-111.8650383290526
 20
7.386880242530424
 42
0.0
 10
-111.4689880787039
 20
6.413968958653641
 42
-0.1957405476044069
 10
-111.4689882806949
 20
6.00390886074274
 42
0.0
 10
-111.7862250935459
 20
5.224607739534122
 42
0.4443455524912626
 10
-111.771023774384
 20
5.193113677398742
 42
0.0067708198256604
 10
-111.6540216434305
 20
5.1605708935449
 42
0.0067740668000073
 10
-111.5349304364502
 20
5.129370851569774
 42
0.0067740668000071
 10
-111.4138932822302
 20
5.099552967015597
 42
0.0067740668000066
 10
-111.2909986908041
 20
5.07113908084807
 42
0.0067740667999989
 10
-111.166337082497
 20
5.044150015212153
 42
0.0067740668000009
 10
-111.0400001511562
 20
5.018605637108294
 42
0.0067740668000062
 10
-110.9120802273947
 20
4.994524667364431
 42
0.0067740668000053
 10
-110.7826715521123
 20
4.971924807987307
 42
0.0067740668000071
 10
-110.6518690029725
 20
4.950822678486702
 42
0.0067740668000022
 10
-110.5197687311636
 20
4.931233688523662
 42
0.0067740668000082
 10
-110.3864681614009
 20
4.913172228938265
 42
0.0067740667999966
 10
-110.252064081636
 20
4.896651608074308
 42
0.00677406679999
 10
-110.1166558268719
 20
4.881683988101486
 42
0.0067740668000013
 10
-109.9803427321115
 20
4.868280257664765
 42
0.0067740668000002
 10
-109.8432247691208
 20
4.856450350263913
 42
0.0067636405007582
 10
-109.7056148693425
 20
4.846215763771625
 42
0.3216815158956167
 10
-109.6823639763011
 20
4.860849479223816
 42
0.0
 97
        0
 92
        7
 72
     1
 73
     1
 93
       23
 10
-107.9519330850694
 20
9.111683775963002
 42
0.5046897278906436
 10
-107.9716881113102
 20
9.144036257163862
 42
0.0053970181929799
 10
-108.081533134771
 20
9.152514060678413
 42
0.0031368713999882
 10
-108.1455316208039
 20
9.156812146174616
 42
0.003136871399997
 10
-108.2096530020642
 20
9.160768799436028
 42
0.0031368714000045
 10
-108.2738858168225
 20
9.16438332002258
 42
0.0031368713999919
 10
-108.338219876872
 20
9.167655262201833
 42
0.0031368714000049
 10
-108.4026462675336
 20
9.170583989209717
 42
0.0031368713999963
 10
-108.4671535270754
 20
9.173169055312655
 42
0.0031368714000025
 10
-108.5317321040557
 20
9.175410142129067
 42
0.0031368714000093
 10
-108.5963718102687
 20
9.177306803925603
 42
0.003136871400002
 10
-108.6610624575087
 20
9.178858785996454
 42
0.0031368714000044
 10
-108.7257944943333
 20
9.18006583363649
 42
0.0031368714000004
 10
-108.7905564590117
 20
9.180927755817038
 42
0.0031368713999985
 10
-108.8553388001008
 20
9.181444361509648
 42
0.0031368713999931
 10
-108.9201313293954
 20
9.181615714389864
 42
0.0031368713999985
 10
-108.9849238586896
 20
9.181441623429464
 42
0.0023783812883705
 10
-109.0340426873695
 20
9.181122365766441
 42
0.3019404427550625
 10
-109.0555989232337
 20
9.166446722909313
 42
0.0
 10
-109.7676455081016
 20
7.417294429240201
 42
0.5200087835236675
 10
-109.4231429740805
 20
6.882717884956719
 42
0.1173827961225227
 10
-108.8350126422347
 20
6.998518263554388
 42
0.1913082464585806
 10
-108.7953116152541
 20
7.039902503188159
 42
0.0
 97
        0
 92
        7
 72
     1
 73
     1
 93
       42
 10
-105.9412231671281
 20
6.181086424920977
 42
0.1957413290603471
 10
-105.9412237866036
 20
6.601231521413183
 42
0.0
 10
-106.3352129692114
 20
7.569070096907808
 42
-0.1957413474957244
 10
-106.3352135592579
 20
7.979131746854137
 42
0.0
 10
-105.9993061639686
 20
8.804298600408856
 42
0.4460668776922763
 10
-106.0146375343693
 20
8.835830324484732
 42
0.0028283786038634
 10
-106.0633916340964
 20
8.84950307664667
 42
0.0028494113000101
 10
-106.1128738376576
 20
8.86304090933777
 42
0.0028494112999968
 10
-106.1627164489867
 20
8.876338300380667
 42
0.0028494113000006
 10
-106.2129124636915
 20
8.889393466838783
 42
0.0028494113000024
 10
-106.2634555141447
 20
8.902204753128672
 42
0.002849411299989
 10
-106.3143385959547
 20
8.914770503667796
 42
0.0028494113000037
 10
-106.365555978256
 20
8.927089062872255
 42
0.0028494112999894
 10
-106.417100019894
 20
8.939158838834828
 42
0.0028494113000082
 10
-106.4689649900038
 20
8.950978239648975
 42
0.0028494112999955
 10
-106.5211432474309
 20
8.962545800759244
 42
0.0028494113000056
 10
-106.5736290613097
 20
8.973859930259096
 42
0.0028494113000083
 10
-106.6264147904869
 20
8.984919290946664
 42
0.0028494112999919
 10
-106.6794934305701
 20
8.9957222909145
 42
0.0028494112999998
 10
-106.7328586139317
 20
9.006267592961194
 42
0.0028494113000083
 10
-106.7865033361807
 20
9.016553859884425
 42
0.0028485312981507
 10
-106.8404039239445
 20
9.026576689379226
 42
0.3543993923517316
 10
-106.8664005303701
 20
9.012272432784357
 42
0.0
 10
-108.5584562824818
 20
4.855704245478137
 42
0.5392714590992974
 10
-108.5361428249075
 20
4.823266086778858
 42
0.0068019099602671
 10
-108.3961118072655
 20
4.828097465976725
 42
0.0068021947999971
 10
-108.2564359679452
 20
4.834545517526749
 42
0.0068021947999996
 10
-108.1172249654987
 20
4.842605470531225
 42
0.0068021948000011
 10
-107.9785813187425
 20
4.852271275742851
 42
0.0068021947999982
 10
-107.8406081832575
 20
4.863535801417584
 42
0.0068021948000013
 10
-107.7034080778603
 20
4.876390769638647
 42
0.0068021947999974
 10
-107.5670809743176
 20
4.890826565286943
 42
0.0068021948000009
 10
-107.4317293914462
 20
4.906832554423772
 42
0.0068021948000053
 10
-107.2974533010117
 20
4.924396829583202
 42
0.0068021947999869
 10
-107.1643507644926
 20
4.943506528156149
 42
0.006802194800004
 10
-107.0325217536538
 20
4.964147322978988
 42
0.0068021948000069
 10
-106.9020636932105
 20
4.986304122771799
 42
0.0068021948000013
 10
-106.7730727343514
 20
5.009960371701254
 42
0.0068021947999925
 10
-106.6456443915029
 20
5.035098622465057
 42
0.0068021948000045
 10
-106.5198729055639
 20
5.061700281589083
 42
0.0067876847517197
 10
-106.3961149632871
 20
5.0896821989827
 42
0.2416094440683338
 10
-106.3798008370782
 20
5.103706663032881
 42
0.0
 97
        0
 92
        7
 72
     1
 73
     1
 93
       23
 10
-103.7990336827053
 20
7.393913464184534
 42
0.0225609850000045
 10
-103.9007291656496
 20
7.587007401858493
 42
0.0225609850000186
 10
-104.0429679754028
 20
7.775423170297127
 42
0.0225609850000261
 10
-104.2245931138831
 20
7.957627826638459
 42
0.0225609849999274
 10
-104.4441260177741
 20
8.132138986988858
 42
0.0225609850000618
 10
-104.6997818408374
 20
8.297536988598498
 42
0.0225711483270357
 10
-104.9896131621468
 20
8.452539934886259
 42
0.4317106519741198
 10
-105.021596801439
 20
8.44016722022775
 42
0.0
 10
-105.209296853488
 20
7.979084861101001
 42
0.1957432007478236
 10
-105.2092974689353
 20
7.569019615279558
 42
0.0
 10
-104.8132220528769
 20
6.596057940510036
 42
-0.1957433897416817
 10
-104.8132228176046
 20
6.185992327983513
 42
0.0
 10
-105.0583583690725
 20
5.58382178252532
 42
0.6820149919156612
 10
-105.0265696694335
 20
5.553590591288155
 42
0.0225466705714925
 10
-104.7330947255924
 20
5.70708692844309
 42
0.0225609849999853
 10
-104.4732006090652
 20
5.871288388998948
 42
0.0225609849999906
 10
-104.2491918991686
 20
6.044770222218641
 42
0.0225609850000116
 10
-104.0628916479147
 20
6.226121043267145
 42
0.0225609849999939
 10
-103.9158153508638
 20
6.413865345290548
 42
0.022560984999981
 10
-103.8091594853927
 20
6.60647578893926
 42
0.0225609850000086
 10
-103.7437919592533
 20
6.802385300864581
 42
0.0225609850000037
 10
-103.7202444694167
 20
6.999999999999957
 42
0.0225609849999906
 10
-103.7387080447361
 20
7.197712251202026
 42
0.022560985000007
 97
        0
 92
        7
 72
     1
 73
     1
 93
       43
 10
-97.74087392986098
 20
7.050587299291102
 42
-0.4174930671364103
 10
-97.70183652992125
 20
7.089636149892385
 42
0.0
 10
-96.95049474860298
 20
7.089636149892385
 42
-0.3431699481782171
 10
-96.91284524296339
 20
7.060346475641381
 42
0.0
 10
-96.59543910280354
 20
5.809392782018676
 42
0.3300656182922442
 10
-96.34468932008099
 20
5.60466636629576
 42
0.0
 10
-95.72190018015476
 20
5.575322530045923
 42
0.0
 10
-95.72190018015476
 20
5.885989651075305
 42
0.0
 10
-96.04108871056542
 20
5.885989651075306
 42
-0.3431699281256742
 10
-96.07873821551925
 20
5.915279322624883
 42
0.0
 10
-96.55125448108114
 20
7.777548872513288
 42
-0.5024153566680193
 10
-96.51379435024137
 20
7.827331185574394
 42
0.0
 10
-95.96511368153006
 20
7.827331185574394
 42
0.3756769498112439
 10
-95.72190018015476
 20
8.098788047649284
 42
0.0
 10
-95.72190018015478
 20
8.487374139048597
 42
0.0
 10
-96.22663852347841
 20
8.487374139048597
 42
0.0
 10
-96.22663852347841
 20
8.176798667178673
 42
-0.4142135623730951
 10
-96.30432359000156
 20
8.099113600655528
 42
0.0
 10
-96.6026278236011
 20
8.099113600655528
 42
-0.3431692821353876
 10
-96.64027730647149
 20
8.128403185169645
 42
0.0
 10
-96.73136039348266
 20
8.487374139048597
 42
0.0
 10
-97.27492704572933
 20
8.487374139048596
 42
0.0
 10
-97.20097207755566
 20
8.195904375080545
 42
-0.4890148091784919
 10
-97.2762710914019
 20
8.099113600655528
 42
0.0
 10
-98.82802294777501
 20
8.099113600655528
 42
0.0
 10
-98.82802294777503
 20
7.827331185574394
 42
0.0
 10
-97.1376705538853
 20
7.827331185574394
 42
-0.3431714260423212
 10
-97.10002099772441
 20
7.798041312208852
 42
0.0
 10
-97.0137967949297
 20
7.458208951288725
 42
-0.4890132124780576
 10
-97.08909590725102
 20
7.361418564973064
 42
0.0
 10
-98.82802294777503
 20
7.361418564973065
 42
0.0
 10
-98.82802294777503
 20
7.089636149892386
 42
0.0
 10
-98.32349602696345
 20
7.089636149892385
 42
-0.4174930671363535
 10
-98.2844586270237
 20
7.050587299290909
 42
0.0
 10
-98.2844586270237
 20
5.924832184336765
 42
-0.4142135623730951
 10
-98.32330116028538
 20
5.885989651075306
 42
0.0
 10
-98.82802294777504
 20
5.885989651075306
 42
0.0
 10
-98.82802294777503
 20
5.575534718410836
 42
0.0
 10
-98.04681412898023
 20
5.614595287471956
 42
0.0
 10
-96.92552713035228
 20
5.769255773059738
 42
0.0
 10
-96.92552713035231
 20
6.080493954769505
 42
0.0
 10
-97.68002238129134
 20
5.900852078569415
 42
-0.4538928057970519
 10
-97.74087392986098
 20
5.955563778585429
 42
0.0
 97
        0
 92
        7
 72
     1
 73
     1
 93
       18
 10
-94.19770178202225
 20
6.642338759809945
 42
-0.2742066828570859
 10
-94.1636195095
 20
6.662549570394731
 42
0.0
 10
-92.30514857993761
 20
6.66254957039473
 42
0.0
 10
-92.30514857993762
 20
6.973158026579996
 42
0.0
 10
-95.48894367882508
 20
6.973158026579994
 42
0.0
 10
-95.48894367882508
 20
6.662549570394731
 42
0.0
 10
-94.96011425057304
 20
6.662549570394731
 42
-0.5696037030709009
 10
-94.92603195720176
 20
6.605075352594667
 42
0.0
 10
-95.33183590623139
 20
5.862752283892632
 42
0.569603703070891
 10
-95.16142443937679
 20
5.575381194890269
 42
0.0
 10
-92.63269060855919
 20
5.575381194890269
 42
0.5696033045871097
 10
-92.46227902959095
 20
5.862752078807262
 42
0.0
 10
-92.81460158919367
 20
6.50724534230244
 42
0.0
 10
-93.52253906807482
 20
6.507245342302439
 42
0.0
 10
-93.2143382109723
 20
5.943463859721533
 42
-0.569603614137088
 10
-93.2484205093474
 20
5.885989651075306
 42
0.0
 10
-94.54567274361261
 20
5.885989651075306
 42
-0.5696040735836392
 10
-94.57975501613487
 20
5.943463907013665
 42
0.0
 97
        0
 92
        7
 72
     1
 73
     1
 93
       12
 10
-92.9995019771386
 20
8.407546927133808
 42
0.2343463866956419
 10
-93.15242425877862
 20
8.487374139048597
 42
0.0
 10
-94.64166799998452
 20
8.487374139048597
 42
0.251104977230494
 10
-94.80150443173102
 20
8.397389580015442
 42
0.0
 10
-95.48861490902347
 20
7.386933916044883
 42
0.0
 10
-95.14318581001294
 20
7.419805994050648
 42
-0.4422835312456965
 10
-95.10066352813647
 20
7.381138154179553
 42
0.0
 10
-95.10066352813647
 20
7.206114336880773
 42
0.0
 10
-92.69342873062622
 20
7.206114336880773
 42
0.0
 10
-92.69342873062624
 20
7.381241139402164
 42
-0.4422837740584967
 10
-92.65090641733855
 20
7.419908976284205
 42
0.0
 10
-92.30556057799731
 20
7.387044538439794
 42
0.0
 97
        0
 92
       22
 72
     1
 73
     1
 93
        8
 10
-93.04538640247847
 20
7.577406860064912
 42
-0.6021421921708058
 10
-93.07750633078126
 20
7.51672279306581
 42
0.0
 10
-94.71664269381017
 20
7.51672279306581
 42
-0.6021429256477855
 10
-94.74876257508345
 20
7.577406929225617
 42
0.0
 10
-94.36431841585045
 20
8.142763822137113
 42
-0.2483280785897051
 10
-94.30007865330344
 20
8.17676568286356
 42
0.0
 10
-93.4940685910617
 20
8.17676568286356
 42
-0.2483286500869998
 10
-93.4298287344568
 20
8.142763683815474
 42
0.0
 97
        0
 92
        7
 72
     1
 73
     1
 93
       23
 10
-90.88313843636007
 20
7.36903455414682
 42
-0.320360356153406
 10
-90.88163173258658
 20
7.414132416776738
 42
0.0
 10
-90.70392331998096
 20
7.680692130354146
 42
0.5990232472207201
 10
-90.86551748421402
 20
7.982635413666912
 42
0.0
 10
-91.02365825236713
 20
7.982635413666912
 42
-0.4174930671793205
 10
-91.06269565231219
 20
8.021684264268515
 42
0.0
 10
-91.0626956523122
 20
8.526239086362013
 42
0.0
 10
-91.60627971271197
 20
8.526239086362011
 42
0.0
 10
-91.60627971271197
 20
8.021684264269242
 42
-0.4174930671827362
 10
-91.64531711265681
 20
7.982635413666912
 42
0.0
 10
-92.07219271537087
 20
7.982635413666912
 42
0.0
 10
-92.07219271537086
 20
7.710853062262458
 42
0.0
 10
-91.31642166536108
 20
7.710853062262458
 42
-0.5990215383385383
 10
-91.28410272412793
 20
7.650464568178677
 42
0.0
 10
-92.14958015254025
 20
6.352248425560447
 42
0.0
 10
-91.647889668169
 20
6.38808354198045
 42
-0.435256697587034
 10
-91.60627971271197
 20
6.349339719704176
 42
0.0
 10
-91.60627971271197
 20
5.575381194890269
 42
0.0
 10
-91.06269565231217
 20
5.575381194890269
 42
0.0
 10
-91.06269565231219
 20
6.664830072530094
 42
-0.7732509487775633
 10
-90.98992940035328
 20
6.683748944059062
 42
0.0
 10
-90.91304610121826
 20
6.545888321219763
 42
0.0
 10
-90.40242475165405
 20
6.507065499384681
 42
0.0
 97
        0
 92
        7
 72
     1
 73
     1
 93
       22
 10
-89.47080765431087
 20
7.400021796579607
 42
-0.4174930671781164
 10
-89.43177025436626
 20
7.439070647181552
 42
0.0
 10
-89.0048952884149
 20
7.439070647181551
 42
0.0
 10
-89.0048952884149
 20
7.710853062262459
 42
0.0
 10
-89.43177025436901
 20
7.710853062262458
 42
-0.417493067156357
 10
-89.47080765431087
 20
7.749901912863606
 42
0.0
 10
-89.47080765431087
 20
8.526239086362011
 42
0.0
 10
-90.01439235147382
 20
8.52623908636201
 42
0.0
 10
-90.01439235147382
 20
7.74990191286502
 42
-0.4174930671678483
 10
-90.05342975141616
 20
7.710853062262458
 42
0.0
 10
-90.48030471737002
 20
7.710853062262458
 42
0.0
 10
-90.48030471737003
 20
7.439070647181552
 42
0.0
 10
-90.0534297514191
 20
7.439070647181552
 42
-0.4174930671810166
 10
-90.01439235147382
 20
7.400021796579722
 42
0.0
 10
-90.01439235147382
 20
5.924832184336765
 42
-0.4142135623730951
 10
-90.0532348847355
 20
5.885989651075306
 42
0.0
 10
-90.67443524127134
 20
5.885989651075306
 42
0.0
 10
-90.67443524127134
 20
5.57538119489027
 42
0.0
 10
-88.81076476451335
 20
5.57538119489027
 42
0.0
 10
-88.81076476451337
 20
5.885989651075306
 42
0.0
 10
-89.43196512104942
 20
5.885989651075306
 42
-0.4142135623730951
 10
-89.47080765431087
 20
5.924832184336765
 42
0.0
 97
        0
 92
       23
 72
     0
 73
     1
 93
        4
 10
-85.19988391392076
 20
7.788505144470264
 10
-88.0730508169745
 20
7.788505144470264
 10
-88.0730508169745
 20
7.128462254672512
 10
-85.19988391392076
 20
7.128462254672513
 97
        0
 92
        7
 72
     1
 73
     1
 93
       20
 10
-85.19988391392076
 20
8.759195396662108
 42
0.0246113600010726
 10
-85.20091929029876
 20
8.774457073715064
 42
0.024611360000276
 10
-85.20419989245217
 20
8.789571021788804
 42
0.0246113600001139
 10
-85.20969388223902
 20
8.804390912782857
 42
0.0246113599997815
 10
-85.21734713481713
 20
8.818773411381436
 42
0.0246113600002871
 10
-85.22708705922342
 20
8.832579130199417
 42
0.0246113600005476
 10
-85.23881814103144
 20
8.845674540069394
 42
0.024611359996144
 10
-85.25242767321608
 20
8.85793279783105
 42
0.0246113600032153
 10
-85.26778320911322
 20
8.869235338249023
 42
0.0246113599998572
 10
-85.2847370197374
 20
8.879472765462
 42
0.0246113599999865
 10
-85.30312418351564
 20
8.888545871821648
 42
0.0246113599998732
 10
-85.32276640685215
 20
8.896366911408197
 42
0.0246113599999479
 10
-85.34347457118328
 20
8.90286017312016
 42
0.0246113600002118
 10
-85.36504809621405
 20
8.907962808465316
 42
0.0246113599999005
 10
-85.38727748697124
 20
8.91162534097043
 42
0.0246113599999933
 10
-85.40994815437648
 20
8.913812430298321
 42
0.0247910788792031
 10
-85.43300698312251
 20
8.914499624755535
 42
0.0
 10
-88.0730508169745
 20
8.914499624755535
 42
0.0
 10
-88.0730508169745
 20
8.254417828748274
 42
0.0
 10
-85.19988391392076
 20
8.254417828748272
 42
0.0
 97
        0
 92
        7
 72
     1
 73
     1
 93
       24
 10
-83.7244738482027
 20
7.835078224529277
 42
0.0162267989587524
 10
-83.72521886072582
 20
7.850166583526218
 42
0.0245499260004874
 10
-83.72745389829565
 20
7.872782170946179
 42
0.0245499259992035
 10
-83.73115603744934
 20
7.894960174941035
 42
0.0245499260000816
 10
-83.73629025623079
 20
7.916487025256128
 42
0.0245499259994459
 10
-83.7428062503761
 20
7.937155328233031
 42
0.0245499260010341
 10
-83.75064098036414
 20
7.956766031809693
 42
0.0245499259989293
 10
-83.75971994494179
 20
7.975130272124942
 42
0.0245499260006779
 10
-83.76995527083805
 20
7.992071156463948
 42
0.0269913420437848
 10
-83.78245266775903
 20
8.00888958951455
 42
0.0220091580738639
 10
-83.7934906621803
 20
8.021045521283817
 42
0.0245499260006453
 10
-83.80656404005626
 20
8.03279990861208
 42
0.0245499259990598
 10
-83.82034231439482
 20
8.042575491736462
 42
0.0245499259998786
 10
-83.83469303852823
 20
8.050278093435036
 42
0.0245499260001511
 10
-83.84947803491815
 20
8.05583359451204
 42
0.0245499259999635
 10
-83.86455466868962
 20
8.059188443213092
 42
0.0257155487687575
 10
-83.88050297316772
 20
8.060326402084684
 42
0.0
 10
-84.92810143516317
 20
8.060326402084684
 42
0.0
 10
-84.92810143516317
 20
7.128313952606959
 42
-0.4142135623730951
 10
-86.1704257366946
 20
5.885989651075306
 42
0.0
 10
-88.0730508169745
 20
5.885989651075305
 42
0.0
 10
-88.0730508169745
 20
5.264772738705233
 42
0.0
 10
-85.5882786819202
 20
5.264772738705233
 42
0.4142135623730951
 10
-83.7244738482027
 20
7.128577572422955
 42
0.0
 97
        0
 92
        7
 72
     1
 73
     1
 93
       43
 10
-73.86252021141422
 20
6.584897488186926
 42
0.0
 10
-73.9887170376758
 20
6.584897488186925
 42
-0.5132470832160693
 10
-74.02577777181115
 20
6.635956043364502
 42
0.0739209250258595
 10
-73.94017216627003
 20
7.20040165387104
 42
0.0
 10
-73.94017216627003
 20
8.528231708575959
 42
0.4111374742252591
 10
-74.32634368988461
 20
8.914499624755535
 42
0.0
 10
-77.2386931036765
 20
8.914499624755535
 42
0.2403459008079905
 10
-77.36448237994318
 20
8.850326729711242
 42
0.0
 10
-77.94703331635196
 20
8.046808308710979
 42
-0.2403459008079929
 10
-78.07282259261865
 20
7.982635413666912
 42
0.0
 10
-78.44405304475322
 20
7.982635413666912
 42
0.0
 10
-78.44405304475323
 20
7.361418564973065
 42
0.0
 10
-77.63769029675677
 20
7.361418564973064
 42
0.080611490271625
 10
-77.39202878477158
 20
7.401283899550208
 42
0.0
 10
-77.10094674206066
 20
7.498311142494596
 42
-0.54511634264178
 10
-77.04629557065391
 20
7.462633158448625
 42
0.0
 10
-77.04629557065391
 20
6.895505880695737
 42
0.0
 10
-76.0995944294657
 20
6.895505880695737
 42
-0.1380038353994479
 10
-76.01857653173215
 20
6.872710173877522
 42
0.0
 10
-75.50812793003524
 20
6.560768619332976
 42
-0.4326750878100239
 10
-75.4850144997311
 20
6.449903806133582
 42
-0.013804728636316
 10
-75.53296564102413
 20
6.385335568292757
 42
-0.0137524420050841
 10
-75.58367552336061
 20
6.324204234279191
 42
-0.0137524419998054
 10
-75.63716551223915
 20
6.266445323644475
 42
-0.0137524419969026
 10
-75.69327323314188
 20
6.212233564099067
 42
-0.0137524419998819
 10
-75.7518299439406
 20
6.161732858375261
 42
-0.0137524419999187
 10
-75.81265798779056
 20
6.115095965890193
 42
-0.0137524419997081
 10
-75.87557334023045
 20
6.072464056966832
 42
-0.013752442000218
 10
-75.9403856091741
 20
6.033966076077311
 42
-0.0137524419999036
 10
-76.00689930842589
 20
5.999718359795387
 42
-0.0137524420000041
 10
-76.07491258416681
 20
5.969824636787179
 42
-0.0137524420001114
 10
-76.1442203987631
 20
5.944375263699305
 42
-0.0137524420002324
 10
-76.21461262047691
 20
5.923447225158761
 42
-0.0137524419993368
 10
-76.28587593375175
 20
5.907103879070086
 42
-0.0137524420004817
 10
-76.35779511275837
 20
5.895394574551119
 42
-0.0137524419998714
 10
-76.43015365812101
 20
5.888354842969651
 42
-0.0137554371945275
 10
-76.50273061313919
 20
5.885989651075306
 42
0.0
 10
-78.28874849827889
 20
5.885989651075305
 42
0.0
 10
-78.28874849827889
 20
5.264772738705233
 42
0.0
 10
-75.88149459788406
 20
5.264772738705233
 42
0.2200653306826863
 10
-74.40203994986686
 20
5.949142139580748
 42
-0.2394335668362057
 10
-74.36999862032576
 20
5.963641733283566
 42
0.0
 10
-73.86252021141422
 20
5.963641733283567
 42
0.0
 97
        0
 92
       22
 72
     1
 73
     1
 93
       26
 10
-75.26495386479637
 20
7.140149782936077
 42
0.0
 10
-75.84386225627964
 20
7.493927168456366
 42
0.1380035768931157
 10
-75.92488001948982
 20
7.51672279306581
 42
0.0
 10
-76.91233084000021
 20
7.51672279306581
 42
-0.6376639659071909
 10
-76.94237871960995
 20
7.580394195811876
 42
0.0
 10
-76.47548726699438
 20
8.22438360138949
 42
-0.2516647099539785
 10
-76.3456015117917
 20
8.293282712385235
 42
0.0
 10
-75.33876402902638
 20
8.293282712385235
 42
-0.4174725427497406
 10
-75.18262573065795
 20
8.137086802572172
 42
0.0
 10
-75.18262573065795
 20
7.439070647185872
 42
-0.0027675332005429
 10
-75.18270659953919
 20
7.421878432550102
 42
-0.0027675332004465
 10
-75.18294920618109
 20
7.404688319233173
 42
-0.0027675331990674
 10
-75.1833535505848
 20
7.387502408559158
 42
-0.0027675332013063
 10
-75.18391963274985
 20
7.370322801823249
 42
-0.0027675331985318
 10
-75.18464745267624
 20
7.353151600374304
 42
-0.0027675332011082
 10
-75.18553637360151
 20
7.335990969172599
 42
-0.0027675332007225
 10
-75.1865870322888
 20
7.318842945877122
 42
-0.0027675331990705
 10
-75.18779879197314
 20
7.301709695490217
 42
-0.0027675331994759
 10
-75.18917228941973
 20
7.284593191963268
 42
-0.0027675332004882
 10
-75.19070625110226
 20
7.267495727639243
 42
-0.0027675331980648
 10
-75.19240067701912
 20
7.25041921282741
 42
-0.0027675332032427
 10
-75.19425620393827
 20
7.233365876150856
 42
-0.0027675331997779
 10
-75.19627219509084
 20
7.216337691627814
 42
-0.0027675331988507
 10
-75.19844801371528
 20
7.19933682423698
 42
-0.0027675331998305
 10
-75.20078365981362
 20
7.182365311606418
 42
-0.0026373057331506
 10
-75.20315689813052
 20
7.166221807370197
 42
-0.5743107685894617
 97
        0
 92
        7
 72
     1
 73
     1
 93
       44
 10
-79.07462846058795
 20
7.506115916052917
 42
0.0244511737842225
 10
-79.06526995712306
 20
7.748711594328597
 42
0.0
 10
-79.06526995712306
 20
8.137912579338717
 42
0.4142135623730951
 10
-79.22064009016981
 20
8.293282712385235
 42
0.0
 10
-79.75839290675576
 20
8.293282712385235
 42
-0.0458382524601169
 10
-79.78676376734258
 20
8.295359441931703
 42
-0.0372091873044854
 10
-79.80935408011695
 20
8.303092680703699
 42
-0.0246113599998993
 10
-79.82373600562889
 20
8.310746442692093
 42
-0.0246113599999289
 10
-79.8375422975336
 20
8.320486112393102
 42
-0.024611360000415
 10
-79.85063732534574
 20
8.332217385229946
 42
-0.0281712770511164
 10
-79.86455495230389
 20
8.347891819446486
 42
-0.0211922031624009
 10
-79.8741981872016
 20
8.361182580664416
 42
-0.0246113600009834
 10
-79.88443542338611
 20
8.378136009232271
 42
-0.0246113599986513
 10
-79.89350865709747
 20
8.396523109333076
 42
-0.0246113600002453
 10
-79.90133001506595
 20
8.416165778403487
 42
-0.0246113599997134
 10
-79.90782308574938
 20
8.436873942734612
 42
-0.0246113600003496
 10
-79.91292546638877
 20
8.458447149384371
 42
-0.0246113600001185
 10
-79.91658812624658
 20
8.480676540141534
 42
-0.0246113599997586
 10
-79.91877540660334
 20
8.50334701651743
 42
-0.0247875348908447
 10
-79.91946247370811
 20
8.526402996941345
 42
0.0
 10
-79.91946247370811
 20
8.914499624755535
 42
0.0
 10
-83.49151798363596
 20
8.914499624755535
 42
0.0
 10
-83.49151798363596
 20
8.293282712385235
 42
0.0
 10
-80.61849626250932
 20
8.293282712385235
 42
-0.4142135623730951
 10
-80.23007092989269
 20
7.904857379768828
 42
0.0
 10
-80.23007092989269
 20
7.128313952606959
 42
-0.4142135623730951
 10
-81.47239523142457
 20
5.885989651075306
 42
0.0
 10
-83.25856148230628
 20
5.885989651075306
 42
0.0
 10
-83.25856148230628
 20
5.264772738705232
 42
0.0
 10
-81.00680723741539
 20
5.264772738705233
 42
0.0245738278590459
 10
-80.8163276520395
 20
5.276740887318735
 42
0.0245486219999921
 10
-80.62787641591076
 20
5.312522119548655
 42
0.0245486220000169
 10
-80.44307255733186
 20
5.371774493750735
 42
0.024548621999997
 10
-80.26369646520365
 20
5.453927406743514
 42
0.0245486220000087
 10
-80.09147440358699
 20
5.558189680697509
 42
0.0245486219998191
 10
-79.92806577644504
 20
5.683557204288856
 42
0.0245486219999559
 10
-79.77504402475434
 20
5.82882254782132
 42
0.024548622000227
 10
-79.63388325448858
 20
5.992586807012518
 42
0.0245486220000841
 10
-79.50594231755305
 20
6.173272847656124
 42
0.0245486220000406
 10
-79.39245335004229
 20
6.369140587939146
 42
0.0245486219998843
 10
-79.2945103105165
 20
6.578303617946109
 42
0.0245486220000547
 10
-79.21305560797808
 20
6.798747602110907
 42
0.0245486219998577
 10
-79.1488737342477
 20
7.028349636795924
 42
0.024548622000108
 10
-79.10258234927936
 20
7.264898435690247
 42
0.0245486220000094
 97
        0
 92
        7
 72
     1
 73
     1
 93
        8
 10
-79.06526995712306
 20
9.069770868532942
 42
0.4142135623730951
 10
-79.14295502364666
 20
9.14745593505586
 42
0.0
 10
-79.64764688328319
 20
9.14745593505586
 42
0.4142135623730951
 10
-79.7253319498061
 20
9.069770868532942
 42
0.0
 10
-79.7253319498061
 20
8.56505920557197
 42
0.4142135623730951
 10
-79.64764688328319
 20
8.487374139048597
 42
0.0
 10
-79.14295502364666
 20
8.487374139048597
 42
0.4142135623730951
 10
-79.06526995712306
 20
8.56505920557197
 42
0.0
 97
        0
 92
        7
 72
     1
 73
     1
 93
        8
 10
-78.17225146311057
 20
9.069770868532942
 42
0.4142135623730951
 10
-78.24993652963394
 20
9.14745593505586
 42
0.0
 10
-78.75462838927047
 20
9.14745593505586
 42
0.4142135623730951
 10
-78.83231345579361
 20
9.069770868532942
 42
0.0
 10
-78.83231345579361
 20
8.56505920557197
 42
0.4142135623730951
 10
-78.75462838927047
 20
8.487374139048597
 42
0.0
 10
-78.24993652963394
 20
8.487374139048597
 42
0.4142135623730951
 10
-78.17225146311057
 20
8.56505920557197
 42
0.0
 97
        0
 92
        7
 72
     1
 73
     1
 93
       20
 10
-69.43627218490178
 20
8.686902633281381
 42
0.0188381439369318
 10
-69.43714900733266
 20
8.704420229343953
 42
0.0245951490006683
 10
-69.43989918604018
 20
8.727075996499233
 42
0.0245951489988067
 10
-69.44449024611903
 20
8.749291633177599
 42
0.0245951490012403
 10
-69.45087888769694
 20
8.77085229560042
 42
0.0245951489990651
 10
-69.45900334477636
 20
8.791549634962712
 42
0.0245951489991956
 10
-69.46878402200382
 20
8.81118351670528
 42
0.0245951489995369
 10
-69.48012731524202
 20
8.829564185502337
 42
0.0245951490059664
 10
-69.492923701285
 20
8.846513920848373
 42
0.0245951489938879
 10
-69.50704901136872
 20
8.861868883652953
 42
0.024595149002395
 10
-69.52236634149503
 20
8.875480644511283
 42
0.0245951489988252
 10
-69.53872859944
 20
8.887217584536618
 42
0.0245951489997415
 10
-69.55597659449657
 20
8.89696623259353
 42
0.0245951490004225
 10
-69.57394413156304
 20
8.904632411457623
 42
0.0245951490002582
 10
-69.59245801114668
 20
8.910142001933776
 42
0.0245951489999196
 10
-69.6113380293632
 20
8.913441706972437
 42
0.02459514899999
 10
-69.63040270880333
 20
8.914499624755535
 42
0.0
 10
-73.08597964968521
 20
8.914499624755537
 42
0.0
 10
-73.08597964968523
 20
8.254417828748274
 42
0.0
 10
-69.43627218490178
 20
8.254417828748274
 42
0.0
 97
        0
 92
        7
 72
     1
 73
     1
 93
       20
 10
-69.04801177386116
 20
5.969001055394301
 42
0.018838192805901
 10
-69.04888859629256
 20
5.986518648172897
 42
0.0245951489999125
 10
-69.05163813823681
 20
6.009174415327807
 42
0.0245951489996092
 10
-69.05622983507875
 20
6.031390052006678
 42
0.024595149000193
 10
-69.06261847665596
 20
6.052950778105015
 42
0.0245951489996545
 10
-69.0707422969733
 20
6.073648053791157
 42
0.024595148999105
 10
-69.08052361096365
 20
6.093281999210089
 42
0.0245951489998459
 10
-69.09186690420131
 20
6.11166266800736
 42
0.0245951489986985
 10
-69.10466329024077
 20
6.128612403348565
 42
0.0245951489983862
 10
-69.11878796356406
 20
6.143967366156455
 42
0.0245951490036994
 10
-69.13410593045356
 20
6.157579063339413
 42
0.0245951490009212
 10
-69.15046755163695
 20
6.169316003365974
 42
0.0245951489995406
 10
-69.16771618345638
 20
6.179064715098542
 42
0.024595149000153
 10
-69.18568372052286
 20
6.186730893962508
 42
0.0245951489999677
 10
-69.20419696334339
 20
6.192240420762369
 42
0.0245951489999171
 10
-69.2230776183226
 20
6.195540125801247
 42
0.0245951489948941
 10
-69.2421422977591
 20
6.19659804358389
 42
0.0
 10
-73.39658810587002
 20
6.19659804358389
 42
0.0
 10
-73.39658810587001
 20
5.342424884589717
 42
0.0
 10
-69.04801177386116
 20
5.342424884589717
 42
0.0
 97
        0
 75
     0
 76
     1
 47
0.0169621395940554
 98
       22
 10
-99.98230234580456
 20
6.652809220983443
 10
-113.0210640430695
 20
6.619512919722894
 10
-110.7476312720668
 20
5.991913822431172
 10
-108.9322783426086
 20
7.62027928030372
 10
-106.6079477045386
 20
6.076724496093476
 10
-104.4193447119815
 20
7.264074301334546
 10
-98.04868968214384
 20
6.466598997064011
 10
-94.63854052563983
 20
6.466598997064011
 10
-92.82079807577094
 20
7.756112183587334
 10
-92.82079807577094
 20
7.756112183587334
 10
-91.05634277286472
 20
7.365982822962621
 10
-89.81783089374409
 20
6.517875899355147
 10
-85.89870450965898
 20
7.365982822962621
 10
-85.62724969966393
 20
8.400673378214634
 10
-84.54143118122994
 20
7.620415030933884
 10
-74.80568923702106
 20
6.14442011923083
 10
-74.80568923702106
 20
6.14442011923083
 10
-79.36952049420015
 20
7.348732021807479
 10
-79.30165691195907
 20
8.926211000688909
 10
-78.50425891869384
 20
8.824438229690998
 10
-70.9374602389725
 20
8.586968119055314
 10
-71.15801718190019
 20
5.652517987608206
450
        0
451
        0
460
0.0
461
0.0
452
        1
462
1.0
453
        2
463
0.0
 63
     5
421
      255
463
1.0
 63
     7
421
 16777215
470
LINEAR
1001
ACAD
1010
0.0
1020
0.0
1030
0.0
  0
ENDBLK
  5
E878
330
E81B
100
AcDbEntity
  8
0
100
AcDbBlockEnd
  0
BLOCK
  5
E87B
330
E879
100
AcDbEntity
  8
0
100
AcDbBlockBegin
  2
SYS図枠A4(AIS2008)
 70
     0
 10
0.0
 20
0.0
 30
0.0
  3
SYS図枠A4(AIS2008)
  1

  0
TEXT
  5
E87C
330
E879
100
AcDbEntity
  8
AM_6
 60
     1
100
AcDbText
 10
285.4999999999999
 20
8.5
 30
0.0
 40
2.5
  1
!GENTITLE-INSERT
100
AcDbText
  0
TEXT
  5
E87D
330
E879
100
AcDbEntity
  8
AM_6
 60
     1
100
AcDbText
 10
297.0
 20
210.0
 30
0.0
 40
2.5
  1
!GENTITLE-MAX
100
AcDbText
  0
TEXT
  5
E87E
330
E879
100
AcDbEntity
  8
AM_6
 60
     1
100
AcDbText
 10
297.0
 20
210.0
 30
0.0
 40
2.5
  1
!GENTITLE-RU
100
AcDbText
  0
LINE
  5
E87F
330
E879
100
AcDbEntity
  8
size
100
AcDbLine
 10
0.0
 20
210.0
 30
0.0
 11
297.0
 21
210.0
 31
0.0
1001
GENIUS_GENREC_14
1002
{
1000
PYDIR
1011
0.0000000000000142
1021
297.0
1031
0.0
1002
}
1002
{
1000
PXDIR
1011
420.0
1021
0.0
1031
0.0
1002
}
1002
{
1000
PORI
1011
0.0
1021
0.0
1031
0.0
1002
}
1002
{
1000
PINS
1011
210.0
1021
148.5
1031
0.0
1002
}
1002
{
1000
HVAL
1000
297
1002
}
1002
{
1000
H
1070
     2
1002
}
1002
{
1000
WVAL
1000
420
1002
}
1002
{
1000
W
1070
     2
1002
}
1002
{
1000
C
1070
     4
1002
}
1001
GENIUS_GENOBJ-N-REC_13
1002
{
1000
OWNER
1000
GEN
1002
}
1001
GENIUS_GENODEF_13
1002
{
1000
HIER
1070
     0
1002
}
1002
{
1000
MANEDIT
1070
     0
1002
}
1002
{
1000
NOSEL
1070
     0
1002
}
1002
{
1000
BEHIND
1070
     0
1002
}
1002
{
1000
OTHER
1070
     0
1002
}
1002
{
1000
REACTOR
1002
}
  0
TEXT
  5
E880
330
E879
100
AcDbEntity
  8
AM_6
 60
     1
100
AcDbText
 10
0.0
 20
0.0
 30
0.0
 40
2.5
  1
!GENTITLE-LL
100
AcDbText
  0
LINE
  5
E881
330
E879
100
AcDbEntity
  8
size
100
AcDbLine
 10
297.0
 20
210.0
 30
0.0
 11
297.0
 21
-0.0000000000000284
 31
0.0
1001
GENIUS_GENREC_14
1002
{
1000
PYDIR
1011
0.0000000000000142
1021
297.0
1031
0.0
1002
}
1002
{
1000
PXDIR
1011
420.0
1021
0.0
1031
0.0
1002
}
1002
{
1000
PORI
1011
0.0
1021
0.0
1031
0.0
1002
}
1002
{
1000
PINS
1011
210.0
1021
148.5
1031
0.0
1002
}
1002
{
1000
HVAL
1000
297
1002
}
1002
{
1000
H
1070
     2
1002
}
1002
{
1000
WVAL
1000
420
1002
}
1002
{
1000
W
1070
     2
1002
}
1002
{
1000
C
1070
     4
1002
}
1001
GENIUS_GENOBJ-N-REC_13
1002
{
1000
OWNER
1000
GEN
1002
}
1001
GENIUS_GENODEF_13
1002
{
1000
HIER
1070
     0
1002
}
1002
{
1000
MANEDIT
1070
     0
1002
}
1002
{
1000
NOSEL
1070
     0
1002
}
1002
{
1000
BEHIND
1070
     0
1002
}
1002
{
1000
OTHER
1070
     0
1002
}
1002
{
1000
REACTOR
1002
}
  0
LINE
  5
E882
330
E879
100
AcDbEntity
  8
waku
100
AcDbLine
 10
11.5
 20
8.5
 30
0.0
 11
285.4999999999999
 21
8.5
 31
0.0
1001
GENIUS_GENREC_14
1002
{
1000
PYDIR
1011
0.0000000000000142
1021
297.0
1031
0.0
1002
}
1002
{
1000
PXDIR
1011
420.0
1021
0.0
1031
0.0
1002
}
1002
{
1000
PORI
1011
0.0
1021
0.0
1031
0.0
1002
}
1002
{
1000
PINS
1011
210.0
1021
148.5
1031
0.0
1002
}
1002
{
1000
HVAL
1000
297
1002
}
1002
{
1000
H
1070
     2
1002
}
1002
{
1000
WVAL
1000
420
1002
}
1002
{
1000
W
1070
     2
1002
}
1002
{
1000
C
1070
     4
1002
}
  0
LINE
  5
E883
330
E879
100
AcDbEntity
  8
waku
100
AcDbLine
 10
285.5
 20
201.5
 30
0.0
 11
11.5
 21
201.5
 31
0.0
1001
GENIUS_GENREC_14
1002
{
1000
PYDIR
1011
-123.0
1021
210.0
1031
0.0
1002
}
1002
{
1000
PXDIR
1011
297.0
1021
-87.0
1031
0.0
1002
}
1002
{
1000
PORI
1011
-123.0
1021
-87.0
1031
0.0
1002
}
1002
{
1000
PINS
1011
87.00000000000003
1021
61.49999999999997
1031
0.0
1002
}
1002
{
1000
HVAL
1000
297
1002
}
1002
{
1000
H
1070
     2
1002
}
1002
{
1000
WVAL
1000
420
1002
}
1002
{
1000
W
1070
     2
1002
}
1002
{
1000
C
1070
     4
1002
}
1001
GENIUS_GENOBJ-N-REC_13
1002
{
1000
OWNER
1000
GEN
1002
}
1001
GENIUS_GENODEF_13
1002
{
1000
HIER
1070
     0
1002
}
1002
{
1000
MANEDIT
1070
     0
1002
}
1002
{
1000
NOSEL
1070
     0
1002
}
1002
{
1000
BEHIND
1070
     0
1002
}
1002
{
1000
OTHER
1070
     0
1002
}
1002
{
1000
REACTOR
1002
}
  0
LINE
  5
E884
330
E879
100
AcDbEntity
  8
waku
100
AcDbLine
 10
11.50000000000002
 20
201.5
 30
0.0
 11
11.5
 21
8.5
 31
0.0
1001
GENIUS_GENREC_14
1002
{
1000
PYDIR
1011
0.0000000000000142
1021
297.0
1031
0.0
1002
}
1002
{
1000
PXDIR
1011
420.0
1021
0.0
1031
0.0
1002
}
1002
{
1000
PORI
1011
0.0
1021
0.0
1031
0.0
1002
}
1002
{
1000
PINS
1011
210.0
1021
148.5
1031
0.0
1002
}
1002
{
1000
HVAL
1000
297
1002
}
1002
{
1000
H
1070
     2
1002
}
1002
{
1000
WVAL
1000
420
1002
}
1002
{
1000
W
1070
     2
1002
}
1002
{
1000
C
1070
     4
1002
}
1001
GENIUS_GENOBJ-N-REC_13
1002
{
1000
OWNER
1000
GEN
1002
}
1001
GENIUS_GENODEF_13
1002
{
1000
HIER
1070
     0
1002
}
1002
{
1000
MANEDIT
1070
     0
1002
}
1002
{
1000
NOSEL
1070
     0
1002
}
1002
{
1000
BEHIND
1070
     0
1002
}
1002
{
1000
OTHER
1070
     0
1002
}
1002
{
1000
REACTOR
1002
}
  0
LINE
  5
E885
330
E879
100
AcDbEntity
  8
waku
100
AcDbLine
 10
285.4999999999999
 20
8.5
 30
0.0
 11
285.5
 21
201.5
 31
0.0
1001
GENIUS_GENREC_14
1002
{
1000
PYDIR
1011
-123.0
1021
216.0
1031
0.0
1002
}
1002
{
1000
PXDIR
1011
297.0
1021
-81.0
1031
0.0
1002
}
1002
{
1000
PORI
1011
-123.0
1021
-81.0
1031
0.0
1002
}
1002
{
1000
PINS
1011
87.00000000000003
1021
67.49999999999997
1031
0.0
1002
}
1002
{
1000
HVAL
1000
297
1002
}
1002
{
1000
H
1070
     2
1002
}
1002
{
1000
WVAL
1000
420
1002
}
1002
{
1000
W
1070
     2
1002
}
1002
{
1000
C
1070
     4
1002
}
1001
GENIUS_GENOBJ-N-REC_13
1002
{
1000
OWNER
1000
GEN
1002
}
1001
GENIUS_GENODEF_13
1002
{
1000
HIER
1070
     0
1002
}
1002
{
1000
MANEDIT
1070
     0
1002
}
1002
{
1000
NOSEL
1070
     0
1002
}
1002
{
1000
BEHIND
1070
     0
1002
}
1002
{
1000
OTHER
1070
     0
1002
}
1002
{
1000
REACTOR
1002
}
  0
LINE
  5
E886
330
E879
100
AcDbEntity
  8
size
100
AcDbLine
 10
0.0000000000000213
 20
210.0
 30
0.0
 11
0.0
 21
0.0
 31
0.0
1001
GENIUS_GENREC_14
1002
{
1000
PYDIR
1011
0.0000000000000142
1021
297.0
1031
0.0
1002
}
1002
{
1000
PXDIR
1011
420.0
1021
0.0
1031
0.0
1002
}
1002
{
1000
PORI
1011
0.0
1021
0.0
1031
0.0
1002
}
1002
{
1000
PINS
1011
210.0
1021
148.5
1031
0.0
1002
}
1002
{
1000
HVAL
1000
297
1002
}
1002
{
1000
H
1070
     2
1002
}
1002
{
1000
WVAL
1000
420
1002
}
1002
{
1000
W
1070
     2
1002
}
1002
{
1000
C
1070
     4
1002
}
1001
GENIUS_GENOBJ-N-REC_13
1002
{
1000
OWNER
1000
GEN
1002
}
1001
GENIUS_GENODEF_13
1002
{
1000
HIER
1070
     0
1002
}
1002
{
1000
MANEDIT
1070
     0
1002
}
1002
{
1000
NOSEL
1070
     0
1002
}
1002
{
1000
BEHIND
1070
     0
1002
}
1002
{
1000
OTHER
1070
     0
1002
}
1002
{
1000
REACTOR
1002
}
  0
LINE
  5
E887
330
E879
100
AcDbEntity
  8
size
100
AcDbLine
 10
0.0
 20
0.0
 30
0.0
 11
297.0
 21
0.0
 31
0.0
1001
GENIUS_GENREC_14
1002
{
1000
PYDIR
1011
0.0000000000000142
1021
297.0
1031
0.0
1002
}
1002
{
1000
PXDIR
1011
420.0
1021
0.0
1031
0.0
1002
}
1002
{
1000
PORI
1011
0.0
1021
0.0
1031
0.0
1002
}
1002
{
1000
PINS
1011
210.0
1021
148.5
1031
0.0
1002
}
1002
{
1000
HVAL
1000
297
1002
}
1002
{
1000
H
1070
     2
1002
}
1002
{
1000
WVAL
1000
420
1002
}
1002
{
1000
W
1070
     2
1002
}
1002
{
1000
C
1070
     4
1002
}
1001
GENIUS_GENOBJ-N-REC_13
1002
{
1000
OWNER
1000
GEN
1002
}
1001
GENIUS_GENODEF_13
1002
{
1000
HIER
1070
     0
1002
}
1002
{
1000
MANEDIT
1070
     0
1002
}
1002
{
1000
NOSEL
1070
     0
1002
}
1002
{
1000
BEHIND
1070
     0
1002
}
1002
{
1000
OTHER
1070
     0
1002
}
1002
{
1000
REACTOR
1002
}
  0
LINE
  5
E888
330
E879
100
AcDbEntity
  8
waku
100
AcDbLine
 10
123.4999999999991
 20
33.49999999999332
 30
0.0
 11
285.4999999999999
 21
33.49999999999982
 31
0.0
  0
LINE
  5
E889
330
E879
100
AcDbEntity
  8
waku
100
AcDbLine
 10
123.4999999999984
 20
8.500000000000007
 30
0.0
 11
123.4999999999974
 21
33.49999999999332
 31
0.0
  0
MTEXT
  5
E88A
330
E879
100
AcDbEntity
  8
AM_6
100
AcDbMText
 10
193.9999999999997
 20
25.74999999999989
 30
0.0
 40
4.0
 41
9.015095283510618
 46
0.0
 71
     5
 72
     5
  1
A4
 73
     1
 44
1.0
  0
ENDBLK
  5
E88B
330
E879
100
AcDbEntity
  8
0
100
AcDbBlockEnd
  0
BLOCK
  5
E972
330
E971
100
AcDbEntity
  8
AM_0
100
AcDbBlockBegin
  2
_ACMFILLED
 70
     0
 10
0.0
 20
0.0
 30
0.0
  3
_ACMFILLED
  1
Acad:XRef
  0
TRACE
  5
E974
330
E971
100
AcDbEntity
  8
AM_0
 62
     0
100
AcDbTrace
 10
-1.0
 20
0.1666666666666667
 30
0.0
 11
-1.0
 21
-0.1666666666666667
 31
0.0
 12
0.0
 22
0.0
 32
0.0
 13
0.0
 23
0.0
 33
0.0
  0
ENDBLK
  5
E973
330
E971
100
AcDbEntity
  8
AM_0
100
AcDbBlockEnd
  0
BLOCK
  5
E97A
330
E979
100
AcDbEntity
  8
AM_0
100
AcDbBlockBegin
  2
_ACMFILLED15
 70
     0
 10
0.0
 20
0.0
 30
0.0
  3
_ACMFILLED15
  1
Acad:XRef
  0
TRACE
  5
E97C
330
E979
100
AcDbEntity
  8
AM_0
 62
     0
100
AcDbTrace
 10
-1.0
 20
0.1316524975873958
 30
0.0
 11
-1.0
 21
-0.1316524975873958
 31
0.0
 12
0.0
 22
0.0
 32
0.0
 13
0.0
 23
0.0
 33
0.0
  0
ENDBLK
  5
E97B
330
E979
100
AcDbEntity
  8
AM_0
100
AcDbBlockEnd
  0
BLOCK
  5
E982
330
E981
100
AcDbEntity
  8
AM_0
100
AcDbBlockBegin
  2
_ACMOPEN30
 70
     0
 10
0.0
 20
0.0
 30
0.0
  3
_ACMOPEN30
  1
Acad:XRef
  0
LINE
  5
E984
330
E981
100
AcDbEntity
  8
AM_0
 62
     0
100
AcDbLine
 10
-1.0
 20
0.0
 30
0.0
 11
0.0
 21
0.0
 31
0.0
  0
LINE
  5
E985
330
E981
100
AcDbEntity
  8
AM_0
 62
     0
100
AcDbLine
 10
-1.0
 20
-0.2679491924311227
 30
0.0
 11
0.0
 21
0.0
 31
0.0
  0
LINE
  5
E986
330
E981
100
AcDbEntity
  8
AM_0
 62
     0
100
AcDbLine
 10
-1.0
 20
0.2679491924311227
 30
0.0
 11
0.0
 21
0.0
 31
0.0
  0
ENDBLK
  5
E983
330
E981
100
AcDbEntity
  8
AM_0
100
AcDbBlockEnd
  0
BLOCK
  5
1331D
330
13313
100
AcDbEntity
  8
AM_3
100
AcDbBlockBegin
  2
*D917
 70
     1
 10
0.0
 20
0.0
 30
0.0
  3
*D917
  1
Acad:XRef
  0
LINE
  5
13314
330
13313
100
AcDbEntity
  8
AM_5
100
AcDbLine
 10
177.0
 20
68.99999999999123
 30
0.0
 11
191.5000000003674
 21
69.00000000006523
 31
0.0
  0
LINE
  5
13315
330
13313
100
AcDbEntity
  8
AM_5
100
AcDbLine
 10
177.0
 20
140.9999999999912
 30
0.0
 11
191.5
 21
141.0000000000653
 31
0.0
  0
LINE
  5
13316
330
13313
100
AcDbEntity
  8
AM_5
100
AcDbLine
 10
190.5000000003623
 20
70.00000000006013
 30
0.0
 11
190.5000000000051
 21
140.0000000000601
 31
0.0
  0
INSERT
  5
13317
330
13313
100
AcDbEntity
  8
AM_5
  6
ByBlock
100
AcDbBlockReference
  2
_Dot
 10
190.5000000003674
 20
69.00000000006013
 30
0.0
 41
1.0
 42
1.0
 43
1.0
 50
270.0000000002924
  0
INSERT
  5
13318
330
13313
100
AcDbEntity
  8
AM_5
  6
ByBlock
100
AcDbBlockReference
  2
_Dot
 10
190.5
 20
141.0000000000601
 30
0.0
 41
1.0
 42
1.0
 43
1.0
 50
90.00000000029239
  0
MTEXT
  5
13319
330
13313
100
AcDbEntity
  8
AM_5
 62
     2
100
AcDbMText
 10
187.9000000001837
 20
105.0000000000469
 30
0.0
 40
3.2
 41
0.0
 46
0.0
 71
     5
 72
     1
  1
72
 11
-5.103275826614763E-12
 21
1.0
 31
0.0
 73
     1
 44
1.0
  0
POINT
  5
1331A
330
13313
100
AcDbEntity
  8
Defpoints
 62
     0
100
AcDbPoint
 10
175.5
 20
68.99999999998357
 30
0.0
  0
POINT
  5
1331B
330
13313
100
AcDbEntity
  8
Defpoints
 62
     0
100
AcDbPoint
 10
175.5
 20
140.9999999999836
 30
0.0
  0
POINT
  5
1331C
330
13313
100
AcDbEntity
  8
Defpoints
 62
     0
100
AcDbPoint
 10
190.5
 20
141.0000000000601
 30
0.0
  0
ENDBLK
  5
1331E
330
13313
100
AcDbEntity
  8
AM_3
100
AcDbBlockEnd
  0
BLOCK
  5
13329
330
1331F
100
AcDbEntity
  8
AM_3
100
AcDbBlockBegin
  2
*D918
 70
     1
 10
0.0
 20
0.0
 30
0.0
  3
*D918
  1
Acad:XRef
  0
LINE
  5
13320
330
1331F
100
AcDbEntity
  8
AM_5
100
AcDbLine
 10
152.5000000000001
 20
124.9999999999759
 30
0.0
 11
139.4999999997959
 21
124.9999999999096
 31
0.0
  0
LINE
  5
13321
330
1331F
100
AcDbEntity
  8
AM_5
100
AcDbLine
 10
152.5000000000001
 20
84.99999999997591
 30
0.0
 11
139.5
 21
84.99999999990958
 31
0.0
  0
LINE
  5
13322
330
1331F
100
AcDbEntity
  8
AM_5
100
AcDbLine
 10
140.499999999801
 20
123.9999999999147
 30
0.0
 11
140.4999999999949
 21
85.99999999991468
 31
0.0
  0
INSERT
  5
13323
330
1331F
100
AcDbEntity
  8
AM_5
  6
ByBlock
100
AcDbBlockReference
  2
_Dot
 10
140.4999999997959
 20
124.9999999999147
 30
0.0
 41
1.0
 42
1.0
 43
1.0
 50
90.00000000029239
  0
INSERT
  5
13324
330
1331F
100
AcDbEntity
  8
AM_5
  6
ByBlock
100
AcDbBlockReference
  2
_Dot
 10
140.5
 20
84.99999999991468
 30
0.0
 41
1.0
 42
1.0
 43
1.0
 50
270.0000000002924
  0
MTEXT
  5
13325
330
1331F
100
AcDbEntity
  8
AM_5
 62
     2
100
AcDbMText
 10
137.8999999998979
 20
104.9999999999014
 30
0.0
 40
3.2
 41
0.0
 46
0.0
 71
     5
 72
     1
  1
40
 11
-5.103117928229040E-12
 21
1.0
 31
0.0
 73
     1
 44
1.0
  0
POINT
  5
13326
330
1331F
100
AcDbEntity
  8
Defpoints
 62
     0
100
AcDbPoint
 10
154.0000000000001
 20
124.9999999999836
 30
0.0
  0
POINT
  5
13327
330
1331F
100
AcDbEntity
  8
Defpoints
 62
     0
100
AcDbPoint
 10
154.0000000000001
 20
84.99999999998357
 30
0.0
  0
POINT
  5
13328
330
1331F
100
AcDbEntity
  8
Defpoints
 62
     0
100
AcDbPoint
 10
140.5
 20
84.99999999991468
 30
0.0
  0
ENDBLK
  5
1332A
330
1331F
100
AcDbEntity
  8
AM_3
100
AcDbBlockEnd
  0
BLOCK
  5
13335
330
1332B
100
AcDbEntity
  8
AM_3
100
AcDbBlockBegin
  2
*D919
 70
     1
 10
0.0
 20
0.0
 30
0.0
  3
*D919
  1
Acad:XRef
  0
LINE
  5
1332C
330
1332B
100
AcDbEntity
  8
AM_5
100
AcDbLine
 10
148.0
 20
56.99999999997592
 30
0.0
 11
131.5000000004899
 21
56.99999999989171
 31
0.0
  0
LINE
  5
1332D
330
1332B
100
AcDbEntity
  8
AM_5
100
AcDbLine
 10
148.0
 20
152.9999999999759
 30
0.0
 11
131.5
 21
152.9999999998917
 31
0.0
  0
LINE
  5
1332E
330
1332B
100
AcDbEntity
  8
AM_5
100
AcDbLine
 10
132.5000000004848
 20
57.99999999989681
 30
0.0
 11
132.5000000000051
 21
151.9999999998968
 31
0.0
  0
INSERT
  5
1332F
330
1332B
100
AcDbEntity
  8
AM_5
  6
ByBlock
100
AcDbBlockReference
  2
_Dot
 10
132.5000000004899
 20
56.99999999989681
 30
0.0
 41
1.0
 42
1.0
 43
1.0
 50
270.0000000002924
  0
INSERT
  5
13330
330
1332B
100
AcDbEntity
  8
AM_5
  6
ByBlock
100
AcDbBlockReference
  2
_Dot
 10
132.5
 20
152.9999999998968
 30
0.0
 41
1.0
 42
1.0
 43
1.0
 50
90.0000000002924
  0
MTEXT
  5
13331
330
1332B
100
AcDbEntity
  8
AM_5
 62
     2
100
AcDbMText
 10
129.900000000245
 20
104.9999999998835
 30
0.0
 40
3.2
 41
0.0
 46
0.0
 71
     5
 72
     1
  1
96
 11
-5.103473199596920E-12
 21
1.0
 31
0.0
 73
     1
 44
1.0
  0
POINT
  5
13332
330
1332B
100
AcDbEntity
  8
Defpoints
 62
     0
100
AcDbPoint
 10
149.5
 20
56.99999999998357
 30
0.0
  0
POINT
  5
13333
330
1332B
100
AcDbEntity
  8
Defpoints
 62
     0
100
AcDbPoint
 10
149.5
 20
152.9999999999836
 30
0.0
  0
POINT
  5
13334
330
1332B
100
AcDbEntity
  8
Defpoints
 62
     0
100
AcDbPoint
 10
132.5
 20
152.9999999998968
 30
0.0
  0
ENDBLK
  5
13336
330
1332B
100
AcDbEntity
  8
AM_3
100
AcDbBlockEnd
  0
BLOCK
  5
13341
330
13337
100
AcDbEntity
  8
AM_3
100
AcDbBlockBegin
  2
*D920
 70
     1
 10
0.0
 20
0.0
 30
0.0
  3
*D920
  1
Acad:XRef
  0
LINE
  5
13338
330
13337
100
AcDbEntity
  8
AM_5
100
AcDbLine
 10
148.5000000000076
 20
153.4999999999836
 30
0.0
 11
148.500000000051
 21
162.000000000101
 31
0.0
  0
LINE
  5
13339
330
13337
100
AcDbEntity
  8
AM_5
100
AcDbLine
 10
172.5000000000076
 20
153.4999999999836
 30
0.0
 11
172.500000000051
 21
161.9999999999785
 31
0.0
  0
LINE
  5
1333A
330
13337
100
AcDbEntity
  8
AM_5
100
AcDbLine
 10
149.5000000000459
 20
161.0000000000958
 30
0.0
 11
171.5000000000459
 21
160.9999999999836
 31
0.0
  0
INSERT
  5
1333B
330
13337
100
AcDbEntity
  8
AM_5
  6
ByBlock
100
AcDbBlockReference
  2
_Dot
 10
148.5000000000459
 20
161.000000000101
 30
0.0
 41
1.0
 42
1.0
 43
1.0
 50
179.9999999997076
  0
INSERT
  5
1333C
330
13337
100
AcDbEntity
  8
AM_5
  6
ByBlock
100
AcDbBlockReference
  2
_Dot
 10
172.5000000000459
 20
160.9999999999785
 30
0.0
 41
1.0
 42
1.0
 43
1.0
 50
359.9999999997075
  0
MTEXT
  5
1333D
330
13337
100
AcDbEntity
  8
AM_5
 62
     2
100
AcDbMText
 10
160.5000000000592
 20
163.6000000000397
 30
0.0
 40
3.2
 41
0.0
 46
0.0
 71
     5
 72
     1
  1
24
 73
     1
 44
1.0
  0
POINT
  5
1333E
330
13337
100
AcDbEntity
  8
Defpoints
 62
     0
100
AcDbPoint
 10
148.5
 20
151.9999999999836
 30
0.0
  0
POINT
  5
1333F
330
13337
100
AcDbEntity
  8
Defpoints
 62
     0
100
AcDbPoint
 10
172.5
 20
151.9999999999836
 30
0.0
  0
POINT
  5
13340
330
13337
100
AcDbEntity
  8
Defpoints
 62
     0
100
AcDbPoint
 10
172.5000000000459
 20
160.9999999999785
 30
0.0
  0
ENDBLK
  5
13342
330
13337
100
AcDbEntity
  8
AM_3
100
AcDbBlockEnd
  0
BLOCK
  5
1334D
330
13343
100
AcDbEntity
  8
AM_3
100
AcDbBlockBegin
  2
*D921
 70
     1
 10
0.0
 20
0.0
 30
0.0
  3
*D921
  1
Acad:XRef
  0
LINE
  5
13344
330
13343
100
AcDbEntity
  8
AM_5
100
AcDbLine
 10
157.0000000000001
 20
67.49999999998357
 30
0.0
 11
157.0000000000001
 21
45.99999999998357
 31
0.0
  0
LINE
  5
13345
330
13343
100
AcDbEntity
  8
AM_5
100
AcDbLine
 10
148.5
 20
56.49999999998357
 30
0.0
 11
148.5
 21
45.99999999998357
 31
0.0
  0
LINE
  5
13346
330
13343
100
AcDbEntity
  8
AM_5
100
AcDbLine
 10
156.0000000000001
 20
46.99999999998357
 30
0.0
 11
149.5
 21
46.99999999998357
 31
0.0
  0
INSERT
  5
13347
330
13343
100
AcDbEntity
  8
AM_5
  6
ByBlock
100
AcDbBlockReference
  2
_Dot
 10
157.0000000000001
 20
46.99999999998357
 30
0.0
 41
1.0
 42
1.0
 43
1.0
  0
INSERT
  5
13348
330
13343
100
AcDbEntity
  8
AM_5
  6
ByBlock
100
AcDbBlockReference
  2
_Dot
 10
148.5
 20
46.99999999998357
 30
0.0
 41
1.0
 42
1.0
 43
1.0
 50
180.0
  0
MTEXT
  5
13349
330
13343
100
AcDbEntity
  8
AM_5
 62
     2
100
AcDbMText
 10
152.7500000000001
 20
49.59999999998357
 30
0.0
 40
3.2
 41
0.0
 46
0.0
 71
     5
 72
     1
  1
8.5
 73
     1
 44
1.0
  0
POINT
  5
1334A
330
13343
100
AcDbEntity
  8
Defpoints
 62
     0
100
AcDbPoint
 10
157.0000000000001
 20
68.99999999998357
 30
0.0
  0
POINT
  5
1334B
330
13343
100
AcDbEntity
  8
Defpoints
 62
     0
100
AcDbPoint
 10
148.5
 20
57.99999999998357
 30
0.0
  0
POINT
  5
1334C
330
13343
100
AcDbEntity
  8
Defpoints
 62
     0
100
AcDbPoint
 10
148.5
 20
46.99999999998357
 30
0.0
  0
ENDBLK
  5
1334E
330
13343
100
AcDbEntity
  8
AM_3
100
AcDbBlockEnd
  0
BLOCK
  5
13359
330
1334F
100
AcDbEntity
  8
AM_3
100
AcDbBlockBegin
  2
*D922
 70
     1
 10
0.0
 20
0.0
 30
0.0
  3
*D922
  1
Acad:XRef
  0
LINE
  5
13350
330
1334F
100
AcDbEntity
  8
AM_5
100
AcDbLine
 10
177.0
 20
104.9999999999912
 30
0.0
 11
183.5
 21
105.0000000000244
 31
0.0
  0
LINE
  5
13351
330
1334F
100
AcDbEntity
  8
AM_5
100
AcDbLine
 10
177.0
 20
140.9999999999912
 30
0.0
 11
183.4999999998163
 21
141.0000000000244
 31
0.0
  0
LINE
  5
13352
330
1334F
100
AcDbEntity
  8
AM_5
100
AcDbLine
 10
182.4999999999949
 20
106.0000000000193
 30
0.0
 11
182.4999999998214
 21
140.0000000000193
 31
0.0
  0
INSERT
  5
13353
330
1334F
100
AcDbEntity
  8
AM_5
  6
ByBlock
100
AcDbBlockReference
  2
_Dot
 10
182.5
 20
105.0000000000193
 30
0.0
 41
1.0
 42
1.0
 43
1.0
 50
270.0000000002924
  0
INSERT
  5
13354
330
1334F
100
AcDbEntity
  8
AM_5
  6
ByBlock
100
AcDbBlockReference
  2
_Dot
 10
182.4999999998163
 20
141.0000000000193
 30
0.0
 41
1.0
 42
1.0
 43
1.0
 50
90.00000000029239
  0
MTEXT
  5
13355
330
1334F
100
AcDbEntity
  8
AM_5
 62
     2
100
AcDbMText
 10
179.8999999999081
 20
123.000000000006
 30
0.0
 40
3.2
 41
0.0
 46
0.0
 71
     5
 72
     1
  1
36
 11
-5.103275826614764E-12
 21
1.0
 31
0.0
 73
     1
 44
1.0
  0
POINT
  5
13356
330
1334F
100
AcDbEntity
  8
Defpoints
 62
     0
100
AcDbPoint
 10
175.5
 20
104.9999999999836
 30
0.0
  0
POINT
  5
13357
330
1334F
100
AcDbEntity
  8
Defpoints
 62
     0
100
AcDbPoint
 10
175.5
 20
140.9999999999836
 30
0.0
  0
POINT
  5
13358
330
1334F
100
AcDbEntity
  8
Defpoints
 62
     0
100
AcDbPoint
 10
182.4999999998163
 20
141.0000000000193
 30
0.0
  0
ENDBLK
  5
1335A
330
1334F
100
AcDbEntity
  8
AM_3
100
AcDbBlockEnd
  0
BLOCK
  5
13366
330
1335B
100
AcDbEntity
  8
AM_3
100
AcDbBlockBegin
  2
*D923
 70
     1
 10
0.0
 20
0.0
 30
0.0
  3
*D923
  1
Acad:XRef
  0
LINE
  5
1335C
330
1335B
100
AcDbEntity
  8
AM_5
100
AcDbLine
 10
172.0
 20
71.49999999999123
 30
0.0
 11
183.5000000000102
 21
71.50000000004992
 31
0.0
  0
LINE
  5
1335D
330
1335B
100
AcDbEntity
  8
AM_5
100
AcDbLine
 10
172.0
 20
66.49999999999123
 30
0.0
 11
183.5000000000357
 21
66.50000000004992
 31
0.0
  0
LINE
  5
1335E
330
1335B
100
AcDbEntity
  8
AM_5
100
AcDbLine
 10
182.5000000000357
 20
66.50000000004482
 30
0.0
 11
182.5000000000586
 21
62.00666666671148
 31
0.0
  0
LINE
  5
1335F
330
1335B
100
AcDbEntity
  8
AM_5
100
AcDbLine
 10
182.5000000000153
 20
70.50000000004482
 30
0.0
 11
182.5000000000306
 21
67.50000000004482
 31
0.0
  0
INSERT
  5
13360
330
1335B
100
AcDbEntity
  8
AM_5
  6
ByBlock
100
AcDbBlockReference
  2
_Dot
 10
182.5000000000102
 20
71.50000000004482
 30
0.0
 41
1.0
 42
1.0
 43
1.0
 50
90.00000000029246
  0
INSERT
  5
13361
330
1335B
100
AcDbEntity
  8
AM_5
  6
ByBlock
100
AcDbBlockReference
  2
_Dot
 10
182.5000000000357
 20
66.50000000004482
 30
0.0
 41
1.0
 42
1.0
 43
1.0
 50
270.0000000002925
  0
MTEXT
  5
13362
330
1335B
100
AcDbEntity
  8
AM_5
 62
     2
100
AcDbMText
 10
179.9000000000497
 20
63.75333333336488
 30
0.0
 40
3.2
 41
0.0
 46
0.0
 71
     5
 72
     1
  1
5
 11
-5.104539013700560E-12
 21
1.0
 31
0.0
 73
     1
 44
1.0
  0
POINT
  5
13363
330
1335B
100
AcDbEntity
  8
Defpoints
 62
     0
100
AcDbPoint
 10
170.5
 20
71.49999999998357
 30
0.0
  0
POINT
  5
13364
330
1335B
100
AcDbEntity
  8
Defpoints
 62
     0
100
AcDbPoint
 10
170.5
 20
66.49999999998357
 30
0.0
  0
POINT
  5
13365
330
1335B
100
AcDbEntity
  8
Defpoints
 62
     0
100
AcDbPoint
 10
182.5000000000357
 20
66.50000000004482
 30
0.0
  0
ENDBLK
  5
13367
330
1335B
100
AcDbEntity
  8
AM_3
100
AcDbBlockEnd
  0
BLOCK
  5
13390
330
13384
100
AcDbEntity
  8
AM_3
100
AcDbBlockBegin
  2
*D927
 70
     1
 10
0.0
 20
0.0
 30
0.0
  3
*D927
  1
Acad:XRef
  0
LINE
  5
13385
330
13384
100
AcDbEntity
  8
AM_5
100
AcDbLine
 10
206.4999999999389
 20
154.4999999999836
 30
0.0
 11
206.499999999939
 21
161.9999999999836
 31
0.0
  0
LINE
  5
13386
330
13384
100
AcDbEntity
  8
AM_5
100
AcDbLine
 10
206.9999999999408
 20
154.4999999999861
 30
0.0
 11
206.999999999941
 21
161.9999999999836
 31
0.0
  0
LINE
  5
13387
330
13384
100
AcDbEntity
  8
AM_5
100
AcDbLine
 10
207.9999999999409
 20
160.9999999999836
 30
0.0
 11
219.8533333332743
 21
160.9999999999836
 31
0.0
  0
LINE
  5
13388
330
13384
100
AcDbEntity
  8
AM_5
100
AcDbLine
 10
206.499999999939
 20
160.9999999999836
 30
0.0
 11
206.9999999999409
 21
160.9999999999836
 31
0.0
  0
LINE
  5
13389
330
13384
100
AcDbEntity
  8
AM_5
100
AcDbLine
 10
205.499999999939
 20
160.9999999999836
 30
0.0
 11
204.499999999939
 21
160.9999999999836
 31
0.0
  0
INSERT
  5
1338A
330
13384
100
AcDbEntity
  8
AM_5
  6
ByBlock
100
AcDbBlockReference
  2
_Dot
 10
206.499999999939
 20
160.9999999999836
 30
0.0
 41
1.0
 42
1.0
 43
1.0
  0
INSERT
  5
1338B
330
13384
100
AcDbEntity
  8
AM_5
  6
ByBlock
100
AcDbBlockReference
  2
_Dot
 10
206.9999999999409
 20
160.9999999999836
 30
0.0
 41
1.0
 42
1.0
 43
1.0
 50
180.0
  0
MTEXT
  5
1338C
330
13384
100
AcDbEntity
  8
AM_5
 62
     2
100
AcDbMText
 10
214.4266666666076
 20
163.5999999999836
 30
0.0
 40
3.2
 41
0.0
 46
0.0
 71
     5
 72
     1
  1
t=0.5
 73
     1
 44
1.0
  0
POINT
  5
1338D
330
13384
100
AcDbEntity
  8
Defpoints
 62
     0
100
AcDbPoint
 10
206.4999999999388
 20
152.9999999999836
 30
0.0
  0
POINT
  5
1338E
330
13384
100
AcDbEntity
  8
Defpoints
 62
     0
100
AcDbPoint
 10
206.9999999999408
 20
152.9999999999861
 30
0.0
  0
POINT
  5
1338F
330
13384
100
AcDbEntity
  8
Defpoints
 62
     0
100
AcDbPoint
 10
206.9999999999409
 20
160.9999999999836
 30
0.0
  0
ENDBLK
  5
13391
330
13384
100
AcDbEntity
  8
AM_3
100
AcDbBlockEnd
  0
BLOCK
  5
13399
330
13392
100
AcDbEntity
  8
AM_3
100
AcDbBlockBegin
  2
*D928
 70
     1
 10
0.0
 20
0.0
 30
0.0
  3
*D928
  1
Acad:XRef
  0
MTEXT
  5
13393
330
13392
100
AcDbEntity
  8
AM_5
 62
     2
100
AcDbMText
 10
126.7960000000002
 20
159.5999999999392
 30
0.0
 40
3.200000000000001
 41
0.0
 46
0.0
 71
     5
 72
     1
  1
2-∅5×10スロット
 73
     1
 44
1.0
  0
LINE
  5
13394
330
13392
100
AcDbEntity
  8
AM_5
100
AcDbLine
 10
114.0920000000002
 20
156.9999999999392
 30
0.0
 11
140.5000000000002
 21
156.9999999999392
 31
0.0
  0
LINE
  5
13395
330
13392
100
AcDbEntity
  8
AM_5
100
AcDbLine
 10
157.063350890411
 20
131.2832183543399
 30
0.0
 11
140.5000000000002
 21
156.9999999999392
 31
0.0
  0
INSERT
  5
13396
330
13392
100
AcDbEntity
  8
AM_5
  6
ByBlock
100
AcDbBlockReference
  2
_OPEN30
 10
158.1463060502284
 20
129.601787974626
 30
0.0
 41
2.0
 42
2.0
 43
2.0
 50
302.7842808659082
  0
POINT
  5
13397
330
13392
100
AcDbEntity
  8
Defpoints
 62
     0
100
AcDbPoint
 10
158.1463060502284
 20
129.601787974626
 30
0.0
  0
POINT
  5
13398
330
13392
100
AcDbEntity
  8
Defpoints
 62
     0
100
AcDbPoint
 10
160.8536939497718
 20
125.3982120253412
 30
0.0
  0
ENDBLK
  5
1339A
330
13392
100
AcDbEntity
  8
AM_3
100
AcDbBlockEnd
  0
ENDSEC
  0
SECTION
  2
ENTITIES
  0
POINT
  5
12377
330
1F
100
AcDbEntity
  8
0
 60
     1
100
AcDbPoint
 10
-1848.83423943752
 20
-3010.407897357171
 30
0.0
1001
GENIUS_GENODEF_13
1002
{
1000
HIER
1070
     1
1002
}
1002
{
1000
MANEDIT
1070
     0
1002
}
1002
{
1000
NOSEL
1070
     0
1002
}
1002
{
1000
BEHIND
1070
     0
1002
}
1002
{
1000
OTHER
1070
     0
1002
}
1002
{
1000
REACTOR
1002
}
1001
GENIUS_GENOBJ-N-TIT_13
1002
{
1000
OWNER
1000
GEN
1002
}
1001
GENIUS_GENOENT_13
1002
{
1000
MYREF
1005
12377
1002
}
1002
{
1000
GRP
1005
0
1002
}
1001
GENIUS_GENOLIS_13
1002
{
1000
ENT
1005
12368
1005
12367
1002
}
1001
GENIUS_GENTITLE_13
1002
{
1000
BORDER
1000
X:\図面\000 共通使用ファイル（テンプレート等）\002 SYS図枠13\AIS2008\SYS図枠A4(AIS2008)
1002
}
1002
{
1000
TITLE
1000
X:\図面\000 共通使用ファイル（テンプレート等）\002 SYS図枠13\AIS2008\SYS表題(AIS2008)
1002
}
1002
{
1000
ADDITIONAL1
1000

1002
}
1002
{
1000
ADDITIONAL2
1000

1002
}
1002
{
1000
SCALE
1000
1:1
1002
}
1002
{
1000
TITLESTD
1000
SYS
1002
}
1002
{
1000
HRA
1005
12367
1002
}
1002
{
1000
HTIT
1005
12368
1002
}
1002
{
1000
GENIUSID
1005
12377
1002
}
1002
{
1000
INVTXTID
1005
0
1002
}
1002
{
1000
UNCHG
1002
{
1000
GEN-TITLE-SIZ
1000
GEN-TITLE-SCA
1002
}
1002
}
  0
LINE
  5
132B4
330
1F
100
AcDbEntity
  8
AM_0
100
AcDbLine
 10
172.5
 20
73.49999999998357
 30
0.0
 11
172.5
 21
100.4999999999836
 31
0.0
  0
LINE
  5
132B5
330
1F
100
AcDbEntity
  8
AM_0
100
AcDbLine
 10
172.5
 20
109.4999999999836
 30
0.0
 11
172.5
 21
136.4999999999836
 31
0.0
  0
ARC
  5
132B6
330
1F
100
AcDbEntity
  8
AM_0
100
AcDbCircle
 10
159.5000000000001
 20
104.9999999999836
 30
0.0
 40
2.5
100
AcDbArc
 50
90.0
 51
270.0
  0
ARC
  5
132B7
330
1F
100
AcDbEntity
  8
AM_0
100
AcDbCircle
 10
159.5000000000001
 20
140.9999999999836
 30
0.0
 40
2.5
100
AcDbArc
 50
90.0
 51
270.0
  0
ARC
  5
132B8
102
{ACAD_REACTORS
330
132EA
102
}
330
1F
100
AcDbEntity
  8
AM_0
100
AcDbCircle
 10
159.5000000000001
 20
68.99999999998357
 30
0.0
 40
2.5
100
AcDbArc
 50
90.0
 51
270.0
  0
ARC
  5
132B9
102
{ACAD_REACTORS
330
13312
102
}
330
1F
100
AcDbEntity
  8
AM_0
100
AcDbCircle
 10
159.5000000000001
 20
127.4999999999836
 30
0.0
 40
2.5
100
AcDbArc
 50
0.0
 51
180.0
  0
ARC
  5
132BA
330
1F
100
AcDbEntity
  8
AM_0
100
AcDbCircle
 10
159.5000000000001
 20
122.4999999999836
 30
0.0
 40
2.5
100
AcDbArc
 50
180.0
 51
0.0
  0
LINE
  5
132BB
330
1F
100
AcDbEntity
  8
AM_0
100
AcDbLine
 10
157.0000000000001
 20
127.4999999999836
 30
0.0
 11
157.0000000000001
 21
122.4999999999836
 31
0.0
  0
LINE
  5
132BC
330
1F
100
AcDbEntity
  8
AM_0
100
AcDbLine
 10
162.0000000000001
 20
127.4999999999836
 30
0.0
 11
162.0000000000001
 21
122.4999999999836
 31
0.0
  0
ARC
  5
132BD
330
1F
100
AcDbEntity
  8
AM_0
100
AcDbCircle
 10
159.5000000000001
 20
87.49999999998357
 30
0.0
 40
2.5
100
AcDbArc
 50
0.0
 51
180.0
  0
ARC
  5
132BE
330
1F
100
AcDbEntity
  8
AM_0
100
AcDbCircle
 10
159.5000000000001
 20
82.49999999998357
 30
0.0
 40
2.5
100
AcDbArc
 50
180.0
 51
0.0
  0
LINE
  5
132BF
330
1F
100
AcDbEntity
  8
AM_0
100
AcDbLine
 10
157.0000000000001
 20
87.49999999998357
 30
0.0
 11
157.0000000000001
 21
82.49999999998357
 31
0.0
  0
LINE
  5
132C0
330
1F
100
AcDbEntity
  8
AM_0
100
AcDbLine
 10
162.0000000000001
 20
87.49999999998357
 30
0.0
 11
162.0000000000001
 21
82.49999999998357
 31
0.0
  0
LINE
  5
132C1
330
1F
100
AcDbEntity
  8
AM_0
100
AcDbLine
 10
159.5000000000001
 20
138.4999999999836
 30
0.0
 11
170.5
 21
138.4999999999836
 31
0.0
  0
LINE
  5
132C2
330
1F
100
AcDbEntity
  8
AM_0
100
AcDbLine
 10
159.5000000000001
 20
143.4999999999836
 30
0.0
 11
170.5
 21
143.4999999999836
 31
0.0
  0
LINE
  5
132C3
330
1F
100
AcDbEntity
  8
AM_0
100
AcDbLine
 10
159.5000000000001
 20
102.4999999999836
 30
0.0
 11
170.5
 21
102.4999999999836
 31
0.0
  0
LINE
  5
132C4
330
1F
100
AcDbEntity
  8
AM_0
100
AcDbLine
 10
159.5000000000001
 20
107.4999999999836
 30
0.0
 11
170.5
 21
107.4999999999836
 31
0.0
  0
LINE
  5
132C5
330
1F
100
AcDbEntity
  8
AM_0
100
AcDbLine
 10
159.5000000000001
 20
66.49999999998357
 30
0.0
 11
170.5
 21
66.49999999998357
 31
0.0
  0
LINE
  5
132C6
330
1F
100
AcDbEntity
  8
AM_0
100
AcDbLine
 10
159.5000000000001
 20
71.49999999998357
 30
0.0
 11
170.5
 21
71.49999999998357
 31
0.0
  0
LINE
  5
132C7
330
1F
100
AcDbEntity
  8
AM_0
100
AcDbLine
 10
172.5
 20
145.4999999999836
 30
0.0
 11
172.5
 21
151.9999999999836
 31
0.0
  0
ARC
  5
132C8
102
{ACAD_REACTORS
330
132E7
102
}
330
1F
100
AcDbEntity
  8
AM_0
100
AcDbCircle
 10
171.5
 20
151.9999999999836
 30
0.0
 40
1.0
100
AcDbArc
 50
0.0
 51
90.0
1001
GENIUS_GENOBJ-N-FIL_13
1002
{
1000
OWNER
1000
GEN
1002
}
1001
GENIUS_GENODEF_13
1002
{
1000
HIER
1070
     0
1002
}
1002
{
1000
MANEDIT
1070
     0
1002
}
1002
{
1000
NOSEL
1070
     0
1002
}
1002
{
1000
BEHIND
1070
     0
1002
}
1002
{
1000
OTHER
1070
     0
1002
}
1002
{
1000
REACTOR
1002
}
  0
LINE
  5
132C9
330
1F
100
AcDbEntity
  8
AM_0
100
AcDbLine
 10
171.5
 20
152.9999999999836
 30
0.0
 11
149.5
 21
152.9999999999836
 31
0.0
  0
ARC
  5
132CA
102
{ACAD_REACTORS
330
132E4
102
}
330
1F
100
AcDbEntity
  8
AM_0
100
AcDbCircle
 10
149.5
 20
151.9999999999836
 30
0.0
 40
1.0
100
AcDbArc
 50
90.0
 51
180.0
1001
GENIUS_GENOBJ-N-FIL_13
1002
{
1000
OWNER
1000
GEN
1002
}
1001
GENIUS_GENODEF_13
1002
{
1000
HIER
1070
     0
1002
}
1002
{
1000
MANEDIT
1070
     0
1002
}
1002
{
1000
NOSEL
1070
     0
1002
}
1002
{
1000
BEHIND
1070
     0
1002
}
1002
{
1000
OTHER
1070
     0
1002
}
1002
{
1000
REACTOR
1002
}
  0
LINE
  5
132CB
102
{ACAD_REACTORS
330
132E7
102
}
330
1F
100
AcDbEntity
  8
AM_0
100
AcDbLine
 10
148.5
 20
151.9999999999836
 30
0.0
 11
148.5
 21
57.99999999998357
 31
0.0
  0
ARC
  5
132CC
102
{ACAD_REACTORS
330
132EA
102
}
330
1F
100
AcDbEntity
  8
AM_0
100
AcDbCircle
 10
149.5
 20
57.99999999998357
 30
0.0
 40
1.0
100
AcDbArc
 50
180.0
 51
270.0
1001
GENIUS_GENOBJ-N-FIL_13
1002
{
1000
OWNER
1000
GEN
1002
}
1001
GENIUS_GENODEF_13
1002
{
1000
HIER
1070
     0
1002
}
1002
{
1000
MANEDIT
1070
     0
1002
}
1002
{
1000
NOSEL
1070
     0
1002
}
1002
{
1000
BEHIND
1070
     0
1002
}
1002
{
1000
OTHER
1070
     0
1002
}
1002
{
1000
REACTOR
1002
}
  0
LINE
  5
132CD
330
1F
100
AcDbEntity
  8
AM_0
100
AcDbLine
 10
172.5
 20
64.49999999998357
 30
0.0
 11
172.5
 21
57.99999999998357
 31
0.0
  0
LINE
  5
132CE
102
{ACAD_REACTORS
330
132E4
102
}
330
1F
100
AcDbEntity
  8
AM_0
100
AcDbLine
 10
149.5
 20
56.99999999998357
 30
0.0
 11
171.5
 21
56.99999999998357
 31
0.0
  0
ARC
  5
132CF
330
1F
100
AcDbEntity
  8
AM_0
100
AcDbCircle
 10
171.5
 20
57.99999999998357
 30
0.0
 40
1.0
100
AcDbArc
 50
270.0
 51
0.0
1001
GENIUS_GENOBJ-N-FIL_13
1002
{
1000
OWNER
1000
GEN
1002
}
1001
GENIUS_GENODEF_13
1002
{
1000
HIER
1070
     0
1002
}
1002
{
1000
MANEDIT
1070
     0
1002
}
1002
{
1000
NOSEL
1070
     0
1002
}
1002
{
1000
BEHIND
1070
     0
1002
}
1002
{
1000
OTHER
1070
     0
1002
}
1002
{
1000
REACTOR
1002
}
  0
ARC
  5
132D0
330
1F
100
AcDbEntity
  8
AM_0
100
AcDbCircle
 10
170.5
 20
145.4999999999836
 30
0.0
 40
2.0
100
AcDbArc
 50
270.0
 51
0.0
1001
GENIUS_GENOBJ-N-FIL_13
1002
{
1000
OWNER
1000
GEN
1002
}
1001
GENIUS_GENODEF_13
1002
{
1000
HIER
1070
     0
1002
}
1002
{
1000
MANEDIT
1070
     0
1002
}
1002
{
1000
NOSEL
1070
     0
1002
}
1002
{
1000
BEHIND
1070
     0
1002
}
1002
{
1000
OTHER
1070
     0
1002
}
1002
{
1000
REACTOR
1002
}
  0
ARC
  5
132D1
330
1F
100
AcDbEntity
  8
AM_0
100
AcDbCircle
 10
170.5
 20
136.4999999999836
 30
0.0
 40
2.0
100
AcDbArc
 50
0.0
 51
90.0
1001
GENIUS_GENOBJ-N-FIL_13
1002
{
1000
OWNER
1000
GEN
1002
}
1001
GENIUS_GENODEF_13
1002
{
1000
HIER
1070
     0
1002
}
1002
{
1000
MANEDIT
1070
     0
1002
}
1002
{
1000
NOSEL
1070
     0
1002
}
1002
{
1000
BEHIND
1070
     0
1002
}
1002
{
1000
OTHER
1070
     0
1002
}
1002
{
1000
REACTOR
1002
}
  0
ARC
  5
132D2
330
1F
100
AcDbEntity
  8
AM_0
100
AcDbCircle
 10
170.5
 20
109.4999999999836
 30
0.0
 40
2.0
100
AcDbArc
 50
270.0
 51
0.0
1001
GENIUS_GENOBJ-N-FIL_13
1002
{
1000
OWNER
1000
GEN
1002
}
1001
GENIUS_GENODEF_13
1002
{
1000
HIER
1070
     0
1002
}
1002
{
1000
MANEDIT
1070
     0
1002
}
1002
{
1000
NOSEL
1070
     0
1002
}
1002
{
1000
BEHIND
1070
     0
1002
}
1002
{
1000
OTHER
1070
     0
1002
}
1002
{
1000
REACTOR
1002
}
  0
ARC
  5
132D3
330
1F
100
AcDbEntity
  8
AM_0
100
AcDbCircle
 10
170.5
 20
100.4999999999836
 30
0.0
 40
2.0
100
AcDbArc
 50
0.0
 51
90.0
1001
GENIUS_GENOBJ-N-FIL_13
1002
{
1000
OWNER
1000
GEN
1002
}
1001
GENIUS_GENODEF_13
1002
{
1000
HIER
1070
     0
1002
}
1002
{
1000
MANEDIT
1070
     0
1002
}
1002
{
1000
NOSEL
1070
     0
1002
}
1002
{
1000
BEHIND
1070
     0
1002
}
1002
{
1000
OTHER
1070
     0
1002
}
1002
{
1000
REACTOR
1002
}
  0
ARC
  5
132D4
102
{ACAD_REACTORS
330
132F0
102
}
330
1F
100
AcDbEntity
  8
AM_0
100
AcDbCircle
 10
170.5
 20
73.49999999998357
 30
0.0
 40
2.0
100
AcDbArc
 50
270.0
 51
0.0
1001
GENIUS_GENOBJ-N-FIL_13
1002
{
1000
OWNER
1000
GEN
1002
}
1001
GENIUS_GENODEF_13
1002
{
1000
HIER
1070
     0
1002
}
1002
{
1000
MANEDIT
1070
     0
1002
}
1002
{
1000
NOSEL
1070
     0
1002
}
1002
{
1000
BEHIND
1070
     0
1002
}
1002
{
1000
OTHER
1070
     0
1002
}
1002
{
1000
REACTOR
1002
}
  0
ARC
  5
132D5
102
{ACAD_REACTORS
330
132F0
102
}
330
1F
100
AcDbEntity
  8
AM_0
100
AcDbCircle
 10
170.5
 20
64.49999999998357
 30
0.0
 40
2.0
100
AcDbArc
 50
0.0
 51
90.0
1001
GENIUS_GENOBJ-N-FIL_13
1002
{
1000
OWNER
1000
GEN
1002
}
1001
GENIUS_GENODEF_13
1002
{
1000
HIER
1070
     0
1002
}
1002
{
1000
MANEDIT
1070
     0
1002
}
1002
{
1000
NOSEL
1070
     0
1002
}
1002
{
1000
BEHIND
1070
     0
1002
}
1002
{
1000
OTHER
1070
     0
1002
}
1002
{
1000
REACTOR
1002
}
  0
LINE
  5
132D6
330
1F
100
AcDbEntity
  8
AM_7
 48
0.5
370
     9
100
AcDbLine
 10
159.5000000000001
 20
146.4999999999836
 30
0.0
 11
159.5000000000001
 21
63.49999999998357
 31
0.0
1001
GENIUS_GENODEF_13
1002
{
1000
HIER
1070
     0
1002
}
1002
{
1000
MANEDIT
1070
     0
1002
}
1002
{
1000
NOSEL
1070
     0
1002
}
1002
{
1000
BEHIND
1070
     0
1002
}
1002
{
1000
OTHER
1070
     0
1002
}
1002
{
1000
REACTOR
1002
}
1001
GENIUS_GENOBJ-N-CEN_13
1002
{
1000
OWNER
1000
GEN
1002
}
1001
GENIUS_GENCEN_19
1002
{
1040
3.0
1002
}
  0
LINE
  5
132D7
102
{ACAD_REACTORS
330
132ED
102
}
330
1F
100
AcDbEntity
  8
AM_7
 48
0.5
370
     9
100
AcDbLine
 10
145.5
 20
104.9999999999836
 30
0.0
 11
175.5
 21
104.9999999999836
 31
0.0
1001
GENIUS_GENODEF_13
1002
{
1000
HIER
1070
     0
1002
}
1002
{
1000
MANEDIT
1070
     0
1002
}
1002
{
1000
NOSEL
1070
     0
1002
}
1002
{
1000
BEHIND
1070
     0
1002
}
1002
{
1000
OTHER
1070
     0
1002
}
1002
{
1000
REACTOR
1002
}
1001
GENIUS_GENOBJ-N-CEN_13
1002
{
1000
OWNER
1000
GEN
1002
}
1001
GENIUS_GENCEN_19
1002
{
1040
3.0
1002
}
  0
LINE
  5
132D8
102
{ACAD_REACTORS
330
132DE
330
132ED
102
}
330
1F
100
AcDbEntity
  8
AM_7
 48
0.5
370
     9
100
AcDbLine
 10
154.0000000000001
 20
140.9999999999836
 30
0.0
 11
175.5
 21
140.9999999999836
 31
0.0
1001
GENIUS_GENODEF_13
1002
{
1000
HIER
1070
     0
1002
}
1002
{
1000
MANEDIT
1070
     0
1002
}
1002
{
1000
NOSEL
1070
     0
1002
}
1002
{
1000
BEHIND
1070
     0
1002
}
1002
{
1000
OTHER
1070
     0
1002
}
1002
{
1000
REACTOR
1002
}
1001
GENIUS_GENOBJ-N-CEN_13
1002
{
1000
OWNER
1000
GEN
1002
}
1001
GENIUS_GENCEN_19
1002
{
1040
3.0
1002
}
  0
LINE
  5
132D9
330
1F
100
AcDbEntity
  8
AM_7
 48
0.5
370
     9
100
AcDbLine
 10
154.0000000000001
 20
68.99999999998357
 30
0.0
 11
175.5
 21
68.99999999998357
 31
0.0
1001
GENIUS_GENODEF_13
1002
{
1000
HIER
1070
     0
1002
}
1002
{
1000
MANEDIT
1070
     0
1002
}
1002
{
1000
NOSEL
1070
     0
1002
}
1002
{
1000
BEHIND
1070
     0
1002
}
1002
{
1000
OTHER
1070
     0
1002
}
1002
{
1000
REACTOR
1002
}
1001
GENIUS_GENOBJ-N-CEN_13
1002
{
1000
OWNER
1000
GEN
1002
}
1001
GENIUS_GENCEN_19
1002
{
1040
3.0
1002
}
  0
LINE
  5
132DA
102
{ACAD_REACTORS
330
132E1
102
}
330
1F
100
AcDbEntity
  8
AM_7
 48
0.5
370
     9
100
AcDbLine
 10
154.0000000000001
 20
124.9999999999836
 30
0.0
 11
165.0000000000001
 21
124.9999999999836
 31
0.0
1001
GENIUS_GENODEF_13
1002
{
1000
HIER
1070
     0
1002
}
1002
{
1000
MANEDIT
1070
     0
1002
}
1002
{
1000
NOSEL
1070
     0
1002
}
1002
{
1000
BEHIND
1070
     0
1002
}
1002
{
1000
OTHER
1070
     0
1002
}
1002
{
1000
REACTOR
1002
}
1001
GENIUS_GENOBJ-N-CEN_13
1002
{
1000
OWNER
1000
GEN
1002
}
1001
GENIUS_GENCEN_19
1002
{
1040
3.0
1002
}
  0
LINE
  5
132DB
102
{ACAD_REACTORS
330
132E1
102
}
330
1F
100
AcDbEntity
  8
AM_7
 48
0.5
370
     9
100
AcDbLine
 10
154.0000000000001
 20
84.99999999998357
 30
0.0
 11
165.0000000000001
 21
84.99999999998357
 31
0.0
1001
GENIUS_GENODEF_13
1002
{
1000
HIER
1070
     0
1002
}
1002
{
1000
MANEDIT
1070
     0
1002
}
1002
{
1000
NOSEL
1070
     0
1002
}
1002
{
1000
BEHIND
1070
     0
1002
}
1002
{
1000
OTHER
1070
     0
1002
}
1002
{
1000
REACTOR
1002
}
1001
GENIUS_GENOBJ-N-CEN_13
1002
{
1000
OWNER
1000
GEN
1002
}
1001
GENIUS_GENCEN_19
1002
{
1040
3.0
1002
}
  0
DIMENSION
  5
132DC
102
{ACAD_REACTORS
330
132DE
102
}
102
{ACAD_XDICTIONARY
360
132DD
102
}
330
1F
100
AcDbEntity
  8
AM_5
100
AcDbDimension
280
     0
  2
*D917
 10
190.5
 20
141.0000000000601
 30
0.0
 11
187.9000000001837
 21
105.0000000000469
 31
0.0
 70
    32
 71
     5
 42
72.0
 73
     0
 74
     0
 75
     0
 52
-270.0
  3
SYS$0
100
AcDbAlignedDimension
 13
175.5
 23
68.99999999998357
 33
0.0
 14
175.5
 24
140.9999999999836
 34
0.0
 50
90.0000000002924
100
AcDbRotatedDimension
1001
ACAD_DSTYLE_DIMINSPECT
1070
   393
1070
     0
1001
ACAD
1000
DSTYLE
1002
{
1070
   170
1070
     0
1070
    72
1070
     0
1070
    71
1070
     0
1070
    48
1040
0.2
1070
    47
1040
0.2
1002
}
  0
DIMENSION
  5
132DF
102
{ACAD_REACTORS
330
132E1
102
}
102
{ACAD_XDICTIONARY
360
132E0
102
}
330
1F
100
AcDbEntity
  8
AM_5
100
AcDbDimension
280
     0
  2
*D918
 10
140.5
 20
84.99999999991468
 30
0.0
 11
137.8999999998979
 21
104.9999999999014
 31
0.0
 70
    32
 71
     5
 42
40.0
 73
     0
 74
     0
 75
     0
 52
-270.0
  3
SYS$0
100
AcDbAlignedDimension
 13
154.0000000000001
 23
124.9999999999836
 33
0.0
 14
154.0000000000001
 24
84.99999999998357
 34
0.0
 50
90.0000000002924
100
AcDbRotatedDimension
1001
ACAD_DSTYLE_DIMINSPECT
1070
   393
1070
     0
1001
ACAD
1000
DSTYLE
1002
{
1070
   170
1070
     0
1070
    72
1070
     0
1070
    71
1070
     0
1070
    48
1040
0.2
1070
    47
1040
0.2
1002
}
  0
DIMENSION
  5
132E2
102
{ACAD_REACTORS
330
132E4
102
}
102
{ACAD_XDICTIONARY
360
132E3
102
}
330
1F
100
AcDbEntity
  8
AM_5
100
AcDbDimension
280
     0
  2
*D919
 10
132.5
 20
152.9999999998968
 30
0.0
 11
129.900000000245
 21
104.9999999998835
 31
0.0
 70
    32
 71
     5
 42
96.0
 73
     0
 74
     0
 75
     0
 52
-270.0
  3
SYS$0
100
AcDbAlignedDimension
 13
149.5
 23
56.99999999998357
 33
0.0
 14
149.5
 24
152.9999999999836
 34
0.0
 50
90.0000000002924
100
AcDbRotatedDimension
1001
ACAD_DSTYLE_DIMINSPECT
1070
   393
1070
     0
  0
DIMENSION
  5
132E5
102
{ACAD_REACTORS
330
132E7
102
}
102
{ACAD_XDICTIONARY
360
132E6
102
}
330
1F
100
AcDbEntity
  8
AM_5
100
AcDbDimension
280
     0
  2
*D920
 10
172.5000000000459
 20
160.9999999999785
 30
0.0
 11
160.5000000000592
 21
163.6000000000397
 31
0.0
 70
    32
 71
     5
 42
24.0
 73
     0
 74
     0
 75
     0
 52
-270.0
  3
SYS$0
100
AcDbAlignedDimension
 13
148.5
 23
151.9999999999836
 33
0.0
 14
172.5
 24
151.9999999999836
 34
0.0
 50
179.9999999997076
100
AcDbRotatedDimension
1001
ACAD_DSTYLE_DIMINSPECT
1070
   393
1070
     0
  0
DIMENSION
  5
132E8
102
{ACAD_REACTORS
330
132EA
102
}
102
{ACAD_XDICTIONARY
360
132E9
102
}
330
1F
100
AcDbEntity
  8
AM_5
100
AcDbDimension
280
     0
  2
*D921
 10
148.5
 20
46.99999999998357
 30
0.0
 11
152.7500000000001
 21
49.59999999998357
 31
0.0
 70
    32
 71
     5
 42
8.500000000000114
 73
     0
 74
     0
 75
     0
  3
SYS$0
100
AcDbAlignedDimension
 13
157.0000000000001
 23
68.99999999998357
 33
0.0
 14
148.5
 24
57.99999999998357
 34
0.0
100
AcDbRotatedDimension
1001
ACAD_DSTYLE_DIMINSPECT
1070
   393
1070
     0
  0
DIMENSION
  5
132EB
102
{ACAD_REACTORS
330
132ED
102
}
102
{ACAD_XDICTIONARY
360
132EC
102
}
330
1F
100
AcDbEntity
  8
AM_5
100
AcDbDimension
280
     0
  2
*D922
 10
182.4999999998163
 20
141.0000000000193
 30
0.0
 11
179.8999999999081
 21
123.000000000006
 31
0.0
 70
    32
 71
     5
 42
36.0
 73
     0
 74
     0
 75
     0
 52
-270.0
  3
SYS$0
100
AcDbAlignedDimension
 13
175.5
 23
104.9999999999836
 33
0.0
 14
175.5
 24
140.9999999999836
 34
0.0
 50
90.0000000002924
100
AcDbRotatedDimension
1001
ACAD_DSTYLE_DIMINSPECT
1070
   393
1070
     0
1001
ACAD
1000
DSTYLE
1002
{
1070
   170
1070
     0
1070
    72
1070
     0
1070
    71
1070
     0
1070
    48
1040
0.2
1070
    47
1040
0.2
1002
}
  0
DIMENSION
  5
132EE
102
{ACAD_REACTORS
330
132F0
102
}
102
{ACAD_XDICTIONARY
360
132EF
102
}
330
1F
100
AcDbEntity
  8
AM_5
100
AcDbDimension
280
     0
  2
*D923
 10
182.5000000000357
 20
66.50000000004482
 30
0.0
 11
179.9000000000497
 21
63.75333333336488
 31
0.0
 70
    32
 71
     5
 42
5.0
 73
     0
 74
     0
 75
     0
 52
-270.0
  3
SYS$0
100
AcDbAlignedDimension
 13
170.5
 23
71.49999999998357
 33
0.0
 14
170.5
 24
66.49999999998357
 34
0.0
 50
90.0000000002924
100
AcDbRotatedDimension
1001
ACAD_DSTYLE_DIMINSPECT
1070
   393
1070
     0
  0
LINE
  5
132FA
330
1F
100
AcDbEntity
  8
AM_0
100
AcDbLine
 10
206.4999999999388
 20
152.9999999999836
 30
0.0
 11
206.9999999999408
 21
152.9999999999861
 31
0.0
  0
LINE
  5
132FB
330
1F
100
AcDbEntity
  8
AM_0
100
AcDbLine
 10
206.9999999999408
 20
152.9999999999861
 30
0.0
 11
207.0000000004286
 21
56.99999999998357
 31
0.0
  0
LINE
  5
132FC
330
1F
100
AcDbEntity
  8
AM_0
100
AcDbLine
 10
207.0000000004286
 20
56.99999999998357
 30
0.0
 11
206.5000000004292
 21
56.99999999998101
 31
0.0
  0
LINE
  5
132FD
102
{ACAD_REACTORS
330
1330F
102
}
330
1F
100
AcDbEntity
  8
AM_0
100
AcDbLine
 10
206.5000000004292
 20
56.99999999998101
 30
0.0
 11
206.4999999999388
 21
152.9999999999836
 31
0.0
  0
LINE
  5
132FE
330
1F
100
AcDbEntity
  8
AM_0
100
AcDbLine
 10
206.4999999999874
 20
143.4999999999836
 30
0.0
 11
206.9999999999891
 21
143.4999999999861
 31
0.0
  0
LINE
  5
132FF
330
1F
100
AcDbEntity
  8
AM_0
100
AcDbLine
 10
207.0000000000144
 20
138.4999999999836
 30
0.0
 11
206.5000000000128
 21
138.499999999981
 31
0.0
  0
LINE
  5
13300
330
1F
100
AcDbEntity
  8
AM_0
100
AcDbLine
 10
206.5000000001712
 20
107.4999999999836
 30
0.0
 11
207.000000000172
 21
107.4999999999861
 31
0.0
  0
LINE
  5
13301
330
1F
100
AcDbEntity
  8
AM_0
100
AcDbLine
 10
207.0000000001974
 20
102.4999999999836
 30
0.0
 11
206.5000000001968
 21
102.499999999981
 31
0.0
  0
LINE
  5
13302
330
1F
100
AcDbEntity
  8
AM_0
100
AcDbLine
 10
206.5000000003552
 20
71.49999999998357
 30
0.0
 11
207.0000000003549
 21
71.49999999998613
 31
0.0
  0
LINE
  5
13303
330
1F
100
AcDbEntity
  8
AM_0
100
AcDbLine
 10
207.0000000003803
 20
66.49999999998357
 30
0.0
 11
206.5000000003806
 21
66.49999999998101
 31
0.0
  0
LINE
  5
13304
330
1F
100
AcDbEntity
  8
AM_7
 48
0.3
370
     9
100
AcDbLine
 10
203.5000000000001
 20
140.9999999999836
 30
0.0
 11
210.0
 21
140.9999999999836
 31
0.0
1001
GENIUS_GENODEF_13
1002
{
1000
HIER
1070
     0
1002
}
1002
{
1000
MANEDIT
1070
     0
1002
}
1002
{
1000
NOSEL
1070
     0
1002
}
1002
{
1000
BEHIND
1070
     0
1002
}
1002
{
1000
OTHER
1070
     0
1002
}
1002
{
1000
REACTOR
1002
}
1001
GENIUS_GENOBJ-N-CEN_13
1002
{
1000
OWNER
1000
GEN
1002
}
1001
GENIUS_GENCEN_19
1002
{
1040
3.0
1002
}
  0
LINE
  5
13305
330
1F
100
AcDbEntity
  8
AM_7
 48
0.3
370
     9
100
AcDbLine
 10
203.5000000000819
 20
124.9999999999684
 30
0.0
 11
210.0000000000831
 21
125.0000000000013
 31
0.0
1001
GENIUS_GENODEF_13
1002
{
1000
HIER
1070
     0
1002
}
1002
{
1000
MANEDIT
1070
     0
1002
}
1002
{
1000
NOSEL
1070
     0
1002
}
1002
{
1000
BEHIND
1070
     0
1002
}
1002
{
1000
OTHER
1070
     0
1002
}
1002
{
1000
REACTOR
1002
}
1001
GENIUS_GENOBJ-N-CEN_13
1002
{
1000
OWNER
1000
GEN
1002
}
1001
GENIUS_GENCEN_19
1002
{
1040
3.0
1002
}
  0
LINE
  5
13306
330
1F
100
AcDbEntity
  8
AM_7
 48
0.3
370
     9
100
AcDbLine
 10
203.5000000001839
 20
104.9999999999671
 30
0.0
 11
210.0000000001847
 21
105.0
 31
0.0
1001
GENIUS_GENODEF_13
1002
{
1000
HIER
1070
     0
1002
}
1002
{
1000
MANEDIT
1070
     0
1002
}
1002
{
1000
NOSEL
1070
     0
1002
}
1002
{
1000
BEHIND
1070
     0
1002
}
1002
{
1000
OTHER
1070
     0
1002
}
1002
{
1000
REACTOR
1002
}
1001
GENIUS_GENOBJ-N-CEN_13
1002
{
1000
OWNER
1000
GEN
1002
}
1001
GENIUS_GENCEN_19
1002
{
1040
3.0
1002
}
  0
LINE
  5
13307
330
1F
100
AcDbEntity
  8
AM_7
 48
0.3
370
     9
100
AcDbLine
 10
203.5000000002861
 20
84.99999999996822
 30
0.0
 11
210.0000000002863
 21
85.00000000000148
 31
0.0
1001
GENIUS_GENODEF_13
1002
{
1000
HIER
1070
     0
1002
}
1002
{
1000
MANEDIT
1070
     0
1002
}
1002
{
1000
NOSEL
1070
     0
1002
}
1002
{
1000
BEHIND
1070
     0
1002
}
1002
{
1000
OTHER
1070
     0
1002
}
1002
{
1000
REACTOR
1002
}
1001
GENIUS_GENOBJ-N-CEN_13
1002
{
1000
OWNER
1000
GEN
1002
}
1001
GENIUS_GENCEN_19
1002
{
1040
3.0
1002
}
  0
LINE
  5
13308
330
1F
100
AcDbEntity
  8
AM_7
 48
0.3
370
     9
100
AcDbLine
 10
203.5000000003679
 20
68.99999999996822
 30
0.0
 11
210.0000000003677
 21
69.00000000000148
 31
0.0
1001
GENIUS_GENODEF_13
1002
{
1000
HIER
1070
     0
1002
}
1002
{
1000
MANEDIT
1070
     0
1002
}
1002
{
1000
NOSEL
1070
     0
1002
}
1002
{
1000
BEHIND
1070
     0
1002
}
1002
{
1000
OTHER
1070
     0
1002
}
1002
{
1000
REACTOR
1002
}
1001
GENIUS_GENOBJ-N-CEN_13
1002
{
1000
OWNER
1000
GEN
1002
}
1001
GENIUS_GENCEN_19
1002
{
1040
3.0
1002
}
  0
LINE
  5
13309
330
1F
100
AcDbEntity
  8
AM_3
 48
0.1
370
     9
100
AcDbLine
 10
206.5000000003117
 20
79.99999999998357
 30
0.0
 11
207.0000000003117
 21
79.99999999998613
 31
0.0
  0
LINE
  5
1330A
330
1F
100
AcDbEntity
  8
AM_3
 48
0.1
370
     9
100
AcDbLine
 10
206.5000000002606
 20
89.99999999998357
 30
0.0
 11
207.0000000002609
 21
89.99999999998613
 31
0.0
  0
LINE
  5
1330B
330
1F
100
AcDbEntity
  8
AM_3
 48
0.1
370
     9
100
AcDbLine
 10
206.5000000000563
 20
129.9999999999836
 30
0.0
 11
207.0000000000576
 21
129.9999999999861
 31
0.0
  0
LINE
  5
1330C
330
1F
100
AcDbEntity
  8
AM_3
 48
0.1
370
     9
100
AcDbLine
 10
206.5000000001074
 20
119.9999999999836
 30
0.0
 11
207.0000000001085
 21
119.9999999999861
 31
0.0
  0
DIMENSION
  5
1330D
102
{ACAD_REACTORS
330
1330F
102
}
102
{ACAD_XDICTIONARY
360
1330E
102
}
330
1F
100
AcDbEntity
  8
AM_5
100
AcDbDimension
280
     0
  2
*D927
 10
206.9999999999409
 20
160.9999999999836
 30
0.0
 11
214.4266666666076
 21
163.5999999999836
 31
0.0
 70
    32
  1
t=<>
 71
     5
 42
0.5000000000019327
 73
     0
 74
     0
 75
     0
 52
-270.0
  3
SYS$0
100
AcDbAlignedDimension
 13
206.4999999999388
 23
152.9999999999836
 33
0.0
 14
206.9999999999408
 24
152.9999999999861
 34
0.0
 50
179.9999999999987
100
AcDbRotatedDimension
1001
ACAD_DSTYLE_DIMINSPECT
1070
   393
1070
     0
1001
ACAD
1000
DSTYLE
1002
{
1070
   170
1070
     0
1070
    72
1070
     0
1070
    71
1070
     0
1002
}
  0
DIMENSION
  5
13310
102
{ACAD_REACTORS
330
13312
102
}
102
{ACAD_XDICTIONARY
360
13311
102
}
330
1F
100
AcDbEntity
  8
AM_5
100
AcDbDimension
280
     0
  2
*D928
 10
160.8536939497718
 20
125.3982120253412
 30
0.0
 11
140.5000000000002
 21
156.9999999999392
 31
0.0
 70
   163
  1
2-<>×10スロット
 71
     5
 42
4.99999999999992
 73
     0
 74
     0
 75
     0
  3
SYS$3
100
AcDbDiametricDimension
 15
158.1463060502284
 25
129.601787974626
 35
0.0
 40
0.0
1001
ACAD_DSTYLE_DIMRADIAL_EXTENSION
1070
   387
1070
     1
1070
   388
1040
0.0
1070
   390
1040
3.141592653589793
1001
ACAD
1000
DSTYLE
1002
{
1070
   170
1070
     0
1070
    72
1070
     0
1070
    71
1070
     0
1070
   289
1070
     2
1070
   281
1070
     1
1070
   279
1070
     1
1002
}
1001
ACAD_DSTYLE_DIMINSPECT
1070
   393
1070
     0
  0
LINE
  5
133B3
330
1F
100
AcDbEntity
  8
AM_0
100
AcDbLine
 10
11.5
 20
201.5
 30
0.0
 11
11.50000000000097
 21
153.4999999999992
 31
0.0
  0
LINE
  5
133B4
330
1F
100
AcDbEntity
  8
AM_0
100
AcDbLine
 10
11.5
 20
201.5
 30
0.0
 11
101.5000000000001
 21
201.5
 31
0.0
  0
LINE
  5
133B5
330
1F
100
AcDbEntity
  8
AM_0
100
AcDbLine
 10
101.5000000000001
 20
201.5
 30
0.0
 11
101.5000000000003
 21
153.4999999999992
 31
0.0
  0
LINE
  5
133B6
330
1F
100
AcDbEntity
  8
AM_0
100
AcDbLine
 10
31.49999999999966
 20
153.4999999999992
 30
0.0
 11
31.5
 21
201.5
 31
0.0
  0
LINE
  5
133B7
330
1F
100
AcDbEntity
  8
AM_5
100
AcDbLine
 10
11.5
 20
193.5
 30
0.0
 11
101.5000000000001
 21
193.5
 31
0.0
  0
LINE
  5
133B8
330
1F
100
AcDbEntity
  8
AM_5
100
AcDbLine
 10
11.5
 20
185.5
 30
0.0
 11
101.5000000000002
 21
185.5
 31
0.0
  0
LINE
  5
133B9
330
1F
100
AcDbEntity
  8
AM_5
100
AcDbLine
 10
11.50000000000193
 20
169.5000000000005
 30
0.0
 11
101.5000000000002
 21
169.5000000000007
 31
0.0
  0
LINE
  5
133BA
330
1F
100
AcDbEntity
  8
AM_0
100
AcDbLine
 10
101.5000000000003
 20
153.4999999999992
 30
0.0
 11
11.50000000000091
 21
153.4999999999992
 31
0.0
  0
MTEXT
  5
133BB
330
1F
100
AcDbEntity
  8
AM_6
100
AcDbMText
 10
21.5
 20
197.5
 30
0.0
 40
3.2
 41
20.0
 46
0.0
 71
     5
 72
     5
  1
品　名
 73
     1
 44
1.0
  0
MTEXT
  5
133BC
330
1F
100
AcDbEntity
  8
AM_6
100
AcDbMText
 10
31.5
 20
197.5
 30
0.0
 40
3.2
 41
80.0
 46
0.0
 71
     4
 72
     5
  1
　点検口丁番用スペーサー
 73
     1
 44
1.0
  0
MTEXT
  5
133BD
330
1F
100
AcDbEntity
  8
AM_6
100
AcDbMText
 10
21.5
 20
189.5
 30
0.0
 40
3.2
 41
20.0
 46
0.0
 71
     5
 72
     5
  1
品　番
 73
     1
 44
1.0
  0
MTEXT
  5
133BE
330
1F
100
AcDbEntity
  8
AM_6
100
AcDbMText
 10
31.5
 20
189.5
 30
0.0
 40
3.2
 41
80.0
 46
0.0
 71
     4
 72
     5
  1
　EB-6A
 73
     1
 44
1.0
  0
MTEXT
  5
133BF
330
1F
100
AcDbEntity
  8
AM_6
100
AcDbMText
 10
21.5
 20
181.5
 30
0.0
 40
3.2
 41
20.0
 46
0.0
 71
     5
 72
     5
  1
材　質
 73
     1
 44
1.0
  0
MTEXT
  5
133C0
330
1F
100
AcDbEntity
  8
AM_6
100
AcDbMText
 10
31.5
 20
181.5
 30
0.0
 40
3.2
 41
80.0
 46
0.0
 71
     4
 72
     5
  1
　ステンレス
 73
     1
 44
1.0
  0
MTEXT
  5
133C1
330
1F
100
AcDbEntity
  8
AM_6
100
AcDbMText
 10
21.5000000000008
 20
173.5000000000009
 30
0.0
 40
3.2
 41
20.0
 46
0.0
 71
     5
 72
     5
  1
仕上げ
 73
     1
 44
1.0
  0
MTEXT
  5
133C2
330
1F
100
AcDbEntity
  8
AM_6
100
AcDbMText
 10
31.50000000000057
 20
173.5000000000014
 30
0.0
 40
3.2
 41
80.0
 46
0.0
 71
     4
 72
     5
  1
　生地
 73
     1
 44
1.0
  0
LINE
  5
133C3
330
1F
100
AcDbEntity
  8
AM_5
100
AcDbLine
 10
31.50000000000074
 20
161.5000000000005
 30
0.0
 11
101.5000000000002
 21
161.5000000000005
 31
0.0
  0
MTEXT
  5
133C4
330
1F
100
AcDbEntity
  8
AM_6
100
AcDbMText
 10
21.50000000000188
 20
165.5000000000005
 30
0.0
 40
3.2
 41
20.0
 46
0.0
 71
     5
 72
     5
  1
備　考
 73
     1
 44
1.0
  0
MTEXT
  5
133C5
330
1F
100
AcDbEntity
  8
AM_6
100
AcDbMText
 10
31.50000000000142
 20
165.5000000000005
 30
0.0
 40
3.2
 41
80.0
 46
0.0
 71
     4
 72
     5
  1
　左右勝手無し。
 73
     1
 44
1.0
  0
MTEXT
  5
133C8
330
1F
100
AcDbEntity
  8
AM_6
100
AcDbMText
 10
31.50000000000165
 20
157.5000000000005
 30
0.0
 40
3.2
 41
80.0
 46
0.0
 71
     4
 72
     5
  1
　EH-6、EH-6B 用の調整スペーサー
 73
     1
 44
1.0
  0
LINE
  5
133CD
330
1F
100
AcDbEntity
  8
AM_5
100
AcDbLine
 10
11.50000000000045
 20
177.5000000000013
 30
0.0
 11
101.5000000000002
 21
177.5000000000015
 31
0.0
  0
LWPOLYLINE
  5
13700
330
1F
100
AcDbEntity
  8
waku
100
AcDbPolyline
 90
        4
 70
     1
 43
0.0
 10
11.5
 20
201.5
 10
11.5
 20
8.500000000000007
 10
285.4999999999999
 20
8.500000000000007
 10
285.4999999999999
 20
201.5
  0
LWPOLYLINE
  5
13706
330
1F
100
AcDbEntity
  8
size
100
AcDbPolyline
 90
        4
 70
     1
 43
0.0
 10
0.0000000000000213
 20
210.0
 10
0.0000000000000213
 20
-0.0000000000000213
 10
297.0
 20
-0.0000000000000213
 10
297.0
 20
210.0
  0
ENDSEC
  0
SECTION
  2
OBJECTS
  0
DICTIONARY
  5
C
330
0
100
AcDbDictionary
281
     1
  3
ACAD_CIP_PREVIOUS_PRODUCT_INFO
350
E5A3
  3
ACAD_COLOR
350
C45B
  3
ACAD_DETAILVIEWSTYLE
350
E597
  3
ACAD_DGNDEFINITIONS
350
E98D
  3
ACAD_DGNLINESTYLECOMP
350
E70E
  3
ACAD_DWFDEFINITIONS
350
E98C
  3
ACAD_GROUP
350
D
  3
ACAD_LAYOUT
350
1A
  3
ACAD_MATERIAL
350
C446
  3
ACAD_MLEADERSTYLE
350
E593
  3
ACAD_MLINESTYLE
350
17
  3
ACAD_PDFDEFINITIONS
350
E98B
  3
ACAD_PLOTSETTINGS
350
19
  3
ACAD_PLOTSTYLENAME
350
E
  3
ACAD_SCALELIST
350
E581
  3
ACAD_SECTIONVIEWSTYLE
350
E595
  3
ACAD_TABLESTYLE
350
C45C
  3
ACAD_VISUALSTYLE
350
C44A
  3
AcAsAppObject
350
3DA1
  3
ACASGREF_MASTER
350
3DE9
  3
ACDB_RECOMPOSE_DATA
350
13721
  3
AcDbVariableDictionary
350
34
  3
AD_GREF_MODULE
350
3DEA
  3
AD_MAPI_MODULE
350
3E06
  3
AEC_PROPERTY_SET_DEFS
350
E796
  3
ASE_INDEX_DICTIONARY
350
E473
  3
ASURF_STATIC_VARS
350
3DA2
  3
AutoSurf_SysVars
350
3DA3
  3
gmRefExt
350
E99C
  3
HCJX_INFO
350
125E4
  3
MAPISURF_MODULE
350
3DEB
  0
DICTIONARY
  5
3F95
330
2
100
AcDbDictionary
280
     1
281
     1
  3
ACAD_LAYERFILTERS
360
CB0C
  3
ACAD_LAYERSTATES
360
3F96
  3
ACLYDICTIONARY
360
CB0B
  3
AMLAYER_GROUPCOLORS
360
CB2F
  0
DICTIONARY
  5
E663
330
10
100
AcDbDictionary
280
     1
281
     1
  3
ADSK_XREC_LAYER_RECONCILED
360
E664
  0
DICTIONARY
  5
E665
330
A46
100
AcDbDictionary
280
     1
281
     1
  3
ADSK_XREC_LAYER_RECONCILED
360
E666
  0
DICTIONARY
  5
E667
330
A47
100
AcDbDictionary
280
     1
281
     1
  3
ADSK_XREC_LAYER_RECONCILED
360
E668
  0
DICTIONARY
  5
E669
330
A48
100
AcDbDictionary
280
     1
281
     1
  3
ADSK_XREC_LAYER_RECONCILED
360
E66A
  0
DICTIONARY
  5
E66D
330
3A31
100
AcDbDictionary
280
     1
281
     1
  3
ADSK_XREC_LAYER_RECONCILED
360
E66E
  0
DICTIONARY
  5
E66F
330
5765
100
AcDbDictionary
280
     1
281
     1
  3
ADSK_XREC_LAYER_RECONCILED
360
E670
  0
DICTIONARY
  5
E671
330
591A
100
AcDbDictionary
280
     1
281
     1
  3
ADSK_XREC_LAYER_RECONCILED
360
E672
  0
DICTIONARY
  5
E673
330
5F85
100
AcDbDictionary
280
     1
281
     1
  3
ADSK_XREC_LAYER_RECONCILED
360
E674
  0
DICTIONARY
  5
E67F
330
BFAA
100
AcDbDictionary
280
     1
281
     1
  3
ADSK_XREC_LAYER_RECONCILED
360
E680
  0
DICTIONARY
  5
E681
330
BFAB
100
AcDbDictionary
280
     1
281
     1
  3
ADSK_XREC_LAYER_RECONCILED
360
E682
  0
DICTIONARY
  5
E683
330
BFAC
100
AcDbDictionary
280
     1
281
     1
  3
ADSK_XREC_LAYER_RECONCILED
360
E684
  0
DICTIONARY
  5
E687
330
C7E8
100
AcDbDictionary
280
     1
281
     1
  3
ADSK_XREC_LAYER_RECONCILED
360
E688
  0
DICTIONARY
  5
8A
330
1F
100
AcDbDictionary
280
     1
281
     1
  3
ACAD_SORTENTS
360
E911
  0
DICTIONARY
  5
E81C
330
E81B
100
AcDbDictionary
280
     1
281
     1
  3
ACAD_SORTENTS
360
E81D
  0
DICTIONARY
  5
132DD
330
132DC
100
AcDbDictionary
280
     1
281
     1
  3
ACAD_DIMASSOC
360
132DE
  0
DICTIONARY
  5
132E0
330
132DF
100
AcDbDictionary
280
     1
281
     1
  3
ACAD_DIMASSOC
360
132E1
  0
DICTIONARY
  5
132E3
330
132E2
100
AcDbDictionary
280
     1
281
     1
  3
ACAD_DIMASSOC
360
132E4
  0
DICTIONARY
  5
132E6
330
132E5
100
AcDbDictionary
280
     1
281
     1
  3
ACAD_DIMASSOC
360
132E7
  0
DICTIONARY
  5
132E9
330
132E8
100
AcDbDictionary
280
     1
281
     1
  3
ACAD_DIMASSOC
360
132EA
  0
DICTIONARY
  5
132EC
330
132EB
100
AcDbDictionary
280
     1
281
     1
  3
ACAD_DIMASSOC
360
132ED
  0
DICTIONARY
  5
132EF
330
132EE
100
AcDbDictionary
280
     1
281
     1
  3
ACAD_DIMASSOC
360
132F0
  0
DICTIONARY
  5
1330E
330
1330D
100
AcDbDictionary
280
     1
281
     1
  3
ACAD_DIMASSOC
360
1330F
  0
DICTIONARY
  5
13311
330
13310
100
AcDbDictionary
280
     1
281
     1
  3
ACAD_DIMASSOC
360
13312
  0
XRECORD
  5
E5A3
102
{ACAD_REACTORS
330
C
102
}
330
C
100
AcDbXrecord
280
     1
300
AMECH_PP
300
2013
300
PDSS_F_S
  0
DICTIONARY
  5
C45B
102
{ACAD_REACTORS
330
C
102
}
330
C
100
AcDbDictionary
281
     1
  0
DICTIONARY
  5
E597
102
{ACAD_REACTORS
330
C
102
}
330
C
100
AcDbDictionary
281
     1
  3
Metric50
350
E598
  0
DICTIONARY
  5
E98D
102
{ACAD_REACTORS
330
C
102
}
330
C
100
AcDbDictionary
281
     1
  0
DICTIONARY
  5
E70E
102
{ACAD_REACTORS
330
C
102
}
330
C
100
AcDbDictionary
280
     1
281
     1
  0
DICTIONARY
  5
E98C
102
{ACAD_REACTORS
330
C
102
}
330
C
100
AcDbDictionary
281
     1
  0
DICTIONARY
  5
D
102
{ACAD_REACTORS
330
C
102
}
330
C
100
AcDbDictionary
281
     1
  0
DICTIONARY
  5
1A
102
{ACAD_REACTORS
330
C
102
}
330
C
100
AcDbDictionary
281
     1
  3
Model
350
22
  3
ﾚｲｱｳﾄ1
350
1E
  3
ﾚｲｱｳﾄ2
350
26
  0
DICTIONARY
  5
C446
102
{ACAD_REACTORS
330
C
102
}
330
C
100
AcDbDictionary
281
     1
  3
ByBlock
350
C448
  3
ByLayer
350
C447
  3
Global
350
C449
  0
DICTIONARY
  5
E593
102
{ACAD_REACTORS
330
C
102
}
330
C
100
AcDbDictionary
281
     1
  3
Standard
350
E594
  0
DICTIONARY
  5
17
102
{ACAD_REACTORS
330
C
102
}
330
C
100
AcDbDictionary
281
     1
  3
Standard
350
18
  0
DICTIONARY
  5
E98B
102
{ACAD_REACTORS
330
C
102
}
330
C
100
AcDbDictionary
281
     1
  0
DICTIONARY
  5
19
102
{ACAD_REACTORS
330
C
102
}
330
C
100
AcDbDictionary
281
     1
  3
-00
350
C85D
  0
ACDBDICTIONARYWDFLT
  5
E
102
{ACAD_REACTORS
330
C
102
}
330
C
100
AcDbDictionary
281
     1
  3
Normal
350
F
100
AcDbDictionaryWithDefault
340
F
  0
DICTIONARY
  5
E581
102
{ACAD_REACTORS
330
C
102
}
330
C
100
AcDbDictionary
281
     1
  3
A0
350
E582
  3
A1
350
E583
  3
A2
350
E584
  3
A3
350
E585
  3
A4
350
E586
  3
A5
350
E587
  3
A6
350
E588
  3
A7
350
E589
  3
A8
350
E58A
  3
A9
350
E58B
  3
B0
350
E58C
  3
B1
350
E58D
  3
B2
350
E58E
  3
B3
350
E58F
  3
B4
350
E590
  3
B5
350
E591
  3
B6
350
E592
  0
DICTIONARY
  5
E595
102
{ACAD_REACTORS
330
C
102
}
330
C
100
AcDbDictionary
281
     1
  3
Metric50
350
E596
  0
DICTIONARY
  5
C45C
102
{ACAD_REACTORS
330
C
102
}
330
C
100
AcDbDictionary
281
     1
  3
Standard
350
C45D
  0
DICTIONARY
  5
C44A
102
{ACAD_REACTORS
330
C
102
}
330
C
100
AcDbDictionary
281
     1
  3
2dWireframe
350
C450
  3
3D Hidden
350
C452
  3
3dWireframe
350
C451
  3
Basic
350
C44F
  3
Brighten
350
C456
  3
ColorChange
350
C45A
  3
Conceptual
350
C453
  3
Dim
350
C455
  3
EdgeColorOff
350
E580
  3
Facepattern
350
C459
  3
Flat
350
C44B
  3
FlatWithEdges
350
C44C
  3
Gouraud
350
C44D
  3
GouraudWithEdges
350
C44E
  3
Hidden
350
E578
  3
JitterOff
350
E57E
  3
Linepattern
350
C458
  3
OverhangOff
350
E57F
  3
Realistic
350
C454
  3
Shaded
350
E57D
  3
Shaded with edges
350
E57C
  3
Shades of Gray
350
E579
  3
Sketchy
350
E57A
  3
Thicken
350
C457
  3
Wireframe
350
E577
  3
X-Ray
350
E57B
  0
ACAD_PROXY_OBJECT
  5
3DA1
102
{ACAD_REACTORS
330
C
102
}
330
C
100
AcDbProxyObject
 90
      499
 91
      576
 95
   720919
 70
     0
161
                10
310
4040
  0
ACAD_PROXY_OBJECT
  5
3DE9
102
{ACAD_REACTORS
330
C
102
}
330
C
100
AcDbProxyObject
 90
      499
 91
      581
 95
   720919
 70
     0
161
                34
310
0100004040
  0
XRECORD
  5
13721
102
{ACAD_REACTORS
330
C
102
}
330
C
100
AcDbXrecord
280
     1
 90
        1
330
C45D
  0
DICTIONARY
  5
34
102
{ACAD_REACTORS
330
C
102
}
330
C
100
AcDbDictionary
281
     1
  3
CANNOSCALE
350
E6E0
  3
CMLEADERSTYLE
350
E6DC
  3
CTABLESTYLE
350
C4A2
  3
CVIEWDETAILSTYLE
350
E6DD
  3
CVIEWSECTIONSTYLE
350
E6DE
  3
DIMASSOC
350
AC85
  3
INDEXCTL
350
35
  3
LAYEREVAL
350
E6E2
  3
LAYERNOTIFY
350
E6E3
  3
LIGHTINGUNITS
350
E6E1
  3
MSLTSCALE
350
E6DF
  3
SORTENTS
350
194C
  0
ACAD_PROXY_OBJECT
  5
3DEA
102
{ACAD_REACTORS
330
C
102
}
330
C
100
AcDbProxyObject
 90
      499
 91
      582
 95
   720919
 70
     0
161
               114
310
000000438000000000000000000000
  0
ACAD_PROXY_OBJECT
  5
3E06
102
{ACAD_REACTORS
330
C
102
}
330
C
100
AcDbProxyObject
 90
      499
 91
      594
 95
   720919
 70
     0
161
                34
310
05000044C0
  0
DICTIONARY
  5
E796
102
{ACAD_REACTORS
330
C
102
}
330
C
100
AcDbDictionary
281
     1
  0
DICTIONARY
  5
E473
102
{ACAD_REACTORS
330
C
102
}
330
C
100
AcDbDictionary
281
     1
  3
ASEBlockHierarchyIndexRecord
350
E474
1001
DCO15
1040
1728116413.781
  0
ACAD_PROXY_OBJECT
  5
3DA2
102
{ACAD_REACTORS
330
C
102
}
330
C
100
AcDbProxyObject
 90
      499
 91
      577
 95
  3276827
 70
     0
161
               424
310
585314D600000000000000000000000000000000000000000000000000000000000000000000000000000000000000000000000000
330
3DB5
330
3DB6
330
3DB7
330
3DB8
330
3DB9
330
3DBA
330
3DBB
330
3DBC
330
3DBD
330
3DBE
330
3DBF
330
3DC0
330
3DC1
330
3DC2
330
3DC3
330
3DC4
330
3DC5
330
3DC6
330
3DC7
330
3DC8
330
3DC9
330
3DCA
330
3DCB
330
3DCC
330
3DCD
330
3DCE
330
3DCF
330
3DD0
330
3DD1
330
3DD2
330
3DD3
330
3DD4
330
3DD5
330
3DD6
330
3DD7
330
3DD8
330
3DD9
330
3DDA
330
3DDB
330
3DDC
330
3DDD
330
3DDE
330
3DDF
330
3DE0
330
3DE1
330
3DE2
330
3DE3
330
3DE4
330
3DE5
 94
        0
  0
ACIMSYSVARMAN
  5
3DA3
102
{ACAD_REACTORS
330
C
102
}
330
C
  0
XRECORD
  5
E99C
102
{ACAD_REACTORS
330
C
102
}
330
C
100
AcDbXrecord
280
     1
  0
DICTIONARY
  5
125E4
102
{ACAD_REACTORS
330
C
102
}
330
C
100
AcDbDictionary
281
     1
  3
GmRelease
350
125E5
  3
GmTimeStamp
350
125E6
  0
ACAD_PROXY_OBJECT
  5
3DEB
102
{ACAD_REACTORS
330
C
102
}
330
C
100
AcDbProxyObject
 90
      499
 91
      583
 95
   720919
 70
     0
161
                 8
310
04
  0
DICTIONARY
  5
CB0C
102
{ACAD_REACTORS
330
3F95
102
}
330
3F95
100
AcDbDictionary
281
     1
  3
50
350
CB0E
  0
DICTIONARY
  5
3F96
102
{ACAD_REACTORS
330
3F95
102
}
330
3F95
100
AcDbDictionary
281
     1
  3
20011210
350
3FB7
  0
DICTIONARY
  5
CB0B
102
{ACAD_REACTORS
330
3F95
102
}
330
3F95
100
AcDbDictionary
281
     1
  3
*A1
350
CB0D
1001
ACAD
1000
<All
  0
DICTIONARY
  5
CB2F
102
{ACAD_REACTORS
330
3F95
102
}
330
3F95
100
AcDbDictionary
280
     1
281
     1
  0
XRECORD
  5
E664
102
{ACAD_REACTORS
330
E663
102
}
330
E663
100
AcDbXrecord
280
     1
290
     1
  0
XRECORD
  5
E666
102
{ACAD_REACTORS
330
E665
102
}
330
E665
100
AcDbXrecord
280
     1
290
     1
  0
XRECORD
  5
E668
102
{ACAD_REACTORS
330
E667
102
}
330
E667
100
AcDbXrecord
280
     1
290
     1
  0
XRECORD
  5
E66A
102
{ACAD_REACTORS
330
E669
102
}
330
E669
100
AcDbXrecord
280
     1
290
     1
  0
XRECORD
  5
E66E
102
{ACAD_REACTORS
330
E66D
102
}
330
E66D
100
AcDbXrecord
280
     1
290
     1
  0
XRECORD
  5
E670
102
{ACAD_REACTORS
330
E66F
102
}
330
E66F
100
AcDbXrecord
280
     1
290
     1
  0
XRECORD
  5
E672
102
{ACAD_REACTORS
330
E671
102
}
330
E671
100
AcDbXrecord
280
     1
290
     1
  0
XRECORD
  5
E674
102
{ACAD_REACTORS
330
E673
102
}
330
E673
100
AcDbXrecord
280
     1
290
     1
  0
XRECORD
  5
E680
102
{ACAD_REACTORS
330
E67F
102
}
330
E67F
100
AcDbXrecord
280
     1
290
     1
  0
XRECORD
  5
E682
102
{ACAD_REACTORS
330
E681
102
}
330
E681
100
AcDbXrecord
280
     1
290
     1
  0
XRECORD
  5
E684
102
{ACAD_REACTORS
330
E683
102
}
330
E683
100
AcDbXrecord
280
     1
290
     1
  0
XRECORD
  5
E688
102
{ACAD_REACTORS
330
E687
102
}
330
E687
100
AcDbXrecord
280
     1
290
     1
  0
SORTENTSTABLE
  5
E911
102
{ACAD_REACTORS
330
8A
102
}
330
8A
100
AcDbSortentsTable
330
1F
331
0
  5
DEB1
331
12377
  5
125B2
331
132B4
  5
132B8
331
132B5
  5
132B9
331
132B6
  5
132BA
331
132B7
  5
132BB
331
132B8
  5
132BC
331
132B9
  5
132BD
331
132BA
  5
132BE
331
132BB
  5
132BF
331
132BC
  5
132C0
331
132BD
  5
132C1
331
132BE
  5
132C2
331
132BF
  5
132C3
331
132C0
  5
132C4
331
132C1
  5
132C5
331
132C2
  5
132C6
331
132C3
  5
132C7
331
132C4
  5
132C8
331
132C5
  5
132C9
331
132C6
  5
132CA
331
132C7
  5
132CB
331
132C8
  5
132CC
331
132C9
  5
132CD
331
132CA
  5
132CE
331
132CB
  5
132CF
331
132CC
  5
132D0
331
132CD
  5
132D1
331
132CE
  5
132D2
331
132CF
  5
132D3
331
132D0
  5
132D4
331
132D1
  5
132D5
331
132D2
  5
132D6
331
132D3
  5
132D7
331
132D4
  5
132D8
331
132D5
  5
132D9
331
132D6
  5
132DA
331
132D7
  5
132DB
331
132D8
  5
132DC
331
132D9
  5
132DF
331
132DA
  5
132E2
331
132DB
  5
132E5
331
132DC
  5
132E8
331
132DF
  5
132EB
331
132E2
  5
132EE
331
132E5
  5
132F1
331
132E8
  5
132F4
331
132EB
  5
132FC
331
132EE
  5
132FD
331
132FA
  5
132FE
331
132FB
  5
132FF
331
132FC
  5
13300
331
132FD
  5
13301
331
132FE
  5
13302
331
132FF
  5
13303
331
13300
  5
13304
331
13301
  5
13305
331
13302
  5
13306
331
13303
  5
13307
331
13304
  5
13308
331
13305
  5
13309
331
13306
  5
1330A
331
13307
  5
1330B
331
13308
  5
1330C
331
13309
  5
1330D
331
1330A
  5
13310
331
1330B
  5
133A6
331
1330C
  5
133AB
331
1330D
  5
133B4
331
13310
  5
133B5
331
133B3
  5
133B6
331
133B4
  5
133B7
331
133B5
  5
133B8
331
133B6
  5
133B9
331
133B7
  5
133BA
331
133B8
  5
133BB
331
133B9
  5
133BC
331
133BA
  5
133BD
331
133BB
  5
133BE
331
133BC
  5
133BF
331
133BD
  5
133C0
331
133BE
  5
133C1
331
133BF
  5
133C2
331
133C0
  5
133C3
331
133C1
  5
133C4
331
133C2
  5
133C5
331
133C3
  5
133C6
331
133C4
  5
133C9
331
133C5
  5
133CE
331
133C8
  5
13406
331
133CD
  5
13517
  0
SORTENTSTABLE
  5
E81D
102
{ACAD_REACTORS
330
E81C
102
}
330
E81C
100
AcDbSortentsTable
330
E81B
  0
DIMASSOC
  5
132DE
102
{ACAD_REACTORS
330
132DD
102
}
330
132DD
100
AcDbDimAssoc
330
132DC
 90
        2
 70
     0
 71
     0
  1
AcDbOsnapPointRef
 72
     1
331
132D8
 73
     2
 91
       -1
 40
1.0
 10
0.0
 20
0.0
 30
0.0
 75
     0
  0
DIMASSOC
  5
132E1
102
{ACAD_REACTORS
330
132E0
102
}
330
132E0
100
AcDbDimAssoc
330
132DF
 90
        3
 70
     0
 71
     0
  1
AcDbOsnapPointRef
 72
    13
331
132DA
 73
     2
 91
       -1
 40
0.0
 10
0.0
 20
0.0
 30
0.0
 75
     0
  1
AcDbOsnapPointRef
 72
    13
331
132DB
 73
     2
 91
       -1
 40
0.0
 10
0.0
 20
0.0
 30
0.0
 75
     0
  0
DIMASSOC
  5
132E4
102
{ACAD_REACTORS
330
132E3
102
}
330
132E3
100
AcDbDimAssoc
330
132E2
 90
        3
 70
     0
 71
     0
  1
AcDbOsnapPointRef
 72
    13
331
132CE
 73
     2
 91
       -1
 40
0.0
 10
0.0
 20
0.0
 30
0.0
 75
     0
  1
AcDbOsnapPointRef
 72
    13
331
132CA
 73
     2
 91
       -1
 40
1.570796326794897
 10
0.0
 20
0.0
 30
0.0
 75
     0
  0
DIMASSOC
  5
132E7
102
{ACAD_REACTORS
330
132E6
102
}
330
132E6
100
AcDbDimAssoc
330
132E5
 90
        3
 70
     0
 71
     0
  1
AcDbOsnapPointRef
 72
    13
331
132CB
 73
     2
 91
       -1
 40
0.0
 10
0.0
 20
0.0
 30
0.0
 75
     0
  1
AcDbOsnapPointRef
 72
    13
331
132C8
 73
     2
 91
       -1
 40
0.0
 10
0.0
 20
0.0
 30
0.0
 75
     0
  0
DIMASSOC
  5
132EA
102
{ACAD_REACTORS
330
132E9
102
}
330
132E9
100
AcDbDimAssoc
330
132E8
 90
        3
 70
     0
 71
     0
  1
AcDbOsnapPointRef
 72
     2
331
132B8
 73
     2
 91
       -1
 40
3.141592653589793
 10
0.0
 20
0.0
 30
0.0
 75
     0
  1
AcDbOsnapPointRef
 72
    13
331
132CC
 73
     2
 91
       -1
 40
3.141592653589793
 10
0.0
 20
0.0
 30
0.0
 75
     0
  0
DIMASSOC
  5
132ED
102
{ACAD_REACTORS
330
132EC
102
}
330
132EC
100
AcDbDimAssoc
330
132EB
 90
        3
 70
     0
 71
     0
  1
AcDbOsnapPointRef
 72
     1
331
132D7
 73
     2
 91
       -1
 40
1.0
 10
0.0
 20
0.0
 30
0.0
 75
     0
  1
AcDbOsnapPointRef
 72
     1
331
132D8
 73
     2
 91
       -1
 40
1.0
 10
0.0
 20
0.0
 30
0.0
 75
     0
  0
DIMASSOC
  5
132F0
102
{ACAD_REACTORS
330
132EF
102
}
330
132EF
100
AcDbDimAssoc
330
132EE
 90
        3
 70
     0
 71
     0
  1
AcDbOsnapPointRef
 72
    13
331
132D4
 73
     2
 91
       -1
 40
4.71238898038469
 10
0.0
 20
0.0
 30
0.0
 75
     0
  1
AcDbOsnapPointRef
 72
     1
331
132D5
 73
     2
 91
       -1
 40
1.570796326794897
 10
0.0
 20
0.0
 30
0.0
 75
     0
  0
DIMASSOC
  5
1330F
102
{ACAD_REACTORS
330
1330E
102
}
330
1330E
100
AcDbDimAssoc
330
1330D
 90
        1
 70
     0
 71
     0
  1
AcDbOsnapPointRef
 72
     1
331
132FD
 73
     2
 91
       -1
 40
0.9999999999999999
 10
0.0
 20
0.0
 30
0.0
 75
     0
  0
DIMASSOC
  5
13312
102
{ACAD_REACTORS
330
13311
102
}
330
13311
100
AcDbDimAssoc
330
13310
 90
        2
 70
     0
 71
     0
  1
AcDbOsnapPointRef
 72
     3
331
132B9
 73
     2
 91
        0
 40
2.526691891587781
 10
0.0
 20
0.0
 30
0.0
 75
     0
  0
ACDBDETAILVIEWSTYLE
  5
E598
102
{ACAD_REACTORS
330
E597
102
}
102
{ACAD_XDICTIONARY
360
13233
102
}
330
E597
100
AcDbModelDocViewStyle
 70
     0
  3
Metric50
290
     0
100
AcDbDetailViewStyle
 70
     0
 71
     0
 90
        3
 71
     1
340
11
 62
   256
 40
5.0
340
0
 62
   256
 40
5.0
300

 40
0.0
280
     1
 71
     2
340
16
 90
       25
 62
   256
 71
     3
340
11
 62
   256
 40
5.0
 90
        0
 40
15.0
 90
        1
300
%<\AcVar ViewDetailId>% (%<\AcVar ViewScale \f "%sn">%)
 71
     4
340
16
 90
       25
 62
   256
340
16
 90
       25
 62
   256
280
     0
  0
LAYOUT
  5
22
102
{ACAD_REACTORS
330
1A
102
}
102
{ACAD_XDICTIONARY
360
E6A3
102
}
330
1A
100
AcDbPlotSettings
  1

  2
Adobe PDF
  4
A4
  6
AM_VIEW1
 40
0.0
 41
0.0
 42
0.1
 43
0.0
 44
210.0
 45
297.0
 46
0.0
 47
0.0707142857142742
 48
0.0000000000000213
 49
-240.0
140
297.0
141
-30.0
142
1.0
143
1.000476417341591
 70
 11956
 72
     1
 73
     1
 74
     4
  7
monochrome.ctb
 75
     0
 76
     0
 77
     2
 78
   300
147
0.9995238095238096
148
-0.0000000000000213
149
240.0
100
AcDbLayout
  1
Model
 70
     1
 71
     0
 10
0.0
 20
0.0
 11
12.0
 21
9.0
 12
0.0
 22
0.0
 32
0.0
 14
0.0
 24
-0.0000000000000426
 34
0.0
 15
297.0
 25
210.0
 35
0.0
146
0.0
 13
0.0
 23
0.0
 33
0.0
 16
1.0
 26
0.0
 36
0.0
 17
0.0
 27
1.0
 37
0.0
 76
     0
330
1F
331
C444
1001
ACAD_PSEXT
1000
Adobe PDF
1000
Adobe PDF Converter
1000
Documents\*.pdf
1000

1070
     0
1001
PLOTTRANSPARENCY
1071
        0
  0
LAYOUT
  5
1E
102
{ACAD_REACTORS
330
1A
102
}
330
1A
100
AcDbPlotSettings
  1

  2
\\ML370\XEROX
  4
A4
  6

 40
3.174999952316284
 41
3.174999952316284
 42
3.175003051757812
 43
3.17498779296875
 44
209.8674926757812
 45
296.6719970703125
 46
0.0
 47
0.0
 48
0.0
 49
0.0
140
0.0
141
0.0
142
1.0
143
1.0
 70
   688
 72
     1
 73
     1
 74
     5
  7
monochrome.ctb
 75
    16
 76
     0
 77
     2
 78
   300
147
1.0
148
0.0
149
0.0
100
AcDbLayout
  1
ﾚｲｱｳﾄ1
 70
     1
 71
     1
 10
-3.17498779296875
 20
-3.174999952316284
 11
293.4970092773438
 21
206.692492723465
 12
0.0
 22
0.0
 32
0.0
 14
1.000000000000000E+20
 24
1.000000000000000E+20
 34
1.000000000000000E+20
 15
-1.000000000000000E+20
 25
-1.000000000000000E+20
 35
-1.000000000000000E+20
146
0.0
 13
0.0
 23
0.0
 33
0.0
 16
1.0
 26
0.0
 36
0.0
 17
0.0
 27
1.0
 37
0.0
 76
     0
330
1B
  0
LAYOUT
  5
26
102
{ACAD_REACTORS
330
1A
102
}
330
1A
100
AcDbPlotSettings
  1

  2
\\ML370\XEROX
  4

  6

 40
0.0
 41
0.0
 42
0.0
 43
0.0
 44
0.0
 45
0.0
 46
0.0
 47
0.0
 48
0.0
 49
0.0
140
0.0
141
0.0
142
1.0
143
1.0
 70
   688
 72
     0
 73
     0
 74
     5
  7
monochrome.ctb
 75
    16
 76
     0
 77
     2
 78
   300
147
1.0
148
0.0
149
0.0
100
AcDbLayout
  1
ﾚｲｱｳﾄ2
 70
     1
 71
     2
 10
0.0
 20
0.0
 11
12.0
 21
9.0
 12
0.0
 22
0.0
 32
0.0
 14
0.0
 24
0.0
 34
0.0
 15
0.0
 25
0.0
 35
0.0
146
0.0
 13
0.0
 23
0.0
 33
0.0
 16
1.0
 26
0.0
 36
0.0
 17
0.0
 27
1.0
 37
0.0
 76
     0
330
23
  0
MATERIAL
  5
C448
102
{ACAD_REACTORS
330
C446
102
}
330
C446
100
AcDbMaterial
  1
ByBlock
 72
     1
 94
       63
  0
MATERIAL
  5
C447
102
{ACAD_REACTORS
330
C446
102
}
330
C446
100
AcDbMaterial
  1
ByLayer
 72
     1
 94
       63
  0
MATERIAL
  5
C449
102
{ACAD_REACTORS
330
C446
102
}
330
C446
100
AcDbMaterial
  1
Global
 72
     1
 94
       63
  0
MLEADERSTYLE
  5
E594
102
{ACAD_REACTORS
330
E593
102
}
330
E593
100
AcDbMLeaderStyle
179
     2
170
     2
171
     1
172
     0
 90
        2
 40
0.0
 41
0.0
173
     1
 91
-1056964608
340
14
 92
       -2
290
     1
 42
2.0
291
     1
 43
0.36
  3
Standard
341
0
 44
4.0
300

342
11
174
     1
178
     6
175
     1
176
     0
 93
-1056964608
 45
4.0
292
     0
297
     0
 46
4.0
343
0
 94
-1056964608
 47
1.0
 49
1.0
140
1.0
293
     1
141
0.0
294
     1
177
     0
142
1.0
295
     0
296
     0
143
0.125
271
     0
272
     9
273
     9
298
     1
1001
ACAD_MLEADERVER
1070
     2
  0
MLINESTYLE
  5
18
102
{ACAD_REACTORS
330
17
102
}
330
17
100
AcDbMlineStyle
  2
STANDARD
 70
     0
  3

 62
   256
 51
90.0
 52
90.0
 71
     2
 49
0.5
 62
   256
  6
BYLAYER
 49
-0.5
 62
   256
  6
BYLAYER
  0
PLOTSETTINGS
  5
C85D
102
{ACAD_REACTORS
330
19
102
}
330
19
100
AcDbPlotSettings
  1
-00
  2
RICOH imagio Wide 7040e RP-GL/2
  4
A3
  6
AM_VIEW1
 40
5.069416522979736
 41
7.228392601013184
 42
5.23870849609375
 43
7.05908203125
 44
419.9889831542969
 45
296.9683227539062
 46
-5.159570932388306
 47
-7.159575939178467
 48
347.0000006405867
 49
-0.0000003719120514
140
767.0000006405867
141
296.9999996280879
142
1.0
143
1.0
 70
 11956
 72
     1
 73
     0
 74
     4
  7
monochrome.ctb
 75
    16
 76
     0
 77
     2
 78
   300
147
1.0
148
-347.0000006405867
149
0.0000003719120514
1001
ACAD_PSEXT
1000
RICOH imagio Wide 7040e RP-GL/2
1000
RICOH imagio Wide 7040e RP-GL/2
1000
\\ADMINISTRATOR
1000
RP-GL/2 Driver (Windows 2000/XP/Server 2003)
1070
     0
  0
ACDBPLACEHOLDER
  5
F
102
{ACAD_REACTORS
330
E
102
}
330
E
  0
SCALE
  5
E582
102
{ACAD_REACTORS
330
E581
102
}
330
E581
100
AcDbScale
 70
     0
300
1:1
140
1.0
141
1.0
290
     1
  0
SCALE
  5
E583
102
{ACAD_REACTORS
330
E581
102
}
330
E581
100
AcDbScale
 70
     0
300
1:2
140
1.0
141
2.0
290
     0
  0
SCALE
  5
E584
102
{ACAD_REACTORS
330
E581
102
}
330
E581
100
AcDbScale
 70
     0
300
1:4
140
1.0
141
4.0
290
     0
  0
SCALE
  5
E585
102
{ACAD_REACTORS
330
E581
102
}
330
E581
100
AcDbScale
 70
     0
300
1:5
140
1.0
141
5.0
290
     0
  0
SCALE
  5
E586
102
{ACAD_REACTORS
330
E581
102
}
330
E581
100
AcDbScale
 70
     0
300
1:8
140
1.0
141
8.0
290
     0
  0
SCALE
  5
E587
102
{ACAD_REACTORS
330
E581
102
}
330
E581
100
AcDbScale
 70
     0
300
1:10
140
1.0
141
10.0
290
     0
  0
SCALE
  5
E588
102
{ACAD_REACTORS
330
E581
102
}
330
E581
100
AcDbScale
 70
     0
300
1:16
140
1.0
141
16.0
290
     0
  0
SCALE
  5
E589
102
{ACAD_REACTORS
330
E581
102
}
330
E581
100
AcDbScale
 70
     0
300
1:20
140
1.0
141
20.0
290
     0
  0
SCALE
  5
E58A
102
{ACAD_REACTORS
330
E581
102
}
330
E581
100
AcDbScale
 70
     0
300
1:30
140
1.0
141
30.0
290
     0
  0
SCALE
  5
E58B
102
{ACAD_REACTORS
330
E581
102
}
330
E581
100
AcDbScale
 70
     0
300
1:40
140
1.0
141
40.0
290
     0
  0
SCALE
  5
E58C
102
{ACAD_REACTORS
330
E581
102
}
330
E581
100
AcDbScale
 70
     0
300
1:50
140
1.0
141
50.0
290
     0
  0
SCALE
  5
E58D
102
{ACAD_REACTORS
330
E581
102
}
330
E581
100
AcDbScale
 70
     0
300
1:100
140
1.0
141
100.0
290
     0
  0
SCALE
  5
E58E
102
{ACAD_REACTORS
330
E581
102
}
330
E581
100
AcDbScale
 70
     0
300
2:1
140
2.0
141
1.0
290
     0
  0
SCALE
  5
E58F
102
{ACAD_REACTORS
330
E581
102
}
330
E581
100
AcDbScale
 70
     0
300
4:1
140
4.0
141
1.0
290
     0
  0
SCALE
  5
E590
102
{ACAD_REACTORS
330
E581
102
}
330
E581
100
AcDbScale
 70
     0
300
8:1
140
8.0
141
1.0
290
     0
  0
SCALE
  5
E591
102
{ACAD_REACTORS
330
E581
102
}
330
E581
100
AcDbScale
 70
     0
300
10:1
140
10.0
141
1.0
290
     0
  0
SCALE
  5
E592
102
{ACAD_REACTORS
330
E581
102
}
330
E581
100
AcDbScale
 70
     0
300
100:1
140
100.0
141
1.0
290
     0
  0
ACDBSECTIONVIEWSTYLE
  5
E596
102
{ACAD_REACTORS
330
E595
102
}
102
{ACAD_XDICTIONARY
360
13235
102
}
330
E595
100
AcDbModelDocViewStyle
 70
     0
  3
Metric50
290
     0
100
AcDbSectionViewStyle
 70
     0
 71
     0
 90
      102
 71
     1
340
11
 62
   256
 40
5.0
340
0
340
0
 62
   256
 40
5.0
300
I, O, Q, S, X, Z
 40
10.0
 90
        0
 40
2.5
 90
        0
 71
     2
340
16
 90
       25
 62
   256
340
16
 90
       50
 62
   256
 40
5.0
 40
2.5
 40
5.0
 71
     3
340
11
 62
   256
 40
5.0
 90
        0
 40
15.0
 90
        1
300
%<\AcVar ViewSectionStartId>%-%<\AcVar ViewSectionEndId>% (%<\AcVar ViewScale \f "%sn">%)
 71
     4
 62
   256
 62
   257
300
ANSI31
 40
1.0
 90
        0
290
     0
290
     0
 90
        6
 40
0.0
 40
1.570796326794897
 40
0.2617993877991494
 40
1.308996938995747
 40
-0.2617993877991494
 40
1.832595714594046
  0
TABLESTYLE
  5
C45D
102
{ACAD_REACTORS
330
C45C
102
}
102
{ACAD_XDICTIONARY
360
1371F
102
}
330
C45C
100
AcDbTableStyle
  3
Standard
 70
     0
 71
     0
 40
1.5
 41
1.5
280
     0
281
     0
  7
STANDARD
140
4.5
170
     2
 62
     0
 63
   257
283
     0
 90
      512
 91
        0
  1

274
    -2
284
     1
 64
     0
275
    -2
285
     1
 65
     0
276
    -2
286
     1
 66
     0
277
    -2
287
     1
 67
     0
278
    -2
288
     1
 68
     0
279
    -2
289
     1
 69
     0
  7
STANDARD
140
6.0
170
     5
 62
     0
 63
   257
283
     0
 90
      512
 91
        0
  1

274
    -2
284
     1
 64
     0
275
    -2
285
     1
 65
     0
276
    -2
286
     1
 66
     0
277
    -2
287
     1
 67
     0
278
    -2
288
     1
 68
     0
279
    -2
289
     1
 69
     0
  7
STANDARD
140
4.5
170
     5
 62
     0
 63
   257
283
     0
 90
      512
 91
        0
  1

274
    -2
284
     1
 64
     0
275
    -2
285
     1
 65
     0
276
    -2
286
     1
 66
     0
277
    -2
287
     1
 67
     0
278
    -2
288
     1
 68
     0
279
    -2
289
     1
 69
     0
  0
VISUALSTYLE
  5
C450
102
{ACAD_REACTORS
330
C44A
102
}
330
C44A
100
AcDbVisualStyle
  2
2dWireframe
 70
     4
177
     3
291
     0
 70
    58
 90
        0
176
     1
 90
        2
176
     1
 90
        0
176
     1
 90
        0
176
     1
 40
-0.6
176
     1
 40
-30.0
176
     1
 62
     7
420
 16777215
176
     1
 90
        1
176
     1
 90
        4
176
     1
 62
     7
176
     1
 62
   257
176
     1
 90
        1
176
     1
 90
        1
176
     1
 40
1.0
176
     1
 90
        0
176
     1
 62
   257
176
     1
 40
1.0
176
     1
 90
        1
176
     1
 90
        6
176
     1
 90
        2
176
     1
 62
     7
176
     1
 90
        5
176
     1
 90
        0
176
     1
 90
        0
176
     1
290
     0
176
     1
 90
        1
176
     1
 40
0.0
176
     1
 90
        0
176
     1
290
     1
176
     1
290
     1
176
     1
290
     0
176
     1
290
     0
176
     1
290
     0
176
     1
290
     0
176
     1
290
     0
176
     1
290
     0
176
     1
290
     0
176
     1
 90
       50
176
     1
 40
0.0
176
     1
 40
1.0
176
     1
 90
        0
176
     1
 62
    18
420
        0
176
     1
 90
       50
176
     1
 90
        3
176
     1
 62
     5
420
      255
176
     1
290
     0
176
     1
 90
       50
176
     1
 90
       50
176
     1
 90
       50
176
     1
290
     0
176
     1
 90
       50
176
     1
 62
   256
176
     0
 40
1.0
176
     0
 90
        2
176
     1
  1
strokes_ogs.tif
176
     1
290
     0
176
     1
 40
1.0
176
     1
 40
1.0
176
     1
  0
VISUALSTYLE
  5
C452
102
{ACAD_REACTORS
330
C44A
102
}
330
C44A
100
AcDbVisualStyle
  2
3D Hidden
 70
     6
177
     3
291
     0
 70
    58
 90
        1
176
     1
 90
        2
176
     1
 90
        2
176
     1
 90
        0
176
     1
 40
-0.6
176
     1
 40
-30.0
176
     1
 62
     7
420
 16777215
176
     1
 90
        2
176
     1
 90
        2
176
     1
 62
     7
176
     1
 62
   257
176
     1
 90
        2
176
     1
 90
        1
176
     1
 40
40.0
176
     1
 90
        0
176
     1
 62
   257
176
     1
 40
1.0
176
     1
 90
        1
176
     1
 90
        6
176
     1
 90
        2
176
     1
 62
     7
176
     1
 90
        3
176
     1
 90
        0
176
     1
 90
        0
176
     1
290
     0
176
     1
 90
        1
176
     1
 40
0.0
176
     1
 90
        0
176
     1
290
     0
176
     1
290
     1
176
     1
290
     1
176
     1
290
     0
176
     1
290
     0
176
     1
290
     0
176
     1
290
     0
176
     1
290
     0
176
     1
290
     0
176
     1
 90
       50
176
     1
 40
0.0
176
     1
 40
1.0
176
     1
 90
        0
176
     1
 62
    18
420
        0
176
     1
 90
       50
176
     1
 90
        3
176
     1
 62
     5
420
      255
176
     1
290
     0
176
     1
 90
       50
176
     1
 90
       50
176
     1
 90
       50
176
     1
290
     0
176
     1
 90
       50
176
     1
 62
   256
176
     0
 40
1.0
176
     0
 90
        2
176
     1
  1
strokes_ogs.tif
176
     1
290
     0
176
     1
 40
1.0
176
     1
 40
1.0
176
     1
  0
VISUALSTYLE
  5
C451
102
{ACAD_REACTORS
330
C44A
102
}
330
C44A
100
AcDbVisualStyle
  2
3dWireframe
 70
     5
177
     3
291
     0
 70
    58
 90
        0
176
     1
 90
        2
176
     1
 90
        0
176
     1
 90
        0
176
     1
 40
-0.6
176
     1
 40
-30.0
176
     1
 62
     7
420
 16777215
176
     1
 90
        1
176
     1
 90
        4
176
     1
 62
     7
176
     1
 62
   257
176
     1
 90
        1
176
     1
 90
        1
176
     1
 40
1.0
176
     1
 90
        0
176
     1
 62
   257
176
     1
 40
1.0
176
     1
 90
        1
176
     1
 90
        6
176
     1
 90
        2
176
     1
 62
     7
176
     1
 90
        5
176
     1
 90
        0
176
     1
 90
        0
176
     1
290
     0
176
     1
 90
        1
176
     1
 40
0.0
176
     1
 90
        0
176
     1
290
     0
176
     1
290
     1
176
     1
290
     1
176
     1
290
     0
176
     1
290
     0
176
     1
290
     0
176
     1
290
     0
176
     1
290
     0
176
     1
290
     0
176
     1
 90
       50
176
     1
 40
0.0
176
     1
 40
1.0
176
     1
 90
        0
176
     1
 62
    18
420
        0
176
     1
 90
       50
176
     1
 90
        3
176
     1
 62
     5
420
      255
176
     1
290
     0
176
     1
 90
       50
176
     1
 90
       50
176
     1
 90
       50
176
     1
290
     0
176
     1
 90
       50
176
     1
 62
   256
176
     0
 40
1.0
176
     0
 90
        2
176
     1
  1
strokes_ogs.tif
176
     1
290
     0
176
     1
 40
1.0
176
     1
 40
1.0
176
     1
  0
VISUALSTYLE
  5
C44F
102
{ACAD_REACTORS
330
C44A
102
}
330
C44A
100
AcDbVisualStyle
  2
Basic
 70
     7
177
     3
291
     1
 70
    58
 90
        1
176
     1
 90
        0
176
     1
 90
        1
176
     1
 90
        0
176
     1
 40
-0.6
176
     1
 40
-30.0
176
     1
 62
     7
420
 16777215
176
     1
 90
        0
176
     1
 90
        4
176
     1
 62
     7
176
     1
 62
   257
176
     1
 90
        1
176
     1
 90
        1
176
     1
 40
1.0
176
     1
 90
        8
176
     1
 62
     7
176
     1
 40
1.0
176
     1
 90
        1
176
     1
 90
        6
176
     1
 90
        2
176
     1
 62
     7
176
     1
 90
        5
176
     1
 90
        0
176
     1
 90
        0
176
     1
290
     0
176
     1
 90
        1
176
     1
 40
0.0
176
     1
 90
        0
176
     1
290
     0
176
     1
290
     1
176
     1
290
     1
176
     1
290
     0
176
     1
290
     0
176
     1
290
     0
176
     1
290
     0
176
     1
290
     0
176
     1
290
     0
176
     1
 90
       50
176
     1
 40
0.0
176
     1
 40
1.0
176
     1
 90
        0
176
     1
 62
    18
420
        0
176
     1
 90
       50
176
     1
 90
        3
176
     1
 62
     5
420
      255
176
     1
290
     0
176
     1
 90
       50
176
     1
 90
       50
176
     1
 90
       50
176
     1
290
     0
176
     1
 90
       50
176
     1
 62
   256
176
     0
 40
1.0
176
     0
 90
        2
176
     1
  1
strokes_ogs.tif
176
     1
290
     0
176
     1
 40
1.0
176
     1
 40
1.0
176
     1
  0
VISUALSTYLE
  5
C456
102
{ACAD_REACTORS
330
C44A
102
}
330
C44A
100
AcDbVisualStyle
  2
Brighten
 70
    12
177
     3
291
     1
 70
    58
 90
        2
176
     1
 90
        2
176
     1
 90
        0
176
     1
 90
        0
176
     1
 40
-0.6
176
     1
 40
-30.0
176
     1
 62
     7
420
 16777215
176
     1
 90
        1
176
     1
 90
        4
176
     1
 62
     7
176
     1
 62
   257
176
     1
 90
        1
176
     1
 90
        1
176
     1
 40
1.0
176
     1
 90
        8
176
     1
 62
     7
176
     1
 40
1.0
176
     1
 90
        1
176
     1
 90
        6
176
     1
 90
        2
176
     1
 62
     7
176
     1
 90
        5
176
     1
 90
        0
176
     1
 90
        0
176
     1
290
     0
176
     1
 90
        1
176
     1
 40
50.0
176
     1
 90
        0
176
     1
290
     0
176
     1
290
     1
176
     1
290
     1
176
     1
290
     0
176
     1
290
     0
176
     1
290
     0
176
     1
290
     0
176
     1
290
     0
176
     1
290
     0
176
     1
 90
       50
176
     1
 40
0.0
176
     1
 40
1.0
176
     1
 90
        0
176
     1
 62
    18
420
        0
176
     1
 90
       50
176
     1
 90
        3
176
     1
 62
     5
420
      255
176
     1
290
     0
176
     1
 90
       50
176
     1
 90
       50
176
     1
 90
       50
176
     1
290
     0
176
     1
 90
       50
176
     1
 62
   256
176
     0
 40
1.0
176
     0
 90
        2
176
     1
  1
strokes_ogs.tif
176
     1
290
     0
176
     1
 40
1.0
176
     1
 40
1.0
176
     1
  0
VISUALSTYLE
  5
C45A
102
{ACAD_REACTORS
330
C44A
102
}
330
C44A
100
AcDbVisualStyle
  2
ColorChange
 70
    16
177
     3
291
     1
 70
    58
 90
        2
176
     1
 90
        2
176
     1
 90
        3
176
     1
 90
        0
176
     1
 40
-0.6
176
     1
 40
-30.0
176
     1
 62
     8
420
  8421504
176
     1
 90
        1
176
     1
 90
        4
176
     1
 62
     7
176
     1
 62
   257
176
     1
 90
        1
176
     1
 90
        1
176
     1
 40
1.0
176
     1
 90
        8
176
     1
 62
     8
420
  8421504
176
     1
 40
1.0
176
     1
 90
        1
176
     1
 90
        6
176
     1
 90
        2
176
     1
 62
     7
176
     1
 90
        5
176
     1
 90
        0
176
     1
 90
        0
176
     1
290
     0
176
     1
 90
        1
176
     1
 40
0.0
176
     1
 90
        0
176
     1
290
     0
176
     1
290
     1
176
     1
290
     1
176
     1
290
     0
176
     1
290
     0
176
     1
290
     0
176
     1
290
     0
176
     1
290
     0
176
     1
290
     0
176
     1
 90
       50
176
     1
 40
0.0
176
     1
 40
1.0
176
     1
 90
        0
176
     1
 62
    18
420
        0
176
     1
 90
       50
176
     1
 90
        3
176
     1
 62
     5
420
      255
176
     1
290
     0
176
     1
 90
       50
176
     1
 90
       50
176
     1
 90
       50
176
     1
290
     0
176
     1
 90
       50
176
     1
 62
   256
176
     0
 40
1.0
176
     0
 90
        2
176
     1
  1
strokes_ogs.tif
176
     1
290
     0
176
     1
 40
1.0
176
     1
 40
1.0
176
     1
  0
VISUALSTYLE
  5
C453
102
{ACAD_REACTORS
330
C44A
102
}
330
C44A
100
AcDbVisualStyle
  2
Conceptual
 70
     9
177
     3
291
     0
 70
    58
 90
        3
176
     1
 90
        2
176
     1
 90
        0
176
     1
 90
        0
176
     1
 40
-0.6
176
     1
 40
-30.0
176
     1
 62
     7
420
 16777215
176
     1
 90
        2
176
     1
 90
        2
176
     1
 62
     7
176
     1
 62
   257
176
     1
 90
        1
176
     1
 90
        1
176
     1
 40
40.0
176
     1
 90
        8
176
     1
 62
     7
176
     1
 40
1.0
176
     1
 90
        1
176
     1
 90
        6
176
     1
 90
        2
176
     1
 62
     7
176
     1
 90
        3
176
     1
 90
        0
176
     1
 90
        0
176
     1
290
     0
176
     1
 90
        1
176
     1
 40
0.0
176
     1
 90
        0
176
     1
290
     0
176
     1
290
     1
176
     1
290
     1
176
     1
290
     0
176
     1
290
     0
176
     1
290
     0
176
     1
290
     0
176
     1
290
     0
176
     1
290
     0
176
     1
 90
       50
176
     1
 40
0.0
176
     1
 40
1.0
176
     1
 90
        0
176
     1
 62
    18
420
        0
176
     1
 90
       50
176
     1
 90
        3
176
     1
 62
     5
420
      255
176
     1
290
     0
176
     1
 90
       50
176
     1
 90
       50
176
     1
 90
       50
176
     1
290
     0
176
     1
 90
       50
176
     1
 62
   256
176
     0
 40
1.0
176
     0
 90
        2
176
     1
  1
strokes_ogs.tif
176
     1
290
     0
176
     1
 40
1.0
176
     1
 40
1.0
176
     1
  0
VISUALSTYLE
  5
C455
102
{ACAD_REACTORS
330
C44A
102
}
330
C44A
100
AcDbVisualStyle
  2
Dim
 70
    11
177
     3
291
     1
 70
    58
 90
        2
176
     1
 90
        2
176
     1
 90
        0
176
     1
 90
        0
176
     1
 40
-0.6
176
     1
 40
-30.0
176
     1
 62
     7
420
 16777215
176
     1
 90
        1
176
     1
 90
        4
176
     1
 62
     7
176
     1
 62
   257
176
     1
 90
        1
176
     1
 90
        1
176
     1
 40
1.0
176
     1
 90
        8
176
     1
 62
     7
176
     1
 40
1.0
176
     1
 90
        1
176
     1
 90
        6
176
     1
 90
        2
176
     1
 62
     7
176
     1
 90
        5
176
     1
 90
        0
176
     1
 90
        0
176
     1
290
     0
176
     1
 90
        1
176
     1
 40
-50.0
176
     1
 90
        0
176
     1
290
     0
176
     1
290
     1
176
     1
290
     1
176
     1
290
     0
176
     1
290
     0
176
     1
290
     0
176
     1
290
     0
176
     1
290
     0
176
     1
290
     0
176
     1
 90
       50
176
     1
 40
0.0
176
     1
 40
1.0
176
     1
 90
        0
176
     1
 62
    18
420
        0
176
     1
 90
       50
176
     1
 90
        3
176
     1
 62
     5
420
      255
176
     1
290
     0
176
     1
 90
       50
176
     1
 90
       50
176
     1
 90
       50
176
     1
290
     0
176
     1
 90
       50
176
     1
 62
   256
176
     0
 40
1.0
176
     0
 90
        2
176
     1
  1
strokes_ogs.tif
176
     1
290
     0
176
     1
 40
1.0
176
     1
 40
1.0
176
     1
  0
VISUALSTYLE
  5
E580
102
{ACAD_REACTORS
330
C44A
102
}
330
C44A
100
AcDbVisualStyle
  2
EdgeColorOff
 70
    22
177
     3
291
     1
 70
    58
 90
        2
176
     0
 90
        2
176
     0
 90
        0
176
     0
 90
        0
176
     0
 40
-0.6
176
     0
 40
-30.0
176
     0
 62
     7
420
 16777215
176
     0
 90
        1
176
     0
 90
        4
176
     0
 62
     7
176
     0
 62
   257
176
     0
 90
        1
176
     0
 90
        1
176
     0
 40
1.0
176
     0
 90
        8
176
     2
 62
     7
176
     0
 40
1.0
176
     0
 90
        1
176
     0
 90
        6
176
     0
 90
        2
176
     0
 62
     7
176
     0
 90
        5
176
     0
 90
        0
176
     0
 90
        0
176
     0
290
     0
176
     0
 90
        1
176
     0
 40
0.0
176
     0
 90
        0
176
     0
290
     0
176
     0
290
     1
176
     0
290
     1
176
     0
290
     0
176
     0
290
     0
176
     0
290
     0
176
     0
290
     0
176
     0
290
     0
176
     0
290
     0
176
     0
 90
       50
176
     0
 40
0.0
176
     0
 40
1.0
176
     0
 90
        0
176
     0
 62
    18
420
        0
176
     0
 90
       50
176
     0
 90
        3
176
     0
 62
     5
420
      255
176
     0
290
     0
176
     0
 90
       50
176
     0
 90
       50
176
     0
 90
       50
176
     0
290
     0
176
     0
 90
       50
176
     0
 62
   256
176
     0
 40
1.0
176
     0
 90
        2
176
     0
  1
strokes_ogs.tif
176
     0
290
     0
176
     0
 40
1.0
176
     0
 40
1.0
176
     0
  0
VISUALSTYLE
  5
C459
102
{ACAD_REACTORS
330
C44A
102
}
330
C44A
100
AcDbVisualStyle
  2
Facepattern
 70
    15
177
     3
291
     1
 70
    58
 90
        2
176
     1
 90
        2
176
     1
 90
        0
176
     1
 90
        0
176
     1
 40
-0.6
176
     1
 40
-30.0
176
     1
 62
     7
420
 16777215
176
     1
 90
        1
176
     1
 90
        4
176
     1
 62
     7
176
     1
 62
   257
176
     1
 90
        1
176
     1
 90
        1
176
     1
 40
1.0
176
     1
 90
        8
176
     1
 62
     7
176
     1
 40
1.0
176
     1
 90
        1
176
     1
 90
        6
176
     1
 90
        2
176
     1
 62
     7
176
     1
 90
        5
176
     1
 90
        0
176
     1
 90
        0
176
     1
290
     0
176
     1
 90
        1
176
     1
 40
0.0
176
     1
 90
        0
176
     1
290
     0
176
     1
290
     1
176
     1
290
     1
176
     1
290
     0
176
     1
290
     0
176
     1
290
     0
176
     1
290
     0
176
     1
290
     0
176
     1
290
     0
176
     1
 90
       50
176
     1
 40
0.0
176
     1
 40
1.0
176
     1
 90
        0
176
     1
 62
    18
420
        0
176
     1
 90
       50
176
     1
 90
        3
176
     1
 62
     5
420
      255
176
     1
290
     0
176
     1
 90
       50
176
     1
 90
       50
176
     1
 90
       50
176
     1
290
     0
176
     1
 90
       50
176
     1
 62
   256
176
     0
 40
1.0
176
     0
 90
        2
176
     1
  1
strokes_ogs.tif
176
     1
290
     0
176
     1
 40
1.0
176
     1
 40
1.0
176
     1
  0
VISUALSTYLE
  5
C44B
102
{ACAD_REACTORS
330
C44A
102
}
330
C44A
100
AcDbVisualStyle
  2
Flat
 70
     0
177
     3
291
     1
 70
    58
 90
        2
176
     1
 90
        1
176
     1
 90
        1
176
     1
 90
        2
176
     1
 40
-0.6
176
     1
 40
30.0
176
     1
 62
     7
420
 16777215
176
     1
 90
        0
176
     1
 90
        4
176
     1
 62
     7
176
     1
 62
   257
176
     1
 90
        1
176
     1
 90
        1
176
     1
 40
1.0
176
     1
 90
        8
176
     1
 62
     7
176
     1
 40
1.0
176
     1
 90
        1
176
     1
 90
        6
176
     1
 90
        2
176
     1
 62
     7
176
     1
 90
        5
176
     1
 90
        0
176
     1
 90
        0
176
     1
290
     0
176
     1
 90
       13
176
     1
 40
0.0
176
     1
 90
        0
176
     1
290
     0
176
     1
290
     1
176
     1
290
     1
176
     1
290
     0
176
     1
290
     0
176
     1
290
     0
176
     1
290
     0
176
     1
290
     0
176
     1
290
     0
176
     1
 90
       50
176
     1
 40
0.0
176
     1
 40
1.0
176
     1
 90
        0
176
     1
 62
    18
420
        0
176
     1
 90
       50
176
     1
 90
        3
176
     1
 62
     5
420
      255
176
     1
290
     0
176
     1
 90
       50
176
     1
 90
       50
176
     1
 90
       50
176
     1
290
     0
176
     1
 90
       50
176
     1
 62
   256
176
     0
 40
1.0
176
     0
 90
        2
176
     1
  1
strokes_ogs.tif
176
     1
290
     0
176
     1
 40
1.0
176
     1
 40
1.0
176
     1
  0
VISUALSTYLE
  5
C44C
102
{ACAD_REACTORS
330
C44A
102
}
330
C44A
100
AcDbVisualStyle
  2
FlatWithEdges
 70
     1
177
     3
291
     1
 70
    58
 90
        2
176
     1
 90
        1
176
     1
 90
        1
176
     1
 90
        2
176
     1
 40
-0.6
176
     1
 40
30.0
176
     1
 62
     7
420
 16777215
176
     1
 90
        1
176
     1
 90
        4
176
     1
 62
     7
176
     1
 62
   257
176
     1
 90
        1
176
     1
 90
        1
176
     1
 40
1.0
176
     1
 90
        0
176
     1
 62
   257
176
     1
 40
1.0
176
     1
 90
        1
176
     1
 90
        6
176
     1
 90
        2
176
     1
 62
     7
176
     1
 90
        5
176
     1
 90
        0
176
     1
 90
        0
176
     1
290
     0
176
     1
 90
       13
176
     1
 40
0.0
176
     1
 90
        0
176
     1
290
     0
176
     1
290
     1
176
     1
290
     1
176
     1
290
     0
176
     1
290
     0
176
     1
290
     0
176
     1
290
     0
176
     1
290
     0
176
     1
290
     0
176
     1
 90
       50
176
     1
 40
0.0
176
     1
 40
1.0
176
     1
 90
        0
176
     1
 62
    18
420
        0
176
     1
 90
       50
176
     1
 90
        3
176
     1
 62
     5
420
      255
176
     1
290
     0
176
     1
 90
       50
176
     1
 90
       50
176
     1
 90
       50
176
     1
290
     0
176
     1
 90
       50
176
     1
 62
   256
176
     0
 40
1.0
176
     0
 90
        2
176
     1
  1
strokes_ogs.tif
176
     1
290
     0
176
     1
 40
1.0
176
     1
 40
1.0
176
     1
  0
VISUALSTYLE
  5
C44D
102
{ACAD_REACTORS
330
C44A
102
}
330
C44A
100
AcDbVisualStyle
  2
Gouraud
 70
     2
177
     3
291
     1
 70
    58
 90
        2
176
     1
 90
        2
176
     1
 90
        1
176
     1
 90
        2
176
     1
 40
-0.6
176
     1
 40
30.0
176
     1
 62
     7
420
 16777215
176
     1
 90
        0
176
     1
 90
        4
176
     1
 62
     7
176
     1
 62
   257
176
     1
 90
        1
176
     1
 90
        1
176
     1
 40
1.0
176
     1
 90
        0
176
     1
 62
     7
176
     1
 40
1.0
176
     1
 90
        1
176
     1
 90
        6
176
     1
 90
        2
176
     1
 62
     7
176
     1
 90
        5
176
     1
 90
        0
176
     1
 90
        0
176
     1
290
     0
176
     1
 90
       13
176
     1
 40
0.0
176
     1
 90
        0
176
     1
290
     0
176
     1
290
     1
176
     1
290
     1
176
     1
290
     0
176
     1
290
     0
176
     1
290
     0
176
     1
290
     0
176
     1
290
     0
176
     1
290
     0
176
     1
 90
       50
176
     1
 40
0.0
176
     1
 40
1.0
176
     1
 90
        0
176
     1
 62
    18
420
        0
176
     1
 90
       50
176
     1
 90
        3
176
     1
 62
     5
420
      255
176
     1
290
     0
176
     1
 90
       50
176
     1
 90
       50
176
     1
 90
       50
176
     1
290
     0
176
     1
 90
       50
176
     1
 62
   256
176
     0
 40
1.0
176
     0
 90
        2
176
     1
  1
strokes_ogs.tif
176
     1
290
     0
176
     1
 40
1.0
176
     1
 40
1.0
176
     1
  0
VISUALSTYLE
  5
C44E
102
{ACAD_REACTORS
330
C44A
102
}
330
C44A
100
AcDbVisualStyle
  2
GouraudWithEdges
 70
     3
177
     3
291
     1
 70
    58
 90
        2
176
     1
 90
        2
176
     1
 90
        1
176
     1
 90
        2
176
     1
 40
-0.6
176
     1
 40
30.0
176
     1
 62
     7
420
 16777215
176
     1
 90
        1
176
     1
 90
        4
176
     1
 62
     7
176
     1
 62
   257
176
     1
 90
        1
176
     1
 90
        1
176
     1
 40
1.0
176
     1
 90
        0
176
     1
 62
   257
176
     1
 40
1.0
176
     1
 90
        1
176
     1
 90
        6
176
     1
 90
        2
176
     1
 62
     7
176
     1
 90
        5
176
     1
 90
        0
176
     1
 90
        0
176
     1
290
     0
176
     1
 90
       13
176
     1
 40
0.0
176
     1
 90
        0
176
     1
290
     0
176
     1
290
     1
176
     1
290
     1
176
     1
290
     0
176
     1
290
     0
176
     1
290
     0
176
     1
290
     0
176
     1
290
     0
176
     1
290
     0
176
     1
 90
       50
176
     1
 40
0.0
176
     1
 40
1.0
176
     1
 90
        0
176
     1
 62
    18
420
        0
176
     1
 90
       50
176
     1
 90
        3
176
     1
 62
     5
420
      255
176
     1
290
     0
176
     1
 90
       50
176
     1
 90
       50
176
     1
 90
       50
176
     1
290
     0
176
     1
 90
       50
176
     1
 62
   256
176
     0
 40
1.0
176
     0
 90
        2
176
     1
  1
strokes_ogs.tif
176
     1
290
     0
176
     1
 40
1.0
176
     1
 40
1.0
176
     1
  0
VISUALSTYLE
  5
E578
102
{ACAD_REACTORS
330
C44A
102
}
330
C44A
100
AcDbVisualStyle
  2
Hidden
 70
     6
177
     3
291
     0
 70
    58
 90
        1
176
     1
 90
        2
176
     1
 90
        2
176
     1
 90
        0
176
     1
 40
-0.6
176
     1
 40
-30.0
176
     1
 62
     7
420
 16777215
176
     1
 90
        2
176
     1
 90
        2
176
     1
 62
     7
176
     1
 62
   257
176
     1
 90
        2
176
     1
 90
        1
176
     1
 40
40.0
176
     1
 90
        0
176
     1
 62
   257
176
     1
 40
1.0
176
     1
 90
        1
176
     1
 90
        6
176
     1
 90
        2
176
     1
 62
     7
176
     1
 90
        3
176
     1
 90
        0
176
     1
 90
        0
176
     1
290
     0
176
     1
 90
        1
176
     1
 40
0.0
176
     1
 90
        0
176
     1
290
     0
176
     1
290
     1
176
     1
290
     1
176
     1
290
     0
176
     1
290
     0
176
     1
290
     0
176
     1
290
     0
176
     1
290
     0
176
     1
290
     0
176
     1
 90
       50
176
     1
 40
0.0
176
     1
 40
1.0
176
     1
 90
        0
176
     1
 62
    18
420
        0
176
     1
 90
       50
176
     1
 90
        3
176
     1
 62
     5
420
      255
176
     1
290
     0
176
     1
 90
       50
176
     1
 90
       50
176
     1
 90
       50
176
     1
290
     0
176
     1
 90
       50
176
     1
 62
   256
176
     0
 40
1.0
176
     0
 90
        2
176
     1
  1
strokes_ogs.tif
176
     1
290
     0
176
     1
 40
1.0
176
     1
 40
1.0
176
     1
  0
VISUALSTYLE
  5
E57E
102
{ACAD_REACTORS
330
C44A
102
}
330
C44A
100
AcDbVisualStyle
  2
JitterOff
 70
    20
177
     3
291
     1
 70
    58
 90
        2
176
     0
 90
        2
176
     0
 90
        0
176
     0
 90
        0
176
     0
 40
-0.6
176
     0
 40
-30.0
176
     0
 62
     7
420
 16777215
176
     0
 90
        1
176
     0
 90
        4
176
     0
 62
     7
176
     0
 62
   257
176
     0
 90
        1
176
     0
 90
        1
176
     0
 40
1.0
176
     0
 90
       10
176
     2
 62
     7
176
     0
 40
1.0
176
     0
 90
        1
176
     0
 90
        6
176
     0
 90
        2
176
     0
 62
     7
176
     0
 90
        5
176
     0
 90
        0
176
     0
 90
        0
176
     0
290
     0
176
     0
 90
        1
176
     0
 40
0.0
176
     0
 90
        0
176
     0
290
     0
176
     0
290
     1
176
     0
290
     1
176
     0
290
     0
176
     0
290
     0
176
     0
290
     0
176
     0
290
     0
176
     0
290
     0
176
     0
290
     0
176
     0
 90
       50
176
     0
 40
0.0
176
     0
 40
1.0
176
     0
 90
        0
176
     0
 62
    18
420
        0
176
     0
 90
       50
176
     0
 90
        3
176
     0
 62
     5
420
      255
176
     0
290
     0
176
     0
 90
       50
176
     0
 90
       50
176
     0
 90
       50
176
     0
290
     0
176
     0
 90
       50
176
     0
 62
   256
176
     0
 40
1.0
176
     0
 90
        2
176
     0
  1
strokes_ogs.tif
176
     0
290
     0
176
     0
 40
1.0
176
     0
 40
1.0
176
     0
  0
VISUALSTYLE
  5
C458
102
{ACAD_REACTORS
330
C44A
102
}
330
C44A
100
AcDbVisualStyle
  2
Linepattern
 70
    14
177
     3
291
     1
 70
    58
 90
        2
176
     1
 90
        2
176
     1
 90
        0
176
     1
 90
        0
176
     1
 40
-0.6
176
     1
 40
-30.0
176
     1
 62
     7
420
 16777215
176
     1
 90
        1
176
     1
 90
        4
176
     1
 62
     7
176
     1
 62
   257
176
     1
 90
        7
176
     1
 90
        7
176
     1
 40
1.0
176
     1
 90
        8
176
     1
 62
     7
176
     1
 40
1.0
176
     1
 90
        1
176
     1
 90
        6
176
     1
 90
        2
176
     1
 62
     7
176
     1
 90
        5
176
     1
 90
        0
176
     1
 90
        0
176
     1
290
     0
176
     1
 90
        1
176
     1
 40
0.0
176
     1
 90
        0
176
     1
290
     0
176
     1
290
     1
176
     1
290
     1
176
     1
290
     0
176
     1
290
     0
176
     1
290
     0
176
     1
290
     0
176
     1
290
     0
176
     1
290
     0
176
     1
 90
       50
176
     1
 40
0.0
176
     1
 40
1.0
176
     1
 90
        0
176
     1
 62
    18
420
        0
176
     1
 90
       50
176
     1
 90
        3
176
     1
 62
     5
420
      255
176
     1
290
     0
176
     1
 90
       50
176
     1
 90
       50
176
     1
 90
       50
176
     1
290
     0
176
     1
 90
       50
176
     1
 62
   256
176
     0
 40
1.0
176
     0
 90
        2
176
     1
  1
strokes_ogs.tif
176
     1
290
     0
176
     1
 40
1.0
176
     1
 40
1.0
176
     1
  0
VISUALSTYLE
  5
E57F
102
{ACAD_REACTORS
330
C44A
102
}
330
C44A
100
AcDbVisualStyle
  2
OverhangOff
 70
    21
177
     3
291
     1
 70
    58
 90
        2
176
     0
 90
        2
176
     0
 90
        0
176
     0
 90
        0
176
     0
 40
-0.6
176
     0
 40
-30.0
176
     0
 62
     7
420
 16777215
176
     0
 90
        1
176
     0
 90
        4
176
     0
 62
     7
176
     0
 62
   257
176
     0
 90
        1
176
     0
 90
        1
176
     0
 40
1.0
176
     0
 90
        9
176
     2
 62
     7
176
     0
 40
1.0
176
     0
 90
        1
176
     0
 90
        6
176
     0
 90
        2
176
     0
 62
     7
176
     0
 90
        5
176
     0
 90
        0
176
     0
 90
        0
176
     0
290
     0
176
     0
 90
        1
176
     0
 40
0.0
176
     0
 90
        0
176
     0
290
     0
176
     0
290
     1
176
     0
290
     1
176
     0
290
     0
176
     0
290
     0
176
     0
290
     0
176
     0
290
     0
176
     0
290
     0
176
     0
290
     0
176
     0
 90
       50
176
     0
 40
0.0
176
     0
 40
1.0
176
     0
 90
        0
176
     0
 62
    18
420
        0
176
     0
 90
       50
176
     0
 90
        3
176
     0
 62
     5
420
      255
176
     0
290
     0
176
     0
 90
       50
176
     0
 90
       50
176
     0
 90
       50
176
     0
290
     0
176
     0
 90
       50
176
     0
 62
   256
176
     0
 40
1.0
176
     0
 90
        2
176
     0
  1
strokes_ogs.tif
176
     0
290
     0
176
     0
 40
1.0
176
     0
 40
1.0
176
     0
  0
VISUALSTYLE
  5
C454
102
{ACAD_REACTORS
330
C44A
102
}
330
C44A
100
AcDbVisualStyle
  2
Realistic
 70
     8
177
     3
291
     0
 70
    58
 90
        2
176
     1
 90
        2
176
     1
 90
        0
176
     1
 90
        0
176
     1
 40
-0.6
176
     1
 40
-30.0
176
     1
 62
     7
420
 16777215
176
     1
 90
        1
176
     1
 90
        0
176
     1
 62
     7
176
     1
 62
   257
176
     1
 90
        1
176
     1
 90
        1
176
     1
 40
1.0
176
     1
 90
        8
176
     1
 62
     8
420
  7895160
176
     1
 40
1.0
176
     1
 90
        1
176
     1
 90
        6
176
     1
 90
        2
176
     1
 62
     7
176
     1
 90
        5
176
     1
 90
        0
176
     1
 90
        0
176
     1
290
     0
176
     1
 90
       13
176
     1
 40
0.0
176
     1
 90
        0
176
     1
290
     0
176
     1
290
     1
176
     1
290
     1
176
     1
290
     0
176
     1
290
     0
176
     1
290
     0
176
     1
290
     0
176
     1
290
     0
176
     1
290
     0
176
     1
 90
       50
176
     1
 40
0.0
176
     1
 40
1.0
176
     1
 90
        0
176
     1
 62
    18
420
        0
176
     1
 90
       50
176
     1
 90
        3
176
     1
 62
     5
420
      255
176
     1
290
     0
176
     1
 90
       50
176
     1
 90
       50
176
     1
 90
       50
176
     1
290
     0
176
     1
 90
       50
176
     1
 62
   256
176
     0
 40
1.0
176
     0
 90
        2
176
     1
  1
strokes_ogs.tif
176
     1
290
     0
176
     1
 40
1.0
176
     1
 40
1.0
176
     1
  0
VISUALSTYLE
  5
E57D
102
{ACAD_REACTORS
330
C44A
102
}
330
C44A
100
AcDbVisualStyle
  2
Shaded
 70
    27
177
     3
291
     0
 70
    58
 90
        2
176
     1
 90
        2
176
     1
 90
        1
176
     1
 90
        2
176
     1
 40
-0.6
176
     1
 40
30.0
176
     1
 62
     7
420
 16777215
176
     1
 90
        0
176
     1
 90
        4
176
     1
 62
     7
176
     1
 62
   257
176
     1
 90
        1
176
     1
 90
        1
176
     1
 40
1.0
176
     1
 90
        8
176
     1
 62
   257
176
     1
 40
1.0
176
     1
 90
        1
176
     1
 90
        6
176
     1
 90
        2
176
     1
 62
     8
420
  7895160
176
     1
 90
        3
176
     1
 90
        0
176
     1
 90
        0
176
     1
290
     0
176
     1
 90
        5
176
     1
 40
0.0
176
     1
 90
        0
176
     1
290
     0
176
     1
290
     1
176
     1
290
     1
176
     1
290
     0
176
     1
290
     0
176
     1
290
     0
176
     1
290
     0
176
     1
290
     0
176
     1
290
     0
176
     1
 90
       50
176
     1
 40
0.0
176
     1
 40
1.0
176
     1
 90
        0
176
     1
 62
    18
420
        0
176
     1
 90
       50
176
     1
 90
        3
176
     1
 62
     5
420
      255
176
     1
290
     0
176
     1
 90
       50
176
     1
 90
       50
176
     1
 90
       50
176
     1
290
     0
176
     1
 90
       50
176
     1
 62
   256
176
     0
 40
1.0
176
     0
 90
        2
176
     1
  1
strokes_ogs.tif
176
     1
290
     0
176
     1
 40
1.0
176
     1
 40
1.0
176
     1
  0
VISUALSTYLE
  5
E57C
102
{ACAD_REACTORS
330
C44A
102
}
330
C44A
100
AcDbVisualStyle
  2
Shaded with edges
 70
    26
177
     3
291
     0
 70
    58
 90
        2
176
     1
 90
        2
176
     1
 90
        1
176
     1
 90
        2
176
     1
 40
-0.6
176
     1
 40
30.0
176
     1
 62
     7
420
 16777215
176
     1
 90
        1
176
     1
 90
       10
176
     1
 62
     7
176
     1
 62
   257
176
     1
 90
        2
176
     1
 90
        1
176
     1
 40
1.0
176
     1
 90
        8
176
     1
 62
   257
176
     1
 40
1.0
176
     1
 90
        1
176
     1
 90
        6
176
     1
 90
        2
176
     1
 62
     7
176
     1
 90
        3
176
     1
 90
        0
176
     1
 90
        0
176
     1
290
     0
176
     1
 90
        5
176
     1
 40
0.0
176
     1
 90
        0
176
     1
290
     0
176
     1
290
     1
176
     1
290
     1
176
     1
290
     0
176
     1
290
     0
176
     1
290
     0
176
     1
290
     0
176
     1
290
     0
176
     1
290
     0
176
     1
 90
       50
176
     1
 40
0.0
176
     1
 40
1.0
176
     1
 90
        0
176
     1
 62
    18
420
        0
176
     1
 90
       50
176
     1
 90
        3
176
     1
 62
     5
420
      255
176
     1
290
     0
176
     1
 90
       50
176
     1
 90
       50
176
     1
 90
       50
176
     1
290
     0
176
     1
 90
       50
176
     1
 62
   256
176
     0
 40
1.0
176
     0
 90
        2
176
     1
  1
strokes_ogs.tif
176
     1
290
     0
176
     1
 40
1.0
176
     1
 40
1.0
176
     1
  0
VISUALSTYLE
  5
E579
102
{ACAD_REACTORS
330
C44A
102
}
330
C44A
100
AcDbVisualStyle
  2
Shades of Gray
 70
    23
177
     3
291
     0
 70
    58
 90
        2
176
     1
 90
        2
176
     1
 90
        3
176
     1
 90
        0
176
     1
 40
-0.6
176
     1
 40
-30.0
176
     1
 62
     7
420
 16777215
176
     1
 90
        2
176
     1
 90
        2
176
     1
 62
     7
176
     1
 62
     7
176
     1
 90
        1
176
     1
 90
        1
176
     1
 40
40.0
176
     1
 90
        8
176
     1
 62
     7
176
     1
 40
1.0
176
     1
 90
        1
176
     1
 90
        6
176
     1
 90
        2
176
     1
 62
     7
176
     1
 90
        3
176
     1
 90
        0
176
     1
 90
        0
176
     1
290
     0
176
     1
 90
        1
176
     1
 40
0.0
176
     1
 90
        0
176
     1
290
     0
176
     1
290
     1
176
     1
290
     1
176
     1
290
     0
176
     1
290
     0
176
     1
290
     0
176
     1
290
     0
176
     1
290
     0
176
     1
290
     0
176
     1
 90
       50
176
     1
 40
0.0
176
     1
 40
1.0
176
     1
 90
        0
176
     1
 62
    18
420
        0
176
     1
 90
       50
176
     1
 90
        3
176
     1
 62
     5
420
      255
176
     1
290
     0
176
     1
 90
       50
176
     1
 90
       50
176
     1
 90
       50
176
     1
290
     0
176
     1
 90
       50
176
     1
 62
   256
176
     0
 40
1.0
176
     0
 90
        2
176
     1
  1
strokes_ogs.tif
176
     1
290
     0
176
     1
 40
1.0
176
     1
 40
1.0
176
     1
  0
VISUALSTYLE
  5
E57A
102
{ACAD_REACTORS
330
C44A
102
}
330
C44A
100
AcDbVisualStyle
  2
Sketchy
 70
    24
177
     3
291
     0
 70
    58
 90
        1
176
     1
 90
        2
176
     1
 90
        2
176
     1
 90
        0
176
     1
 40
-0.6
176
     1
 40
-30.0
176
     1
 62
     7
420
 16777215
176
     1
 90
        2
176
     1
 90
        2
176
     1
 62
     7
176
     1
 62
     7
176
     1
 90
        1
176
     1
 90
        1
176
     1
 40
40.0
176
     1
 90
       11
176
     1
 62
     7
176
     1
 40
1.0
176
     1
 90
        1
176
     1
 90
        6
176
     1
 90
        2
176
     1
 62
     7
176
     1
 90
        6
176
     1
 90
        0
176
     1
 90
        0
176
     1
290
     0
176
     1
 90
        1
176
     1
 40
0.0
176
     1
 90
        0
176
     1
290
     0
176
     1
290
     1
176
     1
290
     1
176
     1
290
     0
176
     1
290
     0
176
     1
290
     0
176
     1
290
     0
176
     1
290
     0
176
     1
290
     0
176
     1
 90
       50
176
     1
 40
0.0
176
     1
 40
1.0
176
     1
 90
        0
176
     1
 62
    18
420
        0
176
     1
 90
       50
176
     1
 90
        3
176
     1
 62
     5
420
      255
176
     1
290
     0
176
     1
 90
       50
176
     1
 90
       50
176
     1
 90
       50
176
     1
290
     0
176
     1
 90
       50
176
     1
 62
   256
176
     0
 40
1.0
176
     0
 90
        2
176
     1
  1
strokes_ogs.tif
176
     1
290
     0
176
     1
 40
1.0
176
     1
 40
1.0
176
     1
  0
VISUALSTYLE
  5
C457
102
{ACAD_REACTORS
330
C44A
102
}
330
C44A
100
AcDbVisualStyle
  2
Thicken
 70
    13
177
     3
291
     1
 70
    58
 90
        2
176
     1
 90
        2
176
     1
 90
        0
176
     1
 90
        0
176
     1
 40
-0.6
176
     1
 40
-30.0
176
     1
 62
     7
420
 16777215
176
     1
 90
        1
176
     1
 90
        4
176
     1
 62
     7
176
     1
 62
   257
176
     1
 90
        1
176
     1
 90
        1
176
     1
 40
1.0
176
     1
 90
       12
176
     1
 62
     7
176
     1
 40
1.0
176
     1
 90
        1
176
     1
 90
        6
176
     1
 90
        2
176
     1
 62
     7
176
     1
 90
        5
176
     1
 90
        0
176
     1
 90
        0
176
     1
290
     0
176
     1
 90
        1
176
     1
 40
0.0
176
     1
 90
        0
176
     1
290
     0
176
     1
290
     1
176
     1
290
     1
176
     1
290
     0
176
     1
290
     0
176
     1
290
     0
176
     1
290
     0
176
     1
290
     0
176
     1
290
     0
176
     1
 90
       50
176
     1
 40
0.0
176
     1
 40
1.0
176
     1
 90
        0
176
     1
 62
    18
420
        0
176
     1
 90
       50
176
     1
 90
        3
176
     1
 62
     5
420
      255
176
     1
290
     0
176
     1
 90
       50
176
     1
 90
       50
176
     1
 90
       50
176
     1
290
     0
176
     1
 90
       50
176
     1
 62
   256
176
     0
 40
1.0
176
     0
 90
        2
176
     1
  1
strokes_ogs.tif
176
     1
290
     0
176
     1
 40
1.0
176
     1
 40
1.0
176
     1
  0
VISUALSTYLE
  5
E577
102
{ACAD_REACTORS
330
C44A
102
}
330
C44A
100
AcDbVisualStyle
  2
Wireframe
 70
     5
177
     3
291
     0
 70
    58
 90
        0
176
     1
 90
        2
176
     1
 90
        0
176
     1
 90
        0
176
     1
 40
-0.6
176
     1
 40
-30.0
176
     1
 62
     7
420
 16777215
176
     1
 90
        1
176
     1
 90
        4
176
     1
 62
     7
176
     1
 62
   257
176
     1
 90
        1
176
     1
 90
        1
176
     1
 40
1.0
176
     1
 90
        0
176
     1
 62
   257
176
     1
 40
1.0
176
     1
 90
        1
176
     1
 90
        6
176
     1
 90
        2
176
     1
 62
     7
176
     1
 90
        3
176
     1
 90
        0
176
     1
 90
        0
176
     1
290
     0
176
     1
 90
        1
176
     1
 40
0.0
176
     1
 90
        0
176
     1
290
     0
176
     1
290
     1
176
     1
290
     1
176
     1
290
     0
176
     1
290
     0
176
     1
290
     0
176
     1
290
     0
176
     1
290
     0
176
     1
290
     0
176
     1
 90
       50
176
     1
 40
0.0
176
     1
 40
1.0
176
     1
 90
        0
176
     1
 62
    18
420
        0
176
     1
 90
       50
176
     1
 90
        3
176
     1
 62
     5
420
      255
176
     1
290
     0
176
     1
 90
       50
176
     1
 90
       50
176
     1
 90
       50
176
     1
290
     0
176
     1
 90
       50
176
     1
 62
   256
176
     0
 40
1.0
176
     0
 90
        2
176
     1
  1
strokes_ogs.tif
176
     1
290
     0
176
     1
 40
1.0
176
     1
 40
1.0
176
     1
  0
VISUALSTYLE
  5
E57B
102
{ACAD_REACTORS
330
C44A
102
}
330
C44A
100
AcDbVisualStyle
  2
X-Ray
 70
    25
177
     3
291
     0
 70
    58
 90
        2
176
     1
 90
        2
176
     1
 90
        1
176
     1
 90
        1
176
     1
 40
0.5
176
     1
 40
-30.0
176
     1
 62
     7
420
 16777215
176
     1
 90
        1
176
     1
 90
        0
176
     1
 62
     7
176
     1
 62
   257
176
     1
 90
        1
176
     1
 90
        1
176
     1
 40
1.0
176
     1
 90
        8
176
     1
 62
     7
176
     1
 40
1.0
176
     1
 90
        1
176
     1
 90
        6
176
     1
 90
        2
176
     1
 62
     7
176
     1
 90
        3
176
     1
 90
        0
176
     1
 90
        0
176
     1
290
     0
176
     1
 90
       13
176
     1
 40
0.0
176
     1
 90
        0
176
     1
290
     0
176
     1
290
     1
176
     1
290
     1
176
     1
290
     0
176
     1
290
     0
176
     1
290
     0
176
     1
290
     0
176
     1
290
     0
176
     1
290
     0
176
     1
 90
       50
176
     1
 40
0.0
176
     1
 40
1.0
176
     1
 90
        0
176
     1
 62
    18
420
        0
176
     1
 90
       50
176
     1
 90
        3
176
     1
 62
     5
420
      255
176
     1
290
     0
176
     1
 90
       50
176
     1
 90
       50
176
     1
 90
       50
176
     1
290
     0
176
     1
 90
       50
176
     1
 62
   256
176
     0
 40
1.0
176
     0
 90
        2
176
     1
  1
strokes_ogs.tif
176
     1
290
     0
176
     1
 40
1.0
176
     1
 40
1.0
176
     1
  0
DICTIONARYVAR
  5
E6E0
102
{ACAD_REACTORS
330
34
102
}
330
34
100
DictionaryVariables
280
     0
  1
1:1
  0
DICTIONARYVAR
  5
E6DC
102
{ACAD_REACTORS
330
34
102
}
330
34
100
DictionaryVariables
280
     0
  1
Standard
  0
DICTIONARYVAR
  5
C4A2
102
{ACAD_REACTORS
330
34
102
}
330
34
100
DictionaryVariables
280
     0
  1
Standard
  0
DICTIONARYVAR
  5
E6DD
102
{ACAD_REACTORS
330
34
102
}
330
34
100
DictionaryVariables
280
     0
  1
Metric50
  0
DICTIONARYVAR
  5
E6DE
102
{ACAD_REACTORS
330
34
102
}
330
34
100
DictionaryVariables
280
     0
  1
Metric50
  0
DICTIONARYVAR
  5
AC85
102
{ACAD_REACTORS
330
34
102
}
330
34
100
DictionaryVariables
280
     0
  1
1
  0
DICTIONARYVAR
  5
35
102
{ACAD_REACTORS
330
34
102
}
330
34
100
DictionaryVariables
280
     0
  1
1
  0
DICTIONARYVAR
  5
E6E2
102
{ACAD_REACTORS
330
34
102
}
330
34
100
DictionaryVariables
280
     0
  1
1
  0
DICTIONARYVAR
  5
E6E3
102
{ACAD_REACTORS
330
34
102
}
330
34
100
DictionaryVariables
280
     0
  1
15
  0
DICTIONARYVAR
  5
E6E1
102
{ACAD_REACTORS
330
34
102
}
330
34
100
DictionaryVariables
280
     0
  1
0
  0
DICTIONARYVAR
  5
E6DF
102
{ACAD_REACTORS
330
34
102
}
330
34
100
DictionaryVariables
280
     0
  1
0
  0
DICTIONARYVAR
  5
194C
102
{ACAD_REACTORS
330
34
102
}
330
34
100
DictionaryVariables
280
     0
  1
96
  0
XRECORD
  5
E474
102
{ACAD_REACTORS
330
E473
102
}
330
E473
100
AcDbXrecord
280
     1
330
0
330
0
330
0
330
0
330
0
330
0
330
0
330
0
  0
AMDTSYSATTR
  5
125E5
102
{ACAD_REACTORS
330
125E4
102
}
330
125E4
  0
AMDTSYSATTR
  5
125E6
102
{ACAD_REACTORS
330
125E4
102
}
330
125E4
  0
XRECORD
  5
CB0E
102
{ACAD_REACTORS
330
CB0C
102
}
330
CB0C
100
AcDbXrecord
280
     1
  1
50
  1
*-50
  1
*
  1
*
 70
     0
  1
*
  1
*
1001
ACAD
1000
( NAME== "*-50" )
  0
XRECORD
  5
3FB7
102
{ACAD_REACTORS
330
3F96
102
}
330
3F96
100
AcDbXrecord
280
     1
 91
        3
330
A47
 90
        8
 62
     7
370
    40
331
16
  1
Color_7
330
A46
 90
        0
 62
    14
370
    -3
331
16
  1
Color_14
330
3A31
 90
        8
 62
     7
370
    20
331
16
  1
Color_7
330
6D1
 90
        0
 62
     7
370
    -3
331
16
  1
Color_7
330
0
 90
        8
 62
     7
370
    50
331
16
  1
Color_7
330
A48
 90
        8
 62
     2
370
    35
331
16
  1
Color_2
330
0
 90
        8
 62
     7
370
    -3
331
16
  1
Color_7
330
10
 90
        8
 62
     7
370
    -3
331
16
  1
Color_7
  0
XRECORD
  5
CB0D
102
{ACAD_REACTORS
330
CB0B
102
}
330
CB0B
100
AcDbXrecord
280
     1
  1
AcLyLayerFilter
 90
        1
300
50
301
( NAME== "*-50" )
  0
DICTIONARY
  5
13233
330
E598
100
AcDbDictionary
280
     1
281
     1
  3
ACAD_XREC_ROUNDTRIP
360
1371D
  0
DICTIONARY
  5
E6A3
330
22
100
AcDbDictionary
280
     1
281
     1
  3
ADSK_XREC_LAYOUTTHUMBNAIL
360
E6A4
  0
DICTIONARY
  5
13235
330
E596
100
AcDbDictionary
280
     1
281
     1
  3
ACAD_XREC_ROUNDTRIP
360
1371E
  0
DICTIONARY
  5
1371F
330
C45D
100
AcDbDictionary
280
     1
281
     1
  3
ACAD_ROUNDTRIP_2008_TABLESTYLE_CELLSTYLEMAP
360
13720
  0
XRECORD
  5
1371D
102
{ACAD_REACTORS
330
13233
102
}
330
13233
100
AcDbXrecord
280
     1
102
DISPLAYNAME
  1
Metric50
102
FLAGS
 90
        0
  0
XRECORD
  5
E6A4
102
{ACAD_REACTORS
330
E6A3
102
}
330
E6A3
100
AcDbXrecord
280
     1
310
280000000001000093000000010008000000000000930000010000000100000000010000000000003028210000000000C8C8C8FF000000FF000000FF000000FF000000FF000000FF000000FF000000FF000000FF330000FF660000FF990000FFCC0000FFFF0000FF003300FF333300FF663300FF993300FFCC3300FFFF3300
310
FF006600FF336600FF666600FF996600FFCC6600FFFF6600FF009900FF339900FF669900FF999900FFCC9900FFFF9900FF00CC00FF33CC00FF66CC00FF99CC00FFCCCC00FFFFCC00FF00FF00FF33FF00FF66FF00FF99FF00FFCCFF00FFFFFF00FF000033FF330033FF660033FF990033FFCC0033FFFF0033FF003333FF3333
310
33FF663333FF993333FFCC3333FFFF3333FF006633FF336633FF666633FF996633FFCC6633FFFF6633FF009933FF339933FF669933FF999933FFCC9933FFFF9933FF00CC33FF33CC33FF66CC33FF99CC33FFCCCC33FFFFCC33FF00FF33FF33FF33FF66FF33FF99FF33FFCCFF33FFFFFF33FF000066FF330066FF660066FF99
310
0066FFCC0066FFFF0066FF003366FF333366FF663366FF993366FFCC3366FFFF3366FF006666FF336666FF666666FF996666FFCC6666FFFF6666FF009966FF339966FF669966FF999966FFCC9966FFFF9966FF00CC66FF33CC66FF66CC66FF99CC66FFCCCC66FFFFCC66FF00FF66FF33FF66FF66FF66FF99FF66FFCCFF66FF
310
FFFF66FF000099FF330099FF660099FF990099FFCC0099FFFF0099FF003399FF333399FF663399FF993399FFCC3399FFFF3399FF006699FF336699FF666699FF996699FFCC6699FFFF6699FF009999FF339999FF669999FF999999FFCC9999FFFF9999FF00CC99FF33CC99FF66CC99FF99CC99FFCCCC99FFFFCC99FF00FF99
310
FF33FF99FF66FF99FF99FF99FFCCFF99FFFFFF99FF0000CCFF3300CCFF6600CCFF9900CCFFCC00CCFFFF00CCFF0033CCFF3333CCFF6633CCFF9933CCFFCC33CCFFFF33CCFF0066CCFF3366CCFF6666CCFF9966CCFFCC66CCFFFF66CCFF0099CCFF3399CCFF6699CCFF9999CCFFCC99CCFFFF99CCFF00CCCCFF33CCCCFF66CC
310
CCFF99CCCCFFCCCCCCFFFFCCCCFF00FFCCFF33FFCCFF66FFCCFF99FFCCFFCCFFCCFFFFFFCCFF0000FFFF3300FFFF6600FFFF9900FFFFCC00FFFFFF00FFFF0033FFFF3333FFFF6633FFFF9933FFFFCC33FFFFFF33FFFF0066FFFF3366FFFF6666FFFF9966FFFFCC66FFFFFF66FFFF0099FFFF3399FFFF6699FFFF9999FFFFCC
310
99FFFFFF99FFFF00CCFFFF33CCFFFF66CCFFFF99CCFFFFCCCCFFFFFFCCFFFF00FFFFFF33FFFFFF66FFFFFF99FFFFFFCCFFFFFFFFFFFFFF000000FF0D0D0DFF1A1A1AFF282828FF353535FF434343FF505050FF5D5D5DFF6B6B6BFF787878FF868686FF939393FFA1A1A1FFAEAEAEFFBBBBBBFFC9C9C9FFD6D6D6FFE4E4E4FF
310
F1F1F1FFFFFFFFFF000000FF000000FF000000FF000000FF000000FF000000FF000000FF000000FF000000FF000000FF00000000000000000000000000000000000000000000000000000000000000000000000000000000000000000000000000000000000000000000000000000000000000000000000000000000000000
310
00000000000000000000000000000000000000000000000000000000000000000000000000000000000000000000000000000000000000000000000000000000000000000000000000000000000000000000000000000000000000000000000000000000000000000000000000000000000000000000000000000000000000
310
00000000000000000000000000000000000000000000000000000000000000000000000000000000000000000000000000000000000000000000000000000000000000000000000000000000000000000000000000000000000000000000000000000000000000000000000000000000000000000000000000000000000000
310
00000000000000000000000000000000000000000000000000000000000000000000000000000000000000000000000000000000000000000000000000000000000000000000000000000000000000000000000000000000000000000000000000000000000000000000000000000000000000000000000000000000000000
310
00000000000000000000000000000000000000000000000000000000000000000000000000000000000000000000000000000000000000000000000000000000000000000000000000000000000000000000000000000000000000000000000000000000000000000000000000000000000000000000000000000000000000
310
00000000000000000000000000000000000000000000000000000000000000000000000000000000000000000000000000000000000000000000000000000000000000000000000000000000000000000000000000000000000000000000000000000000000000000000000000000000000000000000000000000000000000
310
00000000000000000000000000000000000000000000000000000000000000000000000000000000000000000000000000000000000000000000000000000000000000000000000000000000000000000000000000000000000000000000000000000000000000000000000000000000000000000000000000000000000000
310
00000000000000000000000000000000000000000000000000000000000000000000000000000000000000000000000000000000000000000000000000000000000000000000000000000000000000000000000000000000000000000000000000000000000000000000000000000000000000000000000000000000000000
310
00000000000000000000000000000000000000000000000000000000000000000000000000000000000000000000000000000000000000000000000000000000000000000000000000000000000000000000000000000000000000000000000000000000000000000000000000000000000000000000000000000000000000
310
00000000000000000000000000000000000000000000000000000000000000000000000000000000000000000000000000000000000000000000000000000000000000000000000000000000000000000000000000000000000000000000000000000000000000000000000000000000000000000000000000000000000000
310
00000000000000000000000000000000000000000000000000000000000000000000000000000000000000000000000000000000000000000000000000000000000000000000000000000000000000000000000000000000000000000000000000000000000000000000000000000000000000000000000000000000000000
310
00000000000000000000000000000000000000000000000000000000000000000000000000000000000000000000000000000000000000000000000000000000000000000000000000000000000000000000000000000000000000000000000000000000000000000000000000000000000000000000000000000000000000
310
00000000000000000000000000000000000000000000000000000000000000000000000000000000000000000000000000000000000000000000000000000000000000000000000000000000000000000000000000000000000000000000000000000000000000000000000000000000000000000000000000000000000000
310
00000000000000000000000000000000000000000000000000000000000000000000000000000000000000000000000000000000000000000000000000000000000000000000000000000000000000000000000000000000000000000000000000000000000000000000000000000000000000000000000000000000000000
310
00000000000000000000000000000000000000000000000000000000000000000000000000000000000000000000000000000000000000000000000000000000000000000000000000000000000000000000000000000000000000000000000000000000000000000000000000000000000000000000000000000000000000
310
00000000000000000000000000000000000000000000000000000000000000000000000000000000000000000000000000000000000000000000000000000000000000000000000000000000000000000000000000000000000000000000000000000000000000000000000000000000000000000000000000000000000000
310
00000000000000000000000000000000000000000000000000000000000000000000000000000000000000000000000000000000000000000000000000000000000000000000000000000000000000000000000000000000000000000000000000000000000000000000000000000000000000000000000000000000000000
310
00000000000000000000000000000000000000000000000000000000000000000000000000000000000000000000000000000000000000000000000000000000000000000000000000000000000000000000000000000000000000000000000000000000000000000000000000000000000000000000000000000000000000
310
00000000000000000000000000000000000000000000000000000000000000000000000000000000000000000000000000000000000000000000000000000000000000000000000000000000000000000000000000000000000000000000000000000000000000000000000000000000000000000000000000000000000000
310
00000000000000000000000000000000000000000000000000000000000000000000000000000000000000000000000000000000000000000000000000000000000000000000000000000000000000000000000000000000000000000000000000000000000000000000000000000000000000000000000000000000000000
310
00000000000000000000000000000000000000000000000000000000000000000000000000000000000000000000000000000000000000000000000000000000000000000000000000000000000000000000000000000000000000000000000000000000000000000000000000000000000000000000000000000000000000
310
00000000000000000000000000000000000000000000000000000000000000000000000000000000000000000000000000000000000000000000000000000000000000000000000000000000000000000000000000000000000000000000000000000000000000000000000000000000000000000000000000000000000000
310
00000000000000000000000000000000000000000000000000000000000000000000000000000000000000000000000000000000000000000000000000000000000000000000000000000000000000000000000000000000000000000000000000000000000000000000000000000000000000000000000000000000000000
310
00000000000000000000000000000000000000000000000000000000000000000000000000000000000000000000000000000000000000000000000000000000000000000000000000000000000000000000000000000000000000000000000000000000000000000000000000000000000000000000000000000000000000
310
00000000000000000000000000000000000000000000000000000000000000000000000000000000000000000000000000000000000000000000000000000000000000000000000000000000000000000000000000000000000000000000000000000000000000000000000000000000000000000000000000000000000000
310
00000000000000000000000000000000000000000000000000000000000000000000000000000000000000000000000000000000000000000000000000000000000000000000000000000000000000000000000000000000000000000000000000000000000000000000000000000000000000000000000000000000000000
310
00000000000000000000000000000000000000000000000000000000000000000000000000000000000000000000000000000000000000000000000000000000000000000000000000000000000000000000000000000000000000000000000000000000000000000000000000000000000000000000000000000000000000
310
00000000000000000000000000000000000000000000000000000000000000000000000000000000000000000000000000000000000000000000000000000000000000000000000000000000000000000000000000000000000000000000000000000000000000000000000000000000000000000000000000000000000000
310
00000000000000000000000000000000000000000000000000000000000000000000000000000000000000000000000000000000000000000000000000000000000000000000000000000000000000000000000000000000000000000000000000000000000000000000000000000000000000000000000000000000000000
310
00000000000000000000000000000000000000000000000000000000000000000000000000000000000000000000000000000000000000000000000000000000000000000000000000000000000000000000000000000000000000000000000000000000000000000000000000000000000000000000000000000000000000
310
00000000000000000000000000000000000000000000000000000000000000000000000000000000000000000000000000000000000000000000000000000000000000000000000000000000000000000000000000000000000000000000000000000000000000000000000000000000000000000000000000000000000000
310
00000000000000000000000000000000000000000000000000000000000000000000000000000000000000000000000000000000000000000000000000000000000000000000000000000000000000000000000000000000000000000000000000000000000000000000000000000000000000000000000000000000000000
310
00000000000000000000000000000000000000000000000000000000000000000000000000000000000000000000000000000000000000000000000000000000000000000000000000000000000000000000000000000000000000000000000000000000000000000000000000000000000000000000000000000000000000
310
00000000000000000000000000000000000000000000000000000000000000000000000000000000000000000000000000000000000000000000000000000000000000000000000000000000000000000000000000000000000000000000000000000000000000000000000000000000000000000000000000000000000000
310
00000000000000000000000000000000000000000000000000000000000000000000000000000000000000000000000000000000000000000000000000000000000000000000000000000000000000000000000000000000000000000000000000000000000000000000000000000000000000000000000000000000000000
310
00000000000000000000000000000000000000000000000000000000000000000000000000000000000000000000000000000000000000000000000000000000000000000000000000000000000000000000000000000000000000000000000000000000000000000000000000000000000000000000000000000000000000
310
00000000000000000000000000000000000000000000000000000000000000000000000000000000000000000000000000000000000000000000000000000000000000000000000000000000000000000000000000000000000000000000000000000000000000000000000000000000000000000000000000000000000000
310
00000000000000000000000000000000000000000000000000000000000000000000000000000000000000000000000000000000000000000000000000000000000000000000000000000000000000000000000000000000000000000000000000000000000000000000000000000000000000000000000000000000000000
310
00000000000000000000000000000000000000000000000000000000000000000000000000000000000000000000000000000000000000000000000000000000000000000000000000000000000000000000000000000000000000000000000000000000000000000000000000000000000000000000000000000000000000
310
00000000000000000000000000000000000000000000000000000000000000000000000000000000000000000000000000000000000000000000000000000000000000000000000000000000000000000000000000000000000000000000000000000000000000000000000000000000000000000000000000000000000000
310
00000000000000000000000000000000000000000000000000000000000000000000000000000000000000000000000000000000000000000000000000000000000000000000000000000000000000000000000000000000000000000000000000000000000000000000000000000000000000000000000000000000000000
310
00000000000000000000000000000000000000000000000000000000000000000000000000000000000000000000000000000000000000000000000000000000000000000000000000000000000000000000000000000000000000000000000000000000000000000000000000000000000000000000000000000000000000
310
00000000000000000000000000000000000000000000000000000000000000000000000000000000000000000000000000000000000000000000000000000000000000000000000000000000000000000000000000000000000000000000000000000000000000000000000000000000000000000000000000000000000000
310
00000000000000000000000000000000000000000000000000000000000000000000000000000000000000000000000000000000000000000000000000000000000000000000000000000000000000000000000000000000000000000000000000000000000000000000000000000000000000000000000000000000000000
310
00000000000000000000000000000000000000000000000000000000000000000000000000000000000000000000000000000000000000000000000000000000000000000000000000000000000000000000000000000000000000000000000000000000000000000000000000000000000000000000000000000000000000
310
00000000000000000000000000000000000000000000000000000000000000000000000000000000000000000000000000000000000000000000000000000000000000000000000000000000000000000000000000000000000000000000000000000000000000000000000000000000000000000000000000000000000000
310
00000000000000000000000000000000000000000000000000000000000000000000000000000000000000000000000000000000000000000000000000000000000000000000000000000000000000000000000000000000000000000000000000000000000000000000000000000000000000000000000000000000000000
310
00000000000000000000000000000000000000000000000000000000000000000000000000000000000000000000000000000000000000000000000000000000000000000000000000000000000000000000000000000000000000000000000000000000000000000000000000000000000000000000000000000000000000
310
00000000000000000000000000000000000000000000000000000000000000000000000000000000000000000000000000000000000000000000000000000000000000000000000000000000000000000000000000000000000000000000000000000000000000000000000000000000000000000000000000000000000000
310
00000000000000000000000000000000000000000000000000000000000000000000000000000000000000000000000000000000000000000000000000000000000000000000000000000000000000000000000000000000000000000000000000000000000000000000000000000000000000000000000000000000000000
310
00000000000000000000000000000000000000000000000000000000000000000000000000000000000000000000000000000000000000000000000000000000000000000000000000000000000000000000000000000000000000000000000000000000000000000000000000000000000000000000000000000000000000
310
00000000000000000000000000000000000000000000000000000000000000000000000000000000000000000000000000000000000000000000000000000000000000000000000000000000000000000000000000000000000000000000000000000000000000000000000000000000000000000000000000000000000000
310
00000000000000000000000000000000000000000000000000000000000000000000000000000000000000000000000000000000000000000000000000000000000000000000000000000000000000000000000000000000000000000000000000000000000000000000000000000000000000000000000000000000000000
310
00000000000000000000000000000000000000000000000000000000000000000000000000000000000000000000000000000000000000000000000000000000000000000000000000000000000000000000000000000000000000000000000000000000000000000000000000000000000000000000000000000000000000
310
00000000000000000000000000000000000000000000000000000000000000000000000000000000000000000000000000000000000000000000000000000000000000000000000000000000000000000000000000000000000000000000000000000000000000000000000000000000000000000000000000000000000000
310
00000000000000000000000000000000000000000000000000000000000000000000000000000000000000000000000000000000000000000000000000000000000000000000000000000000000000000000000000000000000000000000000000000000000000000000000000000000000000000000000000000000000000
310
00000000000000000000000000000000000000000000000000000000000000000000000000000000000000000000000000000000000000000000000000000000000000000000000000000000000000000000000000000000000000000000000000000000000000000000000000000000000000000000000000000000000000
310
00000000000000000000000000000000000000000000000000000000000000000000000000000000000000000000000000000000000000000000000000000000000000000000000000000000000000000000000000000000000000000000000000000000000000000000000000000000000000000000000000000000000000
310
00000000000000000000000000000000000000000000000000000000000000000000000000000000000000000000000000000000000000000000000000000000000000000000000000000000000000000000000000000000000000000000000000000000000000000000000000000000000000000000000000000000000000
310
00000000000000000000000000000000000000000000000000000000000000000000000000000000000000000000000000000000000000000000000000000000000000000000000000000000000000000000000000000000000000000000000000000000000000000000000000000000000000000000000000000000000000
310
00000000000000000000000000000000000000000000000000000000000000000000000000000000000000000000000000000000000000000000000000000000000000000000000000000000000000000000000000000000000000000000000000000000000000000000000000000000000000000000000000000000000000
310
00000000000000000000000000000000000000000000000000000000000000000000000000000000000000000000000000000000000000000000000000000000000000000000000000000000000000000000000000000000000000000000000000000000000000000000000000000000000000000000000000000000000000
310
00000000000000000000000000000000000000000000000000000000000000000000000000000000000000000000000000000000000000000000000000000000000000000000000000000000000000000000000000000000000000000000000000000000000000000000000000000000000000000000000000000000000000
310
00000000000000000000000000000000000000000000000000000000000000000000000000000000000000000000000000000000000000000000000000000000000000000000000000000000000000000000000000000000000000000000000000000000000000000000000000000000000000000000000000000000000000
310
00000000000000000000000000000000000000000000000000000000000000000000000000000000000000000000000000000000000000000000000000000000000000000000000000000000000000000000000000000000000000000000000000000000000000000000000000000000000000000000000000000000000000
310
00000000000000000000000000000000000000000000000000000000000000000000000000000000000000000000000000000000000000000000000000000000000000000000000000000000000000000000000000000000000000000000000000000000000000000000000000000000000000000000000000000000000000
310
00000000000000000000000000000000000000000000000000000000000000000000000000000000000000000000000000000000000000000000000000000000000000000000000000000000000000000000000000000000000000000000000000000000000000000000000000000000000000000000000000000000000000
310
00000000000000000000000000000000000000000000000000000000000000000000000000000000000000000000000000000000000000000000000000000000000000000000000000000000000000000000000000000000000000000000000000000000000000000000000000000000000000000000000000000000000000
310
00000000000000000000000000000000000000000000000000000000000000000000000000000000000000000000000000000000000000000000000000000000000000000000000000000000000000000000000000000000000000000000000000000000000000000000000000000000000000000000000000000000000000
310
00000000000000000000000000000000000000000000000000000000000000000000000000000000000000000000000000000000000000000000000000000000000000000000000000000000000000000000000000000000000000000000000000000000000000000000000000000000000000000000000000000000000000
310
00000000000000000000000000000000000000000000000000000000000000000000000000000000000000000000000000000000000000000000000000000000000000000000000000000000000000000000000000000000000000000000000000000000000000000000000000000000000000000000000000000000000000
310
00000000000000000000000000000000000000000000000000000000000000000000000000000000000000000000000000000000000000000000000000000000000000000000000000000000000000000000000000000000000000000000000000000000000000000000000000000000000000000000000000000000000000
310
00000000000000000000000000000000000000000000000000000000000000000000000000000000000000000000000000000000000000000000000000000000000000000000000000000000000000000000000000000000000000000000000000000000000000000000000000000000000000000000000000000000000000
310
00000000000000000000000000000000000000000000000000000000000000000000000000000000000000000000000000000000000000000000000000000000000000000000000000000000000000000000000000000000000000000000000000000000000000000000000000000000000000000000000000000000000000
310
00000000000000000000000000000000000000000000000000000000000000000000000000000000000000000000000000000000000000000000000000000000000000000000000000000000000000000000000000000000000000000000000000000000000000000000000000000000000000000000000000000000000000
310
00000000000000000000000000000000000000000000000000000000000000000000000000000000000000000000000000000000000000000000000000000000000000000000000000000000000000000000000000000000000000000000000000000000000000000000000000000000000000000000000000000000000000
310
00000000000000000000000000000000000000000000000000000000000000000000000000000000000000000000000000000000000000000000000000000000000000000000000000000000000000000000000000000000000000000000000000000000000000000000000000000000000000000000000000000000000000
310
00000000000000000000000000000000000000000000000000000000000000000000000000000000000000000000000000000000000000000000000000000000000000000000000000000000000000000000000000000000000000000000000000000000000000000000000000000000000000000000000000000000000000
310
00000000000000000000000000000000000000000000000000000000000000000000000000000000000000000000000000000000000000000000000000000000000000000000000000000000000000000000000000000000000000000000000000000000000000000000000000000000000000000000000000000000000000
310
00000000000000000000000000000000000000000000000000000000000000000000000000000000000000000000000000000000000000000000000000000000000000000000000000000000000000000000000000000000000000000000000000000000000000000000000000000000000000000000000000000000000000
310
00000000000000000000000000000000000000000000000000000000000000000000000000000000000000000000000000000000000000000000000000000000000000000000000000000000000000000000000000000000000000000000000000000000000000000000000000000000000000000000000000000000000000
310
00000000000000000000000000000000000000000000000000000000000000000000000000000000000000000000000000000000000000000000000000000000000000000000000000000000000000000000000000000000000000000000000000000000000000000000000000000000000000000000000000000000000000
310
00000000000000000000000000000000000000000000000000000000000000000000000000000000000000000000000000000000000000000000000000000000000000000000000000000000000000000000000000000000000000000000000000000000000000000000000000000000000000000000000000000000000000
310
00000000000000000000000000000000000000000000000000000000000000000000000000000000000000000000000000000000000000000000000000000000000000000000000000000000000000000000000000000000000000000000000000000000000000000000000000000000000000000000000000000000000000
310
00000000000000000000000000000000000000000000000000000000000000000000000000000000000000000000000000000000000000000000000000000000000000000000000000000000000000000000000000000000000000000000000000000000000000000000000000000000000000000000000000000000000000
310
00000000000000000000000000000000000000000000000000000000000000000000000000000000000000000000000000000000000000000000000000000000000000000000000000000000000000000000000000000000000000000000000000000000000000000000000000000000000000000000000000000000000000
310
00000000000000000000000000000000000000000000000000000000000000000000000000000000000000000000000000000000000000000000000000000000000000000000000000000000000000000000000000000000000000000000000000000000000000000000000000000000000000000000000000000000000000
310
00000000000000000000000000000000000000000000000000000000000000000000000000000000000000000000000000000000000000000000000000000000000000000000000000000000000000000000000000000000000000000000000000000000000000000000000000000000000000000000000000000000000000
310
00000000000000000000000000000000000000000000000000000000000000000000000000000000000000000000000000000000000000000000000000000000000000000000000000000000000000000000000000000000000000000000000000000000000000000000000000000000000000000000000000000000000000
310
00000000000000000000000000000000000000000000000000000000000000000000000000000000000000000000000000000000000000000000000000000000000000000000000000000000000000000000000000000000000000000000000000000000000000000000000000000000000000000000000000000000000000
310
00000000000000000000000000000000000000000000000000000000000000000000000000000000000000000000000000000000000000000000000000000000000000000000000000000000000000000000000000000000000000000000000000000000000000000000000000000000000000000000000000000000000000
310
00000000000000000000000000000000000000000000000000000000000000000000000000000000000000000000000000000000000000000000000000000000000000000000000000000000000000000000000000000000000000000000000000000000000000000000000000000000000000000000000000000000000000
310
00000000000000000000000000000000000000000000000000000000000000000000000000000000000000000000000000000000000000000000000000000000000000000000000000000000000000000000000000000000000000000000000000000000000000000000000000000000000000000000000000000000000000
310
000000000000000000000000000000000000000000000000000000000000000F0F0F0F0F0F0F0F0F0F0F0F0F0F0F0F0F0F0F0F0F0F0F0F0F0F0F0F0F0F0F0F0F0F00000000000F0F0F0F0F0F0F0F0F0F0F0F0F0F0F0F0F0F0F0F0F0F0F0F0F0F0F0F0F0F0F0F0F0F0F0F0F0F0F0F0F0F0F0F0F0F0F0F00000000000F0F0F0F
310
0F0F0F0F0F0F0F0F0F0F0F0F0F0F0F0F0F0F0F0F0F0F0F0F0F0F0F0F0F0F0F0F0F0F0F0F0F0F0F0F0F0F0F0F0F0F0F0F0F0F0F0F0F0F0F0F0F0F0F0F0F0F0F00000000000000000000000000000000000000000000000000000000000000000000000000000000000000000000000000000000000000000000000000000000
310
0000000000000000000000000000000000000000000000000000000000000000000FF5F5F5F5F5F5F5F5F5F5F5F5F5F5BEF5F5BEDCDCF5F5F5BEDCF5F5F5F5DCDCF50F00000000000FF5F5F5F5F5F5F5F5F5F5F5F5F5F5F5F5F5F5F5F5F5F5F5F5F5F5F5F5BEF5BEF5DCDCF5F5F5BEDCF5F5F5F5DCBEF50F00000000000FF5
310
F5F5F5F5F5F5F5F5F5F5F5F5F5F5F5F5F5F5F5F5F5F5F5F5F5F5F5F5F5F5F5F5F5F5F5F5F5F5F5F5F5F5F5F5F5F5BEF5F5BEBEDCF5F5F5F5BEF5F5F5F5DCDCF50F0000000000000000000000000000000000000000000000000000000000000000000000000000000000000000000000000000000000000000000000000000
310
00000000000000000000000000000000000000000000000000000000000000000000000FF5000000000000000000000000BEBEBEBEBEDCDCDCDCDCDCDCBEBEBEBEDCDCBE0F00000000000FF50000000000000000000000000000000000000000000000000000BEBEBEBEBEDCDCDCDCDCDCDCBEBEBEBEDCBEBE0F0000000000
310
0FF5000000000000000000000000000000000000000000000000000000000000000000000000000000000000000000BEBEBEBEBEDCDCDCDCDCDCDCBEBEBEBEDCDCBE0F000000000000000000000000000000000000000000000000000000000000000000000000000000000000000000000000000000000000000000000000
310
000000000000000000000000000000000000000000000000000000000000000000000000000FF5000000000000000000000000DCBEBEBEBEBEDCDCDCBEBEDCBEBEBEBEBEBEBE0F00000000000FF50000000000000000000000000000000000000000000000000000DCBEBEBEBEBEDCDCDCBEBEDCBEBEBEBEBEBEBE0F000000
310
00000FF5000000000000000000000000000000000000000000000000000000000000000000000000000000000000000000DCDCBEBEBEBEDCBEDCBEBEBEBEBEBEBEBEBEBE0F00000000000000000000000000000000000000000000000000000000000000000000000000000000000000000000000000000000000000000000
310
0000000000000000000000000000000000000000000000000000000000000000000000000000000FF5000000000000000000000000DCBEF5F5F5F5DCDCDCDCDCF5F5F5F5F5F5F5F50F00000000000FF50000000000000000000000000000000000000000000000000000DCBEF5F5F5F5DCDCDCDCDCF5F5F5F5F5F5F5F50F00
310
000000000FF5000000000000000000000000000000000000000000000000000000000000000000000000000000000000000000DCBEF5F5F5F5DCBEDCBEDCF5F5F5F5F5F5F5F50F0000000000000000000000000000000000000000000000000000000000000000000000000000000000000000000000000000000000000000
310
00000000000000000000000000000000000000000000000000000000000000000000000000000000000FF5000000000000000000000000000000000000000000000000000000000000F50F00000000000FF50000000000000000000000000000000000000000000000000000000000000000000000000000000000000000F5
310
0F00000000000FF5000000000000000000000000000000000000000000000000000000000000000000000000000000000000000000000000000000000000000000000000000000F50F000000000000000000000000000000000000000000000000000000000000000000000000000000000000000000000000000000000000
310
000000000000000000000000000000000000000000000000000000000000000000000000000000000000000FF5000000000000000000000000000000000000000000000000000000000000F50F00000000000FF500000000000000000000000000000000000000000000000000000000000000000000000000000000000000
310
00F50F00000000000FF5000000000000000000000000000000000000000000000000000000000000000000000000000000000000000000000000000000000000000000000000000000F50F00000000000000000000000000000000000000000000000000000000000000000000000000000000000000000000000000000000
310
0000000000000000000000000000000000000000000000000000000000000000000000000000000000000000000FF5000000000000000000000000000000000000000000000000000000000000F50F00000000000FF50000000000000000000000000000000000000000000000000000000000000000000000000000000000
310
000000F50F00000000000FF5000000000000000000000000000000000000000000000000000000000000000000000000000000000000000000000000000000000000000000000000000000F50F0000000000000000000000000000000000000000000000000000000000000000000000000000000000000000000000000000
310
00000000000000000000000000000000000000000000000000000000000000000000000000000000000000000000000FF5000000000000000000000000000000000000000000000000000000000000F50F00000000000FF5000000000000000000000000000000000000000000000000000000000000000000000000000000
310
0000000000F50F00000000000FF5000000000000000000000000000000000000000000000000000000000000000000000000000000000000000000000000000000000000000000000000000000F50F000000000000000000000000000000000000000000000000000000000000000000000000000000000000000000000000
310
000000000000000000000000000000000000000000000000000000000000000000000000000000000000000000000000000FF5000000000000000000000000000000000000000000000000000000000000F50F00000000000FF500000000000000000000000000000000000000000000000000000000000000000000000000
310
00000000000000F50F00000000000FF5000000000000000000000000000000000000000000000000000000000000000000000000000000000000000000000000000000000000000000000000000000F50F00000000000000000000000000000000000000000000000000000000000000000000000000000000000000000000
310
0000000000000000000000000000000000000000000000000000000000000000000000000000000000000000000000000000000FF5000000000000000000000000000000000000000000000000000000000000F50F00000000000FF50000000000000000000000000000000000000000000000000000000000000000000000
310
000000000000000000F50F00000000000FF5000000000000000000000000000000000000000000000000000000000000000000000000000000000000000000000000000000000000000000000000000000F50F0000000000000000000000000000000000000000000000000000000000000000000000000000000000000000
310
00000000000000000000000000000000000000000000000000000000000000000000000000000000000000000000000000000000000FF5000000000000000000000000000000000000000000000000000000000000F50F00000000000FF5000000000000000000000000000000000000000000000000000000000000000000
310
0000000000000000000000F50F00000000000FF5000000000000000000000000000000000000000000000000000000000000000000000000000000000000000000000000000000000000000000000000000000F50F000000000000000000000000000000000000000000000000000000000000000000000000000000000000
310
000000000000000000000000000000000000000000000000000000000000000000000000000000000000000000000000000000000000000FF5000000000000000000000000000000000000000000000000000000000000F50F00000000000FF500000000000000000000000000000000000000000000000000000000000000
310
00000000000000000000000000F50F00000000000FF5000000000000000000000000000000000000000000000000000000000000000000000000000000000000000000000000000000000000000000000000000000F50F00000000000000000000000000000000000000000000000000000000000000000000000000000000
310
0000000000000000000000000000000000000000000000000000000000000000000000000000000000000000000000000000000000000000000FF5000000000000000000000000000000000000000000000000000000000000F50F00000000000FF50000000000000000000000000000000000000000000000000000000000
310
000000000000000000000000000000F50F00000000000FF5000000000000000000000000000000000000000000000000000000000000000000000000000000000000000000000000000000000000000000000000000000F50F0000000000000000000000000000000000000000000000000000000000000000000000000000
310
00000000000000000000000000000000000000000000000000000000000000000000000000000000000000000000000000000000000000000000000FF5000000000000000000000000000000000000000000000000000000000000F50F00000000000FF5000000000000000000000000000000000000000000000000000000
310
0000000000000000000000000000000000F50F00000000000FF5000000000000000000000000000000000000000000000000000000000000000000000000000000000000000000000000000000000000000000000000000000F50F000000000000000000000000000000000000000000000000000000000000000000000000
310
000000000000000000000000000000000000000000000000000000000000000000000000000000000000000000000000000000000000000000000000000FF5000000000000000000000000000000000000000000000000000000000000F50F00000000000FF500000000000000000000000000000000000000000000000000
310
00000000000000000000000000000000000000F50F00000000000FF5000000000000000000000000000000000000000000000000000000000000000000000000000000000000000000000000000000000000000000000000000000F50F00000000000000000000000000000000000000000000000000000000000000000000
310
0000000000000000000000000000000000000000000000000000000000000000000000000000000000000000000000000000000000000000000000000000000FF5000000000000000000000000000000000000000000000000000000000000F50F00000000000FF50000000000000000000000000000000000000000000000
310
000000000000000000000000000000000000000000F50F00000000000FF5000000000000000000000000000000000000000000000000000000000000000000000000000000000000000000000000000000000000000000000000000000F50F0000000000000000000000000000000000000000000000000000000000000000
310
00000000000000000000000000000000000000000000000000000000000000000000000000000000000000000000000000000000000000000000000000000000000FF5000000000000000000000000000000000000000000000000000000000000F50F00000000000FF5000000000000000000000000000000000000000000
310
0000000000000000000000000000000000000000000000F50F00000000000FF5000000000000000000000000000000000000000000000000000000000000000000000000000000000000000000000000000000000000000000000000000000F50F000000000000000000000000000000000000000000000000000000000000
310
000000000000000000000000000000000000000000000000000000000000000000000000000000000000000000000000000000000000000000000000000000000000000FF5000000000000000000000000000000000000000000000000000000000000F50F00000000000FF500000000000000000000000000000000000000
310
00000000000000000000000000000000000000000000000000F50F00000000000FF5000000000000000000000000000000000000000000000000000000000000000000000000000000000000000000000000000000000000000000000000000000F50F00000000000000000000000000000000000000000000000000000000
310
0000000000000000000000000000000000000000000000000000000000000000000000000000000000000000000000000000000000000000000000000000000000000000000FF5000000000000000000000000000000000000000000000000000000000000F50F00000000000FF50000000000000000000000000000000000
310
000000000000000000000000000000000000000000000000000000F50F00000000000FF5000000000000000000000000000000000000000000000000000000000000000000000000000000000000000000000000000000000000000000000000000000F50F0000000000000000000000000000000000000000000000000000
310
00000000000000000000000000000000000000000000000000000000000000000000000000000000000000000000000000000000000000000000000000000000000000000000000FF5000000000000000000000000000000000000000000000000000000000000F50F00000000000FF5000000000000000000000000000000
310
0000000000000000000000000000000000000000000000000000000000F50F00000000000FF5000000000000000000000000000000000000000000000000000000000000000000000000000000000000000000000000000000000000000000000000000000F50F000000000000000000000000000000000000000000000000
310
000000000000000000000000000000000000000000000000000000000000000000000000000000000000000000000000000000000000000000000000000000000000000000000000000FF5000000000000000000000000000000000000000000000000000000000000F50F00000000000FF500000000000000000000000000
310
00000000000000000000000000000000000000000000000000000000000000F50F00000000000FF5000000000000000000000000000000000000000000000000000000000000000000000000000000000000000000000000000000000000000000000000000000F50F00000000000000000000000000000000000000000000
310
0000000000000000000000000000000000000000000000000000000000000000000000000000000000000000000000000000000000000000000000000000000000000000000000000000000FF5000000000000000000000000000000000000000000000000000000000000F50F00000000000FF50000000000000000000000
310
000000000000000000000000000000000000000000000000000000000000000000F50F00000000000FF5000000000000000000000000000000000000000000000000000000000000000000000000000000000000000000000000000000000000000000000000000000F50F0000000000000000000000000000000000000000
310
00000000000000000000000000000000000000000000000000000000000000000000000000000000000000000000000000000000000000000000000000000000000000000000000000000000000FF5F5F5F5F5F5F5F5F5F5F5F5F5F5F5F5F5F5F5F5F5F5F5F5F5F5F5F5F5F5F5F50F00000000000FF5000000000000000000
310
0000000000000000000000000000000000000000000000000000000000000000000000F50F00000000000FF5000000000000000000000000000000000000000000000000000000000000000000000000000000000000000000000000000000000000000000000000000000F50F000000000000000000000000000000000000
310
000000000000000000000000000000000000000000000000000000000000000000000000000000000000000000000000000000000000000000000000000000000000000000000000000000000000000F0F0F0F0F0F0F0F0F0F0F0F0F0F0F0F0F0F0F0F0F0F0F0F0F0F0F0F0F0F0F0F0F0F00000000000FF500000000000000
310
00000000000000000000000000000000000000000000000000000000000000000000000000F50F00000000000FF5000000000000000000000000000000000000000000000000000000000000000000000000000000000000000000000000000000000000000000000000000000F50F00000000000000000000000000000000
310
0000000000000000000000000000000000000000000000000000000000000000000000000000000000000000000000000000000000000000000000000000000000000000000000000000000000000000000000000000000000000000000000000000000000000000000000000000000000000000000000000FF50000000000
310
000000000000000000000000000000000000000000000000000000000000000000000000000000F50F00000000000FF5000000000000000000000000000000000000000000000000000000000000000000000000000000000000000000000000000000000000000000000000000000F50F0000000000000000000000000000
310
00000000000000000000000000000000000000000000000000000000000000000000000000000000000000000000000000000000000000000000000000000000000000000000000000000000000000000000000000000000000000000000000000000000000000000000000000000000000000000000000000000FF5000000
310
0000000000000000000000000000000000000000000000000000000000000000000000000000000000F50F00000000000FF5000000000000000000000000000000000000000000000000000000000000000000000000000000000000000000000000000000000000000000000000000000F50F000000000000000000000000
310
000000000000000000000000000000000000000000000000000000000000000000000000000000000000000000000000000000000000000000000000000000000000000000000000000000000000000000000000000000000000000000000000000000000000000000000000000000000000000000000000000000000FF500
310
00000000000000000000000000000000000000000000000000000000000000000000000000000000000000F50F00000000000FF5000000000000000000000000000000000000000000000000000000000000000000000000000000000000000000000000000000000000000000000000000000F50F00000000000000000000
310
0000000000000000000000000000000000000000000000000000000000000000000000000000000000000000000000000000000000000000000000000000000000000000000000000000000000000000000000000000000000000000000000000000000000000000000000000000000000000000000000000000000000000F
310
F50000000000000000000000000000000000000000000000000000000000000000000000000000000000000000F50F00000000000FF5000000000000000000000000000000000000000000000000000000000000000000000000000000000000000000000000000000000000000000000000000000F50F0000000000000000
310
00000000000000000000000000000000000000000000000000000000000000000000000000000000000000000000000000000000000000000000000000000000000000000000000000000000000000000000000000000000000000000000000000000000000000000000000000000000000000000000000000000000000000
310
000FF50000000000000000000000000000000000000000000000000000000000000000000000000000000000000000F50F00000000000FF5000000000000000000000000000000000000000000000000000000000000000000000000000000000000000000000000000000000000000000000000000000F50F000000000000
310
00000000000000000000000000000000000000000000000000000000000000000000000000000000000000000000000000000000000000000000000000000000000000000000000000000000000000000000000000000000000000000000000000000000000000000000000000000000000000000000000000000000000000
310
0000000FF50000000000000000000000000000000000000000000000000000000000000000000000000000000000000000F50F00000000000FF5000000000000000000000000000000000000000000000000000000000000000000000000000000000000000000000000000000000000000000000000000000F50F00000000
310
00000000000000000000000000000000000000000000000000000000000000000000000000000000000000000000000000000000000000000000000000000000000000000000000000000000000000000000000000000000000000000000000000000000000000000000000000000000000000000000000000000000000000
310
00000000000FF50000000000000000000000000000000000000000000000000000000000000000000000000000000000000000F50F00000000000FF5000000000000000000000000000000000000000000000000000000000000000000000000000000000000000000000000000000000000000000000000000000F50F0000
310
00000000000000000000000000000000000000000000000000000000000000000000000000000000000000000000000000000000000000000000000000000000000000000000000000000000000000000000000000000000000000000000000000000000000000000000000000000000000000000000000000000000000000
310
000000000000000FF5F5F5F5F5F5F5F5F5F5F5F5F5F5F5F5F5F5F5F5F5F5F5F5F5F5F5F5F5F5F5F5F5F5F5F5F5F5F5F5F5F5F5F5F5F50F00000000000FF5000000000000000000000000000000000000000000000000000000000000000000000000000000000000000000000000000000000000000000000000000000F50F
310
00000000000000000000000000000000000000000000000000000000000000000000000000000000000000000000000000000000000000000000000000000000000000000000000000000000000000000000000000000000000000000000000000000000000000000000000000000000000000000000000000000000000000
310
0000000000000000000F0F0F0F0F0F0F0F0F0F0F0F0F0F0F0F0F0F0F0F0F0F0F0F0F0F0F0F0F0F0F0F0F0F0F0F0F0F0F0F0F0F0F0F0F0F0F0F00000000000FF5000000000000000000000000000000000000000000000000000000000000000000000000000000000000000000000000000000000000000000000000000000
310
F50F0000000000000000000000000000000000000000000000000000000000000000000000000000000000000000000000000000000000000000000000000000000000000000000000000000000000000000000000000000000000000000000000000000000000000000000000000000000000000000000000000000000000
310
000000000000000000000000000000000000000000000000000000000000000000000000000000000000000000000000000000000000000000000000000000000FF500000000000000000000000000000000000000000000000000000000000000000000000000000000000000000000000000000000000000000000000000
310
0000F50F000000000000000000000000000000000000000000000000000000000000000000000000000000000000000000000000000000000000000000000000000000000000000000000000000000000000000000000000000000000000000000000000000000000000000000000000000000000000000000000000000000
310
0000000000000000000000000000000000000000000000000000000000000000000000000000000000000000000000000000000000000000000000000000000000000FF50000000000000000000000000000000000000000000000000000000000000000000000000000000000000000000000000000000000000000000000
310
00000000F50F00000000000000000000000000000000000000000000000000000000000000000000000000000000000000000000000000000000000000000000000000000000000000000000000000000000000000000000000000000000000000000000000000000000000000000000000000000000000000000000000000
310
00000000000000000000000000000000000000000000000000000000000000000000000000000000000000000000000000000000000000000000000000000000000000000FF5000000000000000000000000000000000000000000000000000000000000000000000000000000000000000000000000000000000000000000
310
000000000000F50F0000000000000000000000000000000000000000000000000000000000000000000000000000000000000000000000000000000000000000000000000000000000000000000000000000000000000000000000000000000000000000000000000000000000000000000000000000000000000000000000
310
000000000000000000000000000000000000000000000000000000000000000000000000000000000000000000000000000000000000000000000000000000000000000000000FF500000000000000000000000000000000000000000000000000000000000000000000000000000000000000000000000000000000000000
310
0000000000000000F50F000000000000000000000000000000000000000000000000000000000000000000000000000000000000000000000000000000000000000000000000000000000000000000000000000000000000000000000000000000000000000000000000000000000000000000000000000000000000000000
310
0000000000000000000000000000000000000000000000000000000000000000000000000000000000000000000000000000000000000000000000000000000000000000000000000FF50000000000000000000000000000000000000000000000000000000000000000000000000000000000000000000000000000000000
310
00000000000000000000F50F00000000000000000000000000000000000000000000000000000000000000000000000000000000000000000000000000000000000000000000000000000000000000000000000000000000000000000000000000000000000000000000000000000000000000000000000000000000000000
310
00000000000000000000000000000000000000000000000000000000000000000000000000000000000000000000000000000000000000000000000000000000000000000000000000000FF5000000000000000000000000000000000000000000000000000000000000000000000000000000000000000000000000000000
310
000000000000000000000000F50F0000000000000000000000000000000000000000000000000000000000000000000000000000000000000000000000000000000000000000000000000000000000000000000000000000000000000000000000000000000000000000000000000000000000000000000000000000000000
310
000000000000000000000000000000000000000000000000000000000000000000000000000000000000000000000000000000000000000000000000000000000000000000000000000000000FF500000000000000000000000000000000000000000000000000000000000000000000000000000000000000000000000000
310
0000000000000000000000000000F50F000000000000000000000000000000000000000000000000000000000000000000000000000000000000000000000000000000000000000000000000000000000000000000000000000000000000000000000000000000000000000000000000000000000000000000000000000000
310
0000000000000000000000000000000000000000000000000000000000000000000000000000000000000000000000000000000000000000000000000000000000000000000000000000000000000FF50000000000000000000000000000000000000000000000000000000000000000000000000000000000000000000000
310
00000000000000000000000000000000F50F00000000000000000000000000000000000000000000000000000000000000000000000000000000000000000000000000000000000000000000000000000000000000000000000000000000000000000000000000000000000000000000000000000000000000000000000000
310
000000000000000000000000000000000000000000000000000000000000000000000000F5F5F5F5F5F5F5F5F5F5F5F5F5F5F5F5000000000000000000000000000000000000000000000000000000000FF5000000000000000000000000000000000000000000000000000000000000000000000000000000000000000000
310
000000000000000000000000000000000000F50F0000000000000000000000000000000000000000000000000000000000000000000000000000000000000000000000000000000000000000000000000000000000000000000000000000000000000000000000000000000000000000000000000000000000000000000000
310
0000000000000000000000000000000000000000000000000000000000000000000000000000F528F5DCDCDCDCDCDCDCDCF5DCDCDCF5000000000000000000000000000000000000000000000000000000000FF500000000000000000000000000000000000000000000000000000000000000000000000000000000000000
310
0000000000000000000000000000000000000000F50F000000000000000000000000000000000000000000000000000000000000000000000000000000000000000000000000000000000000000000000000000000000000000000000000000000000000000000000000000000000000000000000000000000000000000000
310
00000000000000000000000000000000000000000000000000000000000000000000000000000000F5F5F5F5F5F5F5F5F5F5F5F5F5F5F5F5000000000000000000000000000000000000000000000000000000000FF50000000000000000000000000000000000000000000000000000000000000000000000000000000000
310
00000000000000000000000000000000000000000000F50F00000000000000000000000000000000000000000000000000000000000000000000000000000000000000000000000000000000000000000000000000000000000000000000000000000000000000000000000000000000000000000000000000000000000000
310
00000000000000000000000000000000000000000000000000000000000000000000000000000000000000000000000000000000000000000000000000000000000000000000000000000000000000000000000000000FF5000000000000000000000000000000000000000000000000000000000000000000000000000000
310
000000000000000000000000000000000000000000000000F50F0000000000000000000000000000000000000000000000000000000000000000000000000000000000000000000000000000000000000000000000000000000000000000000000000000000000000000000000000000000000000000000000000000000000
310
000000000000000000000000000000000000000000000000000000000000000000000000000000000000000000000000000000F5F5F5F5F5F5F5F50000000000000000DCDCDCF5F5F5F5F5F5F5F5F5F5F5000000000000000FF5F5F5F5F5F5F5F5F5F5F5F5F5F5F5F5F5F5F5F5F5F5F5F5F5F5F5F5F5F5F5F5F5F5F5F5F5F5
310
F5F5F5F5F5F5F5F5F5F5F5F5F5F5F5F5F5F5F5F5F5F5F5F5F5F5F50F000000000000000000000000000000000000000000000000000000000000000000000000000000000000000000000000000000000000000000000000000000000000000000000000000000000000000000000000000000000000000000000000000000
310
00000000000000000000000000000000000000000000000000000000000000000000000000F5DCDCDCDCDCDCDC0000000000000000DCDCDCDCDCDCDCDCDCDCF5DCDCDCDCF5DCDCDCBEDCBEDCDCDCDCDCDCDCDC000000000000000F0F0F0F0F0F0F0F0F0F0F0F0F0F0F0F0F0F0F0F0F0F0F0F0F0F0F0F0F0F0F0F0F0F0F0F0F
310
0F0F0F0F0F0F0F0F0F0F0F0F0F0F0F0F0F0F0F0F0F0F0F0F0F0F0F0F0F0F00000000000000000000000000000000000000000000000000000000000000000000000000000000000000000000000000000000000000000000000000000000000000000000000000000000000000000000000000000000000000000000000000
310
000000000000000000000000000000000000000000000000000000000000000000000000000000F5DCDCDCDCDCDCDCF5DCDCDCDCDCDCDCDCDCDCDCDCDCDCDCDCDCDCDCDCDCDCF5DCDCDCDCDCF5DCDCDCDCDCDCDCDC000000000000000000000000000000000000000000000000000000000000000000000000000000000000
310
00000000000000000000000000000000000000000000000000000000000000000000000000000000000000000000000000000000000000000000000000000000000000000000000000000000000000000000000000000000000000000000000000000000000000000000000000000000000000000000000000000000000000
310
0000000000000000000000000000000000000000000000000000000000000000000000000000000000F5DCDCDCDCDCDCDCF5DCDCDCDCDCDCDCDCDCDCDCDCDCDCDCDCDCDCDCDCDCDCF5DCDCDCDCDCF5DCDCDCDCDCDCDCDC00000000000000000000000000000000000000000000000000000000000000000000000000000000
310
00000000000000000000000000000000000000000000000000000000000000000000000000000000000000000000000000000000000000000000000000000000000000000000000000000000000000000000000000000000000000000000000000000000000000000000000000000000000000000000000000000000000000
310
00000000000000000000000000000000000000000000000000000000000000000000000000000000000000F5DCDCDCDCDCDCDCF5DCDCDCDCDCDCDCDCDCDCDCDCDCDCDCDCDCDCDCDCDCDCF5F5DCDCDCDCF5F5DCDCDCDCDCDCDC0000000000000000000000000000000000000000000000000000000000000000000000000000
310
00000000000000000000000000000000000000000000000000000000000000000000000000000000000000000000000000000000000000000000000000000000000000000000000000000000000000000000000000000000000000000000000000000000000000000000000000000000000000000000000000000000000000
310
000000000000000000000000000000000000000000000000000000000000000000000000000000000000000000F5F5F5DCDCDCF5F5F5F5F5DCDCDCF5F5F5F5F5DCDCDCF5F5F5F5DCDCDCDCF5F5F5DCDCDCDCF5F5F5F5DCDCF5F5F5000000000000000000000000000000000000000000000000000000000000000000000000
310
00000000000000000000000000000000000000000000000000000000000000000000000000000000000000000000000000000000000000000000000000000000000000000000000000000000000000000000000000000000000000000000000000000000000000000000000000000000000000000000000000000000000000
310
000000000000000000000000000000000000000000000000000000000000000000000000000000000000000000000000000000000000DCDCDCDCDCDC00000000000000000000000000000000000000000000000000000000000000000000000000000000000000000000000000000000000000000000000000000000000000
310
00000000000000000000000000000000000000000000000000000000000000000000000000000000000000000000000000000000000000000000000000000000000000000000000000000000000000000000000000000000000000000000000000000000000000000000000000000000000000000000000000000000000000
310
00000000000000000000000000000000000000000000000000000000000000000000000000000000000000000000000000000000000000BEBEBEBEBEBEBEBE0000000000BEBEBEBE00000000000000000000000000000000000000000000000000000000000000000000000000000000000000000000000000000000000000
310
00000000000000000000000000000000000000000000000000000000000000000000000000000000000000000000000000000000000000000000000000000000000000000000000000000000000000000000000000000000000000000000000000000000000000000000000000000000000000000000000000000000000000
310
000000000000000000000000000000000000000000000000000000000000000000000000000000000000000000000000000000000000000000BEBEBEBEBEBEBEBE0000000000BEBEBEBE0000000000000000000000000000000000000000000000000000000000000000000000000000000000000000000000000000000000
310
00000000000000000000000000000000000000000000000000000000000000000000000000000000000000000000000000000000000000000000000000000000000000000000000000000000000000000000000000000000000000000000000000000000000000000000000000000000000000000000000000000000000000
310
000000000000000000000000000000000000000000000000000000000000000000000000000000000000000000000000000000000000000000000000000000000000000000000000000000000000BEBEBE00000000000000000000000000000000000000000000000000000000000000000000000000000000000000000000
310
00000000000000000000000000000000000000000000000000000000000000000000000000000000000000000000000000000000000000000000000000000000000000000000000000000000000000000000000000000000000000000000000000000000000000000000000000000000000000000000000000000000000000
310
00000000000000000000000000000000000000000000000000000000000000000000000000000000000000000000000000000000000000000000000000BEBEBEBEBEBE0000000000BEBEBEBEBEBE00BEBEBEBEBE00000000000000000000000000000000000000000000000000000000000000000000000000000000000000
310
00000000000000000000000000000000000000000000000000000000000000000000000000000000000000000000000000000000000000000000000000000000000000000000000000000000000000000000000000000000000000000000000000000000000000000000000000000000000000000000000000000000000000
310
000000000000000000000000000000000000000000000000000000000000000000000000000000000000000000000000000000000000000000000000000000BEBEBEBEBEBE0000000000BEBEBEBEBEBE00BEBEBEBEBE0000000000000000000000000000000000000000000000000000000000000000000000000000000000
310
00000000000000000000000000000000000000000000000000000000000000000000000000000000000000000000000000000000000000000000000000000000000000000000000000000000000000000000000000000000000000000000000000000000000000000000000000000000000000000000000000000000000000
310
000000000000000000000000000000000000000000000000000000000000000000000000000000000000000000000000000000000000000000000000000000000000000000000000000000000000000000000000BEBEBE00000000000000000000000000000000000000000000000000000000000000000000000000000000
310
00000000000000000000000000000000000000000000000000000000000000000000000000000000000000000000000000000000000000000000000000000000000000000000000000000000000000000000000000000000000000000000000000000000000000000000000000000000000000000000000000000000000000
310
00000000000000000000000000000000000000000000000000000000000000000000000000000000000000000000000000000000000000000000000000000000000000000000000000000000000000000000000000000000000000000000000000000000000000000000000000000000000000000000000000000000000000
310
00000000000000000000000000000000000000000000000000000000000000000000000000000000000000000000000000000000000000000000000000000000000000000000000000000000000000000000000000000000000000000000000000000000000000000000000000000000000000000000000000000000000000
310
00000000000000000000000000000000000000000000000000000000000000000000000000000000000000000000000000000000000000000000000000000000000000000000000000000000000000000000000000000000000000000000000000000000000000000000000000000000000000000000000000000000000000
310
00000000000000000000000000000000000000000000000000000000000000000000000000000000000000000000000000000000000000000000000000000000000000000000000000000000000000000000000000000000000000000000000000000000000000000000000000000000000000000000000000000000000000
310
00000000000000000000000000000000000000000000000000000000000000000000000000000000000000000000000000000000000000000000000000000000000000000000000000000000000000000000000000000000000000000000000000000000000000000000000000000000000000000000000000000000000000
310
00000000000000000000000000000000000000000000000000000000000000000000000000000000000000000000000000000000000000000000000000000000000000000000000000000000000000000000000000000000000000000000000000000000000000000000000000000000000000000000000000000000000000
310
000000000000000000000000000000000000000000000000000000000000000000000000000000000000000000000000000000000000000000000000000000000000BEBEBEBEBEBEBEBEBE00000000002D0000000000F500000000000000000000000000000000000000000000000000000000000000000000000000000000
310
00000000000000000000000000000000000000000000000000000000000000000000000000000000000000000000000000000000000000000000000000000000000000000000000000000000000000000000000000000000000000000000000000000000000000000000000000000000000000000000000000000000000000
310
0000000000000000000000000000000000000000000000000000000000000000000000000000000000000000000000000000000000000000000000000000000000000000BEBE00BE00BEBEBEBE00000000F5BE000000002DC3F52D000000000000000000000000000000000000000000000000000000000000000000000000
310
00000000000000000000000000000000000000000000000000000000000000000000000000000000000000000000000000000000000000000000000000000000000000000000000000000000000000000000000000000000000000000000000000000000000000000000000000000000000000000000000000000000000000
310
00000000000000000000000000000000000000000000000000000000000000000000000000000000000000000000000000000000000000000000000000000000000000000000BEBEBEBEBEBEBEBEBE0000000000BE000000000000000000000000000000000000000000000000000000000000000000000000000000000000
310
00000000000000000000000000000000000000000000000000000000000000000000000000000000000000000000000000000000000000000000000000000000000000000000000000000000000000000000000000000000000000000000000000000000000000000000000000000000000000000000000000000000000000
310
000000000000000000000000000000000000000000000000000000000000000000000000000000000000000000000000000000000000000000000000000000000000000000000000BEBEBEBEBEBEBEBEBE0000000000BE00000000000000F5BE00000000000000000000000000000000000000000000000000000000000000
310
00000000000000000000000000000000000000000000000000000000000000000000000000000000000000000000000000000000000000000000000000000000000000000000000000000000000000000000000000000000000000000000000000000000000000000000000000000000000000000000000000000000000000
310
0000000000000000000000000000000000000000000000000000000000000000000000000000000000000000000000000000000000000000000000000000000000000000000000000000BEBEBEBEBEBEBEBEBE0000000000BE0000000000002DF52D2D2D2D0000000000000000000000000000000000000000000000000000
310
00000000000000000000000000000000000000000000000000000000000000000000000000000000000000000000000000000000000000000000000000000000000000000000000000000000000000000000000000000000000000000000000000000000000000000000000000000000000000000000000000000000000000
310
0000000000000000000000000000000000000000000000000000000000000000000000000000000000000000000000000000000000000000000000000000000000000000000000000000000000000000000000000000000000002D0000F50000000000BE000000000000000000000000000000000000000000000000000000
310
00000000000000000000000000000000000000000000000000000000000000000000000000000000000000000000000000000000000000000000000000000000000000000000000000000000000000000000000000000000000000000000000000000000000000000000000000000000000000000000000000000000000000
310
000000000000000000000000000000000000000000000000000000000000000000000000000000000000000000000000000000000000000000000000000000000000000000000000000000000000000000000000000000000000000000BE2DF52D000000000000000000000000000000000000000000000000000000000000
310
00000000000000000000000000000000000000000000000000000000000000000000000000000000000000000000000000000000000000000000000000000000000000000000000000000000000000000000000000000000000000000000000000000000000000000000000000000000000000000000000000000000000000
310
00000000000000000000000000000000000000000000000000000000000000000000000000000000000000000000000000000000000000000000000000000000000000000000000000000000000000000000000000000000000000C300BEBEBE000000000000F5F5F5F5F50000000000000000000000000000000000000000
310
00000000000000000000000000000000000000000000000000000000000000000000000000000000000000000000000000000000000000000000000000000000000000000000000000000000000000000000000000000000000000000000000000000000000000000000000000000000000000000000000000000000000000
310
00000000000000000000000000000000000000000000000000000000000000000000000000000000000000000000000000000000000000000000000000000000000000000000000000000000000000000000000000000000000000C3F5C300BEBEBE00F5F5F5002DF5F5F5F5F52D002D2D2D00000000000000000000000000
310
00000000000000000000000000000000000000000000000000000000000000000000000000000000000000000000000000000000000000000000000000000000000000000000000000000000000000000000000000000000000000000000000000000000000000000000000000000000000000000000000000000000000000
310
00000000000000000000000000000000000000000000000000000000000000000000000000000000000000000000000000000000000000000000000000000000000000000000000000000000000000000000000000000000000000002D2D2DF500002D0000002D000000000000000000BE0000000000000000000000000000
310
00000000000000000000000000000000000000000000000000000000000000000000000000000000000000000000000000000000000000000000000000000000000000000000000000000000000000000000000000000000000000000000000000000000000000000000000000000000000000000000000000000000000000
310
00000000000000000000000000000000000000000000000000000000000000000000000000000000000000000000000000000000000000000000000000000000000000000000000000000000000000000000000000000000000000000000000000000000BE00002D2D2D0000BEBEBEBEBEBEBEBEBEBEBE0000000000000000
310
00000000000000000000000000000000000000000000000000000000000000000000000000000000000000000000000000000000000000000000000000000000000000000000000000000000000000000000000000000000000000000000000000000000000000000000000000000000000000000000000000000000000000
310
0000000000000000000000000000000000000000000000000000000000000000000000000000000000000000000000000000000000000000000000000000000000000000000000000000000000000000000000000000000000000000000000000000000000BEBEBE00002D00002DBEBEBEBEBEBE0000000000000000000000
310
00000000000000000000000000000000000000000000000000000000000000000000000000000000000000000000000000000000000000000000000000000000000000000000000000000000000000000000000000000000000000000000000000000000000000000000000000000000000000000000000000000000000000
310
0000000000000000000000000000000000000000000000000000000000000000000000000000000000000000000000000000000000000000000000000000000000000000000000000000000000000000000000000000000000000000000000000000000000000000BE0000002DC30000BE0000000000000000000000000000
310
00000000000000000000000000000000000000000000000000000000000000000000000000000000000000000000000000000000000000000000000000000000000000000000000000000000000000000000000000000000000000000000000000000000000000000000000000000000000000000000000000000000000000
310
00000000000000000000000000000000000000000000000000000000000000000000000000000000000000000000000000000000000000000000000000000000000000000000000000000000000000000000000000000000000000000000000000000000000000000000BE0000002DF5000000000000000000000000000000
310
00000000000000000000000000000000000000000000000000000000000000000000000000000000000000000000000000000000000000000000000000000000000000000000000000000000000000000000000000000000000000000000000000000000000000000000000000000000000000000000000000000000000000
310
0000000000000000000000000000000000000000000000000000000000000000000000000000000000000000000000000000000000000000000000000000000000000000000000000000000000000000000000000000000000000000000000000000000000000000000000002D000000000000000000000000000000000000
310
00000000000000000000000000000000000000000000000000000000000000000000000000000000000000000000000000000000000000000000000000000000000000000000000000000000000000000000000000000000000000000000000000000000000000000000000000000000000000000000000000000000000000
310
00000000000000000000000000000000000000000000000000000000000000000000000000000000000000000000000000000000000000000000000000000000000000000000000000000000000000000000000000000000000000000000000000000000000000000000000000000000000000000000000000000000000000
310
00000000000000000000000000000000000000000000000000000000000000000000000000000000000000000000000000000000000000000000000000000000000000000000000000000000000000000000000000000000000000000000000000000000000000000000000000000000000000000000000000000000000000
310
00000000000000000000000000000000000000000000000000000000000000000000000000000000000000000000000000000000000000000000000000000000000000000000000000000000000000000000000000000000000000000000000000000000000000000000000000000000000000000000000000000000000000
310
00000000000000000000000000000000000000000000000000000000000000000000000000000000000000000000000000000000000000000000000000000000000000000000000000000000000000000000000000000000000000000000000000000000000000000000000000000000000000000000000000000000000000
310
00000000000000000000000000000000000000000000000000000000000000000000000000000000000000000000000000000000000000000000000000000000000000000000000000000000000000000000000000000000000000000000000000000000000000000000000000000000000000000000000000000000000000
310
00000000000000000000000000000000000000000000000000000000000000000000000000000000000000000000000000000000000000000000000000000000000000000000000000000000000000000000000000000000000000000000000000000000000000000000000000000000000000000000000000000000000000
310
00000000000000000000000000000000000000000000000000000000000000000000000000000000000000000000000000000000000000000000000000000000000000000000000000000000000000000000000000000000000000000000000000000000000000000000000000000000000000000000000000000000000000
310
00000000000000000000000000000000000000000000000000000000000000000000000000000000000000000000000000000000000000000000000000000000000000000000000000000000000000000000000000000000000000000000000000000000000000000000000000000000000000000000000000000000000000
310
00000000000000000000000000000000000000000000000000000000000000000000000000000000000000000000000000000000000000000000000000000000000000000000000000000000000000000000000000000000000000000000000000000000000000000000000000000000000000000000000000000000000000
310
00000000000000000000000000000000000000000000000000000000000000000000000000000000000000000000000000000000000000000000000000000000000000000000000000000000000000000000000000000000000000000000000000000000000000000000000000000000000000000000000000000000000000
310
00000000000000000000000000000000000000000000000000000000000000000000000000000000000000000000000000000000000000000000000000000000000000000000000000000000000000000000000000000000000000000000000000000000000000000000000000000000000000000000000000000000000000
310
00000000000000000000000000000000000000000000000000000000000000000000000000000000000000000000000000000000000000000000000000000000000000000000000000000000000000000000000000000000000000000000000000000000000000000000000000000000000000000000000000000000000000
310
00000000000000000000000000000000000000000000000000000000000000000000000000000000000000000000000000000000000000000000000000000000000000000000000000000000000000000000000000000000000000000000000000000000000000000000000000000000000000000000000000000000000000
310
00000000000000000000000000000000000000000000000000000000000000000000000000000000000000000000000000000000000000000000000000000000000000000000000000000000000000000000000000000000000000000000000000000000000000000000000000000000000000000000000000000000000000
310
00000000000000000000000000000000000000000000000000000000000000000000000000000000000000000000000000000000000000000000000000000000000000000000000000000000000000000000000000000000000000000000000000000000000000000000000000000000000000000000000000000000000000
310
00000000000000000000000000000000000000000000000000000000000000000000000000000000000000000000000000000000000000000000000000000000000000000000000000000000000000000000000000000000000000000000000000000000000000000000000000000000000000000000000000000000000000
310
00000000000000000000000000000000000000000000000000000000000000000000000000000000000000000000000000000000000000000000000000000000000000000000000000000000000000000000000000000000000000000000000000000000000000000000000000000000000000000000000000000000000000
310
00000000000000000000000000000000000000000000000000000000000000000000000000000000000000000000000000000000000000000000000000000000000000000000000000000000000000000000000000000000000000000000000000000000000000000000000000000000000000000000000000000000000000
310
00000000000000000000000000000000000000000000000000000000000000000000000000000000000000000000000000000000000000000000000000000000000000000000000000000000000000000000000000000000000000000000000000000000000000000000000000000000000000000000000000000000000000
310
00000000000000000000000000000000000000000000000000000000000000000000000000000000000000000000000000000000000000000000000000000000000000000000000000000000000000000000000000000000000000000000000000000000000000000000000000000000000000000000000000000000000000
310
00000000000000000000000000000000000000000000000000000000000000000000000000000000000000000000000000000000000000000000000000000000000000000000000000000000000000000000000000000000000000000000000000000000000000000000000000000000000000000000000000000000000000
310
00000000000000000000000000000000000000000000000000000000000000000000000000000000000000000000000000000000000000000000000000000000000000000000000000000000000000000000000000000000000000000000000000000000000000000000000000000000000000000000000000000000000000
310
00000000000000000000000000000000000000000000000000000000000000000000000000000000000000000000000000000000000000000000000000000000000000000000000000000000000000000000000000000000000000000000000000000000000000000000000000000000000000000000000000000000000000
310
00000000000000000000000000000000000000000000000000000000000000000000000000000000000000000000000000000000000000000000000000000000000000000000000000000000000000000000000000000000000000000000000000000000000000000000000000000000000000000000000000000000000000
310
00000000000000000000000000000000000000000000000000000000000000000000000000000000000000000000000000000000000000000000000000000000000000000000000000000000000000000000000000000000000000000000000000000000000000000000000000000000000000000000000000000000000000
310
00000000000000000000000000000000000000000000000000000000000000000000000000000000000000000000000000000000000000000000000000000000000000000000000000000000000000000000000000000000000000000000000000000000000000000000000000000000000000000000000000000000000000
310
00000000000000000000000000000000000000000000000000000000000000000000000000000000000000000000000000000000000000000000000000000000000000000000000000000000000000000000000000000000000000000000000000000000000000000000000000000000000000000000000000000000000000
310
00000000000000000000000000000000000000000000000000000000000000000000000000000000000000000000000000000000000000000000000000000000000000000000000000000000000000000000000000000000000000000000000000000000000000000000000000000000000000000000000000000000000000
310
00000000000000000000000000000000000000000000000000000000000000000000000000000000000000000000000000000000000000000000000000000000000000000000000000000000000000000000000000000000000000000000000000000000000000000000000000000000000000000000000000000000000000
310
00000000000000000000000000000000000000000000000000000000000000000000000000000000000000000000000000000000000000000000000000000000000000000000000000000000000000000000000000000000000000000000000000000000000000000000000000000000000000000000000000000000000000
310
00000000000000000000000000000000000000000000000000000000000000000000000000000000000000000000000000000000000000000000000000000000000000000000000000000000000000000000000000000000000000000000000000000000000000000000000000000000000000000000000000000000000000
310
00000000000000000000000000000000000000000000000000000000000000000000000000000000000000000000000000000000000000000000000000000000000000000000000000000000000000000000000000000000000000000000000000000000000000000000000000000000000000000000000000000000000000
310
00000000000000000000000000000000000000000000000000000000000000000000000000000000000000000000000000000000000000000000000000000000000000000000000000000000000000000000000000000000000000000000000000000000000000000000000000000000000000000000000000000000000000
310
00000000000000000000000000000000000000000000000000000000000000000000000000000000000000000000000000000000000000000000000000000000000000000000000000000000000000000000000000000000000000000000000000000000000000000000000000000000000000000000000000000000000000
310
00000000000000000000000000000000000000000000000000000000000000000000000000000000000000000000000000000000000000000000000000000000000000000000000000000000000000000000000000000000000000000000000000000000000000000000000000000000000000000000000000000000000000
310
00000000000000000000000000000000000000000000000000000000000000000000000000000000000000000000000000000000000000000000000000000000000000000000000000000000000000000000000000000000000000000000000000000000000000000000000000000000000000000000000000000000000000
310
00000000000000000000000000000000000000000000000000000000000000000000000000000000000000000000000000000000000000000000000000000000000000000000000000000000000000000000000000000000000000000000000000000000000000000000000000000000000000000000000000000000000000
310
00000000000000000000000000000000000000000000000000000000000000000000000000000000000000000000000000000000000000000000000000000000000000000000000000000000000000000000000000000000000000000000000000000000000000000000000000000000000000000000000000000000000000
310
00000000000000000000000000000000000000000000000000000000000000000000000000000000000000000000000000000000000000000000000000000000000000000000000000000000000000000000000000000000000000000000000000000000000000000000000000000000000000000000000000000000000000
310
00000000000000000000000000000000000000000000000000000000000000000000000000000000000000000000000000000000000000000000000000000000000000000000000000000000000000000000000000000000000000000000000000000000000000000000000000000000000000000000000000000000000000
310
00000000000000000000000000000000000000000000000000000000000000000000000000000000000000000000000000000000000000000000000000000000000000000000000000000000000000000000000000000000000000000000000000000000000000000000000000000000000000000000000000000000000000
310
00000000000000000000000000000000000000000000000000000000000000000000000000000000000000000000000000000000000000000000000000000000000000000000000000000000000000000000000000000000000000000000000000000000000000000000000000000000000000000000000000000000000000
310
00000000000000000000000000000000000000000000000000000000000000000000000000000000000000000000000000000000000000000000000000000000000000000000000000000000000000000000000000000000000000000000000000000000000000000000000000000000000000000000000000000000000000
310
00000000000000000000000000000000000000000000000000000000000000000000000000000000000000000000000000000000000000000000000000000000000000000000000000000000000000000000000000000000000000000000000000000000000000000000000000000000000000000000000000000000000000
310
00000000000000000000000000000000000000000000000000000000000000000000000000000000000000000000000000000000000000000000000000000000000000000000000000000000000000000000000000000000000000000000000000000000000000000000000000000000000000000000000000000000000000
310
00000000000000000000000000000000000000000000000000000000000000000000000000000000000000000000000000000000000000000000000000000000000000000000000000000000000000000000000000000000000000000000000000000000000000000000000000000000000000000000000000000000000000
310
00000000000000000000000000000000000000000000000000000000000000000000000000000000000000000000000000000000000000000000000000000000000000000000000000000000000000000000000000000000000000000000000000000000000000000000000000000000000000000000000000000000000000
310
00000000000000000000000000000000000000000000000000000000000000000000000000000000000000000000000000000000000000000000000000000000000000000000000000000000000000000000000000000000000000000000000000000000000000000000000000000000000000000000000000000000000000
310
00000000000000000000000000000000000000000000000000000000000000000000000000000000000000000000000000000000000000000000000000000000000000000000000000000000000000000000000000000000
  0
XRECORD
  5
1371E
102
{ACAD_REACTORS
330
13235
102
}
330
13235
100
AcDbXrecord
280
     1
102
DISPLAYNAME
  1
Metric50
102
FLAGS
 90
        0
  0
CELLSTYLEMAP
  5
13720
102
{ACAD_REACTORS
330
1371F
102
}
330
1371F
100
AcDbCellStyleMap
 90
        3
300
CELLSTYLE
  1
TABLEFORMAT_BEGIN
 90
        5
170
     1
 91
        0
 92
    32768
 62
   257
 93
        1
300
CONTENTFORMAT
  1
CONTENTFORMAT_BEGIN
 90
        0
 91
        0
 92
      512
 93
        0
300

 40
0.0
140
1.0
 94
        5
 62
     0
340
11
144
6.0
309
CONTENTFORMAT_END
171
     1
301
MARGIN
  1
CELLMARGIN_BEGIN
 40
1.5
 40
1.5
 40
1.5
 40
1.5
 40
0.18
 40
0.18
309
CELLMARGIN_END
 94
        6
 95
        1
302
GRIDFORMAT
  1
GRIDFORMAT_BEGIN
 90
        0
 91
        1
 62
     0
 92
       -2
340
0
 93
        0
 40
0.045
309
GRIDFORMAT_END
 95
        2
302
GRIDFORMAT
  1
GRIDFORMAT_BEGIN
 90
        0
 91
        1
 62
     0
 92
       -2
340
0
 93
        0
 40
0.045
309
GRIDFORMAT_END
 95
        4
302
GRIDFORMAT
  1
GRIDFORMAT_BEGIN
 90
        0
 91
        1
 62
     0
 92
       -2
340
0
 93
        0
 40
0.045
309
GRIDFORMAT_END
 95
        8
302
GRIDFORMAT
  1
GRIDFORMAT_BEGIN
 90
        0
 91
        1
 62
     0
 92
       -2
340
0
 93
        0
 40
0.045
309
GRIDFORMAT_END
 95
       16
302
GRIDFORMAT
  1
GRIDFORMAT_BEGIN
 90
        0
 91
        1
 62
     0
 92
       -2
340
0
 93
        0
 40
0.045
309
GRIDFORMAT_END
 95
       32
302
GRIDFORMAT
  1
GRIDFORMAT_BEGIN
 90
        0
 91
        1
 62
     0
 92
       -2
340
0
 93
        0
 40
0.045
309
GRIDFORMAT_END
309
TABLEFORMAT_END
  1
CELLSTYLE_BEGIN
 90
        1
 91
        1
300
_TITLE
309
CELLSTYLE_END
300
CELLSTYLE
  1
TABLEFORMAT_BEGIN
 90
        5
170
     1
 91
        0
 92
        0
 62
   257
 93
        1
300
CONTENTFORMAT
  1
CONTENTFORMAT_BEGIN
 90
        0
 91
        0
 92
      512
 93
        0
300

 40
0.0
140
1.0
 94
        5
 62
     0
340
11
144
4.5
309
CONTENTFORMAT_END
171
     1
301
MARGIN
  1
CELLMARGIN_BEGIN
 40
1.5
 40
1.5
 40
1.5
 40
1.5
 40
0.18
 40
0.18
309
CELLMARGIN_END
 94
        6
 95
        1
302
GRIDFORMAT
  1
GRIDFORMAT_BEGIN
 90
        0
 91
        1
 62
     0
 92
       -2
340
0
 93
        0
 40
0.045
309
GRIDFORMAT_END
 95
        2
302
GRIDFORMAT
  1
GRIDFORMAT_BEGIN
 90
        0
 91
        1
 62
     0
 92
       -2
340
0
 93
        0
 40
0.045
309
GRIDFORMAT_END
 95
        4
302
GRIDFORMAT
  1
GRIDFORMAT_BEGIN
 90
        0
 91
        1
 62
     0
 92
       -2
340
0
 93
        0
 40
0.045
309
GRIDFORMAT_END
 95
        8
302
GRIDFORMAT
  1
GRIDFORMAT_BEGIN
 90
        0
 91
        1
 62
     0
 92
       -2
340
0
 93
        0
 40
0.045
309
GRIDFORMAT_END
 95
       16
302
GRIDFORMAT
  1
GRIDFORMAT_BEGIN
 90
        0
 91
        1
 62
     0
 92
       -2
340
0
 93
        0
 40
0.045
309
GRIDFORMAT_END
 95
       32
302
GRIDFORMAT
  1
GRIDFORMAT_BEGIN
 90
        0
 91
        1
 62
     0
 92
       -2
340
0
 93
        0
 40
0.045
309
GRIDFORMAT_END
309
TABLEFORMAT_END
  1
CELLSTYLE_BEGIN
 90
        2
 91
        1
300
_HEADER
309
CELLSTYLE_END
300
CELLSTYLE
  1
TABLEFORMAT_BEGIN
 90
        5
170
     1
 91
        0
 92
        0
 62
   257
 93
        1
300
CONTENTFORMAT
  1
CONTENTFORMAT_BEGIN
 90
        0
 91
        0
 92
      512
 93
        0
300

 40
0.0
140
1.0
 94
        2
 62
     0
340
11
144
4.5
309
CONTENTFORMAT_END
171
     1
301
MARGIN
  1
CELLMARGIN_BEGIN
 40
1.5
 40
1.5
 40
1.5
 40
1.5
 40
0.18
 40
0.18
309
CELLMARGIN_END
 94
        6
 95
        1
302
GRIDFORMAT
  1
GRIDFORMAT_BEGIN
 90
        0
 91
        1
 62
     0
 92
       -2
340
0
 93
        0
 40
0.045
309
GRIDFORMAT_END
 95
        2
302
GRIDFORMAT
  1
GRIDFORMAT_BEGIN
 90
        0
 91
        1
 62
     0
 92
       -2
340
0
 93
        0
 40
0.045
309
GRIDFORMAT_END
 95
        4
302
GRIDFORMAT
  1
GRIDFORMAT_BEGIN
 90
        0
 91
        1
 62
     0
 92
       -2
340
0
 93
        0
 40
0.045
309
GRIDFORMAT_END
 95
        8
302
GRIDFORMAT
  1
GRIDFORMAT_BEGIN
 90
        0
 91
        1
 62
     0
 92
       -2
340
0
 93
        0
 40
0.045
309
GRIDFORMAT_END
 95
       16
302
GRIDFORMAT
  1
GRIDFORMAT_BEGIN
 90
        0
 91
        1
 62
     0
 92
       -2
340
0
 93
        0
 40
0.045
309
GRIDFORMAT_END
 95
       32
302
GRIDFORMAT
  1
GRIDFORMAT_BEGIN
 90
        0
 91
        1
 62
     0
 92
       -2
340
0
 93
        0
 40
0.045
309
GRIDFORMAT_END
309
TABLEFORMAT_END
  1
CELLSTYLE_BEGIN
 90
        3
 91
        2
300
_DATA
309
CELLSTYLE_END
  0
ENDSEC
  0
EOF
