  0
SECTION
  2
HEADER
  9
$ACADVER
  1
AC1015
  9
$ACADMAINTVER
 70
    20
  9
$DWGCODEPAGE
  3
ANSI_932
  9
$INSBASE
 10
0.0
 20
0.0
 30
0.0
  9
$EXTMIN
 10
518.4194772384155
 20
-1090.192554471413
 30
-0.000000000000013
  9
$EXTMAX
 10
938.4426002751087
 20
-793.1736119206101
 30
0.0000000000000023
  9
$LIMMIN
 10
39.82907572724413
 20
-922.9081483588126
  9
$LIMMAX
 10
188.3290757272441
 20
-817.9081483588127
  9
$ORTHOMODE
 70
     0
  9
$REGENMODE
 70
     1
  9
$FILLMODE
 70
     1
  9
$QTEXTMODE
 70
     0
  9
$MIRRTEXT
 70
     1
  9
$LTSCALE
 40
1.0
  9
$ATTMODE
 70
     1
  9
$TEXTSIZE
 40
3.2
  9
$TRACEWID
 40
1.0
  9
$TEXTSTYLE
  7
STANDARD
  9
$CLAYER
  8
04
  9
$CELTYPE
  6
ByLayer
  9
$CECOLOR
 62
   256
  9
$CELTSCALE
 40
1.0
  9
$DISPSILH
 70
     0
  9
$DIMSCALE
 40
1.0
  9
$DIMASZ
 40
2.5
  9
$DIMEXO
 40
1.0
  9
$DIMDLI
 40
10.0
  9
$DIMRND
 40
0.0
  9
$DIMDLE
 40
0.0
  9
$DIMEXE
 40
1.0
  9
$DIMTP
 40
0.2
  9
$DIMTM
 40
0.0
  9
$DIMTXT
 40
3.5
  9
$DIMCEN
 40
0.0
  9
$DIMTSZ
 40
0.0
  9
$DIMTOL
 70
     0
  9
$DIMLIM
 70
     0
  9
$DIMTIH
 70
     0
  9
$DIMTOH
 70
     0
  9
$DIMSE1
 70
     0
  9
$DIMSE2
 70
     0
  9
$DIMTAD
 70
     1
  9
$DIMZIN
 70
     8
  9
$DIMBLK
  1

  9
$DIMASO
 70
     1
  9
$DIMSHO
 70
     1
  9
$DIMPOST
  1

  9
$DIMAPOST
  1
"
  9
$DIMALT
 70
     0
  9
$DIMALTD
 70
     2
  9
$DIMALTF
 40
0.0393701
  9
$DIMLFAC
 40
1.0
  9
$DIMTOFL
 70
     1
  9
$DIMTVP
 40
0.0
  9
$DIMTIX
 70
     0
  9
$DIMSOXD
 70
     0
  9
$DIMSAH
 70
     0
  9
$DIMBLK1
  1

  9
$DIMBLK2
  1

  9
$DIMSTYLE
  2
SYS
  9
$DIMCLRD
 70
   256
  9
$DIMCLRE
 70
   256
  9
$DIMCLRT
 70
     7
  9
$DIMTFAC
 40
0.71
  9
$DIMGAP
 40
1.5
  9
$DIMJUST
 70
     0
  9
$DIMSD1
 70
     0
  9
$DIMSD2
 70
     0
  9
$DIMTOLJ
 70
     0
  9
$DIMTZIN
 70
     8
  9
$DIMALTZ
 70
     0
  9
$DIMALTTZ
 70
     0
  9
$DIMUPT
 70
     0
  9
$DIMDEC
 70
     1
  9
$DIMTDEC
 70
     3
  9
$DIMALTU
 70
     2
  9
$DIMALTTD
 70
     4
  9
$DIMTXSTY
  7
STANDARD
  9
$DIMAUNIT
 70
     0
  9
$DIMADEC
 70
     0
  9
$DIMALTRND
 40
0.0
  9
$DIMAZIN
 70
     2
  9
$DIMDSEP
 70
    46
  9
$DIMATFIT
 70
     3
  9
$DIMFRAC
 70
     0
  9
$DIMLDRBLK
  1

  9
$DIMLUNIT
 70
     2
  9
$DIMLWD
 70
    -1
  9
$DIMLWE
 70
    -1
  9
$DIMTMOVE
 70
     0
  9
$LUNITS
 70
     2
  9
$LUPREC
 70
     2
  9
$SKETCHINC
 40
1.0
  9
$FILLETRAD
 40
0.5
  9
$AUNITS
 70
     0
  9
$AUPREC
 70
     0
  9
$MENU
  1
.
  9
$ELEVATION
 40
0.0
  9
$PELEVATION
 40
0.0
  9
$THICKNESS
 40
0.0
  9
$LIMCHECK
 70
     0
  9
$CHAMFERA
 40
1.0
  9
$CHAMFERB
 40
1.0
  9
$CHAMFERC
 40
20.0
  9
$CHAMFERD
 40
0.0
  9
$SKPOLY
 70
     0
  9
$TDCREATE
 40
2452002.615067627
  9
$TDUCREATE
 40
2452002.240067627
  9
$TDUPDATE
 40
2456654.430339074
  9
$TDUUPDATE
 40
2456654.055339074
  9
$TDINDWG
 40
14.7335267477
  9
$TDUSRTIMER
 40
14.7335267477
  9
$USRTIMER
 70
     1
  9
$ANGBASE
 50
0.0
  9
$ANGDIR
 70
     0
  9
$PDMODE
 70
     0
  9
$PDSIZE
 40
0.0
  9
$PLINEWID
 40
0.0
  9
$SPLFRAME
 70
     0
  9
$SPLINETYPE
 70
     6
  9
$SPLINESEGS
 70
     8
  9
$HANDSEED
  5
24909
  9
$SURFTAB1
 70
     6
  9
$SURFTAB2
 70
     6
  9
$SURFTYPE
 70
     6
  9
$SURFU
 70
     6
  9
$SURFV
 70
     6
  9
$UCSBASE
  2

  9
$UCSNAME
  2

  9
$UCSORG
 10
0.0
 20
0.0
 30
0.0
  9
$UCSXDIR
 10
1.0
 20
0.0
 30
0.0
  9
$UCSYDIR
 10
0.0
 20
1.0
 30
0.0
  9
$UCSORTHOREF
  2

  9
$UCSORTHOVIEW
 70
     0
  9
$UCSORGTOP
 10
0.0
 20
0.0
 30
0.0
  9
$UCSORGBOTTOM
 10
0.0
 20
0.0
 30
0.0
  9
$UCSORGLEFT
 10
0.0
 20
0.0
 30
0.0
  9
$UCSORGRIGHT
 10
0.0
 20
0.0
 30
0.0
  9
$UCSORGFRONT
 10
0.0
 20
0.0
 30
0.0
  9
$UCSORGBACK
 10
0.0
 20
0.0
 30
0.0
  9
$PUCSBASE
  2

  9
$PUCSNAME
  2

  9
$PUCSORG
 10
0.0
 20
0.0
 30
0.0
  9
$PUCSXDIR
 10
1.0
 20
0.0
 30
0.0
  9
$PUCSYDIR
 10
0.0
 20
1.0
 30
0.0
  9
$PUCSORTHOREF
  2

  9
$PUCSORTHOVIEW
 70
     0
  9
$PUCSORGTOP
 10
0.0
 20
0.0
 30
0.0
  9
$PUCSORGBOTTOM
 10
0.0
 20
0.0
 30
0.0
  9
$PUCSORGLEFT
 10
0.0
 20
0.0
 30
0.0
  9
$PUCSORGRIGHT
 10
0.0
 20
0.0
 30
0.0
  9
$PUCSORGFRONT
 10
0.0
 20
0.0
 30
0.0
  9
$PUCSORGBACK
 10
0.0
 20
0.0
 30
0.0
  9
$USERI1
 70
     0
  9
$USERI2
 70
     0
  9
$USERI3
 70
     0
  9
$USERI4
 70
     0
  9
$USERI5
 70
     0
  9
$USERR1
 40
0.0
  9
$USERR2
 40
0.0
  9
$USERR3
 40
0.0
  9
$USERR4
 40
0.0
  9
$USERR5
 40
0.0
  9
$WORLDVIEW
 70
     1
  9
$SHADEDGE
 70
     3
  9
$SHADEDIF
 70
    70
  9
$TILEMODE
 70
     1
  9
$MAXACTVP
 70
    64
  9
$PINSBASE
 10
0.0
 20
0.0
 30
0.0
  9
$PLIMCHECK
 70
     0
  9
$PEXTMIN
 10
1.000000000000000E+20
 20
1.000000000000000E+20
 30
1.000000000000000E+20
  9
$PEXTMAX
 10
-1.000000000000000E+20
 20
-1.000000000000000E+20
 30
-1.000000000000000E+20
  9
$PLIMMIN
 10
-3.17498779296875
 20
-3.174999952316284
  9
$PLIMMAX
 10
293.4970092773438
 20
206.692492723465
  9
$UNITMODE
 70
     0
  9
$VISRETAIN
 70
     1
  9
$PLINEGEN
 70
     0
  9
$PSLTSCALE
 70
     1
  9
$TREEDEPTH
 70
  3020
  9
$CMLSTYLE
  2
Standard
  9
$CMLJUST
 70
     0
  9
$CMLSCALE
 40
20.0
  9
$PROXYGRAPHICS
 70
     1
  9
$MEASUREMENT
 70
     1
  9
$CELWEIGHT
370
    -1
  9
$ENDCAPS
280
     0
  9
$JOINSTYLE
280
     0
  9
$LWDISPLAY
290
     1
  9
$INSUNITS
 70
     4
  9
$HYPERLINKBASE
  1

  9
$STYLESHEET
  1
monochrome.ctb
  9
$XEDIT
290
     1
  9
$CEPSNTYPE
380
     0
  9
$PSTYLEMODE
290
     1
  9
$FINGERPRINTGUID
  2
{83FB3AA1-FF18-4BFE-AFE0-611B71DE056D}
  9
$VERSIONGUID
  2
{EB1C006E-931A-4EAD-AB32-F23D9EA474E2}
  9
$EXTNAMES
290
     1
  9
$PSVPSCALE
 40
0.0
  9
$OLESTARTUP
290
     0
  0
ENDSEC
  0
SECTION
  2
CLASSES
  0
CLASS
  1
ACDBDICTIONARYWDFLT
  2
AcDbDictionaryWithDefault
  3
ObjectDBX Classes
 90
        0
280
     0
281
     0
  0
CLASS
  1
ACDBPLACEHOLDER
  2
AcDbPlaceHolder
  3
ObjectDBX Classes
 90
        0
280
     0
281
     0
  0
CLASS
  1
LAYOUT
  2
AcDbLayout
  3
ObjectDBX Classes
 90
        0
280
     0
281
     0
  0
CLASS
  1
AMGSETTINGSOBJ
  2
AmgSettingsObj
  3
"AcadM|Product Description: AutoCAD Mechanical|Company: Autodesk"
 90
        0
280
     0
281
     0
  0
CLASS
  1
ACME_DOCUMENT
  2
AcMeDbDoc
  3
AcMeServices
 90
        0
280
     0
281
     0
  0
CLASS
  1
ACMESCOPE
  2
AcMeScope
  3
AcMeServices
 90
        0
280
     0
281
     0
  0
CLASS
  1
ACMECOMMANDHISTORY
  2
AcMeCommandHistory
  3
AcMeServices
 90
        0
280
     0
281
     0
  0
CLASS
  1
DICTIONARYVAR
  2
AcDbDictionaryVar
  3
ObjectDBX Classes
 90
        0
280
     0
281
     0
  0
CLASS
  1
ACIMSYSVARMAN
  2
AcImSysVarManager
  3
AcMeServices
 90
        0
280
     0
281
     0
  0
CLASS
  1
ACIMREALSYSVAR
  2
AcImRealSysVar
  3
AcMeServices
 90
        0
280
     0
281
     0
  0
CLASS
  1
ACIMINTSYSVAR
  2
AcImIntSysVar
  3
AcMeServices
 90
        0
280
     0
281
     0
  0
CLASS
  1
ACMEDRAWINGMAN
  2
AcMeDrawingMan
  3
AcMeServices
 90
        0
280
     0
281
     0
  0
CLASS
  1
ACMEVIEW
  2
AcMeView
  3
AcMeServices
 90
        0
280
     0
281
     0
  0
CLASS
  1
ACDBENTITYCACHE
  2
AcMeEntityCache
  3
AcMeServices
 90
        0
280
     0
281
     0
  0
CLASS
  1
GSMANAGER
  2
AcMeGSManager
  3
AcMeServices
 90
        0
280
     0
281
     0
  0
CLASS
  1
AMDTINTERNALREACTOR
  2
AmdtInternalReactor
  3
AcMeServices
 90
        0
280
     0
281
     0
  0
CLASS
  1
ACMESTATEMGR
  2
AcMeStateMgr
  3
AcMeServices
 90
        0
280
     0
281
     0
  0
CLASS
  1
ACGREFMASTER
  2
AcGrefMaster
  3
AcAttribServices
 90
        0
280
     0
281
     0
  0
CLASS
  1
ACME_DATABASE
  2
AcMeDbDatabase
  3
AcMeServices
 90
        0
280
     0
281
     0
  0
CLASS
  1
ACRFINSADJUSTERMGR
  2
AcRfInsAdjusterMgr
  3
AcMeServices
 90
        0
280
     0
281
     0
  0
CLASS
  1
ACGREFACADMASTER
  2
AcGrefacadMaster
  3
AcGrefServices
 90
        0
280
     0
281
     0
  0
CLASS
  1
AMIMASTER
  2
AmiMaster
  3
AmiServices
 90
        0
280
     0
281
     0
  0
CLASS
  1
ACMDATADICTIONARY
  2
AcmDataDictionary
  3
"AcmSymBB|Product Description: AutoCAD Mechanical|Company: Autodesk"
 90
        0
280
     0
281
     0
  0
CLASS
  1
ACMDATAENTRYBLOCK
  2
AcmDataEntryBlock
  3
"AcmSymBB|Product Description: AutoCAD Mechanical|Company: Autodesk"
 90
        0
280
     0
281
     0
  0
CLASS
  1
ACIMSTRSYSVAR
  2
AcImStrSysVar
  3
AcMeServices
 90
        0
280
     0
281
     0
  0
CLASS
  1
ACMSTANDARDISO
  2
AcmStandardISO
  3
"Amdt_StdImp|Product Description: AutoCAD Mechanical|Company: Autodesk"
 90
        0
280
     0
281
     0
  0
CLASS
  1
AMGOBJPROPCFG
  2
AmgObjPropCfg
  3
"AmgLay|Product Description: AutoCAD Mechanical|Company: Autodesk"
 90
        1
280
     0
281
     0
  0
CLASS
  1
AMDTEDGESTANDARDISO
  2
AmdtEdgeStdISO
  3
"Amdt_StdImp|Product Description: AutoCAD Mechanical|Company: Autodesk"
 90
        0
280
     0
281
     0
  0
CLASS
  1
ACMSURFSTANDARDISO
  2
AcmSurfTextStdISO
  3
"Amdt_StdImp|Product Description: AutoCAD Mechanical|Company: Autodesk"
 90
        0
280
     0
281
     0
  0
CLASS
  1
ACMFCFSTANDARDISO
  2
AcmFCFStdISO
  3
"Amdt_StdImp|Product Description: AutoCAD Mechanical|Company: Autodesk"
 90
        0
280
     0
281
     0
  0
CLASS
  1
ACMWELDSTANDARDISO
  2
AcmWeldingStdISO
  3
"Amdt_StdImp|Product Description: AutoCAD Mechanical|Company: Autodesk"
 90
        0
280
     0
281
     0
  0
CLASS
  1
ACMIDSTANDARDISO
  2
AcmIdStdISO
  3
"Amdt_StdImp|Product Description: AutoCAD Mechanical|Company: Autodesk"
 90
        0
280
     0
281
     0
  0
CLASS
  1
ACMDATUMSTANDARDISO
  2
AcmDatumStdISO
  3
"Amdt_StdImp|Product Description: AutoCAD Mechanical|Company: Autodesk"
 90
        0
280
     0
281
     0
  0
CLASS
  1
ACMBOMSTANDARDISO
  2
AcmBOMStdISO
  3
"Amdt_StdImp|Product Description: AutoCAD Mechanical|Company: Autodesk"
 90
        0
280
     0
281
     0
  0
CLASS
  1
ACMDETAILSTANDARDISO
  2
AmdtDetailSymStdISO
  3
"Amdt_StdImp|Product Description: AutoCAD Mechanical|Company: Autodesk"
 90
        0
280
     0
281
     0
  0
CLASS
  1
ACMSECTIONSTANDARDISO
  2
AmdtSectionSymStdISO
  3
"Amdt_StdImp|Product Description: AutoCAD Mechanical|Company: Autodesk"
 90
        0
280
     0
281
     0
  0
CLASS
  1
ACMCENTERLINESTANDARDISO
  2
AmdtCenterLineStdISO
  3
"Amdt_StdImp|Product Description: AutoCAD Mechanical|Company: Autodesk"
 90
        0
280
     0
281
     0
  0
CLASS
  1
ACAMGLAYSTD
  2
AcAmgLayStd
  3
"AmgLay|Product Description: AutoCAD Mechanical|Company: Autodesk"
 90
        0
280
     0
281
     0
  0
CLASS
  1
ACAMGDIMSTD
  2
AcAmgDimStd
  3
"AmgDim|Product Description: AutoCAD Mechanical|Company: Autodesk"
 90
        0
280
     0
281
     0
  0
CLASS
  1
ACAMGTITLESTD
  2
AcAmgTitleStd
  3
"AmgTitle|Product Description: AutoCAD Mechanical|Company: Autodesk"
 90
        0
280
     0
281
     0
  0
CLASS
  1
ACAMGFILTERDAT
  2
AcAmgFilterDat
  3
"AcadM|Product Description: AutoCAD Mechanical|Company: Autodesk"
 90
        0
280
     0
281
     0
  0
CLASS
  1
LAYER_INDEX
  2
AcDbLayerIndex
  3
ObjectDBX Classes
 90
    32768
280
     0
281
     0
  0
CLASS
  1
IDBUFFER
  2
AcDbIdBuffer
  3
ObjectDBX Classes
 90
    32768
280
     0
281
     0
  0
CLASS
  1
PLOTSETTINGS
  2
AcDbPlotSettings
  3
ObjectDBX Classes
 90
        0
280
     0
281
     0
  0
CLASS
  1
AMDTFORMULAUPDATEDISPATCHER
  2
AmdtFormulaUpdateDispatcher
  3
AcMeServices
 90
        0
280
     0
281
     0
  0
CLASS
  1
ACMSTANDARDANSI
  2
AcmStandardANSI
  3
"Amdt_StdImp|Product Description: AutoCAD Mechanical|Company: Autodesk"
 90
        0
280
     0
281
     0
  0
CLASS
  1
ACMSURFSTANDARDANSI
  2
AcmSurfTextStdANSI
  3
"Amdt_StdImp|Product Description: AutoCAD Mechanical|Company: Autodesk"
 90
        0
280
     0
281
     0
  0
CLASS
  1
ACMFCFSTANDARDANSI
  2
AcmFCFStdANSI
  3
"Amdt_StdImp|Product Description: AutoCAD Mechanical|Company: Autodesk"
 90
        0
280
     0
281
     0
  0
CLASS
  1
ACMWELDSTANDARDANSI
  2
AcmWeldingStdANSI
  3
"Amdt_StdImp|Product Description: AutoCAD Mechanical|Company: Autodesk"
 90
        0
280
     0
281
     0
  0
CLASS
  1
ACMIDSTANDARDANSI
  2
AcmIdStdANSI
  3
"Amdt_StdImp|Product Description: AutoCAD Mechanical|Company: Autodesk"
 90
        0
280
     0
281
     0
  0
CLASS
  1
ACMDATUMSTANDARDANSI
  2
AcmDatumStdANSI
  3
"Amdt_StdImp|Product Description: AutoCAD Mechanical|Company: Autodesk"
 90
        0
280
     0
281
     0
  0
CLASS
  1
ACMBOMSTANDARDANSI
  2
AcmBOMStdANSI
  3
"Amdt_StdImp|Product Description: AutoCAD Mechanical|Company: Autodesk"
 90
        0
280
     0
281
     0
  0
CLASS
  1
ACMDETAILSTANDARDANSI
  2
AmdtDetailSymStdANSI
  3
"Amdt_StdImp|Product Description: AutoCAD Mechanical|Company: Autodesk"
 90
        0
280
     0
281
     0
  0
CLASS
  1
ACMSECTIONSTANDARDANSI
  2
AmdtSectionSymStdANSI
  3
"Amdt_StdImp|Product Description: AutoCAD Mechanical|Company: Autodesk"
 90
        0
280
     0
281
     0
  0
CLASS
  1
ACMCENTERLINESTANDARDANSI
  2
AmdtCenterLineStdANSI
  3
"Amdt_StdImp|Product Description: AutoCAD Mechanical|Company: Autodesk"
 90
        0
280
     0
281
     0
  0
CLASS
  1
ACMBOM
  2
AcmBom
  3
"AcmSymBB|Product Description: AutoCAD Mechanical|Company: Autodesk"
 90
        0
280
     0
281
     0
  0
CLASS
  1
ACMDATAENTRYPART
  2
AcmDataEntryPart
  3
"AcmSymBB|Product Description: AutoCAD Mechanical|Company: Autodesk"
 90
    32768
280
     0
281
     0
  0
CLASS
  1
ACMPARTREF
  2
AcmPartRef
  3
"AcmSymBB|Product Description: AutoCAD Mechanical|Company: Autodesk"
 90
    35839
280
     0
281
     1
  0
CLASS
  1
ACDBCIRCARCRES
  2
AcDbCircArcRes
  3
AcGrefServices
 90
        0
280
     0
281
     0
  0
CLASS
  1
ACMBOMROW
  2
AcmBomRow
  3
"AcmSymBB|Product Description: AutoCAD Mechanical|Company: Autodesk"
 90
    32768
280
     0
281
     0
  0
CLASS
  1
ACMBALLOON
  2
AcmBalloon
  3
"AcmSymBB|Product Description: AutoCAD Mechanical|Company: Autodesk"
 90
    35839
280
     0
281
     1
  0
CLASS
  1
AMDTNOTE
  2
AmdtNote
  3
"AcmSymBB|Product Description: AutoCAD Mechanical|Company: Autodesk"
 90
     3071
280
     0
281
     1
  0
CLASS
  1
STDPART2D
  2
AmgStdPart
  3
"g3vace|Class: AmgStdPart|Product Description: AutoCAD Mechanical|Company: Autodesk"
 90
    35839
280
     0
281
     1
  0
CLASS
  1
ACDBSTDPARTRES_LINE
  2
AcDbStdPartRes_Line
  3
"g3vace|Class: AcDbStdPartRes_Line|Product Description: AutoCAD Mechanical|Company: Autodesk"
 90
    32768
280
     0
281
     0
  0
CLASS
  1
ACMDATAENTRY
  2
AcmDataEntry
  3
"AcmSymBB|Product Description: AutoCAD Mechanical|Company: Autodesk"
 90
        0
280
     0
281
     0
  0
CLASS
  1
ACDBOPPOLYLINERES
  2
AcDbOpPolylineRes
  3
AcGrefServices
 90
    32768
280
     0
281
     0
  0
CLASS
  1
ACMPARTLIST
  2
AcmPartList
  3
"AcmSymBB|Product Description: AutoCAD Mechanical|Company: Autodesk"
 90
    35839
280
     0
281
     1
  0
CLASS
  1
ACDBLINERES
  2
AcDbLineRes
  3
AcGrefServices
 90
        0
280
     0
281
     0
  0
CLASS
  1
ACRFINSADJ
  2
AcRfInsAdjuster
  3
AcMeServices
 90
    32768
280
     0
281
     0
  0
CLASS
  1
AM_DRAWING_MGR
  2
AcDmDwgMgr
  3
AcMechDwgViewMgmt
 90
        0
280
     0
281
     0
  0
CLASS
  1
AM_DWG_DOCUMENT
  2
AcDmDwgDocument
  3
AcMechDwgViewMgmt
 90
        0
280
     0
281
     0
  0
CLASS
  1
AM_DWG_SHEET
  2
AcDmSheet
  3
AcMechDwgViewMgmt
 90
        0
280
     0
281
     0
  0
CLASS
  1
AM_VIEWDIMPARMAP
  2
AcDmViewDimParMap
  3
AcMechDwgViewMgmt
 90
        0
280
     0
281
     0
  0
CLASS
  1
AM_DWGMGR_NAME
  2
AcDmDwgMgrName
  3
AcMechDwgViewMgmt
 90
        0
280
     0
281
     0
  0
CLASS
  1
AMDTMENUSTATEMGR
  2
AmdtMenuStateMgr
  3
McadcomServices
 90
        0
280
     0
281
     0
  0
CLASS
  1
AMDTMCOMMENUSTATE
  2
AmdtMcomMenuState
  3
McadcomServices
 90
        0
280
     0
281
     0
  0
CLASS
  1
ASAPP
  2
AcAsAppObject
  3
AutoSurfServices
 90
        0
280
     0
281
     0
  0
CLASS
  1
IM_STATIC_MAN
  2
AcImStaticVarManager
  3
AcMeServices
 90
        0
280
     0
281
     0
  0
CLASS
  1
ACIMDBLSTATICVAR
  2
AcImDblStaticVar
  3
AcMeServices
 90
        0
280
     0
281
     0
  0
CLASS
  1
ACIMSTRSTATICVAR
  2
AcImStrStaticVar
  3
AcMeServices
 90
        0
280
     0
281
     0
  0
CLASS
  1
ACIMINTSTATICVAR
  2
AcImIntStaticVar
  3
AcMeServices
 90
        0
280
     0
281
     0
  0
CLASS
  1
ACASGREFMASTER
  2
AcAsGrefMaster
  3
AutoSurfResolverServices
 90
        0
280
     0
281
     0
  0
CLASS
  1
ACADGREFMODULE
  2
AcAdGrefModule
  3
AdGrefServices
 90
        0
280
     0
281
     0
  0
CLASS
  1
AMDTMAPISURFMOUDULE
  2
AmdtMApiSurfModule
  3
MApiSurfServices
 90
        0
280
     0
281
     0
  0
CLASS
  1
MAPIAMMOUDLE
  2
MApiAmModule
  3
MApiAmServices
 90
        0
280
     0
281
     0
  0
CLASS
  1
AMDTADMENUSTATE
  2
AmdtAdMenuState
  3
DesignerServices
 90
        0
280
     0
281
     0
  0
CLASS
  1
ADAPPL
  2
AcAdAppl
  3
DesignerServices
 90
        0
280
     0
281
     0
  0
CLASS
  1
DEPMGR
  2
AcAdDepMgr
  3
DesignerServices
 90
        0
280
     0
281
     0
  0
CLASS
  1
PARAMMGR
  2
AcAdParamMgr
  3
DesignerServices
 90
        0
280
     0
281
     0
  0
CLASS
  1
PARAMSCOPE
  2
AcAdParamScope
  3
DesignerServices
 90
        0
280
     0
281
     0
  0
CLASS
  1
NAMEDAPPL
  2
AcAdNamedAppl
  3
DesignerServices
 90
        0
280
     0
281
     0
  0
CLASS
  1
ADHNTMPLT
  2
AdHoleNoteTemplateMgr
  3
DesignerServices
 90
    32768
280
     0
281
     0
  0
CLASS
  1
AM_HNTEMPLATE_MGR_NAME
  2
AdHoleNoteTemplateMgrName
  3
DesignerServices
 90
    32768
280
     0
281
     0
  0
CLASS
  1
AMDTDMMENUSTATE
  2
AmdtDmMenuState
  3
AcMechDwgViewMgmt
 90
        0
280
     0
281
     0
  0
CLASS
  1
MAPIADMODULE
  2
MApiAdModule
  3
MApiAdServices
 90
        0
280
     0
281
     0
  0
CLASS
  1
AMDTAMMENUSTATE
  2
AmdtAmMenuState
  3
DesignerAssemblies
 90
        0
280
     0
281
     0
  0
CLASS
  1
ACAMPROJECT
  2
AcAmProject
  3
DesignerAssemblies
 90
        0
280
     0
281
     0
  0
CLASS
  1
ACAMGRCOMPDEF
  2
AcAmGrCompDef
  3
DesignerAssemblies
 90
        0
280
     0
281
     0
  0
CLASS
  1
ACCMCONTEXT
  2
AcCmContext
  3
DesignerAssemblies
 90
        0
280
     0
281
     0
  0
CLASS
  1
ACAMCOMPDEF
  2
AcAmCompDef
  3
DesignerAssemblies
 90
        0
280
     0
281
     0
  0
CLASS
  1
ACAMCOMPDEFMGR
  2
AcAmCompDefMgr
  3
DesignerAssemblies
 90
        0
280
     0
281
     0
  0
CLASS
  1
AMCONTEXTMGR
  2
AcAmContextMgr
  3
DesignerAssemblies
 90
        0
280
     0
281
     0
  0
CLASS
  1
ACAMCONTEXTMODELER
  2
AcAmContextModeler
  3
DesignerAssemblies
 90
        0
280
     0
281
     0
  0
CLASS
  1
CATALOGSTATE
  2
AcAmCatalogState
  3
DesignerAssemblies
 90
        0
280
     0
281
     0
  0
CLASS
  1
ACAMGRCOMPDEFSET
  2
AcAmGrCompDefSet
  3
DesignerAssemblies
 90
        0
280
     0
281
     0
  0
CLASS
  1
AMDTBROWSERDBTAB
  2
AmdtBrowserDbTab
  3
McadcomServices
 90
        0
280
     0
281
     0
  0
CLASS
  1
CBROWSERAPPOBJECT
  2
CBrowserAppObject
  3
McadcomServices
 90
        0
280
     0
281
     0
  0
CLASS
  1
DM_PLACEHOLDER
  2
AcDmSelsetPlaceholder
  3
AcMechDwgViewMgmt
 90
        0
280
     0
281
     0
  0
CLASS
  1
ACMPICKOBJ
  2
AcmPickEnt
  3
"AcmSymBB|Product Description: AutoCAD Mechanical|Company: Autodesk"
 90
    32768
280
     0
281
     1
  0
CLASS
  1
ACMTHREADLINESTANDARDISO
  2
AmdtThreadLineStdISO
  3
"Amdt_StdImp|Product Description: AutoCAD Mechanical|Company: Autodesk"
 90
        0
280
     0
281
     0
  0
CLASS
  1
ACMNOTESTANDARDISO
  2
AmdtNoteStdISO
  3
"Amdt_StdImp|Product Description: AutoCAD Mechanical|Company: Autodesk"
 90
        0
280
     0
281
     0
  0
CLASS
  1
AMDTNOTETEMPLATEDB
  2
AmdtNoteTemplateDB
  3
AMDT_STDIMP_MODULE_NAME
 90
        0
280
     0
281
     0
  0
CLASS
  1
ACMTHREADLINESTANDARDANSI
  2
AmdtThreadLineStdANSI
  3
"Amdt_StdImp|Product Description: AutoCAD Mechanical|Company: Autodesk"
 90
        0
280
     0
281
     0
  0
CLASS
  1
ACMNOTESTANDARDANSI
  2
AmdtNoteStdANSI
  3
"Amdt_StdImp|Product Description: AutoCAD Mechanical|Company: Autodesk"
 90
        0
280
     0
281
     0
  0
CLASS
  1
AMDTACMWBLOCKBOMENTITY
  2
AmdtAcmWblockBomEntity
  3
"AcmSymBB|Product Description: AutoCAD Mechanical|Company: Autodesk"
 90
     3071
280
     0
281
     1
  0
CLASS
  1
SORTENTSTABLE
  2
AcDbSortentsTable
  3
ObjectDBX Classes
 90
        0
280
     0
281
     0
  0
CLASS
  1
TABLESTYLE
  2
AcDbTableStyle
  3
ObjectDBX Classes
 90
     4095
280
     0
281
     0
  0
CLASS
  1
MATERIAL
  2
AcDbMaterial
  3
ObjectDBX Classes
 90
     1024
280
     0
281
     0
  0
CLASS
  1
VISUALSTYLE
  2
AcDbVisualStyle
  3
ObjectDBX Classes
 90
     4095
280
     0
281
     0
  0
CLASS
  1
ACRFATTGENMGR
  2
AcRfAttGeneralMgr
  3
AcAttribServices
 90
        0
280
     0
281
     0
  0
CLASS
  1
ACRFOBJATTMGR
  2
AcRfObjAttGroupMgr
  3
AcAttribServices
 90
        0
280
     0
281
     0
  0
CLASS
  1
ACRFMCADAPIATTHOLDER
  2
AcRfMCADAPIAttHolder
  3
AcAttribServices
 90
        0
280
     0
281
     0
  0
CLASS
  1
AMDTSYSATTR
  2
AmdtSystemAttribute
  3
AcAttribServices
 90
        0
280
     0
281
     0
  0
CLASS
  1
ACMTAPERSTANDARDISO
  2
AcmTaperStdISO
  3
"Amdt_StdImp|Product Description: AutoCAD Mechanical|Company: Autodesk"
 90
        0
280
     0
281
     0
  0
CLASS
  1
ACMTAPERSTANDARDANSI
  2
AcmTaperStdANSI
  3
"Amdt_StdImp|Product Description: AutoCAD Mechanical|Company: Autodesk"
 90
        0
280
     0
281
     0
  0
CLASS
  1
CAMSSTRUCTBTNSTATE
  2
StructBtnState
  3
L"DesignerAssemblies"
 90
        0
280
     0
281
     0
  0
CLASS
  1
DIMASSOC
  2
AcDbDimAssoc
  3
"AcDbDimAssoc|Product Desc:     AcDim ARX App For Dimension|Company:          Autodesk, Inc.|WEB Address:      www.autodesk.com"
 90
        0
280
     0
281
     0
  0
CLASS
  1
ADPART
  2
AcAdPart
  3
DesignerServices
 90
    32768
280
     0
281
     1
  0
CLASS
  1
ACAMCOMPENT
  2
AcAmCompEnt
  3
DesignerAssemblies
 90
    32768
280
     0
281
     1
  0
CLASS
  1
ACAMCOMPENTCLONE
  2
AcAmCompEntClone
  3
DesignerAssemblies
 90
    32768
280
     0
281
     1
  0
CLASS
  1
WORKPLANEDISPLAYMGR
  2
AcAdDisplayMgr
  3
DesignerServices
 90
        0
280
     0
281
     0
  0
CLASS
  1
PARAM
  2
AcAdParam
  3
DesignerServices
 90
    32768
280
     0
281
     0
  0
CLASS
  1
ADDATUMAXISABS
  2
AcAdDatumAxisAbs
  3
DesignerServices
 90
    32768
280
     0
281
     0
  0
CLASS
  1
ADDATUMPLANEABS
  2
AcAdDatumPlaneAbs
  3
DesignerServices
 90
    32768
280
     0
281
     0
  0
CLASS
  1
ADBASE
  2
AcAdBase
  3
DesignerServices
 90
    32768
280
     0
281
     0
  0
CLASS
  1
ADDATUMORIENTEDPLANE
  2
AcAdDatumOrientedPlane
  3
DesignerServices
 90
    32768
280
     0
281
     0
  0
CLASS
  1
BODYID
  2
AcAdBodyId
  3
DesignerServices
 90
    32768
280
     0
281
     0
  0
CLASS
  1
ACADCONSGROUP
  2
AcAdConstraintGroup
  3
DesignerServices
 90
    32768
280
     0
281
     0
  0
CLASS
  1
ACADREFLINEACAD
  2
AcAdVirtualReferenceLine
  3
DesignerServices
 90
    32768
280
     0
281
     0
  0
CLASS
  1
ACADCONSLINE
  2
AcAdConstrainedLine
  3
DesignerServices
 90
    32768
280
     0
281
     0
  0
CLASS
  1
ACADLINEACAD
  2
AcAdVirtualBoundedLineAcad
  3
DesignerServices
 90
    32768
280
     0
281
     0
  0
CLASS
  1
ACADCONSPOINT
  2
AcAdConstrainedPoint
  3
DesignerServices
 90
    32768
280
     0
281
     0
  0
CLASS
  1
ADPCURCNS
  2
AcAdPointCurveConstr
  3
DesignerServices
 90
    32768
280
     0
281
     0
  0
CLASS
  1
ADVERCNS
  2
AcAdVerticalConstr
  3
DesignerServices
 90
    32768
280
     0
281
     0
  0
CLASS
  1
ADHORCNS
  2
AcAdHorizontalConstr
  3
DesignerServices
 90
    32768
280
     0
281
     0
  0
CLASS
  1
ACADIMPPTACAD
  2
AcAdVirtualImplicitPoint
  3
DesignerServices
 90
    32768
280
     0
281
     0
  0
CLASS
  1
ADCLPROF2D
  2
AcAdClosedProfile2d
  3
DesignerServices
 90
    32768
280
     0
281
     0
  0
CLASS
  1
ACAD_FIXCONSTRAINT
  2
AcAdFixedConstraint
  3
DesignerServices
 90
    32768
280
     0
281
     0
  0
CLASS
  1
DEPEDGEFEATUREORDERING
  2
AcAdDepEdgeFeatureOrdering
  3
DesignerServices
 90
    32768
280
     0
281
     0
  0
CLASS
  1
ACADVOLFEATWITHTRIM
  2
AcAdVolFeatWithTrim
  3
DesignerServices
 90
    32768
280
     0
281
     0
  0
CLASS
  1
EDGEID
  2
AcAdEdgeId
  3
DesignerServices
 90
    32768
280
     0
281
     0
  0
CLASS
  1
ADFILLET
  2
AcAdFillet
  3
DesignerServices
 90
    32768
280
     0
281
     0
  0
CLASS
  1
SURFACE
  2
AcDbSurface
  3
ObjectDBX Classes
 90
    36863
280
     0
281
     1
  0
ENDSEC
  0
SECTION
  2
TABLES
  0
TABLE
  2
VPORT
  5
8
330
0
100
AcDbSymbolTable
 70
     1
  0
VPORT
  5
1105A
330
8
100
AcDbSymbolTableRecord
100
AcDbViewportTableRecord
  2
*Active
 70
     0
 10
0.0
 20
0.0
 11
1.0
 21
1.0
 12
728.4310387567622
 22
-941.6830831960119
 13
0.0
 23
0.0
 14
2.5
 24
2.5
 15
10.0
 25
10.0
 16
0.0
 26
0.0
 36
1.0
 17
0.0
 27
0.0
 37
0.0
 40
298.8901857082894
 41
1.611691022964509
 42
50.0
 43
-1370.695619172058
 44
-1370.695619172058
 50
0.0
 51
0.0
 71
    16
 72
   100
 73
     1
 74
     3
 75
     0
 76
     0
 77
     0
 78
     0
281
     0
 65
     0
110
0.0
120
0.0
130
0.0
111
1.0
121
0.0
131
0.0
112
0.0
122
1.0
132
0.0
 79
     0
146
0.0
  0
ENDTAB
  0
TABLE
  2
LTYPE
  5
5
330
0
100
AcDbSymbolTable
 70
    22
  0
LTYPE
  5
14
330
5
100
AcDbSymbolTableRecord
100
AcDbLinetypeTableRecord
  2
ByBlock
 70
     0
  3

 72
    65
 73
     0
 40
0.0
  0
LTYPE
  5
15
330
5
100
AcDbSymbolTableRecord
100
AcDbLinetypeTableRecord
  2
ByLayer
 70
     0
  3

 72
    65
 73
     0
 40
0.0
  0
LTYPE
  5
16
330
5
100
AcDbSymbolTableRecord
100
AcDbLinetypeTableRecord
  2
Continuous
 70
     0
  3
Solid line
 72
    65
 73
     0
 40
0.0
  0
LTYPE
  5
4F
330
5
100
AcDbSymbolTableRecord
100
AcDbLinetypeTableRecord
  2
AM_ISO02W050
 70
     0
  3
__ __ __ __ __ __ __ __ __ __ __ __ __ __ __
 72
    65
 73
     2
 40
7.5
 49
6.0
 74
     0
 49
-1.5
 74
     0
  0
LTYPE
  5
52
330
5
100
AcDbSymbolTableRecord
100
AcDbLinetypeTableRecord
  2
Amconstr
 70
     0
  3
_______________________
 72
    65
 73
     2
 40
9999.0
 49
9999.0
 74
     0
 49
0.0
 74
     0
  0
LTYPE
  5
64
330
5
100
AcDbSymbolTableRecord
100
AcDbLinetypeTableRecord
  2
ACISOWELD
 70
     0
  3
_ _ _ _ _
 72
    65
 73
     2
 40
2.0
 49
2.0
 74
     0
 49
-1.0
 74
     0
  0
LTYPE
  5
65
330
5
100
AcDbSymbolTableRecord
100
AcDbLinetypeTableRecord
  2
ACISOTGB
 70
     0
  3
__ . . __ . .
 72
    65
 73
     6
 40
9.0
 49
4.0
 74
     0
 49
-1.0
 74
     0
 49
1.0
 74
     0
 49
-1.0
 74
     0
 49
1.0
 74
     0
 49
-1.0
 74
     0
  0
LTYPE
  5
66
330
5
100
AcDbSymbolTableRecord
100
AcDbLinetypeTableRecord
  2
ACISOTGL
 70
     0
  3
_ _ _ _ _
 72
    65
 73
     2
 40
3.0
 49
2.0
 74
     0
 49
-1.0
 74
     0
  0
LTYPE
  5
69
330
5
100
AcDbSymbolTableRecord
100
AcDbLinetypeTableRecord
  2
CENTER
 70
     0
  3
__ . __
 72
    65
 73
     4
 40
7.0
 49
4.0
 74
     0
 49
-1.0
 74
     0
 49
1.0
 74
     0
 49
-1.0
 74
     0
  0
LTYPE
  5
A6E
330
5
100
AcDbSymbolTableRecord
100
AcDbLinetypeTableRecord
  2
PHANTOM2
 70
     0
  3
Phantom (.5x) ___ _ _ ___ _ _ ___ _ _ ___ _ _
 72
    65
 73
     6
 40
31.75
 49
15.875
 74
     0
 49
-3.174999999999999
 74
     0
 49
3.174999999999999
 74
     0
 49
-3.174999999999999
 74
     0
 49
3.174999999999999
 74
     0
 49
-3.174999999999999
 74
     0
  0
LTYPE
  5
FA3
330
5
100
AcDbSymbolTableRecord
100
AcDbLinetypeTableRecord
  2
ACANSTGB
 70
     0
  3
__ . . __ . .
 72
    65
 73
     6
 40
0.35433070866
 49
0.15748031496
 74
     0
 49
-0.03937007874
 74
     0
 49
0.03937007874
 74
     0
 49
-0.03937007874
 74
     0
 49
0.03937007874
 74
     0
 49
-0.03937007874
 74
     0
  0
LTYPE
  5
FA4
330
5
100
AcDbSymbolTableRecord
100
AcDbLinetypeTableRecord
  2
ACANSTGL
 70
     0
  3
_ _ _ _ _
 72
    65
 73
     2
 40
0.11811023622
 49
0.07874015748
 74
     0
 49
-0.03937007874
 74
     0
  0
LTYPE
  5
4DED
330
5
100
AcDbSymbolTableRecord
100
AcDbLinetypeTableRecord
  2
中線
 70
     0
  3
___________________
 72
    65
 73
     2
 40
2.0
 49
1.0
 74
     0
 49
1.0
 74
     0
  0
LTYPE
  5
4DF6
330
5
100
AcDbSymbolTableRecord
100
AcDbLinetypeTableRecord
  2
細線
 70
     0
  3
___________________
 72
    65
 73
     2
 40
2.0
 49
1.0
 74
     0
 49
1.0
 74
     0
  0
LTYPE
  5
4DF7
330
5
100
AcDbSymbolTableRecord
100
AcDbLinetypeTableRecord
  2
太線
 70
     0
  3
___________________
 72
    65
 73
     2
 40
2.0
 49
1.0
 74
     0
 49
1.0
 74
     0
  0
LTYPE
  5
4EA7
330
5
100
AcDbSymbolTableRecord
100
AcDbLinetypeTableRecord
  2
文字
 70
     0
  3
_________________
 72
    65
 73
     2
 40
2.0
 49
1.0
 74
     0
 49
1.0
 74
     0
  0
LTYPE
  5
4EA9
330
5
100
AcDbSymbolTableRecord
100
AcDbLinetypeTableRecord
  2
寸法線
 70
     0
  3
________________
 72
    65
 73
     2
 40
2.0
 49
1.0
 74
     0
 49
1.0
 74
     0
  0
LTYPE
  5
4F12
330
5
100
AcDbSymbolTableRecord
100
AcDbLinetypeTableRecord
  2
ハッチング
 70
     0
  3
_________________
 72
    65
 73
     2
 40
2.0
 49
1.0
 74
     0
 49
1.0
 74
     0
  0
LTYPE
  5
5180
330
5
100
AcDbSymbolTableRecord
100
AcDbLinetypeTableRecord
  2
陰線1
 70
     0
  3
__ __ __ __
 72
    65
 73
     2
 40
4.0
 49
2.2
 74
     0
 49
-1.8
 74
     0
  0
LTYPE
  5
5182
330
5
100
AcDbSymbolTableRecord
100
AcDbLinetypeTableRecord
  2
切断線
 70
     0
  3
/\/-/\/-/\/-/\/-/\/-/\/
 72
    65
 73
     2
 40
11.0001
 49
0.0001
 74
     4
 75
   135
340
56
 46
0.04
 50
0.0
 44
0.0
 45
0.0
 49
-11.0
 74
     0
  0
LTYPE
  5
5183
330
5
100
AcDbSymbolTableRecord
100
AcDbLinetypeTableRecord
  2
想像線1
 70
     0
  3
__ __ __ _____ __ __ ____
 72
    65
 73
     6
 40
14.5
 49
6.0
 74
     0
 49
-1.5
 74
     0
 49
2.0
 74
     0
 49
-1.5
 74
     0
 49
2.0
 74
     0
 49
-1.5
 74
     0
  0
LTYPE
  5
5185
330
5
100
AcDbSymbolTableRecord
100
AcDbLinetypeTableRecord
  2
中心線1
 70
     0
  3
___ _ ___ _ ___
 72
    65
 73
     4
 40
18.0
 49
12.0
 74
     0
 49
-2.0
 74
     0
 49
2.0
 74
     0
 49
-2.0
 74
     0
  0
LTYPE
  5
5188
330
5
100
AcDbSymbolTableRecord
100
AcDbLinetypeTableRecord
  2
補助線
 70
     0
  3
______________
 72
    65
 73
     2
 40
2.0
 49
1.0
 74
     0
 49
1.0
 74
     0
  0
LTYPE
  5
C477
330
5
100
AcDbSymbolTableRecord
100
AcDbLinetypeTableRecord
  2
HIDDEN
 70
     0
  3
Hidden __ __ __ __ __ __ __ __ __ __ __ __ __ _
 72
    65
 73
     2
 40
9.524999999999998
 49
6.349999999999999
 74
     0
 49
-3.174999999999999
 74
     0
  0
ENDTAB
  0
TABLE
  2
LAYER
  5
2
102
{ACAD_XDICTIONARY
360
3F95
102
}
330
0
100
AcDbSymbolTable
 70
    11
  0
LAYER
  5
10
330
2
100
AcDbSymbolTableRecord
100
AcDbLayerTableRecord
  2
0
 70
     0
 62
     7
  6
Continuous
370
    -3
390
F
  0
LAYER
  5
6D1
330
2
100
AcDbSymbolTableRecord
100
AcDbLayerTableRecord
  2
Defpoints
 70
     0
 62
     7
  6
Continuous
290
     0
370
    -3
390
F
  0
LAYER
  5
A46
330
2
100
AcDbSymbolTableRecord
100
AcDbLayerTableRecord
  2
size
 70
     0
 62
     5
  6
Continuous
290
     0
370
    30
390
F
  0
LAYER
  5
A47
330
2
100
AcDbSymbolTableRecord
100
AcDbLayerTableRecord
  2
waku
 70
     0
 62
     7
  6
Continuous
370
    40
390
F
  0
LAYER
  5
A48
330
2
100
AcDbSymbolTableRecord
100
AcDbLayerTableRecord
  2
AM_6
 70
     0
 62
     2
  6
文字
370
    20
390
F
  0
LAYER
  5
5F85
330
2
100
AcDbSymbolTableRecord
100
AcDbLayerTableRecord
  2
AM_0
 70
     0
 62
     7
  6
中線
370
    30
390
F
  0
LAYER
  5
5F89
330
2
100
AcDbSymbolTableRecord
100
AcDbLayerTableRecord
  2
AM_4
 70
     0
 62
     3
  6
補助線
370
    20
390
F
  0
LAYER
  5
BFAB
330
2
100
AcDbSymbolTableRecord
100
AcDbLayerTableRecord
  2
AM_5
 70
     0
 62
     3
  6
寸法線
370
    18
390
F
  0
LAYER
  5
1CD73
330
2
100
AcDbSymbolTableRecord
100
AcDbLayerTableRecord
  2
04
 70
     0
 62
    52
  6
中線
370
    30
390
F
1001
AcAecLayerStandard
1000

1000

  0
LAYER
  5
1D925
330
2
100
AcDbSymbolTableRecord
100
AcDbLayerTableRecord
  2
0部品1
 70
     0
 62
   213
  6
細線
370
    30
390
F
1001
AcAecLayerStandard
1000

1000

  0
LAYER
  5
24580
330
2
100
AcDbSymbolTableRecord
100
AcDbLayerTableRecord
  2
AM_CL
 70
     0
 62
     1
  6
Amconstr
370
    20
390
F
1001
AcAecLayerStandard
1000

1000

  0
ENDTAB
  0
TABLE
  2
STYLE
  5
3
330
0
100
AcDbSymbolTable
 70
     7
  0
STYLE
  5
11
330
3
100
AcDbSymbolTableRecord
100
AcDbTextStyleTableRecord
  2
STANDARD
 70
     0
 40
0.0
 41
0.7
 50
0.0
 71
     0
 42
3.2
  3
romans.shx
  4
extfont.shx
  0
STYLE
  5
56
330
3
100
AcDbSymbolTableRecord
100
AcDbTextStyleTableRecord
  2

 70
     1
 40
0.0
 41
1.0
 50
0.0
 71
     0
 42
2.5
  3
ltypeshp.shx
  4

  0
STYLE
  5
58
330
3
100
AcDbSymbolTableRecord
100
AcDbTextStyleTableRecord
  2
ACISOTS
 70
     0
 40
1.0
 41
1.0
 50
0.0
 71
     0
 42
2.5
  3
isocp.shx
  4
extfont.shx
  0
STYLE
  5
63
330
3
100
AcDbSymbolTableRecord
100
AcDbTextStyleTableRecord
  2
ACISOGDT
 70
     0
 40
0.0
 41
1.0
 50
0.0
 71
     0
 42
2.5
  3
amgdt.shx
  4

  0
STYLE
  5
A74
330
3
100
AcDbSymbolTableRecord
100
AcDbTextStyleTableRecord
  2
DIM
 70
     0
 40
0.0
 41
1.0
 50
0.0
 71
     0
 42
2.5
  3
monotxt.shx
  4
extfont.shx
  0
STYLE
  5
FA7
330
3
100
AcDbSymbolTableRecord
100
AcDbTextStyleTableRecord
  2
ACANSTS
 70
     0
 40
1.0
 41
1.0
 50
0.0
 71
     0
 42
0.2
  3
romans.shx
  4
extfont.shx
  0
STYLE
  5
FA8
330
3
100
AcDbSymbolTableRecord
100
AcDbTextStyleTableRecord
  2
ACANSGDT
 70
     0
 40
0.0
 41
1.0
 50
0.0
 71
     0
 42
0.2
  3
amgdtans.shx
  4

  0
ENDTAB
  0
TABLE
  2
VIEW
  5
6
330
0
100
AcDbSymbolTable
 70
     6
  0
VIEW
  5
AE1
330
6
100
AcDbSymbolTableRecord
100
AcDbViewTableRecord
  2
AM_VIEW1
 70
     0
 40
58.59442169907879
 10
76.95407572724413
 20
-847.205359208352
 41
74.25
 11
0.0
 21
0.0
 31
1.0
 12
0.0
 22
0.0
 32
0.0
 42
50.0
 43
-1370.695619172058
 44
-1370.695619172058
 50
0.0
 71
    16
281
     0
 72
     0
  0
VIEW
  5
AE2
330
6
100
AcDbSymbolTableRecord
100
AcDbViewTableRecord
  2
AM_VIEW2
 70
     0
 40
58.59442169907879
 10
151.2040757272441
 20
-847.205359208352
 41
74.25
 11
0.0
 21
0.0
 31
1.0
 12
0.0
 22
0.0
 32
0.0
 42
50.0
 43
-1370.695619172058
 44
-1370.695619172058
 50
0.0
 71
    16
281
     0
 72
     0
  0
VIEW
  5
AE3
330
6
100
AcDbSymbolTableRecord
100
AcDbViewTableRecord
  2
AM_VIEW3
 70
     0
 40
58.59442169907879
 10
76.95407572724413
 20
-893.6109375092733
 41
74.25
 11
0.0
 21
0.0
 31
1.0
 12
0.0
 22
0.0
 32
0.0
 42
50.0
 43
-1370.695619172058
 44
-1370.695619172058
 50
0.0
 71
    16
281
     0
 72
     0
  0
VIEW
  5
AE4
330
6
100
AcDbSymbolTableRecord
100
AcDbViewTableRecord
  2
AM_VIEW4
 70
     0
 40
58.59442169907879
 10
151.2040757272441
 20
-893.6109375092733
 41
74.25
 11
0.0
 21
0.0
 31
1.0
 12
0.0
 22
0.0
 32
0.0
 42
50.0
 43
-1370.695619172058
 44
-1370.695619172058
 50
0.0
 71
    16
281
     0
 72
     0
  0
VIEW
  5
AE5
330
6
100
AcDbSymbolTableRecord
100
AcDbViewTableRecord
  2
AM_VIEW5
 70
     0
 40
58.59442169907879
 10
114.0790757272441
 20
-870.4081483588126
 41
74.24999999999998
 11
0.0
 21
0.0
 31
1.0
 12
0.0
 22
0.0
 32
0.0
 42
50.0
 43
-1370.695619172058
 44
-1370.695619172058
 50
0.0
 71
    16
281
     0
 72
     0
  0
VIEW
  5
AE6
330
6
100
AcDbSymbolTableRecord
100
AcDbViewTableRecord
  2
AM_VIEW6
 70
     0
 40
117.1876715097237
 10
114.0790757272441
 20
-870.4081483588126
 41
148.498515
 11
0.0
 21
0.0
 31
1.0
 12
0.0
 22
0.0
 32
0.0
 42
50.0
 43
-1370.695619172058
 44
-1370.695619172058
 50
0.0
 71
    16
281
     0
 72
     0
  0
ENDTAB
  0
TABLE
  2
UCS
  5
7
330
0
100
AcDbSymbolTable
 70
     0
  0
ENDTAB
  0
TABLE
  2
APPID
  5
9
330
0
100
AcDbSymbolTable
 70
    59
  0
APPID
  5
12
330
9
100
AcDbSymbolTableRecord
100
AcDbRegAppTableRecord
  2
ACAD
 70
     0
  0
APPID
  5
30
330
9
100
AcDbSymbolTableRecord
100
AcDbRegAppTableRecord
  2
MCAD_NO_VIS
 70
     0
  0
APPID
  5
31
330
9
100
AcDbSymbolTableRecord
100
AcDbRegAppTableRecord
  2
ACAD_TEMP_GRAPHIC
 70
     0
  0
APPID
  5
44
330
9
100
AcDbSymbolTableRecord
100
AcDbRegAppTableRecord
  2
ACATTRIBSERVICES
 70
     0
  0
APPID
  5
7A1
330
9
100
AcDbSymbolTableRecord
100
AcDbRegAppTableRecord
  2
GENIUS_GENDIMSH_14
 70
     0
  0
APPID
  5
A49
330
9
100
AcDbSymbolTableRecord
100
AcDbRegAppTableRecord
  2
GENIUS_GENREC_14
 70
     0
  0
APPID
  5
A4A
330
9
100
AcDbSymbolTableRecord
100
AcDbRegAppTableRecord
  2
GENIUS_GENOBJ-N-REC_13
 70
     0
  0
APPID
  5
A4B
330
9
100
AcDbSymbolTableRecord
100
AcDbRegAppTableRecord
  2
GENIUS_GENODEF_13
 70
     0
  0
APPID
  5
A4C
330
9
100
AcDbSymbolTableRecord
100
AcDbRegAppTableRecord
  2
DCO15
 70
     0
  0
APPID
  5
ADC
330
9
100
AcDbSymbolTableRecord
100
AcDbRegAppTableRecord
  2
GENIUS_GENOLIS_13
 70
     0
  0
APPID
  5
ADD
330
9
100
AcDbSymbolTableRecord
100
AcDbRegAppTableRecord
  2
GENIUS_GENOENT_13
 70
     0
  0
APPID
  5
ADE
330
9
100
AcDbSymbolTableRecord
100
AcDbRegAppTableRecord
  2
GENIUS_GENOBJ-N-TIT_13
 70
     0
  0
APPID
  5
ADF
330
9
100
AcDbSymbolTableRecord
100
AcDbRegAppTableRecord
  2
GENIUS_GENTITLE_13
 70
     0
  0
APPID
  5
AE0
330
9
100
AcDbSymbolTableRecord
100
AcDbRegAppTableRecord
  2
GENIUS_GENOREF_13
 70
     0
  0
APPID
  5
AE7
330
9
100
AcDbSymbolTableRecord
100
AcDbRegAppTableRecord
  2
GENIUS_GENSCREG_15
 70
     0
  0
APPID
  5
AE8
330
9
100
AcDbSymbolTableRecord
100
AcDbRegAppTableRecord
  2
GENIUS_GENOBJ-N-SDF_13
 70
     0
  0
APPID
  5
FAF
330
9
100
AcDbSymbolTableRecord
100
AcDbRegAppTableRecord
  2
GENIUS_GENBLLY_14
 70
     0
  0
APPID
  5
FB0
330
9
100
AcDbSymbolTableRecord
100
AcDbRegAppTableRecord
  2
GENIUS_GENTRA_14
 70
     0
  0
APPID
  5
1285
330
9
100
AcDbSymbolTableRecord
100
AcDbRegAppTableRecord
  2
GENIUS_GENDTOL_13
 70
     0
  0
APPID
  5
142D
330
9
100
AcDbSymbolTableRecord
100
AcDbRegAppTableRecord
  2
GENIUS_GENOBJ-N-CEN_13
 70
     0
  0
APPID
  5
1AB5
330
9
100
AcDbSymbolTableRecord
100
AcDbRegAppTableRecord
  2
GENIUS_GENOBJ-N-CRS_13
 70
     0
  0
APPID
  5
1B36
330
9
100
AcDbSymbolTableRecord
100
AcDbRegAppTableRecord
  2
GENIUS_GENOBJ-N-HTC_13
 70
     0
  0
APPID
  5
1B37
330
9
100
AcDbSymbolTableRecord
100
AcDbRegAppTableRecord
  2
GENIUS_GENHATCH_13
 70
     0
  0
APPID
  5
216D
330
9
100
AcDbSymbolTableRecord
100
AcDbRegAppTableRecord
  2
GENIUS_GENOBJ-N-FIL_13
 70
     0
  0
APPID
  5
2356
330
9
100
AcDbSymbolTableRecord
100
AcDbRegAppTableRecord
  2
GEVID990412420
 70
     0
  0
APPID
  5
2357
330
9
100
AcDbSymbolTableRecord
100
AcDbRegAppTableRecord
  2
GEVDC
 70
     0
  0
APPID
  5
2358
330
9
100
AcDbSymbolTableRecord
100
AcDbRegAppTableRecord
  2
GEVCON
 70
     0
  0
APPID
  5
235B
330
9
100
AcDbSymbolTableRecord
100
AcDbRegAppTableRecord
  2
GEVRADREF
 70
     0
  0
APPID
  5
2360
330
9
100
AcDbSymbolTableRecord
100
AcDbRegAppTableRecord
  2
GENIUS_GENBH_13
 70
     0
  0
APPID
  5
2362
330
9
100
AcDbSymbolTableRecord
100
AcDbRegAppTableRecord
  2
GENIUS_GENOBJ-NBEHI-BHF_13
 70
     0
  0
APPID
  5
2364
330
9
100
AcDbSymbolTableRecord
100
AcDbRegAppTableRecord
  2
GENIUS_GENOBJ-NBEHI-BHB_13
 70
     0
  0
APPID
  5
2379
330
9
100
AcDbSymbolTableRecord
100
AcDbRegAppTableRecord
  2
GENIUS_GENOBJ-F-SCPASSM_13
 70
     0
  0
APPID
  5
3D74
330
9
100
AcDbSymbolTableRecord
100
AcDbRegAppTableRecord
  2
GENIUS_GENDIM_13
 70
     0
  0
APPID
  5
3D76
330
9
100
AcDbSymbolTableRecord
100
AcDbRegAppTableRecord
  2
GENIUS_GE3DTOL_13
 70
     0
  0
APPID
  5
3D9C
330
9
100
AcDbSymbolTableRecord
100
AcDbRegAppTableRecord
  2
AD_DRAW
 70
     0
  0
APPID
  5
3DE8
330
9
100
AcDbSymbolTableRecord
100
AcDbRegAppTableRecord
  2
ASURF_PCURVE_APPNAME
 70
     0
  0
APPID
  5
3DED
330
9
100
AcDbSymbolTableRecord
100
AcDbRegAppTableRecord
  2
AMG_3D2D_5.0
 70
     0
  0
APPID
  5
3E1B
330
9
100
AcDbSymbolTableRecord
100
AcDbRegAppTableRecord
  2
DESIGNERASSEMBLIES
 70
     0
  0
APPID
  5
3E20
330
9
100
AcDbSymbolTableRecord
100
AcDbRegAppTableRecord
  2
ACADM_DIM_EDIT
 70
     0
  0
APPID
  5
3E21
330
9
100
AcDbSymbolTableRecord
100
AcDbRegAppTableRecord
  2
AMDT_DM_ADJ
 70
     0
  0
APPID
  5
4143
330
9
100
AcDbSymbolTableRecord
100
AcDbRegAppTableRecord
  2
GENIUS_GENFIL_13
 70
     0
  0
APPID
  5
4144
330
9
100
AcDbSymbolTableRecord
100
AcDbRegAppTableRecord
  2
GENIUS_GENOBJ-N-CHA_13
 70
     0
  0
APPID
  5
4E17
330
9
100
AcDbSymbolTableRecord
100
AcDbRegAppTableRecord
  2
GEVID1008153417
 70
     0
  0
APPID
  5
4E58
330
9
100
AcDbSymbolTableRecord
100
AcDbRegAppTableRecord
  2
GEVID1008153418
 70
     0
  0
APPID
  5
4E5E
330
9
100
AcDbSymbolTableRecord
100
AcDbRegAppTableRecord
  2
GEVID1008153419
 70
     0
  0
APPID
  5
4E64
330
9
100
AcDbSymbolTableRecord
100
AcDbRegAppTableRecord
  2
GEVID1008153420
 70
     0
  0
APPID
  5
4E75
330
9
100
AcDbSymbolTableRecord
100
AcDbRegAppTableRecord
  2
GEVID1008153421
 70
     0
  0
APPID
  5
4EB7
330
9
100
AcDbSymbolTableRecord
100
AcDbRegAppTableRecord
  2
GENIUS_AMGTXT_16
 70
     0
  0
APPID
  5
7645
330
9
100
AcDbSymbolTableRecord
100
AcDbRegAppTableRecord
  2
GENIUS_GENOBJ-N-DIM_13
 70
     0
  0
APPID
  5
EA01
330
9
100
AcDbSymbolTableRecord
100
AcDbRegAppTableRecord
  2
ACAD_DSTYLE_DIMARC_LENGTH_SYMBOL
 70
     0
  0
APPID
  5
EA02
330
9
100
AcDbSymbolTableRecord
100
AcDbRegAppTableRecord
  2
ACAD_DSTYLE_DIMJOGGED_JOGANGLE_SYMBOL
 70
     0
  0
APPID
  5
EA03
330
9
100
AcDbSymbolTableRecord
100
AcDbRegAppTableRecord
  2
ACAD_PSEXT
 70
     0
  0
APPID
  5
EA04
330
9
100
AcDbSymbolTableRecord
100
AcDbRegAppTableRecord
  2
GENIUS_GENCEN_19
 70
     0
  0
APPID
  5
F4EB
330
9
100
AcDbSymbolTableRecord
100
AcDbRegAppTableRecord
  2
GENIUS_GENOBJ-N-ZOO_13
 70
     0
  0
APPID
  5
F4EC
330
9
100
AcDbSymbolTableRecord
100
AcDbRegAppTableRecord
  2
GENIUS_GENZOO_17
 70
     0
  0
APPID
  5
10C8E
330
9
100
AcDbSymbolTableRecord
100
AcDbRegAppTableRecord
  2
ACAD_EXEMPT_FROM_CAD_STANDARDS
 70
     0
  0
APPID
  5
1115E
330
9
100
AcDbSymbolTableRecord
100
AcDbRegAppTableRecord
  2
AcAecLayerStandard
 70
     0
  0
APPID
  5
155F1
330
9
100
AcDbSymbolTableRecord
100
AcDbRegAppTableRecord
  2
GEVID1183116424
 70
     0
  0
APPID
  5
1562A
330
9
100
AcDbSymbolTableRecord
100
AcDbRegAppTableRecord
  2
GEVID1183116425
 70
     0
  0
ENDTAB
  0
TABLE
  2
DIMSTYLE
  5
A
330
0
100
AcDbSymbolTable
 70
    25
100
AcDbDimStyleTable
 71
     3
340
2515
340
6C
340
FA9
  0
DIMSTYLE
105
6C
330
A
100
AcDbSymbolTableRecord
100
AcDbDimStyleTableRecord
  2
AM_ISO
 70
     0
  4
"
 41
2.5
 42
1.0
 43
10.0
 44
1.0
 47
0.1
 48
0.1
 73
     0
 74
     0
 77
     1
 78
     8
 79
     2
140
3.5
141
0.0
143
0.0393701
146
0.71
147
1.5
172
     1
176
   256
177
   256
178
     2
271
     2
272
     3
274
     4
283
     0
284
     8
340
11
371
    -1
372
    -1
1001
ACAD_DSTYLE_DIMJOGGED_JOGANGLE_SYMBOL
1070
   384
1040
0.7853981633974483
1001
ACAD_DSTYLE_DIMARC_LENGTH_SYMBOL
1070
   379
1070
     1
  0
DIMSTYLE
105
6D
330
A
100
AcDbSymbolTableRecord
100
AcDbDimStyleTableRecord
  2
AM_ISO$3
 70
     0
  4
"
 41
0.8
 42
1.0
 43
10.0
 44
1.0
 47
0.1
 48
0.1
 73
     0
 77
     1
 78
     8
 79
     2
140
3.2
141
0.0
143
0.0393701
146
0.71
147
0.9999999999999996
176
   256
177
   256
178
     2
271
     2
272
     2
283
     0
284
     8
288
     1
289
     0
340
11
342
6C4
371
    -1
372
    -1
1001
ACAD_DSTYLE_DIMJOGGED_JOGANGLE_SYMBOL
1070
   384
1040
0.7853981633974483
1001
ACAD_DSTYLE_DIMARC_LENGTH_SYMBOL
1070
   379
1070
     1
  0
DIMSTYLE
105
6E
330
A
100
AcDbSymbolTableRecord
100
AcDbDimStyleTableRecord
  2
AM_ISO$4
 70
     0
  4
"
 41
0.8
 42
1.0
 43
10.0
 44
1.0
 47
0.1
 48
0.1
 73
     0
 77
     1
 78
     8
 79
     2
140
3.2
141
0.0
143
0.0393701
146
0.71
147
1.0
173
     1
176
   256
177
   256
178
     2
271
     2
272
     2
283
     0
284
     8
288
     1
289
     0
340
11
344
6C4
371
    -1
372
    -1
1001
ACAD_DSTYLE_DIMJOGGED_JOGANGLE_SYMBOL
1070
   384
1040
0.7853981633974483
1001
ACAD_DSTYLE_DIMARC_LENGTH_SYMBOL
1070
   379
1070
     1
  0
DIMSTYLE
105
6F
330
A
100
AcDbSymbolTableRecord
100
AcDbDimStyleTableRecord
  2
AM_ISO$6
 70
     0
  4
"
 41
0.8
 42
1.0
 43
10.0
 44
1.0
 47
0.1
 48
0.1
 73
     0
 74
     0
 78
     8
 79
     2
140
3.2
141
0.0
143
0.0393701
146
0.71
147
1.0
172
     1
176
   256
177
   256
178
     2
271
     2
272
     2
283
     0
284
     8
340
11
341
6C4
371
    -1
372
    -1
1001
ACAD_DSTYLE_DIMJOGGED_JOGANGLE_SYMBOL
1070
   384
1040
0.7853981633974483
1001
ACAD_DSTYLE_DIMARC_LENGTH_SYMBOL
1070
   379
1070
     1
  0
DIMSTYLE
105
70
330
A
100
AcDbSymbolTableRecord
100
AcDbDimStyleTableRecord
  2
AM_ISO$7
 70
     0
  4
"
 41
0.8
 42
1.0
 43
10.0
 44
1.0
 47
0.1
 48
0.1
 73
     0
 74
     0
 77
     1
 78
     8
 79
     2
140
3.2
141
0.0
143
0.0393701
146
0.71
147
1.0
172
     1
176
   256
177
   256
178
     2
271
     2
272
     2
283
     0
284
     8
340
11
341
6C4
342
6C4
371
    -1
372
    -1
1001
ACAD_DSTYLE_DIMJOGGED_JOGANGLE_SYMBOL
1070
   384
1040
0.7853981633974483
1001
ACAD_DSTYLE_DIMARC_LENGTH_SYMBOL
1070
   379
1070
     1
  0
DIMSTYLE
105
71
330
A
100
AcDbSymbolTableRecord
100
AcDbDimStyleTableRecord
  2
AM_ISO$SF
 70
     0
  4
"
 41
0.8
 42
1.0
 43
10.0
 44
1.0
 47
0.1
 48
0.1
 73
     0
 74
     0
 75
     1
 76
     1
 77
     1
 78
     8
 79
     2
140
3.2
141
0.0
143
0.0393701
146
0.71
147
1.0
172
     1
176
   256
177
   256
178
     2
271
     2
272
     2
283
     0
284
     8
340
11
341
6C4
342
6C4
371
    -1
372
    -1
1001
ACAD_DSTYLE_DIMJOGGED_JOGANGLE_SYMBOL
1070
   384
1040
0.7853981633974483
1001
ACAD_DSTYLE_DIMARC_LENGTH_SYMBOL
1070
   379
1070
     1
  0
DIMSTYLE
105
76
330
A
100
AcDbSymbolTableRecord
100
AcDbDimStyleTableRecord
  2
AM_ISO$SH
 70
     0
  4
"
 41
0.8
 42
1.0
 43
10.0
 44
1.0
 47
0.1
 48
0.1
 73
     0
 74
     0
 75
     1
 76
     1
 77
     1
 78
     8
 79
     2
140
3.2
141
0.0
143
0.0393701
144
2.0
146
0.71
147
1.0
172
     1
176
   256
177
   256
178
     2
271
     2
272
     2
283
     0
284
     8
340
11
341
6C4
342
6C4
371
    -1
372
    -1
1001
ACAD_DSTYLE_DIMJOGGED_JOGANGLE_SYMBOL
1070
   384
1040
0.7853981633974483
1001
ACAD_DSTYLE_DIMARC_LENGTH_SYMBOL
1070
   379
1070
     1
  0
DIMSTYLE
105
6BE
330
A
100
AcDbSymbolTableRecord
100
AcDbDimStyleTableRecord
  2
AM_ISO$0
 70
     0
  4
"
 41
0.8
 42
1.0
 43
10.0
 44
1.0
 47
0.1
 48
0.1
 73
     0
 74
     0
 77
     1
 78
     8
 79
     2
140
3.2
141
0.0
143
0.0393701
146
0.71
147
0.9999999999999996
172
     1
176
   256
177
   256
178
     2
271
     2
272
     2
283
     0
284
     8
340
11
341
6C4
342
6C4
371
    -1
372
    -1
1001
ACAD_DSTYLE_DIMJOGGED_JOGANGLE_SYMBOL
1070
   384
1040
0.7853981633974483
1001
ACAD_DSTYLE_DIMARC_LENGTH_SYMBOL
1070
   379
1070
     1
  0
DIMSTYLE
105
6BF
330
A
100
AcDbSymbolTableRecord
100
AcDbDimStyleTableRecord
  2
AM_ISO$2
 70
     0
  4
"
 41
0.8
 42
1.0
 43
10.0
 44
1.0
 47
0.1
 48
0.1
 73
     0
 74
     0
 77
     3
 78
     8
 79
     2
140
3.200000000000001
141
0.0
143
0.0393701
146
0.71
147
0.9999999999999996
172
     1
176
   256
177
   256
178
     2
271
     2
272
     2
283
     0
284
     8
340
11
342
6C4
371
    -1
372
    -1
1001
ACAD_DSTYLE_DIMJOGGED_JOGANGLE_SYMBOL
1070
   384
1040
0.7853981633974483
1001
ACAD_DSTYLE_DIMARC_LENGTH_SYMBOL
1070
   379
1070
     1
  0
DIMSTYLE
105
A76
330
A
100
AcDbSymbolTableRecord
100
AcDbDimStyleTableRecord
  2
STANDARD
 70
     0
 41
3.0
 42
1.0
 43
7.0
 44
2.0
 73
     0
 74
     0
 77
     1
140
2.799999999999999
141
0.0
143
0.0394
147
0.7
171
     4
172
     1
173
     1
176
     3
177
     3
178
     2
271
     3
272
     3
273
     8
274
     4
289
     0
340
A74
341
A66
343
A66
344
A66
  0
DIMSTYLE
105
FA9
330
A
100
AcDbSymbolTableRecord
100
AcDbDimStyleTableRecord
  2
AM_ANSI
 70
     0
  4
mm
 41
0.1
 42
0.05
 43
0.5
 44
0.1
 47
0.1
 48
0.1
 78
     7
 79
     2
140
0.12
141
0.0
146
0.71
147
0.06
176
   256
177
   256
178
     2
274
     4
284
     7
340
11
371
    -1
372
    -1
1001
ACAD_DSTYLE_DIMJOGGED_JOGANGLE_SYMBOL
1070
   384
1040
0.7853981633974483
1001
ACAD_DSTYLE_DIMARC_LENGTH_SYMBOL
1070
   379
1070
     1
  0
DIMSTYLE
105
FAA
330
A
100
AcDbSymbolTableRecord
100
AcDbDimStyleTableRecord
  2
AM_ANSI$3
 70
     0
  4
mm
 41
0.1
 42
0.05
 43
0.5
 44
0.1
 47
0.1
 48
0.1
 78
     7
 79
     2
140
0.12
141
0.0
146
0.71
147
0.06
176
   256
177
   256
178
     2
274
     4
284
     7
288
     1
289
     0
340
11
371
    -1
372
    -1
1001
ACAD_DSTYLE_DIMJOGGED_JOGANGLE_SYMBOL
1070
   384
1040
0.7853981633974483
1001
ACAD_DSTYLE_DIMARC_LENGTH_SYMBOL
1070
   379
1070
     1
  0
DIMSTYLE
105
FAB
330
A
100
AcDbSymbolTableRecord
100
AcDbDimStyleTableRecord
  2
AM_ANSI$4
 70
     0
  4
mm
 41
0.1
 42
0.05
 43
0.5
 44
0.1
 47
0.1
 48
0.1
 78
     7
 79
     2
140
0.12
141
0.0
146
0.71
147
0.06
176
   256
177
   256
178
     2
274
     4
284
     7
288
     1
289
     0
340
11
371
    -1
372
    -1
1001
ACAD_DSTYLE_DIMJOGGED_JOGANGLE_SYMBOL
1070
   384
1040
0.7853981633974483
1001
ACAD_DSTYLE_DIMARC_LENGTH_SYMBOL
1070
   379
1070
     1
  0
DIMSTYLE
105
FAC
330
A
100
AcDbSymbolTableRecord
100
AcDbDimStyleTableRecord
  2
AM_ANSI$7
 70
     0
  4
mm
 41
0.1
 42
0.05
 43
0.5
 44
0.1
 47
0.1
 48
0.1
 78
     7
 79
     2
140
0.24
141
0.0
146
0.71
147
0.06
176
   256
177
   256
178
     2
274
     4
284
     7
340
11
371
    -1
372
    -1
1001
ACAD_DSTYLE_DIMJOGGED_JOGANGLE_SYMBOL
1070
   384
1040
0.7853981633974483
1001
ACAD_DSTYLE_DIMARC_LENGTH_SYMBOL
1070
   379
1070
     1
  0
DIMSTYLE
105
FAD
330
A
100
AcDbSymbolTableRecord
100
AcDbDimStyleTableRecord
  2
AM_ANSI$SF
 70
     0
  4
mm
 41
0.1
 42
0.05
 43
0.5
 44
0.1
 47
0.1
 48
0.1
 75
     1
 76
     1
 78
     7
 79
     2
140
0.12
141
0.0
146
0.71
147
0.06
176
   256
177
   256
178
     2
274
     4
284
     7
340
11
371
    -1
372
    -1
1001
ACAD_DSTYLE_DIMJOGGED_JOGANGLE_SYMBOL
1070
   384
1040
0.7853981633974483
1001
ACAD_DSTYLE_DIMARC_LENGTH_SYMBOL
1070
   379
1070
     1
  0
DIMSTYLE
105
FAE
330
A
100
AcDbSymbolTableRecord
100
AcDbDimStyleTableRecord
  2
AM_ANSI$SH
 70
     0
  4
mm
 41
0.1
 42
0.05
 43
0.5
 44
0.1
 47
0.1
 48
0.1
 75
     1
 76
     1
 78
     7
 79
     2
140
0.12
141
0.0
146
0.71
147
0.06
173
     1
176
   256
177
   256
178
     2
274
     4
284
     7
340
11
343
72
371
    -1
372
    -1
1001
ACAD_DSTYLE_DIMJOGGED_JOGANGLE_SYMBOL
1070
   384
1040
0.7853981633974483
1001
ACAD_DSTYLE_DIMARC_LENGTH_SYMBOL
1070
   379
1070
     1
  0
DIMSTYLE
105
2515
330
A
100
AcDbSymbolTableRecord
100
AcDbDimStyleTableRecord
  2
SYS
 70
     0
  4
"
 41
2.5
 42
1.0
 43
10.0
 44
1.0
 47
0.1
 48
0.1
 73
     0
 74
     0
 77
     1
 78
     8
 79
     2
140
3.5
141
0.0
143
0.0393701
146
0.71
147
1.5
172
     1
176
   256
177
   256
178
     7
271
     2
272
     3
274
     4
283
     0
284
     8
340
11
371
    -1
372
    -1
1001
ACAD_DSTYLE_DIMJOGGED_JOGANGLE_SYMBOL
1070
   384
1040
0.7853981633974483
1001
ACAD_DSTYLE_DIMARC_LENGTH_SYMBOL
1070
   379
1070
     1
  0
DIMSTYLE
105
2516
102
{ACAD_REACTORS
330
247E4
102
}
330
A
100
AcDbSymbolTableRecord
100
AcDbDimStyleTableRecord
  2
SYS$3
 70
     0
  4
"
 41
2.0
 42
1.0
 43
10.0
 44
1.0
 47
0.1
 48
0.1
 73
     0
 77
     1
 78
     8
 79
     2
140
3.200000000000001
141
0.0
143
0.0393701
146
0.71
147
1.5
176
   256
177
   256
178
     2
271
     1
272
     1
283
     0
284
     8
288
     1
340
11
342
A66
371
    -1
372
    -1
1001
ACAD_DSTYLE_DIMJOGGED_JOGANGLE_SYMBOL
1070
   384
1040
0.7853981633974483
1001
ACAD_DSTYLE_DIMARC_LENGTH_SYMBOL
1070
   379
1070
     1
  0
DIMSTYLE
105
2517
330
A
100
AcDbSymbolTableRecord
100
AcDbDimStyleTableRecord
  2
SYS$4
 70
     0
  4
"
 41
2.0
 42
1.0
 43
10.0
 44
1.0
 47
0.1
 48
0.1
 73
     0
 77
     1
 78
     8
 79
     2
140
3.2
141
0.0
143
0.0393701
146
0.71
147
1.5
173
     1
176
   256
177
   256
178
     2
271
     2
272
     2
283
     0
284
     8
288
     1
340
11
344
A66
371
    -1
372
    -1
1001
ACAD_DSTYLE_DIMJOGGED_JOGANGLE_SYMBOL
1070
   384
1040
0.7853981633974483
1001
ACAD_DSTYLE_DIMARC_LENGTH_SYMBOL
1070
   379
1070
     1
  0
DIMSTYLE
105
2518
330
A
100
AcDbSymbolTableRecord
100
AcDbDimStyleTableRecord
  2
SYS$6
 70
     0
  4
"
 41
2.0
 42
1.0
 43
10.0
 44
1.0
 47
0.1
 48
0.1
 73
     0
 74
     0
 78
     8
 79
     2
140
3.2
141
0.0
143
0.0393701
146
0.71
147
1.5
172
     1
176
   256
177
   256
178
     2
271
     2
272
     2
283
     0
284
     8
340
11
341
A66
371
    -1
372
    -1
1001
ACAD_DSTYLE_DIMJOGGED_JOGANGLE_SYMBOL
1070
   384
1040
0.7853981633974483
1001
ACAD_DSTYLE_DIMARC_LENGTH_SYMBOL
1070
   379
1070
     1
  0
DIMSTYLE
105
2519
330
A
100
AcDbSymbolTableRecord
100
AcDbDimStyleTableRecord
  2
SYS$7
 70
     0
  4
"
 41
2.0
 42
1.5
 43
10.0
 44
1.0
 47
0.1
 48
0.1
 73
     0
 74
     0
 77
     1
 78
     8
 79
     2
140
3.2
141
0.0
143
0.0393701
146
0.71
147
1.5
172
     1
176
   256
177
   256
178
     2
271
     2
272
     2
283
     0
284
     8
340
11
341
A66
342
A66
371
    -1
372
    -1
1001
ACAD_DSTYLE_DIMJOGGED_JOGANGLE_SYMBOL
1070
   384
1040
0.7853981633974483
1001
ACAD_DSTYLE_DIMARC_LENGTH_SYMBOL
1070
   379
1070
     1
  0
DIMSTYLE
105
251A
330
A
100
AcDbSymbolTableRecord
100
AcDbDimStyleTableRecord
  2
SYS$SF
 70
     0
  4
"
 41
1.0
 42
1.0
 43
10.0
 44
1.0
 47
0.1
 48
0.1
 73
     0
 74
     0
 75
     1
 76
     1
 77
     1
 78
     8
 79
     2
140
3.2
141
0.0
143
0.0393701
146
0.71
147
1.5
172
     1
176
   256
177
   256
178
     2
271
     2
272
     2
283
     0
284
     8
340
11
341
6C4
342
6C4
371
    -1
372
    -1
1001
ACAD_DSTYLE_DIMJOGGED_JOGANGLE_SYMBOL
1070
   384
1040
0.7853981633974483
1001
ACAD_DSTYLE_DIMARC_LENGTH_SYMBOL
1070
   379
1070
     1
  0
DIMSTYLE
105
251B
330
A
100
AcDbSymbolTableRecord
100
AcDbDimStyleTableRecord
  2
SYS$SH
 70
     0
  4
"
 41
1.0
 42
1.0
 43
10.0
 44
1.0
 47
0.1
 48
0.1
 73
     0
 74
     0
 75
     1
 76
     1
 77
     1
 78
     8
 79
     2
140
3.2
141
0.0
143
0.0393701
144
2.0
146
0.71
147
1.5
172
     1
173
     1
176
   256
177
   256
178
     2
271
     2
272
     2
283
     0
284
     8
340
11
341
6C4
343
72
344
6C4
371
    -1
372
    -1
1001
ACAD_DSTYLE_DIMJOGGED_JOGANGLE_SYMBOL
1070
   384
1040
0.7853981633974483
1001
ACAD_DSTYLE_DIMARC_LENGTH_SYMBOL
1070
   379
1070
     1
  0
DIMSTYLE
105
2A59
330
A
100
AcDbSymbolTableRecord
100
AcDbDimStyleTableRecord
  2
SYS$2
 70
     0
  4
"
 41
1.0
 42
1.5
 43
10.0
 44
1.0
 47
0.1
 48
0.1
 73
     0
 74
     0
 77
     1
 78
     8
 79
     2
140
3.2
141
0.0
143
0.0393701
146
0.71
147
1.5
172
     1
176
   256
177
   256
178
     2
271
     2
272
     2
283
     0
284
     8
340
11
342
6C4
371
    -1
372
    -1
1001
ACAD_DSTYLE_DIMJOGGED_JOGANGLE_SYMBOL
1070
   384
1040
0.7853981633974483
1001
ACAD_DSTYLE_DIMARC_LENGTH_SYMBOL
1070
   379
1070
     1
  0
DIMSTYLE
105
2AAB
102
{ACAD_REACTORS
330
247CF
330
247D2
330
247D5
330
247D8
330
247DB
330
247DE
330
247E1
330
247E8
330
247E9
330
247EA
102
}
330
A
100
AcDbSymbolTableRecord
100
AcDbDimStyleTableRecord
  2
SYS$0
 70
     0
  4
"
 41
1.0
 42
1.5
 43
10.0
 44
1.0
 47
0.1
 48
0.1
 73
     0
 74
     0
 77
     1
 78
     8
 79
     2
140
3.2
141
0.0
143
0.0393701
146
0.71
147
1.5
172
     1
176
   256
177
   256
178
     2
271
     1
272
     1
283
     0
284
     8
340
11
341
A66
342
6C4
371
    -1
372
    -1
1001
ACAD_DSTYLE_DIMJOGGED_JOGANGLE_SYMBOL
1070
   384
1040
0.7853981633974483
1001
ACAD_DSTYLE_DIMARC_LENGTH_SYMBOL
1070
   379
1070
     1
  0
ENDTAB
  0
TABLE
  2
BLOCK_RECORD
  5
1
330
0
100
AcDbSymbolTable
 70
    41
  0
BLOCK_RECORD
  5
1F
102
{ACAD_XDICTIONARY
360
8A
102
}
330
1
100
AcDbSymbolTableRecord
100
AcDbBlockTableRecord
  2
*Model_Space
340
22
  0
BLOCK_RECORD
  5
1B
330
1
100
AcDbSymbolTableRecord
100
AcDbBlockTableRecord
  2
*Paper_Space
340
1E
  0
BLOCK_RECORD
  5
23
330
1
100
AcDbSymbolTableRecord
100
AcDbBlockTableRecord
  2
*Paper_Space0
340
26
  0
BLOCK_RECORD
  5
72
330
1
100
AcDbSymbolTableRecord
100
AcDbBlockTableRecord
  2
GENAXEH
340
0
  0
BLOCK_RECORD
  5
6C4
330
1
100
AcDbSymbolTableRecord
100
AcDbBlockTableRecord
  2
_Dot
340
0
102
{BLKREFS
331
24473
331
24474
331
2447C
331
2447D
331
244BB
331
244BC
331
244C4
331
244C5
331
244DF
331
244E0
331
244E8
331
244E9
331
244F1
331
244F2
331
24586
331
24587
331
245F6
331
245F7
331
24608
331
24609
331
246C0
331
246C1
331
246CC
331
246CD
331
246D8
331
246D9
331
246E4
331
246E5
331
246F0
331
246F1
331
246FC
331
246FD
331
24708
331
24709
331
2469C
331
2469D
331
246A8
331
246A9
331
246B4
331
246B5
331
24864
331
24865
331
24870
331
24871
331
2487C
331
2487D
331
24888
331
24889
331
24894
331
24895
331
248A0
331
248A1
331
248AC
331
248AD
331
248C5
331
248C6
331
248CE
331
248CF
331
248D7
331
248D8
102
}
  0
BLOCK_RECORD
  5
A66
330
1
100
AcDbSymbolTableRecord
100
AcDbBlockTableRecord
  2
_OPEN30
340
0
  0
BLOCK_RECORD
  5
23D81
330
1
100
AcDbSymbolTableRecord
100
AcDbBlockTableRecord
  2
GENDOT
340
0
102
{BLKREFS
331
24505
331
24506
331
24716
331
24717
331
248E2
331
248E3
102
}
  0
BLOCK_RECORD
  5
2483A
330
1
100
AcDbSymbolTableRecord
100
AcDbBlockTableRecord
  2
*D29
340
0
  0
BLOCK_RECORD
  5
24848
330
1
100
AcDbSymbolTableRecord
100
AcDbBlockTableRecord
  2
*D30
340
0
  0
BLOCK_RECORD
  5
24854
330
1
100
AcDbSymbolTableRecord
100
AcDbBlockTableRecord
  2
*D31
340
0
  0
BLOCK_RECORD
  5
24860
330
1
100
AcDbSymbolTableRecord
100
AcDbBlockTableRecord
  2
*D32
340
0
  0
BLOCK_RECORD
  5
2486C
330
1
100
AcDbSymbolTableRecord
100
AcDbBlockTableRecord
  2
*D33
340
0
  0
BLOCK_RECORD
  5
24878
330
1
100
AcDbSymbolTableRecord
100
AcDbBlockTableRecord
  2
*D34
340
0
  0
BLOCK_RECORD
  5
24884
330
1
100
AcDbSymbolTableRecord
100
AcDbBlockTableRecord
  2
*D35
340
0
  0
BLOCK_RECORD
  5
24890
330
1
100
AcDbSymbolTableRecord
100
AcDbBlockTableRecord
  2
*D36
340
0
  0
BLOCK_RECORD
  5
2489C
330
1
100
AcDbSymbolTableRecord
100
AcDbBlockTableRecord
  2
*D37
340
0
  0
BLOCK_RECORD
  5
248A8
330
1
100
AcDbSymbolTableRecord
100
AcDbBlockTableRecord
  2
*D38
340
0
  0
BLOCK_RECORD
  5
248B4
330
1
100
AcDbSymbolTableRecord
100
AcDbBlockTableRecord
  2
*D39
340
0
  0
BLOCK_RECORD
  5
248E6
330
1
100
AcDbSymbolTableRecord
100
AcDbBlockTableRecord
  2
*S40
340
0
  0
ENDTAB
  0
ENDSEC
  0
SECTION
  2
BLOCKS
  0
BLOCK
  5
20
330
1F
100
AcDbEntity
  8
0
100
AcDbBlockBegin
  2
*Model_Space
 70
     0
 10
0.0
 20
0.0
 30
0.0
  3
*Model_Space
  1

  0
ENDBLK
  5
21
330
1F
100
AcDbEntity
  8
0
100
AcDbBlockEnd
  0
BLOCK
  5
1C
330
1B
100
AcDbEntity
 67
     1
  8
0
100
AcDbBlockBegin
  2
*Paper_Space
 70
     0
 10
0.0
 20
0.0
 30
0.0
  3
*Paper_Space
  1

  0
ENDBLK
  5
1D
330
1B
100
AcDbEntity
 67
     1
  8
0
100
AcDbBlockEnd
  0
BLOCK
  5
24
330
23
100
AcDbEntity
 67
     1
  8
0
100
AcDbBlockBegin
  2
*Paper_Space0
 70
     0
 10
0.0
 20
0.0
 30
0.0
  3
*Paper_Space0
  1

  0
ENDBLK
  5
25
330
23
100
AcDbEntity
 67
     1
  8
0
100
AcDbBlockEnd
  0
BLOCK
  5
74
330
72
100
AcDbEntity
  8
0
100
AcDbBlockBegin
  2
GENAXEH
 70
     0
 10
0.0
 20
0.0
 30
0.0
  3
GENAXEH
  1

  0
LINE
  5
73
330
72
100
AcDbEntity
  8
0
100
AcDbLine
 10
-1.0
 20
0.0
 30
0.0
 11
1.0
 21
0.0
 31
0.0
  0
ENDBLK
  5
75
330
72
100
AcDbEntity
  8
0
100
AcDbBlockEnd
  0
BLOCK
  5
6C7
330
6C4
100
AcDbEntity
  8
0
100
AcDbBlockBegin
  2
_Dot
 70
     0
 10
0.0
 20
0.0
 30
0.0
  3
_Dot
  1

  0
LWPOLYLINE
  5
6C5
330
6C4
100
AcDbEntity
  8
0
  6
ByBlock
 62
     0
100
AcDbPolyline
 90
        2
 70
     1
 43
0.5
 10
-0.25
 20
0.0
 42
1.0
 10
0.25
 20
0.0
 42
1.0
  0
LINE
  5
6C6
330
6C4
100
AcDbEntity
  8
0
  6
ByBlock
 62
     0
370
    -2
100
AcDbLine
 10
-0.5
 20
0.0
 30
0.0
 11
-1.0
 21
0.0
 31
0.0
  0
ENDBLK
  5
6C8
330
6C4
100
AcDbEntity
  8
0
100
AcDbBlockEnd
  0
BLOCK
  5
A6A
330
A66
100
AcDbEntity
  8
0
100
AcDbBlockBegin
  2
_OPEN30
 70
     0
 10
0.0
 20
0.0
 30
0.0
  3
_OPEN30
  1

  0
LINE
  5
A67
330
A66
100
AcDbEntity
  8
0
  6
ByBlock
 62
     0
100
AcDbLine
 10
-1.0
 20
0.26794919
 30
0.0
 11
0.0
 21
0.0
 31
0.0
  0
LINE
  5
A68
330
A66
100
AcDbEntity
  8
0
  6
ByBlock
 62
     0
100
AcDbLine
 10
0.0
 20
0.0
 30
0.0
 11
-1.0
 21
-0.26794919
 31
0.0
  0
LINE
  5
A69
330
A66
100
AcDbEntity
  8
0
  6
ByBlock
 62
     0
100
AcDbLine
 10
0.0
 20
0.0
 30
0.0
 11
-1.0
 21
0.0
 31
0.0
  0
ENDBLK
  5
A6B
330
A66
100
AcDbEntity
  8
0
100
AcDbBlockEnd
  0
BLOCK
  5
23D82
330
23D81
100
AcDbEntity
  8
0
100
AcDbBlockBegin
  2
GENDOT
 70
     0
 10
0.0
 20
0.0
 30
0.0
  3
GENDOT
  1

  0
LINE
  5
23D83
330
23D81
100
AcDbEntity
  8
0
100
AcDbLine
 10
0.0
 20
0.0
 30
0.0
 11
-1.0
 21
0.0
 31
0.0
  0
LWPOLYLINE
  5
23D84
330
23D81
100
AcDbEntity
  8
0
100
AcDbPolyline
 90
        2
 70
     1
 43
0.25
 10
-0.125
 20
0.0
 42
1.0
 10
0.125
 20
0.0
 42
1.0
  0
ENDBLK
  5
23D85
330
23D81
100
AcDbEntity
  8
0
100
AcDbBlockEnd
  0
BLOCK
  5
24846
330
2483A
100
AcDbEntity
  8
0
100
AcDbBlockBegin
  2
*D29
 70
     1
 10
0.0
 20
0.0
 30
0.0
  3
*D29
  1

  0
LINE
  5
248C0
330
2483A
100
AcDbEntity
  8
AM_5
100
AcDbLine
 10
716.8811926537593
 20
-867.7172017064306
 30
0.0
 11
708.6312126340638
 21
-867.7172017064306
 31
0.0
  0
LINE
  5
248C1
330
2483A
100
AcDbEntity
  8
AM_5
100
AcDbLine
 10
718.9747639658488
 20
-865.7172017064304
 30
0.0
 11
708.6312126340638
 21
-865.7172017064304
 31
0.0
  0
LINE
  5
248C2
330
2483A
100
AcDbEntity
  8
AM_5
100
AcDbLine
 10
709.6312126340639
 20
-864.7172017064304
 30
0.0
 11
709.6312126340639
 21
-863.7172017064303
 31
0.0
  0
LINE
  5
248C3
330
2483A
100
AcDbEntity
  8
AM_5
100
AcDbLine
 10
709.6312126340639
 20
-868.7172017064305
 30
0.0
 11
709.6312126340639
 21
-876.9412017064308
 31
0.0
  0
LINE
  5
248C4
330
2483A
100
AcDbEntity
  8
AM_5
100
AcDbLine
 10
709.6312126340639
 20
-865.7172017064304
 30
0.0
 11
709.6312126340639
 21
-867.7172017064306
 31
0.0
  0
INSERT
  5
248C5
330
2483A
100
AcDbEntity
  8
AM_5
100
AcDbBlockReference
  2
_Dot
 10
709.6312126340639
 20
-865.7172017064304
 30
0.0
 41
1.0
 42
1.0
 43
1.0
 50
270.0
  0
INSERT
  5
248C6
330
2483A
100
AcDbEntity
  8
AM_5
100
AcDbBlockReference
  2
_Dot
 10
709.6312126340639
 20
-867.7172017064306
 30
0.0
 41
1.0
 42
1.0
 43
1.0
 50
90.0
  0
MTEXT
  5
248C7
330
2483A
100
AcDbEntity
  8
AM_5
 62
     2
100
AcDbMText
 10
706.5312126340641
 20
-873.3292017064306
 30
0.0
 40
3.2
 41
0.0
 71
     5
 72
     1
  1
（2）
 11
0.0000000000000001
 21
1.0
 31
0.0
 73
     1
 44
1.0
1001
ACAD
1000
MTEXTBEGIN
1070
    73
1070
     1
1070
    44
1040
1.0
1070
    74
1070
     0
1000
MTEXTEND
  0
POINT
  5
248C8
330
2483A
100
AcDbEntity
  8
Defpoints
 62
     0
100
AcDbPoint
 10
718.3811926537592
 20
-867.7172017064306
 30
0.0
  0
POINT
  5
248C9
330
2483A
100
AcDbEntity
  8
Defpoints
 62
     0
100
AcDbPoint
 10
720.4747639658489
 20
-865.7172017064304
 30
0.0
  0
POINT
  5
248CA
330
2483A
100
AcDbEntity
  8
Defpoints
 62
     0
100
AcDbPoint
 10
709.6312126340639
 20
-865.7172017064304
 30
0.0
  0
ENDBLK
  5
24847
330
2483A
100
AcDbEntity
  8
0
100
AcDbBlockEnd
  0
BLOCK
  5
24852
330
24848
100
AcDbEntity
  8
0
100
AcDbBlockBegin
  2
*D30
 70
     1
 10
0.0
 20
0.0
 30
0.0
  3
*D30
  1

  0
LINE
  5
248CB
330
24848
100
AcDbEntity
  8
AM_5
100
AcDbLine
 10
718.9747639658488
 20
-865.7172017064304
 30
0.0
 11
708.6312126340638
 21
-865.7172017064304
 31
0.0
  0
LINE
  5
248CC
330
24848
100
AcDbEntity
  8
AM_5
100
AcDbLine
 10
744.6359592478566
 20
-856.7172017064306
 30
0.0
 11
708.6312126340638
 21
-856.7172017064306
 31
0.0
  0
LINE
  5
248CD
330
24848
100
AcDbEntity
  8
AM_5
100
AcDbLine
 10
709.6312126340639
 20
-864.7172017064304
 30
0.0
 11
709.6312126340639
 21
-857.7172017064306
 31
0.0
  0
INSERT
  5
248CE
330
24848
100
AcDbEntity
  8
AM_5
100
AcDbBlockReference
  2
_Dot
 10
709.6312126340639
 20
-865.7172017064304
 30
0.0
 41
1.0
 42
1.0
 43
1.0
 50
270.0
  0
INSERT
  5
248CF
330
24848
100
AcDbEntity
  8
AM_5
100
AcDbBlockReference
  2
_Dot
 10
709.6312126340639
 20
-856.7172017064306
 30
0.0
 41
1.0
 42
1.0
 43
1.0
 50
90.0
  0
MTEXT
  5
248D0
330
24848
100
AcDbEntity
  8
AM_5
 62
     2
100
AcDbMText
 10
706.5312126340641
 20
-861.1947584968659
 30
0.0
 40
3.2
 41
0.0
 71
     5
 72
     1
  1
9
 11
0.0000000000000001
 21
1.0
 31
0.0
 73
     1
 44
1.0
1001
ACAD
1000
MTEXTBEGIN
1070
    73
1070
     1
1070
    44
1040
1.0
1070
    74
1070
     0
1000
MTEXTEND
  0
POINT
  5
248D1
330
24848
100
AcDbEntity
  8
Defpoints
 62
     0
100
AcDbPoint
 10
720.4747639658489
 20
-865.7172017064304
 30
0.0
  0
POINT
  5
248D2
330
24848
100
AcDbEntity
  8
Defpoints
 62
     0
100
AcDbPoint
 10
746.1359592478567
 20
-856.7172017064306
 30
0.0
  0
POINT
  5
248D3
330
24848
100
AcDbEntity
  8
Defpoints
 62
     0
100
AcDbPoint
 10
709.6312126340639
 20
-856.7172017064306
 30
0.0
  0
ENDBLK
  5
24853
330
24848
100
AcDbEntity
  8
0
100
AcDbBlockEnd
  0
BLOCK
  5
2485E
330
24854
100
AcDbEntity
  8
0
100
AcDbBlockBegin
  2
*D31
 70
     1
 10
0.0
 20
0.0
 30
0.0
  3
*D31
  1

  0
LINE
  5
248D4
330
24854
100
AcDbEntity
  8
AM_5
100
AcDbLine
 10
716.8811926537593
 20
-867.7172017064306
 30
0.0
 11
700.6312126340638
 21
-867.7172017064306
 31
0.0
  0
LINE
  5
248D5
330
24854
100
AcDbEntity
  8
AM_5
100
AcDbLine
 10
727.6801899352703
 20
-852.7172017064305
 30
0.0
 11
700.6312126340638
 21
-852.7172017064305
 31
0.0
  0
LINE
  5
248D6
330
24854
100
AcDbEntity
  8
AM_5
100
AcDbLine
 10
701.6312126340639
 20
-866.7172017064306
 30
0.0
 11
701.6312126340639
 21
-853.7172017064305
 31
0.0
  0
INSERT
  5
248D7
330
24854
100
AcDbEntity
  8
AM_5
100
AcDbBlockReference
  2
_Dot
 10
701.6312126340639
 20
-867.7172017064306
 30
0.0
 41
1.0
 42
1.0
 43
1.0
 50
270.0
  0
INSERT
  5
248D8
330
24854
100
AcDbEntity
  8
AM_5
100
AcDbBlockReference
  2
_Dot
 10
701.6312126340639
 20
-852.7172017064305
 30
0.0
 41
1.0
 42
1.0
 43
1.0
 50
90.0
  0
MTEXT
  5
248D9
330
24854
100
AcDbEntity
  8
AM_5
 62
     2
100
AcDbMText
 10
698.5312126340641
 20
-860.1121026605889
 30
0.0
 40
3.2
 41
0.0
 71
     5
 72
     1
  1
（15）
 11
0.0000000000000001
 21
1.0
 31
0.0
 73
     1
 44
1.0
1001
ACAD
1000
MTEXTBEGIN
1070
    73
1070
     1
1070
    44
1040
1.0
1070
    74
1070
     0
1000
MTEXTEND
  0
POINT
  5
248DA
330
24854
100
AcDbEntity
  8
Defpoints
 62
     0
100
AcDbPoint
 10
718.3811926537592
 20
-867.7172017064306
 30
0.0
  0
POINT
  5
248DB
330
24854
100
AcDbEntity
  8
Defpoints
 62
     0
100
AcDbPoint
 10
729.1801899352702
 20
-852.7172017064305
 30
0.0
  0
POINT
  5
248DC
330
24854
100
AcDbEntity
  8
Defpoints
 62
     0
100
AcDbPoint
 10
701.6312126340639
 20
-852.7172017064305
 30
0.0
  0
ENDBLK
  5
2485F
330
24854
100
AcDbEntity
  8
0
100
AcDbBlockEnd
  0
BLOCK
  5
2486A
330
24860
100
AcDbEntity
  8
0
100
AcDbBlockBegin
  2
*D32
 70
     1
 10
0.0
 20
0.0
 30
0.0
  3
*D32
  1

  0
LINE
  5
24861
330
24860
100
AcDbEntity
  8
AM_5
100
AcDbLine
 10
717.6359592478567
 20
-908.5447770880557
 30
0.0
 11
717.6359592478567
 21
-893.0447770880558
 31
0.0
  0
LINE
  5
24862
330
24860
100
AcDbEntity
  8
AM_5
100
AcDbLine
 10
777.6359592478566
 20
-908.5447770880557
 30
0.0
 11
777.6359592478566
 21
-893.0447770880558
 31
0.0
  0
LINE
  5
24863
330
24860
100
AcDbEntity
  8
AM_5
100
AcDbLine
 10
718.6359592478567
 20
-894.0447770880558
 30
0.0
 11
776.6359592478567
 21
-894.0447770880558
 31
0.0
  0
INSERT
  5
24864
330
24860
100
AcDbEntity
  8
AM_5
100
AcDbBlockReference
  2
_Dot
 10
717.6359592478567
 20
-894.0447770880558
 30
0.0
 41
1.0
 42
1.0
 43
1.0
 50
180.0
  0
INSERT
  5
24865
330
24860
100
AcDbEntity
  8
AM_5
100
AcDbBlockReference
  2
_Dot
 10
777.6359592478566
 20
-894.0447770880558
 30
0.0
 41
1.0
 42
1.0
 43
1.0
  0
MTEXT
  5
24866
330
24860
100
AcDbEntity
  8
AM_5
 62
     2
100
AcDbMText
 10
747.6359592478567
 20
-890.9447770880557
 30
0.0
 40
3.2
 41
0.0
 71
     5
 72
     1
  1
60
 73
     1
 44
1.0
1001
ACAD
1000
MTEXTBEGIN
1070
    73
1070
     1
1070
    44
1040
1.0
1070
    74
1070
     0
1000
MTEXTEND
  0
POINT
  5
24867
330
24860
100
AcDbEntity
  8
Defpoints
 62
     0
100
AcDbPoint
 10
717.6359592478567
 20
-910.0447770880558
 30
0.0
  0
POINT
  5
24868
330
24860
100
AcDbEntity
  8
Defpoints
 62
     0
100
AcDbPoint
 10
777.6359592478566
 20
-910.0447770880558
 30
0.0
  0
POINT
  5
24869
330
24860
100
AcDbEntity
  8
Defpoints
 62
     0
100
AcDbPoint
 10
777.6359592478566
 20
-894.0447770880558
 30
0.0
  0
ENDBLK
  5
2486B
330
24860
100
AcDbEntity
  8
0
100
AcDbBlockEnd
  0
BLOCK
  5
24876
330
2486C
100
AcDbEntity
  8
0
100
AcDbBlockBegin
  2
*D33
 70
     1
 10
0.0
 20
0.0
 30
0.0
  3
*D33
  1

  0
LINE
  5
2486D
330
2486C
100
AcDbEntity
  8
AM_5
100
AcDbLine
 10
716.1359592478567
 20
-910.0447770880558
 30
0.0
 11
700.6359592478566
 21
-910.0447770880558
 31
0.0
  0
LINE
  5
2486E
330
2486C
100
AcDbEntity
  8
AM_5
100
AcDbLine
 10
716.1359592478567
 20
-1030.044777088056
 30
0.0
 11
700.6359592478566
 21
-1030.044777088056
 31
0.0
  0
LINE
  5
2486F
330
2486C
100
AcDbEntity
  8
AM_5
100
AcDbLine
 10
701.6359592478566
 20
-911.0447770880558
 30
0.0
 11
701.6359592478566
 21
-1029.044777088055
 31
0.0
  0
INSERT
  5
24870
330
2486C
100
AcDbEntity
  8
AM_5
100
AcDbBlockReference
  2
_Dot
 10
701.6359592478566
 20
-910.0447770880558
 30
0.0
 41
1.0
 42
1.0
 43
1.0
 50
90.0
  0
INSERT
  5
24871
330
2486C
100
AcDbEntity
  8
AM_5
100
AcDbBlockReference
  2
_Dot
 10
701.6359592478566
 20
-1030.044777088056
 30
0.0
 41
1.0
 42
1.0
 43
1.0
 50
270.0
  0
MTEXT
  5
24872
330
2486C
100
AcDbEntity
  8
AM_5
 62
     2
100
AcDbMText
 10
698.5359592478566
 20
-970.0447770880558
 30
0.0
 40
3.2
 41
0.0
 71
     5
 72
     1
  1
120
 11
0.0000000000000001
 21
1.0
 31
0.0
 73
     1
 44
1.0
1001
ACAD
1000
MTEXTBEGIN
1070
    73
1070
     1
1070
    44
1040
1.0
1070
    74
1070
     0
1000
MTEXTEND
  0
POINT
  5
24873
330
2486C
100
AcDbEntity
  8
Defpoints
 62
     0
100
AcDbPoint
 10
717.6359592478567
 20
-910.0447770880558
 30
0.0
  0
POINT
  5
24874
330
2486C
100
AcDbEntity
  8
Defpoints
 62
     0
100
AcDbPoint
 10
717.6359592478567
 20
-1030.044777088056
 30
0.0
  0
POINT
  5
24875
330
2486C
100
AcDbEntity
  8
Defpoints
 62
     0
100
AcDbPoint
 10
701.6359592478566
 20
-1030.044777088056
 30
0.0
  0
ENDBLK
  5
24877
330
2486C
100
AcDbEntity
  8
0
100
AcDbBlockEnd
  0
BLOCK
  5
24882
330
24878
100
AcDbEntity
  8
0
100
AcDbBlockBegin
  2
*D34
 70
     1
 10
0.0
 20
0.0
 30
0.0
  3
*D34
  1

  0
LINE
  5
24879
330
24878
100
AcDbEntity
  8
AM_5
100
AcDbLine
 10
734.1359592478567
 20
-927.0447770880558
 30
0.0
 11
708.6359592478565
 21
-927.0447770880558
 31
0.0
  0
LINE
  5
2487A
330
24878
100
AcDbEntity
  8
AM_5
100
AcDbLine
 10
734.1359592478567
 20
-1013.044777088055
 30
0.0
 11
708.6359592478565
 21
-1013.044777088055
 31
0.0
  0
LINE
  5
2487B
330
24878
100
AcDbEntity
  8
AM_5
100
AcDbLine
 10
709.6359592478566
 20
-928.0447770880558
 30
0.0
 11
709.6359592478566
 21
-1012.044777088056
 31
0.0
  0
INSERT
  5
2487C
330
24878
100
AcDbEntity
  8
AM_5
100
AcDbBlockReference
  2
_Dot
 10
709.6359592478566
 20
-927.0447770880558
 30
0.0
 41
1.0
 42
1.0
 43
1.0
 50
90.0
  0
INSERT
  5
2487D
330
24878
100
AcDbEntity
  8
AM_5
100
AcDbBlockReference
  2
_Dot
 10
709.6359592478566
 20
-1013.044777088055
 30
0.0
 41
1.0
 42
1.0
 43
1.0
 50
270.0
  0
MTEXT
  5
2487E
330
24878
100
AcDbEntity
  8
AM_5
 62
     2
100
AcDbMText
 10
706.5359592478566
 20
-970.0447770880558
 30
0.0
 40
3.2
 41
0.0
 71
     5
 72
     1
  1
86
 11
0.0000000000000001
 21
1.0
 31
0.0
 73
     1
 44
1.0
1001
ACAD
1000
MTEXTBEGIN
1070
    73
1070
     1
1070
    44
1040
1.0
1070
    74
1070
     0
1000
MTEXTEND
  0
POINT
  5
2487F
330
24878
100
AcDbEntity
  8
Defpoints
 62
     0
100
AcDbPoint
 10
735.6359592478566
 20
-927.0447770880558
 30
0.0
  0
POINT
  5
24880
330
24878
100
AcDbEntity
  8
Defpoints
 62
     0
100
AcDbPoint
 10
735.6359592478566
 20
-1013.044777088055
 30
0.0
  0
POINT
  5
24881
330
24878
100
AcDbEntity
  8
Defpoints
 62
     0
100
AcDbPoint
 10
709.6359592478566
 20
-1013.044777088055
 30
0.0
  0
ENDBLK
  5
24883
330
24878
100
AcDbEntity
  8
0
100
AcDbBlockEnd
  0
BLOCK
  5
2488E
330
24884
100
AcDbEntity
  8
0
100
AcDbBlockBegin
  2
*D35
 70
     1
 10
0.0
 20
0.0
 30
0.0
  3
*D35
  1

  0
LINE
  5
24885
330
24884
100
AcDbEntity
  8
AM_5
100
AcDbLine
 10
733.6359592478567
 20
-927.5447770880557
 30
0.0
 11
733.6359592478567
 21
-901.0447770880558
 31
0.0
  0
LINE
  5
24886
330
24884
100
AcDbEntity
  8
AM_5
100
AcDbLine
 10
761.6359592478566
 20
-927.5447770880575
 30
0.0
 11
761.6359592478566
 21
-901.0447770880558
 31
0.0
  0
LINE
  5
24887
330
24884
100
AcDbEntity
  8
AM_5
100
AcDbLine
 10
734.6359592478567
 20
-902.0447770880558
 30
0.0
 11
760.6359592478566
 21
-902.0447770880558
 31
0.0
  0
INSERT
  5
24888
330
24884
100
AcDbEntity
  8
AM_5
100
AcDbBlockReference
  2
_Dot
 10
733.6359592478567
 20
-902.0447770880558
 30
0.0
 41
1.0
 42
1.0
 43
1.0
 50
180.0
  0
INSERT
  5
24889
330
24884
100
AcDbEntity
  8
AM_5
100
AcDbBlockReference
  2
_Dot
 10
761.6359592478566
 20
-902.0447770880558
 30
0.0
 41
1.0
 42
1.0
 43
1.0
  0
MTEXT
  5
2488A
330
24884
100
AcDbEntity
  8
AM_5
 62
     2
100
AcDbMText
 10
747.6359592478567
 20
-898.9447770880557
 30
0.0
 40
3.2
 41
0.0
 71
     5
 72
     1
  1
28
 73
     1
 44
1.0
1001
ACAD
1000
MTEXTBEGIN
1070
    73
1070
     1
1070
    44
1040
1.0
1070
    74
1070
     0
1000
MTEXTEND
  0
POINT
  5
2488B
330
24884
100
AcDbEntity
  8
Defpoints
 62
     0
100
AcDbPoint
 10
733.6359592478567
 20
-929.0447770880557
 30
0.0
  0
POINT
  5
2488C
330
24884
100
AcDbEntity
  8
Defpoints
 62
     0
100
AcDbPoint
 10
761.6359592478566
 20
-929.0447770880575
 30
0.0
  0
POINT
  5
2488D
330
24884
100
AcDbEntity
  8
Defpoints
 62
     0
100
AcDbPoint
 10
761.6359592478566
 20
-902.0447770880558
 30
0.0
  0
ENDBLK
  5
2488F
330
24884
100
AcDbEntity
  8
0
100
AcDbBlockEnd
  0
BLOCK
  5
2489A
330
24890
100
AcDbEntity
  8
0
100
AcDbBlockBegin
  2
*D36
 70
     1
 10
0.0
 20
0.0
 30
0.0
  3
*D36
  1

  0
LINE
  5
24891
330
24890
100
AcDbEntity
  8
AM_5
100
AcDbLine
 10
619.5693757824948
 20
-923.0447770880557
 30
0.0
 11
619.5693757824948
 21
-908.0447770880557
 31
0.0
  0
LINE
  5
24892
330
24890
100
AcDbEntity
  8
AM_5
100
AcDbLine
 10
664.5693757824948
 20
-923.0447770880557
 30
0.0
 11
664.5693757824948
 21
-908.0447770880557
 31
0.0
  0
LINE
  5
24893
330
24890
100
AcDbEntity
  8
AM_5
100
AcDbLine
 10
620.5693757824948
 20
-909.0447770880556
 30
0.0
 11
663.5693757824948
 21
-909.0447770880556
 31
0.0
  0
INSERT
  5
24894
330
24890
100
AcDbEntity
  8
AM_5
100
AcDbBlockReference
  2
_Dot
 10
619.5693757824948
 20
-909.0447770880556
 30
0.0
 41
1.0
 42
1.0
 43
1.0
 50
180.0
  0
INSERT
  5
24895
330
24890
100
AcDbEntity
  8
AM_5
100
AcDbBlockReference
  2
_Dot
 10
664.5693757824948
 20
-909.0447770880556
 30
0.0
 41
1.0
 42
1.0
 43
1.0
  0
MTEXT
  5
24896
330
24890
100
AcDbEntity
  8
AM_5
 62
     2
100
AcDbMText
 10
642.0693757824948
 20
-905.9447770880558
 30
0.0
 40
3.2
 41
0.0
 71
     5
 72
     1
  1
45
 73
     1
 44
1.0
1001
ACAD
1000
MTEXTBEGIN
1070
    73
1070
     1
1070
    44
1040
1.0
1070
    74
1070
     0
1000
MTEXTEND
  0
POINT
  5
24897
330
24890
100
AcDbEntity
  8
Defpoints
 62
     0
100
AcDbPoint
 10
619.5693757824948
 20
-924.5447770880558
 30
0.0
  0
POINT
  5
24898
330
24890
100
AcDbEntity
  8
Defpoints
 62
     0
100
AcDbPoint
 10
664.5693757824948
 20
-924.5447770880558
 30
0.0
  0
POINT
  5
24899
330
24890
100
AcDbEntity
  8
Defpoints
 62
     0
100
AcDbPoint
 10
664.5693757824948
 20
-909.0447770880556
 30
0.0
  0
ENDBLK
  5
2489B
330
24890
100
AcDbEntity
  8
0
100
AcDbBlockEnd
  0
BLOCK
  5
248A6
330
2489C
100
AcDbEntity
  8
0
100
AcDbBlockBegin
  2
*D37
 70
     1
 10
0.0
 20
0.0
 30
0.0
  3
*D37
  1

  0
LINE
  5
2489D
330
2489C
100
AcDbEntity
  8
AM_5
100
AcDbLine
 10
618.0693757824948
 20
-924.5447770880558
 30
0.0
 11
610.5693757824947
 21
-924.5447770880558
 31
0.0
  0
LINE
  5
2489E
330
2489C
100
AcDbEntity
  8
AM_5
100
AcDbLine
 10
618.0693757824948
 20
-1015.544777088056
 30
0.0
 11
610.5693757824947
 21
-1015.544777088056
 31
0.0
  0
LINE
  5
2489F
330
2489C
100
AcDbEntity
  8
AM_5
100
AcDbLine
 10
611.5693757824947
 20
-925.5447770880557
 30
0.0
 11
611.5693757824947
 21
-1014.544777088056
 31
0.0
  0
INSERT
  5
248A0
330
2489C
100
AcDbEntity
  8
AM_5
100
AcDbBlockReference
  2
_Dot
 10
611.5693757824947
 20
-924.5447770880558
 30
0.0
 41
1.0
 42
1.0
 43
1.0
 50
90.0
  0
INSERT
  5
248A1
330
2489C
100
AcDbEntity
  8
AM_5
100
AcDbBlockReference
  2
_Dot
 10
611.5693757824947
 20
-1015.544777088056
 30
0.0
 41
1.0
 42
1.0
 43
1.0
 50
270.0
  0
MTEXT
  5
248A2
330
2489C
100
AcDbEntity
  8
AM_5
 62
     2
100
AcDbMText
 10
608.4693757824948
 20
-970.0447770880558
 30
0.0
 40
3.2
 41
0.0
 71
     5
 72
     1
  1
91
 11
0.0000000000000001
 21
1.0
 31
0.0
 73
     1
 44
1.0
1001
ACAD
1000
MTEXTBEGIN
1070
    73
1070
     1
1070
    44
1040
1.0
1070
    74
1070
     0
1000
MTEXTEND
  0
POINT
  5
248A3
330
2489C
100
AcDbEntity
  8
Defpoints
 62
     0
100
AcDbPoint
 10
619.5693757824948
 20
-924.5447770880558
 30
0.0
  0
POINT
  5
248A4
330
2489C
100
AcDbEntity
  8
Defpoints
 62
     0
100
AcDbPoint
 10
619.5693757824948
 20
-1015.544777088056
 30
0.0
  0
POINT
  5
248A5
330
2489C
100
AcDbEntity
  8
Defpoints
 62
     0
100
AcDbPoint
 10
611.5693757824947
 20
-1015.544777088056
 30
0.0
  0
ENDBLK
  5
248A7
330
2489C
100
AcDbEntity
  8
0
100
AcDbBlockEnd
  0
BLOCK
  5
248B2
330
248A8
100
AcDbEntity
  8
0
100
AcDbBlockBegin
  2
*D38
 70
     1
 10
0.0
 20
0.0
 30
0.0
  3
*D38
  1

  0
LINE
  5
248A9
330
248A8
100
AcDbEntity
  8
AM_5
100
AcDbLine
 10
634.5693757824948
 20
-920.0447770880558
 30
0.0
 11
602.5693757824947
 21
-920.0447770880558
 31
0.0
  0
LINE
  5
248AA
330
248A8
100
AcDbEntity
  8
AM_5
100
AcDbLine
 10
634.5693757824948
 20
-1020.044777088056
 30
0.0
 11
602.5693757824947
 21
-1020.044777088056
 31
0.0
  0
LINE
  5
248AB
330
248A8
100
AcDbEntity
  8
AM_5
100
AcDbLine
 10
603.5693757824946
 20
-921.0447770880557
 30
0.0
 11
603.5693757824946
 21
-1019.044777088056
 31
0.0
  0
INSERT
  5
248AC
330
248A8
100
AcDbEntity
  8
AM_5
100
AcDbBlockReference
  2
_Dot
 10
603.5693757824946
 20
-920.0447770880558
 30
0.0
 41
1.0
 42
1.0
 43
1.0
 50
90.0
  0
INSERT
  5
248AD
330
248A8
100
AcDbEntity
  8
AM_5
100
AcDbBlockReference
  2
_Dot
 10
603.5693757824946
 20
-1020.044777088056
 30
0.0
 41
1.0
 42
1.0
 43
1.0
 50
270.0
  0
MTEXT
  5
248AE
330
248A8
100
AcDbEntity
  8
AM_5
 62
     2
100
AcDbMText
 10
600.4693757824948
 20
-970.0447770880558
 30
0.0
 40
3.2
 41
0.0
 71
     5
 72
     1
  1
100
 11
0.0000000000000001
 21
1.0
 31
0.0
 73
     1
 44
1.0
1001
ACAD
1000
MTEXTBEGIN
1070
    73
1070
     1
1070
    44
1040
1.0
1070
    74
1070
     0
1000
MTEXTEND
  0
POINT
  5
248AF
330
248A8
100
AcDbEntity
  8
Defpoints
 62
     0
100
AcDbPoint
 10
636.0693757824948
 20
-920.0447770880558
 30
0.0
  0
POINT
  5
248B0
330
248A8
100
AcDbEntity
  8
Defpoints
 62
     0
100
AcDbPoint
 10
636.0693757824948
 20
-1020.044777088056
 30
0.0
  0
POINT
  5
248B1
330
248A8
100
AcDbEntity
  8
Defpoints
 62
     0
100
AcDbPoint
 10
603.5693757824946
 20
-1020.044777088056
 30
0.0
  0
ENDBLK
  5
248B3
330
248A8
100
AcDbEntity
  8
0
100
AcDbBlockEnd
  0
BLOCK
  5
248BE
330
248B4
100
AcDbEntity
  8
0
100
AcDbBlockBegin
  2
*D39
 70
     1
 10
0.0
 20
0.0
 30
0.0
  3
*D39
  1

  0
LINE
  5
248DD
330
248B4
100
AcDbEntity
  8
AM_5
100
AcDbLine
 10
658.2730598465043
 20
-1029.570922792202
 30
0.0
 11
647.9513931798301
 21
-1029.570922792202
 31
0.0
  0
LINE
  5
248DE
330
248B4
100
AcDbEntity
  8
AM_5
100
AcDbLine
 10
647.9513931798301
 20
-1029.570922792202
 30
0.0
 11
644.6962652293016
 21
-1024.299122141557
 31
0.0
  0
LINE
  5
248DF
330
248B4
100
AcDbEntity
  8
AM_5
100
AcDbLine
 10
639.442486335695
 20
-1015.790432034565
 30
0.0
 11
638.3917305569722
 21
-1014.088694013164
 31
0.0
  0
MTEXT
  5
248E0
330
248B4
100
AcDbEntity
  8
AM_5
 62
     2
100
AcDbMText
 10
654.0597265131709
 20
-1026.470922792201
 30
0.0
 40
3.200000000000001
 41
0.0
 71
     5
 72
     1
  1
2-\U+22056
 73
     1
 44
1.0
1001
ACAD
1000
MTEXTBEGIN
1070
    73
1070
     1
1070
    44
1040
1.0
1070
    74
1070
     0
1000
MTEXTEND
  0
LINE
  5
248E1
330
248B4
100
AcDbEntity
  8
AM_5
100
AcDbLine
 10
640.4932421144177
 20
-1017.492170055966
 30
0.0
 11
643.6455094505788
 21
-1022.597384120156
 31
0.0
  0
INSERT
  5
248E2
330
248B4
100
AcDbEntity
  8
AM_5
100
AcDbBlockReference
  2
GENDOT
 10
640.4932421144177
 20
-1017.492170055966
 30
0.0
 41
2.0
 42
2.0
 43
2.0
 50
301.6936860632662
  0
INSERT
  5
248E3
330
248B4
100
AcDbEntity
  8
AM_5
100
AcDbBlockReference
  2
GENDOT
 10
643.6455094505788
 20
-1022.597384120156
 30
0.0
 41
2.0
 42
2.0
 43
2.0
 50
121.6936860632662
  0
POINT
  5
248E4
330
248B4
100
AcDbEntity
  8
Defpoints
 62
     0
100
AcDbPoint
 10
643.6455094505788
 20
-1022.597384120156
 30
0.0
  0
POINT
  5
248E5
330
248B4
100
AcDbEntity
  8
Defpoints
 62
     0
100
AcDbPoint
 10
640.4932421144177
 20
-1017.492170055966
 30
0.0
  0
ENDBLK
  5
248BF
330
248B4
100
AcDbEntity
  8
0
100
AcDbBlockEnd
  0
BLOCK
  5
248ED
330
248E6
100
AcDbEntity
  8
0
100
AcDbBlockBegin
  2
*S40
 70
     1
 10
0.0
 20
0.0
 30
0.0
  3
*S40
  1

  0
LINE
  5
248E7
330
248E6
100
AcDbEntity
  8
AM_5
 62
     3
100
AcDbLine
 10
778.6415622733842
 20
-847.2641951773042
 30
0.0
 11
755.1322289400508
 21
-847.2641951773042
 31
0.0
  0
LINE
  5
248E8
330
248E6
100
AcDbEntity
  8
AM_5
 62
     3
100
AcDbLine
 10
755.1322289400508
 20
-847.2641951773042
 30
0.0
 11
748.8786527668874
 21
-855.1501302920531
 31
0.0
  0
LINE
  5
248E9
330
248E6
100
AcDbEntity
  8
AM_5
  6
Continuous
 62
     3
100
AcDbLine
 10
748.8786527668874
 20
-855.1501302920531
 30
0.0
 11
747.6359592478567
 21
-856.7172017064306
 31
0.0
  0
LINE
  5
248EA
330
248E6
100
AcDbEntity
  8
AM_5
  6
Continuous
 62
     3
100
AcDbLine
 10
748.4587572507328
 20
-854.8171515702106
 30
0.0
 11
747.6359592478567
 21
-856.7172017064306
 31
0.0
  0
LINE
  5
248EB
330
248E6
100
AcDbEntity
  8
AM_5
  6
Continuous
 62
     3
100
AcDbLine
 10
747.6359592478567
 20
-856.7172017064306
 30
0.0
 11
749.298548283042
 21
-855.4831090138957
 31
0.0
  0
MTEXT
  5
248EC
330
248E6
100
AcDbEntity
  8
AM_5
 62
     2
100
AcDbMText
 10
758.3322289400508
 20
-845.6641951773042
 30
0.0
 40
3.2
 41
0.0
 71
     7
 72
     5
  1
スタッドビスM4
 73
     1
 44
1.0
1001
ACAD
1000
MTEXTBEGIN
1070
    73
1070
     1
1070
    44
1040
1.0
1070
    74
1070
     0
1000
MTEXTEND
  0
ENDBLK
  5
248EE
330
248E6
100
AcDbEntity
  8
0
100
AcDbBlockEnd
  0
ENDSEC
  0
SECTION
  2
ENTITIES
  0
AMDTACMWBLOCKBOMENTITY
  5
ED35
330
1F
100
AcDbEntity
  8
AM_5
 48
1.01
 92
        8
310
0800000000000000
  0
AMDTACMWBLOCKBOMENTITY
  5
ED36
330
1F
100
AcDbEntity
  8
AM_5
 48
1.01
 92
        8
310
0800000000000000
  0
AMDTACMWBLOCKBOMENTITY
  5
ED37
330
1F
100
AcDbEntity
  8
AM_5
 48
1.01
 92
        8
310
0800000000000000
  0
AMDTACMWBLOCKBOMENTITY
  5
ED38
330
1F
100
AcDbEntity
  8
AM_5
 48
1.01
 92
        8
310
0800000000000000
  0
AMDTACMWBLOCKBOMENTITY
  5
ED39
330
1F
100
AcDbEntity
  8
AM_5
 48
1.01
 92
        8
310
0800000000000000
  0
AMDTACMWBLOCKBOMENTITY
  5
11514
330
1F
100
AcDbEntity
  8
AM_6
 92
        8
310
0800000000000000
  0
AMDTACMWBLOCKBOMENTITY
  5
11515
330
1F
100
AcDbEntity
  8
AM_5
 92
        8
310
0800000000000000
  0
AMDTACMWBLOCKBOMENTITY
  5
11516
330
1F
100
AcDbEntity
  8
AM_5
 92
        8
310
0800000000000000
  0
AMDTACMWBLOCKBOMENTITY
  5
11517
330
1F
100
AcDbEntity
  8
AM_5
 92
        8
310
0800000000000000
  0
AMDTACMWBLOCKBOMENTITY
  5
11518
330
1F
100
AcDbEntity
  8
AM_5
 92
        8
310
0800000000000000
  0
AMDTACMWBLOCKBOMENTITY
  5
11519
330
1F
100
AcDbEntity
  8
AM_5
 92
        8
310
0800000000000000
  0
AMDTACMWBLOCKBOMENTITY
  5
1151A
330
1F
100
AcDbEntity
  8
AM_5
 92
        8
310
0800000000000000
  0
AMDTACMWBLOCKBOMENTITY
  5
1151B
330
1F
100
AcDbEntity
  8
AM_5
 92
        8
310
0800000000000000
  0
AMDTACMWBLOCKBOMENTITY
  5
1258E
330
1F
100
AcDbEntity
  8
AM_6
 92
        8
310
0800000000000000
  0
AMDTACMWBLOCKBOMENTITY
  5
12BA6
330
1F
100
AcDbEntity
  8
AM_6
 92
        8
310
0800000000000000
  0
AMDTACMWBLOCKBOMENTITY
  5
12E9D
330
1F
100
AcDbEntity
  8
AM_6
 92
        8
310
0800000000000000
  0
AMDTACMWBLOCKBOMENTITY
  5
131E0
330
1F
100
AcDbEntity
  8
AM_6
 92
        8
310
0800000000000000
  0
LINE
  5
247AE
330
1F
100
AcDbEntity
  8
size
100
AcDbLine
 10
518.4281905253004
 20
-1090.191851036205
 30
0.0
 11
938.4281905253004
 21
-1090.191851036205
 31
0.0
1001
GENIUS_GENREC_14
1002
{
1000
PYDIR
1011
518.4281905253004
1021
-793.1918510362054
1031
0.0
1002
}
1002
{
1000
PXDIR
1011
938.4281905253004
1021
-1090.191851036205
1031
0.0
1002
}
1002
{
1000
PORI
1011
518.4281905253004
1021
-1090.191851036205
1031
0.0
1002
}
1002
{
1000
PINS
1011
728.4281905253005
1021
-941.6918510362053
1031
0.0
1002
}
1002
{
1000
HVAL
1000
297
1002
}
1002
{
1000
H
1070
     2
1002
}
1002
{
1000
WVAL
1000
420
1002
}
1002
{
1000
W
1070
     2
1002
}
1002
{
1000
C
1070
     4
1002
}
1001
GENIUS_GENOBJ-N-REC_13
1002
{
1000
OWNER
1000
GEN
1002
}
1001
GENIUS_GENODEF_13
1002
{
1000
HIER
1070
     0
1002
}
1002
{
1000
MANEDIT
1070
     0
1002
}
1002
{
1000
NOSEL
1070
     0
1002
}
1002
{
1000
BEHIND
1070
     0
1002
}
1002
{
1000
OTHER
1070
     0
1002
}
1002
{
1000
REACTOR
1002
}
  0
LINE
  5
247AF
330
1F
100
AcDbEntity
  8
size
100
AcDbLine
 10
938.4281905253004
 20
-1090.191851036205
 30
0.0
 11
938.4281905253004
 21
-793.1918510362054
 31
0.0
1001
GENIUS_GENREC_14
1002
{
1000
PYDIR
1011
518.4281905253004
1021
-793.1918510362054
1031
0.0
1002
}
1002
{
1000
PXDIR
1011
938.4281905253004
1021
-1090.191851036205
1031
0.0
1002
}
1002
{
1000
PORI
1011
518.4281905253004
1021
-1090.191851036205
1031
0.0
1002
}
1002
{
1000
PINS
1011
728.4281905253005
1021
-941.6918510362053
1031
0.0
1002
}
1002
{
1000
HVAL
1000
297
1002
}
1002
{
1000
H
1070
     2
1002
}
1002
{
1000
WVAL
1000
420
1002
}
1002
{
1000
W
1070
     2
1002
}
1002
{
1000
C
1070
     4
1002
}
1001
GENIUS_GENOBJ-N-REC_13
1002
{
1000
OWNER
1000
GEN
1002
}
1001
GENIUS_GENODEF_13
1002
{
1000
HIER
1070
     0
1002
}
1002
{
1000
MANEDIT
1070
     0
1002
}
1002
{
1000
NOSEL
1070
     0
1002
}
1002
{
1000
BEHIND
1070
     0
1002
}
1002
{
1000
OTHER
1070
     0
1002
}
1002
{
1000
REACTOR
1002
}
  0
LINE
  5
247B0
330
1F
100
AcDbEntity
  8
size
100
AcDbLine
 10
938.4281905253004
 20
-793.1918510362054
 30
0.0
 11
518.4281905253004
 21
-793.1918510362054
 31
0.0
1001
GENIUS_GENREC_14
1002
{
1000
PYDIR
1011
518.4281905253004
1021
-793.1918510362054
1031
0.0
1002
}
1002
{
1000
PXDIR
1011
938.4281905253004
1021
-1090.191851036205
1031
0.0
1002
}
1002
{
1000
PORI
1011
518.4281905253004
1021
-1090.191851036205
1031
0.0
1002
}
1002
{
1000
PINS
1011
728.4281905253005
1021
-941.6918510362053
1031
0.0
1002
}
1002
{
1000
HVAL
1000
297
1002
}
1002
{
1000
H
1070
     2
1002
}
1002
{
1000
WVAL
1000
420
1002
}
1002
{
1000
W
1070
     2
1002
}
1002
{
1000
C
1070
     4
1002
}
1001
GENIUS_GENOBJ-N-REC_13
1002
{
1000
OWNER
1000
GEN
1002
}
1001
GENIUS_GENODEF_13
1002
{
1000
HIER
1070
     0
1002
}
1002
{
1000
MANEDIT
1070
     0
1002
}
1002
{
1000
NOSEL
1070
     0
1002
}
1002
{
1000
BEHIND
1070
     0
1002
}
1002
{
1000
OTHER
1070
     0
1002
}
1002
{
1000
REACTOR
1002
}
  0
LINE
  5
247B1
330
1F
100
AcDbEntity
  8
size
100
AcDbLine
 10
518.4281905253004
 20
-793.1918510362054
 30
0.0
 11
518.4281905253004
 21
-1090.191851036205
 31
0.0
1001
GENIUS_GENREC_14
1002
{
1000
PYDIR
1011
518.4281905253004
1021
-793.1918510362054
1031
0.0
1002
}
1002
{
1000
PXDIR
1011
938.4281905253004
1021
-1090.191851036205
1031
0.0
1002
}
1002
{
1000
PORI
1011
518.4281905253004
1021
-1090.191851036205
1031
0.0
1002
}
1002
{
1000
PINS
1011
728.4281905253005
1021
-941.6918510362053
1031
0.0
1002
}
1002
{
1000
HVAL
1000
297
1002
}
1002
{
1000
H
1070
     2
1002
}
1002
{
1000
WVAL
1000
420
1002
}
1002
{
1000
W
1070
     2
1002
}
1002
{
1000
C
1070
     4
1002
}
1001
GENIUS_GENOBJ-N-REC_13
1002
{
1000
OWNER
1000
GEN
1002
}
1001
GENIUS_GENODEF_13
1002
{
1000
HIER
1070
     0
1002
}
1002
{
1000
MANEDIT
1070
     0
1002
}
1002
{
1000
NOSEL
1070
     0
1002
}
1002
{
1000
BEHIND
1070
     0
1002
}
1002
{
1000
OTHER
1070
     0
1002
}
1002
{
1000
REACTOR
1002
}
  0
LINE
  5
247B2
330
1F
100
AcDbEntity
  8
waku
100
AcDbLine
 10
926.9281905253002
 20
-1081.691851036205
 30
0.0
 11
926.9281905253004
 21
-801.6918510362055
 31
0.0
1001
GENIUS_GENREC_14
1002
{
1000
PYDIR
1011
518.4281905253004
1021
-793.1918510362054
1031
0.0
1002
}
1002
{
1000
PXDIR
1011
938.4281905253004
1021
-1090.191851036205
1031
0.0
1002
}
1002
{
1000
PORI
1011
518.4281905253004
1021
-1090.191851036205
1031
0.0
1002
}
1002
{
1000
PINS
1011
728.4281905253005
1021
-941.6918510362053
1031
0.0
1002
}
1002
{
1000
HVAL
1000
297
1002
}
1002
{
1000
H
1070
     2
1002
}
1002
{
1000
WVAL
1000
420
1002
}
1002
{
1000
W
1070
     2
1002
}
1002
{
1000
C
1070
     4
1002
}
1001
GENIUS_GENOBJ-N-REC_13
1002
{
1000
OWNER
1000
GEN
1002
}
1001
GENIUS_GENODEF_13
1002
{
1000
HIER
1070
     0
1002
}
1002
{
1000
MANEDIT
1070
     0
1002
}
1002
{
1000
NOSEL
1070
     0
1002
}
1002
{
1000
BEHIND
1070
     0
1002
}
1002
{
1000
OTHER
1070
     0
1002
}
1002
{
1000
REACTOR
1002
}
  0
LINE
  5
247B3
330
1F
100
AcDbEntity
  8
waku
100
AcDbLine
 10
529.9281905253004
 20
-801.6918510362055
 30
0.0
 11
529.9281905253004
 21
-1081.691851036205
 31
0.0
1001
GENIUS_GENREC_14
1002
{
1000
PYDIR
1011
518.4281905253004
1021
-793.1918510362054
1031
0.0
1002
}
1002
{
1000
PXDIR
1011
938.4281905253004
1021
-1090.191851036205
1031
0.0
1002
}
1002
{
1000
PORI
1011
518.4281905253004
1021
-1090.191851036205
1031
0.0
1002
}
1002
{
1000
PINS
1011
728.4281905253005
1021
-941.6918510362053
1031
0.0
1002
}
1002
{
1000
HVAL
1000
297
1002
}
1002
{
1000
H
1070
     2
1002
}
1002
{
1000
WVAL
1000
420
1002
}
1002
{
1000
W
1070
     2
1002
}
1002
{
1000
C
1070
     4
1002
}
1001
GENIUS_GENOBJ-N-REC_13
1002
{
1000
OWNER
1000
GEN
1002
}
1001
GENIUS_GENODEF_13
1002
{
1000
HIER
1070
     0
1002
}
1002
{
1000
MANEDIT
1070
     0
1002
}
1002
{
1000
NOSEL
1070
     0
1002
}
1002
{
1000
BEHIND
1070
     0
1002
}
1002
{
1000
OTHER
1070
     0
1002
}
1002
{
1000
REACTOR
1002
}
  0
LINE
  5
247B4
330
1F
100
AcDbEntity
  8
waku
100
AcDbLine
 10
926.9281905253004
 20
-801.6918510362055
 30
0.0
 11
529.9281905253004
 21
-801.6918510362055
 31
0.0
1001
GENIUS_GENREC_14
1002
{
1000
PYDIR
1011
518.4281905253004
1021
-793.1918510362054
1031
0.0
1002
}
1002
{
1000
PXDIR
1011
938.4281905253004
1021
-1090.191851036205
1031
0.0
1002
}
1002
{
1000
PORI
1011
518.4281905253004
1021
-1090.191851036205
1031
0.0
1002
}
1002
{
1000
PINS
1011
728.4281905253005
1021
-941.6918510362053
1031
0.0
1002
}
1002
{
1000
HVAL
1000
297
1002
}
1002
{
1000
H
1070
     2
1002
}
1002
{
1000
WVAL
1000
420
1002
}
1002
{
1000
W
1070
     2
1002
}
1002
{
1000
C
1070
     4
1002
}
1001
GENIUS_GENOBJ-N-REC_13
1002
{
1000
OWNER
1000
GEN
1002
}
1001
GENIUS_GENODEF_13
1002
{
1000
HIER
1070
     0
1002
}
1002
{
1000
MANEDIT
1070
     0
1002
}
1002
{
1000
NOSEL
1070
     0
1002
}
1002
{
1000
BEHIND
1070
     0
1002
}
1002
{
1000
OTHER
1070
     0
1002
}
1002
{
1000
REACTOR
1002
}
  0
LINE
  5
247B5
330
1F
100
AcDbEntity
  8
waku
100
AcDbLine
 10
529.9281905253004
 20
-1081.691851036205
 30
0.0
 11
926.9281905253002
 21
-1081.691851036205
 31
0.0
  0
LINE
  5
247B6
102
{ACAD_REACTORS
330
247D1
330
247D4
102
}
330
1F
100
AcDbEntity
  8
0部品1
100
AcDbLine
 10
717.6359592478567
 20
-1030.044777088056
 30
0.0
 11
717.6359592478567
 21
-910.0447770880558
 31
0.0
  0
LINE
  5
247B7
102
{ACAD_REACTORS
330
247D4
102
}
330
1F
100
AcDbEntity
  8
0部品1
100
AcDbLine
 10
777.6359592478566
 20
-1030.044777088056
 30
0.0
 11
717.6359592478567
 21
-1030.044777088056
 31
0.0
  0
LINE
  5
247B8
330
1F
100
AcDbEntity
  8
0部品1
100
AcDbLine
 10
777.6359592478566
 20
-910.0447770880558
 30
0.0
 11
777.6359592478566
 21
-1030.044777088056
 31
0.0
  0
LINE
  5
247B9
102
{ACAD_REACTORS
330
247D1
102
}
330
1F
100
AcDbEntity
  8
0部品1
100
AcDbLine
 10
717.6359592478567
 20
-910.0447770880558
 30
0.0
 11
777.6359592478566
 21
-910.0447770880558
 31
0.0
  0
ARC
  5
247BA
330
1F
100
AcDbEntity
  8
0部品1
100
AcDbCircle
 10
759.6359592478567
 20
-929.0447770880557
 30
0.0
 40
2.0
100
AcDbArc
 50
0.0
 51
90.0
  0
LINE
  5
247BB
102
{ACAD_REACTORS
330
247D7
102
}
330
1F
100
AcDbEntity
  8
0部品1
100
AcDbLine
 10
735.6359592478566
 20
-927.0447770880558
 30
0.0
 11
759.6359592478567
 21
-927.0447770880558
 31
0.0
  0
ARC
  5
247BC
330
1F
100
AcDbEntity
  8
0部品1
100
AcDbCircle
 10
735.6359592478566
 20
-929.0447770880557
 30
0.0
 40
2.0
100
AcDbArc
 50
90.0
 51
180.0
  0
LINE
  5
247BD
102
{ACAD_REACTORS
330
247DA
102
}
330
1F
100
AcDbEntity
  8
0部品1
100
AcDbLine
 10
761.6359592478566
 20
-929.0447770880557
 30
0.0
 11
761.6359592478566
 21
-1011.044777088056
 31
0.0
  0
ARC
  5
247BE
330
1F
100
AcDbEntity
  8
0部品1
100
AcDbCircle
 10
759.6359592478567
 20
-1011.044777088056
 30
0.0
 40
2.0
100
AcDbArc
 50
270.0
 51
0.0
  0
LINE
  5
247BF
102
{ACAD_REACTORS
330
247D7
102
}
330
1F
100
AcDbEntity
  8
0部品1
100
AcDbLine
 10
759.6359592478567
 20
-1013.044777088055
 30
0.0
 11
735.6359592478566
 21
-1013.044777088055
 31
0.0
  0
LINE
  5
247C0
102
{ACAD_REACTORS
330
247DA
102
}
330
1F
100
AcDbEntity
  8
0部品1
100
AcDbLine
 10
733.6359592478567
 20
-1011.044777088056
 30
0.0
 11
733.6359592478567
 21
-929.0447770880557
 31
0.0
  0
ARC
  5
247C1
330
1F
100
AcDbEntity
  8
0部品1
100
AcDbCircle
 10
735.6359592478566
 20
-1011.044777088056
 30
0.0
 40
2.0
100
AcDbArc
 50
180.0
 51
270.0
  0
LINE
  5
247C2
330
1F
100
AcDbEntity
  8
0部品1
  6
中心線1
 48
0.5
370
    13
100
AcDbLine
 10
747.6359592478567
 20
-1033.044777088055
 30
0.0
 11
747.6359592478567
 21
-907.0447770880557
 31
0.0
  0
HATCH
  5
247C3
330
1F
100
AcDbEntity
  8
0部品1
  6
細線
 48
0.5
370
    13
100
AcDbHatch
 10
0.0
 20
0.0
 30
0.0
210
0.0
220
0.0
230
1.0
  2
ANSI31
 70
     0
 71
     0
 91
       12
 92
        7
 72
     0
 73
     1
 93
        4
 10
642.0693757824948
 20
-924.5447770880558
 10
619.5693757824948
 20
-924.5447770880558
 10
619.5693757824948
 20
-970.0447770880558
 10
642.069375782495
 20
-970.0447770880558
 97
        0
 92
        7
 72
     0
 73
     1
 93
        4
 10
642.069375782495
 20
-970.0447770880558
 10
664.5693757824948
 20
-970.0447770880558
 10
664.5693757824948
 20
-924.5447770880558
 10
642.0693757824948
 20
-924.5447770880556
 97
        0
 92
        7
 72
     0
 73
     1
 93
        4
 10
619.5693757824948
 20
-1015.544777088056
 10
642.0693757824948
 20
-1015.544777088055
 10
642.0693757824948
 20
-970.0447770880558
 10
619.5693757824948
 20
-970.0447770880558
 97
        0
 92
        7
 72
     0
 73
     1
 93
        4
 10
642.0693757824948
 20
-1015.544777088055
 10
664.5693757824948
 20
-1015.544777088055
 10
664.5693757824948
 20
-970.0447770880558
 10
642.069375782495
 20
-970.0447770880558
 97
        0
 92
        7
 72
     1
 73
     1
 93
        3
 10
642.069375782495
 20
-920.0447770880558
 42
0.0
 10
639.0693757824948
 20
-920.0447770880558
 42
0.4142135623730951
 10
642.0693757824948
 20
-923.0447770880557
 42
0.0
 97
        0
 92
        7
 72
     1
 73
     1
 93
        3
 10
645.0693757824948
 20
-920.0447770880558
 42
0.0
 10
642.0693757824948
 20
-920.0447770880556
 42
0.0
 10
642.0693757824948
 20
-923.0447770880557
 42
0.4142135623730951
 97
        0
 92
        7
 72
     1
 73
     1
 93
        3
 10
645.0693757824948
 20
-920.0447770880558
 42
0.4142135623730951
 10
642.0693757824948
 20
-917.0447770880556
 42
0.0
 10
642.0693757824948
 20
-920.0447770880558
 42
0.0
 97
        0
 92
        7
 72
     1
 73
     1
 93
        3
 10
642.069375782495
 20
-917.0447770880556
 42
0.4142135623730978
 10
639.0693757824948
 20
-920.0447770880558
 42
0.0
 10
642.0693757824948
 20
-920.0447770880556
 42
0.0
 97
        0
 92
        7
 72
     1
 73
     1
 93
        3
 10
642.0693757824948
 20
-1017.044777088055
 42
0.0
 10
642.0693757824948
 20
-1020.044777088056
 42
0.0
 10
645.0693757824948
 20
-1020.044777088056
 42
0.4142135623730951
 97
        0
 92
        7
 72
     1
 73
     1
 93
        3
 10
642.069375782495
 20
-1020.044777088056
 42
0.0
 10
642.069375782495
 20
-1023.044777088055
 42
0.4142135623730924
 10
645.0693757824948
 20
-1020.044777088056
 42
0.0
 97
        0
 92
        7
 72
     1
 73
     1
 93
        3
 10
642.0693757824948
 20
-1020.044777088056
 42
0.0
 10
639.0693757824948
 20
-1020.044777088056
 42
0.4142135623730839
 10
642.0693757824948
 20
-1023.044777088055
 42
0.0
 97
        0
 92
        7
 72
     1
 73
     1
 93
        3
 10
642.069375782495
 20
-1020.044777088056
 42
0.0
 10
642.069375782495
 20
-1017.044777088055
 42
0.4142135623730978
 10
639.0693757824948
 20
-1020.044777088056
 42
0.0
 97
        0
 75
     0
 76
     1
 52
90.0
 41
0.75
 77
     0
 78
     1
 53
135.0
 43
439.7681389976952
 44
-4.53904625877135
 45
-1.683798022700466
 46
-1.683798022700465
 79
     0
 47
0.0312560828549887
 98
       12
 10
633.0168274503749
 20
-949.1207598576954
 10
650.3807744454794
 20
-950.4823067776712
 10
628.9311893140357
 20
-982.8189905664446
 10
649.6998372701461
 20
-988.9459405942055
 10
641.2393452184375
 20
-921.5967390605758
 10
643.6284026334684
 20
-921.2323973588798
 10
643.1020007274407
 20
-919.3297147676924
 10
641.2393452184375
 20
-919.1273017851838
 10
643.6605096463987
 20
-1018.73795799548
 10
643.6605096463987
 20
-1020.957139017732
 10
641.221937892658
 20
-1020.988394658068
 10
640.3778145803113
 20
-1019.206798156593
1001
ACAD
1010
0.0
1020
0.0
1030
0.0
  0
CIRCLE
  5
247C4
330
1F
100
AcDbEntity
  8
0部品1
100
AcDbCircle
 10
642.0693757824948
 20
-920.0447770880558
 30
0.0
 40
3.0
  0
LINE
  5
247C5
102
{ACAD_REACTORS
330
247E0
102
}
330
1F
100
AcDbEntity
  8
0部品1
100
AcDbLine
 10
619.5693757824948
 20
-924.5447770880558
 30
0.0
 11
664.5693757824948
 21
-924.5447770880558
 31
0.0
  0
LINE
  5
247C6
102
{ACAD_REACTORS
330
247DD
102
}
330
1F
100
AcDbEntity
  8
0部品1
100
AcDbLine
 10
619.5693757824948
 20
-1015.544777088056
 30
0.0
 11
619.5693757824948
 21
-924.5447770880558
 31
0.0
  0
CIRCLE
  5
247C7
102
{ACAD_REACTORS
330
247E6
102
}
330
1F
100
AcDbEntity
  8
0部品1
100
AcDbCircle
 10
642.0693757824948
 20
-1020.044777088056
 30
0.0
 40
3.0
  0
LINE
  5
247C8
102
{ACAD_REACTORS
330
247E0
102
}
330
1F
100
AcDbEntity
  8
0部品1
100
AcDbLine
 10
619.5693757824948
 20
-1015.544777088056
 30
0.0
 11
664.5693757824948
 21
-1015.544777088056
 31
0.0
  0
LINE
  5
247C9
102
{ACAD_REACTORS
330
247DD
102
}
330
1F
100
AcDbEntity
  8
0部品1
100
AcDbLine
 10
664.5693757824948
 20
-1015.544777088056
 30
0.0
 11
664.5693757824948
 21
-924.5447770880558
 31
0.0
  0
LINE
  5
247CA
330
1F
100
AcDbEntity
  8
0部品1
  6
中心線1
 48
0.5
370
    13
100
AcDbLine
 10
642.0693757824948
 20
-1026.044777088056
 30
0.0
 11
642.0693757824948
 21
-914.0447770880557
 31
0.0
  0
LINE
  5
247CB
102
{ACAD_REACTORS
330
247E3
102
}
330
1F
100
AcDbEntity
  8
0部品1
  6
中心線1
 48
0.5
370
    13
100
AcDbLine
 10
636.0693757824948
 20
-1020.044777088056
 30
0.0
 11
648.0693757824948
 21
-1020.044777088056
 31
0.0
  0
LINE
  5
247CC
102
{ACAD_REACTORS
330
247E3
102
}
330
1F
100
AcDbEntity
  8
0部品1
  6
中心線1
 48
0.5
370
    13
100
AcDbLine
 10
636.0693757824948
 20
-920.0447770880558
 30
0.0
 11
648.0693757824948
 21
-920.0447770880558
 31
0.0
  0
LINE
  5
247CD
330
1F
100
AcDbEntity
  8
0部品1
  6
中心線1
 48
0.5
370
    13
100
AcDbLine
 10
667.5693757824948
 20
-970.0447770880558
 30
0.0
 11
616.5693757824948
 21
-970.0447770880558
 31
0.0
  0
LINE
  5
247CE
330
1F
100
AcDbEntity
  8
0部品1
  6
中心線1
 48
0.5
370
    13
100
AcDbLine
 10
780.6359592478567
 20
-970.0447770880558
 30
0.0
 11
714.6359592478567
 21
-970.0447770880558
 31
0.0
  0
DIMENSION
  5
247CF
102
{ACAD_XDICTIONARY
360
247D0
102
}
102
{ACAD_REACTORS
330
247D1
102
}
330
1F
100
AcDbEntity
  8
AM_5
100
AcDbDimension
  2
*D32
 10
777.6359592478566
 20
-894.0447770880558
 30
0.0
 11
747.6359592478567
 21
-894.0447770880558
 31
0.0
 70
   160
 71
     5
 42
60.0
  3
SYS$0
100
AcDbAlignedDimension
 13
717.6359592478567
 23
-910.0447770880558
 33
0.0
 14
777.6359592478566
 24
-910.0447770880558
 34
0.0
100
AcDbRotatedDimension
1001
ACAD
1000
DSTYLE
1002
{
1070
    47
1040
0.2
1070
    48
1040
-0.2
1070
   271
1070
     1
1002
}
  0
DIMENSION
  5
247D2
102
{ACAD_XDICTIONARY
360
247D3
102
}
102
{ACAD_REACTORS
330
247D4
102
}
330
1F
100
AcDbEntity
  8
AM_5
100
AcDbDimension
  2
*D33
 10
701.6359592478566
 20
-1030.044777088056
 30
0.0
 11
701.6359592478567
 21
-970.0447770880558
 31
0.0
 70
   160
 71
     5
 42
119.9999999999999
  3
SYS$0
100
AcDbAlignedDimension
 13
717.6359592478567
 23
-910.0447770880558
 33
0.0
 14
717.6359592478567
 24
-1030.044777088056
 34
0.0
 50
90.0
100
AcDbRotatedDimension
1001
ACAD
1000
DSTYLE
1002
{
1070
    47
1040
0.2
1070
    48
1040
-0.2
1070
   271
1070
     1
1002
}
  0
DIMENSION
  5
247D5
102
{ACAD_XDICTIONARY
360
247D6
102
}
102
{ACAD_REACTORS
330
247D7
102
}
330
1F
100
AcDbEntity
  8
AM_5
100
AcDbDimension
  2
*D34
 10
709.6359592478566
 20
-1013.044777088055
 30
0.0
 11
709.6359592478567
 21
-970.0447770880558
 31
0.0
 70
   160
 71
     5
 42
86.0
  3
SYS$0
100
AcDbAlignedDimension
 13
735.6359592478566
 23
-927.0447770880558
 33
0.0
 14
735.6359592478566
 24
-1013.044777088055
 34
0.0
 50
90.0
100
AcDbRotatedDimension
1001
ACAD
1000
DSTYLE
1002
{
1070
    47
1040
0.2
1070
    48
1040
-0.2
1070
   271
1070
     1
1002
}
  0
DIMENSION
  5
247D8
102
{ACAD_XDICTIONARY
360
247D9
102
}
102
{ACAD_REACTORS
330
247DA
102
}
330
1F
100
AcDbEntity
  8
AM_5
100
AcDbDimension
  2
*D35
 10
761.6359592478566
 20
-902.0447770880558
 30
0.0
 11
747.6359592478567
 21
-902.0447770880558
 31
0.0
 70
   160
 71
     5
 42
28.0
  3
SYS$0
100
AcDbAlignedDimension
 13
733.6359592478567
 23
-929.0447770880557
 33
0.0
 14
761.6359592478566
 24
-929.0447770880575
 34
0.0
100
AcDbRotatedDimension
1001
ACAD
1000
DSTYLE
1002
{
1070
    47
1040
0.2
1070
    48
1040
-0.2
1002
}
  0
DIMENSION
  5
247DB
102
{ACAD_XDICTIONARY
360
247DC
102
}
102
{ACAD_REACTORS
330
247DD
102
}
330
1F
100
AcDbEntity
  8
AM_5
100
AcDbDimension
  2
*D36
 10
664.5693757824948
 20
-909.0447770880556
 30
0.0
 11
642.0693757824948
 21
-909.0447770880556
 31
0.0
 70
   160
 71
     5
 42
45.0
  3
SYS$0
100
AcDbAlignedDimension
 13
619.5693757824948
 23
-924.5447770880558
 33
0.0
 14
664.5693757824948
 24
-924.5447770880558
 34
0.0
100
AcDbRotatedDimension
1001
ACAD
1000
DSTYLE
1002
{
1070
    47
1040
0.2
1070
    48
1040
-0.2
1070
   271
1070
     1
1002
}
  0
DIMENSION
  5
247DE
102
{ACAD_XDICTIONARY
360
247DF
102
}
102
{ACAD_REACTORS
330
247E0
102
}
330
1F
100
AcDbEntity
  8
AM_5
100
AcDbDimension
  2
*D37
 10
611.5693757824947
 20
-1015.544777088056
 30
0.0
 11
611.5693757824948
 21
-970.0447770880558
 31
0.0
 70
   160
 71
     5
 42
91.0
  3
SYS$0
100
AcDbAlignedDimension
 13
619.5693757824948
 23
-924.5447770880558
 33
0.0
 14
619.5693757824948
 24
-1015.544777088056
 34
0.0
 50
90.0
100
AcDbRotatedDimension
1001
ACAD
1000
DSTYLE
1002
{
1070
    47
1040
0.2
1070
    48
1040
-0.2
1070
   271
1070
     1
1002
}
  0
DIMENSION
  5
247E1
102
{ACAD_XDICTIONARY
360
247E2
102
}
102
{ACAD_REACTORS
330
247E3
102
}
330
1F
100
AcDbEntity
  8
AM_5
100
AcDbDimension
  2
*D38
 10
603.5693757824946
 20
-1020.044777088056
 30
0.0
 11
603.5693757824948
 21
-970.0447770880558
 31
0.0
 70
   160
 71
     5
 42
100.0
  3
SYS$0
100
AcDbAlignedDimension
 13
636.0693757824948
 23
-920.0447770880558
 33
0.0
 14
636.0693757824948
 24
-1020.044777088056
 34
0.0
 50
90.0
100
AcDbRotatedDimension
1001
ACAD
1000
DSTYLE
1002
{
1070
    47
1040
0.2
1070
    48
1040
-0.2
1070
   271
1070
     1
1002
}
  0
DIMENSION
  5
247E4
102
{ACAD_XDICTIONARY
360
247E5
102
}
102
{ACAD_REACTORS
330
247E6
102
}
330
1F
100
AcDbEntity
  8
AM_5
100
AcDbDimension
  2
*D39
 10
640.4932421144177
 20
-1017.492170055966
 30
0.0
 11
654.0597265131709
 21
-1029.570922792201
 31
0.0
 70
   163
  1
2-<>
 71
     5
 42
5.999999999986812
  3
SYS$3
100
AcDbDiametricDimension
 15
643.6455094505788
 25
-1022.597384120156
 35
0.0
 40
0.0
1001
ACAD
1000
DSTYLE
1002
{
1070
    47
1040
0.2
1070
    48
1040
-0.2
1070
   172
1070
     1
1070
   342
1005
23D81
1002
}
  0
MTEXT
  5
247E7
330
1F
100
AcDbEntity
  8
AM_6
100
AcDbMText
 10
633.7223567335087
 20
-1038.987374505595
 30
0.0
 40
3.2
 41
61.70759746926342
 71
     1
 72
     5
  1
切欠推奨寸法
 73
     1
 44
1.0
1001
ACAD
1000
MTEXTBEGIN
1070
    73
1070
     1
1070
    44
1040
1.0
1070
    74
1070
     0
1000
MTEXTEND
  0
DIMENSION
  5
247E8
330
1F
100
AcDbEntity
  8
AM_5
100
AcDbDimension
  2
*D29
 10
709.6312126340639
 20
-865.7172017064304
 30
0.0
 11
709.6312126340641
 21
-873.3292017064306
 31
0.0
 70
   160
  1
（<>）
 71
     5
 42
2.000000000000227
  3
SYS$0
100
AcDbAlignedDimension
 13
718.3811926537592
 23
-867.7172017064306
 33
0.0
 14
720.4747639658489
 24
-865.7172017064304
 34
0.0
 50
90.0
100
AcDbRotatedDimension
1001
ACAD
1000
DSTYLE
1002
{
1070
    47
1040
0.2
1070
    48
1040
-0.2
1070
   271
1070
     1
1002
}
  0
DIMENSION
  5
247E9
330
1F
100
AcDbEntity
  8
AM_5
100
AcDbDimension
  2
*D30
 10
709.6312126340639
 20
-856.7172017064306
 30
0.0
 11
709.6312126340641
 21
-861.1947584968659
 31
0.0
 70
   160
 71
     5
 42
8.999999999999772
  3
SYS$0
100
AcDbAlignedDimension
 13
720.4747639658489
 23
-865.7172017064304
 33
0.0
 14
746.1359592478567
 24
-856.7172017064306
 34
0.0
 50
90.0
100
AcDbRotatedDimension
1001
ACAD
1000
DSTYLE
1002
{
1070
    47
1040
0.2
1070
    48
1040
-0.2
1070
   271
1070
     1
1002
}
  0
DIMENSION
  5
247EA
330
1F
100
AcDbEntity
  8
AM_5
100
AcDbDimension
  2
*D31
 10
701.6312126340639
 20
-852.7172017064305
 30
0.0
 11
701.6312126340641
 21
-860.1121026605889
 31
0.0
 70
   160
  1
（<>）
 71
     5
 42
15.0
  3
SYS$0
100
AcDbAlignedDimension
 13
718.3811926537592
 23
-867.7172017064306
 33
0.0
 14
729.1801899352702
 24
-852.7172017064305
 34
0.0
 50
90.0
100
AcDbRotatedDimension
1001
ACAD
1000
DSTYLE
1002
{
1070
    47
1040
0.2
1070
    48
1040
-0.2
1070
   271
1070
     1
1002
}
  0
INSERT
  5
247EB
330
1F
100
AcDbEntity
  8
AM_5
100
AcDbBlockReference
  2
*S40
 10
0.0
 20
0.0
 30
0.0
  0
LINE
  5
247EC
330
1F
100
AcDbEntity
  8
0部品1
100
AcDbLine
 10
718.3859592478567
 20
-867.7172017064306
 30
0.0
 11
776.8859592478567
 21
-867.7172017064306
 31
0.0
  0
ARC
  5
247ED
330
1F
100
AcDbEntity
  8
0部品1
100
AcDbCircle
 10
770.868010055426
 20
-864.7172017064308
 30
0.0
 40
2.0
100
AcDbArc
 50
184.3987077088826
 51
209.999999999986
1001
GENIUS_GENODEF_13
1002
{
1000
HIER
1070
     0
1002
}
1002
{
1000
MANEDIT
1070
     0
1002
}
1002
{
1000
NOSEL
1070
     0
1002
}
1002
{
1000
BEHIND
1070
     0
1002
}
1002
{
1000
OTHER
1070
     0
1002
}
1002
{
1000
REACTOR
1002
}
1001
GENIUS_GENOBJ-N-FIL_13
1002
{
1000
OWNER
1000
GEN
1002
}
  0
ARC
  5
247EE
330
1F
100
AcDbEntity
  8
0部品1
100
AcDbCircle
 10
766.0869619663461
 20
-854.7172017064308
 30
0.0
 40
2.0
100
AcDbArc
 50
4.398705000005763
 51
90.0
  0
LINE
  5
247EF
330
1F
100
AcDbEntity
  8
0部品1
100
AcDbLine
 10
768.8739010907246
 20
-864.8705947861246
 30
0.0
 11
768.0810709663455
 21
-854.5638087064308
 31
0.0
  0
LINE
  5
247F0
330
1F
100
AcDbEntity
  8
0部品1
100
AcDbLine
 10
766.0869619663461
 20
-852.7172017064309
 30
0.0
 11
729.1849565293676
 21
-852.7172017064305
 31
0.0
  0
ARC
  5
247F1
330
1F
100
AcDbEntity
  8
0部品1
100
AcDbCircle
 10
729.1849565293676
 20
-854.7172017064307
 30
0.0
 40
2.0
100
AcDbArc
 50
90.0
 51
175.6012949999942
  0
LINE
  5
247F2
330
1F
100
AcDbEntity
  8
0部品1
100
AcDbLine
 10
726.3980174049891
 20
-864.8705947861245
 30
0.0
 11
727.1908475293665
 21
-854.5638087064306
 31
0.0
  0
LINE
  5
247F3
330
1F
100
AcDbEntity
  8
0部品1
100
AcDbLine
 10
720.4795305599455
 20
-865.7172017064306
 30
0.0
 11
774.7923879357673
 21
-865.7172017064304
 31
0.0
  0
LINE
  5
247F4
330
1F
100
AcDbEntity
  8
0部品1
100
AcDbLine
 10
749.6359592478567
 20
-857.2172017064305
 30
0.0
 11
749.1359592478566
 21
-856.7172017064306
 31
0.0
  0
LINE
  5
247F5
330
1F
100
AcDbEntity
  8
0部品1
100
AcDbLine
 10
745.6359592478567
 20
-857.2172017064305
 30
0.0
 11
746.1359592478567
 21
-856.7172017064306
 31
0.0
  0
LINE
  5
247F6
330
1F
100
AcDbEntity
  8
0部品1
100
AcDbLine
 10
746.1359592478567
 20
-856.7172017064306
 30
0.0
 11
749.1359592478566
 21
-856.7172017064306
 31
0.0
  0
LINE
  5
247F7
330
1F
100
AcDbEntity
  8
0部品1
100
AcDbLine
 10
745.6359592478567
 20
-857.2172017064305
 30
0.0
 11
749.6359592478567
 21
-857.2172017064305
 31
0.0
  0
LINE
  5
247F8
330
1F
100
AcDbEntity
  8
0部品1
  6
中心線1
 48
0.5
370
    13
100
AcDbLine
 10
747.6359592478567
 20
-870.7172017064307
 30
0.0
 11
747.6359592478567
 21
-849.7172017064306
 31
0.0
  0
LINE
  5
247F9
330
1F
100
AcDbEntity
  8
0部品1
100
AcDbLine
 10
749.6359592478567
 20
-865.7172017064306
 30
0.0
 11
749.6359592478567
 21
-857.2172017064305
 31
0.0
  0
LINE
  5
247FA
330
1F
100
AcDbEntity
  8
0部品1
  6
細線
 48
0.5
370
    13
100
AcDbLine
 10
749.1359592478566
 20
-856.7172017064306
 30
0.0
 11
749.1359592478566
 21
-865.7172017064306
 31
0.0
  0
LINE
  5
247FB
330
1F
100
AcDbEntity
  8
0部品1
100
AcDbLine
 10
745.6359592478567
 20
-865.7172017064306
 30
0.0
 11
745.6359592478567
 21
-857.2172017064305
 31
0.0
  0
LINE
  5
247FC
330
1F
100
AcDbEntity
  8
0部品1
  6
細線
 48
0.5
370
    13
100
AcDbLine
 10
746.1359592478567
 20
-856.7172017064306
 30
0.0
 11
746.1359592478567
 21
-865.7172017064306
 31
0.0
  0
LINE
  5
247FD
330
1F
100
AcDbEntity
  8
0部品1
100
AcDbLine
 10
750.6359592478567
 20
-865.7172017064306
 30
0.0
 11
744.6359592478566
 21
-865.7172017064306
 31
0.0
  0
ARC
  5
247FE
330
1F
100
AcDbEntity
  8
0部品1
100
AcDbCircle
 10
776.8859592478567
 20
-866.9672017064305
 30
0.0
 40
0.75
100
AcDbArc
 50
270.0
 51
77.0737854573874
  0
LINE
  5
247FF
330
1F
100
AcDbEntity
  8
0部品1
100
AcDbLine
 10
774.7923879357673
 20
-865.7172017064304
 30
0.0
 11
777.0537313042538
 21
-866.236207495036
 31
0.0
  0
ARC
  5
24800
330
1F
100
AcDbEntity
  8
0部品1
100
AcDbCircle
 10
724.4039084402878
 20
-864.7172017064306
 30
0.0
 40
2.0
100
AcDbArc
 50
329.9999999999995
 51
355.6012922911044
1001
GENIUS_GENODEF_13
1002
{
1000
HIER
1070
     0
1002
}
1002
{
1000
MANEDIT
1070
     0
1002
}
1002
{
1000
NOSEL
1070
     0
1002
}
1002
{
1000
BEHIND
1070
     0
1002
}
1002
{
1000
OTHER
1070
     0
1002
}
1002
{
1000
REACTOR
1002
}
1001
GENIUS_GENOBJ-N-FIL_13
1002
{
1000
OWNER
1000
GEN
1002
}
  0
ARC
  5
24801
330
1F
100
AcDbEntity
  8
0部品1
100
AcDbCircle
 10
718.3859592478567
 20
-866.9672017064305
 30
0.0
 40
0.75
100
AcDbArc
 50
102.9262145426126
 51
270.0
  0
LINE
  5
24802
330
1F
100
AcDbEntity
  8
0部品1
100
AcDbLine
 10
720.4795305599465
 20
-865.7172017064304
 30
0.0
 11
718.2181871914596
 21
-866.236207495036
 31
0.0
  0
LINE
  5
24803
330
1F
100
AcDbEntity
  8
0部品1
100
AcDbLine
 10
817.8971922978353
 20
-1029.291307094326
 30
0.0
 11
817.8971922978353
 21
-910.7982470817852
 31
0.0
  0
ARC
  5
24804
330
1F
100
AcDbEntity
  8
0部品1
100
AcDbCircle
 10
820.8971922978355
 20
-924.1157914989759
 30
0.0
 40
2.0
100
AcDbArc
 50
239.9999999999906
 51
265.6012922911109
1001
GENIUS_GENODEF_13
1002
{
1000
HIER
1070
     0
1002
}
1002
{
1000
MANEDIT
1070
     0
1002
}
1002
{
1000
NOSEL
1070
     0
1002
}
1002
{
1000
BEHIND
1070
     0
1002
}
1002
{
1000
OTHER
1070
     0
1002
}
1002
{
1000
REACTOR
1002
}
1001
GENIUS_GENOBJ-N-FIL_13
1002
{
1000
OWNER
1000
GEN
1002
}
  0
ARC
  5
24805
330
1F
100
AcDbEntity
  8
0部品1
100
AcDbCircle
 10
830.8971922978354
 20
-928.8968395880559
 30
0.0
 40
2.0
100
AcDbArc
 50
0.0
 51
85.60129500000122
  0
LINE
  5
24806
330
1F
100
AcDbEntity
  8
0部品1
100
AcDbLine
 10
820.7437992181416
 20
-926.1099004636774
 30
0.0
 11
831.0505852978355
 21
-926.9027305880566
 31
0.0
  0
LINE
  5
24807
330
1F
100
AcDbEntity
  8
0部品1
100
AcDbLine
 10
832.8971922978354
 20
-928.8968395880559
 30
0.0
 11
832.8971922978354
 21
-1011.192714588055
 31
0.0
  0
ARC
  5
24808
330
1F
100
AcDbEntity
  8
0部品1
100
AcDbCircle
 10
830.8971922978354
 20
-1011.192714588055
 30
0.0
 40
2.0
100
AcDbArc
 50
274.3987049999987
 51
0.0
  0
LINE
  5
24809
330
1F
100
AcDbEntity
  8
0部品1
100
AcDbLine
 10
820.7437992181416
 20
-1013.979653712434
 30
0.0
 11
831.0505852978355
 21
-1013.186823588057
 31
0.0
  0
LINE
  5
2480A
330
1F
100
AcDbEntity
  8
0部品1
100
AcDbLine
 10
819.8971922978355
 20
-1027.197735782237
 30
0.0
 11
819.8971922978351
 21
-912.8918183938747
 31
0.0
  0
LINE
  5
2480B
330
1F
100
AcDbEntity
  8
0部品1
100
AcDbLine
 10
828.3971922978354
 20
-918.0447775880558
 30
0.0
 11
828.8971922978355
 21
-918.5447775880559
 31
0.0
  0
LINE
  5
2480C
330
1F
100
AcDbEntity
  8
0部品1
100
AcDbLine
 10
828.3971922978354
 20
-922.0447775880559
 30
0.0
 11
828.8971922978355
 21
-921.5447775880559
 31
0.0
  0
LINE
  5
2480D
330
1F
100
AcDbEntity
  8
0部品1
100
AcDbLine
 10
828.8971922978355
 20
-921.5447775880559
 30
0.0
 11
828.8971922978355
 21
-918.5447775880559
 31
0.0
  0
LINE
  5
2480E
330
1F
100
AcDbEntity
  8
0部品1
100
AcDbLine
 10
828.3971922978354
 20
-922.0447775880559
 30
0.0
 11
828.3971922978354
 21
-918.0447775880558
 31
0.0
  0
LINE
  5
2480F
330
1F
100
AcDbEntity
  8
0部品1
  6
中心線1
 48
0.5
370
    13
100
AcDbLine
 10
814.8971922978354
 20
-920.044777588056
 30
0.0
 11
831.8971922978354
 21
-920.044777588056
 31
0.0
  0
LINE
  5
24810
330
1F
100
AcDbEntity
  8
0部品1
100
AcDbLine
 10
819.8971922978355
 20
-918.0447775880558
 30
0.0
 11
828.3971922978354
 21
-918.0447775880558
 31
0.0
  0
LINE
  5
24811
330
1F
100
AcDbEntity
  8
0部品1
  6
細線
 48
0.5
370
    13
100
AcDbLine
 10
828.8971922978355
 20
-918.5447775880559
 30
0.0
 11
819.8971922978355
 21
-918.5447775880559
 31
0.0
  0
LINE
  5
24812
330
1F
100
AcDbEntity
  8
0部品1
100
AcDbLine
 10
819.8971922978355
 20
-922.0447775880559
 30
0.0
 11
828.3971922978354
 21
-922.0447775880559
 31
0.0
  0
LINE
  5
24813
330
1F
100
AcDbEntity
  8
0部品1
  6
細線
 48
0.5
370
    13
100
AcDbLine
 10
828.8971922978355
 20
-921.5447775880559
 30
0.0
 11
819.8971922978355
 21
-921.5447775880559
 31
0.0
  0
LINE
  5
24814
330
1F
100
AcDbEntity
  8
0部品1
100
AcDbLine
 10
819.8971922978355
 20
-917.0447775880559
 30
0.0
 11
819.8971922978355
 21
-923.0447775880559
 31
0.0
  0
LINE
  5
24815
330
1F
100
AcDbEntity
  8
0部品1
100
AcDbLine
 10
828.3971922978354
 20
-1018.044777588056
 30
0.0
 11
828.8971922978355
 21
-1018.544777588056
 31
0.0
  0
LINE
  5
24816
330
1F
100
AcDbEntity
  8
0部品1
100
AcDbLine
 10
828.8971922978355
 20
-1018.544777588056
 30
0.0
 11
828.8971922978355
 21
-1021.544777588056
 31
0.0
  0
LINE
  5
24817
330
1F
100
AcDbEntity
  8
0部品1
100
AcDbLine
 10
828.3971922978354
 20
-1018.044777588056
 30
0.0
 11
828.3971922978354
 21
-1022.044777588056
 31
0.0
  0
LINE
  5
24818
330
1F
100
AcDbEntity
  8
0部品1
100
AcDbLine
 10
828.3971922978354
 20
-1022.044777588056
 30
0.0
 11
828.8971922978355
 21
-1021.544777588056
 31
0.0
  0
LINE
  5
24819
330
1F
100
AcDbEntity
  8
0部品1
  6
中心線1
 48
0.5
370
    13
100
AcDbLine
 10
814.8971922978354
 20
-1020.044777588056
 30
0.0
 11
831.8971922978354
 21
-1020.044777588056
 31
0.0
  0
LINE
  5
2481A
330
1F
100
AcDbEntity
  8
0部品1
100
AcDbLine
 10
819.8971922978355
 20
-1018.044777588056
 30
0.0
 11
828.3971922978354
 21
-1018.044777588056
 31
0.0
  0
LINE
  5
2481B
330
1F
100
AcDbEntity
  8
0部品1
  6
細線
 48
0.5
370
    13
100
AcDbLine
 10
828.8971922978355
 20
-1018.544777588056
 30
0.0
 11
819.8971922978355
 21
-1018.544777588056
 31
0.0
  0
LINE
  5
2481C
330
1F
100
AcDbEntity
  8
0部品1
100
AcDbLine
 10
819.8971922978355
 20
-1022.044777588056
 30
0.0
 11
828.3971922978354
 21
-1022.044777588056
 31
0.0
  0
LINE
  5
2481D
330
1F
100
AcDbEntity
  8
0部品1
  6
細線
 48
0.5
370
    13
100
AcDbLine
 10
828.8971922978355
 20
-1021.544777588056
 30
0.0
 11
819.8971922978355
 21
-1021.544777588056
 31
0.0
  0
LINE
  5
2481E
330
1F
100
AcDbEntity
  8
0部品1
100
AcDbLine
 10
819.8971922978355
 20
-1017.044777588056
 30
0.0
 11
819.8971922978355
 21
-1023.044777588056
 31
0.0
  0
ARC
  5
2481F
330
1F
100
AcDbEntity
  8
0部品1
100
AcDbCircle
 10
818.6471922978354
 20
-910.7982470817852
 30
0.0
 40
0.75
100
AcDbArc
 50
12.92621454261261
 51
180.0
  0
LINE
  5
24820
330
1F
100
AcDbEntity
  8
0部品1
100
AcDbLine
 10
819.8971922978357
 20
-912.8918183938747
 30
0.0
 11
819.3781865092299
 21
-910.630475025388
 31
0.0
  0
ARC
  5
24821
330
1F
100
AcDbEntity
  8
0部品1
100
AcDbCircle
 10
820.8971922978355
 20
-1015.973762677135
 30
0.0
 40
2.0
100
AcDbArc
 50
94.39870770888907
 51
119.9999999999916
1001
GENIUS_GENODEF_13
1002
{
1000
HIER
1070
     0
1002
}
1002
{
1000
MANEDIT
1070
     0
1002
}
1002
{
1000
NOSEL
1070
     0
1002
}
1002
{
1000
BEHIND
1070
     0
1002
}
1002
{
1000
OTHER
1070
     0
1002
}
1002
{
1000
REACTOR
1002
}
1001
GENIUS_GENOBJ-N-FIL_13
1002
{
1000
OWNER
1000
GEN
1002
}
  0
ARC
  5
24822
330
1F
100
AcDbEntity
  8
0部品1
100
AcDbCircle
 10
818.6471922978354
 20
-1029.291307094326
 30
0.0
 40
0.75
100
AcDbArc
 50
180.0
 51
347.0737854573874
  0
LINE
  5
24823
330
1F
100
AcDbEntity
  8
0部品1
100
AcDbLine
 10
819.8971922978357
 20
-1027.197735782237
 30
0.0
 11
819.3781865092299
 21
-1029.459079150723
 31
0.0
  0
LINE
  5
24824
330
1F
100
AcDbEntity
  8
0部品1
  6
中心線1
 48
0.5
370
    13
100
AcDbLine
 10
815.8971922978354
 20
-970.0447770880558
 30
0.0
 11
834.8971922978353
 21
-970.0447770880558
 31
0.0
1001
GENIUS_GENOBJ-N-CEN_13
1002
{
1000
OWNER
1000
GEN
1002
}
1001
GENIUS_GENODEF_13
1002
{
1000
HIER
1070
     0
1002
}
1002
{
1000
MANEDIT
1070
     0
1002
}
1002
{
1000
NOSEL
1070
     0
1002
}
1002
{
1000
BEHIND
1070
     0
1002
}
1002
{
1000
OTHER
1070
     0
1002
}
1002
{
1000
REACTOR
1002
}
1001
GENIUS_GENCEN_19
1002
{
1040
2.0
1002
}
  0
LINE
  5
24825
330
1F
100
AcDbEntity
  8
AM_0
100
AcDbLine
 10
529.9281900624284
 20
-801.6918510362055
 30
0.0
 11
529.9281900624284
 21
-849.6918510362053
 31
0.0
  0
LINE
  5
24826
330
1F
100
AcDbEntity
  8
AM_0
100
AcDbLine
 10
549.9281900624283
 20
-801.6918510362055
 30
0.0
 11
549.9281900624283
 21
-849.6918510362053
 31
0.0
  0
LINE
  5
24827
330
1F
100
AcDbEntity
  8
AM_4
100
AcDbLine
 10
529.9281900624284
 20
-809.6918510362055
 30
0.0
 11
627.9281900624283
 21
-809.6918510362055
 31
0.0
  0
LINE
  5
24828
330
1F
100
AcDbEntity
  8
AM_4
100
AcDbLine
 10
529.9281900624284
 20
-817.6918510362053
 30
0.0
 11
627.9281900624283
 21
-817.6918510362053
 31
0.0
  0
LINE
  5
24829
330
1F
100
AcDbEntity
  8
AM_4
100
AcDbLine
 10
529.9281900624284
 20
-825.6918510362053
 30
0.0
 11
627.9281900624283
 21
-825.6918510362053
 31
0.0
  0
LINE
  5
2482A
330
1F
100
AcDbEntity
  8
AM_4
100
AcDbLine
 10
529.9281900624284
 20
-833.6918510362053
 30
0.0
 11
627.9281900624283
 21
-833.6918510362053
 31
0.0
  0
LINE
  5
2482B
330
1F
100
AcDbEntity
  8
AM_4
100
AcDbLine
 10
549.9281900624283
 20
-841.6918510362053
 30
0.0
 11
627.9281900624283
 21
-841.6918510362053
 31
0.0
  0
LINE
  5
2482C
330
1F
100
AcDbEntity
  8
AM_0
100
AcDbLine
 10
529.9281900624284
 20
-849.6918510362053
 30
0.0
 11
627.9281900624283
 21
-849.6918510362053
 31
0.0
  0
LINE
  5
2482D
330
1F
100
AcDbEntity
  8
AM_0
100
AcDbLine
 10
529.9281900624284
 20
-801.6918510362055
 30
0.0
 11
627.9281900624283
 21
-801.6918510362055
 31
0.0
  0
LINE
  5
2482E
330
1F
100
AcDbEntity
  8
AM_0
100
AcDbLine
 10
627.9281900624283
 20
-801.6918510362055
 30
0.0
 11
627.9281900624283
 21
-849.6918510362053
 31
0.0
  0
TEXT
  5
2482F
330
1F
100
AcDbEntity
  8
AM_6
100
AcDbText
 10
535.5851900624283
 20
-807.2918510362057
 30
0.0
 40
3.2
  1
品　名
 41
0.85537027
100
AcDbText
  0
TEXT
  5
24830
330
1F
100
AcDbEntity
  8
AM_6
100
AcDbText
 10
535.5851900624283
 20
-815.2918510362058
 30
0.0
 40
3.2
  1
品　番
 41
0.85537027
100
AcDbText
  0
TEXT
  5
24831
330
1F
100
AcDbEntity
  8
AM_6
100
AcDbText
 10
535.5851900624283
 20
-823.2918510362058
 30
0.0
 40
3.2
  1
材　質
 41
0.85537027
100
AcDbText
  0
TEXT
  5
24832
330
1F
100
AcDbEntity
  8
AM_6
100
AcDbText
 10
535.5851900624283
 20
-831.2918510362058
 30
0.0
 40
3.2
  1
仕上げ
 41
0.85537027
100
AcDbText
  0
TEXT
  5
24833
330
1F
100
AcDbEntity
  8
AM_6
100
AcDbText
 10
552.7851900624283
 20
-807.2918510362057
 30
0.0
 40
3.2
  1
堀込引手
 41
0.84306961
100
AcDbText
  0
TEXT
  5
24834
330
1F
100
AcDbEntity
  8
AM_6
100
AcDbText
 10
552.7851900624283
 20
-815.2918510362058
 30
0.0
 40
3.2
  1
DU-80
 41
0.84741102
100
AcDbText
  0
TEXT
  5
24835
330
1F
100
AcDbEntity
  8
AM_6
100
AcDbText
 10
552.7851900624283
 20
-823.2918510362058
 30
0.0
 40
3.2
  1
ステンレス
 41
0.84634979
100
AcDbText
  0
TEXT
  5
24836
330
1F
100
AcDbEntity
  8
AM_6
100
AcDbText
 10
552.7851900624283
 20
-831.2918510362058
 30
0.0
 40
3.2
  1
ヘアーライン
 41
0.84350122
100
AcDbText
  0
TEXT
  5
24837
330
1F
100
AcDbEntity
  8
AM_6
100
AcDbText
 10
532.3635912270997
 20
-843.2918510362057
 30
0.0
 40
3.2
  1
セット部品
 41
0.85537027
100
AcDbText
  0
TEXT
  5
24838
330
1F
100
AcDbEntity
  8
AM_6
100
AcDbText
 10
552.7851900624283
 20
-839.2918510362058
 30
0.0
 40
3.2
  1
ナット　：M4（2種）
 41
0.84350122
100
AcDbText
  0
TEXT
  5
24839
330
1F
100
AcDbEntity
  8
AM_6
100
AcDbText
 10
552.7851900624283
 20
-847.2918510362058
 30
0.0
 40
3.2
  1
ワッシャ：呼び4
 41
0.84350122
100
AcDbText
  0
ENDSEC
  0
SECTION
  2
OBJECTS
  0
DICTIONARY
  5
C
330
0
100
AcDbDictionary
281
     1
  3
ACAD_2007HEADERVARS_RT
350
248F1
  3
ACAD_COLOR
350
C447
  3
ACAD_GROUP
350
D
  3
ACAD_LAYOUT
350
1A
  3
ACAD_MATERIAL
350
C446
  3
ACAD_MLINESTYLE
350
17
  3
ACAD_PLOTSETTINGS
350
19
  3
ACAD_PLOTSTYLENAME
350
E
  3
ACAD_TABLESTYLE
350
10A6E
  3
ACAD_VISUALSTYLE
350
1105F
  3
AcAsAppObject
350
3DA1
  3
ACASGREF_MASTER
350
3DE9
  3
AcDbVariableDictionary
350
34
  3
AcmDictionary
350
47
  3
AD_GREF_MODULE
350
3DEA
  3
AD_MAPI_MODULE
350
3E06
  3
AMG
350
2B
  3
AMGSNAPSETTINGS
350
7D
  3
ASE_INDEX_DICTIONARY
350
15C65
  3
DWGPROPS
350
248F0
  3
MAPISURF_MODULE
350
3DEB
  0
DICTIONARY
  5
3F95
330
2
100
AcDbDictionary
280
     1
281
     1
  3
ACAD_LAYERFILTERS
360
1CD7E
  3
ACAD_LAYERSTATES
360
3F96
  3
ACLYDICTIONARY
360
1CD7D
  0
DICTIONARY
  5
8A
330
1F
100
AcDbDictionary
280
     1
281
     1
  3
ACAD_SORTENTS
360
13525
  0
DICTIONARY
  5
247D0
330
247CF
100
AcDbDictionary
280
     1
281
     1
  3
ACAD_DIMASSOC
360
247D1
  0
DICTIONARY
  5
247D3
330
247D2
100
AcDbDictionary
280
     1
281
     1
  3
ACAD_DIMASSOC
360
247D4
  0
DICTIONARY
  5
247D6
330
247D5
100
AcDbDictionary
280
     1
281
     1
  3
ACAD_DIMASSOC
360
247D7
  0
DICTIONARY
  5
247D9
330
247D8
100
AcDbDictionary
280
     1
281
     1
  3
ACAD_DIMASSOC
360
247DA
  0
DICTIONARY
  5
247DC
330
247DB
100
AcDbDictionary
280
     1
281
     1
  3
ACAD_DIMASSOC
360
247DD
  0
DICTIONARY
  5
247DF
330
247DE
100
AcDbDictionary
280
     1
281
     1
  3
ACAD_DIMASSOC
360
247E0
  0
DICTIONARY
  5
247E2
330
247E1
100
AcDbDictionary
280
     1
281
     1
  3
ACAD_DIMASSOC
360
247E3
  0
DICTIONARY
  5
247E5
330
247E4
100
AcDbDictionary
280
     1
281
     1
  3
ACAD_DIMASSOC
360
247E6
  0
DICTIONARY
  5
248F1
102
{ACAD_REACTORS
330
C
102
}
330
C
100
AcDbDictionary
281
     1
  3
DIMARCSYM
350
248F2
  0
DICTIONARY
  5
C447
102
{ACAD_REACTORS
330
C
102
}
330
C
100
AcDbDictionary
281
     1
  0
DICTIONARY
  5
D
102
{ACAD_REACTORS
330
C
102
}
330
C
100
AcDbDictionary
281
     1
  0
DICTIONARY
  5
1A
102
{ACAD_REACTORS
330
C
102
}
330
C
100
AcDbDictionary
281
     1
  3
Model
350
22
  3
ﾚｲｱｳﾄ1
350
1E
  3
ﾚｲｱｳﾄ2
350
26
  0
DICTIONARY
  5
C446
102
{ACAD_REACTORS
330
C
102
}
330
C
100
AcDbDictionary
281
     1
  3
ByBlock
350
1105D
  3
ByLayer
350
1105C
  3
Global
350
1105E
  0
DICTIONARY
  5
17
102
{ACAD_REACTORS
330
C
102
}
330
C
100
AcDbDictionary
281
     1
  3
Standard
350
18
  0
DICTIONARY
  5
19
102
{ACAD_REACTORS
330
C
102
}
330
C
100
AcDbDictionary
281
     1
  3
00
350
10A03
  3
01
350
10A04
  3
02
350
10A05
  3
03
350
1B04D
  0
ACDBDICTIONARYWDFLT
  5
E
102
{ACAD_REACTORS
330
C
102
}
330
C
100
AcDbDictionary
281
     1
  3
Normal
350
F
100
AcDbDictionaryWithDefault
340
F
  0
DICTIONARY
  5
10A6E
102
{ACAD_REACTORS
330
C
102
}
330
C
100
AcDbDictionary
281
     1
  3
Standard
350
10A6F
  0
DICTIONARY
  5
1105F
102
{ACAD_REACTORS
330
C
102
}
330
C
100
AcDbDictionary
281
     1
  3
2dWireframe
350
11065
  3
3D Hidden
350
11067
  3
3dWireframe
350
11066
  3
Basic
350
11064
  3
Brighten
350
1106B
  3
ColorChange
350
1106F
  3
Conceptual
350
11068
  3
Dim
350
1106A
  3
Facepattern
350
1106E
  3
Flat
350
11060
  3
FlatWithEdges
350
11061
  3
Gouraud
350
11062
  3
GouraudWithEdges
350
11063
  3
Linepattern
350
1106D
  3
Realistic
350
11069
  3
Thicken
350
1106C
  0
ACAD_PROXY_OBJECT
  5
3DA1
102
{ACAD_REACTORS
330
C
102
}
330
C
100
AcDbProxyObject
 90
      499
 91
      576
 95
   720919
 70
     0
 93
       10
310
407F
 94
        0
1001
ACAD
1000
AcRTDxfName
1000
ASAPP
  0
ACAD_PROXY_OBJECT
  5
3DE9
102
{ACAD_REACTORS
330
C
102
}
330
C
100
AcDbProxyObject
 90
      499
 91
      581
 95
   720919
 70
     0
 93
       34
310
010000407F
 94
        0
1001
ACAD
1000
AcRTDxfName
1000
ACASGREFMASTER
  0
DICTIONARY
  5
34
102
{ACAD_REACTORS
330
C
102
}
330
C
100
AcDbDictionary
281
     1
  3
CTABLESTYLE
350
10ABF
  3
DIMASSOC
350
AC85
  3
INDEXCTL
350
35
  3
SORTENTS
350
194C
  0
DICTIONARY
  5
47
102
{ACAD_REACTORS
330
C
102
}
330
C
100
AcDbDictionary
281
     1
  3
AcmBOM
350
7E8
  3
AcmStdDictionary
350
4C
  3
AMDTSECTSYM_ARROWCOLOR
350
10A86
  0
ACAD_PROXY_OBJECT
  5
3DEA
102
{ACAD_REACTORS
330
C
102
}
330
C
100
AcDbProxyObject
 90
      499
 91
      582
 95
   720919
 70
     0
 93
      114
310
00000043800000000000000000003F
 94
        0
1001
ACAD
1000
AcRTDxfName
1000
ACADGREFMODULE
  0
ACAD_PROXY_OBJECT
  5
3E06
102
{ACAD_REACTORS
330
C
102
}
330
C
100
AcDbProxyObject
 90
      499
 91
      594
 95
   720919
 70
     0
 93
       34
310
05000044FF
 94
        0
1001
ACAD
1000
AcRTDxfName
1000
MAPIADMODULE
  0
DICTIONARY
  5
2B
102
{ACAD_REACTORS
330
C
102
}
330
C
100
AcDbDictionary
281
     1
  0
DICTIONARY
  5
7D
102
{ACAD_REACTORS
330
C
102
}
330
C
100
AcDbDictionary
281
     1
  0
DICTIONARY
  5
15C65
102
{ACAD_REACTORS
330
C
102
}
330
C
100
AcDbDictionary
281
     1
  3
ASEBlockHierarchyIndexRecord
350
15C66
1001
DCO15
1040
1601196082.875
  0
XRECORD
  5
248F0
102
{ACAD_REACTORS
330
C
102
}
330
C
100
AcDbXrecord
280
     1
  1
DWGPROPS COOKIE
  2

  3

  4

  6

  7

  8
Administrator
  9

300
AmdtFileType=84
301
=
302
=
303
=
304
=
305
=
306
=
307
=
308
=
309
=
 40
14.73352603009259
 41
2452002.615067627
 42
2456654.430339074
  1

 90
        1
  0
ACAD_PROXY_OBJECT
  5
3DEB
102
{ACAD_REACTORS
330
C
102
}
330
C
100
AcDbProxyObject
 90
      499
 91
      583
 95
   720919
 70
     0
 93
        8
310
047E
 94
        0
1001
ACAD
1000
AcRTDxfName
1000
AMDTMAPISURFMOUDULE
  0
DICTIONARY
  5
1CD7E
102
{ACAD_REACTORS
330
3F95
102
}
330
3F95
100
AcDbDictionary
281
     1
  3
50
350
1CD80
  0
DICTIONARY
  5
3F96
102
{ACAD_REACTORS
330
3F95
102
}
330
3F95
100
AcDbDictionary
281
     1
  3
20011210
350
3FB7
  0
DICTIONARY
  5
1CD7D
102
{ACAD_REACTORS
330
3F95
102
}
330
3F95
100
AcDbDictionary
281
     1
  3
*A1
350
1CD7F
1001
ACAD
1000
<All
  0
SORTENTSTABLE
  5
13525
102
{ACAD_REACTORS
330
8A
102
}
330
8A
100
AcDbSortentsTable
330
1F
331
131E0
  5
13530
331
1151B
  5
1352C
331
11519
  5
1352A
331
11517
  5
13528
331
11515
  5
13526
331
ED39
  5
ED39
331
12BA6
  5
1352E
331
ED37
  5
ED37
331
ED35
  5
ED35
331
12E9D
  5
1352F
331
1151A
  5
1352B
331
11518
  5
13529
331
11516
  5
13527
331
ED38
  5
ED38
331
1258E
  5
1352D
331
11514
  5
131E0
331
ED36
  5
ED36
  0
DIMASSOC
  5
247D1
102
{ACAD_REACTORS
330
247D0
102
}
330
247D0
100
AcDbDimAssoc
330
247CF
 90
        3
 70
     0
 71
     0
  1
AcDbOsnapPointRef
 72
     1
331
247B6
 73
     0
 91
        0
 40
0.0
 10
0.0
 20
0.0
 30
2.000000000000000E+50
 75
     0
  1
AcDbOsnapPointRef
 72
     1
331
247B9
 73
     0
 91
        0
 40
0.0
 10
0.0
 20
0.0
 30
2.000000000000000E+50
 75
     0
  0
DIMASSOC
  5
247D4
102
{ACAD_REACTORS
330
247D3
102
}
330
247D3
100
AcDbDimAssoc
330
247D2
 90
        3
 70
     0
 71
     0
  1
AcDbOsnapPointRef
 72
     1
331
247B6
 73
     0
 91
        0
 40
0.0
 10
0.0
 20
0.0
 30
2.000000000000000E+50
 75
     0
  1
AcDbOsnapPointRef
 72
     1
331
247B7
 73
     0
 91
        0
 40
0.0
 10
0.0
 20
0.0
 30
2.000000000000000E+50
 75
     0
  0
DIMASSOC
  5
247D7
102
{ACAD_REACTORS
330
247D6
102
}
330
247D6
100
AcDbDimAssoc
330
247D5
 90
        3
 70
     0
 71
     0
  1
AcDbOsnapPointRef
 72
    13
331
247BB
 73
     0
 91
        0
 40
0.0
 10
0.0
 20
0.0
 30
2.000000000000000E+50
 75
     0
  1
AcDbOsnapPointRef
 72
     1
331
247BF
 73
     0
 91
        0
 40
0.0
 10
0.0
 20
0.0
 30
2.000000000000000E+50
 75
     0
  0
DIMASSOC
  5
247DA
102
{ACAD_REACTORS
330
247D9
102
}
330
247D9
100
AcDbDimAssoc
330
247D8
 90
        3
 70
     0
 71
     0
  1
AcDbOsnapPointRef
 72
     1
331
247C0
 73
     0
 91
        0
 40
0.0
 10
0.0
 20
0.0
 30
2.000000000000000E+50
 75
     0
  1
AcDbOsnapPointRef
 72
     8
331
247BD
 73
     0
 91
        0
 40
0.0
 10
0.0
 20
0.0
 30
0.0
 75
     1
  1
AcDbOsnapPointRef
 72
     1
331
247C0
 73
     0
 91
        0
 40
0.0
 10
0.0
 20
0.0
 30
2.000000000000000E+50
 75
     0
  0
DIMASSOC
  5
247DD
102
{ACAD_REACTORS
330
247DC
102
}
330
247DC
100
AcDbDimAssoc
330
247DB
 90
        3
 70
     0
 71
     0
  1
AcDbOsnapPointRef
 72
     1
331
247C6
 73
     0
 91
        0
 40
0.0
 10
0.0
 20
0.0
 30
2.000000000000000E+50
 75
     0
  1
AcDbOsnapPointRef
 72
     1
331
247C9
 73
     0
 91
        0
 40
0.0
 10
0.0
 20
0.0
 30
2.000000000000000E+50
 75
     0
  0
DIMASSOC
  5
247E0
102
{ACAD_REACTORS
330
247DF
102
}
330
247DF
100
AcDbDimAssoc
330
247DE
 90
        3
 70
     0
 71
     0
  1
AcDbOsnapPointRef
 72
    13
331
247C5
 73
     0
 91
        0
 40
0.0
 10
0.0
 20
0.0
 30
2.000000000000000E+50
 75
     0
  1
AcDbOsnapPointRef
 72
    13
331
247C8
 73
     0
 91
        0
 40
0.0
 10
0.0
 20
0.0
 30
2.000000000000000E+50
 75
     0
  0
DIMASSOC
  5
247E3
102
{ACAD_REACTORS
330
247E2
102
}
330
247E2
100
AcDbDimAssoc
330
247E1
 90
        3
 70
     0
 71
     0
  1
AcDbOsnapPointRef
 72
    13
331
247CC
 73
     0
 91
        0
 40
0.0
 10
0.0
 20
0.0
 30
2.000000000000000E+50
 75
     0
  1
AcDbOsnapPointRef
 72
    13
331
247CB
 73
     0
 91
        0
 40
0.0
 10
0.0
 20
0.0
 30
2.000000000000000E+50
 75
     0
  0
DIMASSOC
  5
247E6
102
{ACAD_REACTORS
330
247E5
102
}
330
247E5
100
AcDbDimAssoc
330
247E4
 90
        2
 70
     0
 71
     0
  1
AcDbOsnapPointRef
 72
     3
331
247C7
 73
     2
 91
        0
 40
0.0
 10
0.0
 20
0.0
 30
0.0
 75
     0
  0
XRECORD
  5
248F2
102
{ACAD_REACTORS
330
248F1
102
}
330
248F1
100
AcDbXrecord
280
     1
 70
     1
  0
LAYOUT
  5
22
102
{ACAD_XDICTIONARY
360
248F5
102
}
102
{ACAD_REACTORS
330
1A
102
}
330
1A
100
AcDbPlotSettings
  1

  2
DocuCentre-IV C5575
  4
A3
  6

 40
4.900083065032958
 41
4.857729434967041
 42
4.900054931640625
 43
4.90008544921875
 44
297.0106506347656
 45
419.9889831542968
 46
-4.894743680953979
 47
-4.884415864944458
 48
66.74213245399028
 49
-1090.191851043137
140
486.7421324539902
141
-793.1918510431374
142
1.0
143
1.0
 70
  3748
 72
     1
 73
     1
 74
     4
  7
monochrome.ctb
 75
     0
147
0.9670387630912189
148
-66.74213245399028
149
1090.191851043137
100
AcDbLayout
  1
Model
 70
     1
 71
     0
 10
0.0
 20
0.0
 11
12.0
 21
9.0
 12
0.0
 22
0.0
 32
0.0
 14
0.0
 24
0.0
 34
0.0
 15
0.0
 25
0.0
 35
0.0
146
0.0
 13
0.0
 23
0.0
 33
0.0
 16
1.0
 26
0.0
 36
0.0
 17
0.0
 27
1.0
 37
0.0
 76
     0
330
1F
331
1105A
1001
ACAD_PSEXT
1000
DocuCentre-IV C5575
1000
FX DocuCentre-IV C5575
1000
192.168.2.200
1000

1070
     0
  0
LAYOUT
  5
1E
102
{ACAD_XDICTIONARY
360
248F3
102
}
102
{ACAD_REACTORS
330
1A
102
}
330
1A
100
AcDbPlotSettings
  1

  2
\\ML370\XEROX
  4
A4
  6

 40
3.174999952316284
 41
3.174999952316284
 42
3.175003051757812
 43
3.17498779296875
 44
209.8674926757813
 45
296.6719970703125
 46
0.0
 47
0.0
 48
0.0
 49
0.0
140
0.0
141
0.0
142
1.0
143
1.0
 70
   688
 72
     1
 73
     1
 74
     5
  7
monochrome.ctb
 75
    16
147
1.0
148
0.0
149
0.0
100
AcDbLayout
  1
ﾚｲｱｳﾄ1
 70
     1
 71
     1
 10
-3.17498779296875
 20
-3.174999952316284
 11
293.4970092773438
 21
206.692492723465
 12
0.0
 22
0.0
 32
0.0
 14
1.000000000000000E+20
 24
1.000000000000000E+20
 34
1.000000000000000E+20
 15
-1.000000000000000E+20
 25
-1.000000000000000E+20
 35
-1.000000000000000E+20
146
0.0
 13
0.0
 23
0.0
 33
0.0
 16
1.0
 26
0.0
 36
0.0
 17
0.0
 27
1.0
 37
0.0
 76
     0
330
1B
  0
LAYOUT
  5
26
102
{ACAD_XDICTIONARY
360
248F7
102
}
102
{ACAD_REACTORS
330
1A
102
}
330
1A
100
AcDbPlotSettings
  1

  2
\\ML370\XEROX
  4

  6

 40
0.0
 41
0.0
 42
0.0
 43
0.0
 44
0.0
 45
0.0
 46
0.0
 47
0.0
 48
0.0
 49
0.0
140
0.0
141
0.0
142
1.0
143
1.0
 70
   688
 72
     0
 73
     0
 74
     5
  7
monochrome.ctb
 75
    16
147
1.0
148
0.0
149
0.0
100
AcDbLayout
  1
ﾚｲｱｳﾄ2
 70
     1
 71
     2
 10
0.0
 20
0.0
 11
12.0
 21
9.0
 12
0.0
 22
0.0
 32
0.0
 14
0.0
 24
0.0
 34
0.0
 15
0.0
 25
0.0
 35
0.0
146
0.0
 13
0.0
 23
0.0
 33
0.0
 16
1.0
 26
0.0
 36
0.0
 17
0.0
 27
1.0
 37
0.0
 76
     0
330
23
  0
MATERIAL
  5
1105D
102
{ACAD_XDICTIONARY
360
24903
102
}
102
{ACAD_REACTORS
330
C446
102
}
330
C446
100
AcDbMaterial
  1
ByBlock
  0
MATERIAL
  5
1105C
102
{ACAD_XDICTIONARY
360
24901
102
}
102
{ACAD_REACTORS
330
C446
102
}
330
C446
100
AcDbMaterial
  1
ByLayer
  0
MATERIAL
  5
1105E
102
{ACAD_XDICTIONARY
360
24905
102
}
102
{ACAD_REACTORS
330
C446
102
}
330
C446
100
AcDbMaterial
  1
Global
  0
MLINESTYLE
  5
18
102
{ACAD_REACTORS
330
17
102
}
330
17
100
AcDbMlineStyle
  2
STANDARD
 70
     0
  3

 62
   256
 51
90.0
 52
90.0
 71
     2
 49
0.5
 62
   256
  6
BYLAYER
 49
-0.5
 62
   256
  6
BYLAYER
  0
PLOTSETTINGS
  5
10A03
102
{ACAD_XDICTIONARY
360
248F9
102
}
102
{ACAD_REACTORS
330
19
102
}
330
19
100
AcDbPlotSettings
  1
00
  2
RICOH imagio Wide 7040e RP-GL/2
  4
A3
  6

 40
5.069416522979736
 41
7.228392601013183
 42
5.23870849609375
 43
7.05908203125
 44
419.9889831542968
 45
296.9683227539062
 46
4.578934926844709
 47
0.0
 48
38.9154776564781
 49
-110.4081483588127
140
609.915477656478
141
292.5918516411873
142
1.0
143
1.425636022666032
 70
  3764
 72
     1
 73
     0
 74
     4
  7
monochrome.ctb
 75
     0
147
0.7014413104755412
148
-38.9154776564781
149
110.4081483588127
1001
ACAD_PSEXT
1000
RICOH imagio Wide 7040e RP-GL/2
1000
RICOH imagio Wide 7040e RP-GL/2
1000
192.200.51.212:lp11
1000
RP-GL/2 Driver (Windows 2000/XP/Server 2003)
1070
     0
  0
PLOTSETTINGS
  5
10A04
102
{ACAD_XDICTIONARY
360
248FB
102
}
102
{ACAD_REACTORS
330
19
102
}
330
19
100
AcDbPlotSettings
  1
01
  2
RICOH imagio Wide 7040e RP-GL/2
  4
A3
  6

 40
5.069416522979736
 41
7.228392601013183
 42
5.23870849609375
 43
7.05908203125
 44
419.9889831542968
 45
296.9683227539062
 46
-5.159570932388305
 47
-7.159575939178466
 48
27.41547765647809
 49
-415.9081483588127
140
447.415477656478
141
-118.9081483588127
142
1.0
143
1.0
 70
  3748
 72
     1
 73
     0
 74
     4
  7
monochrome.ctb
 75
     0
147
0.9517873674129395
148
-27.41547765647809
149
415.9081483588127
1001
ACAD_PSEXT
1000
RICOH imagio Wide 7040e RP-GL/2
1000
RICOH imagio Wide 7040e RP-GL/2
1000
192.200.51.212:lp11
1000
RP-GL/2 Driver (Windows 2000/XP/Server 2003)
1070
     0
  0
PLOTSETTINGS
  5
10A05
102
{ACAD_XDICTIONARY
360
248FD
102
}
102
{ACAD_REACTORS
330
19
102
}
330
19
100
AcDbPlotSettings
  1
02
  2
RICOH imagio Wide 7040e RP-GL/2
  4
A3
  6

 40
5.069416522979736
 41
7.228392601013183
 42
5.23870849609375
 43
7.05908203125
 44
419.9889831542968
 45
296.9683227539062
 46
-5.159570932388305
 47
-7.159575939178466
 48
27.41547765647809
 49
-712.9081483588127
140
447.415477656478
141
-415.9081483588127
142
1.0
143
1.0
 70
  3748
 72
     1
 73
     0
 74
     4
  7
monochrome.ctb
 75
     0
147
0.9517873674129395
148
-27.41547765647809
149
712.9081483588127
1001
ACAD_PSEXT
1000
RICOH imagio Wide 7040e RP-GL/2
1000
RICOH imagio Wide 7040e RP-GL/2
1000
192.200.51.212:lp11
1000
RP-GL/2 Driver (Windows 2000/XP/Server 2003)
1070
     0
  0
PLOTSETTINGS
  5
1B04D
102
{ACAD_XDICTIONARY
360
24907
102
}
102
{ACAD_REACTORS
330
19
102
}
330
19
100
AcDbPlotSettings
  1
03
  2
RICOH imagio Wide 7040e RP-GL/2
  4
A4
  6

 40
5.365749835968017
 41
6.889746665954589
 42
5.535064697265625
 43
6.76275634765625
 44
296.9683227539062
 45
209.9733276367187
 46
-5.466245889663696
 47
-6.839587688446044
 48
27.41547765647807
 49
-817.9081483588127
140
175.915477656478
141
-712.9081483588127
142
2.0
143
1.0
 70
  3748
 72
     1
 73
     0
 74
     4
  7
monochrome.ctb
 75
     0
147
0.9517873674129395
148
-27.41547765647807
149
817.9081483588127
1001
ACAD_PSEXT
1000
RICOH imagio Wide 7040e RP-GL/2
1000
RICOH imagio Wide 7040e RP-GL/2
1000
192.200.51.212:lp11
1000
RP-GL/2 Driver (Windows 2000/XP/Server 2003)
1070
     0
  0
ACDBPLACEHOLDER
  5
F
102
{ACAD_REACTORS
330
E
102
}
330
E
  0
TABLESTYLE
  5
10A6F
102
{ACAD_XDICTIONARY
360
248FF
102
}
102
{ACAD_REACTORS
330
10A6E
102
}
330
10A6E
100
AcDbTableStyle
  3
Standard
 70
     0
 71
     0
 40
1.5
 41
1.5
280
     0
281
     0
  7
STANDARD
140
4.5
170
     2
 62
     0
 63
     7
283
     0
274
    -2
284
     1
 64
     0
275
    -2
285
     1
 65
     0
276
    -2
286
     1
 66
     0
277
    -2
287
     1
 67
     0
278
    -2
288
     1
 68
     0
279
    -2
289
     1
 69
     0
  7
STANDARD
140
6.0
170
     5
 62
     0
 63
     7
283
     0
274
    -2
284
     1
 64
     0
275
    -2
285
     1
 65
     0
276
    -2
286
     1
 66
     0
277
    -2
287
     1
 67
     0
278
    -2
288
     1
 68
     0
279
    -2
289
     1
 69
     0
  7
STANDARD
140
4.5
170
     5
 62
     0
 63
     7
283
     0
274
    -2
284
     1
 64
     0
275
    -2
285
     1
 65
     0
276
    -2
286
     1
 66
     0
277
    -2
287
     1
 67
     0
278
    -2
288
     1
 68
     0
279
    -2
289
     1
 69
     0
  0
VISUALSTYLE
  5
11065
102
{ACAD_REACTORS
330
1105F
102
}
330
1105F
100
AcDbVisualStyle
  2
2dWireframe
 70
     4
 71
     0
 72
     2
 73
     0
 90
        0
 40
-0.6
 41
-30.0
 62
     5
 63
     7
 74
     1
 91
        4
 64
     7
 65
   257
 75
     1
175
     1
 42
1.0
 92
        0
 66
   257
 43
1.0
 76
     1
 77
     6
 78
     2
 67
     7
 79
     5
170
     0
171
     0
290
     0
174
     0
 93
        1
 44
0.0
173
     0
291
     0
 45
0.0
1001
ACAD
1000
AcDbSavedByObjectVersion
1070
     0
  0
VISUALSTYLE
  5
11067
102
{ACAD_REACTORS
330
1105F
102
}
330
1105F
100
AcDbVisualStyle
  2
3D Hidden
 70
     6
 71
     1
 72
     2
 73
     2
 90
        0
 40
-0.6
 41
-30.0
 62
     5
 63
     7
 74
     2
 91
        2
 64
     7
 65
   257
 75
     2
175
     1
 42
40.0
 92
        0
 66
   257
 43
1.0
 76
     1
 77
     6
 78
     2
 67
     7
 79
     3
170
     0
171
     0
290
     0
174
     0
 93
        1
 44
0.0
173
     0
291
     0
 45
0.0
1001
ACAD
1000
AcDbSavedByObjectVersion
1070
     0
  0
VISUALSTYLE
  5
11066
102
{ACAD_REACTORS
330
1105F
102
}
330
1105F
100
AcDbVisualStyle
  2
3dWireframe
 70
     5
 71
     0
 72
     2
 73
     0
 90
        0
 40
-0.6
 41
-30.0
 62
     5
 63
     7
 74
     1
 91
        4
 64
     7
 65
   257
 75
     1
175
     1
 42
1.0
 92
        0
 66
   257
 43
1.0
 76
     1
 77
     6
 78
     2
 67
     7
 79
     5
170
     0
171
     0
290
     0
174
     0
 93
        1
 44
0.0
173
     0
291
     0
 45
0.0
1001
ACAD
1000
AcDbSavedByObjectVersion
1070
     0
  0
VISUALSTYLE
  5
11064
102
{ACAD_REACTORS
330
1105F
102
}
330
1105F
100
AcDbVisualStyle
  2
Basic
 70
     7
 71
     1
 72
     0
 73
     1
 90
        0
 40
-0.6
 41
-30.0
 62
     5
 63
     7
 74
     0
 91
        4
 64
     7
 65
   257
 75
     1
175
     1
 42
1.0
 92
        8
 66
     7
 43
1.0
 76
     1
 77
     6
 78
     2
 67
     7
 79
     5
170
     0
171
     0
290
     0
174
     0
 93
        1
 44
0.0
173
     0
291
     1
 45
0.0
1001
ACAD
1000
AcDbSavedByObjectVersion
1070
     0
  0
VISUALSTYLE
  5
1106B
102
{ACAD_REACTORS
330
1105F
102
}
330
1105F
100
AcDbVisualStyle
  2
Brighten
 70
    12
 71
     2
 72
     2
 73
     0
 90
        0
 40
-0.6
 41
-30.0
 62
     5
 63
     7
 74
     1
 91
        4
 64
     7
 65
   257
 75
     1
175
     1
 42
1.0
 92
        8
 66
     7
 43
1.0
 76
     1
 77
     6
 78
     2
 67
     7
 79
     5
170
     0
171
     0
290
     0
174
     0
 93
        1
 44
50.0
173
     0
291
     1
 45
0.0
1001
ACAD
1000
AcDbSavedByObjectVersion
1070
     0
  0
VISUALSTYLE
  5
1106F
102
{ACAD_REACTORS
330
1105F
102
}
330
1105F
100
AcDbVisualStyle
  2
ColorChange
 70
    16
 71
     2
 72
     2
 73
     3
 90
        0
 40
-0.6
 41
-30.0
 62
     5
 63
     8
 74
     1
 91
        4
 64
     7
 65
   257
 75
     1
175
     1
 42
1.0
 92
        8
 66
     8
 43
1.0
 76
     1
 77
     6
 78
     2
 67
     7
 79
     5
170
     0
171
     0
290
     0
174
     0
 93
        1
 44
0.0
173
     0
291
     1
 45
0.0
1001
ACAD
1000
AcDbSavedByObjectVersion
1070
     0
  0
VISUALSTYLE
  5
11068
102
{ACAD_REACTORS
330
1105F
102
}
330
1105F
100
AcDbVisualStyle
  2
Conceptual
 70
     9
 71
     3
 72
     2
 73
     0
 90
        0
 40
-0.6
 41
-30.0
 62
     5
 63
     7
 74
     2
 91
        2
 64
     7
 65
   257
 75
     1
175
     1
 42
40.0
 92
        8
 66
     7
 43
1.0
 76
     1
 77
     6
 78
     2
 67
     7
 79
     3
170
     0
171
     0
290
     0
174
     0
 93
        1
 44
0.0
173
     0
291
     0
 45
0.0
1001
ACAD
1000
AcDbSavedByObjectVersion
1070
     0
  0
VISUALSTYLE
  5
1106A
102
{ACAD_REACTORS
330
1105F
102
}
330
1105F
100
AcDbVisualStyle
  2
Dim
 70
    11
 71
     2
 72
     2
 73
     0
 90
        0
 40
-0.6
 41
-30.0
 62
     5
 63
     7
 74
     1
 91
        4
 64
     7
 65
   257
 75
     1
175
     1
 42
1.0
 92
        8
 66
     7
 43
1.0
 76
     1
 77
     6
 78
     2
 67
     7
 79
     5
170
     0
171
     0
290
     0
174
     0
 93
        1
 44
-50.0
173
     0
291
     1
 45
0.0
1001
ACAD
1000
AcDbSavedByObjectVersion
1070
     0
  0
VISUALSTYLE
  5
1106E
102
{ACAD_REACTORS
330
1105F
102
}
330
1105F
100
AcDbVisualStyle
  2
Facepattern
 70
    15
 71
     2
 72
     2
 73
     0
 90
        0
 40
-0.6
 41
-30.0
 62
     5
 63
     7
 74
     1
 91
        4
 64
     7
 65
   257
 75
     1
175
     1
 42
1.0
 92
        8
 66
     7
 43
1.0
 76
     1
 77
     6
 78
     2
 67
     7
 79
     5
170
     0
171
     0
290
     0
174
     0
 93
        1
 44
0.0
173
     0
291
     1
 45
0.0
1001
ACAD
1000
AcDbSavedByObjectVersion
1070
     0
  0
VISUALSTYLE
  5
11060
102
{ACAD_REACTORS
330
1105F
102
}
330
1105F
100
AcDbVisualStyle
  2
Flat
 70
     0
 71
     2
 72
     1
 73
     1
 90
        2
 40
-0.6
 41
30.0
 62
     5
 63
     7
 74
     0
 91
        4
 64
     7
 65
   257
 75
     1
175
     1
 42
1.0
 92
        8
 66
     7
 43
1.0
 76
     1
 77
     6
 78
     2
 67
     7
 79
     5
170
     0
171
     0
290
     0
174
     0
 93
       13
 44
0.0
173
     0
291
     1
 45
0.0
1001
ACAD
1000
AcDbSavedByObjectVersion
1070
     0
  0
VISUALSTYLE
  5
11061
102
{ACAD_REACTORS
330
1105F
102
}
330
1105F
100
AcDbVisualStyle
  2
FlatWithEdges
 70
     1
 71
     2
 72
     1
 73
     1
 90
        2
 40
-0.6
 41
30.0
 62
     5
 63
     7
 74
     1
 91
        4
 64
     7
 65
   257
 75
     1
175
     1
 42
1.0
 92
        0
 66
   257
 43
1.0
 76
     1
 77
     6
 78
     2
 67
     7
 79
     5
170
     0
171
     0
290
     0
174
     0
 93
       13
 44
0.0
173
     0
291
     1
 45
0.0
1001
ACAD
1000
AcDbSavedByObjectVersion
1070
     0
  0
VISUALSTYLE
  5
11062
102
{ACAD_REACTORS
330
1105F
102
}
330
1105F
100
AcDbVisualStyle
  2
Gouraud
 70
     2
 71
     2
 72
     2
 73
     1
 90
        2
 40
-0.6
 41
30.0
 62
     5
 63
     7
 74
     0
 91
        4
 64
     7
 65
   257
 75
     1
175
     1
 42
1.0
 92
        0
 66
     7
 43
1.0
 76
     1
 77
     6
 78
     2
 67
     7
 79
     5
170
     0
171
     0
290
     0
174
     0
 93
       13
 44
0.0
173
     0
291
     1
 45
0.0
1001
ACAD
1000
AcDbSavedByObjectVersion
1070
     0
  0
VISUALSTYLE
  5
11063
102
{ACAD_REACTORS
330
1105F
102
}
330
1105F
100
AcDbVisualStyle
  2
GouraudWithEdges
 70
     3
 71
     2
 72
     2
 73
     1
 90
        2
 40
-0.6
 41
30.0
 62
     5
 63
     7
 74
     1
 91
        4
 64
     7
 65
   257
 75
     1
175
     1
 42
1.0
 92
        0
 66
   257
 43
1.0
 76
     1
 77
     6
 78
     2
 67
     7
 79
     5
170
     0
171
     0
290
     0
174
     0
 93
       13
 44
0.0
173
     0
291
     1
 45
0.0
1001
ACAD
1000
AcDbSavedByObjectVersion
1070
     0
  0
VISUALSTYLE
  5
1106D
102
{ACAD_REACTORS
330
1105F
102
}
330
1105F
100
AcDbVisualStyle
  2
Linepattern
 70
    14
 71
     2
 72
     2
 73
     0
 90
        0
 40
-0.6
 41
-30.0
 62
     5
 63
     7
 74
     1
 91
        4
 64
     7
 65
   257
 75
     7
175
     7
 42
1.0
 92
        8
 66
     7
 43
1.0
 76
     1
 77
     6
 78
     2
 67
     7
 79
     5
170
     0
171
     0
290
     0
174
     0
 93
        1
 44
0.0
173
     0
291
     1
 45
0.0
1001
ACAD
1000
AcDbSavedByObjectVersion
1070
     0
  0
VISUALSTYLE
  5
11069
102
{ACAD_REACTORS
330
1105F
102
}
330
1105F
100
AcDbVisualStyle
  2
Realistic
 70
     8
 71
     2
 72
     2
 73
     0
 90
        0
 40
-0.6
 41
-30.0
 62
     5
 63
     7
 74
     1
 91
        0
 64
     7
 65
   257
 75
     1
175
     1
 42
1.0
 92
        8
 66
     8
 43
1.0
 76
     1
 77
     6
 78
     2
 67
     7
 79
     5
170
     0
171
     0
290
     0
174
     0
 93
       13
 44
0.0
173
     0
291
     0
 45
0.0
1001
ACAD
1000
AcDbSavedByObjectVersion
1070
     0
  0
VISUALSTYLE
  5
1106C
102
{ACAD_REACTORS
330
1105F
102
}
330
1105F
100
AcDbVisualStyle
  2
Thicken
 70
    13
 71
     2
 72
     2
 73
     0
 90
        0
 40
-0.6
 41
-30.0
 62
     5
 63
     7
 74
     1
 91
        4
 64
     7
 65
   257
 75
     1
175
     1
 42
1.0
 92
       12
 66
     7
 43
1.0
 76
     1
 77
     6
 78
     2
 67
     7
 79
     5
170
     0
171
     0
290
     0
174
     0
 93
        1
 44
0.0
173
     0
291
     1
 45
0.0
1001
ACAD
1000
AcDbSavedByObjectVersion
1070
     0
  0
DICTIONARYVAR
  5
10ABF
102
{ACAD_REACTORS
330
34
102
}
330
34
100
DictionaryVariables
280
     0
  1
STANDARD
  0
DICTIONARYVAR
  5
AC85
102
{ACAD_REACTORS
330
34
102
}
330
34
100
DictionaryVariables
280
     0
  1
1
  0
DICTIONARYVAR
  5
35
102
{ACAD_REACTORS
330
34
102
}
330
34
100
DictionaryVariables
280
     0
  1
0
  0
DICTIONARYVAR
  5
194C
102
{ACAD_REACTORS
330
34
102
}
330
34
100
DictionaryVariables
280
     0
  1
96
  0
DICTIONARY
  5
7E8
102
{ACAD_REACTORS
330
47
102
}
330
47
100
AcDbDictionary
281
     1
  0
DICTIONARY
  5
4C
102
{ACAD_REACTORS
330
47
102
}
330
47
100
AcDbDictionary
281
     1
  0
XRECORD
  5
10A86
102
{ACAD_REACTORS
330
47
102
}
330
47
100
AcDbXrecord
280
     1
 90
-1023410169
  0
XRECORD
  5
15C66
102
{ACAD_REACTORS
330
15C65
102
}
330
15C65
100
AcDbXrecord
280
     1
330
0
330
0
330
0
330
0
330
0
330
0
330
0
330
0
330
0
330
0
330
0
330
0
330
0
330
0
330
0
330
0
330
0
330
0
330
0
330
0
330
0
330
0
330
0
330
0
330
0
330
0
330
0
330
0
330
0
330
0
330
0
330
0
330
0
330
0
330
0
330
0
330
0
330
0
330
0
330
0
330
0
330
0
330
0
330
0
330
0
330
0
330
0
330
0
330
0
330
0
330
0
330
0
330
0
330
0
330
0
330
0
330
0
330
0
330
0
330
0
330
0
330
0
330
0
330
0
330
0
330
0
330
0
330
0
330
0
330
0
330
0
330
0
330
0
330
0
330
0
330
0
330
0
330
0
330
0
330
0
330
0
330
0
330
0
330
0
330
0
330
0
330
0
330
0
330
0
330
0
330
0
330
0
330
0
330
0
330
0
330
0
330
0
330
0
330
0
330
0
330
0
330
0
330
0
330
0
330
0
330
0
330
0
330
0
330
0
330
0
330
0
330
0
330
0
330
0
330
0
330
0
330
0
330
0
330
0
330
0
330
0
330
0
330
0
330
0
330
0
330
0
330
0
330
0
330
0
330
0
330
0
330
0
330
0
330
0
330
0
330
0
330
0
330
0
330
0
330
0
330
0
330
0
330
0
330
0
330
0
330
0
330
0
330
0
330
0
330
0
330
0
330
0
330
0
330
0
330
0
330
0
330
0
330
0
330
0
330
0
330
0
330
0
330
0
330
0
330
0
330
0
330
0
330
0
330
0
330
0
330
0
330
0
330
0
330
0
330
0
330
0
330
0
330
0
330
0
330
0
330
0
330
0
330
0
330
0
330
0
330
0
330
0
330
0
330
0
330
0
330
0
330
0
330
0
330
0
330
0
330
0
330
0
330
0
330
0
330
0
330
0
330
0
330
0
330
0
330
0
330
0
330
0
330
0
330
0
330
0
330
0
330
0
330
0
330
0
330
0
330
0
330
0
330
0
330
0
330
0
330
0
330
0
330
0
330
0
330
0
330
0
330
0
330
0
330
0
330
0
330
0
330
0
330
0
330
0
330
0
330
0
330
0
330
0
330
0
330
0
330
0
330
0
330
0
330
0
330
0
330
0
330
0
330
0
330
0
330
0
330
0
330
0
330
0
330
0
330
0
330
0
330
0
330
0
330
0
330
0
330
0
330
0
330
0
330
0
330
0
330
0
330
0
330
0
330
0
330
0
330
0
330
0
330
0
330
0
330
0
330
0
330
0
330
0
330
0
330
0
330
0
330
0
330
0
330
0
330
0
330
0
330
0
330
0
330
0
330
0
330
0
330
0
330
0
330
0
330
0
330
0
330
0
330
0
330
0
330
0
330
0
330
0
330
0
330
0
330
0
330
0
330
0
330
0
330
0
330
0
330
0
330
0
330
0
330
0
330
0
330
0
330
0
330
0
330
0
330
0
330
0
330
0
330
0
330
0
330
0
330
0
330
0
330
0
330
0
330
0
330
0
330
0
330
0
330
0
330
0
330
0
330
0
330
0
330
0
330
0
330
0
330
0
330
0
330
0
330
0
330
0
330
0
330
0
330
0
330
0
330
0
330
0
330
0
330
0
330
0
330
0
330
0
330
0
330
0
330
0
330
0
330
0
330
0
330
0
330
0
330
0
330
0
330
0
330
0
330
0
330
0
330
0
330
0
330
0
330
0
330
0
330
0
330
0
330
0
330
0
330
0
330
0
330
0
330
0
330
0
330
0
330
0
330
0
330
0
330
0
330
0
330
0
330
0
330
0
330
0
330
0
330
0
330
0
330
0
330
0
330
0
330
0
330
0
330
0
330
0
330
0
330
0
330
0
330
0
330
0
330
0
330
0
330
0
330
0
330
0
330
0
330
0
330
0
  0
XRECORD
  5
1CD80
102
{ACAD_REACTORS
330
1CD7E
102
}
330
1CD7E
100
AcDbXrecord
280
     1
  1
50
  1
*-50
  1
*
  1
*
 70
     0
  1
*
  1
*
1001
ACAD
1000
( NAME== "*-50" )
  0
XRECORD
  5
3FB7
102
{ACAD_REACTORS
330
3F96
102
}
330
3F96
100
AcDbXrecord
280
     1
 91
        3
330
A47
 90
        8
 62
     7
370
    40
331
16
  1
Color_7
330
A46
 90
        0
 62
    14
370
    -3
331
16
  1
Color_14
330
0
 90
        8
 62
     7
370
    20
331
16
  1
Color_7
330
6D1
 90
        0
 62
     7
370
    -3
331
16
  1
Color_7
330
0
 90
        8
 62
     7
370
    50
331
16
  1
Color_7
330
A48
 90
        8
 62
     2
370
    35
331
16
  1
Color_2
330
0
 90
        8
 62
     7
370
    -3
331
16
  1
Color_7
330
10
 90
        8
 62
     7
370
    -3
331
16
  1
Color_7
  0
XRECORD
  5
1CD7F
102
{ACAD_REACTORS
330
1CD7D
102
}
330
1CD7D
100
AcDbXrecord
280
     1
  1
AcLyLayerFilter
 90
        1
300
50
301
( NAME== "*-50" )
  0
DICTIONARY
  5
248F5
330
22
100
AcDbDictionary
280
     1
281
     1
  3
ACAD_XREC_ROUNDTRIP
360
248F6
  0
DICTIONARY
  5
248F3
330
1E
100
AcDbDictionary
280
     1
281
     1
  3
ACAD_XREC_ROUNDTRIP
360
248F4
  0
DICTIONARY
  5
248F7
330
26
100
AcDbDictionary
280
     1
281
     1
  3
ACAD_XREC_ROUNDTRIP
360
248F8
  0
DICTIONARY
  5
24903
330
1105D
100
AcDbDictionary
280
     1
281
     1
  3
ACAD_XREC_ROUNDTRIP
360
24904
  0
DICTIONARY
  5
24901
330
1105C
100
AcDbDictionary
280
     1
281
     1
  3
ACAD_XREC_ROUNDTRIP
360
24902
  0
DICTIONARY
  5
24905
330
1105E
100
AcDbDictionary
280
     1
281
     1
  3
ACAD_XREC_ROUNDTRIP
360
24906
  0
DICTIONARY
  5
248F9
330
10A03
100
AcDbDictionary
280
     1
281
     1
  3
ACAD_XREC_ROUNDTRIP
360
248FA
  0
DICTIONARY
  5
248FB
330
10A04
100
AcDbDictionary
280
     1
281
     1
  3
ACAD_XREC_ROUNDTRIP
360
248FC
  0
DICTIONARY
  5
248FD
330
10A05
100
AcDbDictionary
280
     1
281
     1
  3
ACAD_XREC_ROUNDTRIP
360
248FE
  0
DICTIONARY
  5
24907
330
1B04D
100
AcDbDictionary
280
     1
281
     1
  3
ACAD_XREC_ROUNDTRIP
360
24908
  0
DICTIONARY
  5
248FF
330
10A6F
100
AcDbDictionary
280
     1
281
     1
  3
ACAD_XREC_ROUNDTRIP
360
24900
  0
XRECORD
  5
248F6
102
{ACAD_REACTORS
330
248F5
102
}
330
248F5
100
AcDbXrecord
280
     1
102
SHADEPLOT
 70
     0
102
SHADEPLOTRESLEVEL
 70
     2
102
SHADEPLOTCUSTOMDPI
 70
   300
  0
XRECORD
  5
248F4
102
{ACAD_REACTORS
330
248F3
102
}
330
248F3
100
AcDbXrecord
280
     1
102
SHADEPLOT
 70
     0
102
SHADEPLOTRESLEVEL
 70
     2
102
SHADEPLOTCUSTOMDPI
 70
   300
  0
XRECORD
  5
248F8
102
{ACAD_REACTORS
330
248F7
102
}
330
248F7
100
AcDbXrecord
280
     1
102
SHADEPLOT
 70
     0
102
SHADEPLOTRESLEVEL
 70
     2
102
SHADEPLOTCUSTOMDPI
 70
   300
  0
XRECORD
  5
24904
102
{ACAD_REACTORS
330
24903
102
}
330
24903
100
AcDbXrecord
280
     1
102
MATERIAL
148
0.0
149
0.0
149
0.0
 93
        0
 94
       63
282
     0
 72
     1
 77
     1
171
     1
175
     1
179
     1
273
     0
  0
XRECORD
  5
24902
102
{ACAD_REACTORS
330
24901
102
}
330
24901
100
AcDbXrecord
280
     1
102
MATERIAL
148
0.0
149
0.0
149
0.0
 93
        0
 94
       63
282
     0
 72
     1
 77
     1
171
     1
175
     1
179
     1
273
     0
  0
XRECORD
  5
24906
102
{ACAD_REACTORS
330
24905
102
}
330
24905
100
AcDbXrecord
280
     1
102
MATERIAL
148
0.0
149
0.0
149
0.0
 93
        0
 94
       63
282
     0
 72
     1
 77
     1
171
     1
175
     1
179
     1
273
     0
  0
XRECORD
  5
248FA
102
{ACAD_REACTORS
330
248F9
102
}
330
248F9
100
AcDbXrecord
280
     1
102
SHADEPLOT
 70
     1
102
SHADEPLOTRESLEVEL
 70
     2
102
SHADEPLOTCUSTOMDPI
 70
   300
  0
XRECORD
  5
248FC
102
{ACAD_REACTORS
330
248FB
102
}
330
248FB
100
AcDbXrecord
280
     1
102
SHADEPLOT
 70
     1
102
SHADEPLOTRESLEVEL
 70
     2
102
SHADEPLOTCUSTOMDPI
 70
   300
  0
XRECORD
  5
248FE
102
{ACAD_REACTORS
330
248FD
102
}
330
248FD
100
AcDbXrecord
280
     1
102
SHADEPLOT
 70
     1
102
SHADEPLOTRESLEVEL
 70
     2
102
SHADEPLOTCUSTOMDPI
 70
   300
  0
XRECORD
  5
24908
102
{ACAD_REACTORS
330
24907
102
}
330
24907
100
AcDbXrecord
280
     1
102
SHADEPLOT
 70
     1
102
SHADEPLOTRESLEVEL
 70
     2
102
SHADEPLOTCUSTOMDPI
 70
   300
  0
XRECORD
  5
24900
102
{ACAD_REACTORS
330
248FF
102
}
330
248FF
100
AcDbXrecord
280
     1
102
ACAD_ROUNDTRIP_PRE2007_TABLESTYLE
 90
        4
 91
        0
  1

 92
        4
 93
        0
  2

 94
        4
 95
        0
  3

  0
ENDSEC
  0
EOF
