  0
SECTION
  2
HEADER
  9
$ACADVER
  1
AC1015
  9
$ACADMAINTVER
 70
    20
  9
$DWGCODEPAGE
  3
ANSI_932
  9
$INSBASE
 10
0.0
 20
0.0
 30
0.0
  9
$EXTMIN
 10
-0.0609644672949799
 20
-0.0566964358631594
 30
-0.0015258207003583
  9
$EXTMAX
 10
381.1522262683038
 20
273.1013518380519
 30
0.0000000349246037
  9
$LIMMIN
 10
1700.85588156276
 20
1647.985052086429
  9
$LIMMAX
 10
1997.85588156276
 20
1857.985052086429
  9
$ORTHOMODE
 70
     0
  9
$REGENMODE
 70
     1
  9
$FILLMODE
 70
     1
  9
$QTEXTMODE
 70
     0
  9
$MIRRTEXT
 70
     0
  9
$LTSCALE
 40
1.0
  9
$ATTMODE
 70
     1
  9
$TEXTSIZE
 40
3.2
  9
$TRACEWID
 40
1.0
  9
$TEXTSTYLE
  7
STANDARD
  9
$CLAYER
  8
AM_0
  9
$CELTYPE
  6
ByLayer
  9
$CECOLOR
 62
   256
  9
$CELTSCALE
 40
1.0
  9
$DISPSILH
 70
     0
  9
$DIMSCALE
 40
1.0
  9
$DIMASZ
 40
1.0
  9
$DIMEXO
 40
1.0
  9
$DIMDLI
 40
10.0
  9
$DIMRND
 40
0.0
  9
$DIMDLE
 40
0.0
  9
$DIMEXE
 40
1.0
  9
$DIMTP
 40
0.1
  9
$DIMTM
 40
0.1
  9
$DIMTXT
 40
3.5
  9
$DIMCEN
 40
0.0
  9
$DIMTSZ
 40
0.0
  9
$DIMTOL
 70
     0
  9
$DIMLIM
 70
     0
  9
$DIMTIH
 70
     0
  9
$DIMTOH
 70
     0
  9
$DIMSE1
 70
     0
  9
$DIMSE2
 70
     0
  9
$DIMTAD
 70
     1
  9
$DIMZIN
 70
     8
  9
$DIMBLK
  1

  9
$DIMASO
 70
     1
  9
$DIMSHO
 70
     1
  9
$DIMPOST
  1

  9
$DIMAPOST
  1
"
  9
$DIMALT
 70
     0
  9
$DIMALTD
 70
     2
  9
$DIMALTF
 40
0.0393701
  9
$DIMLFAC
 40
1.0
  9
$DIMTOFL
 70
     1
  9
$DIMTVP
 40
0.0
  9
$DIMTIX
 70
     0
  9
$DIMSOXD
 70
     0
  9
$DIMSAH
 70
     0
  9
$DIMBLK1
  1

  9
$DIMBLK2
  1

  9
$DIMSTYLE
  2
SYS
  9
$DIMCLRD
 70
   256
  9
$DIMCLRE
 70
   256
  9
$DIMCLRT
 70
     7
  9
$DIMTFAC
 40
0.71
  9
$DIMGAP
 40
1.5
  9
$DIMJUST
 70
     0
  9
$DIMSD1
 70
     0
  9
$DIMSD2
 70
     0
  9
$DIMTOLJ
 70
     0
  9
$DIMTZIN
 70
     8
  9
$DIMALTZ
 70
     0
  9
$DIMALTTZ
 70
     0
  9
$DIMUPT
 70
     0
  9
$DIMDEC
 70
     2
  9
$DIMTDEC
 70
     2
  9
$DIMALTU
 70
     2
  9
$DIMALTTD
 70
     2
  9
$DIMTXSTY
  7
STANDARD
  9
$DIMAUNIT
 70
     0
  9
$DIMADEC
 70
     0
  9
$DIMALTRND
 40
0.0
  9
$DIMAZIN
 70
     2
  9
$DIMDSEP
 70
    46
  9
$DIMATFIT
 70
     3
  9
$DIMFRAC
 70
     0
  9
$DIMLDRBLK
  1

  9
$DIMLUNIT
 70
     2
  9
$DIMLWD
 70
    -1
  9
$DIMLWE
 70
    -1
  9
$DIMTMOVE
 70
     0
  9
$LUNITS
 70
     2
  9
$LUPREC
 70
     2
  9
$SKETCHINC
 40
1.0
  9
$FILLETRAD
 40
0.0
  9
$AUNITS
 70
     0
  9
$AUPREC
 70
     0
  9
$MENU
  1
.
  9
$ELEVATION
 40
0.0
  9
$PELEVATION
 40
0.0
  9
$THICKNESS
 40
0.0
  9
$LIMCHECK
 70
     0
  9
$CHAMFERA
 40
0.0
  9
$CHAMFERB
 40
0.0
  9
$CHAMFERC
 40
20.0
  9
$CHAMFERD
 40
0.0
  9
$SKPOLY
 70
     0
  9
$TDCREATE
 40
2456687.638781458
  9
$TDUCREATE
 40
2456687.263781458
  9
$TDUPDATE
 40
2456687.646610244
  9
$TDUUPDATE
 40
2456687.271610244
  9
$TDINDWG
 40
0.0078311227
  9
$TDUSRTIMER
 40
0.0078309491
  9
$USRTIMER
 70
     1
  9
$ANGBASE
 50
0.0
  9
$ANGDIR
 70
     0
  9
$PDMODE
 70
     0
  9
$PDSIZE
 40
-3.0
  9
$PLINEWID
 40
0.0
  9
$SPLFRAME
 70
     0
  9
$SPLINETYPE
 70
     6
  9
$SPLINESEGS
 70
     8
  9
$HANDSEED
  5
BD00
  9
$SURFTAB1
 70
     6
  9
$SURFTAB2
 70
     6
  9
$SURFTYPE
 70
     6
  9
$SURFU
 70
     6
  9
$SURFV
 70
     6
  9
$UCSBASE
  2

  9
$UCSNAME
  2

  9
$UCSORG
 10
0.0
 20
0.0
 30
0.0
  9
$UCSXDIR
 10
1.0
 20
0.0
 30
0.0
  9
$UCSYDIR
 10
0.0
 20
1.0
 30
0.0
  9
$UCSORTHOREF
  2

  9
$UCSORTHOVIEW
 70
     0
  9
$UCSORGTOP
 10
0.0
 20
0.0
 30
0.0
  9
$UCSORGBOTTOM
 10
0.0
 20
0.0
 30
0.0
  9
$UCSORGLEFT
 10
0.0
 20
0.0
 30
0.0
  9
$UCSORGRIGHT
 10
0.0
 20
0.0
 30
0.0
  9
$UCSORGFRONT
 10
0.0
 20
0.0
 30
0.0
  9
$UCSORGBACK
 10
0.0
 20
0.0
 30
0.0
  9
$PUCSBASE
  2

  9
$PUCSNAME
  2

  9
$PUCSORG
 10
0.0
 20
0.0
 30
0.0
  9
$PUCSXDIR
 10
1.0
 20
0.0
 30
0.0
  9
$PUCSYDIR
 10
0.0
 20
1.0
 30
0.0
  9
$PUCSORTHOREF
  2

  9
$PUCSORTHOVIEW
 70
     0
  9
$PUCSORGTOP
 10
0.0
 20
0.0
 30
0.0
  9
$PUCSORGBOTTOM
 10
0.0
 20
0.0
 30
0.0
  9
$PUCSORGLEFT
 10
0.0
 20
0.0
 30
0.0
  9
$PUCSORGRIGHT
 10
0.0
 20
0.0
 30
0.0
  9
$PUCSORGFRONT
 10
0.0
 20
0.0
 30
0.0
  9
$PUCSORGBACK
 10
0.0
 20
0.0
 30
0.0
  9
$USERI1
 70
     0
  9
$USERI2
 70
     0
  9
$USERI3
 70
     0
  9
$USERI4
 70
     0
  9
$USERI5
 70
     0
  9
$USERR1
 40
0.0
  9
$USERR2
 40
0.0
  9
$USERR3
 40
0.0
  9
$USERR4
 40
0.0
  9
$USERR5
 40
0.0
  9
$WORLDVIEW
 70
     1
  9
$SHADEDGE
 70
     3
  9
$SHADEDIF
 70
    70
  9
$TILEMODE
 70
     1
  9
$MAXACTVP
 70
    64
  9
$PINSBASE
 10
0.0
 20
0.0
 30
0.0
  9
$PLIMCHECK
 70
     0
  9
$PEXTMIN
 10
1.000000000000000E+20
 20
1.000000000000000E+20
 30
1.000000000000000E+20
  9
$PEXTMAX
 10
-1.000000000000000E+20
 20
-1.000000000000000E+20
 30
-1.000000000000000E+20
  9
$PLIMMIN
 10
-3.17498779296875
 20
-3.174999952316284
  9
$PLIMMAX
 10
293.4970092773438
 20
206.692492723465
  9
$UNITMODE
 70
     0
  9
$VISRETAIN
 70
     1
  9
$PLINEGEN
 70
     0
  9
$PSLTSCALE
 70
     1
  9
$TREEDEPTH
 70
  3020
  9
$CMLSTYLE
  2
Standard
  9
$CMLJUST
 70
     0
  9
$CMLSCALE
 40
20.0
  9
$PROXYGRAPHICS
 70
     1
  9
$MEASUREMENT
 70
     1
  9
$CELWEIGHT
370
    -1
  9
$ENDCAPS
280
     0
  9
$JOINSTYLE
280
     0
  9
$LWDISPLAY
290
     1
  9
$INSUNITS
 70
     4
  9
$HYPERLINKBASE
  1

  9
$STYLESHEET
  1
monochrome.ctb
  9
$XEDIT
290
     1
  9
$CEPSNTYPE
380
     0
  9
$PSTYLEMODE
290
     1
  9
$FINGERPRINTGUID
  2
{EEC9869C-4670-44BA-8FC0-0B50DA5E5C19}
  9
$VERSIONGUID
  2
{BFCCBEE3-26B4-4383-A934-D496975F1501}
  9
$EXTNAMES
290
     1
  9
$PSVPSCALE
 40
0.0
  9
$OLESTARTUP
290
     0
  0
ENDSEC
  0
SECTION
  2
CLASSES
  0
CLASS
  1
ACDBDICTIONARYWDFLT
  2
AcDbDictionaryWithDefault
  3
ObjectDBX Classes
 90
        0
280
     0
281
     0
  0
CLASS
  1
ACDBPLACEHOLDER
  2
AcDbPlaceHolder
  3
ObjectDBX Classes
 90
        0
280
     0
281
     0
  0
CLASS
  1
LAYOUT
  2
AcDbLayout
  3
ObjectDBX Classes
 90
        0
280
     0
281
     0
  0
CLASS
  1
AMGSETTINGSOBJ
  2
AmgSettingsObj
  3
"AcadM|Product Description: AutoCAD Mechanical|Company: Autodesk"
 90
        0
280
     0
281
     0
  0
CLASS
  1
ACME_DOCUMENT
  2
AcMeDbDoc
  3
AcMeServices
 90
        0
280
     0
281
     0
  0
CLASS
  1
ACMESCOPE
  2
AcMeScope
  3
AcMeServices
 90
        0
280
     0
281
     0
  0
CLASS
  1
ACMECOMMANDHISTORY
  2
AcMeCommandHistory
  3
AcMeServices
 90
        0
280
     0
281
     0
  0
CLASS
  1
DICTIONARYVAR
  2
AcDbDictionaryVar
  3
ObjectDBX Classes
 90
        0
280
     0
281
     0
  0
CLASS
  1
ACIMSYSVARMAN
  2
AcImSysVarManager
  3
AcMeServices
 90
        0
280
     0
281
     0
  0
CLASS
  1
ACIMREALSYSVAR
  2
AcImRealSysVar
  3
AcMeServices
 90
        0
280
     0
281
     0
  0
CLASS
  1
ACIMINTSYSVAR
  2
AcImIntSysVar
  3
AcMeServices
 90
        0
280
     0
281
     0
  0
CLASS
  1
ACMEDRAWINGMAN
  2
AcMeDrawingMan
  3
AcMeServices
 90
        0
280
     0
281
     0
  0
CLASS
  1
ACMEVIEW
  2
AcMeView
  3
AcMeServices
 90
        0
280
     0
281
     0
  0
CLASS
  1
ACDBENTITYCACHE
  2
AcMeEntityCache
  3
AcMeServices
 90
        0
280
     0
281
     0
  0
CLASS
  1
GSMANAGER
  2
AcMeGSManager
  3
AcMeServices
 90
        0
280
     0
281
     0
  0
CLASS
  1
AMDTINTERNALREACTOR
  2
AmdtInternalReactor
  3
AcMeServices
 90
        0
280
     0
281
     0
  0
CLASS
  1
ACMESTATEMGR
  2
AcMeStateMgr
  3
AcMeServices
 90
        0
280
     0
281
     0
  0
CLASS
  1
ACGREFMASTER
  2
AcGrefMaster
  3
AcAttribServices
 90
        0
280
     0
281
     0
  0
CLASS
  1
ACME_DATABASE
  2
AcMeDbDatabase
  3
AcMeServices
 90
        0
280
     0
281
     0
  0
CLASS
  1
ACRFINSADJUSTERMGR
  2
AcRfInsAdjusterMgr
  3
AcMeServices
 90
        0
280
     0
281
     0
  0
CLASS
  1
ACGREFACADMASTER
  2
AcGrefacadMaster
  3
AcGrefServices
 90
        0
280
     0
281
     0
  0
CLASS
  1
AMIMASTER
  2
AmiMaster
  3
AmiServices
 90
        0
280
     0
281
     0
  0
CLASS
  1
ACMDATADICTIONARY
  2
AcmDataDictionary
  3
"AcmSymBB|Product Description: AutoCAD Mechanical|Company: Autodesk"
 90
        0
280
     0
281
     0
  0
CLASS
  1
ACMDATAENTRYBLOCK
  2
AcmDataEntryBlock
  3
"AcmSymBB|Product Description: AutoCAD Mechanical|Company: Autodesk"
 90
        0
280
     0
281
     0
  0
CLASS
  1
ACIMSTRSYSVAR
  2
AcImStrSysVar
  3
AcMeServices
 90
        0
280
     0
281
     0
  0
CLASS
  1
ACMSTANDARDISO
  2
AcmStandardISO
  3
"Amdt_StdImp|Product Description: AutoCAD Mechanical|Company: Autodesk"
 90
        0
280
     0
281
     0
  0
CLASS
  1
AMGOBJPROPCFG
  2
AmgObjPropCfg
  3
"AmgLay|Product Description: AutoCAD Mechanical|Company: Autodesk"
 90
        1
280
     0
281
     0
  0
CLASS
  1
AMDTEDGESTANDARDISO
  2
AmdtEdgeStdISO
  3
"Amdt_StdImp|Product Description: AutoCAD Mechanical|Company: Autodesk"
 90
        0
280
     0
281
     0
  0
CLASS
  1
ACMSURFSTANDARDISO
  2
AcmSurfTextStdISO
  3
"Amdt_StdImp|Product Description: AutoCAD Mechanical|Company: Autodesk"
 90
        0
280
     0
281
     0
  0
CLASS
  1
ACMFCFSTANDARDISO
  2
AcmFCFStdISO
  3
"Amdt_StdImp|Product Description: AutoCAD Mechanical|Company: Autodesk"
 90
        0
280
     0
281
     0
  0
CLASS
  1
ACMWELDSTANDARDISO
  2
AcmWeldingStdISO
  3
"Amdt_StdImp|Product Description: AutoCAD Mechanical|Company: Autodesk"
 90
        0
280
     0
281
     0
  0
CLASS
  1
ACMIDSTANDARDISO
  2
AcmIdStdISO
  3
"Amdt_StdImp|Product Description: AutoCAD Mechanical|Company: Autodesk"
 90
        0
280
     0
281
     0
  0
CLASS
  1
ACMDATUMSTANDARDISO
  2
AcmDatumStdISO
  3
"Amdt_StdImp|Product Description: AutoCAD Mechanical|Company: Autodesk"
 90
        0
280
     0
281
     0
  0
CLASS
  1
ACMBOMSTANDARDISO
  2
AcmBOMStdISO
  3
"Amdt_StdImp|Product Description: AutoCAD Mechanical|Company: Autodesk"
 90
        0
280
     0
281
     0
  0
CLASS
  1
ACMDETAILSTANDARDISO
  2
AmdtDetailSymStdISO
  3
"Amdt_StdImp|Product Description: AutoCAD Mechanical|Company: Autodesk"
 90
        0
280
     0
281
     0
  0
CLASS
  1
ACMSECTIONSTANDARDISO
  2
AmdtSectionSymStdISO
  3
"Amdt_StdImp|Product Description: AutoCAD Mechanical|Company: Autodesk"
 90
        0
280
     0
281
     0
  0
CLASS
  1
ACMCENTERLINESTANDARDISO
  2
AmdtCenterLineStdISO
  3
"Amdt_StdImp|Product Description: AutoCAD Mechanical|Company: Autodesk"
 90
        0
280
     0
281
     0
  0
CLASS
  1
ACAMGLAYSTD
  2
AcAmgLayStd
  3
"AmgLay|Product Description: AutoCAD Mechanical|Company: Autodesk"
 90
        0
280
     0
281
     0
  0
CLASS
  1
ACAMGDIMSTD
  2
AcAmgDimStd
  3
"AmgDim|Product Description: AutoCAD Mechanical|Company: Autodesk"
 90
        0
280
     0
281
     0
  0
CLASS
  1
ACAMGTITLESTD
  2
AcAmgTitleStd
  3
"AmgTitle|Product Description: AutoCAD Mechanical|Company: Autodesk"
 90
        0
280
     0
281
     0
  0
CLASS
  1
ACAMGFILTERDAT
  2
AcAmgFilterDat
  3
"AcadM|Product Description: AutoCAD Mechanical|Company: Autodesk"
 90
        0
280
     0
281
     0
  0
CLASS
  1
LAYER_INDEX
  2
AcDbLayerIndex
  3
ObjectDBX Classes
 90
    32768
280
     0
281
     0
  0
CLASS
  1
IDBUFFER
  2
AcDbIdBuffer
  3
ObjectDBX Classes
 90
    32768
280
     0
281
     0
  0
CLASS
  1
PLOTSETTINGS
  2
AcDbPlotSettings
  3
ObjectDBX Classes
 90
    32768
280
     0
281
     0
  0
CLASS
  1
AMDTFORMULAUPDATEDISPATCHER
  2
AmdtFormulaUpdateDispatcher
  3
AcMeServices
 90
        0
280
     0
281
     0
  0
CLASS
  1
ACMSTANDARDANSI
  2
AcmStandardANSI
  3
"Amdt_StdImp|Product Description: AutoCAD Mechanical|Company: Autodesk"
 90
        0
280
     0
281
     0
  0
CLASS
  1
ACMSURFSTANDARDANSI
  2
AcmSurfTextStdANSI
  3
"Amdt_StdImp|Product Description: AutoCAD Mechanical|Company: Autodesk"
 90
        0
280
     0
281
     0
  0
CLASS
  1
ACMFCFSTANDARDANSI
  2
AcmFCFStdANSI
  3
"Amdt_StdImp|Product Description: AutoCAD Mechanical|Company: Autodesk"
 90
        0
280
     0
281
     0
  0
CLASS
  1
ACMWELDSTANDARDANSI
  2
AcmWeldingStdANSI
  3
"Amdt_StdImp|Product Description: AutoCAD Mechanical|Company: Autodesk"
 90
        0
280
     0
281
     0
  0
CLASS
  1
ACMIDSTANDARDANSI
  2
AcmIdStdANSI
  3
"Amdt_StdImp|Product Description: AutoCAD Mechanical|Company: Autodesk"
 90
        0
280
     0
281
     0
  0
CLASS
  1
ACMDATUMSTANDARDANSI
  2
AcmDatumStdANSI
  3
"Amdt_StdImp|Product Description: AutoCAD Mechanical|Company: Autodesk"
 90
        0
280
     0
281
     0
  0
CLASS
  1
ACMBOMSTANDARDANSI
  2
AcmBOMStdANSI
  3
"Amdt_StdImp|Product Description: AutoCAD Mechanical|Company: Autodesk"
 90
        0
280
     0
281
     0
  0
CLASS
  1
ACMDETAILSTANDARDANSI
  2
AmdtDetailSymStdANSI
  3
"Amdt_StdImp|Product Description: AutoCAD Mechanical|Company: Autodesk"
 90
        0
280
     0
281
     0
  0
CLASS
  1
ACMSECTIONSTANDARDANSI
  2
AmdtSectionSymStdANSI
  3
"Amdt_StdImp|Product Description: AutoCAD Mechanical|Company: Autodesk"
 90
        0
280
     0
281
     0
  0
CLASS
  1
ACMCENTERLINESTANDARDANSI
  2
AmdtCenterLineStdANSI
  3
"Amdt_StdImp|Product Description: AutoCAD Mechanical|Company: Autodesk"
 90
        0
280
     0
281
     0
  0
CLASS
  1
ACMBOM
  2
AcmBom
  3
"AcmSymBB|Product Description: AutoCAD Mechanical|Company: Autodesk"
 90
        0
280
     0
281
     0
  0
CLASS
  1
ACMDATAENTRYPART
  2
AcmDataEntryPart
  3
"AcmSymBB|Product Description: AutoCAD Mechanical|Company: Autodesk"
 90
    32768
280
     0
281
     0
  0
CLASS
  1
ACMPARTREF
  2
AcmPartRef
  3
"AcmSymBB|Product Description: AutoCAD Mechanical|Company: Autodesk"
 90
    35839
280
     0
281
     1
  0
CLASS
  1
ACDBCIRCARCRES
  2
AcDbCircArcRes
  3
AcGrefServices
 90
    32768
280
     0
281
     0
  0
CLASS
  1
ACMBOMROW
  2
AcmBomRow
  3
"AcmSymBB|Product Description: AutoCAD Mechanical|Company: Autodesk"
 90
    32768
280
     0
281
     0
  0
CLASS
  1
ACMBALLOON
  2
AcmBalloon
  3
"AcmSymBB|Product Description: AutoCAD Mechanical|Company: Autodesk"
 90
    35839
280
     0
281
     1
  0
CLASS
  1
AMDTNOTE
  2
AmdtNote
  3
"AcmSymBB|Product Description: AutoCAD Mechanical|Company: Autodesk"
 90
    35839
280
     0
281
     1
  0
CLASS
  1
STDPART2D
  2
AmgStdPart
  3
"g3vace|Class: AmgStdPart|Product Description: AutoCAD Mechanical|Company: Autodesk"
 90
    35839
280
     0
281
     1
  0
CLASS
  1
ACDBSTDPARTRES_LINE
  2
AcDbStdPartRes_Line
  3
"g3vace|Class: AcDbStdPartRes_Line|Product Description: AutoCAD Mechanical|Company: Autodesk"
 90
    32768
280
     0
281
     0
  0
CLASS
  1
ACMDATAENTRY
  2
AcmDataEntry
  3
"AcmSymBB|Product Description: AutoCAD Mechanical|Company: Autodesk"
 90
        0
280
     0
281
     0
  0
CLASS
  1
ACDBOPPOLYLINERES
  2
AcDbOpPolylineRes
  3
AcGrefServices
 90
    32768
280
     0
281
     0
  0
CLASS
  1
ACMPARTLIST
  2
AcmPartList
  3
"AcmSymBB|Product Description: AutoCAD Mechanical|Company: Autodesk"
 90
    35839
280
     0
281
     1
  0
CLASS
  1
ACDBLINERES
  2
AcDbLineRes
  3
AcGrefServices
 90
    32768
280
     0
281
     0
  0
CLASS
  1
ACRFINSADJ
  2
AcRfInsAdjuster
  3
AcMeServices
 90
    32768
280
     0
281
     0
  0
CLASS
  1
AM_DRAWING_MGR
  2
AcDmDwgMgr
  3
AcMechDwgViewMgmt
 90
        0
280
     0
281
     0
  0
CLASS
  1
AM_DWG_DOCUMENT
  2
AcDmDwgDocument
  3
AcMechDwgViewMgmt
 90
        0
280
     0
281
     0
  0
CLASS
  1
AM_DWG_SHEET
  2
AcDmSheet
  3
AcMechDwgViewMgmt
 90
        0
280
     0
281
     0
  0
CLASS
  1
AM_VIEWDIMPARMAP
  2
AcDmViewDimParMap
  3
AcMechDwgViewMgmt
 90
        0
280
     0
281
     0
  0
CLASS
  1
AM_DWGMGR_NAME
  2
AcDmDwgMgrName
  3
AcMechDwgViewMgmt
 90
        0
280
     0
281
     0
  0
CLASS
  1
AMDTMENUSTATEMGR
  2
AmdtMenuStateMgr
  3
McadcomServices
 90
        0
280
     0
281
     0
  0
CLASS
  1
AMDTMCOMMENUSTATE
  2
AmdtMcomMenuState
  3
McadcomServices
 90
        0
280
     0
281
     0
  0
CLASS
  1
ASAPP
  2
AcAsAppObject
  3
AutoSurfServices
 90
        0
280
     0
281
     0
  0
CLASS
  1
IM_STATIC_MAN
  2
AcImStaticVarManager
  3
AcMeServices
 90
        0
280
     0
281
     0
  0
CLASS
  1
ACIMDBLSTATICVAR
  2
AcImDblStaticVar
  3
AcMeServices
 90
        0
280
     0
281
     0
  0
CLASS
  1
ACIMSTRSTATICVAR
  2
AcImStrStaticVar
  3
AcMeServices
 90
        0
280
     0
281
     0
  0
CLASS
  1
ACIMINTSTATICVAR
  2
AcImIntStaticVar
  3
AcMeServices
 90
        0
280
     0
281
     0
  0
CLASS
  1
ACASGREFMASTER
  2
AcAsGrefMaster
  3
AutoSurfResolverServices
 90
        0
280
     0
281
     0
  0
CLASS
  1
ACADGREFMODULE
  2
AcAdGrefModule
  3
AdGrefServices
 90
        0
280
     0
281
     0
  0
CLASS
  1
AMDTMAPISURFMOUDULE
  2
AmdtMApiSurfModule
  3
MApiSurfServices
 90
        0
280
     0
281
     0
  0
CLASS
  1
MAPIAMMOUDLE
  2
MApiAmModule
  3
MApiAmServices
 90
        0
280
     0
281
     0
  0
CLASS
  1
AMDTADMENUSTATE
  2
AmdtAdMenuState
  3
DesignerServices
 90
        0
280
     0
281
     0
  0
CLASS
  1
ADAPPL
  2
AcAdAppl
  3
DesignerServices
 90
        0
280
     0
281
     0
  0
CLASS
  1
DEPMGR
  2
AcAdDepMgr
  3
DesignerServices
 90
        0
280
     0
281
     0
  0
CLASS
  1
PARAMMGR
  2
AcAdParamMgr
  3
DesignerServices
 90
        0
280
     0
281
     0
  0
CLASS
  1
PARAMSCOPE
  2
AcAdParamScope
  3
DesignerServices
 90
        0
280
     0
281
     0
  0
CLASS
  1
NAMEDAPPL
  2
AcAdNamedAppl
  3
DesignerServices
 90
        0
280
     0
281
     0
  0
CLASS
  1
ADHNTMPLT
  2
AdHoleNoteTemplateMgr
  3
DesignerServices
 90
    32768
280
     0
281
     0
  0
CLASS
  1
AM_HNTEMPLATE_MGR_NAME
  2
AdHoleNoteTemplateMgrName
  3
DesignerServices
 90
    32768
280
     0
281
     0
  0
CLASS
  1
AMDTDMMENUSTATE
  2
AmdtDmMenuState
  3
AcMechDwgViewMgmt
 90
        0
280
     0
281
     0
  0
CLASS
  1
MAPIADMODULE
  2
MApiAdModule
  3
MApiAdServices
 90
        0
280
     0
281
     0
  0
CLASS
  1
AMDTAMMENUSTATE
  2
AmdtAmMenuState
  3
DesignerAssemblies
 90
        0
280
     0
281
     0
  0
CLASS
  1
ACAMPROJECT
  2
AcAmProject
  3
DesignerAssemblies
 90
        0
280
     0
281
     0
  0
CLASS
  1
ACAMGRCOMPDEF
  2
AcAmGrCompDef
  3
DesignerAssemblies
 90
        0
280
     0
281
     0
  0
CLASS
  1
ACCMCONTEXT
  2
AcCmContext
  3
DesignerAssemblies
 90
        0
280
     0
281
     0
  0
CLASS
  1
ACAMCOMPDEF
  2
AcAmCompDef
  3
DesignerAssemblies
 90
        0
280
     0
281
     0
  0
CLASS
  1
ACAMCOMPDEFMGR
  2
AcAmCompDefMgr
  3
DesignerAssemblies
 90
        0
280
     0
281
     0
  0
CLASS
  1
AMCONTEXTMGR
  2
AcAmContextMgr
  3
DesignerAssemblies
 90
        0
280
     0
281
     0
  0
CLASS
  1
ACAMCONTEXTMODELER
  2
AcAmContextModeler
  3
DesignerAssemblies
 90
        0
280
     0
281
     0
  0
CLASS
  1
CATALOGSTATE
  2
AcAmCatalogState
  3
DesignerAssemblies
 90
        0
280
     0
281
     0
  0
CLASS
  1
ACAMGRCOMPDEFSET
  2
AcAmGrCompDefSet
  3
DesignerAssemblies
 90
        0
280
     0
281
     0
  0
CLASS
  1
AMDTBROWSERDBTAB
  2
AmdtBrowserDbTab
  3
McadcomServices
 90
        0
280
     0
281
     0
  0
CLASS
  1
CBROWSERAPPOBJECT
  2
CBrowserAppObject
  3
McadcomServices
 90
        0
280
     0
281
     0
  0
CLASS
  1
DM_PLACEHOLDER
  2
AcDmSelsetPlaceholder
  3
AcMechDwgViewMgmt
 90
        0
280
     0
281
     0
  0
CLASS
  1
ACMPICKOBJ
  2
AcmPickEnt
  3
"AcmSymBB|Product Description: AutoCAD Mechanical|Company: Autodesk"
 90
    32768
280
     0
281
     1
  0
CLASS
  1
ACMNOTESTANDARDISO
  2
AmdtNoteStdISO
  3
"Amdt_StdImp|Product Description: AutoCAD Mechanical|Company: Autodesk"
 90
        0
280
     0
281
     0
  0
CLASS
  1
ACMNOTESTANDARDANSI
  2
AmdtNoteStdANSI
  3
"Amdt_StdImp|Product Description: AutoCAD Mechanical|Company: Autodesk"
 90
        0
280
     0
281
     0
  0
CLASS
  1
ACMTHREADLINESTANDARDISO
  2
AmdtThreadLineStdISO
  3
"Amdt_StdImp|Product Description: AutoCAD Mechanical|Company: Autodesk"
 90
        0
280
     0
281
     0
  0
CLASS
  1
ACMTHREADLINESTANDARDANSI
  2
AmdtThreadLineStdANSI
  3
"Amdt_StdImp|Product Description: AutoCAD Mechanical|Company: Autodesk"
 90
        0
280
     0
281
     0
  0
CLASS
  1
TABLESTYLE
  2
AcDbTableStyle
  3
ObjectDBX Classes
 90
     4095
280
     0
281
     0
  0
CLASS
  1
SORTENTSTABLE
  2
AcDbSortentsTable
  3
ObjectDBX Classes
 90
        0
280
     0
281
     0
  0
CLASS
  1
MATERIAL
  2
AcDbMaterial
  3
ObjectDBX Classes
 90
     1024
280
     0
281
     0
  0
CLASS
  1
VISUALSTYLE
  2
AcDbVisualStyle
  3
ObjectDBX Classes
 90
     4095
280
     0
281
     0
  0
CLASS
  1
ACRFATTGENMGR
  2
AcRfAttGeneralMgr
  3
AcAttribServices
 90
        0
280
     0
281
     0
  0
CLASS
  1
ACRFOBJATTMGR
  2
AcRfObjAttGroupMgr
  3
AcAttribServices
 90
        0
280
     0
281
     0
  0
CLASS
  1
ACRFMCADAPIATTHOLDER
  2
AcRfMCADAPIAttHolder
  3
AcAttribServices
 90
        0
280
     0
281
     0
  0
CLASS
  1
AMDTSYSATTR
  2
AmdtSystemAttribute
  3
AcAttribServices
 90
        0
280
     0
281
     0
  0
CLASS
  1
ACMTAPERSTANDARDISO
  2
AcmTaperStdISO
  3
"Amdt_StdImp|Product Description: AutoCAD Mechanical|Company: Autodesk"
 90
        0
280
     0
281
     0
  0
CLASS
  1
CAMSSTRUCTBTNSTATE
  2
StructBtnState
  3
L"DesignerAssemblies"
 90
        0
280
     0
281
     0
  0
CLASS
  1
DIMASSOC
  2
AcDbDimAssoc
  3
"AcDbDimAssoc|Product Desc:     AcDim ARX App For Dimension|Company:          Autodesk, Inc.|WEB Address:      www.autodesk.com"
 90
    32768
280
     0
281
     0
  0
CLASS
  1
AMDTNOTETEMPLATEDB
  2
AmdtNoteTemplateDB
  3
AMDT_STDIMP_MODULE_NAME
 90
        0
280
     0
281
     0
  0
CLASS
  1
ACMTAPERSTANDARDANSI
  2
AcmTaperStdANSI
  3
"Amdt_StdImp|Product Description: AutoCAD Mechanical|Company: Autodesk"
 90
        0
280
     0
281
     0
  0
CLASS
  1
ACAMGHOLECHARTSTDANSI
  2
AcAmgHoleChartStdANSI
  3
ACMSYMBB_MODULE_NAME
 90
        0
280
     0
281
     0
  0
ENDSEC
  0
SECTION
  2
TABLES
  0
TABLE
  2
VPORT
  5
8
330
0
100
AcDbSymbolTable
 70
     1
  0
VPORT
  5
B0EC
330
8
100
AcDbSymbolTableRecord
100
AcDbViewportTableRecord
  2
*Active
 70
     0
 10
0.0
 20
0.0
 11
1.0
 21
1.0
 12
190.5456309005044
 22
136.5223277010944
 13
0.0
 23
0.0
 14
2.5
 24
2.5
 15
10.0
 25
10.0
 16
0.0
 26
0.0
 36
1.0
 17
0.0
 27
0.0
 37
0.0
 40
275.3706126352471
 41
1.648648648648648
 42
50.0
 43
-1370.695619172058
 44
-1370.695619172058
 50
0.0
 51
0.0
 71
    16
 72
   100
 73
     1
 74
     3
 75
     0
 76
     0
 77
     0
 78
     0
281
     0
 65
     0
110
0.0
120
0.0
130
0.0
111
1.0
121
0.0
131
0.0
112
0.0
122
1.0
132
0.0
 79
     0
146
0.0
  0
ENDTAB
  0
TABLE
  2
LTYPE
  5
5
330
0
100
AcDbSymbolTable
 70
    33
  0
LTYPE
  5
14
330
5
100
AcDbSymbolTableRecord
100
AcDbLinetypeTableRecord
  2
ByBlock
 70
     0
  3

 72
    65
 73
     0
 40
0.0
  0
LTYPE
  5
15
330
5
100
AcDbSymbolTableRecord
100
AcDbLinetypeTableRecord
  2
ByLayer
 70
     0
  3

 72
    65
 73
     0
 40
0.0
  0
LTYPE
  5
16
330
5
100
AcDbSymbolTableRecord
100
AcDbLinetypeTableRecord
  2
Continuous
 70
     0
  3
Solid line
 72
    65
 73
     0
 40
0.0
  0
LTYPE
  5
4F
330
5
100
AcDbSymbolTableRecord
100
AcDbLinetypeTableRecord
  2
AM_ISO02W050
 70
     0
  3
__ __ __ __ __ __ __ __ __ __ __ __ __ __ __
 72
    65
 73
     2
 40
7.5
 49
6.0
 74
     0
 49
-1.5
 74
     0
  0
LTYPE
  5
52
330
5
100
AcDbSymbolTableRecord
100
AcDbLinetypeTableRecord
  2
Amconstr
 70
     0
  3
_______________________
 72
    65
 73
     2
 40
9999.0
 49
9999.0
 74
     0
 49
0.0
 74
     0
  0
LTYPE
  5
64
330
5
100
AcDbSymbolTableRecord
100
AcDbLinetypeTableRecord
  2
ACISOWELD
 70
     0
  3
_ _ _ _ _
 72
    65
 73
     2
 40
2.0
 49
2.0
 74
     0
 49
-1.0
 74
     0
  0
LTYPE
  5
65
330
5
100
AcDbSymbolTableRecord
100
AcDbLinetypeTableRecord
  2
ACISOTGB
 70
     0
  3
__ . . __ . .
 72
    65
 73
     6
 40
9.0
 49
4.0
 74
     0
 49
-1.0
 74
     0
 49
1.0
 74
     0
 49
-1.0
 74
     0
 49
1.0
 74
     0
 49
-1.0
 74
     0
  0
LTYPE
  5
66
330
5
100
AcDbSymbolTableRecord
100
AcDbLinetypeTableRecord
  2
ACISOTGL
 70
     0
  3
_ _ _ _ _
 72
    65
 73
     2
 40
3.0
 49
2.0
 74
     0
 49
-1.0
 74
     0
  0
LTYPE
  5
69
330
5
100
AcDbSymbolTableRecord
100
AcDbLinetypeTableRecord
  2
CENTER
 70
     0
  3
__ . __
 72
    65
 73
     4
 40
7.0
 49
4.0
 74
     0
 49
-1.0
 74
     0
 49
1.0
 74
     0
 49
-1.0
 74
     0
  0
LTYPE
  5
A6E
330
5
100
AcDbSymbolTableRecord
100
AcDbLinetypeTableRecord
  2
PHANTOM2
 70
     0
  3
Phantom (.5x) ___ _ _ ___ _ _ ___ _ _ ___ _ _
 72
    65
 73
     6
 40
31.75
 49
15.875
 74
     0
 49
-3.174999999999999
 74
     0
 49
3.174999999999999
 74
     0
 49
-3.174999999999999
 74
     0
 49
3.174999999999999
 74
     0
 49
-3.174999999999999
 74
     0
  0
LTYPE
  5
4DED
330
5
100
AcDbSymbolTableRecord
100
AcDbLinetypeTableRecord
  2
中線
 70
     0
  3
___________________
 72
    65
 73
     2
 40
2.0
 49
1.0
 74
     0
 49
1.0
 74
     0
  0
LTYPE
  5
4DF6
330
5
100
AcDbSymbolTableRecord
100
AcDbLinetypeTableRecord
  2
細線
 70
     0
  3
___________________
 72
    65
 73
     2
 40
2.0
 49
1.0
 74
     0
 49
1.0
 74
     0
  0
LTYPE
  5
4DF7
330
5
100
AcDbSymbolTableRecord
100
AcDbLinetypeTableRecord
  2
太線
 70
     0
  3
___________________
 72
    65
 73
     2
 40
2.0
 49
1.0
 74
     0
 49
1.0
 74
     0
  0
LTYPE
  5
4EA7
330
5
100
AcDbSymbolTableRecord
100
AcDbLinetypeTableRecord
  2
文字
 70
     0
  3
_________________
 72
    65
 73
     2
 40
2.0
 49
1.0
 74
     0
 49
1.0
 74
     0
  0
LTYPE
  5
4EA9
330
5
100
AcDbSymbolTableRecord
100
AcDbLinetypeTableRecord
  2
寸法線
 70
     0
  3
________________
 72
    65
 73
     2
 40
2.0
 49
1.0
 74
     0
 49
1.0
 74
     0
  0
LTYPE
  5
4F12
330
5
100
AcDbSymbolTableRecord
100
AcDbLinetypeTableRecord
  2
ハッチング
 70
     0
  3
_________________
 72
    65
 73
     2
 40
2.0
 49
1.0
 74
     0
 49
1.0
 74
     0
  0
LTYPE
  5
5180
330
5
100
AcDbSymbolTableRecord
100
AcDbLinetypeTableRecord
  2
陰線1
 70
     0
  3
__ __ __ __
 72
    65
 73
     2
 40
4.0
 49
2.2
 74
     0
 49
-1.8
 74
     0
  0
LTYPE
  5
5182
330
5
100
AcDbSymbolTableRecord
100
AcDbLinetypeTableRecord
  2
切断線
 70
     0
  3
/\/-/\/-/\/-/\/-/\/-/\/
 72
    65
 73
     2
 40
11.0001
 49
0.0001
 74
     4
 75
   135
340
56
 46
0.04
 50
0.0
 44
0.0
 45
0.0
 49
-11.0
 74
     0
  0
LTYPE
  5
5183
330
5
100
AcDbSymbolTableRecord
100
AcDbLinetypeTableRecord
  2
想像線1
 70
     0
  3
__ __ __ _____ __ __ ____
 72
    65
 73
     6
 40
14.5
 49
6.0
 74
     0
 49
-1.5
 74
     0
 49
2.0
 74
     0
 49
-1.5
 74
     0
 49
2.0
 74
     0
 49
-1.5
 74
     0
  0
LTYPE
  5
5185
330
5
100
AcDbSymbolTableRecord
100
AcDbLinetypeTableRecord
  2
中心線1
 70
     0
  3
___ _ ___ _ ___
 72
    65
 73
     4
 40
18.0
 49
12.0
 74
     0
 49
-2.0
 74
     0
 49
2.0
 74
     0
 49
-2.0
 74
     0
  0
LTYPE
  5
5188
330
5
100
AcDbSymbolTableRecord
100
AcDbLinetypeTableRecord
  2
補助線
 70
     0
  3
______________
 72
    65
 73
     2
 40
2.0
 49
1.0
 74
     0
 49
1.0
 74
     0
  0
LTYPE
  5
6427
330
5
100
AcDbSymbolTableRecord
100
AcDbLinetypeTableRecord
  2
HIDDEN
 70
     0
  3
Hidden __ __ __ __ __ __ __ __ __ __ __ __ __ _
 72
    65
 73
     2
 40
0.375
 49
0.25
 74
     0
 49
-0.125
 74
     0
  0
LTYPE
  5
AC81
330
5
100
AcDbSymbolTableRecord
100
AcDbLinetypeTableRecord
  2
破断線
 70
     0
  3
/\/-/\/-/\/-/\/-/\/-/\/
 72
    65
 73
     2
 40
0.4401
 49
0.0001
 74
     4
 75
   136
340
AC80
 46
0.0016
 50
0.0
 44
0.0
 45
0.0
 49
-0.4400000000000001
 74
     0
  0
LTYPE
  5
AC9E
330
5
100
AcDbSymbolTableRecord
100
AcDbLinetypeTableRecord
  2
Amzigzag
 70
     0
  3
/\/-/\/-/\/-/\/-/\/-/\/
 72
    65
 73
     2
 40
11.0001
 49
0.0001
 74
     4
 75
   135
340
56
 46
0.04
 50
0.0
 44
0.0
 45
0.0
 49
-11.0
 74
     0
  0
LTYPE
  5
AF0F
330
5
100
AcDbSymbolTableRecord
100
AcDbLinetypeTableRecord
  2
genzigzag
 70
     0
  3
/\/-/\/-/\/-/\/-/\/-/\/
 72
    65
 73
     2
 40
12.0001
 49
0.0001
 74
     4
 75
   135
340
AC80
 46
2.0
 50
0.0
 44
0.0
 45
0.0
 49
-12.0
 74
     0
  0
LTYPE
  5
AF95
330
5
100
AcDbSymbolTableRecord
100
AcDbLinetypeTableRecord
  2
AM_ISO08W050
 70
     0
  3
____ . ____ . ____ . ____ . ____ . ____ . ____
 72
    65
 73
     4
 40
18.0
 49
12.0
 74
     0
 49
-1.5
 74
     0
 49
3.0
 74
     0
 49
-1.5
 74
     0
  0
LTYPE
  5
AF96
330
5
100
AcDbSymbolTableRecord
100
AcDbLinetypeTableRecord
  2
AM_ISO09W050
 70
     0
  3
_____ . . _____ . . _____ . . ____ .. ____
 72
    65
 73
     6
 40
22.5
 49
12.0
 74
     0
 49
-1.5
 74
     0
 49
3.0
 74
     0
 49
-1.5
 74
     0
 49
3.0
 74
     0
 49
-1.5
 74
     0
  0
LTYPE
  5
AF97
330
5
100
AcDbSymbolTableRecord
100
AcDbLinetypeTableRecord
  2
AM_ISO08W050x2
 70
     0
  3
__ . __ . __ . __ . __ . __
 72
    65
 73
     4
 40
9.0
 49
6.0
 74
     0
 49
-0.75
 74
     0
 49
1.5
 74
     0
 49
-0.75
 74
     0
  0
LTYPE
  5
AF98
330
5
100
AcDbSymbolTableRecord
100
AcDbLinetypeTableRecord
  2
AM_ISO02W050x2
 70
     0
  3
 _ _ _ _ _ _ _ _ _ _ _ _
 72
    65
 73
     2
 40
3.75
 49
3.0
 74
     0
 49
-0.75
 74
     0
  0
LTYPE
  5
B679
330
5
100
AcDbSymbolTableRecord
100
AcDbLinetypeTableRecord
  2
DASHED
 70
     0
  3
__ __ __ __ __ __ __ __ __ __ __ __ __ __ __
 72
    65
 73
     2
 40
3.5
 49
2.0
 74
     0
 49
-1.5
 74
     0
  0
LTYPE
  5
B67A
330
5
100
AcDbSymbolTableRecord
100
AcDbLinetypeTableRecord
  2
CENTER2
 70
     0
  3
Center (.5x) ___ _ ___ _ ___ _ ___ _ ___ _ ___
 72
    65
 73
     4
 40
1.125
 49
0.75
 74
     0
 49
-0.125
 74
     0
 49
0.125
 74
     0
 49
-0.125
 74
     0
  0
LTYPE
  5
B67B
330
5
100
AcDbSymbolTableRecord
100
AcDbLinetypeTableRecord
  2
HIDDEN2
 70
     0
  3
Hidden (.5x) _ _ _ _ _ _ _ _ _ _ _ _ _ _ _ _ _
 72
    65
 73
     2
 40
0.1875
 49
0.125
 74
     0
 49
-0.0625
 74
     0
  0
LTYPE
  5
B67C
330
5
100
AcDbSymbolTableRecord
100
AcDbLinetypeTableRecord
  2
Amzigzag2
 70
     0
  3
/\/-/\/-/\/-/\/-/\/-/\/
 72
    65
 73
     2
 40
0.4401
 49
0.0001
 74
     4
 75
   136
340
AC80
 46
0.0016
 50
0.0
 44
0.0
 45
0.0
 49
-0.4400000000000001
 74
     0
  0
LTYPE
  5
B67D
330
5
100
AcDbSymbolTableRecord
100
AcDbLinetypeTableRecord
  2
ACANSTGB
 70
     0
  3
__ . . __ . .
 72
    65
 73
     6
 40
0.35433070866
 49
0.15748031496
 74
     0
 49
-0.03937007874
 74
     0
 49
0.03937007874
 74
     0
 49
-0.03937007874
 74
     0
 49
0.03937007874
 74
     0
 49
-0.03937007874
 74
     0
  0
LTYPE
  5
B67E
330
5
100
AcDbSymbolTableRecord
100
AcDbLinetypeTableRecord
  2
ACANSTGL
 70
     0
  3
_ _ _ _ _
 72
    65
 73
     2
 40
0.11811023622
 49
0.07874015748
 74
     0
 49
-0.03937007874
 74
     0
  0
ENDTAB
  0
TABLE
  2
LAYER
  5
2
102
{ACAD_XDICTIONARY
360
3F95
102
}
330
0
100
AcDbSymbolTable
 70
    19
  0
LAYER
  5
10
330
2
100
AcDbSymbolTableRecord
100
AcDbLayerTableRecord
  2
0
 70
     0
 62
     7
  6
Continuous
370
    -3
390
F
  0
LAYER
  5
6D1
330
2
100
AcDbSymbolTableRecord
100
AcDbLayerTableRecord
  2
Defpoints
 70
     0
 62
     7
  6
Continuous
290
     0
370
    -3
390
F
  0
LAYER
  5
5F85
330
2
100
AcDbSymbolTableRecord
100
AcDbLayerTableRecord
  2
AM_0
 70
     0
 62
     7
  6
中線
370
    30
390
F
1001
AcAecLayerStandard
1000

1000

  0
LAYER
  5
AC9F
330
2
100
AcDbSymbolTableRecord
100
AcDbLayerTableRecord
  2
size
 70
     0
 62
     5
  6
Continuous
290
     0
370
    25
390
F
  0
LAYER
  5
ACA0
330
2
100
AcDbSymbolTableRecord
100
AcDbLayerTableRecord
  2
waku
 70
     0
 62
     7
  6
Continuous
370
    35
390
F
  0
LAYER
  5
ACA1
330
2
100
AcDbSymbolTableRecord
100
AcDbLayerTableRecord
  2
AM_6
 70
     0
 62
     2
  6
文字
370
    13
390
F
1001
AcAecLayerStandard
1000

1000

  0
LAYER
  5
ACC8
330
2
100
AcDbSymbolTableRecord
100
AcDbLayerTableRecord
  2
hyomoji
 70
     0
 62
     2
  6
Continuous
370
    13
390
F
  0
LAYER
  5
ACC9
330
2
100
AcDbSymbolTableRecord
100
AcDbLayerTableRecord
  2
hyosen1
 70
     0
 62
     1
  6
Continuous
370
    30
390
F
  0
LAYER
  5
ACCA
330
2
100
AcDbSymbolTableRecord
100
AcDbLayerTableRecord
  2
hyosen2
 70
     0
 62
     1
  6
Continuous
370
    13
390
F
  0
LAYER
  5
AD60
330
2
100
AcDbSymbolTableRecord
100
AcDbLayerTableRecord
  2
AM_1
 70
     0
 62
    30
  6
太線
370
    40
390
F
1001
AcAecLayerStandard
1000

1000

  0
LAYER
  5
AD64
330
2
100
AcDbSymbolTableRecord
100
AcDbLayerTableRecord
  2
AM_2
 70
     0
 62
     1
  6
細線
370
    13
390
F
1001
AcAecLayerStandard
1000

1000

  0
LAYER
  5
AD67
330
2
100
AcDbSymbolTableRecord
100
AcDbLayerTableRecord
  2
AM_3
 70
     0
 62
     6
  6
陰線1
370
    13
390
F
1001
AcAecLayerStandard
1000

1000

  0
LAYER
  5
AD68
330
2
100
AcDbSymbolTableRecord
100
AcDbLayerTableRecord
  2
AM_5
 70
     0
 62
     3
  6
寸法線
370
    13
390
F
1001
AcAecLayerStandard
1000

1000

  0
LAYER
  5
AD69
330
2
100
AcDbSymbolTableRecord
100
AcDbLayerTableRecord
  2
AM_7
 70
     0
 62
     4
  6
中心線1
370
    13
390
F
1001
AcAecLayerStandard
1000

1000

  0
LAYER
  5
AD6A
330
2
100
AcDbSymbolTableRecord
100
AcDbLayerTableRecord
  2
AM_8
 70
     0
 62
     1
  6
ハッチング
370
    13
390
F
1001
AcAecLayerStandard
1000

1000

  0
LAYER
  5
AD6E
330
2
100
AcDbSymbolTableRecord
100
AcDbLayerTableRecord
  2
AM_10
 70
     0
 62
     7
  6
切断線
370
    30
390
F
1001
AcAecLayerStandard
1000

1000

  0
LAYER
  5
AD6F
330
2
100
AcDbSymbolTableRecord
100
AcDbLayerTableRecord
  2
AM_11
 70
     0
 62
     2
  6
想像線1
370
    13
390
F
1001
AcAecLayerStandard
1000

1000

  0
LAYER
  5
B1B6
330
2
100
AcDbSymbolTableRecord
100
AcDbLayerTableRecord
  2
AM_CL
 70
     1
 62
    -1
  6
Amconstr
370
    13
390
F
1001
AcAecLayerStandard
1000

1000

  0
LAYER
  5
BCD4
330
2
100
AcDbSymbolTableRecord
100
AcDbLayerTableRecord
  2
AM_4
 70
     0
 62
     3
  6
補助線
370
    13
390
F
1001
AcAecLayerStandard
1000

1000

  0
ENDTAB
  0
TABLE
  2
STYLE
  5
3
330
0
100
AcDbSymbolTable
 70
    11
  0
STYLE
  5
11
330
3
100
AcDbSymbolTableRecord
100
AcDbTextStyleTableRecord
  2
STANDARD
 70
     0
 40
0.0
 41
0.7
 50
0.0
 71
     0
 42
3.2
  3
romans.shx
  4
extfont.shx
  0
STYLE
  5
56
330
3
100
AcDbSymbolTableRecord
100
AcDbTextStyleTableRecord
  2

 70
     1
 40
0.0
 41
1.0
 50
0.0
 71
     0
 42
2.5
  3
ltypeshp.shx
  4

  0
STYLE
  5
58
330
3
100
AcDbSymbolTableRecord
100
AcDbTextStyleTableRecord
  2
ACISOTS
 70
     0
 40
1.0
 41
1.0
 50
0.0
 71
     0
 42
2.5
  3
isocp.shx
  4
extfont.shx
  0
STYLE
  5
63
330
3
100
AcDbSymbolTableRecord
100
AcDbTextStyleTableRecord
  2
ACISOGDT
 70
     0
 40
0.0
 41
1.0
 50
0.0
 71
     0
 42
2.5
  3
amgdt.shx
  4

  0
STYLE
  5
A74
330
3
100
AcDbSymbolTableRecord
100
AcDbTextStyleTableRecord
  2
DIM
 70
     0
 40
0.0
 41
1.0
 50
0.0
 71
     0
 42
2.5
  3
monotxt.shx
  4
extfont.shx
  0
STYLE
  5
AC80
330
3
100
AcDbSymbolTableRecord
100
AcDbTextStyleTableRecord
  2

 70
     1
 40
0.0
 41
1.0
 50
0.0
 71
     0
 42
3.2
  3
genltshp.shx
  4

  0
STYLE
  5
B67F
330
3
100
AcDbSymbolTableRecord
100
AcDbTextStyleTableRecord
  2
ACANSTS
 70
     0
 40
1.0
 41
1.0
 50
0.0
 71
     0
 42
3.2
  3
romans.shx
  4
extfont.shx
  0
STYLE
  5
B680
330
3
100
AcDbSymbolTableRecord
100
AcDbTextStyleTableRecord
  2
ACANSGDT
 70
     0
 40
0.0
 41
1.0
 50
0.0
 71
     0
 42
3.2
  3
amgdt.shx
  4

  0
ENDTAB
  0
TABLE
  2
VIEW
  5
6
330
0
100
AcDbSymbolTable
 70
     6
  0
VIEW
  5
AE1
330
6
100
AcDbSymbolTableRecord
100
AcDbViewTableRecord
  2
AM_VIEW1
 70
     0
 40
129.7276464542651
 10
1775.10588156276
 20
1793.121228859297
 41
148.5
 11
0.0
 21
0.0
 31
1.0
 12
0.0
 22
0.0
 32
0.0
 42
50.0
 43
-1370.695619172058
 44
-1370.695619172058
 50
0.0
 71
    16
281
     0
 72
     0
  0
VIEW
  5
AE2
330
6
100
AcDbSymbolTableRecord
100
AcDbViewTableRecord
  2
AM_VIEW2
 70
     0
 40
129.7276464542651
 10
1923.60588156276
 20
1793.121228859297
 41
148.5
 11
0.0
 21
0.0
 31
1.0
 12
0.0
 22
0.0
 32
0.0
 42
50.0
 43
-1370.695619172058
 44
-1370.695619172058
 50
0.0
 71
    16
281
     0
 72
     0
  0
VIEW
  5
AE3
330
6
100
AcDbSymbolTableRecord
100
AcDbViewTableRecord
  2
AM_VIEW3
 70
     0
 40
129.7276464542651
 10
1775.10588156276
 20
1712.848875313562
 41
148.5
 11
0.0
 21
0.0
 31
1.0
 12
0.0
 22
0.0
 32
0.0
 42
50.0
 43
-1370.695619172058
 44
-1370.695619172058
 50
0.0
 71
    16
281
     0
 72
     0
  0
VIEW
  5
AE4
330
6
100
AcDbSymbolTableRecord
100
AcDbViewTableRecord
  2
AM_VIEW4
 70
     0
 40
129.7276464542651
 10
1923.60588156276
 20
1712.848875313562
 41
148.5
 11
0.0
 21
0.0
 31
1.0
 12
0.0
 22
0.0
 32
0.0
 42
50.0
 43
-1370.695619172058
 44
-1370.695619172058
 50
0.0
 71
    16
281
     0
 72
     0
  0
VIEW
  5
AE5
330
6
100
AcDbSymbolTableRecord
100
AcDbViewTableRecord
  2
AM_VIEW5
 70
     0
 40
129.7276464542651
 10
1849.35588156276
 20
1752.985052086429
 41
148.5
 11
0.0
 21
0.0
 31
1.0
 12
0.0
 22
0.0
 32
0.0
 42
50.0
 43
-1370.695619172058
 44
-1370.695619172058
 50
0.0
 71
    16
281
     0
 72
     0
  0
VIEW
  5
AE6
330
6
100
AcDbSymbolTableRecord
100
AcDbViewTableRecord
  2
AM_VIEW6
 70
     0
 40
259.4526983556011
 10
1849.35588156276
 20
1752.985052086429
 41
296.99703
 11
0.0
 21
0.0
 31
1.0
 12
0.0
 22
0.0
 32
0.0
 42
50.0
 43
-1370.695619172058
 44
-1370.695619172058
 50
0.0
 71
    16
281
     0
 72
     0
  0
ENDTAB
  0
TABLE
  2
UCS
  5
7
330
0
100
AcDbSymbolTable
 70
     0
  0
ENDTAB
  0
TABLE
  2
APPID
  5
9
330
0
100
AcDbSymbolTable
 70
    55
  0
APPID
  5
12
330
9
100
AcDbSymbolTableRecord
100
AcDbRegAppTableRecord
  2
ACAD
 70
     0
  0
APPID
  5
30
330
9
100
AcDbSymbolTableRecord
100
AcDbRegAppTableRecord
  2
MCAD_NO_VIS
 70
     0
  0
APPID
  5
31
330
9
100
AcDbSymbolTableRecord
100
AcDbRegAppTableRecord
  2
ACAD_TEMP_GRAPHIC
 70
     0
  0
APPID
  5
44
330
9
100
AcDbSymbolTableRecord
100
AcDbRegAppTableRecord
  2
ACATTRIBSERVICES
 70
     0
  0
APPID
  5
7A1
330
9
100
AcDbSymbolTableRecord
100
AcDbRegAppTableRecord
  2
GENIUS_GENDIMSH_14
 70
     0
  0
APPID
  5
A49
330
9
100
AcDbSymbolTableRecord
100
AcDbRegAppTableRecord
  2
GENIUS_GENREC_14
 70
     0
  0
APPID
  5
A4A
330
9
100
AcDbSymbolTableRecord
100
AcDbRegAppTableRecord
  2
GENIUS_GENOBJ-N-REC_13
 70
     0
  0
APPID
  5
A4B
330
9
100
AcDbSymbolTableRecord
100
AcDbRegAppTableRecord
  2
GENIUS_GENODEF_13
 70
     0
  0
APPID
  5
A4C
330
9
100
AcDbSymbolTableRecord
100
AcDbRegAppTableRecord
  2
DCO15
 70
     0
  0
APPID
  5
ADC
330
9
100
AcDbSymbolTableRecord
100
AcDbRegAppTableRecord
  2
GENIUS_GENOLIS_13
 70
     0
  0
APPID
  5
ADD
330
9
100
AcDbSymbolTableRecord
100
AcDbRegAppTableRecord
  2
GENIUS_GENOENT_13
 70
     0
  0
APPID
  5
ADE
330
9
100
AcDbSymbolTableRecord
100
AcDbRegAppTableRecord
  2
GENIUS_GENOBJ-N-TIT_13
 70
     0
  0
APPID
  5
ADF
330
9
100
AcDbSymbolTableRecord
100
AcDbRegAppTableRecord
  2
GENIUS_GENTITLE_13
 70
     0
  0
APPID
  5
AE0
330
9
100
AcDbSymbolTableRecord
100
AcDbRegAppTableRecord
  2
GENIUS_GENOREF_13
 70
     0
  0
APPID
  5
AE7
330
9
100
AcDbSymbolTableRecord
100
AcDbRegAppTableRecord
  2
GENIUS_GENSCREG_15
 70
     0
  0
APPID
  5
AE8
330
9
100
AcDbSymbolTableRecord
100
AcDbRegAppTableRecord
  2
GENIUS_GENOBJ-N-SDF_13
 70
     0
  0
APPID
  5
FAF
330
9
100
AcDbSymbolTableRecord
100
AcDbRegAppTableRecord
  2
GENIUS_GENBLLY_14
 70
     0
  0
APPID
  5
FB0
330
9
100
AcDbSymbolTableRecord
100
AcDbRegAppTableRecord
  2
GENIUS_GENTRA_14
 70
     0
  0
APPID
  5
1285
330
9
100
AcDbSymbolTableRecord
100
AcDbRegAppTableRecord
  2
GENIUS_GENDTOL_13
 70
     0
  0
APPID
  5
142D
330
9
100
AcDbSymbolTableRecord
100
AcDbRegAppTableRecord
  2
GENIUS_GENOBJ-N-CEN_13
 70
     0
  0
APPID
  5
1AB5
330
9
100
AcDbSymbolTableRecord
100
AcDbRegAppTableRecord
  2
GENIUS_GENOBJ-N-CRS_13
 70
     0
  0
APPID
  5
1B36
330
9
100
AcDbSymbolTableRecord
100
AcDbRegAppTableRecord
  2
GENIUS_GENOBJ-N-HTC_13
 70
     0
  0
APPID
  5
1B37
330
9
100
AcDbSymbolTableRecord
100
AcDbRegAppTableRecord
  2
GENIUS_GENHATCH_13
 70
     0
  0
APPID
  5
216D
330
9
100
AcDbSymbolTableRecord
100
AcDbRegAppTableRecord
  2
GENIUS_GENOBJ-N-FIL_13
 70
     0
  0
APPID
  5
2356
330
9
100
AcDbSymbolTableRecord
100
AcDbRegAppTableRecord
  2
GEVID990412420
 70
     0
  0
APPID
  5
2357
330
9
100
AcDbSymbolTableRecord
100
AcDbRegAppTableRecord
  2
GEVDC
 70
     0
  0
APPID
  5
2358
330
9
100
AcDbSymbolTableRecord
100
AcDbRegAppTableRecord
  2
GEVCON
 70
     0
  0
APPID
  5
235B
330
9
100
AcDbSymbolTableRecord
100
AcDbRegAppTableRecord
  2
GEVRADREF
 70
     0
  0
APPID
  5
2360
330
9
100
AcDbSymbolTableRecord
100
AcDbRegAppTableRecord
  2
GENIUS_GENBH_13
 70
     0
  0
APPID
  5
2362
330
9
100
AcDbSymbolTableRecord
100
AcDbRegAppTableRecord
  2
GENIUS_GENOBJ-NBEHI-BHF_13
 70
     0
  0
APPID
  5
2364
330
9
100
AcDbSymbolTableRecord
100
AcDbRegAppTableRecord
  2
GENIUS_GENOBJ-NBEHI-BHB_13
 70
     0
  0
APPID
  5
2379
330
9
100
AcDbSymbolTableRecord
100
AcDbRegAppTableRecord
  2
GENIUS_GENOBJ-F-SCPASSM_13
 70
     0
  0
APPID
  5
3D74
330
9
100
AcDbSymbolTableRecord
100
AcDbRegAppTableRecord
  2
GENIUS_GENDIM_13
 70
     0
  0
APPID
  5
3D76
330
9
100
AcDbSymbolTableRecord
100
AcDbRegAppTableRecord
  2
GENIUS_GE3DTOL_13
 70
     0
  0
APPID
  5
3D9C
330
9
100
AcDbSymbolTableRecord
100
AcDbRegAppTableRecord
  2
AD_DRAW
 70
     0
  0
APPID
  5
3DE8
330
9
100
AcDbSymbolTableRecord
100
AcDbRegAppTableRecord
  2
ASURF_PCURVE_APPNAME
 70
     0
  0
APPID
  5
3DED
330
9
100
AcDbSymbolTableRecord
100
AcDbRegAppTableRecord
  2
AMG_3D2D_5.0
 70
     0
  0
APPID
  5
3E1B
330
9
100
AcDbSymbolTableRecord
100
AcDbRegAppTableRecord
  2
DESIGNERASSEMBLIES
 70
     0
  0
APPID
  5
3E20
330
9
100
AcDbSymbolTableRecord
100
AcDbRegAppTableRecord
  2
ACADM_DIM_EDIT
 70
     0
  0
APPID
  5
3E21
330
9
100
AcDbSymbolTableRecord
100
AcDbRegAppTableRecord
  2
AMDT_DM_ADJ
 70
     0
  0
APPID
  5
4143
330
9
100
AcDbSymbolTableRecord
100
AcDbRegAppTableRecord
  2
GENIUS_GENFIL_13
 70
     0
  0
APPID
  5
4144
330
9
100
AcDbSymbolTableRecord
100
AcDbRegAppTableRecord
  2
GENIUS_GENOBJ-N-CHA_13
 70
     0
  0
APPID
  5
4E17
330
9
100
AcDbSymbolTableRecord
100
AcDbRegAppTableRecord
  2
GEVID1008153417
 70
     0
  0
APPID
  5
4E58
330
9
100
AcDbSymbolTableRecord
100
AcDbRegAppTableRecord
  2
GEVID1008153418
 70
     0
  0
APPID
  5
4E5E
330
9
100
AcDbSymbolTableRecord
100
AcDbRegAppTableRecord
  2
GEVID1008153419
 70
     0
  0
APPID
  5
4E64
330
9
100
AcDbSymbolTableRecord
100
AcDbRegAppTableRecord
  2
GEVID1008153420
 70
     0
  0
APPID
  5
4E75
330
9
100
AcDbSymbolTableRecord
100
AcDbRegAppTableRecord
  2
GEVID1008153421
 70
     0
  0
APPID
  5
4EB7
330
9
100
AcDbSymbolTableRecord
100
AcDbRegAppTableRecord
  2
GENIUS_AMGTXT_16
 70
     0
  0
APPID
  5
7645
330
9
100
AcDbSymbolTableRecord
100
AcDbRegAppTableRecord
  2
GENIUS_GENOBJ-N-DIM_13
 70
     0
  0
APPID
  5
AAD0
330
9
100
AcDbSymbolTableRecord
100
AcDbRegAppTableRecord
  2
ACAD_DSTYLE_DIMARC_LENGTH_SYMBOL
 70
     0
  0
APPID
  5
AAD1
330
9
100
AcDbSymbolTableRecord
100
AcDbRegAppTableRecord
  2
ACAD_DSTYLE_DIMJOGGED_JOGANGLE_SYMBOL
 70
     0
  0
APPID
  5
AAFD
330
9
100
AcDbSymbolTableRecord
100
AcDbRegAppTableRecord
  2
ACAD_PSEXT
 70
     0
  0
APPID
  5
AD61
330
9
100
AcDbSymbolTableRecord
100
AcDbRegAppTableRecord
  2
AcAecLayerStandard
 70
     0
  0
APPID
  5
AEE3
330
9
100
AcDbSymbolTableRecord
100
AcDbRegAppTableRecord
  2
ACAD_EXEMPT_FROM_CAD_STANDARDS
 70
     0
  0
APPID
  5
B1BE
330
9
100
AcDbSymbolTableRecord
100
AcDbRegAppTableRecord
  2
GENIUS_GENCEN_19
 70
     0
  0
ENDTAB
  0
TABLE
  2
DIMSTYLE
  5
A
330
0
100
AcDbSymbolTable
 70
    27
100
AcDbDimStyleTable
 71
     1
340
2515
  0
DIMSTYLE
105
A76
330
A
100
AcDbSymbolTableRecord
100
AcDbDimStyleTableRecord
  2
STANDARD
 70
     0
 41
3.0
 42
1.0
 43
7.0
 44
2.0
 73
     0
 74
     0
 77
     1
140
2.799999999999999
141
0.0
143
0.0394
147
0.7
171
     4
172
     1
173
     1
176
     3
177
     3
178
     2
271
     3
272
     3
273
     8
274
     4
289
     0
340
A74
341
A66
343
A66
344
A66
  0
DIMSTYLE
105
2515
330
A
100
AcDbSymbolTableRecord
100
AcDbDimStyleTableRecord
  2
SYS
 70
     0
  4
"
 41
1.0
 42
1.0
 43
10.0
 44
1.0
 47
0.1
 48
0.1
 73
     0
 74
     0
 77
     1
 78
     8
 79
     2
140
3.5
141
0.0
143
0.0393701
146
0.71
147
1.5
172
     1
176
   256
177
   256
178
     7
271
     2
272
     2
283
     0
284
     8
340
11
371
    -1
372
    -1
1001
ACAD_DSTYLE_DIMJOGGED_JOGANGLE_SYMBOL
1070
   384
1040
0.7853981633974483
1001
ACAD_DSTYLE_DIMARC_LENGTH_SYMBOL
1070
   379
1070
     1
  0
DIMSTYLE
105
2516
330
A
100
AcDbSymbolTableRecord
100
AcDbDimStyleTableRecord
  2
SYS$3
 70
     0
  4
"
 41
2.0
 42
1.0
 43
10.0
 44
1.0
 47
0.1
 48
0.1
 73
     0
 77
     1
 78
     8
 79
     2
140
3.5
141
0.0
143
0.0393701
146
0.71
147
1.5
176
   256
177
   256
178
     2
271
     2
272
     2
283
     0
284
     8
288
     1
340
11
342
A66
371
    -1
372
    -1
1001
ACAD_DSTYLE_DIMJOGGED_JOGANGLE_SYMBOL
1070
   384
1040
0.7853981633974483
1001
ACAD_DSTYLE_DIMARC_LENGTH_SYMBOL
1070
   379
1070
     1
  0
DIMSTYLE
105
2517
330
A
100
AcDbSymbolTableRecord
100
AcDbDimStyleTableRecord
  2
SYS$4
 70
     0
  4
"
 41
2.0
 42
1.0
 43
10.0
 44
1.0
 47
0.1
 48
0.1
 73
     0
 77
     1
 78
     8
 79
     2
140
3.5
141
0.0
143
0.0393701
146
0.71
147
1.5
173
     1
176
   256
177
   256
178
     2
271
     2
272
     2
283
     0
284
     8
288
     1
340
11
344
A66
371
    -1
372
    -1
1001
ACAD_DSTYLE_DIMJOGGED_JOGANGLE_SYMBOL
1070
   384
1040
0.7853981633974483
1001
ACAD_DSTYLE_DIMARC_LENGTH_SYMBOL
1070
   379
1070
     1
  0
DIMSTYLE
105
2518
330
A
100
AcDbSymbolTableRecord
100
AcDbDimStyleTableRecord
  2
SYS$6
 70
     0
  4
"
 41
2.0
 42
1.0
 43
10.0
 44
1.0
 47
0.1
 48
0.1
 73
     0
 74
     0
 78
     8
 79
     2
140
3.5
141
0.0
143
0.0393701
146
0.71
147
1.5
172
     1
176
   256
177
   256
178
     2
271
     2
272
     2
283
     0
284
     8
340
11
341
A66
371
    -1
372
    -1
1001
ACAD_DSTYLE_DIMJOGGED_JOGANGLE_SYMBOL
1070
   384
1040
0.7853981633974483
1001
ACAD_DSTYLE_DIMARC_LENGTH_SYMBOL
1070
   379
1070
     1
  0
DIMSTYLE
105
2519
330
A
100
AcDbSymbolTableRecord
100
AcDbDimStyleTableRecord
  2
SYS$7
 70
     0
  4
"
 41
2.0
 42
1.0
 43
10.0
 44
1.0
 47
0.1
 48
0.1
 73
     0
 74
     0
 77
     1
 78
     8
 79
     2
140
5.0
141
0.0
143
0.0393701
146
0.71
147
1.5
172
     1
176
   256
177
   256
178
     2
271
     2
272
     2
283
     0
284
     8
340
11
341
A66
342
A66
371
    -1
372
    -1
1001
ACAD_DSTYLE_DIMJOGGED_JOGANGLE_SYMBOL
1070
   384
1040
0.7853981633974483
1001
ACAD_DSTYLE_DIMARC_LENGTH_SYMBOL
1070
   379
1070
     1
  0
DIMSTYLE
105
251A
330
A
100
AcDbSymbolTableRecord
100
AcDbDimStyleTableRecord
  2
SYS$SF
 70
     0
  4
"
 41
2.5
 42
1.0
 43
10.0
 44
1.0
 47
0.1
 48
0.1
 73
     0
 74
     0
 75
     1
 76
     1
 77
     1
 78
     8
 79
     2
140
3.5
141
0.0
143
0.0393701
146
0.71
147
1.5
172
     1
176
   256
177
   256
178
     2
271
     2
272
     3
283
     0
284
     8
340
11
341
6C4
342
6C4
371
    -1
372
    -1
1001
ACAD_DSTYLE_DIMJOGGED_JOGANGLE_SYMBOL
1070
   384
1040
0.7853981633974483
1001
ACAD_DSTYLE_DIMARC_LENGTH_SYMBOL
1070
   379
1070
     1
  0
DIMSTYLE
105
251B
330
A
100
AcDbSymbolTableRecord
100
AcDbDimStyleTableRecord
  2
SYS$SH
 70
     0
  4
"
 41
2.5
 42
1.0
 43
10.0
 44
1.0
 47
0.1
 48
0.1
 73
     0
 74
     0
 75
     1
 76
     1
 77
     1
 78
     8
 79
     2
140
3.5
141
0.0
143
0.0393701
144
2.0
146
0.71
147
1.5
172
     1
173
     1
176
   256
177
   256
178
     2
271
     2
272
     3
283
     0
284
     8
340
11
341
6C4
343
72
344
6C4
371
    -1
372
    -1
1001
ACAD_DSTYLE_DIMJOGGED_JOGANGLE_SYMBOL
1070
   384
1040
0.7853981633974483
1001
ACAD_DSTYLE_DIMARC_LENGTH_SYMBOL
1070
   379
1070
     1
  0
DIMSTYLE
105
2A59
330
A
100
AcDbSymbolTableRecord
100
AcDbDimStyleTableRecord
  2
SYS$2
 70
     0
  4
"
 41
1.0
 42
1.0
 43
10.0
 44
1.0
 47
0.1
 48
0.1
 73
     0
 74
     0
 77
     1
 78
     8
 79
     2
140
3.5
141
0.0
143
0.0393701
146
0.71
147
1.5
172
     1
176
   256
177
   256
178
     2
271
     2
272
     2
283
     0
284
     8
340
11
342
6C4
371
    -1
372
    -1
1001
ACAD_DSTYLE_DIMJOGGED_JOGANGLE_SYMBOL
1070
   384
1040
0.7853981633974483
1001
ACAD_DSTYLE_DIMARC_LENGTH_SYMBOL
1070
   379
1070
     1
  0
DIMSTYLE
105
2AAB
102
{ACAD_REACTORS
330
B9FF
330
BA15
330
BA45
330
BA5F
330
BA75
330
BA8B
330
BAA1
330
BAB7
330
BACD
330
BAE3
330
BAF9
330
BB25
330
BB3B
330
BB51
330
BB67
330
BB7D
330
BB93
330
BBA9
330
BBBF
330
BBD5
330
BBEB
330
BC01
330
BC17
330
BC2D
102
}
330
A
100
AcDbSymbolTableRecord
100
AcDbDimStyleTableRecord
  2
SYS$0
 70
     0
  4
"
 41
1.0
 42
1.0
 43
10.0
 44
1.0
 47
0.1
 48
0.1
 73
     0
 74
     0
 77
     1
 78
     8
 79
     2
140
3.200000000000001
141
0.0
143
0.0393701
146
0.71
147
1.5
172
     1
176
   256
177
   256
178
     2
271
     2
272
     2
283
     0
284
     8
340
11
341
A66
342
6C4
371
    -1
372
    -1
1001
ACAD_DSTYLE_DIMJOGGED_JOGANGLE_SYMBOL
1070
   384
1040
0.7853981633974483
1001
ACAD_DSTYLE_DIMARC_LENGTH_SYMBOL
1070
   379
1070
     1
  0
DIMSTYLE
105
AF99
330
A
100
AcDbSymbolTableRecord
100
AcDbDimStyleTableRecord
  2
AM_ISO
 70
     0
  4
"
 41
2.5
 42
1.0
 43
10.0
 44
1.0
 47
0.1
 48
0.1
 73
     0
 74
     0
 77
     1
 78
     8
 79
     2
140
3.5
141
0.0
143
0.0393701
146
0.71
147
1.5
172
     1
176
   256
177
   256
178
     2
271
     2
272
     3
274
     4
283
     0
284
     8
340
11
371
    -1
372
    -1
  0
DIMSTYLE
105
AF9A
330
A
100
AcDbSymbolTableRecord
100
AcDbDimStyleTableRecord
  2
AM_ISO$3
 70
     0
  4
"
 41
2.5
 42
1.0
 43
10.0
 44
1.0
 47
0.1
 48
0.1
 73
     0
 77
     1
 78
     8
 79
     2
140
3.5
141
0.0
143
0.0393701
146
0.71
147
1.5
176
   256
177
   256
178
     2
271
     2
272
     3
274
     4
283
     0
284
     8
288
     1
289
     0
340
11
371
    -1
372
    -1
  0
DIMSTYLE
105
AF9B
330
A
100
AcDbSymbolTableRecord
100
AcDbDimStyleTableRecord
  2
AM_ISO$4
 70
     0
  4
"
 41
2.5
 42
1.0
 43
10.0
 44
1.0
 47
0.1
 48
0.1
 73
     0
 77
     1
 78
     8
 79
     2
140
3.5
141
0.0
143
0.0393701
146
0.71
147
1.5
176
   256
177
   256
178
     2
271
     2
272
     3
274
     4
283
     0
284
     8
288
     1
289
     0
340
11
371
    -1
372
    -1
  0
DIMSTYLE
105
AF9C
330
A
100
AcDbSymbolTableRecord
100
AcDbDimStyleTableRecord
  2
AM_ISO$6
 70
     0
  4
"
 41
2.5
 42
1.0
 43
10.0
 44
1.0
 47
0.1
 48
0.1
 73
     0
 74
     0
 78
     8
 79
     2
140
3.5
141
0.0
143
0.0393701
146
0.71
147
1.5
172
     1
176
   256
177
   256
178
     2
271
     2
272
     3
274
     4
283
     0
284
     8
340
11
371
    -1
372
    -1
  0
DIMSTYLE
105
AF9D
330
A
100
AcDbSymbolTableRecord
100
AcDbDimStyleTableRecord
  2
AM_ISO$7
 70
     0
  4
"
 41
2.5
 42
1.0
 43
10.0
 44
1.0
 47
0.1
 48
0.1
 73
     0
 74
     0
 77
     1
 78
     8
 79
     2
140
5.0
141
0.0
143
0.0393701
146
0.71
147
1.5
172
     1
176
   256
177
   256
178
     2
271
     2
272
     3
274
     4
283
     0
284
     8
340
11
371
    -1
372
    -1
  0
DIMSTYLE
105
AF9E
330
A
100
AcDbSymbolTableRecord
100
AcDbDimStyleTableRecord
  2
AM_ISO$SF
 70
     0
  4
"
 41
2.5
 42
1.0
 43
10.0
 44
1.0
 47
0.1
 48
0.1
 73
     0
 74
     0
 75
     1
 76
     1
 77
     1
 78
     8
 79
     2
140
3.5
141
0.0
143
0.0393701
146
0.71
147
1.5
172
     1
176
   256
177
   256
178
     2
271
     2
272
     3
274
     4
283
     0
284
     8
340
11
371
    -1
372
    -1
  0
DIMSTYLE
105
AF9F
330
A
100
AcDbSymbolTableRecord
100
AcDbDimStyleTableRecord
  2
AM_ISO$SH
 70
     0
  4
"
 41
2.5
 42
1.0
 43
10.0
 44
1.0
 47
0.1
 48
0.1
 73
     0
 74
     0
 75
     1
 76
     1
 77
     1
 78
     8
 79
     2
140
3.5
141
0.0
143
0.0393701
144
2.0
146
0.71
147
1.5
172
     1
173
     1
176
   256
177
   256
178
     2
271
     2
272
     3
274
     4
283
     0
284
     8
340
11
343
72
371
    -1
372
    -1
  0
DIMSTYLE
105
B681
102
{ACAD_REACTORS
330
B726
330
B727
330
B728
330
B729
330
B72A
330
B72B
330
B72C
330
B72D
330
B72E
330
B72F
330
B730
330
B731
330
B732
330
B733
330
B734
330
B735
330
B736
330
B737
330
B738
330
B739
330
B73A
330
B73B
330
B73C
330
B73D
102
}
330
A
100
AcDbSymbolTableRecord
100
AcDbDimStyleTableRecord
  2
DIMSTYLE
 70
     0
 41
1.0
 42
2.54
 44
2.54
 73
     0
 74
     0
140
3.2
147
1.6
173
     1
279
     2
340
11
  0
DIMSTYLE
105
B682
330
A
100
AcDbSymbolTableRecord
100
AcDbDimStyleTableRecord
  2
AM_ANSI
 70
     0
  4
mm
 41
0.1
 42
0.05
 43
0.5
 44
0.1
 47
0.1
 48
0.1
 78
     7
 79
     2
140
0.12
141
0.0
146
0.71
147
0.06
176
   256
177
   256
178
     2
274
     4
284
     7
340
11
371
    -1
372
    -1
1001
ACAD_DSTYLE_DIMARC_LENGTH_SYMBOL
1070
   379
1070
     1
  0
DIMSTYLE
105
B683
330
A
100
AcDbSymbolTableRecord
100
AcDbDimStyleTableRecord
  2
AM_ANSI$3
 70
     0
  4
mm
 41
0.1
 42
0.05
 43
0.5
 44
0.1
 47
0.1
 48
0.1
 78
     7
 79
     2
140
0.12
141
0.0
146
0.71
147
0.06
176
   256
177
   256
178
     2
274
     4
284
     7
288
     1
289
     0
340
11
371
    -1
372
    -1
1001
ACAD_DSTYLE_DIMARC_LENGTH_SYMBOL
1070
   379
1070
     1
  0
DIMSTYLE
105
B684
330
A
100
AcDbSymbolTableRecord
100
AcDbDimStyleTableRecord
  2
AM_ANSI$4
 70
     0
  4
mm
 41
0.1
 42
0.05
 43
0.5
 44
0.1
 47
0.1
 48
0.1
 78
     7
 79
     2
140
0.12
141
0.0
146
0.71
147
0.06
176
   256
177
   256
178
     2
274
     4
284
     7
288
     1
289
     0
340
11
371
    -1
372
    -1
1001
ACAD_DSTYLE_DIMARC_LENGTH_SYMBOL
1070
   379
1070
     1
  0
DIMSTYLE
105
B685
330
A
100
AcDbSymbolTableRecord
100
AcDbDimStyleTableRecord
  2
AM_ANSI$7
 70
     0
  4
mm
 41
0.1
 42
0.05
 43
0.5
 44
0.1
 47
0.1
 48
0.1
 78
     7
 79
     2
140
0.24
141
0.0
146
0.71
147
0.06
176
   256
177
   256
178
     2
274
     4
284
     7
340
11
371
    -1
372
    -1
1001
ACAD_DSTYLE_DIMARC_LENGTH_SYMBOL
1070
   379
1070
     1
  0
DIMSTYLE
105
B686
330
A
100
AcDbSymbolTableRecord
100
AcDbDimStyleTableRecord
  2
AM_ANSI$SF
 70
     0
  4
mm
 41
0.1
 42
0.05
 43
0.5
 44
0.1
 47
0.1
 48
0.1
 75
     1
 76
     1
 78
     7
 79
     2
140
0.12
141
0.0
146
0.71
147
0.06
176
   256
177
   256
178
     2
274
     4
284
     7
340
11
371
    -1
372
    -1
1001
ACAD_DSTYLE_DIMARC_LENGTH_SYMBOL
1070
   379
1070
     1
  0
DIMSTYLE
105
B687
330
A
100
AcDbSymbolTableRecord
100
AcDbDimStyleTableRecord
  2
AM_ANSI$SH
 70
     0
  4
mm
 41
0.1
 42
0.05
 43
0.5
 44
0.1
 47
0.1
 48
0.1
 75
     1
 76
     1
 78
     7
 79
     2
140
0.12
141
0.0
146
0.71
147
0.06
173
     1
176
   256
177
   256
178
     2
274
     4
284
     7
340
11
343
72
371
    -1
372
    -1
1001
ACAD_DSTYLE_DIMARC_LENGTH_SYMBOL
1070
   379
1070
     1
  0
ENDTAB
  0
TABLE
  2
BLOCK_RECORD
  5
1
330
0
100
AcDbSymbolTable
 70
    84
  0
BLOCK_RECORD
  5
1F
102
{ACAD_XDICTIONARY
360
8A
102
}
330
1
100
AcDbSymbolTableRecord
100
AcDbBlockTableRecord
  2
*Model_Space
340
22
  0
BLOCK_RECORD
  5
1B
330
1
100
AcDbSymbolTableRecord
100
AcDbBlockTableRecord
  2
*Paper_Space
340
1E
  0
BLOCK_RECORD
  5
23
330
1
100
AcDbSymbolTableRecord
100
AcDbBlockTableRecord
  2
*Paper_Space0
340
26
  0
BLOCK_RECORD
  5
72
330
1
100
AcDbSymbolTableRecord
100
AcDbBlockTableRecord
  2
GENAXEH
340
0
  0
BLOCK_RECORD
  5
6C4
330
1
100
AcDbSymbolTableRecord
100
AcDbBlockTableRecord
  2
_Dot
340
0
102
{BLKREFS
331
B545
331
B546
331
B551
331
B552
331
B55D
331
B55E
331
B568
331
B569
331
B574
331
B575
331
B57F
331
B580
331
B58A
331
B58B
331
B596
331
B597
331
B5A1
331
B5A2
331
B5AC
331
B5AD
331
B5B8
331
B5B9
331
B5C3
331
B5C4
331
B5CE
331
B5CF
331
B5DB
331
B5DC
331
B5E8
331
B5E9
331
B5F4
331
B5F5
331
B5FF
331
B600
331
B60B
331
B60C
331
B617
331
B618
331
B623
331
B624
331
B62F
331
B630
331
B63B
331
B63C
331
B647
331
B648
331
B653
331
B654
331
BA3F
331
BA40
331
BB1F
331
BB20
331
BB35
331
BB36
331
BB8D
331
BB8E
331
BBA3
331
BBA4
331
BBB9
331
BBBA
331
BBCF
331
BBD0
331
BBE5
331
BBE6
331
BBFB
331
BBFC
331
BC11
331
BC12
331
BC27
331
BC28
331
BC3D
331
BC3E
331
BC48
331
BC49
331
BC53
331
BC54
331
BC5E
331
BC5F
331
BC67
331
BC68
331
BC70
331
BC71
331
BC79
331
BC7A
331
BC82
331
BC83
331
BC8B
331
BC8C
331
BC94
331
BC95
331
BC9E
331
BC9F
331
BCA7
331
BCA8
331
BCB1
331
BCB2
331
BCC4
331
BCC5
331
BCCD
331
BCCE
102
}
  0
BLOCK_RECORD
  5
A66
330
1
100
AcDbSymbolTableRecord
100
AcDbBlockTableRecord
  2
_OPEN30
340
0
  0
BLOCK_RECORD
  5
B542
330
1
100
AcDbSymbolTableRecord
100
AcDbBlockTableRecord
  2
*D5
340
0
  0
BLOCK_RECORD
  5
B54E
330
1
100
AcDbSymbolTableRecord
100
AcDbBlockTableRecord
  2
*D6
340
0
  0
BLOCK_RECORD
  5
B55A
330
1
100
AcDbSymbolTableRecord
100
AcDbBlockTableRecord
  2
*D7
340
0
  0
BLOCK_RECORD
  5
B565
330
1
100
AcDbSymbolTableRecord
100
AcDbBlockTableRecord
  2
*D8
340
0
  0
BLOCK_RECORD
  5
B571
330
1
100
AcDbSymbolTableRecord
100
AcDbBlockTableRecord
  2
*D9
340
0
  0
BLOCK_RECORD
  5
B57C
330
1
100
AcDbSymbolTableRecord
100
AcDbBlockTableRecord
  2
*D10
340
0
  0
BLOCK_RECORD
  5
B587
330
1
100
AcDbSymbolTableRecord
100
AcDbBlockTableRecord
  2
*D11
340
0
  0
BLOCK_RECORD
  5
B593
330
1
100
AcDbSymbolTableRecord
100
AcDbBlockTableRecord
  2
*D12
340
0
  0
BLOCK_RECORD
  5
B59E
330
1
100
AcDbSymbolTableRecord
100
AcDbBlockTableRecord
  2
*D13
340
0
  0
BLOCK_RECORD
  5
B5A9
330
1
100
AcDbSymbolTableRecord
100
AcDbBlockTableRecord
  2
*D14
340
0
  0
BLOCK_RECORD
  5
B5B5
330
1
100
AcDbSymbolTableRecord
100
AcDbBlockTableRecord
  2
*D15
340
0
  0
BLOCK_RECORD
  5
B5C0
330
1
100
AcDbSymbolTableRecord
100
AcDbBlockTableRecord
  2
*D16
340
0
  0
BLOCK_RECORD
  5
B5CB
330
1
100
AcDbSymbolTableRecord
100
AcDbBlockTableRecord
  2
*D17
340
0
  0
BLOCK_RECORD
  5
B5D7
330
1
100
AcDbSymbolTableRecord
100
AcDbBlockTableRecord
  2
*D18
340
0
  0
BLOCK_RECORD
  5
B5E4
330
1
100
AcDbSymbolTableRecord
100
AcDbBlockTableRecord
  2
*D19
340
0
  0
BLOCK_RECORD
  5
B5F1
330
1
100
AcDbSymbolTableRecord
100
AcDbBlockTableRecord
  2
*D20
340
0
  0
BLOCK_RECORD
  5
B5FC
330
1
100
AcDbSymbolTableRecord
100
AcDbBlockTableRecord
  2
*D21
340
0
  0
BLOCK_RECORD
  5
B608
330
1
100
AcDbSymbolTableRecord
100
AcDbBlockTableRecord
  2
*D22
340
0
  0
BLOCK_RECORD
  5
B614
330
1
100
AcDbSymbolTableRecord
100
AcDbBlockTableRecord
  2
*D23
340
0
  0
BLOCK_RECORD
  5
B620
330
1
100
AcDbSymbolTableRecord
100
AcDbBlockTableRecord
  2
*D24
340
0
  0
BLOCK_RECORD
  5
B62C
330
1
100
AcDbSymbolTableRecord
100
AcDbBlockTableRecord
  2
*D25
340
0
  0
BLOCK_RECORD
  5
B638
330
1
100
AcDbSymbolTableRecord
100
AcDbBlockTableRecord
  2
*D26
340
0
  0
BLOCK_RECORD
  5
B644
330
1
100
AcDbSymbolTableRecord
100
AcDbBlockTableRecord
  2
*D27
340
0
  0
BLOCK_RECORD
  5
B650
330
1
100
AcDbSymbolTableRecord
100
AcDbBlockTableRecord
  2
*D28
340
0
  0
BLOCK_RECORD
  5
B65C
330
1
100
AcDbSymbolTableRecord
100
AcDbBlockTableRecord
  2
KOZU0001
340
0
102
{BLKREFS
331
B725
102
}
  0
BLOCK_RECORD
  5
B80F
330
1
100
AcDbSymbolTableRecord
100
AcDbBlockTableRecord
  2
*D31
340
0
  0
BLOCK_RECORD
  5
B81B
330
1
100
AcDbSymbolTableRecord
100
AcDbBlockTableRecord
  2
*D32
340
0
  0
BLOCK_RECORD
  5
B827
330
1
100
AcDbSymbolTableRecord
100
AcDbBlockTableRecord
  2
*D33
340
0
  0
BLOCK_RECORD
  5
B832
330
1
100
AcDbSymbolTableRecord
100
AcDbBlockTableRecord
  2
*D34
340
0
  0
BLOCK_RECORD
  5
B83E
330
1
100
AcDbSymbolTableRecord
100
AcDbBlockTableRecord
  2
*D35
340
0
  0
BLOCK_RECORD
  5
B849
330
1
100
AcDbSymbolTableRecord
100
AcDbBlockTableRecord
  2
*D36
340
0
  0
BLOCK_RECORD
  5
B854
330
1
100
AcDbSymbolTableRecord
100
AcDbBlockTableRecord
  2
*D37
340
0
  0
BLOCK_RECORD
  5
B860
330
1
100
AcDbSymbolTableRecord
100
AcDbBlockTableRecord
  2
*D38
340
0
  0
BLOCK_RECORD
  5
B86B
330
1
100
AcDbSymbolTableRecord
100
AcDbBlockTableRecord
  2
*D39
340
0
  0
BLOCK_RECORD
  5
B876
330
1
100
AcDbSymbolTableRecord
100
AcDbBlockTableRecord
  2
*D40
340
0
  0
BLOCK_RECORD
  5
B882
330
1
100
AcDbSymbolTableRecord
100
AcDbBlockTableRecord
  2
*D41
340
0
  0
BLOCK_RECORD
  5
B88D
330
1
100
AcDbSymbolTableRecord
100
AcDbBlockTableRecord
  2
*D42
340
0
  0
BLOCK_RECORD
  5
B898
330
1
100
AcDbSymbolTableRecord
100
AcDbBlockTableRecord
  2
*D43
340
0
  0
BLOCK_RECORD
  5
B8A4
330
1
100
AcDbSymbolTableRecord
100
AcDbBlockTableRecord
  2
*D44
340
0
  0
BLOCK_RECORD
  5
B8B2
330
1
100
AcDbSymbolTableRecord
100
AcDbBlockTableRecord
  2
*D45
340
0
  0
BLOCK_RECORD
  5
B8C0
330
1
100
AcDbSymbolTableRecord
100
AcDbBlockTableRecord
  2
*D46
340
0
  0
BLOCK_RECORD
  5
B8CB
330
1
100
AcDbSymbolTableRecord
100
AcDbBlockTableRecord
  2
*D47
340
0
  0
BLOCK_RECORD
  5
B8D7
330
1
100
AcDbSymbolTableRecord
100
AcDbBlockTableRecord
  2
*D48
340
0
  0
BLOCK_RECORD
  5
B8E3
330
1
100
AcDbSymbolTableRecord
100
AcDbBlockTableRecord
  2
*D49
340
0
  0
BLOCK_RECORD
  5
B8EF
330
1
100
AcDbSymbolTableRecord
100
AcDbBlockTableRecord
  2
*D50
340
0
  0
BLOCK_RECORD
  5
B8FB
330
1
100
AcDbSymbolTableRecord
100
AcDbBlockTableRecord
  2
*D51
340
0
  0
BLOCK_RECORD
  5
B907
330
1
100
AcDbSymbolTableRecord
100
AcDbBlockTableRecord
  2
*D52
340
0
  0
BLOCK_RECORD
  5
B913
330
1
100
AcDbSymbolTableRecord
100
AcDbBlockTableRecord
  2
*D53
340
0
  0
BLOCK_RECORD
  5
B91F
330
1
100
AcDbSymbolTableRecord
100
AcDbBlockTableRecord
  2
*D54
340
0
  0
BLOCK_RECORD
  5
BA00
330
1
100
AcDbSymbolTableRecord
100
AcDbBlockTableRecord
  2
*D55
340
0
  0
BLOCK_RECORD
  5
BA16
330
1
100
AcDbSymbolTableRecord
100
AcDbBlockTableRecord
  2
*D56
340
0
  0
BLOCK_RECORD
  5
BA30
330
1
100
AcDbSymbolTableRecord
100
AcDbBlockTableRecord
  2
*D57
340
0
  0
BLOCK_RECORD
  5
BA46
330
1
100
AcDbSymbolTableRecord
100
AcDbBlockTableRecord
  2
*D58
340
0
  0
BLOCK_RECORD
  5
BA60
330
1
100
AcDbSymbolTableRecord
100
AcDbBlockTableRecord
  2
*D59
340
0
  0
BLOCK_RECORD
  5
BA76
330
1
100
AcDbSymbolTableRecord
100
AcDbBlockTableRecord
  2
*D60
340
0
  0
BLOCK_RECORD
  5
BA8C
330
1
100
AcDbSymbolTableRecord
100
AcDbBlockTableRecord
  2
*D61
340
0
  0
BLOCK_RECORD
  5
BAA2
330
1
100
AcDbSymbolTableRecord
100
AcDbBlockTableRecord
  2
*D62
340
0
  0
BLOCK_RECORD
  5
BAB8
330
1
100
AcDbSymbolTableRecord
100
AcDbBlockTableRecord
  2
*D63
340
0
  0
BLOCK_RECORD
  5
BACE
330
1
100
AcDbSymbolTableRecord
100
AcDbBlockTableRecord
  2
*D64
340
0
  0
BLOCK_RECORD
  5
BAE4
330
1
100
AcDbSymbolTableRecord
100
AcDbBlockTableRecord
  2
*D65
340
0
  0
BLOCK_RECORD
  5
BAFA
330
1
100
AcDbSymbolTableRecord
100
AcDbBlockTableRecord
  2
*D66
340
0
  0
BLOCK_RECORD
  5
BB10
330
1
100
AcDbSymbolTableRecord
100
AcDbBlockTableRecord
  2
*D67
340
0
  0
BLOCK_RECORD
  5
BB26
330
1
100
AcDbSymbolTableRecord
100
AcDbBlockTableRecord
  2
*D68
340
0
  0
BLOCK_RECORD
  5
BB3C
330
1
100
AcDbSymbolTableRecord
100
AcDbBlockTableRecord
  2
*D69
340
0
  0
BLOCK_RECORD
  5
BB52
330
1
100
AcDbSymbolTableRecord
100
AcDbBlockTableRecord
  2
*D70
340
0
  0
BLOCK_RECORD
  5
BB68
330
1
100
AcDbSymbolTableRecord
100
AcDbBlockTableRecord
  2
*D71
340
0
  0
BLOCK_RECORD
  5
BB7E
330
1
100
AcDbSymbolTableRecord
100
AcDbBlockTableRecord
  2
*D72
340
0
  0
BLOCK_RECORD
  5
BB94
330
1
100
AcDbSymbolTableRecord
100
AcDbBlockTableRecord
  2
*D73
340
0
  0
BLOCK_RECORD
  5
BBAA
330
1
100
AcDbSymbolTableRecord
100
AcDbBlockTableRecord
  2
*D74
340
0
  0
BLOCK_RECORD
  5
BBC0
330
1
100
AcDbSymbolTableRecord
100
AcDbBlockTableRecord
  2
*D75
340
0
  0
BLOCK_RECORD
  5
BBD6
330
1
100
AcDbSymbolTableRecord
100
AcDbBlockTableRecord
  2
*D76
340
0
  0
BLOCK_RECORD
  5
BBEC
330
1
100
AcDbSymbolTableRecord
100
AcDbBlockTableRecord
  2
*D77
340
0
  0
BLOCK_RECORD
  5
BC02
330
1
100
AcDbSymbolTableRecord
100
AcDbBlockTableRecord
  2
*D78
340
0
  0
BLOCK_RECORD
  5
BC18
330
1
100
AcDbSymbolTableRecord
100
AcDbBlockTableRecord
  2
*D79
340
0
  0
BLOCK_RECORD
  5
BC2E
330
1
100
AcDbSymbolTableRecord
100
AcDbBlockTableRecord
  2
*D80
340
0
  0
ENDTAB
  0
ENDSEC
  0
SECTION
  2
BLOCKS
  0
BLOCK
  5
20
330
1F
100
AcDbEntity
  8
0
100
AcDbBlockBegin
  2
*Model_Space
 70
     0
 10
0.0
 20
0.0
 30
0.0
  3
*Model_Space
  1

  0
ENDBLK
  5
21
330
1F
100
AcDbEntity
  8
0
100
AcDbBlockEnd
  0
BLOCK
  5
1C
330
1B
100
AcDbEntity
 67
     1
  8
0
100
AcDbBlockBegin
  2
*Paper_Space
 70
     0
 10
0.0
 20
0.0
 30
0.0
  3
*Paper_Space
  1

  0
ENDBLK
  5
1D
330
1B
100
AcDbEntity
 67
     1
  8
0
100
AcDbBlockEnd
  0
BLOCK
  5
24
330
23
100
AcDbEntity
 67
     1
  8
0
100
AcDbBlockBegin
  2
*Paper_Space0
 70
     0
 10
0.0
 20
0.0
 30
0.0
  3
*Paper_Space0
  1

  0
ENDBLK
  5
25
330
23
100
AcDbEntity
 67
     1
  8
0
100
AcDbBlockEnd
  0
BLOCK
  5
74
330
72
100
AcDbEntity
  8
0
100
AcDbBlockBegin
  2
GENAXEH
 70
     0
 10
0.0
 20
0.0
 30
0.0
  3
GENAXEH
  1

  0
LINE
  5
73
330
72
100
AcDbEntity
  8
0
100
AcDbLine
 10
-1.0
 20
0.0
 30
0.0
 11
1.0
 21
0.0
 31
0.0
  0
ENDBLK
  5
75
330
72
100
AcDbEntity
  8
0
100
AcDbBlockEnd
  0
BLOCK
  5
6C7
330
6C4
100
AcDbEntity
  8
0
100
AcDbBlockBegin
  2
_Dot
 70
     0
 10
0.0
 20
0.0
 30
0.0
  3
_Dot
  1

  0
LWPOLYLINE
  5
6C5
330
6C4
100
AcDbEntity
  8
0
  6
ByBlock
 62
     0
100
AcDbPolyline
 90
        2
 70
     1
 43
0.5
 10
-0.25
 20
0.0
 42
1.0
 10
0.25
 20
0.0
 42
1.0
  0
LINE
  5
6C6
330
6C4
100
AcDbEntity
  8
0
  6
ByBlock
 62
     0
370
    -2
100
AcDbLine
 10
-0.5
 20
0.0
 30
0.0
 11
-1.0
 21
0.0
 31
0.0
  0
ENDBLK
  5
6C8
330
6C4
100
AcDbEntity
  8
0
100
AcDbBlockEnd
  0
BLOCK
  5
A6A
330
A66
100
AcDbEntity
  8
0
100
AcDbBlockBegin
  2
_OPEN30
 70
     0
 10
0.0
 20
0.0
 30
0.0
  3
_OPEN30
  1

  0
LINE
  5
A67
330
A66
100
AcDbEntity
  8
0
  6
ByBlock
 62
     0
100
AcDbLine
 10
-1.0
 20
0.26794919
 30
0.0
 11
0.0
 21
0.0
 31
0.0
  0
LINE
  5
A68
330
A66
100
AcDbEntity
  8
0
  6
ByBlock
 62
     0
100
AcDbLine
 10
0.0
 20
0.0
 30
0.0
 11
-1.0
 21
-0.26794919
 31
0.0
  0
LINE
  5
A69
330
A66
100
AcDbEntity
  8
0
  6
ByBlock
 62
     0
100
AcDbLine
 10
0.0
 20
0.0
 30
0.0
 11
-1.0
 21
0.0
 31
0.0
  0
ENDBLK
  5
A6B
330
A66
100
AcDbEntity
  8
0
100
AcDbBlockEnd
  0
BLOCK
  5
B543
330
B542
100
AcDbEntity
  8
0
100
AcDbBlockBegin
  2
*D5
 70
     1
 10
0.0
 20
0.0
 30
0.0
  3
*D5
  1

  0
LINE
  5
B544
330
B542
100
AcDbEntity
  8
0
  6
Continuous
 62
     7
100
AcDbLine
 10
41.566345
 20
61.153828
 30
0.0
 11
95.56634499999999
 21
61.153828
 31
0.0
  0
INSERT
  5
B545
330
B542
100
AcDbEntity
  8
0
  6
Continuous
 62
     7
100
AcDbBlockReference
  2
_Dot
 10
41.566345
 20
61.153828
 30
0.0
 50
180.0
  0
INSERT
  5
B546
330
B542
100
AcDbEntity
  8
0
  6
Continuous
 62
     7
100
AcDbBlockReference
  2
_Dot
 10
95.56634499999999
 20
61.153828
 30
0.0
  0
LINE
  5
B547
330
B542
100
AcDbEntity
  8
0
  6
Continuous
 62
     7
100
AcDbLine
 10
41.566345
 20
42.693828
 30
0.0
 11
41.566345
 21
62.353828
 31
0.0
  0
LINE
  5
B548
330
B542
100
AcDbEntity
  8
0
  6
Continuous
 62
     7
100
AcDbLine
 10
95.56634499999999
 20
42.693828
 30
0.0
 11
95.56634499999999
 21
62.353828
 31
0.0
  0
TEXT
  5
B549
330
B542
100
AcDbEntity
  8
0
  6
Continuous
 62
     7
100
AcDbText
 10
65.82334499999999
 20
61.953828
 30
0.0
 40
3.2
  1
54
 41
1.028624999999999
100
AcDbText
  0
POINT
  5
B54A
330
B542
100
AcDbEntity
  8
Defpoints
  6
Continuous
 62
     7
100
AcDbPoint
 10
41.566345
 20
40.153828
 30
0.0
  0
POINT
  5
B54B
330
B542
100
AcDbEntity
  8
Defpoints
  6
Continuous
 62
     7
100
AcDbPoint
 10
95.56634499999999
 20
40.153828
 30
0.0
  0
POINT
  5
B54C
330
B542
100
AcDbEntity
  8
Defpoints
  6
Continuous
 62
     7
100
AcDbPoint
 10
95.56634499999999
 20
61.153828
 30
0.0
  0
ENDBLK
  5
B54D
330
B542
100
AcDbEntity
  8
0
100
AcDbBlockEnd
  0
BLOCK
  5
B54F
330
B54E
100
AcDbEntity
  8
0
100
AcDbBlockBegin
  2
*D6
 70
     1
 10
0.0
 20
0.0
 30
0.0
  3
*D6
  1

  0
LINE
  5
B550
330
B54E
100
AcDbEntity
  8
0
  6
Continuous
 62
     7
100
AcDbLine
 10
41.566345
 20
51.153828
 30
0.0
 11
66.566345
 21
51.153828
 31
0.0
  0
INSERT
  5
B551
330
B54E
100
AcDbEntity
  8
0
  6
Continuous
 62
     7
100
AcDbBlockReference
  2
_Dot
 10
41.566345
 20
51.153828
 30
0.0
 50
180.0
  0
INSERT
  5
B552
330
B54E
100
AcDbEntity
  8
0
  6
Continuous
 62
     7
100
AcDbBlockReference
  2
_Dot
 10
66.566345
 20
51.153828
 30
0.0
  0
LINE
  5
B553
330
B54E
100
AcDbEntity
  8
0
  6
Continuous
 62
     7
100
AcDbLine
 10
41.566345
 20
42.693828
 30
0.0
 11
41.566345
 21
52.353828
 31
0.0
  0
LINE
  5
B554
330
B54E
100
AcDbEntity
  8
0
  6
Continuous
 62
     7
100
AcDbLine
 10
66.566345
 20
42.693828
 30
0.0
 11
66.566345
 21
52.353828
 31
0.0
  0
TEXT
  5
B555
330
B54E
100
AcDbEntity
  8
0
  6
Continuous
 62
     7
100
AcDbText
 10
51.323345
 20
51.953828
 30
0.0
 40
3.2
  1
25
 41
1.028624999999999
100
AcDbText
  0
POINT
  5
B556
330
B54E
100
AcDbEntity
  8
Defpoints
  6
Continuous
 62
     7
100
AcDbPoint
 10
41.566345
 20
40.153828
 30
0.0
  0
POINT
  5
B557
330
B54E
100
AcDbEntity
  8
Defpoints
  6
Continuous
 62
     7
100
AcDbPoint
 10
66.566345
 20
40.153828
 30
0.0
  0
POINT
  5
B558
330
B54E
100
AcDbEntity
  8
Defpoints
  6
Continuous
 62
     7
100
AcDbPoint
 10
66.566345
 20
51.153828
 30
0.0
  0
ENDBLK
  5
B559
330
B54E
100
AcDbEntity
  8
0
100
AcDbBlockEnd
  0
BLOCK
  5
B55B
330
B55A
100
AcDbEntity
  8
0
100
AcDbBlockBegin
  2
*D7
 70
     1
 10
0.0
 20
0.0
 30
0.0
  3
*D7
  1

  0
LINE
  5
B55C
330
B55A
100
AcDbEntity
  8
0
  6
Continuous
 62
     7
100
AcDbLine
 10
66.566345
 20
51.153828
 30
0.0
 11
95.56634499999999
 21
51.153828
 31
0.0
  0
INSERT
  5
B55D
330
B55A
100
AcDbEntity
  8
0
  6
Continuous
 62
     7
100
AcDbBlockReference
  2
_Dot
 10
66.566345
 20
51.153828
 30
0.0
 50
180.0
  0
INSERT
  5
B55E
330
B55A
100
AcDbEntity
  8
0
  6
Continuous
 62
     7
100
AcDbBlockReference
  2
_Dot
 10
95.56634499999999
 20
51.153828
 30
0.0
  0
LINE
  5
B55F
330
B55A
100
AcDbEntity
  8
0
  6
Continuous
 62
     7
100
AcDbLine
 10
95.56634499999999
 20
42.693828
 30
0.0
 11
95.56634499999999
 21
52.353828
 31
0.0
  0
TEXT
  5
B560
330
B55A
100
AcDbEntity
  8
0
  6
Continuous
 62
     7
100
AcDbText
 10
78.32334499999999
 20
51.953828
 30
0.0
 40
3.2
  1
29
 41
1.028624999999999
100
AcDbText
  0
POINT
  5
B561
330
B55A
100
AcDbEntity
  8
Defpoints
  6
Continuous
 62
     7
100
AcDbPoint
 10
66.566345
 20
40.153828
 30
0.0
  0
POINT
  5
B562
330
B55A
100
AcDbEntity
  8
Defpoints
  6
Continuous
 62
     7
100
AcDbPoint
 10
95.56634499999999
 20
40.153828
 30
0.0
  0
POINT
  5
B563
330
B55A
100
AcDbEntity
  8
Defpoints
  6
Continuous
 62
     7
100
AcDbPoint
 10
95.56634499999999
 20
51.153828
 30
0.0
  0
ENDBLK
  5
B564
330
B55A
100
AcDbEntity
  8
0
100
AcDbBlockEnd
  0
BLOCK
  5
B566
330
B565
100
AcDbEntity
  8
0
100
AcDbBlockBegin
  2
*D8
 70
     1
 10
0.0
 20
0.0
 30
0.0
  3
*D8
  1

  0
LINE
  5
B567
330
B565
100
AcDbEntity
  8
0
  6
Continuous
 62
     7
100
AcDbLine
 10
41.566345
 20
-53.846172
 30
0.0
 11
60.566345
 21
-53.846172
 31
0.0
  0
INSERT
  5
B568
330
B565
100
AcDbEntity
  8
0
  6
Continuous
 62
     7
100
AcDbBlockReference
  2
_Dot
 10
41.566345
 20
-53.846172
 30
0.0
 50
180.0
  0
INSERT
  5
B569
330
B565
100
AcDbEntity
  8
0
  6
Continuous
 62
     7
100
AcDbBlockReference
  2
_Dot
 10
60.566345
 20
-53.846172
 30
0.0
  0
LINE
  5
B56A
330
B565
100
AcDbEntity
  8
0
  6
Continuous
 62
     7
100
AcDbLine
 10
41.566345
 20
-40.386172
 30
0.0
 11
41.566345
 21
-55.04617299999999
 31
0.0
  0
LINE
  5
B56B
330
B565
100
AcDbEntity
  8
0
  6
Continuous
 62
     7
100
AcDbLine
 10
60.566345
 20
-31.386172
 30
0.0
 11
60.566345
 21
-55.04617299999999
 31
0.0
  0
TEXT
  5
B56C
330
B565
100
AcDbEntity
  8
0
  6
Continuous
 62
     7
100
AcDbText
 10
48.323345
 20
-53.046172
 30
0.0
 40
3.2
  1
19
 41
1.285781199999999
100
AcDbText
  0
POINT
  5
B56D
330
B565
100
AcDbEntity
  8
Defpoints
  6
Continuous
 62
     7
100
AcDbPoint
 10
41.566345
 20
-37.846172
 30
0.0
  0
POINT
  5
B56E
330
B565
100
AcDbEntity
  8
Defpoints
  6
Continuous
 62
     7
100
AcDbPoint
 10
60.566345
 20
-28.846172
 30
0.0
  0
POINT
  5
B56F
330
B565
100
AcDbEntity
  8
Defpoints
  6
Continuous
 62
     7
100
AcDbPoint
 10
60.566345
 20
-53.846172
 30
0.0
  0
ENDBLK
  5
B570
330
B565
100
AcDbEntity
  8
0
100
AcDbBlockEnd
  0
BLOCK
  5
B572
330
B571
100
AcDbEntity
  8
0
100
AcDbBlockBegin
  2
*D9
 70
     1
 10
0.0
 20
0.0
 30
0.0
  3
*D9
  1

  0
LINE
  5
B573
330
B571
100
AcDbEntity
  8
0
  6
Continuous
 62
     7
100
AcDbLine
 10
60.566345
 20
-53.846172
 30
0.0
 11
85.56634499999999
 21
-53.846172
 31
0.0
  0
INSERT
  5
B574
330
B571
100
AcDbEntity
  8
0
  6
Continuous
 62
     7
100
AcDbBlockReference
  2
_Dot
 10
60.566345
 20
-53.846172
 30
0.0
 50
180.0
  0
INSERT
  5
B575
330
B571
100
AcDbEntity
  8
0
  6
Continuous
 62
     7
100
AcDbBlockReference
  2
_Dot
 10
85.56634499999999
 20
-53.846172
 30
0.0
  0
LINE
  5
B576
330
B571
100
AcDbEntity
  8
0
  6
Continuous
 62
     7
100
AcDbLine
 10
85.56634499999999
 20
-31.386172
 30
0.0
 11
85.56634499999999
 21
-55.04617299999999
 31
0.0
  0
TEXT
  5
B577
330
B571
100
AcDbEntity
  8
0
  6
Continuous
 62
     7
100
AcDbText
 10
70.32334499999999
 20
-53.046172
 30
0.0
 40
3.2
  1
25
 41
1.028624999999999
100
AcDbText
  0
POINT
  5
B578
330
B571
100
AcDbEntity
  8
Defpoints
  6
Continuous
 62
     7
100
AcDbPoint
 10
60.566345
 20
-28.846172
 30
0.0
  0
POINT
  5
B579
330
B571
100
AcDbEntity
  8
Defpoints
  6
Continuous
 62
     7
100
AcDbPoint
 10
85.56634499999999
 20
-28.846172
 30
0.0
  0
POINT
  5
B57A
330
B571
100
AcDbEntity
  8
Defpoints
  6
Continuous
 62
     7
100
AcDbPoint
 10
85.56634499999999
 20
-53.846172
 30
0.0
  0
ENDBLK
  5
B57B
330
B571
100
AcDbEntity
  8
0
100
AcDbBlockEnd
  0
BLOCK
  5
B57D
330
B57C
100
AcDbEntity
  8
0
100
AcDbBlockBegin
  2
*D10
 70
     1
 10
0.0
 20
0.0
 30
0.0
  3
*D10
  1

  0
LINE
  5
B57E
330
B57C
100
AcDbEntity
  8
0
  6
Continuous
 62
     7
100
AcDbLine
 10
85.56634499999999
 20
-53.846172
 30
0.0
 11
95.56634499999999
 21
-53.846172
 31
0.0
  0
INSERT
  5
B57F
330
B57C
100
AcDbEntity
  8
0
  6
Continuous
 62
     7
100
AcDbBlockReference
  2
_Dot
 10
85.56634499999999
 20
-53.846172
 30
0.0
 50
180.0
  0
INSERT
  5
B580
330
B57C
100
AcDbEntity
  8
0
  6
Continuous
 62
     7
100
AcDbBlockReference
  2
_Dot
 10
95.56634499999999
 20
-53.846172
 30
0.0
  0
LINE
  5
B581
330
B57C
100
AcDbEntity
  8
0
  6
Continuous
 62
     7
100
AcDbLine
 10
95.56634499999999
 20
-40.386172
 30
0.0
 11
95.56634499999999
 21
-55.04617299999999
 31
0.0
  0
TEXT
  5
B582
330
B57C
100
AcDbEntity
  8
0
  6
Continuous
 62
     7
100
AcDbText
 10
87.82334499999999
 20
-53.046172
 30
0.0
 40
3.2
  1
10
 41
1.402670399999999
100
AcDbText
  0
POINT
  5
B583
330
B57C
100
AcDbEntity
  8
Defpoints
  6
Continuous
 62
     7
100
AcDbPoint
 10
85.56634499999999
 20
-28.846172
 30
0.0
  0
POINT
  5
B584
330
B57C
100
AcDbEntity
  8
Defpoints
  6
Continuous
 62
     7
100
AcDbPoint
 10
95.56634499999999
 20
-37.846172
 30
0.0
  0
POINT
  5
B585
330
B57C
100
AcDbEntity
  8
Defpoints
  6
Continuous
 62
     7
100
AcDbPoint
 10
95.56634499999999
 20
-53.846172
 30
0.0
  0
ENDBLK
  5
B586
330
B57C
100
AcDbEntity
  8
0
100
AcDbBlockEnd
  0
BLOCK
  5
B588
330
B587
100
AcDbEntity
  8
0
100
AcDbBlockBegin
  2
*D11
 70
     1
 10
0.0
 20
0.0
 30
0.0
  3
*D11
  1

  0
LINE
  5
B589
330
B587
100
AcDbEntity
  8
0
  6
Continuous
 62
     7
100
AcDbLine
 10
31.566345
 20
41.153828
 30
0.0
 11
31.566345
 21
31.15382800000001
 31
0.0
  0
INSERT
  5
B58A
330
B587
100
AcDbEntity
  8
0
  6
Continuous
 62
     7
100
AcDbBlockReference
  2
_Dot
 10
31.566345
 20
41.153828
 30
0.0
 50
90.0
  0
INSERT
  5
B58B
330
B587
100
AcDbEntity
  8
0
  6
Continuous
 62
     7
100
AcDbBlockReference
  2
_Dot
 10
31.566345
 20
31.15382800000001
 30
0.0
 50
270.0
  0
LINE
  5
B58C
330
B587
100
AcDbEntity
  8
0
  6
Continuous
 62
     7
100
AcDbLine
 10
40.026345
 20
41.153828
 30
0.0
 11
30.366344
 21
41.153828
 31
0.0
  0
LINE
  5
B58D
330
B587
100
AcDbEntity
  8
0
  6
Continuous
 62
     7
100
AcDbLine
 10
58.02634499999999
 20
31.15382800000001
 30
0.0
 11
30.366344
 21
31.15382800000001
 31
0.0
  0
TEXT
  5
B58E
330
B587
100
AcDbEntity
  8
0
  6
Continuous
 62
     7
100
AcDbText
 10
30.766345
 20
33.41082800000001
 30
0.0
 40
3.2
  1
10
 50
90.00000300000001
 41
1.402670399999999
100
AcDbText
  0
POINT
  5
B58F
330
B587
100
AcDbEntity
  8
Defpoints
  6
Continuous
 62
     7
100
AcDbPoint
 10
42.56634499999999
 20
41.153828
 30
0.0
  0
POINT
  5
B590
330
B587
100
AcDbEntity
  8
Defpoints
  6
Continuous
 62
     7
100
AcDbPoint
 10
60.566345
 20
31.15382800000001
 30
0.0
  0
POINT
  5
B591
330
B587
100
AcDbEntity
  8
Defpoints
  6
Continuous
 62
     7
100
AcDbPoint
 10
31.566345
 20
31.15382800000001
 30
0.0
  0
ENDBLK
  5
B592
330
B587
100
AcDbEntity
  8
0
100
AcDbBlockEnd
  0
BLOCK
  5
B594
330
B593
100
AcDbEntity
  8
0
100
AcDbBlockBegin
  2
*D12
 70
     1
 10
0.0
 20
0.0
 30
0.0
  3
*D12
  1

  0
LINE
  5
B595
330
B593
100
AcDbEntity
  8
0
  6
Continuous
 62
     7
100
AcDbLine
 10
31.566345
 20
31.15382800000001
 30
0.0
 11
31.566345
 21
-28.846172
 31
0.0
  0
INSERT
  5
B596
330
B593
100
AcDbEntity
  8
0
  6
Continuous
 62
     7
100
AcDbBlockReference
  2
_Dot
 10
31.566345
 20
31.15382800000001
 30
0.0
 50
90.0
  0
INSERT
  5
B597
330
B593
100
AcDbEntity
  8
0
  6
Continuous
 62
     7
100
AcDbBlockReference
  2
_Dot
 10
31.566345
 20
-28.846172
 30
0.0
 50
270.0
  0
LINE
  5
B598
330
B593
100
AcDbEntity
  8
0
  6
Continuous
 62
     7
100
AcDbLine
 10
58.02634499999999
 20
-28.846172
 30
0.0
 11
30.366344
 21
-28.846172
 31
0.0
  0
TEXT
  5
B599
330
B593
100
AcDbEntity
  8
0
  6
Continuous
 62
     7
100
AcDbText
 10
30.766345
 20
-1.589172399999999
 30
0.0
 40
3.2
  1
60
 50
90.00000300000001
 41
1.102098199999999
100
AcDbText
  0
POINT
  5
B59A
330
B593
100
AcDbEntity
  8
Defpoints
  6
Continuous
 62
     7
100
AcDbPoint
 10
60.566345
 20
31.15382800000001
 30
0.0
  0
POINT
  5
B59B
330
B593
100
AcDbEntity
  8
Defpoints
  6
Continuous
 62
     7
100
AcDbPoint
 10
60.566345
 20
-28.846172
 30
0.0
  0
POINT
  5
B59C
330
B593
100
AcDbEntity
  8
Defpoints
  6
Continuous
 62
     7
100
AcDbPoint
 10
31.566345
 20
-28.846172
 30
0.0
  0
ENDBLK
  5
B59D
330
B593
100
AcDbEntity
  8
0
100
AcDbBlockEnd
  0
BLOCK
  5
B59F
330
B59E
100
AcDbEntity
  8
0
100
AcDbBlockBegin
  2
*D13
 70
     1
 10
0.0
 20
0.0
 30
0.0
  3
*D13
  1

  0
LINE
  5
B5A0
330
B59E
100
AcDbEntity
  8
0
  6
Continuous
 62
     7
100
AcDbLine
 10
31.566345
 20
-28.846172
 30
0.0
 11
31.566345
 21
-38.846172
 31
0.0
  0
INSERT
  5
B5A1
330
B59E
100
AcDbEntity
  8
0
  6
Continuous
 62
     7
100
AcDbBlockReference
  2
_Dot
 10
31.566345
 20
-28.846172
 30
0.0
 50
90.0
  0
INSERT
  5
B5A2
330
B59E
100
AcDbEntity
  8
0
  6
Continuous
 62
     7
100
AcDbBlockReference
  2
_Dot
 10
31.566345
 20
-38.846172
 30
0.0
 50
270.0
  0
LINE
  5
B5A3
330
B59E
100
AcDbEntity
  8
0
  6
Continuous
 62
     7
100
AcDbLine
 10
40.026345
 20
-38.846172
 30
0.0
 11
30.366344
 21
-38.846172
 31
0.0
  0
TEXT
  5
B5A4
330
B59E
100
AcDbEntity
  8
0
  6
Continuous
 62
     7
100
AcDbText
 10
30.766345
 20
-36.589172
 30
0.0
 40
3.2
  1
10
 50
90.00000300000001
 41
1.402670399999999
100
AcDbText
  0
POINT
  5
B5A5
330
B59E
100
AcDbEntity
  8
Defpoints
  6
Continuous
 62
     7
100
AcDbPoint
 10
60.566345
 20
-28.846172
 30
0.0
  0
POINT
  5
B5A6
330
B59E
100
AcDbEntity
  8
Defpoints
  6
Continuous
 62
     7
100
AcDbPoint
 10
42.56634499999999
 20
-38.846172
 30
0.0
  0
POINT
  5
B5A7
330
B59E
100
AcDbEntity
  8
Defpoints
  6
Continuous
 62
     7
100
AcDbPoint
 10
31.566345
 20
-38.846172
 30
0.0
  0
ENDBLK
  5
B5A8
330
B59E
100
AcDbEntity
  8
0
100
AcDbBlockEnd
  0
BLOCK
  5
B5AA
330
B5A9
100
AcDbEntity
  8
0
100
AcDbBlockBegin
  2
*D14
 70
     1
 10
0.0
 20
0.0
 30
0.0
  3
*D14
  1

  0
LINE
  5
B5AB
330
B5A9
100
AcDbEntity
  8
0
  6
Continuous
 62
     7
100
AcDbLine
 10
110.56635
 20
41.153828
 30
0.0
 11
110.56635
 21
21.153828
 31
0.0
  0
INSERT
  5
B5AC
330
B5A9
100
AcDbEntity
  8
0
  6
Continuous
 62
     7
100
AcDbBlockReference
  2
_Dot
 10
110.56635
 20
41.153828
 30
0.0
 50
90.0
  0
INSERT
  5
B5AD
330
B5A9
100
AcDbEntity
  8
0
  6
Continuous
 62
     7
100
AcDbBlockReference
  2
_Dot
 10
110.56635
 20
21.153828
 30
0.0
 50
270.0
  0
LINE
  5
B5AE
330
B5A9
100
AcDbEntity
  8
0
  6
Continuous
 62
     7
100
AcDbLine
 10
97.10634499999999
 20
41.153828
 30
0.0
 11
111.76634
 21
41.153828
 31
0.0
  0
LINE
  5
B5AF
330
B5A9
100
AcDbEntity
  8
0
  6
Continuous
 62
     7
100
AcDbLine
 10
77.587066
 20
21.153828
 30
0.0
 11
111.76634
 21
21.153828
 31
0.0
  0
TEXT
  5
B5B0
330
B5A9
100
AcDbEntity
  8
0
  6
Continuous
 62
     7
100
AcDbText
 10
109.76635
 20
28.410828
 30
0.0
 40
3.2
  1
20
 50
90.00000300000001
 41
1.102098199999999
100
AcDbText
  0
POINT
  5
B5B1
330
B5A9
100
AcDbEntity
  8
Defpoints
  6
Continuous
 62
     7
100
AcDbPoint
 10
94.56634499999999
 20
41.153828
 30
0.0
  0
POINT
  5
B5B2
330
B5A9
100
AcDbEntity
  8
Defpoints
  6
Continuous
 62
     7
100
AcDbPoint
 10
75.047066
 20
21.153828
 30
0.0
  0
POINT
  5
B5B3
330
B5A9
100
AcDbEntity
  8
Defpoints
  6
Continuous
 62
     7
100
AcDbPoint
 10
110.56635
 20
21.153828
 30
0.0
  0
ENDBLK
  5
B5B4
330
B5A9
100
AcDbEntity
  8
0
100
AcDbBlockEnd
  0
BLOCK
  5
B5B6
330
B5B5
100
AcDbEntity
  8
0
100
AcDbBlockBegin
  2
*D15
 70
     1
 10
0.0
 20
0.0
 30
0.0
  3
*D15
  1

  0
LINE
  5
B5B7
330
B5B5
100
AcDbEntity
  8
0
  6
Continuous
 62
     7
100
AcDbLine
 10
110.56635
 20
21.153828
 30
0.0
 11
110.56635
 21
-18.846172
 31
0.0
  0
INSERT
  5
B5B8
330
B5B5
100
AcDbEntity
  8
0
  6
Continuous
 62
     7
100
AcDbBlockReference
  2
_Dot
 10
110.56635
 20
21.153828
 30
0.0
 50
90.0
  0
INSERT
  5
B5B9
330
B5B5
100
AcDbEntity
  8
0
  6
Continuous
 62
     7
100
AcDbBlockReference
  2
_Dot
 10
110.56635
 20
-18.846172
 30
0.0
 50
270.0
  0
LINE
  5
B5BA
330
B5B5
100
AcDbEntity
  8
0
  6
Continuous
 62
     7
100
AcDbLine
 10
77.587066
 20
-18.846172
 30
0.0
 11
111.76634
 21
-18.846172
 31
0.0
  0
TEXT
  5
B5BB
330
B5B5
100
AcDbEntity
  8
0
  6
Continuous
 62
     7
100
AcDbText
 10
109.76635
 20
-1.589172399999999
 30
0.0
 40
3.2
  1
40
 50
90.00000300000001
 41
1.102098199999999
100
AcDbText
  0
POINT
  5
B5BC
330
B5B5
100
AcDbEntity
  8
Defpoints
  6
Continuous
 62
     7
100
AcDbPoint
 10
75.047066
 20
21.153828
 30
0.0
  0
POINT
  5
B5BD
330
B5B5
100
AcDbEntity
  8
Defpoints
  6
Continuous
 62
     7
100
AcDbPoint
 10
75.047066
 20
-18.846172
 30
0.0
  0
POINT
  5
B5BE
330
B5B5
100
AcDbEntity
  8
Defpoints
  6
Continuous
 62
     7
100
AcDbPoint
 10
110.56635
 20
-18.846172
 30
0.0
  0
ENDBLK
  5
B5BF
330
B5B5
100
AcDbEntity
  8
0
100
AcDbBlockEnd
  0
BLOCK
  5
B5C1
330
B5C0
100
AcDbEntity
  8
0
100
AcDbBlockBegin
  2
*D16
 70
     1
 10
0.0
 20
0.0
 30
0.0
  3
*D16
  1

  0
LINE
  5
B5C2
330
B5C0
100
AcDbEntity
  8
0
  6
Continuous
 62
     7
100
AcDbLine
 10
110.56635
 20
-18.846172
 30
0.0
 11
110.56635
 21
-38.846172
 31
0.0
  0
INSERT
  5
B5C3
330
B5C0
100
AcDbEntity
  8
0
  6
Continuous
 62
     7
100
AcDbBlockReference
  2
_Dot
 10
110.56635
 20
-18.846172
 30
0.0
 50
90.0
  0
INSERT
  5
B5C4
330
B5C0
100
AcDbEntity
  8
0
  6
Continuous
 62
     7
100
AcDbBlockReference
  2
_Dot
 10
110.56635
 20
-38.846172
 30
0.0
 50
270.0
  0
LINE
  5
B5C5
330
B5C0
100
AcDbEntity
  8
0
  6
Continuous
 62
     7
100
AcDbLine
 10
97.10634499999999
 20
-38.846172
 30
0.0
 11
111.76634
 21
-38.846172
 31
0.0
  0
TEXT
  5
B5C6
330
B5C0
100
AcDbEntity
  8
0
  6
Continuous
 62
     7
100
AcDbText
 10
109.76635
 20
-31.589172
 30
0.0
 40
3.2
  1
20
 50
90.00000300000001
 41
1.102098199999999
100
AcDbText
  0
POINT
  5
B5C7
330
B5C0
100
AcDbEntity
  8
Defpoints
  6
Continuous
 62
     7
100
AcDbPoint
 10
75.047066
 20
-18.846172
 30
0.0
  0
POINT
  5
B5C8
330
B5C0
100
AcDbEntity
  8
Defpoints
  6
Continuous
 62
     7
100
AcDbPoint
 10
94.56634499999999
 20
-38.846172
 30
0.0
  0
POINT
  5
B5C9
330
B5C0
100
AcDbEntity
  8
Defpoints
  6
Continuous
 62
     7
100
AcDbPoint
 10
110.56635
 20
-38.846172
 30
0.0
  0
ENDBLK
  5
B5CA
330
B5C0
100
AcDbEntity
  8
0
100
AcDbBlockEnd
  0
BLOCK
  5
B5CC
330
B5CB
100
AcDbEntity
  8
0
100
AcDbBlockBegin
  2
*D17
 70
     1
 10
0.0
 20
0.0
 30
0.0
  3
*D17
  1

  0
LINE
  5
B5CD
330
B5CB
100
AcDbEntity
  8
0
  6
Continuous
 62
     7
100
AcDbLine
 10
120.56635
 20
41.153828
 30
0.0
 11
120.56635
 21
-38.846172
 31
0.0
  0
INSERT
  5
B5CE
330
B5CB
100
AcDbEntity
  8
0
  6
Continuous
 62
     7
100
AcDbBlockReference
  2
_Dot
 10
120.56635
 20
41.153828
 30
0.0
 50
90.0
  0
INSERT
  5
B5CF
330
B5CB
100
AcDbEntity
  8
0
  6
Continuous
 62
     7
100
AcDbBlockReference
  2
_Dot
 10
120.56635
 20
-38.846172
 30
0.0
 50
270.0
  0
LINE
  5
B5D0
330
B5CB
100
AcDbEntity
  8
0
  6
Continuous
 62
     7
100
AcDbLine
 10
97.10634499999999
 20
41.153828
 30
0.0
 11
121.76634
 21
41.153828
 31
0.0
  0
LINE
  5
B5D1
330
B5CB
100
AcDbEntity
  8
0
  6
Continuous
 62
     7
100
AcDbLine
 10
97.10634499999999
 20
-38.846172
 30
0.0
 11
121.76634
 21
-38.846172
 31
0.0
  0
TEXT
  5
B5D2
330
B5CB
100
AcDbEntity
  8
0
  6
Continuous
 62
     7
100
AcDbText
 10
119.76635
 20
-1.589172399999999
 30
0.0
 40
3.2
  1
80
 50
90.00000300000001
 41
1.102098199999999
100
AcDbText
  0
POINT
  5
B5D3
330
B5CB
100
AcDbEntity
  8
Defpoints
  6
Continuous
 62
     7
100
AcDbPoint
 10
94.56634499999999
 20
41.153828
 30
0.0
  0
POINT
  5
B5D4
330
B5CB
100
AcDbEntity
  8
Defpoints
  6
Continuous
 62
     7
100
AcDbPoint
 10
94.56634499999999
 20
-38.846172
 30
0.0
  0
POINT
  5
B5D5
330
B5CB
100
AcDbEntity
  8
Defpoints
  6
Continuous
 62
     7
100
AcDbPoint
 10
120.56635
 20
-38.846172
 30
0.0
  0
ENDBLK
  5
B5D6
330
B5CB
100
AcDbEntity
  8
0
100
AcDbBlockEnd
  0
BLOCK
  5
B5D8
330
B5D7
100
AcDbEntity
  8
0
100
AcDbBlockBegin
  2
*D18
 70
     1
 10
0.0
 20
0.0
 30
0.0
  3
*D18
  1

  0
LINE
  5
B5D9
330
B5D7
100
AcDbEntity
  8
0
  6
Continuous
 62
     7
100
AcDbLine
 10
120.56635
 20
89.274017
 30
0.0
 11
120.56635
 21
77.72521199999999
 31
0.0
  0
LINE
  5
B5DA
330
B5D7
100
AcDbEntity
  8
0
  6
Continuous
 62
     7
100
AcDbLine
 10
120.56635
 20
89.274017
 30
0.0
 11
120.56635
 21
90.77401700000001
 31
0.0
  0
INSERT
  5
B5DB
330
B5D7
100
AcDbEntity
  8
0
  6
Continuous
 62
     7
100
AcDbBlockReference
  2
_Dot
 10
120.56635
 20
89.274017
 30
0.0
 50
270.0
  0
INSERT
  5
B5DC
330
B5D7
100
AcDbEntity
  8
0
  6
Continuous
 62
     7
100
AcDbBlockReference
  2
_Dot
 10
120.56635
 20
90.77401700000001
 30
0.0
 50
90.0
  0
LINE
  5
B5DD
330
B5D7
100
AcDbEntity
  8
0
  6
Continuous
 62
     7
100
AcDbLine
 10
98.10634499999999
 20
89.274017
 30
0.0
 11
121.76634
 21
89.274017
 31
0.0
  0
LINE
  5
B5DE
330
B5D7
100
AcDbEntity
  8
0
  6
Continuous
 62
     7
100
AcDbLine
 10
98.10634499999999
 20
90.77401700000001
 30
0.0
 11
121.76634
 21
90.77401700000001
 31
0.0
  0
TEXT
  5
B5DF
330
B5D7
100
AcDbEntity
  8
0
  6
Continuous
 62
     7
100
AcDbText
 10
119.76635
 20
77.725207
 30
0.0
 40
3.2
  1
1.5
 50
90.00000300000001
 41
1.628624999999999
100
AcDbText
  0
POINT
  5
B5E0
330
B5D7
100
AcDbEntity
  8
Defpoints
  6
Continuous
 62
     7
100
AcDbPoint
 10
95.56634499999999
 20
89.274017
 30
0.0
  0
POINT
  5
B5E1
330
B5D7
100
AcDbEntity
  8
Defpoints
  6
Continuous
 62
     7
100
AcDbPoint
 10
95.56634499999999
 20
90.77401700000001
 30
0.0
  0
POINT
  5
B5E2
330
B5D7
100
AcDbEntity
  8
Defpoints
  6
Continuous
 62
     7
100
AcDbPoint
 10
120.56635
 20
90.77401700000001
 30
0.0
  0
ENDBLK
  5
B5E3
330
B5D7
100
AcDbEntity
  8
0
100
AcDbBlockEnd
  0
BLOCK
  5
B5E5
330
B5E4
100
AcDbEntity
  8
0
100
AcDbBlockBegin
  2
*D19
 70
     1
 10
0.0
 20
0.0
 30
0.0
  3
*D19
  1

  0
LINE
  5
B5E6
330
B5E4
100
AcDbEntity
  8
0
  6
Continuous
 62
     7
100
AcDbLine
 10
120.56635
 20
132.27402
 30
0.0
 11
120.56635
 21
143.24324
 31
0.0
  0
LINE
  5
B5E7
330
B5E4
100
AcDbEntity
  8
0
  6
Continuous
 62
     7
100
AcDbLine
 10
120.56635
 20
130.77402
 30
0.0
 11
120.56635
 21
132.27402
 31
0.0
  0
INSERT
  5
B5E8
330
B5E4
100
AcDbEntity
  8
0
  6
Continuous
 62
     7
100
AcDbBlockReference
  2
_Dot
 10
120.56635
 20
130.77402
 30
0.0
 50
270.0
  0
INSERT
  5
B5E9
330
B5E4
100
AcDbEntity
  8
0
  6
Continuous
 62
     7
100
AcDbBlockReference
  2
_Dot
 10
120.56635
 20
132.27402
 30
0.0
 50
90.0
  0
LINE
  5
B5EA
330
B5E4
100
AcDbEntity
  8
0
  6
Continuous
 62
     7
100
AcDbLine
 10
98.10634499999999
 20
130.77402
 30
0.0
 11
121.76634
 21
130.77402
 31
0.0
  0
LINE
  5
B5EB
330
B5E4
100
AcDbEntity
  8
0
  6
Continuous
 62
     7
100
AcDbLine
 10
98.10634499999999
 20
132.27402
 30
0.0
 11
121.76634
 21
132.27402
 31
0.0
  0
TEXT
  5
B5EC
330
B5E4
100
AcDbEntity
  8
0
  6
Continuous
 62
     7
100
AcDbText
 10
119.76635
 20
134.55724
 30
0.0
 40
3.2
  1
1.5
 50
90.00000300000001
 41
1.628624999999999
100
AcDbText
  0
POINT
  5
B5ED
330
B5E4
100
AcDbEntity
  8
Defpoints
  6
Continuous
 62
     7
100
AcDbPoint
 10
95.56634499999999
 20
130.77402
 30
0.0
  0
POINT
  5
B5EE
330
B5E4
100
AcDbEntity
  8
Defpoints
  6
Continuous
 62
     7
100
AcDbPoint
 10
95.56634499999999
 20
132.27402
 30
0.0
  0
POINT
  5
B5EF
330
B5E4
100
AcDbEntity
  8
Defpoints
  6
Continuous
 62
     7
100
AcDbPoint
 10
120.56635
 20
132.27402
 30
0.0
  0
ENDBLK
  5
B5F0
330
B5E4
100
AcDbEntity
  8
0
100
AcDbBlockEnd
  0
BLOCK
  5
B5F2
330
B5F1
100
AcDbEntity
  8
0
100
AcDbBlockBegin
  2
*D20
 70
     1
 10
0.0
 20
0.0
 30
0.0
  3
*D20
  1

  0
LINE
  5
B5F3
330
B5F1
100
AcDbEntity
  8
0
  6
Continuous
 62
     7
100
AcDbLine
 10
120.56635
 20
130.77402
 30
0.0
 11
120.56635
 21
90.77401700000001
 31
0.0
  0
INSERT
  5
B5F4
330
B5F1
100
AcDbEntity
  8
0
  6
Continuous
 62
     7
100
AcDbBlockReference
  2
_Dot
 10
120.56635
 20
130.77402
 30
0.0
 50
90.0
  0
INSERT
  5
B5F5
330
B5F1
100
AcDbEntity
  8
0
  6
Continuous
 62
     7
100
AcDbBlockReference
  2
_Dot
 10
120.56635
 20
90.77401700000001
 30
0.0
 50
270.0
  0
LINE
  5
B5F6
330
B5F1
100
AcDbEntity
  8
0
  6
Continuous
 62
     7
100
AcDbLine
 10
98.10634499999999
 20
130.77402
 30
0.0
 11
121.76634
 21
130.77402
 31
0.0
  0
TEXT
  5
B5F7
330
B5F1
100
AcDbEntity
  8
0
  6
Continuous
 62
     7
100
AcDbText
 10
119.76635
 20
108.03102
 30
0.0
 40
3.2
  1
40
 50
90.00000300000001
 41
1.102098199999999
100
AcDbText
  0
POINT
  5
B5F8
330
B5F1
100
AcDbEntity
  8
Defpoints
  6
Continuous
 62
     7
100
AcDbPoint
 10
95.56634499999999
 20
130.77402
 30
0.0
  0
POINT
  5
B5F9
330
B5F1
100
AcDbEntity
  8
Defpoints
  6
Continuous
 62
     7
100
AcDbPoint
 10
95.56634499999999
 20
90.77401700000001
 30
0.0
  0
POINT
  5
B5FA
330
B5F1
100
AcDbEntity
  8
Defpoints
  6
Continuous
 62
     7
100
AcDbPoint
 10
120.56635
 20
90.77401700000001
 30
0.0
  0
ENDBLK
  5
B5FB
330
B5F1
100
AcDbEntity
  8
0
100
AcDbBlockEnd
  0
BLOCK
  5
B5FD
330
B5FC
100
AcDbEntity
  8
0
100
AcDbBlockBegin
  2
*D21
 70
     1
 10
0.0
 20
0.0
 30
0.0
  3
*D21
  1

  0
LINE
  5
B5FE
330
B5FC
100
AcDbEntity
  8
0
  6
Continuous
 62
     7
100
AcDbLine
 10
110.56635
 20
90.77401700000001
 30
0.0
 11
110.56635
 21
111.77402
 31
0.0
  0
INSERT
  5
B5FF
330
B5FC
100
AcDbEntity
  8
0
  6
Continuous
 62
     7
100
AcDbBlockReference
  2
_Dot
 10
110.56635
 20
90.77401700000001
 30
0.0
 50
270.0
  0
INSERT
  5
B600
330
B5FC
100
AcDbEntity
  8
0
  6
Continuous
 62
     7
100
AcDbBlockReference
  2
_Dot
 10
110.56635
 20
111.77402
 30
0.0
 50
90.0
  0
LINE
  5
B601
330
B5FC
100
AcDbEntity
  8
0
  6
Continuous
 62
     7
100
AcDbLine
 10
98.10634499999999
 20
90.77401700000001
 30
0.0
 11
111.76634
 21
90.77401700000001
 31
0.0
  0
LINE
  5
B602
330
B5FC
100
AcDbEntity
  8
0
  6
Continuous
 62
     7
100
AcDbLine
 10
84.10634499999998
 20
111.77402
 30
0.0
 11
111.76634
 21
111.77402
 31
0.0
  0
TEXT
  5
B603
330
B5FC
100
AcDbEntity
  8
0
  6
Continuous
 62
     7
100
AcDbText
 10
109.76635
 20
98.53101700000001
 30
0.0
 40
3.2
  1
21
 50
90.00000300000001
 41
1.186874999999999
100
AcDbText
  0
POINT
  5
B604
330
B5FC
100
AcDbEntity
  8
Defpoints
  6
Continuous
 62
     7
100
AcDbPoint
 10
95.56634499999999
 20
90.77401700000001
 30
0.0
  0
POINT
  5
B605
330
B5FC
100
AcDbEntity
  8
Defpoints
  6
Continuous
 62
     7
100
AcDbPoint
 10
81.566345
 20
111.77402
 30
0.0
  0
POINT
  5
B606
330
B5FC
100
AcDbEntity
  8
Defpoints
  6
Continuous
 62
     7
100
AcDbPoint
 10
110.56635
 20
111.77402
 30
0.0
  0
ENDBLK
  5
B607
330
B5FC
100
AcDbEntity
  8
0
100
AcDbBlockEnd
  0
BLOCK
  5
B609
330
B608
100
AcDbEntity
  8
0
100
AcDbBlockBegin
  2
*D22
 70
     1
 10
0.0
 20
0.0
 30
0.0
  3
*D22
  1

  0
LINE
  5
B60A
330
B608
100
AcDbEntity
  8
0
  6
Continuous
 62
     7
100
AcDbLine
 10
110.56635
 20
113.774
 30
0.0
 11
110.56635
 21
130.77402
 31
0.0
  0
INSERT
  5
B60B
330
B608
100
AcDbEntity
  8
0
  6
Continuous
 62
     7
100
AcDbBlockReference
  2
_Dot
 10
110.56635
 20
113.774
 30
0.0
 50
270.0
  0
INSERT
  5
B60C
330
B608
100
AcDbEntity
  8
0
  6
Continuous
 62
     7
100
AcDbBlockReference
  2
_Dot
 10
110.56635
 20
130.77402
 30
0.0
 50
90.0
  0
LINE
  5
B60D
330
B608
100
AcDbEntity
  8
0
  6
Continuous
 62
     7
100
AcDbLine
 10
71.957267
 20
113.774
 30
0.0
 11
111.76634
 21
113.774
 31
0.0
  0
LINE
  5
B60E
330
B608
100
AcDbEntity
  8
0
  6
Continuous
 62
     7
100
AcDbLine
 10
98.10634499999999
 20
130.77402
 30
0.0
 11
111.76634
 21
130.77402
 31
0.0
  0
TEXT
  5
B60F
330
B608
100
AcDbEntity
  8
0
  6
Continuous
 62
     7
100
AcDbText
 10
109.76635
 20
119.53101
 30
0.0
 40
3.2
  1
17
 50
90.00000300000001
 41
1.285781199999999
100
AcDbText
  0
POINT
  5
B610
330
B608
100
AcDbEntity
  8
Defpoints
  6
Continuous
 62
     7
100
AcDbPoint
 10
69.41726700000001
 20
113.774
 30
0.0
  0
POINT
  5
B611
330
B608
100
AcDbEntity
  8
Defpoints
  6
Continuous
 62
     7
100
AcDbPoint
 10
95.56634499999999
 20
130.77402
 30
0.0
  0
POINT
  5
B612
330
B608
100
AcDbEntity
  8
Defpoints
  6
Continuous
 62
     7
100
AcDbPoint
 10
110.56635
 20
130.77402
 30
0.0
  0
ENDBLK
  5
B613
330
B608
100
AcDbEntity
  8
0
100
AcDbBlockEnd
  0
BLOCK
  5
B615
330
B614
100
AcDbEntity
  8
0
100
AcDbBlockBegin
  2
*D23
 70
     1
 10
0.0
 20
0.0
 30
0.0
  3
*D23
  1

  0
LINE
  5
B616
330
B614
100
AcDbEntity
  8
0
  6
Continuous
 62
     7
100
AcDbLine
 10
21.566345
 20
130.77402
 30
0.0
 11
21.566345
 21
114.77402
 31
0.0
  0
INSERT
  5
B617
330
B614
100
AcDbEntity
  8
0
  6
Continuous
 62
     7
100
AcDbBlockReference
  2
_Dot
 10
21.566345
 20
130.77402
 30
0.0
 50
90.0
  0
INSERT
  5
B618
330
B614
100
AcDbEntity
  8
0
  6
Continuous
 62
     7
100
AcDbBlockReference
  2
_Dot
 10
21.566345
 20
114.77402
 30
0.0
 50
270.0
  0
LINE
  5
B619
330
B614
100
AcDbEntity
  8
0
  6
Continuous
 62
     7
100
AcDbLine
 10
39.026345
 20
130.77402
 30
0.0
 11
20.366344
 21
130.77402
 31
0.0
  0
LINE
  5
B61A
330
B614
100
AcDbEntity
  8
0
  6
Continuous
 62
     7
100
AcDbLine
 10
51.69185
 20
114.77402
 30
0.0
 11
20.366344
 21
114.77402
 31
0.0
  0
TEXT
  5
B61B
330
B614
100
AcDbEntity
  8
0
  6
Continuous
 62
     7
100
AcDbText
 10
20.766345
 20
120.03102
 30
0.0
 40
3.2
  1
16
 50
90.00000300000001
 41
1.285781199999999
100
AcDbText
  0
POINT
  5
B61C
330
B614
100
AcDbEntity
  8
Defpoints
  6
Continuous
 62
     7
100
AcDbPoint
 10
41.566345
 20
130.77402
 30
0.0
  0
POINT
  5
B61D
330
B614
100
AcDbEntity
  8
Defpoints
  6
Continuous
 62
     7
100
AcDbPoint
 10
54.23185
 20
114.77402
 30
0.0
  0
POINT
  5
B61E
330
B614
100
AcDbEntity
  8
Defpoints
  6
Continuous
 62
     7
100
AcDbPoint
 10
21.566345
 20
114.77402
 30
0.0
  0
ENDBLK
  5
B61F
330
B614
100
AcDbEntity
  8
0
100
AcDbBlockEnd
  0
BLOCK
  5
B621
330
B620
100
AcDbEntity
  8
0
100
AcDbBlockBegin
  2
*D24
 70
     1
 10
0.0
 20
0.0
 30
0.0
  3
*D24
  1

  0
LINE
  5
B622
330
B620
100
AcDbEntity
  8
0
  6
Continuous
 62
     7
100
AcDbLine
 10
31.566345
 20
130.77402
 30
0.0
 11
31.566345
 21
115.27402
 31
0.0
  0
INSERT
  5
B623
330
B620
100
AcDbEntity
  8
0
  6
Continuous
 62
     7
100
AcDbBlockReference
  2
_Dot
 10
31.566345
 20
130.77402
 30
0.0
 50
90.0
  0
INSERT
  5
B624
330
B620
100
AcDbEntity
  8
0
  6
Continuous
 62
     7
100
AcDbBlockReference
  2
_Dot
 10
31.566345
 20
115.27402
 30
0.0
 50
270.0
  0
LINE
  5
B625
330
B620
100
AcDbEntity
  8
0
  6
Continuous
 62
     7
100
AcDbLine
 10
39.026345
 20
130.77402
 30
0.0
 11
30.366344
 21
130.77402
 31
0.0
  0
LINE
  5
B626
330
B620
100
AcDbEntity
  8
0
  6
Continuous
 62
     7
100
AcDbLine
 10
51.69185
 20
115.27402
 30
0.0
 11
30.366344
 21
115.27402
 31
0.0
  0
TEXT
  5
B627
330
B620
100
AcDbEntity
  8
0
  6
Continuous
 62
     7
100
AcDbText
 10
30.766345
 20
117.08102
 30
0.0
 40
3.2
  1
15.5
 50
90.00000300000001
 41
1.3928906
100
AcDbText
  0
POINT
  5
B628
330
B620
100
AcDbEntity
  8
Defpoints
  6
Continuous
 62
     7
100
AcDbPoint
 10
41.566345
 20
130.77402
 30
0.0
  0
POINT
  5
B629
330
B620
100
AcDbEntity
  8
Defpoints
  6
Continuous
 62
     7
100
AcDbPoint
 10
54.23185
 20
115.27402
 30
0.0
  0
POINT
  5
B62A
330
B620
100
AcDbEntity
  8
Defpoints
  6
Continuous
 62
     7
100
AcDbPoint
 10
31.566345
 20
115.27402
 30
0.0
  0
ENDBLK
  5
B62B
330
B620
100
AcDbEntity
  8
0
100
AcDbBlockEnd
  0
BLOCK
  5
B62D
330
B62C
100
AcDbEntity
  8
0
100
AcDbBlockBegin
  2
*D25
 70
     1
 10
0.0
 20
0.0
 30
0.0
  3
*D25
  1

  0
LINE
  5
B62E
330
B62C
100
AcDbEntity
  8
0
  6
Continuous
 62
     7
100
AcDbLine
 10
31.566345
 20
90.77401700000001
 30
0.0
 11
31.566345
 21
106.27402
 31
0.0
  0
INSERT
  5
B62F
330
B62C
100
AcDbEntity
  8
0
  6
Continuous
 62
     7
100
AcDbBlockReference
  2
_Dot
 10
31.566345
 20
90.77401700000001
 30
0.0
 50
270.0
  0
INSERT
  5
B630
330
B62C
100
AcDbEntity
  8
0
  6
Continuous
 62
     7
100
AcDbBlockReference
  2
_Dot
 10
31.566345
 20
106.27402
 30
0.0
 50
90.0
  0
LINE
  5
B631
330
B62C
100
AcDbEntity
  8
0
  6
Continuous
 62
     7
100
AcDbLine
 10
39.026345
 20
90.77401700000001
 30
0.0
 11
30.366344
 21
90.77401700000001
 31
0.0
  0
LINE
  5
B632
330
B62C
100
AcDbEntity
  8
0
  6
Continuous
 62
     7
100
AcDbLine
 10
51.69185
 20
106.27402
 30
0.0
 11
30.366344
 21
106.27402
 31
0.0
  0
TEXT
  5
B633
330
B62C
100
AcDbEntity
  8
0
  6
Continuous
 62
     7
100
AcDbText
 10
30.766345
 20
92.581017
 30
0.0
 40
3.2
  1
15.5
 50
90.00000300000001
 41
1.3928906
100
AcDbText
  0
POINT
  5
B634
330
B62C
100
AcDbEntity
  8
Defpoints
  6
Continuous
 62
     7
100
AcDbPoint
 10
41.566345
 20
90.77401700000001
 30
0.0
  0
POINT
  5
B635
330
B62C
100
AcDbEntity
  8
Defpoints
  6
Continuous
 62
     7
100
AcDbPoint
 10
54.23185
 20
106.27402
 30
0.0
  0
POINT
  5
B636
330
B62C
100
AcDbEntity
  8
Defpoints
  6
Continuous
 62
     7
100
AcDbPoint
 10
31.566345
 20
106.27402
 30
0.0
  0
ENDBLK
  5
B637
330
B62C
100
AcDbEntity
  8
0
100
AcDbBlockEnd
  0
BLOCK
  5
B639
330
B638
100
AcDbEntity
  8
0
100
AcDbBlockBegin
  2
*D26
 70
     1
 10
0.0
 20
0.0
 30
0.0
  3
*D26
  1

  0
LINE
  5
B63A
330
B638
100
AcDbEntity
  8
0
  6
Continuous
 62
     7
100
AcDbLine
 10
21.566345
 20
90.77401700000001
 30
0.0
 11
21.566345
 21
106.77402
 31
0.0
  0
INSERT
  5
B63B
330
B638
100
AcDbEntity
  8
0
  6
Continuous
 62
     7
100
AcDbBlockReference
  2
_Dot
 10
21.566345
 20
90.77401700000001
 30
0.0
 50
270.0
  0
INSERT
  5
B63C
330
B638
100
AcDbEntity
  8
0
  6
Continuous
 62
     7
100
AcDbBlockReference
  2
_Dot
 10
21.566345
 20
106.77402
 30
0.0
 50
90.0
  0
LINE
  5
B63D
330
B638
100
AcDbEntity
  8
0
  6
Continuous
 62
     7
100
AcDbLine
 10
39.026345
 20
90.77401700000001
 30
0.0
 11
20.366344
 21
90.77401700000001
 31
0.0
  0
LINE
  5
B63E
330
B638
100
AcDbEntity
  8
0
  6
Continuous
 62
     7
100
AcDbLine
 10
51.69185
 20
106.77402
 30
0.0
 11
20.366344
 21
106.77402
 31
0.0
  0
TEXT
  5
B63F
330
B638
100
AcDbEntity
  8
0
  6
Continuous
 62
     7
100
AcDbText
 10
20.766345
 20
96.03101700000001
 30
0.0
 40
3.2
  1
16
 50
90.00000300000001
 41
1.285781199999999
100
AcDbText
  0
POINT
  5
B640
330
B638
100
AcDbEntity
  8
Defpoints
  6
Continuous
 62
     7
100
AcDbPoint
 10
41.566345
 20
90.77401700000001
 30
0.0
  0
POINT
  5
B641
330
B638
100
AcDbEntity
  8
Defpoints
  6
Continuous
 62
     7
100
AcDbPoint
 10
54.23185
 20
106.77402
 30
0.0
  0
POINT
  5
B642
330
B638
100
AcDbEntity
  8
Defpoints
  6
Continuous
 62
     7
100
AcDbPoint
 10
21.566345
 20
106.77402
 30
0.0
  0
ENDBLK
  5
B643
330
B638
100
AcDbEntity
  8
0
100
AcDbBlockEnd
  0
BLOCK
  5
B645
330
B644
100
AcDbEntity
  8
0
100
AcDbBlockBegin
  2
*D27
 70
     1
 10
0.0
 20
0.0
 30
0.0
  3
*D27
  1

  0
LINE
  5
B646
330
B644
100
AcDbEntity
  8
0
  6
Continuous
 62
     7
100
AcDbLine
 10
-75.744591
 20
-33.397663
 30
0.0
 11
-75.744591
 21
36.602337
 31
0.0
  0
INSERT
  5
B647
330
B644
100
AcDbEntity
  8
0
  6
Continuous
 62
     7
100
AcDbBlockReference
  2
_Dot
 10
-75.744591
 20
-33.397663
 30
0.0
 50
270.0
  0
INSERT
  5
B648
330
B644
100
AcDbEntity
  8
0
  6
Continuous
 62
     7
100
AcDbBlockReference
  2
_Dot
 10
-75.744591
 20
36.602337
 30
0.0
 50
90.0
  0
LINE
  5
B649
330
B644
100
AcDbEntity
  8
0
  6
Continuous
 62
     7
100
AcDbLine
 10
-68.284591
 20
-33.397663
 30
0.0
 11
-76.94459499999999
 21
-33.397663
 31
0.0
  0
LINE
  5
B64A
330
B644
100
AcDbEntity
  8
0
  6
Continuous
 62
     7
100
AcDbLine
 10
-68.284591
 20
36.602337
 30
0.0
 11
-76.94459499999999
 21
36.602337
 31
0.0
  0
TEXT
  5
B64B
330
B644
100
AcDbEntity
  8
0
  6
Continuous
 62
     7
100
AcDbText
 10
-76.544591
 20
-1.1406635
 30
0.0
 40
3.2
  1
70
 50
90.00000300000001
 41
1.102098199999999
100
AcDbText
  0
POINT
  5
B64C
330
B644
100
AcDbEntity
  8
Defpoints
  6
Continuous
 62
     7
100
AcDbPoint
 10
-65.744591
 20
-33.397663
 30
0.0
  0
POINT
  5
B64D
330
B644
100
AcDbEntity
  8
Defpoints
  6
Continuous
 62
     7
100
AcDbPoint
 10
-65.744591
 20
36.602337
 30
0.0
  0
POINT
  5
B64E
330
B644
100
AcDbEntity
  8
Defpoints
  6
Continuous
 62
     7
100
AcDbPoint
 10
-75.744591
 20
36.602337
 30
0.0
  0
ENDBLK
  5
B64F
330
B644
100
AcDbEntity
  8
0
100
AcDbBlockEnd
  0
BLOCK
  5
B651
330
B650
100
AcDbEntity
  8
0
100
AcDbBlockBegin
  2
*D28
 70
     1
 10
0.0
 20
0.0
 30
0.0
  3
*D28
  1

  0
LINE
  5
B652
330
B650
100
AcDbEntity
  8
0
  6
Continuous
 62
     7
100
AcDbLine
 10
-65.744591
 20
46.602337
 30
0.0
 11
-17.744593
 21
46.602337
 31
0.0
  0
INSERT
  5
B653
330
B650
100
AcDbEntity
  8
0
  6
Continuous
 62
     7
100
AcDbBlockReference
  2
_Dot
 10
-65.744591
 20
46.602337
 30
0.0
 50
180.0
  0
INSERT
  5
B654
330
B650
100
AcDbEntity
  8
0
  6
Continuous
 62
     7
100
AcDbBlockReference
  2
_Dot
 10
-17.744593
 20
46.602337
 30
0.0
  0
LINE
  5
B655
330
B650
100
AcDbEntity
  8
0
  6
Continuous
 62
     7
100
AcDbLine
 10
-65.744591
 20
39.142337
 30
0.0
 11
-65.744591
 21
47.802338
 31
0.0
  0
LINE
  5
B656
330
B650
100
AcDbEntity
  8
0
  6
Continuous
 62
     7
100
AcDbLine
 10
-17.744593
 20
39.142337
 30
0.0
 11
-17.744593
 21
47.802338
 31
0.0
  0
TEXT
  5
B657
330
B650
100
AcDbEntity
  8
0
  6
Continuous
 62
     7
100
AcDbText
 10
-44.48759099999999
 20
47.402337
 30
0.0
 40
3.2
  1
48
 41
1.028624999999999
100
AcDbText
  0
POINT
  5
B658
330
B650
100
AcDbEntity
  8
Defpoints
  6
Continuous
 62
     7
100
AcDbPoint
 10
-65.744591
 20
36.602337
 30
0.0
  0
POINT
  5
B659
330
B650
100
AcDbEntity
  8
Defpoints
  6
Continuous
 62
     7
100
AcDbPoint
 10
-17.744593
 20
36.602337
 30
0.0
  0
POINT
  5
B65A
330
B650
100
AcDbEntity
  8
Defpoints
  6
Continuous
 62
     7
100
AcDbPoint
 10
-17.744593
 20
46.602337
 30
0.0
  0
ENDBLK
  5
B65B
330
B650
100
AcDbEntity
  8
0
100
AcDbBlockEnd
  0
BLOCK
  5
B65D
330
B65C
100
AcDbEntity
  8
0
100
AcDbBlockBegin
  2
KOZU0001
 70
     0
 10
0.0
 20
0.0
 30
0.0
  3
KOZU0001
  1

  0
LINE
  5
B65E
330
B65C
100
AcDbEntity
  8
0
  6
Continuous
 62
     7
100
AcDbLine
 10
-19.932367
 20
-33.397663
 30
0.0
 11
-17.744593
 21
-31.209884
 31
0.0
  0
LINE
  5
B65F
330
B65C
100
AcDbEntity
  8
0
  6
Continuous
 62
     7
100
AcDbLine
 10
-24.422491
 20
-33.397663
 30
0.0
 11
-17.744593
 21
-26.719752
 31
0.0
  0
LINE
  5
B660
330
B65C
100
AcDbEntity
  8
0
  6
Continuous
 62
     7
100
AcDbLine
 10
-28.912614
 20
-33.397663
 30
0.0
 11
-17.744593
 21
-22.229619
 31
0.0
  0
LINE
  5
B661
330
B65C
100
AcDbEntity
  8
0
  6
Continuous
 62
     7
100
AcDbLine
 10
-33.402738
 20
-33.397663
 30
0.0
 11
-17.744593
 21
-17.739487
 31
0.0
  0
LINE
  5
B662
330
B65C
100
AcDbEntity
  8
0
  6
Continuous
 62
     7
100
AcDbLine
 10
-37.892861
 20
-33.397663
 30
0.0
 11
-17.744593
 21
-13.249354
 31
0.0
  0
LINE
  5
B663
330
B65C
100
AcDbEntity
  8
0
  6
Continuous
 62
     7
100
AcDbLine
 10
-42.38298499999999
 20
-33.397663
 30
0.0
 11
-17.744593
 21
-8.7592218
 31
0.0
  0
LINE
  5
B664
330
B65C
100
AcDbEntity
  8
0
  6
Continuous
 62
     7
100
AcDbLine
 10
-46.873108
 20
-33.397663
 30
0.0
 11
-17.744593
 21
-4.269089299999999
 31
0.0
  0
LINE
  5
B665
330
B65C
100
AcDbEntity
  8
0
  6
Continuous
 62
     7
100
AcDbLine
 10
-51.363232
 20
-33.397663
 30
0.0
 11
-17.744593
 21
0.22104317
 31
0.0
  0
LINE
  5
B666
330
B65C
100
AcDbEntity
  8
0
  6
Continuous
 62
     7
100
AcDbLine
 10
-55.85335500000001
 20
-33.397663
 30
0.0
 11
-17.744593
 21
4.7111757
 31
0.0
  0
LINE
  5
B667
330
B65C
100
AcDbEntity
  8
0
  6
Continuous
 62
     7
100
AcDbLine
 10
-60.343479
 20
-33.397663
 30
0.0
 11
-17.744593
 21
9.201308099999998
 31
0.0
  0
LINE
  5
B668
330
B65C
100
AcDbEntity
  8
0
  6
Continuous
 62
     7
100
AcDbLine
 10
-64.83360199999999
 20
-33.397663
 30
0.0
 11
-17.744593
 21
13.691441
 31
0.0
  0
LINE
  5
B669
330
B65C
100
AcDbEntity
  8
0
  6
Continuous
 62
     7
100
AcDbLine
 10
-65.744591
 20
-29.818521
 30
0.0
 11
-17.744593
 21
18.181573
 31
0.0
  0
LINE
  5
B66A
330
B65C
100
AcDbEntity
  8
0
  6
Continuous
 62
     7
100
AcDbLine
 10
-65.744591
 20
-25.328389
 30
0.0
 11
-17.744593
 21
22.671706
 31
0.0
  0
LINE
  5
B66B
330
B65C
100
AcDbEntity
  8
0
  6
Continuous
 62
     7
100
AcDbLine
 10
-65.744591
 20
-20.838256
 30
0.0
 11
-17.744593
 21
27.161838
 31
0.0
  0
LINE
  5
B66C
330
B65C
100
AcDbEntity
  8
0
  6
Continuous
 62
     7
100
AcDbLine
 10
-65.744591
 20
-16.348124
 30
0.0
 11
-17.744593
 21
31.651971
 31
0.0
  0
LINE
  5
B66D
330
B65C
100
AcDbEntity
  8
0
  6
Continuous
 62
     7
100
AcDbLine
 10
-65.744591
 20
-11.857991
 30
0.0
 11
-17.744593
 21
36.14210300000001
 31
0.0
  0
LINE
  5
B66E
330
B65C
100
AcDbEntity
  8
0
  6
Continuous
 62
     7
100
AcDbLine
 10
-65.744591
 20
-7.367858599999999
 30
0.0
 11
-21.774483
 21
36.602337
 31
0.0
  0
LINE
  5
B66F
330
B65C
100
AcDbEntity
  8
0
  6
Continuous
 62
     7
100
AcDbLine
 10
-65.744591
 20
-2.8777261
 30
0.0
 11
-26.264607
 21
36.602337
 31
0.0
  0
LINE
  5
B670
330
B65C
100
AcDbEntity
  8
0
  6
Continuous
 62
     7
100
AcDbLine
 10
-65.744591
 20
1.612406399999999
 30
0.0
 11
-30.75473
 21
36.602337
 31
0.0
  0
LINE
  5
B671
330
B65C
100
AcDbEntity
  8
0
  6
Continuous
 62
     7
100
AcDbLine
 10
-65.744591
 20
6.102538899999999
 30
0.0
 11
-35.244854
 21
36.602337
 31
0.0
  0
LINE
  5
B672
330
B65C
100
AcDbEntity
  8
0
  6
Continuous
 62
     7
100
AcDbLine
 10
-65.744591
 20
10.592671
 30
0.0
 11
-39.734977
 21
36.602337
 31
0.0
  0
LINE
  5
B673
330
B65C
100
AcDbEntity
  8
0
  6
Continuous
 62
     7
100
AcDbLine
 10
-65.744591
 20
15.082804
 30
0.0
 11
-44.225101
 21
36.602337
 31
0.0
  0
LINE
  5
B674
330
B65C
100
AcDbEntity
  8
0
  6
Continuous
 62
     7
100
AcDbLine
 10
-65.744591
 20
19.572936
 30
0.0
 11
-48.71522399999999
 21
36.602337
 31
0.0
  0
LINE
  5
B675
330
B65C
100
AcDbEntity
  8
0
  6
Continuous
 62
     7
100
AcDbLine
 10
-65.744591
 20
24.063069
 30
0.0
 11
-53.205348
 21
36.602337
 31
0.0
  0
LINE
  5
B676
330
B65C
100
AcDbEntity
  8
0
  6
Continuous
 62
     7
100
AcDbLine
 10
-65.744591
 20
28.553201
 30
0.0
 11
-57.695471
 21
36.602337
 31
0.0
  0
LINE
  5
B677
330
B65C
100
AcDbEntity
  8
0
  6
Continuous
 62
     7
100
AcDbLine
 10
-65.744591
 20
33.043334
 30
0.0
 11
-62.18559499999999
 21
36.602337
 31
0.0
  0
ENDBLK
  5
B678
330
B65C
100
AcDbEntity
  8
0
100
AcDbBlockEnd
  0
BLOCK
  5
B819
330
B80F
100
AcDbEntity
  8
0
100
AcDbBlockBegin
  2
*D31
 70
     1
 10
0.0
 20
0.0
 30
0.0
  3
*D31
  1

  0
LINE
  5
B92B
330
B80F
100
AcDbEntity
  8
0
  6
Continuous
 62
     0
370
    -2
100
AcDbLine
 10
252.5663456040852
 20
142.6938284422129
 30
0.0
 11
252.5663456040852
 21
163.6938284422129
 31
0.0
  0
LINE
  5
B92C
330
B80F
100
AcDbEntity
  8
0
  6
Continuous
 62
     0
370
    -2
100
AcDbLine
 10
306.5663456040852
 20
142.6938284422129
 30
0.0
 11
306.5663456040852
 21
163.6938284422129
 31
0.0
  0
LINE
  5
B92D
330
B80F
100
AcDbEntity
  8
0
  6
Continuous
 62
     0
370
    -2
100
AcDbLine
 10
253.5663456040853
 20
161.1538284422129
 30
0.0
 11
305.5663456040853
 21
161.1538284422129
 31
0.0
  0
SOLID
  5
B92E
330
B80F
100
AcDbEntity
  8
0
  6
Continuous
 62
     0
100
AcDbTrace
 10
253.5663456040853
 20
161.3204951088795
 30
0.0
 11
253.5663456040853
 21
160.9871617755463
 31
0.0
 12
252.5663456040852
 22
161.1538284422129
 32
0.0
 13
252.5663456040852
 23
161.1538284422129
 33
0.0
  0
SOLID
  5
B92F
330
B80F
100
AcDbEntity
  8
0
  6
Continuous
 62
     0
100
AcDbTrace
 10
305.5663456040853
 20
161.3204951088795
 30
0.0
 11
305.5663456040853
 21
160.9871617755463
 31
0.0
 12
306.5663456040852
 22
161.1538284422129
 32
0.0
 13
306.5663456040852
 23
161.1538284422129
 33
0.0
  0
MTEXT
  5
B930
330
B80F
100
AcDbEntity
  8
0
  6
Continuous
 62
     0
100
AcDbMText
 10
279.5663456040852
 20
164.3538284422129
 30
0.0
 40
3.2
 41
0.0
 71
     5
 72
     1
  1
\A1;54.0000
 73
     1
 44
1.0
1001
ACAD
1000
MTEXTBEGIN
1070
    73
1070
     1
1070
    44
1040
1.0
1070
    74
1070
     0
1000
MTEXTEND
  0
POINT
  5
B931
330
B80F
100
AcDbEntity
  8
Defpoints
  6
Continuous
 62
     0
100
AcDbPoint
 10
252.5663456040852
 20
140.1538284422129
 30
0.0
  0
POINT
  5
B932
330
B80F
100
AcDbEntity
  8
Defpoints
  6
Continuous
 62
     0
100
AcDbPoint
 10
306.5663456040852
 20
140.1538284422129
 30
0.0
  0
POINT
  5
B933
330
B80F
100
AcDbEntity
  8
Defpoints
  6
Continuous
 62
     0
100
AcDbPoint
 10
306.5663456040852
 20
161.1538284422129
 30
0.0
  0
ENDBLK
  5
B81A
330
B80F
100
AcDbEntity
  8
0
100
AcDbBlockEnd
  0
BLOCK
  5
B825
330
B81B
100
AcDbEntity
  8
0
100
AcDbBlockBegin
  2
*D32
 70
     1
 10
0.0
 20
0.0
 30
0.0
  3
*D32
  1

  0
LINE
  5
B934
330
B81B
100
AcDbEntity
  8
0
  6
Continuous
 62
     0
370
    -2
100
AcDbLine
 10
252.5663456040852
 20
142.6938284422129
 30
0.0
 11
252.5663456040852
 21
153.6938284422129
 31
0.0
  0
LINE
  5
B935
330
B81B
100
AcDbEntity
  8
0
  6
Continuous
 62
     0
370
    -2
100
AcDbLine
 10
277.5663456040852
 20
142.6938284422129
 30
0.0
 11
277.5663456040852
 21
153.6938284422129
 31
0.0
  0
LINE
  5
B936
330
B81B
100
AcDbEntity
  8
0
  6
Continuous
 62
     0
370
    -2
100
AcDbLine
 10
253.5663456040853
 20
151.1538284422129
 30
0.0
 11
276.5663456040853
 21
151.1538284422129
 31
0.0
  0
SOLID
  5
B937
330
B81B
100
AcDbEntity
  8
0
  6
Continuous
 62
     0
100
AcDbTrace
 10
253.5663456040853
 20
151.3204951088796
 30
0.0
 11
253.5663456040853
 21
150.9871617755463
 31
0.0
 12
252.5663456040852
 22
151.1538284422129
 32
0.0
 13
252.5663456040852
 23
151.1538284422129
 33
0.0
  0
SOLID
  5
B938
330
B81B
100
AcDbEntity
  8
0
  6
Continuous
 62
     0
100
AcDbTrace
 10
276.5663456040853
 20
151.3204951088796
 30
0.0
 11
276.5663456040853
 21
150.9871617755463
 31
0.0
 12
277.5663456040852
 22
151.1538284422129
 32
0.0
 13
277.5663456040852
 23
151.1538284422129
 33
0.0
  0
MTEXT
  5
B939
330
B81B
100
AcDbEntity
  8
0
  6
Continuous
 62
     0
100
AcDbMText
 10
265.0663456040852
 20
154.3538284422129
 30
0.0
 40
3.2
 41
0.0
 71
     5
 72
     1
  1
\A1;25.0000
 73
     1
 44
1.0
1001
ACAD
1000
MTEXTBEGIN
1070
    73
1070
     1
1070
    44
1040
1.0
1070
    74
1070
     0
1000
MTEXTEND
  0
POINT
  5
B93A
330
B81B
100
AcDbEntity
  8
Defpoints
  6
Continuous
 62
     0
100
AcDbPoint
 10
252.5663456040852
 20
140.1538284422129
 30
0.0
  0
POINT
  5
B93B
330
B81B
100
AcDbEntity
  8
Defpoints
  6
Continuous
 62
     0
100
AcDbPoint
 10
277.5663456040852
 20
140.1538284422129
 30
0.0
  0
POINT
  5
B93C
330
B81B
100
AcDbEntity
  8
Defpoints
  6
Continuous
 62
     0
100
AcDbPoint
 10
277.5663456040852
 20
151.1538284422129
 30
0.0
  0
ENDBLK
  5
B826
330
B81B
100
AcDbEntity
  8
0
100
AcDbBlockEnd
  0
BLOCK
  5
B830
330
B827
100
AcDbEntity
  8
0
100
AcDbBlockBegin
  2
*D33
 70
     1
 10
0.0
 20
0.0
 30
0.0
  3
*D33
  1

  0
LINE
  5
B93D
330
B827
100
AcDbEntity
  8
0
  6
Continuous
 62
     0
370
    -2
100
AcDbLine
 10
306.5663456040852
 20
142.6938284422129
 30
0.0
 11
306.5663456040852
 21
153.6938284422129
 31
0.0
  0
LINE
  5
B93E
330
B827
100
AcDbEntity
  8
0
  6
Continuous
 62
     0
370
    -2
100
AcDbLine
 10
278.5663456040853
 20
151.1538284422129
 30
0.0
 11
305.5663456040853
 21
151.1538284422129
 31
0.0
  0
SOLID
  5
B93F
330
B827
100
AcDbEntity
  8
0
  6
Continuous
 62
     0
100
AcDbTrace
 10
278.5663456040853
 20
151.3204951088796
 30
0.0
 11
278.5663456040853
 21
150.9871617755463
 31
0.0
 12
277.5663456040852
 22
151.1538284422129
 32
0.0
 13
277.5663456040852
 23
151.1538284422129
 33
0.0
  0
SOLID
  5
B940
330
B827
100
AcDbEntity
  8
0
  6
Continuous
 62
     0
100
AcDbTrace
 10
305.5663456040853
 20
151.3204951088796
 30
0.0
 11
305.5663456040853
 21
150.9871617755463
 31
0.0
 12
306.5663456040852
 22
151.1538284422129
 32
0.0
 13
306.5663456040852
 23
151.1538284422129
 33
0.0
  0
MTEXT
  5
B941
330
B827
100
AcDbEntity
  8
0
  6
Continuous
 62
     0
100
AcDbMText
 10
292.0663456040852
 20
154.3538284422129
 30
0.0
 40
3.2
 41
0.0
 71
     5
 72
     1
  1
\A1;29.0000
 73
     1
 44
1.0
1001
ACAD
1000
MTEXTBEGIN
1070
    73
1070
     1
1070
    44
1040
1.0
1070
    74
1070
     0
1000
MTEXTEND
  0
POINT
  5
B942
330
B827
100
AcDbEntity
  8
Defpoints
  6
Continuous
 62
     0
100
AcDbPoint
 10
277.5663456040852
 20
140.1538284422129
 30
0.0
  0
POINT
  5
B943
330
B827
100
AcDbEntity
  8
Defpoints
  6
Continuous
 62
     0
100
AcDbPoint
 10
306.5663456040852
 20
140.1538284422129
 30
0.0
  0
POINT
  5
B944
330
B827
100
AcDbEntity
  8
Defpoints
  6
Continuous
 62
     0
100
AcDbPoint
 10
306.5663456040852
 20
151.1538284422129
 30
0.0
  0
ENDBLK
  5
B831
330
B827
100
AcDbEntity
  8
0
100
AcDbBlockEnd
  0
BLOCK
  5
B83C
330
B832
100
AcDbEntity
  8
0
100
AcDbBlockBegin
  2
*D34
 70
     1
 10
0.0
 20
0.0
 30
0.0
  3
*D34
  1

  0
LINE
  5
B945
330
B832
100
AcDbEntity
  8
0
  6
Continuous
 62
     0
370
    -2
100
AcDbLine
 10
252.5663456040852
 20
59.61382844221293
 30
0.0
 11
252.5663456040852
 21
43.61382844221292
 31
0.0
  0
LINE
  5
B946
330
B832
100
AcDbEntity
  8
0
  6
Continuous
 62
     0
370
    -2
100
AcDbLine
 10
271.5663456040853
 20
68.61382844221292
 30
0.0
 11
271.5663456040853
 21
43.61382844221292
 31
0.0
  0
LINE
  5
B947
330
B832
100
AcDbEntity
  8
0
  6
Continuous
 62
     0
370
    -2
100
AcDbLine
 10
253.5663456040853
 20
46.15382844221293
 30
0.0
 11
270.5663456040853
 21
46.15382844221293
 31
0.0
  0
SOLID
  5
B948
330
B832
100
AcDbEntity
  8
0
  6
Continuous
 62
     0
100
AcDbTrace
 10
253.5663456040853
 20
46.32049510887958
 30
0.0
 11
253.5663456040853
 21
45.98716177554626
 31
0.0
 12
252.5663456040852
 22
46.15382844221293
 32
0.0
 13
252.5663456040852
 23
46.15382844221293
 33
0.0
  0
SOLID
  5
B949
330
B832
100
AcDbEntity
  8
0
  6
Continuous
 62
     0
100
AcDbTrace
 10
270.5663456040853
 20
46.32049510887958
 30
0.0
 11
270.5663456040853
 21
45.98716177554626
 31
0.0
 12
271.5663456040853
 22
46.15382844221293
 32
0.0
 13
271.5663456040853
 23
46.15382844221293
 33
0.0
  0
MTEXT
  5
B94A
330
B832
100
AcDbEntity
  8
0
  6
Continuous
 62
     0
100
AcDbMText
 10
262.0663456040853
 20
49.35382844221293
 30
0.0
 40
3.2
 41
0.0
 71
     5
 72
     1
  1
\A1;19.0000
 73
     1
 44
1.0
1001
ACAD
1000
MTEXTBEGIN
1070
    73
1070
     1
1070
    44
1040
1.0
1070
    74
1070
     0
1000
MTEXTEND
  0
POINT
  5
B94B
330
B832
100
AcDbEntity
  8
Defpoints
  6
Continuous
 62
     0
100
AcDbPoint
 10
252.5663456040852
 20
62.15382844221292
 30
0.0
  0
POINT
  5
B94C
330
B832
100
AcDbEntity
  8
Defpoints
  6
Continuous
 62
     0
100
AcDbPoint
 10
271.5663456040853
 20
71.15382844221293
 30
0.0
  0
POINT
  5
B94D
330
B832
100
AcDbEntity
  8
Defpoints
  6
Continuous
 62
     0
100
AcDbPoint
 10
271.5663456040853
 20
46.15382844221293
 30
0.0
  0
ENDBLK
  5
B83D
330
B832
100
AcDbEntity
  8
0
100
AcDbBlockEnd
  0
BLOCK
  5
B847
330
B83E
100
AcDbEntity
  8
0
100
AcDbBlockBegin
  2
*D35
 70
     1
 10
0.0
 20
0.0
 30
0.0
  3
*D35
  1

  0
LINE
  5
B94E
330
B83E
100
AcDbEntity
  8
0
  6
Continuous
 62
     0
370
    -2
100
AcDbLine
 10
296.5663456040853
 20
68.61382844221292
 30
0.0
 11
296.5663456040853
 21
43.61382844221292
 31
0.0
  0
LINE
  5
B94F
330
B83E
100
AcDbEntity
  8
0
  6
Continuous
 62
     0
370
    -2
100
AcDbLine
 10
272.5663456040853
 20
46.15382844221293
 30
0.0
 11
295.5663456040852
 21
46.15382844221293
 31
0.0
  0
SOLID
  5
B950
330
B83E
100
AcDbEntity
  8
0
  6
Continuous
 62
     0
100
AcDbTrace
 10
272.5663456040853
 20
46.32049510887958
 30
0.0
 11
272.5663456040853
 21
45.98716177554626
 31
0.0
 12
271.5663456040853
 22
46.15382844221293
 32
0.0
 13
271.5663456040853
 23
46.15382844221293
 33
0.0
  0
SOLID
  5
B951
330
B83E
100
AcDbEntity
  8
0
  6
Continuous
 62
     0
100
AcDbTrace
 10
295.5663456040852
 20
46.32049510887958
 30
0.0
 11
295.5663456040852
 21
45.98716177554626
 31
0.0
 12
296.5663456040853
 22
46.15382844221293
 32
0.0
 13
296.5663456040853
 23
46.15382844221293
 33
0.0
  0
MTEXT
  5
B952
330
B83E
100
AcDbEntity
  8
0
  6
Continuous
 62
     0
100
AcDbMText
 10
284.0663456040853
 20
49.35382844221293
 30
0.0
 40
3.2
 41
0.0
 71
     5
 72
     1
  1
\A1;25.0000
 73
     1
 44
1.0
1001
ACAD
1000
MTEXTBEGIN
1070
    73
1070
     1
1070
    44
1040
1.0
1070
    74
1070
     0
1000
MTEXTEND
  0
POINT
  5
B953
330
B83E
100
AcDbEntity
  8
Defpoints
  6
Continuous
 62
     0
100
AcDbPoint
 10
271.5663456040853
 20
71.15382844221293
 30
0.0
  0
POINT
  5
B954
330
B83E
100
AcDbEntity
  8
Defpoints
  6
Continuous
 62
     0
100
AcDbPoint
 10
296.5663456040853
 20
71.15382844221293
 30
0.0
  0
POINT
  5
B955
330
B83E
100
AcDbEntity
  8
Defpoints
  6
Continuous
 62
     0
100
AcDbPoint
 10
296.5663456040853
 20
46.15382844221293
 30
0.0
  0
ENDBLK
  5
B848
330
B83E
100
AcDbEntity
  8
0
100
AcDbBlockEnd
  0
BLOCK
  5
B852
330
B849
100
AcDbEntity
  8
0
100
AcDbBlockBegin
  2
*D36
 70
     1
 10
0.0
 20
0.0
 30
0.0
  3
*D36
  1

  0
LINE
  5
B956
330
B849
100
AcDbEntity
  8
0
  6
Continuous
 62
     0
370
    -2
100
AcDbLine
 10
306.5663456040852
 20
59.61382844221293
 30
0.0
 11
306.5663456040852
 21
43.61382844221292
 31
0.0
  0
LINE
  5
B957
330
B849
100
AcDbEntity
  8
0
  6
Continuous
 62
     0
370
    -2
100
AcDbLine
 10
297.5663456040853
 20
46.15382844221293
 30
0.0
 11
305.5663456040853
 21
46.15382844221293
 31
0.0
  0
MTEXT
  5
B958
330
B849
100
AcDbEntity
  8
0
  6
Continuous
 62
     0
100
AcDbMText
 10
301.5663456040853
 20
36.41382844221292
 30
0.0
 40
3.2
 41
0.0
 71
     5
 72
     1
  1
\A1;10.0000
 73
     1
 44
1.0
1001
ACAD
1000
MTEXTBEGIN
1070
    73
1070
     1
1070
    44
1040
1.0
1070
    74
1070
     0
1000
MTEXTEND
  0
SOLID
  5
B959
330
B849
100
AcDbEntity
  8
0
  6
Continuous
 62
     0
100
AcDbTrace
 10
297.5663456040853
 20
46.32049510887958
 30
0.0
 11
297.5663456040853
 21
45.98716177554626
 31
0.0
 12
296.5663456040853
 22
46.15382844221293
 32
0.0
 13
296.5663456040853
 23
46.15382844221293
 33
0.0
  0
SOLID
  5
B95A
330
B849
100
AcDbEntity
  8
0
  6
Continuous
 62
     0
100
AcDbTrace
 10
305.5663456040853
 20
46.32049510887958
 30
0.0
 11
305.5663456040853
 21
45.98716177554626
 31
0.0
 12
306.5663456040852
 22
46.15382844221293
 32
0.0
 13
306.5663456040852
 23
46.15382844221293
 33
0.0
  0
POINT
  5
B95B
330
B849
100
AcDbEntity
  8
Defpoints
  6
Continuous
 62
     0
100
AcDbPoint
 10
296.5663456040853
 20
71.15382844221293
 30
0.0
  0
POINT
  5
B95C
330
B849
100
AcDbEntity
  8
Defpoints
  6
Continuous
 62
     0
100
AcDbPoint
 10
306.5663456040852
 20
62.15382844221292
 30
0.0
  0
POINT
  5
B95D
330
B849
100
AcDbEntity
  8
Defpoints
  6
Continuous
 62
     0
100
AcDbPoint
 10
306.5663456040852
 20
46.15382844221293
 30
0.0
  0
ENDBLK
  5
B853
330
B849
100
AcDbEntity
  8
0
100
AcDbBlockEnd
  0
BLOCK
  5
B85E
330
B854
100
AcDbEntity
  8
0
100
AcDbBlockBegin
  2
*D37
 70
     1
 10
0.0
 20
0.0
 30
0.0
  3
*D37
  1

  0
LINE
  5
B95E
330
B854
100
AcDbEntity
  8
0
  6
Continuous
 62
     0
370
    -2
100
AcDbLine
 10
251.0263456040853
 20
141.1538284422129
 30
0.0
 11
240.0263456040853
 21
141.1538284422129
 31
0.0
  0
LINE
  5
B95F
330
B854
100
AcDbEntity
  8
0
  6
Continuous
 62
     0
370
    -2
100
AcDbLine
 10
269.0263456040852
 20
131.1538284422129
 30
0.0
 11
240.0263456040853
 21
131.1538284422129
 31
0.0
  0
LINE
  5
B960
330
B854
100
AcDbEntity
  8
0
  6
Continuous
 62
     0
370
    -2
100
AcDbLine
 10
242.5663456040853
 20
140.1538284422129
 30
0.0
 11
242.5663456040853
 21
132.1538284422129
 31
0.0
  0
MTEXT
  5
B961
330
B854
100
AcDbEntity
  8
0
  6
Continuous
 62
     0
100
AcDbMText
 10
236.0263456040852
 20
136.1538284422129
 30
0.0
 40
3.2
 41
0.0
 71
     5
 72
     1
  1
\A1;10.0000
 11
0.0000000000000001
 21
1.0
 31
0.0
 73
     1
 44
1.0
1001
ACAD
1000
MTEXTBEGIN
1070
    73
1070
     1
1070
    44
1040
1.0
1070
    74
1070
     0
1000
MTEXTEND
  0
SOLID
  5
B962
330
B854
100
AcDbEntity
  8
0
  6
Continuous
 62
     0
100
AcDbTrace
 10
242.3996789374186
 20
140.1538284422129
 30
0.0
 11
242.7330122707519
 21
140.1538284422129
 31
0.0
 12
242.5663456040853
 22
141.1538284422129
 32
0.0
 13
242.5663456040853
 23
141.1538284422129
 33
0.0
  0
SOLID
  5
B963
330
B854
100
AcDbEntity
  8
0
  6
Continuous
 62
     0
100
AcDbTrace
 10
242.3996789374186
 20
132.1538284422129
 30
0.0
 11
242.7330122707519
 21
132.1538284422129
 31
0.0
 12
242.5663456040853
 22
131.1538284422129
 32
0.0
 13
242.5663456040853
 23
131.1538284422129
 33
0.0
  0
POINT
  5
B964
330
B854
100
AcDbEntity
  8
Defpoints
  6
Continuous
 62
     0
100
AcDbPoint
 10
253.5663456040853
 20
141.1538284422129
 30
0.0
  0
POINT
  5
B965
330
B854
100
AcDbEntity
  8
Defpoints
  6
Continuous
 62
     0
100
AcDbPoint
 10
271.5663456040853
 20
131.1538284422129
 30
0.0
  0
POINT
  5
B966
330
B854
100
AcDbEntity
  8
Defpoints
  6
Continuous
 62
     0
100
AcDbPoint
 10
242.5663456040853
 20
131.1538284422129
 30
0.0
  0
ENDBLK
  5
B85F
330
B854
100
AcDbEntity
  8
0
100
AcDbBlockEnd
  0
BLOCK
  5
B869
330
B860
100
AcDbEntity
  8
0
100
AcDbBlockBegin
  2
*D38
 70
     1
 10
0.0
 20
0.0
 30
0.0
  3
*D38
  1

  0
LINE
  5
B967
330
B860
100
AcDbEntity
  8
0
  6
Continuous
 62
     0
370
    -2
100
AcDbLine
 10
269.0263456040852
 20
71.15382844221293
 30
0.0
 11
240.0263456040853
 21
71.15382844221293
 31
0.0
  0
LINE
  5
B968
330
B860
100
AcDbEntity
  8
0
  6
Continuous
 62
     0
370
    -2
100
AcDbLine
 10
242.5663456040853
 20
130.1538284422129
 30
0.0
 11
242.5663456040853
 21
72.15382844221292
 31
0.0
  0
SOLID
  5
B969
330
B860
100
AcDbEntity
  8
0
  6
Continuous
 62
     0
100
AcDbTrace
 10
242.3996789374186
 20
130.1538284422129
 30
0.0
 11
242.7330122707519
 21
130.1538284422129
 31
0.0
 12
242.5663456040853
 22
131.1538284422129
 32
0.0
 13
242.5663456040853
 23
131.1538284422129
 33
0.0
  0
SOLID
  5
B96A
330
B860
100
AcDbEntity
  8
0
  6
Continuous
 62
     0
100
AcDbTrace
 10
242.3996789374186
 20
72.15382844221292
 30
0.0
 11
242.7330122707519
 21
72.15382844221292
 31
0.0
 12
242.5663456040853
 22
71.15382844221293
 32
0.0
 13
242.5663456040853
 23
71.15382844221293
 33
0.0
  0
MTEXT
  5
B96B
330
B860
100
AcDbEntity
  8
0
  6
Continuous
 62
     0
100
AcDbMText
 10
239.3663456040852
 20
101.1538284422129
 30
0.0
 40
3.2
 41
0.0
 71
     5
 72
     1
  1
\A1;60.0000
 11
0.0000000000000001
 21
1.0
 31
0.0
 73
     1
 44
1.0
1001
ACAD
1000
MTEXTBEGIN
1070
    73
1070
     1
1070
    44
1040
1.0
1070
    74
1070
     0
1000
MTEXTEND
  0
POINT
  5
B96C
330
B860
100
AcDbEntity
  8
Defpoints
  6
Continuous
 62
     0
100
AcDbPoint
 10
271.5663456040853
 20
131.1538284422129
 30
0.0
  0
POINT
  5
B96D
330
B860
100
AcDbEntity
  8
Defpoints
  6
Continuous
 62
     0
100
AcDbPoint
 10
271.5663456040853
 20
71.15382844221293
 30
0.0
  0
POINT
  5
B96E
330
B860
100
AcDbEntity
  8
Defpoints
  6
Continuous
 62
     0
100
AcDbPoint
 10
242.5663456040853
 20
71.15382844221293
 30
0.0
  0
ENDBLK
  5
B86A
330
B860
100
AcDbEntity
  8
0
100
AcDbBlockEnd
  0
BLOCK
  5
B874
330
B86B
100
AcDbEntity
  8
0
100
AcDbBlockBegin
  2
*D39
 70
     1
 10
0.0
 20
0.0
 30
0.0
  3
*D39
  1

  0
LINE
  5
B96F
330
B86B
100
AcDbEntity
  8
0
  6
Continuous
 62
     0
370
    -2
100
AcDbLine
 10
251.0263456040853
 20
61.15382844221293
 30
0.0
 11
240.0263456040853
 21
61.15382844221293
 31
0.0
  0
LINE
  5
B970
330
B86B
100
AcDbEntity
  8
0
  6
Continuous
 62
     0
370
    -2
100
AcDbLine
 10
242.5663456040853
 20
70.15382844221292
 30
0.0
 11
242.5663456040853
 21
62.15382844221292
 31
0.0
  0
MTEXT
  5
B971
330
B86B
100
AcDbEntity
  8
0
  6
Continuous
 62
     0
100
AcDbMText
 10
236.0263456040853
 20
66.15382844221297
 30
0.0
 40
3.2
 41
0.0
 71
     5
 72
     1
  1
\A1;10.0000
 11
0.0000000000000001
 21
1.0
 31
0.0
 73
     1
 44
1.0
1001
ACAD
1000
MTEXTBEGIN
1070
    73
1070
     1
1070
    44
1040
1.0
1070
    74
1070
     0
1000
MTEXTEND
  0
SOLID
  5
B972
330
B86B
100
AcDbEntity
  8
0
  6
Continuous
 62
     0
100
AcDbTrace
 10
242.3996789374186
 20
70.15382844221292
 30
0.0
 11
242.733012270752
 21
70.15382844221292
 31
0.0
 12
242.5663456040853
 22
71.15382844221293
 32
0.0
 13
242.5663456040853
 23
71.15382844221293
 33
0.0
  0
SOLID
  5
B973
330
B86B
100
AcDbEntity
  8
0
  6
Continuous
 62
     0
100
AcDbTrace
 10
242.3996789374186
 20
62.15382844221292
 30
0.0
 11
242.7330122707519
 21
62.15382844221292
 31
0.0
 12
242.5663456040853
 22
61.15382844221293
 32
0.0
 13
242.5663456040853
 23
61.15382844221293
 33
0.0
  0
POINT
  5
B974
330
B86B
100
AcDbEntity
  8
Defpoints
  6
Continuous
 62
     0
100
AcDbPoint
 10
271.5663456040853
 20
71.15382844221293
 30
0.0
  0
POINT
  5
B975
330
B86B
100
AcDbEntity
  8
Defpoints
  6
Continuous
 62
     0
100
AcDbPoint
 10
253.5663456040853
 20
61.15382844221293
 30
0.0
  0
POINT
  5
B976
330
B86B
100
AcDbEntity
  8
Defpoints
  6
Continuous
 62
     0
100
AcDbPoint
 10
242.5663456040853
 20
61.15382844221293
 30
0.0
  0
ENDBLK
  5
B875
330
B86B
100
AcDbEntity
  8
0
100
AcDbBlockEnd
  0
BLOCK
  5
B880
330
B876
100
AcDbEntity
  8
0
100
AcDbBlockBegin
  2
*D40
 70
     1
 10
0.0
 20
0.0
 30
0.0
  3
*D40
  1

  0
LINE
  5
B977
330
B876
100
AcDbEntity
  8
0
  6
Continuous
 62
     0
370
    -2
100
AcDbLine
 10
308.1063456040853
 20
141.1538284422129
 30
0.0
 11
324.1063506040853
 21
141.1538284422129
 31
0.0
  0
LINE
  5
B978
330
B876
100
AcDbEntity
  8
0
  6
Continuous
 62
     0
370
    -2
100
AcDbLine
 10
288.5870666040852
 20
121.1538284422129
 30
0.0
 11
324.1063506040853
 21
121.1538284422129
 31
0.0
  0
LINE
  5
B979
330
B876
100
AcDbEntity
  8
0
  6
Continuous
 62
     0
370
    -2
100
AcDbLine
 10
321.5663506040853
 20
140.1538284422129
 30
0.0
 11
321.5663506040852
 21
122.1538284422129
 31
0.0
  0
SOLID
  5
B97A
330
B876
100
AcDbEntity
  8
0
  6
Continuous
 62
     0
100
AcDbTrace
 10
321.3996839374186
 20
140.1538284422129
 30
0.0
 11
321.733017270752
 21
140.1538284422129
 31
0.0
 12
321.5663506040853
 22
141.1538284422129
 32
0.0
 13
321.5663506040853
 23
141.1538284422129
 33
0.0
  0
SOLID
  5
B97B
330
B876
100
AcDbEntity
  8
0
  6
Continuous
 62
     0
100
AcDbTrace
 10
321.3996839374186
 20
122.1538284422129
 30
0.0
 11
321.7330172707519
 21
122.1538284422129
 31
0.0
 12
321.5663506040852
 22
121.1538284422129
 32
0.0
 13
321.5663506040852
 23
121.1538284422129
 33
0.0
  0
MTEXT
  5
B97C
330
B876
100
AcDbEntity
  8
0
  6
Continuous
 62
     0
100
AcDbMText
 10
318.3663506040852
 20
131.1538284422129
 30
0.0
 40
3.2
 41
0.0
 71
     5
 72
     1
  1
\A1;20.0000
 11
0.0000000000000001
 21
1.0
 31
0.0
 73
     1
 44
1.0
1001
ACAD
1000
MTEXTBEGIN
1070
    73
1070
     1
1070
    44
1040
1.0
1070
    74
1070
     0
1000
MTEXTEND
  0
POINT
  5
B97D
330
B876
100
AcDbEntity
  8
Defpoints
  6
Continuous
 62
     0
100
AcDbPoint
 10
305.5663456040853
 20
141.1538284422129
 30
0.0
  0
POINT
  5
B97E
330
B876
100
AcDbEntity
  8
Defpoints
  6
Continuous
 62
     0
100
AcDbPoint
 10
286.0470666040852
 20
121.1538284422129
 30
0.0
  0
POINT
  5
B97F
330
B876
100
AcDbEntity
  8
Defpoints
  6
Continuous
 62
     0
100
AcDbPoint
 10
321.5663506040852
 20
121.1538284422129
 30
0.0
  0
ENDBLK
  5
B881
330
B876
100
AcDbEntity
  8
0
100
AcDbBlockEnd
  0
BLOCK
  5
B88B
330
B882
100
AcDbEntity
  8
0
100
AcDbBlockBegin
  2
*D41
 70
     1
 10
0.0
 20
0.0
 30
0.0
  3
*D41
  1

  0
LINE
  5
B980
330
B882
100
AcDbEntity
  8
0
  6
Continuous
 62
     0
370
    -2
100
AcDbLine
 10
288.5870666040852
 20
81.15382844221292
 30
0.0
 11
324.1063506040853
 21
81.15382844221292
 31
0.0
  0
LINE
  5
B981
330
B882
100
AcDbEntity
  8
0
  6
Continuous
 62
     0
370
    -2
100
AcDbLine
 10
321.5663506040852
 20
120.1538284422129
 30
0.0
 11
321.5663506040852
 21
82.15382844221291
 31
0.0
  0
SOLID
  5
B982
330
B882
100
AcDbEntity
  8
0
  6
Continuous
 62
     0
100
AcDbTrace
 10
321.3996839374186
 20
120.1538284422129
 30
0.0
 11
321.7330172707519
 21
120.1538284422129
 31
0.0
 12
321.5663506040852
 22
121.1538284422129
 32
0.0
 13
321.5663506040852
 23
121.1538284422129
 33
0.0
  0
SOLID
  5
B983
330
B882
100
AcDbEntity
  8
0
  6
Continuous
 62
     0
100
AcDbTrace
 10
321.3996839374186
 20
82.15382844221291
 30
0.0
 11
321.7330172707519
 21
82.15382844221291
 31
0.0
 12
321.5663506040852
 22
81.15382844221292
 32
0.0
 13
321.5663506040852
 23
81.15382844221292
 33
0.0
  0
MTEXT
  5
B984
330
B882
100
AcDbEntity
  8
0
  6
Continuous
 62
     0
100
AcDbMText
 10
318.3663506040852
 20
101.1538284422129
 30
0.0
 40
3.2
 41
0.0
 71
     5
 72
     1
  1
\A1;40.0000
 11
0.0000000000000001
 21
1.0
 31
0.0
 73
     1
 44
1.0
1001
ACAD
1000
MTEXTBEGIN
1070
    73
1070
     1
1070
    44
1040
1.0
1070
    74
1070
     0
1000
MTEXTEND
  0
POINT
  5
B985
330
B882
100
AcDbEntity
  8
Defpoints
  6
Continuous
 62
     0
100
AcDbPoint
 10
286.0470666040852
 20
121.1538284422129
 30
0.0
  0
POINT
  5
B986
330
B882
100
AcDbEntity
  8
Defpoints
  6
Continuous
 62
     0
100
AcDbPoint
 10
286.0470666040852
 20
81.15382844221292
 30
0.0
  0
POINT
  5
B987
330
B882
100
AcDbEntity
  8
Defpoints
  6
Continuous
 62
     0
100
AcDbPoint
 10
321.5663506040852
 20
81.15382844221292
 30
0.0
  0
ENDBLK
  5
B88C
330
B882
100
AcDbEntity
  8
0
100
AcDbBlockEnd
  0
BLOCK
  5
B896
330
B88D
100
AcDbEntity
  8
0
100
AcDbBlockBegin
  2
*D42
 70
     1
 10
0.0
 20
0.0
 30
0.0
  3
*D42
  1

  0
LINE
  5
B988
330
B88D
100
AcDbEntity
  8
0
  6
Continuous
 62
     0
370
    -2
100
AcDbLine
 10
308.1063456040853
 20
61.15382844221293
 30
0.0
 11
324.1063506040853
 21
61.15382844221293
 31
0.0
  0
LINE
  5
B989
330
B88D
100
AcDbEntity
  8
0
  6
Continuous
 62
     0
370
    -2
100
AcDbLine
 10
321.5663506040852
 20
80.1538284422129
 30
0.0
 11
321.5663506040852
 21
62.15382844221292
 31
0.0
  0
SOLID
  5
B98A
330
B88D
100
AcDbEntity
  8
0
  6
Continuous
 62
     0
100
AcDbTrace
 10
321.3996839374186
 20
80.1538284422129
 30
0.0
 11
321.7330172707519
 21
80.1538284422129
 31
0.0
 12
321.5663506040852
 22
81.15382844221292
 32
0.0
 13
321.5663506040852
 23
81.15382844221292
 33
0.0
  0
SOLID
  5
B98B
330
B88D
100
AcDbEntity
  8
0
  6
Continuous
 62
     0
100
AcDbTrace
 10
321.3996839374186
 20
62.15382844221292
 30
0.0
 11
321.7330172707519
 21
62.15382844221292
 31
0.0
 12
321.5663506040852
 22
61.15382844221293
 32
0.0
 13
321.5663506040852
 23
61.15382844221293
 33
0.0
  0
MTEXT
  5
B98C
330
B88D
100
AcDbEntity
  8
0
  6
Continuous
 62
     0
100
AcDbMText
 10
318.3663506040852
 20
71.15382844221297
 30
0.0
 40
3.2
 41
0.0
 71
     5
 72
     1
  1
\A1;20.0000
 11
0.0000000000000001
 21
1.0
 31
0.0
 73
     1
 44
1.0
1001
ACAD
1000
MTEXTBEGIN
1070
    73
1070
     1
1070
    44
1040
1.0
1070
    74
1070
     0
1000
MTEXTEND
  0
POINT
  5
B98D
330
B88D
100
AcDbEntity
  8
Defpoints
  6
Continuous
 62
     0
100
AcDbPoint
 10
286.0470666040852
 20
81.15382844221292
 30
0.0
  0
POINT
  5
B98E
330
B88D
100
AcDbEntity
  8
Defpoints
  6
Continuous
 62
     0
100
AcDbPoint
 10
305.5663456040853
 20
61.15382844221293
 30
0.0
  0
POINT
  5
B98F
330
B88D
100
AcDbEntity
  8
Defpoints
  6
Continuous
 62
     0
100
AcDbPoint
 10
321.5663506040852
 20
61.15382844221293
 30
0.0
  0
ENDBLK
  5
B897
330
B88D
100
AcDbEntity
  8
0
100
AcDbBlockEnd
  0
BLOCK
  5
B8A2
330
B898
100
AcDbEntity
  8
0
100
AcDbBlockBegin
  2
*D43
 70
     1
 10
0.0
 20
0.0
 30
0.0
  3
*D43
  1

  0
LINE
  5
B990
330
B898
100
AcDbEntity
  8
0
  6
Continuous
 62
     0
370
    -2
100
AcDbLine
 10
308.1063456040853
 20
141.1538284422129
 30
0.0
 11
334.1063506040853
 21
141.1538284422129
 31
0.0
  0
LINE
  5
B991
330
B898
100
AcDbEntity
  8
0
  6
Continuous
 62
     0
370
    -2
100
AcDbLine
 10
308.1063456040853
 20
61.15382844221293
 30
0.0
 11
334.1063506040853
 21
61.15382844221293
 31
0.0
  0
LINE
  5
B992
330
B898
100
AcDbEntity
  8
0
  6
Continuous
 62
     0
370
    -2
100
AcDbLine
 10
331.5663506040853
 20
140.1538284422129
 30
0.0
 11
331.5663506040853
 21
62.15382844221292
 31
0.0
  0
SOLID
  5
B993
330
B898
100
AcDbEntity
  8
0
  6
Continuous
 62
     0
100
AcDbTrace
 10
331.3996839374186
 20
140.1538284422129
 30
0.0
 11
331.733017270752
 21
140.1538284422129
 31
0.0
 12
331.5663506040853
 22
141.1538284422129
 32
0.0
 13
331.5663506040853
 23
141.1538284422129
 33
0.0
  0
SOLID
  5
B994
330
B898
100
AcDbEntity
  8
0
  6
Continuous
 62
     0
100
AcDbTrace
 10
331.3996839374186
 20
62.15382844221292
 30
0.0
 11
331.7330172707519
 21
62.15382844221292
 31
0.0
 12
331.5663506040853
 22
61.15382844221293
 32
0.0
 13
331.5663506040853
 23
61.15382844221293
 33
0.0
  0
MTEXT
  5
B995
330
B898
100
AcDbEntity
  8
0
  6
Continuous
 62
     0
100
AcDbMText
 10
328.3663506040852
 20
101.1538284422129
 30
0.0
 40
3.2
 41
0.0
 71
     5
 72
     1
  1
\A1;80.0000
 11
0.0000000000000001
 21
1.0
 31
0.0
 73
     1
 44
1.0
1001
ACAD
1000
MTEXTBEGIN
1070
    73
1070
     1
1070
    44
1040
1.0
1070
    74
1070
     0
1000
MTEXTEND
  0
POINT
  5
B996
330
B898
100
AcDbEntity
  8
Defpoints
  6
Continuous
 62
     0
100
AcDbPoint
 10
305.5663456040853
 20
141.1538284422129
 30
0.0
  0
POINT
  5
B997
330
B898
100
AcDbEntity
  8
Defpoints
  6
Continuous
 62
     0
100
AcDbPoint
 10
305.5663456040853
 20
61.15382844221293
 30
0.0
  0
POINT
  5
B998
330
B898
100
AcDbEntity
  8
Defpoints
  6
Continuous
 62
     0
100
AcDbPoint
 10
331.5663506040853
 20
61.15382844221293
 30
0.0
  0
ENDBLK
  5
B8A3
330
B898
100
AcDbEntity
  8
0
100
AcDbBlockEnd
  0
BLOCK
  5
B8B0
330
B8A4
100
AcDbEntity
  8
0
100
AcDbBlockBegin
  2
*D44
 70
     1
 10
0.0
 20
0.0
 30
0.0
  3
*D44
  1

  0
LINE
  5
B999
330
B8A4
100
AcDbEntity
  8
0
  6
Continuous
 62
     0
370
    -2
100
AcDbLine
 10
309.1063456040853
 20
189.2740174422129
 30
0.0
 11
334.1063506040853
 21
189.2740174422129
 31
0.0
  0
LINE
  5
B99A
330
B8A4
100
AcDbEntity
  8
0
  6
Continuous
 62
     0
370
    -2
100
AcDbLine
 10
309.1063456040853
 20
190.7740174422129
 30
0.0
 11
334.1063506040853
 21
190.7740174422129
 31
0.0
  0
LINE
  5
B99B
330
B8A4
100
AcDbEntity
  8
0
  6
Continuous
 62
     0
370
    -2
100
AcDbLine
 10
331.5663506040853
 20
188.2740174422129
 30
0.0
 11
331.5663506040853
 21
187.2740174422129
 31
0.0
  0
LINE
  5
B99C
330
B8A4
100
AcDbEntity
  8
0
  6
Continuous
 62
     0
370
    -2
100
AcDbLine
 10
331.5663506040853
 20
191.7740174422129
 30
0.0
 11
331.5663506040853
 21
192.7740174422129
 31
0.0
  0
MTEXT
  5
B99D
330
B8A4
100
AcDbEntity
  8
0
  6
Continuous
 62
     0
100
AcDbMText
 10
341.3063506040852
 20
190.024017442213
 30
0.0
 40
3.2
 41
0.0
 71
     5
 72
     1
  1
\A1;1.5000
 11
0.0000000000000001
 21
1.0
 31
0.0
 73
     1
 44
1.0
1001
ACAD
1000
MTEXTBEGIN
1070
    73
1070
     1
1070
    44
1040
1.0
1070
    74
1070
     0
1000
MTEXTEND
  0
LINE
  5
B99E
330
B8A4
100
AcDbEntity
  8
0
  6
Continuous
 62
     0
370
    -2
100
AcDbLine
 10
331.5663506040853
 20
189.2740174422129
 30
0.0
 11
331.5663506040853
 21
190.7740174422129
 31
0.0
  0
SOLID
  5
B99F
330
B8A4
100
AcDbEntity
  8
0
  6
Continuous
 62
     0
100
AcDbTrace
 10
331.3996839374186
 20
188.2740174422129
 30
0.0
 11
331.7330172707519
 21
188.2740174422129
 31
0.0
 12
331.5663506040853
 22
189.2740174422129
 32
0.0
 13
331.5663506040853
 23
189.2740174422129
 33
0.0
  0
SOLID
  5
B9A0
330
B8A4
100
AcDbEntity
  8
0
  6
Continuous
 62
     0
100
AcDbTrace
 10
331.3996839374186
 20
191.7740174422129
 30
0.0
 11
331.7330172707519
 21
191.7740174422129
 31
0.0
 12
331.5663506040853
 22
190.7740174422129
 32
0.0
 13
331.5663506040853
 23
190.7740174422129
 33
0.0
  0
POINT
  5
B9A1
330
B8A4
100
AcDbEntity
  8
Defpoints
  6
Continuous
 62
     0
100
AcDbPoint
 10
306.5663456040852
 20
189.2740174422129
 30
0.0
  0
POINT
  5
B9A2
330
B8A4
100
AcDbEntity
  8
Defpoints
  6
Continuous
 62
     0
100
AcDbPoint
 10
306.5663456040852
 20
190.7740174422129
 30
0.0
  0
POINT
  5
B9A3
330
B8A4
100
AcDbEntity
  8
Defpoints
  6
Continuous
 62
     0
100
AcDbPoint
 10
331.5663506040853
 20
190.7740174422129
 30
0.0
  0
ENDBLK
  5
B8B1
330
B8A4
100
AcDbEntity
  8
0
100
AcDbBlockEnd
  0
BLOCK
  5
B8BE
330
B8B2
100
AcDbEntity
  8
0
100
AcDbBlockBegin
  2
*D45
 70
     1
 10
0.0
 20
0.0
 30
0.0
  3
*D45
  1

  0
LINE
  5
B9A4
330
B8B2
100
AcDbEntity
  8
0
  6
Continuous
 62
     0
370
    -2
100
AcDbLine
 10
309.1063456040853
 20
230.7740204422129
 30
0.0
 11
334.1063506040853
 21
230.7740204422129
 31
0.0
  0
LINE
  5
B9A5
330
B8B2
100
AcDbEntity
  8
0
  6
Continuous
 62
     0
370
    -2
100
AcDbLine
 10
309.1063456040853
 20
232.2740204422129
 30
0.0
 11
334.1063506040853
 21
232.2740204422129
 31
0.0
  0
LINE
  5
B9A6
330
B8B2
100
AcDbEntity
  8
0
  6
Continuous
 62
     0
370
    -2
100
AcDbLine
 10
331.5663506040853
 20
229.7740204422129
 30
0.0
 11
331.5663506040853
 21
228.7740204422129
 31
0.0
  0
LINE
  5
B9A7
330
B8B2
100
AcDbEntity
  8
0
  6
Continuous
 62
     0
370
    -2
100
AcDbLine
 10
331.5663506040853
 20
233.2740204422129
 30
0.0
 11
331.5663506040853
 21
234.2740204422129
 31
0.0
  0
MTEXT
  5
B9A8
330
B8B2
100
AcDbEntity
  8
0
  6
Continuous
 62
     0
100
AcDbMText
 10
341.3063506040852
 20
231.524020442213
 30
0.0
 40
3.2
 41
0.0
 71
     5
 72
     1
  1
\A1;1.5000
 11
0.0000000000000001
 21
1.0
 31
0.0
 73
     1
 44
1.0
1001
ACAD
1000
MTEXTBEGIN
1070
    73
1070
     1
1070
    44
1040
1.0
1070
    74
1070
     0
1000
MTEXTEND
  0
LINE
  5
B9A9
330
B8B2
100
AcDbEntity
  8
0
  6
Continuous
 62
     0
370
    -2
100
AcDbLine
 10
331.5663506040853
 20
230.7740204422129
 30
0.0
 11
331.5663506040853
 21
232.2740204422129
 31
0.0
  0
SOLID
  5
B9AA
330
B8B2
100
AcDbEntity
  8
0
  6
Continuous
 62
     0
100
AcDbTrace
 10
331.3996839374186
 20
229.7740204422129
 30
0.0
 11
331.7330172707519
 21
229.7740204422129
 31
0.0
 12
331.5663506040853
 22
230.7740204422129
 32
0.0
 13
331.5663506040853
 23
230.7740204422129
 33
0.0
  0
SOLID
  5
B9AB
330
B8B2
100
AcDbEntity
  8
0
  6
Continuous
 62
     0
100
AcDbTrace
 10
331.3996839374186
 20
233.2740204422129
 30
0.0
 11
331.7330172707519
 21
233.2740204422129
 31
0.0
 12
331.5663506040853
 22
232.2740204422129
 32
0.0
 13
331.5663506040853
 23
232.2740204422129
 33
0.0
  0
POINT
  5
B9AC
330
B8B2
100
AcDbEntity
  8
Defpoints
  6
Continuous
 62
     0
100
AcDbPoint
 10
306.5663456040852
 20
230.7740204422129
 30
0.0
  0
POINT
  5
B9AD
330
B8B2
100
AcDbEntity
  8
Defpoints
  6
Continuous
 62
     0
100
AcDbPoint
 10
306.5663456040852
 20
232.2740204422129
 30
0.0
  0
POINT
  5
B9AE
330
B8B2
100
AcDbEntity
  8
Defpoints
  6
Continuous
 62
     0
100
AcDbPoint
 10
331.5663506040853
 20
232.2740204422129
 30
0.0
  0
ENDBLK
  5
B8BF
330
B8B2
100
AcDbEntity
  8
0
100
AcDbBlockEnd
  0
BLOCK
  5
B8C9
330
B8C0
100
AcDbEntity
  8
0
100
AcDbBlockBegin
  2
*D46
 70
     1
 10
0.0
 20
0.0
 30
0.0
  3
*D46
  1

  0
LINE
  5
B9AF
330
B8C0
100
AcDbEntity
  8
0
  6
Continuous
 62
     0
370
    -2
100
AcDbLine
 10
309.1063456040853
 20
230.7740204422129
 30
0.0
 11
334.1063506040853
 21
230.7740204422129
 31
0.0
  0
LINE
  5
B9B0
330
B8C0
100
AcDbEntity
  8
0
  6
Continuous
 62
     0
370
    -2
100
AcDbLine
 10
331.5663506040853
 20
229.7740204422129
 30
0.0
 11
331.5663506040853
 21
191.7740174422129
 31
0.0
  0
SOLID
  5
B9B1
330
B8C0
100
AcDbEntity
  8
0
  6
Continuous
 62
     0
100
AcDbTrace
 10
331.3996839374186
 20
229.7740204422129
 30
0.0
 11
331.7330172707519
 21
229.7740204422129
 31
0.0
 12
331.5663506040853
 22
230.7740204422129
 32
0.0
 13
331.5663506040853
 23
230.7740204422129
 33
0.0
  0
SOLID
  5
B9B2
330
B8C0
100
AcDbEntity
  8
0
  6
Continuous
 62
     0
100
AcDbTrace
 10
331.3996839374186
 20
191.7740174422129
 30
0.0
 11
331.7330172707519
 21
191.7740174422129
 31
0.0
 12
331.5663506040853
 22
190.7740174422129
 32
0.0
 13
331.5663506040853
 23
190.7740174422129
 33
0.0
  0
MTEXT
  5
B9B3
330
B8C0
100
AcDbEntity
  8
0
  6
Continuous
 62
     0
100
AcDbMText
 10
328.3663506040852
 20
210.774018942213
 30
0.0
 40
3.2
 41
0.0
 71
     5
 72
     1
  1
\A1;40.0000
 11
0.0000000000000001
 21
1.0
 31
0.0
 73
     1
 44
1.0
1001
ACAD
1000
MTEXTBEGIN
1070
    73
1070
     1
1070
    44
1040
1.0
1070
    74
1070
     0
1000
MTEXTEND
  0
POINT
  5
B9B4
330
B8C0
100
AcDbEntity
  8
Defpoints
  6
Continuous
 62
     0
100
AcDbPoint
 10
306.5663456040852
 20
230.7740204422129
 30
0.0
  0
POINT
  5
B9B5
330
B8C0
100
AcDbEntity
  8
Defpoints
  6
Continuous
 62
     0
100
AcDbPoint
 10
306.5663456040852
 20
190.7740174422129
 30
0.0
  0
POINT
  5
B9B6
330
B8C0
100
AcDbEntity
  8
Defpoints
  6
Continuous
 62
     0
100
AcDbPoint
 10
331.5663506040853
 20
190.7740174422129
 30
0.0
  0
ENDBLK
  5
B8CA
330
B8C0
100
AcDbEntity
  8
0
100
AcDbBlockEnd
  0
BLOCK
  5
B8D5
330
B8CB
100
AcDbEntity
  8
0
100
AcDbBlockBegin
  2
*D47
 70
     1
 10
0.0
 20
0.0
 30
0.0
  3
*D47
  1

  0
LINE
  5
B9B7
330
B8CB
100
AcDbEntity
  8
0
  6
Continuous
 62
     0
370
    -2
100
AcDbLine
 10
309.1063456040853
 20
190.7740174422129
 30
0.0
 11
324.1063506040853
 21
190.7740174422129
 31
0.0
  0
LINE
  5
B9B8
330
B8CB
100
AcDbEntity
  8
0
  6
Continuous
 62
     0
370
    -2
100
AcDbLine
 10
295.1063456040852
 20
211.7740204422129
 30
0.0
 11
324.1063506040853
 21
211.7740204422129
 31
0.0
  0
LINE
  5
B9B9
330
B8CB
100
AcDbEntity
  8
0
  6
Continuous
 62
     0
370
    -2
100
AcDbLine
 10
321.5663506040852
 20
191.7740174422129
 30
0.0
 11
321.5663506040852
 21
210.7740204422129
 31
0.0
  0
SOLID
  5
B9BA
330
B8CB
100
AcDbEntity
  8
0
  6
Continuous
 62
     0
100
AcDbTrace
 10
321.3996839374186
 20
191.7740174422129
 30
0.0
 11
321.7330172707519
 21
191.7740174422129
 31
0.0
 12
321.5663506040852
 22
190.7740174422129
 32
0.0
 13
321.5663506040852
 23
190.7740174422129
 33
0.0
  0
SOLID
  5
B9BB
330
B8CB
100
AcDbEntity
  8
0
  6
Continuous
 62
     0
100
AcDbTrace
 10
321.3996839374186
 20
210.7740204422129
 30
0.0
 11
321.7330172707519
 21
210.7740204422129
 31
0.0
 12
321.5663506040852
 22
211.7740204422129
 32
0.0
 13
321.5663506040852
 23
211.7740204422129
 33
0.0
  0
MTEXT
  5
B9BC
330
B8CB
100
AcDbEntity
  8
0
  6
Continuous
 62
     0
100
AcDbMText
 10
318.3663506040852
 20
201.2740189422129
 30
0.0
 40
3.2
 41
0.0
 71
     5
 72
     1
  1
\A1;21.0000
 11
0.0000000000000001
 21
1.0
 31
0.0
 73
     1
 44
1.0
1001
ACAD
1000
MTEXTBEGIN
1070
    73
1070
     1
1070
    44
1040
1.0
1070
    74
1070
     0
1000
MTEXTEND
  0
POINT
  5
B9BD
330
B8CB
100
AcDbEntity
  8
Defpoints
  6
Continuous
 62
     0
100
AcDbPoint
 10
306.5663456040852
 20
190.7740174422129
 30
0.0
  0
POINT
  5
B9BE
330
B8CB
100
AcDbEntity
  8
Defpoints
  6
Continuous
 62
     0
100
AcDbPoint
 10
292.5663456040853
 20
211.7740204422129
 30
0.0
  0
POINT
  5
B9BF
330
B8CB
100
AcDbEntity
  8
Defpoints
  6
Continuous
 62
     0
100
AcDbPoint
 10
321.5663506040852
 20
211.7740204422129
 30
0.0
  0
ENDBLK
  5
B8D6
330
B8CB
100
AcDbEntity
  8
0
100
AcDbBlockEnd
  0
BLOCK
  5
B8E1
330
B8D7
100
AcDbEntity
  8
0
100
AcDbBlockBegin
  2
*D48
 70
     1
 10
0.0
 20
0.0
 30
0.0
  3
*D48
  1

  0
LINE
  5
B9C0
330
B8D7
100
AcDbEntity
  8
0
  6
Continuous
 62
     0
370
    -2
100
AcDbLine
 10
282.9572676040853
 20
213.7740004422129
 30
0.0
 11
324.1063506040853
 21
213.7740004422129
 31
0.0
  0
LINE
  5
B9C1
330
B8D7
100
AcDbEntity
  8
0
  6
Continuous
 62
     0
370
    -2
100
AcDbLine
 10
309.1063456040853
 20
230.7740204422129
 30
0.0
 11
324.1063506040853
 21
230.7740204422129
 31
0.0
  0
LINE
  5
B9C2
330
B8D7
100
AcDbEntity
  8
0
  6
Continuous
 62
     0
370
    -2
100
AcDbLine
 10
321.5663506040852
 20
214.7740004422129
 30
0.0
 11
321.5663506040852
 21
229.7740204422129
 31
0.0
  0
SOLID
  5
B9C3
330
B8D7
100
AcDbEntity
  8
0
  6
Continuous
 62
     0
100
AcDbTrace
 10
321.3996839374186
 20
214.7740004422129
 30
0.0
 11
321.7330172707519
 21
214.7740004422129
 31
0.0
 12
321.5663506040852
 22
213.7740004422129
 32
0.0
 13
321.5663506040852
 23
213.7740004422129
 33
0.0
  0
SOLID
  5
B9C4
330
B8D7
100
AcDbEntity
  8
0
  6
Continuous
 62
     0
100
AcDbTrace
 10
321.3996839374186
 20
229.7740204422129
 30
0.0
 11
321.7330172707519
 21
229.7740204422129
 31
0.0
 12
321.5663506040852
 22
230.7740204422129
 32
0.0
 13
321.5663506040852
 23
230.7740204422129
 33
0.0
  0
MTEXT
  5
B9C5
330
B8D7
100
AcDbEntity
  8
0
  6
Continuous
 62
     0
100
AcDbMText
 10
318.3663506040852
 20
222.2740104422129
 30
0.0
 40
3.2
 41
0.0
 71
     5
 72
     1
  1
\A1;17.0000
 11
0.0000000000000001
 21
1.0
 31
0.0
 73
     1
 44
1.0
1001
ACAD
1000
MTEXTBEGIN
1070
    73
1070
     1
1070
    44
1040
1.0
1070
    74
1070
     0
1000
MTEXTEND
  0
POINT
  5
B9C6
330
B8D7
100
AcDbEntity
  8
Defpoints
  6
Continuous
 62
     0
100
AcDbPoint
 10
280.4172676040853
 20
213.7740004422129
 30
0.0
  0
POINT
  5
B9C7
330
B8D7
100
AcDbEntity
  8
Defpoints
  6
Continuous
 62
     0
100
AcDbPoint
 10
306.5663456040852
 20
230.7740204422129
 30
0.0
  0
POINT
  5
B9C8
330
B8D7
100
AcDbEntity
  8
Defpoints
  6
Continuous
 62
     0
100
AcDbPoint
 10
321.5663506040852
 20
230.7740204422129
 30
0.0
  0
ENDBLK
  5
B8E2
330
B8D7
100
AcDbEntity
  8
0
100
AcDbBlockEnd
  0
BLOCK
  5
B8ED
330
B8E3
100
AcDbEntity
  8
0
100
AcDbBlockBegin
  2
*D49
 70
     1
 10
0.0
 20
0.0
 30
0.0
  3
*D49
  1

  0
LINE
  5
B9C9
330
B8E3
100
AcDbEntity
  8
0
  6
Continuous
 62
     0
370
    -2
100
AcDbLine
 10
250.0263456040852
 20
230.7740204422129
 30
0.0
 11
230.0263456040853
 21
230.7740204422129
 31
0.0
  0
LINE
  5
B9CA
330
B8E3
100
AcDbEntity
  8
0
  6
Continuous
 62
     0
370
    -2
100
AcDbLine
 10
262.6918506040852
 20
214.7740204422129
 30
0.0
 11
230.0263456040853
 21
214.7740204422129
 31
0.0
  0
LINE
  5
B9CB
330
B8E3
100
AcDbEntity
  8
0
  6
Continuous
 62
     0
370
    -2
100
AcDbLine
 10
232.5663456040853
 20
229.774020442213
 30
0.0
 11
232.5663456040853
 21
215.7740204422129
 31
0.0
  0
MTEXT
  5
B9CC
330
B8E3
100
AcDbEntity
  8
0
  6
Continuous
 62
     0
100
AcDbMText
 10
226.0263456040852
 20
222.774020442213
 30
0.0
 40
3.2
 41
0.0
 71
     5
 72
     1
  1
\A1;16.0000
 11
0.0000000000000001
 21
1.0
 31
0.0
 73
     1
 44
1.0
1001
ACAD
1000
MTEXTBEGIN
1070
    73
1070
     1
1070
    44
1040
1.0
1070
    74
1070
     0
1000
MTEXTEND
  0
SOLID
  5
B9CD
330
B8E3
100
AcDbEntity
  8
0
  6
Continuous
 62
     0
100
AcDbTrace
 10
232.3996789374186
 20
229.774020442213
 30
0.0
 11
232.7330122707519
 21
229.774020442213
 31
0.0
 12
232.5663456040853
 22
230.7740204422129
 32
0.0
 13
232.5663456040853
 23
230.7740204422129
 33
0.0
  0
SOLID
  5
B9CE
330
B8E3
100
AcDbEntity
  8
0
  6
Continuous
 62
     0
100
AcDbTrace
 10
232.3996789374186
 20
215.7740204422129
 30
0.0
 11
232.7330122707519
 21
215.7740204422129
 31
0.0
 12
232.5663456040853
 22
214.7740204422129
 32
0.0
 13
232.5663456040853
 23
214.7740204422129
 33
0.0
  0
POINT
  5
B9CF
330
B8E3
100
AcDbEntity
  8
Defpoints
  6
Continuous
 62
     0
100
AcDbPoint
 10
252.5663456040852
 20
230.7740204422129
 30
0.0
  0
POINT
  5
B9D0
330
B8E3
100
AcDbEntity
  8
Defpoints
  6
Continuous
 62
     0
100
AcDbPoint
 10
265.2318506040852
 20
214.7740204422129
 30
0.0
  0
POINT
  5
B9D1
330
B8E3
100
AcDbEntity
  8
Defpoints
  6
Continuous
 62
     0
100
AcDbPoint
 10
232.5663456040853
 20
214.7740204422129
 30
0.0
  0
ENDBLK
  5
B8EE
330
B8E3
100
AcDbEntity
  8
0
100
AcDbBlockEnd
  0
BLOCK
  5
B8F9
330
B8EF
100
AcDbEntity
  8
0
100
AcDbBlockBegin
  2
*D50
 70
     1
 10
0.0
 20
0.0
 30
0.0
  3
*D50
  1

  0
LINE
  5
B9D2
330
B8EF
100
AcDbEntity
  8
0
  6
Continuous
 62
     0
370
    -2
100
AcDbLine
 10
250.0263456040852
 20
230.7740204422129
 30
0.0
 11
240.0263456040853
 21
230.7740204422129
 31
0.0
  0
LINE
  5
B9D3
330
B8EF
100
AcDbEntity
  8
0
  6
Continuous
 62
     0
370
    -2
100
AcDbLine
 10
262.6918506040852
 20
215.2740204422129
 30
0.0
 11
240.0263456040853
 21
215.2740204422129
 31
0.0
  0
LINE
  5
B9D4
330
B8EF
100
AcDbEntity
  8
0
  6
Continuous
 62
     0
370
    -2
100
AcDbLine
 10
242.5663456040853
 20
229.774020442213
 30
0.0
 11
242.5663456040853
 21
216.2740204422129
 31
0.0
  0
MTEXT
  5
B9D5
330
B8EF
100
AcDbEntity
  8
0
  6
Continuous
 62
     0
100
AcDbMText
 10
236.0263456040852
 20
223.024020442213
 30
0.0
 40
3.2
 41
0.0
 71
     5
 72
     1
  1
\A1;15.5000
 11
0.0000000000000001
 21
1.0
 31
0.0
 73
     1
 44
1.0
1001
ACAD
1000
MTEXTBEGIN
1070
    73
1070
     1
1070
    44
1040
1.0
1070
    74
1070
     0
1000
MTEXTEND
  0
SOLID
  5
B9D6
330
B8EF
100
AcDbEntity
  8
0
  6
Continuous
 62
     0
100
AcDbTrace
 10
242.3996789374186
 20
229.774020442213
 30
0.0
 11
242.7330122707519
 21
229.774020442213
 31
0.0
 12
242.5663456040853
 22
230.7740204422129
 32
0.0
 13
242.5663456040853
 23
230.7740204422129
 33
0.0
  0
SOLID
  5
B9D7
330
B8EF
100
AcDbEntity
  8
0
  6
Continuous
 62
     0
100
AcDbTrace
 10
242.3996789374186
 20
216.2740204422129
 30
0.0
 11
242.7330122707519
 21
216.2740204422129
 31
0.0
 12
242.5663456040853
 22
215.2740204422129
 32
0.0
 13
242.5663456040853
 23
215.2740204422129
 33
0.0
  0
POINT
  5
B9D8
330
B8EF
100
AcDbEntity
  8
Defpoints
  6
Continuous
 62
     0
100
AcDbPoint
 10
252.5663456040852
 20
230.7740204422129
 30
0.0
  0
POINT
  5
B9D9
330
B8EF
100
AcDbEntity
  8
Defpoints
  6
Continuous
 62
     0
100
AcDbPoint
 10
265.2318506040852
 20
215.2740204422129
 30
0.0
  0
POINT
  5
B9DA
330
B8EF
100
AcDbEntity
  8
Defpoints
  6
Continuous
 62
     0
100
AcDbPoint
 10
242.5663456040853
 20
215.2740204422129
 30
0.0
  0
ENDBLK
  5
B8FA
330
B8EF
100
AcDbEntity
  8
0
100
AcDbBlockEnd
  0
BLOCK
  5
B905
330
B8FB
100
AcDbEntity
  8
0
100
AcDbBlockBegin
  2
*D51
 70
     1
 10
0.0
 20
0.0
 30
0.0
  3
*D51
  1

  0
LINE
  5
B9DB
330
B8FB
100
AcDbEntity
  8
0
  6
Continuous
 62
     0
370
    -2
100
AcDbLine
 10
250.0263456040852
 20
190.7740174422129
 30
0.0
 11
240.0263456040852
 21
190.7740174422129
 31
0.0
  0
LINE
  5
B9DC
330
B8FB
100
AcDbEntity
  8
0
  6
Continuous
 62
     0
370
    -2
100
AcDbLine
 10
262.6918506040852
 20
206.2740204422129
 30
0.0
 11
240.0263456040853
 21
206.2740204422129
 31
0.0
  0
LINE
  5
B9DD
330
B8FB
100
AcDbEntity
  8
0
  6
Continuous
 62
     0
370
    -2
100
AcDbLine
 10
242.5663456040852
 20
191.7740174422129
 30
0.0
 11
242.5663456040853
 21
205.2740204422129
 31
0.0
  0
MTEXT
  5
B9DE
330
B8FB
100
AcDbEntity
  8
0
  6
Continuous
 62
     0
100
AcDbMText
 10
236.0263456040852
 20
198.5240189422129
 30
0.0
 40
3.2
 41
0.0
 71
     5
 72
     1
  1
\A1;15.5000
 11
0.0000000000000001
 21
1.0
 31
0.0
 73
     1
 44
1.0
1001
ACAD
1000
MTEXTBEGIN
1070
    73
1070
     1
1070
    44
1040
1.0
1070
    74
1070
     0
1000
MTEXTEND
  0
SOLID
  5
B9DF
330
B8FB
100
AcDbEntity
  8
0
  6
Continuous
 62
     0
100
AcDbTrace
 10
242.3996789374186
 20
191.7740174422129
 30
0.0
 11
242.7330122707519
 21
191.7740174422129
 31
0.0
 12
242.5663456040852
 22
190.7740174422129
 32
0.0
 13
242.5663456040852
 23
190.7740174422129
 33
0.0
  0
SOLID
  5
B9E0
330
B8FB
100
AcDbEntity
  8
0
  6
Continuous
 62
     0
100
AcDbTrace
 10
242.3996789374186
 20
205.2740204422129
 30
0.0
 11
242.7330122707519
 21
205.2740204422129
 31
0.0
 12
242.5663456040853
 22
206.2740204422129
 32
0.0
 13
242.5663456040853
 23
206.2740204422129
 33
0.0
  0
POINT
  5
B9E1
330
B8FB
100
AcDbEntity
  8
Defpoints
  6
Continuous
 62
     0
100
AcDbPoint
 10
252.5663456040852
 20
190.7740174422129
 30
0.0
  0
POINT
  5
B9E2
330
B8FB
100
AcDbEntity
  8
Defpoints
  6
Continuous
 62
     0
100
AcDbPoint
 10
265.2318506040852
 20
206.2740204422129
 30
0.0
  0
POINT
  5
B9E3
330
B8FB
100
AcDbEntity
  8
Defpoints
  6
Continuous
 62
     0
100
AcDbPoint
 10
242.5663456040853
 20
206.2740204422129
 30
0.0
  0
ENDBLK
  5
B906
330
B8FB
100
AcDbEntity
  8
0
100
AcDbBlockEnd
  0
BLOCK
  5
B911
330
B907
100
AcDbEntity
  8
0
100
AcDbBlockBegin
  2
*D52
 70
     1
 10
0.0
 20
0.0
 30
0.0
  3
*D52
  1

  0
LINE
  5
B9E4
330
B907
100
AcDbEntity
  8
0
  6
Continuous
 62
     0
370
    -2
100
AcDbLine
 10
250.0263456040852
 20
190.7740174422129
 30
0.0
 11
230.0263456040852
 21
190.7740174422129
 31
0.0
  0
LINE
  5
B9E5
330
B907
100
AcDbEntity
  8
0
  6
Continuous
 62
     0
370
    -2
100
AcDbLine
 10
262.6918506040852
 20
206.7740204422129
 30
0.0
 11
230.0263456040853
 21
206.7740204422129
 31
0.0
  0
LINE
  5
B9E6
330
B907
100
AcDbEntity
  8
0
  6
Continuous
 62
     0
370
    -2
100
AcDbLine
 10
232.5663456040852
 20
191.7740174422129
 30
0.0
 11
232.5663456040853
 21
205.7740204422129
 31
0.0
  0
MTEXT
  5
B9E7
330
B907
100
AcDbEntity
  8
0
  6
Continuous
 62
     0
100
AcDbMText
 10
226.0263456040852
 20
198.774018942213
 30
0.0
 40
3.2
 41
0.0
 71
     5
 72
     1
  1
\A1;16.0000
 11
0.0000000000000001
 21
1.0
 31
0.0
 73
     1
 44
1.0
1001
ACAD
1000
MTEXTBEGIN
1070
    73
1070
     1
1070
    44
1040
1.0
1070
    74
1070
     0
1000
MTEXTEND
  0
SOLID
  5
B9E8
330
B907
100
AcDbEntity
  8
0
  6
Continuous
 62
     0
100
AcDbTrace
 10
232.3996789374186
 20
191.7740174422129
 30
0.0
 11
232.7330122707519
 21
191.7740174422129
 31
0.0
 12
232.5663456040852
 22
190.7740174422129
 32
0.0
 13
232.5663456040852
 23
190.7740174422129
 33
0.0
  0
SOLID
  5
B9E9
330
B907
100
AcDbEntity
  8
0
  6
Continuous
 62
     0
100
AcDbTrace
 10
232.3996789374186
 20
205.7740204422129
 30
0.0
 11
232.7330122707519
 21
205.7740204422129
 31
0.0
 12
232.5663456040853
 22
206.7740204422129
 32
0.0
 13
232.5663456040853
 23
206.7740204422129
 33
0.0
  0
POINT
  5
B9EA
330
B907
100
AcDbEntity
  8
Defpoints
  6
Continuous
 62
     0
100
AcDbPoint
 10
252.5663456040852
 20
190.7740174422129
 30
0.0
  0
POINT
  5
B9EB
330
B907
100
AcDbEntity
  8
Defpoints
  6
Continuous
 62
     0
100
AcDbPoint
 10
265.2318506040852
 20
206.7740204422129
 30
0.0
  0
POINT
  5
B9EC
330
B907
100
AcDbEntity
  8
Defpoints
  6
Continuous
 62
     0
100
AcDbPoint
 10
232.5663456040853
 20
206.7740204422129
 30
0.0
  0
ENDBLK
  5
B912
330
B907
100
AcDbEntity
  8
0
100
AcDbBlockEnd
  0
BLOCK
  5
B91D
330
B913
100
AcDbEntity
  8
0
100
AcDbBlockBegin
  2
*D53
 70
     1
 10
0.0
 20
0.0
 30
0.0
  3
*D53
  1

  0
LINE
  5
B9ED
330
B913
100
AcDbEntity
  8
0
  6
Continuous
 62
     0
370
    -2
100
AcDbLine
 10
142.7154096040852
 20
66.60233744221293
 30
0.0
 11
132.7154096040852
 21
66.60233744221293
 31
0.0
  0
LINE
  5
B9EE
330
B913
100
AcDbEntity
  8
0
  6
Continuous
 62
     0
370
    -2
100
AcDbLine
 10
142.7154096040852
 20
136.6023374422129
 30
0.0
 11
132.7154096040852
 21
136.6023374422129
 31
0.0
  0
LINE
  5
B9EF
330
B913
100
AcDbEntity
  8
0
  6
Continuous
 62
     0
370
    -2
100
AcDbLine
 10
135.2554096040852
 20
67.60233744221292
 30
0.0
 11
135.2554096040852
 21
135.6023374422129
 31
0.0
  0
SOLID
  5
B9F0
330
B913
100
AcDbEntity
  8
0
  6
Continuous
 62
     0
100
AcDbTrace
 10
135.0887429374185
 20
67.60233744221292
 30
0.0
 11
135.4220762707519
 21
67.60233744221292
 31
0.0
 12
135.2554096040852
 22
66.60233744221293
 32
0.0
 13
135.2554096040852
 23
66.60233744221293
 33
0.0
  0
SOLID
  5
B9F1
330
B913
100
AcDbEntity
  8
0
  6
Continuous
 62
     0
100
AcDbTrace
 10
135.0887429374185
 20
135.6023374422129
 30
0.0
 11
135.4220762707519
 21
135.6023374422129
 31
0.0
 12
135.2554096040852
 22
136.6023374422129
 32
0.0
 13
135.2554096040852
 23
136.6023374422129
 33
0.0
  0
MTEXT
  5
B9F2
330
B913
100
AcDbEntity
  8
0
  6
Continuous
 62
     0
100
AcDbMText
 10
132.0554096040852
 20
101.6023374422129
 30
0.0
 40
3.2
 41
0.0
 71
     5
 72
     1
  1
\A1;70.0000
 11
0.0000000000000001
 21
1.0
 31
0.0
 73
     1
 44
1.0
1001
ACAD
1000
MTEXTBEGIN
1070
    73
1070
     1
1070
    44
1040
1.0
1070
    74
1070
     0
1000
MTEXTEND
  0
POINT
  5
B9F3
330
B913
100
AcDbEntity
  8
Defpoints
  6
Continuous
 62
     0
100
AcDbPoint
 10
145.2554096040852
 20
66.60233744221293
 30
0.0
  0
POINT
  5
B9F4
330
B913
100
AcDbEntity
  8
Defpoints
  6
Continuous
 62
     0
100
AcDbPoint
 10
145.2554096040852
 20
136.6023374422129
 30
0.0
  0
POINT
  5
B9F5
330
B913
100
AcDbEntity
  8
Defpoints
  6
Continuous
 62
     0
100
AcDbPoint
 10
135.2554096040852
 20
136.6023374422129
 30
0.0
  0
ENDBLK
  5
B91E
330
B913
100
AcDbEntity
  8
0
100
AcDbBlockEnd
  0
BLOCK
  5
B929
330
B91F
100
AcDbEntity
  8
0
100
AcDbBlockBegin
  2
*D54
 70
     1
 10
0.0
 20
0.0
 30
0.0
  3
*D54
  1

  0
LINE
  5
B9F6
330
B91F
100
AcDbEntity
  8
0
  6
Continuous
 62
     0
370
    -2
100
AcDbLine
 10
145.2554096040852
 20
139.1423374422129
 30
0.0
 11
145.2554096040852
 21
149.1423374422129
 31
0.0
  0
LINE
  5
B9F7
330
B91F
100
AcDbEntity
  8
0
  6
Continuous
 62
     0
370
    -2
100
AcDbLine
 10
193.2554076040852
 20
139.1423374422129
 30
0.0
 11
193.2554076040852
 21
149.1423374422129
 31
0.0
  0
LINE
  5
B9F8
330
B91F
100
AcDbEntity
  8
0
  6
Continuous
 62
     0
370
    -2
100
AcDbLine
 10
146.2554096040852
 20
146.6023374422129
 30
0.0
 11
192.2554076040852
 21
146.6023374422129
 31
0.0
  0
SOLID
  5
B9F9
330
B91F
100
AcDbEntity
  8
0
  6
Continuous
 62
     0
100
AcDbTrace
 10
146.2554096040852
 20
146.7690041088796
 30
0.0
 11
146.2554096040852
 21
146.4356707755462
 31
0.0
 12
145.2554096040852
 22
146.6023374422129
 32
0.0
 13
145.2554096040852
 23
146.6023374422129
 33
0.0
  0
SOLID
  5
B9FA
330
B91F
100
AcDbEntity
  8
0
  6
Continuous
 62
     0
100
AcDbTrace
 10
192.2554076040852
 20
146.7690041088796
 30
0.0
 11
192.2554076040852
 21
146.4356707755462
 31
0.0
 12
193.2554076040852
 22
146.6023374422129
 32
0.0
 13
193.2554076040852
 23
146.6023374422129
 33
0.0
  0
MTEXT
  5
B9FB
330
B91F
100
AcDbEntity
  8
0
  6
Continuous
 62
     0
100
AcDbMText
 10
169.2554086040852
 20
149.8023374422129
 30
0.0
 40
3.2
 41
0.0
 71
     5
 72
     1
  1
\A1;48.0000
 73
     1
 44
1.0
1001
ACAD
1000
MTEXTBEGIN
1070
    73
1070
     1
1070
    44
1040
1.0
1070
    74
1070
     0
1000
MTEXTEND
  0
POINT
  5
B9FC
330
B91F
100
AcDbEntity
  8
Defpoints
  6
Continuous
 62
     0
100
AcDbPoint
 10
145.2554096040852
 20
136.6023374422129
 30
0.0
  0
POINT
  5
B9FD
330
B91F
100
AcDbEntity
  8
Defpoints
  6
Continuous
 62
     0
100
AcDbPoint
 10
193.2554076040852
 20
136.6023374422129
 30
0.0
  0
POINT
  5
B9FE
330
B91F
100
AcDbEntity
  8
Defpoints
  6
Continuous
 62
     0
100
AcDbPoint
 10
193.2554076040852
 20
146.6023374422129
 30
0.0
  0
ENDBLK
  5
B92A
330
B91F
100
AcDbEntity
  8
0
100
AcDbBlockEnd
  0
BLOCK
  5
BA0A
330
BA00
100
AcDbEntity
  8
0
100
AcDbBlockBegin
  2
*D55
 70
     1
 10
0.0
 20
0.0
 30
0.0
  3
*D55
  1

  0
LINE
  5
BC45
330
BA00
100
AcDbEntity
  8
AM_5
100
AcDbLine
 10
307.5663456040853
 20
190.7740174422129
 30
0.0
 11
322.5663506040853
 21
190.7740174422129
 31
0.0
  0
LINE
  5
BC46
330
BA00
100
AcDbEntity
  8
AM_5
100
AcDbLine
 10
281.4172676040853
 20
207.774037442213
 30
0.0
 11
322.5663506040853
 21
207.7740374422129
 31
0.0
  0
LINE
  5
BC47
330
BA00
100
AcDbEntity
  8
AM_5
100
AcDbLine
 10
321.5663506040853
 20
191.7740174422129
 30
0.0
 11
321.5663506040853
 21
206.7740374422129
 31
0.0
  0
INSERT
  5
BC48
330
BA00
100
AcDbEntity
  8
AM_5
100
AcDbBlockReference
  2
_Dot
 10
321.5663506040853
 20
190.7740174422129
 30
0.0
 50
270.0
  0
INSERT
  5
BC49
330
BA00
100
AcDbEntity
  8
AM_5
100
AcDbBlockReference
  2
_Dot
 10
321.5663506040853
 20
207.7740374422129
 30
0.0
 50
90.0
  0
MTEXT
  5
BC4A
330
BA00
100
AcDbEntity
  8
AM_5
 62
     2
100
AcDbMText
 10
318.4663506040852
 20
199.2740274422129
 30
0.0
 40
3.200000000000001
 41
0.0
 71
     5
 72
     1
  1
17
 11
0.0000000000000001
 21
1.0
 31
0.0
 73
     1
 44
1.0
1001
ACAD
1000
MTEXTBEGIN
1070
    73
1070
     1
1070
    44
1040
1.0
1070
    74
1070
     0
1000
MTEXTEND
  0
POINT
  5
BC4B
330
BA00
100
AcDbEntity
  8
Defpoints
 62
     0
100
AcDbPoint
 10
306.5663456040852
 20
190.7740174422129
 30
0.0
  0
POINT
  5
BC4C
330
BA00
100
AcDbEntity
  8
Defpoints
 62
     0
100
AcDbPoint
 10
280.4172676040853
 20
207.774037442213
 30
0.0
  0
POINT
  5
BC4D
330
BA00
100
AcDbEntity
  8
Defpoints
 62
     0
100
AcDbPoint
 10
321.5663506040853
 20
207.7740374422129
 30
0.0
  0
ENDBLK
  5
BA0B
330
BA00
100
AcDbEntity
  8
0
100
AcDbBlockEnd
  0
BLOCK
  5
BA22
330
BA16
100
AcDbEntity
  8
0
100
AcDbBlockBegin
  2
*D56
 70
     1
 10
0.0
 20
0.0
 30
0.0
  3
*D56
  1

  0
LINE
  5
BC4E
330
BA16
100
AcDbEntity
  8
AM_5
100
AcDbLine
 10
307.5663456040853
 20
190.7740174422129
 30
0.0
 11
332.5663506040853
 21
190.7740174422129
 31
0.0
  0
LINE
  5
BC4F
330
BA16
100
AcDbEntity
  8
AM_5
100
AcDbLine
 10
307.5663456040853
 20
189.2740174422129
 30
0.0
 11
332.5663506040853
 21
189.2740174422129
 31
0.0
  0
LINE
  5
BC50
330
BA16
100
AcDbEntity
  8
AM_5
100
AcDbLine
 10
331.5663506040853
 20
191.7740174422129
 30
0.0
 11
331.5663506040853
 21
192.7740174422129
 31
0.0
  0
LINE
  5
BC51
330
BA16
100
AcDbEntity
  8
AM_5
100
AcDbLine
 10
331.5663506040853
 20
188.2740174422129
 30
0.0
 11
331.5663506040853
 21
179.9006841088796
 31
0.0
  0
LINE
  5
BC52
330
BA16
100
AcDbEntity
  8
AM_5
100
AcDbLine
 10
331.5663506040853
 20
190.7740174422129
 30
0.0
 11
331.5663506040853
 21
189.2740174422129
 31
0.0
  0
INSERT
  5
BC53
330
BA16
100
AcDbEntity
  8
AM_5
100
AcDbBlockReference
  2
_Dot
 10
331.5663506040853
 20
190.7740174422129
 30
0.0
 50
270.0
  0
INSERT
  5
BC54
330
BA16
100
AcDbEntity
  8
AM_5
100
AcDbBlockReference
  2
_Dot
 10
331.5663506040853
 20
189.2740174422129
 30
0.0
 50
90.0
  0
MTEXT
  5
BC55
330
BA16
100
AcDbEntity
  8
AM_5
 62
     2
100
AcDbMText
 10
328.4663506040852
 20
183.5873507755463
 30
0.0
 40
3.200000000000001
 41
0.0
 71
     5
 72
     1
  1
1.5
 11
0.0000000000000001
 21
1.0
 31
0.0
 73
     1
 44
1.0
1001
ACAD
1000
MTEXTBEGIN
1070
    73
1070
     1
1070
    44
1040
1.0
1070
    74
1070
     0
1000
MTEXTEND
  0
POINT
  5
BC56
330
BA16
100
AcDbEntity
  8
Defpoints
 62
     0
100
AcDbPoint
 10
306.5663456040852
 20
190.7740174422129
 30
0.0
  0
POINT
  5
BC57
330
BA16
100
AcDbEntity
  8
Defpoints
 62
     0
100
AcDbPoint
 10
306.5663456040852
 20
189.2740174422129
 30
0.0
  0
POINT
  5
BC58
330
BA16
100
AcDbEntity
  8
Defpoints
 62
     0
100
AcDbPoint
 10
331.5663506040853
 20
189.2740174422129
 30
0.0
  0
ENDBLK
  5
BA23
330
BA16
100
AcDbEntity
  8
0
100
AcDbBlockEnd
  0
BLOCK
  5
BA3A
330
BA30
100
AcDbEntity
  8
0
100
AcDbBlockBegin
  2
*D57
 70
     1
 10
0.0
 20
0.0
 30
0.0
  3
*D57
  1

  0
LINE
  5
BA3C
330
BA30
100
AcDbEntity
  8
AM_5
100
AcDbLine
 10
307.5663456040853
 20
230.7740204422129
 30
0.0
 11
332.5663506040853
 21
230.7740204422129
 31
0.0
  0
LINE
  5
BA3D
330
BA30
100
AcDbEntity
  8
AM_5
100
AcDbLine
 10
307.5663456040853
 20
190.7740174422129
 30
0.0
 11
332.5663506040853
 21
190.7740174422129
 31
0.0
  0
LINE
  5
BA3E
330
BA30
100
AcDbEntity
  8
AM_5
100
AcDbLine
 10
331.5663506040853
 20
229.7740204422129
 30
0.0
 11
331.5663506040853
 21
191.7740174422129
 31
0.0
  0
INSERT
  5
BA3F
330
BA30
100
AcDbEntity
  8
AM_5
100
AcDbBlockReference
  2
_Dot
 10
331.5663506040853
 20
230.7740204422129
 30
0.0
 50
90.0
  0
INSERT
  5
BA40
330
BA30
100
AcDbEntity
  8
AM_5
100
AcDbBlockReference
  2
_Dot
 10
331.5663506040853
 20
190.7740174422129
 30
0.0
 50
270.0
  0
MTEXT
  5
BA41
330
BA30
100
AcDbEntity
  8
AM_5
 62
     2
100
AcDbMText
 10
328.4663506040852
 20
210.774018942213
 30
0.0
 40
3.200000000000001
 41
0.0
 71
     5
 72
     1
  1
40
 11
0.0000000000000001
 21
1.0
 31
0.0
 73
     1
 44
1.0
1001
ACAD
1000
MTEXTBEGIN
1070
    73
1070
     1
1070
    44
1040
1.0
1070
    74
1070
     0
1000
MTEXTEND
  0
POINT
  5
BA42
330
BA30
100
AcDbEntity
  8
Defpoints
 62
     0
100
AcDbPoint
 10
306.5663456040852
 20
230.7740204422129
 30
0.0
  0
POINT
  5
BA43
330
BA30
100
AcDbEntity
  8
Defpoints
 62
     0
100
AcDbPoint
 10
306.5663456040852
 20
190.7740174422129
 30
0.0
  0
POINT
  5
BA44
330
BA30
100
AcDbEntity
  8
Defpoints
 62
     0
100
AcDbPoint
 10
331.5663506040853
 20
190.7740174422129
 30
0.0
  0
ENDBLK
  5
BA3B
330
BA30
100
AcDbEntity
  8
0
100
AcDbBlockEnd
  0
BLOCK
  5
BA52
330
BA46
100
AcDbEntity
  8
0
100
AcDbBlockBegin
  2
*D58
 70
     1
 10
0.0
 20
0.0
 30
0.0
  3
*D58
  1

  0
LINE
  5
BC59
330
BA46
100
AcDbEntity
  8
AM_5
100
AcDbLine
 10
307.5663456040853
 20
230.7740204422129
 30
0.0
 11
332.5663506040853
 21
230.7740204422129
 31
0.0
  0
LINE
  5
BC5A
330
BA46
100
AcDbEntity
  8
AM_5
100
AcDbLine
 10
307.5663456040853
 20
232.2740204422129
 30
0.0
 11
332.5663506040853
 21
232.2740204422129
 31
0.0
  0
LINE
  5
BC5B
330
BA46
100
AcDbEntity
  8
AM_5
100
AcDbLine
 10
331.5663506040853
 20
229.7740204422129
 30
0.0
 11
331.5663506040853
 21
228.7740204422129
 31
0.0
  0
LINE
  5
BC5C
330
BA46
100
AcDbEntity
  8
AM_5
100
AcDbLine
 10
331.5663506040853
 20
233.2740204422129
 30
0.0
 11
331.5663506040853
 21
241.6473537755462
 31
0.0
  0
LINE
  5
BC5D
330
BA46
100
AcDbEntity
  8
AM_5
100
AcDbLine
 10
331.5663506040853
 20
230.7740204422129
 30
0.0
 11
331.5663506040853
 21
232.2740204422129
 31
0.0
  0
INSERT
  5
BC5E
330
BA46
100
AcDbEntity
  8
AM_5
100
AcDbBlockReference
  2
_Dot
 10
331.5663506040853
 20
230.7740204422129
 30
0.0
 50
90.0
  0
INSERT
  5
BC5F
330
BA46
100
AcDbEntity
  8
AM_5
100
AcDbBlockReference
  2
_Dot
 10
331.5663506040853
 20
232.2740204422129
 30
0.0
 50
270.0
  0
MTEXT
  5
BC60
330
BA46
100
AcDbEntity
  8
AM_5
 62
     2
100
AcDbMText
 10
328.4663506040852
 20
237.9606871088796
 30
0.0
 40
3.200000000000001
 41
0.0
 71
     5
 72
     1
  1
1.5
 11
0.0000000000000001
 21
1.0
 31
0.0
 73
     1
 44
1.0
1001
ACAD
1000
MTEXTBEGIN
1070
    73
1070
     1
1070
    44
1040
1.0
1070
    74
1070
     0
1000
MTEXTEND
  0
POINT
  5
BC61
330
BA46
100
AcDbEntity
  8
Defpoints
 62
     0
100
AcDbPoint
 10
306.5663456040852
 20
230.7740204422129
 30
0.0
  0
POINT
  5
BC62
330
BA46
100
AcDbEntity
  8
Defpoints
 62
     0
100
AcDbPoint
 10
306.5663456040852
 20
232.2740204422129
 30
0.0
  0
POINT
  5
BC63
330
BA46
100
AcDbEntity
  8
Defpoints
 62
     0
100
AcDbPoint
 10
331.5663506040853
 20
232.2740204422129
 30
0.0
  0
ENDBLK
  5
BA53
330
BA46
100
AcDbEntity
  8
0
100
AcDbBlockEnd
  0
BLOCK
  5
BA6A
330
BA60
100
AcDbEntity
  8
0
100
AcDbBlockBegin
  2
*D59
 70
     1
 10
0.0
 20
0.0
 30
0.0
  3
*D59
  1

  0
LINE
  5
BC64
330
BA60
100
AcDbEntity
  8
AM_5
100
AcDbLine
 10
293.5663456040852
 20
209.774017442213
 30
0.0
 11
322.5663506040854
 21
209.7740174422129
 31
0.0
  0
LINE
  5
BC65
330
BA60
100
AcDbEntity
  8
AM_5
100
AcDbLine
 10
307.5663456040853
 20
230.7740204422129
 30
0.0
 11
322.5663506040854
 21
230.7740204422129
 31
0.0
  0
LINE
  5
BC66
330
BA60
100
AcDbEntity
  8
AM_5
100
AcDbLine
 10
321.5663506040854
 20
210.7740174422129
 30
0.0
 11
321.5663506040854
 21
229.7740204422129
 31
0.0
  0
INSERT
  5
BC67
330
BA60
100
AcDbEntity
  8
AM_5
100
AcDbBlockReference
  2
_Dot
 10
321.5663506040854
 20
209.7740174422129
 30
0.0
 50
270.0
  0
INSERT
  5
BC68
330
BA60
100
AcDbEntity
  8
AM_5
100
AcDbBlockReference
  2
_Dot
 10
321.5663506040854
 20
230.7740204422129
 30
0.0
 50
90.0
  0
MTEXT
  5
BC69
330
BA60
100
AcDbEntity
  8
AM_5
 62
     2
100
AcDbMText
 10
318.4663506040853
 20
220.2740189422129
 30
0.0
 40
3.200000000000001
 41
0.0
 71
     5
 72
     1
  1
21
 11
0.0000000000000001
 21
1.0
 31
0.0
 73
     1
 44
1.0
1001
ACAD
1000
MTEXTBEGIN
1070
    73
1070
     1
1070
    44
1040
1.0
1070
    74
1070
     0
1000
MTEXTEND
  0
POINT
  5
BC6A
330
BA60
100
AcDbEntity
  8
Defpoints
 62
     0
100
AcDbPoint
 10
292.5663456040853
 20
209.774017442213
 30
0.0
  0
POINT
  5
BC6B
330
BA60
100
AcDbEntity
  8
Defpoints
 62
     0
100
AcDbPoint
 10
306.5663456040852
 20
230.7740204422129
 30
0.0
  0
POINT
  5
BC6C
330
BA60
100
AcDbEntity
  8
Defpoints
 62
     0
100
AcDbPoint
 10
321.5663506040854
 20
230.7740204422129
 30
0.0
  0
ENDBLK
  5
BA6B
330
BA60
100
AcDbEntity
  8
0
100
AcDbBlockEnd
  0
BLOCK
  5
BA80
330
BA76
100
AcDbEntity
  8
0
100
AcDbBlockBegin
  2
*D60
 70
     1
 10
0.0
 20
0.0
 30
0.0
  3
*D60
  1

  0
LINE
  5
BC6D
330
BA76
100
AcDbEntity
  8
AM_5
100
AcDbLine
 10
307.5663456040853
 20
190.7740174422129
 30
0.0
 11
332.5663506040855
 21
190.7740174422129
 31
0.0
  0
LINE
  5
BC6E
330
BA76
100
AcDbEntity
  8
AM_5
100
AcDbLine
 10
307.5663456040853
 20
230.7740204422129
 30
0.0
 11
332.5663506040855
 21
230.7740204422129
 31
0.0
  0
LINE
  5
BC6F
330
BA76
100
AcDbEntity
  8
AM_5
100
AcDbLine
 10
331.5663506040855
 20
191.7740174422129
 30
0.0
 11
331.5663506040855
 21
229.7740204422129
 31
0.0
  0
INSERT
  5
BC70
330
BA76
100
AcDbEntity
  8
AM_5
100
AcDbBlockReference
  2
_Dot
 10
331.5663506040855
 20
190.7740174422129
 30
0.0
 50
270.0
  0
INSERT
  5
BC71
330
BA76
100
AcDbEntity
  8
AM_5
100
AcDbBlockReference
  2
_Dot
 10
331.5663506040855
 20
230.7740204422129
 30
0.0
 50
90.0
  0
MTEXT
  5
BC72
330
BA76
100
AcDbEntity
  8
AM_5
 62
     2
100
AcDbMText
 10
328.4663506040854
 20
210.774018942213
 30
0.0
 40
3.200000000000001
 41
0.0
 71
     5
 72
     1
  1
40
 11
0.0000000000000001
 21
1.0
 31
0.0
 73
     1
 44
1.0
1001
ACAD
1000
MTEXTBEGIN
1070
    73
1070
     1
1070
    44
1040
1.0
1070
    74
1070
     0
1000
MTEXTEND
  0
POINT
  5
BC73
330
BA76
100
AcDbEntity
  8
Defpoints
 62
     0
100
AcDbPoint
 10
306.5663456040852
 20
190.7740174422129
 30
0.0
  0
POINT
  5
BC74
330
BA76
100
AcDbEntity
  8
Defpoints
 62
     0
100
AcDbPoint
 10
306.5663456040852
 20
230.7740204422129
 30
0.0
  0
POINT
  5
BC75
330
BA76
100
AcDbEntity
  8
Defpoints
 62
     0
100
AcDbPoint
 10
331.5663506040855
 20
230.7740204422129
 30
0.0
  0
ENDBLK
  5
BA81
330
BA76
100
AcDbEntity
  8
0
100
AcDbBlockEnd
  0
BLOCK
  5
BA96
330
BA8C
100
AcDbEntity
  8
0
100
AcDbBlockBegin
  2
*D61
 70
     1
 10
0.0
 20
0.0
 30
0.0
  3
*D61
  1

  0
LINE
  5
BC76
330
BA8C
100
AcDbEntity
  8
AM_5
100
AcDbLine
 10
251.5663456040853
 20
190.7740174422129
 30
0.0
 11
241.5663456040851
 21
190.7740174422129
 31
0.0
  0
LINE
  5
BC77
330
BA8C
100
AcDbEntity
  8
AM_5
100
AcDbLine
 10
264.2318469388938
 20
206.2740174422107
 30
0.0
 11
241.5663456040852
 21
206.2740174422107
 31
0.0
  0
LINE
  5
BC78
330
BA8C
100
AcDbEntity
  8
AM_5
100
AcDbLine
 10
242.5663456040851
 20
191.7740174422129
 30
0.0
 11
242.5663456040851
 21
205.2740174422107
 31
0.0
  0
INSERT
  5
BC79
330
BA8C
100
AcDbEntity
  8
AM_5
100
AcDbBlockReference
  2
_Dot
 10
242.5663456040851
 20
190.7740174422129
 30
0.0
 50
270.0
  0
INSERT
  5
BC7A
330
BA8C
100
AcDbEntity
  8
AM_5
100
AcDbBlockReference
  2
_Dot
 10
242.5663456040851
 20
206.2740174422107
 30
0.0
 50
90.0
  0
MTEXT
  5
BC7B
330
BA8C
100
AcDbEntity
  8
AM_5
 62
     2
100
AcDbMText
 10
239.4663456040851
 20
198.5240174422118
 30
0.0
 40
3.200000000000001
 41
0.0
 71
     5
 72
     1
  1
15.5
 11
0.0000000000000001
 21
1.0
 31
0.0
 73
     1
 44
1.0
1001
ACAD
1000
MTEXTBEGIN
1070
    73
1070
     1
1070
    44
1040
1.0
1070
    74
1070
     0
1000
MTEXTEND
  0
POINT
  5
BC7C
330
BA8C
100
AcDbEntity
  8
Defpoints
 62
     0
100
AcDbPoint
 10
252.5663456040852
 20
190.7740174422129
 30
0.0
  0
POINT
  5
BC7D
330
BA8C
100
AcDbEntity
  8
Defpoints
 62
     0
100
AcDbPoint
 10
265.2318469388938
 20
206.2740174422107
 30
0.0
  0
POINT
  5
BC7E
330
BA8C
100
AcDbEntity
  8
Defpoints
 62
     0
100
AcDbPoint
 10
242.5663456040851
 20
206.2740174422107
 30
0.0
  0
ENDBLK
  5
BA97
330
BA8C
100
AcDbEntity
  8
0
100
AcDbBlockEnd
  0
BLOCK
  5
BAAC
330
BAA2
100
AcDbEntity
  8
0
100
AcDbBlockBegin
  2
*D62
 70
     1
 10
0.0
 20
0.0
 30
0.0
  3
*D62
  1

  0
LINE
  5
BC7F
330
BAA2
100
AcDbEntity
  8
AM_5
100
AcDbLine
 10
251.5663456040853
 20
190.7740174422129
 30
0.0
 11
231.5663456040851
 21
190.7740174422129
 31
0.0
  0
LINE
  5
BC80
330
BAA2
100
AcDbEntity
  8
AM_5
100
AcDbLine
 10
264.2318469388939
 20
206.774017442211
 30
0.0
 11
231.5663456040851
 21
206.774017442211
 31
0.0
  0
LINE
  5
BC81
330
BAA2
100
AcDbEntity
  8
AM_5
100
AcDbLine
 10
232.5663456040851
 20
191.7740174422129
 30
0.0
 11
232.5663456040851
 21
205.774017442211
 31
0.0
  0
INSERT
  5
BC82
330
BAA2
100
AcDbEntity
  8
AM_5
100
AcDbBlockReference
  2
_Dot
 10
232.5663456040851
 20
190.7740174422129
 30
0.0
 50
270.0
  0
INSERT
  5
BC83
330
BAA2
100
AcDbEntity
  8
AM_5
100
AcDbBlockReference
  2
_Dot
 10
232.5663456040851
 20
206.774017442211
 30
0.0
 50
90.0
  0
MTEXT
  5
BC84
330
BAA2
100
AcDbEntity
  8
AM_5
 62
     2
100
AcDbMText
 10
229.4663456040851
 20
198.774017442212
 30
0.0
 40
3.200000000000001
 41
0.0
 71
     5
 72
     1
  1
16
 11
0.0000000000000001
 21
1.0
 31
0.0
 73
     1
 44
1.0
1001
ACAD
1000
MTEXTBEGIN
1070
    73
1070
     1
1070
    44
1040
1.0
1070
    74
1070
     0
1000
MTEXTEND
  0
POINT
  5
BC85
330
BAA2
100
AcDbEntity
  8
Defpoints
 62
     0
100
AcDbPoint
 10
252.5663456040852
 20
190.7740174422129
 30
0.0
  0
POINT
  5
BC86
330
BAA2
100
AcDbEntity
  8
Defpoints
 62
     0
100
AcDbPoint
 10
265.2318469388939
 20
206.774017442211
 30
0.0
  0
POINT
  5
BC87
330
BAA2
100
AcDbEntity
  8
Defpoints
 62
     0
100
AcDbPoint
 10
232.5663456040851
 20
206.774017442211
 30
0.0
  0
ENDBLK
  5
BAAD
330
BAA2
100
AcDbEntity
  8
0
100
AcDbBlockEnd
  0
BLOCK
  5
BAC2
330
BAB8
100
AcDbEntity
  8
0
100
AcDbBlockBegin
  2
*D63
 70
     1
 10
0.0
 20
0.0
 30
0.0
  3
*D63
  1

  0
LINE
  5
BC88
330
BAB8
100
AcDbEntity
  8
AM_5
100
AcDbLine
 10
251.5663456040853
 20
230.7740204422129
 30
0.0
 11
241.5663456040852
 21
230.7740204422129
 31
0.0
  0
LINE
  5
BC89
330
BAB8
100
AcDbEntity
  8
AM_5
100
AcDbLine
 10
264.2318467818142
 20
215.2740174422154
 30
0.0
 11
241.5663456040852
 21
215.2740174422154
 31
0.0
  0
LINE
  5
BC8A
330
BAB8
100
AcDbEntity
  8
AM_5
100
AcDbLine
 10
242.5663456040852
 20
229.774020442213
 30
0.0
 11
242.5663456040852
 21
216.2740174422154
 31
0.0
  0
INSERT
  5
BC8B
330
BAB8
100
AcDbEntity
  8
AM_5
100
AcDbBlockReference
  2
_Dot
 10
242.5663456040852
 20
230.7740204422129
 30
0.0
 50
90.0
  0
INSERT
  5
BC8C
330
BAB8
100
AcDbEntity
  8
AM_5
100
AcDbBlockReference
  2
_Dot
 10
242.5663456040852
 20
215.2740174422154
 30
0.0
 50
270.0
  0
MTEXT
  5
BC8D
330
BAB8
100
AcDbEntity
  8
AM_5
 62
     2
100
AcDbMText
 10
239.4663456040851
 20
223.0240189422142
 30
0.0
 40
3.200000000000001
 41
0.0
 71
     5
 72
     1
  1
15.5
 11
0.0000000000000001
 21
1.0
 31
0.0
 73
     1
 44
1.0
1001
ACAD
1000
MTEXTBEGIN
1070
    73
1070
     1
1070
    44
1040
1.0
1070
    74
1070
     0
1000
MTEXTEND
  0
POINT
  5
BC8E
330
BAB8
100
AcDbEntity
  8
Defpoints
 62
     0
100
AcDbPoint
 10
252.5663456040852
 20
230.7740204422129
 30
0.0
  0
POINT
  5
BC8F
330
BAB8
100
AcDbEntity
  8
Defpoints
 62
     0
100
AcDbPoint
 10
265.2318467818142
 20
215.2740174422154
 30
0.0
  0
POINT
  5
BC90
330
BAB8
100
AcDbEntity
  8
Defpoints
 62
     0
100
AcDbPoint
 10
242.5663456040852
 20
215.2740174422154
 30
0.0
  0
ENDBLK
  5
BAC3
330
BAB8
100
AcDbEntity
  8
0
100
AcDbBlockEnd
  0
BLOCK
  5
BAD8
330
BACE
100
AcDbEntity
  8
0
100
AcDbBlockBegin
  2
*D64
 70
     1
 10
0.0
 20
0.0
 30
0.0
  3
*D64
  1

  0
LINE
  5
BC91
330
BACE
100
AcDbEntity
  8
AM_5
100
AcDbLine
 10
251.5663456040853
 20
230.7740204422129
 30
0.0
 11
231.5663456040852
 21
230.7740204422129
 31
0.0
  0
LINE
  5
BC92
330
BACE
100
AcDbEntity
  8
AM_5
100
AcDbLine
 10
264.2318506040853
 20
214.7740174422129
 30
0.0
 11
231.5663456040852
 21
214.7740174422129
 31
0.0
  0
LINE
  5
BC93
330
BACE
100
AcDbEntity
  8
AM_5
100
AcDbLine
 10
232.5663456040852
 20
229.774020442213
 30
0.0
 11
232.5663456040852
 21
215.774017442213
 31
0.0
  0
INSERT
  5
BC94
330
BACE
100
AcDbEntity
  8
AM_5
100
AcDbBlockReference
  2
_Dot
 10
232.5663456040852
 20
230.7740204422129
 30
0.0
 50
90.0
  0
INSERT
  5
BC95
330
BACE
100
AcDbEntity
  8
AM_5
100
AcDbBlockReference
  2
_Dot
 10
232.5663456040852
 20
214.7740174422129
 30
0.0
 50
270.0
  0
MTEXT
  5
BC96
330
BACE
100
AcDbEntity
  8
AM_5
 62
     2
100
AcDbMText
 10
229.4663456040852
 20
222.774018942213
 30
0.0
 40
3.200000000000001
 41
0.0
 71
     5
 72
     1
  1
16
 11
0.0000000000000001
 21
1.0
 31
0.0
 73
     1
 44
1.0
1001
ACAD
1000
MTEXTBEGIN
1070
    73
1070
     1
1070
    44
1040
1.0
1070
    74
1070
     0
1000
MTEXTEND
  0
POINT
  5
BC97
330
BACE
100
AcDbEntity
  8
Defpoints
 62
     0
100
AcDbPoint
 10
252.5663456040852
 20
230.7740204422129
 30
0.0
  0
POINT
  5
BC98
330
BACE
100
AcDbEntity
  8
Defpoints
 62
     0
100
AcDbPoint
 10
265.2318506040852
 20
214.7740174422129
 30
0.0
  0
POINT
  5
BC99
330
BACE
100
AcDbEntity
  8
Defpoints
 62
     0
100
AcDbPoint
 10
232.5663456040852
 20
214.7740174422129
 30
0.0
  0
ENDBLK
  5
BAD9
330
BACE
100
AcDbEntity
  8
0
100
AcDbBlockEnd
  0
BLOCK
  5
BAEE
330
BAE4
100
AcDbEntity
  8
0
100
AcDbBlockBegin
  2
*D65
 70
     1
 10
0.0
 20
0.0
 30
0.0
  3
*D65
  1

  0
LINE
  5
BC9B
330
BAE4
100
AcDbEntity
  8
AM_5
100
AcDbLine
 10
277.5663456040852
 20
145.1538284422129
 30
0.0
 11
277.5663456040852
 21
152.1538284422127
 31
0.0
  0
LINE
  5
BC9C
330
BAE4
100
AcDbEntity
  8
AM_5
100
AcDbLine
 10
306.5663456040852
 20
141.1538284422129
 30
0.0
 11
306.5663456040852
 21
152.1538284422127
 31
0.0
  0
LINE
  5
BC9D
330
BAE4
100
AcDbEntity
  8
AM_5
100
AcDbLine
 10
278.5663456040853
 20
151.1538284422127
 30
0.0
 11
305.5663456040853
 21
151.1538284422127
 31
0.0
  0
INSERT
  5
BC9E
330
BAE4
100
AcDbEntity
  8
AM_5
100
AcDbBlockReference
  2
_Dot
 10
277.5663456040852
 20
151.1538284422127
 30
0.0
 50
180.0
  0
INSERT
  5
BC9F
330
BAE4
100
AcDbEntity
  8
AM_5
100
AcDbBlockReference
  2
_Dot
 10
306.5663456040852
 20
151.1538284422127
 30
0.0
  0
MTEXT
  5
BCA0
330
BAE4
100
AcDbEntity
  8
AM_5
 62
     2
100
AcDbMText
 10
292.0663456040852
 20
154.2538284422127
 30
0.0
 40
3.200000000000001
 41
0.0
 71
     5
 72
     1
  1
29
 73
     1
 44
1.0
1001
ACAD
1000
MTEXTBEGIN
1070
    73
1070
     1
1070
    44
1040
1.0
1070
    74
1070
     0
1000
MTEXTEND
  0
POINT
  5
BCA1
330
BAE4
100
AcDbEntity
  8
Defpoints
 62
     0
100
AcDbPoint
 10
277.5663456040852
 20
144.1538284422129
 30
0.0
  0
POINT
  5
BCA2
330
BAE4
100
AcDbEntity
  8
Defpoints
 62
     0
100
AcDbPoint
 10
306.5663456040852
 20
140.1538284422129
 30
0.0
  0
POINT
  5
BCA3
330
BAE4
100
AcDbEntity
  8
Defpoints
 62
     0
100
AcDbPoint
 10
306.5663456040852
 20
151.1538284422127
 30
0.0
  0
ENDBLK
  5
BAEF
330
BAE4
100
AcDbEntity
  8
0
100
AcDbBlockEnd
  0
BLOCK
  5
BB04
330
BAFA
100
AcDbEntity
  8
0
100
AcDbBlockBegin
  2
*D66
 70
     1
 10
0.0
 20
0.0
 30
0.0
  3
*D66
  1

  0
LINE
  5
BCA4
330
BAFA
100
AcDbEntity
  8
AM_5
100
AcDbLine
 10
277.5663456040852
 20
145.1538284422129
 30
0.0
 11
277.5663456040852
 21
152.1538284422128
 31
0.0
  0
LINE
  5
BCA5
330
BAFA
100
AcDbEntity
  8
AM_5
100
AcDbLine
 10
252.5663456040852
 20
141.1538284422129
 30
0.0
 11
252.5663456040852
 21
152.1538284422128
 31
0.0
  0
LINE
  5
BCA6
330
BAFA
100
AcDbEntity
  8
AM_5
100
AcDbLine
 10
276.5663456040853
 20
151.1538284422128
 30
0.0
 11
253.5663456040853
 21
151.1538284422128
 31
0.0
  0
INSERT
  5
BCA7
330
BAFA
100
AcDbEntity
  8
AM_5
100
AcDbBlockReference
  2
_Dot
 10
277.5663456040852
 20
151.1538284422128
 30
0.0
  0
INSERT
  5
BCA8
330
BAFA
100
AcDbEntity
  8
AM_5
100
AcDbBlockReference
  2
_Dot
 10
252.5663456040852
 20
151.1538284422128
 30
0.0
 50
180.0
  0
MTEXT
  5
BCA9
330
BAFA
100
AcDbEntity
  8
AM_5
 62
     2
100
AcDbMText
 10
265.0663456040852
 20
154.2538284422128
 30
0.0
 40
3.200000000000001
 41
0.0
 71
     5
 72
     1
  1
25
 73
     1
 44
1.0
1001
ACAD
1000
MTEXTBEGIN
1070
    73
1070
     1
1070
    44
1040
1.0
1070
    74
1070
     0
1000
MTEXTEND
  0
POINT
  5
BCAA
330
BAFA
100
AcDbEntity
  8
Defpoints
 62
     0
100
AcDbPoint
 10
277.5663456040852
 20
144.1538284422129
 30
0.0
  0
POINT
  5
BCAB
330
BAFA
100
AcDbEntity
  8
Defpoints
 62
     0
100
AcDbPoint
 10
252.5663456040852
 20
140.1538284422129
 30
0.0
  0
POINT
  5
BCAC
330
BAFA
100
AcDbEntity
  8
Defpoints
 62
     0
100
AcDbPoint
 10
252.5663456040852
 20
151.1538284422128
 30
0.0
  0
ENDBLK
  5
BB05
330
BAFA
100
AcDbEntity
  8
0
100
AcDbBlockEnd
  0
BLOCK
  5
BB1A
330
BB10
100
AcDbEntity
  8
0
100
AcDbBlockBegin
  2
*D67
 70
     1
 10
0.0
 20
0.0
 30
0.0
  3
*D67
  1

  0
LINE
  5
BB1C
330
BB10
100
AcDbEntity
  8
AM_5
100
AcDbLine
 10
252.5663456040852
 20
141.1538284422129
 30
0.0
 11
252.5663456040852
 21
172.1538284422127
 31
0.0
  0
LINE
  5
BB1D
330
BB10
100
AcDbEntity
  8
AM_5
100
AcDbLine
 10
306.5663456040852
 20
141.1538284422129
 30
0.0
 11
306.5663456040852
 21
172.1538284422127
 31
0.0
  0
LINE
  5
BB1E
330
BB10
100
AcDbEntity
  8
AM_5
100
AcDbLine
 10
253.5663456040853
 20
171.1538284422127
 30
0.0
 11
305.5663456040853
 21
171.1538284422127
 31
0.0
  0
INSERT
  5
BB1F
330
BB10
100
AcDbEntity
  8
AM_5
100
AcDbBlockReference
  2
_Dot
 10
252.5663456040852
 20
171.1538284422127
 30
0.0
 50
180.0
  0
INSERT
  5
BB20
330
BB10
100
AcDbEntity
  8
AM_5
100
AcDbBlockReference
  2
_Dot
 10
306.5663456040852
 20
171.1538284422127
 30
0.0
  0
MTEXT
  5
BB21
330
BB10
100
AcDbEntity
  8
AM_5
 62
     2
100
AcDbMText
 10
279.5663456040852
 20
174.2538284422127
 30
0.0
 40
3.200000000000001
 41
0.0
 71
     5
 72
     1
  1
54
 73
     1
 44
1.0
1001
ACAD
1000
MTEXTBEGIN
1070
    73
1070
     1
1070
    44
1040
1.0
1070
    74
1070
     0
1000
MTEXTEND
  0
POINT
  5
BB22
330
BB10
100
AcDbEntity
  8
Defpoints
 62
     0
100
AcDbPoint
 10
252.5663456040852
 20
140.1538284422129
 30
0.0
  0
POINT
  5
BB23
330
BB10
100
AcDbEntity
  8
Defpoints
 62
     0
100
AcDbPoint
 10
306.5663456040852
 20
140.1538284422129
 30
0.0
  0
POINT
  5
BB24
330
BB10
100
AcDbEntity
  8
Defpoints
 62
     0
100
AcDbPoint
 10
306.5663456040852
 20
171.1538284422127
 30
0.0
  0
ENDBLK
  5
BB1B
330
BB10
100
AcDbEntity
  8
0
100
AcDbBlockEnd
  0
BLOCK
  5
BB30
330
BB26
100
AcDbEntity
  8
0
100
AcDbBlockBegin
  2
*D68
 70
     1
 10
0.0
 20
0.0
 30
0.0
  3
*D68
  1

  0
LINE
  5
BB32
330
BB26
100
AcDbEntity
  8
AM_5
100
AcDbLine
 10
252.5663456040852
 20
141.1538284422129
 30
0.0
 11
252.5663456040852
 21
162.1538284422127
 31
0.0
  0
LINE
  5
BB33
330
BB26
100
AcDbEntity
  8
AM_5
100
AcDbLine
 10
306.5663456040852
 20
141.1538284422129
 30
0.0
 11
306.5663456040852
 21
162.1538284422127
 31
0.0
  0
LINE
  5
BB34
330
BB26
100
AcDbEntity
  8
AM_5
100
AcDbLine
 10
253.5663456040853
 20
161.1538284422127
 30
0.0
 11
305.5663456040853
 21
161.1538284422127
 31
0.0
  0
INSERT
  5
BB35
330
BB26
100
AcDbEntity
  8
AM_5
100
AcDbBlockReference
  2
_Dot
 10
252.5663456040852
 20
161.1538284422127
 30
0.0
 50
180.0
  0
INSERT
  5
BB36
330
BB26
100
AcDbEntity
  8
AM_5
100
AcDbBlockReference
  2
_Dot
 10
306.5663456040852
 20
161.1538284422127
 30
0.0
  0
MTEXT
  5
BB37
330
BB26
100
AcDbEntity
  8
AM_5
 62
     2
100
AcDbMText
 10
279.5663456040852
 20
164.2538284422127
 30
0.0
 40
3.200000000000001
 41
0.0
 71
     5
 72
     1
  1
54
 73
     1
 44
1.0
1001
ACAD
1000
MTEXTBEGIN
1070
    73
1070
     1
1070
    44
1040
1.0
1070
    74
1070
     0
1000
MTEXTEND
  0
POINT
  5
BB38
330
BB26
100
AcDbEntity
  8
Defpoints
 62
     0
100
AcDbPoint
 10
252.5663456040852
 20
140.1538284422129
 30
0.0
  0
POINT
  5
BB39
330
BB26
100
AcDbEntity
  8
Defpoints
 62
     0
100
AcDbPoint
 10
306.5663456040852
 20
140.1538284422129
 30
0.0
  0
POINT
  5
BB3A
330
BB26
100
AcDbEntity
  8
Defpoints
 62
     0
100
AcDbPoint
 10
306.5663456040852
 20
161.1538284422127
 30
0.0
  0
ENDBLK
  5
BB31
330
BB26
100
AcDbEntity
  8
0
100
AcDbBlockEnd
  0
BLOCK
  5
BB46
330
BB3C
100
AcDbEntity
  8
0
100
AcDbBlockBegin
  2
*D69
 70
     1
 10
0.0
 20
0.0
 30
0.0
  3
*D69
  1

  0
LINE
  5
BCAE
330
BB3C
100
AcDbEntity
  8
AM_5
100
AcDbLine
 10
306.5663456040852
 20
141.1538284422129
 30
0.0
 11
322.5663506040853
 21
141.1538284422129
 31
0.0
  0
LINE
  5
BCAF
330
BB3C
100
AcDbEntity
  8
AM_5
100
AcDbLine
 10
284.5663456040853
 20
121.1538284422129
 30
0.0
 11
322.5663506040852
 21
121.1538284422129
 31
0.0
  0
LINE
  5
BCB0
330
BB3C
100
AcDbEntity
  8
AM_5
100
AcDbLine
 10
321.5663506040852
 20
140.1538284422129
 30
0.0
 11
321.5663506040852
 21
122.1538284422129
 31
0.0
  0
INSERT
  5
BCB1
330
BB3C
100
AcDbEntity
  8
AM_5
100
AcDbBlockReference
  2
_Dot
 10
321.5663506040852
 20
141.1538284422129
 30
0.0
 50
90.0
  0
INSERT
  5
BCB2
330
BB3C
100
AcDbEntity
  8
AM_5
100
AcDbBlockReference
  2
_Dot
 10
321.5663506040852
 20
121.1538284422129
 30
0.0
 50
270.0
  0
MTEXT
  5
BCB3
330
BB3C
100
AcDbEntity
  8
AM_5
 62
     2
100
AcDbMText
 10
318.4663506040852
 20
131.1538284422129
 30
0.0
 40
3.200000000000001
 41
0.0
 71
     5
 72
     1
  1
20
 11
0.0000000000000001
 21
1.0
 31
0.0
 73
     1
 44
1.0
1001
ACAD
1000
MTEXTBEGIN
1070
    73
1070
     1
1070
    44
1040
1.0
1070
    74
1070
     0
1000
MTEXTEND
  0
POINT
  5
BCB4
330
BB3C
100
AcDbEntity
  8
Defpoints
 62
     0
100
AcDbPoint
 10
305.5663456040853
 20
141.1538284422129
 30
0.0
  0
POINT
  5
BCB5
330
BB3C
100
AcDbEntity
  8
Defpoints
 62
     0
100
AcDbPoint
 10
283.5663456040852
 20
121.1538284422129
 30
0.0
  0
POINT
  5
BCB6
330
BB3C
100
AcDbEntity
  8
Defpoints
 62
     0
100
AcDbPoint
 10
321.5663506040852
 20
121.1538284422129
 30
0.0
  0
ENDBLK
  5
BB47
330
BB3C
100
AcDbEntity
  8
0
100
AcDbBlockEnd
  0
BLOCK
  5
BB5C
330
BB52
100
AcDbEntity
  8
0
100
AcDbBlockBegin
  2
*D70
 70
     1
 10
0.0
 20
0.0
 30
0.0
  3
*D70
  1

  0
LINE
  5
BCC1
330
BB52
100
AcDbEntity
  8
AM_5
100
AcDbLine
 10
284.5663456040853
 20
121.1538284422129
 30
0.0
 11
322.5663506040853
 21
121.1538284422129
 31
0.0
  0
LINE
  5
BCC2
330
BB52
100
AcDbEntity
  8
AM_5
100
AcDbLine
 10
284.5663456040853
 20
81.15382844221292
 30
0.0
 11
322.5663506040853
 21
81.15382844221292
 31
0.0
  0
LINE
  5
BCC3
330
BB52
100
AcDbEntity
  8
AM_5
100
AcDbLine
 10
321.5663506040852
 20
120.1538284422129
 30
0.0
 11
321.5663506040852
 21
82.15382844221291
 31
0.0
  0
INSERT
  5
BCC4
330
BB52
100
AcDbEntity
  8
AM_5
100
AcDbBlockReference
  2
_Dot
 10
321.5663506040852
 20
121.1538284422129
 30
0.0
 50
90.0
  0
INSERT
  5
BCC5
330
BB52
100
AcDbEntity
  8
AM_5
100
AcDbBlockReference
  2
_Dot
 10
321.5663506040852
 20
81.15382844221292
 30
0.0
 50
270.0
  0
MTEXT
  5
BCC6
330
BB52
100
AcDbEntity
  8
AM_5
 62
     2
100
AcDbMText
 10
318.4663506040852
 20
101.1538284422129
 30
0.0
 40
3.200000000000001
 41
0.0
 71
     5
 72
     1
  1
40
 11
0.0000000000000001
 21
1.0
 31
0.0
 73
     1
 44
1.0
1001
ACAD
1000
MTEXTBEGIN
1070
    73
1070
     1
1070
    44
1040
1.0
1070
    74
1070
     0
1000
MTEXTEND
  0
POINT
  5
BCC7
330
BB52
100
AcDbEntity
  8
Defpoints
 62
     0
100
AcDbPoint
 10
283.5663456040852
 20
121.1538284422129
 30
0.0
  0
POINT
  5
BCC8
330
BB52
100
AcDbEntity
  8
Defpoints
 62
     0
100
AcDbPoint
 10
283.5663456040852
 20
81.15382844221292
 30
0.0
  0
POINT
  5
BCC9
330
BB52
100
AcDbEntity
  8
Defpoints
 62
     0
100
AcDbPoint
 10
321.5663506040852
 20
81.15382844221292
 30
0.0
  0
ENDBLK
  5
BB5D
330
BB52
100
AcDbEntity
  8
0
100
AcDbBlockEnd
  0
BLOCK
  5
BB72
330
BB68
100
AcDbEntity
  8
0
100
AcDbBlockBegin
  2
*D71
 70
     1
 10
0.0
 20
0.0
 30
0.0
  3
*D71
  1

  0
LINE
  5
BCCA
330
BB68
100
AcDbEntity
  8
AM_5
100
AcDbLine
 10
284.5663456040853
 20
81.15382844221292
 30
0.0
 11
322.5663506040853
 21
81.15382844221292
 31
0.0
  0
LINE
  5
BCCB
330
BB68
100
AcDbEntity
  8
AM_5
100
AcDbLine
 10
306.5663456040852
 20
61.15382844221293
 30
0.0
 11
322.5663506040853
 21
61.15382844221293
 31
0.0
  0
LINE
  5
BCCC
330
BB68
100
AcDbEntity
  8
AM_5
100
AcDbLine
 10
321.5663506040852
 20
80.1538284422129
 30
0.0
 11
321.5663506040852
 21
62.15382844221292
 31
0.0
  0
INSERT
  5
BCCD
330
BB68
100
AcDbEntity
  8
AM_5
100
AcDbBlockReference
  2
_Dot
 10
321.5663506040852
 20
81.15382844221292
 30
0.0
 50
90.0
  0
INSERT
  5
BCCE
330
BB68
100
AcDbEntity
  8
AM_5
100
AcDbBlockReference
  2
_Dot
 10
321.5663506040852
 20
61.15382844221293
 30
0.0
 50
270.0
  0
MTEXT
  5
BCCF
330
BB68
100
AcDbEntity
  8
AM_5
 62
     2
100
AcDbMText
 10
318.4663506040852
 20
71.15382844221297
 30
0.0
 40
3.200000000000001
 41
0.0
 71
     5
 72
     1
  1
20
 11
0.0000000000000001
 21
1.0
 31
0.0
 73
     1
 44
1.0
1001
ACAD
1000
MTEXTBEGIN
1070
    73
1070
     1
1070
    44
1040
1.0
1070
    74
1070
     0
1000
MTEXTEND
  0
POINT
  5
BCD0
330
BB68
100
AcDbEntity
  8
Defpoints
 62
     0
100
AcDbPoint
 10
283.5663456040852
 20
81.15382844221292
 30
0.0
  0
POINT
  5
BCD1
330
BB68
100
AcDbEntity
  8
Defpoints
 62
     0
100
AcDbPoint
 10
305.5663456040853
 20
61.15382844221293
 30
0.0
  0
POINT
  5
BCD2
330
BB68
100
AcDbEntity
  8
Defpoints
 62
     0
100
AcDbPoint
 10
321.5663506040852
 20
61.15382844221293
 30
0.0
  0
ENDBLK
  5
BB73
330
BB68
100
AcDbEntity
  8
0
100
AcDbBlockEnd
  0
BLOCK
  5
BB88
330
BB7E
100
AcDbEntity
  8
0
100
AcDbBlockBegin
  2
*D72
 70
     1
 10
0.0
 20
0.0
 30
0.0
  3
*D72
  1

  0
LINE
  5
BB8A
330
BB7E
100
AcDbEntity
  8
AM_5
100
AcDbLine
 10
306.5663456040852
 20
61.15382844221293
 30
0.0
 11
332.5663506040852
 21
61.15382844221293
 31
0.0
  0
LINE
  5
BB8B
330
BB7E
100
AcDbEntity
  8
AM_5
100
AcDbLine
 10
306.5663456040852
 20
141.1538284422129
 30
0.0
 11
332.5663506040853
 21
141.1538284422129
 31
0.0
  0
LINE
  5
BB8C
330
BB7E
100
AcDbEntity
  8
AM_5
100
AcDbLine
 10
331.5663506040853
 20
62.15382844221292
 30
0.0
 11
331.5663506040853
 21
140.1538284422129
 31
0.0
  0
INSERT
  5
BB8D
330
BB7E
100
AcDbEntity
  8
AM_5
100
AcDbBlockReference
  2
_Dot
 10
331.5663506040853
 20
61.15382844221293
 30
0.0
 50
270.0
  0
INSERT
  5
BB8E
330
BB7E
100
AcDbEntity
  8
AM_5
100
AcDbBlockReference
  2
_Dot
 10
331.5663506040853
 20
141.1538284422129
 30
0.0
 50
90.0
  0
MTEXT
  5
BB8F
330
BB7E
100
AcDbEntity
  8
AM_5
 62
     2
100
AcDbMText
 10
328.4663506040852
 20
101.1538284422129
 30
0.0
 40
3.200000000000001
 41
0.0
 71
     5
 72
     1
  1
80
 11
0.0000000000000001
 21
1.0
 31
0.0
 73
     1
 44
1.0
1001
ACAD
1000
MTEXTBEGIN
1070
    73
1070
     1
1070
    44
1040
1.0
1070
    74
1070
     0
1000
MTEXTEND
  0
POINT
  5
BB90
330
BB7E
100
AcDbEntity
  8
Defpoints
 62
     0
100
AcDbPoint
 10
305.5663456040853
 20
61.15382844221293
 30
0.0
  0
POINT
  5
BB91
330
BB7E
100
AcDbEntity
  8
Defpoints
 62
     0
100
AcDbPoint
 10
305.5663456040853
 20
141.1538284422129
 30
0.0
  0
POINT
  5
BB92
330
BB7E
100
AcDbEntity
  8
Defpoints
 62
     0
100
AcDbPoint
 10
331.5663506040853
 20
141.1538284422129
 30
0.0
  0
ENDBLK
  5
BB89
330
BB7E
100
AcDbEntity
  8
0
100
AcDbBlockEnd
  0
BLOCK
  5
BB9E
330
BB94
100
AcDbEntity
  8
0
100
AcDbBlockBegin
  2
*D73
 70
     1
 10
0.0
 20
0.0
 30
0.0
  3
*D73
  1

  0
LINE
  5
BBA0
330
BB94
100
AcDbEntity
  8
AM_5
100
AcDbLine
 10
252.5663456040852
 20
141.1538284422129
 30
0.0
 11
241.5663456040852
 21
141.1538284422129
 31
0.0
  0
LINE
  5
BBA1
330
BB94
100
AcDbEntity
  8
AM_5
100
AcDbLine
 10
270.5663456040853
 20
131.1538284422129
 30
0.0
 11
241.5663456040852
 21
131.1538284422129
 31
0.0
  0
LINE
  5
BBA2
330
BB94
100
AcDbEntity
  8
AM_5
100
AcDbLine
 10
242.5663456040852
 20
140.1538284422129
 30
0.0
 11
242.5663456040852
 21
132.1538284422129
 31
0.0
  0
INSERT
  5
BBA3
330
BB94
100
AcDbEntity
  8
AM_5
100
AcDbBlockReference
  2
_Dot
 10
242.5663456040852
 20
141.1538284422129
 30
0.0
 50
90.0
  0
INSERT
  5
BBA4
330
BB94
100
AcDbEntity
  8
AM_5
100
AcDbBlockReference
  2
_Dot
 10
242.5663456040852
 20
131.1538284422129
 30
0.0
 50
270.0
  0
MTEXT
  5
BBA5
330
BB94
100
AcDbEntity
  8
AM_5
 62
     2
100
AcDbMText
 10
239.4663456040852
 20
136.1538284422129
 30
0.0
 40
3.200000000000001
 41
0.0
 71
     5
 72
     1
  1
10
 11
0.0000000000000001
 21
1.0
 31
0.0
 73
     1
 44
1.0
1001
ACAD
1000
MTEXTBEGIN
1070
    73
1070
     1
1070
    44
1040
1.0
1070
    74
1070
     0
1000
MTEXTEND
  0
POINT
  5
BBA6
330
BB94
100
AcDbEntity
  8
Defpoints
 62
     0
100
AcDbPoint
 10
253.5663456040853
 20
141.1538284422129
 30
0.0
  0
POINT
  5
BBA7
330
BB94
100
AcDbEntity
  8
Defpoints
 62
     0
100
AcDbPoint
 10
271.5663456040853
 20
131.1538284422129
 30
0.0
  0
POINT
  5
BBA8
330
BB94
100
AcDbEntity
  8
Defpoints
 62
     0
100
AcDbPoint
 10
242.5663456040852
 20
131.1538284422129
 30
0.0
  0
ENDBLK
  5
BB9F
330
BB94
100
AcDbEntity
  8
0
100
AcDbBlockEnd
  0
BLOCK
  5
BBB4
330
BBAA
100
AcDbEntity
  8
0
100
AcDbBlockBegin
  2
*D74
 70
     1
 10
0.0
 20
0.0
 30
0.0
  3
*D74
  1

  0
LINE
  5
BBB6
330
BBAA
100
AcDbEntity
  8
AM_5
100
AcDbLine
 10
270.5663456040853
 20
131.1538284422129
 30
0.0
 11
241.5663456040852
 21
131.1538284422129
 31
0.0
  0
LINE
  5
BBB7
330
BBAA
100
AcDbEntity
  8
AM_5
100
AcDbLine
 10
270.5663456040853
 20
71.15382844221293
 30
0.0
 11
241.5663456040852
 21
71.15382844221293
 31
0.0
  0
LINE
  5
BBB8
330
BBAA
100
AcDbEntity
  8
AM_5
100
AcDbLine
 10
242.5663456040852
 20
130.1538284422129
 30
0.0
 11
242.5663456040852
 21
72.15382844221292
 31
0.0
  0
INSERT
  5
BBB9
330
BBAA
100
AcDbEntity
  8
AM_5
100
AcDbBlockReference
  2
_Dot
 10
242.5663456040852
 20
131.1538284422129
 30
0.0
 50
90.0
  0
INSERT
  5
BBBA
330
BBAA
100
AcDbEntity
  8
AM_5
100
AcDbBlockReference
  2
_Dot
 10
242.5663456040852
 20
71.15382844221293
 30
0.0
 50
270.0
  0
MTEXT
  5
BBBB
330
BBAA
100
AcDbEntity
  8
AM_5
 62
     2
100
AcDbMText
 10
239.4663456040852
 20
101.1538284422129
 30
0.0
 40
3.200000000000001
 41
0.0
 71
     5
 72
     1
  1
60
 11
0.0000000000000001
 21
1.0
 31
0.0
 73
     1
 44
1.0
1001
ACAD
1000
MTEXTBEGIN
1070
    73
1070
     1
1070
    44
1040
1.0
1070
    74
1070
     0
1000
MTEXTEND
  0
POINT
  5
BBBC
330
BBAA
100
AcDbEntity
  8
Defpoints
 62
     0
100
AcDbPoint
 10
271.5663456040853
 20
131.1538284422129
 30
0.0
  0
POINT
  5
BBBD
330
BBAA
100
AcDbEntity
  8
Defpoints
 62
     0
100
AcDbPoint
 10
271.5663456040853
 20
71.15382844221293
 30
0.0
  0
POINT
  5
BBBE
330
BBAA
100
AcDbEntity
  8
Defpoints
 62
     0
100
AcDbPoint
 10
242.5663456040852
 20
71.15382844221293
 30
0.0
  0
ENDBLK
  5
BBB5
330
BBAA
100
AcDbEntity
  8
0
100
AcDbBlockEnd
  0
BLOCK
  5
BBCA
330
BBC0
100
AcDbEntity
  8
0
100
AcDbBlockBegin
  2
*D75
 70
     1
 10
0.0
 20
0.0
 30
0.0
  3
*D75
  1

  0
LINE
  5
BBCC
330
BBC0
100
AcDbEntity
  8
AM_5
100
AcDbLine
 10
270.5663456040853
 20
71.15382844221293
 30
0.0
 11
241.5663456040852
 21
71.15382844221293
 31
0.0
  0
LINE
  5
BBCD
330
BBC0
100
AcDbEntity
  8
AM_5
100
AcDbLine
 10
252.5663456040852
 20
61.15382844221293
 30
0.0
 11
241.5663456040852
 21
61.15382844221293
 31
0.0
  0
LINE
  5
BBCE
330
BBC0
100
AcDbEntity
  8
AM_5
100
AcDbLine
 10
242.5663456040852
 20
70.15382844221292
 30
0.0
 11
242.5663456040852
 21
62.15382844221292
 31
0.0
  0
INSERT
  5
BBCF
330
BBC0
100
AcDbEntity
  8
AM_5
100
AcDbBlockReference
  2
_Dot
 10
242.5663456040852
 20
71.15382844221293
 30
0.0
 50
90.0
  0
INSERT
  5
BBD0
330
BBC0
100
AcDbEntity
  8
AM_5
100
AcDbBlockReference
  2
_Dot
 10
242.5663456040852
 20
61.15382844221293
 30
0.0
 50
270.0
  0
MTEXT
  5
BBD1
330
BBC0
100
AcDbEntity
  8
AM_5
 62
     2
100
AcDbMText
 10
239.4663456040852
 20
66.15382844221297
 30
0.0
 40
3.200000000000001
 41
0.0
 71
     5
 72
     1
  1
10
 11
0.0000000000000001
 21
1.0
 31
0.0
 73
     1
 44
1.0
1001
ACAD
1000
MTEXTBEGIN
1070
    73
1070
     1
1070
    44
1040
1.0
1070
    74
1070
     0
1000
MTEXTEND
  0
POINT
  5
BBD2
330
BBC0
100
AcDbEntity
  8
Defpoints
 62
     0
100
AcDbPoint
 10
271.5663456040853
 20
71.15382844221293
 30
0.0
  0
POINT
  5
BBD3
330
BBC0
100
AcDbEntity
  8
Defpoints
 62
     0
100
AcDbPoint
 10
253.5663456040853
 20
61.15382844221293
 30
0.0
  0
POINT
  5
BBD4
330
BBC0
100
AcDbEntity
  8
Defpoints
 62
     0
100
AcDbPoint
 10
242.5663456040852
 20
61.15382844221293
 30
0.0
  0
ENDBLK
  5
BBCB
330
BBC0
100
AcDbEntity
  8
0
100
AcDbBlockEnd
  0
BLOCK
  5
BBE0
330
BBD6
100
AcDbEntity
  8
0
100
AcDbBlockBegin
  2
*D76
 70
     1
 10
0.0
 20
0.0
 30
0.0
  3
*D76
  1

  0
LINE
  5
BBE2
330
BBD6
100
AcDbEntity
  8
AM_5
100
AcDbLine
 10
252.5663456040852
 20
61.15382844221293
 30
0.0
 11
252.5663456040852
 21
45.15382844221325
 31
0.0
  0
LINE
  5
BBE3
330
BBD6
100
AcDbEntity
  8
AM_5
100
AcDbLine
 10
271.5663456040853
 20
70.15382844221292
 30
0.0
 11
271.5663456040853
 21
45.15382844221325
 31
0.0
  0
LINE
  5
BBE4
330
BBD6
100
AcDbEntity
  8
AM_5
100
AcDbLine
 10
253.5663456040853
 20
46.15382844221325
 30
0.0
 11
270.5663456040853
 21
46.15382844221325
 31
0.0
  0
INSERT
  5
BBE5
330
BBD6
100
AcDbEntity
  8
AM_5
100
AcDbBlockReference
  2
_Dot
 10
252.5663456040852
 20
46.15382844221325
 30
0.0
 50
180.0
  0
INSERT
  5
BBE6
330
BBD6
100
AcDbEntity
  8
AM_5
100
AcDbBlockReference
  2
_Dot
 10
271.5663456040853
 20
46.15382844221325
 30
0.0
  0
MTEXT
  5
BBE7
330
BBD6
100
AcDbEntity
  8
AM_5
 62
     2
100
AcDbMText
 10
262.0663456040853
 20
49.25382844221325
 30
0.0
 40
3.200000000000001
 41
0.0
 71
     5
 72
     1
  1
19
 73
     1
 44
1.0
1001
ACAD
1000
MTEXTBEGIN
1070
    73
1070
     1
1070
    44
1040
1.0
1070
    74
1070
     0
1000
MTEXTEND
  0
POINT
  5
BBE8
330
BBD6
100
AcDbEntity
  8
Defpoints
 62
     0
100
AcDbPoint
 10
252.5663456040852
 20
62.15382844221292
 30
0.0
  0
POINT
  5
BBE9
330
BBD6
100
AcDbEntity
  8
Defpoints
 62
     0
100
AcDbPoint
 10
271.5663456040853
 20
71.15382844221293
 30
0.0
  0
POINT
  5
BBEA
330
BBD6
100
AcDbEntity
  8
Defpoints
 62
     0
100
AcDbPoint
 10
271.5663456040853
 20
46.15382844221325
 30
0.0
  0
ENDBLK
  5
BBE1
330
BBD6
100
AcDbEntity
  8
0
100
AcDbBlockEnd
  0
BLOCK
  5
BBF6
330
BBEC
100
AcDbEntity
  8
0
100
AcDbBlockBegin
  2
*D77
 70
     1
 10
0.0
 20
0.0
 30
0.0
  3
*D77
  1

  0
LINE
  5
BBF8
330
BBEC
100
AcDbEntity
  8
AM_5
100
AcDbLine
 10
271.5663456040853
 20
70.15382844221292
 30
0.0
 11
271.5663456040853
 21
45.15382844221329
 31
0.0
  0
LINE
  5
BBF9
330
BBEC
100
AcDbEntity
  8
AM_5
100
AcDbLine
 10
296.5663456040853
 20
70.15382844221292
 30
0.0
 11
296.5663456040853
 21
45.15382844221329
 31
0.0
  0
LINE
  5
BBFA
330
BBEC
100
AcDbEntity
  8
AM_5
100
AcDbLine
 10
272.5663456040853
 20
46.15382844221329
 30
0.0
 11
295.5663456040852
 21
46.15382844221329
 31
0.0
  0
INSERT
  5
BBFB
330
BBEC
100
AcDbEntity
  8
AM_5
100
AcDbBlockReference
  2
_Dot
 10
271.5663456040853
 20
46.15382844221329
 30
0.0
 50
180.0
  0
INSERT
  5
BBFC
330
BBEC
100
AcDbEntity
  8
AM_5
100
AcDbBlockReference
  2
_Dot
 10
296.5663456040853
 20
46.15382844221329
 30
0.0
  0
MTEXT
  5
BBFD
330
BBEC
100
AcDbEntity
  8
AM_5
 62
     2
100
AcDbMText
 10
284.0663456040853
 20
49.2538284422133
 30
0.0
 40
3.200000000000001
 41
0.0
 71
     5
 72
     1
  1
25
 73
     1
 44
1.0
1001
ACAD
1000
MTEXTBEGIN
1070
    73
1070
     1
1070
    44
1040
1.0
1070
    74
1070
     0
1000
MTEXTEND
  0
POINT
  5
BBFE
330
BBEC
100
AcDbEntity
  8
Defpoints
 62
     0
100
AcDbPoint
 10
271.5663456040853
 20
71.15382844221293
 30
0.0
  0
POINT
  5
BBFF
330
BBEC
100
AcDbEntity
  8
Defpoints
 62
     0
100
AcDbPoint
 10
296.5663456040853
 20
71.15382844221293
 30
0.0
  0
POINT
  5
BC00
330
BBEC
100
AcDbEntity
  8
Defpoints
 62
     0
100
AcDbPoint
 10
296.5663456040853
 20
46.15382844221329
 30
0.0
  0
ENDBLK
  5
BBF7
330
BBEC
100
AcDbEntity
  8
0
100
AcDbBlockEnd
  0
BLOCK
  5
BC0C
330
BC02
100
AcDbEntity
  8
0
100
AcDbBlockBegin
  2
*D78
 70
     1
 10
0.0
 20
0.0
 30
0.0
  3
*D78
  1

  0
LINE
  5
BC0E
330
BC02
100
AcDbEntity
  8
AM_5
100
AcDbLine
 10
296.5663456040853
 20
70.15382844221292
 30
0.0
 11
296.5663456040853
 21
45.1538284422133
 31
0.0
  0
LINE
  5
BC0F
330
BC02
100
AcDbEntity
  8
AM_5
100
AcDbLine
 10
306.5663456040852
 20
61.15382844221293
 30
0.0
 11
306.5663456040852
 21
45.1538284422133
 31
0.0
  0
LINE
  5
BC10
330
BC02
100
AcDbEntity
  8
AM_5
100
AcDbLine
 10
297.5663456040853
 20
46.1538284422133
 30
0.0
 11
305.5663456040853
 21
46.1538284422133
 31
0.0
  0
INSERT
  5
BC11
330
BC02
100
AcDbEntity
  8
AM_5
100
AcDbBlockReference
  2
_Dot
 10
296.5663456040853
 20
46.1538284422133
 30
0.0
 50
180.0
  0
INSERT
  5
BC12
330
BC02
100
AcDbEntity
  8
AM_5
100
AcDbBlockReference
  2
_Dot
 10
306.5663456040852
 20
46.1538284422133
 30
0.0
  0
MTEXT
  5
BC13
330
BC02
100
AcDbEntity
  8
AM_5
 62
     2
100
AcDbMText
 10
301.5663456040853
 20
49.2538284422133
 30
0.0
 40
3.200000000000001
 41
0.0
 71
     5
 72
     1
  1
10
 73
     1
 44
1.0
1001
ACAD
1000
MTEXTBEGIN
1070
    73
1070
     1
1070
    44
1040
1.0
1070
    74
1070
     0
1000
MTEXTEND
  0
POINT
  5
BC14
330
BC02
100
AcDbEntity
  8
Defpoints
 62
     0
100
AcDbPoint
 10
296.5663456040853
 20
71.15382844221293
 30
0.0
  0
POINT
  5
BC15
330
BC02
100
AcDbEntity
  8
Defpoints
 62
     0
100
AcDbPoint
 10
306.5663456040852
 20
62.15382844221292
 30
0.0
  0
POINT
  5
BC16
330
BC02
100
AcDbEntity
  8
Defpoints
 62
     0
100
AcDbPoint
 10
306.5663456040852
 20
46.1538284422133
 30
0.0
  0
ENDBLK
  5
BC0D
330
BC02
100
AcDbEntity
  8
0
100
AcDbBlockEnd
  0
BLOCK
  5
BC22
330
BC18
100
AcDbEntity
  8
0
100
AcDbBlockBegin
  2
*D79
 70
     1
 10
0.0
 20
0.0
 30
0.0
  3
*D79
  1

  0
LINE
  5
BC24
330
BC18
100
AcDbEntity
  8
AM_5
100
AcDbLine
 10
193.2554076040852
 20
137.6023374422129
 30
0.0
 11
193.2554076040852
 21
147.6023374422128
 31
0.0
  0
LINE
  5
BC25
330
BC18
100
AcDbEntity
  8
AM_5
100
AcDbLine
 10
145.2554096040852
 20
137.6023374422129
 30
0.0
 11
145.2554096040852
 21
147.6023374422128
 31
0.0
  0
LINE
  5
BC26
330
BC18
100
AcDbEntity
  8
AM_5
100
AcDbLine
 10
192.2554076040852
 20
146.6023374422128
 30
0.0
 11
146.2554096040852
 21
146.6023374422128
 31
0.0
  0
INSERT
  5
BC27
330
BC18
100
AcDbEntity
  8
AM_5
100
AcDbBlockReference
  2
_Dot
 10
193.2554076040852
 20
146.6023374422128
 30
0.0
  0
INSERT
  5
BC28
330
BC18
100
AcDbEntity
  8
AM_5
100
AcDbBlockReference
  2
_Dot
 10
145.2554096040852
 20
146.6023374422128
 30
0.0
 50
180.0
  0
MTEXT
  5
BC29
330
BC18
100
AcDbEntity
  8
AM_5
 62
     2
100
AcDbMText
 10
169.2554086040852
 20
149.7023374422128
 30
0.0
 40
3.200000000000001
 41
0.0
 71
     5
 72
     1
  1
48
 73
     1
 44
1.0
1001
ACAD
1000
MTEXTBEGIN
1070
    73
1070
     1
1070
    44
1040
1.0
1070
    74
1070
     0
1000
MTEXTEND
  0
POINT
  5
BC2A
330
BC18
100
AcDbEntity
  8
Defpoints
 62
     0
100
AcDbPoint
 10
193.2554076040852
 20
136.6023374422129
 30
0.0
  0
POINT
  5
BC2B
330
BC18
100
AcDbEntity
  8
Defpoints
 62
     0
100
AcDbPoint
 10
145.2554096040852
 20
136.6023374422129
 30
0.0
  0
POINT
  5
BC2C
330
BC18
100
AcDbEntity
  8
Defpoints
 62
     0
100
AcDbPoint
 10
145.2554096040852
 20
146.6023374422128
 30
0.0
  0
ENDBLK
  5
BC23
330
BC18
100
AcDbEntity
  8
0
100
AcDbBlockEnd
  0
BLOCK
  5
BC38
330
BC2E
100
AcDbEntity
  8
0
100
AcDbBlockBegin
  2
*D80
 70
     1
 10
0.0
 20
0.0
 30
0.0
  3
*D80
  1

  0
LINE
  5
BC3A
330
BC2E
100
AcDbEntity
  8
AM_5
100
AcDbLine
 10
144.2554096040852
 20
136.6023374422129
 30
0.0
 11
134.2554096040852
 21
136.6023374422129
 31
0.0
  0
LINE
  5
BC3B
330
BC2E
100
AcDbEntity
  8
AM_5
100
AcDbLine
 10
144.2554096040852
 20
66.60233744221293
 30
0.0
 11
134.2554096040852
 21
66.60233744221293
 31
0.0
  0
LINE
  5
BC3C
330
BC2E
100
AcDbEntity
  8
AM_5
100
AcDbLine
 10
135.2554096040852
 20
135.6023374422129
 30
0.0
 11
135.2554096040852
 21
67.60233744221292
 31
0.0
  0
INSERT
  5
BC3D
330
BC2E
100
AcDbEntity
  8
AM_5
100
AcDbBlockReference
  2
_Dot
 10
135.2554096040852
 20
136.6023374422129
 30
0.0
 50
90.0
  0
INSERT
  5
BC3E
330
BC2E
100
AcDbEntity
  8
AM_5
100
AcDbBlockReference
  2
_Dot
 10
135.2554096040852
 20
66.60233744221293
 30
0.0
 50
270.0
  0
MTEXT
  5
BC3F
330
BC2E
100
AcDbEntity
  8
AM_5
 62
     2
100
AcDbMText
 10
132.1554096040852
 20
101.6023374422129
 30
0.0
 40
3.200000000000001
 41
0.0
 71
     5
 72
     1
  1
70
 11
0.0000000000000001
 21
1.0
 31
0.0
 73
     1
 44
1.0
1001
ACAD
1000
MTEXTBEGIN
1070
    73
1070
     1
1070
    44
1040
1.0
1070
    74
1070
     0
1000
MTEXTEND
  0
POINT
  5
BC40
330
BC2E
100
AcDbEntity
  8
Defpoints
 62
     0
100
AcDbPoint
 10
145.2554096040852
 20
136.6023374422129
 30
0.0
  0
POINT
  5
BC41
330
BC2E
100
AcDbEntity
  8
Defpoints
 62
     0
100
AcDbPoint
 10
145.2554096040852
 20
66.60233744221293
 30
0.0
  0
POINT
  5
BC42
330
BC2E
100
AcDbEntity
  8
Defpoints
 62
     0
100
AcDbPoint
 10
135.2554096040852
 20
66.60233744221293
 30
0.0
  0
ENDBLK
  5
BC39
330
BC2E
100
AcDbEntity
  8
0
100
AcDbBlockEnd
  0
ENDSEC
  0
SECTION
  2
ENTITIES
  0
LINE
  5
B759
330
1F
100
AcDbEntity
  8
waku
100
AcDbLine
 10
381.0000006040852
 20
273.0000004422129
 30
0.0
 11
381.0000006040852
 21
0.0000004422129223
 31
0.0
  0
LINE
  5
B75A
330
1F
100
AcDbEntity
  8
waku
100
AcDbLine
 10
0.000000604085244
 20
0.0000004422129223
 30
0.0
 11
381.0000006040852
 21
0.0000004422129223
 31
0.0
  0
LINE
  5
B75B
330
1F
100
AcDbEntity
  8
waku
100
AcDbLine
 10
0.000000604085244
 20
273.0000004422129
 30
0.0
 11
381.0000006040852
 21
273.0000004422129
 31
0.0
  0
LINE
  5
B75C
330
1F
100
AcDbEntity
  8
waku
100
AcDbLine
 10
0.000000604085244
 20
273.0000004422129
 30
0.0
 11
0.000000604085244
 21
0.0000004422129223
 31
0.0
  0
LINE
  5
B75D
330
1F
100
AcDbEntity
  8
AM_2
100
AcDbLine
 10
20.00000060408524
 20
273.0000004422129
 30
0.0
 11
20.00000060408524
 21
177.0000004422129
 31
0.0
  0
LINE
  5
B75E
330
1F
100
AcDbEntity
  8
AM_2
100
AcDbLine
 10
0.000000604085244
 20
265.0000004422129
 30
0.0
 11
110.0000006040852
 21
265.0000004422129
 31
0.0
  0
LINE
  5
B75F
330
1F
100
AcDbEntity
  8
AM_2
100
AcDbLine
 10
0.000000604085244
 20
257.0000004422129
 30
0.0
 11
110.0000006040852
 21
257.0000004422129
 31
0.0
  0
LINE
  5
B760
330
1F
100
AcDbEntity
  8
AM_2
100
AcDbLine
 10
0.000000604085244
 20
249.0000004422129
 30
0.0
 11
110.0000006040852
 21
249.0000004422129
 31
0.0
  0
LINE
  5
B761
330
1F
100
AcDbEntity
  8
AM_2
100
AcDbLine
 10
0.000000604085244
 20
241.0000004422129
 30
0.0
 11
110.0000006040852
 21
241.0000004422129
 31
0.0
  0
LINE
  5
B762
330
1F
100
AcDbEntity
  8
AM_2
100
AcDbLine
 10
20.00000060408524
 20
217.0000004422129
 30
0.0
 11
110.0000006040852
 21
217.0000004422129
 31
0.0
  0
LINE
  5
B763
330
1F
100
AcDbEntity
  8
AM_2
100
AcDbLine
 10
20.00000060408524
 20
209.0000004422129
 30
0.0
 11
110.0000006040852
 21
209.0000004422129
 31
0.0
  0
LINE
  5
B764
330
1F
100
AcDbEntity
  8
AM_2
100
AcDbLine
 10
0.000000604085244
 20
201.0000004422129
 30
0.0
 11
110.0000006040852
 21
201.0000004422129
 31
0.0
  0
LINE
  5
B765
330
1F
100
AcDbEntity
  8
AM_2
100
AcDbLine
 10
20.00000060408524
 20
193.0000004422129
 30
0.0
 11
110.0000006040852
 21
193.0000004422129
 31
0.0
  0
LINE
  5
B766
330
1F
100
AcDbEntity
  8
AM_2
100
AcDbLine
 10
20.00000060408524
 20
185.0000004422129
 30
0.0
 11
110.0000006040852
 21
185.0000004422129
 31
0.0
  0
LINE
  5
B767
330
1F
100
AcDbEntity
  8
AM_2
100
AcDbLine
 10
0.000000604085244
 20
177.0000004422129
 30
0.0
 11
110.0000006040852
 21
177.0000004422129
 31
0.0
  0
LINE
  5
B768
330
1F
100
AcDbEntity
  8
AM_2
100
AcDbLine
 10
0.000000604085244
 20
273.0000004422129
 30
0.0
 11
0.000000604085244
 21
177.0000004422129
 31
0.0
  0
LINE
  5
B769
330
1F
100
AcDbEntity
  8
AM_2
100
AcDbLine
 10
0.000000604085244
 20
273.0000004422129
 30
0.0
 11
110.0000006040852
 21
273.0000004422129
 31
0.0
  0
LINE
  5
B76A
330
1F
100
AcDbEntity
  8
AM_2
100
AcDbLine
 10
110.0000006040852
 20
273.0000004422129
 30
0.0
 11
110.0000006040852
 21
177.0000004422129
 31
0.0
  0
LINE
  5
B76B
330
1F
100
AcDbEntity
  8
AM_2
100
AcDbLine
 10
0.000000604085244
 20
233.0000004422129
 30
0.0
 11
110.0000006040852
 21
233.0000004422129
 31
0.0
  0
LINE
  5
B76C
330
1F
100
AcDbEntity
  8
AM_2
100
AcDbLine
 10
0.000000604085244
 20
225.0000004422129
 30
0.0
 11
110.0000006040852
 21
225.0000004422129
 31
0.0
  0
LINE
  5
B76D
330
1F
100
AcDbEntity
  8
AM_2
100
AcDbLine
 10
20.00000060408524
 20
217.0000004422129
 30
0.0
 11
110.0000006040852
 21
217.0000004422129
 31
0.0
  0
LINE
  5
B76E
330
1F
100
AcDbEntity
  8
AM_2
100
AcDbLine
 10
277.0663456040852
 20
119.6538284422129
 30
0.0
 11
277.0663456040852
 21
120.1538284422129
 31
0.0
  0
LINE
  5
B76F
330
1F
100
AcDbEntity
  8
AM_2
100
AcDbLine
 10
278.0663456040853
 20
119.6538284422129
 30
0.0
 11
278.0663456040853
 21
120.1538284422129
 31
0.0
  0
LINE
  5
B770
330
1F
100
AcDbEntity
  8
AM_2
100
AcDbLine
 10
279.0663456040852
 20
120.6538284422129
 30
0.0
 11
278.5663456040853
 21
120.6538284422129
 31
0.0
  0
LINE
  5
B771
330
1F
100
AcDbEntity
  8
AM_2
100
AcDbLine
 10
279.0663456040852
 20
121.6538284422129
 30
0.0
 11
278.5663456040853
 21
121.6538284422129
 31
0.0
  0
LINE
  5
B772
330
1F
100
AcDbEntity
  8
AM_2
100
AcDbLine
 10
278.0663456040853
 20
122.1538284422129
 30
0.0
 11
278.0663456040853
 21
122.6538284422129
 31
0.0
  0
LINE
  5
B773
330
1F
100
AcDbEntity
  8
AM_2
100
AcDbLine
 10
277.0663456040852
 20
122.1538284422129
 30
0.0
 11
277.0663456040852
 21
122.6538284422129
 31
0.0
  0
LINE
  5
B774
330
1F
100
AcDbEntity
  8
AM_2
100
AcDbLine
 10
276.5663456040853
 20
121.6538284422129
 30
0.0
 11
276.0663456040853
 21
121.6538284422129
 31
0.0
  0
LINE
  5
B775
330
1F
100
AcDbEntity
  8
AM_2
100
AcDbLine
 10
276.5663456040853
 20
120.6538284422129
 30
0.0
 11
276.0663456040853
 21
120.6538284422129
 31
0.0
  0
LINE
  5
B776
330
1F
100
AcDbEntity
  8
AM_0
100
AcDbLine
 10
253.5663456040853
 20
61.15382844221293
 30
0.0
 11
305.5663456040853
 21
61.15382844221293
 31
0.0
  0
LINE
  5
B777
330
1F
100
AcDbEntity
  8
AM_0
100
AcDbLine
 10
253.5663456040853
 20
141.1538284422129
 30
0.0
 11
305.5663456040853
 21
141.1538284422129
 31
0.0
  0
LINE
  5
B778
330
1F
100
AcDbEntity
  8
AM_0
100
AcDbLine
 10
306.5663456040852
 20
62.15382844221292
 30
0.0
 11
306.5663456040852
 21
140.1538284422129
 31
0.0
  0
LINE
  5
B779
330
1F
100
AcDbEntity
  8
AM_0
100
AcDbLine
 10
252.5663456040852
 20
62.15382844221292
 30
0.0
 11
252.5663456040852
 21
140.1538284422129
 31
0.0
  0
LINE
  5
B77A
330
1F
100
AcDbEntity
  8
AM_0
100
AcDbLine
 10
252.5663456040852
 20
232.2740204422129
 30
0.0
 11
306.5663456040852
 21
232.2740204422129
 31
0.0
  0
LINE
  5
B77B
330
1F
100
AcDbEntity
  8
AM_0
100
AcDbLine
 10
252.5663456040852
 20
189.2740174422129
 30
0.0
 11
306.5663456040852
 21
189.2740174422129
 31
0.0
  0
LINE
  5
B77C
330
1F
100
AcDbEntity
  8
AM_0
100
AcDbLine
 10
252.5663456040852
 20
230.7740204422129
 30
0.0
 11
306.5663456040852
 21
230.7740204422129
 31
0.0
  0
LINE
  5
B77D
330
1F
100
AcDbEntity
  8
AM_0
100
AcDbLine
 10
252.5663456040852
 20
190.7740174422129
 30
0.0
 11
306.5663456040852
 21
190.7740174422129
 31
0.0
  0
LINE
  5
B77E
330
1F
100
AcDbEntity
  8
AM_0
100
AcDbLine
 10
306.5663456040852
 20
232.2740204422129
 30
0.0
 11
306.5663456040852
 21
230.7740204422129
 31
0.0
  0
LINE
  5
B77F
330
1F
100
AcDbEntity
  8
AM_0
100
AcDbLine
 10
252.5663456040852
 20
232.2740204422129
 30
0.0
 11
252.5663456040852
 21
230.7740204422129
 31
0.0
  0
LINE
  5
B780
330
1F
100
AcDbEntity
  8
AM_0
100
AcDbLine
 10
252.5663456040852
 20
190.7740174422129
 30
0.0
 11
252.5663456040852
 21
189.2740174422129
 31
0.0
  0
LINE
  5
B781
330
1F
100
AcDbEntity
  8
AM_0
100
AcDbLine
 10
306.5663456040852
 20
190.7740174422129
 30
0.0
 11
306.5663456040852
 21
189.2740174422129
 31
0.0
  0
LINE
  5
B782
330
1F
100
AcDbEntity
  8
AM_0
100
AcDbLine
 10
271.5663456040853
 20
131.1538284422129
 30
0.0
 11
296.5663456040853
 21
131.1538284422129
 31
0.0
  0
LINE
  5
B783
330
1F
100
AcDbEntity
  8
AM_0
100
AcDbLine
 10
271.5663456040853
 20
71.15382844221293
 30
0.0
 11
296.5663456040853
 21
71.15382844221293
 31
0.0
  0
LINE
  5
B784
330
1F
100
AcDbEntity
  8
AM_0
100
AcDbLine
 10
271.5663456040853
 20
71.15382844221293
 30
0.0
 11
271.5663456040853
 21
131.1538284422129
 31
0.0
  0
LINE
  5
B785
330
1F
100
AcDbEntity
  8
AM_0
100
AcDbLine
 10
296.5663456040853
 20
71.15382844221293
 30
0.0
 11
296.5663456040853
 21
131.1538284422129
 31
0.0
  0
LINE
  5
B786
330
1F
100
AcDbEntity
  8
AM_0
100
AcDbLine
 10
262.5663456040852
 20
209.774017442213
 30
0.0
 11
292.5663456040853
 21
209.774017442213
 31
0.0
  0
LINE
  5
B78A
330
1F
100
AcDbEntity
  8
AM_0
100
AcDbLine
 10
265.2318506040852
 20
206.7740174422129
 30
0.0
 11
284.4404686040853
 21
206.7740174422129
 31
0.0
  0
LINE
  5
B78B
330
1F
100
AcDbEntity
  8
AM_0
100
AcDbLine
 10
302.5663456040853
 20
230.7740204422129
 30
0.0
 11
302.5663456040853
 21
230.2740204422129
 31
0.0
  0
LINE
  5
B78C
330
1F
100
AcDbEntity
  8
AM_0
100
AcDbLine
 10
256.5663456040852
 20
230.7740204422129
 30
0.0
 11
256.5663456040852
 21
230.2740204422129
 31
0.0
  0
LINE
  5
B78D
330
1F
100
AcDbEntity
  8
AM_0
100
AcDbLine
 10
256.5663456040852
 20
191.2740174422129
 30
0.0
 11
302.5663456040853
 21
191.2740174422129
 31
0.0
  0
LINE
  5
B78E
330
1F
100
AcDbEntity
  8
AM_0
100
AcDbLine
 10
256.5663456040852
 20
230.2740204422129
 30
0.0
 11
302.5663456040853
 21
230.2740204422129
 31
0.0
  0
LINE
  5
B78F
330
1F
100
AcDbEntity
  8
AM_0
100
AcDbLine
 10
302.5663456040853
 20
191.2740174422129
 30
0.0
 11
302.5663456040853
 21
190.7740174422129
 31
0.0
  0
LINE
  5
B790
330
1F
100
AcDbEntity
  8
AM_0
100
AcDbLine
 10
256.5663456040852
 20
191.2740174422129
 30
0.0
 11
256.5663456040852
 21
190.7740174422129
 31
0.0
  0
LINE
  5
B791
330
1F
100
AcDbEntity
  8
AM_0
100
AcDbLine
 10
261.7494326040853
 20
203.6244274422129
 30
0.0
 11
260.5663456040852
 21
191.8665474422129
 31
0.0
  0
LINE
  5
B792
330
1F
100
AcDbEntity
  8
AM_0
100
AcDbLine
 10
298.4114236040852
 20
193.6753774422129
 30
0.0
 11
298.5059896040852
 21
192.2096474422129
 31
0.0
  0
LINE
  5
B794
330
1F
100
AcDbEntity
  8
AM_2
100
AcDbLine
 10
279.2163476040852
 20
209.774017442213
 30
0.0
 11
279.2163476040852
 21
207.7740174422129
 31
0.0
  0
LINE
  5
B795
330
1F
100
AcDbEntity
  8
AM_2
100
AcDbLine
 10
275.9163446040852
 20
209.774017442213
 30
0.0
 11
275.9163446040852
 21
207.7740174422129
 31
0.0
  0
LINE
  5
B796
330
1F
100
AcDbEntity
  8
AM_0
100
AcDbLine
 10
275.5663456040853
 20
209.774017442213
 30
0.0
 11
275.5663456040853
 21
207.7740174422129
 31
0.0
  0
LINE
  5
B797
330
1F
100
AcDbEntity
  8
AM_0
100
AcDbLine
 10
279.5663456040852
 20
209.774017442213
 30
0.0
 11
279.5663456040852
 21
207.7740174422129
 31
0.0
  0
LINE
  5
B798
330
1F
100
AcDbEntity
  8
0
  6
Continuous
 62
     7
100
AcDbLine
 10
275.5663456040853
 20
207.7740174422129
 30
0.0
 11
275.5663456040853
 21
207.7740174422129
 31
0.0
  0
LINE
  5
B799
330
1F
100
AcDbEntity
  8
AM_0
100
AcDbLine
 10
274.7154166040853
 20
207.7740174422129
 30
0.0
 11
274.0487526040852
 21
206.7740174422129
 31
0.0
  0
LINE
  5
B79A
330
1F
100
AcDbEntity
  8
AM_0
100
AcDbLine
 10
280.4172746040853
 20
207.7740174422129
 30
0.0
 11
281.0839396040852
 21
206.774027442213
 31
0.0
  0
LINE
  5
B79B
330
1F
100
AcDbEntity
  8
AM_0
100
AcDbLine
 10
274.7154166040853
 20
207.774037442213
 30
0.0
 11
280.4172676040853
 21
207.774037442213
 31
0.0
  0
LINE
  5
B79C
330
1F
100
AcDbEntity
  8
AM_0
100
AcDbLine
 10
298.4114306040853
 20
227.8726684422129
 30
0.0
 11
298.5059896040852
 21
229.338404442213
 31
0.0
  0
LINE
  5
B79D
330
1F
100
AcDbEntity
  8
AM_0
100
AcDbLine
 10
261.7494286040852
 20
217.923617442213
 30
0.0
 11
260.5663416040852
 21
229.6815064422129
 31
0.0
  0
LINE
  5
B79E
330
1F
100
AcDbEntity
  8
AM_0
100
AcDbLine
 10
292.5663456040853
 20
230.7740204422129
 30
0.0
 11
292.5663456040853
 21
209.774017442213
 31
0.0
  0
LINE
  5
B79F
330
1F
100
AcDbEntity
  8
AM_0
100
AcDbLine
 10
262.5663456040852
 20
230.7740204422129
 30
0.0
 11
262.5663456040852
 21
209.774017442213
 31
0.0
  0
LINE
  5
B7A0
330
1F
100
AcDbEntity
  8
AM_2
100
AcDbLine
 10
277.0663456040852
 20
79.65382844221292
 30
0.0
 11
277.0663456040852
 21
80.15382844221292
 31
0.0
  0
LINE
  5
B7A1
330
1F
100
AcDbEntity
  8
AM_2
100
AcDbLine
 10
278.0663456040853
 20
79.65382844221292
 30
0.0
 11
278.0663456040853
 21
80.15382844221292
 31
0.0
  0
LINE
  5
B7A2
330
1F
100
AcDbEntity
  8
AM_2
100
AcDbLine
 10
279.0663456040852
 20
80.65382844221293
 30
0.0
 11
278.5663456040853
 21
80.65382844221293
 31
0.0
  0
LINE
  5
B7A3
330
1F
100
AcDbEntity
  8
AM_2
100
AcDbLine
 10
279.0663456040852
 20
81.65382844221293
 30
0.0
 11
278.5663456040853
 21
81.65382844221293
 31
0.0
  0
LINE
  5
B7A4
330
1F
100
AcDbEntity
  8
AM_2
100
AcDbLine
 10
278.0663456040853
 20
82.15382844221293
 30
0.0
 11
278.0663456040853
 21
82.65382844221292
 31
0.0
  0
LINE
  5
B7A5
330
1F
100
AcDbEntity
  8
AM_2
100
AcDbLine
 10
277.0663456040852
 20
82.15382844221293
 30
0.0
 11
277.0663456040852
 21
82.65382844221292
 31
0.0
  0
LINE
  5
B7A6
330
1F
100
AcDbEntity
  8
AM_2
100
AcDbLine
 10
276.5663456040853
 20
81.65382844221293
 30
0.0
 11
276.0663456040853
 21
81.65382844221293
 31
0.0
  0
LINE
  5
B7A7
330
1F
100
AcDbEntity
  8
AM_2
100
AcDbLine
 10
276.5663456040853
 20
80.65382844221293
 30
0.0
 11
276.0663456040853
 21
80.65382844221293
 31
0.0
  0
LINE
  5
B7A8
330
1F
100
AcDbEntity
  8
AM_3
100
AcDbLine
 10
262.2469226040852
 20
203.574377442213
 30
0.0
 11
261.0566026040852
 21
191.7446274422129
 31
0.0
  0
LINE
  5
B7A9
330
1F
100
AcDbEntity
  8
AM_3
100
AcDbLine
 10
265.2318506040852
 20
206.2740174422129
 30
0.0
 11
284.4404686040853
 21
206.2740174422129
 31
0.0
  0
LINE
  5
B7AA
330
1F
100
AcDbEntity
  8
AM_3
100
AcDbLine
 10
297.9124606040853
 20
193.6431874422129
 30
0.0
 11
298.0070276040852
 21
192.1774674422129
 31
0.0
  0
LINE
  5
B7AB
330
1F
100
AcDbEntity
  8
AM_3
100
AcDbLine
 10
262.2469146040852
 20
217.9736774422129
 30
0.0
 11
261.0565956040852
 21
229.8034394422129
 31
0.0
  0
LINE
  5
B7AC
330
1F
100
AcDbEntity
  8
AM_3
100
AcDbLine
 10
297.9124606040853
 20
227.9048644422129
 30
0.0
 11
298.0070276040852
 21
229.3705934422129
 31
0.0
  0
LINE
  5
B7AD
330
1F
100
AcDbEntity
  8
AM_0
100
AcDbLine
 10
256.5663456040852
 20
230.7740204422129
 30
0.0
 11
302.5663456040853
 21
230.7740204422129
 31
0.0
  0
LINE
  5
B7AE
330
1F
100
AcDbEntity
  8
AM_3
100
AcDbLine
 10
265.2318506040852
 20
215.2740174422129
 30
0.0
 11
284.4404686040853
 21
215.2740174422129
 31
0.0
  0
LINE
  5
B7AF
330
1F
100
AcDbEntity
  8
AM_3
100
AcDbLine
 10
265.2318506040852
 20
214.7740174422129
 30
0.0
 11
284.4404686040853
 21
214.7740174422129
 31
0.0
  0
LINE
  5
B7B0
330
1F
100
AcDbEntity
  8
AM_0
100
AcDbLine
 10
145.2554096040852
 20
136.6023374422129
 30
0.0
 11
145.2554096040852
 21
66.60233744221293
 31
0.0
  0
LINE
  5
B7B1
330
1F
100
AcDbEntity
  8
AM_0
100
AcDbLine
 10
193.2554076040852
 20
136.6023374422129
 30
0.0
 11
193.2554076040852
 21
66.60233744221293
 31
0.0
  0
LINE
  5
B7B2
330
1F
100
AcDbEntity
  8
AM_0
100
AcDbLine
 10
145.2554096040852
 20
66.60233744221293
 30
0.0
 11
193.2554076040852
 21
66.60233744221293
 31
0.0
  0
LINE
  5
B7B3
330
1F
100
AcDbEntity
  8
AM_0
100
AcDbLine
 10
145.2554096040852
 20
136.6023374422129
 30
0.0
 11
193.2554076040852
 21
136.6023374422129
 31
0.0
  0
CIRCLE
  5
B7B4
330
1F
100
AcDbEntity
  8
AM_2
100
AcDbCircle
 10
58.69421493572898
 20
212.8618104422129
 30
0.0
 40
2.0
  0
CIRCLE
  5
B7B5
330
1F
100
AcDbEntity
  8
AM_0
100
AcDbCircle
 10
277.5663456040852
 20
121.1538284422129
 30
0.0
 40
3.0
  0
ARC
  5
B7B6
330
1F
100
AcDbEntity
  8
AM_2
100
AcDbCircle
 10
277.5663456040852
 20
122.6538284422129
 30
0.0
 40
0.5
100
AcDbArc
 50
0.0
 51
180.0
  0
ARC
  5
B7B7
330
1F
100
AcDbEntity
  8
AM_2
100
AcDbCircle
 10
276.0663456040853
 20
121.1538284422129
 30
0.0
 40
0.5
100
AcDbArc
 50
90.0
 51
270.0
  0
ARC
  5
B7B8
330
1F
100
AcDbEntity
  8
AM_2
100
AcDbCircle
 10
277.5663456040852
 20
119.6538284422129
 30
0.0
 40
0.5
100
AcDbArc
 50
180.0
 51
0.0
  0
ARC
  5
B7B9
330
1F
100
AcDbEntity
  8
AM_2
100
AcDbCircle
 10
279.0663456040852
 20
121.1538284422129
 30
0.0
 40
0.5
100
AcDbArc
 50
270.0
 51
90.0
  0
ARC
  5
B7BA
330
1F
100
AcDbEntity
  8
AM_2
100
AcDbCircle
 10
276.5663456040853
 20
120.1538284422129
 30
0.0
 40
0.5
100
AcDbArc
 50
0.0
 51
90.0
  0
ARC
  5
B7BB
330
1F
100
AcDbEntity
  8
AM_2
100
AcDbCircle
 10
278.5663456040853
 20
122.1538284422129
 30
0.0
 40
0.5
100
AcDbArc
 50
180.0
 51
270.0
  0
ARC
  5
B7BC
330
1F
100
AcDbEntity
  8
AM_2
100
AcDbCircle
 10
278.5663456040853
 20
120.1538284422129
 30
0.0
 40
0.5
100
AcDbArc
 50
90.0
 51
180.0
  0
ARC
  5
B7BD
330
1F
100
AcDbEntity
  8
AM_2
100
AcDbCircle
 10
276.5663456040853
 20
122.1538284422129
 30
0.0
 40
0.5
100
AcDbArc
 50
270.0
 51
0.0
  0
ARC
  5
B7BE
330
1F
100
AcDbEntity
  8
AM_0
100
AcDbCircle
 10
253.5663456040853
 20
140.1538284422129
 30
0.0
 40
1.0
100
AcDbArc
 50
90.0
 51
180.0
  0
ARC
  5
B7BF
330
1F
100
AcDbEntity
  8
AM_0
100
AcDbCircle
 10
305.5663456040853
 20
62.15382844221292
 30
0.0
 40
1.0
100
AcDbArc
 50
270.0
 51
0.0
  0
ARC
  5
B7C0
330
1F
100
AcDbEntity
  8
AM_0
100
AcDbCircle
 10
253.5663456040853
 20
62.15382844221292
 30
0.0
 40
1.0
100
AcDbArc
 50
180.0
 51
270.0
  0
ARC
  5
B7C1
330
1F
100
AcDbEntity
  8
AM_0
100
AcDbCircle
 10
305.5663456040853
 20
140.1538284422129
 30
0.0
 40
1.0
100
AcDbArc
 50
0.0
 51
90.0
  0
ARC
  5
B7C2
330
1F
100
AcDbEntity
  8
AM_0
100
AcDbCircle
 10
284.4404686040853
 20
192.7740174422129
 30
0.0
 40
14.0
100
AcDbArc
 50
3.69141999999839
 51
90.00002999999978
  0
ARC
  5
B7C3
330
1F
100
AcDbEntity
  8
AM_0
100
AcDbCircle
 10
265.2318506040852
 20
203.274017442213
 30
0.0
 40
3.5
100
AcDbArc
 50
90.00005999999952
 51
174.2542000000019
  0
ARC
  5
B7C4
330
1F
100
AcDbEntity
  8
AM_0
100
AcDbCircle
 10
259.6531306040852
 20
192.2740174422129
 30
0.0
 40
1.0
100
AcDbArc
 50
270.0
 51
335.9538910000012
  0
ARC
  5
B7C5
330
1F
100
AcDbEntity
  8
AM_0
100
AcDbCircle
 10
299.5039066040853
 20
192.2740174422129
 30
0.0
 40
1.0
100
AcDbArc
 50
183.6910800000012
 51
270.0
  0
ARC
  5
B7C6
330
1F
100
AcDbEntity
  8
AM_0
100
AcDbCircle
 10
299.5039066040853
 20
229.2740204422129
 30
0.0
 40
1.0
100
AcDbArc
 50
90.00000000000003
 51
176.3084899999993
  0
ARC
  5
B7C7
330
1F
100
AcDbEntity
  8
AM_0
100
AcDbCircle
 10
284.4404686040853
 20
228.7740204422129
 30
0.0
 40
14.0
100
AcDbArc
 50
305.4800750000004
 51
356.3086139999997
  0
ARC
  5
B7C8
330
1F
100
AcDbEntity
  8
AM_0
100
AcDbCircle
 10
265.2318506040852
 20
218.2740174422129
 30
0.0
 40
3.5
100
AcDbArc
 50
185.7457999999981
 51
220.3969800000003
  0
ARC
  5
B7C9
330
1F
100
AcDbEntity
  8
AM_0
100
AcDbCircle
 10
259.6531306040852
 20
229.2740204422129
 30
0.0
 40
1.0
100
AcDbArc
 50
24.04610999999927
 51
90.00000000000003
  0
CIRCLE
  5
B7CA
330
1F
100
AcDbEntity
  8
AM_0
100
AcDbCircle
 10
277.5663456040852
 20
81.15382844221292
 30
0.0
 40
3.0
  0
ARC
  5
B7CB
330
1F
100
AcDbEntity
  8
AM_2
100
AcDbCircle
 10
277.5663456040852
 20
82.65382844221292
 30
0.0
 40
0.5
100
AcDbArc
 50
0.0
 51
180.0
  0
ARC
  5
B7CC
330
1F
100
AcDbEntity
  8
AM_2
100
AcDbCircle
 10
276.0663456040853
 20
81.15382844221292
 30
0.0
 40
0.5
100
AcDbArc
 50
90.0
 51
270.0
  0
ARC
  5
B7CD
330
1F
100
AcDbEntity
  8
AM_2
100
AcDbCircle
 10
277.5663456040852
 20
79.65382844221292
 30
0.0
 40
0.5
100
AcDbArc
 50
180.0
 51
0.0
  0
ARC
  5
B7CE
330
1F
100
AcDbEntity
  8
AM_2
100
AcDbCircle
 10
279.0663456040852
 20
81.15382844221292
 30
0.0
 40
0.5
100
AcDbArc
 50
270.0
 51
90.0
  0
ARC
  5
B7CF
330
1F
100
AcDbEntity
  8
AM_2
100
AcDbCircle
 10
276.5663456040853
 20
80.15382844221292
 30
0.0
 40
0.5
100
AcDbArc
 50
0.0
 51
90.0
  0
ARC
  5
B7D0
330
1F
100
AcDbEntity
  8
AM_2
100
AcDbCircle
 10
278.5663456040853
 20
82.15382844221293
 30
0.0
 40
0.5
100
AcDbArc
 50
180.0
 51
270.0
  0
ARC
  5
B7D1
330
1F
100
AcDbEntity
  8
AM_2
100
AcDbCircle
 10
278.5663456040853
 20
80.15382844221292
 30
0.0
 40
0.5
100
AcDbArc
 50
90.0
 51
180.0
  0
ARC
  5
B7D2
330
1F
100
AcDbEntity
  8
AM_2
100
AcDbCircle
 10
276.5663456040853
 20
82.15382844221293
 30
0.0
 40
0.5
100
AcDbArc
 50
270.0
 51
0.0
  0
ARC
  5
B7D3
330
1F
100
AcDbEntity
  8
AM_3
100
AcDbCircle
 10
265.2318506040852
 20
203.274017442213
 30
0.0
 40
3.0
100
AcDbArc
 50
90.00007000000053
 51
174.2541799999982
  0
ARC
  5
B7D4
330
1F
100
AcDbEntity
  8
AM_3
100
AcDbCircle
 10
284.4404686040853
 20
192.7740174422129
 30
0.0
 40
13.5
100
AcDbArc
 50
3.691400000001276
 51
90.00000000000003
  0
ARC
  5
B7D5
330
1F
100
AcDbEntity
  8
AM_3
100
AcDbCircle
 10
265.2318506040852
 20
218.2740174422129
 30
0.0
 40
3.0
100
AcDbArc
 50
185.7458200000017
 51
207.3143900000006
  0
ARC
  5
B7D6
330
1F
100
AcDbEntity
  8
AM_3
100
AcDbCircle
 10
284.4404686040853
 20
228.7740204422129
 30
0.0
 40
13.5
100
AcDbArc
 50
307.0073130000005
 51
356.3086025000008
  0
ARC
  5
B7D7
330
1F
100
AcDbEntity
  8
AM_3
100
AcDbCircle
 10
299.5039066040853
 20
229.2740204422129
 30
0.0
 40
1.5
100
AcDbArc
 50
90.00000000000003
 51
176.30863
  0
ARC
  5
B7D8
330
1F
100
AcDbEntity
  8
AM_3
100
AcDbCircle
 10
259.6531306040852
 20
229.2740204422129
 30
0.0
 40
1.5
100
AcDbArc
 50
24.04637000000046
 51
90.00000000000003
  0
ARC
  5
B7D9
330
1F
100
AcDbEntity
  8
AM_3
100
AcDbCircle
 10
259.6531306040852
 20
192.2740174422129
 30
0.0
 40
1.5
100
AcDbArc
 50
270.0
 51
335.9539510000005
  0
ARC
  5
B7DA
330
1F
100
AcDbEntity
  8
AM_3
100
AcDbCircle
 10
299.5039066040853
 20
192.2740174422129
 30
0.0
 40
1.5
100
AcDbArc
 50
183.6913699999999
 51
270.0
  0
ARC
  5
B7DB
330
1F
100
AcDbEntity
  8
AM_3
100
AcDbCircle
 10
284.4404686040853
 20
228.7740204422129
 30
0.0
 40
13.5
100
AcDbArc
 50
270.0
 51
307.0073130000005
  0
ARC
  5
B7DC
330
1F
100
AcDbEntity
  8
AM_3
100
AcDbCircle
 10
265.2318506040852
 20
218.2740174422129
 30
0.0
 40
3.0
100
AcDbArc
 50
207.3143900000006
 51
269.9999270000001
  0
ARC
  5
B7DD
330
1F
100
AcDbEntity
  8
AM_3
100
AcDbCircle
 10
284.4404686040853
 20
228.7740204422129
 30
0.0
 40
14.0
100
AcDbArc
 50
269.9999690000005
 51
305.4800750000004
  0
ARC
  5
B7DE
330
1F
100
AcDbEntity
  8
AM_3
100
AcDbCircle
 10
265.2318506040852
 20
218.2740174422129
 30
0.0
 40
3.5
100
AcDbArc
 50
220.3969800000003
 51
269.9999379999993
  0
CIRCLE
  5
B7DF
330
1F
100
AcDbEntity
  8
AM_2
100
AcDbCircle
 10
57.224454935729
 20
220.9135704422129
 30
0.0
 40
2.0
  0
TEXT
  5
B7E0
330
1F
100
AcDbEntity
  8
AM_6
100
AcDbText
 10
22.85700060408524
 20
195.4000004422129
 30
0.0
 40
3.2
  1
＊
 41
0.90047268
100
AcDbText
  0
TEXT
  5
B7E1
330
1F
100
AcDbEntity
  8
AM_6
100
AcDbText
 10
5.657000604085254
 20
267.4000004422129
 30
0.0
 40
3.2
  1
品　名
 41
0.85537027
100
AcDbText
  0
TEXT
  5
B7E2
330
1F
100
AcDbEntity
  8
AM_6
100
AcDbText
 10
5.657000604085254
 20
259.4000004422129
 30
0.0
 40
3.2
  1
品　番
 41
0.85537027
100
AcDbText
  0
TEXT
  5
B7E3
330
1F
100
AcDbEntity
  8
AM_6
100
AcDbText
 10
22.85700060408524
 20
187.4000004422129
 30
0.0
 40
3.2
  1
＊
 41
0.90047268
100
AcDbText
  0
TEXT
  5
B7E4
330
1F
100
AcDbEntity
  8
AM_6
100
AcDbText
 10
22.85700060408524
 20
179.4000004422129
 30
0.0
 40
3.2
  1
＊
 41
0.90047268
100
AcDbText
  0
TEXT
  5
B7E5
330
1F
100
AcDbEntity
  8
AM_6
100
AcDbText
 10
5.657000604085254
 20
251.4000004422129
 30
0.0
 40
3.2
  1
材　質
 41
0.85537027
100
AcDbText
  0
TEXT
  5
B7E6
330
1F
100
AcDbEntity
  8
AM_6
100
AcDbText
 10
5.657000604085254
 20
243.4000004422129
 30
0.0
 40
3.2
  1
仕上げ
 41
0.85537027
100
AcDbText
  0
TEXT
  5
B7E7
330
1F
100
AcDbEntity
  8
AM_6
100
AcDbText
 10
22.85700060408524
 20
203.4000004422129
 30
0.0
 40
3.2
  1
＊
 41
0.90047268
100
AcDbText
  0
TEXT
  5
B7E8
330
1F
100
AcDbEntity
  8
AM_6
100
AcDbText
 10
2.457000604085237
 20
219.4000004422129
 30
0.0
 40
3.2
  1
セットビス
 41
0.84892707
100
AcDbText
  0
TEXT
  5
B7E9
330
1F
100
AcDbEntity
  8
AM_6
100
AcDbText
 10
23.09899060408523
 20
219.4000004422129
 30
0.0
 40
3.2
  1
Ｍ４×Ｄ６×６サラ小ネジ　＋　ＳＵＳ　２本付（Ｄｔ＝４０ｍｍ用）
 41
0.66342322
100
AcDbText
  0
TEXT
  5
B7EA
330
1F
100
AcDbEntity
  8
AM_6
100
AcDbText
 10
7.257000604085249
 20
195.4000004422129
 30
0.0
 40
3.2
  1
備考
 41
0.8643907499999999
100
AcDbText
  0
TEXT
  5
B7EB
330
1F
100
AcDbEntity
  8
AM_6
100
AcDbText
 10
5.657000604085254
 20
235.4000004422129
 30
0.0
 40
3.2
  1
定　尺
 41
0.85537027
100
AcDbText
  0
TEXT
  5
B7EC
330
1F
100
AcDbEntity
  8
AM_6
100
AcDbText
 10
4.05700060408526
 20
227.4000004422129
 30
0.0
 40
3.2
  1
左右勝手
 41
0.8512700499999999
100
AcDbText
  0
TEXT
  5
B7ED
330
1F
100
AcDbEntity
  8
AM_6
100
AcDbText
 10
22.62145060408526
 20
234.9699804422129
 30
0.0
 40
3.2
  1
＊
 41
0.90047268
100
AcDbText
  0
TEXT
  5
B7EE
330
1F
100
AcDbEntity
  8
AM_6
100
AcDbText
 10
22.85700060408524
 20
267.4000004422129
 30
0.0
 40
3.2
  1
掘り込み引手
 41
0.84741102
100
AcDbText
  0
TEXT
  5
B7EF
330
1F
100
AcDbEntity
  8
AM_6
100
AcDbText
 10
22.85700060408524
 20
259.4000004422129
 30
0.0
 40
3.2
  1
ＤＵ－７８
 41
0.84892707
100
AcDbText
  0
TEXT
  5
B7F0
330
1F
100
AcDbEntity
  8
AM_6
100
AcDbText
 10
22.85700060408524
 20
251.4000004422129
 30
0.0
 40
3.2
  1
ステンレス
 41
0.84892707
100
AcDbText
  0
TEXT
  5
B7F1
330
1F
100
AcDbEntity
  8
AM_6
100
AcDbText
 10
22.85700060408524
 20
243.4000004422129
 30
0.0
 40
3.2
  1
ヘアーライン
 41
0.84741102
100
AcDbText
  0
TEXT
  5
B7F2
330
1F
100
AcDbEntity
  8
AM_6
100
AcDbText
 10
22.62145060408526
 20
227.3661704422129
 30
0.0
 40
3.2
  1
＊
 41
0.90047268
100
AcDbText
  0
TEXT
  5
B7F3
330
1F
100
AcDbEntity
  8
AM_6
100
AcDbText
 10
159.0881100731514
 20
53.77198644221292
 30
0.0
 40
3.2
  1
切欠推奨寸法
 41
0.84741102
100
AcDbText
  0
TEXT
  5
B7F4
330
1F
100
AcDbEntity
  8
AM_6
100
AcDbText
 10
23.12653060408525
 20
211.4000004422129
 30
0.0
 40
3.2
  1
Ｍ４×Ｄ６×１２サラ小ネジ　＋　ＳＵＳ　２本付（Ｄｔ＝４５ｍｍ用）
 41
0.6431143600000001
100
AcDbText
  0
DIMENSION
  5
B9FF
330
1F
100
AcDbEntity
  8
AM_5
100
AcDbDimension
  2
*D55
 10
321.5663506040853
 20
207.7740374422129
 30
0.0
 11
318.4663506040852
 21
199.2740274422129
 31
0.0
 70
    32
 71
     5
 42
17.00002
  3
SYS$0
100
AcDbAlignedDimension
 13
306.5663456040852
 23
190.7740174422129
 33
0.0
 14
280.4172676040853
 24
207.774037442213
 34
0.0
 50
270.0
100
AcDbRotatedDimension
  0
DIMENSION
  5
BA15
330
1F
100
AcDbEntity
  8
AM_5
100
AcDbDimension
  2
*D56
 10
331.5663506040853
 20
189.2740174422129
 30
0.0
 11
328.4663506040852
 21
183.5873507755463
 31
0.0
 70
    32
 71
     5
 42
1.5
  3
SYS$0
100
AcDbAlignedDimension
 13
306.5663456040852
 23
190.7740174422129
 33
0.0
 14
306.5663456040852
 24
189.2740174422129
 34
0.0
 50
270.0
100
AcDbRotatedDimension
  0
DIMENSION
  5
BA45
330
1F
100
AcDbEntity
  8
AM_5
100
AcDbDimension
  2
*D58
 10
331.5663506040853
 20
232.2740204422129
 30
0.0
 11
328.4663506040852
 21
237.9606871088796
 31
0.0
 70
    32
 71
     5
 42
1.5
  3
SYS$0
100
AcDbAlignedDimension
 13
306.5663456040852
 23
230.7740204422129
 33
0.0
 14
306.5663456040852
 24
232.2740204422129
 34
0.0
 50
270.0
100
AcDbRotatedDimension
  0
DIMENSION
  5
BA5F
330
1F
100
AcDbEntity
  8
AM_5
100
AcDbDimension
  2
*D59
 10
321.5663506040854
 20
230.7740204422129
 30
0.0
 11
318.4663506040853
 21
220.2740189422129
 31
0.0
 70
    32
 71
     5
 42
21.00000299999999
  3
SYS$0
100
AcDbAlignedDimension
 13
292.5663456040853
 23
209.774017442213
 33
0.0
 14
306.5663456040852
 24
230.7740204422129
 34
0.0
 50
270.0
100
AcDbRotatedDimension
  0
DIMENSION
  5
BA75
330
1F
100
AcDbEntity
  8
AM_5
100
AcDbDimension
  2
*D60
 10
331.5663506040855
 20
230.7740204422129
 30
0.0
 11
328.4663506040854
 21
210.774018942213
 31
0.0
 70
    32
 71
     5
 42
40.00000299999999
  3
SYS$0
100
AcDbAlignedDimension
 13
306.5663456040852
 23
190.7740174422129
 33
0.0
 14
306.5663456040852
 24
230.7740204422129
 34
0.0
 50
270.0
100
AcDbRotatedDimension
  0
DIMENSION
  5
BA8B
330
1F
100
AcDbEntity
  8
AM_5
100
AcDbDimension
  2
*D61
 10
242.5663456040851
 20
206.2740174422107
 30
0.0
 11
239.4663456040851
 21
198.5240174422118
 31
0.0
 70
    32
 71
     5
 42
15.49999999999775
  3
SYS$0
100
AcDbAlignedDimension
 13
252.5663456040852
 23
190.7740174422129
 33
0.0
 14
265.2318469388938
 24
206.2740174422107
 34
0.0
 50
270.0
100
AcDbRotatedDimension
  0
DIMENSION
  5
BAA1
330
1F
100
AcDbEntity
  8
AM_5
100
AcDbDimension
  2
*D62
 10
232.5663456040851
 20
206.774017442211
 30
0.0
 11
229.4663456040851
 21
198.774017442212
 31
0.0
 70
    32
 71
     5
 42
15.99999999999807
  3
SYS$0
100
AcDbAlignedDimension
 13
252.5663456040852
 23
190.7740174422129
 33
0.0
 14
265.2318469388939
 24
206.774017442211
 34
0.0
 50
270.0
100
AcDbRotatedDimension
  0
DIMENSION
  5
BAB7
330
1F
100
AcDbEntity
  8
AM_5
100
AcDbDimension
  2
*D63
 10
242.5663456040852
 20
215.2740174422154
 30
0.0
 11
239.4663456040851
 21
223.0240189422142
 31
0.0
 70
    32
 71
     5
 42
15.50000299999755
  3
SYS$0
100
AcDbAlignedDimension
 13
252.5663456040852
 23
230.7740204422129
 33
0.0
 14
265.2318467818142
 24
215.2740174422154
 34
0.0
 50
270.0
100
AcDbRotatedDimension
  0
DIMENSION
  5
BACD
330
1F
100
AcDbEntity
  8
AM_5
100
AcDbDimension
  2
*D64
 10
232.5663456040852
 20
214.7740174422129
 30
0.0
 11
229.4663456040852
 21
222.774018942213
 31
0.0
 70
    32
 71
     5
 42
16.00000299999999
  3
SYS$0
100
AcDbAlignedDimension
 13
252.5663456040852
 23
230.7740204422129
 33
0.0
 14
265.2318506040852
 24
214.7740174422129
 34
0.0
 50
270.0
100
AcDbRotatedDimension
  0
DIMENSION
  5
BAE3
330
1F
100
AcDbEntity
  8
AM_5
100
AcDbDimension
  2
*D65
 10
306.5663456040852
 20
151.1538284422127
 30
0.0
 11
292.0663456040852
 21
154.2538284422127
 31
0.0
 70
    32
 71
     5
 42
29.0
  3
SYS$0
100
AcDbAlignedDimension
 13
277.5663456040852
 23
144.1538284422129
 33
0.0
 14
306.5663456040852
 24
140.1538284422129
 34
0.0
100
AcDbRotatedDimension
  0
DIMENSION
  5
BAF9
330
1F
100
AcDbEntity
  8
AM_5
100
AcDbDimension
  2
*D66
 10
252.5663456040852
 20
151.1538284422128
 30
0.0
 11
265.0663456040852
 21
154.2538284422128
 31
0.0
 70
    32
 71
     5
 42
25.0
  3
SYS$0
100
AcDbAlignedDimension
 13
277.5663456040852
 23
144.1538284422129
 33
0.0
 14
252.5663456040852
 24
140.1538284422129
 34
0.0
100
AcDbRotatedDimension
  0
DIMENSION
  5
BB25
330
1F
100
AcDbEntity
  8
AM_5
100
AcDbDimension
  2
*D68
 10
306.5663456040852
 20
161.1538284422127
 30
0.0
 11
279.5663456040852
 21
164.2538284422127
 31
0.0
 70
    32
 71
     5
 42
54.0
  3
SYS$0
100
AcDbAlignedDimension
 13
252.5663456040852
 23
140.1538284422129
 33
0.0
 14
306.5663456040852
 24
140.1538284422129
 34
0.0
100
AcDbRotatedDimension
  0
DIMENSION
  5
BB3B
330
1F
100
AcDbEntity
  8
AM_5
100
AcDbDimension
  2
*D69
 10
321.5663506040852
 20
121.1538284422129
 30
0.0
 11
318.4663506040852
 21
131.1538284422129
 31
0.0
 70
    32
 71
     5
 42
20.0
  3
SYS$0
100
AcDbAlignedDimension
 13
305.5663456040853
 23
141.1538284422129
 33
0.0
 14
283.5663456040852
 24
121.1538284422129
 34
0.0
 50
90.00000000000003
100
AcDbRotatedDimension
  0
DIMENSION
  5
BB51
330
1F
100
AcDbEntity
  8
AM_5
100
AcDbDimension
  2
*D70
 10
321.5663506040852
 20
81.15382844221292
 30
0.0
 11
318.4663506040852
 21
101.1538284422129
 31
0.0
 70
    32
 71
     5
 42
40.0
  3
SYS$0
100
AcDbAlignedDimension
 13
283.5663456040852
 23
121.1538284422129
 33
0.0
 14
283.5663456040852
 24
81.15382844221292
 34
0.0
 50
90.00000000000003
100
AcDbRotatedDimension
  0
DIMENSION
  5
BB67
330
1F
100
AcDbEntity
  8
AM_5
100
AcDbDimension
  2
*D71
 10
321.5663506040852
 20
61.15382844221293
 30
0.0
 11
318.4663506040852
 21
71.15382844221297
 31
0.0
 70
    32
 71
     5
 42
19.99999999999998
  3
SYS$0
100
AcDbAlignedDimension
 13
283.5663456040852
 23
81.15382844221292
 33
0.0
 14
305.5663456040853
 24
61.15382844221293
 34
0.0
 50
90.00000000000003
100
AcDbRotatedDimension
  0
DIMENSION
  5
BB7D
330
1F
100
AcDbEntity
  8
AM_5
100
AcDbDimension
  2
*D72
 10
331.5663506040853
 20
141.1538284422129
 30
0.0
 11
328.4663506040852
 21
101.1538284422129
 31
0.0
 70
    32
 71
     5
 42
79.99999999999999
  3
SYS$0
100
AcDbAlignedDimension
 13
305.5663456040853
 23
61.15382844221293
 33
0.0
 14
305.5663456040853
 24
141.1538284422129
 34
0.0
 50
90.00000000000003
100
AcDbRotatedDimension
  0
DIMENSION
  5
BB93
330
1F
100
AcDbEntity
  8
AM_5
100
AcDbDimension
  2
*D73
 10
242.5663456040852
 20
131.1538284422129
 30
0.0
 11
239.4663456040852
 21
136.1538284422129
 31
0.0
 70
    32
 71
     5
 42
10.0
  3
SYS$0
100
AcDbAlignedDimension
 13
253.5663456040853
 23
141.1538284422129
 33
0.0
 14
271.5663456040853
 24
131.1538284422129
 34
0.0
 50
90.00000000000003
100
AcDbRotatedDimension
  0
DIMENSION
  5
BBA9
330
1F
100
AcDbEntity
  8
AM_5
100
AcDbDimension
  2
*D74
 10
242.5663456040852
 20
71.15382844221293
 30
0.0
 11
239.4663456040852
 21
101.1538284422129
 31
0.0
 70
    32
 71
     5
 42
60.0
  3
SYS$0
100
AcDbAlignedDimension
 13
271.5663456040853
 23
131.1538284422129
 33
0.0
 14
271.5663456040853
 24
71.15382844221293
 34
0.0
 50
90.00000000000003
100
AcDbRotatedDimension
  0
DIMENSION
  5
BBBF
330
1F
100
AcDbEntity
  8
AM_5
100
AcDbDimension
  2
*D75
 10
242.5663456040852
 20
61.15382844221293
 30
0.0
 11
239.4663456040852
 21
66.15382844221297
 31
0.0
 70
    32
 71
     5
 42
10.0
  3
SYS$0
100
AcDbAlignedDimension
 13
271.5663456040853
 23
71.15382844221293
 33
0.0
 14
253.5663456040853
 24
61.15382844221293
 34
0.0
 50
90.00000000000003
100
AcDbRotatedDimension
  0
DIMENSION
  5
BBD5
330
1F
100
AcDbEntity
  8
AM_5
100
AcDbDimension
  2
*D76
 10
271.5663456040853
 20
46.15382844221325
 30
0.0
 11
262.0663456040853
 21
49.25382844221325
 31
0.0
 70
    32
 71
     5
 42
19.0
  3
SYS$0
100
AcDbAlignedDimension
 13
252.5663456040852
 23
62.15382844221292
 33
0.0
 14
271.5663456040853
 24
71.15382844221293
 34
0.0
 50
0.0000000000001132
100
AcDbRotatedDimension
  0
DIMENSION
  5
BBEB
330
1F
100
AcDbEntity
  8
AM_5
100
AcDbDimension
  2
*D77
 10
296.5663456040853
 20
46.15382844221329
 30
0.0
 11
284.0663456040853
 21
49.2538284422133
 31
0.0
 70
    32
 71
     5
 42
25.0
  3
SYS$0
100
AcDbAlignedDimension
 13
271.5663456040853
 23
71.15382844221293
 33
0.0
 14
296.5663456040853
 24
71.15382844221293
 34
0.0
 50
0.0000000000001132
100
AcDbRotatedDimension
  0
DIMENSION
  5
BC01
330
1F
100
AcDbEntity
  8
AM_5
100
AcDbDimension
  2
*D78
 10
306.5663456040852
 20
46.1538284422133
 30
0.0
 11
301.5663456040853
 21
49.2538284422133
 31
0.0
 70
    32
 71
     5
 42
10.0
  3
SYS$0
100
AcDbAlignedDimension
 13
296.5663456040853
 23
71.15382844221293
 33
0.0
 14
306.5663456040852
 24
62.15382844221292
 34
0.0
 50
0.0000000000001132
100
AcDbRotatedDimension
  0
DIMENSION
  5
BC17
330
1F
100
AcDbEntity
  8
AM_5
100
AcDbDimension
  2
*D79
 10
145.2554096040852
 20
146.6023374422128
 30
0.0
 11
169.2554086040852
 21
149.7023374422128
 31
0.0
 70
    32
 71
     5
 42
47.99999800000001
  3
SYS$0
100
AcDbAlignedDimension
 13
193.2554076040852
 23
136.6023374422129
 33
0.0
 14
145.2554096040852
 24
136.6023374422129
 34
0.0
100
AcDbRotatedDimension
  0
DIMENSION
  5
BC2D
330
1F
100
AcDbEntity
  8
AM_5
100
AcDbDimension
  2
*D80
 10
135.2554096040852
 20
66.60233744221293
 30
0.0
 11
132.1554096040852
 21
101.6023374422129
 31
0.0
 70
    32
 71
     5
 42
70.0
  3
SYS$0
100
AcDbAlignedDimension
 13
145.2554096040852
 23
136.6023374422129
 33
0.0
 14
145.2554096040852
 24
66.60233744221293
 34
0.0
 50
90.0
100
AcDbRotatedDimension
  0
LINE
  5
BC44
330
1F
100
AcDbEntity
  8
AM_7
100
AcDbLine
 10
277.5663456040852
 20
186.2740174422129
 30
0.0
 11
277.5663456040852
 21
235.2740204422129
 31
0.0
1001
GENIUS_GENOBJ-N-CEN_13
1002
{
1000
OWNER
1000
GEN
1002
}
1001
GENIUS_GENODEF_13
1002
{
1000
HIER
1070
     0
1002
}
1002
{
1000
MANEDIT
1070
     0
1002
}
1002
{
1000
NOSEL
1070
     0
1002
}
1002
{
1000
BEHIND
1070
     0
1002
}
1002
{
1000
OTHER
1070
     0
1002
}
1002
{
1000
REACTOR
1002
}
1001
GENIUS_GENCEN_19
1002
{
1040
3.0
1002
}
  0
LINE
  5
BC9A
330
1F
100
AcDbEntity
  8
AM_7
100
AcDbLine
 10
277.5663456040852
 20
144.1538284422129
 30
0.0
 11
277.5663456040852
 21
58.15382844221293
 31
0.0
1001
GENIUS_GENOBJ-N-CEN_13
1002
{
1000
OWNER
1000
GEN
1002
}
1001
GENIUS_GENODEF_13
1002
{
1000
HIER
1070
     0
1002
}
1002
{
1000
MANEDIT
1070
     0
1002
}
1002
{
1000
NOSEL
1070
     0
1002
}
1002
{
1000
BEHIND
1070
     0
1002
}
1002
{
1000
OTHER
1070
     0
1002
}
1002
{
1000
REACTOR
1002
}
1001
GENIUS_GENCEN_19
1002
{
1040
3.0
1002
}
  0
LINE
  5
BCAD
330
1F
100
AcDbEntity
  8
AM_7
 48
0.6
100
AcDbLine
 10
271.5663456040853
 20
121.1538284422129
 30
0.0
 11
283.5663456040852
 21
121.1538284422129
 31
0.0
1001
GENIUS_GENOBJ-N-CEN_13
1002
{
1000
OWNER
1000
GEN
1002
}
1001
GENIUS_GENODEF_13
1002
{
1000
HIER
1070
     0
1002
}
1002
{
1000
MANEDIT
1070
     0
1002
}
1002
{
1000
NOSEL
1070
     0
1002
}
1002
{
1000
BEHIND
1070
     0
1002
}
1002
{
1000
OTHER
1070
     0
1002
}
1002
{
1000
REACTOR
1002
}
1001
GENIUS_GENCEN_19
1002
{
1040
3.0
1002
}
  0
LINE
  5
BCC0
330
1F
100
AcDbEntity
  8
AM_7
 48
0.6
100
AcDbLine
 10
271.5663456040853
 20
81.15382844221292
 30
0.0
 11
283.5663456040852
 21
81.15382844221292
 31
0.0
1001
GENIUS_GENOBJ-N-CEN_13
1002
{
1000
OWNER
1000
GEN
1002
}
1001
GENIUS_GENODEF_13
1002
{
1000
HIER
1070
     0
1002
}
1002
{
1000
MANEDIT
1070
     0
1002
}
1002
{
1000
NOSEL
1070
     0
1002
}
1002
{
1000
BEHIND
1070
     0
1002
}
1002
{
1000
OTHER
1070
     0
1002
}
1002
{
1000
REACTOR
1002
}
1001
GENIUS_GENCEN_19
1002
{
1040
3.0
1002
}
  0
HATCH
  5
BCD5
330
1F
100
AcDbEntity
  8
AM_8
100
AcDbHatch
 10
0.0
 20
0.0
 30
0.0
210
0.0
220
0.0
230
1.0
  2
_U
 70
     0
 71
     0
 91
        1
 92
        1
 93
        4
 72
     1
 10
193.2554076040852
 20
66.60233744221293
 11
193.2554076040852
 21
136.6023374422129
 72
     1
 10
193.2554076040852
 20
136.6023374422129
 11
145.2554096040852
 21
136.6023374422129
 72
     1
 10
145.2554096040852
 20
136.6023374422129
 11
145.2554096040852
 21
66.60233744221293
 72
     1
 10
145.2554096040852
 20
66.60233744221293
 11
193.2554076040852
 21
66.60233744221293
 97
        0
 75
     0
 76
     0
 52
45.0
 41
2.5
 77
     0
 78
     1
 53
45.0
 43
0.0
 44
0.0
 45
-1.767766952966368
 46
1.767766952966368
 79
     0
 98
        1
 10
0.0
 20
0.0
1001
GENIUS_GENOBJ-N-HTC_13
1002
{
1000
OWNER
1000
GEN
1002
}
1001
GENIUS_GENODEF_13
1002
{
1000
HIER
1070
     0
1002
}
1002
{
1000
MANEDIT
1070
     0
1002
}
1002
{
1000
NOSEL
1070
     0
1002
}
1002
{
1000
BEHIND
1070
     0
1002
}
1002
{
1000
OTHER
1070
     0
1002
}
1002
{
1000
REACTOR
1002
}
1001
GENIUS_GENHATCH_13
1002
{
1000
DATA
1040
45.0
1042
2.5
1000
_U
1070
     0
1011
167.3029510703189
1021
108.0600394517063
1031
0.0
1002
}
1002
{
1000
UCS
1010
0.0
1020
0.0
1030
0.0
1010
1.0
1020
0.0
1030
0.0
1010
0.0
1020
1.0
1030
0.0
1002
}
  0
ENDSEC
  0
SECTION
  2
OBJECTS
  0
DICTIONARY
  5
C
330
0
100
AcDbDictionary
281
     1
  3
ACAD_2007HEADERVARS_RT
350
BCF0
  3
ACAD_BGPLOT_KEY
350
AB06
  3
ACAD_COLOR
350
A91D
  3
ACAD_GROUP
350
D
  3
ACAD_LAYOUT
350
1A
  3
ACAD_MATERIAL
350
A91C
  3
ACAD_MLINESTYLE
350
17
  3
ACAD_PLOTSETTINGS
350
19
  3
ACAD_PLOTSTYLENAME
350
E
  3
ACAD_TABLESTYLE
350
AAB9
  3
ACAD_VISUALSTYLE
350
B0F1
  3
AcAsAppObject
350
3DA1
  3
ACASGREF_MASTER
350
3DE9
  3
AcDbVariableDictionary
350
34
  3
AcmDictionary
350
47
  3
AD_GREF_MODULE
350
3DEA
  3
AD_MAPI_MODULE
350
3E06
  3
AMG
350
2B
  3
AMGSNAPSETTINGS
350
7D
  3
ASE_INDEX_DICTIONARY
350
B331
  3
DWGPROPS
350
BCEF
  3
MAPISURF_MODULE
350
3DEB
  0
DICTIONARY
  5
3F95
330
2
100
AcDbDictionary
280
     1
281
     1
  3
ACAD_LAYERFILTERS
360
B523
  3
ACAD_LAYERSTATES
360
3F96
  3
ACLYDICTIONARY
360
B522
  3
AMLAYER_GROUPCOLORS
360
AAB4
  0
DICTIONARY
  5
8A
330
1F
100
AcDbDictionary
280
     1
281
     1
  3
ACAD_SORTENTS
360
B1BA
  0
DICTIONARY
  5
BCF0
102
{ACAD_REACTORS
330
C
102
}
330
C
100
AcDbDictionary
281
     1
  3
DIMARCSYM
350
BCF1
  0
DICTIONARY
  5
AB06
102
{ACAD_REACTORS
330
C
102
}
330
C
100
AcDbDictionary
280
     1
281
     1
  0
DICTIONARY
  5
A91D
102
{ACAD_REACTORS
330
C
102
}
330
C
100
AcDbDictionary
281
     1
  0
DICTIONARY
  5
D
102
{ACAD_REACTORS
330
C
102
}
330
C
100
AcDbDictionary
281
     1
  0
DICTIONARY
  5
1A
102
{ACAD_REACTORS
330
C
102
}
330
C
100
AcDbDictionary
281
     1
  3
Model
350
22
  3
ﾚｲｱｳﾄ1
350
1E
  3
ﾚｲｱｳﾄ2
350
26
  0
DICTIONARY
  5
A91C
102
{ACAD_REACTORS
330
C
102
}
330
C
100
AcDbDictionary
281
     1
  3
ByBlock
350
B0EF
  3
ByLayer
350
B0EE
  3
Global
350
B0F0
  0
DICTIONARY
  5
17
102
{ACAD_REACTORS
330
C
102
}
330
C
100
AcDbDictionary
281
     1
  3
Standard
350
18
  0
DICTIONARY
  5
19
102
{ACAD_REACTORS
330
C
102
}
330
C
100
AcDbDictionary
281
     1
  0
ACDBDICTIONARYWDFLT
  5
E
102
{ACAD_REACTORS
330
C
102
}
330
C
100
AcDbDictionary
281
     1
  3
Normal
350
F
100
AcDbDictionaryWithDefault
340
F
  0
DICTIONARY
  5
AAB9
102
{ACAD_REACTORS
330
C
102
}
330
C
100
AcDbDictionary
281
     1
  3
Standard
350
AABA
  0
DICTIONARY
  5
B0F1
102
{ACAD_REACTORS
330
C
102
}
330
C
100
AcDbDictionary
281
     1
  3
2dWireframe
350
B0F7
  3
3D Hidden
350
B0F9
  3
3dWireframe
350
B0F8
  3
Basic
350
B0F6
  3
Brighten
350
B0FD
  3
ColorChange
350
B101
  3
Conceptual
350
B0FA
  3
Dim
350
B0FC
  3
Facepattern
350
B100
  3
Flat
350
B0F2
  3
FlatWithEdges
350
B0F3
  3
Gouraud
350
B0F4
  3
GouraudWithEdges
350
B0F5
  3
Linepattern
350
B0FF
  3
Realistic
350
B0FB
  3
Thicken
350
B0FE
  0
ACAD_PROXY_OBJECT
  5
3DA1
102
{ACAD_REACTORS
330
C
102
}
330
C
100
AcDbProxyObject
 90
      499
 91
      576
 95
   917527
 70
     0
 93
       10
310
407F
 94
        0
1001
ACAD
1000
AcRTDxfName
1000
ASAPP
  0
ACAD_PROXY_OBJECT
  5
3DE9
102
{ACAD_REACTORS
330
C
102
}
330
C
100
AcDbProxyObject
 90
      499
 91
      581
 95
   917527
 70
     0
 93
       34
310
010000407F
 94
        0
1001
ACAD
1000
AcRTDxfName
1000
ACASGREFMASTER
  0
DICTIONARY
  5
34
102
{ACAD_REACTORS
330
C
102
}
330
C
100
AcDbDictionary
281
     1
  3
CTABLESTYLE
350
AAF3
  3
DIMASSOC
350
A10C
  3
FIELDEVAL
350
AB07
  3
INDEXCTL
350
35
  3
SORTENTS
350
194C
  0
DICTIONARY
  5
47
102
{ACAD_REACTORS
330
C
102
}
330
C
100
AcDbDictionary
281
     1
  3
AcmBOM
350
7E8
  3
AcmStdDictionary
350
4C
  3
AMDTSECTSYM_ARROWCOLOR
350
A929
  0
ACAD_PROXY_OBJECT
  5
3DEA
102
{ACAD_REACTORS
330
C
102
}
330
C
100
AcDbProxyObject
 90
      499
 91
      582
 95
   917527
 70
     0
 93
      114
310
00000043800000000000000000003F
 94
        0
1001
ACAD
1000
AcRTDxfName
1000
ACADGREFMODULE
  0
ACAD_PROXY_OBJECT
  5
3E06
102
{ACAD_REACTORS
330
C
102
}
330
C
100
AcDbProxyObject
 90
      499
 91
      594
 95
   917527
 70
     0
 93
       34
310
05000044FF
 94
        0
1001
ACAD
1000
AcRTDxfName
1000
MAPIADMODULE
  0
DICTIONARY
  5
2B
102
{ACAD_REACTORS
330
C
102
}
330
C
100
AcDbDictionary
281
     1
  0
DICTIONARY
  5
7D
102
{ACAD_REACTORS
330
C
102
}
330
C
100
AcDbDictionary
281
     1
  0
DICTIONARY
  5
B331
102
{ACAD_REACTORS
330
C
102
}
330
C
100
AcDbDictionary
281
     1
  3
ASEBlockHierarchyIndexRecord
350
B332
1001
DCO15
1040
1594111214.218
  0
XRECORD
  5
BCEF
102
{ACAD_REACTORS
330
C
102
}
330
C
100
AcDbXrecord
280
     1
  1
DWGPROPS COOKIE
  2

  3

  4

  6

  7

  8
Administrator
  9

300
AmdtFileType=84
301
=
302
=
303
=
304
=
305
=
306
=
307
=
308
=
309
=
 40
0.0078309375
 41
2456687.638781458
 42
2456687.646610244
  1

 90
        1
  0
ACAD_PROXY_OBJECT
  5
3DEB
102
{ACAD_REACTORS
330
C
102
}
330
C
100
AcDbProxyObject
 90
      499
 91
      583
 95
   917527
 70
     0
 93
        8
310
047E
 94
        0
1001
ACAD
1000
AcRTDxfName
1000
AMDTMAPISURFMOUDULE
  0
DICTIONARY
  5
B523
102
{ACAD_REACTORS
330
3F95
102
}
330
3F95
100
AcDbDictionary
281
     1
  0
DICTIONARY
  5
3F96
102
{ACAD_REACTORS
330
3F95
102
}
330
3F95
100
AcDbDictionary
281
     1
  3
20011210
350
3FB7
  0
DICTIONARY
  5
B522
102
{ACAD_REACTORS
330
3F95
102
}
330
3F95
100
AcDbDictionary
281
     1
1001
ACAD
1000
<All
  0
DICTIONARY
  5
AAB4
102
{ACAD_REACTORS
330
3F95
102
}
330
3F95
100
AcDbDictionary
280
     1
281
     1
  0
SORTENTSTABLE
  5
B1BA
102
{ACAD_REACTORS
330
8A
102
}
330
8A
100
AcDbSortentsTable
330
1F
331
BAE3
  5
BAE3
331
BCAD
  5
BCAD
331
B7E3
  5
B7E3
331
B7C1
  5
B7C1
331
B79F
  5
B79F
331
B77D
  5
B77D
331
B7D2
  5
B7D2
331
B7B0
  5
B7B0
331
B78E
  5
B78E
331
B774
  5
B774
331
B763
  5
B763
331
BB25
  5
BB25
331
BBBF
  5
BBBF
331
B7E1
  5
B7E1
331
B7BF
  5
B7BF
331
B79D
  5
B79D
331
B77B
  5
B77B
331
B7D0
  5
B7D0
331
B7AE
  5
B7AE
331
B78C
  5
B78C
331
B772
  5
B772
331
B761
  5
B761
331
B7DF
  5
B7DF
331
B7BD
  5
B7BD
331
B79B
  5
B79B
331
B779
  5
B779
331
BC01
  5
BC01
331
B7CE
  5
B7CE
331
B7AC
  5
B7AC
331
B78A
  5
B78A
331
B770
  5
B770
331
B75F
  5
B75F
331
BB3B
  5
BB3B
331
BA8B
  5
BA8B
331
B7DD
  5
B7DD
331
B7BB
  5
B7BB
331
B799
  5
B799
331
B7EE
  5
B7EE
331
B7CC
  5
B7CC
331
B7AA
  5
B7AA
331
B76E
  5
B76E
331
B75D
  5
B75D
331
BB7D
  5
BB7D
331
B7DB
  5
B7DB
331
B7B9
  5
B7B9
331
B7EC
  5
B7EC
331
B7CA
  5
B7CA
331
B7A8
  5
B7A8
331
B786
  5
B786
331
B76C
  5
B76C
331
B797
  5
B797
331
B75B
  5
B75B
331
B7F3
  5
B7F3
331
B7D9
  5
B7D9
331
B7EA
  5
B7EA
331
B7C8
  5
B7C8
331
B7A6
  5
B7A6
331
B784
  5
B784
331
B76A
  5
B76A
331
B7B7
  5
B7B7
331
B795
  5
B795
331
B759
  5
B759
331
B7F1
  5
B7F1
331
BAF9
  5
BAF9
331
B7E8
  5
B7E8
331
B7C6
  5
B7C6
331
B7D7
  5
B7D7
331
B7B5
  5
B7B5
331
B7A4
  5
B7A4
331
B782
  5
B782
331
B768
  5
B768
331
BBD5
  5
BBD5
331
B7E6
  5
B7E6
331
B7C4
  5
B7C4
331
B7A2
  5
B7A2
331
B780
  5
B780
331
BC44
  5
BC44
331
B7D5
  5
B7D5
331
B7B3
  5
B7B3
331
B791
  5
B791
331
B777
  5
B777
331
B766
  5
B766
331
BC17
  5
BC17
331
B7E4
  5
B7E4
331
B7C2
  5
B7C2
331
B7A0
  5
B7A0
331
B77E
  5
B77E
331
BA45
  5
BA45
331
BA5F
  5
BA5F
331
B7D3
  5
B7D3
331
B7B1
  5
B7B1
331
B78F
  5
B78F
331
B775
  5
B775
331
B764
  5
B764
331
B9FF
  5
B9FF
331
B7E2
  5
B7E2
331
B7C0
  5
B7C0
331
B79E
  5
B79E
331
B77C
  5
B77C
331
BB51
  5
BB51
331
BAA1
  5
BAA1
331
B7D1
  5
B7D1
331
B7AF
  5
B7AF
331
B78D
  5
B78D
331
B773
  5
B773
331
B762
  5
B762
331
BC2D
  5
BC2D
331
B7E0
  5
B7E0
331
B7BE
  5
B7BE
331
B79C
  5
B79C
331
B77A
  5
B77A
331
BB93
  5
BB93
331
B7CF
  5
B7CF
331
B7AD
  5
B7AD
331
B78B
  5
B78B
331
B771
  5
B771
331
B760
  5
B760
331
BACD
  5
BACD
331
B7DE
  5
B7DE
331
B7BC
  5
B7BC
331
B79A
  5
B79A
331
B778
  5
B778
331
B7EF
  5
B7EF
331
B7CD
  5
B7CD
331
B7AB
  5
B7AB
331
B76F
  5
B76F
331
B75E
  5
B75E
331
B7DC
  5
B7DC
331
B7BA
  5
B7BA
331
B798
  5
B798
331
B7ED
  5
B7ED
331
B7CB
  5
B7CB
331
B7A9
  5
B7A9
331
B76D
  5
B76D
331
B75C
  5
B75C
331
B7F4
  5
B7F4
331
B7DA
  5
B7DA
331
B7B8
  5
B7B8
331
B7EB
  5
B7EB
331
B7C9
  5
B7C9
331
B7A7
  5
B7A7
331
B785
  5
B785
331
B76B
  5
B76B
331
BBEB
  5
BBEB
331
B796
  5
B796
331
B75A
  5
B75A
331
B7F2
  5
B7F2
331
B7D8
  5
B7D8
331
BA75
  5
BA75
331
BCD5
  5
BCD3
331
B7E9
  5
B7E9
331
B7C7
  5
B7C7
331
B7A5
  5
B7A5
331
B7B6
  5
B7B6
331
B794
  5
B794
331
B783
  5
B783
331
B769
  5
B769
331
BA15
  5
BA15
331
B7F0
  5
B7F0
331
BC9A
  5
BC9A
331
BB67
  5
BB67
331
BAB7
  5
BAB7
331
B7E7
  5
B7E7
331
B7C5
  5
B7C5
331
B7A3
  5
B7A3
331
B7D6
  5
B7D6
331
B7B4
  5
B7B4
331
B792
  5
B792
331
B781
  5
B781
331
B767
  5
B767
331
BCC0
  5
BCC0
331
BBA9
  5
BBA9
331
B7E5
  5
B7E5
331
B7C3
  5
B7C3
331
B7A1
  5
B7A1
331
B77F
  5
B77F
331
B7D4
  5
B7D4
331
B7B2
  5
B7B2
331
B790
  5
B790
331
B776
  5
B776
331
B765
  5
B765
  0
XRECORD
  5
BCF1
102
{ACAD_REACTORS
330
BCF0
102
}
330
BCF0
100
AcDbXrecord
280
     1
 70
     1
  0
LAYOUT
  5
22
102
{ACAD_XDICTIONARY
360
BCF4
102
}
102
{ACAD_REACTORS
330
1A
102
}
330
1A
100
AcDbPlotSettings
  1

  2
Adobe PDF
  4
A3
  6
AM_VIEW1
 40
3.174999952316284
 41
3.174999952316284
 42
3.17498779296875
 43
3.17498779296875
 44
297.0318298339844
 45
420.1583251953125
 46
8.84092104434967
 47
16.40416872501373
 48
0.000000604085244
 49
0.0000004422129223
140
381.0000006040852
141
273.0000004422129
142
1.0
143
1.0
 70
  3748
 72
     1
 73
     1
 74
     4
  7
monochrome.ctb
 75
     0
147
1.064768652339558
148
-0.000000604085244
149
-0.0000004422129223
100
AcDbLayout
  1
Model
 70
     1
 71
     0
 10
0.0
 20
0.0
 11
12.0
 21
9.0
 12
0.0
 22
0.0
 32
0.0
 14
0.0
 24
0.0
 34
0.0
 15
0.0
 25
0.0
 35
0.0
146
0.0
 13
0.0
 23
0.0
 33
0.0
 16
1.0
 26
0.0
 36
0.0
 17
0.0
 27
1.0
 37
0.0
 76
     0
330
1F
331
B0EC
1001
ACAD_PSEXT
1000
Adobe PDF
1000
Adobe PDF Converter
1000
My Documents\*.pdf
1000

1070
     0
  0
LAYOUT
  5
1E
102
{ACAD_XDICTIONARY
360
BCF2
102
}
102
{ACAD_REACTORS
330
1A
102
}
330
1A
100
AcDbPlotSettings
  1

  2
\\ML370\XEROX
  4
A4
  6

 40
3.174999952316284
 41
3.174999952316284
 42
3.175003051757812
 43
3.17498779296875
 44
209.8674926757813
 45
296.6719970703125
 46
0.0
 47
0.0
 48
0.0
 49
0.0
140
0.0
141
0.0
142
1.0
143
1.0
 70
   688
 72
     1
 73
     1
 74
     5
  7
monochrome.ctb
 75
    16
147
1.0
148
0.0
149
0.0
100
AcDbLayout
  1
ﾚｲｱｳﾄ1
 70
     1
 71
     1
 10
-3.17498779296875
 20
-3.174999952316284
 11
293.4970092773438
 21
206.692492723465
 12
0.0
 22
0.0
 32
0.0
 14
1.000000000000000E+20
 24
1.000000000000000E+20
 34
1.000000000000000E+20
 15
-1.000000000000000E+20
 25
-1.000000000000000E+20
 35
-1.000000000000000E+20
146
0.0
 13
0.0
 23
0.0
 33
0.0
 16
1.0
 26
0.0
 36
0.0
 17
0.0
 27
1.0
 37
0.0
 76
     0
330
1B
  0
LAYOUT
  5
26
102
{ACAD_XDICTIONARY
360
BCF6
102
}
102
{ACAD_REACTORS
330
1A
102
}
330
1A
100
AcDbPlotSettings
  1

  2
\\ML370\XEROX
  4

  6

 40
0.0
 41
0.0
 42
0.0
 43
0.0
 44
0.0
 45
0.0
 46
0.0
 47
0.0
 48
0.0
 49
0.0
140
0.0
141
0.0
142
1.0
143
1.0
 70
   688
 72
     0
 73
     0
 74
     5
  7
monochrome.ctb
 75
    16
147
1.0
148
0.0
149
0.0
100
AcDbLayout
  1
ﾚｲｱｳﾄ2
 70
     1
 71
     2
 10
0.0
 20
0.0
 11
12.0
 21
9.0
 12
0.0
 22
0.0
 32
0.0
 14
0.0
 24
0.0
 34
0.0
 15
0.0
 25
0.0
 35
0.0
146
0.0
 13
0.0
 23
0.0
 33
0.0
 16
1.0
 26
0.0
 36
0.0
 17
0.0
 27
1.0
 37
0.0
 76
     0
330
23
  0
MATERIAL
  5
B0EF
102
{ACAD_XDICTIONARY
360
BCFC
102
}
102
{ACAD_REACTORS
330
A91C
102
}
330
A91C
100
AcDbMaterial
  1
ByBlock
  0
MATERIAL
  5
B0EE
102
{ACAD_XDICTIONARY
360
BCFA
102
}
102
{ACAD_REACTORS
330
A91C
102
}
330
A91C
100
AcDbMaterial
  1
ByLayer
  0
MATERIAL
  5
B0F0
102
{ACAD_XDICTIONARY
360
BCFE
102
}
102
{ACAD_REACTORS
330
A91C
102
}
330
A91C
100
AcDbMaterial
  1
Global
  0
MLINESTYLE
  5
18
102
{ACAD_REACTORS
330
17
102
}
330
17
100
AcDbMlineStyle
  2
STANDARD
 70
     0
  3

 62
   256
 51
90.0
 52
90.0
 71
     2
 49
0.5
 62
   256
  6
BYLAYER
 49
-0.5
 62
   256
  6
BYLAYER
  0
ACDBPLACEHOLDER
  5
F
102
{ACAD_REACTORS
330
E
102
}
330
E
  0
TABLESTYLE
  5
AABA
102
{ACAD_XDICTIONARY
360
BCF8
102
}
102
{ACAD_REACTORS
330
AAB9
102
}
330
AAB9
100
AcDbTableStyle
  3
Standard
 70
     0
 71
     0
 40
1.5
 41
1.5
280
     0
281
     0
  7
STANDARD
140
4.5
170
     2
 62
     0
 63
     7
283
     0
274
    -2
284
     1
 64
     0
275
    -2
285
     1
 65
     0
276
    -2
286
     1
 66
     0
277
    -2
287
     1
 67
     0
278
    -2
288
     1
 68
     0
279
    -2
289
     1
 69
     0
  7
STANDARD
140
6.0
170
     5
 62
     0
 63
     7
283
     0
274
    -2
284
     1
 64
     0
275
    -2
285
     1
 65
     0
276
    -2
286
     1
 66
     0
277
    -2
287
     1
 67
     0
278
    -2
288
     1
 68
     0
279
    -2
289
     1
 69
     0
  7
STANDARD
140
4.5
170
     5
 62
     0
 63
     7
283
     0
274
    -2
284
     1
 64
     0
275
    -2
285
     1
 65
     0
276
    -2
286
     1
 66
     0
277
    -2
287
     1
 67
     0
278
    -2
288
     1
 68
     0
279
    -2
289
     1
 69
     0
  0
VISUALSTYLE
  5
B0F7
102
{ACAD_REACTORS
330
B0F1
102
}
330
B0F1
100
AcDbVisualStyle
  2
2dWireframe
 70
     4
 71
     0
 72
     2
 73
     0
 90
        0
 40
-0.6
 41
-30.0
 62
     5
 63
     7
 74
     1
 91
        4
 64
     7
 65
   257
 75
     1
175
     1
 42
1.0
 92
        0
 66
   257
 43
1.0
 76
     1
 77
     6
 78
     2
 67
     7
 79
     5
170
     0
171
     0
290
     0
174
     0
 93
        1
 44
0.0
173
     0
291
     0
 45
0.0
1001
ACAD
1000
AcDbSavedByObjectVersion
1070
     0
  0
VISUALSTYLE
  5
B0F9
102
{ACAD_REACTORS
330
B0F1
102
}
330
B0F1
100
AcDbVisualStyle
  2
3D Hidden
 70
     6
 71
     1
 72
     2
 73
     2
 90
        0
 40
-0.6
 41
-30.0
 62
     5
 63
     7
 74
     2
 91
        2
 64
     7
 65
   257
 75
     2
175
     1
 42
40.0
 92
        0
 66
   257
 43
1.0
 76
     1
 77
     6
 78
     2
 67
     7
 79
     3
170
     0
171
     0
290
     0
174
     0
 93
        1
 44
0.0
173
     0
291
     0
 45
0.0
1001
ACAD
1000
AcDbSavedByObjectVersion
1070
     0
  0
VISUALSTYLE
  5
B0F8
102
{ACAD_REACTORS
330
B0F1
102
}
330
B0F1
100
AcDbVisualStyle
  2
3dWireframe
 70
     5
 71
     0
 72
     2
 73
     0
 90
        0
 40
-0.6
 41
-30.0
 62
     5
 63
     7
 74
     1
 91
        4
 64
     7
 65
   257
 75
     1
175
     1
 42
1.0
 92
        0
 66
   257
 43
1.0
 76
     1
 77
     6
 78
     2
 67
     7
 79
     5
170
     0
171
     0
290
     0
174
     0
 93
        1
 44
0.0
173
     0
291
     0
 45
0.0
1001
ACAD
1000
AcDbSavedByObjectVersion
1070
     0
  0
VISUALSTYLE
  5
B0F6
102
{ACAD_REACTORS
330
B0F1
102
}
330
B0F1
100
AcDbVisualStyle
  2
Basic
 70
     7
 71
     1
 72
     0
 73
     1
 90
        0
 40
-0.6
 41
-30.0
 62
     5
 63
     7
 74
     0
 91
        4
 64
     7
 65
   257
 75
     1
175
     1
 42
1.0
 92
        8
 66
     7
 43
1.0
 76
     1
 77
     6
 78
     2
 67
     7
 79
     5
170
     0
171
     0
290
     0
174
     0
 93
        1
 44
0.0
173
     0
291
     1
 45
0.0
1001
ACAD
1000
AcDbSavedByObjectVersion
1070
     0
  0
VISUALSTYLE
  5
B0FD
102
{ACAD_REACTORS
330
B0F1
102
}
330
B0F1
100
AcDbVisualStyle
  2
Brighten
 70
    12
 71
     2
 72
     2
 73
     0
 90
        0
 40
-0.6
 41
-30.0
 62
     5
 63
     7
 74
     1
 91
        4
 64
     7
 65
   257
 75
     1
175
     1
 42
1.0
 92
        8
 66
     7
 43
1.0
 76
     1
 77
     6
 78
     2
 67
     7
 79
     5
170
     0
171
     0
290
     0
174
     0
 93
        1
 44
50.0
173
     0
291
     1
 45
0.0
1001
ACAD
1000
AcDbSavedByObjectVersion
1070
     0
  0
VISUALSTYLE
  5
B101
102
{ACAD_REACTORS
330
B0F1
102
}
330
B0F1
100
AcDbVisualStyle
  2
ColorChange
 70
    16
 71
     2
 72
     2
 73
     3
 90
        0
 40
-0.6
 41
-30.0
 62
     5
 63
     8
 74
     1
 91
        4
 64
     7
 65
   257
 75
     1
175
     1
 42
1.0
 92
        8
 66
     8
 43
1.0
 76
     1
 77
     6
 78
     2
 67
     7
 79
     5
170
     0
171
     0
290
     0
174
     0
 93
        1
 44
0.0
173
     0
291
     1
 45
0.0
1001
ACAD
1000
AcDbSavedByObjectVersion
1070
     0
  0
VISUALSTYLE
  5
B0FA
102
{ACAD_REACTORS
330
B0F1
102
}
330
B0F1
100
AcDbVisualStyle
  2
Conceptual
 70
     9
 71
     3
 72
     2
 73
     0
 90
        0
 40
-0.6
 41
-30.0
 62
     5
 63
     7
 74
     2
 91
        2
 64
     7
 65
   257
 75
     1
175
     1
 42
40.0
 92
        8
 66
     7
 43
1.0
 76
     1
 77
     6
 78
     2
 67
     7
 79
     3
170
     0
171
     0
290
     0
174
     0
 93
        1
 44
0.0
173
     0
291
     0
 45
0.0
1001
ACAD
1000
AcDbSavedByObjectVersion
1070
     0
  0
VISUALSTYLE
  5
B0FC
102
{ACAD_REACTORS
330
B0F1
102
}
330
B0F1
100
AcDbVisualStyle
  2
Dim
 70
    11
 71
     2
 72
     2
 73
     0
 90
        0
 40
-0.6
 41
-30.0
 62
     5
 63
     7
 74
     1
 91
        4
 64
     7
 65
   257
 75
     1
175
     1
 42
1.0
 92
        8
 66
     7
 43
1.0
 76
     1
 77
     6
 78
     2
 67
     7
 79
     5
170
     0
171
     0
290
     0
174
     0
 93
        1
 44
-50.0
173
     0
291
     1
 45
0.0
1001
ACAD
1000
AcDbSavedByObjectVersion
1070
     0
  0
VISUALSTYLE
  5
B100
102
{ACAD_REACTORS
330
B0F1
102
}
330
B0F1
100
AcDbVisualStyle
  2
Facepattern
 70
    15
 71
     2
 72
     2
 73
     0
 90
        0
 40
-0.6
 41
-30.0
 62
     5
 63
     7
 74
     1
 91
        4
 64
     7
 65
   257
 75
     1
175
     1
 42
1.0
 92
        8
 66
     7
 43
1.0
 76
     1
 77
     6
 78
     2
 67
     7
 79
     5
170
     0
171
     0
290
     0
174
     0
 93
        1
 44
0.0
173
     0
291
     1
 45
0.0
1001
ACAD
1000
AcDbSavedByObjectVersion
1070
     0
  0
VISUALSTYLE
  5
B0F2
102
{ACAD_REACTORS
330
B0F1
102
}
330
B0F1
100
AcDbVisualStyle
  2
Flat
 70
     0
 71
     2
 72
     1
 73
     1
 90
        2
 40
-0.6
 41
30.0
 62
     5
 63
     7
 74
     0
 91
        4
 64
     7
 65
   257
 75
     1
175
     1
 42
1.0
 92
        8
 66
     7
 43
1.0
 76
     1
 77
     6
 78
     2
 67
     7
 79
     5
170
     0
171
     0
290
     0
174
     0
 93
       13
 44
0.0
173
     0
291
     1
 45
0.0
1001
ACAD
1000
AcDbSavedByObjectVersion
1070
     0
  0
VISUALSTYLE
  5
B0F3
102
{ACAD_REACTORS
330
B0F1
102
}
330
B0F1
100
AcDbVisualStyle
  2
FlatWithEdges
 70
     1
 71
     2
 72
     1
 73
     1
 90
        2
 40
-0.6
 41
30.0
 62
     5
 63
     7
 74
     1
 91
        4
 64
     7
 65
   257
 75
     1
175
     1
 42
1.0
 92
        0
 66
   257
 43
1.0
 76
     1
 77
     6
 78
     2
 67
     7
 79
     5
170
     0
171
     0
290
     0
174
     0
 93
       13
 44
0.0
173
     0
291
     1
 45
0.0
1001
ACAD
1000
AcDbSavedByObjectVersion
1070
     0
  0
VISUALSTYLE
  5
B0F4
102
{ACAD_REACTORS
330
B0F1
102
}
330
B0F1
100
AcDbVisualStyle
  2
Gouraud
 70
     2
 71
     2
 72
     2
 73
     1
 90
        2
 40
-0.6
 41
30.0
 62
     5
 63
     7
 74
     0
 91
        4
 64
     7
 65
   257
 75
     1
175
     1
 42
1.0
 92
        0
 66
     7
 43
1.0
 76
     1
 77
     6
 78
     2
 67
     7
 79
     5
170
     0
171
     0
290
     0
174
     0
 93
       13
 44
0.0
173
     0
291
     1
 45
0.0
1001
ACAD
1000
AcDbSavedByObjectVersion
1070
     0
  0
VISUALSTYLE
  5
B0F5
102
{ACAD_REACTORS
330
B0F1
102
}
330
B0F1
100
AcDbVisualStyle
  2
GouraudWithEdges
 70
     3
 71
     2
 72
     2
 73
     1
 90
        2
 40
-0.6
 41
30.0
 62
     5
 63
     7
 74
     1
 91
        4
 64
     7
 65
   257
 75
     1
175
     1
 42
1.0
 92
        0
 66
   257
 43
1.0
 76
     1
 77
     6
 78
     2
 67
     7
 79
     5
170
     0
171
     0
290
     0
174
     0
 93
       13
 44
0.0
173
     0
291
     1
 45
0.0
1001
ACAD
1000
AcDbSavedByObjectVersion
1070
     0
  0
VISUALSTYLE
  5
B0FF
102
{ACAD_REACTORS
330
B0F1
102
}
330
B0F1
100
AcDbVisualStyle
  2
Linepattern
 70
    14
 71
     2
 72
     2
 73
     0
 90
        0
 40
-0.6
 41
-30.0
 62
     5
 63
     7
 74
     1
 91
        4
 64
     7
 65
   257
 75
     7
175
     7
 42
1.0
 92
        8
 66
     7
 43
1.0
 76
     1
 77
     6
 78
     2
 67
     7
 79
     5
170
     0
171
     0
290
     0
174
     0
 93
        1
 44
0.0
173
     0
291
     1
 45
0.0
1001
ACAD
1000
AcDbSavedByObjectVersion
1070
     0
  0
VISUALSTYLE
  5
B0FB
102
{ACAD_REACTORS
330
B0F1
102
}
330
B0F1
100
AcDbVisualStyle
  2
Realistic
 70
     8
 71
     2
 72
     2
 73
     0
 90
        0
 40
-0.6
 41
-30.0
 62
     5
 63
     7
 74
     1
 91
        0
 64
     7
 65
   257
 75
     1
175
     1
 42
1.0
 92
        8
 66
     8
 43
1.0
 76
     1
 77
     6
 78
     2
 67
     7
 79
     5
170
     0
171
     0
290
     0
174
     0
 93
       13
 44
0.0
173
     0
291
     0
 45
0.0
1001
ACAD
1000
AcDbSavedByObjectVersion
1070
     0
  0
VISUALSTYLE
  5
B0FE
102
{ACAD_REACTORS
330
B0F1
102
}
330
B0F1
100
AcDbVisualStyle
  2
Thicken
 70
    13
 71
     2
 72
     2
 73
     0
 90
        0
 40
-0.6
 41
-30.0
 62
     5
 63
     7
 74
     1
 91
        4
 64
     7
 65
   257
 75
     1
175
     1
 42
1.0
 92
       12
 66
     7
 43
1.0
 76
     1
 77
     6
 78
     2
 67
     7
 79
     5
170
     0
171
     0
290
     0
174
     0
 93
        1
 44
0.0
173
     0
291
     1
 45
0.0
1001
ACAD
1000
AcDbSavedByObjectVersion
1070
     0
  0
DICTIONARYVAR
  5
AAF3
102
{ACAD_REACTORS
330
34
102
}
330
34
100
DictionaryVariables
280
     0
  1
STANDARD
  0
DICTIONARYVAR
  5
A10C
102
{ACAD_REACTORS
330
34
102
}
330
34
100
DictionaryVariables
280
     0
  1
1
  0
DICTIONARYVAR
  5
AB07
102
{ACAD_REACTORS
330
34
102
}
330
34
100
DictionaryVariables
280
     0
  1
4
  0
DICTIONARYVAR
  5
35
102
{ACAD_REACTORS
330
34
102
}
330
34
100
DictionaryVariables
280
     0
  1
0
  0
DICTIONARYVAR
  5
194C
102
{ACAD_REACTORS
330
34
102
}
330
34
100
DictionaryVariables
280
     0
  1
96
  0
DICTIONARY
  5
7E8
102
{ACAD_REACTORS
330
47
102
}
330
47
100
AcDbDictionary
281
     1
  0
DICTIONARY
  5
4C
102
{ACAD_REACTORS
330
47
102
}
330
47
100
AcDbDictionary
281
     1
  0
XRECORD
  5
A929
102
{ACAD_REACTORS
330
47
102
}
330
47
100
AcDbXrecord
280
     1
 90
-1023410169
  0
XRECORD
  5
B332
102
{ACAD_REACTORS
330
B331
102
}
330
B331
100
AcDbXrecord
280
     1
  0
XRECORD
  5
3FB7
102
{ACAD_REACTORS
330
3F96
102
}
330
3F96
100
AcDbXrecord
280
     1
 91
        3
330
0
 90
        8
 62
     7
370
    40
331
16
  1
Color_7
330
0
 90
        0
 62
    14
370
    -3
331
16
  1
Color_14
330
0
 90
        8
 62
     7
370
    20
331
16
  1
Color_7
330
6D1
 90
        0
 62
     7
370
    -3
331
16
  1
Color_7
330
0
 90
        8
 62
     7
370
    50
331
16
  1
Color_7
330
0
 90
        8
 62
     2
370
    35
331
16
  1
Color_2
330
0
 90
        8
 62
     7
370
    -3
331
16
  1
Color_7
330
10
 90
        8
 62
     7
370
    -3
331
16
  1
Color_7
  0
DICTIONARY
  5
BCF4
330
22
100
AcDbDictionary
280
     1
281
     1
  3
ACAD_XREC_ROUNDTRIP
360
BCF5
  0
DICTIONARY
  5
BCF2
330
1E
100
AcDbDictionary
280
     1
281
     1
  3
ACAD_XREC_ROUNDTRIP
360
BCF3
  0
DICTIONARY
  5
BCF6
330
26
100
AcDbDictionary
280
     1
281
     1
  3
ACAD_XREC_ROUNDTRIP
360
BCF7
  0
DICTIONARY
  5
BCFC
330
B0EF
100
AcDbDictionary
280
     1
281
     1
  3
ACAD_XREC_ROUNDTRIP
360
BCFD
  0
DICTIONARY
  5
BCFA
330
B0EE
100
AcDbDictionary
280
     1
281
     1
  3
ACAD_XREC_ROUNDTRIP
360
BCFB
  0
DICTIONARY
  5
BCFE
330
B0F0
100
AcDbDictionary
280
     1
281
     1
  3
ACAD_XREC_ROUNDTRIP
360
BCFF
  0
DICTIONARY
  5
BCF8
330
AABA
100
AcDbDictionary
280
     1
281
     1
  3
ACAD_XREC_ROUNDTRIP
360
BCF9
  0
XRECORD
  5
BCF5
102
{ACAD_REACTORS
330
BCF4
102
}
330
BCF4
100
AcDbXrecord
280
     1
102
SHADEPLOT
 70
     0
102
SHADEPLOTRESLEVEL
 70
     2
102
SHADEPLOTCUSTOMDPI
 70
   200
  0
XRECORD
  5
BCF3
102
{ACAD_REACTORS
330
BCF2
102
}
330
BCF2
100
AcDbXrecord
280
     1
102
SHADEPLOT
 70
     0
102
SHADEPLOTRESLEVEL
 70
     2
102
SHADEPLOTCUSTOMDPI
 70
   300
  0
XRECORD
  5
BCF7
102
{ACAD_REACTORS
330
BCF6
102
}
330
BCF6
100
AcDbXrecord
280
     1
102
SHADEPLOT
 70
     0
102
SHADEPLOTRESLEVEL
 70
     2
102
SHADEPLOTCUSTOMDPI
 70
   300
  0
XRECORD
  5
BCFD
102
{ACAD_REACTORS
330
BCFC
102
}
330
BCFC
100
AcDbXrecord
280
     1
102
MATERIAL
148
0.0
149
0.0
149
0.0
 93
        0
 94
       63
282
     0
 72
     1
 77
     1
171
     1
175
     1
179
     1
273
     0
  0
XRECORD
  5
BCFB
102
{ACAD_REACTORS
330
BCFA
102
}
330
BCFA
100
AcDbXrecord
280
     1
102
MATERIAL
148
0.0
149
0.0
149
0.0
 93
        0
 94
       63
282
     0
 72
     1
 77
     1
171
     1
175
     1
179
     1
273
     0
  0
XRECORD
  5
BCFF
102
{ACAD_REACTORS
330
BCFE
102
}
330
BCFE
100
AcDbXrecord
280
     1
102
MATERIAL
148
0.0
149
0.0
149
0.0
 93
        0
 94
       63
282
     0
 72
     1
 77
     1
171
     1
175
     1
179
     1
273
     0
  0
XRECORD
  5
BCF9
102
{ACAD_REACTORS
330
BCF8
102
}
330
BCF8
100
AcDbXrecord
280
     1
102
ACAD_ROUNDTRIP_PRE2007_TABLESTYLE
 90
        4
 91
        0
  1

 92
        4
 93
        0
  2

 94
        4
 95
        0
  3

  0
ENDSEC
  0
EOF
