  0
SECTION
  2
HEADER
  9
$ACADVER
  1
AC1009
  9
$INSBASE
 10
0.0
 20
0.0
 30
0.0
  9
$EXTMIN
 10
-211.01162631019429
 20
-100.0083306632102
 30
-0.0015258207003583
  9
$EXTMAX
 10
170.01162808436399
 20
173.00833193446539
 30
0.0000000349246037
  9
$LIMMIN
 10
-211.0
 20
-100.0
  9
$LIMMAX
 10
170.0
 20
173.0
  9
$ORTHOMODE
 70
     0
  9
$REGENMODE
 70
     1
  9
$FILLMODE
 70
     1
  9
$QTEXTMODE
 70
     0
  9
$MIRRTEXT
 70
     1
  9
$DRAGMODE
 70
     2
  9
$LTSCALE
 40
1.0
  9
$OSMODE
 70
   165
  9
$ATTMODE
 70
     1
  9
$TEXTSIZE
 40
0.2
  9
$TRACEWID
 40
0.05
  9
$TEXTSTYLE
  7
STANDARD
  9
$CLAYER
  8
0
  9
$CELTYPE
  6
CONTINUOUS
  9
$CECOLOR
 62
   256
  9
$DIMSCALE
 40
1.0
  9
$DIMASZ
 40
1.0
  9
$DIMEXO
 40
2.54
  9
$DIMDLI
 40
0.38
  9
$DIMRND
 40
0.0
  9
$DIMDLE
 40
0.0
  9
$DIMEXE
 40
2.54
  9
$DIMTP
 40
0.0
  9
$DIMTM
 40
0.0
  9
$DIMTXT
 40
3.2000000000000002
  9
$DIMCEN
 40
0.09
  9
$DIMTSZ
 40
0.0
  9
$DIMTOL
 70
     0
  9
$DIMLIM
 70
     0
  9
$DIMTIH
 70
     0
  9
$DIMTOH
 70
     0
  9
$DIMSE1
 70
     0
  9
$DIMSE2
 70
     0
  9
$DIMTAD
 70
     1
  9
$DIMZIN
 70
     0
  9
$DIMBLK
  1

  9
$DIMASO
 70
     1
  9
$DIMSHO
 70
     0
  9
$DIMPOST
  1

  9
$DIMAPOST
  1

  9
$DIMALT
 70
     0
  9
$DIMALTD
 70
     2
  9
$DIMALTF
 40
25.399999999999999
  9
$DIMLFAC
 40
1.0
  9
$DIMTOFL
 70
     0
  9
$DIMTVP
 40
1.0
  9
$DIMTIX
 70
     0
  9
$DIMSOXD
 70
     0
  9
$DIMSAH
 70
     1
  9
$DIMBLK1
  1

  9
$DIMBLK2
  1

  9
$DIMSTYLE
  2
DIMSTYLE
  9
$DIMCLRD
 70
     0
  9
$DIMCLRE
 70
     0
  9
$DIMCLRT
 70
     0
  9
$DIMTFAC
 40
1.0
  9
$DIMGAP
 40
1.6000000000000001
  9
$LUNITS
 70
     2
  9
$LUPREC
 70
     4
  9
$SKETCHINC
 40
0.1
  9
$FILLETRAD
 40
0.0
  9
$AUNITS
 70
     0
  9
$AUPREC
 70
     0
  9
$MENU
  1
.
  9
$ELEVATION
 40
0.0
  9
$PELEVATION
 40
0.0
  9
$THICKNESS
 40
0.0
  9
$LIMCHECK
 70
     0
  9
$BLIPMODE
 70
     0
  9
$CHAMFERA
 40
0.0
  9
$CHAMFERB
 40
0.0
  9
$SKPOLY
 70
     0
  9
$TDCREATE
 40
2452810.4289086112
  9
$TDUPDATE
 40
2452810.457327025
  9
$TDINDWG
 40
0.0284198032
  9
$TDUSRTIMER
 40
0.0284198032
  9
$USRTIMER
 70
     1
  9
$ANGBASE
 50
0.0
  9
$ANGDIR
 70
     0
  9
$PDMODE
 70
     0
  9
$PDSIZE
 40
0.0
  9
$PLINEWID
 40
0.0
  9
$COORDS
 70
     1
  9
$SPLFRAME
 70
     0
  9
$SPLINETYPE
 70
     6
  9
$SPLINESEGS
 70
     8
  9
$ATTDIA
 70
     0
  9
$ATTREQ
 70
     1
  9
$HANDLING
 70
 22529
  9
$HANDSEED
  5
241
  9
$SURFTAB1
 70
     6
  9
$SURFTAB2
 70
     6
  9
$SURFTYPE
 70
     6
  9
$SURFU
 70
     6
  9
$SURFV
 70
     6
  9
$UCSNAME
  2

  9
$UCSORG
 10
0.0
 20
0.0
 30
0.0
  9
$UCSXDIR
 10
1.0
 20
0.0
 30
0.0
  9
$UCSYDIR
 10
0.0
 20
1.0
 30
0.0
  9
$PUCSNAME
  2

  9
$PUCSORG
 10
0.0
 20
0.0
 30
0.0
  9
$PUCSXDIR
 10
1.0
 20
0.0
 30
0.0
  9
$PUCSYDIR
 10
0.0
 20
1.0
 30
0.0
  9
$USERI1
 70
     0
  9
$USERI2
 70
     0
  9
$USERI3
 70
     0
  9
$USERI4
 70
     0
  9
$USERI5
 70
     0
  9
$USERR1
 40
0.0
  9
$USERR2
 40
0.0
  9
$USERR3
 40
0.0
  9
$USERR4
 40
0.0
  9
$USERR5
 40
0.0
  9
$WORLDVIEW
 70
     1
  9
$SHADEDGE
 70
     3
  9
$SHADEDIF
 70
    70
  9
$TILEMODE
 70
     1
  9
$MAXACTVP
 70
    64
  9
$PLIMCHECK
 70
     0
  9
$PEXTMIN
 10
1.0000000000000000E+020
 20
1.0000000000000000E+020
 30
1.0000000000000000E+020
  9
$PEXTMAX
 10
-1.0000000000000000E+020
 20
-1.0000000000000000E+020
 30
-1.0000000000000000E+020
  9
$PLIMMIN
 10
-211.0
 20
-100.0
  9
$PLIMMAX
 10
170.0
 20
173.0
  9
$UNITMODE
 70
     0
  9
$VISRETAIN
 70
     1
  9
$PLINEGEN
 70
     0
  9
$PSLTSCALE
 70
     1
  0
ENDSEC
  0
SECTION
  2
TABLES
  0
TABLE
  2
VPORT
 70
     2
  0
VPORT
  2
*ACTIVE
 70
     0
 10
0.0
 20
0.0
 11
1.0
 21
1.0
 12
-30.41950554957679
 22
74.714806643282159
 13
0.0
 23
0.0
 14
1.0
 24
1.0
 15
0.0
 25
0.0
 16
0.0
 26
0.0
 36
1.0
 17
0.0
 27
0.0
 37
0.0
 40
224.92382735938239
 41
1.6393229166666661
 42
50.0
 43
0.0
 44
0.0
 50
0.0
 51
0.0
 71
     0
 72
   100
 73
     1
 74
     1
 75
     0
 76
     0
 77
     0
 78
     0
  0
ENDTAB
  0
TABLE
  2
LTYPE
 70
     6
  0
LTYPE
  2
CONTINUOUS
 70
     0
  3
Solid line
 72
    65
 73
     0
 40
0.0
  0
LTYPE
  2
DASHED
 70
     0
  3
__ __ __ __ __ __ __ __ __ __ __ __ __ __ __
 72
    65
 73
     2
 40
3.5
 49
2.0
 49
-1.5
  0
LTYPE
  2
CENTER
 70
     0
  3
____ _ ____ _ ____ _ ____ _ ____ _ ____ _ ____
 72
    65
 73
     4
 40
17.5
 49
13.0
 49
-1.5
 49
1.5
 49
-1.5
  0
LTYPE
  2
PHANTOM
 70
     0
  3
_____ _ _ _____ _ _ _____ _ _ _____ _ _ ____  
 72
    65
 73
     6
 40
15.5
 49
8.0
 49
-1.5
 49
1.5
 49
-1.5
 49
1.5
 49
-1.5
  0
LTYPE
  2
DOT
 70
     0
  3
. . . . . . . . . . . . . . . . . . . . . . . .
 72
    65
 73
     2
 40
0.25
 49
0.0
 49
-0.25
  0
LTYPE
  2
HIDDEN
 70
     0
  3
__ __ __ __ __ __ __ __ __ __ __ __ __ __ __
 72
    65
 73
     2
 40
3.5
 49
2.0
 49
-1.5
  0
ENDTAB
  0
TABLE
  2
LAYER
 70
     4
  0
LAYER
  2
0
 70
     0
 62
     7
  6
CONTINUOUS
  0
LAYER
  2
1
 70
     0
 62
     7
  6
CONTINUOUS
  0
LAYER
  2
2
 70
     0
 62
     7
  6
CONTINUOUS
  0
LAYER
  2
DEFPOINTS
 70
     0
 62
     7
  6
CONTINUOUS
  0
ENDTAB
  0
TABLE
  2
STYLE
 70
     1
  0
STYLE
  2
STANDARD
 70
     0
 40
0.0
 41
1.0
 50
0.0
 71
     0
 42
0.2
  3
txt
  4
BIGFONT
  0
ENDTAB
  0
TABLE
  2
VIEW
 70
     0
  0
ENDTAB
  0
TABLE
  2
UCS
 70
     0
  0
ENDTAB
  0
TABLE
  2
APPID
 70
     1
  0
APPID
  2
ACAD
 70
     0
  0
ENDTAB
  0
TABLE
  2
DIMSTYLE
 70
     1
  0
DIMSTYLE
  2
DIMSTYLE
 70
     0
  3

  4

  5

  6

  7

 40
1.0
 41
1.0
 42
2.54
 43
0.38
 44
2.54
 45
0.0
 46
0.0
 47
0.0
 48
0.0
140
3.2000000000000002
141
0.09
142
0.0
143
25.399999999999999
144
1.0
145
0.0
146
1.0
147
1.6000000000000001
 71
     0
 72
     0
 73
     0
 74
     0
 75
     0
 76
     0
 77
     0
 78
     0
170
     0
171
     2
172
     0
173
     1
174
     0
175
     0
176
     0
177
     0
178
     0
  0
ENDTAB
  0
ENDSEC
  0
SECTION
  2
BLOCKS
  0
BLOCK
  8
0
  2
$MODEL_SPACE
 70
     0
 10
0.0
 20
0.0
 30
0.0
  3
$MODEL_SPACE
  1

  0
ENDBLK
  5
20
  8
0
  0
BLOCK
 67
     1
  8
0
  2
$PAPER_SPACE
 70
     0
 10
0.0
 20
0.0
 30
0.0
  3
$PAPER_SPACE
  1

  0
ENDBLK
  5
1C
 67
     1
  8
0
  0
BLOCK
  8
0
  2
_DOT
 70
     0
 10
0.0
 20
0.0
 30
0.0
  3
_DOT
  1

  0
POLYLINE
  5
30
  8
0
  6
BYBLOCK
 62
     0
 66
     1
 10
0.0
 20
0.0
 30
0.0
 70
     1
 40
0.4000000100000001
 41
0.4000000100000001
  0
VERTEX
  5
23E
  8
0
  6
BYBLOCK
 62
     0
 10
-0.2
 20
0.0
 30
0.0
 42
1.0
  0
VERTEX
  5
23F
  8
0
  6
BYBLOCK
 62
     0
 10
0.2
 20
0.0
 30
0.0
 42
1.0
  0
SEQEND
  5
240
  8
0
  6
BYBLOCK
 62
     0
  0
LINE
  5
34
  8
0
  6
BYBLOCK
 62
     0
 10
-0.4000000100000001
 20
0.0
 30
0.0
 11
-3.0
 21
0.0
 31
0.0
  0
ENDBLK
  5
35
  8
0
  0
BLOCK
  8
0
  2
*D1
 70
     1
 10
0.0
 20
0.0
 30
0.0
  3
*D1
  1

  0
LINE
  5
38
  8
0
  6
CONTINUOUS
 62
     7
 10
131.56635
 20
56.153827999999997
 30
0.0
 11
131.56635
 21
-63.846172000000003
 31
0.0
  0
INSERT
  5
39
  8
0
  6
CONTINUOUS
 62
     7
  2
_DOT
 10
131.56635
 20
56.153827999999997
 30
0.0
 50
90.0
  0
INSERT
  5
3A
  8
0
  6
CONTINUOUS
 62
     7
  2
_DOT
 10
131.56635
 20
-63.846172000000003
 30
0.0
 50
270.0
  0
LINE
  5
3B
  8
0
  6
CONTINUOUS
 62
     7
 10
108.10635000000001
 20
56.153827999999997
 30
0.0
 11
132.7663399999999
 21
56.153827999999997
 31
0.0
  0
LINE
  5
3C
  8
0
  6
CONTINUOUS
 62
     7
 10
108.10635000000001
 20
-63.846172000000003
 30
0.0
 11
132.7663399999999
 21
-63.846172000000003
 31
0.0
  0
TEXT
  5
3D
  8
0
  6
CONTINUOUS
 62
     7
 10
130.7663499999999
 20
-8.1891732999999984
 30
0.0
 40
3.2000000000000002
  1
120
 50
90.000003000000007
 41
1.2214686999999991
  0
POINT
  5
3E
  8
DEFPOINTS
  6
CONTINUOUS
 62
     7
 10
105.56635
 20
56.153827999999997
 30
0.0
  0
POINT
  5
3F
  8
DEFPOINTS
  6
CONTINUOUS
 62
     7
 10
105.56635
 20
-63.846172000000003
 30
0.0
  0
POINT
  5
40
  8
DEFPOINTS
  6
CONTINUOUS
 62
     7
 10
131.56635
 20
-63.846172000000003
 30
0.0
  0
ENDBLK
  5
41
  8
0
  0
BLOCK
  8
0
  2
*D2
 70
     1
 10
0.0
 20
0.0
 30
0.0
  3
*D2
  1

  0
LINE
  5
44
  8
0
  6
CONTINUOUS
 62
     7
 10
121.56635
 20
56.153827999999997
 30
0.0
 11
121.56635
 21
31.153828000000001
 31
0.0
  0
INSERT
  5
45
  8
0
  6
CONTINUOUS
 62
     7
  2
_DOT
 10
121.56635
 20
56.153827999999997
 30
0.0
 50
90.0
  0
INSERT
  5
46
  8
0
  6
CONTINUOUS
 62
     7
  2
_DOT
 10
121.56635
 20
31.153828000000001
 30
0.0
 50
270.0
  0
LINE
  5
47
  8
0
  6
CONTINUOUS
 62
     7
 10
108.10635000000001
 20
56.153827999999997
 30
0.0
 11
122.76635
 21
56.153827999999997
 31
0.0
  0
LINE
  5
48
  8
0
  6
CONTINUOUS
 62
     7
 10
79.60634499999999
 20
31.153828000000001
 30
0.0
 11
122.76635
 21
31.153828000000001
 31
0.0
  0
TEXT
  5
49
  8
0
  6
CONTINUOUS
 62
     7
 10
120.76635
 20
40.910828000000002
 30
0.0
 40
3.2000000000000002
  1
25
 50
90.000003000000007
 41
1.028624999999999
  0
POINT
  5
4A
  8
DEFPOINTS
  6
CONTINUOUS
 62
     7
 10
105.56635
 20
56.153827999999997
 30
0.0
  0
POINT
  5
4B
  8
DEFPOINTS
  6
CONTINUOUS
 62
     7
 10
77.066344999999984
 20
31.153828000000001
 30
0.0
  0
POINT
  5
4C
  8
DEFPOINTS
  6
CONTINUOUS
 62
     7
 10
121.56635
 20
31.153828000000001
 30
0.0
  0
ENDBLK
  5
4D
  8
0
  0
BLOCK
  8
0
  2
*D3
 70
     1
 10
0.0
 20
0.0
 30
0.0
  3
*D3
  1

  0
LINE
  5
50
  8
0
  6
CONTINUOUS
 62
     7
 10
121.56635
 20
31.153828000000001
 30
0.0
 11
121.56635
 21
-38.846171999999989
 31
0.0
  0
INSERT
  5
51
  8
0
  6
CONTINUOUS
 62
     7
  2
_DOT
 10
121.56635
 20
31.153828000000001
 30
0.0
 50
90.0
  0
INSERT
  5
52
  8
0
  6
CONTINUOUS
 62
     7
  2
_DOT
 10
121.56635
 20
-38.846171999999989
 30
0.0
 50
270.0
  0
LINE
  5
53
  8
0
  6
CONTINUOUS
 62
     7
 10
79.60634499999999
 20
-38.846171999999989
 30
0.0
 11
122.76635
 21
-38.846171999999989
 31
0.0
  0
TEXT
  5
54
  8
0
  6
CONTINUOUS
 62
     7
 10
120.76635
 20
-6.5891732999999988
 30
0.0
 40
3.2000000000000002
  1
70
 50
90.000003000000007
 41
1.102098199999999
  0
POINT
  5
55
  8
DEFPOINTS
  6
CONTINUOUS
 62
     7
 10
77.066344999999984
 20
31.153828000000001
 30
0.0
  0
POINT
  5
56
  8
DEFPOINTS
  6
CONTINUOUS
 62
     7
 10
77.066344999999984
 20
-38.846171999999989
 30
0.0
  0
POINT
  5
57
  8
DEFPOINTS
  6
CONTINUOUS
 62
     7
 10
121.56635
 20
-38.846171999999989
 30
0.0
  0
ENDBLK
  5
58
  8
0
  0
BLOCK
  8
0
  2
*D4
 70
     1
 10
0.0
 20
0.0
 30
0.0
  3
*D4
  1

  0
LINE
  5
5B
  8
0
  6
CONTINUOUS
 62
     7
 10
121.56635
 20
-38.846171999999989
 30
0.0
 11
121.56635
 21
-63.846172000000003
 31
0.0
  0
INSERT
  5
5C
  8
0
  6
CONTINUOUS
 62
     7
  2
_DOT
 10
121.56635
 20
-38.846171999999989
 30
0.0
 50
90.0
  0
INSERT
  5
5D
  8
0
  6
CONTINUOUS
 62
     7
  2
_DOT
 10
121.56635
 20
-63.846172000000003
 30
0.0
 50
270.0
  0
LINE
  5
5E
  8
0
  6
CONTINUOUS
 62
     7
 10
108.10635000000001
 20
-63.846172000000003
 30
0.0
 11
122.76635
 21
-63.846172000000003
 31
0.0
  0
TEXT
  5
5F
  8
0
  6
CONTINUOUS
 62
     7
 10
120.76635
 20
-54.089171999999998
 30
0.0
 40
3.2000000000000002
  1
25
 50
90.000003000000007
 41
1.028624999999999
  0
POINT
  5
60
  8
DEFPOINTS
  6
CONTINUOUS
 62
     7
 10
77.066344999999984
 20
-38.846171999999989
 30
0.0
  0
POINT
  5
61
  8
DEFPOINTS
  6
CONTINUOUS
 62
     7
 10
105.56635
 20
-63.846172000000003
 30
0.0
  0
POINT
  5
62
  8
DEFPOINTS
  6
CONTINUOUS
 62
     7
 10
121.56635
 20
-63.846172000000003
 30
0.0
  0
ENDBLK
  5
63
  8
0
  0
BLOCK
  8
0
  2
*D5
 70
     1
 10
0.0
 20
0.0
 30
0.0
  3
*D5
  1

  0
LINE
  5
66
  8
0
  6
CONTINUOUS
 62
     7
 10
21.566347
 20
-63.846172000000003
 30
0.0
 11
21.566347
 21
-46.846171999999989
 31
0.0
  0
INSERT
  5
67
  8
0
  6
CONTINUOUS
 62
     7
  2
_DOT
 10
21.566347
 20
-63.846172000000003
 30
0.0
 50
270.0
  0
INSERT
  5
68
  8
0
  6
CONTINUOUS
 62
     7
  2
_DOT
 10
21.566347
 20
-46.846171999999989
 30
0.0
 50
90.0
  0
LINE
  5
69
  8
0
  6
CONTINUOUS
 62
     7
 10
30.026344999999999
 20
-63.846172000000003
 30
0.0
 11
20.366347999999999
 21
-63.846172000000003
 31
0.0
  0
LINE
  5
6A
  8
0
  6
CONTINUOUS
 62
     7
 10
55.526349000000003
 20
-46.846171999999989
 30
0.0
 11
20.366347999999999
 21
-46.846171999999989
 31
0.0
  0
TEXT
  5
6B
  8
0
  6
CONTINUOUS
 62
     7
 10
20.766347
 20
-58.089171999999991
 30
0.0
 40
3.2000000000000002
  1
17
 50
90.000003000000007
 41
1.2857811999999991
  0
POINT
  5
6C
  8
DEFPOINTS
  6
CONTINUOUS
 62
     7
 10
32.566344999999998
 20
-63.846172000000003
 30
0.0
  0
POINT
  5
6D
  8
DEFPOINTS
  6
CONTINUOUS
 62
     7
 10
58.066349000000002
 20
-46.846171999999989
 30
0.0
  0
POINT
  5
6E
  8
DEFPOINTS
  6
CONTINUOUS
 62
     7
 10
21.566347
 20
-46.846171999999989
 30
0.0
  0
ENDBLK
  5
6F
  8
0
  0
BLOCK
  8
0
  2
*D6
 70
     1
 10
0.0
 20
0.0
 30
0.0
  3
*D6
  1

  0
LINE
  5
72
  8
0
  6
CONTINUOUS
 62
     7
 10
21.566347
 20
-46.846171999999989
 30
0.0
 11
21.566347
 21
39.153827999999997
 31
0.0
  0
INSERT
  5
73
  8
0
  6
CONTINUOUS
 62
     7
  2
_DOT
 10
21.566347
 20
-46.846171999999989
 30
0.0
 50
270.0
  0
INSERT
  5
74
  8
0
  6
CONTINUOUS
 62
     7
  2
_DOT
 10
21.566347
 20
39.153827999999997
 30
0.0
 50
90.0
  0
LINE
  5
75
  8
0
  6
CONTINUOUS
 62
     7
 10
55.526344999999992
 20
-46.846171999999989
 30
0.0
 11
20.366347999999999
 21
-46.846171999999989
 31
0.0
  0
LINE
  5
76
  8
0
  6
CONTINUOUS
 62
     7
 10
55.526349000000003
 20
39.153827999999997
 30
0.0
 11
20.366347999999999
 21
39.153827999999997
 31
0.0
  0
TEXT
  5
77
  8
0
  6
CONTINUOUS
 62
     7
 10
20.766347
 20
-6.5891732999999988
 30
0.0
 40
3.2000000000000002
  1
86
 50
90.000003000000007
 41
1.028624999999999
  0
POINT
  5
78
  8
DEFPOINTS
  6
CONTINUOUS
 62
     7
 10
58.066344999999998
 20
-46.846171999999989
 30
0.0
  0
POINT
  5
79
  8
DEFPOINTS
  6
CONTINUOUS
 62
     7
 10
58.066349000000002
 20
39.153827999999997
 30
0.0
  0
POINT
  5
7A
  8
DEFPOINTS
  6
CONTINUOUS
 62
     7
 10
21.566347
 20
39.153827999999997
 30
0.0
  0
ENDBLK
  5
7B
  8
0
  0
BLOCK
  8
0
  2
*D7
 70
     1
 10
0.0
 20
0.0
 30
0.0
  3
*D7
  1

  0
LINE
  5
7E
  8
0
  6
CONTINUOUS
 62
     7
 10
21.566347
 20
39.153827999999997
 30
0.0
 11
21.566347
 21
56.153827999999997
 31
0.0
  0
INSERT
  5
7F
  8
0
  6
CONTINUOUS
 62
     7
  2
_DOT
 10
21.566347
 20
39.153827999999997
 30
0.0
 50
270.0
  0
INSERT
  5
80
  8
0
  6
CONTINUOUS
 62
     7
  2
_DOT
 10
21.566347
 20
56.153827999999997
 30
0.0
 50
90.0
  0
LINE
  5
81
  8
0
  6
CONTINUOUS
 62
     7
 10
55.526344999999992
 20
39.153827999999997
 30
0.0
 11
20.366347999999999
 21
39.153827999999997
 31
0.0
  0
LINE
  5
82
  8
0
  6
CONTINUOUS
 62
     7
 10
30.026344999999999
 20
56.153827999999997
 30
0.0
 11
20.366347999999999
 21
56.153827999999997
 31
0.0
  0
TEXT
  5
83
  8
0
  6
CONTINUOUS
 62
     7
 10
20.766347
 20
44.910828000000002
 30
0.0
 40
3.2000000000000002
  1
17
 50
90.000003000000007
 41
1.2857811999999991
  0
POINT
  5
84
  8
DEFPOINTS
  6
CONTINUOUS
 62
     7
 10
58.066344999999998
 20
39.153827999999997
 30
0.0
  0
POINT
  5
85
  8
DEFPOINTS
  6
CONTINUOUS
 62
     7
 10
32.566344999999998
 20
56.153827999999997
 30
0.0
  0
POINT
  5
86
  8
DEFPOINTS
  6
CONTINUOUS
 62
     7
 10
21.566347
 20
56.153827999999997
 30
0.0
  0
ENDBLK
  5
87
  8
0
  0
BLOCK
  8
0
  2
*D8
 70
     1
 10
0.0
 20
0.0
 30
0.0
  3
*D8
  1

  0
LINE
  5
8A
  8
0
  6
CONTINUOUS
 62
     7
 10
31.56634699999999
 20
76.153824
 30
0.0
 11
106.56635
 21
76.153824
 31
0.0
  0
INSERT
  5
8B
  8
0
  6
CONTINUOUS
 62
     7
  2
_DOT
 10
31.56634699999999
 20
76.153824
 30
0.0
 50
180.0
  0
INSERT
  5
8C
  8
0
  6
CONTINUOUS
 62
     7
  2
_DOT
 10
106.56635
 20
76.153824
 30
0.0
  0
LINE
  5
8D
  8
0
  6
CONTINUOUS
 62
     7
 10
31.56634699999999
 20
57.693828000000003
 30
0.0
 11
31.56634699999999
 21
77.353827999999993
 31
0.0
  0
LINE
  5
8E
  8
0
  6
CONTINUOUS
 62
     7
 10
106.56635
 20
57.693828000000003
 30
0.0
 11
106.56635
 21
77.353827999999993
 31
0.0
  0
TEXT
  5
8F
  8
0
  6
CONTINUOUS
 62
     7
 10
66.323344999999975
 20
76.953823999999983
 30
0.0
 40
3.2000000000000002
  1
75
 41
1.028624999999999
  0
POINT
  5
90
  8
DEFPOINTS
  6
CONTINUOUS
 62
     7
 10
31.56634699999999
 20
55.153828000000011
 30
0.0
  0
POINT
  5
91
  8
DEFPOINTS
  6
CONTINUOUS
 62
     7
 10
106.56635
 20
55.153828000000011
 30
0.0
  0
POINT
  5
92
  8
DEFPOINTS
  6
CONTINUOUS
 62
     7
 10
106.56635
 20
76.153824
 30
0.0
  0
ENDBLK
  5
93
  8
0
  0
BLOCK
  8
0
  2
*D9
 70
     1
 10
0.0
 20
0.0
 30
0.0
  3
*D9
  1

  0
LINE
  5
96
  8
0
  6
CONTINUOUS
 62
     7
 10
31.56634699999999
 20
-78.846176
 30
0.0
 11
58.066349000000002
 21
-78.846176
 31
0.0
  0
INSERT
  5
97
  8
0
  6
CONTINUOUS
 62
     7
  2
_DOT
 10
31.56634699999999
 20
-78.846176
 30
0.0
 50
180.0
  0
INSERT
  5
98
  8
0
  6
CONTINUOUS
 62
     7
  2
_DOT
 10
58.066349000000002
 20
-78.846176
 30
0.0
  0
LINE
  5
99
  8
0
  6
CONTINUOUS
 62
     7
 10
31.56634699999999
 20
-65.386172000000002
 30
0.0
 11
31.56634699999999
 21
-80.046172999999996
 31
0.0
  0
LINE
  5
9A
  8
0
  6
CONTINUOUS
 62
     7
 10
58.066349000000002
 20
-49.386171999999988
 30
0.0
 11
58.066349000000002
 21
-80.046172999999996
 31
0.0
  0
TEXT
  5
9B
  8
0
  6
CONTINUOUS
 62
     7
 10
38.87334899999999
 20
-78.046176000000003
 30
0.0
 40
3.2000000000000002
  1
26.5
 41
1.238124999999999
  0
POINT
  5
9C
  8
DEFPOINTS
  6
CONTINUOUS
 62
     7
 10
31.56634699999999
 20
-62.846171999999989
 30
0.0
  0
POINT
  5
9D
  8
DEFPOINTS
  6
CONTINUOUS
 62
     7
 10
58.066349000000002
 20
-46.846171999999989
 30
0.0
  0
POINT
  5
9E
  8
DEFPOINTS
  6
CONTINUOUS
 62
     7
 10
58.066349000000002
 20
-78.846176
 30
0.0
  0
ENDBLK
  5
9F
  8
0
  0
BLOCK
  8
0
  2
*D10
 70
     1
 10
0.0
 20
0.0
 30
0.0
  3
*D10
  1

  0
LINE
  5
A2
  8
0
  6
CONTINUOUS
 62
     7
 10
58.066349000000002
 20
-78.846176
 30
0.0
 11
93.066344999999984
 21
-78.846176
 31
0.0
  0
INSERT
  5
A3
  8
0
  6
CONTINUOUS
 62
     7
  2
_DOT
 10
58.066349000000002
 20
-78.846176
 30
0.0
 50
180.0
  0
INSERT
  5
A4
  8
0
  6
CONTINUOUS
 62
     7
  2
_DOT
 10
93.066344999999984
 20
-78.846176
 30
0.0
  0
LINE
  5
A5
  8
0
  6
CONTINUOUS
 62
     7
 10
93.066344999999984
 20
-49.386171999999988
 30
0.0
 11
93.066344999999984
 21
-80.046172999999996
 31
0.0
  0
TEXT
  5
A6
  8
0
  6
CONTINUOUS
 62
     7
 10
72.823344999999989
 20
-78.046176000000003
 30
0.0
 40
3.2000000000000002
  1
35
 41
1.028624999999999
  0
POINT
  5
A7
  8
DEFPOINTS
  6
CONTINUOUS
 62
     7
 10
58.066349000000002
 20
-46.846171999999989
 30
0.0
  0
POINT
  5
A8
  8
DEFPOINTS
  6
CONTINUOUS
 62
     7
 10
93.066344999999984
 20
-46.846171999999989
 30
0.0
  0
POINT
  5
A9
  8
DEFPOINTS
  6
CONTINUOUS
 62
     7
 10
93.066344999999984
 20
-78.846176
 30
0.0
  0
ENDBLK
  5
AA
  8
0
  0
BLOCK
  8
0
  2
*D11
 70
     1
 10
0.0
 20
0.0
 30
0.0
  3
*D11
  1

  0
LINE
  5
AD
  8
0
  6
CONTINUOUS
 62
     7
 10
93.066344999999984
 20
-78.846176
 30
0.0
 11
106.56635
 21
-78.846176
 31
0.0
  0
INSERT
  5
AE
  8
0
  6
CONTINUOUS
 62
     7
  2
_DOT
 10
93.066344999999984
 20
-78.846176
 30
0.0
 50
180.0
  0
INSERT
  5
AF
  8
0
  6
CONTINUOUS
 62
     7
  2
_DOT
 10
106.56635
 20
-78.846176
 30
0.0
  0
LINE
  5
B0
  8
0
  6
CONTINUOUS
 62
     7
 10
106.56635
 20
-65.386172000000002
 30
0.0
 11
106.56635
 21
-80.046172999999996
 31
0.0
  0
TEXT
  5
B1
  8
0
  6
CONTINUOUS
 62
     7
 10
93.873344999999986
 20
-78.046176000000003
 30
0.0
 40
3.2000000000000002
  1
13.5
 41
1.3928906000000001
  0
POINT
  5
B2
  8
DEFPOINTS
  6
CONTINUOUS
 62
     7
 10
93.066344999999984
 20
-46.846171999999989
 30
0.0
  0
POINT
  5
B3
  8
DEFPOINTS
  6
CONTINUOUS
 62
     7
 10
106.56635
 20
-62.846171999999989
 30
0.0
  0
POINT
  5
B4
  8
DEFPOINTS
  6
CONTINUOUS
 62
     7
 10
106.56635
 20
-78.846176
 30
0.0
  0
ENDBLK
  5
B5
  8
0
  0
BLOCK
  8
0
  2
*D12
 70
     1
 10
0.0
 20
0.0
 30
0.0
  3
*D12
  1

  0
LINE
  5
B8
  8
0
  6
CONTINUOUS
 62
     7
 10
-90.933655000000002
 20
51.153827999999997
 30
0.0
 11
-90.933655000000002
 21
-58.846172000000003
 31
0.0
  0
INSERT
  5
B9
  8
0
  6
CONTINUOUS
 62
     7
  2
_DOT
 10
-90.933655000000002
 20
51.153827999999997
 30
0.0
 50
90.0
  0
INSERT
  5
BA
  8
0
  6
CONTINUOUS
 62
     7
  2
_DOT
 10
-90.933655000000002
 20
-58.846172000000003
 30
0.0
 50
270.0
  0
LINE
  5
BB
  8
0
  6
CONTINUOUS
 62
     7
 10
-83.473654999999994
 20
51.153827999999997
 30
0.0
 11
-92.133651999999998
 21
51.153827999999997
 31
0.0
  0
LINE
  5
BC
  8
0
  6
CONTINUOUS
 62
     7
 10
-83.473654999999994
 20
-58.846172000000003
 30
0.0
 11
-92.133651999999998
 21
-58.846172000000003
 31
0.0
  0
TEXT
  5
BD
  8
0
  6
CONTINUOUS
 62
     7
 10
-91.733654999999999
 20
-8.1891732999999984
 30
0.0
 40
3.2000000000000002
  1
110
 50
90.000003000000007
 41
1.4370221000000001
  0
POINT
  5
BE
  8
DEFPOINTS
  6
CONTINUOUS
 62
     7
 10
-80.933655000000002
 20
51.153827999999997
 30
0.0
  0
POINT
  5
BF
  8
DEFPOINTS
  6
CONTINUOUS
 62
     7
 10
-80.933655000000002
 20
-58.846172000000003
 30
0.0
  0
POINT
  5
C0
  8
DEFPOINTS
  6
CONTINUOUS
 62
     7
 10
-90.933655000000002
 20
-58.846172000000003
 30
0.0
  0
ENDBLK
  5
C1
  8
0
  0
BLOCK
  8
0
  2
*D13
 70
     1
 10
0.0
 20
0.0
 30
0.0
  3
*D13
  1

  0
LINE
  5
C4
  8
0
  6
CONTINUOUS
 62
     7
 10
-80.933655000000002
 20
61.153827999999997
 30
0.0
 11
-15.933652
 21
61.153827999999997
 31
0.0
  0
INSERT
  5
C5
  8
0
  6
CONTINUOUS
 62
     7
  2
_DOT
 10
-80.933655000000002
 20
61.153827999999997
 30
0.0
 50
180.0
  0
INSERT
  5
C6
  8
0
  6
CONTINUOUS
 62
     7
  2
_DOT
 10
-15.933652
 20
61.153827999999997
 30
0.0
  0
LINE
  5
C7
  8
0
  6
CONTINUOUS
 62
     7
 10
-80.933655000000002
 20
53.693828000000003
 30
0.0
 11
-80.933655000000002
 21
62.353828
 31
0.0
  0
LINE
  5
C8
  8
0
  6
CONTINUOUS
 62
     7
 10
-15.933652
 20
53.693828000000003
 30
0.0
 11
-15.933652
 21
62.353828
 31
0.0
  0
TEXT
  5
C9
  8
0
  6
CONTINUOUS
 62
     7
 10
-51.176650999999993
 20
61.953828000000001
 30
0.0
 40
3.2000000000000002
  1
65
 41
1.028624999999999
  0
POINT
  5
CA
  8
DEFPOINTS
  6
CONTINUOUS
 62
     7
 10
-80.933655000000002
 20
51.153827999999997
 30
0.0
  0
POINT
  5
CB
  8
DEFPOINTS
  6
CONTINUOUS
 62
     7
 10
-15.933652
 20
51.153827999999997
 30
0.0
  0
POINT
  5
CC
  8
DEFPOINTS
  6
CONTINUOUS
 62
     7
 10
-15.933652
 20
61.153827999999997
 30
0.0
  0
ENDBLK
  5
CD
  8
0
  0
BLOCK
  8
0
  2
*D14
 70
     1
 10
0.0
 20
0.0
 30
0.0
  3
*D14
  1

  0
LINE
  5
D0
  8
0
  6
CONTINUOUS
 62
     7
 10
31.566344999999998
 20
66.153824
 30
0.0
 11
66.566344999999998
 21
66.153824
 31
0.0
  0
INSERT
  5
D1
  8
0
  6
CONTINUOUS
 62
     7
  2
_DOT
 10
31.566344999999998
 20
66.153824
 30
0.0
 50
180.0
  0
INSERT
  5
D2
  8
0
  6
CONTINUOUS
 62
     7
  2
_DOT
 10
66.566344999999998
 20
66.153824
 30
0.0
  0
LINE
  5
D3
  8
0
  6
CONTINUOUS
 62
     7
 10
31.566344999999998
 20
57.693828000000003
 30
0.0
 11
31.566344999999998
 21
67.353820999999996
 31
0.0
  0
LINE
  5
D4
  8
0
  6
CONTINUOUS
 62
     7
 10
66.566344999999998
 20
63.693828000000003
 30
0.0
 11
66.566344999999998
 21
67.353820999999996
 31
0.0
  0
TEXT
  5
D5
  8
0
  6
CONTINUOUS
 62
     7
 10
46.323345000000003
 20
66.953823999999983
 30
0.0
 40
3.2000000000000002
  1
35
 41
1.028624999999999
  0
POINT
  5
D6
  8
DEFPOINTS
  6
CONTINUOUS
 62
     7
 10
31.566344999999998
 20
55.153828000000011
 30
0.0
  0
POINT
  5
D7
  8
DEFPOINTS
  6
CONTINUOUS
 62
     7
 10
66.566344999999998
 20
61.153827999999997
 30
0.0
  0
POINT
  5
D8
  8
DEFPOINTS
  6
CONTINUOUS
 62
     7
 10
66.566344999999998
 20
66.153824
 30
0.0
  0
ENDBLK
  5
D9
  8
0
  0
BLOCK
  8
0
  2
*D15
 70
     1
 10
0.0
 20
0.0
 30
0.0
  3
*D15
  1

  0
LINE
  5
DC
  8
0
  6
CONTINUOUS
 62
     7
 10
66.566344999999998
 20
66.153824
 30
0.0
 11
106.56635
 21
66.153824
 31
0.0
  0
INSERT
  5
DD
  8
0
  6
CONTINUOUS
 62
     7
  2
_DOT
 10
66.566344999999998
 20
66.153824
 30
0.0
 50
180.0
  0
INSERT
  5
DE
  8
0
  6
CONTINUOUS
 62
     7
  2
_DOT
 10
106.56635
 20
66.153824
 30
0.0
  0
LINE
  5
DF
  8
0
  6
CONTINUOUS
 62
     7
 10
106.56635
 20
57.693828000000003
 30
0.0
 11
106.56635
 21
67.353820999999996
 31
0.0
  0
TEXT
  5
E0
  8
0
  6
CONTINUOUS
 62
     7
 10
83.823344999999975
 20
66.953823999999983
 30
0.0
 40
3.2000000000000002
  1
40
 41
1.102098199999999
  0
POINT
  5
E1
  8
DEFPOINTS
  6
CONTINUOUS
 62
     7
 10
66.566344999999998
 20
61.153827999999997
 30
0.0
  0
POINT
  5
E2
  8
DEFPOINTS
  6
CONTINUOUS
 62
     7
 10
106.56635
 20
55.153828000000011
 30
0.0
  0
POINT
  5
E3
  8
DEFPOINTS
  6
CONTINUOUS
 62
     7
 10
106.56635
 20
66.153824
 30
0.0
  0
ENDBLK
  5
E4
  8
0
  0
BLOCK
  8
0
  2
*D16
 70
     1
 10
0.0
 20
0.0
 30
0.0
  3
*D16
  1

  0
LINE
  5
E7
  8
0
  6
CONTINUOUS
 62
     7
 10
131.56635
 20
98.271049000000005
 30
0.0
 11
131.56635
 21
93.341042000000002
 31
0.0
  0
LINE
  5
E8
  8
0
  6
CONTINUOUS
 62
     7
 10
131.56635
 20
100.27105
 30
0.0
 11
131.56635
 21
98.271049000000005
 31
0.0
  0
INSERT
  5
E9
  8
0
  6
CONTINUOUS
 62
     7
  2
_DOT
 10
131.56635
 20
100.27105
 30
0.0
 50
90.0
  0
INSERT
  5
EA
  8
0
  6
CONTINUOUS
 62
     7
  2
_DOT
 10
131.56635
 20
98.271049000000005
 30
0.0
 50
270.0
  0
LINE
  5
EB
  8
0
  6
CONTINUOUS
 62
     7
 10
109.10635000000001
 20
100.27105
 30
0.0
 11
132.7663399999999
 21
100.27105
 31
0.0
  0
LINE
  5
EC
  8
0
  6
CONTINUOUS
 62
     7
 10
109.10635000000001
 20
98.271049000000005
 30
0.0
 11
132.7663399999999
 21
98.271049000000005
 31
0.0
  0
TEXT
  5
ED
  8
0
  6
CONTINUOUS
 62
     7
 10
130.7663499999999
 20
93.341038999999995
 30
0.0
 40
3.2000000000000002
  1
2
 50
90.000003000000007
  0
POINT
  5
EE
  8
DEFPOINTS
  6
CONTINUOUS
 62
     7
 10
106.56635
 20
100.27105
 30
0.0
  0
POINT
  5
EF
  8
DEFPOINTS
  6
CONTINUOUS
 62
     7
 10
106.56635
 20
98.271049000000005
 30
0.0
  0
POINT
  5
F0
  8
DEFPOINTS
  6
CONTINUOUS
 62
     7
 10
131.56635
 20
98.271049000000005
 30
0.0
  0
ENDBLK
  5
F1
  8
0
  0
BLOCK
  8
0
  2
*D17
 70
     1
 10
0.0
 20
0.0
 30
0.0
  3
*D17
  1

  0
LINE
  5
F4
  8
0
  6
CONTINUOUS
 62
     7
 10
131.56635
 20
100.27105
 30
0.0
 11
131.56635
 21
140.27105999999989
 31
0.0
  0
INSERT
  5
F5
  8
0
  6
CONTINUOUS
 62
     7
  2
_DOT
 10
131.56635
 20
100.27105
 30
0.0
 50
270.0
  0
INSERT
  5
F6
  8
0
  6
CONTINUOUS
 62
     7
  2
_DOT
 10
131.56635
 20
140.27105999999989
 30
0.0
 50
90.0
  0
LINE
  5
F7
  8
0
  6
CONTINUOUS
 62
     7
 10
109.10635000000001
 20
140.27105999999989
 30
0.0
 11
132.7663399999999
 21
140.27105999999989
 31
0.0
  0
TEXT
  5
F8
  8
0
  6
CONTINUOUS
 62
     7
 10
130.7663499999999
 20
117.52804999999989
 30
0.0
 40
3.2000000000000002
  1
Dt
 50
90.000003000000007
 41
1.028624999999999
  0
POINT
  5
F9
  8
DEFPOINTS
  6
CONTINUOUS
 62
     7
 10
106.56635
 20
100.27105
 30
0.0
  0
POINT
  5
FA
  8
DEFPOINTS
  6
CONTINUOUS
 62
     7
 10
106.56635
 20
140.27105999999989
 30
0.0
  0
POINT
  5
FB
  8
DEFPOINTS
  6
CONTINUOUS
 62
     7
 10
131.56635
 20
140.27105999999989
 30
0.0
  0
ENDBLK
  5
FC
  8
0
  0
BLOCK
  8
0
  2
*D18
 70
     1
 10
0.0
 20
0.0
 30
0.0
  3
*D18
  1

  0
LINE
  5
FF
  8
0
  6
CONTINUOUS
 62
     7
 10
131.56635
 20
142.27106000000001
 30
0.0
 11
131.56635
 21
147.33884
 31
0.0
  0
LINE
  5
100
  8
0
  6
CONTINUOUS
 62
     7
 10
131.56635
 20
140.27105999999989
 30
0.0
 11
131.56635
 21
142.27106000000001
 31
0.0
  0
INSERT
  5
101
  8
0
  6
CONTINUOUS
 62
     7
  2
_DOT
 10
131.56635
 20
140.27105999999989
 30
0.0
 50
270.0
  0
INSERT
  5
102
  8
0
  6
CONTINUOUS
 62
     7
  2
_DOT
 10
131.56635
 20
142.27106000000001
 30
0.0
 50
90.0
  0
LINE
  5
103
  8
0
  6
CONTINUOUS
 62
     7
 10
109.10635000000001
 20
142.27106000000001
 30
0.0
 11
132.7663399999999
 21
142.27106000000001
 31
0.0
  0
TEXT
  5
104
  8
0
  6
CONTINUOUS
 62
     7
 10
130.7663499999999
 20
145.05285000000001
 30
0.0
 40
3.2000000000000002
  1
2
 50
90.000003000000007
  0
POINT
  5
105
  8
DEFPOINTS
  6
CONTINUOUS
 62
     7
 10
106.56635
 20
140.27105999999989
 30
0.0
  0
POINT
  5
106
  8
DEFPOINTS
  6
CONTINUOUS
 62
     7
 10
106.56635
 20
142.27106000000001
 30
0.0
  0
POINT
  5
107
  8
DEFPOINTS
  6
CONTINUOUS
 62
     7
 10
131.56635
 20
142.27106000000001
 30
0.0
  0
ENDBLK
  5
108
  8
0
  0
BLOCK
  8
0
  2
*D19
 70
     1
 10
0.0
 20
0.0
 30
0.0
  3
*D19
  1

  0
LINE
  5
10B
  8
0
  6
CONTINUOUS
 62
     7
 10
121.56635
 20
100.27105
 30
0.0
 11
121.56635
 21
117.77105
 31
0.0
  0
INSERT
  5
10C
  8
0
  6
CONTINUOUS
 62
     7
  2
_DOT
 10
121.56635
 20
100.27105
 30
0.0
 50
270.0
  0
INSERT
  5
10D
  8
0
  6
CONTINUOUS
 62
     7
  2
_DOT
 10
121.56635
 20
117.77105
 30
0.0
 50
90.0
  0
LINE
  5
10E
  8
0
  6
CONTINUOUS
 62
     7
 10
109.10635000000001
 20
100.27105
 30
0.0
 11
122.7663399999999
 21
100.27105
 31
0.0
  0
LINE
  5
10F
  8
0
  6
CONTINUOUS
 62
     7
 10
72.299750000000003
 20
117.77105
 30
0.0
 11
122.7663399999999
 21
117.77105
 31
0.0
  0
TEXT
  5
110
  8
0
  6
CONTINUOUS
 62
     7
 10
120.76635
 20
103.07805
 30
0.0
 40
3.2000000000000002
  1
17.5
 50
90.000003000000007
 41
1.3928906000000001
  0
POINT
  5
111
  8
DEFPOINTS
  6
CONTINUOUS
 62
     7
 10
106.56635
 20
100.27105
 30
0.0
  0
POINT
  5
112
  8
DEFPOINTS
  6
CONTINUOUS
 62
     7
 10
69.759749999999997
 20
117.77105
 30
0.0
  0
POINT
  5
113
  8
DEFPOINTS
  6
CONTINUOUS
 62
     7
 10
121.56635
 20
117.77105
 30
0.0
  0
ENDBLK
  5
114
  8
0
  0
BLOCK
  8
0
  2
*D20
 70
     1
 10
0.0
 20
0.0
 30
0.0
  3
*D20
  1

  0
LINE
  5
117
  8
0
  6
CONTINUOUS
 62
     7
 10
121.56635
 20
119.27105
 30
0.0
 11
121.56635
 21
140.27105999999989
 31
0.0
  0
INSERT
  5
118
  8
0
  6
CONTINUOUS
 62
     7
  2
_DOT
 10
121.56635
 20
119.27105
 30
0.0
 50
270.0
  0
INSERT
  5
119
  8
0
  6
CONTINUOUS
 62
     7
  2
_DOT
 10
121.56635
 20
140.27105999999989
 30
0.0
 50
90.0
  0
LINE
  5
11A
  8
0
  6
CONTINUOUS
 62
     7
 10
84.106344999999976
 20
119.27105
 30
0.0
 11
122.7663399999999
 21
119.27105
 31
0.0
  0
LINE
  5
11B
  8
0
  6
CONTINUOUS
 62
     7
 10
109.10635000000001
 20
140.27105999999989
 30
0.0
 11
122.7663399999999
 21
140.27105999999989
 31
0.0
  0
TEXT
  5
11C
  8
0
  6
CONTINUOUS
 62
     7
 10
120.76635
 20
127.02806
 30
0.0
 40
3.2000000000000002
  1
21
 50
90.000003000000007
 41
1.186874999999999
  0
POINT
  5
11D
  8
DEFPOINTS
  6
CONTINUOUS
 62
     7
 10
81.566344999999998
 20
119.27105
 30
0.0
  0
POINT
  5
11E
  8
DEFPOINTS
  6
CONTINUOUS
 62
     7
 10
106.56635
 20
140.27105999999989
 30
0.0
  0
POINT
  5
11F
  8
DEFPOINTS
  6
CONTINUOUS
 62
     7
 10
121.56635
 20
140.27105999999989
 30
0.0
  0
ENDBLK
  5
120
  8
0
  0
BLOCK
  8
0
  2
*D21
 70
     1
 10
0.0
 20
0.0
 30
0.0
  3
*D21
  1

  0
LINE
  5
123
  8
0
  6
CONTINUOUS
 62
     7
 10
11.566347
 20
100.27105
 30
0.0
 11
11.566347
 21
116.97105000000001
 31
0.0
  0
INSERT
  5
124
  8
0
  6
CONTINUOUS
 62
     7
  2
_DOT
 10
11.566347
 20
100.27105
 30
0.0
 50
270.0
  0
INSERT
  5
125
  8
0
  6
CONTINUOUS
 62
     7
  2
_DOT
 10
11.566347
 20
116.97105000000001
 30
0.0
 50
90.0
  0
LINE
  5
126
  8
0
  6
CONTINUOUS
 62
     7
 10
29.026344999999999
 20
100.27105
 30
0.0
 11
10.366345999999989
 21
100.27105
 31
0.0
  0
LINE
  5
127
  8
0
  6
CONTINUOUS
 62
     7
 10
44.526344999999999
 20
116.97105000000001
 30
0.0
 11
10.366345999999989
 21
116.97105000000001
 31
0.0
  0
TEXT
  5
128
  8
0
  6
CONTINUOUS
 62
     7
 10
10.766347
 20
102.67805
 30
0.0
 40
3.2000000000000002
  1
16.7
 50
90.000003000000007
 41
1.3928906000000001
  0
POINT
  5
129
  8
DEFPOINTS
  6
CONTINUOUS
 62
     7
 10
31.566344999999998
 20
100.27105
 30
0.0
  0
POINT
  5
12A
  8
DEFPOINTS
  6
CONTINUOUS
 62
     7
 10
47.066344999999991
 20
116.97105000000001
 30
0.0
  0
POINT
  5
12B
  8
DEFPOINTS
  6
CONTINUOUS
 62
     7
 10
11.566347
 20
116.97105000000001
 30
0.0
  0
ENDBLK
  5
12C
  8
0
  0
BLOCK
  8
0
  2
*D22
 70
     1
 10
0.0
 20
0.0
 30
0.0
  3
*D22
  1

  0
LINE
  5
12F
  8
0
  6
CONTINUOUS
 62
     7
 10
11.566347
 20
140.27105999999989
 30
0.0
 11
11.566347
 21
123.5710499999999
 31
0.0
  0
INSERT
  5
130
  8
0
  6
CONTINUOUS
 62
     7
  2
_DOT
 10
11.566347
 20
140.27105999999989
 30
0.0
 50
90.0
  0
INSERT
  5
131
  8
0
  6
CONTINUOUS
 62
     7
  2
_DOT
 10
11.566347
 20
123.5710499999999
 30
0.0
 50
270.0
  0
LINE
  5
132
  8
0
  6
CONTINUOUS
 62
     7
 10
29.026344999999999
 20
140.27105999999989
 30
0.0
 11
10.366345999999989
 21
140.27105999999989
 31
0.0
  0
LINE
  5
133
  8
0
  6
CONTINUOUS
 62
     7
 10
44.526344999999999
 20
123.5710499999999
 30
0.0
 11
10.366345999999989
 21
123.5710499999999
 31
0.0
  0
TEXT
  5
134
  8
0
  6
CONTINUOUS
 62
     7
 10
10.766347
 20
125.9780499999999
 30
0.0
 40
3.2000000000000002
  1
16.7
 50
90.000003000000007
 41
1.3928906000000001
  0
POINT
  5
135
  8
DEFPOINTS
  6
CONTINUOUS
 62
     7
 10
31.566344999999998
 20
140.27105999999989
 30
0.0
  0
POINT
  5
136
  8
DEFPOINTS
  6
CONTINUOUS
 62
     7
 10
47.066344999999991
 20
123.5710499999999
 30
0.0
  0
POINT
  5
137
  8
DEFPOINTS
  6
CONTINUOUS
 62
     7
 10
11.566347
 20
123.5710499999999
 30
0.0
  0
ENDBLK
  5
138
  8
0
  0
BLOCK
  8
0
  2
*D23
 70
     1
 10
0.0
 20
0.0
 30
0.0
  3
*D23
  1

  0
LINE
  5
13B
  8
0
  6
CONTINUOUS
 62
     7
 10
21.566347
 20
100.27105
 30
0.0
 11
21.566347
 21
116.17104999999989
 31
0.0
  0
INSERT
  5
13C
  8
0
  6
CONTINUOUS
 62
     7
  2
_DOT
 10
21.566347
 20
100.27105
 30
0.0
 50
270.0
  0
INSERT
  5
13D
  8
0
  6
CONTINUOUS
 62
     7
  2
_DOT
 10
21.566347
 20
116.17104999999989
 30
0.0
 50
90.0
  0
LINE
  5
13E
  8
0
  6
CONTINUOUS
 62
     7
 10
29.026344999999999
 20
100.27105
 30
0.0
 11
20.366346
 21
100.27105
 31
0.0
  0
LINE
  5
13F
  8
0
  6
CONTINUOUS
 62
     7
 10
44.526344999999999
 20
116.17104999999989
 30
0.0
 11
20.366346
 21
116.17104999999989
 31
0.0
  0
TEXT
  5
140
  8
0
  6
CONTINUOUS
 62
     7
 10
20.766347
 20
102.27804999999989
 30
0.0
 40
3.2000000000000002
  1
15.9
 50
90.000003000000007
 41
1.3928906000000001
  0
POINT
  5
141
  8
DEFPOINTS
  6
CONTINUOUS
 62
     7
 10
31.566344999999998
 20
100.27105
 30
0.0
  0
POINT
  5
142
  8
DEFPOINTS
  6
CONTINUOUS
 62
     7
 10
47.066344999999991
 20
116.17104999999989
 30
0.0
  0
POINT
  5
143
  8
DEFPOINTS
  6
CONTINUOUS
 62
     7
 10
21.566347
 20
116.17104999999989
 30
0.0
  0
ENDBLK
  5
144
  8
0
  0
BLOCK
  8
0
  2
*D24
 70
     1
 10
0.0
 20
0.0
 30
0.0
  3
*D24
  1

  0
LINE
  5
147
  8
0
  6
CONTINUOUS
 62
     7
 10
21.566347
 20
140.27105999999989
 30
0.0
 11
21.566347
 21
124.3710499999999
 31
0.0
  0
INSERT
  5
148
  8
0
  6
CONTINUOUS
 62
     7
  2
_DOT
 10
21.566347
 20
140.27105999999989
 30
0.0
 50
90.0
  0
INSERT
  5
149
  8
0
  6
CONTINUOUS
 62
     7
  2
_DOT
 10
21.566347
 20
124.3710499999999
 30
0.0
 50
270.0
  0
LINE
  5
14A
  8
0
  6
CONTINUOUS
 62
     7
 10
29.026344999999999
 20
140.27105999999989
 30
0.0
 11
20.366346
 21
140.27105999999989
 31
0.0
  0
LINE
  5
14B
  8
0
  6
CONTINUOUS
 62
     7
 10
44.526344999999999
 20
124.3710499999999
 30
0.0
 11
20.366346
 21
124.3710499999999
 31
0.0
  0
TEXT
  5
14C
  8
0
  6
CONTINUOUS
 62
     7
 10
20.766347
 20
126.37806
 30
0.0
 40
3.2000000000000002
  1
15.9
 50
90.000003000000007
 41
1.3928906000000001
  0
POINT
  5
14D
  8
DEFPOINTS
  6
CONTINUOUS
 62
     7
 10
31.566344999999998
 20
140.27105999999989
 30
0.0
  0
POINT
  5
14E
  8
DEFPOINTS
  6
CONTINUOUS
 62
     7
 10
47.066344999999991
 20
124.3710499999999
 30
0.0
  0
POINT
  5
14F
  8
DEFPOINTS
  6
CONTINUOUS
 62
     7
 10
21.566347
 20
124.3710499999999
 30
0.0
  0
ENDBLK
  5
150
  8
0
  0
BLOCK
  8
0
  2
KOZU0001
 70
     0
 10
0.0
 20
0.0
 30
0.0
  3
KOZU0001
  1

  0
LINE
  5
153
  8
0
  6
CONTINUOUS
 62
     7
 10
0.0
 20
0.0
 30
0.0
 11
9.4879836999999991
 21
9.880161300000001
 31
0.0
  0
LINE
  5
154
  8
0
  6
CONTINUOUS
 62
     7
 10
9.4879836999999991
 20
9.880161300000001
 30
0.0
 11
25.226303000000001
 21
9.880161300000001
 31
0.0
  0
LINE
  5
155
  8
0
  6
CONTINUOUS
 62
     7
 10
0.0
 20
0.0
 30
0.0
 11
1.761241899999999
 21
2.645421499999999
 31
0.0
  0
LINE
  5
156
  8
0
  6
CONTINUOUS
 62
     7
 10
0.0
 20
0.0
 30
0.0
 11
2.5719569999999989
 21
1.8668863999999989
 31
0.0
  0
TEXT
  5
157
  8
0
  6
CONTINUOUS
 62
     7
 10
12.426306
 20
10.680161
 30
0.0
 40
3.2000000000000002
  1
４－Ｒ１
 41
0.8512700499999999
  0
ENDBLK
  5
158
  8
0
  0
BLOCK
  8
0
  2
KOZU0002
 70
     0
 10
0.0
 20
0.0
 30
0.0
  3
KOZU0002
  1

  0
LINE
  5
15B
  8
0
  6
CONTINUOUS
 62
     7
 10
-18.440083999999992
 20
-58.846172000000003
 30
0.0
 11
-15.933652
 21
-56.33973499999999
 31
0.0
  0
LINE
  5
15C
  8
0
  6
CONTINUOUS
 62
     7
 10
-22.930208
 20
-58.846172000000003
 30
0.0
 11
-15.933652
 21
-51.849601999999997
 31
0.0
  0
LINE
  5
15D
  8
0
  6
CONTINUOUS
 62
     7
 10
-27.420331999999998
 20
-58.846172000000003
 30
0.0
 11
-15.933652
 21
-47.359470000000002
 31
0.0
  0
LINE
  5
15E
  8
0
  6
CONTINUOUS
 62
     7
 10
-31.910454999999988
 20
-58.846172000000003
 30
0.0
 11
-15.933652
 21
-42.869337000000002
 31
0.0
  0
LINE
  5
15F
  8
0
  6
CONTINUOUS
 62
     7
 10
-36.400579
 20
-58.846172000000003
 30
0.0
 11
-15.933652
 21
-38.379204999999999
 31
0.0
  0
LINE
  5
160
  8
0
  6
CONTINUOUS
 62
     7
 10
-40.890701999999997
 20
-58.846172000000003
 30
0.0
 11
-15.933652
 21
-33.889071999999999
 31
0.0
  0
LINE
  5
161
  8
0
  6
CONTINUOUS
 62
     7
 10
-45.380825999999999
 20
-58.846172000000003
 30
0.0
 11
-15.933652
 21
-29.39894
 31
0.0
  0
LINE
  5
162
  8
0
  6
CONTINUOUS
 62
     7
 10
-49.870948999999989
 20
-58.846172000000003
 30
0.0
 11
-15.933652
 21
-24.908806999999989
 31
0.0
  0
LINE
  5
163
  8
0
  6
CONTINUOUS
 62
     7
 10
-54.36107299999999
 20
-58.846172000000003
 30
0.0
 11
-15.933652
 21
-20.41867499999999
 31
0.0
  0
LINE
  5
164
  8
0
  6
CONTINUOUS
 62
     7
 10
-58.851195999999987
 20
-58.846172000000003
 30
0.0
 11
-15.933652
 21
-15.928542
 31
0.0
  0
LINE
  5
165
  8
0
  6
CONTINUOUS
 62
     7
 10
-63.341320000000003
 20
-58.846172000000003
 30
0.0
 11
-15.933652
 21
-11.438409999999999
 31
0.0
  0
LINE
  5
166
  8
0
  6
CONTINUOUS
 62
     7
 10
-67.831442999999993
 20
-58.846172000000003
 30
0.0
 11
-15.933652
 21
-6.9482774000000003
 31
0.0
  0
LINE
  5
167
  8
0
  6
CONTINUOUS
 62
     7
 10
-72.321567000000002
 20
-58.846172000000003
 30
0.0
 11
-15.933652
 21
-2.458145
 31
0.0
  0
LINE
  5
168
  8
0
  6
CONTINUOUS
 62
     7
 10
-76.811689999999999
 20
-58.846172000000003
 30
0.0
 11
-15.933652
 21
2.0319875000000001
 31
0.0
  0
LINE
  5
169
  8
0
  6
CONTINUOUS
 62
     7
 10
-80.933655000000002
 20
-58.478012999999997
 30
0.0
 11
-15.933652
 21
6.5221200000000001
 31
0.0
  0
LINE
  5
16A
  8
0
  6
CONTINUOUS
 62
     7
 10
-80.933655000000002
 20
-53.987879999999997
 30
0.0
 11
-15.933652
 21
11.012252
 31
0.0
  0
LINE
  5
16B
  8
0
  6
CONTINUOUS
 62
     7
 10
-80.933655000000002
 20
-49.497748000000001
 30
0.0
 11
-15.933652
 21
15.502385
 31
0.0
  0
LINE
  5
16C
  8
0
  6
CONTINUOUS
 62
     7
 10
-80.933655000000002
 20
-45.007615000000001
 30
0.0
 11
-15.933652
 21
19.992516999999999
 31
0.0
  0
LINE
  5
16D
  8
0
  6
CONTINUOUS
 62
     7
 10
-80.933655000000002
 20
-40.517482999999991
 30
0.0
 11
-15.933652
 21
24.48265
 31
0.0
  0
LINE
  5
16E
  8
0
  6
CONTINUOUS
 62
     7
 10
-80.933655000000002
 20
-36.027349999999998
 30
0.0
 11
-15.933652
 21
28.972781999999999
 31
0.0
  0
LINE
  5
16F
  8
0
  6
CONTINUOUS
 62
     7
 10
-80.933655000000002
 20
-31.537217999999999
 30
0.0
 11
-15.933652
 21
33.462915000000002
 31
0.0
  0
LINE
  5
170
  8
0
  6
CONTINUOUS
 62
     7
 10
-80.933655000000002
 20
-27.047084999999999
 30
0.0
 11
-15.933652
 21
37.953046999999991
 31
0.0
  0
LINE
  5
171
  8
0
  6
CONTINUOUS
 62
     7
 10
-80.933655000000002
 20
-22.556953
 30
0.0
 11
-15.933652
 21
42.443179999999991
 31
0.0
  0
LINE
  5
172
  8
0
  6
CONTINUOUS
 62
     7
 10
-80.933655000000002
 20
-18.06682
 30
0.0
 11
-15.933652
 21
46.933312000000001
 31
0.0
  0
LINE
  5
173
  8
0
  6
CONTINUOUS
 62
     7
 10
-80.933655000000002
 20
-13.576688000000001
 30
0.0
 11
-16.203268999999999
 21
51.153827999999997
 31
0.0
  0
LINE
  5
174
  8
0
  6
CONTINUOUS
 62
     7
 10
-80.933655000000002
 20
-9.0865554999999993
 30
0.0
 11
-20.693391999999999
 21
51.153827999999997
 31
0.0
  0
LINE
  5
175
  8
0
  6
CONTINUOUS
 62
     7
 10
-80.933655000000002
 20
-4.5964229999999997
 30
0.0
 11
-25.183516000000001
 21
51.153827999999997
 31
0.0
  0
LINE
  5
176
  8
0
  6
CONTINUOUS
 62
     7
 10
-80.933655000000002
 20
-0.10629056
 30
0.0
 11
-29.673639000000001
 21
51.153827999999997
 31
0.0
  0
LINE
  5
177
  8
0
  6
CONTINUOUS
 62
     7
 10
-80.933655000000002
 20
4.3838419000000002
 30
0.0
 11
-34.163763000000003
 21
51.153827999999997
 31
0.0
  0
LINE
  5
178
  8
0
  6
CONTINUOUS
 62
     7
 10
-80.933655000000002
 20
8.8739743999999998
 30
0.0
 11
-38.653886
 21
51.153827999999997
 31
0.0
  0
LINE
  5
179
  8
0
  6
CONTINUOUS
 62
     7
 10
-80.933655000000002
 20
13.364107000000001
 30
0.0
 11
-43.144009999999987
 21
51.153827999999997
 31
0.0
  0
LINE
  5
17A
  8
0
  6
CONTINUOUS
 62
     7
 10
-80.933655000000002
 20
17.854239
 30
0.0
 11
-47.634132999999991
 21
51.153827999999997
 31
0.0
  0
LINE
  5
17B
  8
0
  6
CONTINUOUS
 62
     7
 10
-80.933655000000002
 20
22.344371999999989
 30
0.0
 11
-52.124257
 21
51.153827999999997
 31
0.0
  0
LINE
  5
17C
  8
0
  6
CONTINUOUS
 62
     7
 10
-80.933655000000002
 20
26.834503999999988
 30
0.0
 11
-56.614379999999997
 21
51.153827999999997
 31
0.0
  0
LINE
  5
17D
  8
0
  6
CONTINUOUS
 62
     7
 10
-80.933655000000002
 20
31.324636999999999
 30
0.0
 11
-61.104504000000013
 21
51.153827999999997
 31
0.0
  0
LINE
  5
17E
  8
0
  6
CONTINUOUS
 62
     7
 10
-80.933655000000002
 20
35.814768999999998
 30
0.0
 11
-65.594627000000003
 21
51.153827999999997
 31
0.0
  0
LINE
  5
17F
  8
0
  6
CONTINUOUS
 62
     7
 10
-80.933655000000002
 20
40.304901999999998
 30
0.0
 11
-70.084750999999997
 21
51.153827999999997
 31
0.0
  0
LINE
  5
180
  8
0
  6
CONTINUOUS
 62
     7
 10
-80.933655000000002
 20
44.795034000000001
 30
0.0
 11
-74.574873999999994
 21
51.153827999999997
 31
0.0
  0
LINE
  5
181
  8
0
  6
CONTINUOUS
 62
     7
 10
-80.933655000000002
 20
49.285167000000001
 30
0.0
 11
-79.064998000000003
 21
51.153827999999997
 31
0.0
  0
ENDBLK
  5
182
  8
0
  0
ENDSEC
  0
SECTION
  2
ENTITIES
  0
POINT
  5
183
  8
0
  6
CONTINUOUS
 62
     7
 10
66.566344999999998
 20
31.153828000000001
 30
0.0
  0
POINT
  5
184
  8
0
  6
CONTINUOUS
 62
     7
 10
66.566344999999998
 20
98.271049000000005
 30
0.0
  0
POINT
  5
185
  8
0
  6
CONTINUOUS
 62
     7
 10
21.566347
 20
56.153827999999997
 30
0.0
  0
POINT
  5
186
  8
0
  6
CONTINUOUS
 62
     7
 10
31.56634699999999
 20
66.153824
 30
0.0
  0
POINT
  5
187
  8
0
  6
CONTINUOUS
 62
     7
 10
31.56634699999999
 20
76.153824
 30
0.0
  0
POINT
  5
188
  8
0
  6
CONTINUOUS
 62
     7
 10
66.566344999999998
 20
31.153828000000001
 30
0.0
  0
POINT
  5
189
  8
0
  6
CONTINUOUS
 62
     7
 10
66.566344999999998
 20
98.271049000000005
 30
0.0
  0
POINT
  5
18A
  8
0
  6
CONTINUOUS
 62
     7
 10
93.798653000000002
 20
100.27105
 30
0.0
  0
POINT
  5
18B
  8
0
  6
CONTINUOUS
 62
     7
 10
44.066340999999987
 20
140.27105999999989
 30
0.0
  0
POINT
  5
18C
  8
0
  6
CONTINUOUS
 62
     7
 10
93.798653000000002
 20
140.27105999999989
 30
0.0
  0
LINE
  5
18D
  8
0
  6
CONTINUOUS
 62
     7
 10
170.0
 20
173.0
 30
0.0
 11
170.0
 21
-100.0
 31
0.0
  0
LINE
  5
18E
  8
0
  6
CONTINUOUS
 62
     7
 10
-211.0
 20
-100.0
 30
0.0
 11
170.0
 21
-100.0
 31
0.0
  0
LINE
  5
18F
  8
0
  6
CONTINUOUS
 62
     7
 10
-211.0
 20
173.0
 30
0.0
 11
170.0
 21
173.0
 31
0.0
  0
LINE
  5
190
  8
0
  6
CONTINUOUS
 62
     7
 10
-211.0
 20
173.0
 30
0.0
 11
-211.0
 21
-100.0
 31
0.0
  0
LINE
  5
191
  8
0
  6
CONTINUOUS
 62
     7
 10
-191.0
 20
173.0
 30
0.0
 11
-191.0
 21
77.0
 31
0.0
  0
LINE
  5
192
  8
0
  6
CONTINUOUS
 62
     7
 10
-211.0
 20
165.0
 30
0.0
 11
-101.0
 21
165.0
 31
0.0
  0
LINE
  5
193
  8
0
  6
CONTINUOUS
 62
     7
 10
-211.0
 20
157.0
 30
0.0
 11
-101.0
 21
157.0
 31
0.0
  0
LINE
  5
194
  8
0
  6
CONTINUOUS
 62
     7
 10
-211.0
 20
149.0
 30
0.0
 11
-101.0
 21
149.0
 31
0.0
  0
LINE
  5
195
  8
0
  6
CONTINUOUS
 62
     7
 10
-211.0
 20
141.0
 30
0.0
 11
-101.0
 21
141.0
 31
0.0
  0
LINE
  5
196
  8
0
  6
CONTINUOUS
 62
     7
 10
-191.0
 20
117.0
 30
0.0
 11
-101.0
 21
117.0
 31
0.0
  0
LINE
  5
197
  8
0
  6
CONTINUOUS
 62
     7
 10
-191.0
 20
109.0
 30
0.0
 11
-101.0
 21
109.0
 31
0.0
  0
LINE
  5
198
  8
0
  6
CONTINUOUS
 62
     7
 10
-211.0
 20
101.0
 30
0.0
 11
-101.0
 21
101.0
 31
0.0
  0
LINE
  5
199
  8
0
  6
CONTINUOUS
 62
     7
 10
-191.0
 20
93.0
 30
0.0
 11
-101.0
 21
93.0
 31
0.0
  0
LINE
  5
19A
  8
0
  6
CONTINUOUS
 62
     7
 10
-191.0
 20
85.0
 30
0.0
 11
-101.0
 21
85.0
 31
0.0
  0
LINE
  5
19B
  8
0
  6
CONTINUOUS
 62
     7
 10
-211.0
 20
77.0
 30
0.0
 11
-101.0
 21
77.0
 31
0.0
  0
LINE
  5
19C
  8
0
  6
CONTINUOUS
 62
     7
 10
-211.0
 20
173.0
 30
0.0
 11
-211.0
 21
77.0
 31
0.0
  0
LINE
  5
19D
  8
0
  6
CONTINUOUS
 62
     7
 10
-211.0
 20
173.0
 30
0.0
 11
-101.0
 21
173.0
 31
0.0
  0
LINE
  5
19E
  8
0
  6
CONTINUOUS
 62
     7
 10
-101.0
 20
173.0
 30
0.0
 11
-101.0
 21
77.0
 31
0.0
  0
LINE
  5
19F
  8
0
  6
CONTINUOUS
 62
     7
 10
-211.0
 20
133.0
 30
0.0
 11
-101.0
 21
133.0
 31
0.0
  0
LINE
  5
1A0
  8
0
  6
CONTINUOUS
 62
     7
 10
-211.0
 20
125.0
 30
0.0
 11
-101.0
 21
125.0
 31
0.0
  0
LINE
  5
1A1
  8
0
  6
CONTINUOUS
 62
     7
 10
-191.0
 20
117.0
 30
0.0
 11
-101.0
 21
117.0
 31
0.0
  0
LINE
  5
1A2
  8
0
  6
CENTER
 62
     7
 10
66.566344999999998
 20
61.153827999999997
 30
0.0
 11
66.566344999999998
 21
-68.846176
 31
0.0
  0
LINE
  5
1A3
  8
0
  6
CENTER
 62
     7
 10
74.566344999999984
 20
31.153828000000001
 30
0.0
 11
58.566349000000002
 21
31.153828000000001
 31
0.0
  0
LINE
  5
1A4
  8
0
  6
CONTINUOUS
 62
     3
 10
-80.933655000000002
 20
51.153827999999997
 30
0.0
 11
-15.933652
 21
51.153827999999997
 31
0.0
  0
LINE
  5
1A5
  8
0
  6
CONTINUOUS
 62
     3
 10
-80.933655000000002
 20
51.153827999999997
 30
0.0
 11
-80.933655000000002
 21
-58.846172000000003
 31
0.0
  0
LINE
  5
1A6
  8
0
  6
CONTINUOUS
 62
     3
 10
-80.933655000000002
 20
-58.846172000000003
 30
0.0
 11
-15.933652
 21
-58.846172000000003
 31
0.0
  0
LINE
  5
1A7
  8
0
  6
CONTINUOUS
 62
     3
 10
-15.933652
 20
51.153827999999997
 30
0.0
 11
-15.933652
 21
-58.846172000000003
 31
0.0
  0
LINE
  5
1A8
  8
0
  6
CONTINUOUS
 62
     7
 10
32.566344999999998
 20
-63.846172000000003
 30
0.0
 11
105.56635
 21
-63.846172000000003
 31
0.0
  0
LINE
  5
1A9
  8
0
  6
CONTINUOUS
 62
     7
 10
32.566344999999998
 20
56.153827999999997
 30
0.0
 11
105.56635
 21
56.153827999999997
 31
0.0
  0
LINE
  5
1AA
  8
0
  6
CONTINUOUS
 62
     7
 10
31.566344999999998
 20
-62.846171999999989
 30
0.0
 11
31.566344999999998
 21
55.153828000000011
 31
0.0
  0
LINE
  5
1AB
  8
0
  6
CONTINUOUS
 62
     7
 10
106.56635
 20
-62.846171999999989
 30
0.0
 11
106.56635
 21
55.153828000000011
 31
0.0
  0
LINE
  5
1AC
  8
0
  6
CONTINUOUS
 62
     7
 10
31.566344999999998
 20
98.271049000000005
 30
0.0
 11
106.56635
 21
98.271049000000005
 31
0.0
  0
LINE
  5
1AD
  8
0
  6
CONTINUOUS
 62
     7
 10
31.566344999999998
 20
142.27106000000001
 30
0.0
 11
106.56635
 21
142.27106000000001
 31
0.0
  0
LINE
  5
1AE
  8
0
  6
CONTINUOUS
 62
     7
 10
106.56635
 20
98.271049000000005
 30
0.0
 11
106.56635
 21
100.27105
 31
0.0
  0
LINE
  5
1AF
  8
0
  6
CONTINUOUS
 62
     7
 10
31.566344999999998
 20
98.271049000000005
 30
0.0
 11
31.566344999999998
 21
100.27105
 31
0.0
  0
LINE
  5
1B0
  8
0
  6
CONTINUOUS
 62
     7
 10
31.566344999999998
 20
100.27105
 30
0.0
 11
106.56635
 21
100.27105
 31
0.0
  0
LINE
  5
1B1
  8
0
  6
CONTINUOUS
 62
     7
 10
31.566344999999998
 20
140.27105999999989
 30
0.0
 11
106.56635
 21
140.27105999999989
 31
0.0
  0
LINE
  5
1B2
  8
0
  6
CONTINUOUS
 62
     7
 10
93.066344999999984
 20
-46.846171999999989
 30
0.0
 11
93.066344999999984
 21
39.153827999999997
 31
0.0
  0
LINE
  5
1B3
  8
0
  6
CONTINUOUS
 62
     7
 10
58.066344999999998
 20
-46.846171999999989
 30
0.0
 11
58.066344999999998
 21
39.153827999999997
 31
0.0
  0
LINE
  5
1B4
  8
0
  6
CONTINUOUS
 62
     7
 10
58.066344999999998
 20
-46.846171999999989
 30
0.0
 11
93.066344999999984
 21
-46.846171999999989
 31
0.0
  0
LINE
  5
1B5
  8
0
  6
CONTINUOUS
 62
     7
 10
58.066344999999998
 20
39.153827999999997
 30
0.0
 11
93.066344999999984
 21
39.153827999999997
 31
0.0
  0
LINE
  5
1B6
  8
0
  6
CONTINUOUS
 62
     7
 10
65.066344999999998
 20
-39.346171999999989
 30
0.0
 11
65.566344999999998
 21
-39.346171999999989
 31
0.0
  0
LINE
  5
1B7
  8
0
  6
CONTINUOUS
 62
     7
 10
65.066344999999998
 20
-38.346171999999989
 30
0.0
 11
65.566344999999998
 21
-38.346171999999989
 31
0.0
  0
LINE
  5
1B8
  8
0
  6
CONTINUOUS
 62
     7
 10
66.066344999999998
 20
-40.346171999999989
 30
0.0
 11
66.066344999999998
 21
-39.846171999999989
 31
0.0
  0
LINE
  5
1B9
  8
0
  6
CONTINUOUS
 62
     7
 10
67.066344999999984
 20
-40.346171999999989
 30
0.0
 11
67.066344999999984
 21
-39.846171999999989
 31
0.0
  0
LINE
  5
1BA
  8
0
  6
CONTINUOUS
 62
     7
 10
65.066344999999998
 20
31.653828000000001
 30
0.0
 11
65.566344999999998
 21
31.653828000000001
 31
0.0
  0
LINE
  5
1BB
  8
0
  6
CONTINUOUS
 62
     7
 10
65.066344999999998
 20
30.653828000000001
 30
0.0
 11
65.566344999999998
 21
30.653828000000001
 31
0.0
  0
LINE
  5
1BC
  8
0
  6
CONTINUOUS
 62
     7
 10
66.066344999999998
 20
29.653828000000001
 30
0.0
 11
66.066344999999998
 21
30.153828000000001
 31
0.0
  0
LINE
  5
1BD
  8
0
  6
CONTINUOUS
 62
     7
 10
67.066344999999984
 20
29.653828000000001
 30
0.0
 11
67.066344999999984
 21
30.153828000000001
 31
0.0
  0
LINE
  5
1BE
  8
0
  6
CONTINUOUS
 62
     7
 10
66.066344999999998
 20
-37.846171999999989
 30
0.0
 11
66.066344999999998
 21
-37.346171999999989
 31
0.0
  0
LINE
  5
1BF
  8
0
  6
CONTINUOUS
 62
     7
 10
67.066344999999984
 20
-37.846171999999989
 30
0.0
 11
67.066344999999984
 21
-37.346171999999989
 31
0.0
  0
LINE
  5
1C0
  8
0
  6
CONTINUOUS
 62
     7
 10
67.566344999999998
 20
-38.346171999999989
 30
0.0
 11
68.066344999999998
 21
-38.346171999999989
 31
0.0
  0
LINE
  5
1C1
  8
0
  6
CONTINUOUS
 62
     7
 10
67.566344999999998
 20
-39.346171999999989
 30
0.0
 11
68.066344999999998
 21
-39.346171999999989
 31
0.0
  0
LINE
  5
1C2
  8
0
  6
CONTINUOUS
 62
     7
 10
67.566344999999998
 20
30.653828000000001
 30
0.0
 11
68.066344999999998
 21
30.653828000000001
 31
0.0
  0
LINE
  5
1C3
  8
0
  6
CONTINUOUS
 62
     7
 10
67.566344999999998
 20
31.653828000000001
 30
0.0
 11
68.066344999999998
 21
31.653828000000001
 31
0.0
  0
LINE
  5
1C4
  8
0
  6
CONTINUOUS
 62
     7
 10
67.066344999999984
 20
32.153827999999997
 30
0.0
 11
67.066344999999984
 21
32.653827999999997
 31
0.0
  0
LINE
  5
1C5
  8
0
  6
CONTINUOUS
 62
     7
 10
66.066344999999998
 20
32.153827999999997
 30
0.0
 11
66.066344999999998
 21
32.653827999999997
 31
0.0
  0
LINE
  5
1C6
  8
0
  6
CONTINUOUS
 62
     7
 10
47.066344999999991
 20
116.97105000000001
 30
0.0
 11
76.190414000000004
 21
116.97105000000001
 31
0.0
  0
LINE
  5
1C7
  8
0
  6
CONTINUOUS
 62
     7
 10
100.56635
 20
100.27105
 30
0.0
 11
100.56635
 21
101.07105
 31
0.0
  0
LINE
  5
1C8
  8
0
  6
CONTINUOUS
 62
     7
 10
37.566344999999998
 20
100.27105
 30
0.0
 11
37.566344999999998
 21
101.07105
 31
0.0
  0
LINE
  5
1C9
  8
0
  6
CONTINUOUS
 62
     7
 10
37.566344999999998
 20
101.07105
 30
0.0
 11
100.56635
 21
101.07105
 31
0.0
  0
LINE
  5
1CA
  8
0
  6
CONTINUOUS
 62
     7
 10
100.56635
 20
139.47104999999991
 30
0.0
 11
100.56635
 21
140.27105999999989
 31
0.0
  0
LINE
  5
1CB
  8
0
  6
CONTINUOUS
 62
     7
 10
37.566344999999998
 20
139.47104999999991
 30
0.0
 11
37.566344999999998
 21
140.27105999999989
 31
0.0
  0
LINE
  5
1CC
  8
0
  6
CONTINUOUS
 62
     7
 10
43.266341999999987
 20
101.07105
 30
0.0
 11
43.266341999999987
 21
113.17104999999999
 31
0.0
  0
LINE
  5
1CD
  8
0
  6
CONTINUOUS
 62
     7
 10
31.566344999999998
 20
140.27105999999989
 30
0.0
 11
31.566344999999998
 21
142.27106000000001
 31
0.0
  0
LINE
  5
1CE
  8
0
  6
CONTINUOUS
 62
     7
 10
106.56635
 20
140.27105999999989
 30
0.0
 11
106.56635
 21
142.27106000000001
 31
0.0
  0
LINE
  5
1CF
  8
0
  6
CONTINUOUS
 62
     7
 10
37.566344999999998
 20
139.47104999999991
 30
0.0
 11
51.566344999999998
 21
139.47104999999991
 31
0.0
  0
LINE
  5
1D0
  8
0
  6
CONTINUOUS
 62
     7
 10
51.566344999999998
 20
119.27105
 30
0.0
 11
51.566344999999998
 21
140.27105999999989
 31
0.0
  0
LINE
  5
1D1
  8
0
  6
CONTINUOUS
 62
     7
 10
81.566344999999998
 20
119.27105
 30
0.0
 11
81.566344999999998
 21
140.27105999999989
 31
0.0
  0
LINE
  5
1D2
  8
0
  6
CONTINUOUS
 62
     7
 10
51.566344999999998
 20
119.27105
 30
0.0
 11
81.566344999999998
 21
119.27105
 31
0.0
  0
LINE
  5
1D3
  8
0
  6
CONTINUOUS
 62
     7
 10
81.566344999999998
 20
139.47104999999991
 30
0.0
 11
100.56635
 21
139.47104999999991
 31
0.0
  0
LINE
  5
1D4
  8
0
  6
CONTINUOUS
 62
     7
 10
51.566344999999998
 20
138.77106000000001
 30
0.0
 11
81.566344999999998
 21
138.77106000000001
 31
0.0
  0
LINE
  5
1D5
  8
0
  6
CENTER
 62
     7
 10
66.566344999999998
 20
93.271049000000005
 30
0.0
 11
66.566344999999998
 21
147.27106000000001
 31
0.0
  0
LINE
  5
1D6
  8
0
  6
CONTINUOUS
 62
     7
 10
63.372939999999993
 20
117.77105
 30
0.0
 11
69.759749999999997
 21
117.77105
 31
0.0
  0
LINE
  5
1D7
  8
0
  6
CONTINUOUS
 62
     7
 10
62.872948000000001
 20
116.9710399999999
 30
0.0
 11
63.372951999999998
 21
117.7710399999999
 31
0.0
  0
LINE
  5
1D8
  8
0
  6
CONTINUOUS
 62
     7
 10
70.259757999999991
 20
116.97105000000001
 30
0.0
 11
69.759757999999991
 21
117.77105
 31
0.0
  0
LINE
  5
1D9
  8
0
  6
CONTINUOUS
 62
     7
 10
68.566344999999998
 20
117.77105
 30
0.0
 11
68.566344999999998
 21
119.27105
 31
0.0
  0
LINE
  5
1DA
  8
0
  6
CONTINUOUS
 62
     7
 10
64.566344999999984
 20
117.77105
 30
0.0
 11
64.566344999999984
 21
119.27105
 31
0.0
  0
LINE
  5
1DB
  8
0
  6
CONTINUOUS
 62
     7
 10
64.916343999999995
 20
117.77105
 30
0.0
 11
64.916343999999995
 21
119.27105
 31
0.0
  0
LINE
  5
1DC
  8
0
  6
CONTINUOUS
 62
     7
 10
68.216346999999999
 20
117.77105
 30
0.0
 11
68.216346999999999
 21
119.27105
 31
0.0
  0
LINE
  5
1DD
  8
0
  6
CONTINUOUS
 62
     7
 10
47.066344999999991
 20
123.57104
 30
0.0
 11
51.566344999999998
 21
123.57104
 31
0.0
  0
LINE
  5
1DE
  8
0
  6
CONTINUOUS
 62
     7
 10
43.266341999999987
 20
139.47104999999991
 30
0.0
 11
43.266341999999987
 21
127.3710499999999
 31
0.0
  0
LINE
  5
1DF
  8
0
  6
CENTER
 62
     7
 10
74.566344999999984
 20
-38.846171999999989
 30
0.0
 11
58.566349000000002
 21
-38.846171999999989
 31
0.0
  0
LINE
  5
1E0
  8
0
  6
DASHED
 62
     7
 10
44.066340999999987
 20
139.47104999999991
 30
0.0
 11
44.066340999999987
 21
127.3710499999999
 31
0.0
  0
LINE
  5
1E1
  8
0
  6
DASHED
 62
     7
 10
47.066344999999991
 20
124.3710499999999
 30
0.0
 11
51.566344999999998
 21
124.3710499999999
 31
0.0
  0
LINE
  5
1E2
  8
0
  6
DASHED
 62
     7
 10
44.066340999999987
 20
101.07105
 30
0.0
 11
44.066340999999987
 21
113.17104999999999
 31
0.0
  0
LINE
  5
1E3
  8
0
  6
DASHED
 62
     7
 10
47.066344999999991
 20
116.17104
 30
0.0
 11
76.190414000000004
 21
116.17104
 31
0.0
  0
CIRCLE
  5
1E4
  8
0
  6
CONTINUOUS
 62
     7
 10
-145.23188999999991
 20
120.88303999999989
 30
0.0
 40
2.0
  0
ARC
  5
1E5
  8
0
  6
CONTINUOUS
 62
     7
 10
32.566344999999998
 20
55.153828000000011
 30
0.0
 40
1.0
 50
90.0
 51
180.0
  0
ARC
  5
1E6
  8
0
  6
CONTINUOUS
 62
     7
 10
105.56635
 20
-62.846171999999989
 30
0.0
 40
1.0
 50
270.0
 51
0.0
  0
ARC
  5
1E7
  8
0
  6
CONTINUOUS
 62
     7
 10
32.566344999999998
 20
-62.846171999999989
 30
0.0
 40
1.0
 50
180.0
 51
270.0
  0
ARC
  5
1E8
  8
0
  6
CONTINUOUS
 62
     7
 10
105.56635
 20
55.153828000000011
 30
0.0
 40
1.0
 50
0.0
 51
90.0
  0
CIRCLE
  5
1E9
  8
0
  6
CONTINUOUS
 62
     7
 10
66.566344999999998
 20
-38.846171999999989
 30
0.0
 40
3.0
  0
CIRCLE
  5
1EA
  8
0
  6
CONTINUOUS
 62
     7
 10
66.566344999999998
 20
31.153828000000001
 30
0.0
 40
3.0
  0
ARC
  5
1EB
  8
0
  6
CONTINUOUS
 62
     7
 10
66.566344999999998
 20
-37.346171999999989
 30
0.0
 40
0.5
 50
0.0
 51
180.0
  0
ARC
  5
1EC
  8
0
  6
CONTINUOUS
 62
     7
 10
66.566344999999998
 20
-40.346171999999989
 30
0.0
 40
0.5
 50
180.0
 51
0.0
  0
ARC
  5
1ED
  8
0
  6
CONTINUOUS
 62
     7
 10
65.066344999999998
 20
-38.846171999999989
 30
0.0
 40
0.5
 50
90.0
 51
270.0
  0
ARC
  5
1EE
  8
0
  6
CONTINUOUS
 62
     7
 10
68.066344999999998
 20
-38.846171999999989
 30
0.0
 40
0.5
 50
270.0
 51
90.0
  0
ARC
  5
1EF
  8
0
  6
CONTINUOUS
 62
     7
 10
67.566344999999998
 20
-39.846171999999989
 30
0.0
 40
0.5
 50
90.0
 51
180.0
  0
ARC
  5
1F0
  8
0
  6
CONTINUOUS
 62
     7
 10
65.566344999999998
 20
-37.846171999999989
 30
0.0
 40
0.5
 50
270.0
 51
0.0
  0
ARC
  5
1F1
  8
0
  6
CONTINUOUS
 62
     7
 10
65.566344999999998
 20
-39.846171999999989
 30
0.0
 40
0.5
 50
0.0
 51
90.0
  0
ARC
  5
1F2
  8
0
  6
CONTINUOUS
 62
     7
 10
67.566344999999998
 20
-37.846171999999989
 30
0.0
 40
0.5
 50
180.0
 51
270.0
  0
ARC
  5
1F3
  8
0
  6
CONTINUOUS
 62
     7
 10
68.066344999999998
 20
31.153828000000001
 30
0.0
 40
0.5
 50
270.0
 51
90.0
  0
ARC
  5
1F4
  8
0
  6
CONTINUOUS
 62
     7
 10
66.566344999999998
 20
32.653827999999997
 30
0.0
 40
0.5
 50
0.0
 51
180.0
  0
ARC
  5
1F5
  8
0
  6
CONTINUOUS
 62
     7
 10
65.066344999999998
 20
31.153828000000001
 30
0.0
 40
0.5
 50
90.0
 51
270.0
  0
ARC
  5
1F6
  8
0
  6
CONTINUOUS
 62
     7
 10
66.566344999999998
 20
29.653828000000001
 30
0.0
 40
0.5
 50
180.0
 51
0.0
  0
ARC
  5
1F7
  8
0
  6
CONTINUOUS
 62
     7
 10
65.566344999999998
 20
32.153827999999997
 30
0.0
 40
0.5
 50
270.0
 51
0.0
  0
ARC
  5
1F8
  8
0
  6
CONTINUOUS
 62
     7
 10
67.566344999999998
 20
30.153828000000001
 30
0.0
 40
0.5
 50
90.0
 51
180.0
  0
ARC
  5
1F9
  8
0
  6
CONTINUOUS
 62
     7
 10
65.566344999999998
 20
30.153828000000001
 30
0.0
 40
0.5
 50
0.0
 51
90.0
  0
ARC
  5
1FA
  8
0
  6
CONTINUOUS
 62
     7
 10
67.566344999999998
 20
32.153827999999997
 30
0.0
 40
0.5
 50
180.0
 51
270.0
  0
ARC
  5
1FB
  8
0
  6
CONTINUOUS
 62
     7
 10
47.066344999999991
 20
113.17104999999999
 30
0.0
 40
3.7999999999999989
 50
90.0
 51
180.0
  0
ARC
  5
1FC
  8
0
  6
CONTINUOUS
 62
     7
 10
76.190414000000004
 20
98.471054000000024
 30
0.0
 40
18.5
 50
8.0791226999999992
 51
90.0
  0
ARC
  5
1FD
  8
0
  6
CONTINUOUS
 62
     7
 10
76.190414000000004
 20
142.0710399999999
 30
0.0
 40
18.5
 50
286.89332999999999
 51
351.92090000000002
  0
ARC
  5
1FE
  8
0
  6
CONTINUOUS
 62
     7
 10
47.066344999999991
 20
127.3710499999999
 30
0.0
 40
3.7999999999999989
 50
180.0
 51
270.0
  0
ARC
  5
1FF
  8
0
  6
DASHED
 62
     7
 10
47.066344999999991
 20
127.3710499999999
 30
0.0
 40
3.0
 50
180.0
 51
270.0
  0
ARC
  5
200
  8
0
  6
DASHED
 62
     7
 10
76.190414000000004
 20
142.0710399999999
 30
0.0
 40
17.700001
 50
286.89332000000002
 51
351.92093999999992
  0
ARC
  5
201
  8
0
  6
DASHED
 62
     7
 10
47.066344999999991
 20
113.17104999999999
 30
0.0
 40
3.0
 50
90.0
 51
180.0
  0
ARC
  5
202
  8
0
  6
DASHED
 62
     7
 10
76.190414000000004
 20
98.471054000000024
 30
0.0
 40
17.700001
 50
8.4468903999999991
 51
90.0
  0
ARC
  5
203
  8
0
  6
DASHED
 62
     7
 10
43.266341999999987
 20
101.07105
 30
0.0
 40
0.8000000099999999
 50
270.0
 51
0.0
  0
ARC
  5
204
  8
0
  6
DASHED
 62
     7
 10
94.506798000000003
 20
101.07105
 30
0.0
 40
0.8000000099999999
 50
188.07926
 51
270.0
  0
ARC
  5
205
  8
0
  6
DASHED
 62
     7
 10
43.266341999999987
 20
139.47104999999991
 30
0.0
 40
0.8000000099999999
 50
0.0
 51
90.0
  0
ARC
  5
206
  8
0
  6
DASHED
 62
     7
 10
94.506805
 20
139.47104999999991
 30
0.0
 40
0.8000000099999999
 50
90.0
 51
171.92129
  0
TEXT
  5
207
  8
0
  6
CONTINUOUS
 62
     7
 10
-188.14299999999989
 20
95.400000000000006
 30
0.0
 40
3.2000000000000002
  1
適用ドア厚４０ｍｍ
 41
0.84496202
  0
TEXT
  5
208
  8
0
  6
CONTINUOUS
 62
     7
 10
-205.34299999999999
 20
167.40000000000001
 30
0.0
 40
3.2000000000000002
  1
品　名
 41
0.85537027
  0
TEXT
  5
209
  8
0
  6
CONTINUOUS
 62
     7
 10
-205.34299999999999
 20
159.40000000000001
 30
0.0
 40
3.2000000000000002
  1
品　番
 41
0.85537027
  0
TEXT
  5
20A
  8
0
  6
CONTINUOUS
 62
     7
 10
-188.14299999999989
 20
87.400000000000006
 30
0.0
 40
3.2000000000000002
  1
＊
 41
0.90047268
  0
TEXT
  5
20B
  8
0
  6
CONTINUOUS
 62
     7
 10
-188.14299999999989
 20
79.400000000000006
 30
0.0
 40
3.2000000000000002
  1
＊
 41
0.90047268
  0
TEXT
  5
20C
  8
0
  6
CONTINUOUS
 62
     7
 10
-205.34299999999999
 20
151.40000000000001
 30
0.0
 40
3.2000000000000002
  1
材　質
 41
0.85537027
  0
TEXT
  5
20D
  8
0
  6
CONTINUOUS
 62
     7
 10
-205.34299999999999
 20
143.40000000000001
 30
0.0
 40
3.2000000000000002
  1
仕上げ
 41
0.85537027
  0
TEXT
  5
20E
  8
0
  6
CONTINUOUS
 62
     7
 10
-188.14299999999989
 20
103.40000000000001
 30
0.0
 40
3.2000000000000002
  1
＊
 41
0.90047268
  0
TEXT
  5
20F
  8
0
  6
CONTINUOUS
 62
     7
 10
-188.14299999999989
 20
111.40000000000001
 30
0.0
 40
3.2000000000000002
  1
２本付(DT=40用）
 41
0.90047268
  0
TEXT
  5
210
  8
0
  6
CONTINUOUS
 62
     7
 10
-208.54300000000001
 20
119.40000000000001
 30
0.0
 40
3.2000000000000002
  1
セットビス
 41
0.84892707
  0
TEXT
  5
211
  8
0
  6
CONTINUOUS
 62
     7
 10
-188.14299999999989
 20
119.40000000000001
 30
0.0
 40
3.2000000000000002
  1
Ｍ４×Ｄ６×６サラ小ネジ　＋　ＳＵＳ
 41
0.8421864899999999
  0
TEXT
  5
212
  8
0
  6
CONTINUOUS
 62
     7
 10
-203.74299999999999
 20
95.400000000000006
 30
0.0
 40
3.2000000000000002
  1
備考
 41
0.8643907499999999
  0
TEXT
  5
213
  8
0
  6
CONTINUOUS
 62
     7
 10
-205.34299999999999
 20
135.40000000000001
 30
0.0
 40
3.2000000000000002
  1
定　尺
 41
0.85537027
  0
TEXT
  5
214
  8
0
  6
CONTINUOUS
 62
     7
 10
-206.9429999999999
 20
127.40000000000001
 30
0.0
 40
3.2000000000000002
  1
左右勝手
 41
0.8512700499999999
  0
TEXT
  5
215
  8
0
  6
CONTINUOUS
 62
     7
 10
-188.3785499999999
 20
134.96997999999999
 30
0.0
 40
3.2000000000000002
  1
＊
 41
0.90047268
  0
TEXT
  5
216
  8
0
  6
CONTINUOUS
 62
     7
 10
-188.14299999999989
 20
167.40000000000001
 30
0.0
 40
3.2000000000000002
  1
掘り込み引手
 41
0.84741102
  0
TEXT
  5
217
  8
0
  6
CONTINUOUS
 62
     7
 10
-188.14299999999989
 20
159.40000000000001
 30
0.0
 40
3.2000000000000002
  1
ＤＵ－７６
 41
0.84892707
  0
TEXT
  5
218
  8
0
  6
CONTINUOUS
 62
     7
 10
-188.14299999999989
 20
151.40000000000001
 30
0.0
 40
3.2000000000000002
  1
ステンレス
 41
0.84892707
  0
TEXT
  5
219
  8
0
  6
CONTINUOUS
 62
     7
 10
-188.14299999999989
 20
143.40000000000001
 30
0.0
 40
3.2000000000000002
  1
ヘアーライン
 41
0.84741102
  0
TEXT
  5
21A
  8
0
  6
CONTINUOUS
 62
     7
 10
-188.3785499999999
 20
127.3661699999999
 30
0.0
 40
3.2000000000000002
  1
＊
 41
0.90047268
  0
TEXT
  5
21B
  8
0
  6
CONTINUOUS
 62
     7
 10
-67.224031999999994
 20
-74.344208999999992
 30
0.0
 40
3.2000000000000002
  1
切欠推奨寸法
 41
0.84741102
  0
INSERT
  5
21C
  8
0
  6
CONTINUOUS
 62
     7
  2
KOZU0002
 10
0.0
 20
0.0
 30
0.0
  0
DIMENSION
  5
21D
  8
0
  6
CONTINUOUS
 62
     7
  2
*D1
 10
131.56635
 20
-63.846172000000003
 30
0.0
 11
131.56635
 21
-3.8461732999999998
 31
0.0
 13
105.56635
 23
56.153827999999997
 33
0.0
 14
105.56635
 24
-63.846172000000003
 34
0.0
 50
90.0
1001
ACAD
1000
DSTYLE
1002
{
1070
    77
1070
     1
1070
   172
1070
     1
1002
}
  0
DIMENSION
  5
21E
  8
0
  6
CONTINUOUS
 62
     7
  2
*D2
 10
121.56635
 20
31.153828000000001
 30
0.0
 11
121.56635
 21
43.653827999999997
 31
0.0
 13
105.56635
 23
56.153827999999997
 33
0.0
 14
77.066344999999984
 24
31.153828000000001
 34
0.0
 50
90.0
1001
ACAD
1000
DSTYLE
1002
{
1070
    77
1070
     1
1070
   172
1070
     1
1002
}
  0
DIMENSION
  5
21F
  8
0
  6
CONTINUOUS
 62
     7
  2
*D3
 10
121.56635
 20
-38.846171999999989
 30
0.0
 11
121.56635
 21
-3.8461732999999998
 31
0.0
 13
77.066344999999984
 23
31.153828000000001
 33
0.0
 14
77.066344999999984
 24
-38.846171999999989
 34
0.0
 50
90.0
1001
ACAD
1000
DSTYLE
1002
{
1070
    77
1070
     1
1070
   172
1070
     1
1070
    75
1070
     1
1002
}
  0
DIMENSION
  5
220
  8
0
  6
CONTINUOUS
 62
     7
  2
*D4
 10
121.56635
 20
-63.846172000000003
 30
0.0
 11
121.56635
 21
-51.346172000000003
 31
0.0
 13
77.066344999999984
 23
-38.846171999999989
 33
0.0
 14
105.56635
 24
-63.846172000000003
 34
0.0
 50
90.0
1001
ACAD
1000
DSTYLE
1002
{
1070
    77
1070
     1
1070
   172
1070
     1
1070
    75
1070
     1
1002
}
  0
DIMENSION
  5
221
  8
0
  6
CONTINUOUS
 62
     7
  2
*D5
 10
21.566347
 20
-46.846171999999989
 30
0.0
 11
21.566347
 21
-55.346171999999989
 31
0.0
 13
32.566344999999998
 23
-63.846172000000003
 33
0.0
 14
58.066349000000002
 24
-46.846171999999989
 34
0.0
 50
90.0
1001
ACAD
1000
DSTYLE
1002
{
1070
    77
1070
     1
1070
   172
1070
     1
1002
}
  0
DIMENSION
  5
222
  8
0
  6
CONTINUOUS
 62
     7
  2
*D6
 10
21.566347
 20
39.153827999999997
 30
0.0
 11
21.566347
 21
-3.8461732999999998
 31
0.0
 13
58.066344999999998
 23
-46.846171999999989
 33
0.0
 14
58.066349000000002
 24
39.153827999999997
 34
0.0
 50
90.0
1001
ACAD
1000
DSTYLE
1002
{
1070
    77
1070
     1
1070
   172
1070
     1
1002
}
  0
DIMENSION
  5
223
  8
0
  6
CONTINUOUS
 62
     7
  2
*D7
 10
21.566347
 20
56.153827999999997
 30
0.0
 11
21.566347
 21
47.653827999999997
 31
0.0
 13
58.066344999999998
 23
39.153827999999997
 33
0.0
 14
32.566344999999998
 24
56.153827999999997
 34
0.0
 50
90.0
1001
ACAD
1000
DSTYLE
1002
{
1070
    77
1070
     1
1070
   172
1070
     1
1002
}
  0
DIMENSION
  5
224
  8
0
  6
CONTINUOUS
 62
     7
  2
*D8
 10
106.56635
 20
76.153824
 30
0.0
 11
69.066344999999998
 21
76.153824
 31
0.0
 13
31.56634699999999
 23
55.153828000000011
 33
0.0
 14
106.56635
 24
55.153828000000011
 34
0.0
1001
ACAD
1000
DSTYLE
1002
{
1070
    77
1070
     1
1070
   172
1070
     1
1002
}
  0
DIMENSION
  5
225
  8
0
  6
CONTINUOUS
 62
     7
  2
*D9
 10
58.066349000000002
 20
-78.846176
 30
0.0
 11
44.816349000000002
 21
-78.846176
 31
0.0
 13
31.56634699999999
 23
-62.846171999999989
 33
0.0
 14
58.066349000000002
 24
-46.846171999999989
 34
0.0
1001
ACAD
1000
DSTYLE
1002
{
1070
    77
1070
     1
1070
   172
1070
     1
1002
}
  0
DIMENSION
  5
226
  8
0
  6
CONTINUOUS
 62
     7
  2
*D10
 10
93.066344999999984
 20
-78.846176
 30
0.0
 11
75.566344999999998
 21
-78.846176
 31
0.0
 13
58.066349000000002
 23
-46.846171999999989
 33
0.0
 14
93.066344999999984
 24
-46.846171999999989
 34
0.0
1001
ACAD
1000
DSTYLE
1002
{
1070
    77
1070
     1
1070
   172
1070
     1
1070
    75
1070
     1
1002
}
  0
DIMENSION
  5
227
  8
0
  6
CONTINUOUS
 62
     7
  2
*D11
 10
106.56635
 20
-78.846176
 30
0.0
 11
99.816344999999998
 21
-78.846176
 31
0.0
 13
93.066344999999984
 23
-46.846171999999989
 33
0.0
 14
106.56635
 24
-62.846171999999989
 34
0.0
1001
ACAD
1000
DSTYLE
1002
{
1070
    77
1070
     1
1070
   172
1070
     1
1070
    75
1070
     1
1002
}
  0
INSERT
  5
228
  8
0
  6
CONTINUOUS
 62
     7
  2
KOZU0001
 10
106.56635
 20
56.153827999999997
 30
0.0
  0
DIMENSION
  5
229
  8
0
  6
CONTINUOUS
 62
     7
  2
*D12
 10
-90.933655000000002
 20
-58.846172000000003
 30
0.0
 11
-90.933655000000002
 21
-3.8461732999999998
 31
0.0
 13
-80.933655000000002
 23
51.153827999999997
 33
0.0
 14
-80.933655000000002
 24
-58.846172000000003
 34
0.0
 50
90.0
1001
ACAD
1000
DSTYLE
1002
{
1070
    77
1070
     1
1070
   172
1070
     1
1002
}
  0
DIMENSION
  5
22A
  8
0
  6
CONTINUOUS
 62
     7
  2
*D13
 10
-15.933652
 20
61.153827999999997
 30
0.0
 11
-48.43365099999999
 21
61.153827999999997
 31
0.0
 13
-80.933655000000002
 23
51.153827999999997
 33
0.0
 14
-15.933652
 24
51.153827999999997
 34
0.0
1001
ACAD
1000
DSTYLE
1002
{
1070
    77
1070
     1
1070
   172
1070
     1
1002
}
  0
DIMENSION
  5
22B
  8
0
  6
CONTINUOUS
 62
     7
  2
*D14
 10
66.566344999999998
 20
66.153824
 30
0.0
 11
49.066344999999998
 21
66.153824
 31
0.0
 13
31.566344999999998
 23
55.153828000000011
 33
0.0
 14
66.566344999999998
 24
61.153827999999997
 34
0.0
1001
ACAD
1000
DSTYLE
1002
{
1070
    77
1070
     1
1070
   172
1070
     1
1002
}
  0
DIMENSION
  5
22C
  8
0
  6
CONTINUOUS
 62
     7
  2
*D15
 10
106.56635
 20
66.153824
 30
0.0
 11
86.566344999999998
 21
66.153824
 31
0.0
 13
66.566344999999998
 23
61.153827999999997
 33
0.0
 14
106.56635
 24
55.153828000000011
 34
0.0
1001
ACAD
1000
DSTYLE
1002
{
1070
    77
1070
     1
1070
   172
1070
     1
1070
    75
1070
     1
1002
}
  0
DIMENSION
  5
22D
  8
0
  6
CONTINUOUS
 62
     7
  2
*D16
 10
131.56635
 20
98.271049000000005
 30
0.0
 11
131.56635
 21
94.484038999999996
 31
0.0
 13
106.56635
 23
100.27105
 33
0.0
 14
106.56635
 24
98.271049000000005
 34
0.0
 50
90.0
1001
ACAD
1000
DSTYLE
1002
{
1070
    77
1070
     1
1070
   172
1070
     1
1002
}
  0
DIMENSION
  5
22E
  8
0
  6
CONTINUOUS
 62
     7
  2
*D17
 10
131.56635
 20
140.27105999999989
 30
0.0
 11
131.56635
 21
120.27105
 31
0.0
 13
106.56635
 23
100.27105
 33
0.0
 14
106.56635
 24
140.27105999999989
 34
0.0
 50
90.0
1001
ACAD
1000
DSTYLE
1002
{
1070
    77
1070
     1
1070
   172
1070
     1
1070
    75
1070
     1
1002
}
  0
DIMENSION
  5
22F
  8
0
  6
CONTINUOUS
 62
     7
  2
*D18
 10
131.56635
 20
142.27106000000001
 30
0.0
 11
131.56635
 21
146.19585000000001
 31
0.0
 13
106.56635
 23
140.27105999999989
 33
0.0
 14
106.56635
 24
142.27106000000001
 34
0.0
 50
90.0
1001
ACAD
1000
DSTYLE
1002
{
1070
    77
1070
     1
1070
   172
1070
     1
1070
    75
1070
     1
1002
}
  0
DIMENSION
  5
230
  8
0
  6
CONTINUOUS
 62
     7
  2
*D19
 10
121.56635
 20
117.77105
 30
0.0
 11
121.56635
 21
109.0210499999999
 31
0.0
 13
106.56635
 23
100.27105
 33
0.0
 14
69.759749999999997
 24
117.77105
 34
0.0
 50
90.0
1001
ACAD
1000
DSTYLE
1002
{
1070
    77
1070
     1
1070
   172
1070
     1
1002
}
  0
DIMENSION
  5
231
  8
0
  6
CONTINUOUS
 62
     7
  2
*D20
 10
121.56635
 20
140.27105999999989
 30
0.0
 11
121.56635
 21
129.77106000000001
 31
0.0
 13
81.566344999999998
 23
119.27105
 33
0.0
 14
106.56635
 24
140.27105999999989
 34
0.0
 50
90.0
1001
ACAD
1000
DSTYLE
1002
{
1070
    77
1070
     1
1070
   172
1070
     1
1002
}
  0
DIMENSION
  5
232
  8
0
  6
CONTINUOUS
 62
     7
  2
*D21
 10
11.566347
 20
116.97105000000001
 30
0.0
 11
11.566347
 21
108.6210499999999
 31
0.0
 13
31.566344999999998
 23
100.27105
 33
0.0
 14
47.066344999999991
 24
116.97105000000001
 34
0.0
 50
90.0
1001
ACAD
1000
DSTYLE
1002
{
1070
    77
1070
     1
1070
   172
1070
     1
1002
}
  0
DIMENSION
  5
233
  8
0
  6
CONTINUOUS
 62
     7
  2
*D22
 10
11.566347
 20
123.5710499999999
 30
0.0
 11
11.566347
 21
131.92105000000001
 31
0.0
 13
31.566344999999998
 23
140.27105999999989
 33
0.0
 14
47.066344999999991
 24
123.5710499999999
 34
0.0
 50
90.0
1001
ACAD
1000
DSTYLE
1002
{
1070
    77
1070
     1
1070
   172
1070
     1
1002
}
  0
DIMENSION
  5
234
  8
0
  6
CONTINUOUS
 62
     7
  2
*D23
 10
21.566347
 20
116.17104999999989
 30
0.0
 11
21.566347
 21
108.22105000000001
 31
0.0
 13
31.566344999999998
 23
100.27105
 33
0.0
 14
47.066344999999991
 24
116.17104999999989
 34
0.0
 50
90.0
1001
ACAD
1000
DSTYLE
1002
{
1070
    77
1070
     1
1070
   172
1070
     1
1002
}
  0
DIMENSION
  5
235
  8
0
  6
CONTINUOUS
 62
     7
  2
*D24
 10
21.566347
 20
124.3710499999999
 30
0.0
 11
21.566347
 21
132.32105999999999
 31
0.0
 13
31.566344999999998
 23
140.27105999999989
 33
0.0
 14
47.066344999999991
 24
124.3710499999999
 34
0.0
 50
90.0
1001
ACAD
1000
DSTYLE
1002
{
1070
    77
1070
     1
1070
   172
1070
     1
1002
}
  0
ENDSEC
  0
EOF
