  0
SECTION
  2
HEADER
  9
$ACADVER
  1
AC1015
  9
$ACADMAINTVER
 70
    20
  9
$DWGCODEPAGE
  3
ANSI_932
  9
$INSBASE
 10
0.0
 20
0.0
 30
0.0
  9
$EXTMIN
 10
-0.1219319634865315
 20
-0.1133955228588093
 30
-0.0000000349181948
  9
$EXTMAX
 10
555.0243336983007
 20
394.5390250467103
 30
0.0000000814935746
  9
$LIMMIN
 10
1700.85588156276
 20
1647.985052086429
  9
$LIMMAX
 10
1997.85588156276
 20
1857.985052086429
  9
$ORTHOMODE
 70
     0
  9
$REGENMODE
 70
     1
  9
$FILLMODE
 70
     1
  9
$QTEXTMODE
 70
     0
  9
$MIRRTEXT
 70
     0
  9
$LTSCALE
 40
1.0
  9
$ATTMODE
 70
     1
  9
$TEXTSIZE
 40
3.2
  9
$TRACEWID
 40
1.0
  9
$TEXTSTYLE
  7
STANDARD
  9
$CLAYER
  8
AM_0
  9
$CELTYPE
  6
ByLayer
  9
$CECOLOR
 62
   256
  9
$CELTSCALE
 40
1.0
  9
$DISPSILH
 70
     0
  9
$DIMSCALE
 40
1.0
  9
$DIMASZ
 40
1.0
  9
$DIMEXO
 40
1.0
  9
$DIMDLI
 40
10.0
  9
$DIMRND
 40
0.0
  9
$DIMDLE
 40
0.0
  9
$DIMEXE
 40
1.0
  9
$DIMTP
 40
0.1
  9
$DIMTM
 40
0.1
  9
$DIMTXT
 40
3.5
  9
$DIMCEN
 40
0.0
  9
$DIMTSZ
 40
0.0
  9
$DIMTOL
 70
     0
  9
$DIMLIM
 70
     0
  9
$DIMTIH
 70
     0
  9
$DIMTOH
 70
     0
  9
$DIMSE1
 70
     0
  9
$DIMSE2
 70
     0
  9
$DIMTAD
 70
     1
  9
$DIMZIN
 70
     8
  9
$DIMBLK
  1

  9
$DIMASO
 70
     1
  9
$DIMSHO
 70
     1
  9
$DIMPOST
  1

  9
$DIMAPOST
  1
"
  9
$DIMALT
 70
     0
  9
$DIMALTD
 70
     2
  9
$DIMALTF
 40
0.0393701
  9
$DIMLFAC
 40
1.0
  9
$DIMTOFL
 70
     1
  9
$DIMTVP
 40
0.0
  9
$DIMTIX
 70
     0
  9
$DIMSOXD
 70
     0
  9
$DIMSAH
 70
     0
  9
$DIMBLK1
  1

  9
$DIMBLK2
  1

  9
$DIMSTYLE
  2
SYS
  9
$DIMCLRD
 70
   256
  9
$DIMCLRE
 70
   256
  9
$DIMCLRT
 70
     7
  9
$DIMTFAC
 40
0.71
  9
$DIMGAP
 40
1.5
  9
$DIMJUST
 70
     0
  9
$DIMSD1
 70
     0
  9
$DIMSD2
 70
     0
  9
$DIMTOLJ
 70
     0
  9
$DIMTZIN
 70
     8
  9
$DIMALTZ
 70
     0
  9
$DIMALTTZ
 70
     0
  9
$DIMUPT
 70
     0
  9
$DIMDEC
 70
     2
  9
$DIMTDEC
 70
     2
  9
$DIMALTU
 70
     2
  9
$DIMALTTD
 70
     2
  9
$DIMTXSTY
  7
STANDARD
  9
$DIMAUNIT
 70
     0
  9
$DIMADEC
 70
     0
  9
$DIMALTRND
 40
0.0
  9
$DIMAZIN
 70
     2
  9
$DIMDSEP
 70
    46
  9
$DIMATFIT
 70
     3
  9
$DIMFRAC
 70
     0
  9
$DIMLDRBLK
  1

  9
$DIMLUNIT
 70
     2
  9
$DIMLWD
 70
    -1
  9
$DIMLWE
 70
    -1
  9
$DIMTMOVE
 70
     0
  9
$LUNITS
 70
     2
  9
$LUPREC
 70
     2
  9
$SKETCHINC
 40
1.0
  9
$FILLETRAD
 40
0.0
  9
$AUNITS
 70
     0
  9
$AUPREC
 70
     0
  9
$MENU
  1
.
  9
$ELEVATION
 40
0.0
  9
$PELEVATION
 40
0.0
  9
$THICKNESS
 40
0.0
  9
$LIMCHECK
 70
     0
  9
$CHAMFERA
 40
0.0
  9
$CHAMFERB
 40
0.0
  9
$CHAMFERC
 40
20.0
  9
$CHAMFERD
 40
0.0
  9
$SKPOLY
 70
     0
  9
$TDCREATE
 40
2456647.559378229
  9
$TDUCREATE
 40
2456647.184378229
  9
$TDUPDATE
 40
2456653.602235776
  9
$TDUUPDATE
 40
2456653.227235776
  9
$TDINDWG
 40
0.0055680093
  9
$TDUSRTIMER
 40
0.0055678241
  9
$USRTIMER
 70
     1
  9
$ANGBASE
 50
0.0
  9
$ANGDIR
 70
     0
  9
$PDMODE
 70
     0
  9
$PDSIZE
 40
-3.0
  9
$PLINEWID
 40
0.0
  9
$SPLFRAME
 70
     0
  9
$SPLINETYPE
 70
     6
  9
$SPLINESEGS
 70
     8
  9
$HANDSEED
  5
BB18
  9
$SURFTAB1
 70
     6
  9
$SURFTAB2
 70
     6
  9
$SURFTYPE
 70
     6
  9
$SURFU
 70
     6
  9
$SURFV
 70
     6
  9
$UCSBASE
  2

  9
$UCSNAME
  2

  9
$UCSORG
 10
0.0
 20
0.0
 30
0.0
  9
$UCSXDIR
 10
1.0
 20
0.0
 30
0.0
  9
$UCSYDIR
 10
0.0
 20
1.0
 30
0.0
  9
$UCSORTHOREF
  2

  9
$UCSORTHOVIEW
 70
     0
  9
$UCSORGTOP
 10
0.0
 20
0.0
 30
0.0
  9
$UCSORGBOTTOM
 10
0.0
 20
0.0
 30
0.0
  9
$UCSORGLEFT
 10
0.0
 20
0.0
 30
0.0
  9
$UCSORGRIGHT
 10
0.0
 20
0.0
 30
0.0
  9
$UCSORGFRONT
 10
0.0
 20
0.0
 30
0.0
  9
$UCSORGBACK
 10
0.0
 20
0.0
 30
0.0
  9
$PUCSBASE
  2

  9
$PUCSNAME
  2

  9
$PUCSORG
 10
0.0
 20
0.0
 30
0.0
  9
$PUCSXDIR
 10
1.0
 20
0.0
 30
0.0
  9
$PUCSYDIR
 10
0.0
 20
1.0
 30
0.0
  9
$PUCSORTHOREF
  2

  9
$PUCSORTHOVIEW
 70
     0
  9
$PUCSORGTOP
 10
0.0
 20
0.0
 30
0.0
  9
$PUCSORGBOTTOM
 10
0.0
 20
0.0
 30
0.0
  9
$PUCSORGLEFT
 10
0.0
 20
0.0
 30
0.0
  9
$PUCSORGRIGHT
 10
0.0
 20
0.0
 30
0.0
  9
$PUCSORGFRONT
 10
0.0
 20
0.0
 30
0.0
  9
$PUCSORGBACK
 10
0.0
 20
0.0
 30
0.0
  9
$USERI1
 70
     0
  9
$USERI2
 70
     0
  9
$USERI3
 70
     0
  9
$USERI4
 70
     0
  9
$USERI5
 70
     0
  9
$USERR1
 40
0.0
  9
$USERR2
 40
0.0
  9
$USERR3
 40
0.0
  9
$USERR4
 40
0.0
  9
$USERR5
 40
0.0
  9
$WORLDVIEW
 70
     1
  9
$SHADEDGE
 70
     3
  9
$SHADEDIF
 70
    70
  9
$TILEMODE
 70
     1
  9
$MAXACTVP
 70
    64
  9
$PINSBASE
 10
0.0
 20
0.0
 30
0.0
  9
$PLIMCHECK
 70
     0
  9
$PEXTMIN
 10
1.000000000000000E+20
 20
1.000000000000000E+20
 30
1.000000000000000E+20
  9
$PEXTMAX
 10
-1.000000000000000E+20
 20
-1.000000000000000E+20
 30
-1.000000000000000E+20
  9
$PLIMMIN
 10
-3.17498779296875
 20
-3.174999952316284
  9
$PLIMMAX
 10
293.4970092773438
 20
206.692492723465
  9
$UNITMODE
 70
     0
  9
$VISRETAIN
 70
     1
  9
$PLINEGEN
 70
     0
  9
$PSLTSCALE
 70
     1
  9
$TREEDEPTH
 70
  3020
  9
$CMLSTYLE
  2
Standard
  9
$CMLJUST
 70
     0
  9
$CMLSCALE
 40
20.0
  9
$PROXYGRAPHICS
 70
     1
  9
$MEASUREMENT
 70
     1
  9
$CELWEIGHT
370
    -1
  9
$ENDCAPS
280
     0
  9
$JOINSTYLE
280
     0
  9
$LWDISPLAY
290
     1
  9
$INSUNITS
 70
     4
  9
$HYPERLINKBASE
  1

  9
$STYLESHEET
  1
monochrome.ctb
  9
$XEDIT
290
     1
  9
$CEPSNTYPE
380
     0
  9
$PSTYLEMODE
290
     1
  9
$FINGERPRINTGUID
  2
{EF05E16B-BF00-4B45-9578-2820741096BF}
  9
$VERSIONGUID
  2
{EC18A95D-EF5D-4147-B98D-BB33C5F5DAE5}
  9
$EXTNAMES
290
     1
  9
$PSVPSCALE
 40
0.0
  9
$OLESTARTUP
290
     0
  0
ENDSEC
  0
SECTION
  2
CLASSES
  0
CLASS
  1
ACDBDICTIONARYWDFLT
  2
AcDbDictionaryWithDefault
  3
ObjectDBX Classes
 90
        0
280
     0
281
     0
  0
CLASS
  1
ACDBPLACEHOLDER
  2
AcDbPlaceHolder
  3
ObjectDBX Classes
 90
        0
280
     0
281
     0
  0
CLASS
  1
LAYOUT
  2
AcDbLayout
  3
ObjectDBX Classes
 90
        0
280
     0
281
     0
  0
CLASS
  1
AMGSETTINGSOBJ
  2
AmgSettingsObj
  3
"AcadM|Product Description: AutoCAD Mechanical|Company: Autodesk"
 90
        0
280
     0
281
     0
  0
CLASS
  1
ACME_DOCUMENT
  2
AcMeDbDoc
  3
AcMeServices
 90
        0
280
     0
281
     0
  0
CLASS
  1
ACMESCOPE
  2
AcMeScope
  3
AcMeServices
 90
        0
280
     0
281
     0
  0
CLASS
  1
ACMECOMMANDHISTORY
  2
AcMeCommandHistory
  3
AcMeServices
 90
        0
280
     0
281
     0
  0
CLASS
  1
DICTIONARYVAR
  2
AcDbDictionaryVar
  3
ObjectDBX Classes
 90
        0
280
     0
281
     0
  0
CLASS
  1
ACIMSYSVARMAN
  2
AcImSysVarManager
  3
AcMeServices
 90
        0
280
     0
281
     0
  0
CLASS
  1
ACIMREALSYSVAR
  2
AcImRealSysVar
  3
AcMeServices
 90
        0
280
     0
281
     0
  0
CLASS
  1
ACIMINTSYSVAR
  2
AcImIntSysVar
  3
AcMeServices
 90
        0
280
     0
281
     0
  0
CLASS
  1
ACMEDRAWINGMAN
  2
AcMeDrawingMan
  3
AcMeServices
 90
        0
280
     0
281
     0
  0
CLASS
  1
ACMEVIEW
  2
AcMeView
  3
AcMeServices
 90
        0
280
     0
281
     0
  0
CLASS
  1
ACDBENTITYCACHE
  2
AcMeEntityCache
  3
AcMeServices
 90
        0
280
     0
281
     0
  0
CLASS
  1
GSMANAGER
  2
AcMeGSManager
  3
AcMeServices
 90
        0
280
     0
281
     0
  0
CLASS
  1
AMDTINTERNALREACTOR
  2
AmdtInternalReactor
  3
AcMeServices
 90
        0
280
     0
281
     0
  0
CLASS
  1
ACMESTATEMGR
  2
AcMeStateMgr
  3
AcMeServices
 90
        0
280
     0
281
     0
  0
CLASS
  1
ACGREFMASTER
  2
AcGrefMaster
  3
AcAttribServices
 90
        0
280
     0
281
     0
  0
CLASS
  1
ACME_DATABASE
  2
AcMeDbDatabase
  3
AcMeServices
 90
        0
280
     0
281
     0
  0
CLASS
  1
ACRFINSADJUSTERMGR
  2
AcRfInsAdjusterMgr
  3
AcMeServices
 90
        0
280
     0
281
     0
  0
CLASS
  1
ACGREFACADMASTER
  2
AcGrefacadMaster
  3
AcGrefServices
 90
        0
280
     0
281
     0
  0
CLASS
  1
AMIMASTER
  2
AmiMaster
  3
AmiServices
 90
        0
280
     0
281
     0
  0
CLASS
  1
ACMDATADICTIONARY
  2
AcmDataDictionary
  3
"AcmSymBB|Product Description: AutoCAD Mechanical|Company: Autodesk"
 90
        0
280
     0
281
     0
  0
CLASS
  1
ACMDATAENTRYBLOCK
  2
AcmDataEntryBlock
  3
"AcmSymBB|Product Description: AutoCAD Mechanical|Company: Autodesk"
 90
        0
280
     0
281
     0
  0
CLASS
  1
ACIMSTRSYSVAR
  2
AcImStrSysVar
  3
AcMeServices
 90
        0
280
     0
281
     0
  0
CLASS
  1
ACMSTANDARDISO
  2
AcmStandardISO
  3
"Amdt_StdImp|Product Description: AutoCAD Mechanical|Company: Autodesk"
 90
        0
280
     0
281
     0
  0
CLASS
  1
AMGOBJPROPCFG
  2
AmgObjPropCfg
  3
"AmgLay|Product Description: AutoCAD Mechanical|Company: Autodesk"
 90
        1
280
     0
281
     0
  0
CLASS
  1
AMDTEDGESTANDARDISO
  2
AmdtEdgeStdISO
  3
"Amdt_StdImp|Product Description: AutoCAD Mechanical|Company: Autodesk"
 90
        0
280
     0
281
     0
  0
CLASS
  1
ACMSURFSTANDARDISO
  2
AcmSurfTextStdISO
  3
"Amdt_StdImp|Product Description: AutoCAD Mechanical|Company: Autodesk"
 90
        0
280
     0
281
     0
  0
CLASS
  1
ACMFCFSTANDARDISO
  2
AcmFCFStdISO
  3
"Amdt_StdImp|Product Description: AutoCAD Mechanical|Company: Autodesk"
 90
        0
280
     0
281
     0
  0
CLASS
  1
ACMWELDSTANDARDISO
  2
AcmWeldingStdISO
  3
"Amdt_StdImp|Product Description: AutoCAD Mechanical|Company: Autodesk"
 90
        0
280
     0
281
     0
  0
CLASS
  1
ACMIDSTANDARDISO
  2
AcmIdStdISO
  3
"Amdt_StdImp|Product Description: AutoCAD Mechanical|Company: Autodesk"
 90
        0
280
     0
281
     0
  0
CLASS
  1
ACMDATUMSTANDARDISO
  2
AcmDatumStdISO
  3
"Amdt_StdImp|Product Description: AutoCAD Mechanical|Company: Autodesk"
 90
        0
280
     0
281
     0
  0
CLASS
  1
ACMBOMSTANDARDISO
  2
AcmBOMStdISO
  3
"Amdt_StdImp|Product Description: AutoCAD Mechanical|Company: Autodesk"
 90
        0
280
     0
281
     0
  0
CLASS
  1
ACMDETAILSTANDARDISO
  2
AmdtDetailSymStdISO
  3
"Amdt_StdImp|Product Description: AutoCAD Mechanical|Company: Autodesk"
 90
        0
280
     0
281
     0
  0
CLASS
  1
ACMSECTIONSTANDARDISO
  2
AmdtSectionSymStdISO
  3
"Amdt_StdImp|Product Description: AutoCAD Mechanical|Company: Autodesk"
 90
        0
280
     0
281
     0
  0
CLASS
  1
ACMCENTERLINESTANDARDISO
  2
AmdtCenterLineStdISO
  3
"Amdt_StdImp|Product Description: AutoCAD Mechanical|Company: Autodesk"
 90
        0
280
     0
281
     0
  0
CLASS
  1
ACAMGLAYSTD
  2
AcAmgLayStd
  3
"AmgLay|Product Description: AutoCAD Mechanical|Company: Autodesk"
 90
        0
280
     0
281
     0
  0
CLASS
  1
ACAMGDIMSTD
  2
AcAmgDimStd
  3
"AmgDim|Product Description: AutoCAD Mechanical|Company: Autodesk"
 90
        0
280
     0
281
     0
  0
CLASS
  1
ACAMGTITLESTD
  2
AcAmgTitleStd
  3
"AmgTitle|Product Description: AutoCAD Mechanical|Company: Autodesk"
 90
        0
280
     0
281
     0
  0
CLASS
  1
ACAMGFILTERDAT
  2
AcAmgFilterDat
  3
"AcadM|Product Description: AutoCAD Mechanical|Company: Autodesk"
 90
        0
280
     0
281
     0
  0
CLASS
  1
LAYER_INDEX
  2
AcDbLayerIndex
  3
ObjectDBX Classes
 90
    32768
280
     0
281
     0
  0
CLASS
  1
IDBUFFER
  2
AcDbIdBuffer
  3
ObjectDBX Classes
 90
    32768
280
     0
281
     0
  0
CLASS
  1
PLOTSETTINGS
  2
AcDbPlotSettings
  3
ObjectDBX Classes
 90
    32768
280
     0
281
     0
  0
CLASS
  1
AMDTFORMULAUPDATEDISPATCHER
  2
AmdtFormulaUpdateDispatcher
  3
AcMeServices
 90
        0
280
     0
281
     0
  0
CLASS
  1
ACMSTANDARDANSI
  2
AcmStandardANSI
  3
"Amdt_StdImp|Product Description: AutoCAD Mechanical|Company: Autodesk"
 90
        0
280
     0
281
     0
  0
CLASS
  1
ACMSURFSTANDARDANSI
  2
AcmSurfTextStdANSI
  3
"Amdt_StdImp|Product Description: AutoCAD Mechanical|Company: Autodesk"
 90
        0
280
     0
281
     0
  0
CLASS
  1
ACMFCFSTANDARDANSI
  2
AcmFCFStdANSI
  3
"Amdt_StdImp|Product Description: AutoCAD Mechanical|Company: Autodesk"
 90
        0
280
     0
281
     0
  0
CLASS
  1
ACMWELDSTANDARDANSI
  2
AcmWeldingStdANSI
  3
"Amdt_StdImp|Product Description: AutoCAD Mechanical|Company: Autodesk"
 90
        0
280
     0
281
     0
  0
CLASS
  1
ACMIDSTANDARDANSI
  2
AcmIdStdANSI
  3
"Amdt_StdImp|Product Description: AutoCAD Mechanical|Company: Autodesk"
 90
        0
280
     0
281
     0
  0
CLASS
  1
ACMDATUMSTANDARDANSI
  2
AcmDatumStdANSI
  3
"Amdt_StdImp|Product Description: AutoCAD Mechanical|Company: Autodesk"
 90
        0
280
     0
281
     0
  0
CLASS
  1
ACMBOMSTANDARDANSI
  2
AcmBOMStdANSI
  3
"Amdt_StdImp|Product Description: AutoCAD Mechanical|Company: Autodesk"
 90
        0
280
     0
281
     0
  0
CLASS
  1
ACMDETAILSTANDARDANSI
  2
AmdtDetailSymStdANSI
  3
"Amdt_StdImp|Product Description: AutoCAD Mechanical|Company: Autodesk"
 90
        0
280
     0
281
     0
  0
CLASS
  1
ACMSECTIONSTANDARDANSI
  2
AmdtSectionSymStdANSI
  3
"Amdt_StdImp|Product Description: AutoCAD Mechanical|Company: Autodesk"
 90
        0
280
     0
281
     0
  0
CLASS
  1
ACMCENTERLINESTANDARDANSI
  2
AmdtCenterLineStdANSI
  3
"Amdt_StdImp|Product Description: AutoCAD Mechanical|Company: Autodesk"
 90
        0
280
     0
281
     0
  0
CLASS
  1
ACMBOM
  2
AcmBom
  3
"AcmSymBB|Product Description: AutoCAD Mechanical|Company: Autodesk"
 90
        0
280
     0
281
     0
  0
CLASS
  1
ACMDATAENTRYPART
  2
AcmDataEntryPart
  3
"AcmSymBB|Product Description: AutoCAD Mechanical|Company: Autodesk"
 90
    32768
280
     0
281
     0
  0
CLASS
  1
ACMPARTREF
  2
AcmPartRef
  3
"AcmSymBB|Product Description: AutoCAD Mechanical|Company: Autodesk"
 90
    35839
280
     0
281
     1
  0
CLASS
  1
ACDBCIRCARCRES
  2
AcDbCircArcRes
  3
AcGrefServices
 90
    32768
280
     0
281
     0
  0
CLASS
  1
ACMBOMROW
  2
AcmBomRow
  3
"AcmSymBB|Product Description: AutoCAD Mechanical|Company: Autodesk"
 90
    32768
280
     0
281
     0
  0
CLASS
  1
ACMBALLOON
  2
AcmBalloon
  3
"AcmSymBB|Product Description: AutoCAD Mechanical|Company: Autodesk"
 90
    35839
280
     0
281
     1
  0
CLASS
  1
AMDTNOTE
  2
AmdtNote
  3
"AcmSymBB|Product Description: AutoCAD Mechanical|Company: Autodesk"
 90
    35839
280
     0
281
     1
  0
CLASS
  1
STDPART2D
  2
AmgStdPart
  3
"g3vace|Class: AmgStdPart|Product Description: AutoCAD Mechanical|Company: Autodesk"
 90
    35839
280
     0
281
     1
  0
CLASS
  1
ACDBSTDPARTRES_LINE
  2
AcDbStdPartRes_Line
  3
"g3vace|Class: AcDbStdPartRes_Line|Product Description: AutoCAD Mechanical|Company: Autodesk"
 90
    32768
280
     0
281
     0
  0
CLASS
  1
ACMDATAENTRY
  2
AcmDataEntry
  3
"AcmSymBB|Product Description: AutoCAD Mechanical|Company: Autodesk"
 90
        0
280
     0
281
     0
  0
CLASS
  1
ACDBOPPOLYLINERES
  2
AcDbOpPolylineRes
  3
AcGrefServices
 90
    32768
280
     0
281
     0
  0
CLASS
  1
ACMPARTLIST
  2
AcmPartList
  3
"AcmSymBB|Product Description: AutoCAD Mechanical|Company: Autodesk"
 90
    35839
280
     0
281
     1
  0
CLASS
  1
ACDBLINERES
  2
AcDbLineRes
  3
AcGrefServices
 90
    32768
280
     0
281
     0
  0
CLASS
  1
ACRFINSADJ
  2
AcRfInsAdjuster
  3
AcMeServices
 90
    32768
280
     0
281
     0
  0
CLASS
  1
AM_DRAWING_MGR
  2
AcDmDwgMgr
  3
AcMechDwgViewMgmt
 90
        0
280
     0
281
     0
  0
CLASS
  1
AM_DWG_DOCUMENT
  2
AcDmDwgDocument
  3
AcMechDwgViewMgmt
 90
        0
280
     0
281
     0
  0
CLASS
  1
AM_DWG_SHEET
  2
AcDmSheet
  3
AcMechDwgViewMgmt
 90
        0
280
     0
281
     0
  0
CLASS
  1
AM_VIEWDIMPARMAP
  2
AcDmViewDimParMap
  3
AcMechDwgViewMgmt
 90
        0
280
     0
281
     0
  0
CLASS
  1
AM_DWGMGR_NAME
  2
AcDmDwgMgrName
  3
AcMechDwgViewMgmt
 90
        0
280
     0
281
     0
  0
CLASS
  1
AMDTMENUSTATEMGR
  2
AmdtMenuStateMgr
  3
McadcomServices
 90
        0
280
     0
281
     0
  0
CLASS
  1
AMDTMCOMMENUSTATE
  2
AmdtMcomMenuState
  3
McadcomServices
 90
        0
280
     0
281
     0
  0
CLASS
  1
ASAPP
  2
AcAsAppObject
  3
AutoSurfServices
 90
        0
280
     0
281
     0
  0
CLASS
  1
IM_STATIC_MAN
  2
AcImStaticVarManager
  3
AcMeServices
 90
        0
280
     0
281
     0
  0
CLASS
  1
ACIMDBLSTATICVAR
  2
AcImDblStaticVar
  3
AcMeServices
 90
        0
280
     0
281
     0
  0
CLASS
  1
ACIMSTRSTATICVAR
  2
AcImStrStaticVar
  3
AcMeServices
 90
        0
280
     0
281
     0
  0
CLASS
  1
ACIMINTSTATICVAR
  2
AcImIntStaticVar
  3
AcMeServices
 90
        0
280
     0
281
     0
  0
CLASS
  1
ACASGREFMASTER
  2
AcAsGrefMaster
  3
AutoSurfResolverServices
 90
        0
280
     0
281
     0
  0
CLASS
  1
ACADGREFMODULE
  2
AcAdGrefModule
  3
AdGrefServices
 90
        0
280
     0
281
     0
  0
CLASS
  1
AMDTMAPISURFMOUDULE
  2
AmdtMApiSurfModule
  3
MApiSurfServices
 90
        0
280
     0
281
     0
  0
CLASS
  1
MAPIAMMOUDLE
  2
MApiAmModule
  3
MApiAmServices
 90
        0
280
     0
281
     0
  0
CLASS
  1
AMDTADMENUSTATE
  2
AmdtAdMenuState
  3
DesignerServices
 90
        0
280
     0
281
     0
  0
CLASS
  1
ADAPPL
  2
AcAdAppl
  3
DesignerServices
 90
        0
280
     0
281
     0
  0
CLASS
  1
DEPMGR
  2
AcAdDepMgr
  3
DesignerServices
 90
        0
280
     0
281
     0
  0
CLASS
  1
PARAMMGR
  2
AcAdParamMgr
  3
DesignerServices
 90
        0
280
     0
281
     0
  0
CLASS
  1
PARAMSCOPE
  2
AcAdParamScope
  3
DesignerServices
 90
        0
280
     0
281
     0
  0
CLASS
  1
NAMEDAPPL
  2
AcAdNamedAppl
  3
DesignerServices
 90
        0
280
     0
281
     0
  0
CLASS
  1
ADHNTMPLT
  2
AdHoleNoteTemplateMgr
  3
DesignerServices
 90
    32768
280
     0
281
     0
  0
CLASS
  1
AM_HNTEMPLATE_MGR_NAME
  2
AdHoleNoteTemplateMgrName
  3
DesignerServices
 90
    32768
280
     0
281
     0
  0
CLASS
  1
AMDTDMMENUSTATE
  2
AmdtDmMenuState
  3
AcMechDwgViewMgmt
 90
        0
280
     0
281
     0
  0
CLASS
  1
MAPIADMODULE
  2
MApiAdModule
  3
MApiAdServices
 90
        0
280
     0
281
     0
  0
CLASS
  1
AMDTAMMENUSTATE
  2
AmdtAmMenuState
  3
DesignerAssemblies
 90
        0
280
     0
281
     0
  0
CLASS
  1
ACAMPROJECT
  2
AcAmProject
  3
DesignerAssemblies
 90
        0
280
     0
281
     0
  0
CLASS
  1
ACAMGRCOMPDEF
  2
AcAmGrCompDef
  3
DesignerAssemblies
 90
        0
280
     0
281
     0
  0
CLASS
  1
ACCMCONTEXT
  2
AcCmContext
  3
DesignerAssemblies
 90
        0
280
     0
281
     0
  0
CLASS
  1
ACAMCOMPDEF
  2
AcAmCompDef
  3
DesignerAssemblies
 90
        0
280
     0
281
     0
  0
CLASS
  1
ACAMCOMPDEFMGR
  2
AcAmCompDefMgr
  3
DesignerAssemblies
 90
        0
280
     0
281
     0
  0
CLASS
  1
AMCONTEXTMGR
  2
AcAmContextMgr
  3
DesignerAssemblies
 90
        0
280
     0
281
     0
  0
CLASS
  1
ACAMCONTEXTMODELER
  2
AcAmContextModeler
  3
DesignerAssemblies
 90
        0
280
     0
281
     0
  0
CLASS
  1
CATALOGSTATE
  2
AcAmCatalogState
  3
DesignerAssemblies
 90
        0
280
     0
281
     0
  0
CLASS
  1
ACAMGRCOMPDEFSET
  2
AcAmGrCompDefSet
  3
DesignerAssemblies
 90
        0
280
     0
281
     0
  0
CLASS
  1
AMDTBROWSERDBTAB
  2
AmdtBrowserDbTab
  3
McadcomServices
 90
        0
280
     0
281
     0
  0
CLASS
  1
CBROWSERAPPOBJECT
  2
CBrowserAppObject
  3
McadcomServices
 90
        0
280
     0
281
     0
  0
CLASS
  1
DM_PLACEHOLDER
  2
AcDmSelsetPlaceholder
  3
AcMechDwgViewMgmt
 90
        0
280
     0
281
     0
  0
CLASS
  1
ACMPICKOBJ
  2
AcmPickEnt
  3
"AcmSymBB|Product Description: AutoCAD Mechanical|Company: Autodesk"
 90
    32768
280
     0
281
     1
  0
CLASS
  1
ACMNOTESTANDARDISO
  2
AmdtNoteStdISO
  3
"Amdt_StdImp|Product Description: AutoCAD Mechanical|Company: Autodesk"
 90
        0
280
     0
281
     0
  0
CLASS
  1
ACMNOTESTANDARDANSI
  2
AmdtNoteStdANSI
  3
"Amdt_StdImp|Product Description: AutoCAD Mechanical|Company: Autodesk"
 90
        0
280
     0
281
     0
  0
CLASS
  1
ACMTHREADLINESTANDARDISO
  2
AmdtThreadLineStdISO
  3
"Amdt_StdImp|Product Description: AutoCAD Mechanical|Company: Autodesk"
 90
        0
280
     0
281
     0
  0
CLASS
  1
ACMTHREADLINESTANDARDANSI
  2
AmdtThreadLineStdANSI
  3
"Amdt_StdImp|Product Description: AutoCAD Mechanical|Company: Autodesk"
 90
        0
280
     0
281
     0
  0
CLASS
  1
TABLESTYLE
  2
AcDbTableStyle
  3
ObjectDBX Classes
 90
     4095
280
     0
281
     0
  0
CLASS
  1
SORTENTSTABLE
  2
AcDbSortentsTable
  3
ObjectDBX Classes
 90
        0
280
     0
281
     0
  0
CLASS
  1
MATERIAL
  2
AcDbMaterial
  3
ObjectDBX Classes
 90
     1024
280
     0
281
     0
  0
CLASS
  1
VISUALSTYLE
  2
AcDbVisualStyle
  3
ObjectDBX Classes
 90
     4095
280
     0
281
     0
  0
CLASS
  1
ACRFATTGENMGR
  2
AcRfAttGeneralMgr
  3
AcAttribServices
 90
        0
280
     0
281
     0
  0
CLASS
  1
ACRFOBJATTMGR
  2
AcRfObjAttGroupMgr
  3
AcAttribServices
 90
        0
280
     0
281
     0
  0
CLASS
  1
ACRFMCADAPIATTHOLDER
  2
AcRfMCADAPIAttHolder
  3
AcAttribServices
 90
        0
280
     0
281
     0
  0
CLASS
  1
AMDTSYSATTR
  2
AmdtSystemAttribute
  3
AcAttribServices
 90
        0
280
     0
281
     0
  0
CLASS
  1
ACMTAPERSTANDARDISO
  2
AcmTaperStdISO
  3
"Amdt_StdImp|Product Description: AutoCAD Mechanical|Company: Autodesk"
 90
        0
280
     0
281
     0
  0
CLASS
  1
CAMSSTRUCTBTNSTATE
  2
StructBtnState
  3
L"DesignerAssemblies"
 90
        0
280
     0
281
     0
  0
CLASS
  1
DIMASSOC
  2
AcDbDimAssoc
  3
"AcDbDimAssoc|Product Desc:     AcDim ARX App For Dimension|Company:          Autodesk, Inc.|WEB Address:      www.autodesk.com"
 90
    32768
280
     0
281
     0
  0
CLASS
  1
AMDTNOTETEMPLATEDB
  2
AmdtNoteTemplateDB
  3
AMDT_STDIMP_MODULE_NAME
 90
        0
280
     0
281
     0
  0
CLASS
  1
ACMTAPERSTANDARDANSI
  2
AcmTaperStdANSI
  3
"Amdt_StdImp|Product Description: AutoCAD Mechanical|Company: Autodesk"
 90
        0
280
     0
281
     0
  0
CLASS
  1
ACAMGHOLECHARTSTDANSI
  2
AcAmgHoleChartStdANSI
  3
ACMSYMBB_MODULE_NAME
 90
        0
280
     0
281
     0
  0
ENDSEC
  0
SECTION
  2
TABLES
  0
TABLE
  2
VPORT
  5
8
330
0
100
AcDbSymbolTable
 70
     1
  0
VPORT
  5
B0EC
330
8
100
AcDbSymbolTableRecord
100
AcDbViewportTableRecord
  2
*Active
 70
     0
 10
0.0
 20
0.0
 11
1.0
 21
1.0
 12
277.4512008674071
 22
197.2128147619257
 13
0.0
 23
0.0
 14
2.5
 24
2.5
 15
10.0
 25
10.0
 16
0.0
 26
0.0
 36
1.0
 17
0.0
 27
0.0
 37
0.0
 40
397.5578371627193
 41
1.648648648648648
 42
50.0
 43
-1370.695619172058
 44
-1370.695619172058
 50
0.0
 51
0.0
 71
    16
 72
   100
 73
     1
 74
     3
 75
     0
 76
     0
 77
     0
 78
     0
281
     0
 65
     0
110
0.0
120
0.0
130
0.0
111
1.0
121
0.0
131
0.0
112
0.0
122
1.0
132
0.0
 79
     0
146
0.0
  0
ENDTAB
  0
TABLE
  2
LTYPE
  5
5
330
0
100
AcDbSymbolTable
 70
    29
  0
LTYPE
  5
14
330
5
100
AcDbSymbolTableRecord
100
AcDbLinetypeTableRecord
  2
ByBlock
 70
     0
  3

 72
    65
 73
     0
 40
0.0
  0
LTYPE
  5
15
330
5
100
AcDbSymbolTableRecord
100
AcDbLinetypeTableRecord
  2
ByLayer
 70
     0
  3

 72
    65
 73
     0
 40
0.0
  0
LTYPE
  5
16
330
5
100
AcDbSymbolTableRecord
100
AcDbLinetypeTableRecord
  2
Continuous
 70
     0
  3
Solid line
 72
    65
 73
     0
 40
0.0
  0
LTYPE
  5
4F
330
5
100
AcDbSymbolTableRecord
100
AcDbLinetypeTableRecord
  2
AM_ISO02W050
 70
     0
  3
__ __ __ __ __ __ __ __ __ __ __ __ __ __ __
 72
    65
 73
     2
 40
7.5
 49
6.0
 74
     0
 49
-1.5
 74
     0
  0
LTYPE
  5
52
330
5
100
AcDbSymbolTableRecord
100
AcDbLinetypeTableRecord
  2
Amconstr
 70
     0
  3
_______________________
 72
    65
 73
     2
 40
9999.0
 49
9999.0
 74
     0
 49
0.0
 74
     0
  0
LTYPE
  5
64
330
5
100
AcDbSymbolTableRecord
100
AcDbLinetypeTableRecord
  2
ACISOWELD
 70
     0
  3
_ _ _ _ _
 72
    65
 73
     2
 40
2.0
 49
2.0
 74
     0
 49
-1.0
 74
     0
  0
LTYPE
  5
65
330
5
100
AcDbSymbolTableRecord
100
AcDbLinetypeTableRecord
  2
ACISOTGB
 70
     0
  3
__ . . __ . .
 72
    65
 73
     6
 40
9.0
 49
4.0
 74
     0
 49
-1.0
 74
     0
 49
1.0
 74
     0
 49
-1.0
 74
     0
 49
1.0
 74
     0
 49
-1.0
 74
     0
  0
LTYPE
  5
66
330
5
100
AcDbSymbolTableRecord
100
AcDbLinetypeTableRecord
  2
ACISOTGL
 70
     0
  3
_ _ _ _ _
 72
    65
 73
     2
 40
3.0
 49
2.0
 74
     0
 49
-1.0
 74
     0
  0
LTYPE
  5
69
330
5
100
AcDbSymbolTableRecord
100
AcDbLinetypeTableRecord
  2
CENTER
 70
     0
  3
__ . __
 72
    65
 73
     4
 40
7.0
 49
4.0
 74
     0
 49
-1.0
 74
     0
 49
1.0
 74
     0
 49
-1.0
 74
     0
  0
LTYPE
  5
A6E
330
5
100
AcDbSymbolTableRecord
100
AcDbLinetypeTableRecord
  2
PHANTOM2
 70
     0
  3
Phantom (.5x) ___ _ _ ___ _ _ ___ _ _ ___ _ _
 72
    65
 73
     6
 40
31.75
 49
15.875
 74
     0
 49
-3.174999999999999
 74
     0
 49
3.174999999999999
 74
     0
 49
-3.174999999999999
 74
     0
 49
3.174999999999999
 74
     0
 49
-3.174999999999999
 74
     0
  0
LTYPE
  5
4DED
330
5
100
AcDbSymbolTableRecord
100
AcDbLinetypeTableRecord
  2
中線
 70
     0
  3
___________________
 72
    65
 73
     2
 40
2.0
 49
1.0
 74
     0
 49
1.0
 74
     0
  0
LTYPE
  5
4DF6
330
5
100
AcDbSymbolTableRecord
100
AcDbLinetypeTableRecord
  2
細線
 70
     0
  3
___________________
 72
    65
 73
     2
 40
2.0
 49
1.0
 74
     0
 49
1.0
 74
     0
  0
LTYPE
  5
4DF7
330
5
100
AcDbSymbolTableRecord
100
AcDbLinetypeTableRecord
  2
太線
 70
     0
  3
___________________
 72
    65
 73
     2
 40
2.0
 49
1.0
 74
     0
 49
1.0
 74
     0
  0
LTYPE
  5
4EA7
330
5
100
AcDbSymbolTableRecord
100
AcDbLinetypeTableRecord
  2
文字
 70
     0
  3
_________________
 72
    65
 73
     2
 40
2.0
 49
1.0
 74
     0
 49
1.0
 74
     0
  0
LTYPE
  5
4EA9
330
5
100
AcDbSymbolTableRecord
100
AcDbLinetypeTableRecord
  2
寸法線
 70
     0
  3
________________
 72
    65
 73
     2
 40
2.0
 49
1.0
 74
     0
 49
1.0
 74
     0
  0
LTYPE
  5
4F12
330
5
100
AcDbSymbolTableRecord
100
AcDbLinetypeTableRecord
  2
ハッチング
 70
     0
  3
_________________
 72
    65
 73
     2
 40
2.0
 49
1.0
 74
     0
 49
1.0
 74
     0
  0
LTYPE
  5
5180
330
5
100
AcDbSymbolTableRecord
100
AcDbLinetypeTableRecord
  2
陰線1
 70
     0
  3
__ __ __ __
 72
    65
 73
     2
 40
4.0
 49
2.2
 74
     0
 49
-1.8
 74
     0
  0
LTYPE
  5
5182
330
5
100
AcDbSymbolTableRecord
100
AcDbLinetypeTableRecord
  2
切断線
 70
     0
  3
/\/-/\/-/\/-/\/-/\/-/\/
 72
    65
 73
     2
 40
11.0001
 49
0.0001
 74
     4
 75
   135
340
56
 46
0.04
 50
0.0
 44
0.0
 45
0.0
 49
-11.0
 74
     0
  0
LTYPE
  5
5183
330
5
100
AcDbSymbolTableRecord
100
AcDbLinetypeTableRecord
  2
想像線1
 70
     0
  3
__ __ __ _____ __ __ ____
 72
    65
 73
     6
 40
14.5
 49
6.0
 74
     0
 49
-1.5
 74
     0
 49
2.0
 74
     0
 49
-1.5
 74
     0
 49
2.0
 74
     0
 49
-1.5
 74
     0
  0
LTYPE
  5
5185
330
5
100
AcDbSymbolTableRecord
100
AcDbLinetypeTableRecord
  2
中心線1
 70
     0
  3
___ _ ___ _ ___
 72
    65
 73
     4
 40
18.0
 49
12.0
 74
     0
 49
-2.0
 74
     0
 49
2.0
 74
     0
 49
-2.0
 74
     0
  0
LTYPE
  5
5188
330
5
100
AcDbSymbolTableRecord
100
AcDbLinetypeTableRecord
  2
補助線
 70
     0
  3
______________
 72
    65
 73
     2
 40
2.0
 49
1.0
 74
     0
 49
1.0
 74
     0
  0
LTYPE
  5
6427
330
5
100
AcDbSymbolTableRecord
100
AcDbLinetypeTableRecord
  2
HIDDEN
 70
     0
  3
Hidden __ __ __ __ __ __ __ __ __ __ __ __ __ _
 72
    65
 73
     2
 40
0.375
 49
0.25
 74
     0
 49
-0.125
 74
     0
  0
LTYPE
  5
AC81
330
5
100
AcDbSymbolTableRecord
100
AcDbLinetypeTableRecord
  2
破断線
 70
     0
  3
/\/-/\/-/\/-/\/-/\/-/\/
 72
    65
 73
     2
 40
0.4401
 49
0.0001
 74
     4
 75
   136
340
AC80
 46
0.0016
 50
0.0
 44
0.0
 45
0.0
 49
-0.4400000000000001
 74
     0
  0
LTYPE
  5
AC9E
330
5
100
AcDbSymbolTableRecord
100
AcDbLinetypeTableRecord
  2
Amzigzag
 70
     0
  3
/\/-/\/-/\/-/\/-/\/-/\/
 72
    65
 73
     2
 40
11.0001
 49
0.0001
 74
     4
 75
   135
340
56
 46
0.04
 50
0.0
 44
0.0
 45
0.0
 49
-11.0
 74
     0
  0
LTYPE
  5
AF0F
330
5
100
AcDbSymbolTableRecord
100
AcDbLinetypeTableRecord
  2
genzigzag
 70
     0
  3
/\/-/\/-/\/-/\/-/\/-/\/
 72
    65
 73
     2
 40
12.0001
 49
0.0001
 74
     4
 75
   135
340
AC80
 46
2.0
 50
0.0
 44
0.0
 45
0.0
 49
-12.0
 74
     0
  0
LTYPE
  5
AF95
330
5
100
AcDbSymbolTableRecord
100
AcDbLinetypeTableRecord
  2
AM_ISO08W050
 70
     0
  3
____ . ____ . ____ . ____ . ____ . ____ . ____
 72
    65
 73
     4
 40
18.0
 49
12.0
 74
     0
 49
-1.5
 74
     0
 49
3.0
 74
     0
 49
-1.5
 74
     0
  0
LTYPE
  5
AF96
330
5
100
AcDbSymbolTableRecord
100
AcDbLinetypeTableRecord
  2
AM_ISO09W050
 70
     0
  3
_____ . . _____ . . _____ . . ____ .. ____
 72
    65
 73
     6
 40
22.5
 49
12.0
 74
     0
 49
-1.5
 74
     0
 49
3.0
 74
     0
 49
-1.5
 74
     0
 49
3.0
 74
     0
 49
-1.5
 74
     0
  0
LTYPE
  5
AF97
330
5
100
AcDbSymbolTableRecord
100
AcDbLinetypeTableRecord
  2
AM_ISO08W050x2
 70
     0
  3
__ . __ . __ . __ . __ . __
 72
    65
 73
     4
 40
9.0
 49
6.0
 74
     0
 49
-0.75
 74
     0
 49
1.5
 74
     0
 49
-0.75
 74
     0
  0
LTYPE
  5
AF98
330
5
100
AcDbSymbolTableRecord
100
AcDbLinetypeTableRecord
  2
AM_ISO02W050x2
 70
     0
  3
 _ _ _ _ _ _ _ _ _ _ _ _
 72
    65
 73
     2
 40
3.75
 49
3.0
 74
     0
 49
-0.75
 74
     0
  0
LTYPE
  5
B5F7
330
5
100
AcDbSymbolTableRecord
100
AcDbLinetypeTableRecord
  2
ACANSTGB
 70
     0
  3
__ . . __ . .
 72
    65
 73
     6
 40
0.35433070866
 49
0.15748031496
 74
     0
 49
-0.03937007874
 74
     0
 49
0.03937007874
 74
     0
 49
-0.03937007874
 74
     0
 49
0.03937007874
 74
     0
 49
-0.03937007874
 74
     0
  0
LTYPE
  5
B5F8
330
5
100
AcDbSymbolTableRecord
100
AcDbLinetypeTableRecord
  2
ACANSTGL
 70
     0
  3
_ _ _ _ _
 72
    65
 73
     2
 40
0.11811023622
 49
0.07874015748
 74
     0
 49
-0.03937007874
 74
     0
  0
ENDTAB
  0
TABLE
  2
LAYER
  5
2
102
{ACAD_XDICTIONARY
360
3F95
102
}
330
0
100
AcDbSymbolTable
 70
    19
  0
LAYER
  5
10
330
2
100
AcDbSymbolTableRecord
100
AcDbLayerTableRecord
  2
0
 70
     0
 62
     7
  6
Continuous
370
    -3
390
F
  0
LAYER
  5
6D1
330
2
100
AcDbSymbolTableRecord
100
AcDbLayerTableRecord
  2
Defpoints
 70
     0
 62
     7
  6
Continuous
290
     0
370
    -3
390
F
  0
LAYER
  5
5F85
330
2
100
AcDbSymbolTableRecord
100
AcDbLayerTableRecord
  2
AM_0
 70
     0
 62
     7
  6
中線
370
    30
390
F
1001
AcAecLayerStandard
1000

1000

  0
LAYER
  5
AC9F
330
2
100
AcDbSymbolTableRecord
100
AcDbLayerTableRecord
  2
size
 70
     0
 62
     5
  6
Continuous
290
     0
370
    25
390
F
  0
LAYER
  5
ACA0
330
2
100
AcDbSymbolTableRecord
100
AcDbLayerTableRecord
  2
waku
 70
     0
 62
     7
  6
Continuous
370
    35
390
F
  0
LAYER
  5
ACA1
330
2
100
AcDbSymbolTableRecord
100
AcDbLayerTableRecord
  2
AM_6
 70
     0
 62
     2
  6
文字
370
    13
390
F
1001
AcAecLayerStandard
1000

1000

  0
LAYER
  5
ACC8
330
2
100
AcDbSymbolTableRecord
100
AcDbLayerTableRecord
  2
hyomoji
 70
     0
 62
     2
  6
Continuous
370
    13
390
F
  0
LAYER
  5
ACC9
330
2
100
AcDbSymbolTableRecord
100
AcDbLayerTableRecord
  2
hyosen1
 70
     0
 62
     1
  6
Continuous
370
    30
390
F
  0
LAYER
  5
ACCA
330
2
100
AcDbSymbolTableRecord
100
AcDbLayerTableRecord
  2
hyosen2
 70
     0
 62
     1
  6
Continuous
370
    13
390
F
  0
LAYER
  5
AD60
330
2
100
AcDbSymbolTableRecord
100
AcDbLayerTableRecord
  2
AM_1
 70
     0
 62
    30
  6
太線
370
    40
390
F
1001
AcAecLayerStandard
1000

1000

  0
LAYER
  5
AD64
330
2
100
AcDbSymbolTableRecord
100
AcDbLayerTableRecord
  2
AM_2
 70
     0
 62
     1
  6
細線
370
    13
390
F
1001
AcAecLayerStandard
1000

1000

  0
LAYER
  5
AD67
330
2
100
AcDbSymbolTableRecord
100
AcDbLayerTableRecord
  2
AM_3
 70
     0
 62
     6
  6
陰線1
370
    13
390
F
1001
AcAecLayerStandard
1000

1000

  0
LAYER
  5
AD68
330
2
100
AcDbSymbolTableRecord
100
AcDbLayerTableRecord
  2
AM_5
 70
     0
 62
     3
  6
寸法線
370
    13
390
F
1001
AcAecLayerStandard
1000

1000

  0
LAYER
  5
AD69
330
2
100
AcDbSymbolTableRecord
100
AcDbLayerTableRecord
  2
AM_7
 70
     0
 62
     4
  6
中心線1
370
    13
390
F
1001
AcAecLayerStandard
1000

1000

  0
LAYER
  5
AD6A
330
2
100
AcDbSymbolTableRecord
100
AcDbLayerTableRecord
  2
AM_8
 70
     0
 62
     1
  6
ハッチング
370
    13
390
F
1001
AcAecLayerStandard
1000

1000

  0
LAYER
  5
AD6E
330
2
100
AcDbSymbolTableRecord
100
AcDbLayerTableRecord
  2
AM_10
 70
     0
 62
     7
  6
切断線
370
    30
390
F
1001
AcAecLayerStandard
1000

1000

  0
LAYER
  5
AD6F
330
2
100
AcDbSymbolTableRecord
100
AcDbLayerTableRecord
  2
AM_11
 70
     0
 62
     2
  6
想像線1
370
    13
390
F
1001
AcAecLayerStandard
1000

1000

  0
LAYER
  5
B1B6
330
2
100
AcDbSymbolTableRecord
100
AcDbLayerTableRecord
  2
AM_CL
 70
     1
 62
    -1
  6
Amconstr
370
    13
390
F
1001
AcAecLayerStandard
1000

1000

  0
LAYER
  5
BB05
330
2
100
AcDbSymbolTableRecord
100
AcDbLayerTableRecord
  2
AM_4
 70
     0
 62
     3
  6
補助線
370
    13
390
F
1001
AcAecLayerStandard
1000

1000

  0
ENDTAB
  0
TABLE
  2
STYLE
  5
3
330
0
100
AcDbSymbolTable
 70
     8
  0
STYLE
  5
11
330
3
100
AcDbSymbolTableRecord
100
AcDbTextStyleTableRecord
  2
STANDARD
 70
     0
 40
0.0
 41
0.7
 50
0.0
 71
     0
 42
3.2
  3
romans.shx
  4
extfont.shx
  0
STYLE
  5
56
330
3
100
AcDbSymbolTableRecord
100
AcDbTextStyleTableRecord
  2

 70
     1
 40
0.0
 41
1.0
 50
0.0
 71
     0
 42
2.5
  3
ltypeshp.shx
  4

  0
STYLE
  5
58
330
3
100
AcDbSymbolTableRecord
100
AcDbTextStyleTableRecord
  2
ACISOTS
 70
     0
 40
1.0
 41
1.0
 50
0.0
 71
     0
 42
2.5
  3
isocp.shx
  4
extfont.shx
  0
STYLE
  5
63
330
3
100
AcDbSymbolTableRecord
100
AcDbTextStyleTableRecord
  2
ACISOGDT
 70
     0
 40
0.0
 41
1.0
 50
0.0
 71
     0
 42
2.5
  3
amgdt.shx
  4

  0
STYLE
  5
A74
330
3
100
AcDbSymbolTableRecord
100
AcDbTextStyleTableRecord
  2
DIM
 70
     0
 40
0.0
 41
1.0
 50
0.0
 71
     0
 42
2.5
  3
monotxt.shx
  4
extfont.shx
  0
STYLE
  5
AC80
330
3
100
AcDbSymbolTableRecord
100
AcDbTextStyleTableRecord
  2

 70
     1
 40
0.0
 41
1.0
 50
0.0
 71
     0
 42
3.2
  3
genltshp.shx
  4

  0
STYLE
  5
B5F9
330
3
100
AcDbSymbolTableRecord
100
AcDbTextStyleTableRecord
  2
ACANSTS
 70
     0
 40
1.0
 41
1.0
 50
0.0
 71
     0
 42
0.2
  3
romans.shx
  4
extfont.shx
  0
STYLE
  5
B5FA
330
3
100
AcDbSymbolTableRecord
100
AcDbTextStyleTableRecord
  2
ACANSGDT
 70
     0
 40
0.0
 41
1.0
 50
0.0
 71
     0
 42
0.2
  3
amgdt.shx
  4

  0
ENDTAB
  0
TABLE
  2
VIEW
  5
6
330
0
100
AcDbSymbolTable
 70
     6
  0
VIEW
  5
AE1
330
6
100
AcDbSymbolTableRecord
100
AcDbViewTableRecord
  2
AM_VIEW1
 70
     0
 40
129.7276464542651
 10
1775.10588156276
 20
1793.121228859297
 41
148.5
 11
0.0
 21
0.0
 31
1.0
 12
0.0
 22
0.0
 32
0.0
 42
50.0
 43
-1370.695619172058
 44
-1370.695619172058
 50
0.0
 71
    16
281
     0
 72
     0
  0
VIEW
  5
AE2
330
6
100
AcDbSymbolTableRecord
100
AcDbViewTableRecord
  2
AM_VIEW2
 70
     0
 40
129.7276464542651
 10
1923.60588156276
 20
1793.121228859297
 41
148.5
 11
0.0
 21
0.0
 31
1.0
 12
0.0
 22
0.0
 32
0.0
 42
50.0
 43
-1370.695619172058
 44
-1370.695619172058
 50
0.0
 71
    16
281
     0
 72
     0
  0
VIEW
  5
AE3
330
6
100
AcDbSymbolTableRecord
100
AcDbViewTableRecord
  2
AM_VIEW3
 70
     0
 40
129.7276464542651
 10
1775.10588156276
 20
1712.848875313562
 41
148.5
 11
0.0
 21
0.0
 31
1.0
 12
0.0
 22
0.0
 32
0.0
 42
50.0
 43
-1370.695619172058
 44
-1370.695619172058
 50
0.0
 71
    16
281
     0
 72
     0
  0
VIEW
  5
AE4
330
6
100
AcDbSymbolTableRecord
100
AcDbViewTableRecord
  2
AM_VIEW4
 70
     0
 40
129.7276464542651
 10
1923.60588156276
 20
1712.848875313562
 41
148.5
 11
0.0
 21
0.0
 31
1.0
 12
0.0
 22
0.0
 32
0.0
 42
50.0
 43
-1370.695619172058
 44
-1370.695619172058
 50
0.0
 71
    16
281
     0
 72
     0
  0
VIEW
  5
AE5
330
6
100
AcDbSymbolTableRecord
100
AcDbViewTableRecord
  2
AM_VIEW5
 70
     0
 40
129.7276464542651
 10
1849.35588156276
 20
1752.985052086429
 41
148.5
 11
0.0
 21
0.0
 31
1.0
 12
0.0
 22
0.0
 32
0.0
 42
50.0
 43
-1370.695619172058
 44
-1370.695619172058
 50
0.0
 71
    16
281
     0
 72
     0
  0
VIEW
  5
AE6
330
6
100
AcDbSymbolTableRecord
100
AcDbViewTableRecord
  2
AM_VIEW6
 70
     0
 40
259.4526983556011
 10
1849.35588156276
 20
1752.985052086429
 41
296.99703
 11
0.0
 21
0.0
 31
1.0
 12
0.0
 22
0.0
 32
0.0
 42
50.0
 43
-1370.695619172058
 44
-1370.695619172058
 50
0.0
 71
    16
281
     0
 72
     0
  0
ENDTAB
  0
TABLE
  2
UCS
  5
7
330
0
100
AcDbSymbolTable
 70
     0
  0
ENDTAB
  0
TABLE
  2
APPID
  5
9
330
0
100
AcDbSymbolTable
 70
    55
  0
APPID
  5
12
330
9
100
AcDbSymbolTableRecord
100
AcDbRegAppTableRecord
  2
ACAD
 70
     0
  0
APPID
  5
30
330
9
100
AcDbSymbolTableRecord
100
AcDbRegAppTableRecord
  2
MCAD_NO_VIS
 70
     0
  0
APPID
  5
31
330
9
100
AcDbSymbolTableRecord
100
AcDbRegAppTableRecord
  2
ACAD_TEMP_GRAPHIC
 70
     0
  0
APPID
  5
44
330
9
100
AcDbSymbolTableRecord
100
AcDbRegAppTableRecord
  2
ACATTRIBSERVICES
 70
     0
  0
APPID
  5
7A1
330
9
100
AcDbSymbolTableRecord
100
AcDbRegAppTableRecord
  2
GENIUS_GENDIMSH_14
 70
     0
  0
APPID
  5
A49
330
9
100
AcDbSymbolTableRecord
100
AcDbRegAppTableRecord
  2
GENIUS_GENREC_14
 70
     0
  0
APPID
  5
A4A
330
9
100
AcDbSymbolTableRecord
100
AcDbRegAppTableRecord
  2
GENIUS_GENOBJ-N-REC_13
 70
     0
  0
APPID
  5
A4B
330
9
100
AcDbSymbolTableRecord
100
AcDbRegAppTableRecord
  2
GENIUS_GENODEF_13
 70
     0
  0
APPID
  5
A4C
330
9
100
AcDbSymbolTableRecord
100
AcDbRegAppTableRecord
  2
DCO15
 70
     0
  0
APPID
  5
ADC
330
9
100
AcDbSymbolTableRecord
100
AcDbRegAppTableRecord
  2
GENIUS_GENOLIS_13
 70
     0
  0
APPID
  5
ADD
330
9
100
AcDbSymbolTableRecord
100
AcDbRegAppTableRecord
  2
GENIUS_GENOENT_13
 70
     0
  0
APPID
  5
ADE
330
9
100
AcDbSymbolTableRecord
100
AcDbRegAppTableRecord
  2
GENIUS_GENOBJ-N-TIT_13
 70
     0
  0
APPID
  5
ADF
330
9
100
AcDbSymbolTableRecord
100
AcDbRegAppTableRecord
  2
GENIUS_GENTITLE_13
 70
     0
  0
APPID
  5
AE0
330
9
100
AcDbSymbolTableRecord
100
AcDbRegAppTableRecord
  2
GENIUS_GENOREF_13
 70
     0
  0
APPID
  5
AE7
330
9
100
AcDbSymbolTableRecord
100
AcDbRegAppTableRecord
  2
GENIUS_GENSCREG_15
 70
     0
  0
APPID
  5
AE8
330
9
100
AcDbSymbolTableRecord
100
AcDbRegAppTableRecord
  2
GENIUS_GENOBJ-N-SDF_13
 70
     0
  0
APPID
  5
FAF
330
9
100
AcDbSymbolTableRecord
100
AcDbRegAppTableRecord
  2
GENIUS_GENBLLY_14
 70
     0
  0
APPID
  5
FB0
330
9
100
AcDbSymbolTableRecord
100
AcDbRegAppTableRecord
  2
GENIUS_GENTRA_14
 70
     0
  0
APPID
  5
1285
330
9
100
AcDbSymbolTableRecord
100
AcDbRegAppTableRecord
  2
GENIUS_GENDTOL_13
 70
     0
  0
APPID
  5
142D
330
9
100
AcDbSymbolTableRecord
100
AcDbRegAppTableRecord
  2
GENIUS_GENOBJ-N-CEN_13
 70
     0
  0
APPID
  5
1AB5
330
9
100
AcDbSymbolTableRecord
100
AcDbRegAppTableRecord
  2
GENIUS_GENOBJ-N-CRS_13
 70
     0
  0
APPID
  5
1B36
330
9
100
AcDbSymbolTableRecord
100
AcDbRegAppTableRecord
  2
GENIUS_GENOBJ-N-HTC_13
 70
     0
  0
APPID
  5
1B37
330
9
100
AcDbSymbolTableRecord
100
AcDbRegAppTableRecord
  2
GENIUS_GENHATCH_13
 70
     0
  0
APPID
  5
216D
330
9
100
AcDbSymbolTableRecord
100
AcDbRegAppTableRecord
  2
GENIUS_GENOBJ-N-FIL_13
 70
     0
  0
APPID
  5
2356
330
9
100
AcDbSymbolTableRecord
100
AcDbRegAppTableRecord
  2
GEVID990412420
 70
     0
  0
APPID
  5
2357
330
9
100
AcDbSymbolTableRecord
100
AcDbRegAppTableRecord
  2
GEVDC
 70
     0
  0
APPID
  5
2358
330
9
100
AcDbSymbolTableRecord
100
AcDbRegAppTableRecord
  2
GEVCON
 70
     0
  0
APPID
  5
235B
330
9
100
AcDbSymbolTableRecord
100
AcDbRegAppTableRecord
  2
GEVRADREF
 70
     0
  0
APPID
  5
2360
330
9
100
AcDbSymbolTableRecord
100
AcDbRegAppTableRecord
  2
GENIUS_GENBH_13
 70
     0
  0
APPID
  5
2362
330
9
100
AcDbSymbolTableRecord
100
AcDbRegAppTableRecord
  2
GENIUS_GENOBJ-NBEHI-BHF_13
 70
     0
  0
APPID
  5
2364
330
9
100
AcDbSymbolTableRecord
100
AcDbRegAppTableRecord
  2
GENIUS_GENOBJ-NBEHI-BHB_13
 70
     0
  0
APPID
  5
2379
330
9
100
AcDbSymbolTableRecord
100
AcDbRegAppTableRecord
  2
GENIUS_GENOBJ-F-SCPASSM_13
 70
     0
  0
APPID
  5
3D74
330
9
100
AcDbSymbolTableRecord
100
AcDbRegAppTableRecord
  2
GENIUS_GENDIM_13
 70
     0
  0
APPID
  5
3D76
330
9
100
AcDbSymbolTableRecord
100
AcDbRegAppTableRecord
  2
GENIUS_GE3DTOL_13
 70
     0
  0
APPID
  5
3D9C
330
9
100
AcDbSymbolTableRecord
100
AcDbRegAppTableRecord
  2
AD_DRAW
 70
     0
  0
APPID
  5
3DE8
330
9
100
AcDbSymbolTableRecord
100
AcDbRegAppTableRecord
  2
ASURF_PCURVE_APPNAME
 70
     0
  0
APPID
  5
3DED
330
9
100
AcDbSymbolTableRecord
100
AcDbRegAppTableRecord
  2
AMG_3D2D_5.0
 70
     0
  0
APPID
  5
3E1B
330
9
100
AcDbSymbolTableRecord
100
AcDbRegAppTableRecord
  2
DESIGNERASSEMBLIES
 70
     0
  0
APPID
  5
3E20
330
9
100
AcDbSymbolTableRecord
100
AcDbRegAppTableRecord
  2
ACADM_DIM_EDIT
 70
     0
  0
APPID
  5
3E21
330
9
100
AcDbSymbolTableRecord
100
AcDbRegAppTableRecord
  2
AMDT_DM_ADJ
 70
     0
  0
APPID
  5
4143
330
9
100
AcDbSymbolTableRecord
100
AcDbRegAppTableRecord
  2
GENIUS_GENFIL_13
 70
     0
  0
APPID
  5
4144
330
9
100
AcDbSymbolTableRecord
100
AcDbRegAppTableRecord
  2
GENIUS_GENOBJ-N-CHA_13
 70
     0
  0
APPID
  5
4E17
330
9
100
AcDbSymbolTableRecord
100
AcDbRegAppTableRecord
  2
GEVID1008153417
 70
     0
  0
APPID
  5
4E58
330
9
100
AcDbSymbolTableRecord
100
AcDbRegAppTableRecord
  2
GEVID1008153418
 70
     0
  0
APPID
  5
4E5E
330
9
100
AcDbSymbolTableRecord
100
AcDbRegAppTableRecord
  2
GEVID1008153419
 70
     0
  0
APPID
  5
4E64
330
9
100
AcDbSymbolTableRecord
100
AcDbRegAppTableRecord
  2
GEVID1008153420
 70
     0
  0
APPID
  5
4E75
330
9
100
AcDbSymbolTableRecord
100
AcDbRegAppTableRecord
  2
GEVID1008153421
 70
     0
  0
APPID
  5
4EB7
330
9
100
AcDbSymbolTableRecord
100
AcDbRegAppTableRecord
  2
GENIUS_AMGTXT_16
 70
     0
  0
APPID
  5
7645
330
9
100
AcDbSymbolTableRecord
100
AcDbRegAppTableRecord
  2
GENIUS_GENOBJ-N-DIM_13
 70
     0
  0
APPID
  5
AAD0
330
9
100
AcDbSymbolTableRecord
100
AcDbRegAppTableRecord
  2
ACAD_DSTYLE_DIMARC_LENGTH_SYMBOL
 70
     0
  0
APPID
  5
AAD1
330
9
100
AcDbSymbolTableRecord
100
AcDbRegAppTableRecord
  2
ACAD_DSTYLE_DIMJOGGED_JOGANGLE_SYMBOL
 70
     0
  0
APPID
  5
AAFD
330
9
100
AcDbSymbolTableRecord
100
AcDbRegAppTableRecord
  2
ACAD_PSEXT
 70
     0
  0
APPID
  5
AD61
330
9
100
AcDbSymbolTableRecord
100
AcDbRegAppTableRecord
  2
AcAecLayerStandard
 70
     0
  0
APPID
  5
AEE3
330
9
100
AcDbSymbolTableRecord
100
AcDbRegAppTableRecord
  2
ACAD_EXEMPT_FROM_CAD_STANDARDS
 70
     0
  0
APPID
  5
B1BE
330
9
100
AcDbSymbolTableRecord
100
AcDbRegAppTableRecord
  2
GENIUS_GENCEN_19
 70
     0
  0
ENDTAB
  0
TABLE
  2
DIMSTYLE
  5
A
330
0
100
AcDbSymbolTable
 70
    24
100
AcDbDimStyleTable
 71
     1
340
2515
  0
DIMSTYLE
105
A76
330
A
100
AcDbSymbolTableRecord
100
AcDbDimStyleTableRecord
  2
STANDARD
 70
     0
 41
3.0
 42
1.0
 43
7.0
 44
2.0
 73
     0
 74
     0
 77
     1
140
2.799999999999999
141
0.0
143
0.0394
147
0.7
171
     4
172
     1
173
     1
176
     3
177
     3
178
     2
271
     3
272
     3
273
     8
274
     4
289
     0
340
A74
341
A66
343
A66
344
A66
  0
DIMSTYLE
105
2515
330
A
100
AcDbSymbolTableRecord
100
AcDbDimStyleTableRecord
  2
SYS
 70
     0
  4
"
 41
1.0
 42
1.0
 43
10.0
 44
1.0
 47
0.1
 48
0.1
 73
     0
 74
     0
 77
     1
 78
     8
 79
     2
140
3.5
141
0.0
143
0.0393701
146
0.71
147
1.5
172
     1
176
   256
177
   256
178
     7
271
     2
272
     2
283
     0
284
     8
340
11
371
    -1
372
    -1
1001
ACAD_DSTYLE_DIMJOGGED_JOGANGLE_SYMBOL
1070
   384
1040
0.7853981633974483
1001
ACAD_DSTYLE_DIMARC_LENGTH_SYMBOL
1070
   379
1070
     1
  0
DIMSTYLE
105
2516
102
{ACAD_REACTORS
330
B9BF
102
}
330
A
100
AcDbSymbolTableRecord
100
AcDbDimStyleTableRecord
  2
SYS$3
 70
     0
  4
"
 41
2.0
 42
1.0
 43
10.0
 44
1.0
 47
0.1
 48
0.1
 73
     0
 77
     1
 78
     8
 79
     2
140
3.5
141
0.0
143
0.0393701
146
0.71
147
1.5
176
   256
177
   256
178
     2
271
     2
272
     2
283
     0
284
     8
288
     1
340
11
342
A66
371
    -1
372
    -1
1001
ACAD_DSTYLE_DIMJOGGED_JOGANGLE_SYMBOL
1070
   384
1040
0.7853981633974483
1001
ACAD_DSTYLE_DIMARC_LENGTH_SYMBOL
1070
   379
1070
     1
  0
DIMSTYLE
105
2517
330
A
100
AcDbSymbolTableRecord
100
AcDbDimStyleTableRecord
  2
SYS$4
 70
     0
  4
"
 41
2.0
 42
1.0
 43
10.0
 44
1.0
 47
0.1
 48
0.1
 73
     0
 77
     1
 78
     8
 79
     2
140
3.5
141
0.0
143
0.0393701
146
0.71
147
1.5
173
     1
176
   256
177
   256
178
     2
271
     2
272
     2
283
     0
284
     8
288
     1
340
11
344
A66
371
    -1
372
    -1
1001
ACAD_DSTYLE_DIMJOGGED_JOGANGLE_SYMBOL
1070
   384
1040
0.7853981633974483
1001
ACAD_DSTYLE_DIMARC_LENGTH_SYMBOL
1070
   379
1070
     1
  0
DIMSTYLE
105
2518
330
A
100
AcDbSymbolTableRecord
100
AcDbDimStyleTableRecord
  2
SYS$6
 70
     0
  4
"
 41
2.0
 42
1.0
 43
10.0
 44
1.0
 47
0.1
 48
0.1
 73
     0
 74
     0
 78
     8
 79
     2
140
3.5
141
0.0
143
0.0393701
146
0.71
147
1.5
172
     1
176
   256
177
   256
178
     2
271
     2
272
     2
283
     0
284
     8
340
11
341
A66
371
    -1
372
    -1
1001
ACAD_DSTYLE_DIMJOGGED_JOGANGLE_SYMBOL
1070
   384
1040
0.7853981633974483
1001
ACAD_DSTYLE_DIMARC_LENGTH_SYMBOL
1070
   379
1070
     1
  0
DIMSTYLE
105
2519
330
A
100
AcDbSymbolTableRecord
100
AcDbDimStyleTableRecord
  2
SYS$7
 70
     0
  4
"
 41
2.0
 42
1.0
 43
10.0
 44
1.0
 47
0.1
 48
0.1
 73
     0
 74
     0
 77
     1
 78
     8
 79
     2
140
5.0
141
0.0
143
0.0393701
146
0.71
147
1.5
172
     1
176
   256
177
   256
178
     2
271
     2
272
     2
283
     0
284
     8
340
11
341
A66
342
A66
371
    -1
372
    -1
1001
ACAD_DSTYLE_DIMJOGGED_JOGANGLE_SYMBOL
1070
   384
1040
0.7853981633974483
1001
ACAD_DSTYLE_DIMARC_LENGTH_SYMBOL
1070
   379
1070
     1
  0
DIMSTYLE
105
251A
330
A
100
AcDbSymbolTableRecord
100
AcDbDimStyleTableRecord
  2
SYS$SF
 70
     0
  4
"
 41
2.5
 42
1.0
 43
10.0
 44
1.0
 47
0.1
 48
0.1
 73
     0
 74
     0
 75
     1
 76
     1
 77
     1
 78
     8
 79
     2
140
3.5
141
0.0
143
0.0393701
146
0.71
147
1.5
172
     1
176
   256
177
   256
178
     2
271
     2
272
     3
283
     0
284
     8
340
11
341
6C4
342
6C4
371
    -1
372
    -1
1001
ACAD_DSTYLE_DIMJOGGED_JOGANGLE_SYMBOL
1070
   384
1040
0.7853981633974483
1001
ACAD_DSTYLE_DIMARC_LENGTH_SYMBOL
1070
   379
1070
     1
  0
DIMSTYLE
105
251B
330
A
100
AcDbSymbolTableRecord
100
AcDbDimStyleTableRecord
  2
SYS$SH
 70
     0
  4
"
 41
2.5
 42
1.0
 43
10.0
 44
1.0
 47
0.1
 48
0.1
 73
     0
 74
     0
 75
     1
 76
     1
 77
     1
 78
     8
 79
     2
140
3.5
141
0.0
143
0.0393701
144
2.0
146
0.71
147
1.5
172
     1
173
     1
176
   256
177
   256
178
     2
271
     2
272
     3
283
     0
284
     8
340
11
341
6C4
343
72
344
6C4
371
    -1
372
    -1
1001
ACAD_DSTYLE_DIMJOGGED_JOGANGLE_SYMBOL
1070
   384
1040
0.7853981633974483
1001
ACAD_DSTYLE_DIMARC_LENGTH_SYMBOL
1070
   379
1070
     1
  0
DIMSTYLE
105
2A59
330
A
100
AcDbSymbolTableRecord
100
AcDbDimStyleTableRecord
  2
SYS$2
 70
     0
  4
"
 41
1.0
 42
1.0
 43
10.0
 44
1.0
 47
0.1
 48
0.1
 73
     0
 74
     0
 77
     1
 78
     8
 79
     2
140
3.5
141
0.0
143
0.0393701
146
0.71
147
1.5
172
     1
176
   256
177
   256
178
     2
271
     2
272
     2
283
     0
284
     8
340
11
342
6C4
371
    -1
372
    -1
1001
ACAD_DSTYLE_DIMJOGGED_JOGANGLE_SYMBOL
1070
   384
1040
0.7853981633974483
1001
ACAD_DSTYLE_DIMARC_LENGTH_SYMBOL
1070
   379
1070
     1
  0
DIMSTYLE
105
2AAB
102
{ACAD_REACTORS
330
B88F
330
B8A5
330
B8BB
330
B8D5
330
B8EB
330
B901
330
B917
330
B92D
330
B943
330
B959
330
B96F
330
B985
330
B99B
102
}
330
A
100
AcDbSymbolTableRecord
100
AcDbDimStyleTableRecord
  2
SYS$0
 70
     0
  4
"
 41
1.0
 42
1.0
 43
10.0
 44
1.0
 47
0.1
 48
0.1
 73
     0
 74
     0
 77
     1
 78
     8
 79
     2
140
3.200000000000001
141
0.0
143
0.0393701
146
0.71
147
1.5
172
     1
176
   256
177
   256
178
     2
271
     2
272
     2
283
     0
284
     8
340
11
341
A66
342
6C4
371
    -1
372
    -1
1001
ACAD_DSTYLE_DIMJOGGED_JOGANGLE_SYMBOL
1070
   384
1040
0.7853981633974483
1001
ACAD_DSTYLE_DIMARC_LENGTH_SYMBOL
1070
   379
1070
     1
  0
DIMSTYLE
105
AF99
330
A
100
AcDbSymbolTableRecord
100
AcDbDimStyleTableRecord
  2
AM_ISO
 70
     0
  4
"
 41
2.5
 42
1.0
 43
10.0
 44
1.0
 47
0.1
 48
0.1
 73
     0
 74
     0
 77
     1
 78
     8
 79
     2
140
3.5
141
0.0
143
0.0393701
146
0.71
147
1.5
172
     1
176
   256
177
   256
178
     2
271
     2
272
     3
274
     4
283
     0
284
     8
340
11
371
    -1
372
    -1
  0
DIMSTYLE
105
AF9A
330
A
100
AcDbSymbolTableRecord
100
AcDbDimStyleTableRecord
  2
AM_ISO$3
 70
     0
  4
"
 41
2.5
 42
1.0
 43
10.0
 44
1.0
 47
0.1
 48
0.1
 73
     0
 77
     1
 78
     8
 79
     2
140
3.5
141
0.0
143
0.0393701
146
0.71
147
1.5
176
   256
177
   256
178
     2
271
     2
272
     3
274
     4
283
     0
284
     8
288
     1
289
     0
340
11
371
    -1
372
    -1
  0
DIMSTYLE
105
AF9B
330
A
100
AcDbSymbolTableRecord
100
AcDbDimStyleTableRecord
  2
AM_ISO$4
 70
     0
  4
"
 41
2.5
 42
1.0
 43
10.0
 44
1.0
 47
0.1
 48
0.1
 73
     0
 77
     1
 78
     8
 79
     2
140
3.5
141
0.0
143
0.0393701
146
0.71
147
1.5
176
   256
177
   256
178
     2
271
     2
272
     3
274
     4
283
     0
284
     8
288
     1
289
     0
340
11
371
    -1
372
    -1
  0
DIMSTYLE
105
AF9C
330
A
100
AcDbSymbolTableRecord
100
AcDbDimStyleTableRecord
  2
AM_ISO$6
 70
     0
  4
"
 41
2.5
 42
1.0
 43
10.0
 44
1.0
 47
0.1
 48
0.1
 73
     0
 74
     0
 78
     8
 79
     2
140
3.5
141
0.0
143
0.0393701
146
0.71
147
1.5
172
     1
176
   256
177
   256
178
     2
271
     2
272
     3
274
     4
283
     0
284
     8
340
11
371
    -1
372
    -1
  0
DIMSTYLE
105
AF9D
330
A
100
AcDbSymbolTableRecord
100
AcDbDimStyleTableRecord
  2
AM_ISO$7
 70
     0
  4
"
 41
2.5
 42
1.0
 43
10.0
 44
1.0
 47
0.1
 48
0.1
 73
     0
 74
     0
 77
     1
 78
     8
 79
     2
140
5.0
141
0.0
143
0.0393701
146
0.71
147
1.5
172
     1
176
   256
177
   256
178
     2
271
     2
272
     3
274
     4
283
     0
284
     8
340
11
371
    -1
372
    -1
  0
DIMSTYLE
105
AF9E
330
A
100
AcDbSymbolTableRecord
100
AcDbDimStyleTableRecord
  2
AM_ISO$SF
 70
     0
  4
"
 41
2.5
 42
1.0
 43
10.0
 44
1.0
 47
0.1
 48
0.1
 73
     0
 74
     0
 75
     1
 76
     1
 77
     1
 78
     8
 79
     2
140
3.5
141
0.0
143
0.0393701
146
0.71
147
1.5
172
     1
176
   256
177
   256
178
     2
271
     2
272
     3
274
     4
283
     0
284
     8
340
11
371
    -1
372
    -1
  0
DIMSTYLE
105
AF9F
330
A
100
AcDbSymbolTableRecord
100
AcDbDimStyleTableRecord
  2
AM_ISO$SH
 70
     0
  4
"
 41
2.5
 42
1.0
 43
10.0
 44
1.0
 47
0.1
 48
0.1
 73
     0
 74
     0
 75
     1
 76
     1
 77
     1
 78
     8
 79
     2
140
3.5
141
0.0
143
0.0393701
144
2.0
146
0.71
147
1.5
172
     1
173
     1
176
   256
177
   256
178
     2
271
     2
272
     3
274
     4
283
     0
284
     8
340
11
343
72
371
    -1
372
    -1
  0
DIMSTYLE
105
B5FB
330
A
100
AcDbSymbolTableRecord
100
AcDbDimStyleTableRecord
  2
DIMSTYLE
 70
     0
 41
1.0
 42
2.54
 44
2.54
 73
     0
 74
     0
140
3.2
147
1.6
173
     1
279
     2
340
11
  0
DIMSTYLE
105
B5FC
330
A
100
AcDbSymbolTableRecord
100
AcDbDimStyleTableRecord
  2
AM_ANSI
 70
     0
  4
mm
 41
0.1
 42
0.05
 43
0.5
 44
0.1
 47
0.1
 48
0.1
 78
     7
 79
     2
140
0.12
141
0.0
146
0.71
147
0.06
176
   256
177
   256
178
     2
274
     4
284
     7
340
11
371
    -1
372
    -1
1001
ACAD_DSTYLE_DIMARC_LENGTH_SYMBOL
1070
   379
1070
     1
  0
DIMSTYLE
105
B5FD
330
A
100
AcDbSymbolTableRecord
100
AcDbDimStyleTableRecord
  2
AM_ANSI$3
 70
     0
  4
mm
 41
0.1
 42
0.05
 43
0.5
 44
0.1
 47
0.1
 48
0.1
 78
     7
 79
     2
140
0.12
141
0.0
146
0.71
147
0.06
176
   256
177
   256
178
     2
274
     4
284
     7
288
     1
289
     0
340
11
371
    -1
372
    -1
1001
ACAD_DSTYLE_DIMARC_LENGTH_SYMBOL
1070
   379
1070
     1
  0
DIMSTYLE
105
B5FE
330
A
100
AcDbSymbolTableRecord
100
AcDbDimStyleTableRecord
  2
AM_ANSI$4
 70
     0
  4
mm
 41
0.1
 42
0.05
 43
0.5
 44
0.1
 47
0.1
 48
0.1
 78
     7
 79
     2
140
0.12
141
0.0
146
0.71
147
0.06
176
   256
177
   256
178
     2
274
     4
284
     7
288
     1
289
     0
340
11
371
    -1
372
    -1
1001
ACAD_DSTYLE_DIMARC_LENGTH_SYMBOL
1070
   379
1070
     1
  0
DIMSTYLE
105
B5FF
330
A
100
AcDbSymbolTableRecord
100
AcDbDimStyleTableRecord
  2
AM_ANSI$7
 70
     0
  4
mm
 41
0.1
 42
0.05
 43
0.5
 44
0.1
 47
0.1
 48
0.1
 78
     7
 79
     2
140
0.24
141
0.0
146
0.71
147
0.06
176
   256
177
   256
178
     2
274
     4
284
     7
340
11
371
    -1
372
    -1
1001
ACAD_DSTYLE_DIMARC_LENGTH_SYMBOL
1070
   379
1070
     1
  0
DIMSTYLE
105
B600
330
A
100
AcDbSymbolTableRecord
100
AcDbDimStyleTableRecord
  2
AM_ANSI$SF
 70
     0
  4
mm
 41
0.1
 42
0.05
 43
0.5
 44
0.1
 47
0.1
 48
0.1
 75
     1
 76
     1
 78
     7
 79
     2
140
0.12
141
0.0
146
0.71
147
0.06
176
   256
177
   256
178
     2
274
     4
284
     7
340
11
371
    -1
372
    -1
1001
ACAD_DSTYLE_DIMARC_LENGTH_SYMBOL
1070
   379
1070
     1
  0
DIMSTYLE
105
B601
330
A
100
AcDbSymbolTableRecord
100
AcDbDimStyleTableRecord
  2
AM_ANSI$SH
 70
     0
  4
mm
 41
0.1
 42
0.05
 43
0.5
 44
0.1
 47
0.1
 48
0.1
 75
     1
 76
     1
 78
     7
 79
     2
140
0.12
141
0.0
146
0.71
147
0.06
173
     1
176
   256
177
   256
178
     2
274
     4
284
     7
340
11
343
72
371
    -1
372
    -1
1001
ACAD_DSTYLE_DIMARC_LENGTH_SYMBOL
1070
   379
1070
     1
  0
ENDTAB
  0
TABLE
  2
BLOCK_RECORD
  5
1
330
0
100
AcDbSymbolTable
 70
    55
  0
BLOCK_RECORD
  5
1F
102
{ACAD_XDICTIONARY
360
8A
102
}
330
1
100
AcDbSymbolTableRecord
100
AcDbBlockTableRecord
  2
*Model_Space
340
22
  0
BLOCK_RECORD
  5
1B
330
1
100
AcDbSymbolTableRecord
100
AcDbBlockTableRecord
  2
*Paper_Space
340
1E
  0
BLOCK_RECORD
  5
23
330
1
100
AcDbSymbolTableRecord
100
AcDbBlockTableRecord
  2
*Paper_Space0
340
26
  0
BLOCK_RECORD
  5
72
330
1
100
AcDbSymbolTableRecord
100
AcDbBlockTableRecord
  2
GENAXEH
340
0
  0
BLOCK_RECORD
  5
6C4
330
1
100
AcDbSymbolTableRecord
100
AcDbBlockTableRecord
  2
_Dot
340
0
102
{BLKREFS
331
B54A
331
B54B
331
B556
331
B560
331
B561
331
B56C
331
B56D
331
B578
331
B579
331
B584
331
B585
331
B590
331
B591
331
B59C
331
B59D
331
B89F
331
B8A0
331
B8B5
331
B8B6
331
B8CF
331
B8D0
331
B8E5
331
B8E6
331
B8FB
331
B8FC
331
B911
331
B912
331
B927
331
B928
331
B93D
331
B93E
331
B953
331
B954
331
B969
331
B96A
331
B97F
331
B980
331
B995
331
B996
331
B9AB
331
B9AC
102
}
  0
BLOCK_RECORD
  5
A66
330
1
100
AcDbSymbolTableRecord
100
AcDbBlockTableRecord
  2
_OPEN30
340
0
102
{BLKREFS
331
B9BC
331
BA77
102
}
  0
BLOCK_RECORD
  5
B542
330
1
100
AcDbSymbolTableRecord
100
AcDbBlockTableRecord
  2
_NONE
340
0
  0
BLOCK_RECORD
  5
B5A5
330
1
100
AcDbSymbolTableRecord
100
AcDbBlockTableRecord
  2
KOZU0001
340
0
  0
BLOCK_RECORD
  5
B5AC
330
1
100
AcDbSymbolTableRecord
100
AcDbBlockTableRecord
  2
KOZU0002
340
0
  0
BLOCK_RECORD
  5
B890
330
1
100
AcDbSymbolTableRecord
100
AcDbBlockTableRecord
  2
*D36
340
0
  0
BLOCK_RECORD
  5
B8A6
330
1
100
AcDbSymbolTableRecord
100
AcDbBlockTableRecord
  2
*D37
340
0
  0
BLOCK_RECORD
  5
B8BC
330
1
100
AcDbSymbolTableRecord
100
AcDbBlockTableRecord
  2
*D38
340
0
  0
BLOCK_RECORD
  5
B8D6
330
1
100
AcDbSymbolTableRecord
100
AcDbBlockTableRecord
  2
*D39
340
0
  0
BLOCK_RECORD
  5
B8EC
330
1
100
AcDbSymbolTableRecord
100
AcDbBlockTableRecord
  2
*D40
340
0
  0
BLOCK_RECORD
  5
B902
330
1
100
AcDbSymbolTableRecord
100
AcDbBlockTableRecord
  2
*D41
340
0
  0
BLOCK_RECORD
  5
B918
330
1
100
AcDbSymbolTableRecord
100
AcDbBlockTableRecord
  2
*D42
340
0
  0
BLOCK_RECORD
  5
B92E
330
1
100
AcDbSymbolTableRecord
100
AcDbBlockTableRecord
  2
*D43
340
0
  0
BLOCK_RECORD
  5
B944
330
1
100
AcDbSymbolTableRecord
100
AcDbBlockTableRecord
  2
*D44
340
0
  0
BLOCK_RECORD
  5
B95A
330
1
100
AcDbSymbolTableRecord
100
AcDbBlockTableRecord
  2
*D45
340
0
  0
BLOCK_RECORD
  5
B970
330
1
100
AcDbSymbolTableRecord
100
AcDbBlockTableRecord
  2
*D46
340
0
  0
BLOCK_RECORD
  5
B986
330
1
100
AcDbSymbolTableRecord
100
AcDbBlockTableRecord
  2
*D47
340
0
  0
BLOCK_RECORD
  5
B99C
330
1
100
AcDbSymbolTableRecord
100
AcDbBlockTableRecord
  2
*D48
340
0
  0
BLOCK_RECORD
  5
B9C0
330
1
100
AcDbSymbolTableRecord
100
AcDbBlockTableRecord
  2
*D50
340
0
  0
BLOCK_RECORD
  5
BA03
330
1
100
AcDbSymbolTableRecord
100
AcDbBlockTableRecord
  2
GENDOT
340
0
102
{BLKREFS
331
BA1B
331
BA1C
331
BACC
331
BACD
331
BAD6
102
}
  0
ENDTAB
  0
ENDSEC
  0
SECTION
  2
BLOCKS
  0
BLOCK
  5
20
330
1F
100
AcDbEntity
  8
0
100
AcDbBlockBegin
  2
*Model_Space
 70
     0
 10
0.0
 20
0.0
 30
0.0
  3
*Model_Space
  1

  0
ENDBLK
  5
21
330
1F
100
AcDbEntity
  8
0
100
AcDbBlockEnd
  0
BLOCK
  5
1C
330
1B
100
AcDbEntity
 67
     1
  8
0
100
AcDbBlockBegin
  2
*Paper_Space
 70
     0
 10
0.0
 20
0.0
 30
0.0
  3
*Paper_Space
  1

  0
ENDBLK
  5
1D
330
1B
100
AcDbEntity
 67
     1
  8
0
100
AcDbBlockEnd
  0
BLOCK
  5
24
330
23
100
AcDbEntity
 67
     1
  8
0
100
AcDbBlockBegin
  2
*Paper_Space0
 70
     0
 10
0.0
 20
0.0
 30
0.0
  3
*Paper_Space0
  1

  0
ENDBLK
  5
25
330
23
100
AcDbEntity
 67
     1
  8
0
100
AcDbBlockEnd
  0
BLOCK
  5
74
330
72
100
AcDbEntity
  8
0
100
AcDbBlockBegin
  2
GENAXEH
 70
     0
 10
0.0
 20
0.0
 30
0.0
  3
GENAXEH
  1

  0
LINE
  5
73
330
72
100
AcDbEntity
  8
0
100
AcDbLine
 10
-1.0
 20
0.0
 30
0.0
 11
1.0
 21
0.0
 31
0.0
  0
ENDBLK
  5
75
330
72
100
AcDbEntity
  8
0
100
AcDbBlockEnd
  0
BLOCK
  5
6C7
330
6C4
100
AcDbEntity
  8
0
100
AcDbBlockBegin
  2
_Dot
 70
     0
 10
0.0
 20
0.0
 30
0.0
  3
_Dot
  1

  0
LWPOLYLINE
  5
6C5
330
6C4
100
AcDbEntity
  8
0
  6
ByBlock
 62
     0
100
AcDbPolyline
 90
        2
 70
     1
 43
0.5
 10
-0.25
 20
0.0
 42
1.0
 10
0.25
 20
0.0
 42
1.0
  0
LINE
  5
6C6
330
6C4
100
AcDbEntity
  8
0
  6
ByBlock
 62
     0
370
    -2
100
AcDbLine
 10
-0.5
 20
0.0
 30
0.0
 11
-1.0
 21
0.0
 31
0.0
  0
ENDBLK
  5
6C8
330
6C4
100
AcDbEntity
  8
0
100
AcDbBlockEnd
  0
BLOCK
  5
A6A
330
A66
100
AcDbEntity
  8
0
100
AcDbBlockBegin
  2
_OPEN30
 70
     0
 10
0.0
 20
0.0
 30
0.0
  3
_OPEN30
  1

  0
LINE
  5
A67
330
A66
100
AcDbEntity
  8
0
  6
ByBlock
 62
     0
100
AcDbLine
 10
-1.0
 20
0.26794919
 30
0.0
 11
0.0
 21
0.0
 31
0.0
  0
LINE
  5
A68
330
A66
100
AcDbEntity
  8
0
  6
ByBlock
 62
     0
100
AcDbLine
 10
0.0
 20
0.0
 30
0.0
 11
-1.0
 21
-0.26794919
 31
0.0
  0
LINE
  5
A69
330
A66
100
AcDbEntity
  8
0
  6
ByBlock
 62
     0
100
AcDbLine
 10
0.0
 20
0.0
 30
0.0
 11
-1.0
 21
0.0
 31
0.0
  0
ENDBLK
  5
A6B
330
A66
100
AcDbEntity
  8
0
100
AcDbBlockEnd
  0
BLOCK
  5
B543
330
B542
100
AcDbEntity
  8
0
100
AcDbBlockBegin
  2
_NONE
 70
     0
 10
0.0
 20
0.0
 30
0.0
  3
_NONE
  1

  0
CIRCLE
  5
B544
330
B542
100
AcDbEntity
  8
0
  6
ByBlock
 62
     0
100
AcDbCircle
 10
0.0
 20
0.0
 30
0.0
 40
0.001
  0
ENDBLK
  5
B545
330
B542
100
AcDbEntity
  8
0
100
AcDbBlockEnd
  0
BLOCK
  5
B5A6
330
B5A5
100
AcDbEntity
  8
0
100
AcDbBlockBegin
  2
KOZU0001
 70
     0
 10
0.0
 20
0.0
 30
0.0
  3
KOZU0001
  1

  0
LINE
  5
B5A7
330
B5A5
100
AcDbEntity
  8
0
  6
Continuous
 62
     7
100
AcDbLine
 10
0.0
 20
0.0
 30
0.0
 11
24.024485
 21
-35.916849
 31
0.0
  0
LINE
  5
B5A8
330
B5A5
100
AcDbEntity
  8
0
  6
Continuous
 62
     7
100
AcDbLine
 10
24.024485
 20
-35.916849
 30
0.0
 11
66.53948599999999
 21
-35.916849
 31
0.0
  0
CIRCLE
  5
B5A9
330
B5A5
100
AcDbEntity
  8
0
  6
Continuous
 62
     7
100
AcDbCircle
 10
0.0
 20
0.0
 30
0.0
 40
0.4000000100000002
  0
TEXT
  5
B5AA
330
B5A5
100
AcDbEntity
  8
0
  6
Continuous
 62
     7
100
AcDbText
 10
24.93948599999999
 20
-35.116849
 30
0.0
 40
3.2
  1
４－%%C５．５×%%C８．２サラ
 41
0.84350122
100
AcDbText
  0
ENDBLK
  5
B5AB
330
B5A5
100
AcDbEntity
  8
0
100
AcDbBlockEnd
  0
BLOCK
  5
B5AD
330
B5AC
100
AcDbEntity
  8
0
100
AcDbBlockBegin
  2
KOZU0002
 70
     0
 10
0.0
 20
0.0
 30
0.0
  3
KOZU0002
  1

  0
LINE
  5
B5AE
330
B5AC
100
AcDbEntity
  8
0
  6
Continuous
 62
     7
100
AcDbLine
 10
0.0
 20
0.0
 30
0.0
 11
-24.813568
 21
21.062027
 31
0.0
  0
LINE
  5
B5AF
330
B5AC
100
AcDbEntity
  8
0
  6
Continuous
 62
     7
100
AcDbLine
 10
-24.813568
 20
21.062027
 30
0.0
 11
-48.83679199999999
 21
21.062027
 31
0.0
  0
CIRCLE
  5
B5B0
330
B5AC
100
AcDbEntity
  8
0
  6
Continuous
 62
     7
100
AcDbCircle
 10
0.0
 20
0.0
 30
0.0
 40
0.4000000100000002
  0
TEXT
  5
B5B1
330
B5AC
100
AcDbEntity
  8
0
  6
Continuous
 62
     7
100
AcDbText
 10
-47.92279699999999
 20
21.86202699999999
 30
0.0
 40
3.2
  1
４－Ｍ５タップ
 41
0.84634979
100
AcDbText
  0
ENDBLK
  5
B5B2
330
B5AC
100
AcDbEntity
  8
0
100
AcDbBlockEnd
  0
BLOCK
  5
B89A
330
B890
100
AcDbEntity
  8
0
100
AcDbBlockBegin
  2
*D36
 70
     1
 10
0.0
 20
0.0
 30
0.0
  3
*D36
  1

  0
LINE
  5
B89C
330
B890
100
AcDbEntity
  8
AM_5
100
AcDbLine
 10
262.0177000396723
 20
339.1656999634413
 30
0.0
 11
262.0177000396723
 21
354.7687799634412
 31
0.0
  0
LINE
  5
B89D
330
B890
100
AcDbEntity
  8
AM_5
100
AcDbLine
 10
347.0177000396721
 20
339.1657099634413
 30
0.0
 11
347.0177000396721
 21
354.7687799634412
 31
0.0
  0
LINE
  5
B89E
330
B890
100
AcDbEntity
  8
AM_5
100
AcDbLine
 10
263.0177000396723
 20
353.7687799634412
 30
0.0
 11
346.0177000396722
 21
353.7687799634412
 31
0.0
  0
INSERT
  5
B89F
330
B890
100
AcDbEntity
  8
AM_5
100
AcDbBlockReference
  2
_Dot
 10
262.0177000396723
 20
353.7687799634412
 30
0.0
 50
180.0
  0
INSERT
  5
B8A0
330
B890
100
AcDbEntity
  8
AM_5
100
AcDbBlockReference
  2
_Dot
 10
347.0177000396721
 20
353.7687799634412
 30
0.0
  0
MTEXT
  5
B8A1
330
B890
100
AcDbEntity
  8
AM_5
 62
     2
100
AcDbMText
 10
304.5177000396722
 20
356.8687799634412
 30
0.0
 40
3.200000000000001
 41
0.0
 71
     5
 72
     1
  1
85
 73
     1
 44
1.0
1001
ACAD
1000
MTEXTBEGIN
1070
    73
1070
     1
1070
    44
1040
1.0
1070
    74
1070
     0
1000
MTEXTEND
  0
POINT
  5
B8A2
330
B890
100
AcDbEntity
  8
Defpoints
 62
     0
100
AcDbPoint
 10
262.0177000396723
 20
338.1656999634413
 30
0.0
  0
POINT
  5
B8A3
330
B890
100
AcDbEntity
  8
Defpoints
 62
     0
100
AcDbPoint
 10
347.0177000396721
 20
338.1657099634413
 30
0.0
  0
POINT
  5
B8A4
330
B890
100
AcDbEntity
  8
Defpoints
 62
     0
100
AcDbPoint
 10
347.0177000396721
 20
353.7687799634412
 30
0.0
  0
ENDBLK
  5
B89B
330
B890
100
AcDbEntity
  8
0
100
AcDbBlockEnd
  0
BLOCK
  5
B8B0
330
B8A6
100
AcDbEntity
  8
0
100
AcDbBlockBegin
  2
*D37
 70
     1
 10
0.0
 20
0.0
 30
0.0
  3
*D37
  1

  0
LINE
  5
B8B2
330
B8A6
100
AcDbEntity
  8
AM_5
100
AcDbLine
 10
345.8926960396722
 20
343.7687799634413
 30
0.0
 11
372.7830880396723
 21
343.7687799634413
 31
0.0
  0
LINE
  5
B8B3
330
B8A6
100
AcDbEntity
  8
AM_5
100
AcDbLine
 10
359.2676960396722
 20
312.7687799634412
 30
0.0
 11
372.7830880396723
 21
312.7687799634412
 31
0.0
  0
LINE
  5
B8B4
330
B8A6
100
AcDbEntity
  8
AM_5
100
AcDbLine
 10
371.7830880396722
 20
342.7687799634413
 30
0.0
 11
371.7830880396722
 21
313.7687799634412
 31
0.0
  0
INSERT
  5
B8B5
330
B8A6
100
AcDbEntity
  8
AM_5
100
AcDbBlockReference
  2
_Dot
 10
371.7830880396722
 20
343.7687799634413
 30
0.0
 50
90.0
  0
INSERT
  5
B8B6
330
B8A6
100
AcDbEntity
  8
AM_5
100
AcDbBlockReference
  2
_Dot
 10
371.7830880396722
 20
312.7687799634412
 30
0.0
 50
270.0
  0
MTEXT
  5
B8B7
330
B8A6
100
AcDbEntity
  8
AM_5
 62
     2
100
AcDbMText
 10
368.6830880396722
 20
328.2687799634413
 30
0.0
 40
3.200000000000001
 41
0.0
 71
     5
 72
     1
  1
31
 11
0.0000000000000001
 21
1.0
 31
0.0
 73
     1
 44
1.0
1001
ACAD
1000
MTEXTBEGIN
1070
    73
1070
     1
1070
    44
1040
1.0
1070
    74
1070
     0
1000
MTEXTEND
  0
POINT
  5
B8B8
330
B8A6
100
AcDbEntity
  8
Defpoints
 62
     0
100
AcDbPoint
 10
344.8926960396722
 20
343.7687799634413
 30
0.0
  0
POINT
  5
B8B9
330
B8A6
100
AcDbEntity
  8
Defpoints
 62
     0
100
AcDbPoint
 10
358.2676960396721
 20
312.7687799634412
 30
0.0
  0
POINT
  5
B8BA
330
B8A6
100
AcDbEntity
  8
Defpoints
 62
     0
100
AcDbPoint
 10
371.7830880396722
 20
312.7687799634412
 30
0.0
  0
ENDBLK
  5
B8B1
330
B8A6
100
AcDbEntity
  8
0
100
AcDbBlockEnd
  0
BLOCK
  5
B8C8
330
B8BC
100
AcDbEntity
  8
0
100
AcDbBlockBegin
  2
*D38
 70
     1
 10
0.0
 20
0.0
 30
0.0
  3
*D38
  1

  0
LINE
  5
B8CA
330
B8BC
100
AcDbEntity
  8
AM_5
100
AcDbLine
 10
359.2676960396722
 20
312.7687799634412
 30
0.0
 11
372.7830880396723
 21
312.7687799634412
 31
0.0
  0
LINE
  5
B8CB
330
B8BC
100
AcDbEntity
  8
AM_5
100
AcDbLine
 10
359.2676960396722
 20
309.7687799634412
 30
0.0
 11
372.7830880396723
 21
309.7687799634412
 31
0.0
  0
LINE
  5
B8CC
330
B8BC
100
AcDbEntity
  8
AM_5
100
AcDbLine
 10
371.7830880396722
 20
313.7687799634412
 30
0.0
 11
371.7830880396722
 21
314.7687799634412
 31
0.0
  0
LINE
  5
B8CD
330
B8BC
100
AcDbEntity
  8
AM_5
100
AcDbLine
 10
371.7830880396722
 20
308.7687799634413
 30
0.0
 11
371.7830880396722
 21
303.2754466301079
 31
0.0
  0
LINE
  5
B8CE
330
B8BC
100
AcDbEntity
  8
AM_5
100
AcDbLine
 10
371.7830880396722
 20
312.7687799634412
 30
0.0
 11
371.7830880396722
 21
309.7687799634412
 31
0.0
  0
INSERT
  5
B8CF
330
B8BC
100
AcDbEntity
  8
AM_5
100
AcDbBlockReference
  2
_Dot
 10
371.7830880396722
 20
312.7687799634412
 30
0.0
 50
270.0
  0
INSERT
  5
B8D0
330
B8BC
100
AcDbEntity
  8
AM_5
100
AcDbBlockReference
  2
_Dot
 10
371.7830880396722
 20
309.7687799634412
 30
0.0
 50
90.0
  0
MTEXT
  5
B8D1
330
B8BC
100
AcDbEntity
  8
AM_5
 62
     2
100
AcDbMText
 10
368.6830880396722
 20
305.5221132967746
 30
0.0
 40
3.200000000000001
 41
0.0
 71
     5
 72
     1
  1
3
 11
0.0000000000000001
 21
1.0
 31
0.0
 73
     1
 44
1.0
1001
ACAD
1000
MTEXTBEGIN
1070
    73
1070
     1
1070
    44
1040
1.0
1070
    74
1070
     0
1000
MTEXTEND
  0
POINT
  5
B8D2
330
B8BC
100
AcDbEntity
  8
Defpoints
 62
     0
100
AcDbPoint
 10
358.2676960396721
 20
312.7687799634412
 30
0.0
  0
POINT
  5
B8D3
330
B8BC
100
AcDbEntity
  8
Defpoints
 62
     0
100
AcDbPoint
 10
358.2676960396721
 20
309.7687799634412
 30
0.0
  0
POINT
  5
B8D4
330
B8BC
100
AcDbEntity
  8
Defpoints
 62
     0
100
AcDbPoint
 10
371.7830880396722
 20
309.7687799634412
 30
0.0
  0
ENDBLK
  5
B8C9
330
B8BC
100
AcDbEntity
  8
0
100
AcDbBlockEnd
  0
BLOCK
  5
B8E0
330
B8D6
100
AcDbEntity
  8
0
100
AcDbBlockBegin
  2
*D39
 70
     1
 10
0.0
 20
0.0
 30
0.0
  3
*D39
  1

  0
LINE
  5
B8E2
330
B8D6
100
AcDbEntity
  8
AM_5
100
AcDbLine
 10
347.0176960396722
 20
244.3208899634412
 30
0.0
 11
347.0176960396722
 21
255.320889963441
 31
0.0
  0
LINE
  5
B8E3
330
B8D6
100
AcDbEntity
  8
AM_5
100
AcDbLine
 10
262.0176900396722
 20
244.3208899634412
 30
0.0
 11
262.0176900396722
 21
255.320889963441
 31
0.0
  0
LINE
  5
B8E4
330
B8D6
100
AcDbEntity
  8
AM_5
100
AcDbLine
 10
346.0176960396722
 20
254.320889963441
 30
0.0
 11
263.0176900396722
 21
254.320889963441
 31
0.0
  0
INSERT
  5
B8E5
330
B8D6
100
AcDbEntity
  8
AM_5
100
AcDbBlockReference
  2
_Dot
 10
347.0176960396722
 20
254.320889963441
 30
0.0
  0
INSERT
  5
B8E6
330
B8D6
100
AcDbEntity
  8
AM_5
100
AcDbBlockReference
  2
_Dot
 10
262.0176900396722
 20
254.320889963441
 30
0.0
 50
180.0
  0
MTEXT
  5
B8E7
330
B8D6
100
AcDbEntity
  8
AM_5
 62
     2
100
AcDbMText
 10
304.5176930396721
 20
257.420889963441
 30
0.0
 40
3.200000000000001
 41
0.0
 71
     5
 72
     1
  1
85
 73
     1
 44
1.0
1001
ACAD
1000
MTEXTBEGIN
1070
    73
1070
     1
1070
    44
1040
1.0
1070
    74
1070
     0
1000
MTEXTEND
  0
POINT
  5
B8E8
330
B8D6
100
AcDbEntity
  8
Defpoints
 62
     0
100
AcDbPoint
 10
347.0176960396722
 20
243.3208899634412
 30
0.0
  0
POINT
  5
B8E9
330
B8D6
100
AcDbEntity
  8
Defpoints
 62
     0
100
AcDbPoint
 10
262.0176900396722
 20
243.3208899634412
 30
0.0
  0
POINT
  5
B8EA
330
B8D6
100
AcDbEntity
  8
Defpoints
 62
     0
100
AcDbPoint
 10
262.0176900396722
 20
254.320889963441
 30
0.0
  0
ENDBLK
  5
B8E1
330
B8D6
100
AcDbEntity
  8
0
100
AcDbBlockEnd
  0
BLOCK
  5
B8F6
330
B8EC
100
AcDbEntity
  8
0
100
AcDbBlockBegin
  2
*D40
 70
     1
 10
0.0
 20
0.0
 30
0.0
  3
*D40
  1

  0
LINE
  5
B8F8
330
B8EC
100
AcDbEntity
  8
AM_5
100
AcDbLine
 10
252.0177000396722
 20
234.3208899634412
 30
0.0
 11
236.0177000396721
 21
234.3208899634412
 31
0.0
  0
LINE
  5
B8F9
330
B8EC
100
AcDbEntity
  8
AM_5
100
AcDbLine
 10
252.0177000396722
 20
64.32088496344126
 30
0.0
 11
236.0177000396721
 21
64.32088496344126
 31
0.0
  0
LINE
  5
B8FA
330
B8EC
100
AcDbEntity
  8
AM_5
100
AcDbLine
 10
237.0177000396721
 20
233.3208899634413
 30
0.0
 11
237.0177000396721
 21
65.32088496344126
 31
0.0
  0
INSERT
  5
B8FB
330
B8EC
100
AcDbEntity
  8
AM_5
100
AcDbBlockReference
  2
_Dot
 10
237.0177000396721
 20
234.3208899634412
 30
0.0
 50
90.0
  0
INSERT
  5
B8FC
330
B8EC
100
AcDbEntity
  8
AM_5
100
AcDbBlockReference
  2
_Dot
 10
237.0177000396721
 20
64.32088496344126
 30
0.0
 50
270.0
  0
MTEXT
  5
B8FD
330
B8EC
100
AcDbEntity
  8
AM_5
 62
     2
100
AcDbMText
 10
233.9177000396721
 20
149.3208874634413
 30
0.0
 40
3.200000000000001
 41
0.0
 71
     5
 72
     1
  1
170
 11
0.0000000000000001
 21
1.0
 31
0.0
 73
     1
 44
1.0
1001
ACAD
1000
MTEXTBEGIN
1070
    73
1070
     1
1070
    44
1040
1.0
1070
    74
1070
     0
1000
MTEXTEND
  0
POINT
  5
B8FE
330
B8EC
100
AcDbEntity
  8
Defpoints
 62
     0
100
AcDbPoint
 10
253.0177000396721
 20
234.3208899634412
 30
0.0
  0
POINT
  5
B8FF
330
B8EC
100
AcDbEntity
  8
Defpoints
 62
     0
100
AcDbPoint
 10
253.0177000396721
 20
64.32088496344126
 30
0.0
  0
POINT
  5
B900
330
B8EC
100
AcDbEntity
  8
Defpoints
 62
     0
100
AcDbPoint
 10
237.0177000396721
 20
64.32088496344126
 30
0.0
  0
ENDBLK
  5
B8F7
330
B8EC
100
AcDbEntity
  8
0
100
AcDbBlockEnd
  0
BLOCK
  5
B90C
330
B902
100
AcDbEntity
  8
0
100
AcDbBlockBegin
  2
*D41
 70
     1
 10
0.0
 20
0.0
 30
0.0
  3
*D41
  1

  0
LINE
  5
B90E
330
B902
100
AcDbEntity
  8
AM_5
100
AcDbLine
 10
322.0176960396722
 20
73.82088496344128
 30
0.0
 11
322.0176960396722
 21
38.32088496344164
 31
0.0
  0
LINE
  5
B90F
330
B902
100
AcDbEntity
  8
AM_5
100
AcDbLine
 10
287.0176930396722
 20
73.82088496344128
 30
0.0
 11
287.0176930396722
 21
38.32088496344164
 31
0.0
  0
LINE
  5
B910
330
B902
100
AcDbEntity
  8
AM_5
100
AcDbLine
 10
321.0176960396722
 20
39.32088496344164
 30
0.0
 11
288.0176930396721
 21
39.32088496344164
 31
0.0
  0
INSERT
  5
B911
330
B902
100
AcDbEntity
  8
AM_5
100
AcDbBlockReference
  2
_Dot
 10
322.0176960396722
 20
39.32088496344164
 30
0.0
  0
INSERT
  5
B912
330
B902
100
AcDbEntity
  8
AM_5
100
AcDbBlockReference
  2
_Dot
 10
287.0176930396722
 20
39.32088496344164
 30
0.0
 50
180.0
  0
MTEXT
  5
B913
330
B902
100
AcDbEntity
  8
AM_5
 62
     2
100
AcDbMText
 10
304.5176945396722
 20
42.42088496344164
 30
0.0
 40
3.200000000000001
 41
0.0
 71
     5
 72
     1
  1
35
 73
     1
 44
1.0
1001
ACAD
1000
MTEXTBEGIN
1070
    73
1070
     1
1070
    44
1040
1.0
1070
    74
1070
     0
1000
MTEXTEND
  0
POINT
  5
B914
330
B902
100
AcDbEntity
  8
Defpoints
 62
     0
100
AcDbPoint
 10
322.0176960396722
 20
74.82088496344127
 30
0.0
  0
POINT
  5
B915
330
B902
100
AcDbEntity
  8
Defpoints
 62
     0
100
AcDbPoint
 10
287.0176930396722
 20
74.82088496344127
 30
0.0
  0
POINT
  5
B916
330
B902
100
AcDbEntity
  8
Defpoints
 62
     0
100
AcDbPoint
 10
287.0176930396722
 20
39.32088496344164
 30
0.0
  0
ENDBLK
  5
B90D
330
B902
100
AcDbEntity
  8
0
100
AcDbBlockEnd
  0
BLOCK
  5
B922
330
B918
100
AcDbEntity
  8
0
100
AcDbBlockBegin
  2
*D42
 70
     1
 10
0.0
 20
0.0
 30
0.0
  3
*D42
  1

  0
LINE
  5
B924
330
B918
100
AcDbEntity
  8
AM_5
100
AcDbLine
 10
252.0177000396722
 20
53.32088496344127
 30
0.0
 11
252.0177000396722
 21
28.32088496344147
 31
0.0
  0
LINE
  5
B925
330
B918
100
AcDbEntity
  8
AM_5
100
AcDbLine
 10
357.0176960396722
 20
53.32088496344127
 30
0.0
 11
357.0176960396722
 21
28.32088496344147
 31
0.0
  0
LINE
  5
B926
330
B918
100
AcDbEntity
  8
AM_5
100
AcDbLine
 10
253.0177000396721
 20
29.32088496344147
 30
0.0
 11
356.0176960396721
 21
29.32088496344147
 31
0.0
  0
INSERT
  5
B927
330
B918
100
AcDbEntity
  8
AM_5
100
AcDbBlockReference
  2
_Dot
 10
252.0177000396722
 20
29.32088496344147
 30
0.0
 50
180.0
  0
INSERT
  5
B928
330
B918
100
AcDbEntity
  8
AM_5
100
AcDbBlockReference
  2
_Dot
 10
357.0176960396722
 20
29.32088496344147
 30
0.0
  0
MTEXT
  5
B929
330
B918
100
AcDbEntity
  8
AM_5
 62
     2
100
AcDbMText
 10
304.5176980396722
 20
32.42088496344147
 30
0.0
 40
3.200000000000001
 41
0.0
 71
     5
 72
     1
  1
105
 73
     1
 44
1.0
1001
ACAD
1000
MTEXTBEGIN
1070
    73
1070
     1
1070
    44
1040
1.0
1070
    74
1070
     0
1000
MTEXTEND
  0
POINT
  5
B92A
330
B918
100
AcDbEntity
  8
Defpoints
 62
     0
100
AcDbPoint
 10
252.0177000396722
 20
54.32088496344126
 30
0.0
  0
POINT
  5
B92B
330
B918
100
AcDbEntity
  8
Defpoints
 62
     0
100
AcDbPoint
 10
357.0176960396722
 20
54.32088496344126
 30
0.0
  0
POINT
  5
B92C
330
B918
100
AcDbEntity
  8
Defpoints
 62
     0
100
AcDbPoint
 10
357.0176960396722
 20
29.32088496344147
 30
0.0
  0
ENDBLK
  5
B923
330
B918
100
AcDbEntity
  8
0
100
AcDbBlockEnd
  0
BLOCK
  5
B938
330
B92E
100
AcDbEntity
  8
0
100
AcDbBlockBegin
  2
*D43
 70
     1
 10
0.0
 20
0.0
 30
0.0
  3
*D43
  1

  0
LINE
  5
B93A
330
B92E
100
AcDbEntity
  8
AM_5
100
AcDbLine
 10
323.0176960396722
 20
223.8208799634413
 30
0.0
 11
373.0176960396723
 21
223.8208799634413
 31
0.0
  0
LINE
  5
B93B
330
B92E
100
AcDbEntity
  8
AM_5
100
AcDbLine
 10
323.0176960396722
 20
74.82088496344127
 30
0.0
 11
373.0176960396722
 21
74.82088496344125
 31
0.0
  0
LINE
  5
B93C
330
B92E
100
AcDbEntity
  8
AM_5
100
AcDbLine
 10
372.0176960396723
 20
222.8208799634412
 30
0.0
 11
372.0176960396722
 21
75.82088496344126
 31
0.0
  0
INSERT
  5
B93D
330
B92E
100
AcDbEntity
  8
AM_5
100
AcDbBlockReference
  2
_Dot
 10
372.0176960396723
 20
223.8208799634413
 30
0.0
 50
90.0
  0
INSERT
  5
B93E
330
B92E
100
AcDbEntity
  8
AM_5
100
AcDbBlockReference
  2
_Dot
 10
372.0176960396722
 20
74.82088496344125
 30
0.0
 50
270.0
  0
MTEXT
  5
B93F
330
B92E
100
AcDbEntity
  8
AM_5
 62
     2
100
AcDbMText
 10
368.9176960396722
 20
149.3208824634413
 30
0.0
 40
3.200000000000001
 41
0.0
 71
     5
 72
     1
  1
149
 11
0.0000000000000001
 21
1.0
 31
0.0
 73
     1
 44
1.0
1001
ACAD
1000
MTEXTBEGIN
1070
    73
1070
     1
1070
    44
1040
1.0
1070
    74
1070
     0
1000
MTEXTEND
  0
POINT
  5
B940
330
B92E
100
AcDbEntity
  8
Defpoints
 62
     0
100
AcDbPoint
 10
322.0176960396722
 20
223.8208799634413
 30
0.0
  0
POINT
  5
B941
330
B92E
100
AcDbEntity
  8
Defpoints
 62
     0
100
AcDbPoint
 10
322.0176960396722
 20
74.82088496344127
 30
0.0
  0
POINT
  5
B942
330
B92E
100
AcDbEntity
  8
Defpoints
 62
     0
100
AcDbPoint
 10
372.0176960396722
 20
74.82088496344125
 30
0.0
  0
ENDBLK
  5
B939
330
B92E
100
AcDbEntity
  8
0
100
AcDbBlockEnd
  0
BLOCK
  5
B94E
330
B944
100
AcDbEntity
  8
0
100
AcDbBlockBegin
  2
*D44
 70
     1
 10
0.0
 20
0.0
 30
0.0
  3
*D44
  1

  0
LINE
  5
B950
330
B944
100
AcDbEntity
  8
AM_5
100
AcDbLine
 10
358.0176960396721
 20
54.32088496344127
 30
0.0
 11
383.0176961396722
 21
54.32088496344126
 31
0.0
  0
LINE
  5
B951
330
B944
100
AcDbEntity
  8
AM_5
100
AcDbLine
 10
358.0176960396721
 20
244.3208899634412
 30
0.0
 11
383.0176961396722
 21
244.3208899634412
 31
0.0
  0
LINE
  5
B952
330
B944
100
AcDbEntity
  8
AM_5
100
AcDbLine
 10
382.0176961396722
 20
55.32088496344126
 30
0.0
 11
382.0176961396722
 21
243.3208899634412
 31
0.0
  0
INSERT
  5
B953
330
B944
100
AcDbEntity
  8
AM_5
100
AcDbBlockReference
  2
_Dot
 10
382.0176961396722
 20
54.32088496344126
 30
0.0
 50
270.0
  0
INSERT
  5
B954
330
B944
100
AcDbEntity
  8
AM_5
100
AcDbBlockReference
  2
_Dot
 10
382.0176961396722
 20
244.3208899634412
 30
0.0
 50
90.0
  0
MTEXT
  5
B955
330
B944
100
AcDbEntity
  8
AM_5
 62
     2
100
AcDbMText
 10
378.9176961396722
 20
149.3208874634412
 30
0.0
 40
3.200000000000001
 41
0.0
 71
     5
 72
     1
  1
190
 11
0.0000000000000001
 21
1.0
 31
0.0
 73
     1
 44
1.0
1001
ACAD
1000
MTEXTBEGIN
1070
    73
1070
     1
1070
    44
1040
1.0
1070
    74
1070
     0
1000
MTEXTEND
  0
POINT
  5
B956
330
B944
100
AcDbEntity
  8
Defpoints
 62
     0
100
AcDbPoint
 10
357.0176960396722
 20
54.32088496344127
 30
0.0
  0
POINT
  5
B957
330
B944
100
AcDbEntity
  8
Defpoints
 62
     0
100
AcDbPoint
 10
357.0176960396722
 20
244.3208899634412
 30
0.0
  0
POINT
  5
B958
330
B944
100
AcDbEntity
  8
Defpoints
 62
     0
100
AcDbPoint
 10
382.0176961396722
 20
244.3208899634412
 30
0.0
  0
ENDBLK
  5
B94F
330
B944
100
AcDbEntity
  8
0
100
AcDbBlockEnd
  0
BLOCK
  5
B964
330
B95A
100
AcDbEntity
  8
0
100
AcDbBlockBegin
  2
*D45
 70
     1
 10
0.0
 20
0.0
 30
0.0
  3
*D45
  1

  0
LINE
  5
B966
330
B95A
100
AcDbEntity
  8
AM_5
100
AcDbLine
 10
104.1709000396721
 20
57.82088496344126
 30
0.0
 11
104.1709000396721
 21
51.76386996344147
 31
0.0
  0
LINE
  5
B967
330
B95A
100
AcDbEntity
  8
AM_5
100
AcDbLine
 10
189.1708800396722
 20
57.82088496344126
 30
0.0
 11
189.1708800396722
 21
51.76386996344147
 31
0.0
  0
LINE
  5
B968
330
B95A
100
AcDbEntity
  8
AM_5
100
AcDbLine
 10
105.1709000396721
 20
52.76386996344147
 30
0.0
 11
188.1708800396722
 21
52.76386996344147
 31
0.0
  0
INSERT
  5
B969
330
B95A
100
AcDbEntity
  8
AM_5
100
AcDbBlockReference
  2
_Dot
 10
104.1709000396721
 20
52.76386996344147
 30
0.0
 50
180.0
  0
INSERT
  5
B96A
330
B95A
100
AcDbEntity
  8
AM_5
100
AcDbBlockReference
  2
_Dot
 10
189.1708800396722
 20
52.76386996344147
 30
0.0
  0
MTEXT
  5
B96B
330
B95A
100
AcDbEntity
  8
AM_5
 62
     2
100
AcDbMText
 10
146.6708900396722
 20
55.86386996344147
 30
0.0
 40
3.200000000000001
 41
0.0
 71
     5
 72
     1
  1
85
 73
     1
 44
1.0
1001
ACAD
1000
MTEXTBEGIN
1070
    73
1070
     1
1070
    44
1040
1.0
1070
    74
1070
     0
1000
MTEXTEND
  0
POINT
  5
B96C
330
B95A
100
AcDbEntity
  8
Defpoints
 62
     0
100
AcDbPoint
 10
104.1709000396721
 20
58.82088496344127
 30
0.0
  0
POINT
  5
B96D
330
B95A
100
AcDbEntity
  8
Defpoints
 62
     0
100
AcDbPoint
 10
189.1708800396722
 20
58.82088496344127
 30
0.0
  0
POINT
  5
B96E
330
B95A
100
AcDbEntity
  8
Defpoints
 62
     0
100
AcDbPoint
 10
189.1708800396722
 20
52.76386996344147
 30
0.0
  0
ENDBLK
  5
B965
330
B95A
100
AcDbEntity
  8
0
100
AcDbBlockEnd
  0
BLOCK
  5
B97A
330
B970
100
AcDbEntity
  8
0
100
AcDbBlockBegin
  2
*D46
 70
     1
 10
0.0
 20
0.0
 30
0.0
  3
*D46
  1

  0
LINE
  5
B97C
330
B970
100
AcDbEntity
  8
AM_5
100
AcDbLine
 10
97.67090003967229
 20
64.32088496344126
 30
0.0
 11
82.17087003967211
 21
64.32088496344127
 31
0.0
  0
LINE
  5
B97D
330
B970
100
AcDbEntity
  8
AM_5
100
AcDbLine
 10
97.67090003967231
 20
234.3208899634412
 30
0.0
 11
82.17087003967215
 21
234.3208899634412
 31
0.0
  0
LINE
  5
B97E
330
B970
100
AcDbEntity
  8
AM_5
100
AcDbLine
 10
83.17087003967211
 20
65.32088496344127
 30
0.0
 11
83.17087003967214
 21
233.3208899634413
 31
0.0
  0
INSERT
  5
B97F
330
B970
100
AcDbEntity
  8
AM_5
100
AcDbBlockReference
  2
_Dot
 10
83.17087003967211
 20
64.32088496344127
 30
0.0
 50
270.0
  0
INSERT
  5
B980
330
B970
100
AcDbEntity
  8
AM_5
100
AcDbBlockReference
  2
_Dot
 10
83.17087003967214
 20
234.3208899634412
 30
0.0
 50
90.0
  0
MTEXT
  5
B981
330
B970
100
AcDbEntity
  8
AM_5
 62
     2
100
AcDbMText
 10
80.07087003967212
 20
149.3208874634413
 30
0.0
 40
3.200000000000001
 41
0.0
 71
     5
 72
     1
  1
170
 11
0.0000000000000001
 21
1.0
 31
0.0
 73
     1
 44
1.0
1001
ACAD
1000
MTEXTBEGIN
1070
    73
1070
     1
1070
    44
1040
1.0
1070
    74
1070
     0
1000
MTEXTEND
  0
POINT
  5
B982
330
B970
100
AcDbEntity
  8
Defpoints
 62
     0
100
AcDbPoint
 10
98.67090003967229
 20
64.32088496344126
 30
0.0
  0
POINT
  5
B983
330
B970
100
AcDbEntity
  8
Defpoints
 62
     0
100
AcDbPoint
 10
98.67090003967231
 20
234.3208899634412
 30
0.0
  0
POINT
  5
B984
330
B970
100
AcDbEntity
  8
Defpoints
 62
     0
100
AcDbPoint
 10
83.17087003967214
 20
234.3208899634412
 30
0.0
  0
ENDBLK
  5
B97B
330
B970
100
AcDbEntity
  8
0
100
AcDbBlockEnd
  0
BLOCK
  5
B990
330
B986
100
AcDbEntity
  8
0
100
AcDbBlockBegin
  2
*D47
 70
     1
 10
0.0
 20
0.0
 30
0.0
  3
*D47
  1

  0
LINE
  5
B992
330
B986
100
AcDbEntity
  8
AM_5
100
AcDbLine
 10
105.6708700396722
 20
227.3208799634413
 30
0.0
 11
92.17087003967227
 21
227.3208799634413
 31
0.0
  0
LINE
  5
B993
330
B986
100
AcDbEntity
  8
AM_5
100
AcDbLine
 10
105.6708700396722
 20
71.32088496344128
 30
0.0
 11
92.17087003967222
 21
71.32088496344128
 31
0.0
  0
LINE
  5
B994
330
B986
100
AcDbEntity
  8
AM_5
100
AcDbLine
 10
93.17087003967227
 20
226.3208799634413
 30
0.0
 11
93.17087003967222
 21
72.32088496344129
 31
0.0
  0
INSERT
  5
B995
330
B986
100
AcDbEntity
  8
AM_5
100
AcDbBlockReference
  2
_Dot
 10
93.17087003967227
 20
227.3208799634413
 30
0.0
 50
90.0
  0
INSERT
  5
B996
330
B986
100
AcDbEntity
  8
AM_5
100
AcDbBlockReference
  2
_Dot
 10
93.17087003967222
 20
71.32088496344128
 30
0.0
 50
270.0
  0
MTEXT
  5
B997
330
B986
100
AcDbEntity
  8
AM_5
 62
     2
100
AcDbMText
 10
90.07087003967223
 20
149.3208824634413
 30
0.0
 40
3.200000000000001
 41
0.0
 71
     5
 72
     1
  1
156
 11
0.0000000000000001
 21
1.0
 31
0.0
 73
     1
 44
1.0
1001
ACAD
1000
MTEXTBEGIN
1070
    73
1070
     1
1070
    44
1040
1.0
1070
    74
1070
     0
1000
MTEXTEND
  0
POINT
  5
B998
330
B986
100
AcDbEntity
  8
Defpoints
 62
     0
100
AcDbPoint
 10
106.6708700396722
 20
227.3208799634413
 30
0.0
  0
POINT
  5
B999
330
B986
100
AcDbEntity
  8
Defpoints
 62
     0
100
AcDbPoint
 10
106.6708700396722
 20
71.32088496344128
 30
0.0
  0
POINT
  5
B99A
330
B986
100
AcDbEntity
  8
Defpoints
 62
     0
100
AcDbPoint
 10
93.17087003967222
 20
71.32088496344128
 30
0.0
  0
ENDBLK
  5
B991
330
B986
100
AcDbEntity
  8
0
100
AcDbBlockEnd
  0
BLOCK
  5
B9A6
330
B99C
100
AcDbEntity
  8
0
100
AcDbBlockBegin
  2
*D48
 70
     1
 10
0.0
 20
0.0
 30
0.0
  3
*D48
  1

  0
LINE
  5
B9A8
330
B99C
100
AcDbEntity
  8
AM_5
100
AcDbLine
 10
106.6708700396722
 20
228.3208799634413
 30
0.0
 11
106.6708700396722
 21
255.3208899634411
 31
0.0
  0
LINE
  5
B9A9
330
B99C
100
AcDbEntity
  8
AM_5
100
AcDbLine
 10
186.6708800396722
 20
228.3208799634413
 30
0.0
 11
186.6708800396722
 21
255.3208899634411
 31
0.0
  0
LINE
  5
B9AA
330
B99C
100
AcDbEntity
  8
AM_5
100
AcDbLine
 10
107.6708700396722
 20
254.3208899634411
 30
0.0
 11
185.6708800396722
 21
254.3208899634411
 31
0.0
  0
INSERT
  5
B9AB
330
B99C
100
AcDbEntity
  8
AM_5
100
AcDbBlockReference
  2
_Dot
 10
106.6708700396722
 20
254.3208899634411
 30
0.0
 50
180.0
  0
INSERT
  5
B9AC
330
B99C
100
AcDbEntity
  8
AM_5
100
AcDbBlockReference
  2
_Dot
 10
186.6708800396722
 20
254.3208899634411
 30
0.0
  0
MTEXT
  5
B9AD
330
B99C
100
AcDbEntity
  8
AM_5
 62
     2
100
AcDbMText
 10
146.6708750396722
 20
257.4208899634411
 30
0.0
 40
3.200000000000001
 41
0.0
 71
     5
 72
     1
  1
80
 73
     1
 44
1.0
1001
ACAD
1000
MTEXTBEGIN
1070
    73
1070
     1
1070
    44
1040
1.0
1070
    74
1070
     0
1000
MTEXTEND
  0
POINT
  5
B9AE
330
B99C
100
AcDbEntity
  8
Defpoints
 62
     0
100
AcDbPoint
 10
106.6708700396722
 20
227.3208799634413
 30
0.0
  0
POINT
  5
B9AF
330
B99C
100
AcDbEntity
  8
Defpoints
 62
     0
100
AcDbPoint
 10
186.6708800396722
 20
227.3208799634413
 30
0.0
  0
POINT
  5
B9B0
330
B99C
100
AcDbEntity
  8
Defpoints
 62
     0
100
AcDbPoint
 10
186.6708800396722
 20
254.3208899634411
 30
0.0
  0
ENDBLK
  5
B9A7
330
B99C
100
AcDbEntity
  8
0
100
AcDbBlockEnd
  0
BLOCK
  5
B9C6
330
B9C0
100
AcDbEntity
  8
0
100
AcDbBlockBegin
  2
*D50
 70
     1
 10
0.0
 20
0.0
 30
0.0
  3
*D50
  1

  0
LINE
  5
BA18
330
B9C0
100
AcDbEntity
  8
AM_5
100
AcDbLine
 10
345.1344041558809
 20
66.96960383875555
 30
0.0
 11
348.9009879234638
 21
61.6721660881272
 31
0.0
  0
LINE
  5
BA19
330
B9C0
100
AcDbEntity
  8
AM_5
100
AcDbLine
 10
350.0599367750277
 20
60.04218524178002
 30
0.0
 11
368.5175764417169
 21
34.08280050717116
 31
0.0
  0
LINE
  5
BA1A
330
B9C0
100
AcDbEntity
  8
AM_5
100
AcDbLine
 10
368.5175764417169
 20
34.08280050717116
 30
0.0
 11
401.3075764417169
 21
34.08280050717116
 31
0.0
  0
INSERT
  5
BA1B
330
B9C0
100
AcDbEntity
  8
AM_5
100
AcDbBlockReference
  2
GENDOT
 10
343.9754553043171
 20
68.59958468510273
 30
0.0
 41
2.0
 42
2.0
 43
2.0
 50
125.4135850348365
  0
INSERT
  5
BA1C
330
B9C0
100
AcDbEntity
  8
AM_5
100
AcDbBlockReference
  2
GENDOT
 10
350.0599367750277
 20
60.04218524178002
 30
0.0
 41
2.0
 42
2.0
 43
2.0
 50
305.4135850348365
  0
MTEXT
  5
BA1D
330
B9C0
100
AcDbEntity
  8
AM_5
 62
     2
100
AcDbMText
 10
385.662576441717
 20
37.3328005071713
 30
0.0
 40
3.5
 41
0.0
 71
     5
 72
     1
  1
4-%%c5.5×\U+220510.5サラ
 73
     1
 44
1.0
1001
ACAD
1000
MTEXTBEGIN
1070
    73
1070
     1
1070
    44
1040
1.0
1070
    74
1070
     0
1000
MTEXTEND
  0
POINT
  5
BA1E
330
B9C0
100
AcDbEntity
  8
Defpoints
 62
     0
100
AcDbPoint
 10
350.0599367750277
 20
60.04218524178002
 30
0.0
  0
POINT
  5
BA1F
330
B9C0
100
AcDbEntity
  8
Defpoints
 62
     0
100
AcDbPoint
 10
343.9754553043171
 20
68.59958468510273
 30
0.0
  0
ENDBLK
  5
B9C7
330
B9C0
100
AcDbEntity
  8
0
100
AcDbBlockEnd
  0
BLOCK
  5
BA06
330
BA03
100
AcDbEntity
  8
0
100
AcDbBlockBegin
  2
GENDOT
 70
     0
 10
0.0
 20
0.0
 30
0.0
  3
GENDOT
  1

  0
LINE
  5
BA04
330
BA03
100
AcDbEntity
  8
0
100
AcDbLine
 10
0.0
 20
0.0
 30
0.0
 11
-1.0
 21
0.0
 31
0.0
  0
LWPOLYLINE
  5
BA05
330
BA03
100
AcDbEntity
  8
0
100
AcDbPolyline
 90
        2
 70
     1
 43
0.25
 10
-0.125
 20
0.0
 42
1.0
 10
0.125
 20
0.0
 42
1.0
  0
ENDBLK
  5
BA07
330
BA03
100
AcDbEntity
  8
0
100
AcDbBlockEnd
  0
ENDSEC
  0
SECTION
  2
ENTITIES
  0
POINT
  5
B6C7
330
1F
100
AcDbEntity
  8
AM_6
100
AcDbPoint
 10
24.00000003967216
 20
390.4999999634413
 30
0.0
  0
POINT
  5
B6C8
330
1F
100
AcDbEntity
  8
AM_6
100
AcDbPoint
 10
24.00000003967216
 20
382.4999999634412
 30
0.0
  0
POINT
  5
B6C9
330
1F
100
AcDbEntity
  8
AM_6
100
AcDbPoint
 10
24.00000003967216
 20
374.4999999634412
 30
0.0
  0
POINT
  5
B6CA
330
1F
100
AcDbEntity
  8
AM_6
100
AcDbPoint
 10
24.00000003967216
 20
366.4999999634413
 30
0.0
  0
POINT
  5
B6CB
330
1F
100
AcDbEntity
  8
AM_6
100
AcDbPoint
 10
24.00000003967216
 20
358.4999999634412
 30
0.0
  0
POINT
  5
B6CC
330
1F
100
AcDbEntity
  8
AM_6
100
AcDbPoint
 10
24.00000003967216
 20
350.4999999634411
 30
0.0
  0
POINT
  5
B6CD
330
1F
100
AcDbEntity
  8
AM_6
100
AcDbPoint
 10
24.00000003967216
 20
342.4999999634413
 30
0.0
  0
POINT
  5
B6CE
330
1F
100
AcDbEntity
  8
AM_6
100
AcDbPoint
 10
24.00000003967216
 20
334.4999999634413
 30
0.0
  0
POINT
  5
B6CF
330
1F
100
AcDbEntity
  8
AM_6
100
AcDbPoint
 10
24.00000003967216
 20
326.4999999634413
 30
0.0
  0
POINT
  5
B6D0
330
1F
100
AcDbEntity
  8
AM_6
100
AcDbPoint
 10
24.00000003967216
 20
318.4999999634413
 30
0.0
  0
POINT
  5
B6D1
330
1F
100
AcDbEntity
  8
0
  6
Continuous
 62
     7
100
AcDbPoint
 10
304.5176930396721
 20
244.3208899634412
 30
0.0
  0
POINT
  5
B6D2
330
1F
100
AcDbEntity
  8
0
  6
Continuous
 62
     7
100
AcDbPoint
 10
304.5176930396721
 20
244.3208899634412
 30
0.0
  0
POINT
  5
B6D3
330
1F
100
AcDbEntity
  8
0
  6
Continuous
 62
     7
100
AcDbPoint
 10
304.5176930396721
 20
343.7687799634412
 30
0.0
  0
POINT
  5
B6D4
330
1F
100
AcDbEntity
  8
0
  6
Continuous
 62
     7
100
AcDbPoint
 10
304.5176930396721
 20
343.7687799634412
 30
0.0
  0
POINT
  5
B6D5
330
1F
100
AcDbEntity
  8
0
  6
Continuous
 62
     7
100
AcDbPoint
 10
372.0176960396722
 20
244.3208899634412
 30
0.0
  0
POINT
  5
B6D6
330
1F
100
AcDbEntity
  8
0
  6
Continuous
 62
     7
100
AcDbPoint
 10
382.0176961396722
 20
244.3208899634412
 30
0.0
  0
POINT
  5
B6D7
330
1F
100
AcDbEntity
  8
0
  6
Continuous
 62
     7
100
AcDbPoint
 10
304.5176930396721
 20
353.7687799634412
 30
0.0
  0
POINT
  5
B6D8
330
1F
100
AcDbEntity
  8
0
  6
Continuous
 62
     7
100
AcDbPoint
 10
357.0176960396722
 20
39.32088496344126
 30
0.0
  0
POINT
  5
B6D9
330
1F
100
AcDbEntity
  8
0
  6
Continuous
 62
     7
100
AcDbPoint
 10
349.9324800396721
 20
59.95821396344126
 30
0.0
  0
POINT
  5
B6DA
330
1F
100
AcDbEntity
  8
0
  6
Continuous
 62
     7
100
AcDbPoint
 10
106.6708700396722
 20
227.3208799634413
 30
0.0
  0
POINT
  5
B6DB
330
1F
100
AcDbEntity
  8
0
  6
Continuous
 62
     7
100
AcDbPoint
 10
93.17087003967225
 20
227.3208799634413
 30
0.0
  0
POINT
  5
B6DC
330
1F
100
AcDbEntity
  8
0
  6
Continuous
 62
     7
100
AcDbPoint
 10
104.1709000396721
 20
234.3208899634412
 30
0.0
  0
POINT
  5
B6DD
330
1F
100
AcDbEntity
  8
AM_7
100
AcDbPoint
 10
189.1708800396722
 20
234.3208899634412
 30
0.0
  0
POINT
  5
B6DE
330
1F
100
AcDbEntity
  8
AM_7
100
AcDbPoint
 10
189.1708800396722
 20
234.3208899634412
 30
0.0
  0
POINT
  5
B6DF
330
1F
100
AcDbEntity
  8
AM_7
100
AcDbPoint
 10
189.1708800396722
 20
64.32088496344126
 30
0.0
  0
POINT
  5
B6E0
330
1F
100
AcDbEntity
  8
AM_7
100
AcDbPoint
 10
104.1709000396721
 20
64.32088496344126
 30
0.0
  0
POINT
  5
B6E1
330
1F
100
AcDbEntity
  8
0
  6
Continuous
 62
     7
100
AcDbPoint
 10
83.17087003967225
 20
227.3208799634413
 30
0.0
  0
POINT
  5
B6E2
330
1F
100
AcDbEntity
  8
0
  6
Continuous
 62
     7
100
AcDbPoint
 10
102.2473800396721
 20
235.9381699634412
 30
0.0
  0
LINE
  5
B6E3
330
1F
100
AcDbEntity
  8
AM_0
100
AcDbLine
 10
555.0000000396721
 20
394.4999999634412
 30
0.0
 11
555.0000000396721
 21
-0.0000000365587312
 31
0.0
  0
LINE
  5
B6E4
330
1F
100
AcDbEntity
  8
AM_0
100
AcDbLine
 10
0.0000000396721589
 20
-0.0000000365587312
 30
0.0
 11
555.0000000396721
 21
-0.0000000365587312
 31
0.0
  0
LINE
  5
B6E5
330
1F
100
AcDbEntity
  8
AM_0
100
AcDbLine
 10
0.0000000396721589
 20
394.4999999634412
 30
0.0
 11
555.0000000396721
 21
394.4999999634412
 31
0.0
  0
LINE
  5
B6E6
330
1F
100
AcDbEntity
  8
AM_0
100
AcDbLine
 10
0.0000000396721589
 20
394.4999999634412
 30
0.0
 11
0.0000000396721589
 21
-0.0000000365587312
 31
0.0
  0
LINE
  5
B6E7
330
1F
100
AcDbEntity
  8
AM_2
100
AcDbLine
 10
20.00000003967216
 20
394.4999999634412
 30
0.0
 11
20.00000003967216
 21
314.4999999634413
 31
0.0
  0
LINE
  5
B6E8
330
1F
100
AcDbEntity
  8
AM_2
100
AcDbLine
 10
0.0000000396721589
 20
386.4999999634413
 30
0.0
 11
110.0000000396721
 21
386.4999999634413
 31
0.0
  0
LINE
  5
B6E9
330
1F
100
AcDbEntity
  8
AM_2
100
AcDbLine
 10
0.0000000396721589
 20
378.4999999634413
 30
0.0
 11
110.0000000396721
 21
378.4999999634413
 31
0.0
  0
LINE
  5
B6EA
330
1F
100
AcDbEntity
  8
AM_2
100
AcDbLine
 10
0.0000000396721589
 20
370.4999999634413
 30
0.0
 11
110.0000000396721
 21
370.4999999634413
 31
0.0
  0
LINE
  5
B6EB
330
1F
100
AcDbEntity
  8
AM_2
100
AcDbLine
 10
0.0000000396721589
 20
362.4999999634413
 30
0.0
 11
110.0000000396721
 21
362.4999999634413
 31
0.0
  0
LINE
  5
B6EC
330
1F
100
AcDbEntity
  8
AM_2
100
AcDbLine
 10
20.00000003967216
 20
354.4999999634411
 30
0.0
 11
110.0000000396721
 21
354.4999999634411
 31
0.0
  0
LINE
  5
B6ED
330
1F
100
AcDbEntity
  8
AM_2
100
AcDbLine
 10
20.00000003967216
 20
346.4999999634411
 30
0.0
 11
110.0000000396721
 21
346.4999999634411
 31
0.0
  0
LINE
  5
B6EE
330
1F
100
AcDbEntity
  8
AM_2
100
AcDbLine
 10
0.0000000396721589
 20
338.4999999634413
 30
0.0
 11
110.0000000396721
 21
338.4999999634413
 31
0.0
  0
LINE
  5
B6EF
330
1F
100
AcDbEntity
  8
AM_2
100
AcDbLine
 10
20.00000003967216
 20
330.4999999634413
 30
0.0
 11
110.0000000396721
 21
330.4999999634413
 31
0.0
  0
LINE
  5
B6F0
330
1F
100
AcDbEntity
  8
AM_2
100
AcDbLine
 10
20.00000003967216
 20
322.4999999634413
 30
0.0
 11
110.0000000396721
 21
322.4999999634413
 31
0.0
  0
LINE
  5
B6F1
330
1F
100
AcDbEntity
  8
AM_0
100
AcDbLine
 10
0.0000000396721589
 20
314.4999999634413
 30
0.0
 11
110.0000000396721
 21
314.4999999634413
 31
0.0
  0
LINE
  5
B6F2
330
1F
100
AcDbEntity
  8
0
  6
Continuous
 62
     7
100
AcDbLine
 10
0.0000000396721589
 20
394.4999999634412
 30
0.0
 11
0.0000000396721589
 21
314.4999999634413
 31
0.0
  0
LINE
  5
B6F3
330
1F
100
AcDbEntity
  8
0
  6
Continuous
 62
     7
100
AcDbLine
 10
0.0000000396721589
 20
394.4999999634412
 30
0.0
 11
110.0000000396721
 21
394.4999999634412
 31
0.0
  0
LINE
  5
B6F4
330
1F
100
AcDbEntity
  8
AM_0
100
AcDbLine
 10
110.0000000396721
 20
394.4999999634412
 30
0.0
 11
110.0000000396721
 21
314.4999999634413
 31
0.0
  0
LINE
  5
B6F5
330
1F
100
AcDbEntity
  8
0
  6
Continuous
 62
     7
100
AcDbLine
 10
0.0000000396721589
 20
-0.0000000365587312
 30
0.0
 11
110.0000000396721
 21
-0.0000000365587312
 31
0.0
  0
LINE
  5
B6F6
330
1F
100
AcDbEntity
  8
0
  6
Continuous
 62
     7
100
AcDbLine
 10
0.0000000396721589
 20
79.99999996344127
 30
0.0
 11
0.0000000396721589
 21
-0.0000000365587312
 31
0.0
  0
LINE
  5
B6F7
330
1F
100
AcDbEntity
  8
AM_0
100
AcDbLine
 10
333.2677040396721
 20
324.7584699634412
 30
0.0
 11
332.0177040396722
 21
323.2687699634413
 31
0.0
  0
LINE
  5
B6F8
330
1F
100
AcDbEntity
  8
AM_7
100
AcDbLine
 10
347.0176960396722
 20
243.3208899634412
 30
0.0
 11
347.0176960396722
 21
225.3208799634413
 31
0.0
  0
LINE
  5
B6F9
330
1F
100
AcDbEntity
  8
AM_7
100
AcDbLine
 10
304.5176930396721
 20
247.3208899634412
 30
0.0
 11
304.5176930396721
 21
51.32088496344127
 31
0.0
  0
LINE
  5
B6FA
330
1F
100
AcDbEntity
  8
AM_7
100
AcDbLine
 10
262.0176900396722
 20
55.32088496344126
 30
0.0
 11
262.0176900396722
 21
73.32088496344127
 31
0.0
  0
LINE
  5
B6FB
330
1F
100
AcDbEntity
  8
AM_7
100
AcDbLine
 10
253.0177000396721
 20
64.32088496344126
 30
0.0
 11
271.0176900396722
 21
64.32088496344126
 31
0.0
  0
LINE
  5
B6FC
330
1F
100
AcDbEntity
  8
AM_7
100
AcDbLine
 10
347.0176960396722
 20
55.32088496344126
 30
0.0
 11
347.0176960396722
 21
73.32088496344127
 31
0.0
  0
LINE
  5
B6FD
330
1F
100
AcDbEntity
  8
AM_0
100
AcDbLine
 10
284.5176900396722
 20
323.2687799634412
 30
0.0
 11
284.5176900396722
 21
320.2687799634412
 31
0.0
  0
LINE
  5
B6FE
330
1F
100
AcDbEntity
  8
AM_0
100
AcDbLine
 10
347.0177000396721
 20
338.1657099634413
 30
0.0
 11
334.5176930396722
 21
323.2687699634413
 31
0.0
  0
LINE
  5
B6FF
330
1F
100
AcDbEntity
  8
AM_0
100
AcDbLine
 10
324.5176960396721
 20
323.2687799634412
 30
0.0
 11
324.5176960396721
 21
320.2687799634412
 31
0.0
  0
LINE
  5
B700
330
1F
100
AcDbEntity
  8
AM_7
100
AcDbLine
 10
253.0177000396721
 20
234.3208899634412
 30
0.0
 11
271.0176900396722
 21
234.3208899634412
 31
0.0
  0
LINE
  5
B701
330
1F
100
AcDbEntity
  8
AM_7
100
AcDbLine
 10
262.0176900396722
 20
243.3208899634412
 30
0.0
 11
262.0176900396722
 21
225.3208799634413
 31
0.0
  0
LINE
  5
B702
330
1F
100
AcDbEntity
  8
AM_7
100
AcDbLine
 10
356.0176960396721
 20
234.3208899634412
 30
0.0
 11
338.0176960396722
 21
234.3208899634412
 31
0.0
  0
LINE
  5
B703
330
1F
100
AcDbEntity
  8
AM_0
100
AcDbLine
 10
358.2676960396721
 20
312.7687799634412
 30
0.0
 11
358.2676960396721
 21
309.7687799634412
 31
0.0
  0
LINE
  5
B704
330
1F
100
AcDbEntity
  8
AM_0
100
AcDbLine
 10
332.0176930396722
 20
323.2687799634412
 30
0.0
 11
324.5176960396721
 21
323.2687799634412
 31
0.0
  0
LINE
  5
B705
330
1F
100
AcDbEntity
  8
AM_0
100
AcDbLine
 10
345.5451130396722
 20
340.2687799634412
 30
0.0
 11
343.8926960396722
 21
340.2687799634412
 31
0.0
  0
LINE
  5
B706
330
1F
100
AcDbEntity
  8
AM_0
100
AcDbLine
 10
347.0177000396721
 20
338.1657099634413
 30
0.0
 11
345.5451200396721
 21
340.2687799634412
 31
0.0
  0
LINE
  5
B707
330
1F
100
AcDbEntity
  8
AM_0
100
AcDbLine
 10
343.8926960396722
 20
341.5687899634412
 30
0.0
 11
343.8926960396722
 21
340.2687799634412
 31
0.0
  0
LINE
  5
B708
330
1F
100
AcDbEntity
  8
AM_0
100
AcDbLine
 10
334.5176930396722
 20
323.2687699634413
 30
0.0
 11
333.2677000396722
 21
324.7584499634413
 31
0.0
  0
LINE
  5
B709
330
1F
100
AcDbEntity
  8
AM_0
100
AcDbLine
 10
345.8926960396722
 20
342.7687799634413
 30
0.0
 11
345.8926960396722
 21
341.2687799634412
 31
0.0
  0
LINE
  5
B70A
330
1F
100
AcDbEntity
  8
AM_7
100
AcDbLine
 10
356.0176960396721
 20
64.32088496344126
 30
0.0
 11
338.0176960396722
 21
64.32088496344126
 31
0.0
  0
LINE
  5
B70B
330
1F
100
AcDbEntity
  8
AM_0
100
AcDbLine
 10
252.0177000396722
 20
244.3208899634412
 30
0.0
 11
252.0177000396722
 21
54.32088496344126
 31
0.0
  0
LINE
  5
B70C
330
1F
100
AcDbEntity
  8
AM_0
100
AcDbLine
 10
252.0177000396722
 20
244.3208899634412
 30
0.0
 11
357.0176960396722
 21
244.3208899634412
 31
0.0
  0
LINE
  5
B70D
330
1F
100
AcDbEntity
  8
AM_0
100
AcDbLine
 10
252.0177000396722
 20
54.32088496344126
 30
0.0
 11
357.0176960396722
 21
54.32088496344126
 31
0.0
  0
LINE
  5
B70E
330
1F
100
AcDbEntity
  8
AM_0
100
AcDbLine
 10
357.0176960396722
 20
244.3208899634412
 30
0.0
 11
357.0176960396722
 21
54.32088496344126
 31
0.0
  0
LINE
  5
B70F
330
1F
100
AcDbEntity
  8
AM_0
100
AcDbLine
 10
287.0176930396722
 20
223.8208799634413
 30
0.0
 11
287.0176930396722
 21
74.82088496344127
 31
0.0
  0
LINE
  5
B710
330
1F
100
AcDbEntity
  8
AM_0
100
AcDbLine
 10
322.0176960396722
 20
223.8208799634413
 30
0.0
 11
322.0176960396722
 21
74.82088496344127
 31
0.0
  0
LINE
  5
B711
330
1F
100
AcDbEntity
  8
AM_0
100
AcDbLine
 10
326.3926960396722
 20
320.2687799634412
 30
0.0
 11
324.5176960396721
 21
320.2687799634412
 31
0.0
  0
LINE
  5
B712
330
1F
100
AcDbEntity
  8
AM_0
100
AcDbLine
 10
250.7677000396721
 20
312.7687799634412
 30
0.0
 11
250.7677000396721
 21
309.7687799634412
 31
0.0
  0
LINE
  5
B713
330
1F
100
AcDbEntity
  8
AM_0
100
AcDbLine
 10
250.7677000396721
 20
309.7687799634412
 30
0.0
 11
304.5176930396721
 21
309.7687799634412
 31
0.0
  0
LINE
  5
B714
330
1F
100
AcDbEntity
  8
AM_0
100
AcDbLine
 10
264.1426900396722
 20
343.7687799634412
 30
0.0
 11
303.2676930396722
 21
343.7687799634412
 31
0.0
  0
LINE
  5
B715
330
1F
100
AcDbEntity
  8
AM_0
100
AcDbLine
 10
250.7677000396721
 20
312.7687799634412
 30
0.0
 11
304.5176930396721
 21
312.7687799634412
 31
0.0
  0
LINE
  5
B716
330
1F
100
AcDbEntity
  8
AM_7
100
AcDbLine
 10
304.5176930396721
 20
346.7687799634412
 30
0.0
 11
304.5176930396721
 21
306.7687799634412
 31
0.0
  0
LINE
  5
B717
330
1F
100
AcDbEntity
  8
AM_0
100
AcDbLine
 10
326.3926960396722
 20
320.2687799634412
 30
0.0
 11
326.3926960396722
 21
312.7687799634412
 31
0.0
  0
LINE
  5
B718
330
1F
100
AcDbEntity
  8
AM_0
100
AcDbLine
 10
282.6426900396723
 20
320.2687799634412
 30
0.0
 11
282.6426900396723
 21
312.7687799634412
 31
0.0
  0
LINE
  5
B719
330
1F
100
AcDbEntity
  8
AM_0
100
AcDbLine
 10
282.6426900396723
 20
320.2687799634412
 30
0.0
 11
284.5176900396722
 21
320.2687799634412
 31
0.0
  0
LINE
  5
B71A
330
1F
100
AcDbEntity
  8
AM_0
100
AcDbLine
 10
275.7676900396722
 20
324.7584699634412
 30
0.0
 11
277.0176900396722
 21
323.2687799634412
 31
0.0
  0
LINE
  5
B71B
330
1F
100
AcDbEntity
  8
AM_0
100
AcDbLine
 10
277.0177000396722
 20
323.2687799634412
 30
0.0
 11
284.5176900396722
 21
323.2687799634412
 31
0.0
  0
LINE
  5
B71C
330
1F
100
AcDbEntity
  8
AM_0
100
AcDbLine
 10
262.0177000396723
 20
338.1656999634413
 30
0.0
 11
274.5177000396723
 21
323.2687799634412
 31
0.0
  0
LINE
  5
B71D
330
1F
100
AcDbEntity
  8
AM_0
100
AcDbLine
 10
263.4902800396722
 20
340.2687799634412
 30
0.0
 11
265.1426900396722
 21
340.2687799634412
 31
0.0
  0
LINE
  5
B71E
330
1F
100
AcDbEntity
  8
AM_0
100
AcDbLine
 10
262.0177000396723
 20
338.1657099634413
 30
0.0
 11
263.4902800396722
 21
340.2687699634413
 31
0.0
  0
LINE
  5
B71F
330
1F
100
AcDbEntity
  8
AM_0
100
AcDbLine
 10
265.1426900396722
 20
341.5687899634412
 30
0.0
 11
265.1426900396722
 21
340.2687799634412
 31
0.0
  0
LINE
  5
B720
330
1F
100
AcDbEntity
  8
AM_0
100
AcDbLine
 10
263.1426900396722
 20
342.7687799634413
 30
0.0
 11
263.1426900396722
 21
341.2687799634412
 31
0.0
  0
LINE
  5
B721
330
1F
100
AcDbEntity
  8
AM_0
100
AcDbLine
 10
265.3427000396721
 20
341.7687799634412
 30
0.0
 11
304.5176930396721
 21
341.7687799634412
 31
0.0
  0
LINE
  5
B722
330
1F
100
AcDbEntity
  8
AM_0
100
AcDbLine
 10
274.5177000396723
 20
323.2687799634412
 30
0.0
 11
275.7676900396722
 21
324.7584699634412
 31
0.0
  0
LINE
  5
B723
330
1F
100
AcDbEntity
  8
AM_0
100
AcDbLine
 10
305.7676930396722
 20
343.7687799634412
 30
0.0
 11
344.8926960396722
 21
343.7687799634412
 31
0.0
  0
LINE
  5
B724
330
1F
100
AcDbEntity
  8
AM_0
100
AcDbLine
 10
304.5176930396721
 20
341.7687799634412
 30
0.0
 11
343.6926960396722
 21
341.7687799634412
 31
0.0
  0
LINE
  5
B725
330
1F
100
AcDbEntity
  8
AM_0
100
AcDbLine
 10
304.5176930396721
 20
312.7687799634412
 30
0.0
 11
358.2676960396721
 21
312.7687799634412
 31
0.0
  0
LINE
  5
B726
330
1F
100
AcDbEntity
  8
AM_0
100
AcDbLine
 10
304.5176930396721
 20
309.7687799634412
 30
0.0
 11
358.2676960396721
 21
309.7687799634412
 31
0.0
  0
LINE
  5
B727
330
1F
100
AcDbEntity
  8
AM_0
100
AcDbLine
 10
287.0176930396722
 20
223.8208799634413
 30
0.0
 11
322.0176960396722
 21
223.8208799634413
 31
0.0
  0
LINE
  5
B728
330
1F
100
AcDbEntity
  8
AM_0
100
AcDbLine
 10
287.0176930396722
 20
74.82088496344127
 30
0.0
 11
322.0176960396722
 21
74.82088496344127
 31
0.0
  0
LINE
  5
B729
330
1F
100
AcDbEntity
  8
AM_7
100
AcDbLine
 10
146.6708800396721
 20
230.3208899634412
 30
0.0
 11
146.6708800396721
 21
68.32088496344127
 31
0.0
  0
LINE
  5
B72A
330
1F
100
AcDbEntity
  8
AM_0
100
AcDbLine
 10
106.6708700396722
 20
227.3208799634413
 30
0.0
 11
106.6708700396722
 21
71.32088496344128
 31
0.0
  0
LINE
  5
B72B
330
1F
100
AcDbEntity
  8
AM_0
100
AcDbLine
 10
186.6708800396722
 20
227.3208799634413
 30
0.0
 11
186.6708800396722
 21
71.32088496344128
 31
0.0
  0
LINE
  5
B72C
330
1F
100
AcDbEntity
  8
AM_7
100
AcDbLine
 10
103.6708700396722
 20
149.3208849634412
 30
0.0
 11
189.6708800396722
 21
149.3208849634412
 31
0.0
  0
LINE
  5
B72D
330
1F
100
AcDbEntity
  8
AM_7
100
AcDbLine
 10
249.0177000396721
 20
149.3208849634412
 30
0.0
 11
360.0176960396721
 21
149.3208849634412
 31
0.0
  0
LINE
  5
B72E
330
1F
100
AcDbEntity
  8
AM_0
100
AcDbLine
 10
106.6708700396722
 20
71.32088496344128
 30
0.0
 11
186.6708800396722
 21
71.32088496344128
 31
0.0
  0
LINE
  5
B72F
330
1F
100
AcDbEntity
  8
AM_0
100
AcDbLine
 10
106.6708700396722
 20
227.3208799634413
 30
0.0
 11
186.6708800396722
 21
227.3208799634413
 31
0.0
  0
LINE
  5
B730
330
1F
100
AcDbEntity
  8
AM_7
100
AcDbLine
 10
104.1709000396721
 20
239.8208899634412
 30
0.0
 11
104.1709000396721
 21
228.8208899634412
 31
0.0
  0
LINE
  5
B731
330
1F
100
AcDbEntity
  8
AM_7
100
AcDbLine
 10
98.67090003967229
 20
234.3208899634412
 30
0.0
 11
109.6709000396721
 21
234.3208899634412
 31
0.0
  0
LINE
  5
B732
330
1F
100
AcDbEntity
  8
AM_7
100
AcDbLine
 10
189.1708800396722
 20
239.8208899634412
 30
0.0
 11
189.1708800396722
 21
228.8208899634412
 31
0.0
  0
LINE
  5
B733
330
1F
100
AcDbEntity
  8
AM_7
100
AcDbLine
 10
183.6708800396722
 20
234.3208899634412
 30
0.0
 11
194.6708800396722
 21
234.3208899634412
 31
0.0
  0
LINE
  5
B734
330
1F
100
AcDbEntity
  8
AM_7
100
AcDbLine
 10
189.1708800396722
 20
69.82088496344127
 30
0.0
 11
189.1708800396722
 21
58.82088496344127
 31
0.0
  0
LINE
  5
B735
330
1F
100
AcDbEntity
  8
AM_7
100
AcDbLine
 10
183.6708800396722
 20
64.32088496344126
 30
0.0
 11
194.6708800396722
 21
64.32088496344126
 31
0.0
  0
LINE
  5
B736
330
1F
100
AcDbEntity
  8
AM_7
100
AcDbLine
 10
104.1709000396721
 20
69.82088496344127
 30
0.0
 11
104.1709000396721
 21
58.82088496344127
 31
0.0
  0
LINE
  5
B737
330
1F
100
AcDbEntity
  8
AM_7
100
AcDbLine
 10
98.67090003967229
 20
64.32088496344126
 30
0.0
 11
109.6709000396721
 21
64.32088496344126
 31
0.0
  0
CIRCLE
  5
B738
330
1F
100
AcDbEntity
  8
AM_0
100
AcDbCircle
 10
262.0176900396722
 20
64.32088496344126
 30
0.0
 40
2.75
  0
CIRCLE
  5
B739
330
1F
100
AcDbEntity
  8
AM_0
100
AcDbCircle
 10
347.0176960396722
 20
234.3208899634412
 30
0.0
 40
5.25
  0
CIRCLE
  5
B73A
330
1F
100
AcDbEntity
  8
AM_0
100
AcDbCircle
 10
347.0176960396722
 20
234.3208899634412
 30
0.0
 40
2.75
  0
CIRCLE
  5
B73B
330
1F
100
AcDbEntity
  8
AM_0
100
AcDbCircle
 10
347.0176960396722
 20
64.32088496344126
 30
0.0
 40
5.25
  0
CIRCLE
  5
B73C
330
1F
100
AcDbEntity
  8
AM_0
100
AcDbCircle
 10
347.0176960396722
 20
64.32088496344126
 30
0.0
 40
2.75
  0
ARC
  5
B73D
330
1F
100
AcDbEntity
  8
AM_0
100
AcDbCircle
 10
344.8926960396722
 20
342.7687799634413
 30
0.0
 40
1.0
100
AcDbArc
 50
0.0
 51
90.0
  0
ARC
  5
B73E
330
1F
100
AcDbEntity
  8
AM_0
100
AcDbCircle
 10
344.8926960396722
 20
341.2687799634412
 30
0.0
 40
1.0
100
AcDbArc
 50
270.0
 51
0.0
  0
CIRCLE
  5
B73F
330
1F
100
AcDbEntity
  8
AM_0
100
AcDbCircle
 10
262.0176900396722
 20
234.3208899634412
 30
0.0
 40
5.25
  0
CIRCLE
  5
B740
330
1F
100
AcDbEntity
  8
AM_0
100
AcDbCircle
 10
262.0176900396722
 20
234.3208899634412
 30
0.0
 40
2.75
  0
CIRCLE
  5
B741
330
1F
100
AcDbEntity
  8
AM_0
100
AcDbCircle
 10
262.0176900396722
 20
64.32088496344126
 30
0.0
 40
5.25
  0
ARC
  5
B742
330
1F
100
AcDbEntity
  8
AM_0
100
AcDbCircle
 10
343.6926960396722
 20
341.5687899634412
 30
0.0
 40
0.2
100
AcDbArc
 50
0.0
 51
90.0
  0
ARC
  5
B743
330
1F
100
AcDbEntity
  8
AM_0
100
AcDbCircle
 10
264.1426900396722
 20
342.7687799634413
 30
0.0
 40
1.0
100
AcDbArc
 50
90.0
 51
180.0
  0
ARC
  5
B744
330
1F
100
AcDbEntity
  8
AM_0
100
AcDbCircle
 10
264.1426900396722
 20
341.2687799634412
 30
0.0
 40
1.0
100
AcDbArc
 50
180.0
 51
270.0
  0
ARC
  5
B745
330
1F
100
AcDbEntity
  8
AM_0
100
AcDbCircle
 10
265.3427000396721
 20
341.5687899634412
 30
0.0
 40
0.2
100
AcDbArc
 50
90.0
 51
180.0
  0
CIRCLE
  5
B746
330
1F
100
AcDbEntity
  8
0
  6
Continuous
 62
     7
100
AcDbCircle
 10
349.9324800396721
 20
59.95821396344126
 30
0.0
 40
0.30000001
  0
CIRCLE
  5
B747
330
1F
100
AcDbEntity
  8
AM_2
100
AcDbCircle
 10
104.1709000396721
 20
234.3208899634412
 30
0.0
 40
2.5
  0
CIRCLE
  5
B748
330
1F
100
AcDbEntity
  8
AM_0
100
AcDbCircle
 10
104.1709000396721
 20
234.3208899634412
 30
0.0
 40
2.0
  0
CIRCLE
  5
B749
330
1F
100
AcDbEntity
  8
AM_0
100
AcDbCircle
 10
189.1708800396722
 20
234.3208899634412
 30
0.0
 40
2.0
  0
CIRCLE
  5
B74A
330
1F
100
AcDbEntity
  8
AM_2
100
AcDbCircle
 10
189.1708800396722
 20
234.3208899634412
 30
0.0
 40
2.5
  0
CIRCLE
  5
B74B
330
1F
100
AcDbEntity
  8
AM_0
100
AcDbCircle
 10
189.1708800396722
 20
64.32088496344126
 30
0.0
 40
2.0
  0
CIRCLE
  5
B74C
330
1F
100
AcDbEntity
  8
AM_2
100
AcDbCircle
 10
189.1708800396722
 20
64.32088496344126
 30
0.0
 40
2.5
  0
CIRCLE
  5
B74D
330
1F
100
AcDbEntity
  8
AM_0
100
AcDbCircle
 10
104.1709000396721
 20
64.32088496344126
 30
0.0
 40
2.0
  0
CIRCLE
  5
B74E
330
1F
100
AcDbEntity
  8
AM_2
100
AcDbCircle
 10
104.1709000396721
 20
64.32088496344126
 30
0.0
 40
2.5
  0
TEXT
  5
B750
330
1F
100
AcDbEntity
  8
AM_6
100
AcDbText
 10
5.657000039672141
 20
388.8999999634411
 30
0.0
 40
3.2
  1
品　名
 41
0.85537027
100
AcDbText
  0
TEXT
  5
B751
330
1F
100
AcDbEntity
  8
AM_6
100
AcDbText
 10
5.657000039672141
 20
380.8999999634412
 30
0.0
 40
3.2
  1
品　番
 41
0.85537027
100
AcDbText
  0
TEXT
  5
B752
330
1F
100
AcDbEntity
  8
AM_6
100
AcDbText
 10
5.657000039672141
 20
372.8999999634412
 30
0.0
 40
3.2
  1
材　質
 41
0.85537027
100
AcDbText
  0
TEXT
  5
B753
330
1F
100
AcDbEntity
  8
AM_6
100
AcDbText
 10
5.657000039672141
 20
364.8999999634412
 30
0.0
 40
3.2
  1
仕上げ
 41
0.85537027
100
AcDbText
  0
TEXT
  5
B754
330
1F
100
AcDbEntity
  8
AM_6
100
AcDbText
 10
2.457000039672152
 20
356.8999999634412
 30
0.0
 40
3.2
  1
セットビス
 41
0.84892707
100
AcDbText
  0
TEXT
  5
B755
330
1F
100
AcDbEntity
  8
AM_6
100
AcDbText
 10
7.257000039672107
 20
332.8999999634413
 30
0.0
 40
3.2
  1
備考
 41
0.8643907499999999
100
AcDbText
  0
TEXT
  5
B756
330
1F
100
AcDbEntity
  8
AM_6
100
AcDbText
 10
22.85700003967213
 20
388.8999999634411
 30
0.0
 40
3.2
  1
倉庫ドアー取手
 41
0.84634979
100
AcDbText
  0
TEXT
  5
B757
330
1F
100
AcDbEntity
  8
AM_6
100
AcDbText
 10
22.85700003967213
 20
380.8999999634412
 30
0.0
 40
3.2
  1
DU-150
 41
1.094241999999999
100
AcDbText
  0
TEXT
  5
B758
330
1F
100
AcDbEntity
  8
AM_6
100
AcDbText
 10
22.85700003967213
 20
372.8999999634412
 30
0.0
 40
3.2
  1
スチール
 41
0.8512700499999999
100
AcDbText
  0
TEXT
  5
B759
330
1F
100
AcDbEntity
  8
AM_6
100
AcDbText
 10
22.85700003967213
 20
364.8999999634412
 30
0.0
 40
3.2
  1
焼付塗装
 41
0.8512700499999999
100
AcDbText
  0
TEXT
  5
B75A
330
1F
100
AcDbEntity
  8
AM_6
100
AcDbText
 10
22.85700003967213
 20
356.8999999634412
 30
0.0
 40
3.2
  1
*
100
AcDbText
  0
TEXT
  5
B75B
330
1F
100
AcDbEntity
  8
AM_6
100
AcDbText
 10
22.85700003967213
 20
348.8999999634412
 30
0.0
 40
3.2
  1
*
100
AcDbText
  0
TEXT
  5
B75C
330
1F
100
AcDbEntity
  8
AM_6
100
AcDbText
 10
22.85700003967213
 20
340.8999999634413
 30
0.0
 40
3.2
  1
*
100
AcDbText
  0
TEXT
  5
B75D
330
1F
100
AcDbEntity
  8
AM_6
100
AcDbText
 10
22.85700003967213
 20
332.8999999634413
 30
0.0
 40
3.2
  1
*
100
AcDbText
  0
TEXT
  5
B75E
330
1F
100
AcDbEntity
  8
AM_6
100
AcDbText
 10
22.85700003967213
 20
324.8999999634412
 30
0.0
 40
3.2
  1
*
100
AcDbText
  0
TEXT
  5
B75F
330
1F
100
AcDbEntity
  8
AM_6
100
AcDbText
 10
22.85700003967213
 20
316.8999999634412
 30
0.0
 40
3.2
  1
*
100
AcDbText
  0
TEXT
  5
B760
330
1F
100
AcDbEntity
  8
AM_6
100
AcDbText
 10
136.3574900396721
 20
31.46236296344127
 30
0.0
 40
3.2
  1
切欠推奨寸法
 41
0.84741102
100
AcDbText
  0
DIMENSION
  5
B88F
330
1F
100
AcDbEntity
  8
AM_5
100
AcDbDimension
  2
*D36
 10
347.0177000396721
 20
353.7687799634412
 30
0.0
 11
304.5177000396722
 21
356.8687799634412
 31
0.0
 70
    32
 71
     5
 42
84.99999999999989
  3
SYS$0
100
AcDbAlignedDimension
 13
262.0177000396723
 23
338.1656999634413
 33
0.0
 14
347.0177000396721
 24
338.1657099634413
 34
0.0
 50
0.0000000000000114
100
AcDbRotatedDimension
  0
DIMENSION
  5
B8A5
330
1F
100
AcDbEntity
  8
AM_5
100
AcDbDimension
  2
*D37
 10
371.7830880396722
 20
312.7687799634412
 30
0.0
 11
368.6830880396722
 21
328.2687799634413
 31
0.0
 70
    32
 71
     5
 42
31.00000000000006
  3
SYS$0
100
AcDbAlignedDimension
 13
344.8926960396722
 23
343.7687799634413
 33
0.0
 14
358.2676960396721
 24
312.7687799634412
 34
0.0
 50
90.00000000000003
100
AcDbRotatedDimension
  0
DIMENSION
  5
B8BB
330
1F
100
AcDbEntity
  8
AM_5
100
AcDbDimension
  2
*D38
 10
371.7830880396722
 20
309.7687799634412
 30
0.0
 11
368.6830880396722
 21
305.5221132967746
 31
0.0
 70
    32
 71
     5
 42
2.999999999999943
  3
SYS$0
100
AcDbAlignedDimension
 13
358.2676960396721
 23
312.7687799634412
 33
0.0
 14
358.2676960396721
 24
309.7687799634412
 34
0.0
 50
90.00000000000003
100
AcDbRotatedDimension
  0
DIMENSION
  5
B8D5
330
1F
100
AcDbEntity
  8
AM_5
100
AcDbDimension
  2
*D39
 10
262.0176900396722
 20
254.320889963441
 30
0.0
 11
304.5176930396721
 21
257.420889963441
 31
0.0
 70
    32
 71
     5
 42
85.00000599999998
  3
SYS$0
100
AcDbAlignedDimension
 13
347.0176960396722
 23
243.3208899634412
 33
0.0
 14
262.0176900396722
 24
243.3208899634412
 34
0.0
100
AcDbRotatedDimension
  0
DIMENSION
  5
B8EB
330
1F
100
AcDbEntity
  8
AM_5
100
AcDbDimension
  2
*D40
 10
237.0177000396721
 20
64.32088496344126
 30
0.0
 11
233.9177000396721
 21
149.3208874634413
 31
0.0
 70
    32
 71
     5
 42
170.000005
  3
SYS$0
100
AcDbAlignedDimension
 13
253.0177000396721
 23
234.3208899634412
 33
0.0
 14
253.0177000396721
 24
64.32088496344126
 34
0.0
 50
90.00000000000003
100
AcDbRotatedDimension
  0
DIMENSION
  5
B901
330
1F
100
AcDbEntity
  8
AM_5
100
AcDbDimension
  2
*D41
 10
287.0176930396722
 20
39.32088496344164
 30
0.0
 11
304.5176945396722
 21
42.42088496344164
 31
0.0
 70
    32
 71
     5
 42
35.00000299999999
  3
SYS$0
100
AcDbAlignedDimension
 13
322.0176960396722
 23
74.82088496344127
 33
0.0
 14
287.0176930396722
 24
74.82088496344127
 34
0.0
 50
0.0000000000001132
100
AcDbRotatedDimension
  0
DIMENSION
  5
B917
330
1F
100
AcDbEntity
  8
AM_5
100
AcDbDimension
  2
*D42
 10
357.0176960396722
 20
29.32088496344147
 30
0.0
 11
304.5176980396722
 21
32.42088496344147
 31
0.0
 70
    32
 71
     5
 42
104.999996
  3
SYS$0
100
AcDbAlignedDimension
 13
252.0177000396722
 23
54.32088496344126
 33
0.0
 14
357.0176960396722
 24
54.32088496344126
 34
0.0
 50
0.0000000000001132
100
AcDbRotatedDimension
  0
DIMENSION
  5
B92D
330
1F
100
AcDbEntity
  8
AM_5
100
AcDbDimension
  2
*D43
 10
372.0176960396722
 20
74.82088496344125
 30
0.0
 11
368.9176960396722
 21
149.3208824634413
 31
0.0
 70
    32
 71
     5
 42
148.999995
  3
SYS$0
100
AcDbAlignedDimension
 13
322.0176960396722
 23
223.8208799634413
 33
0.0
 14
322.0176960396722
 24
74.82088496344127
 34
0.0
 50
90.0
100
AcDbRotatedDimension
  0
DIMENSION
  5
B943
330
1F
100
AcDbEntity
  8
AM_5
100
AcDbDimension
  2
*D44
 10
382.0176961396722
 20
244.3208899634412
 30
0.0
 11
378.9176961396722
 21
149.3208874634412
 31
0.0
 70
    32
 71
     5
 42
190.0000049999999
  3
SYS$0
100
AcDbAlignedDimension
 13
357.0176960396722
 23
54.32088496344127
 33
0.0
 14
357.0176960396722
 24
244.3208899634412
 34
0.0
 50
90.0
100
AcDbRotatedDimension
  0
DIMENSION
  5
B959
330
1F
100
AcDbEntity
  8
AM_5
100
AcDbDimension
  2
*D45
 10
189.1708800396722
 20
52.76386996344147
 30
0.0
 11
146.6708900396722
 21
55.86386996344147
 31
0.0
 70
    32
 71
     5
 42
84.99998000000005
  3
SYS$0
100
AcDbAlignedDimension
 13
104.1709000396721
 23
58.82088496344127
 33
0.0
 14
189.1708800396722
 24
58.82088496344127
 34
0.0
 50
0.0000000000001132
100
AcDbRotatedDimension
  0
DIMENSION
  5
B96F
330
1F
100
AcDbEntity
  8
AM_5
100
AcDbDimension
  2
*D46
 10
83.17087003967214
 20
234.3208899634412
 30
0.0
 11
80.07087003967212
 21
149.3208874634413
 31
0.0
 70
    32
 71
     5
 42
170.000005
  3
SYS$0
100
AcDbAlignedDimension
 13
98.67090003967229
 23
64.32088496344126
 33
0.0
 14
98.67090003967231
 24
234.3208899634412
 34
0.0
 50
90.00000000000003
100
AcDbRotatedDimension
  0
DIMENSION
  5
B985
330
1F
100
AcDbEntity
  8
AM_5
100
AcDbDimension
  2
*D47
 10
93.17087003967222
 20
71.32088496344128
 30
0.0
 11
90.07087003967223
 21
149.3208824634413
 31
0.0
 70
    32
 71
     5
 42
155.999995
  3
SYS$0
100
AcDbAlignedDimension
 13
106.6708700396722
 23
227.3208799634413
 33
0.0
 14
106.6708700396722
 24
71.32088496344128
 34
0.0
 50
90.0
100
AcDbRotatedDimension
  0
DIMENSION
  5
B99B
330
1F
100
AcDbEntity
  8
AM_5
100
AcDbDimension
  2
*D48
 10
186.6708800396722
 20
254.3208899634411
 30
0.0
 11
146.6708750396722
 21
257.4208899634411
 31
0.0
 70
    32
 71
     5
 42
80.00000999999997
  3
SYS$0
100
AcDbAlignedDimension
 13
106.6708700396722
 23
227.3208799634413
 33
0.0
 14
186.6708800396722
 24
227.3208799634413
 34
0.0
100
AcDbRotatedDimension
  0
DIMENSION
  5
B9BF
330
1F
100
AcDbEntity
  8
AM_5
100
AcDbDimension
  2
*D50
 10
343.9754553043171
 20
68.59958468510273
 30
0.0
 11
385.662576441717
 21
34.0828005071713
 31
0.0
 70
   163
  1
4-%%c5.5×<>サラ
 71
     5
 42
10.50000000000006
  3
SYS$3
100
AcDbDiametricDimension
 15
350.0599367750277
 25
60.04218524178002
 35
0.0
 40
0.0
1001
ACAD
1000
DSTYLE
1002
{
1070
   172
1070
     1
1070
   289
1070
     2
1070
   342
1005
BA03
1002
}
  0
LINE
  5
BAD2
330
1F
100
AcDbEntity
  8
AM_5
100
AcDbLine
 10
101.1357242557542
 20
237.6431945793244
 30
0.0
 11
92.28379897118761
 21
247.3325155037301
 31
0.0
  0
LINE
  5
BAD3
330
1F
100
AcDbEntity
  8
AM_5
100
AcDbLine
 10
92.28379897118761
 20
247.3325155037301
 30
0.0
 11
72.50213230452093
 21
247.3325155037301
 31
0.0
  0
LINE
  5
BAD4
330
1F
100
AcDbEntity
  8
AM_5
100
AcDbLine
 10
105.8571088085157
 20
232.4751651768397
 30
0.0
 11
102.4846912708289
 21
236.1666147500431
 31
0.0
  0
INSERT
  5
BAD6
330
1F
100
AcDbEntity
  8
AM_5
100
AcDbBlockReference
  2
GENDOT
 10
102.4846912708289
 20
236.1666147500431
 30
0.0
 41
2.0
 42
2.0
 43
2.0
 50
312.4140544333416
  0
MTEXT
  5
BAD7
330
1F
100
AcDbEntity
  8
AM_5
 62
     2
100
AcDbMText
 10
81.6429656378542
 20
250.58251550373
 30
0.0
 40
3.5
 41
0.0
 71
     5
 72
     1
  1
4-M5タップ
 73
     1
 44
1.0
1001
ACAD
1000
MTEXTBEGIN
1070
    73
1070
     1
1070
    44
1040
1.0
1070
    74
1070
     0
1000
MTEXTEND
  0
LWPOLYLINE
  5
BAD9
330
1F
100
AcDbEntity
  8
AM_5
100
AcDbPolyline
 90
        2
 70
     1
 43
0.5
 10
106.0257296854
 20
232.2905926981796
 42
1.0
 10
105.6884879316314
 20
232.6597376554999
 42
1.0
  0
HATCH
  5
BB00
330
1F
100
AcDbEntity
  8
AM_8
100
AcDbHatch
 10
0.0
 20
0.0
 30
0.0
210
0.0
220
0.0
230
1.0
  2
_U
 70
     0
 71
     0
 91
        1
 92
        1
 93
        2
 72
     2
 10
104.1709000396724
 20
234.3208899634412
 40
2.500000000000007
 50
11.45915590261795
 51
348.5220968186799
 73
     1
 72
     2
 10
104.1709000396724
 20
234.3208899634412
 40
2.499999999999997
 50
348.5220968186799
 51
371.4591559026179
 73
     1
 97
        0
 75
     0
 76
     0
 52
45.0
 41
1.5
 77
     0
 78
     1
 53
45.0
 43
30.48667801535707
 44
0.0
 45
-1.060660171779821
 46
1.060660171779821
 79
     0
 98
        1
 10
30.48667801535707
 20
0.0
1001
GENIUS_GENOBJ-N-HTC_13
1002
{
1000
OWNER
1000
GEN
1002
}
1001
GENIUS_GENODEF_13
1002
{
1000
HIER
1070
     0
1002
}
1002
{
1000
MANEDIT
1070
     0
1002
}
1002
{
1000
NOSEL
1070
     0
1002
}
1002
{
1000
BEHIND
1070
     0
1002
}
1002
{
1000
OTHER
1070
     0
1002
}
1002
{
1000
REACTOR
1002
}
1001
GENIUS_GENHATCH_13
1002
{
1000
DATA
1040
45.0
1042
2.5
1000
_U
1070
     0
1011
104.4404448609107
1021
234.2661586974545
1031
0.0
1002
}
1002
{
1000
UCS
1010
0.0
1020
0.0
1030
0.0
1010
1.0
1020
0.0
1030
0.0
1010
0.0
1020
1.0
1030
0.0
1002
}
  0
HATCH
  5
BB01
330
1F
100
AcDbEntity
  8
AM_8
100
AcDbHatch
 10
0.0
 20
0.0
 30
0.0
210
0.0
220
0.0
230
1.0
  2
_U
 70
     0
 71
     0
 91
        1
 92
        1
 93
        2
 72
     2
 10
189.1708800396725
 20
234.3208899634412
 40
2.500000000000007
 50
11.45915590261795
 51
348.5220968186799
 73
     1
 72
     2
 10
189.1708800396725
 20
234.3208899634412
 40
2.499999999999997
 50
348.5220968186799
 51
371.4591559026179
 73
     1
 97
        0
 75
     0
 76
     0
 52
45.0
 41
1.5
 77
     0
 78
     1
 53
45.0
 43
115.4866580153571
 44
0.0
 45
-1.060660171779821
 46
1.060660171779821
 79
     0
 98
        1
 10
115.4866580153571
 20
0.0
1001
GENIUS_GENOBJ-N-HTC_13
1002
{
1000
OWNER
1000
GEN
1002
}
1001
GENIUS_GENODEF_13
1002
{
1000
HIER
1070
     0
1002
}
1002
{
1000
MANEDIT
1070
     0
1002
}
1002
{
1000
NOSEL
1070
     0
1002
}
1002
{
1000
BEHIND
1070
     0
1002
}
1002
{
1000
OTHER
1070
     0
1002
}
1002
{
1000
REACTOR
1002
}
1001
GENIUS_GENHATCH_13
1002
{
1000
DATA
1040
45.0
1042
2.5
1000
_U
1070
     0
1011
189.4404248609108
1021
234.2661586974545
1031
0.0
1002
}
1002
{
1000
UCS
1010
0.0
1020
0.0
1030
0.0
1010
1.0
1020
0.0
1030
0.0
1010
0.0
1020
1.0
1030
0.0
1002
}
  0
HATCH
  5
BB02
330
1F
100
AcDbEntity
  8
AM_8
100
AcDbHatch
 10
0.0
 20
0.0
 30
0.0
210
0.0
220
0.0
230
1.0
  2
_U
 70
     0
 71
     0
 91
        1
 92
        1
 93
        2
 72
     2
 10
189.1708800396725
 20
64.32088496344093
 40
2.500000000000007
 50
11.45915590261795
 51
348.5220968186799
 73
     1
 72
     2
 10
189.1708800396725
 20
64.32088496344093
 40
2.499999999999997
 50
348.5220968186799
 51
371.4591559026179
 73
     1
 97
        0
 75
     0
 76
     0
 52
45.0
 41
1.5
 77
     0
 78
     1
 53
45.0
 43
115.4866580153571
 44
-170.0000050000002
 45
-1.060660171779821
 46
1.060660171779821
 79
     0
 98
        1
 10
115.4866580153571
 20
-170.0000050000002
1001
GENIUS_GENOBJ-N-HTC_13
1002
{
1000
OWNER
1000
GEN
1002
}
1001
GENIUS_GENODEF_13
1002
{
1000
HIER
1070
     0
1002
}
1002
{
1000
MANEDIT
1070
     0
1002
}
1002
{
1000
NOSEL
1070
     0
1002
}
1002
{
1000
BEHIND
1070
     0
1002
}
1002
{
1000
OTHER
1070
     0
1002
}
1002
{
1000
REACTOR
1002
}
1001
GENIUS_GENHATCH_13
1002
{
1000
DATA
1040
45.0
1042
2.5
1000
_U
1070
     0
1011
189.4404248609108
1021
64.26615369745417
1031
0.0
1002
}
1002
{
1000
UCS
1010
0.0
1020
0.0
1030
0.0
1010
1.0
1020
0.0
1030
0.0
1010
0.0
1020
1.0
1030
0.0
1002
}
  0
HATCH
  5
BB03
330
1F
100
AcDbEntity
  8
AM_8
100
AcDbHatch
 10
0.0
 20
0.0
 30
0.0
210
0.0
220
0.0
230
1.0
  2
_U
 70
     0
 71
     0
 91
        1
 92
        1
 93
        2
 72
     2
 10
104.1709000396724
 20
64.32088496344093
 40
2.500000000000007
 50
11.45915590261795
 51
348.5220968186799
 73
     1
 72
     2
 10
104.1709000396724
 20
64.32088496344093
 40
2.499999999999997
 50
348.5220968186799
 51
371.4591559026179
 73
     1
 97
        0
 75
     0
 76
     0
 52
45.0
 41
1.5
 77
     0
 78
     1
 53
45.0
 43
30.48667801535707
 44
-170.0000050000002
 45
-1.060660171779821
 46
1.060660171779821
 79
     0
 98
        1
 10
30.48667801535707
 20
-170.0000050000002
1001
GENIUS_GENOBJ-N-HTC_13
1002
{
1000
OWNER
1000
GEN
1002
}
1001
GENIUS_GENODEF_13
1002
{
1000
HIER
1070
     0
1002
}
1002
{
1000
MANEDIT
1070
     0
1002
}
1002
{
1000
NOSEL
1070
     0
1002
}
1002
{
1000
BEHIND
1070
     0
1002
}
1002
{
1000
OTHER
1070
     0
1002
}
1002
{
1000
REACTOR
1002
}
1001
GENIUS_GENHATCH_13
1002
{
1000
DATA
1040
45.0
1042
2.5
1000
_U
1070
     0
1011
104.4404448609107
1021
64.26615369745417
1031
0.0
1002
}
1002
{
1000
UCS
1010
0.0
1020
0.0
1030
0.0
1010
1.0
1020
0.0
1030
0.0
1010
0.0
1020
1.0
1030
0.0
1002
}
  0
HATCH
  5
BB06
330
1F
100
AcDbEntity
  8
AM_8
100
AcDbHatch
 10
0.0
 20
0.0
 30
0.0
210
0.0
220
0.0
230
1.0
  2
_U
 70
     0
 71
     0
 91
        1
 92
        1
 93
        4
 72
     1
 10
106.6708700396722
 20
227.3208799634413
 11
106.6708700396722
 21
71.32088496344128
 72
     1
 10
106.6708700396722
 20
71.32088496344128
 11
186.6708800396722
 21
71.32088496344128
 72
     1
 10
186.6708800396722
 20
71.32088496344128
 11
186.6708800396722
 21
227.3208799634413
 72
     1
 10
186.6708800396722
 20
227.3208799634413
 11
106.6708700396722
 21
227.3208799634413
 97
        0
 75
     0
 76
     0
 52
45.0
 41
2.5
 77
     0
 78
     1
 53
45.0
 43
0.0
 44
0.0
 45
-1.767766952966368
 46
1.767766952966368
 79
     0
 98
        1
 10
0.0
 20
0.0
1001
GENIUS_GENOBJ-N-HTC_13
1002
{
1000
OWNER
1000
GEN
1002
}
1001
GENIUS_GENODEF_13
1002
{
1000
HIER
1070
     0
1002
}
1002
{
1000
MANEDIT
1070
     0
1002
}
1002
{
1000
NOSEL
1070
     0
1002
}
1002
{
1000
BEHIND
1070
     0
1002
}
1002
{
1000
OTHER
1070
     0
1002
}
1002
{
1000
REACTOR
1002
}
1001
GENIUS_GENHATCH_13
1002
{
1000
DATA
1040
45.0
1042
2.5
1000
_U
1070
     0
1011
161.8627147857596
1021
171.3420220633792
1031
0.0
1002
}
1002
{
1000
UCS
1010
0.0
1020
0.0
1030
0.0
1010
1.0
1020
0.0
1030
0.0
1010
0.0
1020
1.0
1030
0.0
1002
}
  0
ENDSEC
  0
SECTION
  2
OBJECTS
  0
DICTIONARY
  5
C
330
0
100
AcDbDictionary
281
     1
  3
ACAD_2007HEADERVARS_RT
350
BB08
  3
ACAD_BGPLOT_KEY
350
AB06
  3
ACAD_COLOR
350
A91D
  3
ACAD_GROUP
350
D
  3
ACAD_LAYOUT
350
1A
  3
ACAD_MATERIAL
350
A91C
  3
ACAD_MLINESTYLE
350
17
  3
ACAD_PLOTSETTINGS
350
19
  3
ACAD_PLOTSTYLENAME
350
E
  3
ACAD_TABLESTYLE
350
AAB9
  3
ACAD_VISUALSTYLE
350
B0F1
  3
AcAsAppObject
350
3DA1
  3
ACASGREF_MASTER
350
3DE9
  3
AcDbVariableDictionary
350
34
  3
AcmDictionary
350
47
  3
AD_GREF_MODULE
350
3DEA
  3
AD_MAPI_MODULE
350
3E06
  3
AMG
350
2B
  3
AMGSNAPSETTINGS
350
7D
  3
ASE_INDEX_DICTIONARY
350
B331
  3
DWGPROPS
350
BB07
  3
MAPISURF_MODULE
350
3DEB
  0
DICTIONARY
  5
3F95
330
2
100
AcDbDictionary
280
     1
281
     1
  3
ACAD_LAYERFILTERS
360
B523
  3
ACAD_LAYERSTATES
360
3F96
  3
ACLYDICTIONARY
360
B522
  3
AMLAYER_GROUPCOLORS
360
AAB4
  0
DICTIONARY
  5
8A
330
1F
100
AcDbDictionary
280
     1
281
     1
  3
ACAD_SORTENTS
360
B1BA
  0
DICTIONARY
  5
BB08
102
{ACAD_REACTORS
330
C
102
}
330
C
100
AcDbDictionary
281
     1
  3
DIMARCSYM
350
BB09
  0
DICTIONARY
  5
AB06
102
{ACAD_REACTORS
330
C
102
}
330
C
100
AcDbDictionary
280
     1
281
     1
  0
DICTIONARY
  5
A91D
102
{ACAD_REACTORS
330
C
102
}
330
C
100
AcDbDictionary
281
     1
  0
DICTIONARY
  5
D
102
{ACAD_REACTORS
330
C
102
}
330
C
100
AcDbDictionary
281
     1
  0
DICTIONARY
  5
1A
102
{ACAD_REACTORS
330
C
102
}
330
C
100
AcDbDictionary
281
     1
  3
Model
350
22
  3
ﾚｲｱｳﾄ1
350
1E
  3
ﾚｲｱｳﾄ2
350
26
  0
DICTIONARY
  5
A91C
102
{ACAD_REACTORS
330
C
102
}
330
C
100
AcDbDictionary
281
     1
  3
ByBlock
350
B0EF
  3
ByLayer
350
B0EE
  3
Global
350
B0F0
  0
DICTIONARY
  5
17
102
{ACAD_REACTORS
330
C
102
}
330
C
100
AcDbDictionary
281
     1
  3
Standard
350
18
  0
DICTIONARY
  5
19
102
{ACAD_REACTORS
330
C
102
}
330
C
100
AcDbDictionary
281
     1
  0
ACDBDICTIONARYWDFLT
  5
E
102
{ACAD_REACTORS
330
C
102
}
330
C
100
AcDbDictionary
281
     1
  3
Normal
350
F
100
AcDbDictionaryWithDefault
340
F
  0
DICTIONARY
  5
AAB9
102
{ACAD_REACTORS
330
C
102
}
330
C
100
AcDbDictionary
281
     1
  3
Standard
350
AABA
  0
DICTIONARY
  5
B0F1
102
{ACAD_REACTORS
330
C
102
}
330
C
100
AcDbDictionary
281
     1
  3
2dWireframe
350
B0F7
  3
3D Hidden
350
B0F9
  3
3dWireframe
350
B0F8
  3
Basic
350
B0F6
  3
Brighten
350
B0FD
  3
ColorChange
350
B101
  3
Conceptual
350
B0FA
  3
Dim
350
B0FC
  3
Facepattern
350
B100
  3
Flat
350
B0F2
  3
FlatWithEdges
350
B0F3
  3
Gouraud
350
B0F4
  3
GouraudWithEdges
350
B0F5
  3
Linepattern
350
B0FF
  3
Realistic
350
B0FB
  3
Thicken
350
B0FE
  0
ACAD_PROXY_OBJECT
  5
3DA1
102
{ACAD_REACTORS
330
C
102
}
330
C
100
AcDbProxyObject
 90
      499
 91
      576
 95
   917527
 70
     0
 93
       10
310
407F
 94
        0
1001
ACAD
1000
AcRTDxfName
1000
ASAPP
  0
ACAD_PROXY_OBJECT
  5
3DE9
102
{ACAD_REACTORS
330
C
102
}
330
C
100
AcDbProxyObject
 90
      499
 91
      581
 95
   917527
 70
     0
 93
       34
310
010000407F
 94
        0
1001
ACAD
1000
AcRTDxfName
1000
ACASGREFMASTER
  0
DICTIONARY
  5
34
102
{ACAD_REACTORS
330
C
102
}
330
C
100
AcDbDictionary
281
     1
  3
CTABLESTYLE
350
AAF3
  3
DIMASSOC
350
A10C
  3
FIELDEVAL
350
AB07
  3
INDEXCTL
350
35
  3
SORTENTS
350
194C
  0
DICTIONARY
  5
47
102
{ACAD_REACTORS
330
C
102
}
330
C
100
AcDbDictionary
281
     1
  3
AcmBOM
350
7E8
  3
AcmStdDictionary
350
4C
  3
AMDTSECTSYM_ARROWCOLOR
350
A929
  0
ACAD_PROXY_OBJECT
  5
3DEA
102
{ACAD_REACTORS
330
C
102
}
330
C
100
AcDbProxyObject
 90
      499
 91
      582
 95
   917527
 70
     0
 93
      114
310
00000043800000000000000000003F
 94
        0
1001
ACAD
1000
AcRTDxfName
1000
ACADGREFMODULE
  0
ACAD_PROXY_OBJECT
  5
3E06
102
{ACAD_REACTORS
330
C
102
}
330
C
100
AcDbProxyObject
 90
      499
 91
      594
 95
   917527
 70
     0
 93
       34
310
05000044FF
 94
        0
1001
ACAD
1000
AcRTDxfName
1000
MAPIADMODULE
  0
DICTIONARY
  5
2B
102
{ACAD_REACTORS
330
C
102
}
330
C
100
AcDbDictionary
281
     1
  0
DICTIONARY
  5
7D
102
{ACAD_REACTORS
330
C
102
}
330
C
100
AcDbDictionary
281
     1
  0
DICTIONARY
  5
B331
102
{ACAD_REACTORS
330
C
102
}
330
C
100
AcDbDictionary
281
     1
  3
ASEBlockHierarchyIndexRecord
350
B332
1001
DCO15
1040
1594111214.218
  0
XRECORD
  5
BB07
102
{ACAD_REACTORS
330
C
102
}
330
C
100
AcDbXrecord
280
     1
  1
DWGPROPS COOKIE
  2

  3

  4

  6

  7

  8
Administrator
  9

300
AmdtFileType=84
301
=
302
=
303
=
304
=
305
=
306
=
307
=
308
=
309
=
 40
0.0055661921296296
 41
2456647.559378229
 42
2456653.602235776
  1

 90
        1
  0
ACAD_PROXY_OBJECT
  5
3DEB
102
{ACAD_REACTORS
330
C
102
}
330
C
100
AcDbProxyObject
 90
      499
 91
      583
 95
   917527
 70
     0
 93
        8
310
047E
 94
        0
1001
ACAD
1000
AcRTDxfName
1000
AMDTMAPISURFMOUDULE
  0
DICTIONARY
  5
B523
102
{ACAD_REACTORS
330
3F95
102
}
330
3F95
100
AcDbDictionary
281
     1
  0
DICTIONARY
  5
3F96
102
{ACAD_REACTORS
330
3F95
102
}
330
3F95
100
AcDbDictionary
281
     1
  3
20011210
350
3FB7
  0
DICTIONARY
  5
B522
102
{ACAD_REACTORS
330
3F95
102
}
330
3F95
100
AcDbDictionary
281
     1
1001
ACAD
1000
<All
  0
DICTIONARY
  5
AAB4
102
{ACAD_REACTORS
330
3F95
102
}
330
3F95
100
AcDbDictionary
280
     1
281
     1
  0
SORTENTSTABLE
  5
B1BA
102
{ACAD_REACTORS
330
8A
102
}
330
8A
100
AcDbSortentsTable
330
1F
331
B8A5
  5
B8A5
331
B943
  5
B943
331
B72B
  5
B72B
331
B6EC
  5
B6EC
331
B733
  5
B733
331
B6F4
  5
B6F4
331
B6FC
  5
B6FC
331
B73B
  5
B73B
331
B704
  5
B704
331
B8D5
  5
B8D5
331
B743
  5
B743
331
B6CD
  5
B6CD
331
B70C
  5
B70C
331
B714
  5
B714
331
B74B
  5
B74B
331
B6D5
  5
B6D5
331
B71C
  5
B71C
331
B753
  5
B753
331
B6DD
  5
B6DD
331
B724
  5
B724
331
B75B
  5
B75B
331
B6E5
  5
B6E5
331
B6ED
  5
B6ED
331
B72C
  5
B72C
331
BB00
  5
BB00
331
B734
  5
B734
331
B6F5
  5
B6F5
331
B73C
  5
B73C
331
B6FD
  5
B6FD
331
B705
  5
B705
331
B99B
  5
B99B
331
B88F
  5
B88F
331
BAD9
  5
BAD7
331
B70D
  5
B70D
331
B744
  5
B744
331
B6CE
  5
B6CE
331
B6D6
  5
B6D6
331
B715
  5
B715
331
B74C
  5
B74C
331
B754
  5
B754
331
B6DE
  5
B6DE
331
B71D
  5
B71D
331
B725
  5
B725
331
B75C
  5
B75C
331
B6E6
  5
B6E6
331
B92D
  5
B92D
331
B72D
  5
B72D
331
B6EE
  5
B6EE
331
BB01
  5
BB01
331
B735
  5
B735
331
B6F6
  5
B6F6
331
B6C7
  5
B6C7
331
B6FE
  5
B6FE
331
B73D
  5
B73D
331
BAD2
  5
BAD2
331
B706
  5
B706
331
B70E
  5
B70E
331
B745
  5
B745
331
B6CF
  5
B6CF
331
B716
  5
B716
331
B74D
  5
B74D
331
B6D7
  5
B6D7
331
B71E
  5
B71E
331
B755
  5
B755
331
B6DF
  5
B6DF
331
B6E7
  5
B6E7
331
B726
  5
B726
331
B75D
  5
B75D
331
B985
  5
B985
331
B6EF
  5
B6EF
331
B72E
  5
B72E
331
BB02
  5
BB02
331
B736
  5
B736
331
B6F7
  5
B6F7
331
B73E
  5
B73E
331
B6FF
  5
B6FF
331
BAD3
  5
BAD3
331
B707
  5
B707
331
B917
  5
B917
331
B6C8
  5
B6C8
331
B70F
  5
B70F
331
B746
  5
B746
331
B6D0
  5
B6D0
331
B6D8
  5
B6D8
331
B717
  5
B717
331
B74E
  5
B74E
331
B71F
  5
B71F
331
B756
  5
B756
331
B6E0
  5
B6E0
331
B727
  5
B727
331
B75E
  5
B75E
331
B6E8
  5
B6E8
331
B72F
  5
B72F
331
B6F0
  5
B6F0
331
BB03
  5
BB03
331
B6F8
  5
B6F8
331
B737
  5
B737
331
B700
  5
B700
331
B73F
  5
B73F
331
BAD4
  5
BAD4
331
B6C9
  5
B6C9
331
B708
  5
B708
331
B710
  5
B710
331
B747
  5
B747
331
B6D1
  5
B6D1
331
B718
  5
B718
331
B6D9
  5
B6D9
331
B720
  5
B720
331
B757
  5
B757
331
B6E1
  5
B6E1
331
B75F
  5
B75F
331
B96F
  5
B96F
331
B901
  5
B901
331
B6E9
  5
B6E9
331
B728
  5
B728
331
B730
  5
B730
331
B6F1
  5
B6F1
331
B738
  5
B738
331
B6F9
  5
B6F9
331
B701
  5
B701
331
B709
  5
B709
331
B740
  5
B740
331
B6CA
  5
B6CA
331
B711
  5
B711
331
B748
  5
B748
331
B6D2
  5
B6D2
331
B6DA
  5
B6DA
331
B719
  5
B719
331
B750
  5
B750
331
B721
  5
B721
331
B758
  5
B758
331
B6E2
  5
B6E2
331
B9BF
  5
B9BF
331
B729
  5
B729
331
B760
  5
B760
331
B6EA
  5
B6EA
331
B731
  5
B731
331
B6F2
  5
B6F2
331
B6FA
  5
B6FA
331
B739
  5
B739
331
B702
  5
B702
331
BAD6
  5
BAD8
331
B8BB
  5
B8BB
331
B959
  5
B959
331
B741
  5
B741
331
B6CB
  5
B6CB
331
B70A
  5
B70A
331
B712
  5
B712
331
B749
  5
B749
331
B6D3
  5
B6D3
331
B71A
  5
B71A
331
B751
  5
B751
331
B6DB
  5
B6DB
331
B722
  5
B722
331
B759
  5
B759
331
B6E3
  5
B6E3
331
B8EB
  5
B8EB
331
B6EB
  5
B6EB
331
B72A
  5
B72A
331
B732
  5
B732
331
B6F3
  5
B6F3
331
BB06
  5
BB04
331
B73A
  5
B73A
331
B6FB
  5
B6FB
331
B703
  5
B703
331
BAD7
  5
BAD9
331
B70B
  5
B70B
331
B742
  5
B742
331
B6CC
  5
B6CC
331
B713
  5
B713
331
B74A
  5
B74A
331
B6D4
  5
B6D4
331
B752
  5
B752
331
B6DC
  5
B6DC
331
B71B
  5
B71B
331
B723
  5
B723
331
B75A
  5
B75A
331
B6E4
  5
B6E4
  0
XRECORD
  5
BB09
102
{ACAD_REACTORS
330
BB08
102
}
330
BB08
100
AcDbXrecord
280
     1
 70
     1
  0
LAYOUT
  5
22
102
{ACAD_XDICTIONARY
360
BB0C
102
}
102
{ACAD_REACTORS
330
1A
102
}
330
1A
100
AcDbPlotSettings
  1

  2
DocuCentre-II C5400
  4
A3
  6
AM_VIEW1
 40
4.857749938964843
 41
4.942420959472656
 42
4.9423828125
 43
4.857757568359375
 44
297.0106506347656
 45
420.0313415527343
 46
0.0
 47
2.016715294974204
 48
214.3704939521119
 49
367.5855324241176
140
275.6727856380065
141
407.629191407817
142
1.0
143
0.7311709945292711
 70
  3764
 72
     1
 73
     1
 74
     2
  7
monochrome.ctb
 75
     0
147
1.367669132777622
148
-1700.85588156276
149
-1647.985052086429
100
AcDbLayout
  1
Model
 70
     1
 71
     0
 10
0.0
 20
0.0
 11
12.0
 21
9.0
 12
0.0
 22
0.0
 32
0.0
 14
0.0
 24
0.0
 34
0.0
 15
0.0
 25
0.0
 35
0.0
146
0.0
 13
0.0
 23
0.0
 33
0.0
 16
1.0
 26
0.0
 36
0.0
 17
0.0
 27
1.0
 37
0.0
 76
     0
330
1F
331
B0EC
1001
ACAD_PSEXT
1000
DocuCentre-II C5400
1000
FX DocuCentre-II C5400
1000
192.168.2.200
1000

1070
     0
  0
LAYOUT
  5
1E
102
{ACAD_XDICTIONARY
360
BB0A
102
}
102
{ACAD_REACTORS
330
1A
102
}
330
1A
100
AcDbPlotSettings
  1

  2
\\ML370\XEROX
  4
A4
  6

 40
3.174999952316284
 41
3.174999952316284
 42
3.175003051757812
 43
3.17498779296875
 44
209.8674926757813
 45
296.6719970703125
 46
0.0
 47
0.0
 48
0.0
 49
0.0
140
0.0
141
0.0
142
1.0
143
1.0
 70
   688
 72
     1
 73
     1
 74
     5
  7
monochrome.ctb
 75
    16
147
1.0
148
0.0
149
0.0
100
AcDbLayout
  1
ﾚｲｱｳﾄ1
 70
     1
 71
     1
 10
-3.17498779296875
 20
-3.174999952316284
 11
293.4970092773438
 21
206.692492723465
 12
0.0
 22
0.0
 32
0.0
 14
1.000000000000000E+20
 24
1.000000000000000E+20
 34
1.000000000000000E+20
 15
-1.000000000000000E+20
 25
-1.000000000000000E+20
 35
-1.000000000000000E+20
146
0.0
 13
0.0
 23
0.0
 33
0.0
 16
1.0
 26
0.0
 36
0.0
 17
0.0
 27
1.0
 37
0.0
 76
     0
330
1B
  0
LAYOUT
  5
26
102
{ACAD_XDICTIONARY
360
BB0E
102
}
102
{ACAD_REACTORS
330
1A
102
}
330
1A
100
AcDbPlotSettings
  1

  2
\\ML370\XEROX
  4

  6

 40
0.0
 41
0.0
 42
0.0
 43
0.0
 44
0.0
 45
0.0
 46
0.0
 47
0.0
 48
0.0
 49
0.0
140
0.0
141
0.0
142
1.0
143
1.0
 70
   688
 72
     0
 73
     0
 74
     5
  7
monochrome.ctb
 75
    16
147
1.0
148
0.0
149
0.0
100
AcDbLayout
  1
ﾚｲｱｳﾄ2
 70
     1
 71
     2
 10
0.0
 20
0.0
 11
12.0
 21
9.0
 12
0.0
 22
0.0
 32
0.0
 14
0.0
 24
0.0
 34
0.0
 15
0.0
 25
0.0
 35
0.0
146
0.0
 13
0.0
 23
0.0
 33
0.0
 16
1.0
 26
0.0
 36
0.0
 17
0.0
 27
1.0
 37
0.0
 76
     0
330
23
  0
MATERIAL
  5
B0EF
102
{ACAD_XDICTIONARY
360
BB14
102
}
102
{ACAD_REACTORS
330
A91C
102
}
330
A91C
100
AcDbMaterial
  1
ByBlock
  0
MATERIAL
  5
B0EE
102
{ACAD_XDICTIONARY
360
BB12
102
}
102
{ACAD_REACTORS
330
A91C
102
}
330
A91C
100
AcDbMaterial
  1
ByLayer
  0
MATERIAL
  5
B0F0
102
{ACAD_XDICTIONARY
360
BB16
102
}
102
{ACAD_REACTORS
330
A91C
102
}
330
A91C
100
AcDbMaterial
  1
Global
  0
MLINESTYLE
  5
18
102
{ACAD_REACTORS
330
17
102
}
330
17
100
AcDbMlineStyle
  2
STANDARD
 70
     0
  3

 62
   256
 51
90.0
 52
90.0
 71
     2
 49
0.5
 62
   256
  6
BYLAYER
 49
-0.5
 62
   256
  6
BYLAYER
  0
ACDBPLACEHOLDER
  5
F
102
{ACAD_REACTORS
330
E
102
}
330
E
  0
TABLESTYLE
  5
AABA
102
{ACAD_XDICTIONARY
360
BB10
102
}
102
{ACAD_REACTORS
330
AAB9
102
}
330
AAB9
100
AcDbTableStyle
  3
Standard
 70
     0
 71
     0
 40
1.5
 41
1.5
280
     0
281
     0
  7
STANDARD
140
4.5
170
     2
 62
     0
 63
     7
283
     0
274
    -2
284
     1
 64
     0
275
    -2
285
     1
 65
     0
276
    -2
286
     1
 66
     0
277
    -2
287
     1
 67
     0
278
    -2
288
     1
 68
     0
279
    -2
289
     1
 69
     0
  7
STANDARD
140
6.0
170
     5
 62
     0
 63
     7
283
     0
274
    -2
284
     1
 64
     0
275
    -2
285
     1
 65
     0
276
    -2
286
     1
 66
     0
277
    -2
287
     1
 67
     0
278
    -2
288
     1
 68
     0
279
    -2
289
     1
 69
     0
  7
STANDARD
140
4.5
170
     5
 62
     0
 63
     7
283
     0
274
    -2
284
     1
 64
     0
275
    -2
285
     1
 65
     0
276
    -2
286
     1
 66
     0
277
    -2
287
     1
 67
     0
278
    -2
288
     1
 68
     0
279
    -2
289
     1
 69
     0
  0
VISUALSTYLE
  5
B0F7
102
{ACAD_REACTORS
330
B0F1
102
}
330
B0F1
100
AcDbVisualStyle
  2
2dWireframe
 70
     4
 71
     0
 72
     2
 73
     0
 90
        0
 40
-0.6
 41
-30.0
 62
     5
 63
     7
 74
     1
 91
        4
 64
     7
 65
   257
 75
     1
175
     1
 42
1.0
 92
        0
 66
   257
 43
1.0
 76
     1
 77
     6
 78
     2
 67
     7
 79
     5
170
     0
171
     0
290
     0
174
     0
 93
        1
 44
0.0
173
     0
291
     0
 45
0.0
1001
ACAD
1000
AcDbSavedByObjectVersion
1070
     0
  0
VISUALSTYLE
  5
B0F9
102
{ACAD_REACTORS
330
B0F1
102
}
330
B0F1
100
AcDbVisualStyle
  2
3D Hidden
 70
     6
 71
     1
 72
     2
 73
     2
 90
        0
 40
-0.6
 41
-30.0
 62
     5
 63
     7
 74
     2
 91
        2
 64
     7
 65
   257
 75
     2
175
     1
 42
40.0
 92
        0
 66
   257
 43
1.0
 76
     1
 77
     6
 78
     2
 67
     7
 79
     3
170
     0
171
     0
290
     0
174
     0
 93
        1
 44
0.0
173
     0
291
     0
 45
0.0
1001
ACAD
1000
AcDbSavedByObjectVersion
1070
     0
  0
VISUALSTYLE
  5
B0F8
102
{ACAD_REACTORS
330
B0F1
102
}
330
B0F1
100
AcDbVisualStyle
  2
3dWireframe
 70
     5
 71
     0
 72
     2
 73
     0
 90
        0
 40
-0.6
 41
-30.0
 62
     5
 63
     7
 74
     1
 91
        4
 64
     7
 65
   257
 75
     1
175
     1
 42
1.0
 92
        0
 66
   257
 43
1.0
 76
     1
 77
     6
 78
     2
 67
     7
 79
     5
170
     0
171
     0
290
     0
174
     0
 93
        1
 44
0.0
173
     0
291
     0
 45
0.0
1001
ACAD
1000
AcDbSavedByObjectVersion
1070
     0
  0
VISUALSTYLE
  5
B0F6
102
{ACAD_REACTORS
330
B0F1
102
}
330
B0F1
100
AcDbVisualStyle
  2
Basic
 70
     7
 71
     1
 72
     0
 73
     1
 90
        0
 40
-0.6
 41
-30.0
 62
     5
 63
     7
 74
     0
 91
        4
 64
     7
 65
   257
 75
     1
175
     1
 42
1.0
 92
        8
 66
     7
 43
1.0
 76
     1
 77
     6
 78
     2
 67
     7
 79
     5
170
     0
171
     0
290
     0
174
     0
 93
        1
 44
0.0
173
     0
291
     1
 45
0.0
1001
ACAD
1000
AcDbSavedByObjectVersion
1070
     0
  0
VISUALSTYLE
  5
B0FD
102
{ACAD_REACTORS
330
B0F1
102
}
330
B0F1
100
AcDbVisualStyle
  2
Brighten
 70
    12
 71
     2
 72
     2
 73
     0
 90
        0
 40
-0.6
 41
-30.0
 62
     5
 63
     7
 74
     1
 91
        4
 64
     7
 65
   257
 75
     1
175
     1
 42
1.0
 92
        8
 66
     7
 43
1.0
 76
     1
 77
     6
 78
     2
 67
     7
 79
     5
170
     0
171
     0
290
     0
174
     0
 93
        1
 44
50.0
173
     0
291
     1
 45
0.0
1001
ACAD
1000
AcDbSavedByObjectVersion
1070
     0
  0
VISUALSTYLE
  5
B101
102
{ACAD_REACTORS
330
B0F1
102
}
330
B0F1
100
AcDbVisualStyle
  2
ColorChange
 70
    16
 71
     2
 72
     2
 73
     3
 90
        0
 40
-0.6
 41
-30.0
 62
     5
 63
     8
 74
     1
 91
        4
 64
     7
 65
   257
 75
     1
175
     1
 42
1.0
 92
        8
 66
     8
 43
1.0
 76
     1
 77
     6
 78
     2
 67
     7
 79
     5
170
     0
171
     0
290
     0
174
     0
 93
        1
 44
0.0
173
     0
291
     1
 45
0.0
1001
ACAD
1000
AcDbSavedByObjectVersion
1070
     0
  0
VISUALSTYLE
  5
B0FA
102
{ACAD_REACTORS
330
B0F1
102
}
330
B0F1
100
AcDbVisualStyle
  2
Conceptual
 70
     9
 71
     3
 72
     2
 73
     0
 90
        0
 40
-0.6
 41
-30.0
 62
     5
 63
     7
 74
     2
 91
        2
 64
     7
 65
   257
 75
     1
175
     1
 42
40.0
 92
        8
 66
     7
 43
1.0
 76
     1
 77
     6
 78
     2
 67
     7
 79
     3
170
     0
171
     0
290
     0
174
     0
 93
        1
 44
0.0
173
     0
291
     0
 45
0.0
1001
ACAD
1000
AcDbSavedByObjectVersion
1070
     0
  0
VISUALSTYLE
  5
B0FC
102
{ACAD_REACTORS
330
B0F1
102
}
330
B0F1
100
AcDbVisualStyle
  2
Dim
 70
    11
 71
     2
 72
     2
 73
     0
 90
        0
 40
-0.6
 41
-30.0
 62
     5
 63
     7
 74
     1
 91
        4
 64
     7
 65
   257
 75
     1
175
     1
 42
1.0
 92
        8
 66
     7
 43
1.0
 76
     1
 77
     6
 78
     2
 67
     7
 79
     5
170
     0
171
     0
290
     0
174
     0
 93
        1
 44
-50.0
173
     0
291
     1
 45
0.0
1001
ACAD
1000
AcDbSavedByObjectVersion
1070
     0
  0
VISUALSTYLE
  5
B100
102
{ACAD_REACTORS
330
B0F1
102
}
330
B0F1
100
AcDbVisualStyle
  2
Facepattern
 70
    15
 71
     2
 72
     2
 73
     0
 90
        0
 40
-0.6
 41
-30.0
 62
     5
 63
     7
 74
     1
 91
        4
 64
     7
 65
   257
 75
     1
175
     1
 42
1.0
 92
        8
 66
     7
 43
1.0
 76
     1
 77
     6
 78
     2
 67
     7
 79
     5
170
     0
171
     0
290
     0
174
     0
 93
        1
 44
0.0
173
     0
291
     1
 45
0.0
1001
ACAD
1000
AcDbSavedByObjectVersion
1070
     0
  0
VISUALSTYLE
  5
B0F2
102
{ACAD_REACTORS
330
B0F1
102
}
330
B0F1
100
AcDbVisualStyle
  2
Flat
 70
     0
 71
     2
 72
     1
 73
     1
 90
        2
 40
-0.6
 41
30.0
 62
     5
 63
     7
 74
     0
 91
        4
 64
     7
 65
   257
 75
     1
175
     1
 42
1.0
 92
        8
 66
     7
 43
1.0
 76
     1
 77
     6
 78
     2
 67
     7
 79
     5
170
     0
171
     0
290
     0
174
     0
 93
       13
 44
0.0
173
     0
291
     1
 45
0.0
1001
ACAD
1000
AcDbSavedByObjectVersion
1070
     0
  0
VISUALSTYLE
  5
B0F3
102
{ACAD_REACTORS
330
B0F1
102
}
330
B0F1
100
AcDbVisualStyle
  2
FlatWithEdges
 70
     1
 71
     2
 72
     1
 73
     1
 90
        2
 40
-0.6
 41
30.0
 62
     5
 63
     7
 74
     1
 91
        4
 64
     7
 65
   257
 75
     1
175
     1
 42
1.0
 92
        0
 66
   257
 43
1.0
 76
     1
 77
     6
 78
     2
 67
     7
 79
     5
170
     0
171
     0
290
     0
174
     0
 93
       13
 44
0.0
173
     0
291
     1
 45
0.0
1001
ACAD
1000
AcDbSavedByObjectVersion
1070
     0
  0
VISUALSTYLE
  5
B0F4
102
{ACAD_REACTORS
330
B0F1
102
}
330
B0F1
100
AcDbVisualStyle
  2
Gouraud
 70
     2
 71
     2
 72
     2
 73
     1
 90
        2
 40
-0.6
 41
30.0
 62
     5
 63
     7
 74
     0
 91
        4
 64
     7
 65
   257
 75
     1
175
     1
 42
1.0
 92
        0
 66
     7
 43
1.0
 76
     1
 77
     6
 78
     2
 67
     7
 79
     5
170
     0
171
     0
290
     0
174
     0
 93
       13
 44
0.0
173
     0
291
     1
 45
0.0
1001
ACAD
1000
AcDbSavedByObjectVersion
1070
     0
  0
VISUALSTYLE
  5
B0F5
102
{ACAD_REACTORS
330
B0F1
102
}
330
B0F1
100
AcDbVisualStyle
  2
GouraudWithEdges
 70
     3
 71
     2
 72
     2
 73
     1
 90
        2
 40
-0.6
 41
30.0
 62
     5
 63
     7
 74
     1
 91
        4
 64
     7
 65
   257
 75
     1
175
     1
 42
1.0
 92
        0
 66
   257
 43
1.0
 76
     1
 77
     6
 78
     2
 67
     7
 79
     5
170
     0
171
     0
290
     0
174
     0
 93
       13
 44
0.0
173
     0
291
     1
 45
0.0
1001
ACAD
1000
AcDbSavedByObjectVersion
1070
     0
  0
VISUALSTYLE
  5
B0FF
102
{ACAD_REACTORS
330
B0F1
102
}
330
B0F1
100
AcDbVisualStyle
  2
Linepattern
 70
    14
 71
     2
 72
     2
 73
     0
 90
        0
 40
-0.6
 41
-30.0
 62
     5
 63
     7
 74
     1
 91
        4
 64
     7
 65
   257
 75
     7
175
     7
 42
1.0
 92
        8
 66
     7
 43
1.0
 76
     1
 77
     6
 78
     2
 67
     7
 79
     5
170
     0
171
     0
290
     0
174
     0
 93
        1
 44
0.0
173
     0
291
     1
 45
0.0
1001
ACAD
1000
AcDbSavedByObjectVersion
1070
     0
  0
VISUALSTYLE
  5
B0FB
102
{ACAD_REACTORS
330
B0F1
102
}
330
B0F1
100
AcDbVisualStyle
  2
Realistic
 70
     8
 71
     2
 72
     2
 73
     0
 90
        0
 40
-0.6
 41
-30.0
 62
     5
 63
     7
 74
     1
 91
        0
 64
     7
 65
   257
 75
     1
175
     1
 42
1.0
 92
        8
 66
     8
 43
1.0
 76
     1
 77
     6
 78
     2
 67
     7
 79
     5
170
     0
171
     0
290
     0
174
     0
 93
       13
 44
0.0
173
     0
291
     0
 45
0.0
1001
ACAD
1000
AcDbSavedByObjectVersion
1070
     0
  0
VISUALSTYLE
  5
B0FE
102
{ACAD_REACTORS
330
B0F1
102
}
330
B0F1
100
AcDbVisualStyle
  2
Thicken
 70
    13
 71
     2
 72
     2
 73
     0
 90
        0
 40
-0.6
 41
-30.0
 62
     5
 63
     7
 74
     1
 91
        4
 64
     7
 65
   257
 75
     1
175
     1
 42
1.0
 92
       12
 66
     7
 43
1.0
 76
     1
 77
     6
 78
     2
 67
     7
 79
     5
170
     0
171
     0
290
     0
174
     0
 93
        1
 44
0.0
173
     0
291
     1
 45
0.0
1001
ACAD
1000
AcDbSavedByObjectVersion
1070
     0
  0
DICTIONARYVAR
  5
AAF3
102
{ACAD_REACTORS
330
34
102
}
330
34
100
DictionaryVariables
280
     0
  1
STANDARD
  0
DICTIONARYVAR
  5
A10C
102
{ACAD_REACTORS
330
34
102
}
330
34
100
DictionaryVariables
280
     0
  1
1
  0
DICTIONARYVAR
  5
AB07
102
{ACAD_REACTORS
330
34
102
}
330
34
100
DictionaryVariables
280
     0
  1
4
  0
DICTIONARYVAR
  5
35
102
{ACAD_REACTORS
330
34
102
}
330
34
100
DictionaryVariables
280
     0
  1
0
  0
DICTIONARYVAR
  5
194C
102
{ACAD_REACTORS
330
34
102
}
330
34
100
DictionaryVariables
280
     0
  1
96
  0
DICTIONARY
  5
7E8
102
{ACAD_REACTORS
330
47
102
}
330
47
100
AcDbDictionary
281
     1
  0
DICTIONARY
  5
4C
102
{ACAD_REACTORS
330
47
102
}
330
47
100
AcDbDictionary
281
     1
  0
XRECORD
  5
A929
102
{ACAD_REACTORS
330
47
102
}
330
47
100
AcDbXrecord
280
     1
 90
-1023410169
  0
XRECORD
  5
B332
102
{ACAD_REACTORS
330
B331
102
}
330
B331
100
AcDbXrecord
280
     1
  0
XRECORD
  5
3FB7
102
{ACAD_REACTORS
330
3F96
102
}
330
3F96
100
AcDbXrecord
280
     1
 91
        3
330
0
 90
        8
 62
     7
370
    40
331
16
  1
Color_7
330
0
 90
        0
 62
    14
370
    -3
331
16
  1
Color_14
330
0
 90
        8
 62
     7
370
    20
331
16
  1
Color_7
330
6D1
 90
        0
 62
     7
370
    -3
331
16
  1
Color_7
330
0
 90
        8
 62
     7
370
    50
331
16
  1
Color_7
330
0
 90
        8
 62
     2
370
    35
331
16
  1
Color_2
330
0
 90
        8
 62
     7
370
    -3
331
16
  1
Color_7
330
10
 90
        8
 62
     7
370
    -3
331
16
  1
Color_7
  0
DICTIONARY
  5
BB0C
330
22
100
AcDbDictionary
280
     1
281
     1
  3
ACAD_XREC_ROUNDTRIP
360
BB0D
  0
DICTIONARY
  5
BB0A
330
1E
100
AcDbDictionary
280
     1
281
     1
  3
ACAD_XREC_ROUNDTRIP
360
BB0B
  0
DICTIONARY
  5
BB0E
330
26
100
AcDbDictionary
280
     1
281
     1
  3
ACAD_XREC_ROUNDTRIP
360
BB0F
  0
DICTIONARY
  5
BB14
330
B0EF
100
AcDbDictionary
280
     1
281
     1
  3
ACAD_XREC_ROUNDTRIP
360
BB15
  0
DICTIONARY
  5
BB12
330
B0EE
100
AcDbDictionary
280
     1
281
     1
  3
ACAD_XREC_ROUNDTRIP
360
BB13
  0
DICTIONARY
  5
BB16
330
B0F0
100
AcDbDictionary
280
     1
281
     1
  3
ACAD_XREC_ROUNDTRIP
360
BB17
  0
DICTIONARY
  5
BB10
330
AABA
100
AcDbDictionary
280
     1
281
     1
  3
ACAD_XREC_ROUNDTRIP
360
BB11
  0
XRECORD
  5
BB0D
102
{ACAD_REACTORS
330
BB0C
102
}
330
BB0C
100
AcDbXrecord
280
     1
102
SHADEPLOT
 70
     0
102
SHADEPLOTRESLEVEL
 70
     2
102
SHADEPLOTCUSTOMDPI
 70
   200
  0
XRECORD
  5
BB0B
102
{ACAD_REACTORS
330
BB0A
102
}
330
BB0A
100
AcDbXrecord
280
     1
102
SHADEPLOT
 70
     0
102
SHADEPLOTRESLEVEL
 70
     2
102
SHADEPLOTCUSTOMDPI
 70
   300
  0
XRECORD
  5
BB0F
102
{ACAD_REACTORS
330
BB0E
102
}
330
BB0E
100
AcDbXrecord
280
     1
102
SHADEPLOT
 70
     0
102
SHADEPLOTRESLEVEL
 70
     2
102
SHADEPLOTCUSTOMDPI
 70
   300
  0
XRECORD
  5
BB15
102
{ACAD_REACTORS
330
BB14
102
}
330
BB14
100
AcDbXrecord
280
     1
102
MATERIAL
148
0.0
149
0.0
149
0.0
 93
        0
 94
       63
282
     0
 72
     1
 77
     1
171
     1
175
     1
179
     1
273
     0
  0
XRECORD
  5
BB13
102
{ACAD_REACTORS
330
BB12
102
}
330
BB12
100
AcDbXrecord
280
     1
102
MATERIAL
148
0.0
149
0.0
149
0.0
 93
        0
 94
       63
282
     0
 72
     1
 77
     1
171
     1
175
     1
179
     1
273
     0
  0
XRECORD
  5
BB17
102
{ACAD_REACTORS
330
BB16
102
}
330
BB16
100
AcDbXrecord
280
     1
102
MATERIAL
148
0.0
149
0.0
149
0.0
 93
        0
 94
       63
282
     0
 72
     1
 77
     1
171
     1
175
     1
179
     1
273
     0
  0
XRECORD
  5
BB11
102
{ACAD_REACTORS
330
BB10
102
}
330
BB10
100
AcDbXrecord
280
     1
102
ACAD_ROUNDTRIP_PRE2007_TABLESTYLE
 90
        4
 91
        0
  1

 92
        4
 93
        0
  2

 94
        4
 95
        0
  3

  0
ENDSEC
  0
EOF
