  0
SECTION
  2
HEADER
  9
$ACADVER
  1
AC1015
  9
$ACADMAINTVER
 70
    20
  9
$DWGCODEPAGE
  3
ANSI_932
  9
$INSBASE
 10
0.0
 20
0.0
 30
0.0
  9
$EXTMIN
 10
-0.3047312319577031
 20
-0.1641582145784923
 30
-0.0015258207003583
  9
$EXTMAX
 10
420.2564435161002
 20
297.1802224685671
 30
0.0000000349246037
  9
$LIMMIN
 10
9566.194883365483
 20
-5608.079321299069
  9
$LIMMAX
 10
9986.194883365483
 20
-5311.079321299068
  9
$ORTHOMODE
 70
     0
  9
$REGENMODE
 70
     1
  9
$FILLMODE
 70
     1
  9
$QTEXTMODE
 70
     0
  9
$MIRRTEXT
 70
     0
  9
$LTSCALE
 40
1.0
  9
$ATTMODE
 70
     1
  9
$TEXTSIZE
 40
3.2
  9
$TRACEWID
 40
1.0
  9
$TEXTSTYLE
  7
STANDARD
  9
$CLAYER
  8
AM_0
  9
$CELTYPE
  6
ByLayer
  9
$CECOLOR
 62
   256
  9
$CELTSCALE
 40
1.0
  9
$DISPSILH
 70
     0
  9
$DIMSCALE
 40
1.0
  9
$DIMASZ
 40
1.0
  9
$DIMEXO
 40
1.0
  9
$DIMDLI
 40
10.0
  9
$DIMRND
 40
0.0
  9
$DIMDLE
 40
0.0
  9
$DIMEXE
 40
1.0
  9
$DIMTP
 40
0.1
  9
$DIMTM
 40
0.1
  9
$DIMTXT
 40
3.5
  9
$DIMCEN
 40
0.0
  9
$DIMTSZ
 40
0.0
  9
$DIMTOL
 70
     0
  9
$DIMLIM
 70
     0
  9
$DIMTIH
 70
     0
  9
$DIMTOH
 70
     0
  9
$DIMSE1
 70
     0
  9
$DIMSE2
 70
     0
  9
$DIMTAD
 70
     1
  9
$DIMZIN
 70
     8
  9
$DIMBLK
  1

  9
$DIMASO
 70
     1
  9
$DIMSHO
 70
     1
  9
$DIMPOST
  1

  9
$DIMAPOST
  1
"
  9
$DIMALT
 70
     0
  9
$DIMALTD
 70
     2
  9
$DIMALTF
 40
0.0393701
  9
$DIMLFAC
 40
1.0
  9
$DIMTOFL
 70
     1
  9
$DIMTVP
 40
0.0
  9
$DIMTIX
 70
     0
  9
$DIMSOXD
 70
     0
  9
$DIMSAH
 70
     1
  9
$DIMBLK1
  1

  9
$DIMBLK2
  1

  9
$DIMSTYLE
  2
SYS
  9
$DIMCLRD
 70
   256
  9
$DIMCLRE
 70
   256
  9
$DIMCLRT
 70
     7
  9
$DIMTFAC
 40
0.71
  9
$DIMGAP
 40
1.5
  9
$DIMJUST
 70
     0
  9
$DIMSD1
 70
     0
  9
$DIMSD2
 70
     0
  9
$DIMTOLJ
 70
     0
  9
$DIMTZIN
 70
     8
  9
$DIMALTZ
 70
     0
  9
$DIMALTTZ
 70
     0
  9
$DIMUPT
 70
     0
  9
$DIMDEC
 70
     1
  9
$DIMTDEC
 70
     2
  9
$DIMALTU
 70
     2
  9
$DIMALTTD
 70
     2
  9
$DIMTXSTY
  7
STANDARD
  9
$DIMAUNIT
 70
     0
  9
$DIMADEC
 70
     1
  9
$DIMALTRND
 40
0.0
  9
$DIMAZIN
 70
     2
  9
$DIMDSEP
 70
    46
  9
$DIMATFIT
 70
     3
  9
$DIMFRAC
 70
     0
  9
$DIMLDRBLK
  1

  9
$DIMLUNIT
 70
     2
  9
$DIMLWD
 70
    -1
  9
$DIMLWE
 70
    -1
  9
$DIMTMOVE
 70
     0
  9
$LUNITS
 70
     2
  9
$LUPREC
 70
     2
  9
$SKETCHINC
 40
1.0
  9
$FILLETRAD
 40
3.0
  9
$AUNITS
 70
     0
  9
$AUPREC
 70
     0
  9
$MENU
  1
.
  9
$ELEVATION
 40
0.0
  9
$PELEVATION
 40
0.0
  9
$THICKNESS
 40
0.0
  9
$LIMCHECK
 70
     0
  9
$CHAMFERA
 40
0.5
  9
$CHAMFERB
 40
0.5
  9
$CHAMFERC
 40
20.0
  9
$CHAMFERD
 40
0.0
  9
$SKPOLY
 70
     0
  9
$TDCREATE
 40
2453661.860417026
  9
$TDUCREATE
 40
2453661.485417026
  9
$TDUPDATE
 40
2456687.710082824
  9
$TDUUPDATE
 40
2456687.335082824
  9
$TDINDWG
 40
12.9857220023
  9
$TDUSRTIMER
 40
12.9857216435
  9
$USRTIMER
 70
     1
  9
$ANGBASE
 50
0.0
  9
$ANGDIR
 70
     0
  9
$PDMODE
 70
     0
  9
$PDSIZE
 40
-3.0
  9
$PLINEWID
 40
0.0
  9
$SPLFRAME
 70
     0
  9
$SPLINETYPE
 70
     6
  9
$SPLINESEGS
 70
     8
  9
$HANDSEED
  5
62742
  9
$SURFTAB1
 70
     6
  9
$SURFTAB2
 70
     6
  9
$SURFTYPE
 70
     6
  9
$SURFU
 70
     6
  9
$SURFV
 70
     6
  9
$UCSBASE
  2

  9
$UCSNAME
  2

  9
$UCSORG
 10
0.0
 20
0.0
 30
0.0
  9
$UCSXDIR
 10
1.0
 20
0.0
 30
0.0
  9
$UCSYDIR
 10
0.0
 20
1.0
 30
0.0
  9
$UCSORTHOREF
  2

  9
$UCSORTHOVIEW
 70
     0
  9
$UCSORGTOP
 10
0.0
 20
0.0
 30
0.0
  9
$UCSORGBOTTOM
 10
0.0
 20
0.0
 30
0.0
  9
$UCSORGLEFT
 10
0.0
 20
0.0
 30
0.0
  9
$UCSORGRIGHT
 10
0.0
 20
0.0
 30
0.0
  9
$UCSORGFRONT
 10
0.0
 20
0.0
 30
0.0
  9
$UCSORGBACK
 10
0.0
 20
0.0
 30
0.0
  9
$PUCSBASE
  2

  9
$PUCSNAME
  2

  9
$PUCSORG
 10
0.0
 20
0.0
 30
0.0
  9
$PUCSXDIR
 10
1.0
 20
0.0
 30
0.0
  9
$PUCSYDIR
 10
0.0
 20
1.0
 30
0.0
  9
$PUCSORTHOREF
  2

  9
$PUCSORTHOVIEW
 70
     0
  9
$PUCSORGTOP
 10
0.0
 20
0.0
 30
0.0
  9
$PUCSORGBOTTOM
 10
0.0
 20
0.0
 30
0.0
  9
$PUCSORGLEFT
 10
0.0
 20
0.0
 30
0.0
  9
$PUCSORGRIGHT
 10
0.0
 20
0.0
 30
0.0
  9
$PUCSORGFRONT
 10
0.0
 20
0.0
 30
0.0
  9
$PUCSORGBACK
 10
0.0
 20
0.0
 30
0.0
  9
$USERI1
 70
     0
  9
$USERI2
 70
     0
  9
$USERI3
 70
     0
  9
$USERI4
 70
     0
  9
$USERI5
 70
     0
  9
$USERR1
 40
0.0
  9
$USERR2
 40
0.0
  9
$USERR3
 40
0.0
  9
$USERR4
 40
0.0
  9
$USERR5
 40
0.0
  9
$WORLDVIEW
 70
     1
  9
$SHADEDGE
 70
     3
  9
$SHADEDIF
 70
    70
  9
$TILEMODE
 70
     1
  9
$MAXACTVP
 70
    64
  9
$PINSBASE
 10
0.0
 20
0.0
 30
0.0
  9
$PLIMCHECK
 70
     0
  9
$PEXTMIN
 10
1.000000000000000E+20
 20
1.000000000000000E+20
 30
1.000000000000000E+20
  9
$PEXTMAX
 10
-1.000000000000000E+20
 20
-1.000000000000000E+20
 30
-1.000000000000000E+20
  9
$PLIMMIN
 10
-3.17498779296875
 20
-3.174999952316284
  9
$PLIMMAX
 10
293.4970092773438
 20
206.692492723465
  9
$UNITMODE
 70
     0
  9
$VISRETAIN
 70
     1
  9
$PLINEGEN
 70
     0
  9
$PSLTSCALE
 70
     1
  9
$TREEDEPTH
 70
  3020
  9
$CMLSTYLE
  2
Standard
  9
$CMLJUST
 70
     0
  9
$CMLSCALE
 40
20.0
  9
$PROXYGRAPHICS
 70
     1
  9
$MEASUREMENT
 70
     1
  9
$CELWEIGHT
370
    -1
  9
$ENDCAPS
280
     0
  9
$JOINSTYLE
280
     0
  9
$LWDISPLAY
290
     1
  9
$INSUNITS
 70
     4
  9
$HYPERLINKBASE
  1

  9
$STYLESHEET
  1
monochrome.ctb
  9
$XEDIT
290
     1
  9
$CEPSNTYPE
380
     0
  9
$PSTYLEMODE
290
     1
  9
$FINGERPRINTGUID
  2
{FBA4335A-EFA4-4959-AAA1-669455D5D3FB}
  9
$VERSIONGUID
  2
{7B7E10B7-8924-47C4-8645-4AE44AA0A95F}
  9
$EXTNAMES
290
     1
  9
$PSVPSCALE
 40
0.0
  9
$OLESTARTUP
290
     0
  0
ENDSEC
  0
SECTION
  2
CLASSES
  0
CLASS
  1
ACDBDICTIONARYWDFLT
  2
AcDbDictionaryWithDefault
  3
ObjectDBX Classes
 90
        0
280
     0
281
     0
  0
CLASS
  1
ACDBPLACEHOLDER
  2
AcDbPlaceHolder
  3
ObjectDBX Classes
 90
        0
280
     0
281
     0
  0
CLASS
  1
LAYOUT
  2
AcDbLayout
  3
ObjectDBX Classes
 90
        0
280
     0
281
     0
  0
CLASS
  1
AMGSETTINGSOBJ
  2
AmgSettingsObj
  3
"AcadM|Product Description: AutoCAD Mechanical|Company: Autodesk"
 90
        0
280
     0
281
     0
  0
CLASS
  1
ACME_DOCUMENT
  2
AcMeDbDoc
  3
AcMeServices
 90
        0
280
     0
281
     0
  0
CLASS
  1
ACMESCOPE
  2
AcMeScope
  3
AcMeServices
 90
        0
280
     0
281
     0
  0
CLASS
  1
ACMECOMMANDHISTORY
  2
AcMeCommandHistory
  3
AcMeServices
 90
        0
280
     0
281
     0
  0
CLASS
  1
DICTIONARYVAR
  2
AcDbDictionaryVar
  3
ObjectDBX Classes
 90
        0
280
     0
281
     0
  0
CLASS
  1
ACIMSYSVARMAN
  2
AcImSysVarManager
  3
AcMeServices
 90
        0
280
     0
281
     0
  0
CLASS
  1
ACIMREALSYSVAR
  2
AcImRealSysVar
  3
AcMeServices
 90
        0
280
     0
281
     0
  0
CLASS
  1
ACIMINTSYSVAR
  2
AcImIntSysVar
  3
AcMeServices
 90
        0
280
     0
281
     0
  0
CLASS
  1
ACMEDRAWINGMAN
  2
AcMeDrawingMan
  3
AcMeServices
 90
        0
280
     0
281
     0
  0
CLASS
  1
ACMEVIEW
  2
AcMeView
  3
AcMeServices
 90
        0
280
     0
281
     0
  0
CLASS
  1
ACDBENTITYCACHE
  2
AcMeEntityCache
  3
AcMeServices
 90
        0
280
     0
281
     0
  0
CLASS
  1
GSMANAGER
  2
AcMeGSManager
  3
AcMeServices
 90
        0
280
     0
281
     0
  0
CLASS
  1
AMDTINTERNALREACTOR
  2
AmdtInternalReactor
  3
AcMeServices
 90
        0
280
     0
281
     0
  0
CLASS
  1
ACMESTATEMGR
  2
AcMeStateMgr
  3
AcMeServices
 90
        0
280
     0
281
     0
  0
CLASS
  1
ACGREFMASTER
  2
AcGrefMaster
  3
AcAttribServices
 90
        0
280
     0
281
     0
  0
CLASS
  1
ACME_DATABASE
  2
AcMeDbDatabase
  3
AcMeServices
 90
        0
280
     0
281
     0
  0
CLASS
  1
ACRFINSADJUSTERMGR
  2
AcRfInsAdjusterMgr
  3
AcMeServices
 90
        0
280
     0
281
     0
  0
CLASS
  1
ACGREFACADMASTER
  2
AcGrefacadMaster
  3
AcGrefServices
 90
        0
280
     0
281
     0
  0
CLASS
  1
AMIMASTER
  2
AmiMaster
  3
AmiServices
 90
        0
280
     0
281
     0
  0
CLASS
  1
ACMDATADICTIONARY
  2
AcmDataDictionary
  3
"AcmSymBB|Product Description: AutoCAD Mechanical|Company: Autodesk"
 90
        0
280
     0
281
     0
  0
CLASS
  1
ACMDATAENTRYBLOCK
  2
AcmDataEntryBlock
  3
"AcmSymBB|Product Description: AutoCAD Mechanical|Company: Autodesk"
 90
        0
280
     0
281
     0
  0
CLASS
  1
ACIMSTRSYSVAR
  2
AcImStrSysVar
  3
AcMeServices
 90
        0
280
     0
281
     0
  0
CLASS
  1
ACMSTANDARDISO
  2
AcmStandardISO
  3
"Amdt_StdImp|Product Description: AutoCAD Mechanical|Company: Autodesk"
 90
        0
280
     0
281
     0
  0
CLASS
  1
AMGOBJPROPCFG
  2
AmgObjPropCfg
  3
"AmgLay|Product Description: AutoCAD Mechanical|Company: Autodesk"
 90
        1
280
     0
281
     0
  0
CLASS
  1
AMDTEDGESTANDARDISO
  2
AmdtEdgeStdISO
  3
"Amdt_StdImp|Product Description: AutoCAD Mechanical|Company: Autodesk"
 90
        0
280
     0
281
     0
  0
CLASS
  1
ACMSURFSTANDARDISO
  2
AcmSurfTextStdISO
  3
"Amdt_StdImp|Product Description: AutoCAD Mechanical|Company: Autodesk"
 90
        0
280
     0
281
     0
  0
CLASS
  1
ACMFCFSTANDARDISO
  2
AcmFCFStdISO
  3
"Amdt_StdImp|Product Description: AutoCAD Mechanical|Company: Autodesk"
 90
        0
280
     0
281
     0
  0
CLASS
  1
ACMWELDSTANDARDISO
  2
AcmWeldingStdISO
  3
"Amdt_StdImp|Product Description: AutoCAD Mechanical|Company: Autodesk"
 90
        0
280
     0
281
     0
  0
CLASS
  1
ACMIDSTANDARDISO
  2
AcmIdStdISO
  3
"Amdt_StdImp|Product Description: AutoCAD Mechanical|Company: Autodesk"
 90
        0
280
     0
281
     0
  0
CLASS
  1
ACMDATUMSTANDARDISO
  2
AcmDatumStdISO
  3
"Amdt_StdImp|Product Description: AutoCAD Mechanical|Company: Autodesk"
 90
        0
280
     0
281
     0
  0
CLASS
  1
ACMBOMSTANDARDISO
  2
AcmBOMStdISO
  3
"Amdt_StdImp|Product Description: AutoCAD Mechanical|Company: Autodesk"
 90
        0
280
     0
281
     0
  0
CLASS
  1
ACMDETAILSTANDARDISO
  2
AmdtDetailSymStdISO
  3
"Amdt_StdImp|Product Description: AutoCAD Mechanical|Company: Autodesk"
 90
        0
280
     0
281
     0
  0
CLASS
  1
ACMSECTIONSTANDARDISO
  2
AmdtSectionSymStdISO
  3
"Amdt_StdImp|Product Description: AutoCAD Mechanical|Company: Autodesk"
 90
        0
280
     0
281
     0
  0
CLASS
  1
ACMCENTERLINESTANDARDISO
  2
AmdtCenterLineStdISO
  3
"Amdt_StdImp|Product Description: AutoCAD Mechanical|Company: Autodesk"
 90
        0
280
     0
281
     0
  0
CLASS
  1
ACAMGLAYSTD
  2
AcAmgLayStd
  3
"AmgLay|Product Description: AutoCAD Mechanical|Company: Autodesk"
 90
        0
280
     0
281
     0
  0
CLASS
  1
ACAMGDIMSTD
  2
AcAmgDimStd
  3
"AmgDim|Product Description: AutoCAD Mechanical|Company: Autodesk"
 90
        0
280
     0
281
     0
  0
CLASS
  1
ACAMGTITLESTD
  2
AcAmgTitleStd
  3
"AmgTitle|Product Description: AutoCAD Mechanical|Company: Autodesk"
 90
        0
280
     0
281
     0
  0
CLASS
  1
ACAMGFILTERDAT
  2
AcAmgFilterDat
  3
"AcadM|Product Description: AutoCAD Mechanical|Company: Autodesk"
 90
    32768
280
     0
281
     0
  0
CLASS
  1
LAYER_INDEX
  2
AcDbLayerIndex
  3
ObjectDBX Classes
 90
    32768
280
     0
281
     0
  0
CLASS
  1
IDBUFFER
  2
AcDbIdBuffer
  3
ObjectDBX Classes
 90
    32768
280
     0
281
     0
  0
CLASS
  1
PLOTSETTINGS
  2
AcDbPlotSettings
  3
ObjectDBX Classes
 90
        0
280
     0
281
     0
  0
CLASS
  1
AMDTFORMULAUPDATEDISPATCHER
  2
AmdtFormulaUpdateDispatcher
  3
AcMeServices
 90
        0
280
     0
281
     0
  0
CLASS
  1
ACMSTANDARDANSI
  2
AcmStandardANSI
  3
"Amdt_StdImp|Product Description: AutoCAD Mechanical|Company: Autodesk"
 90
        0
280
     0
281
     0
  0
CLASS
  1
ACMSURFSTANDARDANSI
  2
AcmSurfTextStdANSI
  3
"Amdt_StdImp|Product Description: AutoCAD Mechanical|Company: Autodesk"
 90
        0
280
     0
281
     0
  0
CLASS
  1
ACMFCFSTANDARDANSI
  2
AcmFCFStdANSI
  3
"Amdt_StdImp|Product Description: AutoCAD Mechanical|Company: Autodesk"
 90
        0
280
     0
281
     0
  0
CLASS
  1
ACMWELDSTANDARDANSI
  2
AcmWeldingStdANSI
  3
"Amdt_StdImp|Product Description: AutoCAD Mechanical|Company: Autodesk"
 90
        0
280
     0
281
     0
  0
CLASS
  1
ACMIDSTANDARDANSI
  2
AcmIdStdANSI
  3
"Amdt_StdImp|Product Description: AutoCAD Mechanical|Company: Autodesk"
 90
        0
280
     0
281
     0
  0
CLASS
  1
ACMDATUMSTANDARDANSI
  2
AcmDatumStdANSI
  3
"Amdt_StdImp|Product Description: AutoCAD Mechanical|Company: Autodesk"
 90
        0
280
     0
281
     0
  0
CLASS
  1
ACMBOMSTANDARDANSI
  2
AcmBOMStdANSI
  3
"Amdt_StdImp|Product Description: AutoCAD Mechanical|Company: Autodesk"
 90
        0
280
     0
281
     0
  0
CLASS
  1
ACMDETAILSTANDARDANSI
  2
AmdtDetailSymStdANSI
  3
"Amdt_StdImp|Product Description: AutoCAD Mechanical|Company: Autodesk"
 90
        0
280
     0
281
     0
  0
CLASS
  1
ACMSECTIONSTANDARDANSI
  2
AmdtSectionSymStdANSI
  3
"Amdt_StdImp|Product Description: AutoCAD Mechanical|Company: Autodesk"
 90
        0
280
     0
281
     0
  0
CLASS
  1
ACMCENTERLINESTANDARDANSI
  2
AmdtCenterLineStdANSI
  3
"Amdt_StdImp|Product Description: AutoCAD Mechanical|Company: Autodesk"
 90
        0
280
     0
281
     0
  0
CLASS
  1
ACMBOM
  2
AcmBom
  3
"AcmSymBB|Product Description: AutoCAD Mechanical|Company: Autodesk"
 90
    32768
280
     0
281
     0
  0
CLASS
  1
ACMDATAENTRYPART
  2
AcmDataEntryPart
  3
"AcmSymBB|Product Description: AutoCAD Mechanical|Company: Autodesk"
 90
    32768
280
     0
281
     0
  0
CLASS
  1
ACMPARTREF
  2
AcmPartRef
  3
"AcmSymBB|Product Description: AutoCAD Mechanical|Company: Autodesk"
 90
    35839
280
     0
281
     1
  0
CLASS
  1
ACDBCIRCARCRES
  2
AcDbCircArcRes
  3
AcGrefServices
 90
    32768
280
     0
281
     0
  0
CLASS
  1
ACMBOMROW
  2
AcmBomRow
  3
"AcmSymBB|Product Description: AutoCAD Mechanical|Company: Autodesk"
 90
    32768
280
     0
281
     0
  0
CLASS
  1
ACMBALLOON
  2
AcmBalloon
  3
"AcmSymBB|Product Description: AutoCAD Mechanical|Company: Autodesk"
 90
    35839
280
     0
281
     1
  0
CLASS
  1
AMDTNOTE
  2
AmdtNote
  3
"AcmSymBB|Product Description: AutoCAD Mechanical|Company: Autodesk"
 90
     3071
280
     0
281
     1
  0
CLASS
  1
STDPART2D
  2
AmgStdPart
  3
"g3vace|Class: AmgStdPart|Product Description: AutoCAD Mechanical|Company: Autodesk"
 90
    35839
280
     0
281
     1
  0
CLASS
  1
ACDBSTDPARTRES_LINE
  2
AcDbStdPartRes_Line
  3
"g3vace|Class: AcDbStdPartRes_Line|Product Description: AutoCAD Mechanical|Company: Autodesk"
 90
    32768
280
     0
281
     0
  0
CLASS
  1
ACMDATAENTRY
  2
AcmDataEntry
  3
"AcmSymBB|Product Description: AutoCAD Mechanical|Company: Autodesk"
 90
    32768
280
     0
281
     0
  0
CLASS
  1
ACDBOPPOLYLINERES
  2
AcDbOpPolylineRes
  3
AcGrefServices
 90
    32768
280
     0
281
     0
  0
CLASS
  1
ACMPARTLIST
  2
AcmPartList
  3
"AcmSymBB|Product Description: AutoCAD Mechanical|Company: Autodesk"
 90
    35839
280
     0
281
     1
  0
CLASS
  1
ACDBLINERES
  2
AcDbLineRes
  3
AcGrefServices
 90
        0
280
     0
281
     0
  0
CLASS
  1
ACRFINSADJ
  2
AcRfInsAdjuster
  3
AcMeServices
 90
    32768
280
     0
281
     0
  0
CLASS
  1
AM_DRAWING_MGR
  2
AcDmDwgMgr
  3
AcMechDwgViewMgmt
 90
        0
280
     0
281
     0
  0
CLASS
  1
AM_DWG_DOCUMENT
  2
AcDmDwgDocument
  3
AcMechDwgViewMgmt
 90
        0
280
     0
281
     0
  0
CLASS
  1
AM_DWG_SHEET
  2
AcDmSheet
  3
AcMechDwgViewMgmt
 90
        0
280
     0
281
     0
  0
CLASS
  1
AM_VIEWDIMPARMAP
  2
AcDmViewDimParMap
  3
AcMechDwgViewMgmt
 90
        0
280
     0
281
     0
  0
CLASS
  1
AM_DWGMGR_NAME
  2
AcDmDwgMgrName
  3
AcMechDwgViewMgmt
 90
        0
280
     0
281
     0
  0
CLASS
  1
AMDTMENUSTATEMGR
  2
AmdtMenuStateMgr
  3
McadcomServices
 90
        0
280
     0
281
     0
  0
CLASS
  1
AMDTMCOMMENUSTATE
  2
AmdtMcomMenuState
  3
McadcomServices
 90
        0
280
     0
281
     0
  0
CLASS
  1
ASAPP
  2
AcAsAppObject
  3
AutoSurfServices
 90
        0
280
     0
281
     0
  0
CLASS
  1
IM_STATIC_MAN
  2
AcImStaticVarManager
  3
AcMeServices
 90
    32768
280
     0
281
     0
  0
CLASS
  1
ACIMDBLSTATICVAR
  2
AcImDblStaticVar
  3
AcMeServices
 90
    32768
280
     0
281
     0
  0
CLASS
  1
ACIMSTRSTATICVAR
  2
AcImStrStaticVar
  3
AcMeServices
 90
    32768
280
     0
281
     0
  0
CLASS
  1
ACIMINTSTATICVAR
  2
AcImIntStaticVar
  3
AcMeServices
 90
    32768
280
     0
281
     0
  0
CLASS
  1
ACASGREFMASTER
  2
AcAsGrefMaster
  3
AutoSurfResolverServices
 90
        0
280
     0
281
     0
  0
CLASS
  1
ACADGREFMODULE
  2
AcAdGrefModule
  3
AdGrefServices
 90
        0
280
     0
281
     0
  0
CLASS
  1
AMDTMAPISURFMOUDULE
  2
AmdtMApiSurfModule
  3
MApiSurfServices
 90
        0
280
     0
281
     0
  0
CLASS
  1
MAPIAMMOUDLE
  2
MApiAmModule
  3
MApiAmServices
 90
        0
280
     0
281
     0
  0
CLASS
  1
AMDTADMENUSTATE
  2
AmdtAdMenuState
  3
DesignerServices
 90
        0
280
     0
281
     0
  0
CLASS
  1
ADAPPL
  2
AcAdAppl
  3
DesignerServices
 90
        0
280
     0
281
     0
  0
CLASS
  1
DEPMGR
  2
AcAdDepMgr
  3
DesignerServices
 90
        0
280
     0
281
     0
  0
CLASS
  1
PARAMMGR
  2
AcAdParamMgr
  3
DesignerServices
 90
        0
280
     0
281
     0
  0
CLASS
  1
PARAMSCOPE
  2
AcAdParamScope
  3
DesignerServices
 90
        0
280
     0
281
     0
  0
CLASS
  1
NAMEDAPPL
  2
AcAdNamedAppl
  3
DesignerServices
 90
        0
280
     0
281
     0
  0
CLASS
  1
ADHNTMPLT
  2
AdHoleNoteTemplateMgr
  3
DesignerServices
 90
    32768
280
     0
281
     0
  0
CLASS
  1
AM_HNTEMPLATE_MGR_NAME
  2
AdHoleNoteTemplateMgrName
  3
DesignerServices
 90
    32768
280
     0
281
     0
  0
CLASS
  1
AMDTDMMENUSTATE
  2
AmdtDmMenuState
  3
AcMechDwgViewMgmt
 90
        0
280
     0
281
     0
  0
CLASS
  1
MAPIADMODULE
  2
MApiAdModule
  3
MApiAdServices
 90
        0
280
     0
281
     0
  0
CLASS
  1
AMDTAMMENUSTATE
  2
AmdtAmMenuState
  3
DesignerAssemblies
 90
        0
280
     0
281
     0
  0
CLASS
  1
ACAMPROJECT
  2
AcAmProject
  3
DesignerAssemblies
 90
        0
280
     0
281
     0
  0
CLASS
  1
ACAMGRCOMPDEF
  2
AcAmGrCompDef
  3
DesignerAssemblies
 90
        0
280
     0
281
     0
  0
CLASS
  1
ACCMCONTEXT
  2
AcCmContext
  3
DesignerAssemblies
 90
        0
280
     0
281
     0
  0
CLASS
  1
ACAMCOMPDEF
  2
AcAmCompDef
  3
DesignerAssemblies
 90
        0
280
     0
281
     0
  0
CLASS
  1
ACAMCOMPDEFMGR
  2
AcAmCompDefMgr
  3
DesignerAssemblies
 90
        0
280
     0
281
     0
  0
CLASS
  1
AMCONTEXTMGR
  2
AcAmContextMgr
  3
DesignerAssemblies
 90
        0
280
     0
281
     0
  0
CLASS
  1
ACAMCONTEXTMODELER
  2
AcAmContextModeler
  3
DesignerAssemblies
 90
        0
280
     0
281
     0
  0
CLASS
  1
CATALOGSTATE
  2
AcAmCatalogState
  3
DesignerAssemblies
 90
        0
280
     0
281
     0
  0
CLASS
  1
ACAMGRCOMPDEFSET
  2
AcAmGrCompDefSet
  3
DesignerAssemblies
 90
        0
280
     0
281
     0
  0
CLASS
  1
AMDTBROWSERDBTAB
  2
AmdtBrowserDbTab
  3
McadcomServices
 90
        0
280
     0
281
     0
  0
CLASS
  1
CBROWSERAPPOBJECT
  2
CBrowserAppObject
  3
McadcomServices
 90
        0
280
     0
281
     0
  0
CLASS
  1
DM_PLACEHOLDER
  2
AcDmSelsetPlaceholder
  3
AcMechDwgViewMgmt
 90
        0
280
     0
281
     0
  0
CLASS
  1
ACMPICKOBJ
  2
AcmPickEnt
  3
"AcmSymBB|Product Description: AutoCAD Mechanical|Company: Autodesk"
 90
    32768
280
     0
281
     1
  0
CLASS
  1
ACMNOTESTANDARDISO
  2
AmdtNoteStdISO
  3
"Amdt_StdImp|Product Description: AutoCAD Mechanical|Company: Autodesk"
 90
        0
280
     0
281
     0
  0
CLASS
  1
ACMNOTESTANDARDANSI
  2
AmdtNoteStdANSI
  3
"Amdt_StdImp|Product Description: AutoCAD Mechanical|Company: Autodesk"
 90
        0
280
     0
281
     0
  0
CLASS
  1
ACMTHREADLINESTANDARDISO
  2
AmdtThreadLineStdISO
  3
"Amdt_StdImp|Product Description: AutoCAD Mechanical|Company: Autodesk"
 90
        0
280
     0
281
     0
  0
CLASS
  1
ACMTHREADLINESTANDARDANSI
  2
AmdtThreadLineStdANSI
  3
"Amdt_StdImp|Product Description: AutoCAD Mechanical|Company: Autodesk"
 90
        0
280
     0
281
     0
  0
CLASS
  1
TABLESTYLE
  2
AcDbTableStyle
  3
ObjectDBX Classes
 90
     4095
280
     0
281
     0
  0
CLASS
  1
SORTENTSTABLE
  2
AcDbSortentsTable
  3
ObjectDBX Classes
 90
        0
280
     0
281
     0
  0
CLASS
  1
DIMASSOC
  2
AcDbDimAssoc
  3
"AcDbDimAssoc|Product Desc:     AcDim ARX App For Dimension|Company:          Autodesk, Inc.|WEB Address:      www.autodesk.com"
 90
        0
280
     0
281
     0
  0
CLASS
  1
AMDTACMWBLOCKBOMENTITY
  2
AmdtAcmWblockBomEntity
  3
"AcmSymBB|Product Description: AutoCAD Mechanical|Company: Autodesk"
 90
    35839
280
     0
281
     1
  0
CLASS
  1
AMDTNOTETEMPLATEDB
  2
AmdtNoteTemplateDB
  3
AMDT_STDIMP_MODULE_NAME
 90
        0
280
     0
281
     0
  0
CLASS
  1
ACDBELLIPSERES
  2
AcDbEllipseRes
  3
AcGrefServices
 90
    32768
280
     0
281
     0
  0
CLASS
  1
MATERIAL
  2
AcDbMaterial
  3
ObjectDBX Classes
 90
     1024
280
     0
281
     0
  0
CLASS
  1
VISUALSTYLE
  2
AcDbVisualStyle
  3
ObjectDBX Classes
 90
     4095
280
     0
281
     0
  0
CLASS
  1
ACRFATTGENMGR
  2
AcRfAttGeneralMgr
  3
AcAttribServices
 90
    32768
280
     0
281
     0
  0
CLASS
  1
ACRFOBJATTMGR
  2
AcRfObjAttGroupMgr
  3
AcAttribServices
 90
    32768
280
     0
281
     0
  0
CLASS
  1
ACRFMCADAPIATTHOLDER
  2
AcRfMCADAPIAttHolder
  3
AcAttribServices
 90
    32768
280
     0
281
     0
  0
CLASS
  1
AMDTSYSATTR
  2
AmdtSystemAttribute
  3
AcAttribServices
 90
    32768
280
     0
281
     0
  0
CLASS
  1
ACMTAPERSTANDARDISO
  2
AcmTaperStdISO
  3
"Amdt_StdImp|Product Description: AutoCAD Mechanical|Company: Autodesk"
 90
        0
280
     0
281
     0
  0
CLASS
  1
ACMTAPERSTANDARDANSI
  2
AcmTaperStdANSI
  3
"Amdt_StdImp|Product Description: AutoCAD Mechanical|Company: Autodesk"
 90
        0
280
     0
281
     0
  0
CLASS
  1
CAMSSTRUCTBTNSTATE
  2
StructBtnState
  3
L"DesignerAssemblies"
 90
        0
280
     0
281
     0
  0
CLASS
  1
ACMSTANDARDJIS
  2
AcmStandardJIS
  3
"Amdt_StdImp|Product Description: AutoCAD Mechanical|Company: Autodesk"
 90
    32768
280
     0
281
     0
  0
CLASS
  1
ACMSURFSTANDARDJIS
  2
AcmSurfTextStdJIS
  3
"Amdt_StdImp|Product Description: AutoCAD Mechanical|Company: Autodesk"
 90
    32768
280
     0
281
     0
  0
CLASS
  1
ACMFCFSTANDARDJIS
  2
AcmFCFStdJIS
  3
"Amdt_StdImp|Product Description: AutoCAD Mechanical|Company: Autodesk"
 90
    32768
280
     0
281
     0
  0
CLASS
  1
ACMWELDSTANDARDJIS
  2
AcmWeldingStdJIS
  3
"Amdt_StdImp|Product Description: AutoCAD Mechanical|Company: Autodesk"
 90
    32768
280
     0
281
     0
  0
CLASS
  1
ACMIDSTANDARDJIS
  2
AcmIdStdJIS
  3
"Amdt_StdImp|Product Description: AutoCAD Mechanical|Company: Autodesk"
 90
    32768
280
     0
281
     0
  0
CLASS
  1
ACMDATUMSTANDARDJIS
  2
AcmDatumStdJIS
  3
"Amdt_StdImp|Product Description: AutoCAD Mechanical|Company: Autodesk"
 90
    32768
280
     0
281
     0
  0
CLASS
  1
ACMBOMSTANDARDJIS
  2
AcmBOMStdJIS
  3
"Amdt_StdImp|Product Description: AutoCAD Mechanical|Company: Autodesk"
 90
    32768
280
     0
281
     0
  0
CLASS
  1
ACMDETAILSTANDARDJIS
  2
AmdtDetailSymStdJIS
  3
"Amdt_StdImp|Product Description: AutoCAD Mechanical|Company: Autodesk"
 90
    32768
280
     0
281
     0
  0
CLASS
  1
ACMSECTIONSTANDARDJIS
  2
AmdtSectionSymStdJIS
  3
"Amdt_StdImp|Product Description: AutoCAD Mechanical|Company: Autodesk"
 90
    32768
280
     0
281
     0
  0
CLASS
  1
ACMCENTERLINESTANDARDJIS
  2
AmdtCenterLineStdJIS
  3
"Amdt_StdImp|Product Description: AutoCAD Mechanical|Company: Autodesk"
 90
    32768
280
     0
281
     0
  0
CLASS
  1
ACMNOTESTANDARDJIS
  2
AmdtNoteStdJIS
  3
"Amdt_StdImp|Product Description: AutoCAD Mechanical|Company: Autodesk"
 90
    32768
280
     0
281
     0
  0
CLASS
  1
ACMTHREADLINESTANDARDJIS
  2
AmdtThreadLineStdJIS
  3
"Amdt_StdImp|Product Description: AutoCAD Mechanical|Company: Autodesk"
 90
    32768
280
     0
281
     0
  0
CLASS
  1
ACMTAPERSTANDARDJIS
  2
AcmTaperStdJIS
  3
"Amdt_StdImp|Product Description: AutoCAD Mechanical|Company: Autodesk"
 90
    32768
280
     0
281
     0
  0
CLASS
  1
SCALE
  2
AcDbScale
  3
ObjectDBX Classes
 90
     1153
280
     0
281
     0
  0
CLASS
  1
MLEADERSTYLE
  2
AcDbMLeaderStyle
  3
ACDB_MLEADERSTYLE_CLASS
 90
     4095
280
     0
281
     0
  0
CLASS
  1
ACMANOOTATIONVIEWSTANDARDISO
  2
AmdtAnViewStdISO
  3
"Amdt_StdImp|Product Description: AutoCAD Mechanical|Company: Autodesk, Inc."
 90
    33792
280
     0
281
     0
  0
CLASS
  1
ACMANOOTATIONVIEWSTANDARDANSI
  2
AmdtAnViewStdANSI
  3
"Amdt_StdImp|Product Description: AutoCAD Mechanical|Company: Autodesk, Inc."
 90
    33792
280
     0
281
     0
  0
CLASS
  1
ACMANOOTATIONVIEWSTANDARDJIS
  2
AmdtAnViewStdJIS
  3
"Amdt_StdImp|Product Description: AutoCAD Mechanical|Company: Autodesk, Inc."
 90
    33792
280
     0
281
     0
  0
CLASS
  1
CELLSTYLEMAP
  2
AcDbCellStyleMap
  3
ObjectDBX Classes
 90
     1152
280
     0
281
     0
  0
CLASS
  1
AMDTEDGESTANDARDISO13715
  2
AmdtEdgeStdISO13715
  3
"Amdt_StdImp|Product Description: AutoCAD Mechanical|Company: Autodesk"
 90
        0
280
     0
281
     0
  0
CLASS
  1
ACAMGHOLECHARTSTDISO
  2
AcAmgHoleChartStdISO
  3
ACMSYMBB_MODULE_NAME
 90
        0
280
     0
281
     0
  0
CLASS
  1
ACAMGHOLECHARTSTDANSI
  2
AcAmgHoleChartStdANSI
  3
ACMSYMBB_MODULE_NAME
 90
        0
280
     0
281
     0
  0
ENDSEC
  0
SECTION
  2
TABLES
  0
TABLE
  2
VPORT
  5
8
102
{ACAD_XDICTIONARY
360
612CA
102
}
330
0
100
AcDbSymbolTable
 70
     1
  0
VPORT
  5
28F04
330
8
100
AcDbSymbolTableRecord
100
AcDbViewportTableRecord
  2
*Active
 70
     0
 10
0.0
 20
0.0
 11
1.0
 21
1.0
 12
209.9758561420713
 22
148.5080321269942
 13
0.0
 23
0.0
 14
2.5
 24
2.5
 15
10.0
 25
10.0
 16
0.0
 26
0.0
 36
1.0
 17
0.0
 27
0.0
 37
0.0
 40
299.5334190685429
 41
1.648648648648648
 42
50.0
 43
-1370.695619172058
 44
-1370.695619172058
 50
0.0
 51
0.0
 71
    16
 72
   100
 73
     1
 74
     3
 75
     0
 76
     0
 77
     0
 78
     1
281
     0
 65
     0
110
0.0
120
0.0
130
0.0
111
1.0
121
0.0
131
0.0
112
0.0
122
1.0
132
0.0
 79
     0
146
0.0
  0
ENDTAB
  0
TABLE
  2
LTYPE
  5
5
330
0
100
AcDbSymbolTable
 70
    45
  0
LTYPE
  5
14
330
5
100
AcDbSymbolTableRecord
100
AcDbLinetypeTableRecord
  2
ByBlock
 70
     0
  3

 72
    65
 73
     0
 40
0.0
  0
LTYPE
  5
15
330
5
100
AcDbSymbolTableRecord
100
AcDbLinetypeTableRecord
  2
ByLayer
 70
     0
  3

 72
    65
 73
     0
 40
0.0
  0
LTYPE
  5
16
330
5
100
AcDbSymbolTableRecord
100
AcDbLinetypeTableRecord
  2
Continuous
 70
     0
  3
Solid line
 72
    65
 73
     0
 40
0.0
  0
LTYPE
  5
4F
330
5
100
AcDbSymbolTableRecord
100
AcDbLinetypeTableRecord
  2
AM_ISO02W050
 70
     0
  3
__ __ __ __ __ __ __ __ __ __ __ __ __ __ __
 72
    65
 73
     2
 40
7.5
 49
6.0
 74
     0
 49
-1.5
 74
     0
  0
LTYPE
  5
52
330
5
100
AcDbSymbolTableRecord
100
AcDbLinetypeTableRecord
  2
Amconstr
 70
     0
  3
_______________________
 72
    65
 73
     2
 40
9999.0
 49
9999.0
 74
     0
 49
0.0
 74
     0
  0
LTYPE
  5
64
330
5
100
AcDbSymbolTableRecord
100
AcDbLinetypeTableRecord
  2
ACISOWELD
 70
     0
  3
_ _ _ _ _
 72
    65
 73
     2
 40
2.0
 49
2.0
 74
     0
 49
-1.0
 74
     0
  0
LTYPE
  5
65
330
5
100
AcDbSymbolTableRecord
100
AcDbLinetypeTableRecord
  2
ACISOTGB
 70
     0
  3
__ . . __ . .
 72
    65
 73
     6
 40
9.0
 49
4.0
 74
     0
 49
-1.0
 74
     0
 49
1.0
 74
     0
 49
-1.0
 74
     0
 49
1.0
 74
     0
 49
-1.0
 74
     0
  0
LTYPE
  5
66
330
5
100
AcDbSymbolTableRecord
100
AcDbLinetypeTableRecord
  2
ACISOTGL
 70
     0
  3
_ _ _ _ _
 72
    65
 73
     2
 40
3.0
 49
2.0
 74
     0
 49
-1.0
 74
     0
  0
LTYPE
  5
69
330
5
100
AcDbSymbolTableRecord
100
AcDbLinetypeTableRecord
  2
CENTER
 70
     0
  3
__ . __
 72
    65
 73
     4
 40
7.0
 49
4.0
 74
     0
 49
-1.0
 74
     0
 49
1.0
 74
     0
 49
-1.0
 74
     0
  0
LTYPE
  5
A6E
330
5
100
AcDbSymbolTableRecord
100
AcDbLinetypeTableRecord
  2
PHANTOM2
 70
     0
  3
Phantom (.5x) ___ _ _ ___ _ _ ___ _ _ ___ _ _
 72
    65
 73
     6
 40
31.75
 49
15.875
 74
     0
 49
-3.174999999999999
 74
     0
 49
3.174999999999999
 74
     0
 49
-3.174999999999999
 74
     0
 49
3.174999999999999
 74
     0
 49
-3.174999999999999
 74
     0
  0
LTYPE
  5
4DED
330
5
100
AcDbSymbolTableRecord
100
AcDbLinetypeTableRecord
  2
中線
 70
     0
  3
___________________
 72
    65
 73
     2
 40
2.0
 49
1.0
 74
     0
 49
1.0
 74
     0
  0
LTYPE
  5
4DF6
330
5
100
AcDbSymbolTableRecord
100
AcDbLinetypeTableRecord
  2
細線
 70
     0
  3
___________________
 72
    65
 73
     2
 40
2.0
 49
1.0
 74
     0
 49
1.0
 74
     0
  0
LTYPE
  5
4DF7
330
5
100
AcDbSymbolTableRecord
100
AcDbLinetypeTableRecord
  2
太線
 70
     0
  3
___________________
 72
    65
 73
     2
 40
2.0
 49
1.0
 74
     0
 49
1.0
 74
     0
  0
LTYPE
  5
4EA7
330
5
100
AcDbSymbolTableRecord
100
AcDbLinetypeTableRecord
  2
文字
 70
     0
  3
_________________
 72
    65
 73
     2
 40
2.0
 49
1.0
 74
     0
 49
1.0
 74
     0
  0
LTYPE
  5
4EA9
330
5
100
AcDbSymbolTableRecord
100
AcDbLinetypeTableRecord
  2
寸法線
 70
     0
  3
________________
 72
    65
 73
     2
 40
2.0
 49
1.0
 74
     0
 49
1.0
 74
     0
  0
LTYPE
  5
4F12
330
5
100
AcDbSymbolTableRecord
100
AcDbLinetypeTableRecord
  2
ハッチング
 70
     0
  3
_________________
 72
    65
 73
     2
 40
2.0
 49
1.0
 74
     0
 49
1.0
 74
     0
  0
LTYPE
  5
5180
330
5
100
AcDbSymbolTableRecord
100
AcDbLinetypeTableRecord
  2
陰線1
 70
     0
  3
__ __ __ __
 72
    65
 73
     2
 40
4.0
 49
2.2
 74
     0
 49
-1.8
 74
     0
  0
LTYPE
  5
5182
330
5
100
AcDbSymbolTableRecord
100
AcDbLinetypeTableRecord
  2
切断線
 70
     0
  3
/\/-/\/-/\/-/\/-/\/-/\/
 72
    65
 73
     2
 40
11.0001
 49
0.0001
 74
     4
 75
   135
340
56
 46
0.04
 50
0.0
 44
0.0
 45
0.0
 49
-11.0
 74
     0
  0
LTYPE
  5
5183
330
5
100
AcDbSymbolTableRecord
100
AcDbLinetypeTableRecord
  2
想像線1
 70
     0
  3
__ __ __ _____ __ __ ____
 72
    65
 73
     6
 40
14.5
 49
6.0
 74
     0
 49
-1.5
 74
     0
 49
2.0
 74
     0
 49
-1.5
 74
     0
 49
2.0
 74
     0
 49
-1.5
 74
     0
  0
LTYPE
  5
5185
330
5
100
AcDbSymbolTableRecord
100
AcDbLinetypeTableRecord
  2
中心線1
 70
     0
  3
___ _ ___ _ ___
 72
    65
 73
     4
 40
18.0
 49
12.0
 74
     0
 49
-2.0
 74
     0
 49
2.0
 74
     0
 49
-2.0
 74
     0
  0
LTYPE
  5
5188
330
5
100
AcDbSymbolTableRecord
100
AcDbLinetypeTableRecord
  2
補助線
 70
     0
  3
______________
 72
    65
 73
     2
 40
2.0
 49
1.0
 74
     0
 49
1.0
 74
     0
  0
LTYPE
  5
6427
330
5
100
AcDbSymbolTableRecord
100
AcDbLinetypeTableRecord
  2
HIDDEN
 70
     0
  3
Hidden __ __ __ __ __ __ __ __ __ __ __ __ __ _
 72
    65
 73
     2
 40
0.375
 49
0.25
 74
     0
 49
-0.125
 74
     0
  0
LTYPE
  5
AF0F
330
5
100
AcDbSymbolTableRecord
100
AcDbLinetypeTableRecord
  2
genzigzag
 70
     0
  3
/\/-/\/-/\/-/\/-/\/-/\/
 72
    65
 73
     2
 40
12.0001
 49
0.0001
 74
     4
 75
   135
340
AC80
 46
2.0
 50
0.0
 44
0.0
 45
0.0
 49
-12.0
 74
     0
  0
LTYPE
  5
1F68C
330
5
100
AcDbSymbolTableRecord
100
AcDbLinetypeTableRecord
  2
ACANSTGB
 70
     0
  3
__ . . __ . .
 72
    65
 73
     6
 40
0.35433070866
 49
0.15748031496
 74
     0
 49
-0.03937007874
 74
     0
 49
0.03937007874
 74
     0
 49
-0.03937007874
 74
     0
 49
0.03937007874
 74
     0
 49
-0.03937007874
 74
     0
  0
LTYPE
  5
1F68D
330
5
100
AcDbSymbolTableRecord
100
AcDbLinetypeTableRecord
  2
ACANSTGL
 70
     0
  3
_ _ _ _ _
 72
    65
 73
     2
 40
0.11811023622
 49
0.07874015748
 74
     0
 49
-0.03937007874
 74
     0
  0
LTYPE
  5
2A3D8
330
5
100
AcDbSymbolTableRecord
100
AcDbLinetypeTableRecord
  2
GEN3
 70
     0
  3
-- -- -- -- -- -- -- -- -- -- -- -- -- -- --
 72
    65
 73
     2
 40
6.25
 49
4.75
 74
     0
 49
-1.5
 74
     0
  0
LTYPE
  5
2A3D9
330
5
100
AcDbSymbolTableRecord
100
AcDbLinetypeTableRecord
  2
AM_ISO08W050
 70
     0
  3
____ . ____ . ____ . ____ . ____ . ____ . ____
 72
    65
 73
     4
 40
18.0
 49
12.0
 74
     0
 49
-1.5
 74
     0
 49
3.0
 74
     0
 49
-1.5
 74
     0
  0
LTYPE
  5
2A3DA
330
5
100
AcDbSymbolTableRecord
100
AcDbLinetypeTableRecord
  2
AM_ISO09W050
 70
     0
  3
_____ . . _____ . . _____ . . ____ .. ____
 72
    65
 73
     6
 40
22.5
 49
12.0
 74
     0
 49
-1.5
 74
     0
 49
3.0
 74
     0
 49
-1.5
 74
     0
 49
3.0
 74
     0
 49
-1.5
 74
     0
  0
LTYPE
  5
2A3DB
330
5
100
AcDbSymbolTableRecord
100
AcDbLinetypeTableRecord
  2
AM_ISO02W050x2
 70
     0
  3
 _ _ _ _ _ _ _ _ _ _ _ _
 72
    65
 73
     2
 40
3.75
 49
3.0
 74
     0
 49
-0.75
 74
     0
  0
LTYPE
  5
2A3DC
330
5
100
AcDbSymbolTableRecord
100
AcDbLinetypeTableRecord
  2
AM_ISO08W050x2
 70
     0
  3
__ . __ . __ . __ . __ . __
 72
    65
 73
     4
 40
9.0
 49
6.0
 74
     0
 49
-0.75
 74
     0
 49
1.5
 74
     0
 49
-0.75
 74
     0
  0
LTYPE
  5
2A3DD
330
5
100
AcDbSymbolTableRecord
100
AcDbLinetypeTableRecord
  2
Amzigzag
 70
     0
  3
/\/-/\/-/\/-/\/-/\/-/\/
 72
    65
 73
     2
 40
11.0001
 49
0.0001
 74
     4
 75
   135
340
56
 46
0.04
 50
0.0
 44
0.0
 45
0.0
 49
-11.0
 74
     0
  0
LTYPE
  5
2A3E0
330
5
100
AcDbSymbolTableRecord
100
AcDbLinetypeTableRecord
  2
GEN4A
 70
     0
  3
_____ . . _____ . . _____ . . ____ .. ____
 72
    65
 73
     6
 40
16.25
 49
9.75
 74
     0
 49
-1.5
 74
     0
 49
1.0
 74
     0
 49
-1.5
 74
     0
 49
1.0
 74
     0
 49
-1.5
 74
     0
  0
ENDTAB
  0
TABLE
  2
LAYER
  5
2
102
{ACAD_XDICTIONARY
360
3F95
102
}
330
0
100
AcDbSymbolTable
 70
    47
  0
LAYER
  5
10
102
{ACAD_XDICTIONARY
360
5A9C4
102
}
330
2
100
AcDbSymbolTableRecord
100
AcDbLayerTableRecord
  2
0
 70
     0
 62
     7
  6
Continuous
370
    -3
390
F
  0
LAYER
  5
6D1
330
2
100
AcDbSymbolTableRecord
100
AcDbLayerTableRecord
  2
Defpoints
 70
     0
 62
     7
  6
Continuous
290
     0
370
    -3
390
F
  0
LAYER
  5
5F85
102
{ACAD_XDICTIONARY
360
5A9C6
102
}
330
2
100
AcDbSymbolTableRecord
100
AcDbLayerTableRecord
  2
AM_0
 70
     0
 62
     7
  6
中線
370
    25
390
F
1001
AcAecLayerStandard
1000

1000

  0
LAYER
  5
AC9F
102
{ACAD_XDICTIONARY
360
5A9C8
102
}
330
2
100
AcDbSymbolTableRecord
100
AcDbLayerTableRecord
  2
size
 70
     0
 62
     5
  6
Continuous
290
     0
370
    25
390
F
  0
LAYER
  5
ACA0
102
{ACAD_XDICTIONARY
360
5A9CA
102
}
330
2
100
AcDbSymbolTableRecord
100
AcDbLayerTableRecord
  2
waku
 70
     0
 62
     7
  6
Continuous
370
    35
390
F
  0
LAYER
  5
ACA1
102
{ACAD_XDICTIONARY
360
5A9CC
102
}
330
2
100
AcDbSymbolTableRecord
100
AcDbLayerTableRecord
  2
AM_6
 70
     0
 62
     2
  6
文字
370
    15
390
F
1001
AcAecLayerStandard
1000

1000

  0
LAYER
  5
ACC8
102
{ACAD_XDICTIONARY
360
5A9CE
102
}
330
2
100
AcDbSymbolTableRecord
100
AcDbLayerTableRecord
  2
hyomoji
 70
     0
 62
     2
  6
Continuous
370
    15
390
F
  0
LAYER
  5
ACC9
102
{ACAD_XDICTIONARY
360
5A9D0
102
}
330
2
100
AcDbSymbolTableRecord
100
AcDbLayerTableRecord
  2
hyosen1
 70
     0
 62
     1
  6
Continuous
370
    25
390
F
  0
LAYER
  5
ACCA
102
{ACAD_XDICTIONARY
360
5A9D2
102
}
330
2
100
AcDbSymbolTableRecord
100
AcDbLayerTableRecord
  2
hyosen2
 70
     0
 62
     1
  6
Continuous
370
    15
390
F
  0
LAYER
  5
AD64
102
{ACAD_XDICTIONARY
360
5A9D4
102
}
330
2
100
AcDbSymbolTableRecord
100
AcDbLayerTableRecord
  2
AM_2
 70
     0
 62
     1
  6
細線
370
    15
390
F
1001
AcAecLayerStandard
1000

1000

  0
LAYER
  5
AD67
102
{ACAD_XDICTIONARY
360
5A9D6
102
}
330
2
100
AcDbSymbolTableRecord
100
AcDbLayerTableRecord
  2
AM_3
 70
     0
 62
     6
  6
陰線1
370
    15
390
F
1001
AcAecLayerStandard
1000

1000

  0
LAYER
  5
AD68
102
{ACAD_XDICTIONARY
360
5A9D8
102
}
330
2
100
AcDbSymbolTableRecord
100
AcDbLayerTableRecord
  2
AM_5
 70
     0
 62
     3
  6
寸法線
370
    15
390
F
1001
AcAecLayerStandard
1000

1000

  0
LAYER
  5
AD69
102
{ACAD_XDICTIONARY
360
5A9DA
102
}
330
2
100
AcDbSymbolTableRecord
100
AcDbLayerTableRecord
  2
AM_7
 70
     0
 62
     4
  6
中心線1
370
    15
390
F
1001
AcAecLayerStandard
1000

1000

  0
LAYER
  5
C67E
102
{ACAD_XDICTIONARY
360
5A9E2
102
}
330
2
100
AcDbSymbolTableRecord
100
AcDbLayerTableRecord
  2
AM_4
 70
     0
 62
     3
  6
補助線
370
    15
390
F
  0
LAYER
  5
C67F
102
{ACAD_XDICTIONARY
360
5A9E4
102
}
330
2
100
AcDbSymbolTableRecord
100
AcDbLayerTableRecord
  2
AM_CL
 70
     0
 62
     1
  6
Amconstr
370
    15
390
F
  0
LAYER
  5
3101A
102
{ACAD_XDICTIONARY
360
5AA06
102
}
330
2
100
AcDbSymbolTableRecord
100
AcDbLayerTableRecord
  2
AM_1
 70
     0
 62
    30
  6
太線
370
    25
390
F
  0
ENDTAB
  0
TABLE
  2
STYLE
  5
3
330
0
100
AcDbSymbolTable
 70
    16
  0
STYLE
  5
11
330
3
100
AcDbSymbolTableRecord
100
AcDbTextStyleTableRecord
  2
STANDARD
 70
     0
 40
0.0
 41
0.7
 50
0.0
 71
     0
 42
3.2
  3
romans.shx
  4
extfont.shx
  0
STYLE
  5
56
330
3
100
AcDbSymbolTableRecord
100
AcDbTextStyleTableRecord
  2

 70
     1
 40
0.0
 41
1.0
 50
0.0
 71
     0
 42
2.5
  3
ltypeshp.shx
  4

  0
STYLE
  5
58
330
3
100
AcDbSymbolTableRecord
100
AcDbTextStyleTableRecord
  2
ACISOTS
 70
     0
 40
1.0
 41
1.0
 50
0.0
 71
     0
 42
2.5
  3
isocp.shx
  4
extfont.shx
  0
STYLE
  5
63
330
3
100
AcDbSymbolTableRecord
100
AcDbTextStyleTableRecord
  2
ACISOGDT
 70
     0
 40
0.0
 41
1.0
 50
0.0
 71
     0
 42
2.5
  3
amgdt.shx
  4

  0
STYLE
  5
A74
330
3
100
AcDbSymbolTableRecord
100
AcDbTextStyleTableRecord
  2
DIM
 70
     0
 40
0.0
 41
1.0
 50
0.0
 71
     0
 42
2.5
  3
monotxt.shx
  4
extfont.shx
  0
STYLE
  5
AC80
330
3
100
AcDbSymbolTableRecord
100
AcDbTextStyleTableRecord
  2

 70
     1
 40
0.0
 41
1.0
 50
0.0
 71
     0
 42
3.2
  3
genltshp.shx
  4

  0
STYLE
  5
1F69C
330
3
100
AcDbSymbolTableRecord
100
AcDbTextStyleTableRecord
  2
ACANSTS
 70
     0
 40
1.0
 41
1.0
 50
0.0
 71
     0
 42
0.2
  3
romans.shx
  4
extfont.shx
  0
STYLE
  5
1F69D
330
3
100
AcDbSymbolTableRecord
100
AcDbTextStyleTableRecord
  2
ACANSGDT
 70
     0
 40
0.0
 41
1.0
 50
0.0
 71
     0
 42
0.2
  3
amgdtans.shx
  4

  0
STYLE
  5
2A3ED
330
3
100
AcDbSymbolTableRecord
100
AcDbTextStyleTableRecord
  2
ｽﾝﾎﾟｳﾓｼﾞ
 70
     0
 40
0.0
 41
0.8
 50
0.0
 71
     0
 42
5.0
  3
geniso.shx
  4
extfont.shx
  0
ENDTAB
  0
TABLE
  2
VIEW
  5
6
330
0
100
AcDbSymbolTable
 70
     6
  0
VIEW
  5
AE1
330
6
100
AcDbSymbolTableRecord
100
AcDbViewTableRecord
  2
AM_VIEW1
 70
     0
 40
189.7860962566847
 10
9671.194883365483
 20
-5405.972369427411
 41
210.0
 11
0.0
 21
0.0
 31
1.0
 12
0.0
 22
0.0
 32
0.0
 42
50.0
 43
-1370.695619172058
 44
-1370.695619172058
 50
0.0
 71
    16
281
     0
 72
     0
  0
VIEW
  5
AE2
330
6
100
AcDbSymbolTableRecord
100
AcDbViewTableRecord
  2
AM_VIEW2
 70
     0
 40
189.7860962566847
 10
9881.194883365482
 20
-5405.972369427411
 41
210.0
 11
0.0
 21
0.0
 31
1.0
 12
0.0
 22
0.0
 32
0.0
 42
50.0
 43
-1370.695619172058
 44
-1370.695619172058
 50
0.0
 71
    16
281
     0
 72
     0
  0
VIEW
  5
AE3
330
6
100
AcDbSymbolTableRecord
100
AcDbViewTableRecord
  2
AM_VIEW3
 70
     0
 40
189.7860962566847
 10
9671.194883365483
 20
-5513.186273170726
 41
210.0
 11
0.0
 21
0.0
 31
1.0
 12
0.0
 22
0.0
 32
0.0
 42
50.0
 43
-1370.695619172058
 44
-1370.695619172058
 50
0.0
 71
    16
281
     0
 72
     0
  0
VIEW
  5
AE4
330
6
100
AcDbSymbolTableRecord
100
AcDbViewTableRecord
  2
AM_VIEW4
 70
     0
 40
189.7860962566847
 10
9881.194883365482
 20
-5513.186273170726
 41
210.0
 11
0.0
 21
0.0
 31
1.0
 12
0.0
 22
0.0
 32
0.0
 42
50.0
 43
-1370.695619172058
 44
-1370.695619172058
 50
0.0
 71
    16
281
     0
 72
     0
  0
VIEW
  5
AE5
330
6
100
AcDbSymbolTableRecord
100
AcDbViewTableRecord
  2
AM_VIEW5
 70
     0
 40
189.7860962566847
 10
9776.194883365484
 20
-5459.579321299068
 41
210.0
 11
0.0
 21
0.0
 31
1.0
 12
0.0
 22
0.0
 32
0.0
 42
50.0
 43
-1370.695619172058
 44
-1370.695619172058
 50
0.0
 71
    16
281
     0
 72
     0
  0
VIEW
  5
AE6
330
6
100
AcDbSymbolTableRecord
100
AcDbViewTableRecord
  2
AM_VIEW6
 70
     0
 40
379.5683967914447
 10
9776.194883365484
 20
-5459.579321299068
 41
419.9958000000005
 11
0.0
 21
0.0
 31
1.0
 12
0.0
 22
0.0
 32
0.0
 42
50.0
 43
-1370.695619172058
 44
-1370.695619172058
 50
0.0
 71
    16
281
     0
 72
     0
  0
ENDTAB
  0
TABLE
  2
UCS
  5
7
330
0
100
AcDbSymbolTable
 70
     0
  0
ENDTAB
  0
TABLE
  2
APPID
  5
9
330
0
100
AcDbSymbolTable
 70
    63
  0
APPID
  5
12
330
9
100
AcDbSymbolTableRecord
100
AcDbRegAppTableRecord
  2
ACAD
 70
     0
  0
APPID
  5
30
330
9
100
AcDbSymbolTableRecord
100
AcDbRegAppTableRecord
  2
MCAD_NO_VIS
 70
     0
  0
APPID
  5
31
330
9
100
AcDbSymbolTableRecord
100
AcDbRegAppTableRecord
  2
ACAD_TEMP_GRAPHIC
 70
     0
  0
APPID
  5
44
330
9
100
AcDbSymbolTableRecord
100
AcDbRegAppTableRecord
  2
ACATTRIBSERVICES
 70
     0
  0
APPID
  5
7A1
330
9
100
AcDbSymbolTableRecord
100
AcDbRegAppTableRecord
  2
GENIUS_GENDIMSH_14
 70
     0
  0
APPID
  5
A49
330
9
100
AcDbSymbolTableRecord
100
AcDbRegAppTableRecord
  2
GENIUS_GENREC_14
 70
     0
  0
APPID
  5
A4A
330
9
100
AcDbSymbolTableRecord
100
AcDbRegAppTableRecord
  2
GENIUS_GENOBJ-N-REC_13
 70
     0
  0
APPID
  5
A4B
330
9
100
AcDbSymbolTableRecord
100
AcDbRegAppTableRecord
  2
GENIUS_GENODEF_13
 70
     0
  0
APPID
  5
A4C
330
9
100
AcDbSymbolTableRecord
100
AcDbRegAppTableRecord
  2
DCO15
 70
     0
  0
APPID
  5
ADC
330
9
100
AcDbSymbolTableRecord
100
AcDbRegAppTableRecord
  2
GENIUS_GENOLIS_13
 70
     0
  0
APPID
  5
ADD
330
9
100
AcDbSymbolTableRecord
100
AcDbRegAppTableRecord
  2
GENIUS_GENOENT_13
 70
     0
  0
APPID
  5
ADE
330
9
100
AcDbSymbolTableRecord
100
AcDbRegAppTableRecord
  2
GENIUS_GENOBJ-N-TIT_13
 70
     0
  0
APPID
  5
ADF
330
9
100
AcDbSymbolTableRecord
100
AcDbRegAppTableRecord
  2
GENIUS_GENTITLE_13
 70
     0
  0
APPID
  5
AE0
330
9
100
AcDbSymbolTableRecord
100
AcDbRegAppTableRecord
  2
GENIUS_GENOREF_13
 70
     0
  0
APPID
  5
AE7
330
9
100
AcDbSymbolTableRecord
100
AcDbRegAppTableRecord
  2
GENIUS_GENSCREG_15
 70
     0
  0
APPID
  5
AE8
330
9
100
AcDbSymbolTableRecord
100
AcDbRegAppTableRecord
  2
GENIUS_GENOBJ-N-SDF_13
 70
     0
  0
APPID
  5
FAF
330
9
100
AcDbSymbolTableRecord
100
AcDbRegAppTableRecord
  2
GENIUS_GENBLLY_14
 70
     0
  0
APPID
  5
FB0
330
9
100
AcDbSymbolTableRecord
100
AcDbRegAppTableRecord
  2
GENIUS_GENTRA_14
 70
     0
  0
APPID
  5
1285
330
9
100
AcDbSymbolTableRecord
100
AcDbRegAppTableRecord
  2
GENIUS_GENDTOL_13
 70
     0
  0
APPID
  5
142D
330
9
100
AcDbSymbolTableRecord
100
AcDbRegAppTableRecord
  2
GENIUS_GENOBJ-N-CEN_13
 70
     0
  0
APPID
  5
1AB5
330
9
100
AcDbSymbolTableRecord
100
AcDbRegAppTableRecord
  2
GENIUS_GENOBJ-N-CRS_13
 70
     0
  0
APPID
  5
1B36
330
9
100
AcDbSymbolTableRecord
100
AcDbRegAppTableRecord
  2
GENIUS_GENOBJ-N-HTC_13
 70
     0
  0
APPID
  5
1B37
330
9
100
AcDbSymbolTableRecord
100
AcDbRegAppTableRecord
  2
GENIUS_GENHATCH_13
 70
     0
  0
APPID
  5
216D
330
9
100
AcDbSymbolTableRecord
100
AcDbRegAppTableRecord
  2
GENIUS_GENOBJ-N-FIL_13
 70
     0
  0
APPID
  5
2356
330
9
100
AcDbSymbolTableRecord
100
AcDbRegAppTableRecord
  2
GEVID990412420
 70
     0
  0
APPID
  5
2357
330
9
100
AcDbSymbolTableRecord
100
AcDbRegAppTableRecord
  2
GEVDC
 70
     0
  0
APPID
  5
2358
330
9
100
AcDbSymbolTableRecord
100
AcDbRegAppTableRecord
  2
GEVCON
 70
     0
  0
APPID
  5
235B
330
9
100
AcDbSymbolTableRecord
100
AcDbRegAppTableRecord
  2
GEVRADREF
 70
     0
  0
APPID
  5
2360
330
9
100
AcDbSymbolTableRecord
100
AcDbRegAppTableRecord
  2
GENIUS_GENBH_13
 70
     0
  0
APPID
  5
2362
330
9
100
AcDbSymbolTableRecord
100
AcDbRegAppTableRecord
  2
GENIUS_GENOBJ-NBEHI-BHF_13
 70
     0
  0
APPID
  5
2364
330
9
100
AcDbSymbolTableRecord
100
AcDbRegAppTableRecord
  2
GENIUS_GENOBJ-NBEHI-BHB_13
 70
     0
  0
APPID
  5
2379
330
9
100
AcDbSymbolTableRecord
100
AcDbRegAppTableRecord
  2
GENIUS_GENOBJ-F-SCPASSM_13
 70
     0
  0
APPID
  5
3D74
330
9
100
AcDbSymbolTableRecord
100
AcDbRegAppTableRecord
  2
GENIUS_GENDIM_13
 70
     0
  0
APPID
  5
3D76
330
9
100
AcDbSymbolTableRecord
100
AcDbRegAppTableRecord
  2
GENIUS_GE3DTOL_13
 70
     0
  0
APPID
  5
3D9C
330
9
100
AcDbSymbolTableRecord
100
AcDbRegAppTableRecord
  2
AD_DRAW
 70
     0
  0
APPID
  5
3DE8
330
9
100
AcDbSymbolTableRecord
100
AcDbRegAppTableRecord
  2
ASURF_PCURVE_APPNAME
 70
     0
  0
APPID
  5
3DED
330
9
100
AcDbSymbolTableRecord
100
AcDbRegAppTableRecord
  2
AMG_3D2D_5.0
 70
     0
  0
APPID
  5
3E1B
330
9
100
AcDbSymbolTableRecord
100
AcDbRegAppTableRecord
  2
DESIGNERASSEMBLIES
 70
     0
  0
APPID
  5
3E20
330
9
100
AcDbSymbolTableRecord
100
AcDbRegAppTableRecord
  2
ACADM_DIM_EDIT
 70
     0
  0
APPID
  5
3E21
330
9
100
AcDbSymbolTableRecord
100
AcDbRegAppTableRecord
  2
AMDT_DM_ADJ
 70
     0
  0
APPID
  5
4143
330
9
100
AcDbSymbolTableRecord
100
AcDbRegAppTableRecord
  2
GENIUS_GENFIL_13
 70
     0
  0
APPID
  5
4144
330
9
100
AcDbSymbolTableRecord
100
AcDbRegAppTableRecord
  2
GENIUS_GENOBJ-N-CHA_13
 70
     0
  0
APPID
  5
4E17
330
9
100
AcDbSymbolTableRecord
100
AcDbRegAppTableRecord
  2
GEVID1008153417
 70
     0
  0
APPID
  5
4E58
330
9
100
AcDbSymbolTableRecord
100
AcDbRegAppTableRecord
  2
GEVID1008153418
 70
     0
  0
APPID
  5
4E5E
330
9
100
AcDbSymbolTableRecord
100
AcDbRegAppTableRecord
  2
GEVID1008153419
 70
     0
  0
APPID
  5
4E64
330
9
100
AcDbSymbolTableRecord
100
AcDbRegAppTableRecord
  2
GEVID1008153420
 70
     0
  0
APPID
  5
4E75
330
9
100
AcDbSymbolTableRecord
100
AcDbRegAppTableRecord
  2
GEVID1008153421
 70
     0
  0
APPID
  5
4EB7
330
9
100
AcDbSymbolTableRecord
100
AcDbRegAppTableRecord
  2
GENIUS_AMGTXT_16
 70
     0
  0
APPID
  5
7645
330
9
100
AcDbSymbolTableRecord
100
AcDbRegAppTableRecord
  2
GENIUS_GENOBJ-N-DIM_13
 70
     0
  0
APPID
  5
AAD0
330
9
100
AcDbSymbolTableRecord
100
AcDbRegAppTableRecord
  2
ACAD_DSTYLE_DIMARC_LENGTH_SYMBOL
 70
     0
  0
APPID
  5
AAD1
330
9
100
AcDbSymbolTableRecord
100
AcDbRegAppTableRecord
  2
ACAD_DSTYLE_DIMJOGGED_JOGANGLE_SYMBOL
 70
     0
  0
APPID
  5
AAFD
330
9
100
AcDbSymbolTableRecord
100
AcDbRegAppTableRecord
  2
ACAD_PSEXT
 70
     0
  0
APPID
  5
AD61
330
9
100
AcDbSymbolTableRecord
100
AcDbRegAppTableRecord
  2
AcAecLayerStandard
 70
     0
  0
APPID
  5
AEE3
330
9
100
AcDbSymbolTableRecord
100
AcDbRegAppTableRecord
  2
ACAD_EXEMPT_FROM_CAD_STANDARDS
 70
     0
  0
APPID
  5
C68B
330
9
100
AcDbSymbolTableRecord
100
AcDbRegAppTableRecord
  2
GENIUS_GENCEN_19
 70
     0
  0
APPID
  5
25631
330
9
100
AcDbSymbolTableRecord
100
AcDbRegAppTableRecord
  2
ACAD_DSTYLE_DIMTEXT_FILL
 70
     0
  0
APPID
  5
25632
330
9
100
AcDbSymbolTableRecord
100
AcDbRegAppTableRecord
  2
ACAD_DSTYLE_DIMEXT_LENGTH
 70
     0
  0
APPID
  5
25633
330
9
100
AcDbSymbolTableRecord
100
AcDbRegAppTableRecord
  2
ACAD_DSTYLE_DIMEXT_ENABLED
 70
     0
  0
APPID
  5
25634
330
9
100
AcDbSymbolTableRecord
100
AcDbRegAppTableRecord
  2
ACAD_DSTYLE_DIM_LINETYPE
 70
     0
  0
APPID
  5
25635
330
9
100
AcDbSymbolTableRecord
100
AcDbRegAppTableRecord
  2
ACAD_DSTYLE_DIM_EXT1_LINETYPE
 70
     0
  0
APPID
  5
25636
330
9
100
AcDbSymbolTableRecord
100
AcDbRegAppTableRecord
  2
ACAD_DSTYLE_DIM_EXT2_LINETYPE
 70
     0
  0
APPID
  5
59D53
330
9
100
AcDbSymbolTableRecord
100
AcDbRegAppTableRecord
  2
ACAD_MLEADERVER
 70
     0
  0
APPID
  5
5E9C6
330
9
100
AcDbSymbolTableRecord
100
AcDbRegAppTableRecord
  2
ACAD_DSTYLE_DIMINSPECT
 70
     0
  0
ENDTAB
  0
TABLE
  2
DIMSTYLE
  5
A
330
0
100
AcDbSymbolTable
 70
    45
100
AcDbDimStyleTable
 71
     5
340
2515
340
C688
340
AF9F
340
AF9E
340
AF99
  0
DIMSTYLE
105
A76
330
A
100
AcDbSymbolTableRecord
100
AcDbDimStyleTableRecord
  2
STANDARD
 70
     0
 41
3.0
 42
1.0
 43
7.0
 44
2.0
 73
     0
 74
     0
 77
     1
140
2.799999999999999
141
0.0
143
0.0394
147
0.7
171
     4
172
     1
173
     1
176
     3
177
     3
178
     2
271
     3
272
     3
273
     8
274
     4
289
     0
340
A74
341
A66
343
A66
344
A66
  0
DIMSTYLE
105
2515
330
A
100
AcDbSymbolTableRecord
100
AcDbDimStyleTableRecord
  2
SYS
 70
     0
  4
"
 41
1.0
 42
1.0
 43
10.0
 44
1.0
 47
0.1
 48
0.1
 73
     0
 74
     0
 77
     1
 78
     8
 79
     2
140
3.5
141
0.0
143
0.0393701
146
0.71
147
1.5
172
     1
176
   256
177
   256
178
     7
271
     2
272
     2
283
     0
284
     8
340
11
371
    -1
372
    -1
1001
ACAD_DSTYLE_DIMJOGGED_JOGANGLE_SYMBOL
1070
   384
1040
0.7853981633974483
1001
ACAD_DSTYLE_DIMARC_LENGTH_SYMBOL
1070
   379
1070
     1
  0
DIMSTYLE
105
2516
102
{ACAD_REACTORS
330
62591
102
}
330
A
100
AcDbSymbolTableRecord
100
AcDbDimStyleTableRecord
  2
SYS$3
 70
     0
  4
"
 41
2.0
 42
1.0
 43
10.0
 44
1.0
 47
0.1
 48
0.1
 73
     0
 77
     1
 78
     8
 79
     2
140
3.5
141
0.0
143
0.0393701
146
0.71
147
1.5
176
   256
177
   256
178
     2
271
     2
272
     2
283
     0
284
     8
288
     1
340
11
342
A66
371
    -1
372
    -1
1001
ACAD_DSTYLE_DIMJOGGED_JOGANGLE_SYMBOL
1070
   384
1040
0.7853981633974483
1001
ACAD_DSTYLE_DIMARC_LENGTH_SYMBOL
1070
   379
1070
     1
  0
DIMSTYLE
105
2517
330
A
100
AcDbSymbolTableRecord
100
AcDbDimStyleTableRecord
  2
SYS$4
 70
     0
  4
"
 41
2.0
 42
1.0
 43
10.0
 44
1.0
 47
0.1
 48
0.1
 73
     0
 77
     1
 78
     8
 79
     2
140
3.5
141
0.0
143
0.0393701
146
0.71
147
1.5
173
     1
176
   256
177
   256
178
     2
271
     2
272
     2
283
     0
284
     8
288
     1
340
11
344
A66
371
    -1
372
    -1
1001
ACAD_DSTYLE_DIMJOGGED_JOGANGLE_SYMBOL
1070
   384
1040
0.7853981633974483
1001
ACAD_DSTYLE_DIMARC_LENGTH_SYMBOL
1070
   379
1070
     1
  0
DIMSTYLE
105
2518
330
A
100
AcDbSymbolTableRecord
100
AcDbDimStyleTableRecord
  2
SYS$6
 70
     0
  4
"
 41
2.0
 42
1.0
 43
10.0
 44
1.0
 47
0.1
 48
0.1
 73
     0
 74
     0
 78
     8
 79
     2
140
3.5
141
0.0
143
0.0393701
146
0.71
147
1.5
172
     1
176
   256
177
   256
178
     2
271
     2
272
     2
283
     0
284
     8
340
11
341
A66
371
    -1
372
    -1
1001
ACAD_DSTYLE_DIMJOGGED_JOGANGLE_SYMBOL
1070
   384
1040
0.7853981633974483
1001
ACAD_DSTYLE_DIMARC_LENGTH_SYMBOL
1070
   379
1070
     1
  0
DIMSTYLE
105
2519
330
A
100
AcDbSymbolTableRecord
100
AcDbDimStyleTableRecord
  2
SYS$7
 70
     0
  4
"
 41
2.0
 42
1.0
 43
10.0
 44
1.0
 47
0.1
 48
0.1
 73
     0
 74
     0
 77
     1
 78
     8
 79
     2
140
3.2
141
0.0
143
0.0393701
146
0.71
147
1.5
172
     1
176
   256
177
   256
178
     2
271
     2
272
     2
283
     0
284
     8
340
11
341
A66
342
A66
371
    -1
372
    -1
1001
ACAD_DSTYLE_DIMJOGGED_JOGANGLE_SYMBOL
1070
   384
1040
0.7853981633974483
1001
ACAD_DSTYLE_DIMARC_LENGTH_SYMBOL
1070
   379
1070
     1
1001
ACAD_DSTYLE_DIMEXT_LENGTH
1070
   378
1040
0.0
  0
DIMSTYLE
105
251A
330
A
100
AcDbSymbolTableRecord
100
AcDbDimStyleTableRecord
  2
SYS$SF
 70
     0
  4
"
 41
2.5
 42
1.0
 43
10.0
 44
1.0
 47
0.1
 48
0.1
 73
     0
 74
     0
 75
     1
 76
     1
 77
     1
 78
     8
 79
     2
140
3.5
141
0.0
143
0.0393701
146
0.71
147
1.5
172
     1
176
   256
177
   256
178
     2
271
     2
272
     3
283
     0
284
     8
340
11
341
6C4
342
6C4
371
    -1
372
    -1
1001
ACAD_DSTYLE_DIMJOGGED_JOGANGLE_SYMBOL
1070
   384
1040
0.7853981633974483
1001
ACAD_DSTYLE_DIMARC_LENGTH_SYMBOL
1070
   379
1070
     1
  0
DIMSTYLE
105
251B
330
A
100
AcDbSymbolTableRecord
100
AcDbDimStyleTableRecord
  2
SYS$SH
 70
     0
  4
"
 41
2.5
 42
1.0
 43
10.0
 44
1.0
 47
0.1
 48
0.1
 73
     0
 74
     0
 75
     1
 76
     1
 77
     1
 78
     8
 79
     2
140
3.5
141
0.0
143
0.0393701
144
2.0
146
0.71
147
1.5
172
     1
173
     1
176
   256
177
   256
178
     2
271
     2
272
     3
283
     0
284
     8
340
11
341
6C4
343
72
344
6C4
371
    -1
372
    -1
1001
ACAD_DSTYLE_DIMJOGGED_JOGANGLE_SYMBOL
1070
   384
1040
0.7853981633974483
1001
ACAD_DSTYLE_DIMARC_LENGTH_SYMBOL
1070
   379
1070
     1
  0
DIMSTYLE
105
2A59
330
A
100
AcDbSymbolTableRecord
100
AcDbDimStyleTableRecord
  2
SYS$2
 70
     0
  4
"
 41
1.0
 42
1.0
 43
10.0
 44
1.0
 47
0.1
 48
0.1
 73
     0
 74
     0
 77
     1
 78
     8
 79
     2
140
3.5
141
0.0
143
0.0393701
146
0.71
147
1.5
172
     1
176
   256
177
   256
178
     2
271
     2
272
     2
283
     0
284
     8
340
11
342
6C4
371
    -1
372
    -1
1001
ACAD_DSTYLE_DIMJOGGED_JOGANGLE_SYMBOL
1070
   384
1040
0.7853981633974483
1001
ACAD_DSTYLE_DIMARC_LENGTH_SYMBOL
1070
   379
1070
     1
  0
DIMSTYLE
105
2AAB
102
{ACAD_REACTORS
330
61A01
330
61A0A
330
61A0D
330
61A54
330
61A55
330
61A56
330
61A57
330
61A58
330
61A59
330
61A5A
330
61A5F
330
61A60
330
61A61
330
61A63
330
62543
330
625B1
330
625D6
102
}
330
A
100
AcDbSymbolTableRecord
100
AcDbDimStyleTableRecord
  2
SYS$0
 70
     0
  4
"
 41
1.0
 42
1.0
 43
10.0
 44
1.0
 47
0.1
 48
0.1
 73
     0
 74
     0
 77
     1
 78
     8
 79
     2
140
3.200000000000001
141
0.0
143
0.0393701
146
0.71
147
1.5
172
     1
176
   256
177
   256
178
     2
271
     2
272
     2
283
     0
284
     8
340
11
341
A66
342
6C4
371
    -1
372
    -1
1001
ACAD_DSTYLE_DIMJOGGED_JOGANGLE_SYMBOL
1070
   384
1040
0.7853981633974483
1001
ACAD_DSTYLE_DIMARC_LENGTH_SYMBOL
1070
   379
1070
     1
1001
ACAD_DSTYLE_DIMEXT_LENGTH
1070
   378
1040
0.0
  0
DIMSTYLE
105
AF99
330
A
100
AcDbSymbolTableRecord
100
AcDbDimStyleTableRecord
  2
AM_ISO
 70
     0
  4
"
 41
2.5
 42
1.0
 43
10.0
 44
1.0
 47
0.1
 48
0.1
 73
     0
 74
     0
 77
     1
 78
     8
 79
     2
140
3.5
141
0.0
143
0.0393701
146
0.71
147
1.5
172
     1
176
   256
177
   256
178
     2
271
     2
272
     3
274
     4
283
     0
284
     8
340
11
371
    -1
372
    -1
  0
DIMSTYLE
105
AF9A
330
A
100
AcDbSymbolTableRecord
100
AcDbDimStyleTableRecord
  2
AM_ISO$3
 70
     0
  4
"
 41
2.5
 42
1.0
 43
10.0
 44
1.0
 47
0.1
 48
0.1
 73
     0
 77
     1
 78
     8
 79
     2
140
3.5
141
0.0
143
0.0393701
146
0.71
147
1.5
176
   256
177
   256
178
     2
271
     2
272
     3
274
     4
283
     0
284
     8
288
     1
289
     0
340
11
371
    -1
372
    -1
  0
DIMSTYLE
105
AF9B
330
A
100
AcDbSymbolTableRecord
100
AcDbDimStyleTableRecord
  2
AM_ISO$4
 70
     0
  4
"
 41
2.5
 42
1.0
 43
10.0
 44
1.0
 47
0.1
 48
0.1
 73
     0
 77
     1
 78
     8
 79
     2
140
3.5
141
0.0
143
0.0393701
146
0.71
147
1.5
176
   256
177
   256
178
     2
271
     2
272
     3
274
     4
283
     0
284
     8
288
     1
289
     0
340
11
371
    -1
372
    -1
  0
DIMSTYLE
105
AF9C
330
A
100
AcDbSymbolTableRecord
100
AcDbDimStyleTableRecord
  2
AM_ISO$6
 70
     0
  4
"
 41
2.5
 42
1.0
 43
10.0
 44
1.0
 47
0.1
 48
0.1
 73
     0
 74
     0
 78
     8
 79
     2
140
3.5
141
0.0
143
0.0393701
146
0.71
147
1.5
172
     1
176
   256
177
   256
178
     2
271
     2
272
     3
274
     4
283
     0
284
     8
340
11
371
    -1
372
    -1
  0
DIMSTYLE
105
AF9D
330
A
100
AcDbSymbolTableRecord
100
AcDbDimStyleTableRecord
  2
AM_ISO$7
 70
     0
  4
"
 41
2.5
 42
1.0
 43
10.0
 44
1.0
 47
0.1
 48
0.1
 73
     0
 74
     0
 77
     1
 78
     8
 79
     2
140
5.0
141
0.0
143
0.0393701
146
0.71
147
1.5
172
     1
176
   256
177
   256
178
     2
271
     2
272
     3
274
     4
283
     0
284
     8
340
11
371
    -1
372
    -1
  0
DIMSTYLE
105
AF9E
330
A
100
AcDbSymbolTableRecord
100
AcDbDimStyleTableRecord
  2
AM_ISO$SF
 70
     0
  4
"
 41
2.5
 42
1.0
 43
10.0
 44
1.0
 47
0.1
 48
0.1
 73
     0
 74
     0
 75
     1
 76
     1
 77
     1
 78
     8
 79
     2
140
3.5
141
0.0
143
0.0393701
146
0.71
147
1.5
172
     1
176
   256
177
   256
178
     2
271
     2
272
     3
274
     4
283
     0
284
     8
340
11
371
    -1
372
    -1
  0
DIMSTYLE
105
AF9F
330
A
100
AcDbSymbolTableRecord
100
AcDbDimStyleTableRecord
  2
AM_ISO$SH
 70
     0
  4
"
 41
2.5
 42
1.0
 43
10.0
 44
1.0
 47
0.1
 48
0.1
 73
     0
 74
     0
 75
     1
 76
     1
 77
     1
 78
     8
 79
     2
140
3.5
141
0.0
143
0.0393701
144
2.0
146
0.71
147
1.5
172
     1
173
     1
176
   256
177
   256
178
     2
271
     2
272
     3
274
     4
283
     0
284
     8
340
11
343
72
371
    -1
372
    -1
  0
DIMSTYLE
105
C686
330
A
100
AcDbSymbolTableRecord
100
AcDbDimStyleTableRecord
  2
AM_ISO$0
 70
     0
  4
"
 41
0.8
 42
1.0
 43
10.0
 44
1.0
 47
0.1
 48
0.1
 73
     0
 74
     0
 77
     1
 78
     8
 79
     2
140
3.2
141
0.0
143
0.0393701
146
0.71
147
0.9999999999999996
172
     1
176
   256
177
   256
178
     2
271
     2
272
     2
283
     0
284
     8
340
11
341
6C4
342
6C4
371
    -1
372
    -1
1001
ACAD_DSTYLE_DIMJOGGED_JOGANGLE_SYMBOL
1070
   384
1040
0.7853981633974483
1001
ACAD_DSTYLE_DIMARC_LENGTH_SYMBOL
1070
   379
1070
     1
  0
DIMSTYLE
105
C687
330
A
100
AcDbSymbolTableRecord
100
AcDbDimStyleTableRecord
  2
AM_ISO$2
 70
     0
  4
"
 41
0.8
 42
1.0
 43
10.0
 44
1.0
 47
0.1
 48
0.1
 73
     0
 74
     0
 77
     3
 78
     8
 79
     2
140
3.200000000000001
141
0.0
143
0.0393701
146
0.71
147
0.9999999999999996
172
     1
176
   256
177
   256
178
     2
271
     2
272
     2
283
     0
284
     8
340
11
342
6C4
371
    -1
372
    -1
1001
ACAD_DSTYLE_DIMJOGGED_JOGANGLE_SYMBOL
1070
   384
1040
0.7853981633974483
1001
ACAD_DSTYLE_DIMARC_LENGTH_SYMBOL
1070
   379
1070
     1
  0
DIMSTYLE
105
C688
330
A
100
AcDbSymbolTableRecord
100
AcDbDimStyleTableRecord
  2
AM_ANSI
 70
     0
  4
mm
 41
0.1
 42
0.05
 43
0.5
 44
0.1
 47
0.1
 48
0.1
 78
     7
 79
     2
140
0.12
141
0.0
146
0.71
147
0.06
176
   256
177
   256
178
     2
274
     4
284
     7
340
11
371
    -1
372
    -1
1001
ACAD_DSTYLE_DIMJOGGED_JOGANGLE_SYMBOL
1070
   384
1040
0.7853981633974483
1001
ACAD_DSTYLE_DIMARC_LENGTH_SYMBOL
1070
   379
1070
     1
  0
DIMSTYLE
105
1F6A1
330
A
100
AcDbSymbolTableRecord
100
AcDbDimStyleTableRecord
  2
AM_ANSI$3
 70
     0
  4
mm
 41
0.1
 42
0.05
 43
0.5
 44
0.1
 47
0.1
 48
0.1
 78
     7
 79
     2
140
0.12
141
0.0
146
0.71
147
0.06
176
   256
177
   256
178
     2
274
     4
284
     7
288
     1
289
     0
340
11
371
    -1
372
    -1
1001
ACAD_DSTYLE_DIMJOGGED_JOGANGLE_SYMBOL
1070
   384
1040
0.7853981633974483
1001
ACAD_DSTYLE_DIMARC_LENGTH_SYMBOL
1070
   379
1070
     1
  0
DIMSTYLE
105
1F6A2
330
A
100
AcDbSymbolTableRecord
100
AcDbDimStyleTableRecord
  2
AM_ANSI$4
 70
     0
  4
mm
 41
0.1
 42
0.05
 43
0.5
 44
0.1
 47
0.1
 48
0.1
 78
     7
 79
     2
140
0.12
141
0.0
146
0.71
147
0.06
176
   256
177
   256
178
     2
274
     4
284
     7
288
     1
289
     0
340
11
371
    -1
372
    -1
1001
ACAD_DSTYLE_DIMJOGGED_JOGANGLE_SYMBOL
1070
   384
1040
0.7853981633974483
1001
ACAD_DSTYLE_DIMARC_LENGTH_SYMBOL
1070
   379
1070
     1
  0
DIMSTYLE
105
1F6A3
330
A
100
AcDbSymbolTableRecord
100
AcDbDimStyleTableRecord
  2
AM_ANSI$7
 70
     0
  4
mm
 41
0.1
 42
0.05
 43
0.5
 44
0.1
 47
0.1
 48
0.1
 78
     7
 79
     2
140
0.24
141
0.0
146
0.71
147
0.06
176
   256
177
   256
178
     2
274
     4
284
     7
340
11
371
    -1
372
    -1
1001
ACAD_DSTYLE_DIMJOGGED_JOGANGLE_SYMBOL
1070
   384
1040
0.7853981633974483
1001
ACAD_DSTYLE_DIMARC_LENGTH_SYMBOL
1070
   379
1070
     1
  0
DIMSTYLE
105
1F6A4
330
A
100
AcDbSymbolTableRecord
100
AcDbDimStyleTableRecord
  2
AM_ANSI$SF
 70
     0
  4
mm
 41
0.1
 42
0.05
 43
0.5
 44
0.1
 47
0.1
 48
0.1
 75
     1
 76
     1
 78
     7
 79
     2
140
0.12
141
0.0
146
0.71
147
0.06
176
   256
177
   256
178
     2
274
     4
284
     7
340
11
371
    -1
372
    -1
1001
ACAD_DSTYLE_DIMJOGGED_JOGANGLE_SYMBOL
1070
   384
1040
0.7853981633974483
1001
ACAD_DSTYLE_DIMARC_LENGTH_SYMBOL
1070
   379
1070
     1
  0
DIMSTYLE
105
1F6A5
330
A
100
AcDbSymbolTableRecord
100
AcDbDimStyleTableRecord
  2
AM_ANSI$SH
 70
     0
  4
mm
 41
0.1
 42
0.05
 43
0.5
 44
0.1
 47
0.1
 48
0.1
 75
     1
 76
     1
 78
     7
 79
     2
140
0.12
141
0.0
146
0.71
147
0.06
173
     1
176
   256
177
   256
178
     2
274
     4
284
     7
340
11
343
72
371
    -1
372
    -1
1001
ACAD_DSTYLE_DIMJOGGED_JOGANGLE_SYMBOL
1070
   384
1040
0.7853981633974483
1001
ACAD_DSTYLE_DIMARC_LENGTH_SYMBOL
1070
   379
1070
     1
  0
DIMSTYLE
105
2A3F0
330
A
100
AcDbSymbolTableRecord
100
AcDbDimStyleTableRecord
  2
GEN-ISO
 70
     0
  3
<>
  4
"
 41
5.0
 42
5.0
 43
15.0
 44
1.0
 47
0.1
 48
0.1
 73
     0
 74
     0
 77
     1
 78
     8
140
5.0
141
0.0
143
0.0393701
146
0.71
147
0.5
173
     1
176
     3
177
     3
178
     2
271
     2
272
     2
283
     0
340
2A3ED
341
28F87
343
28F87
344
28F87
  0
DIMSTYLE
105
2A3F7
330
A
100
AcDbSymbolTableRecord
100
AcDbDimStyleTableRecord
  2
丸印：1_1（ISO-25）
 70
     0
 41
1.0
 42
3.0
 43
10.0
 44
1.0
 73
     0
 74
     0
 77
     1
 78
     8
 79
     2
140
3.0
141
0.0
143
0.03937007874016
147
1.0
171
     3
172
     1
176
     3
177
     3
178
     2
271
     2
272
     2
274
     3
283
     0
284
     8
340
2A3ED
341
28F87
342
28F87
371
    -1
372
    -1
  0
DIMSTYLE
105
3101B
330
A
100
AcDbSymbolTableRecord
100
AcDbDimStyleTableRecord
  2
SYSORG4P0
 70
     0
  4
"
 41
1.0
 42
1.0
 43
10.0
 44
1.0
 47
0.1
 48
0.1
 73
     0
 74
     0
 77
     1
 78
     8
 79
     2
140
3.5
141
0.0
143
0.0393701
144
3.999999618530336
146
0.71
147
1.5
172
     1
176
   256
177
   256
178
     7
271
     2
272
     2
283
     0
284
     8
340
11
371
    -1
372
    -1
  0
DIMSTYLE
105
3101D
330
A
100
AcDbSymbolTableRecord
100
AcDbDimStyleTableRecord
  2
SYSORG2P0
 70
     0
  4
"
 41
1.0
 42
1.0
 43
10.0
 44
1.0
 47
0.1
 48
0.1
 73
     0
 74
     0
 77
     1
 78
     8
 79
     2
140
3.5
141
0.0
143
0.0393701
144
1.999999841054212
146
0.71
147
1.5
172
     1
176
   256
177
   256
178
     7
271
     2
272
     2
283
     0
284
     8
340
11
371
    -1
372
    -1
  0
ENDTAB
  0
TABLE
  2
BLOCK_RECORD
  5
1
330
0
100
AcDbSymbolTable
 70
   211
  0
BLOCK_RECORD
  5
1F
102
{ACAD_XDICTIONARY
360
8A
102
}
330
1
100
AcDbSymbolTableRecord
100
AcDbBlockTableRecord
  2
*Model_Space
340
22
  0
BLOCK_RECORD
  5
1B
330
1
100
AcDbSymbolTableRecord
100
AcDbBlockTableRecord
  2
*Paper_Space
340
1E
  0
BLOCK_RECORD
  5
23
330
1
100
AcDbSymbolTableRecord
100
AcDbBlockTableRecord
  2
*Paper_Space0
340
26
  0
BLOCK_RECORD
  5
72
330
1
100
AcDbSymbolTableRecord
100
AcDbBlockTableRecord
  2
GENAXEH
340
0
  0
BLOCK_RECORD
  5
6C4
330
1
100
AcDbSymbolTableRecord
100
AcDbBlockTableRecord
  2
_Dot
340
0
102
{BLKREFS
331
60782
331
60783
331
608C7
331
608C8
331
608D3
331
608D4
331
608DF
331
608E0
331
608ED
331
608EE
331
608F9
331
608FA
331
60907
331
60908
331
60DD5
331
60DD6
331
60DDE
331
60DDF
331
60DE7
331
60DE8
331
60DF0
331
60DF1
331
60DF9
331
60DFA
331
60E02
331
60E03
331
60E0C
331
60E0D
331
60E15
331
60E16
331
60E20
331
60E21
331
60E2B
331
60E2C
331
60E3D
331
60E3E
331
60E48
331
60E49
331
60E53
331
60E54
331
60E5C
331
60E5D
331
60E67
331
60E68
331
60E72
331
60E73
331
60E7D
331
60E7E
331
60E87
331
60E88
331
60EAB
331
60EAC
331
60EB4
331
60EB5
331
60EBD
331
60EBE
331
60EC6
331
60EC7
331
60ECF
331
60ED0
331
60EEA
331
60EEB
331
60EF3
331
60EF4
331
60EFC
331
60EFD
331
60F06
331
60F07
331
60F0F
331
60F10
331
60F1A
331
60F1B
331
60F25
331
60F26
331
60F37
331
60F38
331
60F40
331
60F41
331
60F49
331
60F4A
331
60F54
331
60F55
331
6113B
331
6113C
331
6114D
331
6114E
331
611F4
331
611F5
331
61206
331
61207
331
61218
331
61219
331
6122A
331
6122B
331
61405
331
61406
331
61411
331
61412
331
6141B
331
6141C
331
61427
331
61428
331
61433
331
61434
331
6143F
331
61440
331
6144B
331
6144C
331
61457
331
61458
331
61465
331
61466
331
61471
331
61472
331
6147F
331
61480
331
6148E
331
6149B
331
6149C
331
614AE
331
614AF
331
614BA
331
614BB
331
614C7
331
614C8
331
614D4
331
614D5
331
614E2
331
614E3
331
614F0
331
614F1
331
614FC
331
614FD
331
6150A
331
6150B
331
61516
331
61517
331
61522
331
61523
331
6152E
331
6152F
331
61C16
331
61C17
331
61C1F
331
61C20
331
61C26
331
61C27
331
61C2F
331
61C30
331
61C38
331
61C39
331
61C41
331
61C42
331
61C4A
331
61C4B
331
61C53
331
61C54
331
61C5E
331
61C5F
331
61C67
331
61C68
331
61C72
331
61C73
331
61C7E
331
61C88
331
61C89
331
61C93
331
61C94
331
61C9C
331
61C9D
331
61CA6
331
61CA7
331
61CB0
331
61CB1
331
61CBB
331
61CBC
331
61CC6
331
61CC7
331
61CCF
331
61CD0
331
61CDA
331
61CDB
331
61CE3
331
61CE4
331
61CEC
331
61CED
331
61CF5
331
61CF6
331
61D03
331
61D04
331
61D0E
331
61D18
331
61D22
331
61D2C
331
61D36
331
61D40
331
61D49
331
61D4A
331
61D55
331
61D56
331
61D61
331
61D6B
331
61D76
331
61D77
331
61D80
331
61D8A
331
61D93
331
61D94
331
61D9F
331
61DA9
331
61DAA
331
61DB5
331
61DBF
331
61DC0
331
61DCA
331
61DD3
331
61DD4
331
61DDF
331
61DE0
331
61DEB
331
61DF6
331
61E00
331
61E01
331
61E0B
331
61E15
331
61E1E
331
61E1F
331
61E2B
331
61E2C
331
61E38
331
61E42
331
61E43
331
61E4E
331
61E4F
331
61E55
331
61E56
331
61E60
331
62292
331
62293
331
6229D
331
6229E
331
624C4
331
624C5
331
624CD
331
624CE
331
62628
331
62629
331
62631
331
62632
331
6263A
331
6263B
331
62643
331
62644
331
6264C
331
6264D
331
62655
331
62656
331
6265E
331
6265F
331
62667
331
62668
331
62670
331
62671
331
6267A
331
6267B
331
62683
331
62684
331
6268C
331
6268D
331
62695
331
62696
331
6269E
331
6269F
331
626A9
331
626AA
331
626B2
331
626B3
331
626C3
331
626C4
331
626CE
331
626CF
102
}
  0
BLOCK_RECORD
  5
A66
330
1
100
AcDbSymbolTableRecord
100
AcDbBlockTableRecord
  2
_OPEN30
340
0
102
{BLKREFS
331
626D7
102
}
  0
BLOCK_RECORD
  5
28F87
330
1
100
AcDbSymbolTableRecord
100
AcDbBlockTableRecord
  2
_DotSmall
340
0
  0
BLOCK_RECORD
  5
612A8
102
{ACAD_XDICTIONARY
360
622FE
102
}
330
1
100
AcDbSymbolTableRecord
100
AcDbBlockTableRecord
  2
*S60
340
0
102
{BLKREFS
331
61A5D
102
}
  0
BLOCK_RECORD
  5
612B2
102
{ACAD_XDICTIONARY
360
622EC
102
}
330
1
100
AcDbSymbolTableRecord
100
AcDbBlockTableRecord
  2
*S61
340
0
102
{BLKREFS
331
61A5E
102
}
  0
BLOCK_RECORD
  5
612BC
102
{ACAD_XDICTIONARY
360
62310
102
}
330
1
100
AcDbSymbolTableRecord
100
AcDbBlockTableRecord
  2
*S62
340
0
  0
BLOCK_RECORD
  5
614A2
330
1
100
AcDbSymbolTableRecord
100
AcDbBlockTableRecord
  2
GENDOT
340
0
102
{BLKREFS
331
6148D
331
61C7D
102
}
  0
BLOCK_RECORD
  5
61A79
330
1
100
AcDbSymbolTableRecord
100
AcDbBlockTableRecord
  2
*D114
340
0
  0
BLOCK_RECORD
  5
61A85
330
1
100
AcDbSymbolTableRecord
100
AcDbBlockTableRecord
  2
*D115
340
0
  0
BLOCK_RECORD
  5
61AA9
330
1
100
AcDbSymbolTableRecord
100
AcDbBlockTableRecord
  2
*D118
340
0
  0
BLOCK_RECORD
  5
61AB5
330
1
100
AcDbSymbolTableRecord
100
AcDbBlockTableRecord
  2
*D119
340
0
  0
BLOCK_RECORD
  5
61AC1
330
1
100
AcDbSymbolTableRecord
100
AcDbBlockTableRecord
  2
*D120
340
0
  0
BLOCK_RECORD
  5
61ACD
330
1
100
AcDbSymbolTableRecord
100
AcDbBlockTableRecord
  2
*D121
340
0
  0
BLOCK_RECORD
  5
61AD9
330
1
100
AcDbSymbolTableRecord
100
AcDbBlockTableRecord
  2
*D122
340
0
  0
BLOCK_RECORD
  5
61AE5
330
1
100
AcDbSymbolTableRecord
100
AcDbBlockTableRecord
  2
*D123
340
0
  0
BLOCK_RECORD
  5
61AF1
330
1
100
AcDbSymbolTableRecord
100
AcDbBlockTableRecord
  2
*D124
340
0
  0
BLOCK_RECORD
  5
61AFE
330
1
100
AcDbSymbolTableRecord
100
AcDbBlockTableRecord
  2
*D125
340
0
  0
BLOCK_RECORD
  5
61B26
330
1
100
AcDbSymbolTableRecord
100
AcDbBlockTableRecord
  2
*D128
340
0
  0
BLOCK_RECORD
  5
61B32
330
1
100
AcDbSymbolTableRecord
100
AcDbBlockTableRecord
  2
*D129
340
0
  0
BLOCK_RECORD
  5
61B3E
330
1
100
AcDbSymbolTableRecord
100
AcDbBlockTableRecord
  2
*D130
340
0
  0
BLOCK_RECORD
  5
61B4A
330
1
100
AcDbSymbolTableRecord
100
AcDbBlockTableRecord
  2
*D131
340
0
  0
BLOCK_RECORD
  5
62544
330
1
100
AcDbSymbolTableRecord
100
AcDbBlockTableRecord
  2
*D202
340
0
  0
BLOCK_RECORD
  5
62592
330
1
100
AcDbSymbolTableRecord
100
AcDbBlockTableRecord
  2
*D203
340
0
  0
BLOCK_RECORD
  5
625B2
330
1
100
AcDbSymbolTableRecord
100
AcDbBlockTableRecord
  2
*D204
340
0
  0
BLOCK_RECORD
  5
625D7
330
1
100
AcDbSymbolTableRecord
100
AcDbBlockTableRecord
  2
*D205
340
0
  0
ENDTAB
  0
ENDSEC
  0
SECTION
  2
BLOCKS
  0
BLOCK
  5
20
330
1F
100
AcDbEntity
  8
0
100
AcDbBlockBegin
  2
*Model_Space
 70
     0
 10
0.0
 20
0.0
 30
0.0
  3
*Model_Space
  1

  0
ENDBLK
  5
21
330
1F
100
AcDbEntity
  8
0
100
AcDbBlockEnd
  0
BLOCK
  5
1C
330
1B
100
AcDbEntity
 67
     1
  8
0
100
AcDbBlockBegin
  2
*Paper_Space
 70
     0
 10
0.0
 20
0.0
 30
0.0
  3
*Paper_Space
  1

  0
ENDBLK
  5
1D
330
1B
100
AcDbEntity
 67
     1
  8
0
100
AcDbBlockEnd
  0
BLOCK
  5
24
330
23
100
AcDbEntity
 67
     1
  8
0
100
AcDbBlockBegin
  2
*Paper_Space0
 70
     0
 10
0.0
 20
0.0
 30
0.0
  3
*Paper_Space0
  1

  0
ENDBLK
  5
25
330
23
100
AcDbEntity
 67
     1
  8
0
100
AcDbBlockEnd
  0
BLOCK
  5
74
330
72
100
AcDbEntity
  8
0
100
AcDbBlockBegin
  2
GENAXEH
 70
     0
 10
0.0
 20
0.0
 30
0.0
  3
GENAXEH
  1

  0
LINE
  5
73
330
72
100
AcDbEntity
  8
0
100
AcDbLine
 10
-1.0
 20
0.0
 30
0.0
 11
1.0
 21
0.0
 31
0.0
  0
ENDBLK
  5
75
330
72
100
AcDbEntity
  8
0
100
AcDbBlockEnd
  0
BLOCK
  5
6C7
330
6C4
100
AcDbEntity
  8
0
100
AcDbBlockBegin
  2
_Dot
 70
     0
 10
0.0
 20
0.0
 30
0.0
  3
_Dot
  1

  0
LWPOLYLINE
  5
6C5
330
6C4
100
AcDbEntity
  8
0
  6
ByBlock
 62
     0
100
AcDbPolyline
 90
        2
 70
     1
 43
0.5
 10
-0.25
 20
0.0
 42
1.0
 10
0.25
 20
0.0
 42
1.0
  0
LINE
  5
6C6
330
6C4
100
AcDbEntity
  8
0
  6
ByBlock
 62
     0
370
    -2
100
AcDbLine
 10
-0.5
 20
0.0
 30
0.0
 11
-1.0
 21
0.0
 31
0.0
  0
ENDBLK
  5
6C8
330
6C4
100
AcDbEntity
  8
0
100
AcDbBlockEnd
  0
BLOCK
  5
A6A
330
A66
100
AcDbEntity
  8
0
100
AcDbBlockBegin
  2
_OPEN30
 70
     0
 10
0.0
 20
0.0
 30
0.0
  3
_OPEN30
  1

  0
LINE
  5
A67
330
A66
100
AcDbEntity
  8
0
  6
ByBlock
 62
     0
100
AcDbLine
 10
-1.0
 20
0.26794919
 30
0.0
 11
0.0
 21
0.0
 31
0.0
  0
LINE
  5
A68
330
A66
100
AcDbEntity
  8
0
  6
ByBlock
 62
     0
100
AcDbLine
 10
0.0
 20
0.0
 30
0.0
 11
-1.0
 21
-0.26794919
 31
0.0
  0
LINE
  5
A69
330
A66
100
AcDbEntity
  8
0
  6
ByBlock
 62
     0
100
AcDbLine
 10
0.0
 20
0.0
 30
0.0
 11
-1.0
 21
0.0
 31
0.0
  0
ENDBLK
  5
A6B
330
A66
100
AcDbEntity
  8
0
100
AcDbBlockEnd
  0
BLOCK
  5
28F88
330
28F87
100
AcDbEntity
  8
0
100
AcDbBlockBegin
  2
_DotSmall
 70
     0
 10
0.0
 20
0.0
 30
0.0
  3
_DotSmall
  1

  0
LWPOLYLINE
  5
28F89
330
28F87
100
AcDbEntity
  8
0
  6
ByBlock
 62
     0
100
AcDbPolyline
 90
        2
 70
     1
 43
0.5
 10
-0.0625
 20
0.0
 42
1.0
 10
0.0625
 20
0.0
 42
1.0
  0
ENDBLK
  5
28F8A
330
28F87
100
AcDbEntity
  8
0
100
AcDbBlockEnd
  0
BLOCK
  5
612AF
330
612A8
100
AcDbEntity
  8
0
100
AcDbBlockBegin
  2
*S60
 70
     1
 10
0.0
 20
0.0
 30
0.0
  3
*S60
  1

  0
LINE
  5
612A9
330
612A8
100
AcDbEntity
  8
AM_5
 62
     3
100
AcDbLine
 10
18899.9408187987
 20
16082.03273990799
 30
0.0
 11
18899.9408187987
 21
16060.03282322641
 31
0.0
  0
LINE
  5
612AA
330
612A8
100
AcDbEntity
  8
AM_5
 62
     3
100
AcDbLine
 10
18899.9408187987
 20
16082.03273990799
 30
0.0
 11
18867.67316565633
 21
16110.61266126266
 31
0.0
  0
LINE
  5
612AB
330
612A8
100
AcDbEntity
  8
AM_5
  6
Continuous
 62
     3
100
AcDbLine
 10
18867.67316565633
 20
16110.61266126266
 30
0.0
 11
18866.17598929598
 21
16111.93873175325
 31
0.0
  0
LINE
  5
612AC
330
612A8
100
AcDbEntity
  8
AM_5
  6
Continuous
 62
     3
100
AcDbLine
 10
18868.02848517017
 20
16111.0138284557
 30
0.0
 11
18866.17598929598
 21
16111.93873175325
 31
0.0
  0
LINE
  5
612AD
330
612A8
100
AcDbEntity
  8
AM_5
  6
Continuous
 62
     3
100
AcDbLine
 10
18866.17598929598
 20
16111.93873175325
 30
0.0
 11
18867.31784614249
 21
16110.21149406961
 31
0.0
  0
MTEXT
  5
612AE
330
612A8
100
AcDbEntity
  8
AM_5
 62
     2
100
AcDbMText
 10
18898.3408187987
 20
16061.32814466132
 30
0.0
 40
3.2
 41
0.0
 71
     7
 72
     5
  1
4-M4タップ
 11
0.0000000000000001
 21
1.0
 31
0.0
 73
     1
 44
1.0
1001
ACAD
1000
MTEXTBEGIN
1070
    73
1070
     1
1070
    44
1040
1.0
1070
    74
1070
     0
1000
MTEXTEND
  0
ENDBLK
  5
612B0
330
612A8
100
AcDbEntity
  8
0
100
AcDbBlockEnd
  0
BLOCK
  5
612B9
330
612B2
100
AcDbEntity
  8
0
100
AcDbBlockBegin
  2
*S61
 70
     1
 10
0.0
 20
0.0
 30
0.0
  3
*S61
  1

  0
LINE
  5
612B3
330
612B2
100
AcDbEntity
  8
AM_5
 62
     3
100
AcDbLine
 10
18841.72889096991
 20
16224.96891193214
 30
0.0
 11
18841.72889096991
 21
16197.95373587877
 31
0.0
  0
LINE
  5
612B4
330
612B2
100
AcDbEntity
  8
AM_5
 62
     3
100
AcDbLine
 10
18841.72889096991
 20
16224.96891193214
 30
0.0
 11
18858.22500962099
 21
16235.46179446349
 31
0.0
  0
LINE
  5
612B5
330
612B2
100
AcDbEntity
  8
AM_5
  6
Continuous
 62
     3
100
AcDbLine
 10
18858.22500962099
 20
16235.46179446349
 30
0.0
 11
18859.91254790756
 21
16236.53520702693
 31
0.0
  0
LINE
  5
612B6
330
612B2
100
AcDbEntity
  8
AM_5
  6
Continuous
 62
     3
100
AcDbLine
 10
18858.51262964789
 20
16235.0096199465
 30
0.0
 11
18859.91254790756
 21
16236.53520702693
 31
0.0
  0
LINE
  5
612B7
330
612B2
100
AcDbEntity
  8
AM_5
  6
Continuous
 62
     3
100
AcDbLine
 10
18859.91254790756
 20
16236.53520702693
 30
0.0
 11
18857.93738959407
 21
16235.91396898047
 31
0.0
  0
MTEXT
  5
612B8
330
612B2
100
AcDbEntity
  8
AM_5
 62
     2
100
AcDbMText
 10
18840.12889096991
 20
16199.23404387461
 30
0.0
 40
3.2
 41
0.0
 71
     7
 72
     5
  1
8-位置決め用刻印
 11
0.0000000000000001
 21
1.0
 31
0.0
 73
     1
 44
1.0
1001
ACAD
1000
MTEXTBEGIN
1070
    73
1070
     1
1070
    44
1040
1.0
1070
    74
1070
     0
1000
MTEXTEND
  0
ENDBLK
  5
612BA
330
612B2
100
AcDbEntity
  8
0
100
AcDbBlockEnd
  0
BLOCK
  5
612C3
330
612BC
100
AcDbEntity
  8
0
100
AcDbBlockBegin
  2
*S62
 70
     1
 10
0.0
 20
0.0
 30
0.0
  3
*S62
  1

  0
LINE
  5
612BD
330
612BC
100
AcDbEntity
  8
AM_5
 62
     3
100
AcDbLine
 10
18889.9408187987
 20
16216.73807324132
 30
0.0
 11
18889.9408187987
 21
16201.93273990799
 31
0.0
  0
LINE
  5
612BE
330
612BC
100
AcDbEntity
  8
AM_5
 62
     3
100
AcDbLine
 10
18889.9408187987
 20
16201.93273990799
 30
0.0
 11
18884.23022439802
 21
16195.16160654718
 31
0.0
  0
LINE
  5
612BF
330
612BC
100
AcDbEntity
  8
AM_5
  6
Continuous
 62
     3
100
AcDbLine
 10
18884.23022439802
 20
16195.16160654718
 30
0.0
 11
18882.9408187987
 21
16193.63273990799
 31
0.0
  0
LINE
  5
612C0
330
612BC
100
AcDbEntity
  8
AM_5
  6
Continuous
 62
     3
100
AcDbLine
 10
18883.82056582043
 20
16195.5071017331
 30
0.0
 11
18882.9408187987
 21
16193.63273990799
 31
0.0
  0
LINE
  5
612C1
330
612BC
100
AcDbEntity
  8
AM_5
  6
Continuous
 62
     3
100
AcDbLine
 10
18882.9408187987
 20
16193.63273990799
 30
0.0
 11
18884.63988297561
 21
16194.81611136126
 31
0.0
  0
MTEXT
  5
612C2
330
612BC
100
AcDbEntity
  8
AM_5
 62
     2
100
AcDbMText
 10
18888.3408187987
 20
16204.21773696437
 30
0.0
 40
3.2
 41
0.0
 71
     7
 72
     5
  1
2-カシメ
 11
0.0000000000000001
 21
1.0
 31
0.0
 73
     1
 44
1.0
1001
ACAD
1000
MTEXTBEGIN
1070
    73
1070
     1
1070
    44
1040
1.0
1070
    74
1070
     0
1000
MTEXTEND
  0
ENDBLK
  5
612C4
330
612BC
100
AcDbEntity
  8
0
100
AcDbBlockEnd
  0
BLOCK
  5
614A3
330
614A2
100
AcDbEntity
  8
0
100
AcDbBlockBegin
  2
GENDOT
 70
     0
 10
0.0
 20
0.0
 30
0.0
  3
GENDOT
  1

  0
LINE
  5
614A4
330
614A2
100
AcDbEntity
  8
0
100
AcDbLine
 10
0.0
 20
0.0
 30
0.0
 11
-1.0
 21
0.0
 31
0.0
  0
LWPOLYLINE
  5
614A5
330
614A2
100
AcDbEntity
  8
0
100
AcDbPolyline
 90
        2
 70
     1
 43
0.25
 10
-0.125
 20
0.0
 42
1.0
 10
0.125
 20
0.0
 42
1.0
  0
ENDBLK
  5
614A6
330
614A2
100
AcDbEntity
  8
0
100
AcDbBlockEnd
  0
BLOCK
  5
61A83
330
61A79
100
AcDbEntity
  8
0
100
AcDbBlockBegin
  2
*D114
 70
     1
 10
0.0
 20
0.0
 30
0.0
  3
*D114
  1

  0
LINE
  5
6262E
330
61A79
100
AcDbEntity
  8
AM_5
100
AcDbLine
 10
198.5188584965363
 20
151.7809626849503
 30
0.0
 11
214.0188594965366
 21
151.7809626849503
 31
0.0
  0
LINE
  5
6262F
330
61A79
100
AcDbEntity
  8
AM_5
100
AcDbLine
 10
198.5188584965363
 20
79.78096268495028
 30
0.0
 11
214.0188594965366
 21
79.78096268495028
 31
0.0
  0
LINE
  5
62630
330
61A79
100
AcDbEntity
  8
AM_5
100
AcDbLine
 10
213.0188594965366
 20
150.7809626849503
 30
0.0
 11
213.0188594965366
 21
80.78096268495029
 31
0.0
  0
INSERT
  5
62631
330
61A79
100
AcDbEntity
  8
AM_5
100
AcDbBlockReference
  2
_Dot
 10
213.0188594965366
 20
151.7809626849503
 30
0.0
 50
90.0
  0
INSERT
  5
62632
330
61A79
100
AcDbEntity
  8
AM_5
100
AcDbBlockReference
  2
_Dot
 10
213.0188594965366
 20
79.78096268495028
 30
0.0
 50
270.0
  0
MTEXT
  5
62633
330
61A79
100
AcDbEntity
  8
AM_5
 62
     2
100
AcDbMText
 10
209.9188594965366
 20
115.7809626849503
 30
0.0
 40
3.200000000000001
 41
0.0
 71
     5
 72
     1
  1
72
 11
0.0000000000000001
 21
1.0
 31
0.0
 73
     1
 44
1.0
1001
ACAD
1000
MTEXTBEGIN
1070
    73
1070
     1
1070
    44
1040
1.0
1070
    74
1070
     0
1000
MTEXTEND
  0
POINT
  5
62634
330
61A79
100
AcDbEntity
  8
Defpoints
 62
     0
100
AcDbPoint
 10
197.5188584965362
 20
151.7809626849503
 30
0.0
  0
POINT
  5
62635
330
61A79
100
AcDbEntity
  8
Defpoints
 62
     0
100
AcDbPoint
 10
197.5188584965362
 20
79.78096268495028
 30
0.0
  0
POINT
  5
62636
330
61A79
100
AcDbEntity
  8
Defpoints
 62
     0
100
AcDbPoint
 10
213.0188594965366
 20
79.78096268495028
 30
0.0
  0
ENDBLK
  5
61A84
330
61A79
100
AcDbEntity
  8
0
100
AcDbBlockEnd
  0
BLOCK
  5
61A8F
330
61A85
100
AcDbEntity
  8
0
100
AcDbBlockBegin
  2
*D115
 70
     1
 10
0.0
 20
0.0
 30
0.0
  3
*D115
  1

  0
LINE
  5
62637
330
61A85
100
AcDbEntity
  8
AM_5
100
AcDbLine
 10
204.0188584965363
 20
163.7809626849502
 30
0.0
 11
224.0188594965366
 21
163.7809626849502
 31
0.0
  0
LINE
  5
62638
330
61A85
100
AcDbEntity
  8
AM_5
100
AcDbLine
 10
204.0188584965363
 20
67.78096268495028
 30
0.0
 11
224.0188594965366
 21
67.78096268495026
 31
0.0
  0
LINE
  5
62639
330
61A85
100
AcDbEntity
  8
AM_5
100
AcDbLine
 10
223.0188594965366
 20
162.7809626849503
 30
0.0
 11
223.0188594965366
 21
68.78096268495028
 31
0.0
  0
INSERT
  5
6263A
330
61A85
100
AcDbEntity
  8
AM_5
100
AcDbBlockReference
  2
_Dot
 10
223.0188594965366
 20
163.7809626849502
 30
0.0
 50
90.0
  0
INSERT
  5
6263B
330
61A85
100
AcDbEntity
  8
AM_5
100
AcDbBlockReference
  2
_Dot
 10
223.0188594965366
 20
67.78096268495028
 30
0.0
 50
270.0
  0
MTEXT
  5
6263C
330
61A85
100
AcDbEntity
  8
AM_5
 62
     2
100
AcDbMText
 10
219.9188594965366
 20
115.7809626849503
 30
0.0
 40
3.200000000000001
 41
0.0
 71
     5
 72
     1
  1
96
 11
0.0000000000000001
 21
1.0
 31
0.0
 73
     1
 44
1.0
1001
ACAD
1000
MTEXTBEGIN
1070
    73
1070
     1
1070
    44
1040
1.0
1070
    74
1070
     0
1000
MTEXTEND
  0
POINT
  5
6263D
330
61A85
100
AcDbEntity
  8
Defpoints
 62
     0
100
AcDbPoint
 10
203.0188584965363
 20
163.7809626849502
 30
0.0
  0
POINT
  5
6263E
330
61A85
100
AcDbEntity
  8
Defpoints
 62
     0
100
AcDbPoint
 10
203.0188584965363
 20
67.78096268495028
 30
0.0
  0
POINT
  5
6263F
330
61A85
100
AcDbEntity
  8
Defpoints
 62
     0
100
AcDbPoint
 10
223.0188594965366
 20
67.78096268495028
 30
0.0
  0
ENDBLK
  5
61A90
330
61A85
100
AcDbEntity
  8
0
100
AcDbBlockEnd
  0
BLOCK
  5
61AB3
330
61AA9
100
AcDbEntity
  8
0
100
AcDbBlockBegin
  2
*D118
 70
     1
 10
0.0
 20
0.0
 30
0.0
  3
*D118
  1

  0
LINE
  5
62640
330
61AA9
100
AcDbEntity
  8
AM_5
100
AcDbLine
 10
204.0188584965363
 20
185.7809626849503
 30
0.0
 11
244.0188594965366
 21
185.7809626849503
 31
0.0
  0
LINE
  5
62641
330
61AA9
100
AcDbEntity
  8
AM_5
100
AcDbLine
 10
204.0188584965363
 20
45.78096268495028
 30
0.0
 11
244.0188594965366
 21
45.78096268495026
 31
0.0
  0
LINE
  5
62642
330
61AA9
100
AcDbEntity
  8
AM_5
100
AcDbLine
 10
243.0188594965366
 20
184.7809626849502
 30
0.0
 11
243.0188594965366
 21
46.78096268495027
 31
0.0
  0
INSERT
  5
62643
330
61AA9
100
AcDbEntity
  8
AM_5
100
AcDbBlockReference
  2
_Dot
 10
243.0188594965366
 20
185.7809626849503
 30
0.0
 50
90.0
  0
INSERT
  5
62644
330
61AA9
100
AcDbEntity
  8
AM_5
100
AcDbBlockReference
  2
_Dot
 10
243.0188594965366
 20
45.78096268495026
 30
0.0
 50
270.0
  0
MTEXT
  5
62645
330
61AA9
100
AcDbEntity
  8
AM_5
 62
     2
100
AcDbMText
 10
239.9188594965366
 20
115.7809626849503
 30
0.0
 40
3.200000000000001
 41
0.0
 71
     5
 72
     1
  1
140
 11
0.0000000000000001
 21
1.0
 31
0.0
 73
     1
 44
1.0
1001
ACAD
1000
MTEXTBEGIN
1070
    73
1070
     1
1070
    44
1040
1.0
1070
    74
1070
     0
1000
MTEXTEND
  0
POINT
  5
62646
330
61AA9
100
AcDbEntity
  8
Defpoints
 62
     0
100
AcDbPoint
 10
203.0188584965363
 20
185.7809626849503
 30
0.0
  0
POINT
  5
62647
330
61AA9
100
AcDbEntity
  8
Defpoints
 62
     0
100
AcDbPoint
 10
203.0188584965363
 20
45.78096268495028
 30
0.0
  0
POINT
  5
62648
330
61AA9
100
AcDbEntity
  8
Defpoints
 62
     0
100
AcDbPoint
 10
243.0188594965366
 20
45.78096268495026
 30
0.0
  0
ENDBLK
  5
61AB4
330
61AA9
100
AcDbEntity
  8
0
100
AcDbBlockEnd
  0
BLOCK
  5
61ABF
330
61AB5
100
AcDbEntity
  8
0
100
AcDbBlockBegin
  2
*D119
 70
     1
 10
0.0
 20
0.0
 30
0.0
  3
*D119
  1

  0
LINE
  5
62649
330
61AB5
100
AcDbEntity
  8
AM_5
100
AcDbLine
 10
179.5188584965362
 20
155.7809626849502
 30
0.0
 11
153.0188584965362
 21
155.7809626849502
 31
0.0
  0
LINE
  5
6264A
330
61AB5
100
AcDbEntity
  8
AM_5
100
AcDbLine
 10
179.5188584965362
 20
75.78096268495028
 30
0.0
 11
153.0188584965362
 21
75.7809626849503
 31
0.0
  0
LINE
  5
6264B
330
61AB5
100
AcDbEntity
  8
AM_5
100
AcDbLine
 10
154.0188584965362
 20
154.7809626849503
 30
0.0
 11
154.0188584965362
 21
76.78096268495029
 31
0.0
  0
INSERT
  5
6264C
330
61AB5
100
AcDbEntity
  8
AM_5
100
AcDbBlockReference
  2
_Dot
 10
154.0188584965362
 20
155.7809626849502
 30
0.0
 50
90.0
  0
INSERT
  5
6264D
330
61AB5
100
AcDbEntity
  8
AM_5
100
AcDbBlockReference
  2
_Dot
 10
154.0188584965362
 20
75.7809626849503
 30
0.0
 50
270.0
  0
MTEXT
  5
6264E
330
61AB5
100
AcDbEntity
  8
AM_5
 62
     2
100
AcDbMText
 10
150.9188584965362
 20
115.7809626849503
 30
0.0
 40
3.200000000000001
 41
0.0
 71
     5
 72
     1
  1
80
 11
0.0000000000000001
 21
1.0
 31
0.0
 73
     1
 44
1.0
1001
ACAD
1000
MTEXTBEGIN
1070
    73
1070
     1
1070
    44
1040
1.0
1070
    74
1070
     0
1000
MTEXTEND
  0
POINT
  5
6264F
330
61AB5
100
AcDbEntity
  8
Defpoints
 62
     0
100
AcDbPoint
 10
180.5188584965362
 20
155.7809626849502
 30
0.0
  0
POINT
  5
62650
330
61AB5
100
AcDbEntity
  8
Defpoints
 62
     0
100
AcDbPoint
 10
180.5188584965362
 20
75.78096268495028
 30
0.0
  0
POINT
  5
62651
330
61AB5
100
AcDbEntity
  8
Defpoints
 62
     0
100
AcDbPoint
 10
154.0188584965362
 20
75.7809626849503
 30
0.0
  0
ENDBLK
  5
61AC0
330
61AB5
100
AcDbEntity
  8
0
100
AcDbBlockEnd
  0
BLOCK
  5
61ACB
330
61AC1
100
AcDbEntity
  8
0
100
AcDbBlockBegin
  2
*D120
 70
     1
 10
0.0
 20
0.0
 30
0.0
  3
*D120
  1

  0
LINE
  5
62652
330
61AC1
100
AcDbEntity
  8
AM_5
100
AcDbLine
 10
179.5188584965362
 20
160.7809626849503
 30
0.0
 11
143.0698164313726
 21
160.7809626849503
 31
0.0
  0
LINE
  5
62653
330
61AC1
100
AcDbEntity
  8
AM_5
100
AcDbLine
 10
179.5188584965362
 20
70.78096268495028
 30
0.0
 11
143.0698164313726
 21
70.7809626849503
 31
0.0
  0
LINE
  5
62654
330
61AC1
100
AcDbEntity
  8
AM_5
100
AcDbLine
 10
144.0698164313726
 20
159.7809626849502
 30
0.0
 11
144.0698164313726
 21
71.78096268495029
 31
0.0
  0
INSERT
  5
62655
330
61AC1
100
AcDbEntity
  8
AM_5
100
AcDbBlockReference
  2
_Dot
 10
144.0698164313726
 20
160.7809626849503
 30
0.0
 50
90.0
  0
INSERT
  5
62656
330
61AC1
100
AcDbEntity
  8
AM_5
100
AcDbBlockReference
  2
_Dot
 10
144.0698164313726
 20
70.7809626849503
 30
0.0
 50
270.0
  0
MTEXT
  5
62657
330
61AC1
100
AcDbEntity
  8
AM_5
 62
     2
100
AcDbMText
 10
140.9698164313726
 20
115.7809626849503
 30
0.0
 40
3.200000000000001
 41
0.0
 71
     5
 72
     1
  1
90
 11
0.0000000000000001
 21
1.0
 31
0.0
 73
     1
 44
1.0
1001
ACAD
1000
MTEXTBEGIN
1070
    73
1070
     1
1070
    44
1040
1.0
1070
    74
1070
     0
1000
MTEXTEND
  0
POINT
  5
62658
330
61AC1
100
AcDbEntity
  8
Defpoints
 62
     0
100
AcDbPoint
 10
180.5188584965362
 20
160.7809626849503
 30
0.0
  0
POINT
  5
62659
330
61AC1
100
AcDbEntity
  8
Defpoints
 62
     0
100
AcDbPoint
 10
180.5188584965362
 20
70.78096268495028
 30
0.0
  0
POINT
  5
6265A
330
61AC1
100
AcDbEntity
  8
Defpoints
 62
     0
100
AcDbPoint
 10
144.0698164313726
 20
70.7809626849503
 30
0.0
  0
ENDBLK
  5
61ACC
330
61AC1
100
AcDbEntity
  8
0
100
AcDbBlockEnd
  0
BLOCK
  5
61AD7
330
61ACD
100
AcDbEntity
  8
0
100
AcDbBlockBegin
  2
*D121
 70
     1
 10
0.0
 20
0.0
 30
0.0
  3
*D121
  1

  0
LINE
  5
6265B
330
61ACD
100
AcDbEntity
  8
AM_5
100
AcDbLine
 10
179.0188584965362
 20
178.7809626849503
 30
0.0
 11
133.0136892921691
 21
178.7809626849503
 31
0.0
  0
LINE
  5
6265C
330
61ACD
100
AcDbEntity
  8
AM_5
100
AcDbLine
 10
179.0188584965362
 20
52.78096268495028
 30
0.0
 11
133.0136892921691
 21
52.7809626849503
 31
0.0
  0
LINE
  5
6265D
330
61ACD
100
AcDbEntity
  8
AM_5
100
AcDbLine
 10
134.0136892921691
 20
177.7809626849503
 30
0.0
 11
134.0136892921691
 21
53.78096268495029
 31
0.0
  0
INSERT
  5
6265E
330
61ACD
100
AcDbEntity
  8
AM_5
100
AcDbBlockReference
  2
_Dot
 10
134.0136892921691
 20
178.7809626849503
 30
0.0
 50
90.0
  0
INSERT
  5
6265F
330
61ACD
100
AcDbEntity
  8
AM_5
100
AcDbBlockReference
  2
_Dot
 10
134.0136892921691
 20
52.7809626849503
 30
0.0
 50
270.0
  0
MTEXT
  5
62660
330
61ACD
100
AcDbEntity
  8
AM_5
 62
     2
100
AcDbMText
 10
130.9136892921691
 20
115.7809626849503
 30
0.0
 40
3.200000000000001
 41
0.0
 71
     5
 72
     1
  1
126
 11
0.0000000000000001
 21
1.0
 31
0.0
 73
     1
 44
1.0
1001
ACAD
1000
MTEXTBEGIN
1070
    73
1070
     1
1070
    44
1040
1.0
1070
    74
1070
     0
1000
MTEXTEND
  0
POINT
  5
62661
330
61ACD
100
AcDbEntity
  8
Defpoints
 62
     0
100
AcDbPoint
 10
180.0188584965362
 20
178.7809626849503
 30
0.0
  0
POINT
  5
62662
330
61ACD
100
AcDbEntity
  8
Defpoints
 62
     0
100
AcDbPoint
 10
180.0188584965362
 20
52.78096268495028
 30
0.0
  0
POINT
  5
62663
330
61ACD
100
AcDbEntity
  8
Defpoints
 62
     0
100
AcDbPoint
 10
134.0136892921691
 20
52.7809626849503
 30
0.0
  0
ENDBLK
  5
61AD8
330
61ACD
100
AcDbEntity
  8
0
100
AcDbBlockEnd
  0
BLOCK
  5
61AE3
330
61AD9
100
AcDbEntity
  8
0
100
AcDbBlockBegin
  2
*D122
 70
     1
 10
0.0
 20
0.0
 30
0.0
  3
*D122
  1

  0
LINE
  5
62664
330
61AD9
100
AcDbEntity
  8
AM_5
100
AcDbLine
 10
197.5188584965362
 20
152.7809626849503
 30
0.0
 11
197.5188584965362
 21
196.7809626849503
 31
0.0
  0
LINE
  5
62665
330
61AD9
100
AcDbEntity
  8
AM_5
100
AcDbLine
 10
172.5188584965362
 20
152.7809626849503
 30
0.0
 11
172.5188584965362
 21
196.7809626849503
 31
0.0
  0
LINE
  5
62666
330
61AD9
100
AcDbEntity
  8
AM_5
100
AcDbLine
 10
196.5188584965362
 20
195.7809626849503
 30
0.0
 11
173.5188584965363
 21
195.7809626849503
 31
0.0
  0
INSERT
  5
62667
330
61AD9
100
AcDbEntity
  8
AM_5
100
AcDbBlockReference
  2
_Dot
 10
197.5188584965362
 20
195.7809626849503
 30
0.0
  0
INSERT
  5
62668
330
61AD9
100
AcDbEntity
  8
AM_5
100
AcDbBlockReference
  2
_Dot
 10
172.5188584965362
 20
195.7809626849503
 30
0.0
 50
180.0
  0
MTEXT
  5
62669
330
61AD9
100
AcDbEntity
  8
AM_5
 62
     2
100
AcDbMText
 10
185.0188584965362
 20
198.8809626849502
 30
0.0
 40
3.200000000000001
 41
0.0
 71
     5
 72
     1
  1
25
 73
     1
 44
1.0
1001
ACAD
1000
MTEXTBEGIN
1070
    73
1070
     1
1070
    44
1040
1.0
1070
    74
1070
     0
1000
MTEXTEND
  0
POINT
  5
6266A
330
61AD9
100
AcDbEntity
  8
Defpoints
 62
     0
100
AcDbPoint
 10
197.5188584965362
 20
151.7809626849503
 30
0.0
  0
POINT
  5
6266B
330
61AD9
100
AcDbEntity
  8
Defpoints
 62
     0
100
AcDbPoint
 10
172.5188584965362
 20
151.7809626849503
 30
0.0
  0
POINT
  5
6266C
330
61AD9
100
AcDbEntity
  8
Defpoints
 62
     0
100
AcDbPoint
 10
172.5188584965362
 20
195.7809626849503
 30
0.0
  0
ENDBLK
  5
61AE4
330
61AD9
100
AcDbEntity
  8
0
100
AcDbBlockEnd
  0
BLOCK
  5
61AEF
330
61AE5
100
AcDbEntity
  8
0
100
AcDbBlockBegin
  2
*D123
 70
     1
 10
0.0
 20
0.0
 30
0.0
  3
*D123
  1

  0
LINE
  5
6266D
330
61AE5
100
AcDbEntity
  8
AM_5
100
AcDbLine
 10
203.0188584965363
 20
186.7809626849503
 30
0.0
 11
203.0188584965363
 21
206.7809626849503
 31
0.0
  0
LINE
  5
6266E
330
61AE5
100
AcDbEntity
  8
AM_5
100
AcDbLine
 10
164.0188584965363
 20
186.7809626849503
 30
0.0
 11
164.0188584965363
 21
206.7809626849503
 31
0.0
  0
LINE
  5
6266F
330
61AE5
100
AcDbEntity
  8
AM_5
100
AcDbLine
 10
202.0188584965363
 20
205.7809626849503
 30
0.0
 11
165.0188584965363
 21
205.7809626849503
 31
0.0
  0
INSERT
  5
62670
330
61AE5
100
AcDbEntity
  8
AM_5
100
AcDbBlockReference
  2
_Dot
 10
203.0188584965363
 20
205.7809626849503
 30
0.0
  0
INSERT
  5
62671
330
61AE5
100
AcDbEntity
  8
AM_5
100
AcDbBlockReference
  2
_Dot
 10
164.0188584965363
 20
205.7809626849503
 30
0.0
 50
180.0
  0
MTEXT
  5
62672
330
61AE5
100
AcDbEntity
  8
AM_5
 62
     2
100
AcDbMText
 10
183.5188584965362
 20
208.8809626849503
 30
0.0
 40
3.200000000000001
 41
0.0
 71
     5
 72
     1
  1
39
 73
     1
 44
1.0
1001
ACAD
1000
MTEXTBEGIN
1070
    73
1070
     1
1070
    44
1040
1.0
1070
    74
1070
     0
1000
MTEXTEND
  0
POINT
  5
62673
330
61AE5
100
AcDbEntity
  8
Defpoints
 62
     0
100
AcDbPoint
 10
203.0188584965363
 20
185.7809626849503
 30
0.0
  0
POINT
  5
62674
330
61AE5
100
AcDbEntity
  8
Defpoints
 62
     0
100
AcDbPoint
 10
164.0188584965363
 20
185.7809626849503
 30
0.0
  0
POINT
  5
62675
330
61AE5
100
AcDbEntity
  8
Defpoints
 62
     0
100
AcDbPoint
 10
164.0188584965363
 20
205.7809626849503
 30
0.0
  0
ENDBLK
  5
61AF0
330
61AE5
100
AcDbEntity
  8
0
100
AcDbBlockEnd
  0
BLOCK
  5
61AFC
330
61AF1
100
AcDbEntity
  8
0
100
AcDbBlockBegin
  2
*D124
 70
     1
 10
0.0
 20
0.0
 30
0.0
  3
*D124
  1

  0
LINE
  5
62676
330
61AF1
100
AcDbEntity
  8
AM_5
100
AcDbLine
 10
197.5188584965362
 20
152.7809626849503
 30
0.0
 11
197.5188584965362
 21
196.7809626849503
 31
0.0
  0
LINE
  5
62677
330
61AF1
100
AcDbEntity
  8
AM_5
100
AcDbLine
 10
203.0188584965363
 20
186.7809626849503
 30
0.0
 11
203.0188584965363
 21
196.7809626849503
 31
0.0
  0
LINE
  5
62678
330
61AF1
100
AcDbEntity
  8
AM_5
100
AcDbLine
 10
198.5188584965363
 20
195.7809626849503
 30
0.0
 11
202.0188584965363
 21
195.7809626849503
 31
0.0
  0
LINE
  5
62679
330
61AF1
100
AcDbEntity
  8
AM_5
100
AcDbLine
 10
203.0188584965363
 20
195.7809626849503
 30
0.0
 11
211.7121918298696
 21
195.7809626849503
 31
0.0
  0
INSERT
  5
6267A
330
61AF1
100
AcDbEntity
  8
AM_5
100
AcDbBlockReference
  2
_Dot
 10
197.5188584965362
 20
195.7809626849503
 30
0.0
 50
180.0
  0
INSERT
  5
6267B
330
61AF1
100
AcDbEntity
  8
AM_5
100
AcDbBlockReference
  2
_Dot
 10
203.0188584965363
 20
195.7809626849503
 30
0.0
  0
MTEXT
  5
6267C
330
61AF1
100
AcDbEntity
  8
AM_5
 62
     2
100
AcDbMText
 10
207.8655251632029
 20
198.8809626849502
 30
0.0
 40
3.200000000000001
 41
0.0
 71
     5
 72
     1
  1
5.5
 73
     1
 44
1.0
1001
ACAD
1000
MTEXTBEGIN
1070
    73
1070
     1
1070
    44
1040
1.0
1070
    74
1070
     0
1000
MTEXTEND
  0
POINT
  5
6267D
330
61AF1
100
AcDbEntity
  8
Defpoints
 62
     0
100
AcDbPoint
 10
197.5188584965362
 20
151.7809626849503
 30
0.0
  0
POINT
  5
6267E
330
61AF1
100
AcDbEntity
  8
Defpoints
 62
     0
100
AcDbPoint
 10
203.0188584965363
 20
185.7809626849503
 30
0.0
  0
POINT
  5
6267F
330
61AF1
100
AcDbEntity
  8
Defpoints
 62
     0
100
AcDbPoint
 10
203.0188584965363
 20
195.7809626849503
 30
0.0
  0
ENDBLK
  5
61AFD
330
61AF1
100
AcDbEntity
  8
0
100
AcDbBlockEnd
  0
BLOCK
  5
61B08
330
61AFE
100
AcDbEntity
  8
0
100
AcDbBlockBegin
  2
*D125
 70
     1
 10
0.0
 20
0.0
 30
0.0
  3
*D125
  1

  0
LINE
  5
62680
330
61AFE
100
AcDbEntity
  8
AM_5
100
AcDbLine
 10
185.0188584965362
 20
46.78096268495028
 30
0.0
 11
185.0188584965362
 21
32.88636617304656
 31
0.0
  0
LINE
  5
62681
330
61AFE
100
AcDbEntity
  8
AM_5
100
AcDbLine
 10
203.0188584965363
 20
44.78096268495028
 30
0.0
 11
203.0188584965363
 21
32.88636617304656
 31
0.0
  0
LINE
  5
62682
330
61AFE
100
AcDbEntity
  8
AM_5
100
AcDbLine
 10
186.0188584965363
 20
33.88636617304655
 30
0.0
 11
202.0188584965363
 21
33.88636617304655
 31
0.0
  0
INSERT
  5
62683
330
61AFE
100
AcDbEntity
  8
AM_5
100
AcDbBlockReference
  2
_Dot
 10
185.0188584965362
 20
33.88636617304655
 30
0.0
 50
180.0
  0
INSERT
  5
62684
330
61AFE
100
AcDbEntity
  8
AM_5
100
AcDbBlockReference
  2
_Dot
 10
203.0188584965363
 20
33.88636617304655
 30
0.0
  0
MTEXT
  5
62685
330
61AFE
100
AcDbEntity
  8
AM_5
 62
     2
100
AcDbMText
 10
194.0188584965362
 20
36.98636617304656
 30
0.0
 40
3.200000000000001
 41
0.0
 71
     5
 72
     1
  1
18
 73
     1
 44
1.0
1001
ACAD
1000
MTEXTBEGIN
1070
    73
1070
     1
1070
    44
1040
1.0
1070
    74
1070
     0
1000
MTEXTEND
  0
POINT
  5
62686
330
61AFE
100
AcDbEntity
  8
Defpoints
 62
     0
100
AcDbPoint
 10
185.0188584965362
 20
47.78096268495028
 30
0.0
  0
POINT
  5
62687
330
61AFE
100
AcDbEntity
  8
Defpoints
 62
     0
100
AcDbPoint
 10
203.0188584965363
 20
45.78096268495028
 30
0.0
  0
POINT
  5
62688
330
61AFE
100
AcDbEntity
  8
Defpoints
 62
     0
100
AcDbPoint
 10
203.0188584965363
 20
33.88636617304655
 30
0.0
  0
ENDBLK
  5
61B09
330
61AFE
100
AcDbEntity
  8
0
100
AcDbBlockEnd
  0
BLOCK
  5
61B30
330
61B26
100
AcDbEntity
  8
0
100
AcDbBlockBegin
  2
*D128
 70
     1
 10
0.0
 20
0.0
 30
0.0
  3
*D128
  1

  0
LINE
  5
62689
330
61B26
100
AcDbEntity
  8
AM_5
100
AcDbLine
 10
283.9188584965377
 20
175.2809626849503
 30
0.0
 11
283.9188584965377
 21
206.7809626849503
 31
0.0
  0
LINE
  5
6268A
330
61B26
100
AcDbEntity
  8
AM_5
100
AcDbLine
 10
263.0188584965363
 20
186.7809626849503
 30
0.0
 11
263.0188584965363
 21
206.7809626849503
 31
0.0
  0
LINE
  5
6268B
330
61B26
100
AcDbEntity
  8
AM_5
100
AcDbLine
 10
282.9188584965377
 20
205.7809626849503
 30
0.0
 11
264.0188584965363
 21
205.7809626849503
 31
0.0
  0
INSERT
  5
6268C
330
61B26
100
AcDbEntity
  8
AM_5
100
AcDbBlockReference
  2
_Dot
 10
283.9188584965377
 20
205.7809626849503
 30
0.0
  0
INSERT
  5
6268D
330
61B26
100
AcDbEntity
  8
AM_5
100
AcDbBlockReference
  2
_Dot
 10
263.0188584965363
 20
205.7809626849503
 30
0.0
 50
180.0
  0
MTEXT
  5
6268E
330
61B26
100
AcDbEntity
  8
AM_5
 62
     2
100
AcDbMText
 10
273.468858496537
 20
208.8809626849503
 30
0.0
 40
3.200000000000001
 41
0.0
 71
     5
 72
     1
  1
20.9
 73
     1
 44
1.0
1001
ACAD
1000
MTEXTBEGIN
1070
    73
1070
     1
1070
    44
1040
1.0
1070
    74
1070
     0
1000
MTEXTEND
  0
POINT
  5
6268F
330
61B26
100
AcDbEntity
  8
Defpoints
 62
     0
100
AcDbPoint
 10
283.9188584965377
 20
174.2809626849503
 30
0.0
  0
POINT
  5
62690
330
61B26
100
AcDbEntity
  8
Defpoints
 62
     0
100
AcDbPoint
 10
263.0188584965363
 20
185.7809626849503
 30
0.0
  0
POINT
  5
62691
330
61B26
100
AcDbEntity
  8
Defpoints
 62
     0
100
AcDbPoint
 10
263.0188584965363
 20
205.7809626849503
 30
0.0
  0
ENDBLK
  5
61B31
330
61B26
100
AcDbEntity
  8
0
100
AcDbBlockEnd
  0
BLOCK
  5
61B3C
330
61B32
100
AcDbEntity
  8
0
100
AcDbBlockBegin
  2
*D129
 70
     1
 10
0.0
 20
0.0
 30
0.0
  3
*D129
  1

  0
LINE
  5
62692
330
61B32
100
AcDbEntity
  8
AM_5
100
AcDbLine
 10
284.4188584965377
 20
174.7809626849503
 30
0.0
 11
294.9188584965378
 21
174.7809626849503
 31
0.0
  0
LINE
  5
62693
330
61B32
100
AcDbEntity
  8
AM_5
100
AcDbLine
 10
284.4188584965377
 20
56.78096268495028
 30
0.0
 11
294.9188584965377
 21
56.78096268495028
 31
0.0
  0
LINE
  5
62694
330
61B32
100
AcDbEntity
  8
AM_5
100
AcDbLine
 10
293.9188584965378
 20
173.7809626849503
 30
0.0
 11
293.9188584965377
 21
57.78096268495028
 31
0.0
  0
INSERT
  5
62695
330
61B32
100
AcDbEntity
  8
AM_5
100
AcDbBlockReference
  2
_Dot
 10
293.9188584965378
 20
174.7809626849503
 30
0.0
 50
90.0
  0
INSERT
  5
62696
330
61B32
100
AcDbEntity
  8
AM_5
100
AcDbBlockReference
  2
_Dot
 10
293.9188584965377
 20
56.78096268495028
 30
0.0
 50
270.0
  0
MTEXT
  5
62697
330
61B32
100
AcDbEntity
  8
AM_5
 62
     2
100
AcDbMText
 10
290.8188584965377
 20
115.7809626849503
 30
0.0
 40
3.200000000000001
 41
0.0
 71
     5
 72
     1
  1
118
 11
0.0000000000000001
 21
1.0
 31
0.0
 73
     1
 44
1.0
1001
ACAD
1000
MTEXTBEGIN
1070
    73
1070
     1
1070
    44
1040
1.0
1070
    74
1070
     0
1000
MTEXTEND
  0
POINT
  5
62698
330
61B32
100
AcDbEntity
  8
Defpoints
 62
     0
100
AcDbPoint
 10
283.4188584965377
 20
174.7809626849503
 30
0.0
  0
POINT
  5
62699
330
61B32
100
AcDbEntity
  8
Defpoints
 62
     0
100
AcDbPoint
 10
283.4188584965377
 20
56.78096268495028
 30
0.0
  0
POINT
  5
6269A
330
61B32
100
AcDbEntity
  8
Defpoints
 62
     0
100
AcDbPoint
 10
293.9188584965377
 20
56.78096268495028
 30
0.0
  0
ENDBLK
  5
61B3D
330
61B32
100
AcDbEntity
  8
0
100
AcDbBlockEnd
  0
BLOCK
  5
61B48
330
61B3E
100
AcDbEntity
  8
0
100
AcDbBlockBegin
  2
*D130
 70
     1
 10
0.0
 20
0.0
 30
0.0
  3
*D130
  1

  0
LINE
  5
6269B
330
61B3E
100
AcDbEntity
  8
AM_5
100
AcDbLine
 10
200.0188584965363
 20
253.5216315321886
 30
0.0
 11
200.0188584965363
 21
264.0216315321886
 31
0.0
  0
LINE
  5
6269C
330
61B3E
100
AcDbEntity
  8
AM_5
100
AcDbLine
 10
170.0188584965362
 20
253.5216315321886
 30
0.0
 11
170.0188584965362
 21
264.0216315321886
 31
0.0
  0
LINE
  5
6269D
330
61B3E
100
AcDbEntity
  8
AM_5
100
AcDbLine
 10
199.0188584965362
 20
263.0216315321886
 30
0.0
 11
171.0188584965362
 21
263.0216315321886
 31
0.0
  0
INSERT
  5
6269E
330
61B3E
100
AcDbEntity
  8
AM_5
100
AcDbBlockReference
  2
_Dot
 10
200.0188584965363
 20
263.0216315321886
 30
0.0
  0
INSERT
  5
6269F
330
61B3E
100
AcDbEntity
  8
AM_5
100
AcDbBlockReference
  2
_Dot
 10
170.0188584965362
 20
263.0216315321886
 30
0.0
 50
180.0
  0
MTEXT
  5
626A0
330
61B3E
100
AcDbEntity
  8
AM_5
 62
     2
100
AcDbMText
 10
185.0188584965362
 20
266.1216315321886
 30
0.0
 40
3.200000000000001
 41
0.0
 71
     5
 72
     1
  1
30
 73
     1
 44
1.0
1001
ACAD
1000
MTEXTBEGIN
1070
    73
1070
     1
1070
    44
1040
1.0
1070
    74
1070
     0
1000
MTEXTEND
  0
POINT
  5
626A1
330
61B3E
100
AcDbEntity
  8
Defpoints
 62
     0
100
AcDbPoint
 10
200.0188584965363
 20
252.5216315321886
 30
0.0
  0
POINT
  5
626A2
330
61B3E
100
AcDbEntity
  8
Defpoints
 62
     0
100
AcDbPoint
 10
170.0188584965362
 20
252.5216315321886
 30
0.0
  0
POINT
  5
626A3
330
61B3E
100
AcDbEntity
  8
Defpoints
 62
     0
100
AcDbPoint
 10
170.0188584965362
 20
263.0216315321886
 30
0.0
  0
ENDBLK
  5
61B49
330
61B3E
100
AcDbEntity
  8
0
100
AcDbBlockEnd
  0
BLOCK
  5
61B56
330
61B4A
100
AcDbEntity
  8
0
100
AcDbBlockBegin
  2
*D131
 70
     1
 10
0.0
 20
0.0
 30
0.0
  3
*D131
  1

  0
LINE
  5
626A4
330
61B4A
100
AcDbEntity
  8
AM_5
100
AcDbLine
 10
200.0188584965363
 20
253.5216315321886
 30
0.0
 11
200.0188584965363
 21
264.0216315321886
 31
0.0
  0
LINE
  5
626A5
330
61B4A
100
AcDbEntity
  8
AM_5
100
AcDbLine
 10
203.0188584965363
 20
235.6216315321872
 30
0.0
 11
203.0188584965363
 21
264.0216315321886
 31
0.0
  0
LINE
  5
626A6
330
61B4A
100
AcDbEntity
  8
AM_5
100
AcDbLine
 10
199.0188584965362
 20
263.0216315321886
 30
0.0
 11
198.0188584965362
 21
263.0216315321886
 31
0.0
  0
LINE
  5
626A7
330
61B4A
100
AcDbEntity
  8
AM_5
100
AcDbLine
 10
204.0188584965363
 20
263.0216315321886
 30
0.0
 11
209.5121918298696
 21
263.0216315321886
 31
0.0
  0
LINE
  5
626A8
330
61B4A
100
AcDbEntity
  8
AM_5
100
AcDbLine
 10
200.0188584965363
 20
263.0216315321886
 30
0.0
 11
203.0188584965363
 21
263.0216315321886
 31
0.0
  0
INSERT
  5
626A9
330
61B4A
100
AcDbEntity
  8
AM_5
100
AcDbBlockReference
  2
_Dot
 10
200.0188584965363
 20
263.0216315321886
 30
0.0
  0
INSERT
  5
626AA
330
61B4A
100
AcDbEntity
  8
AM_5
100
AcDbBlockReference
  2
_Dot
 10
203.0188584965363
 20
263.0216315321886
 30
0.0
 50
180.0
  0
MTEXT
  5
626AB
330
61B4A
100
AcDbEntity
  8
AM_5
 62
     2
100
AcDbMText
 10
207.265525163203
 20
266.1216315321886
 30
0.0
 40
3.200000000000001
 41
0.0
 71
     5
 72
     1
  1
3
 73
     1
 44
1.0
1001
ACAD
1000
MTEXTBEGIN
1070
    73
1070
     1
1070
    44
1040
1.0
1070
    74
1070
     0
1000
MTEXTEND
  0
POINT
  5
626AC
330
61B4A
100
AcDbEntity
  8
Defpoints
 62
     0
100
AcDbPoint
 10
200.0188584965363
 20
252.5216315321886
 30
0.0
  0
POINT
  5
626AD
330
61B4A
100
AcDbEntity
  8
Defpoints
 62
     0
100
AcDbPoint
 10
203.0188584965363
 20
234.6216315321872
 30
0.0
  0
POINT
  5
626AE
330
61B4A
100
AcDbEntity
  8
Defpoints
 62
     0
100
AcDbPoint
 10
203.0188584965363
 20
263.0216315321886
 30
0.0
  0
ENDBLK
  5
61B57
330
61B4A
100
AcDbEntity
  8
0
100
AcDbBlockEnd
  0
BLOCK
  5
6254E
330
62544
100
AcDbEntity
  8
0
100
AcDbBlockBegin
  2
*D202
 70
     1
 10
0.0
 20
0.0
 30
0.0
  3
*D202
  1

  0
LINE
  5
626AF
330
62544
100
AcDbEntity
  8
AM_5
100
AcDbLine
 10
204.0188584965363
 20
170.7809626849503
 30
0.0
 11
234.0188594965403
 21
170.7809626849503
 31
0.0
  0
LINE
  5
626B0
330
62544
100
AcDbEntity
  8
AM_5
100
AcDbLine
 10
204.0188584965363
 20
60.78096268495028
 30
0.0
 11
234.0188594965403
 21
60.78096268495027
 31
0.0
  0
LINE
  5
626B1
330
62544
100
AcDbEntity
  8
AM_5
100
AcDbLine
 10
233.0188594965403
 20
169.7809626849503
 30
0.0
 11
233.0188594965402
 21
61.78096268495028
 31
0.0
  0
INSERT
  5
626B2
330
62544
100
AcDbEntity
  8
AM_5
100
AcDbBlockReference
  2
_Dot
 10
233.0188594965403
 20
170.7809626849503
 30
0.0
 50
90.0
  0
INSERT
  5
626B3
330
62544
100
AcDbEntity
  8
AM_5
100
AcDbBlockReference
  2
_Dot
 10
233.0188594965402
 20
60.78096268495027
 30
0.0
 50
270.0
  0
MTEXT
  5
626B4
330
62544
100
AcDbEntity
  8
AM_5
 62
     2
100
AcDbMText
 10
229.9188594965403
 20
115.7809626849503
 30
0.0
 40
3.200000000000001
 41
0.0
 71
     5
 72
     1
  1
110
 11
0.0000000000000001
 21
1.0
 31
0.0
 73
     1
 44
1.0
1001
ACAD
1000
MTEXTBEGIN
1070
    73
1070
     1
1070
    44
1040
1.0
1070
    74
1070
     0
1000
MTEXTEND
  0
POINT
  5
626B5
330
62544
100
AcDbEntity
  8
Defpoints
 62
     0
100
AcDbPoint
 10
203.0188584965363
 20
170.7809626849503
 30
0.0
  0
POINT
  5
626B6
330
62544
100
AcDbEntity
  8
Defpoints
 62
     0
100
AcDbPoint
 10
203.0188584965363
 20
60.78096268495028
 30
0.0
  0
POINT
  5
626B7
330
62544
100
AcDbEntity
  8
Defpoints
 62
     0
100
AcDbPoint
 10
233.0188594965402
 20
60.78096268495027
 30
0.0
  0
ENDBLK
  5
6254F
330
62544
100
AcDbEntity
  8
0
100
AcDbBlockEnd
  0
BLOCK
  5
6259B
330
62592
100
AcDbEntity
  8
0
100
AcDbBlockBegin
  2
*D203
 70
     1
 10
0.0
 20
0.0
 30
0.0
  3
*D203
  1

  0
LINE
  5
626D4
330
62592
100
AcDbEntity
  8
AM_5
100
AcDbLine
 10
161.3769744808437
 20
33.70409312470827
 30
0.0
 11
175.5936411475104
 21
33.70409312470827
 31
0.0
  0
LINE
  5
626D5
330
62592
100
AcDbEntity
  8
AM_5
100
AcDbLine
 10
175.5936411475104
 20
33.70409312470827
 30
0.0
 11
183.4020841491379
 21
49.50857201304165
 31
0.0
  0
MTEXT
  5
626D6
330
62592
100
AcDbEntity
  8
AM_5
 62
     2
100
AcDbMText
 10
167.7353078141771
 20
36.9540931247083
 30
0.0
 40
3.5
 41
0.0
 71
     5
 72
     1
  1
2-\U+22053.3
 73
     1
 44
1.0
1001
ACAD
1000
MTEXTBEGIN
1070
    73
1070
     1
1070
    44
1040
1.0
1070
    74
1070
     0
1000
MTEXTEND
  0
INSERT
  5
626D7
330
62592
100
AcDbEntity
  8
AM_5
100
AcDbBlockReference
  2
_OPEN30
 10
184.287987901137
 20
51.30166279216967
 30
0.0
 41
2.0
 42
2.0
 43
2.0
 50
63.70762533692793
  0
POINT
  5
626D8
330
62592
100
AcDbEntity
  8
Defpoints
 62
     0
100
AcDbPoint
 10
184.287987901137
 20
51.30166279216967
 30
0.0
  0
POINT
  5
626D9
330
62592
100
AcDbEntity
  8
Defpoints
 62
     0
100
AcDbPoint
 10
185.7497290919336
 20
54.2602625777271
 30
0.0
  0
ENDBLK
  5
6259C
330
62592
100
AcDbEntity
  8
0
100
AcDbBlockEnd
  0
BLOCK
  5
625BE
330
625B2
100
AcDbEntity
  8
0
100
AcDbBlockBegin
  2
*D204
 70
     1
 10
0.0
 20
0.0
 30
0.0
  3
*D204
  1

  0
LINE
  5
626BE
330
625B2
100
AcDbEntity
  8
AM_5
100
AcDbLine
 10
264.6188584965385
 20
186.7809626849503
 30
0.0
 11
264.6188584965385
 21
196.7809626849503
 31
0.0
  0
LINE
  5
626BF
330
625B2
100
AcDbEntity
  8
AM_5
100
AcDbLine
 10
263.0188584965363
 20
186.7809626849503
 30
0.0
 11
263.0188584965363
 21
196.7809626849503
 31
0.0
  0
LINE
  5
626C0
330
625B2
100
AcDbEntity
  8
AM_5
100
AcDbLine
 10
265.6188584965384
 20
195.7809626849503
 30
0.0
 11
266.6188584965385
 21
195.7809626849503
 31
0.0
  0
LINE
  5
626C1
330
625B2
100
AcDbEntity
  8
AM_5
100
AcDbLine
 10
262.0188584965362
 20
195.7809626849503
 30
0.0
 11
253.645525163203
 21
195.7809626849503
 31
0.0
  0
LINE
  5
626C2
330
625B2
100
AcDbEntity
  8
AM_5
100
AcDbLine
 10
264.6188584965385
 20
195.7809626849503
 30
0.0
 11
263.0188584965363
 21
195.7809626849503
 31
0.0
  0
INSERT
  5
626C3
330
625B2
100
AcDbEntity
  8
AM_5
100
AcDbBlockReference
  2
_Dot
 10
264.6188584965385
 20
195.7809626849503
 30
0.0
 50
180.0
  0
INSERT
  5
626C4
330
625B2
100
AcDbEntity
  8
AM_5
100
AcDbBlockReference
  2
_Dot
 10
263.0188584965363
 20
195.7809626849503
 30
0.0
  0
MTEXT
  5
626C5
330
625B2
100
AcDbEntity
  8
AM_5
 62
     2
100
AcDbMText
 10
257.3321918298696
 20
198.8809626849502
 30
0.0
 40
3.200000000000001
 41
0.0
 71
     5
 72
     1
  1
1.6
 73
     1
 44
1.0
1001
ACAD
1000
MTEXTBEGIN
1070
    73
1070
     1
1070
    44
1040
1.0
1070
    74
1070
     0
1000
MTEXTEND
  0
POINT
  5
626C6
330
625B2
100
AcDbEntity
  8
Defpoints
 62
     0
100
AcDbPoint
 10
264.6188584965385
 20
185.7809626849503
 30
0.0
  0
POINT
  5
626C7
330
625B2
100
AcDbEntity
  8
Defpoints
 62
     0
100
AcDbPoint
 10
263.0188584965363
 20
185.7809626849503
 30
0.0
  0
POINT
  5
626C8
330
625B2
100
AcDbEntity
  8
Defpoints
 62
     0
100
AcDbPoint
 10
263.0188584965363
 20
195.7809626849503
 30
0.0
  0
ENDBLK
  5
625BF
330
625B2
100
AcDbEntity
  8
0
100
AcDbBlockEnd
  0
BLOCK
  5
625E3
330
625D7
100
AcDbEntity
  8
0
100
AcDbBlockBegin
  2
*D205
 70
     1
 10
0.0
 20
0.0
 30
0.0
  3
*D205
  1

  0
LINE
  5
626C9
330
625D7
100
AcDbEntity
  8
AM_5
100
AcDbLine
 10
264.6188584965385
 20
186.7809626849503
 30
0.0
 11
264.6188584965385
 21
196.7809626849393
 31
0.0
  0
LINE
  5
626CA
330
625D7
100
AcDbEntity
  8
AM_5
100
AcDbLine
 10
265.1188584965384
 20
184.2809626849503
 30
0.0
 11
265.1188584965384
 21
196.7809626849393
 31
0.0
  0
LINE
  5
626CB
330
625D7
100
AcDbEntity
  8
AM_5
100
AcDbLine
 10
263.6188584965385
 20
195.7809626849393
 30
0.0
 11
262.6188584965384
 21
195.7809626849393
 31
0.0
  0
LINE
  5
626CC
330
625D7
100
AcDbEntity
  8
AM_5
100
AcDbLine
 10
266.1188584965385
 20
195.7809626849393
 30
0.0
 11
274.8121918298718
 21
195.7809626849393
 31
0.0
  0
LINE
  5
626CD
330
625D7
100
AcDbEntity
  8
AM_5
100
AcDbLine
 10
264.6188584965385
 20
195.7809626849393
 30
0.0
 11
265.1188584965384
 21
195.7809626849393
 31
0.0
  0
INSERT
  5
626CE
330
625D7
100
AcDbEntity
  8
AM_5
100
AcDbBlockReference
  2
_Dot
 10
264.6188584965385
 20
195.7809626849393
 30
0.0
  0
INSERT
  5
626CF
330
625D7
100
AcDbEntity
  8
AM_5
100
AcDbBlockReference
  2
_Dot
 10
265.1188584965384
 20
195.7809626849393
 30
0.0
 50
180.0
  0
MTEXT
  5
626D0
330
625D7
100
AcDbEntity
  8
AM_5
 62
     2
100
AcDbMText
 10
270.9655251632051
 20
198.8809626849393
 30
0.0
 40
3.200000000000001
 41
0.0
 71
     5
 72
     1
  1
0.5
 73
     1
 44
1.0
1001
ACAD
1000
MTEXTBEGIN
1070
    73
1070
     1
1070
    44
1040
1.0
1070
    74
1070
     0
1000
MTEXTEND
  0
POINT
  5
626D1
330
625D7
100
AcDbEntity
  8
Defpoints
 62
     0
100
AcDbPoint
 10
264.6188584965385
 20
185.7809626849503
 30
0.0
  0
POINT
  5
626D2
330
625D7
100
AcDbEntity
  8
Defpoints
 62
     0
100
AcDbPoint
 10
265.1188584965384
 20
183.2809626849503
 30
0.0
  0
POINT
  5
626D3
330
625D7
100
AcDbEntity
  8
Defpoints
 62
     0
100
AcDbPoint
 10
265.1188584965384
 20
195.7809626849393
 30
0.0
  0
ENDBLK
  5
625E4
330
625D7
100
AcDbEntity
  8
0
100
AcDbBlockEnd
  0
ENDSEC
  0
SECTION
  2
ENTITIES
  0
LINE
  5
6166D
330
1F
100
AcDbEntity
  8
AM_0
100
AcDbLine
 10
11.50000073322735
 20
288.5
 30
0.0
 11
11.5
 21
105.5
 31
0.0
  0
LINE
  5
6166E
330
1F
100
AcDbEntity
  8
size
100
AcDbLine
 10
0.0
 20
0.0
 30
0.0
 11
420.0000007332273
 21
0.0
 31
0.0
1001
GENIUS_GENREC_14
1002
{
1000
PYDIR
1011
0.0
1021
210.0
1031
0.0
1002
}
1002
{
1000
PXDIR
1011
420.0000007332273
1021
0.0
1031
0.0
1002
}
1002
{
1000
PORI
1011
0.0
1021
0.0
1031
0.0
1002
}
1002
{
1000
PINS
1011
210.0
1021
61.5
1031
0.0
1002
}
1002
{
1000
HVAL
1000
297
1002
}
1002
{
1000
H
1070
     2
1002
}
1002
{
1000
WVAL
1000
420
1002
}
1002
{
1000
W
1070
     2
1002
}
1002
{
1000
C
1070
     4
1002
}
1001
GENIUS_GENOBJ-N-REC_13
1002
{
1000
OWNER
1000
GEN
1002
}
1001
GENIUS_GENODEF_13
1002
{
1000
HIER
1070
     0
1002
}
1002
{
1000
MANEDIT
1070
     0
1002
}
1002
{
1000
NOSEL
1070
     0
1002
}
1002
{
1000
BEHIND
1070
     0
1002
}
1002
{
1000
OTHER
1070
     0
1002
}
1002
{
1000
REACTOR
1002
}
  0
LINE
  5
6166F
330
1F
100
AcDbEntity
  8
size
100
AcDbLine
 10
420.0000007332273
 20
0.0
 30
0.0
 11
420.0000007332273
 21
297.0
 31
0.0
1001
GENIUS_GENREC_14
1002
{
1000
PYDIR
1011
125.255612707555
1021
210.0
1031
0.0
1002
}
1002
{
1000
PXDIR
1011
420.0000007332273
1021
0.0
1031
0.0
1002
}
1002
{
1000
PORI
1011
125.255612707555
1021
0.0
1031
0.0
1002
}
1002
{
1000
PINS
1011
335.255612707555
1021
61.5
1031
0.0
1002
}
1002
{
1000
HVAL
1000
297
1002
}
1002
{
1000
H
1070
     2
1002
}
1002
{
1000
WVAL
1000
420
1002
}
1002
{
1000
W
1070
     2
1002
}
1002
{
1000
C
1070
     4
1002
}
1001
GENIUS_GENOBJ-N-REC_13
1002
{
1000
OWNER
1000
GEN
1002
}
1001
GENIUS_GENODEF_13
1002
{
1000
HIER
1070
     0
1002
}
1002
{
1000
MANEDIT
1070
     0
1002
}
1002
{
1000
NOSEL
1070
     0
1002
}
1002
{
1000
BEHIND
1070
     0
1002
}
1002
{
1000
OTHER
1070
     0
1002
}
1002
{
1000
REACTOR
1002
}
  0
LINE
  5
61670
330
1F
100
AcDbEntity
  8
size
100
AcDbLine
 10
420.0000007332273
 20
297.0
 30
0.0
 11
0.0
 21
297.0
 31
0.0
1001
GENIUS_GENREC_14
1002
{
1000
PYDIR
1011
0.0
1021
297.0
1031
0.0
1002
}
1002
{
1000
PXDIR
1011
294.7443880256724
1021
0.0
1031
0.0
1002
}
1002
{
1000
PORI
1011
0.0
1021
0.0
1031
0.0
1002
}
1002
{
1000
PINS
1011
210.0
1021
148.5
1031
0.0
1002
}
1002
{
1000
HVAL
1000
297
1002
}
1002
{
1000
H
1070
     2
1002
}
1002
{
1000
WVAL
1000
420
1002
}
1002
{
1000
W
1070
     2
1002
}
1002
{
1000
C
1070
     4
1002
}
1001
GENIUS_GENOBJ-N-REC_13
1002
{
1000
OWNER
1000
GEN
1002
}
1001
GENIUS_GENODEF_13
1002
{
1000
HIER
1070
     0
1002
}
1002
{
1000
MANEDIT
1070
     0
1002
}
1002
{
1000
NOSEL
1070
     0
1002
}
1002
{
1000
BEHIND
1070
     0
1002
}
1002
{
1000
OTHER
1070
     0
1002
}
1002
{
1000
REACTOR
1002
}
  0
LINE
  5
61671
330
1F
100
AcDbEntity
  8
size
100
AcDbLine
 10
0.0000007332273526
 20
297.0
 30
0.0
 11
0.0
 21
0.0
 31
0.0
1001
GENIUS_GENREC_14
1002
{
1000
PYDIR
1011
0.0000007332273526
1021
297.0
1031
0.0
1002
}
1002
{
1000
PXDIR
1011
420.0
1021
-87.0
1031
0.0
1002
}
1002
{
1000
PORI
1011
0.0
1021
0.0
1031
0.0
1002
}
1002
{
1000
PINS
1011
210.0
1021
61.5
1031
0.0
1002
}
1002
{
1000
HVAL
1000
297
1002
}
1002
{
1000
H
1070
     2
1002
}
1002
{
1000
WVAL
1000
420
1002
}
1002
{
1000
W
1070
     2
1002
}
1002
{
1000
C
1070
     4
1002
}
1001
GENIUS_GENOBJ-N-REC_13
1002
{
1000
OWNER
1000
GEN
1002
}
1001
GENIUS_GENODEF_13
1002
{
1000
HIER
1070
     0
1002
}
1002
{
1000
MANEDIT
1070
     0
1002
}
1002
{
1000
NOSEL
1070
     0
1002
}
1002
{
1000
BEHIND
1070
     0
1002
}
1002
{
1000
OTHER
1070
     0
1002
}
1002
{
1000
REACTOR
1002
}
  0
LINE
  5
61672
330
1F
100
AcDbEntity
  8
waku
100
AcDbLine
 10
408.5000007332273
 20
8.5
 30
0.0
 11
408.5000007332273
 21
288.5
 31
0.0
1001
GENIUS_GENREC_14
1002
{
1000
PYDIR
1011
125.255612707555
1021
210.0
1031
0.0
1002
}
1002
{
1000
PXDIR
1011
420.0000007332273
1021
0.0
1031
0.0
1002
}
1002
{
1000
PORI
1011
125.255612707555
1021
0.0
1031
0.0
1002
}
1002
{
1000
PINS
1011
335.255612707555
1021
61.5
1031
0.0
1002
}
1002
{
1000
HVAL
1000
297
1002
}
1002
{
1000
H
1070
     2
1002
}
1002
{
1000
WVAL
1000
420
1002
}
1002
{
1000
W
1070
     2
1002
}
1002
{
1000
C
1070
     4
1002
}
1001
GENIUS_GENOBJ-N-REC_13
1002
{
1000
OWNER
1000
GEN
1002
}
1001
GENIUS_GENODEF_13
1002
{
1000
HIER
1070
     0
1002
}
1002
{
1000
MANEDIT
1070
     0
1002
}
1002
{
1000
NOSEL
1070
     0
1002
}
1002
{
1000
BEHIND
1070
     0
1002
}
1002
{
1000
OTHER
1070
     0
1002
}
1002
{
1000
REACTOR
1002
}
  0
LINE
  5
61673
330
1F
100
AcDbEntity
  8
waku
100
AcDbLine
 10
11.50000073322735
 20
288.5
 30
0.0
 11
11.5
 21
8.5
 31
0.0
1001
GENIUS_GENREC_14
1002
{
1000
PYDIR
1011
0.0
1021
210.0
1031
0.0
1002
}
1002
{
1000
PXDIR
1011
420.0
1021
-87.0
1031
0.0
1002
}
1002
{
1000
PORI
1011
0.0
1021
0.0
1031
0.0
1002
}
1002
{
1000
PINS
1011
210.0
1021
61.5
1031
0.0
1002
}
1002
{
1000
HVAL
1000
297
1002
}
1002
{
1000
H
1070
     2
1002
}
1002
{
1000
WVAL
1000
420
1002
}
1002
{
1000
W
1070
     2
1002
}
1002
{
1000
C
1070
     4
1002
}
1001
GENIUS_GENOBJ-N-REC_13
1002
{
1000
OWNER
1000
GEN
1002
}
1001
GENIUS_GENODEF_13
1002
{
1000
HIER
1070
     0
1002
}
1002
{
1000
MANEDIT
1070
     0
1002
}
1002
{
1000
NOSEL
1070
     0
1002
}
1002
{
1000
BEHIND
1070
     0
1002
}
1002
{
1000
OTHER
1070
     0
1002
}
1002
{
1000
REACTOR
1002
}
  0
LINE
  5
61674
330
1F
100
AcDbEntity
  8
waku
100
AcDbLine
 10
408.5000007332273
 20
288.5
 30
0.0
 11
11.5
 21
288.5
 31
0.0
1001
GENIUS_GENREC_14
1002
{
1000
PYDIR
1011
0.0
1021
297.0
1031
0.0
1002
}
1002
{
1000
PXDIR
1011
294.7443880256724
1021
0.0
1031
0.0
1002
}
1002
{
1000
PORI
1011
0.0
1021
0.0
1031
0.0
1002
}
1002
{
1000
PINS
1011
210.0
1021
148.5
1031
0.0
1002
}
1002
{
1000
HVAL
1000
297
1002
}
1002
{
1000
H
1070
     2
1002
}
1002
{
1000
WVAL
1000
420
1002
}
1002
{
1000
W
1070
     2
1002
}
1002
{
1000
C
1070
     4
1002
}
1001
GENIUS_GENOBJ-N-REC_13
1002
{
1000
OWNER
1000
GEN
1002
}
1001
GENIUS_GENODEF_13
1002
{
1000
HIER
1070
     0
1002
}
1002
{
1000
MANEDIT
1070
     0
1002
}
1002
{
1000
NOSEL
1070
     0
1002
}
1002
{
1000
BEHIND
1070
     0
1002
}
1002
{
1000
OTHER
1070
     0
1002
}
1002
{
1000
REACTOR
1002
}
  0
LINE
  5
61675
330
1F
100
AcDbEntity
  8
waku
100
AcDbLine
 10
11.5
 20
8.5
 30
0.0
 11
408.5000007332273
 21
8.5
 31
0.0
  0
LWPOLYLINE
  5
619A5
330
1F
100
AcDbEntity
  8
AM_0
100
AcDbPolyline
 90
        4
 70
     1
 43
0.0
 10
197.5188584965362
 20
151.7809626849503
 10
197.5188584965362
 20
79.78096268495028
 10
172.5188584965362
 20
79.78096268495028
 10
172.5188584965362
 20
151.7809626849503
1001
GENIUS_GENREC_14
1002
{
1000
PYDIR
1011
172.5188584965362
1021
151.7809626849503
1031
0.0
1002
}
1002
{
1000
PXDIR
1011
197.5188584965362
1021
79.78096268495028
1031
0.0
1002
}
1002
{
1000
PORI
1011
197.5188584965362
1021
151.7809626849503
1031
0.0
1002
}
1002
{
1000
PINS
1011
197.5188584965362
1021
151.7809626849503
1031
0.0
1002
}
1002
{
1000
PINS2
1011
172.5188584965362
1021
79.78096268495028
1031
0.0
1002
}
1002
{
1000
C
1070
     1
1002
}
1001
GENIUS_GENOBJ-N-REC_13
1002
{
1000
OWNER
1000
GEN
1002
}
1001
GENIUS_GENODEF_13
1002
{
1000
HIER
1070
     0
1002
}
1002
{
1000
MANEDIT
1070
     0
1002
}
1002
{
1000
NOSEL
1070
     0
1002
}
1002
{
1000
BEHIND
1070
     0
1002
}
1002
{
1000
OTHER
1070
     0
1002
}
1002
{
1000
REACTOR
1002
}
  0
LWPOLYLINE
  5
619A6
330
1F
100
AcDbEntity
  8
AM_0
100
AcDbPolyline
 90
        4
 70
     1
 43
0.0
 10
203.0188584965363
 20
185.7809626849503
 10
203.0188584965363
 20
45.78096268495028
 10
164.0188584965363
 20
45.78096268495028
 10
164.0188584965363
 20
185.7809626849503
1001
GENIUS_GENREC_14
1002
{
1000
PYDIR
1011
164.0188584965363
1021
185.7809626849503
1031
0.0
1002
}
1002
{
1000
PXDIR
1011
203.0188584965363
1021
45.78096268495028
1031
0.0
1002
}
1002
{
1000
PORI
1011
203.0188584965363
1021
185.7809626849503
1031
0.0
1002
}
1002
{
1000
PINS
1011
203.0188584965363
1021
185.7809626849503
1031
0.0
1002
}
1002
{
1000
PINS2
1011
164.0188584965363
1021
45.78096268495028
1031
0.0
1002
}
1002
{
1000
C
1070
     1
1002
}
1001
GENIUS_GENOBJ-N-REC_13
1002
{
1000
OWNER
1000
GEN
1002
}
1001
GENIUS_GENODEF_13
1002
{
1000
HIER
1070
     0
1002
}
1002
{
1000
MANEDIT
1070
     0
1002
}
1002
{
1000
NOSEL
1070
     0
1002
}
1002
{
1000
BEHIND
1070
     0
1002
}
1002
{
1000
OTHER
1070
     0
1002
}
1002
{
1000
REACTOR
1002
}
  0
LINE
  5
619A7
330
1F
100
AcDbEntity
  8
AM_2
100
AcDbLine
 10
164.0188584965363
 20
172.4375471828225
 30
0.0
 11
203.0188584965363
 21
172.4375471828225
 31
0.0
  0
CIRCLE
  5
619A8
330
1F
100
AcDbEntity
  8
AM_0
100
AcDbCircle
 10
185.0188584965362
 20
178.7809626849503
 30
0.0
 40
1.649999999999999
  0
CIRCLE
  5
619AA
102
{ACAD_REACTORS
330
6259E
102
}
330
1F
100
AcDbEntity
  8
AM_0
100
AcDbCircle
 10
185.0188584965362
 20
52.78096268495028
 30
0.0
 40
1.649999999999999
  0
CIRCLE
  5
619AC
330
1F
100
AcDbEntity
  8
AM_2
100
AcDbCircle
 10
185.0188584965362
 20
70.78096268495028
 30
0.0
 40
2.0
  0
CIRCLE
  5
619AD
330
1F
100
AcDbEntity
  8
AM_0
100
AcDbCircle
 10
185.0188584965362
 20
70.78096268495028
 30
0.0
 40
1.649999999999999
  0
LINE
  5
619AE
330
1F
100
AcDbEntity
  8
AM_7
 48
0.5
100
AcDbLine
 10
189.5188584965362
 20
70.78096268495028
 30
0.0
 11
180.5188584965362
 21
70.78096268495028
 31
0.0
1001
GENIUS_GENOBJ-N-CEN_13
1002
{
1000
OWNER
1000
GEN
1002
}
1001
GENIUS_GENODEF_13
1002
{
1000
HIER
1070
     0
1002
}
1002
{
1000
MANEDIT
1070
     0
1002
}
1002
{
1000
NOSEL
1070
     0
1002
}
1002
{
1000
BEHIND
1070
     0
1002
}
1002
{
1000
OTHER
1070
     0
1002
}
1002
{
1000
REACTOR
1002
}
1001
GENIUS_GENCEN_19
1002
{
1040
2.5
1002
}
  0
LINE
  5
619AF
330
1F
100
AcDbEntity
  8
AM_7
 48
0.5
100
AcDbLine
 10
185.0188584965362
 20
75.28096268495028
 30
0.0
 11
185.0188584965362
 21
66.28096268495028
 31
0.0
1001
GENIUS_GENOBJ-N-CEN_13
1002
{
1000
OWNER
1000
GEN
1002
}
1001
GENIUS_GENODEF_13
1002
{
1000
HIER
1070
     0
1002
}
1002
{
1000
MANEDIT
1070
     0
1002
}
1002
{
1000
NOSEL
1070
     0
1002
}
1002
{
1000
BEHIND
1070
     0
1002
}
1002
{
1000
OTHER
1070
     0
1002
}
1002
{
1000
REACTOR
1002
}
1001
GENIUS_GENCEN_19
1002
{
1040
2.5
1002
}
  0
CIRCLE
  5
619B0
330
1F
100
AcDbEntity
  8
AM_2
100
AcDbCircle
 10
185.0188584965362
 20
75.78096268495028
 30
0.0
 40
2.0
  0
CIRCLE
  5
619B1
330
1F
100
AcDbEntity
  8
AM_0
100
AcDbCircle
 10
185.0188584965362
 20
75.78096268495028
 30
0.0
 40
1.649999999999999
  0
LINE
  5
619B2
330
1F
100
AcDbEntity
  8
AM_7
 48
0.5
100
AcDbLine
 10
189.5188584965362
 20
75.78096268495028
 30
0.0
 11
180.5188584965362
 21
75.78096268495028
 31
0.0
1001
GENIUS_GENOBJ-N-CEN_13
1002
{
1000
OWNER
1000
GEN
1002
}
1001
GENIUS_GENODEF_13
1002
{
1000
HIER
1070
     0
1002
}
1002
{
1000
MANEDIT
1070
     0
1002
}
1002
{
1000
NOSEL
1070
     0
1002
}
1002
{
1000
BEHIND
1070
     0
1002
}
1002
{
1000
OTHER
1070
     0
1002
}
1002
{
1000
REACTOR
1002
}
1001
GENIUS_GENCEN_19
1002
{
1040
2.5
1002
}
  0
LINE
  5
619B3
330
1F
100
AcDbEntity
  8
AM_7
 48
0.5
100
AcDbLine
 10
185.0188584965362
 20
80.28096268495028
 30
0.0
 11
185.0188584965362
 21
71.28096268495028
 31
0.0
1001
GENIUS_GENOBJ-N-CEN_13
1002
{
1000
OWNER
1000
GEN
1002
}
1001
GENIUS_GENODEF_13
1002
{
1000
HIER
1070
     0
1002
}
1002
{
1000
MANEDIT
1070
     0
1002
}
1002
{
1000
NOSEL
1070
     0
1002
}
1002
{
1000
BEHIND
1070
     0
1002
}
1002
{
1000
OTHER
1070
     0
1002
}
1002
{
1000
REACTOR
1002
}
1001
GENIUS_GENCEN_19
1002
{
1040
2.5
1002
}
  0
CIRCLE
  5
619B4
330
1F
100
AcDbEntity
  8
AM_2
100
AcDbCircle
 10
185.0188584965362
 20
155.7809626849502
 30
0.0
 40
2.0
  0
CIRCLE
  5
619B5
330
1F
100
AcDbEntity
  8
AM_0
100
AcDbCircle
 10
185.0188584965362
 20
155.7809626849502
 30
0.0
 40
1.649999999999999
  0
LINE
  5
619B6
330
1F
100
AcDbEntity
  8
AM_7
 48
0.5
100
AcDbLine
 10
189.5188584965362
 20
155.7809626849502
 30
0.0
 11
180.5188584965362
 21
155.7809626849502
 31
0.0
1001
GENIUS_GENOBJ-N-CEN_13
1002
{
1000
OWNER
1000
GEN
1002
}
1001
GENIUS_GENODEF_13
1002
{
1000
HIER
1070
     0
1002
}
1002
{
1000
MANEDIT
1070
     0
1002
}
1002
{
1000
NOSEL
1070
     0
1002
}
1002
{
1000
BEHIND
1070
     0
1002
}
1002
{
1000
OTHER
1070
     0
1002
}
1002
{
1000
REACTOR
1002
}
1001
GENIUS_GENCEN_19
1002
{
1040
2.5
1002
}
  0
LINE
  5
619B7
330
1F
100
AcDbEntity
  8
AM_7
 48
0.5
100
AcDbLine
 10
185.0188584965362
 20
160.2809626849503
 30
0.0
 11
185.0188584965362
 21
151.2809626849502
 31
0.0
1001
GENIUS_GENOBJ-N-CEN_13
1002
{
1000
OWNER
1000
GEN
1002
}
1001
GENIUS_GENODEF_13
1002
{
1000
HIER
1070
     0
1002
}
1002
{
1000
MANEDIT
1070
     0
1002
}
1002
{
1000
NOSEL
1070
     0
1002
}
1002
{
1000
BEHIND
1070
     0
1002
}
1002
{
1000
OTHER
1070
     0
1002
}
1002
{
1000
REACTOR
1002
}
1001
GENIUS_GENCEN_19
1002
{
1040
2.5
1002
}
  0
CIRCLE
  5
619B8
330
1F
100
AcDbEntity
  8
AM_2
100
AcDbCircle
 10
185.0188584965362
 20
160.7809626849503
 30
0.0
 40
2.0
  0
CIRCLE
  5
619B9
330
1F
100
AcDbEntity
  8
AM_0
100
AcDbCircle
 10
185.0188584965362
 20
160.7809626849503
 30
0.0
 40
1.649999999999999
  0
LINE
  5
619BA
330
1F
100
AcDbEntity
  8
AM_7
 48
0.5
100
AcDbLine
 10
189.5188584965362
 20
160.7809626849503
 30
0.0
 11
180.5188584965362
 21
160.7809626849503
 31
0.0
1001
GENIUS_GENOBJ-N-CEN_13
1002
{
1000
OWNER
1000
GEN
1002
}
1001
GENIUS_GENODEF_13
1002
{
1000
HIER
1070
     0
1002
}
1002
{
1000
MANEDIT
1070
     0
1002
}
1002
{
1000
NOSEL
1070
     0
1002
}
1002
{
1000
BEHIND
1070
     0
1002
}
1002
{
1000
OTHER
1070
     0
1002
}
1002
{
1000
REACTOR
1002
}
1001
GENIUS_GENCEN_19
1002
{
1040
2.5
1002
}
  0
LINE
  5
619BB
330
1F
100
AcDbEntity
  8
AM_7
 48
0.5
100
AcDbLine
 10
185.0188584965362
 20
165.2809626849503
 30
0.0
 11
185.0188584965362
 21
156.2809626849503
 31
0.0
1001
GENIUS_GENOBJ-N-CEN_13
1002
{
1000
OWNER
1000
GEN
1002
}
1001
GENIUS_GENODEF_13
1002
{
1000
HIER
1070
     0
1002
}
1002
{
1000
MANEDIT
1070
     0
1002
}
1002
{
1000
NOSEL
1070
     0
1002
}
1002
{
1000
BEHIND
1070
     0
1002
}
1002
{
1000
OTHER
1070
     0
1002
}
1002
{
1000
REACTOR
1002
}
1001
GENIUS_GENCEN_19
1002
{
1040
2.5
1002
}
  0
LINE
  5
619BC
330
1F
100
AcDbEntity
  8
AM_0
100
AcDbLine
 10
263.0188584965363
 20
185.7809626849503
 30
0.0
 11
264.6188584965385
 21
185.7809626849503
 31
0.0
  0
LINE
  5
619BD
102
{ACAD_REACTORS
330
625C1
102
}
330
1F
100
AcDbEntity
  8
AM_0
100
AcDbLine
 10
264.6188584965385
 20
185.7809626849503
 30
0.0
 11
264.6188584965385
 21
174.7809626849503
 31
0.0
  0
LINE
  5
619BE
330
1F
100
AcDbEntity
  8
AM_0
100
AcDbLine
 10
264.6188584965385
 20
174.7809626849503
 30
0.0
 11
265.3779329048193
 21
173.0941306665499
 31
0.0
  0
LINE
  5
619BF
330
1F
100
AcDbEntity
  8
AM_0
100
AcDbLine
 10
263.1597840882569
 20
174.1243792012228
 30
0.0
 11
263.9188584965377
 21
172.4375471828225
 31
0.0
  0
ARC
  5
619C0
330
1F
100
AcDbEntity
  8
AM_0
100
AcDbCircle
 10
264.6188584965385
 20
174.7809626849503
 30
0.0
 40
1.6
100
AcDbArc
 50
180.0
 51
204.2277453179542
1001
GENIUS_GENODEF_13
1002
{
1000
HIER
1070
     0
1002
}
1002
{
1000
MANEDIT
1070
     0
1002
}
1002
{
1000
NOSEL
1070
     0
1002
}
1002
{
1000
BEHIND
1070
     0
1002
}
1002
{
1000
OTHER
1070
     0
1002
}
1002
{
1000
REACTOR
1002
}
1001
GENIUS_GENOBJ-N-FIL_13
1002
{
1000
OWNER
1000
GEN
1002
}
  0
LINE
  5
619C1
330
1F
100
AcDbEntity
  8
AM_0
100
AcDbLine
 10
265.5188584965363
 20
172.4375471828225
 30
0.0
 11
265.5188584965363
 21
59.12437818707804
 31
0.0
  0
ARC
  5
619C2
330
1F
100
AcDbEntity
  8
AM_0
100
AcDbCircle
 10
263.9188584965377
 20
59.12437818707804
 30
0.0
 40
1.6
100
AcDbArc
 50
335.7722546820458
 51
0.0
1001
GENIUS_GENOBJ-N-FIL_13
1002
{
1000
OWNER
1000
GEN
1002
}
1001
GENIUS_GENODEF_13
1002
{
1000
HIER
1070
     0
1002
}
1002
{
1000
MANEDIT
1070
     0
1002
}
1002
{
1000
NOSEL
1070
     0
1002
}
1002
{
1000
BEHIND
1070
     0
1002
}
1002
{
1000
OTHER
1070
     0
1002
}
1002
{
1000
REACTOR
1002
}
  0
ARC
  5
619C3
330
1F
100
AcDbEntity
  8
AM_0
100
AcDbCircle
 10
263.9188584965377
 20
172.4375471828225
 30
0.0
 40
1.6
100
AcDbArc
 50
0.0
 51
24.22774531795417
1001
GENIUS_GENOBJ-N-FIL_13
1002
{
1000
OWNER
1000
GEN
1002
}
1001
GENIUS_GENODEF_13
1002
{
1000
HIER
1070
     0
1002
}
1002
{
1000
MANEDIT
1070
     0
1002
}
1002
{
1000
NOSEL
1070
     0
1002
}
1002
{
1000
BEHIND
1070
     0
1002
}
1002
{
1000
OTHER
1070
     0
1002
}
1002
{
1000
REACTOR
1002
}
  0
LINE
  5
619C4
330
1F
100
AcDbEntity
  8
AM_0
100
AcDbLine
 10
265.3779329048193
 20
58.46779470335059
 30
0.0
 11
264.6188584965385
 21
56.78096268495028
 31
0.0
  0
LINE
  5
619C5
330
1F
100
AcDbEntity
  8
AM_0
100
AcDbLine
 10
263.9188584965377
 20
59.12437818707804
 30
0.0
 11
263.1597840882569
 21
57.43754616867772
 31
0.0
  0
LINE
  5
619C6
330
1F
100
AcDbEntity
  8
AM_0
100
AcDbLine
 10
264.6188584965385
 20
56.78096268495028
 30
0.0
 11
264.6188584965385
 21
45.78096268495028
 31
0.0
  0
LINE
  5
619C7
330
1F
100
AcDbEntity
  8
AM_0
100
AcDbLine
 10
264.6188584965385
 20
45.78096268495028
 30
0.0
 11
263.0188584965363
 21
45.78096268495028
 31
0.0
  0
LINE
  5
619C8
330
1F
100
AcDbEntity
  8
AM_0
100
AcDbLine
 10
263.0188584965363
 20
45.78096268495028
 30
0.0
 11
263.0188584965363
 21
56.78096268495028
 31
0.0
  0
ARC
  5
619C9
330
1F
100
AcDbEntity
  8
AM_0
100
AcDbCircle
 10
264.6188584965385
 20
56.78096268495028
 30
0.0
 40
1.6
100
AcDbArc
 50
155.7722546820458
 51
180.0
1001
GENIUS_GENODEF_13
1002
{
1000
HIER
1070
     0
1002
}
1002
{
1000
MANEDIT
1070
     0
1002
}
1002
{
1000
NOSEL
1070
     0
1002
}
1002
{
1000
BEHIND
1070
     0
1002
}
1002
{
1000
OTHER
1070
     0
1002
}
1002
{
1000
REACTOR
1002
}
1001
GENIUS_GENOBJ-N-FIL_13
1002
{
1000
OWNER
1000
GEN
1002
}
  0
LINE
  5
619CA
330
1F
100
AcDbEntity
  8
AM_0
100
AcDbLine
 10
263.9188584965377
 20
59.1243781870744
 30
0.0
 11
263.9188584965377
 21
172.4375471828225
 31
0.0
  0
LINE
  5
619CB
330
1F
100
AcDbEntity
  8
AM_0
100
AcDbLine
 10
263.0188584965363
 20
174.7809626849503
 30
0.0
 11
263.0188584965363
 21
185.7809626849503
 31
0.0
  0
LWPOLYLINE
  5
619CC
330
1F
100
AcDbEntity
  8
AM_0
100
AcDbPolyline
 90
        4
 70
     1
 43
0.0
 10
203.0188584965363
 20
233.7216315321894
 10
164.0188584965363
 20
233.7216315321894
 10
164.0188584965363
 20
232.1216315321872
 10
203.0188584965363
 20
232.1216315321872
1001
GENIUS_GENREC_14
1002
{
1000
PYDIR
1011
203.0188584965363
1021
232.1216315321872
1031
0.0
1002
}
1002
{
1000
PXDIR
1011
164.0188584965363
1021
233.7216315321894
1031
0.0
1002
}
1002
{
1000
PORI
1011
203.0188584965363
1021
233.7216315321894
1031
0.0
1002
}
1002
{
1000
PINS
1011
203.0188584965363
1021
233.7216315321894
1031
0.0
1002
}
1002
{
1000
PINS2
1011
164.0188584965363
1021
232.1216315321872
1031
0.0
1002
}
1002
{
1000
C
1070
     1
1002
}
1001
GENIUS_GENODEF_13
1002
{
1000
HIER
1070
     0
1002
}
1002
{
1000
MANEDIT
1070
     0
1002
}
1002
{
1000
NOSEL
1070
     0
1002
}
1002
{
1000
BEHIND
1070
     0
1002
}
1002
{
1000
OTHER
1070
     0
1002
}
1002
{
1000
REACTOR
1002
}
1001
GENIUS_GENOBJ-N-REC_13
1002
{
1000
OWNER
1000
GEN
1002
}
  0
LINE
  5
619CD
330
1F
100
AcDbEntity
  8
AM_0
100
AcDbLine
 10
203.0188584965363
 20
233.7216315321894
 30
0.0
 11
203.0188584965363
 21
234.6216315321872
 31
0.0
  0
LINE
  5
619CE
330
1F
100
AcDbEntity
  8
AM_0
100
AcDbLine
 10
203.0188584965363
 20
234.6216315321872
 30
0.0
 11
199.5188584965362
 21
234.6216315321872
 31
0.0
  0
LINE
  5
619CF
330
1F
100
AcDbEntity
  8
AM_0
100
AcDbLine
 10
170.5188584965362
 20
234.6216315321872
 30
0.0
 11
164.0188584965363
 21
234.6216315321872
 31
0.0
  0
LINE
  5
619D0
330
1F
100
AcDbEntity
  8
AM_0
100
AcDbLine
 10
164.0188584965363
 20
234.6216315321872
 30
0.0
 11
164.0188584965363
 21
233.7216315321894
 31
0.0
  0
LINE
  5
619D8
330
1F
100
AcDbEntity
  8
AM_7
 48
0.3
100
AcDbLine
 10
185.0188584965362
 20
237.7216315321894
 30
0.0
 11
185.0188584965362
 21
229.6216315321871
 31
0.0
1001
GENIUS_GENODEF_13
1002
{
1000
HIER
1070
     0
1002
}
1002
{
1000
MANEDIT
1070
     0
1002
}
1002
{
1000
NOSEL
1070
     0
1002
}
1002
{
1000
BEHIND
1070
     0
1002
}
1002
{
1000
OTHER
1070
     0
1002
}
1002
{
1000
REACTOR
1002
}
1001
GENIUS_GENOBJ-N-CEN_13
1002
{
1000
OWNER
1000
GEN
1002
}
1001
GENIUS_GENCEN_19
1002
{
1040
2.5
1002
}
  0
LINE
  5
619D9
330
1F
100
AcDbEntity
  8
AM_0
100
AcDbLine
 10
265.6188584965384
 20
55.28096268495028
 30
0.0
 11
265.6188584965384
 21
50.28096268495028
 31
0.0
  0
LINE
  5
619DB
330
1F
100
AcDbEntity
  8
AM_3
100
AcDbLine
 10
263.0188584965363
 20
55.28096268495028
 30
0.0
 11
263.0188584965363
 21
55.28096268495028
 31
0.0
  0
LINE
  5
619E0
330
1F
100
AcDbEntity
  8
AM_7
 48
0.3
100
AcDbLine
 10
268.6188584965385
 20
52.78096268495028
 30
0.0
 11
260.5188584965363
 21
52.78096268495028
 31
0.0
1001
GENIUS_GENODEF_13
1002
{
1000
HIER
1070
     0
1002
}
1002
{
1000
MANEDIT
1070
     0
1002
}
1002
{
1000
NOSEL
1070
     0
1002
}
1002
{
1000
BEHIND
1070
     0
1002
}
1002
{
1000
OTHER
1070
     0
1002
}
1002
{
1000
REACTOR
1002
}
1001
GENIUS_GENOBJ-N-CEN_13
1002
{
1000
OWNER
1000
GEN
1002
}
1001
GENIUS_GENCEN_19
1002
{
1040
2.5
1002
}
  0
LINE
  5
619E1
330
1F
100
AcDbEntity
  8
AM_0
100
AcDbLine
 10
265.1188584965384
 20
181.5696378195444
 30
0.0
 11
265.6188584965384
 21
181.2809626849503
 31
0.0
  0
LINE
  5
619E2
330
1F
100
AcDbEntity
  8
AM_0
100
AcDbLine
 10
265.6188584965384
 20
181.2809626849503
 30
0.0
 11
265.6188584965384
 21
176.2809626849502
 31
0.0
  0
LINE
  5
619E9
330
1F
100
AcDbEntity
  8
AM_7
 48
0.3
100
AcDbLine
 10
268.6188584965385
 20
178.7809626849503
 30
0.0
 11
260.5188584965363
 21
178.7809626849503
 31
0.0
1001
GENIUS_GENODEF_13
1002
{
1000
HIER
1070
     0
1002
}
1002
{
1000
MANEDIT
1070
     0
1002
}
1002
{
1000
NOSEL
1070
     0
1002
}
1002
{
1000
BEHIND
1070
     0
1002
}
1002
{
1000
OTHER
1070
     0
1002
}
1002
{
1000
REACTOR
1002
}
1001
GENIUS_GENOBJ-N-CEN_13
1002
{
1000
OWNER
1000
GEN
1002
}
1001
GENIUS_GENCEN_19
1002
{
1040
2.5
1002
}
  0
LINE
  5
619F0
330
1F
100
AcDbEntity
  8
AM_7
 48
0.3
100
AcDbLine
 10
268.0188584965363
 20
70.78096268495028
 30
0.0
 11
261.4188584965377
 21
70.78096268495028
 31
0.0
1001
GENIUS_GENODEF_13
1002
{
1000
HIER
1070
     0
1002
}
1002
{
1000
MANEDIT
1070
     0
1002
}
1002
{
1000
NOSEL
1070
     0
1002
}
1002
{
1000
BEHIND
1070
     0
1002
}
1002
{
1000
OTHER
1070
     0
1002
}
1002
{
1000
REACTOR
1002
}
1001
GENIUS_GENOBJ-N-CEN_13
1002
{
1000
OWNER
1000
GEN
1002
}
1001
GENIUS_GENCEN_19
1002
{
1040
2.5
1002
}
  0
LINE
  5
619F1
330
1F
100
AcDbEntity
  8
AM_7
100
AcDbLine
 10
286.5169469250468
 20
115.7809626849503
 30
0.0
 11
261.4188584965377
 21
115.7809626849503
 31
0.0
1001
GENIUS_GENODEF_13
1002
{
1000
HIER
1070
     0
1002
}
1002
{
1000
MANEDIT
1070
     0
1002
}
1002
{
1000
NOSEL
1070
     0
1002
}
1002
{
1000
BEHIND
1070
     0
1002
}
1002
{
1000
OTHER
1070
     0
1002
}
1002
{
1000
REACTOR
1002
}
1001
GENIUS_GENOBJ-N-CEN_13
1002
{
1000
OWNER
1000
GEN
1002
}
1001
GENIUS_GENCEN_19
1002
{
1040
2.5
1002
}
  0
LINE
  5
619F6
330
1F
100
AcDbEntity
  8
AM_7
 48
0.3
100
AcDbLine
 10
268.0188584965363
 20
75.78096268495028
 30
0.0
 11
261.4188584965377
 21
75.78096268495028
 31
0.0
1001
GENIUS_GENODEF_13
1002
{
1000
HIER
1070
     0
1002
}
1002
{
1000
MANEDIT
1070
     0
1002
}
1002
{
1000
NOSEL
1070
     0
1002
}
1002
{
1000
BEHIND
1070
     0
1002
}
1002
{
1000
OTHER
1070
     0
1002
}
1002
{
1000
REACTOR
1002
}
1001
GENIUS_GENOBJ-N-CEN_13
1002
{
1000
OWNER
1000
GEN
1002
}
1001
GENIUS_GENCEN_19
1002
{
1040
2.5
1002
}
  0
LINE
  5
619FB
330
1F
100
AcDbEntity
  8
AM_7
 48
0.3
100
AcDbLine
 10
268.0188584965363
 20
160.7809626849503
 30
0.0
 11
261.4188584965377
 21
160.7809626849503
 31
0.0
1001
GENIUS_GENODEF_13
1002
{
1000
HIER
1070
     0
1002
}
1002
{
1000
MANEDIT
1070
     0
1002
}
1002
{
1000
NOSEL
1070
     0
1002
}
1002
{
1000
BEHIND
1070
     0
1002
}
1002
{
1000
OTHER
1070
     0
1002
}
1002
{
1000
REACTOR
1002
}
1001
GENIUS_GENOBJ-N-CEN_13
1002
{
1000
OWNER
1000
GEN
1002
}
1001
GENIUS_GENCEN_19
1002
{
1040
2.5
1002
}
  0
LINE
  5
61A00
330
1F
100
AcDbEntity
  8
AM_7
 48
0.3
100
AcDbLine
 10
268.0188584965363
 20
155.7809626849502
 30
0.0
 11
261.4188584965377
 21
155.7809626849502
 31
0.0
1001
GENIUS_GENODEF_13
1002
{
1000
HIER
1070
     0
1002
}
1002
{
1000
MANEDIT
1070
     0
1002
}
1002
{
1000
NOSEL
1070
     0
1002
}
1002
{
1000
BEHIND
1070
     0
1002
}
1002
{
1000
OTHER
1070
     0
1002
}
1002
{
1000
REACTOR
1002
}
1001
GENIUS_GENOBJ-N-CEN_13
1002
{
1000
OWNER
1000
GEN
1002
}
1001
GENIUS_GENCEN_19
1002
{
1040
2.5
1002
}
  0
DIMENSION
  5
61A01
330
1F
100
AcDbEntity
  8
AM_5
100
AcDbDimension
  2
*D114
 10
213.0188594965366
 20
79.78096268495028
 30
0.0
 11
209.9188594965366
 21
115.7809626849503
 31
0.0
 70
    32
  1
<>
 71
     5
 42
72.00000000000001
  3
SYS$0
100
AcDbAlignedDimension
 13
197.5188584965362
 23
151.7809626849503
 33
0.0
 14
197.5188584965362
 24
79.78096268495028
 34
0.0
 50
270.0
100
AcDbRotatedDimension
1001
ACAD
1000
DSTYLE
1002
{
1070
   286
1070
     0
1070
   284
1070
     8
1070
   274
1070
     2
1070
    47
1040
0.2
1070
    48
1040
0.0
1070
   272
1070
     2
1002
}
  0
LINE
  5
61A02
330
1F
100
AcDbEntity
  8
AM_1
100
AcDbLine
 10
164.0188584965363
 20
170.7809626849503
 30
0.0
 11
169.0188584965362
 21
170.7809626849503
 31
0.0
  0
LINE
  5
61A03
330
1F
100
AcDbEntity
  8
AM_1
100
AcDbLine
 10
169.0188584965362
 20
163.7809626849502
 30
0.0
 11
164.0188584965363
 21
163.7809626849502
 31
0.0
  0
LINE
  5
61A04
102
{ACAD_REACTORS
330
62551
102
}
330
1F
100
AcDbEntity
  8
AM_1
100
AcDbLine
 10
198.0188584965362
 20
170.7809626849503
 30
0.0
 11
203.0188584965363
 21
170.7809626849503
 31
0.0
  0
LINE
  5
61A05
330
1F
100
AcDbEntity
  8
AM_1
100
AcDbLine
 10
203.0188584965363
 20
163.7809626849502
 30
0.0
 11
198.0188584965362
 21
163.7809626849502
 31
0.0
  0
LINE
  5
61A06
330
1F
100
AcDbEntity
  8
AM_1
100
AcDbLine
 10
169.0188584965362
 20
67.78096268495028
 30
0.0
 11
164.0188584965363
 21
67.78096268495028
 31
0.0
  0
LINE
  5
61A07
330
1F
100
AcDbEntity
  8
AM_1
100
AcDbLine
 10
169.0188584965362
 20
60.78096268495028
 30
0.0
 11
164.0188584965363
 21
60.78096268495028
 31
0.0
  0
LINE
  5
61A08
102
{ACAD_REACTORS
330
62551
102
}
330
1F
100
AcDbEntity
  8
AM_1
100
AcDbLine
 10
203.0188584965363
 20
60.78096268495028
 30
0.0
 11
198.0188584965362
 21
60.78096268495028
 31
0.0
  0
LINE
  5
61A09
330
1F
100
AcDbEntity
  8
AM_1
100
AcDbLine
 10
203.0188584965363
 20
67.78096268495028
 30
0.0
 11
198.0188584965362
 21
67.78096268495028
 31
0.0
  0
DIMENSION
  5
61A0A
330
1F
100
AcDbEntity
  8
AM_5
100
AcDbDimension
  2
*D115
 10
223.0188594965366
 20
67.78096268495028
 30
0.0
 11
219.9188594965366
 21
115.7809626849503
 31
0.0
 70
    32
  1
<>
 71
     5
 42
96.00000000000001
  3
SYS$0
100
AcDbAlignedDimension
 13
203.0188584965363
 23
163.7809626849502
 33
0.0
 14
203.0188584965363
 24
67.78096268495028
 34
0.0
 50
270.0
100
AcDbRotatedDimension
1001
ACAD
1000
DSTYLE
1002
{
1070
   286
1070
     0
1070
   284
1070
     8
1070
   274
1070
     2
1070
    47
1040
0.2
1070
    48
1040
0.0
1070
   272
1070
     2
1002
}
  0
DIMENSION
  5
61A0D
330
1F
100
AcDbEntity
  8
AM_5
100
AcDbDimension
  2
*D118
 10
243.0188594965366
 20
45.78096268495026
 30
0.0
 11
239.9188594965366
 21
115.7809626849503
 31
0.0
 70
    32
 71
     5
 42
140.0
  3
SYS$0
100
AcDbAlignedDimension
 13
203.0188584965363
 23
185.7809626849503
 33
0.0
 14
203.0188584965363
 24
45.78096268495028
 34
0.0
 50
270.0
100
AcDbRotatedDimension
1001
ACAD
1000
DSTYLE
1002
{
1070
    48
1040
0.0
1070
   271
1070
     1
1002
}
  0
LINE
  5
61A0E
330
1F
100
AcDbEntity
  8
AM_7
100
AcDbLine
 10
205.5188584965363
 20
115.7809626849503
 30
0.0
 11
161.5188584965362
 21
115.7809626849503
 31
0.0
1001
GENIUS_GENODEF_13
1002
{
1000
HIER
1070
     0
1002
}
1002
{
1000
MANEDIT
1070
     0
1002
}
1002
{
1000
NOSEL
1070
     0
1002
}
1002
{
1000
BEHIND
1070
     0
1002
}
1002
{
1000
OTHER
1070
     0
1002
}
1002
{
1000
REACTOR
1002
}
1001
GENIUS_GENOBJ-N-CEN_13
1002
{
1000
OWNER
1000
GEN
1002
}
1001
GENIUS_GENCEN_19
1002
{
1040
2.5
1002
}
  0
LINE
  5
61A0F
330
1F
100
AcDbEntity
  8
AM_0
100
AcDbLine
 10
265.1188584965384
 20
183.2809626849503
 30
0.0
 11
265.1188584965384
 21
174.980962684951
 31
0.0
  0
ARC
  5
61A10
330
1F
100
AcDbEntity
  8
AM_0
100
AcDbCircle
 10
265.3188584965392
 20
174.980962684951
 30
0.0
 40
0.2
100
AcDbArc
 50
180.0
 51
270.0
1001
GENIUS_GENODEF_13
1002
{
1000
HIER
1070
     0
1002
}
1002
{
1000
MANEDIT
1070
     0
1002
}
1002
{
1000
NOSEL
1070
     0
1002
}
1002
{
1000
BEHIND
1070
     0
1002
}
1002
{
1000
OTHER
1070
     0
1002
}
1002
{
1000
REACTOR
1002
}
1001
GENIUS_GENOBJ-N-FIL_13
1002
{
1000
OWNER
1000
GEN
1002
}
  0
LINE
  5
61A11
330
1F
100
AcDbEntity
  8
AM_0
100
AcDbLine
 10
265.3188584965392
 20
174.7809626849503
 30
0.0
 11
283.4188584965377
 21
174.7809626849503
 31
0.0
  0
ARC
  5
61A12
330
1F
100
AcDbEntity
  8
AM_0
100
AcDbCircle
 10
283.4188584965377
 20
174.2809626849503
 30
0.0
 40
0.5
100
AcDbArc
 50
0.0
 51
90.0
1001
GENIUS_GENOBJ-N-FIL_13
1002
{
1000
OWNER
1000
GEN
1002
}
1001
GENIUS_GENODEF_13
1002
{
1000
HIER
1070
     0
1002
}
1002
{
1000
MANEDIT
1070
     0
1002
}
1002
{
1000
NOSEL
1070
     0
1002
}
1002
{
1000
BEHIND
1070
     0
1002
}
1002
{
1000
OTHER
1070
     0
1002
}
1002
{
1000
REACTOR
1002
}
  0
LINE
  5
61A13
330
1F
100
AcDbEntity
  8
AM_0
100
AcDbLine
 10
283.9188584965377
 20
174.2809626849503
 30
0.0
 11
283.9188584965377
 21
57.28096268495028
 31
0.0
  0
ARC
  5
61A14
330
1F
100
AcDbEntity
  8
AM_0
100
AcDbCircle
 10
283.4188584965377
 20
57.28096268495028
 30
0.0
 40
0.5
100
AcDbArc
 50
270.0
 51
0.0
1001
GENIUS_GENODEF_13
1002
{
1000
HIER
1070
     0
1002
}
1002
{
1000
MANEDIT
1070
     0
1002
}
1002
{
1000
NOSEL
1070
     0
1002
}
1002
{
1000
BEHIND
1070
     0
1002
}
1002
{
1000
OTHER
1070
     0
1002
}
1002
{
1000
REACTOR
1002
}
1001
GENIUS_GENOBJ-N-FIL_13
1002
{
1000
OWNER
1000
GEN
1002
}
  0
LINE
  5
61A15
330
1F
100
AcDbEntity
  8
AM_0
100
AcDbLine
 10
283.4188584965377
 20
56.78096268495028
 30
0.0
 11
265.3188584965392
 21
56.78096268495028
 31
0.0
  0
ARC
  5
61A16
330
1F
100
AcDbEntity
  8
AM_0
100
AcDbCircle
 10
265.3188584965392
 20
56.58096268494955
 30
0.0
 40
0.2
100
AcDbArc
 50
90.0
 51
180.0
1001
GENIUS_GENODEF_13
1002
{
1000
HIER
1070
     0
1002
}
1002
{
1000
MANEDIT
1070
     0
1002
}
1002
{
1000
NOSEL
1070
     0
1002
}
1002
{
1000
BEHIND
1070
     0
1002
}
1002
{
1000
OTHER
1070
     0
1002
}
1002
{
1000
REACTOR
1002
}
1001
GENIUS_GENOBJ-N-FIL_13
1002
{
1000
OWNER
1000
GEN
1002
}
  0
LINE
  5
61A17
330
1F
100
AcDbEntity
  8
AM_0
100
AcDbLine
 10
265.1188584965384
 20
56.58096268494955
 30
0.0
 11
265.1188584965384
 21
48.28096268495028
 31
0.0
  0
LINE
  5
61A18
330
1F
100
AcDbEntity
  8
AM_0
100
AcDbLine
 10
265.1188584965384
 20
48.28096268495028
 30
0.0
 11
264.6188584965385
 21
48.28096268495028
 31
0.0
  0
LINE
  5
61A19
330
1F
100
AcDbEntity
  8
AM_0
100
AcDbLine
 10
264.6188584965385
 20
48.28096268495028
 30
0.0
 11
264.6188584965385
 21
56.58096268494955
 31
0.0
  0
LINE
  5
61A1A
102
{ACAD_REACTORS
330
625E6
102
}
330
1F
100
AcDbEntity
  8
AM_0
100
AcDbLine
 10
265.1188584965384
 20
183.2809626849503
 30
0.0
 11
264.6188584965385
 21
183.2809626849503
 31
0.0
  0
LINE
  5
61A1B
330
1F
100
AcDbEntity
  8
AM_0
100
AcDbLine
 10
264.6188584965385
 20
183.2809626849503
 30
0.0
 11
264.6188584965385
 21
174.980962684951
 31
0.0
  0
LINE
  5
61A1C
330
1F
100
AcDbEntity
  8
AM_0
100
AcDbLine
 10
265.3188584965392
 20
174.2809626849503
 30
0.0
 11
283.9188584965377
 21
174.2809626849503
 31
0.0
  0
ARC
  5
61A1D
330
1F
100
AcDbEntity
  8
AM_0
100
AcDbCircle
 10
265.3188584965392
 20
174.980962684951
 30
0.0
 40
0.7
100
AcDbArc
 50
180.0
 51
270.0
1001
GENIUS_GENOBJ-N-FIL_13
1002
{
1000
OWNER
1000
GEN
1002
}
1001
GENIUS_GENODEF_13
1002
{
1000
HIER
1070
     0
1002
}
1002
{
1000
MANEDIT
1070
     0
1002
}
1002
{
1000
NOSEL
1070
     0
1002
}
1002
{
1000
BEHIND
1070
     0
1002
}
1002
{
1000
OTHER
1070
     0
1002
}
1002
{
1000
REACTOR
1002
}
  0
LINE
  5
61A1E
330
1F
100
AcDbEntity
  8
AM_0
100
AcDbLine
 10
265.6188584965384
 20
174.2809626849503
 30
0.0
 11
265.6188584965384
 21
57.28096268495028
 31
0.0
  0
LINE
  5
61A1F
330
1F
100
AcDbEntity
  8
AM_0
100
AcDbLine
 10
265.3188584965392
 20
57.28096268495028
 30
0.0
 11
283.9188584965377
 21
57.28096268495028
 31
0.0
  0
ARC
  5
61A20
330
1F
100
AcDbEntity
  8
AM_0
100
AcDbCircle
 10
265.3188584965392
 20
56.58096268494955
 30
0.0
 40
0.7
100
AcDbArc
 50
90.0
 51
180.0
1001
GENIUS_GENOBJ-N-FIL_13
1002
{
1000
OWNER
1000
GEN
1002
}
1001
GENIUS_GENODEF_13
1002
{
1000
HIER
1070
     0
1002
}
1002
{
1000
MANEDIT
1070
     0
1002
}
1002
{
1000
NOSEL
1070
     0
1002
}
1002
{
1000
BEHIND
1070
     0
1002
}
1002
{
1000
OTHER
1070
     0
1002
}
1002
{
1000
REACTOR
1002
}
  0
LINE
  5
61A2C
330
1F
100
AcDbEntity
  8
AM_0
100
AcDbLine
 10
265.1188584965384
 20
175.9922875503562
 30
0.0
 11
265.6188584965384
 21
176.2809626849502
 31
0.0
  0
LINE
  5
61A2D
330
1F
100
AcDbEntity
  8
AM_0
100
AcDbLine
 10
265.1188584965384
 20
55.56963781954436
 30
0.0
 11
265.6188584965384
 21
55.28096268495028
 31
0.0
  0
LINE
  5
61A2E
330
1F
100
AcDbEntity
  8
AM_0
100
AcDbLine
 10
265.1188584965384
 20
49.9922875503562
 30
0.0
 11
265.6188584965384
 21
50.28096268495028
 31
0.0
  0
LINE
  5
61A3D
330
1F
100
AcDbEntity
  8
AM_0
100
AcDbLine
 10
187.5188584965362
 20
234.7216315321893
 30
0.0
 11
182.5188584965362
 21
234.7216315321893
 31
0.0
  0
LINE
  5
61A3E
330
1F
100
AcDbEntity
  8
AM_0
100
AcDbLine
 10
187.8075336311303
 20
234.2216315321894
 30
0.0
 11
187.5188584965362
 21
234.7216315321893
 31
0.0
  0
LINE
  5
61A3F
330
1F
100
AcDbEntity
  8
AM_0
100
AcDbLine
 10
182.2301833619422
 20
234.2216315321894
 30
0.0
 11
182.5188584965362
 21
234.7216315321893
 31
0.0
  0
LWPOLYLINE
  5
61A40
330
1F
100
AcDbEntity
  8
AM_0
100
AcDbPolyline
 90
        4
 70
     1
 43
0.0
 10
199.5188584965362
 20
234.2216315321894
 10
170.5188584965362
 20
234.2216315321894
 10
170.5188584965362
 20
233.7216315321894
 10
199.5188584965362
 20
233.7216315321894
1001
GENIUS_GENREC_14
1002
{
1000
PYDIR
1011
199.5188584965362
1021
233.7216315321894
1031
0.0
1002
}
1002
{
1000
PXDIR
1011
170.5188584965362
1021
234.2216315321894
1031
0.0
1002
}
1002
{
1000
PORI
1011
199.5188584965362
1021
234.2216315321894
1031
0.0
1002
}
1002
{
1000
PINS
1011
199.5188584965362
1021
234.2216315321894
1031
0.0
1002
}
1002
{
1000
PINS2
1011
170.5188584965362
1021
233.7216315321894
1031
0.0
1002
}
1002
{
1000
C
1070
     1
1002
}
1001
GENIUS_GENODEF_13
1002
{
1000
HIER
1070
     0
1002
}
1002
{
1000
MANEDIT
1070
     0
1002
}
1002
{
1000
NOSEL
1070
     0
1002
}
1002
{
1000
BEHIND
1070
     0
1002
}
1002
{
1000
OTHER
1070
     0
1002
}
1002
{
1000
REACTOR
1002
}
1001
GENIUS_GENOBJ-N-REC_13
1002
{
1000
OWNER
1000
GEN
1002
}
  0
LINE
  5
61A41
330
1F
100
AcDbEntity
  8
AM_0
100
AcDbLine
 10
199.5188584965362
 20
253.0216315321886
 30
0.0
 11
199.5188584965362
 21
234.2216315321894
 31
0.0
  0
LINE
  5
61A42
330
1F
100
AcDbEntity
  8
AM_0
100
AcDbLine
 10
170.5188584965362
 20
253.0216315321886
 30
0.0
 11
170.5188584965362
 21
234.2216315321894
 31
0.0
  0
LINE
  5
61A43
330
1F
100
AcDbEntity
  8
AM_0
100
AcDbLine
 10
199.5188584965362
 20
234.7216315321893
 30
0.0
 11
200.0188584965363
 21
234.7216315321893
 31
0.0
  0
LINE
  5
61A44
330
1F
100
AcDbEntity
  8
AM_0
100
AcDbLine
 10
200.0188584965363
 20
234.7216315321893
 30
0.0
 11
200.0188584965363
 21
252.5216315321886
 31
0.0
  0
ARC
  5
61A45
330
1F
100
AcDbEntity
  8
AM_0
100
AcDbCircle
 10
199.5188584965362
 20
252.5216315321886
 30
0.0
 40
0.5
100
AcDbArc
 50
0.0
 51
90.0
1001
GENIUS_GENOBJ-N-FIL_13
1002
{
1000
OWNER
1000
GEN
1002
}
1001
GENIUS_GENODEF_13
1002
{
1000
HIER
1070
     0
1002
}
1002
{
1000
MANEDIT
1070
     0
1002
}
1002
{
1000
NOSEL
1070
     0
1002
}
1002
{
1000
BEHIND
1070
     0
1002
}
1002
{
1000
OTHER
1070
     0
1002
}
1002
{
1000
REACTOR
1002
}
  0
LINE
  5
61A46
330
1F
100
AcDbEntity
  8
AM_0
100
AcDbLine
 10
199.5188584965362
 20
253.0216315321886
 30
0.0
 11
170.5188584965362
 21
253.0216315321886
 31
0.0
  0
ARC
  5
61A47
330
1F
100
AcDbEntity
  8
AM_0
100
AcDbCircle
 10
170.5188584965362
 20
252.5216315321886
 30
0.0
 40
0.5
100
AcDbArc
 50
90.0
 51
180.0
1001
GENIUS_GENODEF_13
1002
{
1000
HIER
1070
     0
1002
}
1002
{
1000
MANEDIT
1070
     0
1002
}
1002
{
1000
NOSEL
1070
     0
1002
}
1002
{
1000
BEHIND
1070
     0
1002
}
1002
{
1000
OTHER
1070
     0
1002
}
1002
{
1000
REACTOR
1002
}
1001
GENIUS_GENOBJ-N-FIL_13
1002
{
1000
OWNER
1000
GEN
1002
}
  0
LINE
  5
61A48
330
1F
100
AcDbEntity
  8
AM_0
100
AcDbLine
 10
170.0188584965362
 20
252.5216315321886
 30
0.0
 11
170.0188584965362
 21
234.7216315321893
 31
0.0
  0
LINE
  5
61A49
330
1F
100
AcDbEntity
  8
AM_0
100
AcDbLine
 10
170.0188584965362
 20
234.7216315321893
 30
0.0
 11
170.5188584965362
 21
234.7216315321893
 31
0.0
  0
LINE
  5
61A4D
330
1F
100
AcDbEntity
  8
AM_7
 48
0.3
100
AcDbLine
 10
185.0188584965362
 20
236.7216315321893
 30
0.0
 11
185.0188584965362
 21
231.2216315321894
 31
0.0
1001
GENIUS_GENOBJ-N-CEN_13
1002
{
1000
OWNER
1000
GEN
1002
}
1001
GENIUS_GENODEF_13
1002
{
1000
HIER
1070
     0
1002
}
1002
{
1000
MANEDIT
1070
     0
1002
}
1002
{
1000
NOSEL
1070
     0
1002
}
1002
{
1000
BEHIND
1070
     0
1002
}
1002
{
1000
OTHER
1070
     0
1002
}
1002
{
1000
REACTOR
1002
}
1001
GENIUS_GENCEN_19
1002
{
1040
2.5
1002
}
  0
LINE
  5
61A50
330
1F
100
AcDbEntity
  8
AM_7
 48
0.5
100
AcDbLine
 10
190.0688584965392
 20
178.7809626849503
 30
0.0
 11
179.968858496537
 21
178.7809626849503
 31
0.0
1001
GENIUS_GENODEF_13
1002
{
1000
HIER
1070
     0
1002
}
1002
{
1000
MANEDIT
1070
     0
1002
}
1002
{
1000
NOSEL
1070
     0
1002
}
1002
{
1000
BEHIND
1070
     0
1002
}
1002
{
1000
OTHER
1070
     0
1002
}
1002
{
1000
REACTOR
1002
}
1001
GENIUS_GENOBJ-N-CEN_13
1002
{
1000
OWNER
1000
GEN
1002
}
1001
GENIUS_GENCEN_19
1002
{
1040
2.5
1002
}
  0
LINE
  5
61A51
330
1F
100
AcDbEntity
  8
AM_7
 48
0.5
100
AcDbLine
 10
185.0188584965362
 20
183.8309626849495
 30
0.0
 11
185.0188584965362
 21
173.730962684951
 31
0.0
1001
GENIUS_GENODEF_13
1002
{
1000
HIER
1070
     0
1002
}
1002
{
1000
MANEDIT
1070
     0
1002
}
1002
{
1000
NOSEL
1070
     0
1002
}
1002
{
1000
BEHIND
1070
     0
1002
}
1002
{
1000
OTHER
1070
     0
1002
}
1002
{
1000
REACTOR
1002
}
1001
GENIUS_GENOBJ-N-CEN_13
1002
{
1000
OWNER
1000
GEN
1002
}
1001
GENIUS_GENCEN_19
1002
{
1040
2.5
1002
}
  0
LINE
  5
61A52
330
1F
100
AcDbEntity
  8
AM_7
 48
0.5
100
AcDbLine
 10
190.0688584965392
 20
52.78096268495028
 30
0.0
 11
179.968858496537
 21
52.78096268495028
 31
0.0
1001
GENIUS_GENODEF_13
1002
{
1000
HIER
1070
     0
1002
}
1002
{
1000
MANEDIT
1070
     0
1002
}
1002
{
1000
NOSEL
1070
     0
1002
}
1002
{
1000
BEHIND
1070
     0
1002
}
1002
{
1000
OTHER
1070
     0
1002
}
1002
{
1000
REACTOR
1002
}
1001
GENIUS_GENOBJ-N-CEN_13
1002
{
1000
OWNER
1000
GEN
1002
}
1001
GENIUS_GENCEN_19
1002
{
1040
2.5
1002
}
  0
LINE
  5
61A53
330
1F
100
AcDbEntity
  8
AM_7
 48
0.5
100
AcDbLine
 10
185.0188584965362
 20
57.83096268494955
 30
0.0
 11
185.0188584965362
 21
47.73096268495101
 31
0.0
1001
GENIUS_GENODEF_13
1002
{
1000
HIER
1070
     0
1002
}
1002
{
1000
MANEDIT
1070
     0
1002
}
1002
{
1000
NOSEL
1070
     0
1002
}
1002
{
1000
BEHIND
1070
     0
1002
}
1002
{
1000
OTHER
1070
     0
1002
}
1002
{
1000
REACTOR
1002
}
1001
GENIUS_GENOBJ-N-CEN_13
1002
{
1000
OWNER
1000
GEN
1002
}
1001
GENIUS_GENCEN_19
1002
{
1040
2.5
1002
}
  0
DIMENSION
  5
61A54
330
1F
100
AcDbEntity
  8
AM_5
100
AcDbDimension
  2
*D119
 10
154.0188584965362
 20
75.7809626849503
 30
0.0
 11
150.9188584965362
 21
115.7809626849503
 31
0.0
 70
    32
  1
<>
 71
     5
 42
79.99999999999999
  3
SYS$0
100
AcDbAlignedDimension
 13
180.5188584965362
 23
155.7809626849502
 33
0.0
 14
180.5188584965362
 24
75.78096268495028
 34
0.0
 50
270.0
100
AcDbRotatedDimension
1001
ACAD
1000
DSTYLE
1002
{
1070
   286
1070
     0
1070
   284
1070
     8
1070
   274
1070
     2
1070
   272
1070
     2
1070
    47
1040
0.2
1070
    48
1040
0.2
1070
   271
1070
     1
1002
}
1001
ACAD_DSTYLE_DIMINSPECT
1070
   396
1000
100%
1070
   395
1000

1070
   394
1070
    33
1070
   393
1070
     0
  0
DIMENSION
  5
61A55
330
1F
100
AcDbEntity
  8
AM_5
100
AcDbDimension
  2
*D120
 10
144.0698164313726
 20
70.7809626849503
 30
0.0
 11
140.9698164313726
 21
115.7809626849503
 31
0.0
 70
    32
  1
<>
 71
     5
 42
89.99999999999998
  3
SYS$0
100
AcDbAlignedDimension
 13
180.5188584965362
 23
160.7809626849503
 33
0.0
 14
180.5188584965362
 24
70.78096268495028
 34
0.0
 50
270.0
100
AcDbRotatedDimension
1001
ACAD
1000
DSTYLE
1002
{
1070
   286
1070
     0
1070
   284
1070
     8
1070
   274
1070
     2
1070
   272
1070
     2
1070
    47
1040
0.2
1070
    48
1040
0.2
1070
   271
1070
     1
1002
}
1001
ACAD_DSTYLE_DIMINSPECT
1070
   396
1000
100%
1070
   395
1000

1070
   394
1070
    33
1070
   393
1070
     0
  0
DIMENSION
  5
61A56
330
1F
100
AcDbEntity
  8
AM_5
100
AcDbDimension
  2
*D121
 10
134.0136892921691
 20
52.7809626849503
 30
0.0
 11
130.9136892921691
 21
115.7809626849503
 31
0.0
 70
    32
 71
     5
 42
126.0
  3
SYS$0
100
AcDbAlignedDimension
 13
180.0188584965362
 23
178.7809626849503
 33
0.0
 14
180.0188584965362
 24
52.78096268495028
 34
0.0
 50
270.0
100
AcDbRotatedDimension
1001
ACAD
1000
DSTYLE
1002
{
1070
    48
1040
0.0
1070
   271
1070
     1
1002
}
  0
DIMENSION
  5
61A57
330
1F
100
AcDbEntity
  8
AM_5
100
AcDbDimension
  2
*D122
 10
172.5188584965362
 20
195.7809626849503
 30
0.0
 11
185.0188584965362
 21
198.8809626849502
 31
0.0
 70
    32
  1
<>
 71
     5
 42
25.0
  3
SYS$0
100
AcDbAlignedDimension
 13
197.5188584965362
 23
151.7809626849503
 33
0.0
 14
172.5188584965362
 24
151.7809626849503
 34
0.0
100
AcDbRotatedDimension
1001
ACAD
1000
DSTYLE
1002
{
1070
   286
1070
     0
1070
   284
1070
     8
1070
   274
1070
     2
1070
    47
1040
0.2
1070
    48
1040
0.0
1070
   272
1070
     2
1002
}
  0
DIMENSION
  5
61A58
330
1F
100
AcDbEntity
  8
AM_5
100
AcDbDimension
  2
*D123
 10
164.0188584965363
 20
205.7809626849503
 30
0.0
 11
183.5188584965362
 21
208.8809626849503
 31
0.0
 70
    32
  1
<>
 71
     5
 42
39.0
  3
SYS$0
100
AcDbAlignedDimension
 13
203.0188584965363
 23
185.7809626849503
 33
0.0
 14
164.0188584965363
 24
185.7809626849503
 34
0.0
100
AcDbRotatedDimension
1001
ACAD
1000
DSTYLE
1002
{
1070
   286
1070
     0
1070
   284
1070
     8
1070
   274
1070
     2
1070
    47
1040
0.2
1070
    48
1040
0.0
1070
   272
1070
     2
1002
}
  0
DIMENSION
  5
61A59
330
1F
100
AcDbEntity
  8
AM_5
100
AcDbDimension
  2
*D124
 10
203.0188584965363
 20
195.7809626849503
 30
0.0
 11
207.8655251632029
 21
198.8809626849502
 31
0.0
 70
    32
  1
<>
 71
     5
 42
5.5
  3
SYS$0
100
AcDbAlignedDimension
 13
197.5188584965362
 23
151.7809626849503
 33
0.0
 14
203.0188584965363
 24
185.7809626849503
 34
0.0
100
AcDbRotatedDimension
1001
ACAD
1000
DSTYLE
1002
{
1070
   286
1070
     0
1070
   284
1070
     8
1070
   274
1070
     2
1070
    47
1040
0.2
1070
    48
1040
0.0
1070
   272
1070
     2
1002
}
  0
DIMENSION
  5
61A5A
330
1F
100
AcDbEntity
  8
AM_5
100
AcDbDimension
  2
*D125
 10
203.0188584965363
 20
33.88636617304655
 30
0.0
 11
194.0188584965362
 21
36.98636617304656
 31
0.0
 70
    32
 71
     5
 42
18.0
  3
SYS$0
100
AcDbAlignedDimension
 13
185.0188584965362
 23
47.78096268495028
 33
0.0
 14
203.0188584965363
 24
45.78096268495028
 34
0.0
100
AcDbRotatedDimension
1001
ACAD
1000
DSTYLE
1002
{
1070
    48
1040
0.0
1070
   271
1070
     1
1002
}
  0
INSERT
  5
61A5D
330
1F
100
AcDbEntity
  8
AM_5
100
AcDbBlockReference
  2
*S60
 10
-15928.01388141145
 20
18935.72178148365
 30
0.0
 50
270.0
  0
INSERT
  5
61A5E
330
1F
100
AcDbEntity
  8
AM_5
100
AcDbBlockReference
  2
*S61
 10
-16069.95734980709
 20
19030.69351059251
 30
0.0
 50
270.0
  0
DIMENSION
  5
61A5F
330
1F
100
AcDbEntity
  8
AM_5
100
AcDbDimension
  2
*D128
 10
263.0188584965363
 20
205.7809626849503
 30
0.0
 11
273.468858496537
 21
208.8809626849503
 31
0.0
 70
    32
 71
     5
 42
20.90000000000145
  3
SYS$0
100
AcDbAlignedDimension
 13
283.9188584965377
 23
174.2809626849503
 33
0.0
 14
263.0188584965363
 24
185.7809626849503
 34
0.0
100
AcDbRotatedDimension
1001
ACAD
1000
DSTYLE
1002
{
1070
   271
1070
     1
1002
}
  0
DIMENSION
  5
61A60
330
1F
100
AcDbEntity
  8
AM_5
100
AcDbDimension
  2
*D129
 10
293.9188584965377
 20
56.78096268495028
 30
0.0
 11
290.8188584965377
 21
115.7809626849503
 31
0.0
 70
    32
 71
     5
 42
118.0
  3
SYS$0
100
AcDbAlignedDimension
 13
283.4188584965377
 23
174.7809626849503
 33
0.0
 14
283.4188584965377
 24
56.78096268495028
 34
0.0
 50
270.0
100
AcDbRotatedDimension
  0
DIMENSION
  5
61A61
330
1F
100
AcDbEntity
  8
AM_5
100
AcDbDimension
  2
*D130
 10
170.0188584965362
 20
263.0216315321886
 30
0.0
 11
185.0188584965362
 21
266.1216315321886
 31
0.0
 70
    32
  1
<>
 71
     5
 42
30.0
  3
SYS$0
100
AcDbAlignedDimension
 13
200.0188584965363
 23
252.5216315321886
 33
0.0
 14
170.0188584965362
 24
252.5216315321886
 34
0.0
 50
180.0
100
AcDbRotatedDimension
1001
ACAD
1000
DSTYLE
1002
{
1070
   286
1070
     0
1070
   284
1070
     8
1070
   274
1070
     2
1070
    47
1040
0.1
1070
    48
1040
0.0
1070
   272
1070
     2
1002
}
  0
DIMENSION
  5
61A63
330
1F
100
AcDbEntity
  8
AM_5
100
AcDbDimension
  2
*D131
 10
203.0188584965363
 20
263.0216315321886
 30
0.0
 11
207.265525163203
 21
266.1216315321886
 31
0.0
 70
    32
 71
     5
 42
3.0
  3
SYS$0
100
AcDbAlignedDimension
 13
200.0188584965363
 23
252.5216315321886
 33
0.0
 14
203.0188584965363
 24
234.6216315321872
 34
0.0
100
AcDbRotatedDimension
1001
ACAD
1000
DSTYLE
1002
{
1070
    47
1040
0.1
1070
    48
1040
0.0
1070
   271
1070
     1
1002
}
  0
LINE
  5
61A6F
330
1F
100
AcDbEntity
  8
AM_2
100
AcDbLine
 10
164.0188584965363
 20
59.12437818707804
 30
0.0
 11
203.0188584965363
 21
59.12437818707804
 31
0.0
  0
LINE
  5
61F31
330
1F
100
AcDbEntity
  8
AM_2
100
AcDbLine
 10
31.50000073322735
 20
288.5
 30
0.0
 11
31.50000073322735
 21
200.5
 31
0.0
  0
LINE
  5
61F32
330
1F
100
AcDbEntity
  8
AM_2
100
AcDbLine
 10
11.50000073322735
 20
280.5
 30
0.0
 11
121.5000007332273
 21
280.5
 31
0.0
  0
LINE
  5
61F33
330
1F
100
AcDbEntity
  8
AM_2
100
AcDbLine
 10
31.50000073322735
 20
240.5
 30
0.0
 11
121.5000007332273
 21
240.5
 31
0.0
  0
LINE
  5
61F34
330
1F
100
AcDbEntity
  8
AM_2
100
AcDbLine
 10
31.50000073322735
 20
232.5
 30
0.0
 11
121.5000007332273
 21
232.5
 31
0.0
  0
LINE
  5
61F35
330
1F
100
AcDbEntity
  8
AM_2
100
AcDbLine
 10
11.50000073322735
 20
224.5
 30
0.0
 11
121.5000007332273
 21
224.5
 31
0.0
  0
LINE
  5
61F36
330
1F
100
AcDbEntity
  8
AM_2
100
AcDbLine
 10
31.50000073322735
 20
216.5
 30
0.0
 11
121.5000007332273
 21
216.5
 31
0.0
  0
LINE
  5
61F37
330
1F
100
AcDbEntity
  8
AM_2
100
AcDbLine
 10
31.50000073322735
 20
208.5
 30
0.0
 11
121.5000007332273
 21
208.5
 31
0.0
  0
LINE
  5
61F38
330
1F
100
AcDbEntity
  8
AM_0
100
AcDbLine
 10
11.50000073322735
 20
200.5
 30
0.0
 11
121.5000007332273
 21
200.5
 31
0.0
  0
LINE
  5
61F39
330
1F
100
AcDbEntity
  8
AM_0
100
AcDbLine
 10
11.50000073322735
 20
288.5
 30
0.0
 11
11.50000073322735
 21
200.5
 31
0.0
  0
LINE
  5
61F3A
330
1F
100
AcDbEntity
  8
AM_0
100
AcDbLine
 10
11.50000073322735
 20
288.5
 30
0.0
 11
121.5000007332273
 21
288.5
 31
0.0
  0
LINE
  5
61F3B
330
1F
100
AcDbEntity
  8
AM_0
100
AcDbLine
 10
121.5000007332273
 20
288.5
 30
0.0
 11
121.5000007332273
 21
200.5
 31
0.0
  0
LINE
  5
61F3C
330
1F
100
AcDbEntity
  8
AM_2
100
AcDbLine
 10
11.50000073322735
 20
248.5
 30
0.0
 11
121.5000007332273
 21
248.5
 31
0.0
  0
LINE
  5
61F3D
330
1F
100
AcDbEntity
  8
AM_2
100
AcDbLine
 10
31.50000073322735
 20
240.5
 30
0.0
 11
121.5000007332273
 21
240.5
 31
0.0
  0
LINE
  5
61F3E
330
1F
100
AcDbEntity
  8
AM_2
100
AcDbLine
 10
11.50000073322735
 20
272.5
 30
0.0
 11
121.5000007332273
 21
272.5
 31
0.0
  0
LINE
  5
61F3F
330
1F
100
AcDbEntity
  8
AM_2
100
AcDbLine
 10
11.50000073322735
 20
264.5
 30
0.0
 11
121.5000007332273
 21
264.5
 31
0.0
  0
LINE
  5
61F40
330
1F
100
AcDbEntity
  8
AM_2
100
AcDbLine
 10
11.50000073322735
 20
256.5
 30
0.0
 11
121.5000007332273
 21
256.5
 31
0.0
  0
TEXT
  5
61F9A
330
1F
100
AcDbEntity
  8
AM_6
100
AcDbText
 10
17.15700073322659
 20
282.8999999999997
 30
0.0
 40
3.2
  1
品　名
 41
0.85537027
100
AcDbText
  0
TEXT
  5
61F9B
330
1F
100
AcDbEntity
  8
AM_6
100
AcDbText
 10
17.15700073322659
 20
274.8999999999997
 30
0.0
 40
3.2
  1
品　番
 41
0.85537027
100
AcDbText
  0
TEXT
  5
61F9C
330
1F
100
AcDbEntity
  8
AM_6
100
AcDbText
 10
17.15700073322659
 20
266.8999999999996
 30
0.0
 40
3.2
  1
材　質
 41
0.85537027
100
AcDbText
  0
TEXT
  5
61F9D
330
1F
100
AcDbEntity
  8
AM_6
100
AcDbText
 10
17.15700073322659
 20
258.8999999999996
 30
0.0
 40
3.2
  1
仕上げ
 41
0.85537027
100
AcDbText
  0
TEXT
  5
61F9E
330
1F
100
AcDbEntity
  8
AM_6
100
AcDbText
 10
34.35700073322732
 20
226.8999999999997
 30
0.0
 40
3.2
  1
＊
 41
0.90047268
100
AcDbText
  0
TEXT
  5
61F9F
330
1F
100
AcDbEntity
  8
AM_6
100
AcDbText
 10
34.35700073322732
 20
234.8999999999996
 30
0.0
 40
3.2
  1
＊
 41
0.90047268
100
AcDbText
  0
TEXT
  5
61FA0
330
1F
100
AcDbEntity
  8
AM_6
100
AcDbText
 10
13.9570007332295
 20
242.8999999999996
 30
0.0
 40
3.2
  1
セットビス
 41
0.84892707
100
AcDbText
  0
TEXT
  5
61FA1
330
1F
100
AcDbEntity
  8
AM_6
100
AcDbText
 10
18.75700073322878
 20
218.8999999999996
 30
0.0
 40
3.2
  1
備考
 41
0.8643907499999999
100
AcDbText
  0
TEXT
  5
61FA2
330
1F
100
AcDbEntity
  8
AM_6
100
AcDbText
 10
15.55700073322805
 20
250.8999999999996
 30
0.0
 40
3.2
  1
左右勝手
 41
0.8512700499999999
100
AcDbText
  0
TEXT
  5
61FA3
330
1F
100
AcDbEntity
  8
AM_6
100
AcDbText
 10
34.35700073322732
 20
282.8999999999997
 30
0.0
 40
3.2
  1
ＬＡ・ＨＭ兼用ストライクトロ受け
 41
0.8428951399999998
100
AcDbText
  0
TEXT
  5
61FA4
330
1F
100
AcDbEntity
  8
AM_6
100
AcDbText
 10
34.35700073322732
 20
274.8999999999997
 30
0.0
 40
3.2
  1
ＤＳＫ－１０
 41
0.84741102
100
AcDbText
  0
TEXT
  5
61FA5
330
1F
100
AcDbEntity
  8
AM_6
100
AcDbText
 10
34.35700073322732
 20
266.8999999999996
 30
0.0
 40
3.2
  1
受け：スチール　／カバー：スチール
 41
0.8427415999999999
100
AcDbText
  0
TEXT
  5
61FA6
330
1F
100
AcDbEntity
  8
AM_6
100
AcDbText
 10
34.44266073322797
 20
258.8999999999996
 30
0.0
 40
3.2
  1
受け：有色クロメート／カバー：溶融亜鉛メッキ
 41
0.77958595
100
AcDbText
  0
TEXT
  5
61FA7
330
1F
100
AcDbEntity
  8
AM_6
100
AcDbText
 10
34.35700073322732
 20
242.8999999999996
 30
0.0
 40
3.2
  1
＊
 41
0.90047268
100
AcDbText
  0
TEXT
  5
61FA8
330
1F
100
AcDbEntity
  8
AM_6
100
AcDbText
 10
34.12145073322972
 20
250.8661699999993
 30
0.0
 40
3.2
  1
無し
 41
0.8643907499999999
100
AcDbText
  0
DIMENSION
  5
62543
102
{ACAD_XDICTIONARY
360
62550
102
}
102
{ACAD_REACTORS
330
62551
102
}
330
1F
100
AcDbEntity
  8
AM_5
100
AcDbDimension
  2
*D202
 10
233.0188594965402
 20
60.78096268495027
 30
0.0
 11
229.9188594965403
 21
115.7809626849503
 31
0.0
 70
    32
 71
     5
 42
110.0
  3
SYS$0
100
AcDbAlignedDimension
 13
203.0188584965363
 23
170.7809626849503
 33
0.0
 14
203.0188584965363
 24
60.78096268495028
 34
0.0
 50
90.0
100
AcDbRotatedDimension
1001
ACAD
1000
DSTYLE
1002
{
1070
    49
1040
0.0
1070
   173
1070
     1
1070
   179
1070
     1
1070
   271
1070
     1
1002
}
  0
DIMENSION
  5
62591
102
{ACAD_XDICTIONARY
360
6259D
102
}
102
{ACAD_REACTORS
330
6259E
102
}
330
1F
100
AcDbEntity
  8
AM_5
100
AcDbDimension
  2
*D203
 10
185.7497290919336
 20
54.2602625777271
 30
0.0
 11
167.7353078141771
 21
33.7040931247083
 31
0.0
 70
   163
  1
2-<>
 71
     5
 42
3.299999999995776
  3
SYS$3
100
AcDbDiametricDimension
 15
184.287987901137
 25
51.30166279216967
 35
0.0
 40
0.0
1001
ACAD
1000
DSTYLE
1002
{
1070
    49
1040
0.0
1070
   173
1070
     1
1070
   179
1070
     1
1070
   271
1070
     1
1002
}
  0
DIMENSION
  5
625B1
102
{ACAD_XDICTIONARY
360
625C0
102
}
102
{ACAD_REACTORS
330
625C1
102
}
330
1F
100
AcDbEntity
  8
AM_5
100
AcDbDimension
  2
*D204
 10
263.0188584965363
 20
195.7809626849503
 30
0.0
 11
257.3321918298696
 21
198.8809626849502
 31
0.0
 70
    32
 71
     5
 42
1.600000000002182
  3
SYS$0
100
AcDbAlignedDimension
 13
264.6188584965385
 23
185.7809626849503
 33
0.0
 14
263.0188584965363
 24
185.7809626849503
 34
0.0
100
AcDbRotatedDimension
1001
ACAD
1000
DSTYLE
1002
{
1070
    49
1040
0.0
1070
   173
1070
     1
1070
   179
1070
     1
1070
   271
1070
     1
1002
}
  0
DIMENSION
  5
625D6
102
{ACAD_XDICTIONARY
360
625E5
102
}
102
{ACAD_REACTORS
330
625E6
102
}
330
1F
100
AcDbEntity
  8
AM_5
100
AcDbDimension
  2
*D205
 10
265.1188584965384
 20
195.7809626849393
 30
0.0
 11
270.9655251632051
 21
198.8809626849393
 31
0.0
 70
    32
 71
     5
 42
0.5
  3
SYS$0
100
AcDbAlignedDimension
 13
264.6188584965385
 23
185.7809626849503
 33
0.0
 14
265.1188584965384
 24
183.2809626849503
 34
0.0
100
AcDbRotatedDimension
1001
ACAD
1000
DSTYLE
1002
{
1070
    49
1040
0.0
1070
   173
1070
     1
1070
   179
1070
     1
1070
   271
1070
     1
1002
}
  0
XLINE
  5
625F3
330
1F
100
AcDbEntity
  8
AM_CL
100
AcDbXline
 10
19260.09141568188
 20
17198.79727084974
 30
0.0
 11
1.0
 21
0.0
 31
0.0
  0
ENDSEC
  0
SECTION
  2
OBJECTS
  0
DICTIONARY
  5
C
330
0
100
AcDbDictionary
281
     1
  3
ACAD_2007HEADERVARS_RT
350
6271E
  3
ACAD_BGPLOT_KEY
350
AB06
  3
ACAD_COLOR
350
A91D
  3
ACAD_GROUP
350
D
  3
ACAD_LAYOUT
350
1A
  3
ACAD_MATERIAL
350
A91C
  3
ACAD_MLEADERSTYLE
350
59D51
  3
ACAD_MLINESTYLE
350
17
  3
ACAD_PLOTSETTINGS
350
19
  3
ACAD_PLOTSTYLENAME
350
E
  3
ACAD_SCALELIST
350
59D2F
  3
ACAD_TABLESTYLE
350
AAB9
  3
ACAD_VISUALSTYLE
350
28F09
  3
AcAsAppObject
350
3DA1
  3
ACASGREF_MASTER
350
3DE9
  3
ACDB_RECOMPOSE_DATA
350
5AA16
  3
AcDbVariableDictionary
350
34
  3
AcmDictionary
350
47
  3
AD_GREF_MODULE
350
3DEA
  3
AD_MAPI_MODULE
350
3E06
  3
AMG
350
2B
  3
AMGSNAPSETTINGS
350
7D
  3
ASE_INDEX_DICTIONARY
350
1D158
  3
DWGPROPS
350
6271D
  3
MAPISURF_MODULE
350
3DEB
  0
DICTIONARY
  5
612CA
330
8
100
AcDbDictionary
280
     1
281
     1
  0
DICTIONARY
  5
3F95
330
2
100
AcDbDictionary
280
     1
281
     1
  3
ACAD_LAYERFILTERS
360
AF79
  3
ACAD_LAYERSTATES
360
3F96
  3
ACLYDICTIONARY
360
AF78
  3
AMLAYER_GROUPCOLORS
360
AAB4
  0
DICTIONARY
  5
5A9C4
330
10
100
AcDbDictionary
280
     1
281
     1
  3
ADSK_XREC_LAYER_RECONCILED
360
5A9C5
  0
DICTIONARY
  5
5A9C6
330
5F85
100
AcDbDictionary
280
     1
281
     1
  3
ADSK_XREC_LAYER_RECONCILED
360
5A9C7
  0
DICTIONARY
  5
5A9C8
330
AC9F
100
AcDbDictionary
280
     1
281
     1
  3
ADSK_XREC_LAYER_RECONCILED
360
5A9C9
  0
DICTIONARY
  5
5A9CA
330
ACA0
100
AcDbDictionary
280
     1
281
     1
  3
ADSK_XREC_LAYER_RECONCILED
360
5A9CB
  0
DICTIONARY
  5
5A9CC
330
ACA1
100
AcDbDictionary
280
     1
281
     1
  3
ADSK_XREC_LAYER_RECONCILED
360
5A9CD
  0
DICTIONARY
  5
5A9CE
330
ACC8
100
AcDbDictionary
280
     1
281
     1
  3
ADSK_XREC_LAYER_RECONCILED
360
5A9CF
  0
DICTIONARY
  5
5A9D0
330
ACC9
100
AcDbDictionary
280
     1
281
     1
  3
ADSK_XREC_LAYER_RECONCILED
360
5A9D1
  0
DICTIONARY
  5
5A9D2
330
ACCA
100
AcDbDictionary
280
     1
281
     1
  3
ADSK_XREC_LAYER_RECONCILED
360
5A9D3
  0
DICTIONARY
  5
5A9D4
330
AD64
100
AcDbDictionary
280
     1
281
     1
  3
ADSK_XREC_LAYER_RECONCILED
360
5A9D5
  0
DICTIONARY
  5
5A9D6
330
AD67
100
AcDbDictionary
280
     1
281
     1
  3
ADSK_XREC_LAYER_RECONCILED
360
5A9D7
  0
DICTIONARY
  5
5A9D8
330
AD68
100
AcDbDictionary
280
     1
281
     1
  3
ADSK_XREC_LAYER_RECONCILED
360
5A9D9
  0
DICTIONARY
  5
5A9DA
330
AD69
100
AcDbDictionary
280
     1
281
     1
  3
ADSK_XREC_LAYER_RECONCILED
360
5A9DB
  0
DICTIONARY
  5
5A9E2
330
C67E
100
AcDbDictionary
280
     1
281
     1
  3
ADSK_XREC_LAYER_RECONCILED
360
5A9E3
  0
DICTIONARY
  5
5A9E4
330
C67F
100
AcDbDictionary
280
     1
281
     1
  3
ADSK_XREC_LAYER_RECONCILED
360
5A9E5
  0
DICTIONARY
  5
5AA06
330
3101A
100
AcDbDictionary
280
     1
281
     1
  3
ADSK_XREC_LAYER_RECONCILED
360
5AA07
  0
DICTIONARY
  5
8A
330
1F
100
AcDbDictionary
280
     1
281
     1
  3
ACAD_SORTENTS
360
1DD48
  0
DICTIONARY
  5
622FE
330
612A8
100
AcDbDictionary
280
     1
281
     1
  3
ACAD_SORTENTS
360
623D6
  0
DICTIONARY
  5
622EC
330
612B2
100
AcDbDictionary
280
     1
281
     1
  3
ACAD_SORTENTS
360
626FB
  0
DICTIONARY
  5
62310
330
612BC
100
AcDbDictionary
280
     1
281
     1
  3
ACAD_SORTENTS
360
6270C
  0
DICTIONARY
  5
62550
330
62543
100
AcDbDictionary
280
     1
281
     1
  3
ACAD_DIMASSOC
360
62551
  0
DICTIONARY
  5
6259D
330
62591
100
AcDbDictionary
280
     1
281
     1
  3
ACAD_DIMASSOC
360
6259E
  0
DICTIONARY
  5
625C0
330
625B1
100
AcDbDictionary
280
     1
281
     1
  3
ACAD_DIMASSOC
360
625C1
  0
DICTIONARY
  5
625E5
330
625D6
100
AcDbDictionary
280
     1
281
     1
  3
ACAD_DIMASSOC
360
625E6
  0
DICTIONARY
  5
6271E
102
{ACAD_REACTORS
330
C
102
}
330
C
100
AcDbDictionary
281
     1
  3
DIMARCSYM
350
62720
  3
DIMFXL
350
6271F
  0
DICTIONARY
  5
AB06
102
{ACAD_REACTORS
330
C
102
}
330
C
100
AcDbDictionary
280
     1
281
     1
  0
DICTIONARY
  5
A91D
102
{ACAD_REACTORS
330
C
102
}
330
C
100
AcDbDictionary
281
     1
  0
DICTIONARY
  5
D
102
{ACAD_REACTORS
330
C
102
}
330
C
100
AcDbDictionary
281
     1
  0
DICTIONARY
  5
1A
102
{ACAD_REACTORS
330
C
102
}
330
C
100
AcDbDictionary
281
     1
  3
Model
350
22
  3
ﾚｲｱｳﾄ1
350
1E
  3
ﾚｲｱｳﾄ2
350
26
  0
DICTIONARY
  5
A91C
102
{ACAD_REACTORS
330
C
102
}
330
C
100
AcDbDictionary
281
     1
  3
ByBlock
350
28F07
  3
ByLayer
350
28F06
  3
Global
350
28F08
  0
DICTIONARY
  5
59D51
102
{ACAD_REACTORS
330
C
102
}
330
C
100
AcDbDictionary
281
     1
  3
Standard
350
59D52
  0
DICTIONARY
  5
17
102
{ACAD_REACTORS
330
C
102
}
330
C
100
AcDbDictionary
281
     1
  3
Standard
350
18
  0
DICTIONARY
  5
19
102
{ACAD_REACTORS
330
C
102
}
330
C
100
AcDbDictionary
281
     1
  3
01   A1　１：１
350
1F6A7
  3
02   A2　１：１
350
1F6A8
  3
03   A3　１：１
350
1F6A9
  3
04   A4  １：１
350
1F6AA
  3
05   A1 自動調整
350
1F6AB
  3
06   A2 自動調整
350
1F6AC
  3
07   A3 自動調整
350
1F6AD
  3
08   A4 自動調整
350
1F6AE
  3
09   A1をA3に
350
1F6AF
  3
10   A2をA3に
350
1F6B0
  0
ACDBDICTIONARYWDFLT
  5
E
102
{ACAD_REACTORS
330
C
102
}
330
C
100
AcDbDictionary
281
     1
  3
Normal
350
F
100
AcDbDictionaryWithDefault
340
F
  0
DICTIONARY
  5
59D2F
102
{ACAD_REACTORS
330
C
102
}
330
C
100
AcDbDictionary
281
     1
  3
A0
350
59D30
  3
A1
350
59D31
  3
A2
350
59D32
  3
A3
350
59D33
  3
A4
350
59D34
  3
A5
350
59D35
  3
A6
350
59D36
  3
A7
350
59D37
  3
A8
350
59D38
  3
A9
350
59D39
  3
B0
350
59D3A
  3
B1
350
59D3B
  3
B2
350
59D3C
  3
B3
350
59D3D
  3
B4
350
59D3E
  3
B5
350
59D3F
  3
B6
350
59D40
  3
B7
350
59D41
  3
B8
350
59D42
  3
B9
350
59D43
  3
C0
350
59D44
  3
C1
350
59D45
  3
C2
350
59D46
  3
C3
350
59D47
  3
C4
350
59D48
  3
C5
350
59D49
  3
C6
350
59D4A
  3
C7
350
59D4B
  3
C8
350
59D4C
  3
C9
350
59D4D
  3
D0
350
59D4E
  3
D1
350
59D4F
  3
D2
350
59D50
  0
DICTIONARY
  5
AAB9
102
{ACAD_REACTORS
330
C
102
}
330
C
100
AcDbDictionary
281
     1
  3
Standard
350
AABA
  0
DICTIONARY
  5
28F09
102
{ACAD_REACTORS
330
C
102
}
330
C
100
AcDbDictionary
281
     1
  3
2dWireframe
350
28F0F
  3
3D Hidden
350
28F11
  3
3dWireframe
350
28F10
  3
Basic
350
28F0E
  3
Brighten
350
28F15
  3
ColorChange
350
28F19
  3
Conceptual
350
28F12
  3
Dim
350
28F14
  3
Facepattern
350
28F18
  3
Flat
350
28F0A
  3
FlatWithEdges
350
28F0B
  3
Gouraud
350
28F0C
  3
GouraudWithEdges
350
28F0D
  3
Linepattern
350
28F17
  3
Realistic
350
28F13
  3
Thicken
350
28F16
  0
ACAD_PROXY_OBJECT
  5
3DA1
102
{ACAD_REACTORS
330
C
102
}
330
C
100
AcDbProxyObject
 90
      499
 91
      576
 95
   917527
 70
     0
 93
       10
310
407F
 94
        0
1001
ACAD
1000
AcRTDxfName
1000
ASAPP
  0
ACAD_PROXY_OBJECT
  5
3DE9
102
{ACAD_REACTORS
330
C
102
}
330
C
100
AcDbProxyObject
 90
      499
 91
      581
 95
   917527
 70
     0
 93
       34
310
010000407F
 94
        0
1001
ACAD
1000
AcRTDxfName
1000
ACASGREFMASTER
  0
XRECORD
  5
5AA16
102
{ACAD_REACTORS
330
C
102
}
330
C
100
AcDbXrecord
280
     1
 90
        1
330
AABA
  0
DICTIONARY
  5
34
102
{ACAD_REACTORS
330
C
102
}
330
C
100
AcDbDictionary
281
     1
  3
CANNOSCALE
350
5AA19
  3
CMLEADERSTYLE
350
5AA17
  3
CTABLESTYLE
350
AAF3
  3
DIMASSOC
350
A10C
  3
FIELDEVAL
350
AB07
  3
INDEXCTL
350
35
  3
LIGHTINGUNITS
350
5AA1A
  3
MSLTSCALE
350
5AA18
  3
SORTENTS
350
194C
  0
DICTIONARY
  5
47
102
{ACAD_REACTORS
330
C
102
}
330
C
100
AcDbDictionary
281
     1
  3
AcmBOM
350
7E8
  3
AcmStdDictionary
350
4C
  3
AMDTSECTSYM_ARROWCOLOR
350
A929
  0
ACAD_PROXY_OBJECT
  5
3DEA
102
{ACAD_REACTORS
330
C
102
}
330
C
100
AcDbProxyObject
 90
      499
 91
      582
 95
   917527
 70
     0
 93
      114
310
00000043800000000000000000003F
 94
        0
1001
ACAD
1000
AcRTDxfName
1000
ACADGREFMODULE
  0
ACAD_PROXY_OBJECT
  5
3E06
102
{ACAD_REACTORS
330
C
102
}
330
C
100
AcDbProxyObject
 90
      499
 91
      594
 95
   917527
 70
     0
 93
       34
310
05000044FF
 94
        0
1001
ACAD
1000
AcRTDxfName
1000
MAPIADMODULE
  0
DICTIONARY
  5
2B
102
{ACAD_REACTORS
330
C
102
}
330
C
100
AcDbDictionary
281
     1
  0
DICTIONARY
  5
7D
102
{ACAD_REACTORS
330
C
102
}
330
C
100
AcDbDictionary
281
     1
  0
DICTIONARY
  5
1D158
102
{ACAD_REACTORS
330
C
102
}
330
C
100
AcDbDictionary
281
     1
  3
ASEBlockHierarchyIndexRecord
350
1D159
1001
DCO15
1040
1542989698.437
  0
XRECORD
  5
6271D
102
{ACAD_REACTORS
330
C
102
}
330
C
100
AcDbXrecord
280
     1
  1
DWGPROPS COOKIE
  2

  3

  4

  6

  7

  8
Administrator
  9

300
AmdtFileType=84
301
=
302
=
303
=
304
=
305
=
306
=
307
=
308
=
309
=
 40
12.98572145833333
 41
2453661.860417026
 42
2456687.710082824
  1

 90
        1
  0
ACAD_PROXY_OBJECT
  5
3DEB
102
{ACAD_REACTORS
330
C
102
}
330
C
100
AcDbProxyObject
 90
      499
 91
      583
 95
   917527
 70
     0
 93
        8
310
047E
 94
        0
1001
ACAD
1000
AcRTDxfName
1000
AMDTMAPISURFMOUDULE
  0
DICTIONARY
  5
AF79
102
{ACAD_REACTORS
330
3F95
102
}
330
3F95
100
AcDbDictionary
281
     1
  0
DICTIONARY
  5
3F96
102
{ACAD_REACTORS
330
3F95
102
}
330
3F95
100
AcDbDictionary
281
     1
  3
20011210
350
3FB7
  0
DICTIONARY
  5
AF78
102
{ACAD_REACTORS
330
3F95
102
}
330
3F95
100
AcDbDictionary
281
     1
1001
ACAD
1000
<All
  0
DICTIONARY
  5
AAB4
102
{ACAD_REACTORS
330
3F95
102
}
330
3F95
100
AcDbDictionary
280
     1
281
     1
  0
XRECORD
  5
5A9C5
102
{ACAD_REACTORS
330
5A9C4
102
}
330
5A9C4
100
AcDbXrecord
280
     1
290
     1
  0
XRECORD
  5
5A9C7
102
{ACAD_REACTORS
330
5A9C6
102
}
330
5A9C6
100
AcDbXrecord
280
     1
290
     1
  0
XRECORD
  5
5A9C9
102
{ACAD_REACTORS
330
5A9C8
102
}
330
5A9C8
100
AcDbXrecord
280
     1
290
     1
  0
XRECORD
  5
5A9CB
102
{ACAD_REACTORS
330
5A9CA
102
}
330
5A9CA
100
AcDbXrecord
280
     1
290
     1
  0
XRECORD
  5
5A9CD
102
{ACAD_REACTORS
330
5A9CC
102
}
330
5A9CC
100
AcDbXrecord
280
     1
290
     1
  0
XRECORD
  5
5A9CF
102
{ACAD_REACTORS
330
5A9CE
102
}
330
5A9CE
100
AcDbXrecord
280
     1
290
     1
  0
XRECORD
  5
5A9D1
102
{ACAD_REACTORS
330
5A9D0
102
}
330
5A9D0
100
AcDbXrecord
280
     1
290
     1
  0
XRECORD
  5
5A9D3
102
{ACAD_REACTORS
330
5A9D2
102
}
330
5A9D2
100
AcDbXrecord
280
     1
290
     1
  0
XRECORD
  5
5A9D5
102
{ACAD_REACTORS
330
5A9D4
102
}
330
5A9D4
100
AcDbXrecord
280
     1
290
     1
  0
XRECORD
  5
5A9D7
102
{ACAD_REACTORS
330
5A9D6
102
}
330
5A9D6
100
AcDbXrecord
280
     1
290
     1
  0
XRECORD
  5
5A9D9
102
{ACAD_REACTORS
330
5A9D8
102
}
330
5A9D8
100
AcDbXrecord
280
     1
290
     1
  0
XRECORD
  5
5A9DB
102
{ACAD_REACTORS
330
5A9DA
102
}
330
5A9DA
100
AcDbXrecord
280
     1
290
     1
  0
XRECORD
  5
5A9E3
102
{ACAD_REACTORS
330
5A9E2
102
}
330
5A9E2
100
AcDbXrecord
280
     1
290
     1
  0
XRECORD
  5
5A9E5
102
{ACAD_REACTORS
330
5A9E4
102
}
330
5A9E4
100
AcDbXrecord
280
     1
290
     1
  0
XRECORD
  5
5AA07
102
{ACAD_REACTORS
330
5AA06
102
}
330
5AA06
100
AcDbXrecord
280
     1
290
     1
  0
SORTENTSTABLE
  5
1DD48
102
{ACAD_REACTORS
330
8A
102
}
330
8A
100
AcDbSortentsTable
330
1F
  0
SORTENTSTABLE
  5
623D6
102
{ACAD_REACTORS
330
622FE
102
}
330
622FE
100
AcDbSortentsTable
330
612A8
  0
SORTENTSTABLE
  5
626FB
102
{ACAD_REACTORS
330
622EC
102
}
330
622EC
100
AcDbSortentsTable
330
612B2
  0
SORTENTSTABLE
  5
6270C
102
{ACAD_REACTORS
330
62310
102
}
330
62310
100
AcDbSortentsTable
330
612BC
  0
DIMASSOC
  5
62551
102
{ACAD_REACTORS
330
62550
102
}
330
62550
100
AcDbDimAssoc
330
62543
 90
        3
 70
     0
 71
     0
  1
AcDbOsnapPointRef
 72
     1
331
61A04
 73
     0
 91
        0
 40
0.0
 10
0.0
 20
0.0
 30
2.000000000000000E+50
 75
     0
  1
AcDbOsnapPointRef
 72
    13
331
61A08
 73
     0
 91
        0
 40
0.0
 10
0.0
 20
0.0
 30
2.000000000000000E+50
 75
     0
  0
DIMASSOC
  5
6259E
102
{ACAD_REACTORS
330
6259D
102
}
330
6259D
100
AcDbDimAssoc
330
62591
 90
        2
 70
     0
 71
     0
  1
AcDbOsnapPointRef
 72
     3
331
619AA
 73
     2
 91
        0
 40
0.0
 10
0.0
 20
0.0
 30
0.0
 75
     0
  0
DIMASSOC
  5
625C1
102
{ACAD_REACTORS
330
625C0
102
}
330
625C0
100
AcDbDimAssoc
330
625B1
 90
        1
 70
     0
 71
     0
  1
AcDbOsnapPointRef
 72
    13
331
619BD
 73
     0
 91
        0
 40
0.0
 10
0.0
 20
0.0
 30
2.000000000000000E+50
 75
     0
  0
DIMASSOC
  5
625E6
102
{ACAD_REACTORS
330
625E5
102
}
330
625E5
100
AcDbDimAssoc
330
625D6
 90
        2
 70
     0
 71
     0
  1
AcDbOsnapPointRef
 72
    13
331
61A1A
 73
     0
 91
        0
 40
0.0
 10
0.0
 20
0.0
 30
2.000000000000000E+50
 75
     0
  0
XRECORD
  5
62720
102
{ACAD_REACTORS
330
6271E
102
}
330
6271E
100
AcDbXrecord
280
     1
 70
     1
  0
XRECORD
  5
6271F
102
{ACAD_REACTORS
330
6271E
102
}
330
6271E
100
AcDbXrecord
280
     1
 40
0.0
  0
LAYOUT
  5
22
102
{ACAD_XDICTIONARY
360
62723
102
}
102
{ACAD_REACTORS
330
1A
102
}
330
1A
100
AcDbPlotSettings
  1

  2
Adobe PDF
  4
A3
  6
AM_VIEW1
 40
3.174999952316284
 41
3.174999952316284
 42
3.17498779296875
 43
3.17498779296875
 44
297.0318298339844
 45
420.1583251953125
 46
-3.159078955650329
 47
-3.095831274986267
 48
0.0000007332273526
 49
0.0
140
420.0000007332273
141
297.0
142
1.0
143
1.0
 70
  3748
 72
     1
 73
     1
 74
     4
  7
monochrome.ctb
 75
     0
147
0.9787267410393917
148
-0.0000007332273526
149
0.0
100
AcDbLayout
  1
Model
 70
     1
 71
     0
 10
0.0
 20
0.0
 11
12.0
 21
9.0
 12
0.0
 22
0.0
 32
0.0
 14
0.0
 24
0.0
 34
0.0
 15
0.0
 25
0.0
 35
0.0
146
0.0
 13
0.0
 23
0.0
 33
0.0
 16
1.0
 26
0.0
 36
0.0
 17
0.0
 27
1.0
 37
0.0
 76
     0
330
1F
331
28F04
1001
ACAD_PSEXT
1000
Adobe PDF
1000
Adobe PDF Converter
1000
My Documents\*.pdf
1000

1070
     0
  0
LAYOUT
  5
1E
102
{ACAD_XDICTIONARY
360
62721
102
}
102
{ACAD_REACTORS
330
1A
102
}
330
1A
100
AcDbPlotSettings
  1

  2
\\ML370\XEROX
  4
A4
  6

 40
3.174999952316284
 41
3.174999952316284
 42
3.175003051757812
 43
3.17498779296875
 44
209.8674926757813
 45
296.6719970703125
 46
0.0
 47
0.0
 48
0.0
 49
0.0
140
0.0
141
0.0
142
1.0
143
1.0
 70
   688
 72
     1
 73
     1
 74
     5
  7
monochrome.ctb
 75
    16
147
1.0
148
0.0
149
0.0
100
AcDbLayout
  1
ﾚｲｱｳﾄ1
 70
     1
 71
     1
 10
-3.17498779296875
 20
-3.174999952316284
 11
293.4970092773438
 21
206.692492723465
 12
0.0
 22
0.0
 32
0.0
 14
1.000000000000000E+20
 24
1.000000000000000E+20
 34
1.000000000000000E+20
 15
-1.000000000000000E+20
 25
-1.000000000000000E+20
 35
-1.000000000000000E+20
146
0.0
 13
0.0
 23
0.0
 33
0.0
 16
1.0
 26
0.0
 36
0.0
 17
0.0
 27
1.0
 37
0.0
 76
     0
330
1B
  0
LAYOUT
  5
26
102
{ACAD_XDICTIONARY
360
62725
102
}
102
{ACAD_REACTORS
330
1A
102
}
330
1A
100
AcDbPlotSettings
  1

  2
\\ML370\XEROX
  4

  6

 40
0.0
 41
0.0
 42
0.0
 43
0.0
 44
0.0
 45
0.0
 46
0.0
 47
0.0
 48
0.0
 49
0.0
140
0.0
141
0.0
142
1.0
143
1.0
 70
   688
 72
     0
 73
     0
 74
     5
  7
monochrome.ctb
 75
    16
147
1.0
148
0.0
149
0.0
100
AcDbLayout
  1
ﾚｲｱｳﾄ2
 70
     1
 71
     2
 10
0.0
 20
0.0
 11
12.0
 21
9.0
 12
0.0
 22
0.0
 32
0.0
 14
0.0
 24
0.0
 34
0.0
 15
0.0
 25
0.0
 35
0.0
146
0.0
 13
0.0
 23
0.0
 33
0.0
 16
1.0
 26
0.0
 36
0.0
 17
0.0
 27
1.0
 37
0.0
 76
     0
330
23
  0
MATERIAL
  5
28F07
102
{ACAD_XDICTIONARY
360
6273E
102
}
102
{ACAD_REACTORS
330
A91C
102
}
330
A91C
100
AcDbMaterial
  1
ByBlock
  0
MATERIAL
  5
28F06
102
{ACAD_XDICTIONARY
360
6273C
102
}
102
{ACAD_REACTORS
330
A91C
102
}
330
A91C
100
AcDbMaterial
  1
ByLayer
  0
MATERIAL
  5
28F08
102
{ACAD_XDICTIONARY
360
62740
102
}
102
{ACAD_REACTORS
330
A91C
102
}
330
A91C
100
AcDbMaterial
  1
Global
  0
ACAD_PROXY_OBJECT
  5
59D52
102
{ACAD_REACTORS
330
59D51
102
}
330
59D51
100
AcDbProxyObject
 90
      499
 91
      642
 95
  6815769
 70
     0
 93
      744
310
40901902A40600000030400FEFFFFFF8000000000000008102B5E8DC0F42B5CFD095374616E646172640000000000000004102405064068000000C1000000000000000410000000000000004102000000304015D90000000000000C03F00
340
14
340
0
340
11
340
0
 94
        0
1001
ACAD_MLEADERVER
1070
     2
1001
ACAD
1000
AcRTDxfName
1000
MLEADERSTYLE
  0
MLINESTYLE
  5
18
102
{ACAD_REACTORS
330
17
102
}
330
17
100
AcDbMlineStyle
  2
STANDARD
 70
     0
  3

 62
   256
 51
90.0
 52
90.0
 71
     2
 49
0.5
 62
   256
  6
BYLAYER
 49
-0.5
 62
   256
  6
BYLAYER
  0
PLOTSETTINGS
  5
1F6A7
102
{ACAD_XDICTIONARY
360
62728
102
}
102
{ACAD_REACTORS
330
19
102
}
330
19
100
AcDbPlotSettings
  1
01   A1　１：１
  2
\\ML370\Fuji Xerox BT8050(AutoCAD)
  4
User122
  6

 40
3.174999952316284
 41
3.174999952316284
 42
3.17498779296875
 43
3.17498779296875
 44
593.7249755859375
 45
840.6129760742187
 46
145.19
 47
207.13
 48
214.3704939521119
 49
367.5855324241176
140
275.6727856380065
141
407.629191407817
142
1.0
143
1.0
 70
  1716
 72
     1
 73
     1
 74
     2
  7
monochrome.ctb
 75
    16
147
1.0
148
-538.139750291099
149
411.0980235086544
  0
PLOTSETTINGS
  5
1F6A8
102
{ACAD_XDICTIONARY
360
6272A
102
}
102
{ACAD_REACTORS
330
19
102
}
330
19
100
AcDbPlotSettings
  1
02   A2　１：１
  2
\\ML370\Fuji Xerox BT8050(AutoCAD)
  4
User123
  6

 40
3.174999952316284
 41
3.174999952316284
 42
3.17498779296875
 43
3.17498779296875
 44
420.0
 45
594.0
 46
58.33
 47
83.83
 48
214.3704939521119
 49
367.5855324241176
140
275.6727856380065
141
407.629191407817
142
1.0
143
1.0
 70
  1716
 72
     1
 73
     1
 74
     2
  7
monochrome.ctb
 75
    16
147
1.0
148
-538.139750291099
149
411.0980235086544
  0
PLOTSETTINGS
  5
1F6A9
102
{ACAD_XDICTIONARY
360
6272C
102
}
102
{ACAD_REACTORS
330
19
102
}
330
19
100
AcDbPlotSettings
  1
03   A3　１：１
  2
\\ML370\Fuji Xerox BT8050(AutoCAD)
  4
User124
  6

 40
3.174999952316284
 41
3.174999952316284
 42
3.17498779296875
 43
3.17498779296875
 44
297.0
 45
420.0
 46
-3.169999999999999
 47
-3.169999999999999
 48
214.3704939521119
 49
367.5855324241176
140
275.6727856380065
141
407.629191407817
142
1.0
143
1.0
 70
  1716
 72
     1
 73
     1
 74
     2
  7
monochrome.ctb
 75
    16
147
1.0
148
-538.139750291099
149
411.0980235086544
  0
PLOTSETTINGS
  5
1F6AA
102
{ACAD_XDICTIONARY
360
6272E
102
}
102
{ACAD_REACTORS
330
19
102
}
330
19
100
AcDbPlotSettings
  1
04   A4  １：１
  2
\\ML370\Fuji Xerox BT8050(AutoCAD)
  4
User125
  6

 40
3.174999952316284
 41
3.174999952316284
 42
3.175003051757812
 43
3.17498779296875
 44
210.0
 45
297.0
 46
-46.68
 47
-64.67
 48
214.3704939521119
 49
367.5855324241176
140
275.6727856380065
141
407.629191407817
142
1.0
143
1.0
 70
  1716
 72
     1
 73
     1
 74
     2
  7
monochrome.ctb
 75
    16
147
1.0
148
-538.139750291099
149
411.0980235086544
  0
PLOTSETTINGS
  5
1F6AB
102
{ACAD_XDICTIONARY
360
62730
102
}
102
{ACAD_REACTORS
330
19
102
}
330
19
100
AcDbPlotSettings
  1
05   A1 自動調整
  2
\\ML370\Fuji Xerox BT8050(AutoCAD)
  4
User122
  6

 40
3.174999952316284
 41
3.174999952316284
 42
3.17498779296875
 43
3.17498779296875
 44
593.7249755859375
 45
840.6129760742187
 46
0.0
 47
1.77
 48
214.3704939521119
 49
367.5855324241176
140
275.6727856380065
141
407.629191407817
142
1.0
143
0.7150457692181145
 70
  1716
 72
     1
 73
     1
 74
     2
  7
monochrome.ctb
 75
     0
147
1.398511875811077
148
-408.2719444961221
149
-428.6675171947154
  0
PLOTSETTINGS
  5
1F6AC
102
{ACAD_XDICTIONARY
360
62732
102
}
102
{ACAD_REACTORS
330
19
102
}
330
19
100
AcDbPlotSettings
  1
06   A2 自動調整
  2
\\ML370\Fuji Xerox BT8050(AutoCAD)
  4
User123
  6

 40
3.174999952316284
 41
3.174999952316284
 42
3.17498779296875
 43
3.17498779296875
 44
420.0
 45
594.0
 46
0.0
 47
1.32
 48
214.3704939521119
 49
367.5855324241176
140
275.6727856380065
141
407.629191407817
142
1.0
143
1.015351112189439
 70
  1716
 72
     1
 73
     1
 74
     2
  7
monochrome.ctb
 75
     0
147
0.9848809815588451
148
-408.2719444961221
149
-428.6675171947154
  0
PLOTSETTINGS
  5
1F6AD
102
{ACAD_XDICTIONARY
360
62734
102
}
102
{ACAD_REACTORS
330
19
102
}
330
19
100
AcDbPlotSettings
  1
07   A3 自動調整
  2
\\ML370\Fuji Xerox BT8050(AutoCAD)
  4
User124
  6

 40
3.174999952316284
 41
3.174999952316284
 42
3.17498779296875
 43
3.17498779296875
 44
297.0
 45
420.0
 46
0.0
 47
1.29
 48
214.3704939521119
 49
367.5855324241176
140
275.6727856380065
141
407.629191407817
142
1.0
143
1.445036925138428
 70
  1716
 72
     1
 73
     1
 74
     2
  7
monochrome.ctb
 75
     0
147
0.6920238387017023
148
-408.2719444961221
149
-428.6675171947154
  0
PLOTSETTINGS
  5
1F6AE
102
{ACAD_XDICTIONARY
360
62736
102
}
102
{ACAD_REACTORS
330
19
102
}
330
19
100
AcDbPlotSettings
  1
08   A4 自動調整
  2
\\ML370\Fuji Xerox BT8050(AutoCAD)
  4
User125
  6

 40
3.174999952316284
 41
3.174999952316284
 42
3.175003051757812
 43
3.17498779296875
 44
210.0
 45
297.0
 46
0.0
 47
1.32
 48
214.3704939521119
 49
367.5855324241176
140
275.6727856380065
141
407.629191407817
142
1.0
143
2.062361925831023
 70
  1716
 72
     1
 73
     1
 74
     2
  7
monochrome.ctb
 75
     0
147
0.484880945228395
148
-408.2719444961221
149
-428.6675171947154
  0
PLOTSETTINGS
  5
1F6AF
102
{ACAD_XDICTIONARY
360
62738
102
}
102
{ACAD_REACTORS
330
19
102
}
330
19
100
AcDbPlotSettings
  1
09   A1をA3に
  2
\\ML370\Fuji Xerox BT8050(AutoCAD)
  4
User124
  6

 40
3.174999952316284
 41
3.174999952316284
 42
3.17498779296875
 43
3.17498779296875
 44
297.0
 45
420.0
 46
-3.169999999999999
 47
-3.419999999999999
 48
214.3704939521119
 49
367.5855324241176
140
275.6727856380065
141
407.629191407817
142
1.0
143
20.0
 70
  1716
 72
     1
 73
     1
 74
     2
  7
monochrome.ctb
 75
    22
147
0.05
148
-66.24202774817149
149
-81.38953477958603
  0
PLOTSETTINGS
  5
1F6B0
102
{ACAD_XDICTIONARY
360
6273A
102
}
102
{ACAD_REACTORS
330
19
102
}
330
19
100
AcDbPlotSettings
  1
10   A2をA3に
  2
\\ML370\Fuji Xerox BT8050(AutoCAD)
  4
User124
  6

 40
3.174999952316284
 41
3.174999952316284
 42
3.17498779296875
 43
3.17498779296875
 44
297.0
 45
420.0
 46
-3.189999999999999
 47
-3.22
 48
214.3704939521119
 49
367.5855324241176
140
275.6727856380065
141
407.629191407817
142
1.0
143
1.414
 70
  1700
 72
     1
 73
     1
 74
     2
  7
monochrome.ctb
 75
     0
147
0.7072135785007072
148
-408.2719444961221
149
-428.6675171947154
  0
ACDBPLACEHOLDER
  5
F
102
{ACAD_REACTORS
330
E
102
}
330
E
  0
ACAD_PROXY_OBJECT
  5
59D30
102
{ACAD_REACTORS
330
59D2F
102
}
330
59D2F
100
AcDbProxyObject
 90
      499
 91
      641
 95
  6815769
 70
     0
 93
       49
310
904313A31005FF
 94
        0
1001
ACAD
1000
AcRTDxfName
1000
SCALE
  0
ACAD_PROXY_OBJECT
  5
59D31
102
{ACAD_REACTORS
330
59D2F
102
}
330
59D2F
100
AcDbProxyObject
 90
      499
 91
      641
 95
  6815769
 70
     0
 93
      113
310
904313A3200400000000000000407F
 94
        0
1001
ACAD
1000
AcRTDxfName
1000
SCALE
  0
ACAD_PROXY_OBJECT
  5
59D32
102
{ACAD_REACTORS
330
59D2F
102
}
330
59D2F
100
AcDbProxyObject
 90
      499
 91
      641
 95
  6815769
 70
     0
 93
      113
310
904313A3400400000000000010407F
 94
        0
1001
ACAD
1000
AcRTDxfName
1000
SCALE
  0
ACAD_PROXY_OBJECT
  5
59D33
102
{ACAD_REACTORS
330
59D2F
102
}
330
59D2F
100
AcDbProxyObject
 90
      499
 91
      641
 95
  6815769
 70
     0
 93
      113
310
904313A3500400000000000014407F
 94
        0
1001
ACAD
1000
AcRTDxfName
1000
SCALE
  0
ACAD_PROXY_OBJECT
  5
59D34
102
{ACAD_REACTORS
330
59D2F
102
}
330
59D2F
100
AcDbProxyObject
 90
      499
 91
      641
 95
  6815769
 70
     0
 93
      113
310
904313A3800400000000000020407F
 94
        0
1001
ACAD
1000
AcRTDxfName
1000
SCALE
  0
ACAD_PROXY_OBJECT
  5
59D35
102
{ACAD_REACTORS
330
59D2F
102
}
330
59D2F
100
AcDbProxyObject
 90
      499
 91
      641
 95
  6815769
 70
     0
 93
      121
310
905313A313000400000000000024407F
 94
        0
1001
ACAD
1000
AcRTDxfName
1000
SCALE
  0
ACAD_PROXY_OBJECT
  5
59D36
102
{ACAD_REACTORS
330
59D2F
102
}
330
59D2F
100
AcDbProxyObject
 90
      499
 91
      641
 95
  6815769
 70
     0
 93
      121
310
905313A313600400000000000030407F
 94
        0
1001
ACAD
1000
AcRTDxfName
1000
SCALE
  0
ACAD_PROXY_OBJECT
  5
59D37
102
{ACAD_REACTORS
330
59D2F
102
}
330
59D2F
100
AcDbProxyObject
 90
      499
 91
      641
 95
  6815769
 70
     0
 93
      121
310
905313A323000400000000000034407F
 94
        0
1001
ACAD
1000
AcRTDxfName
1000
SCALE
  0
ACAD_PROXY_OBJECT
  5
59D38
102
{ACAD_REACTORS
330
59D2F
102
}
330
59D2F
100
AcDbProxyObject
 90
      499
 91
      641
 95
  6815769
 70
     0
 93
      121
310
905313A33300040000000000003E407F
 94
        0
1001
ACAD
1000
AcRTDxfName
1000
SCALE
  0
ACAD_PROXY_OBJECT
  5
59D39
102
{ACAD_REACTORS
330
59D2F
102
}
330
59D2F
100
AcDbProxyObject
 90
      499
 91
      641
 95
  6815769
 70
     0
 93
      121
310
905313A343000400000000000044407F
 94
        0
1001
ACAD
1000
AcRTDxfName
1000
SCALE
  0
ACAD_PROXY_OBJECT
  5
59D3A
102
{ACAD_REACTORS
330
59D2F
102
}
330
59D2F
100
AcDbProxyObject
 90
      499
 91
      641
 95
  6815769
 70
     0
 93
      121
310
905313A353000400000000000049407F
 94
        0
1001
ACAD
1000
AcRTDxfName
1000
SCALE
  0
ACAD_PROXY_OBJECT
  5
59D3B
102
{ACAD_REACTORS
330
59D2F
102
}
330
59D2F
100
AcDbProxyObject
 90
      499
 91
      641
 95
  6815769
 70
     0
 93
      129
310
906313A31303000400000000000059407F
 94
        0
1001
ACAD
1000
AcRTDxfName
1000
SCALE
  0
ACAD_PROXY_OBJECT
  5
59D3C
102
{ACAD_REACTORS
330
59D2F
102
}
330
59D2F
100
AcDbProxyObject
 90
      499
 91
      641
 95
  6815769
 70
     0
 93
      113
310
904323A3100000000000000001017F
 94
        0
1001
ACAD
1000
AcRTDxfName
1000
SCALE
  0
ACAD_PROXY_OBJECT
  5
59D3D
102
{ACAD_REACTORS
330
59D2F
102
}
330
59D2F
100
AcDbProxyObject
 90
      499
 91
      641
 95
  6815769
 70
     0
 93
      113
310
904343A3100000000000000041017F
 94
        0
1001
ACAD
1000
AcRTDxfName
1000
SCALE
  0
ACAD_PROXY_OBJECT
  5
59D3E
102
{ACAD_REACTORS
330
59D2F
102
}
330
59D2F
100
AcDbProxyObject
 90
      499
 91
      641
 95
  6815769
 70
     0
 93
      113
310
904383A3100000000000000081017F
 94
        0
1001
ACAD
1000
AcRTDxfName
1000
SCALE
  0
ACAD_PROXY_OBJECT
  5
59D3F
102
{ACAD_REACTORS
330
59D2F
102
}
330
59D2F
100
AcDbProxyObject
 90
      499
 91
      641
 95
  6815769
 70
     0
 93
      121
310
90531303A3100000000000000091017F
 94
        0
1001
ACAD
1000
AcRTDxfName
1000
SCALE
  0
ACAD_PROXY_OBJECT
  5
59D40
102
{ACAD_REACTORS
330
59D2F
102
}
330
59D2F
100
AcDbProxyObject
 90
      499
 91
      641
 95
  6815769
 70
     0
 93
      129
310
9063130303A3100000000000000165017F
 94
        0
1001
ACAD
1000
AcRTDxfName
1000
SCALE
  0
ACAD_PROXY_OBJECT
  5
59D41
102
{ACAD_REACTORS
330
59D2F
102
}
330
59D2F
100
AcDbProxyObject
 90
      499
 91
      641
 95
  6815769
 70
     0
 93
      265
310
90F312F31323822203D2031272D302200000000000000200FC00000000000028407F
 94
        0
1001
ACAD
1000
AcRTDxfName
1000
SCALE
  0
ACAD_PROXY_OBJECT
  5
59D42
102
{ACAD_REACTORS
330
59D2F
102
}
330
59D2F
100
AcDbProxyObject
 90
      499
 91
      641
 95
  6815769
 70
     0
 93
      257
310
90E312F363422203D2031272D302200000000000000240FC00000000000028407F
 94
        0
1001
ACAD
1000
AcRTDxfName
1000
SCALE
  0
ACAD_PROXY_OBJECT
  5
59D43
102
{ACAD_REACTORS
330
59D2F
102
}
330
59D2F
100
AcDbProxyObject
 90
      499
 91
      641
 95
  6815769
 70
     0
 93
      257
310
90E312F333222203D2031272D302200000000000000280FC00000000000028407F
 94
        0
1001
ACAD
1000
AcRTDxfName
1000
SCALE
  0
ACAD_PROXY_OBJECT
  5
59D44
102
{ACAD_REACTORS
330
59D2F
102
}
330
59D2F
100
AcDbProxyObject
 90
      499
 91
      641
 95
  6815769
 70
     0
 93
      257
310
90E312F313622203D2031272D3022000000000000002C0FC00000000000028407F
 94
        0
1001
ACAD
1000
AcRTDxfName
1000
SCALE
  0
ACAD_PROXY_OBJECT
  5
59D45
102
{ACAD_REACTORS
330
59D2F
102
}
330
59D2F
100
AcDbProxyObject
 90
      499
 91
      641
 95
  6815769
 70
     0
 93
      257
310
90E332F333222203D2031272D3022000000000000002E0FC00000000000028407F
 94
        0
1001
ACAD
1000
AcRTDxfName
1000
SCALE
  0
ACAD_PROXY_OBJECT
  5
59D46
102
{ACAD_REACTORS
330
59D2F
102
}
330
59D2F
100
AcDbProxyObject
 90
      499
 91
      641
 95
  6815769
 70
     0
 93
      249
310
90D312F3822203D2031272D302200000000000000300FC00000000000028407F
 94
        0
1001
ACAD
1000
AcRTDxfName
1000
SCALE
  0
ACAD_PROXY_OBJECT
  5
59D47
102
{ACAD_REACTORS
330
59D2F
102
}
330
59D2F
100
AcDbProxyObject
 90
      499
 91
      641
 95
  6815769
 70
     0
 93
      257
310
90E332F313622203D2031272D302200000000000000320FC00000000000028407F
 94
        0
1001
ACAD
1000
AcRTDxfName
1000
SCALE
  0
ACAD_PROXY_OBJECT
  5
59D48
102
{ACAD_REACTORS
330
59D2F
102
}
330
59D2F
100
AcDbProxyObject
 90
      499
 91
      641
 95
  6815769
 70
     0
 93
      249
310
90D312F3422203D2031272D302200000000000000340FC00000000000028407F
 94
        0
1001
ACAD
1000
AcRTDxfName
1000
SCALE
  0
ACAD_PROXY_OBJECT
  5
59D49
102
{ACAD_REACTORS
330
59D2F
102
}
330
59D2F
100
AcDbProxyObject
 90
      499
 91
      641
 95
  6815769
 70
     0
 93
      249
310
90D332F3822203D2031272D302200000000000000360FC00000000000028407F
 94
        0
1001
ACAD
1000
AcRTDxfName
1000
SCALE
  0
ACAD_PROXY_OBJECT
  5
59D4A
102
{ACAD_REACTORS
330
59D2F
102
}
330
59D2F
100
AcDbProxyObject
 90
      499
 91
      641
 95
  6815769
 70
     0
 93
      249
310
90D312F3222203D2031272D302200000000000000380FC00000000000028407F
 94
        0
1001
ACAD
1000
AcRTDxfName
1000
SCALE
  0
ACAD_PROXY_OBJECT
  5
59D4B
102
{ACAD_REACTORS
330
59D2F
102
}
330
59D2F
100
AcDbProxyObject
 90
      499
 91
      641
 95
  6815769
 70
     0
 93
      249
310
90D332F3422203D2031272D3022000000000000003A0FC00000000000028407F
 94
        0
1001
ACAD
1000
AcRTDxfName
1000
SCALE
  0
ACAD_PROXY_OBJECT
  5
59D4C
102
{ACAD_REACTORS
330
59D2F
102
}
330
59D2F
100
AcDbProxyObject
 90
      499
 91
      641
 95
  6815769
 70
     0
 93
      169
310
90B3122203D2031272D302200400000000000028407F
 94
        0
1001
ACAD
1000
AcRTDxfName
1000
SCALE
  0
ACAD_PROXY_OBJECT
  5
59D4D
102
{ACAD_REACTORS
330
59D2F
102
}
330
59D2F
100
AcDbProxyObject
 90
      499
 91
      641
 95
  6815769
 70
     0
 93
      265
310
90F312D312F3222203D2031272D3022000000000000003E0FC00000000000028407F
 94
        0
1001
ACAD
1000
AcRTDxfName
1000
SCALE
  0
ACAD_PROXY_OBJECT
  5
59D4E
102
{ACAD_REACTORS
330
59D2F
102
}
330
59D2F
100
AcDbProxyObject
 90
      499
 91
      641
 95
  6815769
 70
     0
 93
      233
310
90B3322203D2031272D3022000000000000000210000000000000028407F
 94
        0
1001
ACAD
1000
AcRTDxfName
1000
SCALE
  0
ACAD_PROXY_OBJECT
  5
59D4F
102
{ACAD_REACTORS
330
59D2F
102
}
330
59D2F
100
AcDbProxyObject
 90
      499
 91
      641
 95
  6815769
 70
     0
 93
      233
310
90B3622203D2031272D3022000000000000000610000000000000028407F
 94
        0
1001
ACAD
1000
AcRTDxfName
1000
SCALE
  0
ACAD_PROXY_OBJECT
  5
59D50
102
{ACAD_REACTORS
330
59D2F
102
}
330
59D2F
100
AcDbProxyObject
 90
      499
 91
      641
 95
  6815769
 70
     0
 93
      257
310
90E31272D3022203D2031272D3022000000000000000A10000000000000028407F
 94
        0
1001
ACAD
1000
AcRTDxfName
1000
SCALE
  0
TABLESTYLE
  5
AABA
102
{ACAD_XDICTIONARY
360
5AA14
102
}
102
{ACAD_REACTORS
330
AAB9
102
}
330
AAB9
100
AcDbTableStyle
  3
Standard
 70
     0
 71
     0
 40
1.5
 41
1.5
280
     0
281
     0
  7
STANDARD
140
4.5
170
     2
 62
     0
 63
     7
283
     0
274
    -2
284
     1
 64
     0
275
    -2
285
     1
 65
     0
276
    -2
286
     1
 66
     0
277
    -2
287
     1
 67
     0
278
    -2
288
     1
 68
     0
279
    -2
289
     1
 69
     0
  7
STANDARD
140
6.0
170
     5
 62
     0
 63
     7
283
     0
274
    -2
284
     1
 64
     0
275
    -2
285
     1
 65
     0
276
    -2
286
     1
 66
     0
277
    -2
287
     1
 67
     0
278
    -2
288
     1
 68
     0
279
    -2
289
     1
 69
     0
  7
STANDARD
140
4.5
170
     5
 62
     0
 63
     7
283
     0
274
    -2
284
     1
 64
     0
275
    -2
285
     1
 65
     0
276
    -2
286
     1
 66
     0
277
    -2
287
     1
 67
     0
278
    -2
288
     1
 68
     0
279
    -2
289
     1
 69
     0
  0
VISUALSTYLE
  5
28F0F
102
{ACAD_REACTORS
330
28F09
102
}
330
28F09
100
AcDbVisualStyle
  2
2dWireframe
 70
     4
 71
     0
 72
     2
 73
     0
 90
        0
 40
-0.6
 41
-30.0
 62
     5
 63
     7
 74
     1
 91
        4
 64
     7
 65
   257
 75
     1
175
     1
 42
1.0
 92
        0
 66
   257
 43
1.0
 76
     1
 77
     6
 78
     2
 67
     7
 79
     5
170
     0
171
     0
290
     0
174
     0
 93
        1
 44
0.0
173
     0
291
     0
 45
0.0
1001
ACAD
1000
AcDbSavedByObjectVersion
1070
     0
  0
VISUALSTYLE
  5
28F11
102
{ACAD_REACTORS
330
28F09
102
}
330
28F09
100
AcDbVisualStyle
  2
3D Hidden
 70
     6
 71
     1
 72
     2
 73
     2
 90
        0
 40
-0.6
 41
-30.0
 62
     5
 63
     7
 74
     2
 91
        2
 64
     7
 65
   257
 75
     2
175
     1
 42
40.0
 92
        0
 66
   257
 43
1.0
 76
     1
 77
     6
 78
     2
 67
     7
 79
     3
170
     0
171
     0
290
     0
174
     0
 93
        1
 44
0.0
173
     0
291
     0
 45
0.0
1001
ACAD
1000
AcDbSavedByObjectVersion
1070
     0
  0
VISUALSTYLE
  5
28F10
102
{ACAD_REACTORS
330
28F09
102
}
330
28F09
100
AcDbVisualStyle
  2
3dWireframe
 70
     5
 71
     0
 72
     2
 73
     0
 90
        0
 40
-0.6
 41
-30.0
 62
     5
 63
     7
 74
     1
 91
        4
 64
     7
 65
   257
 75
     1
175
     1
 42
1.0
 92
        0
 66
   257
 43
1.0
 76
     1
 77
     6
 78
     2
 67
     7
 79
     5
170
     0
171
     0
290
     0
174
     0
 93
        1
 44
0.0
173
     0
291
     0
 45
0.0
1001
ACAD
1000
AcDbSavedByObjectVersion
1070
     0
  0
VISUALSTYLE
  5
28F0E
102
{ACAD_REACTORS
330
28F09
102
}
330
28F09
100
AcDbVisualStyle
  2
Basic
 70
     7
 71
     1
 72
     0
 73
     1
 90
        0
 40
-0.6
 41
-30.0
 62
     5
 63
     7
 74
     0
 91
        4
 64
     7
 65
   257
 75
     1
175
     1
 42
1.0
 92
        8
 66
     7
 43
1.0
 76
     1
 77
     6
 78
     2
 67
     7
 79
     5
170
     0
171
     0
290
     0
174
     0
 93
        1
 44
0.0
173
     0
291
     1
 45
0.0
1001
ACAD
1000
AcDbSavedByObjectVersion
1070
     0
  0
VISUALSTYLE
  5
28F15
102
{ACAD_REACTORS
330
28F09
102
}
330
28F09
100
AcDbVisualStyle
  2
Brighten
 70
    12
 71
     2
 72
     2
 73
     0
 90
        0
 40
-0.6
 41
-30.0
 62
     5
 63
     7
 74
     1
 91
        4
 64
     7
 65
   257
 75
     1
175
     1
 42
1.0
 92
        8
 66
     7
 43
1.0
 76
     1
 77
     6
 78
     2
 67
     7
 79
     5
170
     0
171
     0
290
     0
174
     0
 93
        1
 44
50.0
173
     0
291
     1
 45
0.0
1001
ACAD
1000
AcDbSavedByObjectVersion
1070
     0
  0
VISUALSTYLE
  5
28F19
102
{ACAD_REACTORS
330
28F09
102
}
330
28F09
100
AcDbVisualStyle
  2
ColorChange
 70
    16
 71
     2
 72
     2
 73
     3
 90
        0
 40
-0.6
 41
-30.0
 62
     5
 63
     8
 74
     1
 91
        4
 64
     7
 65
   257
 75
     1
175
     1
 42
1.0
 92
        8
 66
     8
 43
1.0
 76
     1
 77
     6
 78
     2
 67
     7
 79
     5
170
     0
171
     0
290
     0
174
     0
 93
        1
 44
0.0
173
     0
291
     1
 45
0.0
1001
ACAD
1000
AcDbSavedByObjectVersion
1070
     0
  0
VISUALSTYLE
  5
28F12
102
{ACAD_REACTORS
330
28F09
102
}
330
28F09
100
AcDbVisualStyle
  2
Conceptual
 70
     9
 71
     3
 72
     2
 73
     0
 90
        0
 40
-0.6
 41
-30.0
 62
     5
 63
     7
 74
     2
 91
        2
 64
     7
 65
   257
 75
     1
175
     1
 42
40.0
 92
        8
 66
     7
 43
1.0
 76
     1
 77
     6
 78
     2
 67
     7
 79
     3
170
     0
171
     0
290
     0
174
     0
 93
        1
 44
0.0
173
     0
291
     0
 45
0.0
1001
ACAD
1000
AcDbSavedByObjectVersion
1070
     0
  0
VISUALSTYLE
  5
28F14
102
{ACAD_REACTORS
330
28F09
102
}
330
28F09
100
AcDbVisualStyle
  2
Dim
 70
    11
 71
     2
 72
     2
 73
     0
 90
        0
 40
-0.6
 41
-30.0
 62
     5
 63
     7
 74
     1
 91
        4
 64
     7
 65
   257
 75
     1
175
     1
 42
1.0
 92
        8
 66
     7
 43
1.0
 76
     1
 77
     6
 78
     2
 67
     7
 79
     5
170
     0
171
     0
290
     0
174
     0
 93
        1
 44
-50.0
173
     0
291
     1
 45
0.0
1001
ACAD
1000
AcDbSavedByObjectVersion
1070
     0
  0
VISUALSTYLE
  5
28F18
102
{ACAD_REACTORS
330
28F09
102
}
330
28F09
100
AcDbVisualStyle
  2
Facepattern
 70
    15
 71
     2
 72
     2
 73
     0
 90
        0
 40
-0.6
 41
-30.0
 62
     5
 63
     7
 74
     1
 91
        4
 64
     7
 65
   257
 75
     1
175
     1
 42
1.0
 92
        8
 66
     7
 43
1.0
 76
     1
 77
     6
 78
     2
 67
     7
 79
     5
170
     0
171
     0
290
     0
174
     0
 93
        1
 44
0.0
173
     0
291
     1
 45
0.0
1001
ACAD
1000
AcDbSavedByObjectVersion
1070
     0
  0
VISUALSTYLE
  5
28F0A
102
{ACAD_REACTORS
330
28F09
102
}
330
28F09
100
AcDbVisualStyle
  2
Flat
 70
     0
 71
     2
 72
     1
 73
     1
 90
        2
 40
-0.6
 41
30.0
 62
     5
 63
     7
 74
     0
 91
        4
 64
     7
 65
   257
 75
     1
175
     1
 42
1.0
 92
        8
 66
     7
 43
1.0
 76
     1
 77
     6
 78
     2
 67
     7
 79
     5
170
     0
171
     0
290
     0
174
     0
 93
       13
 44
0.0
173
     0
291
     1
 45
0.0
1001
ACAD
1000
AcDbSavedByObjectVersion
1070
     0
  0
VISUALSTYLE
  5
28F0B
102
{ACAD_REACTORS
330
28F09
102
}
330
28F09
100
AcDbVisualStyle
  2
FlatWithEdges
 70
     1
 71
     2
 72
     1
 73
     1
 90
        2
 40
-0.6
 41
30.0
 62
     5
 63
     7
 74
     1
 91
        4
 64
     7
 65
   257
 75
     1
175
     1
 42
1.0
 92
        0
 66
   257
 43
1.0
 76
     1
 77
     6
 78
     2
 67
     7
 79
     5
170
     0
171
     0
290
     0
174
     0
 93
       13
 44
0.0
173
     0
291
     1
 45
0.0
1001
ACAD
1000
AcDbSavedByObjectVersion
1070
     0
  0
VISUALSTYLE
  5
28F0C
102
{ACAD_REACTORS
330
28F09
102
}
330
28F09
100
AcDbVisualStyle
  2
Gouraud
 70
     2
 71
     2
 72
     2
 73
     1
 90
        2
 40
-0.6
 41
30.0
 62
     5
 63
     7
 74
     0
 91
        4
 64
     7
 65
   257
 75
     1
175
     1
 42
1.0
 92
        0
 66
     7
 43
1.0
 76
     1
 77
     6
 78
     2
 67
     7
 79
     5
170
     0
171
     0
290
     0
174
     0
 93
       13
 44
0.0
173
     0
291
     1
 45
0.0
1001
ACAD
1000
AcDbSavedByObjectVersion
1070
     0
  0
VISUALSTYLE
  5
28F0D
102
{ACAD_REACTORS
330
28F09
102
}
330
28F09
100
AcDbVisualStyle
  2
GouraudWithEdges
 70
     3
 71
     2
 72
     2
 73
     1
 90
        2
 40
-0.6
 41
30.0
 62
     5
 63
     7
 74
     1
 91
        4
 64
     7
 65
   257
 75
     1
175
     1
 42
1.0
 92
        0
 66
   257
 43
1.0
 76
     1
 77
     6
 78
     2
 67
     7
 79
     5
170
     0
171
     0
290
     0
174
     0
 93
       13
 44
0.0
173
     0
291
     1
 45
0.0
1001
ACAD
1000
AcDbSavedByObjectVersion
1070
     0
  0
VISUALSTYLE
  5
28F17
102
{ACAD_REACTORS
330
28F09
102
}
330
28F09
100
AcDbVisualStyle
  2
Linepattern
 70
    14
 71
     2
 72
     2
 73
     0
 90
        0
 40
-0.6
 41
-30.0
 62
     5
 63
     7
 74
     1
 91
        4
 64
     7
 65
   257
 75
     7
175
     7
 42
1.0
 92
        8
 66
     7
 43
1.0
 76
     1
 77
     6
 78
     2
 67
     7
 79
     5
170
     0
171
     0
290
     0
174
     0
 93
        1
 44
0.0
173
     0
291
     1
 45
0.0
1001
ACAD
1000
AcDbSavedByObjectVersion
1070
     0
  0
VISUALSTYLE
  5
28F13
102
{ACAD_REACTORS
330
28F09
102
}
330
28F09
100
AcDbVisualStyle
  2
Realistic
 70
     8
 71
     2
 72
     2
 73
     0
 90
        0
 40
-0.6
 41
-30.0
 62
     5
 63
     7
 74
     1
 91
        0
 64
     7
 65
   257
 75
     1
175
     1
 42
1.0
 92
        8
 66
     8
 43
1.0
 76
     1
 77
     6
 78
     2
 67
     7
 79
     5
170
     0
171
     0
290
     0
174
     0
 93
       13
 44
0.0
173
     0
291
     0
 45
0.0
1001
ACAD
1000
AcDbSavedByObjectVersion
1070
     0
  0
VISUALSTYLE
  5
28F16
102
{ACAD_REACTORS
330
28F09
102
}
330
28F09
100
AcDbVisualStyle
  2
Thicken
 70
    13
 71
     2
 72
     2
 73
     0
 90
        0
 40
-0.6
 41
-30.0
 62
     5
 63
     7
 74
     1
 91
        4
 64
     7
 65
   257
 75
     1
175
     1
 42
1.0
 92
       12
 66
     7
 43
1.0
 76
     1
 77
     6
 78
     2
 67
     7
 79
     5
170
     0
171
     0
290
     0
174
     0
 93
        1
 44
0.0
173
     0
291
     1
 45
0.0
1001
ACAD
1000
AcDbSavedByObjectVersion
1070
     0
  0
DICTIONARYVAR
  5
5AA19
102
{ACAD_REACTORS
330
34
102
}
330
34
100
DictionaryVariables
280
     0
  1
1:1
  0
DICTIONARYVAR
  5
5AA17
102
{ACAD_REACTORS
330
34
102
}
330
34
100
DictionaryVariables
280
     0
  1
STANDARD
  0
DICTIONARYVAR
  5
AAF3
102
{ACAD_REACTORS
330
34
102
}
330
34
100
DictionaryVariables
280
     0
  1
STANDARD
  0
DICTIONARYVAR
  5
A10C
102
{ACAD_REACTORS
330
34
102
}
330
34
100
DictionaryVariables
280
     0
  1
2
  0
DICTIONARYVAR
  5
AB07
102
{ACAD_REACTORS
330
34
102
}
330
34
100
DictionaryVariables
280
     0
  1
4
  0
DICTIONARYVAR
  5
35
102
{ACAD_REACTORS
330
34
102
}
330
34
100
DictionaryVariables
280
     0
  1
0
  0
DICTIONARYVAR
  5
5AA1A
102
{ACAD_REACTORS
330
34
102
}
330
34
100
DictionaryVariables
280
     0
  1
0
  0
DICTIONARYVAR
  5
5AA18
102
{ACAD_REACTORS
330
34
102
}
330
34
100
DictionaryVariables
280
     0
  1
0
  0
DICTIONARYVAR
  5
194C
102
{ACAD_REACTORS
330
34
102
}
330
34
100
DictionaryVariables
280
     0
  1
96
  0
DICTIONARY
  5
7E8
102
{ACAD_REACTORS
330
47
102
}
330
47
100
AcDbDictionary
281
     1
  0
DICTIONARY
  5
4C
102
{ACAD_REACTORS
330
47
102
}
330
47
100
AcDbDictionary
281
     1
  0
XRECORD
  5
A929
102
{ACAD_REACTORS
330
47
102
}
330
47
100
AcDbXrecord
280
     1
 90
-1023410169
  0
XRECORD
  5
1D159
102
{ACAD_REACTORS
330
1D158
102
}
330
1D158
100
AcDbXrecord
280
     1
330
0
330
0
330
0
330
0
330
0
330
0
330
0
330
0
330
0
330
0
330
0
330
0
330
0
330
0
330
0
330
0
330
0
330
0
330
0
330
0
330
0
330
0
330
0
330
0
330
0
330
0
330
0
330
0
330
0
330
0
330
0
330
0
330
0
330
0
330
0
330
0
330
0
330
0
330
0
330
0
330
0
330
0
330
0
330
0
330
0
330
0
330
0
330
0
330
0
330
0
330
0
330
0
330
0
330
0
330
0
330
0
330
0
330
0
330
0
330
0
330
0
330
0
330
0
330
0
330
0
330
0
330
0
330
0
330
0
330
0
330
0
330
0
330
0
330
0
330
0
330
0
330
0
330
0
330
0
330
0
330
0
330
0
330
0
330
0
330
0
330
0
330
0
330
0
330
0
330
0
330
0
330
0
330
0
330
0
330
0
330
0
330
0
330
0
330
0
330
0
330
0
330
0
330
0
330
0
330
0
330
0
330
0
330
0
330
0
330
0
330
0
330
0
330
0
330
0
330
0
330
0
330
0
330
0
330
0
330
0
330
0
330
0
330
0
330
0
330
0
330
0
330
0
330
0
330
0
330
0
330
0
330
0
330
0
330
0
330
0
330
0
330
0
330
0
330
0
330
0
330
0
330
0
330
0
330
0
330
0
330
0
330
0
330
0
330
0
330
0
330
0
330
0
330
0
330
0
330
0
330
0
330
0
330
0
330
0
330
0
330
0
330
0
330
0
330
0
330
0
330
0
330
0
330
0
330
0
330
0
330
0
330
0
330
0
330
0
330
0
330
0
330
0
330
0
330
0
330
0
330
0
330
0
330
0
330
0
330
0
330
0
330
0
330
0
330
0
330
0
330
0
330
0
330
0
330
0
330
0
330
0
330
0
330
0
330
0
330
0
330
0
330
0
330
0
330
0
330
0
330
0
330
0
330
0
330
0
330
0
330
0
330
0
330
0
330
0
330
0
330
0
330
0
330
0
330
0
330
0
330
0
330
0
330
0
330
0
330
0
330
0
330
0
330
0
330
0
330
0
330
0
330
0
330
0
330
0
330
0
330
0
330
0
330
0
330
0
330
0
330
0
330
0
330
0
330
0
330
0
330
0
330
0
330
0
330
0
330
0
330
0
330
0
330
0
330
0
330
0
330
0
330
0
330
0
330
0
330
0
330
0
330
0
330
0
330
0
330
0
330
0
330
0
330
0
330
0
330
0
330
0
330
0
330
0
330
0
330
0
330
0
330
0
330
0
330
0
330
0
330
0
330
0
330
0
330
0
330
0
330
0
330
0
330
0
330
0
330
0
330
0
330
0
330
0
330
0
330
0
330
0
330
0
330
0
330
0
330
0
330
0
330
0
330
0
330
0
330
0
330
0
330
0
330
0
330
0
330
0
330
0
330
0
330
0
330
0
330
0
330
0
330
0
330
0
330
0
330
0
330
0
330
0
330
0
330
0
330
0
330
0
330
0
330
0
330
0
330
0
330
0
330
0
330
0
330
0
330
0
330
0
330
0
330
0
330
0
330
0
330
0
330
0
330
0
330
0
330
0
330
0
330
0
330
0
330
0
330
0
330
0
330
0
330
0
330
0
330
0
330
0
330
0
330
0
330
0
330
0
330
0
330
0
330
0
330
0
330
0
330
0
330
0
330
0
330
0
330
0
330
0
330
0
330
0
330
0
330
0
330
0
330
0
330
0
330
0
330
0
330
0
330
0
330
0
330
0
330
0
330
0
330
0
330
0
330
0
330
0
330
0
330
0
330
0
330
0
330
0
330
0
330
0
330
0
330
0
330
0
330
0
330
0
330
0
330
0
330
0
330
0
330
0
330
0
330
0
330
0
330
0
330
0
330
0
330
0
330
0
330
0
330
0
330
0
330
0
330
0
330
0
330
0
330
0
330
0
330
0
330
0
330
0
330
0
330
0
330
0
330
0
330
0
330
0
330
0
330
0
330
0
330
0
330
0
330
0
330
0
330
0
330
0
330
0
330
0
330
0
330
0
330
0
330
0
330
0
330
0
330
0
330
0
330
0
330
0
330
0
330
0
330
0
330
0
330
0
330
0
330
0
330
0
330
0
330
0
330
0
330
0
330
0
330
0
330
0
330
0
330
0
330
0
330
0
330
0
330
0
330
0
330
0
330
0
330
0
330
0
330
0
330
0
330
0
330
0
330
0
330
0
330
0
330
0
330
0
330
0
330
0
330
0
330
0
330
0
330
0
330
0
330
0
330
0
330
0
330
0
330
0
330
0
330
0
330
0
330
0
330
0
330
0
330
0
330
0
330
0
330
0
330
0
330
0
330
0
330
0
330
0
330
0
330
0
330
0
330
0
330
0
330
0
330
0
330
0
330
0
330
0
330
0
330
0
330
0
330
0
330
0
330
0
330
0
330
0
330
0
330
0
330
0
330
0
330
0
330
0
330
0
330
0
330
0
330
0
330
0
330
0
330
0
330
0
330
0
330
0
330
0
330
0
330
0
330
0
330
0
330
0
330
0
330
0
330
0
330
0
330
0
330
0
330
0
330
0
330
0
330
0
330
0
330
0
330
0
330
0
330
0
330
0
330
0
330
0
330
0
330
0
330
0
330
0
330
0
330
0
330
0
330
0
330
0
330
0
330
0
330
0
330
0
330
0
330
0
330
0
330
0
330
0
330
0
330
0
330
0
330
0
330
0
330
0
330
0
330
0
330
0
330
0
330
0
330
0
330
0
330
0
330
0
330
0
330
0
330
0
330
0
330
0
330
0
330
0
330
0
330
0
330
0
330
0
330
0
330
0
330
0
330
0
330
0
330
0
330
0
330
0
330
0
330
0
330
0
330
0
330
0
330
0
330
0
330
0
330
0
330
0
330
0
330
0
330
0
330
0
330
0
330
0
330
0
330
0
330
0
330
0
330
0
330
0
330
0
330
0
330
0
330
0
330
0
330
0
330
0
330
0
330
0
330
0
330
0
330
0
330
0
330
0
330
0
330
0
330
0
330
0
330
0
330
0
330
0
330
0
330
0
330
0
330
0
330
0
330
0
330
0
330
0
330
0
330
0
330
0
330
0
330
0
330
0
330
0
330
0
330
0
330
0
330
0
330
0
330
0
330
0
330
0
330
0
330
0
330
0
330
0
330
0
330
0
330
0
330
0
330
0
330
0
330
0
330
0
330
0
330
0
330
0
330
0
330
0
330
0
330
0
330
0
330
0
330
0
330
0
330
0
330
0
330
0
330
0
330
0
330
0
330
0
330
0
330
0
330
0
330
0
330
0
330
0
330
0
330
0
330
0
330
0
330
0
330
0
330
0
330
0
330
0
330
0
330
0
330
0
330
0
330
0
330
0
330
0
330
0
330
0
330
0
330
0
330
0
330
0
330
0
330
0
330
0
330
0
330
0
330
0
330
0
330
0
330
0
330
0
330
0
330
0
330
0
330
0
330
0
330
0
330
0
330
0
330
0
330
0
330
0
330
0
330
0
330
0
330
0
330
0
330
0
330
0
330
0
330
0
330
0
330
0
330
0
330
0
330
0
330
0
330
0
330
0
330
0
330
0
330
0
330
0
330
0
330
0
330
0
330
0
330
0
330
0
330
0
330
0
330
0
330
0
330
0
330
0
330
0
330
0
330
0
330
0
330
0
330
0
330
0
330
0
330
0
330
0
330
0
330
0
330
0
330
0
330
0
330
0
330
0
330
0
330
0
330
0
330
0
330
0
330
0
330
0
330
0
330
0
330
0
330
0
330
0
330
0
330
0
330
0
330
0
330
0
330
0
330
0
330
0
330
0
330
0
330
0
330
0
330
0
330
0
330
0
330
0
330
0
330
0
330
0
330
0
330
0
330
0
330
0
330
0
330
0
330
0
330
0
330
0
330
0
330
0
330
0
330
0
330
0
330
0
330
0
330
0
330
0
330
0
330
0
330
0
330
0
330
0
330
0
330
0
330
0
330
0
330
0
330
0
330
0
330
0
330
0
330
0
330
0
330
0
330
0
330
0
330
0
330
0
330
0
330
0
330
0
330
0
330
0
330
0
330
0
330
0
330
0
330
0
330
0
330
0
330
0
330
0
330
0
330
0
330
0
330
0
330
0
330
0
330
0
330
0
330
0
330
0
330
0
330
0
330
0
330
0
330
0
330
0
330
0
330
0
330
0
330
0
330
0
330
0
330
0
330
0
330
0
330
0
330
0
330
0
330
0
330
0
330
0
330
0
330
0
330
0
330
0
330
0
330
0
330
0
330
0
330
0
330
0
330
0
330
0
330
0
330
0
330
0
330
0
330
0
330
0
330
0
330
0
330
0
330
0
330
0
330
0
330
0
330
0
330
0
330
0
330
0
330
0
330
0
330
0
330
0
330
0
330
0
330
0
330
0
330
0
330
0
330
0
330
0
330
0
330
0
330
0
330
0
330
0
330
0
330
0
330
0
330
0
330
0
330
0
330
0
330
0
330
0
330
0
330
0
330
0
330
0
330
0
330
0
330
0
330
0
330
0
330
0
330
0
330
0
330
0
330
0
330
0
330
0
330
0
330
0
330
0
330
0
330
0
330
0
330
0
330
0
330
0
330
0
330
0
330
0
330
0
330
0
330
0
330
0
330
0
330
0
330
0
330
0
330
0
330
0
330
0
330
0
330
0
330
0
330
0
330
0
330
0
330
0
330
0
330
0
330
0
330
0
330
0
330
0
330
0
330
0
330
0
330
0
330
0
330
0
330
0
330
0
330
0
330
0
330
0
330
0
330
0
330
0
330
0
330
0
330
0
330
0
330
0
330
0
330
0
330
0
330
0
330
0
330
0
330
0
330
0
330
0
330
0
330
0
330
0
330
0
330
0
330
0
330
0
330
0
330
0
330
0
330
0
330
0
330
0
330
0
330
0
330
0
330
0
330
0
330
0
330
0
330
0
330
0
330
0
330
0
330
0
330
0
330
0
330
0
330
0
330
0
330
0
330
0
330
0
330
0
330
0
330
0
330
0
330
0
330
0
330
0
330
0
330
0
330
0
330
0
330
0
330
0
330
0
330
0
330
0
330
0
330
0
330
0
330
0
330
0
330
0
330
0
330
0
330
0
330
0
330
0
330
0
330
0
330
0
330
0
330
0
330
0
330
0
330
0
330
0
330
0
330
0
330
0
330
0
330
0
330
0
330
0
330
0
330
0
330
0
330
0
330
0
330
0
330
0
330
0
330
0
330
0
330
0
330
0
330
0
330
0
330
0
330
0
330
0
330
0
330
0
330
0
330
0
330
0
330
0
330
0
330
0
330
0
330
0
330
0
330
0
330
0
330
0
330
0
330
0
330
0
330
0
330
0
330
0
330
0
330
0
330
0
330
0
330
0
330
0
330
0
330
0
330
0
330
0
330
0
330
0
330
0
330
0
330
0
330
0
330
0
330
0
330
0
330
0
330
0
330
0
330
0
330
0
330
0
330
0
330
0
330
0
330
0
330
0
330
0
330
0
330
0
330
0
330
0
330
0
330
0
330
0
330
0
330
0
330
0
330
0
330
0
330
0
330
0
330
0
330
0
330
0
330
0
330
0
330
0
330
0
330
0
330
0
330
0
330
0
330
0
330
0
330
0
330
0
330
0
330
0
330
0
330
0
330
0
330
0
330
0
330
0
330
0
330
0
330
0
330
0
330
0
330
0
330
0
330
0
330
0
330
0
330
0
330
0
330
0
330
0
330
0
330
0
330
0
330
0
330
0
330
0
330
0
330
0
330
0
330
0
330
0
330
0
330
0
330
0
330
0
330
0
330
0
330
0
330
0
330
0
330
0
330
0
330
0
330
0
330
0
330
0
330
0
330
0
330
0
330
0
330
0
330
0
330
0
330
0
330
0
330
0
330
0
330
0
330
0
330
0
330
0
330
0
330
0
330
0
330
0
330
0
330
0
330
0
330
0
330
0
330
0
330
0
330
0
330
0
330
0
330
0
330
0
330
0
330
0
330
0
330
0
330
0
330
0
330
0
330
0
330
0
330
0
330
0
330
0
330
0
330
0
330
0
330
0
330
0
330
0
330
0
330
0
330
0
330
0
330
0
330
0
330
0
330
0
330
0
330
0
330
0
330
0
330
0
330
0
330
0
330
0
330
0
330
0
330
0
330
0
330
0
330
0
330
0
330
0
330
0
330
0
330
0
330
0
330
0
330
0
330
0
330
0
330
0
330
0
330
0
330
0
330
0
330
0
330
0
330
0
330
0
330
0
330
0
330
0
330
0
330
0
330
0
330
0
330
0
330
0
330
0
330
0
330
0
330
0
330
0
330
0
330
0
330
0
330
0
330
0
330
0
330
0
330
0
330
0
330
0
330
0
330
0
330
0
330
0
330
0
330
0
330
0
330
0
330
0
330
0
330
0
330
0
330
0
330
0
330
0
330
0
330
0
330
0
330
0
330
0
330
0
330
0
330
0
330
0
330
0
330
0
330
0
330
0
330
0
330
0
330
0
330
0
330
0
330
0
330
0
330
0
330
0
330
0
330
0
330
0
330
0
330
0
330
0
330
0
330
0
330
0
330
0
330
0
330
0
330
0
330
0
330
0
330
0
330
0
330
0
330
0
330
0
330
0
330
0
330
0
330
0
330
0
330
0
330
0
330
0
330
0
330
0
330
0
330
0
330
0
330
0
330
0
330
0
330
0
330
0
330
0
330
0
330
0
330
0
330
0
330
0
330
0
330
0
330
0
330
0
330
0
330
0
330
0
330
0
330
0
330
0
330
0
330
0
330
0
330
0
330
0
330
0
330
0
330
0
330
0
330
0
330
0
330
0
330
0
330
0
330
0
330
0
330
0
330
0
330
0
330
0
330
0
330
0
330
0
330
0
330
0
330
0
330
0
330
0
330
0
330
0
330
0
330
0
330
0
330
0
330
0
330
0
330
0
330
0
330
0
330
0
330
0
330
0
330
0
330
0
330
0
330
0
330
0
330
0
330
0
330
0
330
0
330
0
330
0
330
0
330
0
330
0
330
0
330
0
330
0
330
0
330
0
330
0
330
0
330
0
330
0
330
0
330
0
330
0
330
0
330
0
330
0
330
0
330
0
330
0
330
0
330
0
330
0
330
0
330
0
330
0
330
0
330
0
330
0
330
0
330
0
330
0
330
0
330
0
330
0
330
0
330
0
330
0
330
0
330
0
330
0
330
0
330
0
330
0
330
0
330
0
330
0
330
0
330
0
330
0
330
0
330
0
330
0
330
0
330
0
330
0
330
0
330
0
330
0
330
0
330
0
330
0
330
0
330
0
330
0
330
0
330
0
330
0
330
0
330
0
330
0
330
0
330
0
330
0
330
0
330
0
330
0
330
0
330
0
330
0
330
0
330
0
330
0
330
0
330
0
330
0
330
0
330
0
330
0
330
0
330
0
330
0
330
0
330
0
330
0
330
0
330
0
330
0
330
0
330
0
330
0
330
0
330
0
330
0
330
0
330
0
330
0
330
0
330
0
330
0
330
0
330
0
330
0
330
0
330
0
330
0
330
0
330
0
330
0
330
0
330
0
330
0
330
0
330
0
330
0
330
0
330
0
330
0
330
0
330
0
330
0
330
0
330
0
330
0
330
0
330
0
330
0
330
0
330
0
330
0
330
0
330
0
330
0
330
0
330
0
330
0
330
0
330
0
330
0
330
0
330
0
330
0
330
0
330
0
330
0
330
0
330
0
330
0
330
0
330
0
330
0
330
0
330
0
330
0
330
0
330
0
330
0
330
0
330
0
330
0
330
0
330
0
330
0
330
0
330
0
330
0
330
0
330
0
330
0
330
0
330
0
330
0
330
0
330
0
330
0
330
0
330
0
330
0
330
0
330
0
330
0
330
0
330
0
330
0
330
0
330
0
330
0
330
0
330
0
330
0
330
0
330
0
330
0
330
0
330
0
330
0
330
0
330
0
330
0
330
0
330
0
330
0
330
0
330
0
330
0
330
0
330
0
330
0
330
0
330
0
330
0
330
0
330
0
330
0
330
0
330
0
330
0
330
0
330
0
330
0
330
0
330
0
330
0
330
0
330
0
330
0
330
0
  0
XRECORD
  5
3FB7
102
{ACAD_REACTORS
330
3F96
102
}
330
3F96
100
AcDbXrecord
280
     1
 91
        3
330
0
 90
        8
 62
     7
370
    40
331
16
  1
Color_7
330
0
 90
        0
 62
    14
370
    -3
331
16
  1
Color_14
330
0
 90
        8
 62
     7
370
    20
331
16
  1
Color_7
330
6D1
 90
        0
 62
     7
370
    -3
331
16
  1
Color_7
330
0
 90
        8
 62
     7
370
    50
331
16
  1
Color_7
330
0
 90
        8
 62
     2
370
    35
331
16
  1
Color_2
330
0
 90
        8
 62
     7
370
    -3
331
16
  1
Color_7
330
10
 90
        8
 62
     7
370
    -3
331
16
  1
Color_7
  0
DICTIONARY
  5
62723
330
22
100
AcDbDictionary
280
     1
281
     1
  3
ACAD_XREC_ROUNDTRIP
360
62724
  0
DICTIONARY
  5
62721
330
1E
100
AcDbDictionary
280
     1
281
     1
  3
ACAD_XREC_ROUNDTRIP
360
62722
  0
DICTIONARY
  5
62725
330
26
100
AcDbDictionary
280
     1
281
     1
  3
ACAD_XREC_ROUNDTRIP
360
62726
  0
DICTIONARY
  5
6273E
330
28F07
100
AcDbDictionary
280
     1
281
     1
  3
ACAD_XREC_ROUNDTRIP
360
6273F
  0
DICTIONARY
  5
6273C
330
28F06
100
AcDbDictionary
280
     1
281
     1
  3
ACAD_XREC_ROUNDTRIP
360
6273D
  0
DICTIONARY
  5
62740
330
28F08
100
AcDbDictionary
280
     1
281
     1
  3
ACAD_XREC_ROUNDTRIP
360
62741
  0
DICTIONARY
  5
62728
330
1F6A7
100
AcDbDictionary
280
     1
281
     1
  3
ACAD_XREC_ROUNDTRIP
360
62729
  0
DICTIONARY
  5
6272A
330
1F6A8
100
AcDbDictionary
280
     1
281
     1
  3
ACAD_XREC_ROUNDTRIP
360
6272B
  0
DICTIONARY
  5
6272C
330
1F6A9
100
AcDbDictionary
280
     1
281
     1
  3
ACAD_XREC_ROUNDTRIP
360
6272D
  0
DICTIONARY
  5
6272E
330
1F6AA
100
AcDbDictionary
280
     1
281
     1
  3
ACAD_XREC_ROUNDTRIP
360
6272F
  0
DICTIONARY
  5
62730
330
1F6AB
100
AcDbDictionary
280
     1
281
     1
  3
ACAD_XREC_ROUNDTRIP
360
62731
  0
DICTIONARY
  5
62732
330
1F6AC
100
AcDbDictionary
280
     1
281
     1
  3
ACAD_XREC_ROUNDTRIP
360
62733
  0
DICTIONARY
  5
62734
330
1F6AD
100
AcDbDictionary
280
     1
281
     1
  3
ACAD_XREC_ROUNDTRIP
360
62735
  0
DICTIONARY
  5
62736
330
1F6AE
100
AcDbDictionary
280
     1
281
     1
  3
ACAD_XREC_ROUNDTRIP
360
62737
  0
DICTIONARY
  5
62738
330
1F6AF
100
AcDbDictionary
280
     1
281
     1
  3
ACAD_XREC_ROUNDTRIP
360
62739
  0
DICTIONARY
  5
6273A
330
1F6B0
100
AcDbDictionary
280
     1
281
     1
  3
ACAD_XREC_ROUNDTRIP
360
6273B
  0
DICTIONARY
  5
5AA14
330
AABA
100
AcDbDictionary
280
     1
281
     1
  3
ACAD_ROUNDTRIP_2008_TABLESTYLE_CELLSTYLEMAP
360
612C6
  3
ACAD_XREC_ROUNDTRIP
360
62727
  0
XRECORD
  5
62724
102
{ACAD_REACTORS
330
62723
102
}
330
62723
100
AcDbXrecord
280
     1
102
SHADEPLOT
 70
     0
102
SHADEPLOTRESLEVEL
 70
     2
102
SHADEPLOTCUSTOMDPI
 70
   200
  0
XRECORD
  5
62722
102
{ACAD_REACTORS
330
62721
102
}
330
62721
100
AcDbXrecord
280
     1
102
SHADEPLOT
 70
     0
102
SHADEPLOTRESLEVEL
 70
     2
102
SHADEPLOTCUSTOMDPI
 70
   300
  0
XRECORD
  5
62726
102
{ACAD_REACTORS
330
62725
102
}
330
62725
100
AcDbXrecord
280
     1
102
SHADEPLOT
 70
     0
102
SHADEPLOTRESLEVEL
 70
     2
102
SHADEPLOTCUSTOMDPI
 70
   300
  0
XRECORD
  5
6273F
102
{ACAD_REACTORS
330
6273E
102
}
330
6273E
100
AcDbXrecord
280
     1
102
MATERIAL
148
0.0
149
0.0
149
0.0
 93
        0
 94
       63
282
     0
 72
     1
 77
     1
171
     1
175
     1
179
     1
273
     0
  0
XRECORD
  5
6273D
102
{ACAD_REACTORS
330
6273C
102
}
330
6273C
100
AcDbXrecord
280
     1
102
MATERIAL
148
0.0
149
0.0
149
0.0
 93
        0
 94
       63
282
     0
 72
     1
 77
     1
171
     1
175
     1
179
     1
273
     0
  0
XRECORD
  5
62741
102
{ACAD_REACTORS
330
62740
102
}
330
62740
100
AcDbXrecord
280
     1
102
MATERIAL
148
0.0
149
0.0
149
0.0
 93
        0
 94
       63
282
     0
 72
     1
 77
     1
171
     1
175
     1
179
     1
273
     0
  0
XRECORD
  5
62729
102
{ACAD_REACTORS
330
62728
102
}
330
62728
100
AcDbXrecord
280
     1
102
SHADEPLOT
 70
     0
102
SHADEPLOTRESLEVEL
 70
     2
102
SHADEPLOTCUSTOMDPI
 70
   300
  0
XRECORD
  5
6272B
102
{ACAD_REACTORS
330
6272A
102
}
330
6272A
100
AcDbXrecord
280
     1
102
SHADEPLOT
 70
     0
102
SHADEPLOTRESLEVEL
 70
     2
102
SHADEPLOTCUSTOMDPI
 70
   300
  0
XRECORD
  5
6272D
102
{ACAD_REACTORS
330
6272C
102
}
330
6272C
100
AcDbXrecord
280
     1
102
SHADEPLOT
 70
     0
102
SHADEPLOTRESLEVEL
 70
     2
102
SHADEPLOTCUSTOMDPI
 70
   300
  0
XRECORD
  5
6272F
102
{ACAD_REACTORS
330
6272E
102
}
330
6272E
100
AcDbXrecord
280
     1
102
SHADEPLOT
 70
     0
102
SHADEPLOTRESLEVEL
 70
     2
102
SHADEPLOTCUSTOMDPI
 70
   300
  0
XRECORD
  5
62731
102
{ACAD_REACTORS
330
62730
102
}
330
62730
100
AcDbXrecord
280
     1
102
SHADEPLOT
 70
     0
102
SHADEPLOTRESLEVEL
 70
     2
102
SHADEPLOTCUSTOMDPI
 70
   300
  0
XRECORD
  5
62733
102
{ACAD_REACTORS
330
62732
102
}
330
62732
100
AcDbXrecord
280
     1
102
SHADEPLOT
 70
     0
102
SHADEPLOTRESLEVEL
 70
     2
102
SHADEPLOTCUSTOMDPI
 70
   300
  0
XRECORD
  5
62735
102
{ACAD_REACTORS
330
62734
102
}
330
62734
100
AcDbXrecord
280
     1
102
SHADEPLOT
 70
     0
102
SHADEPLOTRESLEVEL
 70
     2
102
SHADEPLOTCUSTOMDPI
 70
   300
  0
XRECORD
  5
62737
102
{ACAD_REACTORS
330
62736
102
}
330
62736
100
AcDbXrecord
280
     1
102
SHADEPLOT
 70
     0
102
SHADEPLOTRESLEVEL
 70
     2
102
SHADEPLOTCUSTOMDPI
 70
   300
  0
XRECORD
  5
62739
102
{ACAD_REACTORS
330
62738
102
}
330
62738
100
AcDbXrecord
280
     1
102
SHADEPLOT
 70
     0
102
SHADEPLOTRESLEVEL
 70
     2
102
SHADEPLOTCUSTOMDPI
 70
   300
  0
XRECORD
  5
6273B
102
{ACAD_REACTORS
330
6273A
102
}
330
6273A
100
AcDbXrecord
280
     1
102
SHADEPLOT
 70
     0
102
SHADEPLOTRESLEVEL
 70
     2
102
SHADEPLOTCUSTOMDPI
 70
   300
  0
ACAD_PROXY_OBJECT
  5
612C6
102
{ACAD_REACTORS
330
5AA14
102
}
330
5AA14
100
AcDbProxyObject
 90
      499
 91
      646
 95
  6815769
 70
     0
 93
     5232
310
40D054060020000020000003200101A412A5058000000C10000000000000006101010000000000003E0FC000000000000F83F0000000000003E0FC000000000000F83F02B5E8DC0F42B1CFC0AD7A3703D0AC73F419019018000000C1003FBFFFFFE02B5E8DC0F42A9CFD029018000000C1003FBFFFFFE02B5E8DC0F42A9CFD
310
049018000000C1003FBFFFFFE02B5E8DC0F42A9CFD089018000000C1003FBFFFFFE02B5E8DC0F42A9CFD109018000000C1003FBFFFFFE02B5E8DC0F42A9CFD209018000000C1003FBFFFFFE02B5E8DC0F42A9CFD01405075F5449544C450041501A8000000C800406904A94160000003040000000000000012404040000000
310
00000F83F0000000000003E0FC000000000000F83F0000000000003E0FC0AD7A3703D0AC73F02B5E8DC0F42B1CFD0640640600000030400FEFFFFFF80AD7A3703D0AA73F40A40600000030400FEFFFFFF80AD7A3703D0AA73F41240600000030400FEFFFFFF80AD7A3703D0AA73F42240600000030400FEFFFFFF80AD7A370
310
3D0AA73F44240600000030400FEFFFFFF80AD7A3703D0AA73F48240600000030400FEFFFFFF80AD7A3703D0AA73F409014217D2115051115480105406A0000003200101A412A5028000000C10000000000000004901010000000000003E0FC000000000000F83F0000000000003E0FC000000000000F83F02B5E8DC0F42B1C
310
FC0AD7A3703D0AC73F419019018000000C1003FBFFFFFE02B5E8DC0F42A9CFD029018000000C1003FBFFFFFE02B5E8DC0F42A9CFD049018000000C1003FBFFFFFE02B5E8DC0F42A9CFD089018000000C1003FBFFFFFE02B5E8DC0F42A9CFD109018000000C1003FBFFFFFE02B5E8DC0F42A9CFD209018000000C1003FBFFFF
310
FE02B5E8DC0F42A9CFD03409065F444154410010
340
11
340
0
340
0
340
0
340
0
340
0
340
0
340
11
340
0
340
0
340
0
340
0
340
0
340
0
340
11
340
0
340
0
340
0
340
0
340
0
340
0
 94
        0
1001
ACAD
1000
AcRTDxfName
1000
CELLSTYLEMAP
  0
XRECORD
  5
62727
102
{ACAD_REACTORS
330
5AA14
102
}
330
5AA14
100
AcDbXrecord
280
     1
102
ACAD_ROUNDTRIP_PRE2007_TABLESTYLE
 90
        4
 91
        0
  1

 92
        4
 93
        0
  2

 94
        4
 95
        0
  3

  0
ENDSEC
  0
EOF
