  0
SECTION
  2
HEADER
  9
$ACADVER
  1
AC1015
  9
$ACADMAINTVER
 70
    20
  9
$DWGCODEPAGE
  3
ANSI_932
  9
$INSBASE
 10
0.0
 20
0.0
 30
0.0
  9
$EXTMIN
 10
0.0
 20
0.0
 30
0.0
  9
$EXTMAX
 10
420.0
 20
297.0
 30
0.0
  9
$LIMMIN
 10
0.0
 20
0.0
  9
$LIMMAX
 10
420.0
 20
297.0
  9
$ORTHOMODE
 70
     0
  9
$REGENMODE
 70
     1
  9
$FILLMODE
 70
     1
  9
$QTEXTMODE
 70
     0
  9
$MIRRTEXT
 70
     0
  9
$LTSCALE
 40
1.0
  9
$ATTMODE
 70
     1
  9
$TEXTSIZE
 40
3.2
  9
$TRACEWID
 40
1.0
  9
$TEXTSTYLE
  7
STANDARD
  9
$CLAYER
  8
AM_0
  9
$CELTYPE
  6
ByLayer
  9
$CECOLOR
 62
   256
  9
$CELTSCALE
 40
1.0
  9
$DISPSILH
 70
     0
  9
$DIMSCALE
 40
1.0
  9
$DIMASZ
 40
1.0
  9
$DIMEXO
 40
1.0
  9
$DIMDLI
 40
10.0
  9
$DIMRND
 40
0.0
  9
$DIMDLE
 40
0.0
  9
$DIMEXE
 40
1.0
  9
$DIMTP
 40
0.1
  9
$DIMTM
 40
0.1
  9
$DIMTXT
 40
3.5
  9
$DIMCEN
 40
0.0
  9
$DIMTSZ
 40
0.0
  9
$DIMTOL
 70
     0
  9
$DIMLIM
 70
     0
  9
$DIMTIH
 70
     0
  9
$DIMTOH
 70
     0
  9
$DIMSE1
 70
     0
  9
$DIMSE2
 70
     0
  9
$DIMTAD
 70
     1
  9
$DIMZIN
 70
     8
  9
$DIMBLK
  1

  9
$DIMASO
 70
     1
  9
$DIMSHO
 70
     1
  9
$DIMPOST
  1

  9
$DIMAPOST
  1
"
  9
$DIMALT
 70
     0
  9
$DIMALTD
 70
     2
  9
$DIMALTF
 40
0.0393701
  9
$DIMLFAC
 40
1.0
  9
$DIMTOFL
 70
     1
  9
$DIMTVP
 40
0.0
  9
$DIMTIX
 70
     0
  9
$DIMSOXD
 70
     0
  9
$DIMSAH
 70
     0
  9
$DIMBLK1
  1

  9
$DIMBLK2
  1

  9
$DIMSTYLE
  2
SYS
  9
$DIMCLRD
 70
   256
  9
$DIMCLRE
 70
   256
  9
$DIMCLRT
 70
     7
  9
$DIMTFAC
 40
0.71
  9
$DIMGAP
 40
1.5
  9
$DIMJUST
 70
     0
  9
$DIMSD1
 70
     0
  9
$DIMSD2
 70
     0
  9
$DIMTOLJ
 70
     0
  9
$DIMTZIN
 70
     8
  9
$DIMALTZ
 70
     0
  9
$DIMALTTZ
 70
     0
  9
$DIMUPT
 70
     0
  9
$DIMDEC
 70
     2
  9
$DIMTDEC
 70
     2
  9
$DIMALTU
 70
     2
  9
$DIMALTTD
 70
     2
  9
$DIMTXSTY
  7
STANDARD
  9
$DIMAUNIT
 70
     0
  9
$DIMADEC
 70
     0
  9
$DIMALTRND
 40
0.0
  9
$DIMAZIN
 70
     2
  9
$DIMDSEP
 70
    46
  9
$DIMATFIT
 70
     3
  9
$DIMFRAC
 70
     0
  9
$DIMLDRBLK
  1

  9
$DIMLUNIT
 70
     2
  9
$DIMLWD
 70
    -1
  9
$DIMLWE
 70
    -1
  9
$DIMTMOVE
 70
     0
  9
$LUNITS
 70
     2
  9
$LUPREC
 70
     2
  9
$SKETCHINC
 40
1.0
  9
$FILLETRAD
 40
0.0
  9
$AUNITS
 70
     0
  9
$AUPREC
 70
     0
  9
$MENU
  1
.
  9
$ELEVATION
 40
0.0
  9
$PELEVATION
 40
0.0
  9
$THICKNESS
 40
0.0
  9
$LIMCHECK
 70
     0
  9
$CHAMFERA
 40
0.0
  9
$CHAMFERB
 40
0.0
  9
$CHAMFERC
 40
20.0
  9
$CHAMFERD
 40
0.0
  9
$SKPOLY
 70
     0
  9
$TDCREATE
 40
2455833.360650903
  9
$TDUCREATE
 40
2455832.985650903
  9
$TDUPDATE
 40
2456352.478997928
  9
$TDUUPDATE
 40
2456352.103997928
  9
$TDINDWG
 40
0.0476461111
  9
$TDUSRTIMER
 40
0.0476459259
  9
$USRTIMER
 70
     1
  9
$ANGBASE
 50
0.0
  9
$ANGDIR
 70
     0
  9
$PDMODE
 70
     0
  9
$PDSIZE
 40
-3.0
  9
$PLINEWID
 40
0.0
  9
$SPLFRAME
 70
     0
  9
$SPLINETYPE
 70
     6
  9
$SPLINESEGS
 70
     8
  9
$HANDSEED
  5
C00F
  9
$SURFTAB1
 70
     6
  9
$SURFTAB2
 70
     6
  9
$SURFTYPE
 70
     6
  9
$SURFU
 70
     6
  9
$SURFV
 70
     6
  9
$UCSBASE
  2

  9
$UCSNAME
  2

  9
$UCSORG
 10
0.0
 20
0.0
 30
0.0
  9
$UCSXDIR
 10
1.0
 20
0.0
 30
0.0
  9
$UCSYDIR
 10
0.0
 20
1.0
 30
0.0
  9
$UCSORTHOREF
  2

  9
$UCSORTHOVIEW
 70
     0
  9
$UCSORGTOP
 10
0.0
 20
0.0
 30
0.0
  9
$UCSORGBOTTOM
 10
0.0
 20
0.0
 30
0.0
  9
$UCSORGLEFT
 10
0.0
 20
0.0
 30
0.0
  9
$UCSORGRIGHT
 10
0.0
 20
0.0
 30
0.0
  9
$UCSORGFRONT
 10
0.0
 20
0.0
 30
0.0
  9
$UCSORGBACK
 10
0.0
 20
0.0
 30
0.0
  9
$PUCSBASE
  2

  9
$PUCSNAME
  2

  9
$PUCSORG
 10
0.0
 20
0.0
 30
0.0
  9
$PUCSXDIR
 10
1.0
 20
0.0
 30
0.0
  9
$PUCSYDIR
 10
0.0
 20
1.0
 30
0.0
  9
$PUCSORTHOREF
  2

  9
$PUCSORTHOVIEW
 70
     0
  9
$PUCSORGTOP
 10
0.0
 20
0.0
 30
0.0
  9
$PUCSORGBOTTOM
 10
0.0
 20
0.0
 30
0.0
  9
$PUCSORGLEFT
 10
0.0
 20
0.0
 30
0.0
  9
$PUCSORGRIGHT
 10
0.0
 20
0.0
 30
0.0
  9
$PUCSORGFRONT
 10
0.0
 20
0.0
 30
0.0
  9
$PUCSORGBACK
 10
0.0
 20
0.0
 30
0.0
  9
$USERI1
 70
     0
  9
$USERI2
 70
     0
  9
$USERI3
 70
     0
  9
$USERI4
 70
     0
  9
$USERI5
 70
     0
  9
$USERR1
 40
0.0
  9
$USERR2
 40
0.0
  9
$USERR3
 40
0.0
  9
$USERR4
 40
0.0
  9
$USERR5
 40
0.0
  9
$WORLDVIEW
 70
     1
  9
$SHADEDGE
 70
     3
  9
$SHADEDIF
 70
    70
  9
$TILEMODE
 70
     1
  9
$MAXACTVP
 70
    64
  9
$PINSBASE
 10
0.0
 20
0.0
 30
0.0
  9
$PLIMCHECK
 70
     0
  9
$PEXTMIN
 10
1.000000000000000E+20
 20
1.000000000000000E+20
 30
1.000000000000000E+20
  9
$PEXTMAX
 10
-1.000000000000000E+20
 20
-1.000000000000000E+20
 30
-1.000000000000000E+20
  9
$PLIMMIN
 10
-3.17498779296875
 20
-3.174999952316284
  9
$PLIMMAX
 10
293.4970092773438
 20
206.692492723465
  9
$UNITMODE
 70
     0
  9
$VISRETAIN
 70
     1
  9
$PLINEGEN
 70
     0
  9
$PSLTSCALE
 70
     1
  9
$TREEDEPTH
 70
  3020
  9
$CMLSTYLE
  2
Standard
  9
$CMLJUST
 70
     0
  9
$CMLSCALE
 40
20.0
  9
$PROXYGRAPHICS
 70
     1
  9
$MEASUREMENT
 70
     1
  9
$CELWEIGHT
370
    -1
  9
$ENDCAPS
280
     0
  9
$JOINSTYLE
280
     0
  9
$LWDISPLAY
290
     0
  9
$INSUNITS
 70
     4
  9
$HYPERLINKBASE
  1

  9
$STYLESHEET
  1
monochrome.ctb
  9
$XEDIT
290
     1
  9
$CEPSNTYPE
380
     0
  9
$PSTYLEMODE
290
     1
  9
$FINGERPRINTGUID
  2
{AC1F2734-2CD3-4339-BDD7-571D3D12BB21}
  9
$VERSIONGUID
  2
{BDC99CD3-4F51-42D4-8DD5-0678384FA3A5}
  9
$EXTNAMES
290
     1
  9
$PSVPSCALE
 40
0.0
  9
$OLESTARTUP
290
     0
  0
ENDSEC
  0
SECTION
  2
CLASSES
  0
CLASS
  1
ACDBDICTIONARYWDFLT
  2
AcDbDictionaryWithDefault
  3
ObjectDBX Classes
 90
        0
280
     0
281
     0
  0
CLASS
  1
ACDBPLACEHOLDER
  2
AcDbPlaceHolder
  3
ObjectDBX Classes
 90
        0
280
     0
281
     0
  0
CLASS
  1
LAYOUT
  2
AcDbLayout
  3
ObjectDBX Classes
 90
        0
280
     0
281
     0
  0
CLASS
  1
AMGSETTINGSOBJ
  2
AmgSettingsObj
  3
"AcadM|Product Description: AutoCAD Mechanical|Company: Autodesk"
 90
        0
280
     0
281
     0
  0
CLASS
  1
ACME_DOCUMENT
  2
AcMeDbDoc
  3
AcMeServices
 90
        0
280
     0
281
     0
  0
CLASS
  1
ACMESCOPE
  2
AcMeScope
  3
AcMeServices
 90
        0
280
     0
281
     0
  0
CLASS
  1
ACMECOMMANDHISTORY
  2
AcMeCommandHistory
  3
AcMeServices
 90
        0
280
     0
281
     0
  0
CLASS
  1
DICTIONARYVAR
  2
AcDbDictionaryVar
  3
ObjectDBX Classes
 90
        0
280
     0
281
     0
  0
CLASS
  1
ACIMSYSVARMAN
  2
AcImSysVarManager
  3
AcMeServices
 90
        0
280
     0
281
     0
  0
CLASS
  1
ACIMREALSYSVAR
  2
AcImRealSysVar
  3
AcMeServices
 90
        0
280
     0
281
     0
  0
CLASS
  1
ACIMINTSYSVAR
  2
AcImIntSysVar
  3
AcMeServices
 90
        0
280
     0
281
     0
  0
CLASS
  1
ACMEDRAWINGMAN
  2
AcMeDrawingMan
  3
AcMeServices
 90
        0
280
     0
281
     0
  0
CLASS
  1
ACMEVIEW
  2
AcMeView
  3
AcMeServices
 90
        0
280
     0
281
     0
  0
CLASS
  1
ACDBENTITYCACHE
  2
AcMeEntityCache
  3
AcMeServices
 90
        0
280
     0
281
     0
  0
CLASS
  1
GSMANAGER
  2
AcMeGSManager
  3
AcMeServices
 90
        0
280
     0
281
     0
  0
CLASS
  1
AMDTINTERNALREACTOR
  2
AmdtInternalReactor
  3
AcMeServices
 90
        0
280
     0
281
     0
  0
CLASS
  1
ACMESTATEMGR
  2
AcMeStateMgr
  3
AcMeServices
 90
        0
280
     0
281
     0
  0
CLASS
  1
ACGREFMASTER
  2
AcGrefMaster
  3
AcAttribServices
 90
        0
280
     0
281
     0
  0
CLASS
  1
ACME_DATABASE
  2
AcMeDbDatabase
  3
AcMeServices
 90
        0
280
     0
281
     0
  0
CLASS
  1
ACRFINSADJUSTERMGR
  2
AcRfInsAdjusterMgr
  3
AcMeServices
 90
        0
280
     0
281
     0
  0
CLASS
  1
ACGREFACADMASTER
  2
AcGrefacadMaster
  3
AcGrefServices
 90
        0
280
     0
281
     0
  0
CLASS
  1
AMIMASTER
  2
AmiMaster
  3
AmiServices
 90
        0
280
     0
281
     0
  0
CLASS
  1
ACMDATADICTIONARY
  2
AcmDataDictionary
  3
"AcmSymBB|Product Description: AutoCAD Mechanical|Company: Autodesk"
 90
        0
280
     0
281
     0
  0
CLASS
  1
ACMDATAENTRYBLOCK
  2
AcmDataEntryBlock
  3
"AcmSymBB|Product Description: AutoCAD Mechanical|Company: Autodesk"
 90
        0
280
     0
281
     0
  0
CLASS
  1
ACIMSTRSYSVAR
  2
AcImStrSysVar
  3
AcMeServices
 90
        0
280
     0
281
     0
  0
CLASS
  1
ACMSTANDARDISO
  2
AcmStandardISO
  3
"Amdt_StdImp|Product Description: AutoCAD Mechanical|Company: Autodesk"
 90
        0
280
     0
281
     0
  0
CLASS
  1
AMGOBJPROPCFG
  2
AmgObjPropCfg
  3
"AmgLay|Product Description: AutoCAD Mechanical|Company: Autodesk"
 90
        1
280
     0
281
     0
  0
CLASS
  1
AMDTEDGESTANDARDISO
  2
AmdtEdgeStdISO
  3
"Amdt_StdImp|Product Description: AutoCAD Mechanical|Company: Autodesk"
 90
        0
280
     0
281
     0
  0
CLASS
  1
ACMSURFSTANDARDISO
  2
AcmSurfTextStdISO
  3
"Amdt_StdImp|Product Description: AutoCAD Mechanical|Company: Autodesk"
 90
        0
280
     0
281
     0
  0
CLASS
  1
ACMFCFSTANDARDISO
  2
AcmFCFStdISO
  3
"Amdt_StdImp|Product Description: AutoCAD Mechanical|Company: Autodesk"
 90
        0
280
     0
281
     0
  0
CLASS
  1
ACMWELDSTANDARDISO
  2
AcmWeldingStdISO
  3
"Amdt_StdImp|Product Description: AutoCAD Mechanical|Company: Autodesk"
 90
        0
280
     0
281
     0
  0
CLASS
  1
ACMIDSTANDARDISO
  2
AcmIdStdISO
  3
"Amdt_StdImp|Product Description: AutoCAD Mechanical|Company: Autodesk"
 90
        0
280
     0
281
     0
  0
CLASS
  1
ACMDATUMSTANDARDISO
  2
AcmDatumStdISO
  3
"Amdt_StdImp|Product Description: AutoCAD Mechanical|Company: Autodesk"
 90
        0
280
     0
281
     0
  0
CLASS
  1
ACMBOMSTANDARDISO
  2
AcmBOMStdISO
  3
"Amdt_StdImp|Product Description: AutoCAD Mechanical|Company: Autodesk"
 90
        0
280
     0
281
     0
  0
CLASS
  1
ACMDETAILSTANDARDISO
  2
AmdtDetailSymStdISO
  3
"Amdt_StdImp|Product Description: AutoCAD Mechanical|Company: Autodesk"
 90
        0
280
     0
281
     0
  0
CLASS
  1
ACMSECTIONSTANDARDISO
  2
AmdtSectionSymStdISO
  3
"Amdt_StdImp|Product Description: AutoCAD Mechanical|Company: Autodesk"
 90
        0
280
     0
281
     0
  0
CLASS
  1
ACMCENTERLINESTANDARDISO
  2
AmdtCenterLineStdISO
  3
"Amdt_StdImp|Product Description: AutoCAD Mechanical|Company: Autodesk"
 90
        0
280
     0
281
     0
  0
CLASS
  1
ACAMGLAYSTD
  2
AcAmgLayStd
  3
"AmgLay|Product Description: AutoCAD Mechanical|Company: Autodesk"
 90
        0
280
     0
281
     0
  0
CLASS
  1
ACAMGDIMSTD
  2
AcAmgDimStd
  3
"AmgDim|Product Description: AutoCAD Mechanical|Company: Autodesk"
 90
        0
280
     0
281
     0
  0
CLASS
  1
ACAMGTITLESTD
  2
AcAmgTitleStd
  3
"AmgTitle|Product Description: AutoCAD Mechanical|Company: Autodesk"
 90
        0
280
     0
281
     0
  0
CLASS
  1
ACAMGFILTERDAT
  2
AcAmgFilterDat
  3
"AcadM|Product Description: AutoCAD Mechanical|Company: Autodesk"
 90
        0
280
     0
281
     0
  0
CLASS
  1
LAYER_INDEX
  2
AcDbLayerIndex
  3
ObjectDBX Classes
 90
    32768
280
     0
281
     0
  0
CLASS
  1
IDBUFFER
  2
AcDbIdBuffer
  3
ObjectDBX Classes
 90
    32768
280
     0
281
     0
  0
CLASS
  1
PLOTSETTINGS
  2
AcDbPlotSettings
  3
ObjectDBX Classes
 90
    32768
280
     0
281
     0
  0
CLASS
  1
AMDTFORMULAUPDATEDISPATCHER
  2
AmdtFormulaUpdateDispatcher
  3
AcMeServices
 90
        0
280
     0
281
     0
  0
CLASS
  1
ACMSTANDARDANSI
  2
AcmStandardANSI
  3
"Amdt_StdImp|Product Description: AutoCAD Mechanical|Company: Autodesk"
 90
        0
280
     0
281
     0
  0
CLASS
  1
ACMSURFSTANDARDANSI
  2
AcmSurfTextStdANSI
  3
"Amdt_StdImp|Product Description: AutoCAD Mechanical|Company: Autodesk"
 90
        0
280
     0
281
     0
  0
CLASS
  1
ACMFCFSTANDARDANSI
  2
AcmFCFStdANSI
  3
"Amdt_StdImp|Product Description: AutoCAD Mechanical|Company: Autodesk"
 90
        0
280
     0
281
     0
  0
CLASS
  1
ACMWELDSTANDARDANSI
  2
AcmWeldingStdANSI
  3
"Amdt_StdImp|Product Description: AutoCAD Mechanical|Company: Autodesk"
 90
        0
280
     0
281
     0
  0
CLASS
  1
ACMIDSTANDARDANSI
  2
AcmIdStdANSI
  3
"Amdt_StdImp|Product Description: AutoCAD Mechanical|Company: Autodesk"
 90
        0
280
     0
281
     0
  0
CLASS
  1
ACMDATUMSTANDARDANSI
  2
AcmDatumStdANSI
  3
"Amdt_StdImp|Product Description: AutoCAD Mechanical|Company: Autodesk"
 90
        0
280
     0
281
     0
  0
CLASS
  1
ACMBOMSTANDARDANSI
  2
AcmBOMStdANSI
  3
"Amdt_StdImp|Product Description: AutoCAD Mechanical|Company: Autodesk"
 90
        0
280
     0
281
     0
  0
CLASS
  1
ACMDETAILSTANDARDANSI
  2
AmdtDetailSymStdANSI
  3
"Amdt_StdImp|Product Description: AutoCAD Mechanical|Company: Autodesk"
 90
        0
280
     0
281
     0
  0
CLASS
  1
ACMSECTIONSTANDARDANSI
  2
AmdtSectionSymStdANSI
  3
"Amdt_StdImp|Product Description: AutoCAD Mechanical|Company: Autodesk"
 90
        0
280
     0
281
     0
  0
CLASS
  1
ACMCENTERLINESTANDARDANSI
  2
AmdtCenterLineStdANSI
  3
"Amdt_StdImp|Product Description: AutoCAD Mechanical|Company: Autodesk"
 90
        0
280
     0
281
     0
  0
CLASS
  1
ACMBOM
  2
AcmBom
  3
"AcmSymBB|Product Description: AutoCAD Mechanical|Company: Autodesk"
 90
        0
280
     0
281
     0
  0
CLASS
  1
ACMDATAENTRYPART
  2
AcmDataEntryPart
  3
"AcmSymBB|Product Description: AutoCAD Mechanical|Company: Autodesk"
 90
    32768
280
     0
281
     0
  0
CLASS
  1
ACMPARTREF
  2
AcmPartRef
  3
"AcmSymBB|Product Description: AutoCAD Mechanical|Company: Autodesk"
 90
    35839
280
     0
281
     1
  0
CLASS
  1
ACDBCIRCARCRES
  2
AcDbCircArcRes
  3
AcGrefServices
 90
    32768
280
     0
281
     0
  0
CLASS
  1
ACMBOMROW
  2
AcmBomRow
  3
"AcmSymBB|Product Description: AutoCAD Mechanical|Company: Autodesk"
 90
    32768
280
     0
281
     0
  0
CLASS
  1
ACMBALLOON
  2
AcmBalloon
  3
"AcmSymBB|Product Description: AutoCAD Mechanical|Company: Autodesk"
 90
    35839
280
     0
281
     1
  0
CLASS
  1
AMDTNOTE
  2
AmdtNote
  3
"AcmSymBB|Product Description: AutoCAD Mechanical|Company: Autodesk"
 90
    35839
280
     0
281
     1
  0
CLASS
  1
STDPART2D
  2
AmgStdPart
  3
"g3vace|Class: AmgStdPart|Product Description: AutoCAD Mechanical|Company: Autodesk"
 90
    35839
280
     0
281
     1
  0
CLASS
  1
ACDBSTDPARTRES_LINE
  2
AcDbStdPartRes_Line
  3
"g3vace|Class: AcDbStdPartRes_Line|Product Description: AutoCAD Mechanical|Company: Autodesk"
 90
    32768
280
     0
281
     0
  0
CLASS
  1
ACMDATAENTRY
  2
AcmDataEntry
  3
"AcmSymBB|Product Description: AutoCAD Mechanical|Company: Autodesk"
 90
        0
280
     0
281
     0
  0
CLASS
  1
ACDBOPPOLYLINERES
  2
AcDbOpPolylineRes
  3
AcGrefServices
 90
    32768
280
     0
281
     0
  0
CLASS
  1
ACMPARTLIST
  2
AcmPartList
  3
"AcmSymBB|Product Description: AutoCAD Mechanical|Company: Autodesk"
 90
    35839
280
     0
281
     1
  0
CLASS
  1
ACDBLINERES
  2
AcDbLineRes
  3
AcGrefServices
 90
    32768
280
     0
281
     0
  0
CLASS
  1
ACRFINSADJ
  2
AcRfInsAdjuster
  3
AcMeServices
 90
    32768
280
     0
281
     0
  0
CLASS
  1
AM_DRAWING_MGR
  2
AcDmDwgMgr
  3
AcMechDwgViewMgmt
 90
        0
280
     0
281
     0
  0
CLASS
  1
AM_DWG_DOCUMENT
  2
AcDmDwgDocument
  3
AcMechDwgViewMgmt
 90
        0
280
     0
281
     0
  0
CLASS
  1
AM_DWG_SHEET
  2
AcDmSheet
  3
AcMechDwgViewMgmt
 90
        0
280
     0
281
     0
  0
CLASS
  1
AM_VIEWDIMPARMAP
  2
AcDmViewDimParMap
  3
AcMechDwgViewMgmt
 90
        0
280
     0
281
     0
  0
CLASS
  1
AM_DWGMGR_NAME
  2
AcDmDwgMgrName
  3
AcMechDwgViewMgmt
 90
        0
280
     0
281
     0
  0
CLASS
  1
AMDTMENUSTATEMGR
  2
AmdtMenuStateMgr
  3
McadcomServices
 90
        0
280
     0
281
     0
  0
CLASS
  1
AMDTMCOMMENUSTATE
  2
AmdtMcomMenuState
  3
McadcomServices
 90
        0
280
     0
281
     0
  0
CLASS
  1
ASAPP
  2
AcAsAppObject
  3
AutoSurfServices
 90
        0
280
     0
281
     0
  0
CLASS
  1
IM_STATIC_MAN
  2
AcImStaticVarManager
  3
AcMeServices
 90
        0
280
     0
281
     0
  0
CLASS
  1
ACIMDBLSTATICVAR
  2
AcImDblStaticVar
  3
AcMeServices
 90
        0
280
     0
281
     0
  0
CLASS
  1
ACIMSTRSTATICVAR
  2
AcImStrStaticVar
  3
AcMeServices
 90
        0
280
     0
281
     0
  0
CLASS
  1
ACIMINTSTATICVAR
  2
AcImIntStaticVar
  3
AcMeServices
 90
        0
280
     0
281
     0
  0
CLASS
  1
ACASGREFMASTER
  2
AcAsGrefMaster
  3
AutoSurfResolverServices
 90
        0
280
     0
281
     0
  0
CLASS
  1
ACADGREFMODULE
  2
AcAdGrefModule
  3
AdGrefServices
 90
        0
280
     0
281
     0
  0
CLASS
  1
AMDTMAPISURFMOUDULE
  2
AmdtMApiSurfModule
  3
MApiSurfServices
 90
        0
280
     0
281
     0
  0
CLASS
  1
MAPIAMMOUDLE
  2
MApiAmModule
  3
MApiAmServices
 90
        0
280
     0
281
     0
  0
CLASS
  1
AMDTADMENUSTATE
  2
AmdtAdMenuState
  3
DesignerServices
 90
        0
280
     0
281
     0
  0
CLASS
  1
ADAPPL
  2
AcAdAppl
  3
DesignerServices
 90
        0
280
     0
281
     0
  0
CLASS
  1
DEPMGR
  2
AcAdDepMgr
  3
DesignerServices
 90
        0
280
     0
281
     0
  0
CLASS
  1
PARAMMGR
  2
AcAdParamMgr
  3
DesignerServices
 90
        0
280
     0
281
     0
  0
CLASS
  1
PARAMSCOPE
  2
AcAdParamScope
  3
DesignerServices
 90
        0
280
     0
281
     0
  0
CLASS
  1
NAMEDAPPL
  2
AcAdNamedAppl
  3
DesignerServices
 90
        0
280
     0
281
     0
  0
CLASS
  1
ADHNTMPLT
  2
AdHoleNoteTemplateMgr
  3
DesignerServices
 90
    32768
280
     0
281
     0
  0
CLASS
  1
AM_HNTEMPLATE_MGR_NAME
  2
AdHoleNoteTemplateMgrName
  3
DesignerServices
 90
    32768
280
     0
281
     0
  0
CLASS
  1
AMDTDMMENUSTATE
  2
AmdtDmMenuState
  3
AcMechDwgViewMgmt
 90
        0
280
     0
281
     0
  0
CLASS
  1
MAPIADMODULE
  2
MApiAdModule
  3
MApiAdServices
 90
        0
280
     0
281
     0
  0
CLASS
  1
AMDTAMMENUSTATE
  2
AmdtAmMenuState
  3
DesignerAssemblies
 90
        0
280
     0
281
     0
  0
CLASS
  1
ACAMPROJECT
  2
AcAmProject
  3
DesignerAssemblies
 90
        0
280
     0
281
     0
  0
CLASS
  1
ACAMGRCOMPDEF
  2
AcAmGrCompDef
  3
DesignerAssemblies
 90
        0
280
     0
281
     0
  0
CLASS
  1
ACCMCONTEXT
  2
AcCmContext
  3
DesignerAssemblies
 90
        0
280
     0
281
     0
  0
CLASS
  1
ACAMCOMPDEF
  2
AcAmCompDef
  3
DesignerAssemblies
 90
        0
280
     0
281
     0
  0
CLASS
  1
ACAMCOMPDEFMGR
  2
AcAmCompDefMgr
  3
DesignerAssemblies
 90
        0
280
     0
281
     0
  0
CLASS
  1
AMCONTEXTMGR
  2
AcAmContextMgr
  3
DesignerAssemblies
 90
        0
280
     0
281
     0
  0
CLASS
  1
ACAMCONTEXTMODELER
  2
AcAmContextModeler
  3
DesignerAssemblies
 90
        0
280
     0
281
     0
  0
CLASS
  1
CATALOGSTATE
  2
AcAmCatalogState
  3
DesignerAssemblies
 90
        0
280
     0
281
     0
  0
CLASS
  1
ACAMGRCOMPDEFSET
  2
AcAmGrCompDefSet
  3
DesignerAssemblies
 90
        0
280
     0
281
     0
  0
CLASS
  1
AMDTBROWSERDBTAB
  2
AmdtBrowserDbTab
  3
McadcomServices
 90
        0
280
     0
281
     0
  0
CLASS
  1
CBROWSERAPPOBJECT
  2
CBrowserAppObject
  3
McadcomServices
 90
        0
280
     0
281
     0
  0
CLASS
  1
DM_PLACEHOLDER
  2
AcDmSelsetPlaceholder
  3
AcMechDwgViewMgmt
 90
        0
280
     0
281
     0
  0
CLASS
  1
ACMPICKOBJ
  2
AcmPickEnt
  3
"AcmSymBB|Product Description: AutoCAD Mechanical|Company: Autodesk"
 90
    32768
280
     0
281
     1
  0
CLASS
  1
ACMNOTESTANDARDISO
  2
AmdtNoteStdISO
  3
"Amdt_StdImp|Product Description: AutoCAD Mechanical|Company: Autodesk"
 90
        0
280
     0
281
     0
  0
CLASS
  1
ACMNOTESTANDARDANSI
  2
AmdtNoteStdANSI
  3
"Amdt_StdImp|Product Description: AutoCAD Mechanical|Company: Autodesk"
 90
        0
280
     0
281
     0
  0
CLASS
  1
ACMTHREADLINESTANDARDISO
  2
AmdtThreadLineStdISO
  3
"Amdt_StdImp|Product Description: AutoCAD Mechanical|Company: Autodesk"
 90
        0
280
     0
281
     0
  0
CLASS
  1
ACMTHREADLINESTANDARDANSI
  2
AmdtThreadLineStdANSI
  3
"Amdt_StdImp|Product Description: AutoCAD Mechanical|Company: Autodesk"
 90
        0
280
     0
281
     0
  0
CLASS
  1
TABLESTYLE
  2
AcDbTableStyle
  3
ObjectDBX Classes
 90
     4095
280
     0
281
     0
  0
CLASS
  1
SORTENTSTABLE
  2
AcDbSortentsTable
  3
ObjectDBX Classes
 90
        0
280
     0
281
     0
  0
CLASS
  1
MATERIAL
  2
AcDbMaterial
  3
ObjectDBX Classes
 90
     1024
280
     0
281
     0
  0
CLASS
  1
VISUALSTYLE
  2
AcDbVisualStyle
  3
ObjectDBX Classes
 90
     4095
280
     0
281
     0
  0
CLASS
  1
ACRFATTGENMGR
  2
AcRfAttGeneralMgr
  3
AcAttribServices
 90
        0
280
     0
281
     0
  0
CLASS
  1
ACRFOBJATTMGR
  2
AcRfObjAttGroupMgr
  3
AcAttribServices
 90
        0
280
     0
281
     0
  0
CLASS
  1
ACRFMCADAPIATTHOLDER
  2
AcRfMCADAPIAttHolder
  3
AcAttribServices
 90
        0
280
     0
281
     0
  0
CLASS
  1
AMDTSYSATTR
  2
AmdtSystemAttribute
  3
AcAttribServices
 90
        0
280
     0
281
     0
  0
CLASS
  1
ACMTAPERSTANDARDISO
  2
AcmTaperStdISO
  3
"Amdt_StdImp|Product Description: AutoCAD Mechanical|Company: Autodesk"
 90
        0
280
     0
281
     0
  0
CLASS
  1
CAMSSTRUCTBTNSTATE
  2
StructBtnState
  3
L"DesignerAssemblies"
 90
        0
280
     0
281
     0
  0
CLASS
  1
DIMASSOC
  2
AcDbDimAssoc
  3
"AcDbDimAssoc|Product Desc:     AcDim ARX App For Dimension|Company:          Autodesk, Inc.|WEB Address:      www.autodesk.com"
 90
    32768
280
     0
281
     0
  0
CLASS
  1
AMDTNOTETEMPLATEDB
  2
AmdtNoteTemplateDB
  3
AMDT_STDIMP_MODULE_NAME
 90
        0
280
     0
281
     0
  0
CLASS
  1
ACMTAPERSTANDARDANSI
  2
AcmTaperStdANSI
  3
"Amdt_StdImp|Product Description: AutoCAD Mechanical|Company: Autodesk"
 90
        0
280
     0
281
     0
  0
CLASS
  1
ACAMGHOLECHARTSTDANSI
  2
AcAmgHoleChartStdANSI
  3
ACMSYMBB_MODULE_NAME
 90
        0
280
     0
281
     0
  0
ENDSEC
  0
SECTION
  2
TABLES
  0
TABLE
  2
VPORT
  5
8
330
0
100
AcDbSymbolTable
 70
     1
  0
VPORT
  5
B0EC
330
8
100
AcDbSymbolTableRecord
100
AcDbViewportTableRecord
  2
*Active
 70
     0
 10
0.0
 20
0.0
 11
1.0
 21
1.0
 12
209.9957563556404
 22
174.1784444640112
 13
0.0
 23
0.0
 14
2.5
 24
2.5
 15
10.0
 25
10.0
 16
0.0
 26
0.0
 36
1.0
 17
0.0
 27
0.0
 37
0.0
 40
350.5571576221107
 41
1.407124681933842
 42
50.0
 43
-1370.695619172058
 44
-1370.695619172058
 50
0.0
 51
0.0
 71
     0
 72
   100
 73
     1
 74
     3
 75
     0
 76
     0
 77
     0
 78
     0
281
     0
 65
     0
110
0.0
120
0.0
130
0.0
111
1.0
121
0.0
131
0.0
112
0.0
122
1.0
132
0.0
 79
     0
146
0.0
  0
ENDTAB
  0
TABLE
  2
LTYPE
  5
5
330
0
100
AcDbSymbolTable
 70
    33
  0
LTYPE
  5
14
330
5
100
AcDbSymbolTableRecord
100
AcDbLinetypeTableRecord
  2
ByBlock
 70
     0
  3

 72
    65
 73
     0
 40
0.0
  0
LTYPE
  5
15
330
5
100
AcDbSymbolTableRecord
100
AcDbLinetypeTableRecord
  2
ByLayer
 70
     0
  3

 72
    65
 73
     0
 40
0.0
  0
LTYPE
  5
16
330
5
100
AcDbSymbolTableRecord
100
AcDbLinetypeTableRecord
  2
Continuous
 70
     0
  3
Solid line
 72
    65
 73
     0
 40
0.0
  0
LTYPE
  5
4F
330
5
100
AcDbSymbolTableRecord
100
AcDbLinetypeTableRecord
  2
AM_ISO02W050
 70
     0
  3
__ __ __ __ __ __ __ __ __ __ __ __ __ __ __
 72
    65
 73
     2
 40
7.5
 49
6.0
 74
     0
 49
-1.5
 74
     0
  0
LTYPE
  5
52
330
5
100
AcDbSymbolTableRecord
100
AcDbLinetypeTableRecord
  2
Amconstr
 70
     0
  3
_______________________
 72
    65
 73
     2
 40
9999.0
 49
9999.0
 74
     0
 49
0.0
 74
     0
  0
LTYPE
  5
64
330
5
100
AcDbSymbolTableRecord
100
AcDbLinetypeTableRecord
  2
ACISOWELD
 70
     0
  3
_ _ _ _ _
 72
    65
 73
     2
 40
2.0
 49
2.0
 74
     0
 49
-1.0
 74
     0
  0
LTYPE
  5
65
330
5
100
AcDbSymbolTableRecord
100
AcDbLinetypeTableRecord
  2
ACISOTGB
 70
     0
  3
__ . . __ . .
 72
    65
 73
     6
 40
9.0
 49
4.0
 74
     0
 49
-1.0
 74
     0
 49
1.0
 74
     0
 49
-1.0
 74
     0
 49
1.0
 74
     0
 49
-1.0
 74
     0
  0
LTYPE
  5
66
330
5
100
AcDbSymbolTableRecord
100
AcDbLinetypeTableRecord
  2
ACISOTGL
 70
     0
  3
_ _ _ _ _
 72
    65
 73
     2
 40
3.0
 49
2.0
 74
     0
 49
-1.0
 74
     0
  0
LTYPE
  5
69
330
5
100
AcDbSymbolTableRecord
100
AcDbLinetypeTableRecord
  2
CENTER
 70
     0
  3
__ . __
 72
    65
 73
     4
 40
7.0
 49
4.0
 74
     0
 49
-1.0
 74
     0
 49
1.0
 74
     0
 49
-1.0
 74
     0
  0
LTYPE
  5
A6E
330
5
100
AcDbSymbolTableRecord
100
AcDbLinetypeTableRecord
  2
PHANTOM2
 70
     0
  3
Phantom (.5x) ___ _ _ ___ _ _ ___ _ _ ___ _ _
 72
    65
 73
     6
 40
31.75
 49
15.875
 74
     0
 49
-3.174999999999999
 74
     0
 49
3.174999999999999
 74
     0
 49
-3.174999999999999
 74
     0
 49
3.174999999999999
 74
     0
 49
-3.174999999999999
 74
     0
  0
LTYPE
  5
4DED
330
5
100
AcDbSymbolTableRecord
100
AcDbLinetypeTableRecord
  2
中線
 70
     0
  3
___________________
 72
    65
 73
     2
 40
2.0
 49
1.0
 74
     0
 49
1.0
 74
     0
  0
LTYPE
  5
4DF6
330
5
100
AcDbSymbolTableRecord
100
AcDbLinetypeTableRecord
  2
細線
 70
     0
  3
___________________
 72
    65
 73
     2
 40
2.0
 49
1.0
 74
     0
 49
1.0
 74
     0
  0
LTYPE
  5
4DF7
330
5
100
AcDbSymbolTableRecord
100
AcDbLinetypeTableRecord
  2
太線
 70
     0
  3
___________________
 72
    65
 73
     2
 40
2.0
 49
1.0
 74
     0
 49
1.0
 74
     0
  0
LTYPE
  5
4EA7
330
5
100
AcDbSymbolTableRecord
100
AcDbLinetypeTableRecord
  2
文字
 70
     0
  3
_________________
 72
    65
 73
     2
 40
2.0
 49
1.0
 74
     0
 49
1.0
 74
     0
  0
LTYPE
  5
4EA9
330
5
100
AcDbSymbolTableRecord
100
AcDbLinetypeTableRecord
  2
寸法線
 70
     0
  3
________________
 72
    65
 73
     2
 40
2.0
 49
1.0
 74
     0
 49
1.0
 74
     0
  0
LTYPE
  5
4F12
330
5
100
AcDbSymbolTableRecord
100
AcDbLinetypeTableRecord
  2
ハッチング
 70
     0
  3
_________________
 72
    65
 73
     2
 40
2.0
 49
1.0
 74
     0
 49
1.0
 74
     0
  0
LTYPE
  5
5180
330
5
100
AcDbSymbolTableRecord
100
AcDbLinetypeTableRecord
  2
陰線1
 70
     0
  3
__ __ __ __
 72
    65
 73
     2
 40
4.0
 49
2.2
 74
     0
 49
-1.8
 74
     0
  0
LTYPE
  5
5182
330
5
100
AcDbSymbolTableRecord
100
AcDbLinetypeTableRecord
  2
切断線
 70
     0
  3
/\/-/\/-/\/-/\/-/\/-/\/
 72
    65
 73
     2
 40
11.0001
 49
0.0001
 74
     4
 75
   135
340
56
 46
0.04
 50
0.0
 44
0.0
 45
0.0
 49
-11.0
 74
     0
  0
LTYPE
  5
5183
330
5
100
AcDbSymbolTableRecord
100
AcDbLinetypeTableRecord
  2
想像線1
 70
     0
  3
__ __ __ _____ __ __ ____
 72
    65
 73
     6
 40
14.5
 49
6.0
 74
     0
 49
-1.5
 74
     0
 49
2.0
 74
     0
 49
-1.5
 74
     0
 49
2.0
 74
     0
 49
-1.5
 74
     0
  0
LTYPE
  5
5185
330
5
100
AcDbSymbolTableRecord
100
AcDbLinetypeTableRecord
  2
中心線1
 70
     0
  3
___ _ ___ _ ___
 72
    65
 73
     4
 40
18.0
 49
12.0
 74
     0
 49
-2.0
 74
     0
 49
2.0
 74
     0
 49
-2.0
 74
     0
  0
LTYPE
  5
5188
330
5
100
AcDbSymbolTableRecord
100
AcDbLinetypeTableRecord
  2
補助線
 70
     0
  3
______________
 72
    65
 73
     2
 40
2.0
 49
1.0
 74
     0
 49
1.0
 74
     0
  0
LTYPE
  5
6427
330
5
100
AcDbSymbolTableRecord
100
AcDbLinetypeTableRecord
  2
HIDDEN
 70
     0
  3
Hidden __ __ __ __ __ __ __ __ __ __ __ __ __ _
 72
    65
 73
     2
 40
0.375
 49
0.25
 74
     0
 49
-0.125
 74
     0
  0
LTYPE
  5
AC81
330
5
100
AcDbSymbolTableRecord
100
AcDbLinetypeTableRecord
  2
破断線
 70
     0
  3
/\/-/\/-/\/-/\/-/\/-/\/
 72
    65
 73
     2
 40
0.4401
 49
0.0001
 74
     4
 75
   136
340
AC80
 46
0.0016
 50
0.0
 44
0.0
 45
0.0
 49
-0.4400000000000001
 74
     0
  0
LTYPE
  5
AC9E
330
5
100
AcDbSymbolTableRecord
100
AcDbLinetypeTableRecord
  2
Amzigzag
 70
     0
  3
/\/-/\/-/\/-/\/-/\/-/\/
 72
    65
 73
     2
 40
11.0001
 49
0.0001
 74
     4
 75
   135
340
56
 46
0.04
 50
0.0
 44
0.0
 45
0.0
 49
-11.0
 74
     0
  0
LTYPE
  5
AF0F
330
5
100
AcDbSymbolTableRecord
100
AcDbLinetypeTableRecord
  2
genzigzag
 70
     0
  3
/\/-/\/-/\/-/\/-/\/-/\/
 72
    65
 73
     2
 40
12.0001
 49
0.0001
 74
     4
 75
   135
340
AC80
 46
2.0
 50
0.0
 44
0.0
 45
0.0
 49
-12.0
 74
     0
  0
LTYPE
  5
AF95
330
5
100
AcDbSymbolTableRecord
100
AcDbLinetypeTableRecord
  2
AM_ISO08W050
 70
     0
  3
____ . ____ . ____ . ____ . ____ . ____ . ____
 72
    65
 73
     4
 40
18.0
 49
12.0
 74
     0
 49
-1.5
 74
     0
 49
3.0
 74
     0
 49
-1.5
 74
     0
  0
LTYPE
  5
AF96
330
5
100
AcDbSymbolTableRecord
100
AcDbLinetypeTableRecord
  2
AM_ISO09W050
 70
     0
  3
_____ . . _____ . . _____ . . ____ .. ____
 72
    65
 73
     6
 40
22.5
 49
12.0
 74
     0
 49
-1.5
 74
     0
 49
3.0
 74
     0
 49
-1.5
 74
     0
 49
3.0
 74
     0
 49
-1.5
 74
     0
  0
LTYPE
  5
AF97
330
5
100
AcDbSymbolTableRecord
100
AcDbLinetypeTableRecord
  2
AM_ISO08W050x2
 70
     0
  3
__ . __ . __ . __ . __ . __
 72
    65
 73
     4
 40
9.0
 49
6.0
 74
     0
 49
-0.75
 74
     0
 49
1.5
 74
     0
 49
-0.75
 74
     0
  0
LTYPE
  5
AF98
330
5
100
AcDbSymbolTableRecord
100
AcDbLinetypeTableRecord
  2
AM_ISO02W050x2
 70
     0
  3
 _ _ _ _ _ _ _ _ _ _ _ _
 72
    65
 73
     2
 40
3.75
 49
3.0
 74
     0
 49
-0.75
 74
     0
  0
LTYPE
  5
B5D5
330
5
100
AcDbSymbolTableRecord
100
AcDbLinetypeTableRecord
  2
DASHED
 70
     0
  3
__ __ __ __ __ __ __ __ __ __ __ __ __ __ __
 72
    65
 73
     2
 40
3.5
 49
2.0
 74
     0
 49
-1.5
 74
     0
  0
LTYPE
  5
B5D6
330
5
100
AcDbSymbolTableRecord
100
AcDbLinetypeTableRecord
  2
CENTER2
 70
     0
  3
Center (.5x) ___ _ ___ _ ___ _ ___ _ ___ _ ___
 72
    65
 73
     4
 40
1.125
 49
0.75
 74
     0
 49
-0.125
 74
     0
 49
0.125
 74
     0
 49
-0.125
 74
     0
  0
LTYPE
  5
B5D7
330
5
100
AcDbSymbolTableRecord
100
AcDbLinetypeTableRecord
  2
HIDDEN2
 70
     0
  3
Hidden (.5x) _ _ _ _ _ _ _ _ _ _ _ _ _ _ _ _ _
 72
    65
 73
     2
 40
0.1875
 49
0.125
 74
     0
 49
-0.0625
 74
     0
  0
LTYPE
  5
B5D8
330
5
100
AcDbSymbolTableRecord
100
AcDbLinetypeTableRecord
  2
Amzigzag2
 70
     0
  3
/\/-/\/-/\/-/\/-/\/-/\/
 72
    65
 73
     2
 40
0.4401
 49
0.0001
 74
     4
 75
   136
340
AC80
 46
0.0016
 50
0.0
 44
0.0
 45
0.0
 49
-0.4400000000000001
 74
     0
  0
LTYPE
  5
B5D9
330
5
100
AcDbSymbolTableRecord
100
AcDbLinetypeTableRecord
  2
ACANSTGB
 70
     0
  3
__ . . __ . .
 72
    65
 73
     6
 40
0.35433070866
 49
0.15748031496
 74
     0
 49
-0.03937007874
 74
     0
 49
0.03937007874
 74
     0
 49
-0.03937007874
 74
     0
 49
0.03937007874
 74
     0
 49
-0.03937007874
 74
     0
  0
LTYPE
  5
B5DA
330
5
100
AcDbSymbolTableRecord
100
AcDbLinetypeTableRecord
  2
ACANSTGL
 70
     0
  3
_ _ _ _ _
 72
    65
 73
     2
 40
0.11811023622
 49
0.07874015748
 74
     0
 49
-0.03937007874
 74
     0
  0
ENDTAB
  0
TABLE
  2
LAYER
  5
2
102
{ACAD_XDICTIONARY
360
3F95
102
}
330
0
100
AcDbSymbolTable
 70
    20
  0
LAYER
  5
10
330
2
100
AcDbSymbolTableRecord
100
AcDbLayerTableRecord
  2
0
 70
     0
 62
     7
  6
Continuous
370
    -3
390
F
  0
LAYER
  5
6D1
330
2
100
AcDbSymbolTableRecord
100
AcDbLayerTableRecord
  2
Defpoints
 70
     0
 62
     7
  6
Continuous
290
     0
370
    -3
390
F
  0
LAYER
  5
5F85
330
2
100
AcDbSymbolTableRecord
100
AcDbLayerTableRecord
  2
AM_0
 70
     0
 62
     7
  6
中線
370
    30
390
F
1001
AcAecLayerStandard
1000

1000

  0
LAYER
  5
AC9F
330
2
100
AcDbSymbolTableRecord
100
AcDbLayerTableRecord
  2
size
 70
     0
 62
     5
  6
Continuous
290
     0
370
    25
390
F
  0
LAYER
  5
ACA0
330
2
100
AcDbSymbolTableRecord
100
AcDbLayerTableRecord
  2
waku
 70
     0
 62
     7
  6
Continuous
370
    35
390
F
  0
LAYER
  5
ACA1
330
2
100
AcDbSymbolTableRecord
100
AcDbLayerTableRecord
  2
AM_6
 70
     0
 62
     2
  6
文字
370
    13
390
F
1001
AcAecLayerStandard
1000

1000

  0
LAYER
  5
ACC8
330
2
100
AcDbSymbolTableRecord
100
AcDbLayerTableRecord
  2
hyomoji
 70
     0
 62
     2
  6
Continuous
370
    13
390
F
  0
LAYER
  5
ACC9
330
2
100
AcDbSymbolTableRecord
100
AcDbLayerTableRecord
  2
hyosen1
 70
     0
 62
     1
  6
Continuous
370
    25
390
F
  0
LAYER
  5
ACCA
330
2
100
AcDbSymbolTableRecord
100
AcDbLayerTableRecord
  2
hyosen2
 70
     0
 62
     1
  6
Continuous
370
    13
390
F
  0
LAYER
  5
AD60
330
2
100
AcDbSymbolTableRecord
100
AcDbLayerTableRecord
  2
AM_1
 70
     0
 62
    30
  6
太線
370
    40
390
F
1001
AcAecLayerStandard
1000

1000

  0
LAYER
  5
AD64
330
2
100
AcDbSymbolTableRecord
100
AcDbLayerTableRecord
  2
AM_2
 70
     0
 62
     1
  6
細線
370
    13
390
F
1001
AcAecLayerStandard
1000

1000

  0
LAYER
  5
AD67
330
2
100
AcDbSymbolTableRecord
100
AcDbLayerTableRecord
  2
AM_3
 70
     0
 62
     6
  6
陰線1
370
    13
390
F
1001
AcAecLayerStandard
1000

1000

  0
LAYER
  5
AD68
330
2
100
AcDbSymbolTableRecord
100
AcDbLayerTableRecord
  2
AM_5
 70
     0
 62
     3
  6
寸法線
370
    13
390
F
1001
AcAecLayerStandard
1000

1000

  0
LAYER
  5
AD69
330
2
100
AcDbSymbolTableRecord
100
AcDbLayerTableRecord
  2
AM_7
 70
     0
 62
     4
  6
中心線1
370
    13
390
F
1001
AcAecLayerStandard
1000

1000

  0
LAYER
  5
AD6A
330
2
100
AcDbSymbolTableRecord
100
AcDbLayerTableRecord
  2
AM_8
 70
     0
 62
     1
  6
ハッチング
370
    13
390
F
1001
AcAecLayerStandard
1000

1000

  0
LAYER
  5
AD6E
330
2
100
AcDbSymbolTableRecord
100
AcDbLayerTableRecord
  2
AM_10
 70
     0
 62
     7
  6
切断線
370
    13
390
F
1001
AcAecLayerStandard
1000

1000

  0
LAYER
  5
AD6F
330
2
100
AcDbSymbolTableRecord
100
AcDbLayerTableRecord
  2
AM_11
 70
     0
 62
     2
  6
想像線1
370
    13
390
F
1001
AcAecLayerStandard
1000

1000

  0
LAYER
  5
B1B6
330
2
100
AcDbSymbolTableRecord
100
AcDbLayerTableRecord
  2
AM_CL
 70
     1
 62
    -1
  6
Amconstr
370
    15
390
F
1001
AcAecLayerStandard
1000

1000

  0
LAYER
  5
B2EB
330
2
100
AcDbSymbolTableRecord
100
AcDbLayerTableRecord
  2
AM_14
 70
     0
 62
     5
  6
細線
370
     9
390
F
1001
AcAecLayerStandard
1000

1000

  0
LAYER
  5
B2EC
330
2
100
AcDbSymbolTableRecord
100
AcDbLayerTableRecord
  2
AM_15
 70
     0
 62
     6
  6
陰線1
370
     9
390
F
1001
AcAecLayerStandard
1000

1000

  0
ENDTAB
  0
TABLE
  2
STYLE
  5
3
330
0
100
AcDbSymbolTable
 70
     8
  0
STYLE
  5
11
330
3
100
AcDbSymbolTableRecord
100
AcDbTextStyleTableRecord
  2
STANDARD
 70
     0
 40
0.0
 41
0.7
 50
0.0
 71
     0
 42
3.2
  3
romans.shx
  4
extfont.shx
  0
STYLE
  5
56
330
3
100
AcDbSymbolTableRecord
100
AcDbTextStyleTableRecord
  2

 70
     1
 40
0.0
 41
1.0
 50
0.0
 71
     0
 42
2.5
  3
ltypeshp.shx
  4

  0
STYLE
  5
58
330
3
100
AcDbSymbolTableRecord
100
AcDbTextStyleTableRecord
  2
ACISOTS
 70
     0
 40
1.0
 41
1.0
 50
0.0
 71
     0
 42
2.5
  3
isocp.shx
  4
extfont.shx
  0
STYLE
  5
63
330
3
100
AcDbSymbolTableRecord
100
AcDbTextStyleTableRecord
  2
ACISOGDT
 70
     0
 40
0.0
 41
1.0
 50
0.0
 71
     0
 42
2.5
  3
amgdt.shx
  4

  0
STYLE
  5
A74
330
3
100
AcDbSymbolTableRecord
100
AcDbTextStyleTableRecord
  2
DIM
 70
     0
 40
0.0
 41
1.0
 50
0.0
 71
     0
 42
2.5
  3
monotxt.shx
  4
extfont.shx
  0
STYLE
  5
AC80
330
3
100
AcDbSymbolTableRecord
100
AcDbTextStyleTableRecord
  2

 70
     1
 40
0.0
 41
1.0
 50
0.0
 71
     0
 42
3.2
  3
genltshp.shx
  4

  0
STYLE
  5
B5DB
330
3
100
AcDbSymbolTableRecord
100
AcDbTextStyleTableRecord
  2
ACANSTS
 70
     0
 40
1.0
 41
1.0
 50
0.0
 71
     0
 42
3.2
  3
romans.shx
  4
extfont.shx
  0
STYLE
  5
B5DC
330
3
100
AcDbSymbolTableRecord
100
AcDbTextStyleTableRecord
  2
ACANSGDT
 70
     0
 40
0.0
 41
1.0
 50
0.0
 71
     0
 42
3.2
  3
amgdt.shx
  4

  0
ENDTAB
  0
TABLE
  2
VIEW
  5
6
330
0
100
AcDbSymbolTable
 70
     6
  0
VIEW
  5
AE1
330
6
100
AcDbSymbolTableRecord
100
AcDbViewTableRecord
  2
AM_VIEW1
 70
     0
 40
163.702163061564
 10
105.0
 20
215.1489184692179
 41
210.0
 11
0.0
 21
0.0
 31
1.0
 12
0.0
 22
0.0
 32
0.0
 42
50.0
 43
-1370.695619172058
 44
-1370.695619172058
 50
0.0
 71
     0
281
     0
 72
     0
  0
VIEW
  5
AE2
330
6
100
AcDbSymbolTableRecord
100
AcDbViewTableRecord
  2
AM_VIEW2
 70
     0
 40
163.702163061564
 10
315.0
 20
215.1489184692179
 41
210.0
 11
0.0
 21
0.0
 31
1.0
 12
0.0
 22
0.0
 32
0.0
 42
50.0
 43
-1370.695619172058
 44
-1370.695619172058
 50
0.0
 71
     0
281
     0
 72
     0
  0
VIEW
  5
AE3
330
6
100
AcDbSymbolTableRecord
100
AcDbViewTableRecord
  2
AM_VIEW3
 70
     0
 40
163.702163061564
 10
105.0
 20
81.85108153078202
 41
210.0
 11
0.0
 21
0.0
 31
1.0
 12
0.0
 22
0.0
 32
0.0
 42
50.0
 43
-1370.695619172058
 44
-1370.695619172058
 50
0.0
 71
     0
281
     0
 72
     0
  0
VIEW
  5
AE4
330
6
100
AcDbSymbolTableRecord
100
AcDbViewTableRecord
  2
AM_VIEW4
 70
     0
 40
163.702163061564
 10
315.0
 20
81.85108153078202
 41
210.0
 11
0.0
 21
0.0
 31
1.0
 12
0.0
 22
0.0
 32
0.0
 42
50.0
 43
-1370.695619172058
 44
-1370.695619172058
 50
0.0
 71
     0
281
     0
 72
     0
  0
VIEW
  5
AE5
330
6
100
AcDbSymbolTableRecord
100
AcDbViewTableRecord
  2
AM_VIEW5
 70
     0
 40
163.7021630615641
 10
210.0
 20
148.5
 41
210.0
 11
0.0
 21
0.0
 31
1.0
 12
0.0
 22
0.0
 32
0.0
 42
50.0
 43
-1370.695619172058
 44
-1370.695619172058
 50
0.0
 71
     0
281
     0
 72
     0
  0
VIEW
  5
AE6
330
6
100
AcDbSymbolTableRecord
100
AcDbViewTableRecord
  2
AM_VIEW6
 70
     0
 40
327.4010520798669
 10
210.0
 20
148.5
 41
419.9958
 11
0.0
 21
0.0
 31
1.0
 12
0.0
 22
0.0
 32
0.0
 42
50.0
 43
-1370.695619172058
 44
-1370.695619172058
 50
0.0
 71
     0
281
     0
 72
     0
  0
ENDTAB
  0
TABLE
  2
UCS
  5
7
330
0
100
AcDbSymbolTable
 70
     0
  0
ENDTAB
  0
TABLE
  2
APPID
  5
9
330
0
100
AcDbSymbolTable
 70
    60
  0
APPID
  5
12
330
9
100
AcDbSymbolTableRecord
100
AcDbRegAppTableRecord
  2
ACAD
 70
     0
  0
APPID
  5
30
330
9
100
AcDbSymbolTableRecord
100
AcDbRegAppTableRecord
  2
MCAD_NO_VIS
 70
     0
  0
APPID
  5
31
330
9
100
AcDbSymbolTableRecord
100
AcDbRegAppTableRecord
  2
ACAD_TEMP_GRAPHIC
 70
     0
  0
APPID
  5
44
330
9
100
AcDbSymbolTableRecord
100
AcDbRegAppTableRecord
  2
ACATTRIBSERVICES
 70
     0
  0
APPID
  5
7A1
330
9
100
AcDbSymbolTableRecord
100
AcDbRegAppTableRecord
  2
GENIUS_GENDIMSH_14
 70
     0
  0
APPID
  5
A49
330
9
100
AcDbSymbolTableRecord
100
AcDbRegAppTableRecord
  2
GENIUS_GENREC_14
 70
     0
  0
APPID
  5
A4A
330
9
100
AcDbSymbolTableRecord
100
AcDbRegAppTableRecord
  2
GENIUS_GENOBJ-N-REC_13
 70
     0
  0
APPID
  5
A4B
330
9
100
AcDbSymbolTableRecord
100
AcDbRegAppTableRecord
  2
GENIUS_GENODEF_13
 70
     0
  0
APPID
  5
A4C
330
9
100
AcDbSymbolTableRecord
100
AcDbRegAppTableRecord
  2
DCO15
 70
     0
  0
APPID
  5
ADC
330
9
100
AcDbSymbolTableRecord
100
AcDbRegAppTableRecord
  2
GENIUS_GENOLIS_13
 70
     0
  0
APPID
  5
ADD
330
9
100
AcDbSymbolTableRecord
100
AcDbRegAppTableRecord
  2
GENIUS_GENOENT_13
 70
     0
  0
APPID
  5
ADE
330
9
100
AcDbSymbolTableRecord
100
AcDbRegAppTableRecord
  2
GENIUS_GENOBJ-N-TIT_13
 70
     0
  0
APPID
  5
ADF
330
9
100
AcDbSymbolTableRecord
100
AcDbRegAppTableRecord
  2
GENIUS_GENTITLE_13
 70
     0
  0
APPID
  5
AE0
330
9
100
AcDbSymbolTableRecord
100
AcDbRegAppTableRecord
  2
GENIUS_GENOREF_13
 70
     0
  0
APPID
  5
AE7
330
9
100
AcDbSymbolTableRecord
100
AcDbRegAppTableRecord
  2
GENIUS_GENSCREG_15
 70
     0
  0
APPID
  5
AE8
330
9
100
AcDbSymbolTableRecord
100
AcDbRegAppTableRecord
  2
GENIUS_GENOBJ-N-SDF_13
 70
     0
  0
APPID
  5
FAF
330
9
100
AcDbSymbolTableRecord
100
AcDbRegAppTableRecord
  2
GENIUS_GENBLLY_14
 70
     0
  0
APPID
  5
FB0
330
9
100
AcDbSymbolTableRecord
100
AcDbRegAppTableRecord
  2
GENIUS_GENTRA_14
 70
     0
  0
APPID
  5
1285
330
9
100
AcDbSymbolTableRecord
100
AcDbRegAppTableRecord
  2
GENIUS_GENDTOL_13
 70
     0
  0
APPID
  5
142D
330
9
100
AcDbSymbolTableRecord
100
AcDbRegAppTableRecord
  2
GENIUS_GENOBJ-N-CEN_13
 70
     0
  0
APPID
  5
1AB5
330
9
100
AcDbSymbolTableRecord
100
AcDbRegAppTableRecord
  2
GENIUS_GENOBJ-N-CRS_13
 70
     0
  0
APPID
  5
1B36
330
9
100
AcDbSymbolTableRecord
100
AcDbRegAppTableRecord
  2
GENIUS_GENOBJ-N-HTC_13
 70
     0
  0
APPID
  5
1B37
330
9
100
AcDbSymbolTableRecord
100
AcDbRegAppTableRecord
  2
GENIUS_GENHATCH_13
 70
     0
  0
APPID
  5
216D
330
9
100
AcDbSymbolTableRecord
100
AcDbRegAppTableRecord
  2
GENIUS_GENOBJ-N-FIL_13
 70
     0
  0
APPID
  5
2356
330
9
100
AcDbSymbolTableRecord
100
AcDbRegAppTableRecord
  2
GEVID990412420
 70
     0
  0
APPID
  5
2357
330
9
100
AcDbSymbolTableRecord
100
AcDbRegAppTableRecord
  2
GEVDC
 70
     0
  0
APPID
  5
2358
330
9
100
AcDbSymbolTableRecord
100
AcDbRegAppTableRecord
  2
GEVCON
 70
     0
  0
APPID
  5
235B
330
9
100
AcDbSymbolTableRecord
100
AcDbRegAppTableRecord
  2
GEVRADREF
 70
     0
  0
APPID
  5
2360
330
9
100
AcDbSymbolTableRecord
100
AcDbRegAppTableRecord
  2
GENIUS_GENBH_13
 70
     0
  0
APPID
  5
2362
330
9
100
AcDbSymbolTableRecord
100
AcDbRegAppTableRecord
  2
GENIUS_GENOBJ-NBEHI-BHF_13
 70
     0
  0
APPID
  5
2364
330
9
100
AcDbSymbolTableRecord
100
AcDbRegAppTableRecord
  2
GENIUS_GENOBJ-NBEHI-BHB_13
 70
     0
  0
APPID
  5
2379
330
9
100
AcDbSymbolTableRecord
100
AcDbRegAppTableRecord
  2
GENIUS_GENOBJ-F-SCPASSM_13
 70
     0
  0
APPID
  5
3D74
330
9
100
AcDbSymbolTableRecord
100
AcDbRegAppTableRecord
  2
GENIUS_GENDIM_13
 70
     0
  0
APPID
  5
3D76
330
9
100
AcDbSymbolTableRecord
100
AcDbRegAppTableRecord
  2
GENIUS_GE3DTOL_13
 70
     0
  0
APPID
  5
3D9C
330
9
100
AcDbSymbolTableRecord
100
AcDbRegAppTableRecord
  2
AD_DRAW
 70
     0
  0
APPID
  5
3DE8
330
9
100
AcDbSymbolTableRecord
100
AcDbRegAppTableRecord
  2
ASURF_PCURVE_APPNAME
 70
     0
  0
APPID
  5
3DED
330
9
100
AcDbSymbolTableRecord
100
AcDbRegAppTableRecord
  2
AMG_3D2D_5.0
 70
     0
  0
APPID
  5
3E1B
330
9
100
AcDbSymbolTableRecord
100
AcDbRegAppTableRecord
  2
DESIGNERASSEMBLIES
 70
     0
  0
APPID
  5
3E20
330
9
100
AcDbSymbolTableRecord
100
AcDbRegAppTableRecord
  2
ACADM_DIM_EDIT
 70
     0
  0
APPID
  5
3E21
330
9
100
AcDbSymbolTableRecord
100
AcDbRegAppTableRecord
  2
AMDT_DM_ADJ
 70
     0
  0
APPID
  5
4143
330
9
100
AcDbSymbolTableRecord
100
AcDbRegAppTableRecord
  2
GENIUS_GENFIL_13
 70
     0
  0
APPID
  5
4144
330
9
100
AcDbSymbolTableRecord
100
AcDbRegAppTableRecord
  2
GENIUS_GENOBJ-N-CHA_13
 70
     0
  0
APPID
  5
4E17
330
9
100
AcDbSymbolTableRecord
100
AcDbRegAppTableRecord
  2
GEVID1008153417
 70
     0
  0
APPID
  5
4E58
330
9
100
AcDbSymbolTableRecord
100
AcDbRegAppTableRecord
  2
GEVID1008153418
 70
     0
  0
APPID
  5
4E5E
330
9
100
AcDbSymbolTableRecord
100
AcDbRegAppTableRecord
  2
GEVID1008153419
 70
     0
  0
APPID
  5
4E64
330
9
100
AcDbSymbolTableRecord
100
AcDbRegAppTableRecord
  2
GEVID1008153420
 70
     0
  0
APPID
  5
4E75
330
9
100
AcDbSymbolTableRecord
100
AcDbRegAppTableRecord
  2
GEVID1008153421
 70
     0
  0
APPID
  5
4EB7
330
9
100
AcDbSymbolTableRecord
100
AcDbRegAppTableRecord
  2
GENIUS_AMGTXT_16
 70
     0
  0
APPID
  5
7645
330
9
100
AcDbSymbolTableRecord
100
AcDbRegAppTableRecord
  2
GENIUS_GENOBJ-N-DIM_13
 70
     0
  0
APPID
  5
AAD0
330
9
100
AcDbSymbolTableRecord
100
AcDbRegAppTableRecord
  2
ACAD_DSTYLE_DIMARC_LENGTH_SYMBOL
 70
     0
  0
APPID
  5
AAD1
330
9
100
AcDbSymbolTableRecord
100
AcDbRegAppTableRecord
  2
ACAD_DSTYLE_DIMJOGGED_JOGANGLE_SYMBOL
 70
     0
  0
APPID
  5
AAFD
330
9
100
AcDbSymbolTableRecord
100
AcDbRegAppTableRecord
  2
ACAD_PSEXT
 70
     0
  0
APPID
  5
AD61
330
9
100
AcDbSymbolTableRecord
100
AcDbRegAppTableRecord
  2
AcAecLayerStandard
 70
     0
  0
APPID
  5
AEE3
330
9
100
AcDbSymbolTableRecord
100
AcDbRegAppTableRecord
  2
ACAD_EXEMPT_FROM_CAD_STANDARDS
 70
     0
  0
APPID
  5
B1BE
330
9
100
AcDbSymbolTableRecord
100
AcDbRegAppTableRecord
  2
GENIUS_GENCEN_19
 70
     0
  0
APPID
  5
B959
330
9
100
AcDbSymbolTableRecord
100
AcDbRegAppTableRecord
  2
ACAD_MLEADERVER
 70
     0
  0
APPID
  5
B984
330
9
100
AcDbSymbolTableRecord
100
AcDbRegAppTableRecord
  2
ACAUTHENVIRON
 70
     0
  0
APPID
  5
B985
330
9
100
AcDbSymbolTableRecord
100
AcDbRegAppTableRecord
  2
AcDbDynamicBlockTrueName
 70
     0
  0
APPID
  5
B986
330
9
100
AcDbSymbolTableRecord
100
AcDbRegAppTableRecord
  2
AcDbDynamicBlockGUID
 70
     0
  0
APPID
  5
B987
330
9
100
AcDbSymbolTableRecord
100
AcDbRegAppTableRecord
  2
ACDBBLOCKREPETAG
 70
     0
  0
ENDTAB
  0
TABLE
  2
DIMSTYLE
  5
A
330
0
100
AcDbSymbolTable
 70
    24
100
AcDbDimStyleTable
 71
     1
340
2515
  0
DIMSTYLE
105
A76
330
A
100
AcDbSymbolTableRecord
100
AcDbDimStyleTableRecord
  2
STANDARD
 70
     0
 41
3.0
 42
1.0
 43
7.0
 44
2.0
 73
     0
 74
     0
 77
     1
140
2.799999999999999
141
0.0
143
0.0394
147
0.7
171
     4
172
     1
173
     1
176
     3
177
     3
178
     2
271
     3
272
     3
273
     8
274
     4
289
     0
340
A74
341
A66
343
A66
344
A66
  0
DIMSTYLE
105
2515
330
A
100
AcDbSymbolTableRecord
100
AcDbDimStyleTableRecord
  2
SYS
 70
     0
  4
"
 41
1.0
 42
1.0
 43
10.0
 44
1.0
 47
0.1
 48
0.1
 73
     0
 74
     0
 77
     1
 78
     8
 79
     2
140
3.5
141
0.0
143
0.0393701
146
0.71
147
1.5
172
     1
176
   256
177
   256
178
     7
271
     2
272
     2
283
     0
284
     8
340
11
371
    -1
372
    -1
1001
ACAD_DSTYLE_DIMJOGGED_JOGANGLE_SYMBOL
1070
   384
1040
0.7853981633974483
1001
ACAD_DSTYLE_DIMARC_LENGTH_SYMBOL
1070
   379
1070
     1
  0
DIMSTYLE
105
2516
102
{ACAD_REACTORS
330
BD83
102
}
330
A
100
AcDbSymbolTableRecord
100
AcDbDimStyleTableRecord
  2
SYS$3
 70
     0
  4
"
 41
2.0
 42
1.0
 43
10.0
 44
1.0
 47
0.1
 48
0.1
 73
     0
 77
     1
 78
     8
 79
     2
140
3.5
141
0.0
143
0.0393701
146
0.71
147
1.5
176
   256
177
   256
178
     2
271
     2
272
     2
283
     0
284
     8
288
     1
340
11
342
A66
371
    -1
372
    -1
1001
ACAD_DSTYLE_DIMJOGGED_JOGANGLE_SYMBOL
1070
   384
1040
0.7853981633974483
1001
ACAD_DSTYLE_DIMARC_LENGTH_SYMBOL
1070
   379
1070
     1
  0
DIMSTYLE
105
2517
330
A
100
AcDbSymbolTableRecord
100
AcDbDimStyleTableRecord
  2
SYS$4
 70
     0
  4
"
 41
2.0
 42
1.0
 43
10.0
 44
1.0
 47
0.1
 48
0.1
 73
     0
 77
     1
 78
     8
 79
     2
140
3.5
141
0.0
143
0.0393701
146
0.71
147
1.5
173
     1
176
   256
177
   256
178
     2
271
     2
272
     2
283
     0
284
     8
288
     1
340
11
344
A66
371
    -1
372
    -1
1001
ACAD_DSTYLE_DIMJOGGED_JOGANGLE_SYMBOL
1070
   384
1040
0.7853981633974483
1001
ACAD_DSTYLE_DIMARC_LENGTH_SYMBOL
1070
   379
1070
     1
  0
DIMSTYLE
105
2518
330
A
100
AcDbSymbolTableRecord
100
AcDbDimStyleTableRecord
  2
SYS$6
 70
     0
  4
"
 41
2.0
 42
1.0
 43
10.0
 44
1.0
 47
0.1
 48
0.1
 73
     0
 74
     0
 78
     8
 79
     2
140
3.5
141
0.0
143
0.0393701
146
0.71
147
1.5
172
     1
176
   256
177
   256
178
     2
271
     2
272
     2
283
     0
284
     8
340
11
341
A66
371
    -1
372
    -1
1001
ACAD_DSTYLE_DIMJOGGED_JOGANGLE_SYMBOL
1070
   384
1040
0.7853981633974483
1001
ACAD_DSTYLE_DIMARC_LENGTH_SYMBOL
1070
   379
1070
     1
  0
DIMSTYLE
105
2519
330
A
100
AcDbSymbolTableRecord
100
AcDbDimStyleTableRecord
  2
SYS$7
 70
     0
  4
"
 41
2.0
 42
1.0
 43
10.0
 44
1.0
 47
0.1
 48
0.1
 73
     0
 74
     0
 77
     1
 78
     8
 79
     2
140
5.0
141
0.0
143
0.0393701
146
0.71
147
1.5
172
     1
176
   256
177
   256
178
     2
271
     2
272
     2
283
     0
284
     8
340
11
341
A66
342
A66
371
    -1
372
    -1
1001
ACAD_DSTYLE_DIMJOGGED_JOGANGLE_SYMBOL
1070
   384
1040
0.7853981633974483
1001
ACAD_DSTYLE_DIMARC_LENGTH_SYMBOL
1070
   379
1070
     1
  0
DIMSTYLE
105
251A
330
A
100
AcDbSymbolTableRecord
100
AcDbDimStyleTableRecord
  2
SYS$SF
 70
     0
  4
"
 41
2.5
 42
1.0
 43
10.0
 44
1.0
 47
0.1
 48
0.1
 73
     0
 74
     0
 75
     1
 76
     1
 77
     1
 78
     8
 79
     2
140
3.5
141
0.0
143
0.0393701
146
0.71
147
1.5
172
     1
176
   256
177
   256
178
     2
271
     2
272
     3
283
     0
284
     8
340
11
341
6C4
342
6C4
371
    -1
372
    -1
1001
ACAD_DSTYLE_DIMJOGGED_JOGANGLE_SYMBOL
1070
   384
1040
0.7853981633974483
1001
ACAD_DSTYLE_DIMARC_LENGTH_SYMBOL
1070
   379
1070
     1
  0
DIMSTYLE
105
251B
330
A
100
AcDbSymbolTableRecord
100
AcDbDimStyleTableRecord
  2
SYS$SH
 70
     0
  4
"
 41
2.5
 42
1.0
 43
10.0
 44
1.0
 47
0.1
 48
0.1
 73
     0
 74
     0
 75
     1
 76
     1
 77
     1
 78
     8
 79
     2
140
3.5
141
0.0
143
0.0393701
144
2.0
146
0.71
147
1.5
172
     1
173
     1
176
   256
177
   256
178
     2
271
     2
272
     3
283
     0
284
     8
340
11
341
6C4
343
72
344
6C4
371
    -1
372
    -1
1001
ACAD_DSTYLE_DIMJOGGED_JOGANGLE_SYMBOL
1070
   384
1040
0.7853981633974483
1001
ACAD_DSTYLE_DIMARC_LENGTH_SYMBOL
1070
   379
1070
     1
  0
DIMSTYLE
105
2A59
330
A
100
AcDbSymbolTableRecord
100
AcDbDimStyleTableRecord
  2
SYS$2
 70
     0
  4
"
 41
1.0
 42
1.0
 43
10.0
 44
1.0
 47
0.1
 48
0.1
 73
     0
 74
     0
 77
     1
 78
     8
 79
     2
140
3.5
141
0.0
143
0.0393701
146
0.71
147
1.5
172
     1
176
   256
177
   256
178
     2
271
     2
272
     2
283
     0
284
     8
340
11
342
6C4
371
    -1
372
    -1
1001
ACAD_DSTYLE_DIMJOGGED_JOGANGLE_SYMBOL
1070
   384
1040
0.7853981633974483
1001
ACAD_DSTYLE_DIMARC_LENGTH_SYMBOL
1070
   379
1070
     1
  0
DIMSTYLE
105
2AAB
102
{ACAD_REACTORS
330
BC9C
330
BCC3
330
BCE2
330
BD01
330
BD20
330
BD3F
330
BD5E
330
BDDC
330
BDFB
330
BE1A
330
BE39
330
BE58
102
}
330
A
100
AcDbSymbolTableRecord
100
AcDbDimStyleTableRecord
  2
SYS$0
 70
     0
  4
"
 41
1.0
 42
1.0
 43
10.0
 44
1.0
 47
0.1
 48
0.1
 73
     0
 74
     0
 77
     1
 78
     8
 79
     2
140
3.200000000000001
141
0.0
143
0.0393701
146
0.71
147
1.5
172
     1
176
   256
177
   256
178
     2
271
     2
272
     2
283
     0
284
     8
340
11
341
A66
342
6C4
371
    -1
372
    -1
1001
ACAD_DSTYLE_DIMJOGGED_JOGANGLE_SYMBOL
1070
   384
1040
0.7853981633974483
1001
ACAD_DSTYLE_DIMARC_LENGTH_SYMBOL
1070
   379
1070
     1
  0
DIMSTYLE
105
AF99
330
A
100
AcDbSymbolTableRecord
100
AcDbDimStyleTableRecord
  2
AM_ISO
 70
     0
  4
"
 41
2.5
 42
1.0
 43
10.0
 44
1.0
 47
0.1
 48
0.1
 73
     0
 74
     0
 77
     1
 78
     8
 79
     2
140
3.5
141
0.0
143
0.0393701
146
0.71
147
1.5
172
     1
176
   256
177
   256
178
     2
271
     2
272
     3
274
     4
283
     0
284
     8
340
11
371
    -1
372
    -1
  0
DIMSTYLE
105
AF9A
330
A
100
AcDbSymbolTableRecord
100
AcDbDimStyleTableRecord
  2
AM_ISO$3
 70
     0
  4
"
 41
2.5
 42
1.0
 43
10.0
 44
1.0
 47
0.1
 48
0.1
 73
     0
 77
     1
 78
     8
 79
     2
140
3.5
141
0.0
143
0.0393701
146
0.71
147
1.5
176
   256
177
   256
178
     2
271
     2
272
     3
274
     4
283
     0
284
     8
288
     1
289
     0
340
11
371
    -1
372
    -1
  0
DIMSTYLE
105
AF9B
330
A
100
AcDbSymbolTableRecord
100
AcDbDimStyleTableRecord
  2
AM_ISO$4
 70
     0
  4
"
 41
2.5
 42
1.0
 43
10.0
 44
1.0
 47
0.1
 48
0.1
 73
     0
 77
     1
 78
     8
 79
     2
140
3.5
141
0.0
143
0.0393701
146
0.71
147
1.5
176
   256
177
   256
178
     2
271
     2
272
     3
274
     4
283
     0
284
     8
288
     1
289
     0
340
11
371
    -1
372
    -1
  0
DIMSTYLE
105
AF9C
330
A
100
AcDbSymbolTableRecord
100
AcDbDimStyleTableRecord
  2
AM_ISO$6
 70
     0
  4
"
 41
2.5
 42
1.0
 43
10.0
 44
1.0
 47
0.1
 48
0.1
 73
     0
 74
     0
 78
     8
 79
     2
140
3.5
141
0.0
143
0.0393701
146
0.71
147
1.5
172
     1
176
   256
177
   256
178
     2
271
     2
272
     3
274
     4
283
     0
284
     8
340
11
371
    -1
372
    -1
  0
DIMSTYLE
105
AF9D
330
A
100
AcDbSymbolTableRecord
100
AcDbDimStyleTableRecord
  2
AM_ISO$7
 70
     0
  4
"
 41
2.5
 42
1.0
 43
10.0
 44
1.0
 47
0.1
 48
0.1
 73
     0
 74
     0
 77
     1
 78
     8
 79
     2
140
5.0
141
0.0
143
0.0393701
146
0.71
147
1.5
172
     1
176
   256
177
   256
178
     2
271
     2
272
     3
274
     4
283
     0
284
     8
340
11
371
    -1
372
    -1
  0
DIMSTYLE
105
AF9E
330
A
100
AcDbSymbolTableRecord
100
AcDbDimStyleTableRecord
  2
AM_ISO$SF
 70
     0
  4
"
 41
2.5
 42
1.0
 43
10.0
 44
1.0
 47
0.1
 48
0.1
 73
     0
 74
     0
 75
     1
 76
     1
 77
     1
 78
     8
 79
     2
140
3.5
141
0.0
143
0.0393701
146
0.71
147
1.5
172
     1
176
   256
177
   256
178
     2
271
     2
272
     3
274
     4
283
     0
284
     8
340
11
371
    -1
372
    -1
  0
DIMSTYLE
105
AF9F
330
A
100
AcDbSymbolTableRecord
100
AcDbDimStyleTableRecord
  2
AM_ISO$SH
 70
     0
  4
"
 41
2.5
 42
1.0
 43
10.0
 44
1.0
 47
0.1
 48
0.1
 73
     0
 74
     0
 75
     1
 76
     1
 77
     1
 78
     8
 79
     2
140
3.5
141
0.0
143
0.0393701
144
2.0
146
0.71
147
1.5
172
     1
173
     1
176
   256
177
   256
178
     2
271
     2
272
     3
274
     4
283
     0
284
     8
340
11
343
72
371
    -1
372
    -1
  0
DIMSTYLE
105
B5DD
330
A
100
AcDbSymbolTableRecord
100
AcDbDimStyleTableRecord
  2
DIMSTYLE
 70
     0
 41
1.0
 42
2.54
 44
2.54
 73
     0
 74
     0
140
3.2
147
1.6
173
     1
279
     2
340
11
  0
DIMSTYLE
105
B5DE
330
A
100
AcDbSymbolTableRecord
100
AcDbDimStyleTableRecord
  2
AM_ANSI
 70
     0
  4
mm
 41
0.1
 42
0.05
 43
0.5
 44
0.1
 47
0.1
 48
0.1
 78
     7
 79
     2
140
0.12
141
0.0
146
0.71
147
0.06
176
   256
177
   256
178
     2
274
     4
284
     7
340
11
371
    -1
372
    -1
1001
ACAD_DSTYLE_DIMARC_LENGTH_SYMBOL
1070
   379
1070
     1
  0
DIMSTYLE
105
B5DF
330
A
100
AcDbSymbolTableRecord
100
AcDbDimStyleTableRecord
  2
AM_ANSI$3
 70
     0
  4
mm
 41
0.1
 42
0.05
 43
0.5
 44
0.1
 47
0.1
 48
0.1
 78
     7
 79
     2
140
0.12
141
0.0
146
0.71
147
0.06
176
   256
177
   256
178
     2
274
     4
284
     7
288
     1
289
     0
340
11
371
    -1
372
    -1
1001
ACAD_DSTYLE_DIMARC_LENGTH_SYMBOL
1070
   379
1070
     1
  0
DIMSTYLE
105
B5E0
330
A
100
AcDbSymbolTableRecord
100
AcDbDimStyleTableRecord
  2
AM_ANSI$4
 70
     0
  4
mm
 41
0.1
 42
0.05
 43
0.5
 44
0.1
 47
0.1
 48
0.1
 78
     7
 79
     2
140
0.12
141
0.0
146
0.71
147
0.06
176
   256
177
   256
178
     2
274
     4
284
     7
288
     1
289
     0
340
11
371
    -1
372
    -1
1001
ACAD_DSTYLE_DIMARC_LENGTH_SYMBOL
1070
   379
1070
     1
  0
DIMSTYLE
105
B5E1
330
A
100
AcDbSymbolTableRecord
100
AcDbDimStyleTableRecord
  2
AM_ANSI$7
 70
     0
  4
mm
 41
0.1
 42
0.05
 43
0.5
 44
0.1
 47
0.1
 48
0.1
 78
     7
 79
     2
140
0.24
141
0.0
146
0.71
147
0.06
176
   256
177
   256
178
     2
274
     4
284
     7
340
11
371
    -1
372
    -1
1001
ACAD_DSTYLE_DIMARC_LENGTH_SYMBOL
1070
   379
1070
     1
  0
DIMSTYLE
105
B5E2
330
A
100
AcDbSymbolTableRecord
100
AcDbDimStyleTableRecord
  2
AM_ANSI$SF
 70
     0
  4
mm
 41
0.1
 42
0.05
 43
0.5
 44
0.1
 47
0.1
 48
0.1
 75
     1
 76
     1
 78
     7
 79
     2
140
0.12
141
0.0
146
0.71
147
0.06
176
   256
177
   256
178
     2
274
     4
284
     7
340
11
371
    -1
372
    -1
1001
ACAD_DSTYLE_DIMARC_LENGTH_SYMBOL
1070
   379
1070
     1
  0
DIMSTYLE
105
B5E3
330
A
100
AcDbSymbolTableRecord
100
AcDbDimStyleTableRecord
  2
AM_ANSI$SH
 70
     0
  4
mm
 41
0.1
 42
0.05
 43
0.5
 44
0.1
 47
0.1
 48
0.1
 75
     1
 76
     1
 78
     7
 79
     2
140
0.12
141
0.0
146
0.71
147
0.06
173
     1
176
   256
177
   256
178
     2
274
     4
284
     7
340
11
343
72
371
    -1
372
    -1
1001
ACAD_DSTYLE_DIMARC_LENGTH_SYMBOL
1070
   379
1070
     1
  0
ENDTAB
  0
TABLE
  2
BLOCK_RECORD
  5
1
330
0
100
AcDbSymbolTable
 70
    19
  0
BLOCK_RECORD
  5
1F
102
{ACAD_XDICTIONARY
360
8A
102
}
330
1
100
AcDbSymbolTableRecord
100
AcDbBlockTableRecord
  2
*Model_Space
340
22
  0
BLOCK_RECORD
  5
1B
330
1
100
AcDbSymbolTableRecord
100
AcDbBlockTableRecord
  2
*Paper_Space
340
1E
  0
BLOCK_RECORD
  5
23
330
1
100
AcDbSymbolTableRecord
100
AcDbBlockTableRecord
  2
*Paper_Space0
340
26
  0
BLOCK_RECORD
  5
72
330
1
100
AcDbSymbolTableRecord
100
AcDbBlockTableRecord
  2
GENAXEH
340
0
  0
BLOCK_RECORD
  5
6C4
330
1
100
AcDbSymbolTableRecord
100
AcDbBlockTableRecord
  2
_Dot
340
0
102
{BLKREFS
331
BCBD
331
BCBE
331
BCDC
331
BCDD
331
BCFB
331
BCFC
331
BD1A
331
BD1B
331
BD39
331
BD3A
331
BD58
331
BD59
331
BD7D
331
BD7E
331
BDF5
331
BDF6
331
BE14
331
BE15
331
BE33
331
BE34
331
BE52
331
BE53
331
BE71
331
BE72
102
}
  0
BLOCK_RECORD
  5
A66
330
1
100
AcDbSymbolTableRecord
100
AcDbBlockTableRecord
  2
_OPEN30
340
0
  0
BLOCK_RECORD
  5
BC9D
330
1
100
AcDbSymbolTableRecord
100
AcDbBlockTableRecord
  2
*D5
340
0
  0
BLOCK_RECORD
  5
BCC4
330
1
100
AcDbSymbolTableRecord
100
AcDbBlockTableRecord
  2
*D6
340
0
  0
BLOCK_RECORD
  5
BCE3
330
1
100
AcDbSymbolTableRecord
100
AcDbBlockTableRecord
  2
*D7
340
0
  0
BLOCK_RECORD
  5
BD02
330
1
100
AcDbSymbolTableRecord
100
AcDbBlockTableRecord
  2
*D8
340
0
  0
BLOCK_RECORD
  5
BD21
330
1
100
AcDbSymbolTableRecord
100
AcDbBlockTableRecord
  2
*D9
340
0
  0
BLOCK_RECORD
  5
BD40
330
1
100
AcDbSymbolTableRecord
100
AcDbBlockTableRecord
  2
*D10
340
0
  0
BLOCK_RECORD
  5
BD5F
330
1
100
AcDbSymbolTableRecord
100
AcDbBlockTableRecord
  2
*D11
340
0
  0
BLOCK_RECORD
  5
BD84
330
1
100
AcDbSymbolTableRecord
100
AcDbBlockTableRecord
  2
*D12
340
0
  0
BLOCK_RECORD
  5
BDAA
330
1
100
AcDbSymbolTableRecord
100
AcDbBlockTableRecord
  2
GENDOT
340
0
102
{BLKREFS
331
BDD8
331
BDD9
102
}
  0
BLOCK_RECORD
  5
BDDD
330
1
100
AcDbSymbolTableRecord
100
AcDbBlockTableRecord
  2
*D14
340
0
  0
BLOCK_RECORD
  5
BDFC
330
1
100
AcDbSymbolTableRecord
100
AcDbBlockTableRecord
  2
*D15
340
0
  0
BLOCK_RECORD
  5
BE1B
330
1
100
AcDbSymbolTableRecord
100
AcDbBlockTableRecord
  2
*D16
340
0
  0
BLOCK_RECORD
  5
BE3A
330
1
100
AcDbSymbolTableRecord
100
AcDbBlockTableRecord
  2
*D17
340
0
  0
BLOCK_RECORD
  5
BE59
330
1
100
AcDbSymbolTableRecord
100
AcDbBlockTableRecord
  2
*D18
340
0
  0
ENDTAB
  0
ENDSEC
  0
SECTION
  2
BLOCKS
  0
BLOCK
  5
20
330
1F
100
AcDbEntity
  8
0
100
AcDbBlockBegin
  2
*Model_Space
 70
     0
 10
0.0
 20
0.0
 30
0.0
  3
*Model_Space
  1

  0
ENDBLK
  5
21
330
1F
100
AcDbEntity
  8
0
100
AcDbBlockEnd
  0
BLOCK
  5
1C
330
1B
100
AcDbEntity
 67
     1
  8
0
100
AcDbBlockBegin
  2
*Paper_Space
 70
     0
 10
0.0
 20
0.0
 30
0.0
  3
*Paper_Space
  1

  0
ENDBLK
  5
1D
330
1B
100
AcDbEntity
 67
     1
  8
0
100
AcDbBlockEnd
  0
BLOCK
  5
24
330
23
100
AcDbEntity
 67
     1
  8
0
100
AcDbBlockBegin
  2
*Paper_Space0
 70
     0
 10
0.0
 20
0.0
 30
0.0
  3
*Paper_Space0
  1

  0
ENDBLK
  5
25
330
23
100
AcDbEntity
 67
     1
  8
0
100
AcDbBlockEnd
  0
BLOCK
  5
74
330
72
100
AcDbEntity
  8
0
100
AcDbBlockBegin
  2
GENAXEH
 70
     0
 10
0.0
 20
0.0
 30
0.0
  3
GENAXEH
  1

  0
LINE
  5
73
330
72
100
AcDbEntity
  8
0
100
AcDbLine
 10
-1.0
 20
0.0
 30
0.0
 11
1.0
 21
0.0
 31
0.0
  0
ENDBLK
  5
75
330
72
100
AcDbEntity
  8
0
100
AcDbBlockEnd
  0
BLOCK
  5
6C7
330
6C4
100
AcDbEntity
  8
0
100
AcDbBlockBegin
  2
_Dot
 70
     0
 10
0.0
 20
0.0
 30
0.0
  3
_Dot
  1

  0
LWPOLYLINE
  5
6C5
330
6C4
100
AcDbEntity
  8
0
  6
ByBlock
 62
     0
100
AcDbPolyline
 90
        2
 70
     1
 43
0.5
 10
-0.25
 20
0.0
 42
1.0
 10
0.25
 20
0.0
 42
1.0
  0
LINE
  5
6C6
330
6C4
100
AcDbEntity
  8
0
  6
ByBlock
 62
     0
370
    -2
100
AcDbLine
 10
-0.5
 20
0.0
 30
0.0
 11
-1.0
 21
0.0
 31
0.0
  0
ENDBLK
  5
6C8
330
6C4
100
AcDbEntity
  8
0
100
AcDbBlockEnd
  0
BLOCK
  5
A6A
330
A66
100
AcDbEntity
  8
0
100
AcDbBlockBegin
  2
_OPEN30
 70
     0
 10
0.0
 20
0.0
 30
0.0
  3
_OPEN30
  1

  0
LINE
  5
A67
330
A66
100
AcDbEntity
  8
0
  6
ByBlock
 62
     0
100
AcDbLine
 10
-1.0
 20
0.26794919
 30
0.0
 11
0.0
 21
0.0
 31
0.0
  0
LINE
  5
A68
330
A66
100
AcDbEntity
  8
0
  6
ByBlock
 62
     0
100
AcDbLine
 10
0.0
 20
0.0
 30
0.0
 11
-1.0
 21
-0.26794919
 31
0.0
  0
LINE
  5
A69
330
A66
100
AcDbEntity
  8
0
  6
ByBlock
 62
     0
100
AcDbLine
 10
0.0
 20
0.0
 30
0.0
 11
-1.0
 21
0.0
 31
0.0
  0
ENDBLK
  5
A6B
330
A66
100
AcDbEntity
  8
0
100
AcDbBlockEnd
  0
BLOCK
  5
BCA7
330
BC9D
100
AcDbEntity
  8
0
100
AcDbBlockBegin
  2
*D5
 70
     1
 10
0.0
 20
0.0
 30
0.0
  3
*D5
  1

  0
LINE
  5
BCBA
330
BC9D
100
AcDbEntity
  8
AM_5
100
AcDbLine
 10
293.0792256171478
 20
102.7138468292847
 30
0.0
 11
305.0792256171478
 21
102.7138468292847
 31
0.0
  0
LINE
  5
BCBB
330
BC9D
100
AcDbEntity
  8
AM_5
100
AcDbLine
 10
285.0154216171478
 20
116.4638467292847
 30
0.0
 11
305.0792256171478
 21
116.4638467292847
 31
0.0
  0
LINE
  5
BCBC
330
BC9D
100
AcDbEntity
  8
AM_5
100
AcDbLine
 10
304.0792256171478
 20
103.7138468292847
 30
0.0
 11
304.0792256171478
 21
115.4638467292847
 31
0.0
  0
INSERT
  5
BCBD
330
BC9D
100
AcDbEntity
  8
AM_5
100
AcDbBlockReference
  2
_Dot
 10
304.0792256171478
 20
102.7138468292847
 30
0.0
 50
270.0
  0
INSERT
  5
BCBE
330
BC9D
100
AcDbEntity
  8
AM_5
100
AcDbBlockReference
  2
_Dot
 10
304.0792256171478
 20
116.4638467292847
 30
0.0
 50
90.0
  0
MTEXT
  5
BCBF
330
BC9D
100
AcDbEntity
  8
AM_5
 62
     2
100
AcDbMText
 10
300.9792256171478
 20
109.5888467792847
 30
0.0
 40
3.200000000000001
 41
0.0
 71
     5
 72
     1
  1
I
 11
0.0000000000000001
 21
1.0
 31
0.0
 73
     1
 44
1.0
1001
ACAD
1000
MTEXTBEGIN
1070
    73
1070
     1
1070
    44
1040
1.0
1070
    74
1070
     0
1000
MTEXTEND
  0
POINT
  5
BCC0
330
BC9D
100
AcDbEntity
  8
Defpoints
 62
     0
100
AcDbPoint
 10
292.0792256171478
 20
102.7138468292847
 30
0.0
  0
POINT
  5
BCC1
330
BC9D
100
AcDbEntity
  8
Defpoints
 62
     0
100
AcDbPoint
 10
284.0154216171478
 20
116.4638467292847
 30
0.0
  0
POINT
  5
BCC2
330
BC9D
100
AcDbEntity
  8
Defpoints
 62
     0
100
AcDbPoint
 10
304.0792256171478
 20
116.4638467292847
 30
0.0
  0
ENDBLK
  5
BCA8
330
BC9D
100
AcDbEntity
  8
0
100
AcDbBlockEnd
  0
BLOCK
  5
BCCE
330
BCC4
100
AcDbEntity
  8
0
100
AcDbBlockBegin
  2
*D6
 70
     1
 10
0.0
 20
0.0
 30
0.0
  3
*D6
  1

  0
LINE
  5
BCD9
330
BCC4
100
AcDbEntity
  8
AM_5
100
AcDbLine
 10
293.0792256171478
 20
102.7138468292847
 30
0.0
 11
305.0792256171478
 21
102.7138468292847
 31
0.0
  0
LINE
  5
BCDA
330
BCC4
100
AcDbEntity
  8
AM_5
100
AcDbLine
 10
280.0154216171477
 20
85.2138468292847
 30
0.0
 11
305.0792256171478
 21
85.21384682928468
 31
0.0
  0
LINE
  5
BCDB
330
BCC4
100
AcDbEntity
  8
AM_5
100
AcDbLine
 10
304.0792256171478
 20
101.7138468292847
 30
0.0
 11
304.0792256171478
 21
86.2138468292847
 31
0.0
  0
INSERT
  5
BCDC
330
BCC4
100
AcDbEntity
  8
AM_5
100
AcDbBlockReference
  2
_Dot
 10
304.0792256171478
 20
102.7138468292847
 30
0.0
 50
90.0
  0
INSERT
  5
BCDD
330
BCC4
100
AcDbEntity
  8
AM_5
100
AcDbBlockReference
  2
_Dot
 10
304.0792256171478
 20
85.21384682928468
 30
0.0
 50
270.0
  0
MTEXT
  5
BCDE
330
BCC4
100
AcDbEntity
  8
AM_5
 62
     2
100
AcDbMText
 10
300.9792256171478
 20
93.96384682928475
 30
0.0
 40
3.200000000000001
 41
0.0
 71
     5
 72
     1
  1
J
 11
0.0000000000000001
 21
1.0
 31
0.0
 73
     1
 44
1.0
1001
ACAD
1000
MTEXTBEGIN
1070
    73
1070
     1
1070
    44
1040
1.0
1070
    74
1070
     0
1000
MTEXTEND
  0
POINT
  5
BCDF
330
BCC4
100
AcDbEntity
  8
Defpoints
 62
     0
100
AcDbPoint
 10
292.0792256171478
 20
102.7138468292847
 30
0.0
  0
POINT
  5
BCE0
330
BCC4
100
AcDbEntity
  8
Defpoints
 62
     0
100
AcDbPoint
 10
279.0154216171477
 20
85.2138468292847
 30
0.0
  0
POINT
  5
BCE1
330
BCC4
100
AcDbEntity
  8
Defpoints
 62
     0
100
AcDbPoint
 10
304.0792256171478
 20
85.21384682928468
 30
0.0
  0
ENDBLK
  5
BCCF
330
BCC4
100
AcDbEntity
  8
0
100
AcDbBlockEnd
  0
BLOCK
  5
BCED
330
BCE3
100
AcDbEntity
  8
0
100
AcDbBlockBegin
  2
*D7
 70
     1
 10
0.0
 20
0.0
 30
0.0
  3
*D7
  1

  0
LINE
  5
BCF8
330
BCE3
100
AcDbEntity
  8
AM_5
100
AcDbLine
 10
284.0154216171478
 20
117.4638467292847
 30
0.0
 11
284.0154216171478
 21
129.4638467292847
 31
0.0
  0
LINE
  5
BCF9
330
BCE3
100
AcDbEntity
  8
AM_5
100
AcDbLine
 10
263.0154216171478
 20
116.6752728292847
 30
0.0
 11
263.0154216171478
 21
129.4638467292847
 31
0.0
  0
LINE
  5
BCFA
330
BCE3
100
AcDbEntity
  8
AM_5
100
AcDbLine
 10
283.0154216171478
 20
128.4638467292847
 30
0.0
 11
264.0154216171478
 21
128.4638467292847
 31
0.0
  0
INSERT
  5
BCFB
330
BCE3
100
AcDbEntity
  8
AM_5
100
AcDbBlockReference
  2
_Dot
 10
284.0154216171478
 20
128.4638467292847
 30
0.0
  0
INSERT
  5
BCFC
330
BCE3
100
AcDbEntity
  8
AM_5
100
AcDbBlockReference
  2
_Dot
 10
263.0154216171478
 20
128.4638467292847
 30
0.0
 50
180.0
  0
MTEXT
  5
BCFD
330
BCE3
100
AcDbEntity
  8
AM_5
 62
     2
100
AcDbMText
 10
273.5154216171478
 20
131.5638467292847
 30
0.0
 40
3.200000000000001
 41
0.0
 71
     5
 72
     1
  1
H
 73
     1
 44
1.0
1001
ACAD
1000
MTEXTBEGIN
1070
    73
1070
     1
1070
    44
1040
1.0
1070
    74
1070
     0
1000
MTEXTEND
  0
POINT
  5
BCFE
330
BCE3
100
AcDbEntity
  8
Defpoints
 62
     0
100
AcDbPoint
 10
284.0154216171478
 20
116.4638467292847
 30
0.0
  0
POINT
  5
BCFF
330
BCE3
100
AcDbEntity
  8
Defpoints
 62
     0
100
AcDbPoint
 10
263.0154216171478
 20
115.6752728292847
 30
0.0
  0
POINT
  5
BD00
330
BCE3
100
AcDbEntity
  8
Defpoints
 62
     0
100
AcDbPoint
 10
263.0154216171478
 20
128.4638467292847
 30
0.0
  0
ENDBLK
  5
BCEE
330
BCE3
100
AcDbEntity
  8
0
100
AcDbBlockEnd
  0
BLOCK
  5
BD0C
330
BD02
100
AcDbEntity
  8
0
100
AcDbBlockBegin
  2
*D8
 70
     1
 10
0.0
 20
0.0
 30
0.0
  3
*D8
  1

  0
LINE
  5
BD17
330
BD02
100
AcDbEntity
  8
AM_5
100
AcDbLine
 10
263.0154216171478
 20
116.6752728292847
 30
0.0
 11
263.0154216171478
 21
129.4638467292845
 31
0.0
  0
LINE
  5
BD18
330
BD02
100
AcDbEntity
  8
AM_5
100
AcDbLine
 10
230.5154222171477
 20
116.6752728292847
 30
0.0
 11
230.5154222171477
 21
129.4638467292845
 31
0.0
  0
LINE
  5
BD19
330
BD02
100
AcDbEntity
  8
AM_5
100
AcDbLine
 10
262.0154216171478
 20
128.4638467292845
 30
0.0
 11
231.5154222171477
 21
128.4638467292845
 31
0.0
  0
INSERT
  5
BD1A
330
BD02
100
AcDbEntity
  8
AM_5
100
AcDbBlockReference
  2
_Dot
 10
263.0154216171478
 20
128.4638467292845
 30
0.0
  0
INSERT
  5
BD1B
330
BD02
100
AcDbEntity
  8
AM_5
100
AcDbBlockReference
  2
_Dot
 10
230.5154222171477
 20
128.4638467292845
 30
0.0
 50
180.0
  0
MTEXT
  5
BD1C
330
BD02
100
AcDbEntity
  8
AM_5
 62
     2
100
AcDbMText
 10
246.7654219171478
 20
131.5638467292845
 30
0.0
 40
3.200000000000001
 41
0.0
 71
     5
 72
     1
  1
G
 73
     1
 44
1.0
1001
ACAD
1000
MTEXTBEGIN
1070
    73
1070
     1
1070
    44
1040
1.0
1070
    74
1070
     0
1000
MTEXTEND
  0
POINT
  5
BD1D
330
BD02
100
AcDbEntity
  8
Defpoints
 62
     0
100
AcDbPoint
 10
263.0154216171478
 20
115.6752728292847
 30
0.0
  0
POINT
  5
BD1E
330
BD02
100
AcDbEntity
  8
Defpoints
 62
     0
100
AcDbPoint
 10
230.5154222171477
 20
115.6752728292847
 30
0.0
  0
POINT
  5
BD1F
330
BD02
100
AcDbEntity
  8
Defpoints
 62
     0
100
AcDbPoint
 10
230.5154222171477
 20
128.4638467292845
 30
0.0
  0
ENDBLK
  5
BD0D
330
BD02
100
AcDbEntity
  8
0
100
AcDbBlockEnd
  0
BLOCK
  5
BD2B
330
BD21
100
AcDbEntity
  8
0
100
AcDbBlockBegin
  2
*D9
 70
     1
 10
0.0
 20
0.0
 30
0.0
  3
*D9
  1

  0
LINE
  5
BD36
330
BD21
100
AcDbEntity
  8
AM_5
100
AcDbLine
 10
230.5154222171477
 20
116.6752728292847
 30
0.0
 11
230.5154222171477
 21
129.4638477292847
 31
0.0
  0
LINE
  5
BD37
330
BD21
100
AcDbEntity
  8
AM_5
100
AcDbLine
 10
210.2654216171478
 20
117.4638390292847
 30
0.0
 11
210.2654216171478
 21
129.4638477292847
 31
0.0
  0
LINE
  5
BD38
330
BD21
100
AcDbEntity
  8
AM_5
100
AcDbLine
 10
229.5154222171477
 20
128.4638477292847
 30
0.0
 11
211.2654216171478
 21
128.4638477292847
 31
0.0
  0
INSERT
  5
BD39
330
BD21
100
AcDbEntity
  8
AM_5
100
AcDbBlockReference
  2
_Dot
 10
230.5154222171477
 20
128.4638477292847
 30
0.0
  0
INSERT
  5
BD3A
330
BD21
100
AcDbEntity
  8
AM_5
100
AcDbBlockReference
  2
_Dot
 10
210.2654216171478
 20
128.4638477292847
 30
0.0
 50
180.0
  0
MTEXT
  5
BD3B
330
BD21
100
AcDbEntity
  8
AM_5
 62
     2
100
AcDbMText
 10
220.3904219171477
 20
131.5638477292847
 30
0.0
 40
3.200000000000001
 41
0.0
 71
     5
 72
     1
  1
H
 73
     1
 44
1.0
1001
ACAD
1000
MTEXTBEGIN
1070
    73
1070
     1
1070
    44
1040
1.0
1070
    74
1070
     0
1000
MTEXTEND
  0
POINT
  5
BD3C
330
BD21
100
AcDbEntity
  8
Defpoints
 62
     0
100
AcDbPoint
 10
230.5154222171477
 20
115.6752728292847
 30
0.0
  0
POINT
  5
BD3D
330
BD21
100
AcDbEntity
  8
Defpoints
 62
     0
100
AcDbPoint
 10
210.2654216171478
 20
116.4638390292847
 30
0.0
  0
POINT
  5
BD3E
330
BD21
100
AcDbEntity
  8
Defpoints
 62
     0
100
AcDbPoint
 10
210.2654216171478
 20
128.4638477292847
 30
0.0
  0
ENDBLK
  5
BD2C
330
BD21
100
AcDbEntity
  8
0
100
AcDbBlockEnd
  0
BLOCK
  5
BD4A
330
BD40
100
AcDbEntity
  8
0
100
AcDbBlockBegin
  2
*D10
 70
     1
 10
0.0
 20
0.0
 30
0.0
  3
*D10
  1

  0
LINE
  5
BD55
330
BD40
100
AcDbEntity
  8
AM_5
100
AcDbLine
 10
210.2654216171478
 20
117.4638467292847
 30
0.0
 11
210.2654216171478
 21
139.4638467292847
 31
0.0
  0
LINE
  5
BD56
330
BD40
100
AcDbEntity
  8
AM_5
100
AcDbLine
 10
284.0154216171478
 20
117.4638467292847
 30
0.0
 11
284.0154216171478
 21
139.4638467292847
 31
0.0
  0
LINE
  5
BD57
330
BD40
100
AcDbEntity
  8
AM_5
100
AcDbLine
 10
211.2654216171478
 20
138.4638467292847
 30
0.0
 11
283.0154216171478
 21
138.4638467292847
 31
0.0
  0
INSERT
  5
BD58
330
BD40
100
AcDbEntity
  8
AM_5
100
AcDbBlockReference
  2
_Dot
 10
210.2654216171478
 20
138.4638467292847
 30
0.0
 50
180.0
  0
INSERT
  5
BD59
330
BD40
100
AcDbEntity
  8
AM_5
100
AcDbBlockReference
  2
_Dot
 10
284.0154216171478
 20
138.4638467292847
 30
0.0
  0
MTEXT
  5
BD5A
330
BD40
100
AcDbEntity
  8
AM_5
 62
     2
100
AcDbMText
 10
247.1404216171478
 20
141.5638467292847
 30
0.0
 40
3.200000000000001
 41
0.0
 71
     5
 72
     1
  1
F
 73
     1
 44
1.0
1001
ACAD
1000
MTEXTBEGIN
1070
    73
1070
     1
1070
    44
1040
1.0
1070
    74
1070
     0
1000
MTEXTEND
  0
POINT
  5
BD5B
330
BD40
100
AcDbEntity
  8
Defpoints
 62
     0
100
AcDbPoint
 10
210.2654216171478
 20
116.4638467292847
 30
0.0
  0
POINT
  5
BD5C
330
BD40
100
AcDbEntity
  8
Defpoints
 62
     0
100
AcDbPoint
 10
284.0154216171478
 20
116.4638467292847
 30
0.0
  0
POINT
  5
BD5D
330
BD40
100
AcDbEntity
  8
Defpoints
 62
     0
100
AcDbPoint
 10
284.0154216171478
 20
138.4638467292847
 30
0.0
  0
ENDBLK
  5
BD4B
330
BD40
100
AcDbEntity
  8
0
100
AcDbBlockEnd
  0
BLOCK
  5
BD6B
330
BD5F
100
AcDbEntity
  8
0
100
AcDbBlockBegin
  2
*D11
 70
     1
 10
0.0
 20
0.0
 30
0.0
  3
*D11
  1

  0
LINE
  5
BD78
330
BD5F
100
AcDbEntity
  8
AM_5
100
AcDbLine
 10
197.0154216171478
 20
117.4638467292847
 30
0.0
 11
197.0154216171478
 21
129.4638477292847
 31
0.0
  0
LINE
  5
BD79
330
BD5F
100
AcDbEntity
  8
AM_5
100
AcDbLine
 10
194.0154216171478
 20
117.4638390292847
 30
0.0
 11
194.0154216171478
 21
129.4638477292847
 31
0.0
  0
LINE
  5
BD7A
330
BD5F
100
AcDbEntity
  8
AM_5
100
AcDbLine
 10
198.0154216171478
 20
128.4638477292847
 30
0.0
 11
199.0154216171478
 21
128.4638477292847
 31
0.0
  0
LINE
  5
BD7B
330
BD5F
100
AcDbEntity
  8
AM_5
100
AcDbLine
 10
193.0154216171478
 20
128.4638477292847
 30
0.0
 11
187.7354216171478
 21
128.4638477292847
 31
0.0
  0
LINE
  5
BD7C
330
BD5F
100
AcDbEntity
  8
AM_5
100
AcDbLine
 10
197.0154216171478
 20
128.4638477292847
 30
0.0
 11
194.0154216171478
 21
128.4638477292847
 31
0.0
  0
INSERT
  5
BD7D
330
BD5F
100
AcDbEntity
  8
AM_5
100
AcDbBlockReference
  2
_Dot
 10
197.0154216171478
 20
128.4638477292847
 30
0.0
 50
180.0
  0
INSERT
  5
BD7E
330
BD5F
100
AcDbEntity
  8
AM_5
100
AcDbBlockReference
  2
_Dot
 10
194.0154216171478
 20
128.4638477292847
 30
0.0
  0
MTEXT
  5
BD7F
330
BD5F
100
AcDbEntity
  8
AM_5
 62
     2
100
AcDbMText
 10
189.8754216171478
 20
131.5638477292847
 30
0.0
 40
3.200000000000001
 41
0.0
 71
     5
 72
     1
  1
L
 73
     1
 44
1.0
1001
ACAD
1000
MTEXTBEGIN
1070
    73
1070
     1
1070
    44
1040
1.0
1070
    74
1070
     0
1000
MTEXTEND
  0
POINT
  5
BD80
330
BD5F
100
AcDbEntity
  8
Defpoints
 62
     0
100
AcDbPoint
 10
197.0154216171478
 20
116.4638467292847
 30
0.0
  0
POINT
  5
BD81
330
BD5F
100
AcDbEntity
  8
Defpoints
 62
     0
100
AcDbPoint
 10
194.0154216171478
 20
116.4638390292847
 30
0.0
  0
POINT
  5
BD82
330
BD5F
100
AcDbEntity
  8
Defpoints
 62
     0
100
AcDbPoint
 10
194.0154216171478
 20
128.4638477292847
 30
0.0
  0
ENDBLK
  5
BD6C
330
BD5F
100
AcDbEntity
  8
0
100
AcDbBlockEnd
  0
BLOCK
  5
BD8D
330
BD84
100
AcDbEntity
  8
0
100
AcDbBlockBegin
  2
*D12
 70
     1
 10
0.0
 20
0.0
 30
0.0
  3
*D12
  1

  0
LINE
  5
BDD3
330
BD84
100
AcDbEntity
  8
AM_5
100
AcDbLine
 10
282.0680004867953
 20
73.21384682928473
 30
0.0
 11
278.934667153462
 21
73.21384682928473
 31
0.0
  0
LINE
  5
BDD4
330
BD84
100
AcDbEntity
  8
AM_5
100
AcDbLine
 10
278.934667153462
 20
73.21384682928473
 30
0.0
 11
266.3397251306959
 21
96.55357036228981
 31
0.0
  0
LINE
  5
BDD5
330
BD84
100
AcDbEntity
  8
AM_5
100
AcDbLine
 10
259.6911181035995
 20
108.8741232962796
 30
0.0
 11
258.7413170997286
 21
110.6342022868496
 31
0.0
  0
MTEXT
  5
BDD6
330
BD84
100
AcDbEntity
  8
AM_5
 62
     2
100
AcDbMText
 10
281.2513338201286
 20
76.46384682928476
 30
0.0
 40
3.5
 41
0.0
 71
     5
 72
     1
  1
K
 73
     1
 44
1.0
1001
ACAD
1000
MTEXTBEGIN
1070
    73
1070
     1
1070
    44
1040
1.0
1070
    74
1070
     0
1000
MTEXTEND
  0
LINE
  5
BDD7
330
BD84
100
AcDbEntity
  8
AM_5
100
AcDbLine
 10
260.6409191074704
 20
107.1140443057096
 30
0.0
 11
265.3899241268249
 21
98.31364935285979
 31
0.0
  0
INSERT
  5
BDD8
330
BD84
100
AcDbEntity
  8
AM_5
100
AcDbBlockReference
  2
GENDOT
 10
260.6409191074704
 20
107.1140443057096
 30
0.0
 41
2.0
 42
2.0
 43
2.0
 50
298.3528719176522
  0
INSERT
  5
BDD9
330
BD84
100
AcDbEntity
  8
AM_5
100
AcDbBlockReference
  2
GENDOT
 10
265.3899241268249
 20
98.31364935285979
 30
0.0
 41
2.0
 42
2.0
 43
2.0
 50
118.3528719176522
  0
POINT
  5
BDDA
330
BD84
100
AcDbEntity
  8
Defpoints
 62
     0
100
AcDbPoint
 10
265.3899241268249
 20
98.31364935285979
 30
0.0
  0
POINT
  5
BDDB
330
BD84
100
AcDbEntity
  8
Defpoints
 62
     0
100
AcDbPoint
 10
260.6409191074704
 20
107.1140443057096
 30
0.0
  0
ENDBLK
  5
BD8E
330
BD84
100
AcDbEntity
  8
0
100
AcDbBlockEnd
  0
BLOCK
  5
BDAD
330
BDAA
100
AcDbEntity
  8
0
100
AcDbBlockBegin
  2
GENDOT
 70
     0
 10
0.0
 20
0.0
 30
0.0
  3
GENDOT
  1

  0
LINE
  5
BDAB
330
BDAA
100
AcDbEntity
  8
0
100
AcDbLine
 10
0.0
 20
0.0
 30
0.0
 11
-1.0
 21
0.0
 31
0.0
  0
LWPOLYLINE
  5
BDAC
330
BDAA
100
AcDbEntity
  8
0
100
AcDbPolyline
 90
        2
 70
     1
 43
0.25
 10
-0.125
 20
0.0
 42
1.0
 10
0.125
 20
0.0
 42
1.0
  0
ENDBLK
  5
BDAE
330
BDAA
100
AcDbEntity
  8
0
100
AcDbBlockEnd
  0
BLOCK
  5
BDE7
330
BDDD
100
AcDbEntity
  8
0
100
AcDbBlockBegin
  2
*D14
 70
     1
 10
0.0
 20
0.0
 30
0.0
  3
*D14
  1

  0
LINE
  5
BDF2
330
BDDD
100
AcDbEntity
  8
AM_5
100
AcDbLine
 10
215.5154224171478
 20
164.7146750985685
 30
0.0
 11
215.5154224171478
 21
152.7146750985685
 31
0.0
  0
LINE
  5
BDF3
330
BDDD
100
AcDbEntity
  8
AM_5
100
AcDbLine
 10
245.5154226171478
 20
164.7146750985685
 30
0.0
 11
245.5154226171478
 21
152.7146750985685
 31
0.0
  0
LINE
  5
BDF4
330
BDDD
100
AcDbEntity
  8
AM_5
100
AcDbLine
 10
216.5154224171478
 20
153.7146750985685
 30
0.0
 11
244.5154226171478
 21
153.7146750985685
 31
0.0
  0
INSERT
  5
BDF5
330
BDDD
100
AcDbEntity
  8
AM_5
100
AcDbBlockReference
  2
_Dot
 10
215.5154224171478
 20
153.7146750985685
 30
0.0
 50
180.0
  0
INSERT
  5
BDF6
330
BDDD
100
AcDbEntity
  8
AM_5
100
AcDbBlockReference
  2
_Dot
 10
245.5154226171478
 20
153.7146750985685
 30
0.0
  0
MTEXT
  5
BDF7
330
BDDD
100
AcDbEntity
  8
AM_5
 62
     2
100
AcDbMText
 10
230.5154225171478
 20
156.8146750985685
 30
0.0
 40
3.200000000000001
 41
0.0
 71
     5
 72
     1
  1
B
 73
     1
 44
1.0
1001
ACAD
1000
MTEXTBEGIN
1070
    73
1070
     1
1070
    44
1040
1.0
1070
    74
1070
     0
1000
MTEXTEND
  0
POINT
  5
BDF8
330
BDDD
100
AcDbEntity
  8
Defpoints
 62
     0
100
AcDbPoint
 10
215.5154224171478
 20
165.7146750985685
 30
0.0
  0
POINT
  5
BDF9
330
BDDD
100
AcDbEntity
  8
Defpoints
 62
     0
100
AcDbPoint
 10
245.5154226171478
 20
165.7146750985685
 30
0.0
  0
POINT
  5
BDFA
330
BDDD
100
AcDbEntity
  8
Defpoints
 62
     0
100
AcDbPoint
 10
245.5154226171478
 20
153.7146750985685
 30
0.0
  0
ENDBLK
  5
BDE8
330
BDDD
100
AcDbEntity
  8
0
100
AcDbBlockEnd
  0
BLOCK
  5
BE06
330
BDFC
100
AcDbEntity
  8
0
100
AcDbBlockBegin
  2
*D15
 70
     1
 10
0.0
 20
0.0
 30
0.0
  3
*D15
  1

  0
LINE
  5
BE11
330
BDFC
100
AcDbEntity
  8
AM_5
100
AcDbLine
 10
285.0154216171478
 20
196.9646750985685
 30
0.0
 11
300.7654226171478
 21
196.9646750985685
 31
0.0
  0
LINE
  5
BE12
330
BDFC
100
AcDbEntity
  8
AM_5
100
AcDbLine
 10
291.3165006171478
 20
233.2146730985686
 30
0.0
 11
300.7654226171478
 21
233.2146730985686
 31
0.0
  0
LINE
  5
BE13
330
BDFC
100
AcDbEntity
  8
AM_5
100
AcDbLine
 10
299.7654226171478
 20
197.9646750985685
 30
0.0
 11
299.7654226171478
 21
232.2146730985685
 31
0.0
  0
INSERT
  5
BE14
330
BDFC
100
AcDbEntity
  8
AM_5
100
AcDbBlockReference
  2
_Dot
 10
299.7654226171478
 20
196.9646750985685
 30
0.0
 50
270.0
  0
INSERT
  5
BE15
330
BDFC
100
AcDbEntity
  8
AM_5
100
AcDbBlockReference
  2
_Dot
 10
299.7654226171478
 20
233.2146730985686
 30
0.0
 50
90.0
  0
MTEXT
  5
BE16
330
BDFC
100
AcDbEntity
  8
AM_5
 62
     2
100
AcDbMText
 10
296.6654226171477
 20
215.0896740985686
 30
0.0
 40
3.200000000000001
 41
0.0
 71
     5
 72
     1
  1
E
 11
0.0000000000000001
 21
1.0
 31
0.0
 73
     1
 44
1.0
1001
ACAD
1000
MTEXTBEGIN
1070
    73
1070
     1
1070
    44
1040
1.0
1070
    74
1070
     0
1000
MTEXTEND
  0
POINT
  5
BE17
330
BDFC
100
AcDbEntity
  8
Defpoints
 62
     0
100
AcDbPoint
 10
284.0154216171478
 20
196.9646750985685
 30
0.0
  0
POINT
  5
BE18
330
BDFC
100
AcDbEntity
  8
Defpoints
 62
     0
100
AcDbPoint
 10
290.3165006171477
 20
233.2146730985686
 30
0.0
  0
POINT
  5
BE19
330
BDFC
100
AcDbEntity
  8
Defpoints
 62
     0
100
AcDbPoint
 10
299.7654226171478
 20
233.2146730985686
 30
0.0
  0
ENDBLK
  5
BE07
330
BDFC
100
AcDbEntity
  8
0
100
AcDbBlockEnd
  0
BLOCK
  5
BE25
330
BE1B
100
AcDbEntity
  8
0
100
AcDbBlockBegin
  2
*D16
 70
     1
 10
0.0
 20
0.0
 30
0.0
  3
*D16
  1

  0
LINE
  5
BE30
330
BE1B
100
AcDbEntity
  8
AM_5
100
AcDbLine
 10
291.3165006171478
 20
233.2146730985686
 30
0.0
 11
300.7654336171478
 21
233.2146730985686
 31
0.0
  0
LINE
  5
BE31
330
BE1B
100
AcDbEntity
  8
AM_5
100
AcDbLine
 10
285.0154216171478
 20
246.9646730985685
 30
0.0
 11
300.7654336171478
 21
246.9646730985685
 31
0.0
  0
LINE
  5
BE32
330
BE1B
100
AcDbEntity
  8
AM_5
100
AcDbLine
 10
299.7654336171478
 20
234.2146730985685
 30
0.0
 11
299.7654336171478
 21
245.9646730985685
 31
0.0
  0
INSERT
  5
BE33
330
BE1B
100
AcDbEntity
  8
AM_5
100
AcDbBlockReference
  2
_Dot
 10
299.7654336171478
 20
233.2146730985686
 30
0.0
 50
270.0
  0
INSERT
  5
BE34
330
BE1B
100
AcDbEntity
  8
AM_5
100
AcDbBlockReference
  2
_Dot
 10
299.7654336171478
 20
246.9646730985685
 30
0.0
 50
90.0
  0
MTEXT
  5
BE35
330
BE1B
100
AcDbEntity
  8
AM_5
 62
     2
100
AcDbMText
 10
296.6654336171477
 20
240.0896730985686
 30
0.0
 40
3.200000000000001
 41
0.0
 71
     5
 72
     1
  1
D
 11
0.0000000000000001
 21
1.0
 31
0.0
 73
     1
 44
1.0
1001
ACAD
1000
MTEXTBEGIN
1070
    73
1070
     1
1070
    44
1040
1.0
1070
    74
1070
     0
1000
MTEXTEND
  0
POINT
  5
BE36
330
BE1B
100
AcDbEntity
  8
Defpoints
 62
     0
100
AcDbPoint
 10
290.3165006171477
 20
233.2146730985686
 30
0.0
  0
POINT
  5
BE37
330
BE1B
100
AcDbEntity
  8
Defpoints
 62
     0
100
AcDbPoint
 10
284.0154216171478
 20
246.9646730985685
 30
0.0
  0
POINT
  5
BE38
330
BE1B
100
AcDbEntity
  8
Defpoints
 62
     0
100
AcDbPoint
 10
299.7654336171478
 20
246.9646730985685
 30
0.0
  0
ENDBLK
  5
BE26
330
BE1B
100
AcDbEntity
  8
0
100
AcDbBlockEnd
  0
BLOCK
  5
BE44
330
BE3A
100
AcDbEntity
  8
0
100
AcDbBlockBegin
  2
*D17
 70
     1
 10
0.0
 20
0.0
 30
0.0
  3
*D17
  1

  0
LINE
  5
BE4F
330
BE3A
100
AcDbEntity
  8
AM_5
100
AcDbLine
 10
287.7654326171478
 20
238.9646730985685
 30
0.0
 11
287.7654326171478
 21
259.9646740985686
 31
0.0
  0
LINE
  5
BE50
330
BE3A
100
AcDbEntity
  8
AM_5
100
AcDbLine
 10
176.5154216171478
 20
238.4646630985685
 30
0.0
 11
176.5154216171478
 21
259.9646740985686
 31
0.0
  0
LINE
  5
BE51
330
BE3A
100
AcDbEntity
  8
AM_5
100
AcDbLine
 10
286.7654326171478
 20
258.9646740985686
 30
0.0
 11
177.5154216171478
 21
258.9646740985686
 31
0.0
  0
INSERT
  5
BE52
330
BE3A
100
AcDbEntity
  8
AM_5
100
AcDbBlockReference
  2
_Dot
 10
287.7654326171478
 20
258.9646740985686
 30
0.0
  0
INSERT
  5
BE53
330
BE3A
100
AcDbEntity
  8
AM_5
100
AcDbBlockReference
  2
_Dot
 10
176.5154216171478
 20
258.9646740985686
 30
0.0
 50
180.0
  0
MTEXT
  5
BE54
330
BE3A
100
AcDbEntity
  8
AM_5
 62
     2
100
AcDbMText
 10
232.1404271171478
 20
262.0646740985686
 30
0.0
 40
3.200000000000001
 41
0.0
 71
     5
 72
     1
  1
A
 73
     1
 44
1.0
1001
ACAD
1000
MTEXTBEGIN
1070
    73
1070
     1
1070
    44
1040
1.0
1070
    74
1070
     0
1000
MTEXTEND
  0
POINT
  5
BE55
330
BE3A
100
AcDbEntity
  8
Defpoints
 62
     0
100
AcDbPoint
 10
287.7654326171478
 20
237.9646730985685
 30
0.0
  0
POINT
  5
BE56
330
BE3A
100
AcDbEntity
  8
Defpoints
 62
     0
100
AcDbPoint
 10
176.5154216171478
 20
237.4646630985685
 30
0.0
  0
POINT
  5
BE57
330
BE3A
100
AcDbEntity
  8
Defpoints
 62
     0
100
AcDbPoint
 10
176.5154216171478
 20
258.9646740985686
 30
0.0
  0
ENDBLK
  5
BE45
330
BE3A
100
AcDbEntity
  8
0
100
AcDbBlockEnd
  0
BLOCK
  5
BE63
330
BE59
100
AcDbEntity
  8
0
100
AcDbBlockBegin
  2
*D18
 70
     1
 10
0.0
 20
0.0
 30
0.0
  3
*D18
  1

  0
LINE
  5
BE6E
330
BE59
100
AcDbEntity
  8
AM_5
100
AcDbLine
 10
177.5154286171478
 20
226.9646630985685
 30
0.0
 11
165.5154286171478
 21
226.9646630985685
 31
0.0
  0
LINE
  5
BE6F
330
BE59
100
AcDbEntity
  8
AM_5
100
AcDbLine
 10
177.5154446171477
 20
239.4646630985685
 30
0.0
 11
165.5154286171478
 21
239.4646630985685
 31
0.0
  0
LINE
  5
BE70
330
BE59
100
AcDbEntity
  8
AM_5
100
AcDbLine
 10
166.5154286171478
 20
227.9646630985685
 30
0.0
 11
166.5154286171478
 21
238.4646630985685
 31
0.0
  0
INSERT
  5
BE71
330
BE59
100
AcDbEntity
  8
AM_5
100
AcDbBlockReference
  2
_Dot
 10
166.5154286171478
 20
226.9646630985685
 30
0.0
 50
270.0
  0
INSERT
  5
BE72
330
BE59
100
AcDbEntity
  8
AM_5
100
AcDbBlockReference
  2
_Dot
 10
166.5154286171478
 20
239.4646630985685
 30
0.0
 50
90.0
  0
MTEXT
  5
BE73
330
BE59
100
AcDbEntity
  8
AM_5
 62
     2
100
AcDbMText
 10
163.4154286171477
 20
233.2146630985686
 30
0.0
 40
3.200000000000001
 41
0.0
 71
     5
 72
     1
  1
C
 11
0.0000000000000001
 21
1.0
 31
0.0
 73
     1
 44
1.0
1001
ACAD
1000
MTEXTBEGIN
1070
    73
1070
     1
1070
    44
1040
1.0
1070
    74
1070
     0
1000
MTEXTEND
  0
POINT
  5
BE74
330
BE59
100
AcDbEntity
  8
Defpoints
 62
     0
100
AcDbPoint
 10
178.5154286171478
 20
226.9646630985685
 30
0.0
  0
POINT
  5
BE75
330
BE59
100
AcDbEntity
  8
Defpoints
 62
     0
100
AcDbPoint
 10
178.5154446171477
 20
239.4646630985685
 30
0.0
  0
POINT
  5
BE76
330
BE59
100
AcDbEntity
  8
Defpoints
 62
     0
100
AcDbPoint
 10
166.5154286171478
 20
239.4646630985685
 30
0.0
  0
ENDBLK
  5
BE64
330
BE59
100
AcDbEntity
  8
0
100
AcDbBlockEnd
  0
ENDSEC
  0
SECTION
  2
ENTITIES
  0
LINE
  5
B524
330
1F
100
AcDbEntity
  8
AM_2
100
AcDbLine
 10
31.50000000000003
 20
288.5
 30
0.0
 11
31.49999999999996
 21
232.5
 31
0.0
  0
LINE
  5
B525
330
1F
100
AcDbEntity
  8
AM_2
100
AcDbLine
 10
11.50000000000002
 20
280.5
 30
0.0
 11
91.50000000000003
 21
280.5
 31
0.0
  0
LINE
  5
B526
330
1F
100
AcDbEntity
  8
AM_2
100
AcDbLine
 10
11.50000000000002
 20
272.5
 30
0.0
 11
91.50000000000003
 21
272.5
 31
0.0
  0
LINE
  5
B527
330
1F
100
AcDbEntity
  8
AM_2
100
AcDbLine
 10
11.50000000000002
 20
256.5000000000001
 30
0.0
 11
91.50000000000003
 21
256.5
 31
0.0
  0
LINE
  5
B528
330
1F
100
AcDbEntity
  8
AM_2
100
AcDbLine
 10
11.50000000000002
 20
240.5
 30
0.0
 11
91.50000000000003
 21
240.5
 31
0.0
  0
LINE
  5
B529
330
1F
100
AcDbEntity
  8
AM_0
100
AcDbLine
 10
11.5
 20
201.5
 30
0.0
 11
11.5
 21
105.5
 31
0.0
  0
LINE
  5
B52A
330
1F
100
AcDbEntity
  8
AM_0
100
AcDbLine
 10
11.50000000000002
 20
288.5
 30
0.0
 11
91.50000000000003
 21
288.5
 31
0.0
  0
LINE
  5
B52B
330
1F
100
AcDbEntity
  8
AM_0
100
AcDbLine
 10
91.50000000000003
 20
288.5
 30
0.0
 11
91.50000000000003
 21
232.5
 31
0.0
  0
LINE
  5
B52C
330
1F
100
AcDbEntity
  8
AM_0
100
AcDbLine
 10
11.50000000000002
 20
232.5
 30
0.0
 11
91.50000000000003
 21
232.5
 31
0.0
  0
LINE
  5
B530
330
1F
100
AcDbEntity
  8
size
100
AcDbLine
 10
0.0
 20
0.0
 30
0.0
 11
294.7443880256715
 21
0.0
 31
0.0
1001
GENIUS_GENREC_14
1002
{
1000
PYDIR
1011
0.0
1021
210.0
1031
0.0
1002
}
1002
{
1000
PXDIR
1011
294.7443880256715
1021
0.0
1031
0.0
1002
}
1002
{
1000
PORI
1011
0.0
1021
0.0
1031
0.0
1002
}
1002
{
1000
PINS
1011
210.0
1021
61.5
1031
0.0
1002
}
1002
{
1000
HVAL
1000
297
1002
}
1002
{
1000
H
1070
     2
1002
}
1002
{
1000
WVAL
1000
420
1002
}
1002
{
1000
W
1070
     2
1002
}
1002
{
1000
C
1070
     4
1002
}
1001
GENIUS_GENOBJ-N-REC_13
1002
{
1000
OWNER
1000
GEN
1002
}
1001
GENIUS_GENODEF_13
1002
{
1000
HIER
1070
     0
1002
}
1002
{
1000
MANEDIT
1070
     0
1002
}
1002
{
1000
NOSEL
1070
     0
1002
}
1002
{
1000
BEHIND
1070
     0
1002
}
1002
{
1000
OTHER
1070
     0
1002
}
1002
{
1000
REACTOR
1002
}
  0
LINE
  5
B533
330
1F
100
AcDbEntity
  8
size
100
AcDbLine
 10
0.0
 20
210.0
 30
0.0
 11
0.0
 21
0.0
 31
0.0
1001
GENIUS_GENREC_14
1002
{
1000
PYDIR
1011
0.0
1021
210.0
1031
0.0
1002
}
1002
{
1000
PXDIR
1011
420.0
1021
-87.0
1031
0.0
1002
}
1002
{
1000
PORI
1011
0.0
1021
0.0
1031
0.0
1002
}
1002
{
1000
PINS
1011
210.0
1021
61.5
1031
0.0
1002
}
1002
{
1000
HVAL
1000
297
1002
}
1002
{
1000
H
1070
     2
1002
}
1002
{
1000
WVAL
1000
420
1002
}
1002
{
1000
W
1070
     2
1002
}
1002
{
1000
C
1070
     4
1002
}
1001
GENIUS_GENOBJ-N-REC_13
1002
{
1000
OWNER
1000
GEN
1002
}
1001
GENIUS_GENODEF_13
1002
{
1000
HIER
1070
     0
1002
}
1002
{
1000
MANEDIT
1070
     0
1002
}
1002
{
1000
NOSEL
1070
     0
1002
}
1002
{
1000
BEHIND
1070
     0
1002
}
1002
{
1000
OTHER
1070
     0
1002
}
1002
{
1000
REACTOR
1002
}
  0
LINE
  5
B535
330
1F
100
AcDbEntity
  8
waku
100
AcDbLine
 10
11.5
 20
201.5
 30
0.0
 11
11.5
 21
8.5
 31
0.0
1001
GENIUS_GENREC_14
1002
{
1000
PYDIR
1011
0.0
1021
210.0
1031
0.0
1002
}
1002
{
1000
PXDIR
1011
420.0
1021
-87.0
1031
0.0
1002
}
1002
{
1000
PORI
1011
0.0
1021
0.0
1031
0.0
1002
}
1002
{
1000
PINS
1011
210.0
1021
61.5
1031
0.0
1002
}
1002
{
1000
HVAL
1000
297
1002
}
1002
{
1000
H
1070
     2
1002
}
1002
{
1000
WVAL
1000
420
1002
}
1002
{
1000
W
1070
     2
1002
}
1002
{
1000
C
1070
     4
1002
}
1001
GENIUS_GENOBJ-N-REC_13
1002
{
1000
OWNER
1000
GEN
1002
}
1001
GENIUS_GENODEF_13
1002
{
1000
HIER
1070
     0
1002
}
1002
{
1000
MANEDIT
1070
     0
1002
}
1002
{
1000
NOSEL
1070
     0
1002
}
1002
{
1000
BEHIND
1070
     0
1002
}
1002
{
1000
OTHER
1070
     0
1002
}
1002
{
1000
REACTOR
1002
}
  0
LINE
  5
B537
330
1F
100
AcDbEntity
  8
waku
100
AcDbLine
 10
11.5
 20
8.5
 30
0.0
 11
283.2443880256715
 21
8.5
 31
0.0
  0
MTEXT
  5
B538
330
1F
100
AcDbEntity
  8
AM_6
100
AcDbMText
 10
31.50000000000003
 20
284.5
 30
0.0
 40
3.2
 41
90.0
 71
     4
 72
     5
  1
　　ダブル貫抜
 73
     1
 44
1.0
1001
ACAD
1000
MTEXTBEGIN
1070
    73
1070
     1
1070
    44
1040
1.0
1070
    74
1070
     0
1000
MTEXTEND
  0
MTEXT
  5
B539
330
1F
100
AcDbEntity
  8
AM_6
100
AcDbMText
 10
31.50000000000003
 20
276.5
 30
0.0
 40
3.2
 41
90.0
 71
     4
 72
     5
  1
　　DL-135 / DL-135S
 73
     1
 44
1.0
1001
ACAD
1000
MTEXTBEGIN
1070
    73
1070
     1
1070
    44
1040
1.0
1070
    74
1070
     0
1000
MTEXTEND
  0
MTEXT
  5
B53A
102
{ACAD_XDICTIONARY
360
C007
102
}
330
1F
100
AcDbEntity
  8
AM_6
100
AcDbMText
 10
31.50000000000003
 20
268.5
 30
0.0
 40
3.2
 41
90.0
 71
     4
 72
     5
  1
　　DL-135     ：スチール
 73
     1
 44
1.0
1001
ACAD
1000
MTEXTBEGIN
1070
    73
1070
     1
1070
    44
1040
1.0
1070
    74
1070
     0
1000
MTEXTEND
  0
MTEXT
  5
B53B
102
{ACAD_XDICTIONARY
360
C009
102
}
330
1F
100
AcDbEntity
  8
AM_6
100
AcDbMText
 10
31.50000000000003
 20
260.5
 30
0.0
 40
3.2
 41
90.0
 71
     4
 72
     5
  1
　　DL-135S   ：ステンレス
 73
     1
 44
1.0
1001
ACAD
1000
MTEXTBEGIN
1070
    73
1070
     1
1070
    44
1040
1.0
1070
    74
1070
     0
1000
MTEXTEND
  0
MTEXT
  5
B53D
330
1F
100
AcDbEntity
  8
AM_6
100
AcDbMText
 10
31.50000000000002
 20
236.4999999999999
 30
0.0
 40
3.2
 41
90.0
 71
     4
 72
     5
  1
　　左右勝手無し
 73
     1
 44
1.0
1001
ACAD
1000
MTEXTBEGIN
1070
    73
1070
     1
1070
    44
1040
1.0
1070
    74
1070
     0
1000
MTEXTEND
  0
MTEXT
  5
B53E
330
1F
100
AcDbEntity
  8
AM_6
100
AcDbMText
 10
21.50000000000002
 20
236.4999999999999
 30
0.0
 40
3.2
 41
20.0
 71
     5
 72
     5
  1
備考
 73
     1
 44
1.0
1001
ACAD
1000
MTEXTBEGIN
1070
    73
1070
     1
1070
    44
1040
1.0
1070
    74
1070
     0
1000
MTEXTEND
  0
TEXT
  5
BA72
330
1F
100
AcDbEntity
  8
AM_6
 60
     1
100
AcDbText
 10
408.4999999999999
 20
8.5
 30
0.0
 40
2.5
  1
!GENTITLE-INSERT
100
AcDbText
  0
TEXT
  5
BA73
330
1F
100
AcDbEntity
  8
AM_6
 60
     1
100
AcDbText
 10
0.0
 20
0.0
 30
0.0
 40
2.5
  1
!GENTITLE-LL
100
AcDbText
  0
TEXT
  5
BA74
330
1F
100
AcDbEntity
  8
AM_6
 60
     1
100
AcDbText
 10
420.0
 20
297.0
 30
0.0
 40
2.5
  1
!GENTITLE-RU
100
AcDbText
  0
TEXT
  5
BA75
330
1F
100
AcDbEntity
  8
AM_6
 60
     1
100
AcDbText
 10
420.0
 20
297.0
 30
0.0
 40
2.5
  1
!GENTITLE-MAX
100
AcDbText
  0
LINE
  5
BA76
330
1F
100
AcDbEntity
  8
size
100
AcDbLine
 10
0.0
 20
0.0
 30
0.0
 11
420.0
 21
0.0
 31
0.0
1001
GENIUS_GENREC_14
1002
{
1000
PYDIR
1011
0.0000000000000178
1021
297.0
1031
0.0
1002
}
1002
{
1000
PXDIR
1011
420.0
1021
0.0
1031
0.0
1002
}
1002
{
1000
PORI
1011
0.0
1021
0.0
1031
0.0
1002
}
1002
{
1000
PINS
1011
210.0
1021
148.4999999999999
1031
0.0
1002
}
1002
{
1000
HVAL
1000
297
1002
}
1002
{
1000
H
1070
     2
1002
}
1002
{
1000
WVAL
1000
420
1002
}
1002
{
1000
W
1070
     2
1002
}
1002
{
1000
C
1070
     4
1002
}
1001
GENIUS_GENOBJ-N-REC_13
1002
{
1000
OWNER
1000
GEN
1002
}
1001
GENIUS_GENODEF_13
1002
{
1000
HIER
1070
     0
1002
}
1002
{
1000
MANEDIT
1070
     0
1002
}
1002
{
1000
NOSEL
1070
     0
1002
}
1002
{
1000
BEHIND
1070
     0
1002
}
1002
{
1000
OTHER
1070
     0
1002
}
1002
{
1000
REACTOR
1002
}
  0
LINE
  5
BA77
330
1F
100
AcDbEntity
  8
size
100
AcDbLine
 10
420.0
 20
0.0
 30
0.0
 11
420.0
 21
297.0
 31
0.0
1001
GENIUS_GENREC_14
1002
{
1000
PYDIR
1011
0.0000000000000178
1021
297.0
1031
0.0
1002
}
1002
{
1000
PXDIR
1011
420.0
1021
0.0
1031
0.0
1002
}
1002
{
1000
PORI
1011
0.0
1021
0.0
1031
0.0
1002
}
1002
{
1000
PINS
1011
210.0
1021
148.4999999999999
1031
0.0
1002
}
1002
{
1000
HVAL
1000
297
1002
}
1002
{
1000
H
1070
     2
1002
}
1002
{
1000
WVAL
1000
420
1002
}
1002
{
1000
W
1070
     2
1002
}
1002
{
1000
C
1070
     4
1002
}
1001
GENIUS_GENOBJ-N-REC_13
1002
{
1000
OWNER
1000
GEN
1002
}
1001
GENIUS_GENODEF_13
1002
{
1000
HIER
1070
     0
1002
}
1002
{
1000
MANEDIT
1070
     0
1002
}
1002
{
1000
NOSEL
1070
     0
1002
}
1002
{
1000
BEHIND
1070
     0
1002
}
1002
{
1000
OTHER
1070
     0
1002
}
1002
{
1000
REACTOR
1002
}
  0
LINE
  5
BA78
330
1F
100
AcDbEntity
  8
size
100
AcDbLine
 10
420.0
 20
297.0
 30
0.0
 11
0.0000000000000275
 21
297.0
 31
0.0
1001
GENIUS_GENREC_14
1002
{
1000
PYDIR
1011
0.0000000000000178
1021
297.0
1031
0.0
1002
}
1002
{
1000
PXDIR
1011
420.0
1021
0.0
1031
0.0
1002
}
1002
{
1000
PORI
1011
0.0
1021
0.0
1031
0.0
1002
}
1002
{
1000
PINS
1011
210.0
1021
148.4999999999999
1031
0.0
1002
}
1002
{
1000
HVAL
1000
297
1002
}
1002
{
1000
H
1070
     2
1002
}
1002
{
1000
WVAL
1000
420
1002
}
1002
{
1000
W
1070
     2
1002
}
1002
{
1000
C
1070
     4
1002
}
1001
GENIUS_GENOBJ-N-REC_13
1002
{
1000
OWNER
1000
GEN
1002
}
1001
GENIUS_GENODEF_13
1002
{
1000
HIER
1070
     0
1002
}
1002
{
1000
MANEDIT
1070
     0
1002
}
1002
{
1000
NOSEL
1070
     0
1002
}
1002
{
1000
BEHIND
1070
     0
1002
}
1002
{
1000
OTHER
1070
     0
1002
}
1002
{
1000
REACTOR
1002
}
  0
LINE
  5
BA79
330
1F
100
AcDbEntity
  8
size
100
AcDbLine
 10
0.0000000000000275
 20
297.0
 30
0.0
 11
0.0
 21
0.0
 31
0.0
1001
GENIUS_GENREC_14
1002
{
1000
PYDIR
1011
0.0000000000000178
1021
297.0
1031
0.0
1002
}
1002
{
1000
PXDIR
1011
420.0
1021
0.0
1031
0.0
1002
}
1002
{
1000
PORI
1011
0.0
1021
0.0
1031
0.0
1002
}
1002
{
1000
PINS
1011
210.0
1021
148.4999999999999
1031
0.0
1002
}
1002
{
1000
HVAL
1000
297
1002
}
1002
{
1000
H
1070
     2
1002
}
1002
{
1000
WVAL
1000
420
1002
}
1002
{
1000
W
1070
     2
1002
}
1002
{
1000
C
1070
     4
1002
}
1001
GENIUS_GENOBJ-N-REC_13
1002
{
1000
OWNER
1000
GEN
1002
}
1001
GENIUS_GENODEF_13
1002
{
1000
HIER
1070
     0
1002
}
1002
{
1000
MANEDIT
1070
     0
1002
}
1002
{
1000
NOSEL
1070
     0
1002
}
1002
{
1000
BEHIND
1070
     0
1002
}
1002
{
1000
OTHER
1070
     0
1002
}
1002
{
1000
REACTOR
1002
}
  0
LINE
  5
BA7A
330
1F
100
AcDbEntity
  8
waku
100
AcDbLine
 10
408.4999999999999
 20
8.5
 30
0.0
 11
408.4999999999999
 21
288.5
 31
0.0
1001
GENIUS_GENREC_14
1002
{
1000
PYDIR
1011
0.0000000000000178
1021
297.0
1031
0.0
1002
}
1002
{
1000
PXDIR
1011
420.0
1021
0.0
1031
0.0
1002
}
1002
{
1000
PORI
1011
0.0
1021
0.0
1031
0.0
1002
}
1002
{
1000
PINS
1011
210.0
1021
148.4999999999999
1031
0.0
1002
}
1002
{
1000
HVAL
1000
297
1002
}
1002
{
1000
H
1070
     2
1002
}
1002
{
1000
WVAL
1000
420
1002
}
1002
{
1000
W
1070
     2
1002
}
1002
{
1000
C
1070
     4
1002
}
1001
GENIUS_GENOBJ-N-REC_13
1002
{
1000
OWNER
1000
GEN
1002
}
1001
GENIUS_GENODEF_13
1002
{
1000
HIER
1070
     0
1002
}
1002
{
1000
MANEDIT
1070
     0
1002
}
1002
{
1000
NOSEL
1070
     0
1002
}
1002
{
1000
BEHIND
1070
     0
1002
}
1002
{
1000
OTHER
1070
     0
1002
}
1002
{
1000
REACTOR
1002
}
  0
LINE
  5
BA7B
330
1F
100
AcDbEntity
  8
waku
100
AcDbLine
 10
11.50000000000002
 20
288.5
 30
0.0
 11
11.5
 21
8.5
 31
0.0
1001
GENIUS_GENREC_14
1002
{
1000
PYDIR
1011
0.0000000000000178
1021
297.0
1031
0.0
1002
}
1002
{
1000
PXDIR
1011
420.0
1021
0.0
1031
0.0
1002
}
1002
{
1000
PORI
1011
0.0
1021
0.0
1031
0.0
1002
}
1002
{
1000
PINS
1011
210.0
1021
148.4999999999999
1031
0.0
1002
}
1002
{
1000
HVAL
1000
297
1002
}
1002
{
1000
H
1070
     2
1002
}
1002
{
1000
WVAL
1000
420
1002
}
1002
{
1000
W
1070
     2
1002
}
1002
{
1000
C
1070
     4
1002
}
1001
GENIUS_GENOBJ-N-REC_13
1002
{
1000
OWNER
1000
GEN
1002
}
1001
GENIUS_GENODEF_13
1002
{
1000
HIER
1070
     0
1002
}
1002
{
1000
MANEDIT
1070
     0
1002
}
1002
{
1000
NOSEL
1070
     0
1002
}
1002
{
1000
BEHIND
1070
     0
1002
}
1002
{
1000
OTHER
1070
     0
1002
}
1002
{
1000
REACTOR
1002
}
  0
LINE
  5
BA7C
330
1F
100
AcDbEntity
  8
waku
100
AcDbLine
 10
408.4999999999999
 20
288.5
 30
0.0
 11
11.50000000000002
 21
288.5
 31
0.0
1001
GENIUS_GENREC_14
1002
{
1000
PYDIR
1011
0.0000000000000178
1021
297.0
1031
0.0
1002
}
1002
{
1000
PXDIR
1011
420.0
1021
0.0
1031
0.0
1002
}
1002
{
1000
PORI
1011
0.0
1021
0.0
1031
0.0
1002
}
1002
{
1000
PINS
1011
210.0
1021
148.4999999999999
1031
0.0
1002
}
1002
{
1000
HVAL
1000
297
1002
}
1002
{
1000
H
1070
     2
1002
}
1002
{
1000
WVAL
1000
420
1002
}
1002
{
1000
W
1070
     2
1002
}
1002
{
1000
C
1070
     4
1002
}
1001
GENIUS_GENOBJ-N-REC_13
1002
{
1000
OWNER
1000
GEN
1002
}
1001
GENIUS_GENODEF_13
1002
{
1000
HIER
1070
     0
1002
}
1002
{
1000
MANEDIT
1070
     0
1002
}
1002
{
1000
NOSEL
1070
     0
1002
}
1002
{
1000
BEHIND
1070
     0
1002
}
1002
{
1000
OTHER
1070
     0
1002
}
1002
{
1000
REACTOR
1002
}
  0
TEXT
  5
BA7D
330
1F
100
AcDbEntity
  8
AM_6
 60
     1
100
AcDbText
 10
0.0
 20
0.0
 30
0.0
 40
2.5
  1
!GENTITLE-LL
100
AcDbText
  0
TEXT
  5
BA7E
330
1F
100
AcDbEntity
  8
AM_6
 60
     1
100
AcDbText
 10
408.4999999999999
 20
288.5
 30
0.0
 40
2.5
  1
!GENTITLE-RU
100
AcDbText
  0
TEXT
  5
BA7F
330
1F
100
AcDbEntity
  8
AM_6
 60
     1
100
AcDbText
 10
420.0
 20
297.0
 30
0.0
 40
2.5
  1
!GENTITLE-MAX
100
AcDbText
  0
TEXT
  5
BA80
330
1F
100
AcDbEntity
  8
AM_6
 60
     1
100
AcDbText
 10
408.4999999999999
 20
8.5
 30
0.0
 40
2.5
  1
!GENTITLE-INSERT
100
AcDbText
  0
LINE
  5
BA81
330
1F
100
AcDbEntity
  8
waku
100
AcDbLine
 10
11.5
 20
8.5
 30
0.0
 11
408.4999999999999
 21
8.5
 31
0.0
  0
MTEXT
  5
BA8B
330
1F
100
AcDbEntity
  8
AM_6
100
AcDbMText
 10
21.50000000000001
 20
284.5
 30
0.0
 40
3.2
 41
20.00000000000001
 71
     5
 72
     5
  1
品名
 73
     1
 44
1.0
1001
ACAD
1000
MTEXTBEGIN
1070
    73
1070
     1
1070
    44
1040
1.0
1070
    74
1070
     0
1000
MTEXTEND
  0
MTEXT
  5
BA8C
330
1F
100
AcDbEntity
  8
AM_6
100
AcDbMText
 10
21.50000000000002
 20
276.5
 30
0.0
 40
3.2
 41
19.99999999999998
 71
     5
 72
     5
  1
品番
 73
     1
 44
1.0
1001
ACAD
1000
MTEXTBEGIN
1070
    73
1070
     1
1070
    44
1040
1.0
1070
    74
1070
     0
1000
MTEXTEND
  0
MTEXT
  5
BA8D
330
1F
100
AcDbEntity
  8
AM_6
100
AcDbMText
 10
21.50000000000001
 20
264.5
 30
0.0
 40
3.2
 41
19.99999999999996
 71
     5
 72
     5
  1
材質
 73
     1
 44
1.0
1001
ACAD
1000
MTEXTBEGIN
1070
    73
1070
     1
1070
    44
1040
1.0
1070
    74
1070
     0
1000
MTEXTEND
  0
MTEXT
  5
BA8E
330
1F
100
AcDbEntity
  8
AM_6
100
AcDbMText
 10
21.49999999999999
 20
248.5
 30
0.0
 40
3.2
 41
19.99999999999994
 71
     5
 72
     5
  1
仕上げ
 73
     1
 44
1.0
1001
ACAD
1000
MTEXTBEGIN
1070
    73
1070
     1
1070
    44
1040
1.0
1070
    74
1070
     0
1000
MTEXTEND
  0
MTEXT
  5
BA99
102
{ACAD_XDICTIONARY
360
C00B
102
}
330
1F
100
AcDbEntity
  8
AM_6
100
AcDbMText
 10
31.5
 20
252.5000000000001
 30
0.0
 40
3.2
 41
90.0
 71
     4
 72
     5
  1
　　DL-135     ：有色クロメート
 73
     1
 44
1.0
1001
ACAD
1000
MTEXTBEGIN
1070
    73
1070
     1
1070
    44
1040
1.0
1070
    74
1070
     0
1000
MTEXTEND
  0
MTEXT
  5
BA9A
102
{ACAD_XDICTIONARY
360
C00D
102
}
330
1F
100
AcDbEntity
  8
AM_6
100
AcDbMText
 10
31.5
 20
244.5000000000001
 30
0.0
 40
3.2
 41
90.0
 71
     4
 72
     5
  1
　　DL-135S   ：電解研磨
 73
     1
 44
1.0
1001
ACAD
1000
MTEXTBEGIN
1070
    73
1070
     1
1070
    44
1040
1.0
1070
    74
1070
     0
1000
MTEXTEND
  0
LINE
  5
BB29
330
1F
100
AcDbEntity
  8
AM_0
100
AcDbLine
 10
245.5154216171478
 20
96.46383882928471
 30
0.0
 11
253.0154216171478
 21
96.46383882928471
 31
0.0
  0
LINE
  5
BB2A
330
1F
100
AcDbEntity
  8
AM_0
100
AcDbLine
 10
178.5154216171478
 20
96.46383882928471
 30
0.0
 11
194.0154216171478
 21
96.46383882928471
 31
0.0
  0
LINE
  5
BB2B
330
1F
100
AcDbEntity
  8
AM_7
100
AcDbLine
 10
173.4808756171478
 20
233.2146730985686
 30
0.0
 11
290.3165006171477
 21
233.2146730985686
 31
0.0
  0
LINE
  5
BB2C
330
1F
100
AcDbEntity
  8
AM_0
100
AcDbLine
 10
219.2654224171477
 20
164.4646750985685
 30
0.0
 11
241.7654226171478
 21
164.4646750985685
 31
0.0
  0
LINE
  5
BB2D
330
1F
100
AcDbEntity
  8
AM_0
100
AcDbLine
 10
176.5154216171478
 20
106.9638318292847
 30
0.0
 11
176.5154216171478
 21
98.46383882928471
 31
0.0
  0
LINE
  5
BB2F
330
1F
100
AcDbEntity
  8
AM_0
100
AcDbLine
 10
241.7654226171478
 20
199.4646730985685
 30
0.0
 11
241.7654226171478
 21
191.4646750985685
 31
0.0
  0
LINE
  5
BB30
330
1F
100
AcDbEntity
  8
AM_0
100
AcDbLine
 10
176.5154286171478
 20
98.46384482928471
 30
0.0
 11
178.5154286171478
 21
96.46384282928472
 31
0.0
  0
LINE
  5
BB31
330
1F
100
AcDbEntity
  8
AM_0
100
AcDbLine
 10
194.0154216171478
 20
116.4638390292847
 30
0.0
 11
194.0154216171478
 21
85.71384682928471
 31
0.0
  0
LINE
  5
BB32
330
1F
100
AcDbEntity
  8
AM_0
100
AcDbLine
 10
215.5154226171478
 20
216.9646730985685
 30
0.0
 11
245.5154216171478
 21
216.9646730985685
 31
0.0
  0
LINE
  5
BB33
330
1F
100
AcDbEntity
  8
AM_0
100
AcDbLine
 10
178.5154216171478
 20
108.9638388292847
 30
0.0
 11
194.0154216171478
 21
108.9638388292847
 31
0.0
  0
LINE
  5
BB34
330
1F
100
AcDbEntity
  8
AM_0
100
AcDbLine
 10
194.0154216171478
 20
246.9646730985685
 30
0.0
 11
197.0154216171478
 21
246.9646730985685
 31
0.0
  0
LINE
  5
BB35
330
1F
100
AcDbEntity
  8
AM_0
100
AcDbLine
 10
197.0154216171478
 20
116.4638390292847
 30
0.0
 11
197.0154216171478
 21
85.71384682928471
 31
0.0
  0
LINE
  5
BB36
330
1F
100
AcDbEntity
  8
AM_0
100
AcDbLine
 10
284.0154216171478
 20
116.4638390292847
 30
0.0
 11
284.0154216171478
 21
90.2138468292847
 31
0.0
  0
LINE
  5
BB37
330
1F
100
AcDbEntity
  8
AM_0
100
AcDbLine
 10
287.7654216171478
 20
107.4638388292847
 30
0.0
 11
287.7654216171478
 21
97.96383882928472
 31
0.0
  0
LINE
  5
BB38
330
1F
100
AcDbEntity
  8
AM_0
100
AcDbLine
 10
219.2654224171477
 20
199.4646730985685
 30
0.0
 11
241.7654226171478
 21
199.4646730985685
 31
0.0
  0
LINE
  5
BB39
330
1F
100
AcDbEntity
  8
AM_0
100
AcDbLine
 10
215.5154226171478
 20
176.9646750985685
 30
0.0
 11
245.5154216171478
 21
176.9646750985685
 31
0.0
  0
LINE
  5
BB3A
330
1F
100
AcDbEntity
  8
AM_0
100
AcDbLine
 10
210.2654216171478
 20
246.9646730985685
 30
0.0
 11
284.0154216171478
 21
246.9646730985685
 31
0.0
  0
LINE
  5
BB3B
330
1F
100
AcDbEntity
  8
AM_0
100
AcDbLine
 10
194.0154216171478
 20
197.4646750985685
 30
0.0
 11
197.0154216171478
 21
197.4646750985685
 31
0.0
  0
LINE
  5
BB3C
330
1F
100
AcDbEntity
  8
AM_0
100
AcDbLine
 10
273.0154216171477
 20
102.7138468292847
 30
0.0
 11
273.0154216171477
 21
85.2138468292847
 31
0.0
  0
LINE
  5
BB3E
330
1F
100
AcDbEntity
  8
AM_0
100
AcDbLine
 10
253.0154216171478
 20
102.7138468292847
 30
0.0
 11
253.0154216171478
 21
85.2138468292847
 31
0.0
  0
LINE
  5
BB3F
330
1F
100
AcDbEntity
  8
AM_0
100
AcDbLine
 10
240.5154226171478
 20
88.21384682928471
 30
0.0
 11
253.0154216171478
 21
88.21384682928471
 31
0.0
  0
LINE
  5
BB40
330
1F
100
AcDbEntity
  8
AM_0
100
AcDbLine
 10
178.5154216171478
 20
108.9638388292847
 30
0.0
 11
178.5154216171478
 21
96.46383882928471
 31
0.0
  0
LINE
  5
BB41
330
1F
100
AcDbEntity
  8
AM_0
100
AcDbLine
 10
197.0154216171478
 20
108.9638388292847
 30
0.0
 11
210.2654216171478
 21
108.9638388292847
 31
0.0
  0
LINE
  5
BB42
330
1F
100
AcDbEntity
  8
AM_0
100
AcDbLine
 10
197.0154216171478
 20
96.46383882928471
 30
0.0
 11
210.2654216171478
 21
96.46383882928471
 31
0.0
  0
LINE
  5
BB43
330
1F
100
AcDbEntity
  8
AM_0
100
AcDbLine
 10
210.2654216171478
 20
116.4638390292847
 30
0.0
 11
210.2654216171478
 21
90.2138468292847
 31
0.0
  0
LINE
  5
BB44
330
1F
100
AcDbEntity
  8
AM_0
100
AcDbLine
 10
286.2654216171478
 20
108.9638388292847
 30
0.0
 11
286.2654216171478
 21
96.46383882928471
 31
0.0
  0
LINE
  5
BB45
330
1F
100
AcDbEntity
  8
AM_0
100
AcDbLine
 10
281.0154216171478
 20
116.4638467292847
 30
0.0
 11
284.0154216171478
 21
116.4638467292847
 31
0.0
  0
LINE
  5
BB46
330
1F
100
AcDbEntity
  8
AM_0
100
AcDbLine
 10
178.5154516171478
 20
108.9638218292847
 30
0.0
 11
176.5154486171477
 21
106.9638108292847
 31
0.0
  0
LINE
  5
BB47
330
1F
100
AcDbEntity
  8
AM_0
100
AcDbLine
 10
213.2654226171478
 20
239.4646730985686
 30
0.0
 11
281.0154216171478
 21
239.4646730985686
 31
0.0
  0
LINE
  5
BB48
330
1F
100
AcDbEntity
  8
AM_0
100
AcDbLine
 10
210.2654216171478
 20
116.4638467292847
 30
0.0
 11
213.2654226171478
 21
116.4638467292847
 31
0.0
  0
LINE
  5
BB49
330
1F
100
AcDbEntity
  8
AM_0
100
AcDbLine
 10
245.5154216171478
 20
226.9646730985686
 30
0.0
 11
245.5154216171478
 21
165.7146750985685
 31
0.0
  0
LINE
  5
BB4A
330
1F
100
AcDbEntity
  8
AM_0
100
AcDbLine
 10
287.7654256171478
 20
97.96385082928473
 30
0.0
 11
286.2654216171478
 21
96.46385082928473
 31
0.0
  0
LINE
  5
BB4B
330
1F
100
AcDbEntity
  8
AM_0
100
AcDbLine
 10
286.2654366171478
 20
108.9638348292847
 30
0.0
 11
287.7654366171478
 21
107.4638338292847
 31
0.0
  0
LINE
  5
BB4C
330
1F
100
AcDbEntity
  8
AM_0
100
AcDbLine
 10
213.2654226171478
 20
226.9646730985686
 30
0.0
 11
281.0154216171478
 21
226.9646730985686
 31
0.0
  0
LINE
  5
BB4D
330
1F
100
AcDbEntity
  8
AM_0
100
AcDbLine
 10
281.0154216171478
 20
116.4638390292847
 30
0.0
 11
281.0154216171478
 21
90.2138468292847
 31
0.0
  0
LINE
  5
BB4E
330
1F
100
AcDbEntity
  8
AM_0
100
AcDbLine
 10
213.2654226171478
 20
96.46383882928471
 30
0.0
 11
215.5154226171478
 21
96.46383882928471
 31
0.0
  0
LINE
  5
BB4F
330
1F
100
AcDbEntity
  8
AM_0
100
AcDbLine
 10
215.5154226171478
 20
226.9646730985686
 30
0.0
 11
215.5154226171478
 21
165.7146750985685
 31
0.0
  0
LINE
  5
BB50
330
1F
100
AcDbEntity
  8
AM_0
100
AcDbLine
 10
284.0154216171478
 20
108.9638388292847
 30
0.0
 11
286.2654216171478
 21
108.9638388292847
 31
0.0
  0
LINE
  5
BB51
330
1F
100
AcDbEntity
  8
AM_0
100
AcDbLine
 10
213.2654226171478
 20
116.4638390292847
 30
0.0
 11
213.2654226171478
 21
90.2138468292847
 31
0.0
  0
LINE
  5
BB52
330
1F
100
AcDbEntity
  8
AM_0
100
AcDbLine
 10
284.0154216171478
 20
96.46383882928471
 30
0.0
 11
286.2654216171478
 21
96.46383882928471
 31
0.0
  0
LINE
  5
BB53
330
1F
100
AcDbEntity
  8
AM_0
100
AcDbLine
 10
219.2654224171477
 20
161.9646710985685
 30
0.0
 11
241.7654226171478
 21
161.9646710985685
 31
0.0
  0
LINE
  5
BB54
330
1F
100
AcDbEntity
  8
AM_0
100
AcDbLine
 10
219.2654224171477
 20
199.4646730985685
 30
0.0
 11
219.2654224171477
 21
191.4646750985685
 31
0.0
  0
LINE
  5
BB55
330
1F
100
AcDbEntity
  8
AM_0
100
AcDbLine
 10
219.2654224171477
 20
196.9646750985685
 30
0.0
 11
241.7654226171478
 21
196.9646750985685
 31
0.0
  0
LINE
  5
BB58
330
1F
100
AcDbEntity
  8
AM_0
100
AcDbLine
 10
219.2654224171477
 20
191.4646750985685
 30
0.0
 11
241.7654226171478
 21
191.4646750985685
 31
0.0
  0
LINE
  5
BB59
330
1F
100
AcDbEntity
  8
AM_0
100
AcDbLine
 10
220.5154219171477
 20
196.9646750985685
 30
0.0
 11
220.5154219171477
 21
193.9646750985685
 31
0.0
  0
LINE
  5
BB5B
330
1F
100
AcDbEntity
  8
AM_0
100
AcDbLine
 10
240.5154226171478
 20
196.9646750985685
 30
0.0
 11
240.5154226171478
 21
193.9646750985685
 31
0.0
  0
LINE
  5
BB5C
330
1F
100
AcDbEntity
  8
AM_0
100
AcDbLine
 10
245.5154216171478
 20
196.9646750985685
 30
0.0
 11
284.0154216171478
 21
196.9646750985685
 31
0.0
  0
LINE
  5
BB5E
330
1F
100
AcDbEntity
  8
AM_0
100
AcDbLine
 10
178.5154216171478
 20
226.9646730985686
 30
0.0
 11
194.0154216171478
 21
226.9646730985686
 31
0.0
  0
LINE
  5
BB5F
330
1F
100
AcDbEntity
  8
AM_0
100
AcDbLine
 10
220.5154219171477
 20
193.9646750985685
 30
0.0
 11
240.5154226171478
 21
193.9646750985685
 31
0.0
  0
LINE
  5
BB61
330
1F
100
AcDbEntity
  8
AM_0
100
AcDbLine
 10
273.0154216171477
 20
196.9646750985685
 30
0.0
 11
273.0154216171477
 21
193.9646750985685
 31
0.0
  0
LINE
  5
BB62
330
1F
100
AcDbEntity
  8
AM_0
100
AcDbLine
 10
253.0154216171478
 20
196.9646750985685
 30
0.0
 11
253.0154216171478
 21
193.9646750985685
 31
0.0
  0
LINE
  5
BB63
330
1F
100
AcDbEntity
  8
AM_0
100
AcDbLine
 10
253.0154216171478
 20
193.9646750985685
 30
0.0
 11
273.0154216171477
 21
193.9646750985685
 31
0.0
  0
LINE
  5
BB64
330
1F
100
AcDbEntity
  8
AM_0
100
AcDbLine
 10
178.5154216171478
 20
239.4646730985686
 30
0.0
 11
194.0154216171478
 21
239.4646730985686
 31
0.0
  0
LINE
  5
BB65
330
1F
100
AcDbEntity
  8
AM_0
100
AcDbLine
 10
176.5154216171478
 20
237.4646630985685
 30
0.0
 11
176.5154216171478
 21
228.9646730985686
 31
0.0
  0
LINE
  5
BB66
330
1F
100
AcDbEntity
  8
AM_0
100
AcDbLine
 10
176.5154216171478
 20
228.9646730985686
 30
0.0
 11
178.5154286171478
 21
226.9646630985685
 31
0.0
  0
LINE
  5
BB67
330
1F
100
AcDbEntity
  8
AM_0
100
AcDbLine
 10
178.5154446171477
 20
239.4646630985685
 30
0.0
 11
176.5154446171477
 21
237.4646430985685
 31
0.0
  0
LINE
  5
BB68
330
1F
100
AcDbEntity
  8
AM_0
100
AcDbLine
 10
178.5154216171478
 20
239.4646730985686
 30
0.0
 11
178.5154216171478
 21
226.9646730985686
 31
0.0
  0
LINE
  5
BB69
330
1F
100
AcDbEntity
  8
AM_0
100
AcDbLine
 10
194.0154216171478
 20
116.4638467292847
 30
0.0
 11
197.0154216171478
 21
116.4638467292847
 31
0.0
  0
LINE
  5
BB6A
330
1F
100
AcDbEntity
  8
AM_7
100
AcDbLine
 10
172.5910896171477
 20
102.7138468292847
 30
0.0
 11
233.9516176171478
 21
102.7138468292847
 31
0.0
  0
LINE
  5
BB6B
330
1F
100
AcDbEntity
  8
AM_0
100
AcDbLine
 10
197.0154216171478
 20
246.9646730985685
 30
0.0
 11
197.0154216171478
 21
197.4646750985685
 31
0.0
  0
LINE
  5
BB6C
330
1F
100
AcDbEntity
  8
AM_0
100
AcDbLine
 10
194.0154216171478
 20
246.9646730985685
 30
0.0
 11
194.0154216171478
 21
197.4646750985685
 31
0.0
  0
LINE
  5
BB6D
330
1F
100
AcDbEntity
  8
AM_0
100
AcDbLine
 10
210.2654216171478
 20
246.9646730985685
 30
0.0
 11
210.2654216171478
 21
196.9646750985685
 31
0.0
  0
LINE
  5
BB6E
330
1F
100
AcDbEntity
  8
AM_0
100
AcDbLine
 10
197.0154216171478
 20
239.4646730985686
 30
0.0
 11
210.2654216171478
 21
239.4646730985686
 31
0.0
  0
LINE
  5
BB6F
330
1F
100
AcDbEntity
  8
AM_0
100
AcDbLine
 10
197.0154216171478
 20
226.9646730985686
 30
0.0
 11
210.2654216171478
 21
226.9646730985686
 31
0.0
  0
LINE
  5
BB70
330
1F
100
AcDbEntity
  8
AM_0
100
AcDbLine
 10
287.7654216171478
 20
237.9646730985685
 30
0.0
 11
287.7654216171478
 21
228.4646730985685
 31
0.0
  0
LINE
  5
BB71
330
1F
100
AcDbEntity
  8
AM_0
100
AcDbLine
 10
286.2654286171478
 20
239.4646730985686
 30
0.0
 11
287.7654326171478
 21
237.9646730985685
 31
0.0
  0
LINE
  5
BB72
330
1F
100
AcDbEntity
  8
AM_0
100
AcDbLine
 10
281.0154216171478
 20
246.9646730985685
 30
0.0
 11
281.0154216171478
 21
196.9646750985685
 31
0.0
  0
LINE
  5
BB73
330
1F
100
AcDbEntity
  8
AM_0
100
AcDbLine
 10
213.2654226171478
 20
246.9646730985685
 30
0.0
 11
213.2654226171478
 21
196.9646750985685
 31
0.0
  0
LINE
  5
BB74
330
1F
100
AcDbEntity
  8
AM_0
100
AcDbLine
 10
284.0154216171478
 20
239.4646730985686
 30
0.0
 11
286.2654216171478
 21
239.4646730985686
 31
0.0
  0
LINE
  5
BB75
330
1F
100
AcDbEntity
  8
AM_0
100
AcDbLine
 10
284.0154216171478
 20
246.9646730985685
 30
0.0
 11
284.0154216171478
 21
196.9646750985685
 31
0.0
  0
LINE
  5
BB76
330
1F
100
AcDbEntity
  8
AM_7
 48
0.3
100
AcDbLine
 10
263.0154216171478
 20
199.4285830985685
 30
0.0
 11
263.0154216171478
 21
191.0642840985685
 31
0.0
  0
LINE
  5
BB77
330
1F
100
AcDbEntity
  8
AM_0
100
AcDbLine
 10
286.2654216171478
 20
239.4646730985686
 30
0.0
 11
286.2654216171478
 21
226.9646730985686
 31
0.0
  0
LINE
  5
BB78
330
1F
100
AcDbEntity
  8
AM_0
100
AcDbLine
 10
284.0154216171478
 20
226.9646730985686
 30
0.0
 11
286.2654216171478
 21
226.9646730985686
 31
0.0
  0
LINE
  5
BB79
330
1F
100
AcDbEntity
  8
AM_7
 48
0.5
100
AcDbLine
 10
230.5154222171477
 20
202.5849330985685
 30
0.0
 11
230.5154222171477
 21
188.8548420985685
 31
0.0
  0
LINE
  5
BB7A
330
1F
100
AcDbEntity
  8
AM_0
100
AcDbLine
 10
287.7654216171478
 20
228.4646730985685
 30
0.0
 11
286.2654216171478
 21
226.9646730985686
 31
0.0
  0
LINE
  5
BB7B
330
1F
100
AcDbEntity
  8
AM_0
100
AcDbLine
 10
215.2654226171478
 20
88.21384682928471
 30
0.0
 11
220.5154219171477
 21
88.21384682928471
 31
0.0
  0
LINE
  5
BB7E
330
1F
100
AcDbEntity
  8
AM_7
100
AcDbLine
 10
230.5154222171477
 20
115.6752728292847
 30
0.0
 11
230.5154222171477
 21
89.75242082928472
 31
0.0
  0
LINE
  5
BB7F
330
1F
100
AcDbEntity
  8
AM_0
100
AcDbLine
 10
273.0154216171477
 20
88.21384682928471
 30
0.0
 11
279.0154216171477
 21
88.21384682928471
 31
0.0
  0
LINE
  5
BB80
330
1F
100
AcDbEntity
  8
AM_0
100
AcDbLine
 10
215.2654226171478
 20
85.2138468292847
 30
0.0
 11
279.0154216171477
 21
85.2138468292847
 31
0.0
  0
LINE
  5
BB82
330
1F
100
AcDbEntity
  8
AM_0
100
AcDbLine
 10
210.2654216171478
 20
196.9646750985685
 30
0.0
 11
215.5154226171478
 21
196.9646750985685
 31
0.0
  0
LINE
  5
BB83
330
1F
100
AcDbEntity
  8
AM_0
100
AcDbLine
 10
273.0154216171477
 20
96.46383882928471
 30
0.0
 11
281.0154216171478
 21
96.46383882928471
 31
0.0
  0
LINE
  5
BB84
330
1F
100
AcDbEntity
  8
AM_0
100
AcDbLine
 10
213.2654226171478
 20
108.9638388292847
 30
0.0
 11
222.7091704171478
 21
108.9638388292847
 31
0.0
  0
LINE
  5
BB86
330
1F
100
AcDbEntity
  8
AM_0
100
AcDbLine
 10
238.3216756171478
 20
108.9638388292847
 30
0.0
 11
255.2091676171478
 21
108.9638388292847
 31
0.0
  0
LINE
  5
BB87
330
1F
100
AcDbEntity
  8
AM_0
100
AcDbLine
 10
215.5154226171478
 20
95.2138468292847
 30
0.0
 11
245.5154216171478
 21
95.2138468292847
 31
0.0
  0
LINE
  5
BB89
330
1F
100
AcDbEntity
  8
AM_0
100
AcDbLine
 10
218.0154224171478
 20
104.7138468292847
 30
0.0
 11
243.0154226171478
 21
104.7138468292847
 31
0.0
  0
LINE
  5
BB8A
330
1F
100
AcDbEntity
  8
AM_0
100
AcDbLine
 10
270.8216766171478
 20
108.9638388292847
 30
0.0
 11
281.0154216171478
 21
108.9638388292847
 31
0.0
  0
LINE
  5
BB8B
330
1F
100
AcDbEntity
  8
AM_0
100
AcDbLine
 10
194.0154216171478
 20
85.71384682928471
 30
0.0
 11
197.0154216171478
 21
85.71384682928471
 31
0.0
  0
LINE
  5
BB8D
330
1F
100
AcDbEntity
  8
AM_0
100
AcDbLine
 10
215.5154226171478
 20
102.2138468292847
 30
0.0
 11
215.5154226171478
 21
95.2138468292847
 31
0.0
  0
LINE
  5
BB8E
330
1F
100
AcDbEntity
  8
AM_0
100
AcDbLine
 10
218.0154224171478
 20
101.9638468292847
 30
0.0
 11
243.0154226171478
 21
101.9638468292847
 31
0.0
  0
LINE
  5
BB8F
330
1F
100
AcDbEntity
  8
AM_0
100
AcDbLine
 10
220.5154219171477
 20
95.2138468292847
 30
0.0
 11
220.5154219171477
 21
85.2138468292847
 31
0.0
  0
LINE
  5
BB90
330
1F
100
AcDbEntity
  8
AM_0
100
AcDbLine
 10
240.5154226171478
 20
95.2138468292847
 30
0.0
 11
240.5154226171478
 21
85.2138468292847
 31
0.0
  0
LINE
  5
BB91
330
1F
100
AcDbEntity
  8
AM_0
100
AcDbLine
 10
245.5154216171478
 20
102.2138468292847
 30
0.0
 11
245.5154216171478
 21
95.2138468292847
 31
0.0
  0
ARC
  5
BB92
330
1F
100
AcDbEntity
  8
AM_0
100
AcDbCircle
 10
263.0154216171478
 20
102.7138468292847
 30
0.0
 40
10.0
100
AcDbArc
 50
0.0
 51
179.9999700000002
  0
ARC
  5
BB93
330
1F
100
AcDbEntity
  8
AM_0
100
AcDbCircle
 10
241.7654226171478
 20
165.7146750985685
 30
0.0
 40
3.75
100
AcDbArc
 50
270.0000099999945
 51
0.0
  0
CIRCLE
  5
BB94
330
1F
100
AcDbEntity
  8
AM_0
100
AcDbCircle
 10
263.0154216171478
 20
102.7138468292847
 30
0.0
 40
5.0
  0
ARC
  5
BB95
330
1F
100
AcDbEntity
  8
AM_0
100
AcDbCircle
 10
219.2654224171477
 20
165.7146750985685
 30
0.0
 40
3.75
100
AcDbArc
 50
180.0
 51
270.0000299999965
  0
ARC
  5
BB96
330
1F
100
AcDbEntity
  8
AM_0
100
AcDbCircle
 10
241.7654226171478
 20
168.2146750985685
 30
0.0
 40
3.75
100
AcDbArc
 50
270.0000099999945
 51
0.0
  0
ARC
  5
BB97
330
1F
100
AcDbEntity
  8
AM_0
100
AcDbCircle
 10
219.2654224171477
 20
168.2146750985685
 30
0.0
 40
3.75
100
AcDbArc
 50
180.0
 51
270.0000299999965
  0
ARC
  5
BB99
330
1F
100
AcDbEntity
  8
AM_0
100
AcDbCircle
 10
230.5154222171477
 20
102.7138468292847
 30
0.0
 40
5.0
100
AcDbArc
 50
23.5781770000007
 51
156.4218500000007
  0
ARC
  5
BB9A
330
1F
100
AcDbEntity
  8
AM_0
100
AcDbCircle
 10
279.0154216171477
 20
90.2138468292847
 30
0.0
 40
2.0
100
AcDbArc
 50
270.0
 51
0.0
  0
ARC
  5
BB9B
330
1F
100
AcDbEntity
  8
AM_0
100
AcDbCircle
 10
279.0154216171477
 20
90.2138468292847
 30
0.0
 40
5.0
100
AcDbArc
 50
270.0
 51
0.0
  0
ARC
  5
BB9C
330
1F
100
AcDbEntity
  8
AM_0
100
AcDbCircle
 10
215.2654226171478
 20
90.2138468292847
 30
0.0
 40
2.0
100
AcDbArc
 50
180.0
 51
270.0000299999965
  0
ARC
  5
BB9D
330
1F
100
AcDbEntity
  8
AM_0
100
AcDbCircle
 10
215.2654226171478
 20
90.2138468292847
 30
0.0
 40
5.0
100
AcDbArc
 50
179.99996
 51
270.0000299999965
  0
ARC
  5
BB9E
330
1F
100
AcDbEntity
  8
AM_0
100
AcDbCircle
 10
230.5154222171477
 20
102.7138468292847
 30
0.0
 40
10.0
100
AcDbArc
 50
11.53695899999941
 51
168.4630599999999
  0
ARC
  5
BB9F
330
1F
100
AcDbEntity
  8
AM_0
100
AcDbCircle
 10
218.0154224171478
 20
102.2138468292847
 30
0.0
 40
2.5
100
AcDbArc
 50
89.99997799999517
 51
179.99996
  0
ARC
  5
BBA0
330
1F
100
AcDbEntity
  8
AM_0
100
AcDbCircle
 10
218.0154224171478
 20
99.46384682928471
 30
0.0
 40
2.5
100
AcDbArc
 50
89.99997799999517
 51
179.99996
  0
ARC
  5
BBA3
330
1F
100
AcDbEntity
  8
AM_0
100
AcDbCircle
 10
243.0154226171478
 20
99.46384682928471
 30
0.0
 40
2.5
100
AcDbArc
 50
0.0
 51
89.99997799999517
  0
ARC
  5
BBA4
330
1F
100
AcDbEntity
  8
AM_0
100
AcDbCircle
 10
243.0154226171478
 20
102.2138468292847
 30
0.0
 40
2.5
100
AcDbArc
 50
0.0
 51
89.99997799999517
  0
LINE
  5
BBE7
330
1F
100
AcDbEntity
  8
AM_0
100
AcDbLine
 10
29.34632380591984
 20
53.46367371745632
 30
0.0
 11
251.3463288059198
 21
53.46367371745632
 31
0.0
  0
LINE
  5
BBE8
330
1F
100
AcDbEntity
  8
AM_2
100
AcDbLine
 10
29.34632380591984
 20
45.46367371745631
 30
0.0
 11
251.3463288059198
 21
45.46367371745631
 31
0.0
  0
LINE
  5
BBE9
330
1F
100
AcDbEntity
  8
AM_2
100
AcDbLine
 10
29.34632380591984
 20
37.46367371745632
 30
0.0
 11
251.3463288059198
 21
37.46367371745632
 31
0.0
  0
LINE
  5
BBEA
330
1F
100
AcDbEntity
  8
AM_2
100
AcDbLine
 10
235.3463288059198
 20
53.46367371745632
 30
0.0
 11
235.3463288059198
 21
29.46367371745632
 31
0.0
  0
LINE
  5
BBEB
330
1F
100
AcDbEntity
  8
AM_2
100
AcDbLine
 10
219.3463288059198
 20
53.46367371745632
 30
0.0
 11
219.3463288059198
 21
29.46367371745632
 31
0.0
  0
LINE
  5
BBEC
330
1F
100
AcDbEntity
  8
AM_2
100
AcDbLine
 10
203.3463288059198
 20
53.46367371745632
 30
0.0
 11
203.3463288059198
 21
29.46367371745632
 31
0.0
  0
LINE
  5
BBED
330
1F
100
AcDbEntity
  8
AM_2
100
AcDbLine
 10
187.3463288059198
 20
53.46367371745632
 30
0.0
 11
187.3463288059198
 21
29.46367371745632
 31
0.0
  0
LINE
  5
BBEE
330
1F
100
AcDbEntity
  8
AM_2
100
AcDbLine
 10
171.3463238059198
 20
53.46367371745632
 30
0.0
 11
171.3463238059198
 21
29.46367371745632
 31
0.0
  0
LINE
  5
BBEF
330
1F
100
AcDbEntity
  8
AM_2
100
AcDbLine
 10
155.3463238059198
 20
53.46367371745632
 30
0.0
 11
155.3463238059198
 21
29.46367371745632
 31
0.0
  0
LINE
  5
BBF0
330
1F
100
AcDbEntity
  8
AM_2
100
AcDbLine
 10
139.3463238059198
 20
53.46367371745632
 30
0.0
 11
139.3463238059198
 21
29.46367371745632
 31
0.0
  0
LINE
  5
BBF1
330
1F
100
AcDbEntity
  8
AM_2
100
AcDbLine
 10
123.3463238059198
 20
53.46367371745632
 30
0.0
 11
123.3463238059198
 21
29.46367371745632
 31
0.0
  0
LINE
  5
BBF2
330
1F
100
AcDbEntity
  8
AM_2
100
AcDbLine
 10
107.3463238059198
 20
53.46367371745632
 30
0.0
 11
107.3463238059198
 21
29.46367371745632
 31
0.0
  0
LINE
  5
BBF3
330
1F
100
AcDbEntity
  8
AM_2
100
AcDbLine
 10
91.34632470591986
 20
53.46367371745632
 30
0.0
 11
91.34632470591986
 21
29.46367371745632
 31
0.0
  0
LINE
  5
BBF4
330
1F
100
AcDbEntity
  8
AM_2
100
AcDbLine
 10
75.34632520591981
 20
53.46367371745632
 30
0.0
 11
75.34632520591981
 21
29.46367371745632
 31
0.0
  0
LINE
  5
BBF5
330
1F
100
AcDbEntity
  8
AM_2
100
AcDbLine
 10
59.34632380591984
 20
53.46367371745632
 30
0.0
 11
59.34632380591984
 21
29.46367371745632
 31
0.0
  0
LINE
  5
BBF6
330
1F
100
AcDbEntity
  8
AM_0
100
AcDbLine
 10
29.34632380591984
 20
53.46367371745632
 30
0.0
 11
29.34632380591984
 21
29.46367371745632
 31
0.0
  0
LINE
  5
BBF7
330
1F
100
AcDbEntity
  8
AM_0
100
AcDbLine
 10
29.34632380591984
 20
29.46367371745632
 30
0.0
 11
251.3463288059198
 21
29.46367371745632
 31
0.0
  0
LINE
  5
BBF8
330
1F
100
AcDbEntity
  8
AM_0
100
AcDbLine
 10
251.3463288059198
 20
53.46367371745632
 30
0.0
 11
251.3463288059198
 21
29.46367371745632
 31
0.0
  0
LINE
  5
BC91
330
1F
100
AcDbEntity
  8
AM_7
100
AcDbLine
 10
292.0792256171478
 20
102.7138468292847
 30
0.0
 11
233.9516176171478
 21
102.7138468292847
 31
0.0
  0
LINE
  5
BC9B
330
1F
100
AcDbEntity
  8
AM_7
100
AcDbLine
 10
263.0154216171478
 20
115.6752728292847
 30
0.0
 11
263.0154216171478
 21
89.75242082928472
 31
0.0
  0
DIMENSION
  5
BC9C
330
1F
100
AcDbEntity
  8
AM_5
100
AcDbDimension
  2
*D5
 10
304.0792256171478
 20
116.4638467292847
 30
0.0
 11
300.9792256171478
 21
109.5888467792847
 31
0.0
 70
    32
  1
I
 71
     5
 42
13.74999989999998
  3
SYS$0
100
AcDbAlignedDimension
 13
292.0792256171478
 23
102.7138468292847
 33
0.0
 14
284.0154216171478
 24
116.4638467292847
 34
0.0
 50
90.00000000000003
100
AcDbRotatedDimension
  0
DIMENSION
  5
BCC3
330
1F
100
AcDbEntity
  8
AM_5
100
AcDbDimension
  2
*D6
 10
304.0792256171478
 20
85.21384682928468
 30
0.0
 11
300.9792256171478
 21
93.96384682928475
 31
0.0
 70
    32
  1
J
 71
     5
 42
17.50000000000003
  3
SYS$0
100
AcDbAlignedDimension
 13
292.0792256171478
 23
102.7138468292847
 33
0.0
 14
279.0154216171477
 24
85.2138468292847
 34
0.0
 50
90.00000000000003
100
AcDbRotatedDimension
  0
DIMENSION
  5
BCE2
330
1F
100
AcDbEntity
  8
AM_5
100
AcDbDimension
  2
*D7
 10
263.0154216171478
 20
128.4638467292847
 30
0.0
 11
273.5154216171478
 21
131.5638467292847
 31
0.0
 70
    32
  1
H
 71
     5
 42
21.0
  3
SYS$0
100
AcDbAlignedDimension
 13
284.0154216171478
 23
116.4638467292847
 33
0.0
 14
263.0154216171478
 24
115.6752728292847
 34
0.0
 50
0.0000000000000114
100
AcDbRotatedDimension
  0
DIMENSION
  5
BD01
330
1F
100
AcDbEntity
  8
AM_5
100
AcDbDimension
  2
*D8
 10
230.5154222171477
 20
128.4638467292845
 30
0.0
 11
246.7654219171478
 21
131.5638467292845
 31
0.0
 70
    32
  1
G
 71
     5
 42
32.49999940000009
  3
SYS$0
100
AcDbAlignedDimension
 13
263.0154216171478
 23
115.6752728292847
 33
0.0
 14
230.5154222171477
 24
115.6752728292847
 34
0.0
100
AcDbRotatedDimension
  0
DIMENSION
  5
BD20
330
1F
100
AcDbEntity
  8
AM_5
100
AcDbDimension
  2
*D9
 10
210.2654216171478
 20
128.4638477292847
 30
0.0
 11
220.3904219171477
 21
131.5638477292847
 31
0.0
 70
    32
  1
H
 71
     5
 42
20.25000059999991
  3
SYS$0
100
AcDbAlignedDimension
 13
230.5154222171477
 23
115.6752728292847
 33
0.0
 14
210.2654216171478
 24
116.4638390292847
 34
0.0
100
AcDbRotatedDimension
  0
DIMENSION
  5
BD3F
330
1F
100
AcDbEntity
  8
AM_5
100
AcDbDimension
  2
*D10
 10
284.0154216171478
 20
138.4638467292847
 30
0.0
 11
247.1404216171478
 21
141.5638467292847
 31
0.0
 70
    32
  1
F
 71
     5
 42
73.75
  3
SYS$0
100
AcDbAlignedDimension
 13
210.2654216171478
 23
116.4638467292847
 33
0.0
 14
284.0154216171478
 24
116.4638467292847
 34
0.0
 50
0.0000000000000114
100
AcDbRotatedDimension
  0
DIMENSION
  5
BD5E
330
1F
100
AcDbEntity
  8
AM_5
100
AcDbDimension
  2
*D11
 10
194.0154216171478
 20
128.4638477292847
 30
0.0
 11
189.8754216171478
 21
131.5638477292847
 31
0.0
 70
    32
  1
L
 71
     5
 42
3.0
  3
SYS$0
100
AcDbAlignedDimension
 13
197.0154216171478
 23
116.4638467292847
 33
0.0
 14
194.0154216171478
 24
116.4638390292847
 34
0.0
 50
0.0000000000000114
100
AcDbRotatedDimension
  0
DIMENSION
  5
BD83
330
1F
100
AcDbEntity
  8
AM_5
100
AcDbDimension
  2
*D12
 10
260.6409191074704
 20
107.1140443057096
 30
0.0
 11
281.2513338201286
 21
73.21384682928476
 31
0.0
 70
   163
  1
K
 71
     5
 42
10.00000000000001
  3
SYS$3
100
AcDbDiametricDimension
 15
265.3899241268249
 25
98.31364935285979
 35
0.0
 40
0.0
1001
ACAD
1000
DSTYLE
1002
{
1070
   172
1070
     1
1070
   342
1005
BDAA
1002
}
  0
DIMENSION
  5
BDDC
330
1F
100
AcDbEntity
  8
AM_5
100
AcDbDimension
  2
*D14
 10
245.5154226171478
 20
153.7146750985685
 30
0.0
 11
230.5154225171478
 21
156.8146750985685
 31
0.0
 70
    32
  1
B
 71
     5
 42
30.00000020000005
  3
SYS$0
100
AcDbAlignedDimension
 13
215.5154224171478
 23
165.7146750985685
 33
0.0
 14
245.5154226171478
 24
165.7146750985685
 34
0.0
 50
0.0000000000001132
100
AcDbRotatedDimension
  0
DIMENSION
  5
BDFB
330
1F
100
AcDbEntity
  8
AM_5
100
AcDbDimension
  2
*D15
 10
299.7654226171478
 20
233.2146730985686
 30
0.0
 11
296.6654226171477
 21
215.0896740985686
 31
0.0
 70
    32
  1
E
 71
     5
 42
36.24999800000001
  3
SYS$0
100
AcDbAlignedDimension
 13
284.0154216171478
 23
196.9646750985685
 33
0.0
 14
290.3165006171477
 24
233.2146730985686
 34
0.0
 50
90.0
100
AcDbRotatedDimension
  0
DIMENSION
  5
BE1A
330
1F
100
AcDbEntity
  8
AM_5
100
AcDbDimension
  2
*D16
 10
299.7654336171478
 20
246.9646730985685
 30
0.0
 11
296.6654336171477
 21
240.0896730985686
 31
0.0
 70
    32
  1
D
 71
     5
 42
13.75
  3
SYS$0
100
AcDbAlignedDimension
 13
290.3165006171477
 23
233.2146730985686
 33
0.0
 14
284.0154216171478
 24
246.9646730985685
 34
0.0
 50
90.00000000000003
100
AcDbRotatedDimension
  0
DIMENSION
  5
BE39
330
1F
100
AcDbEntity
  8
AM_5
100
AcDbDimension
  2
*D17
 10
176.5154216171478
 20
258.9646740985686
 30
0.0
 11
232.1404271171478
 21
262.0646740985686
 31
0.0
 70
    32
  1
A
 71
     5
 42
111.250011
  3
SYS$0
100
AcDbAlignedDimension
 13
287.7654326171478
 23
237.9646730985685
 33
0.0
 14
176.5154216171478
 24
237.4646630985685
 34
0.0
100
AcDbRotatedDimension
  0
DIMENSION
  5
BE58
330
1F
100
AcDbEntity
  8
AM_5
100
AcDbDimension
  2
*D18
 10
166.5154286171478
 20
239.4646630985685
 30
0.0
 11
163.4154286171477
 21
233.2146630985686
 31
0.0
 70
    32
  1
C
 71
     5
 42
12.5
  3
SYS$0
100
AcDbAlignedDimension
 13
178.5154286171478
 23
226.9646630985685
 33
0.0
 14
178.5154446171477
 24
239.4646630985685
 34
0.0
 50
90.00000000000003
100
AcDbRotatedDimension
  0
MTEXT
  5
BE77
330
1F
100
AcDbEntity
  8
AM_6
100
AcDbMText
 10
44.34632380591984
 20
49.46367371745632
 30
0.0
 40
3.2
 41
30.0
 71
     5
 72
     5
  1
品番
 73
     1
 44
1.0
1001
ACAD
1000
MTEXTBEGIN
1070
    73
1070
     1
1070
    44
1040
1.0
1070
    74
1070
     0
1000
MTEXTEND
1000
ACAD_MTEXT_DEFINED_HEIGHT_BEGIN
1070
    46
1040
7.999999999999998
1000
ACAD_MTEXT_DEFINED_HEIGHT_END
  0
MTEXT
  5
BEAD
330
1F
100
AcDbEntity
  8
AM_6
100
AcDbMText
 10
44.34632380591984
 20
41.46367371745632
 30
0.0
 40
3.2
 41
30.0
 71
     5
 72
     5
  1
DL-135
 73
     1
 44
1.0
1001
ACAD
1000
MTEXTBEGIN
1070
    73
1070
     1
1070
    44
1040
1.0
1070
    74
1070
     0
1000
MTEXTEND
1000
ACAD_MTEXT_DEFINED_HEIGHT_BEGIN
1070
    46
1040
7.999999999999998
1000
ACAD_MTEXT_DEFINED_HEIGHT_END
  0
MTEXT
  5
BEB7
330
1F
100
AcDbEntity
  8
AM_6
100
AcDbMText
 10
44.34632380591984
 20
33.46367371745632
 30
0.0
 40
3.2
 41
30.0
 71
     5
 72
     5
  1
DL-135S
 73
     1
 44
1.0
1001
ACAD
1000
MTEXTBEGIN
1070
    73
1070
     1
1070
    44
1040
1.0
1070
    74
1070
     0
1000
MTEXTEND
1000
ACAD_MTEXT_DEFINED_HEIGHT_BEGIN
1070
    46
1040
7.999999999999998
1000
ACAD_MTEXT_DEFINED_HEIGHT_END
  0
MTEXT
  5
BEB8
330
1F
100
AcDbEntity
  8
AM_6
100
AcDbMText
 10
67.34632450591982
 20
49.46367371745632
 30
0.0
 40
3.2
 41
16.00000139999997
 71
     5
 72
     5
  1
A
 73
     1
 44
1.0
1001
ACAD
1000
MTEXTBEGIN
1070
    73
1070
     1
1070
    44
1040
1.0
1070
    74
1070
     0
1000
MTEXTEND
  0
MTEXT
  5
BEC2
330
1F
100
AcDbEntity
  8
AM_6
100
AcDbMText
 10
83.34632590591979
 20
49.46367371745632
 30
0.0
 40
3.2
 41
16.00000139999997
 71
     5
 72
     5
  1
B
 73
     1
 44
1.0
1001
ACAD
1000
MTEXTBEGIN
1070
    73
1070
     1
1070
    44
1040
1.0
1070
    74
1070
     0
1000
MTEXTEND
  0
MTEXT
  5
BECC
330
1F
100
AcDbEntity
  8
AM_6
100
AcDbMText
 10
99.34632540591985
 20
49.46367371745632
 30
0.0
 40
3.2
 41
16.00000139999997
 71
     5
 72
     5
  1
C
 73
     1
 44
1.0
1001
ACAD
1000
MTEXTBEGIN
1070
    73
1070
     1
1070
    44
1040
1.0
1070
    74
1070
     0
1000
MTEXTEND
  0
MTEXT
  5
BED6
330
1F
100
AcDbEntity
  8
AM_6
100
AcDbMText
 10
115.3463245059198
 20
49.46367371745632
 30
0.0
 40
3.2
 41
16.00000139999997
 71
     5
 72
     5
  1
D
 73
     1
 44
1.0
1001
ACAD
1000
MTEXTBEGIN
1070
    73
1070
     1
1070
    44
1040
1.0
1070
    74
1070
     0
1000
MTEXTEND
  0
MTEXT
  5
BEE0
330
1F
100
AcDbEntity
  8
AM_6
100
AcDbMText
 10
131.3463245059198
 20
49.46367371745632
 30
0.0
 40
3.2
 41
16.00000139999997
 71
     5
 72
     5
  1
E
 73
     1
 44
1.0
1001
ACAD
1000
MTEXTBEGIN
1070
    73
1070
     1
1070
    44
1040
1.0
1070
    74
1070
     0
1000
MTEXTEND
  0
MTEXT
  5
BEEA
330
1F
100
AcDbEntity
  8
AM_6
100
AcDbMText
 10
147.3463245059198
 20
49.46367371745632
 30
0.0
 40
3.2
 41
16.00000139999997
 71
     5
 72
     5
  1
F
 73
     1
 44
1.0
1001
ACAD
1000
MTEXTBEGIN
1070
    73
1070
     1
1070
    44
1040
1.0
1070
    74
1070
     0
1000
MTEXTEND
  0
MTEXT
  5
BEF9
330
1F
100
AcDbEntity
  8
AM_6
100
AcDbMText
 10
163.3463245059198
 20
49.46367371745632
 30
0.0
 40
3.2
 41
16.00000139999997
 71
     5
 72
     5
  1
G
 73
     1
 44
1.0
1001
ACAD
1000
MTEXTBEGIN
1070
    73
1070
     1
1070
    44
1040
1.0
1070
    74
1070
     0
1000
MTEXTEND
  0
MTEXT
  5
BEFA
330
1F
100
AcDbEntity
  8
AM_6
100
AcDbMText
 10
179.3463259059198
 20
49.46367371745632
 30
0.0
 40
3.2
 41
16.00000139999997
 71
     5
 72
     5
  1
H
 73
     1
 44
1.0
1001
ACAD
1000
MTEXTBEGIN
1070
    73
1070
     1
1070
    44
1040
1.0
1070
    74
1070
     0
1000
MTEXTEND
  0
MTEXT
  5
BEFB
330
1F
100
AcDbEntity
  8
AM_6
100
AcDbMText
 10
195.3463254059198
 20
49.46367371745632
 30
0.0
 40
3.2
 41
16.00000139999997
 71
     5
 72
     5
  1
I
 73
     1
 44
1.0
1001
ACAD
1000
MTEXTBEGIN
1070
    73
1070
     1
1070
    44
1040
1.0
1070
    74
1070
     0
1000
MTEXTEND
  0
MTEXT
  5
BEFC
330
1F
100
AcDbEntity
  8
AM_6
100
AcDbMText
 10
211.3463245059198
 20
49.46367371745632
 30
0.0
 40
3.2
 41
16.00000139999997
 71
     5
 72
     5
  1
J
 73
     1
 44
1.0
1001
ACAD
1000
MTEXTBEGIN
1070
    73
1070
     1
1070
    44
1040
1.0
1070
    74
1070
     0
1000
MTEXTEND
  0
MTEXT
  5
BEFD
330
1F
100
AcDbEntity
  8
AM_6
100
AcDbMText
 10
227.3463245059198
 20
49.46367371745632
 30
0.0
 40
3.2
 41
16.00000139999997
 71
     5
 72
     5
  1
K
 73
     1
 44
1.0
1001
ACAD
1000
MTEXTBEGIN
1070
    73
1070
     1
1070
    44
1040
1.0
1070
    74
1070
     0
1000
MTEXTEND
  0
MTEXT
  5
BEFE
330
1F
100
AcDbEntity
  8
AM_6
100
AcDbMText
 10
243.3463245059198
 20
49.46367371745632
 30
0.0
 40
3.2
 41
16.00000139999997
 71
     5
 72
     5
  1
L
 73
     1
 44
1.0
1001
ACAD
1000
MTEXTBEGIN
1070
    73
1070
     1
1070
    44
1040
1.0
1070
    74
1070
     0
1000
MTEXTEND
  0
MTEXT
  5
BEFF
330
1F
100
AcDbEntity
  8
AM_6
100
AcDbMText
 10
67.34632450591982
 20
41.46367371745632
 30
0.0
 40
3.2
 41
16.00000139999997
 71
     5
 72
     5
  1
109
 73
     1
 44
1.0
1001
ACAD
1000
MTEXTBEGIN
1070
    73
1070
     1
1070
    44
1040
1.0
1070
    74
1070
     0
1000
MTEXTEND
  0
MTEXT
  5
BF09
330
1F
100
AcDbEntity
  8
AM_6
100
AcDbMText
 10
83.34632590591979
 20
41.46367371745632
 30
0.0
 40
3.2
 41
16.00000139999997
 71
     5
 72
     5
  1
32
 73
     1
 44
1.0
1001
ACAD
1000
MTEXTBEGIN
1070
    73
1070
     1
1070
    44
1040
1.0
1070
    74
1070
     0
1000
MTEXTEND
  0
MTEXT
  5
BF13
330
1F
100
AcDbEntity
  8
AM_6
100
AcDbMText
 10
99.34632540591985
 20
41.46367371745632
 30
0.0
 40
3.2
 41
16.00000139999997
 71
     5
 72
     5
  1
φ12
 73
     1
 44
1.0
1001
ACAD
1000
MTEXTBEGIN
1070
    73
1070
     1
1070
    44
1040
1.0
1070
    74
1070
     0
1000
MTEXTEND
  0
MTEXT
  5
BF1D
330
1F
100
AcDbEntity
  8
AM_6
100
AcDbMText
 10
115.3463245059198
 20
41.46367371745632
 30
0.0
 40
3.2
 41
16.00000139999997
 71
     5
 72
     5
  1
15
 73
     1
 44
1.0
1001
ACAD
1000
MTEXTBEGIN
1070
    73
1070
     1
1070
    44
1040
1.0
1070
    74
1070
     0
1000
MTEXTEND
  0
MTEXT
  5
BF27
330
1F
100
AcDbEntity
  8
AM_6
100
AcDbMText
 10
131.3463245059198
 20
41.46367371745632
 30
0.0
 40
3.2
 41
16.00000139999997
 71
     5
 72
     5
  1
36
 73
     1
 44
1.0
1001
ACAD
1000
MTEXTBEGIN
1070
    73
1070
     1
1070
    44
1040
1.0
1070
    74
1070
     0
1000
MTEXTEND
  0
MTEXT
  5
BF31
330
1F
100
AcDbEntity
  8
AM_6
100
AcDbMText
 10
148.3463270059198
 20
41.46367371745632
 30
0.0
 40
3.2
 41
16.00000139999997
 71
     5
 72
     5
  1
75
 73
     1
 44
1.0
1001
ACAD
1000
MTEXTBEGIN
1070
    73
1070
     1
1070
    44
1040
1.0
1070
    74
1070
     0
1000
MTEXTEND
  0
MTEXT
  5
BF3B
330
1F
100
AcDbEntity
  8
AM_6
100
AcDbMText
 10
163.3463245059198
 20
41.46367371745632
 30
0.0
 40
3.2
 41
16.00000139999997
 71
     5
 72
     5
  1
33
 73
     1
 44
1.0
1001
ACAD
1000
MTEXTBEGIN
1070
    73
1070
     1
1070
    44
1040
1.0
1070
    74
1070
     0
1000
MTEXTEND
  0
MTEXT
  5
BF45
330
1F
100
AcDbEntity
  8
AM_6
100
AcDbMText
 10
179.3463245059198
 20
41.46367371745632
 30
0.0
 40
3.2
 41
16.00000139999997
 71
     5
 72
     5
  1
21
 73
     1
 44
1.0
1001
ACAD
1000
MTEXTBEGIN
1070
    73
1070
     1
1070
    44
1040
1.0
1070
    74
1070
     0
1000
MTEXTEND
  0
MTEXT
  5
BF4F
330
1F
100
AcDbEntity
  8
AM_6
100
AcDbMText
 10
195.3463295059198
 20
41.46367371745632
 30
0.0
 40
3.2
 41
16.00000139999997
 71
     5
 72
     5
  1
16
 73
     1
 44
1.0
1001
ACAD
1000
MTEXTBEGIN
1070
    73
1070
     1
1070
    44
1040
1.0
1070
    74
1070
     0
1000
MTEXTEND
  0
MTEXT
  5
BF59
330
1F
100
AcDbEntity
  8
AM_6
100
AcDbMText
 10
211.3463295059198
 20
41.46367371745632
 30
0.0
 40
3.2
 41
16.00000139999997
 71
     5
 72
     5
  1
18
 73
     1
 44
1.0
1001
ACAD
1000
MTEXTBEGIN
1070
    73
1070
     1
1070
    44
1040
1.0
1070
    74
1070
     0
1000
MTEXTEND
  0
MTEXT
  5
BF63
330
1F
100
AcDbEntity
  8
AM_6
100
AcDbMText
 10
227.3463295059198
 20
41.46367371745632
 30
0.0
 40
3.2
 41
16.00000139999997
 71
     5
 72
     5
  1
φ9.5
 73
     1
 44
1.0
1001
ACAD
1000
MTEXTBEGIN
1070
    73
1070
     1
1070
    44
1040
1.0
1070
    74
1070
     0
1000
MTEXTEND
  0
MTEXT
  5
BF6D
330
1F
100
AcDbEntity
  8
AM_6
100
AcDbMText
 10
243.3463295059198
 20
41.46367371745632
 30
0.0
 40
3.2
 41
16.00000139999997
 71
     5
 72
     5
  1
4
 73
     1
 44
1.0
1001
ACAD
1000
MTEXTBEGIN
1070
    73
1070
     1
1070
    44
1040
1.0
1070
    74
1070
     0
1000
MTEXTEND
  0
MTEXT
  5
BF82
330
1F
100
AcDbEntity
  8
AM_6
100
AcDbMText
 10
67.34632450591982
 20
33.46367371745632
 30
0.0
 40
3.2
 41
16.00000139999997
 71
     5
 72
     5
  1
109
 73
     1
 44
1.0
1001
ACAD
1000
MTEXTBEGIN
1070
    73
1070
     1
1070
    44
1040
1.0
1070
    74
1070
     0
1000
MTEXTEND
  0
MTEXT
  5
BF83
330
1F
100
AcDbEntity
  8
AM_6
100
AcDbMText
 10
83.34632590591979
 20
33.46367371745632
 30
0.0
 40
3.2
 41
16.00000139999997
 71
     5
 72
     5
  1
30
 73
     1
 44
1.0
1001
ACAD
1000
MTEXTBEGIN
1070
    73
1070
     1
1070
    44
1040
1.0
1070
    74
1070
     0
1000
MTEXTEND
  0
MTEXT
  5
BF84
330
1F
100
AcDbEntity
  8
AM_6
100
AcDbMText
 10
99.34632540591985
 20
33.46367371745632
 30
0.0
 40
3.2
 41
16.00000139999997
 71
     5
 72
     5
  1
φ12
 73
     1
 44
1.0
1001
ACAD
1000
MTEXTBEGIN
1070
    73
1070
     1
1070
    44
1040
1.0
1070
    74
1070
     0
1000
MTEXTEND
  0
MTEXT
  5
BF85
330
1F
100
AcDbEntity
  8
AM_6
100
AcDbMText
 10
115.3463245059198
 20
33.46367371745632
 30
0.0
 40
3.2
 41
16.00000139999997
 71
     5
 72
     5
  1
14
 73
     1
 44
1.0
1001
ACAD
1000
MTEXTBEGIN
1070
    73
1070
     1
1070
    44
1040
1.0
1070
    74
1070
     0
1000
MTEXTEND
  0
MTEXT
  5
BF86
330
1F
100
AcDbEntity
  8
AM_6
100
AcDbMText
 10
131.3463245059198
 20
33.46367371745632
 30
0.0
 40
3.2
 41
16.00000139999997
 71
     5
 72
     5
  1
36
 73
     1
 44
1.0
1001
ACAD
1000
MTEXTBEGIN
1070
    73
1070
     1
1070
    44
1040
1.0
1070
    74
1070
     0
1000
MTEXTEND
  0
MTEXT
  5
BF87
330
1F
100
AcDbEntity
  8
AM_6
100
AcDbMText
 10
148.3463270059198
 20
33.46367371745632
 30
0.0
 40
3.2
 41
16.00000139999997
 71
     5
 72
     5
  1
73
 73
     1
 44
1.0
1001
ACAD
1000
MTEXTBEGIN
1070
    73
1070
     1
1070
    44
1040
1.0
1070
    74
1070
     0
1000
MTEXTEND
  0
MTEXT
  5
BF88
330
1F
100
AcDbEntity
  8
AM_6
100
AcDbMText
 10
163.3463245059198
 20
33.46367371745632
 30
0.0
 40
3.2
 41
16.00000139999997
 71
     5
 72
     5
  1
33
 73
     1
 44
1.0
1001
ACAD
1000
MTEXTBEGIN
1070
    73
1070
     1
1070
    44
1040
1.0
1070
    74
1070
     0
1000
MTEXTEND
  0
MTEXT
  5
BF89
330
1F
100
AcDbEntity
  8
AM_6
100
AcDbMText
 10
179.3463245059198
 20
33.46367371745632
 30
0.0
 40
3.2
 41
16.00000139999997
 71
     5
 72
     5
  1
20
 73
     1
 44
1.0
1001
ACAD
1000
MTEXTBEGIN
1070
    73
1070
     1
1070
    44
1040
1.0
1070
    74
1070
     0
1000
MTEXTEND
  0
MTEXT
  5
BF8A
330
1F
100
AcDbEntity
  8
AM_6
100
AcDbMText
 10
195.3463295059198
 20
33.46367371745632
 30
0.0
 40
3.2
 41
16.00000139999997
 71
     5
 72
     5
  1
14.5
 73
     1
 44
1.0
1001
ACAD
1000
MTEXTBEGIN
1070
    73
1070
     1
1070
    44
1040
1.0
1070
    74
1070
     0
1000
MTEXTEND
  0
MTEXT
  5
BF8B
330
1F
100
AcDbEntity
  8
AM_6
100
AcDbMText
 10
211.3463295059198
 20
33.46367371745632
 30
0.0
 40
3.2
 41
16.00000139999997
 71
     5
 72
     5
  1
18.5
 73
     1
 44
1.0
1001
ACAD
1000
MTEXTBEGIN
1070
    73
1070
     1
1070
    44
1040
1.0
1070
    74
1070
     0
1000
MTEXTEND
  0
MTEXT
  5
BF8C
330
1F
100
AcDbEntity
  8
AM_6
100
AcDbMText
 10
227.3463295059198
 20
33.46367371745632
 30
0.0
 40
3.2
 41
16.00000139999997
 71
     5
 72
     5
  1
φ9.5
 73
     1
 44
1.0
1001
ACAD
1000
MTEXTBEGIN
1070
    73
1070
     1
1070
    44
1040
1.0
1070
    74
1070
     0
1000
MTEXTEND
  0
MTEXT
  5
BF8D
330
1F
100
AcDbEntity
  8
AM_6
100
AcDbMText
 10
243.3463295059198
 20
33.46367371745632
 30
0.0
 40
3.2
 41
16.00000139999997
 71
     5
 72
     5
  1
3
 73
     1
 44
1.0
1001
ACAD
1000
MTEXTBEGIN
1070
    73
1070
     1
1070
    44
1040
1.0
1070
    74
1070
     0
1000
MTEXTEND
  0
ENDSEC
  0
SECTION
  2
OBJECTS
  0
DICTIONARY
  5
C
330
0
100
AcDbDictionary
281
     1
  3
ACAD_2007HEADERVARS_RT
350
BFF7
  3
ACAD_BGPLOT_KEY
350
AB06
  3
ACAD_COLOR
350
A91D
  3
ACAD_GROUP
350
D
  3
ACAD_LAYOUT
350
1A
  3
ACAD_MATERIAL
350
A91C
  3
ACAD_MLINESTYLE
350
17
  3
ACAD_PLOTSETTINGS
350
19
  3
ACAD_PLOTSTYLENAME
350
E
  3
ACAD_TABLESTYLE
350
AAB9
  3
ACAD_VISUALSTYLE
350
B0F1
  3
AcAsAppObject
350
3DA1
  3
ACASGREF_MASTER
350
3DE9
  3
AcDbVariableDictionary
350
34
  3
AcmDictionary
350
47
  3
AD_GREF_MODULE
350
3DEA
  3
AD_MAPI_MODULE
350
3E06
  3
AMG
350
2B
  3
AMGSNAPSETTINGS
350
7D
  3
ASE_INDEX_DICTIONARY
350
B331
  3
DWGPROPS
350
BFF6
  3
MAPISURF_MODULE
350
3DEB
  0
DICTIONARY
  5
3F95
330
2
100
AcDbDictionary
280
     1
281
     1
  3
ACAD_LAYERFILTERS
360
B466
  3
ACAD_LAYERSTATES
360
3F96
  3
ACLYDICTIONARY
360
B465
  3
AMLAYER_GROUPCOLORS
360
AAB4
  0
DICTIONARY
  5
8A
330
1F
100
AcDbDictionary
280
     1
281
     1
  3
ACAD_SORTENTS
360
B1BA
  0
DICTIONARY
  5
C007
330
B53A
100
AcDbDictionary
280
     1
281
     1
  3
ACAD_MTEXT_RT
360
C008
  0
DICTIONARY
  5
C009
330
B53B
100
AcDbDictionary
280
     1
281
     1
  3
ACAD_MTEXT_RT
360
C00A
  0
DICTIONARY
  5
C00B
330
BA99
100
AcDbDictionary
280
     1
281
     1
  3
ACAD_MTEXT_RT
360
C00C
  0
DICTIONARY
  5
C00D
330
BA9A
100
AcDbDictionary
280
     1
281
     1
  3
ACAD_MTEXT_RT
360
C00E
  0
DICTIONARY
  5
BFF7
102
{ACAD_REACTORS
330
C
102
}
330
C
100
AcDbDictionary
281
     1
  3
DIMARCSYM
350
BFF8
  0
DICTIONARY
  5
AB06
102
{ACAD_REACTORS
330
C
102
}
330
C
100
AcDbDictionary
280
     1
281
     1
  0
DICTIONARY
  5
A91D
102
{ACAD_REACTORS
330
C
102
}
330
C
100
AcDbDictionary
281
     1
  0
DICTIONARY
  5
D
102
{ACAD_REACTORS
330
C
102
}
330
C
100
AcDbDictionary
281
     1
  0
DICTIONARY
  5
1A
102
{ACAD_REACTORS
330
C
102
}
330
C
100
AcDbDictionary
281
     1
  3
Model
350
22
  3
ﾚｲｱｳﾄ1
350
1E
  3
ﾚｲｱｳﾄ2
350
26
  0
DICTIONARY
  5
A91C
102
{ACAD_REACTORS
330
C
102
}
330
C
100
AcDbDictionary
281
     1
  3
ByBlock
350
B0EF
  3
ByLayer
350
B0EE
  3
Global
350
B0F0
  0
DICTIONARY
  5
17
102
{ACAD_REACTORS
330
C
102
}
330
C
100
AcDbDictionary
281
     1
  3
Standard
350
18
  0
DICTIONARY
  5
19
102
{ACAD_REACTORS
330
C
102
}
330
C
100
AcDbDictionary
281
     1
  0
ACDBDICTIONARYWDFLT
  5
E
102
{ACAD_REACTORS
330
C
102
}
330
C
100
AcDbDictionary
281
     1
  3
Normal
350
F
100
AcDbDictionaryWithDefault
340
F
  0
DICTIONARY
  5
AAB9
102
{ACAD_REACTORS
330
C
102
}
330
C
100
AcDbDictionary
281
     1
  3
Standard
350
AABA
  0
DICTIONARY
  5
B0F1
102
{ACAD_REACTORS
330
C
102
}
330
C
100
AcDbDictionary
281
     1
  3
2dWireframe
350
B0F7
  3
3D Hidden
350
B0F9
  3
3dWireframe
350
B0F8
  3
Basic
350
B0F6
  3
Brighten
350
B0FD
  3
ColorChange
350
B101
  3
Conceptual
350
B0FA
  3
Dim
350
B0FC
  3
Facepattern
350
B100
  3
Flat
350
B0F2
  3
FlatWithEdges
350
B0F3
  3
Gouraud
350
B0F4
  3
GouraudWithEdges
350
B0F5
  3
Linepattern
350
B0FF
  3
Realistic
350
B0FB
  3
Thicken
350
B0FE
  0
ACAD_PROXY_OBJECT
  5
3DA1
102
{ACAD_REACTORS
330
C
102
}
330
C
100
AcDbProxyObject
 90
      499
 91
      576
 95
   917527
 70
     0
 93
       10
310
407F
 94
        0
1001
ACAD
1000
AcRTDxfName
1000
ASAPP
  0
ACAD_PROXY_OBJECT
  5
3DE9
102
{ACAD_REACTORS
330
C
102
}
330
C
100
AcDbProxyObject
 90
      499
 91
      581
 95
   917527
 70
     0
 93
       34
310
010000407F
 94
        0
1001
ACAD
1000
AcRTDxfName
1000
ACASGREFMASTER
  0
DICTIONARY
  5
34
102
{ACAD_REACTORS
330
C
102
}
330
C
100
AcDbDictionary
281
     1
  3
CTABLESTYLE
350
AAF3
  3
DIMASSOC
350
A10C
  3
FIELDEVAL
350
AB07
  3
INDEXCTL
350
35
  3
SORTENTS
350
194C
  0
DICTIONARY
  5
47
102
{ACAD_REACTORS
330
C
102
}
330
C
100
AcDbDictionary
281
     1
  3
AcmBOM
350
7E8
  3
AcmStdDictionary
350
4C
  3
AMDTSECTSYM_ARROWCOLOR
350
A929
  0
ACAD_PROXY_OBJECT
  5
3DEA
102
{ACAD_REACTORS
330
C
102
}
330
C
100
AcDbProxyObject
 90
      499
 91
      582
 95
   917527
 70
     0
 93
      114
310
00000043800000000000000000003F
 94
        0
1001
ACAD
1000
AcRTDxfName
1000
ACADGREFMODULE
  0
ACAD_PROXY_OBJECT
  5
3E06
102
{ACAD_REACTORS
330
C
102
}
330
C
100
AcDbProxyObject
 90
      499
 91
      594
 95
   917527
 70
     0
 93
       34
310
05000044FF
 94
        0
1001
ACAD
1000
AcRTDxfName
1000
MAPIADMODULE
  0
DICTIONARY
  5
2B
102
{ACAD_REACTORS
330
C
102
}
330
C
100
AcDbDictionary
281
     1
  0
DICTIONARY
  5
7D
102
{ACAD_REACTORS
330
C
102
}
330
C
100
AcDbDictionary
281
     1
  0
DICTIONARY
  5
B331
102
{ACAD_REACTORS
330
C
102
}
330
C
100
AcDbDictionary
281
     1
  3
ASEBlockHierarchyIndexRecord
350
B332
1001
DCO15
1040
1594111214.218
  0
XRECORD
  5
BFF6
102
{ACAD_REACTORS
330
C
102
}
330
C
100
AcDbXrecord
280
     1
  1
DWGPROPS COOKIE
  2

  3

  4

  6

  7

  8
Administrator
  9

300
AmdtFileType=84
301
=
302
=
303
=
304
=
305
=
306
=
307
=
308
=
309
=
 40
0.0476457523148148
 41
2455833.360650903
 42
2456352.478997928
  1

 90
        1
  0
ACAD_PROXY_OBJECT
  5
3DEB
102
{ACAD_REACTORS
330
C
102
}
330
C
100
AcDbProxyObject
 90
      499
 91
      583
 95
   917527
 70
     0
 93
        8
310
047E
 94
        0
1001
ACAD
1000
AcRTDxfName
1000
AMDTMAPISURFMOUDULE
  0
DICTIONARY
  5
B466
102
{ACAD_REACTORS
330
3F95
102
}
330
3F95
100
AcDbDictionary
281
     1
  0
DICTIONARY
  5
3F96
102
{ACAD_REACTORS
330
3F95
102
}
330
3F95
100
AcDbDictionary
281
     1
  3
20011210
350
3FB7
  0
DICTIONARY
  5
B465
102
{ACAD_REACTORS
330
3F95
102
}
330
3F95
100
AcDbDictionary
281
     1
1001
ACAD
1000
<All
  0
DICTIONARY
  5
AAB4
102
{ACAD_REACTORS
330
3F95
102
}
330
3F95
100
AcDbDictionary
280
     1
281
     1
  0
SORTENTSTABLE
  5
B1BA
102
{ACAD_REACTORS
330
8A
102
}
330
8A
100
AcDbSortentsTable
330
1F
331
B529
  5
B529
331
B53A
  5
B53A
331
BA7A
  5
BA79
331
B525
  5
B525
331
BA76
  5
BA75
331
BA7F
  5
BA7E
331
B52A
  5
B52A
331
BA72
  5
B9F7
331
B53B
  5
B53B
331
BA7B
  5
BA7A
331
B526
  5
B526
331
B537
  5
B537
331
BA77
  5
BA76
331
B533
  5
B533
331
B52B
  5
B52B
331
BA73
  5
BA72
331
BA7C
  5
BA7B
331
B527
  5
B527
331
B538
  5
B538
331
BA80
  5
BA7F
331
BA78
  5
BA77
331
B52C
  5
B52C
331
BA74
  5
BA73
331
B53D
  5
B53D
331
B530
  5
B530
331
BA7D
  5
BA7C
331
B528
  5
B528
331
B539
  5
B539
331
BA81
  5
BA80
331
BA79
  5
BA78
331
B524
  5
B524
331
B535
  5
B535
331
BA75
  5
BA74
331
B53E
  5
B53E
331
BA7E
  5
BA7D
  0
XRECORD
  5
C008
102
{ACAD_REACTORS
330
C007
102
}
330
C007
100
AcDbXrecord
280
     1
 40
-4082.0
  1
　　DL-135^I：スチール
  0
XRECORD
  5
C00A
102
{ACAD_REACTORS
330
C009
102
}
330
C009
100
AcDbXrecord
280
     1
 40
-8671.0
  1
　　DL-135S^I：ステンレス
  0
XRECORD
  5
C00C
102
{ACAD_REACTORS
330
C00B
102
}
330
C00B
100
AcDbXrecord
280
     1
 40
-12594.0
  1
　　DL-135^I：有色クロメート
  0
XRECORD
  5
C00E
102
{ACAD_REACTORS
330
C00D
102
}
330
C00D
100
AcDbXrecord
280
     1
 40
-8836.0
  1
　　DL-135S^I：電解研磨
  0
XRECORD
  5
BFF8
102
{ACAD_REACTORS
330
BFF7
102
}
330
BFF7
100
AcDbXrecord
280
     1
 70
     1
  0
LAYOUT
  5
22
102
{ACAD_XDICTIONARY
360
BFFB
102
}
102
{ACAD_REACTORS
330
1A
102
}
330
1A
100
AcDbPlotSettings
  1

  2
Adobe PDF
  4
A3
  6
AM_VIEW1
 40
3.174999952316284
 41
3.174999952316284
 42
3.17498779296875
 43
3.17498779296875
 44
297.0318298339844
 45
420.1583251953125
 46
-3.159078955650329
 47
-3.095831274986267
 48
214.3704939521119
 49
367.5855324241176
140
275.6727856380065
141
407.629191407817
142
1.0
143
1.0
 70
  3748
 72
     1
 73
     1
 74
     2
  7
monochrome.ctb
 75
     0
147
0.9670387807518544
148
0.0
149
0.0
100
AcDbLayout
  1
Model
 70
     1
 71
     0
 10
0.0
 20
0.0
 11
12.0
 21
9.0
 12
0.0
 22
0.0
 32
0.0
 14
0.0
 24
0.0
 34
0.0
 15
0.0
 25
0.0
 35
0.0
146
0.0
 13
0.0
 23
0.0
 33
0.0
 16
1.0
 26
0.0
 36
0.0
 17
0.0
 27
1.0
 37
0.0
 76
     0
330
1F
331
B0EC
1001
ACAD_PSEXT
1000
Adobe PDF
1000
Adobe PDF Converter
1000
My Documents\*.pdf
1000

1070
     0
  0
LAYOUT
  5
1E
102
{ACAD_XDICTIONARY
360
BFF9
102
}
102
{ACAD_REACTORS
330
1A
102
}
330
1A
100
AcDbPlotSettings
  1

  2
\\ML370\XEROX
  4
A4
  6

 40
3.174999952316284
 41
3.174999952316284
 42
3.175003051757812
 43
3.17498779296875
 44
209.8674926757813
 45
296.6719970703125
 46
0.0
 47
0.0
 48
0.0
 49
0.0
140
0.0
141
0.0
142
1.0
143
1.0
 70
   688
 72
     1
 73
     1
 74
     5
  7
monochrome.ctb
 75
    16
147
1.0
148
0.0
149
0.0
100
AcDbLayout
  1
ﾚｲｱｳﾄ1
 70
     1
 71
     1
 10
-3.17498779296875
 20
-3.174999952316284
 11
293.4970092773438
 21
206.692492723465
 12
0.0
 22
0.0
 32
0.0
 14
1.000000000000000E+20
 24
1.000000000000000E+20
 34
1.000000000000000E+20
 15
-1.000000000000000E+20
 25
-1.000000000000000E+20
 35
-1.000000000000000E+20
146
0.0
 13
0.0
 23
0.0
 33
0.0
 16
1.0
 26
0.0
 36
0.0
 17
0.0
 27
1.0
 37
0.0
 76
     0
330
1B
  0
LAYOUT
  5
26
102
{ACAD_XDICTIONARY
360
BFFD
102
}
102
{ACAD_REACTORS
330
1A
102
}
330
1A
100
AcDbPlotSettings
  1

  2
\\ML370\XEROX
  4

  6

 40
0.0
 41
0.0
 42
0.0
 43
0.0
 44
0.0
 45
0.0
 46
0.0
 47
0.0
 48
0.0
 49
0.0
140
0.0
141
0.0
142
1.0
143
1.0
 70
   688
 72
     0
 73
     0
 74
     5
  7
monochrome.ctb
 75
    16
147
1.0
148
0.0
149
0.0
100
AcDbLayout
  1
ﾚｲｱｳﾄ2
 70
     1
 71
     2
 10
0.0
 20
0.0
 11
12.0
 21
9.0
 12
0.0
 22
0.0
 32
0.0
 14
0.0
 24
0.0
 34
0.0
 15
0.0
 25
0.0
 35
0.0
146
0.0
 13
0.0
 23
0.0
 33
0.0
 16
1.0
 26
0.0
 36
0.0
 17
0.0
 27
1.0
 37
0.0
 76
     0
330
23
  0
MATERIAL
  5
B0EF
102
{ACAD_XDICTIONARY
360
C003
102
}
102
{ACAD_REACTORS
330
A91C
102
}
330
A91C
100
AcDbMaterial
  1
ByBlock
  0
MATERIAL
  5
B0EE
102
{ACAD_XDICTIONARY
360
C001
102
}
102
{ACAD_REACTORS
330
A91C
102
}
330
A91C
100
AcDbMaterial
  1
ByLayer
  0
MATERIAL
  5
B0F0
102
{ACAD_XDICTIONARY
360
C005
102
}
102
{ACAD_REACTORS
330
A91C
102
}
330
A91C
100
AcDbMaterial
  1
Global
  0
MLINESTYLE
  5
18
102
{ACAD_REACTORS
330
17
102
}
330
17
100
AcDbMlineStyle
  2
STANDARD
 70
     0
  3

 62
   256
 51
90.0
 52
90.0
 71
     2
 49
0.5
 62
   256
  6
BYLAYER
 49
-0.5
 62
   256
  6
BYLAYER
  0
ACDBPLACEHOLDER
  5
F
102
{ACAD_REACTORS
330
E
102
}
330
E
  0
TABLESTYLE
  5
AABA
102
{ACAD_XDICTIONARY
360
BFFF
102
}
102
{ACAD_REACTORS
330
AAB9
102
}
330
AAB9
100
AcDbTableStyle
  3
Standard
 70
     0
 71
     0
 40
1.5
 41
1.5
280
     0
281
     0
  7
STANDARD
140
4.5
170
     2
 62
     0
 63
     7
283
     0
274
    -2
284
     1
 64
     0
275
    -2
285
     1
 65
     0
276
    -2
286
     1
 66
     0
277
    -2
287
     1
 67
     0
278
    -2
288
     1
 68
     0
279
    -2
289
     1
 69
     0
  7
STANDARD
140
6.0
170
     5
 62
     0
 63
     7
283
     0
274
    -2
284
     1
 64
     0
275
    -2
285
     1
 65
     0
276
    -2
286
     1
 66
     0
277
    -2
287
     1
 67
     0
278
    -2
288
     1
 68
     0
279
    -2
289
     1
 69
     0
  7
STANDARD
140
4.5
170
     5
 62
     0
 63
     7
283
     0
274
    -2
284
     1
 64
     0
275
    -2
285
     1
 65
     0
276
    -2
286
     1
 66
     0
277
    -2
287
     1
 67
     0
278
    -2
288
     1
 68
     0
279
    -2
289
     1
 69
     0
  0
VISUALSTYLE
  5
B0F7
102
{ACAD_REACTORS
330
B0F1
102
}
330
B0F1
100
AcDbVisualStyle
  2
2dWireframe
 70
     4
 71
     0
 72
     2
 73
     0
 90
        0
 40
-0.6
 41
-30.0
 62
     5
 63
     7
 74
     1
 91
        4
 64
     7
 65
   257
 75
     1
175
     1
 42
1.0
 92
        0
 66
   257
 43
1.0
 76
     1
 77
     6
 78
     2
 67
     7
 79
     5
170
     0
171
     0
290
     0
174
     0
 93
        1
 44
0.0
173
     0
291
     0
 45
0.0
1001
ACAD
1000
AcDbSavedByObjectVersion
1070
     0
  0
VISUALSTYLE
  5
B0F9
102
{ACAD_REACTORS
330
B0F1
102
}
330
B0F1
100
AcDbVisualStyle
  2
3D Hidden
 70
     6
 71
     1
 72
     2
 73
     2
 90
        0
 40
-0.6
 41
-30.0
 62
     5
 63
     7
 74
     2
 91
        2
 64
     7
 65
   257
 75
     2
175
     1
 42
40.0
 92
        0
 66
   257
 43
1.0
 76
     1
 77
     6
 78
     2
 67
     7
 79
     3
170
     0
171
     0
290
     0
174
     0
 93
        1
 44
0.0
173
     0
291
     0
 45
0.0
1001
ACAD
1000
AcDbSavedByObjectVersion
1070
     0
  0
VISUALSTYLE
  5
B0F8
102
{ACAD_REACTORS
330
B0F1
102
}
330
B0F1
100
AcDbVisualStyle
  2
3dWireframe
 70
     5
 71
     0
 72
     2
 73
     0
 90
        0
 40
-0.6
 41
-30.0
 62
     5
 63
     7
 74
     1
 91
        4
 64
     7
 65
   257
 75
     1
175
     1
 42
1.0
 92
        0
 66
   257
 43
1.0
 76
     1
 77
     6
 78
     2
 67
     7
 79
     5
170
     0
171
     0
290
     0
174
     0
 93
        1
 44
0.0
173
     0
291
     0
 45
0.0
1001
ACAD
1000
AcDbSavedByObjectVersion
1070
     0
  0
VISUALSTYLE
  5
B0F6
102
{ACAD_REACTORS
330
B0F1
102
}
330
B0F1
100
AcDbVisualStyle
  2
Basic
 70
     7
 71
     1
 72
     0
 73
     1
 90
        0
 40
-0.6
 41
-30.0
 62
     5
 63
     7
 74
     0
 91
        4
 64
     7
 65
   257
 75
     1
175
     1
 42
1.0
 92
        8
 66
     7
 43
1.0
 76
     1
 77
     6
 78
     2
 67
     7
 79
     5
170
     0
171
     0
290
     0
174
     0
 93
        1
 44
0.0
173
     0
291
     1
 45
0.0
1001
ACAD
1000
AcDbSavedByObjectVersion
1070
     0
  0
VISUALSTYLE
  5
B0FD
102
{ACAD_REACTORS
330
B0F1
102
}
330
B0F1
100
AcDbVisualStyle
  2
Brighten
 70
    12
 71
     2
 72
     2
 73
     0
 90
        0
 40
-0.6
 41
-30.0
 62
     5
 63
     7
 74
     1
 91
        4
 64
     7
 65
   257
 75
     1
175
     1
 42
1.0
 92
        8
 66
     7
 43
1.0
 76
     1
 77
     6
 78
     2
 67
     7
 79
     5
170
     0
171
     0
290
     0
174
     0
 93
        1
 44
50.0
173
     0
291
     1
 45
0.0
1001
ACAD
1000
AcDbSavedByObjectVersion
1070
     0
  0
VISUALSTYLE
  5
B101
102
{ACAD_REACTORS
330
B0F1
102
}
330
B0F1
100
AcDbVisualStyle
  2
ColorChange
 70
    16
 71
     2
 72
     2
 73
     3
 90
        0
 40
-0.6
 41
-30.0
 62
     5
 63
     8
 74
     1
 91
        4
 64
     7
 65
   257
 75
     1
175
     1
 42
1.0
 92
        8
 66
     8
 43
1.0
 76
     1
 77
     6
 78
     2
 67
     7
 79
     5
170
     0
171
     0
290
     0
174
     0
 93
        1
 44
0.0
173
     0
291
     1
 45
0.0
1001
ACAD
1000
AcDbSavedByObjectVersion
1070
     0
  0
VISUALSTYLE
  5
B0FA
102
{ACAD_REACTORS
330
B0F1
102
}
330
B0F1
100
AcDbVisualStyle
  2
Conceptual
 70
     9
 71
     3
 72
     2
 73
     0
 90
        0
 40
-0.6
 41
-30.0
 62
     5
 63
     7
 74
     2
 91
        2
 64
     7
 65
   257
 75
     1
175
     1
 42
40.0
 92
        8
 66
     7
 43
1.0
 76
     1
 77
     6
 78
     2
 67
     7
 79
     3
170
     0
171
     0
290
     0
174
     0
 93
        1
 44
0.0
173
     0
291
     0
 45
0.0
1001
ACAD
1000
AcDbSavedByObjectVersion
1070
     0
  0
VISUALSTYLE
  5
B0FC
102
{ACAD_REACTORS
330
B0F1
102
}
330
B0F1
100
AcDbVisualStyle
  2
Dim
 70
    11
 71
     2
 72
     2
 73
     0
 90
        0
 40
-0.6
 41
-30.0
 62
     5
 63
     7
 74
     1
 91
        4
 64
     7
 65
   257
 75
     1
175
     1
 42
1.0
 92
        8
 66
     7
 43
1.0
 76
     1
 77
     6
 78
     2
 67
     7
 79
     5
170
     0
171
     0
290
     0
174
     0
 93
        1
 44
-50.0
173
     0
291
     1
 45
0.0
1001
ACAD
1000
AcDbSavedByObjectVersion
1070
     0
  0
VISUALSTYLE
  5
B100
102
{ACAD_REACTORS
330
B0F1
102
}
330
B0F1
100
AcDbVisualStyle
  2
Facepattern
 70
    15
 71
     2
 72
     2
 73
     0
 90
        0
 40
-0.6
 41
-30.0
 62
     5
 63
     7
 74
     1
 91
        4
 64
     7
 65
   257
 75
     1
175
     1
 42
1.0
 92
        8
 66
     7
 43
1.0
 76
     1
 77
     6
 78
     2
 67
     7
 79
     5
170
     0
171
     0
290
     0
174
     0
 93
        1
 44
0.0
173
     0
291
     1
 45
0.0
1001
ACAD
1000
AcDbSavedByObjectVersion
1070
     0
  0
VISUALSTYLE
  5
B0F2
102
{ACAD_REACTORS
330
B0F1
102
}
330
B0F1
100
AcDbVisualStyle
  2
Flat
 70
     0
 71
     2
 72
     1
 73
     1
 90
        2
 40
-0.6
 41
30.0
 62
     5
 63
     7
 74
     0
 91
        4
 64
     7
 65
   257
 75
     1
175
     1
 42
1.0
 92
        8
 66
     7
 43
1.0
 76
     1
 77
     6
 78
     2
 67
     7
 79
     5
170
     0
171
     0
290
     0
174
     0
 93
       13
 44
0.0
173
     0
291
     1
 45
0.0
1001
ACAD
1000
AcDbSavedByObjectVersion
1070
     0
  0
VISUALSTYLE
  5
B0F3
102
{ACAD_REACTORS
330
B0F1
102
}
330
B0F1
100
AcDbVisualStyle
  2
FlatWithEdges
 70
     1
 71
     2
 72
     1
 73
     1
 90
        2
 40
-0.6
 41
30.0
 62
     5
 63
     7
 74
     1
 91
        4
 64
     7
 65
   257
 75
     1
175
     1
 42
1.0
 92
        0
 66
   257
 43
1.0
 76
     1
 77
     6
 78
     2
 67
     7
 79
     5
170
     0
171
     0
290
     0
174
     0
 93
       13
 44
0.0
173
     0
291
     1
 45
0.0
1001
ACAD
1000
AcDbSavedByObjectVersion
1070
     0
  0
VISUALSTYLE
  5
B0F4
102
{ACAD_REACTORS
330
B0F1
102
}
330
B0F1
100
AcDbVisualStyle
  2
Gouraud
 70
     2
 71
     2
 72
     2
 73
     1
 90
        2
 40
-0.6
 41
30.0
 62
     5
 63
     7
 74
     0
 91
        4
 64
     7
 65
   257
 75
     1
175
     1
 42
1.0
 92
        0
 66
     7
 43
1.0
 76
     1
 77
     6
 78
     2
 67
     7
 79
     5
170
     0
171
     0
290
     0
174
     0
 93
       13
 44
0.0
173
     0
291
     1
 45
0.0
1001
ACAD
1000
AcDbSavedByObjectVersion
1070
     0
  0
VISUALSTYLE
  5
B0F5
102
{ACAD_REACTORS
330
B0F1
102
}
330
B0F1
100
AcDbVisualStyle
  2
GouraudWithEdges
 70
     3
 71
     2
 72
     2
 73
     1
 90
        2
 40
-0.6
 41
30.0
 62
     5
 63
     7
 74
     1
 91
        4
 64
     7
 65
   257
 75
     1
175
     1
 42
1.0
 92
        0
 66
   257
 43
1.0
 76
     1
 77
     6
 78
     2
 67
     7
 79
     5
170
     0
171
     0
290
     0
174
     0
 93
       13
 44
0.0
173
     0
291
     1
 45
0.0
1001
ACAD
1000
AcDbSavedByObjectVersion
1070
     0
  0
VISUALSTYLE
  5
B0FF
102
{ACAD_REACTORS
330
B0F1
102
}
330
B0F1
100
AcDbVisualStyle
  2
Linepattern
 70
    14
 71
     2
 72
     2
 73
     0
 90
        0
 40
-0.6
 41
-30.0
 62
     5
 63
     7
 74
     1
 91
        4
 64
     7
 65
   257
 75
     7
175
     7
 42
1.0
 92
        8
 66
     7
 43
1.0
 76
     1
 77
     6
 78
     2
 67
     7
 79
     5
170
     0
171
     0
290
     0
174
     0
 93
        1
 44
0.0
173
     0
291
     1
 45
0.0
1001
ACAD
1000
AcDbSavedByObjectVersion
1070
     0
  0
VISUALSTYLE
  5
B0FB
102
{ACAD_REACTORS
330
B0F1
102
}
330
B0F1
100
AcDbVisualStyle
  2
Realistic
 70
     8
 71
     2
 72
     2
 73
     0
 90
        0
 40
-0.6
 41
-30.0
 62
     5
 63
     7
 74
     1
 91
        0
 64
     7
 65
   257
 75
     1
175
     1
 42
1.0
 92
        8
 66
     8
 43
1.0
 76
     1
 77
     6
 78
     2
 67
     7
 79
     5
170
     0
171
     0
290
     0
174
     0
 93
       13
 44
0.0
173
     0
291
     0
 45
0.0
1001
ACAD
1000
AcDbSavedByObjectVersion
1070
     0
  0
VISUALSTYLE
  5
B0FE
102
{ACAD_REACTORS
330
B0F1
102
}
330
B0F1
100
AcDbVisualStyle
  2
Thicken
 70
    13
 71
     2
 72
     2
 73
     0
 90
        0
 40
-0.6
 41
-30.0
 62
     5
 63
     7
 74
     1
 91
        4
 64
     7
 65
   257
 75
     1
175
     1
 42
1.0
 92
       12
 66
     7
 43
1.0
 76
     1
 77
     6
 78
     2
 67
     7
 79
     5
170
     0
171
     0
290
     0
174
     0
 93
        1
 44
0.0
173
     0
291
     1
 45
0.0
1001
ACAD
1000
AcDbSavedByObjectVersion
1070
     0
  0
DICTIONARYVAR
  5
AAF3
102
{ACAD_REACTORS
330
34
102
}
330
34
100
DictionaryVariables
280
     0
  1
STANDARD
  0
DICTIONARYVAR
  5
A10C
102
{ACAD_REACTORS
330
34
102
}
330
34
100
DictionaryVariables
280
     0
  1
1
  0
DICTIONARYVAR
  5
AB07
102
{ACAD_REACTORS
330
34
102
}
330
34
100
DictionaryVariables
280
     0
  1
4
  0
DICTIONARYVAR
  5
35
102
{ACAD_REACTORS
330
34
102
}
330
34
100
DictionaryVariables
280
     0
  1
0
  0
DICTIONARYVAR
  5
194C
102
{ACAD_REACTORS
330
34
102
}
330
34
100
DictionaryVariables
280
     0
  1
96
  0
DICTIONARY
  5
7E8
102
{ACAD_REACTORS
330
47
102
}
330
47
100
AcDbDictionary
281
     1
  0
DICTIONARY
  5
4C
102
{ACAD_REACTORS
330
47
102
}
330
47
100
AcDbDictionary
281
     1
  0
XRECORD
  5
A929
102
{ACAD_REACTORS
330
47
102
}
330
47
100
AcDbXrecord
280
     1
 90
-1023410169
  0
XRECORD
  5
B332
102
{ACAD_REACTORS
330
B331
102
}
330
B331
100
AcDbXrecord
280
     1
  0
XRECORD
  5
3FB7
102
{ACAD_REACTORS
330
3F96
102
}
330
3F96
100
AcDbXrecord
280
     1
 91
        3
330
0
 90
        8
 62
     7
370
    40
331
16
  1
Color_7
330
0
 90
        0
 62
    14
370
    -3
331
16
  1
Color_14
330
0
 90
        8
 62
     7
370
    20
331
16
  1
Color_7
330
6D1
 90
        0
 62
     7
370
    -3
331
16
  1
Color_7
330
0
 90
        8
 62
     7
370
    50
331
16
  1
Color_7
330
0
 90
        8
 62
     2
370
    35
331
16
  1
Color_2
330
0
 90
        8
 62
     7
370
    -3
331
16
  1
Color_7
330
10
 90
        8
 62
     7
370
    -3
331
16
  1
Color_7
  0
DICTIONARY
  5
BFFB
330
22
100
AcDbDictionary
280
     1
281
     1
  3
ACAD_XREC_ROUNDTRIP
360
BFFC
  0
DICTIONARY
  5
BFF9
330
1E
100
AcDbDictionary
280
     1
281
     1
  3
ACAD_XREC_ROUNDTRIP
360
BFFA
  0
DICTIONARY
  5
BFFD
330
26
100
AcDbDictionary
280
     1
281
     1
  3
ACAD_XREC_ROUNDTRIP
360
BFFE
  0
DICTIONARY
  5
C003
330
B0EF
100
AcDbDictionary
280
     1
281
     1
  3
ACAD_XREC_ROUNDTRIP
360
C004
  0
DICTIONARY
  5
C001
330
B0EE
100
AcDbDictionary
280
     1
281
     1
  3
ACAD_XREC_ROUNDTRIP
360
C002
  0
DICTIONARY
  5
C005
330
B0F0
100
AcDbDictionary
280
     1
281
     1
  3
ACAD_XREC_ROUNDTRIP
360
C006
  0
DICTIONARY
  5
BFFF
330
AABA
100
AcDbDictionary
280
     1
281
     1
  3
ACAD_XREC_ROUNDTRIP
360
C000
  0
XRECORD
  5
BFFC
102
{ACAD_REACTORS
330
BFFB
102
}
330
BFFB
100
AcDbXrecord
280
     1
102
SHADEPLOT
 70
     0
102
SHADEPLOTRESLEVEL
 70
     2
102
SHADEPLOTCUSTOMDPI
 70
   200
  0
XRECORD
  5
BFFA
102
{ACAD_REACTORS
330
BFF9
102
}
330
BFF9
100
AcDbXrecord
280
     1
102
SHADEPLOT
 70
     0
102
SHADEPLOTRESLEVEL
 70
     2
102
SHADEPLOTCUSTOMDPI
 70
   300
  0
XRECORD
  5
BFFE
102
{ACAD_REACTORS
330
BFFD
102
}
330
BFFD
100
AcDbXrecord
280
     1
102
SHADEPLOT
 70
     0
102
SHADEPLOTRESLEVEL
 70
     2
102
SHADEPLOTCUSTOMDPI
 70
   300
  0
XRECORD
  5
C004
102
{ACAD_REACTORS
330
C003
102
}
330
C003
100
AcDbXrecord
280
     1
102
MATERIAL
148
0.0
149
0.0
149
0.0
 93
        0
 94
       63
282
     0
 72
     1
 77
     1
171
     1
175
     1
179
     1
273
     0
  0
XRECORD
  5
C002
102
{ACAD_REACTORS
330
C001
102
}
330
C001
100
AcDbXrecord
280
     1
102
MATERIAL
148
0.0
149
0.0
149
0.0
 93
        0
 94
       63
282
     0
 72
     1
 77
     1
171
     1
175
     1
179
     1
273
     0
  0
XRECORD
  5
C006
102
{ACAD_REACTORS
330
C005
102
}
330
C005
100
AcDbXrecord
280
     1
102
MATERIAL
148
0.0
149
0.0
149
0.0
 93
        0
 94
       63
282
     0
 72
     1
 77
     1
171
     1
175
     1
179
     1
273
     0
  0
XRECORD
  5
C000
102
{ACAD_REACTORS
330
BFFF
102
}
330
BFFF
100
AcDbXrecord
280
     1
102
ACAD_ROUNDTRIP_PRE2007_TABLESTYLE
 90
        4
 91
        0
  1

 92
        4
 93
        0
  2

 94
        4
 95
        0
  3

  0
ENDSEC
  0
EOF
