  0
SECTION
  2
HEADER
  9
$ACADVER
  1
AC1015
  9
$ACADMAINTVER
 70
    20
  9
$DWGCODEPAGE
  3
ANSI_932
  9
$INSBASE
 10
0.0
 20
0.0
 30
0.0
  9
$EXTMIN
 10
-0.0609653990286461
 20
-0.0566967178810955
 30
-0.0015258207003583
  9
$EXTMAX
 10
381.15222551435
 20
273.1013515974951
 30
0.0000000349246037
  9
$LIMMIN
 10
1700.85588156276
 20
1647.985052086429
  9
$LIMMAX
 10
1997.85588156276
 20
1857.985052086429
  9
$ORTHOMODE
 70
     0
  9
$REGENMODE
 70
     1
  9
$FILLMODE
 70
     1
  9
$QTEXTMODE
 70
     0
  9
$MIRRTEXT
 70
     0
  9
$LTSCALE
 40
1.0
  9
$ATTMODE
 70
     1
  9
$TEXTSIZE
 40
3.2
  9
$TRACEWID
 40
1.0
  9
$TEXTSTYLE
  7
STANDARD
  9
$CLAYER
  8
AM_0
  9
$CELTYPE
  6
ByLayer
  9
$CECOLOR
 62
   256
  9
$CELTSCALE
 40
1.0
  9
$DISPSILH
 70
     0
  9
$DIMSCALE
 40
1.0
  9
$DIMASZ
 40
1.0
  9
$DIMEXO
 40
1.0
  9
$DIMDLI
 40
10.0
  9
$DIMRND
 40
0.0
  9
$DIMDLE
 40
0.0
  9
$DIMEXE
 40
1.0
  9
$DIMTP
 40
0.1
  9
$DIMTM
 40
0.1
  9
$DIMTXT
 40
3.5
  9
$DIMCEN
 40
0.0
  9
$DIMTSZ
 40
0.0
  9
$DIMTOL
 70
     0
  9
$DIMLIM
 70
     0
  9
$DIMTIH
 70
     0
  9
$DIMTOH
 70
     0
  9
$DIMSE1
 70
     0
  9
$DIMSE2
 70
     0
  9
$DIMTAD
 70
     1
  9
$DIMZIN
 70
     8
  9
$DIMBLK
  1

  9
$DIMASO
 70
     1
  9
$DIMSHO
 70
     1
  9
$DIMPOST
  1

  9
$DIMAPOST
  1
"
  9
$DIMALT
 70
     0
  9
$DIMALTD
 70
     2
  9
$DIMALTF
 40
0.0393701
  9
$DIMLFAC
 40
1.0
  9
$DIMTOFL
 70
     1
  9
$DIMTVP
 40
0.0
  9
$DIMTIX
 70
     0
  9
$DIMSOXD
 70
     0
  9
$DIMSAH
 70
     0
  9
$DIMBLK1
  1

  9
$DIMBLK2
  1

  9
$DIMSTYLE
  2
SYS
  9
$DIMCLRD
 70
   256
  9
$DIMCLRE
 70
   256
  9
$DIMCLRT
 70
     7
  9
$DIMTFAC
 40
0.71
  9
$DIMGAP
 40
1.5
  9
$DIMJUST
 70
     0
  9
$DIMSD1
 70
     0
  9
$DIMSD2
 70
     0
  9
$DIMTOLJ
 70
     0
  9
$DIMTZIN
 70
     8
  9
$DIMALTZ
 70
     0
  9
$DIMALTTZ
 70
     0
  9
$DIMUPT
 70
     0
  9
$DIMDEC
 70
     2
  9
$DIMTDEC
 70
     2
  9
$DIMALTU
 70
     2
  9
$DIMALTTD
 70
     2
  9
$DIMTXSTY
  7
STANDARD
  9
$DIMAUNIT
 70
     0
  9
$DIMADEC
 70
     0
  9
$DIMALTRND
 40
0.0
  9
$DIMAZIN
 70
     2
  9
$DIMDSEP
 70
    46
  9
$DIMATFIT
 70
     3
  9
$DIMFRAC
 70
     0
  9
$DIMLDRBLK
  1

  9
$DIMLUNIT
 70
     2
  9
$DIMLWD
 70
    -1
  9
$DIMLWE
 70
    -1
  9
$DIMTMOVE
 70
     0
  9
$LUNITS
 70
     2
  9
$LUPREC
 70
     2
  9
$SKETCHINC
 40
1.0
  9
$FILLETRAD
 40
0.0
  9
$AUNITS
 70
     0
  9
$AUPREC
 70
     0
  9
$MENU
  1
.
  9
$ELEVATION
 40
0.0
  9
$PELEVATION
 40
0.0
  9
$THICKNESS
 40
0.0
  9
$LIMCHECK
 70
     0
  9
$CHAMFERA
 40
0.0
  9
$CHAMFERB
 40
0.0
  9
$CHAMFERC
 40
20.0
  9
$CHAMFERD
 40
0.0
  9
$SKPOLY
 70
     0
  9
$TDCREATE
 40
2456745.601048715
  9
$TDUCREATE
 40
2456745.226048715
  9
$TDUPDATE
 40
2456745.604956412
  9
$TDUUPDATE
 40
2456745.229956412
  9
$TDINDWG
 40
0.0039095139
  9
$TDUSRTIMER
 40
0.0039093287
  9
$USRTIMER
 70
     1
  9
$ANGBASE
 50
0.0
  9
$ANGDIR
 70
     0
  9
$PDMODE
 70
     0
  9
$PDSIZE
 40
-3.0
  9
$PLINEWID
 40
0.0
  9
$SPLFRAME
 70
     0
  9
$SPLINETYPE
 70
     6
  9
$SPLINESEGS
 70
     8
  9
$HANDSEED
  5
B974
  9
$SURFTAB1
 70
     6
  9
$SURFTAB2
 70
     6
  9
$SURFTYPE
 70
     6
  9
$SURFU
 70
     6
  9
$SURFV
 70
     6
  9
$UCSBASE
  2

  9
$UCSNAME
  2

  9
$UCSORG
 10
0.0
 20
0.0
 30
0.0
  9
$UCSXDIR
 10
1.0
 20
0.0
 30
0.0
  9
$UCSYDIR
 10
0.0
 20
1.0
 30
0.0
  9
$UCSORTHOREF
  2

  9
$UCSORTHOVIEW
 70
     0
  9
$UCSORGTOP
 10
0.0
 20
0.0
 30
0.0
  9
$UCSORGBOTTOM
 10
0.0
 20
0.0
 30
0.0
  9
$UCSORGLEFT
 10
0.0
 20
0.0
 30
0.0
  9
$UCSORGRIGHT
 10
0.0
 20
0.0
 30
0.0
  9
$UCSORGFRONT
 10
0.0
 20
0.0
 30
0.0
  9
$UCSORGBACK
 10
0.0
 20
0.0
 30
0.0
  9
$PUCSBASE
  2

  9
$PUCSNAME
  2

  9
$PUCSORG
 10
0.0
 20
0.0
 30
0.0
  9
$PUCSXDIR
 10
1.0
 20
0.0
 30
0.0
  9
$PUCSYDIR
 10
0.0
 20
1.0
 30
0.0
  9
$PUCSORTHOREF
  2

  9
$PUCSORTHOVIEW
 70
     0
  9
$PUCSORGTOP
 10
0.0
 20
0.0
 30
0.0
  9
$PUCSORGBOTTOM
 10
0.0
 20
0.0
 30
0.0
  9
$PUCSORGLEFT
 10
0.0
 20
0.0
 30
0.0
  9
$PUCSORGRIGHT
 10
0.0
 20
0.0
 30
0.0
  9
$PUCSORGFRONT
 10
0.0
 20
0.0
 30
0.0
  9
$PUCSORGBACK
 10
0.0
 20
0.0
 30
0.0
  9
$USERI1
 70
     0
  9
$USERI2
 70
     0
  9
$USERI3
 70
     0
  9
$USERI4
 70
     0
  9
$USERI5
 70
     0
  9
$USERR1
 40
0.0
  9
$USERR2
 40
0.0
  9
$USERR3
 40
0.0
  9
$USERR4
 40
0.0
  9
$USERR5
 40
0.0
  9
$WORLDVIEW
 70
     1
  9
$SHADEDGE
 70
     3
  9
$SHADEDIF
 70
    70
  9
$TILEMODE
 70
     1
  9
$MAXACTVP
 70
    64
  9
$PINSBASE
 10
0.0
 20
0.0
 30
0.0
  9
$PLIMCHECK
 70
     0
  9
$PEXTMIN
 10
1.000000000000000E+20
 20
1.000000000000000E+20
 30
1.000000000000000E+20
  9
$PEXTMAX
 10
-1.000000000000000E+20
 20
-1.000000000000000E+20
 30
-1.000000000000000E+20
  9
$PLIMMIN
 10
-3.17498779296875
 20
-3.174999952316284
  9
$PLIMMAX
 10
293.4970092773438
 20
206.692492723465
  9
$UNITMODE
 70
     0
  9
$VISRETAIN
 70
     1
  9
$PLINEGEN
 70
     0
  9
$PSLTSCALE
 70
     1
  9
$TREEDEPTH
 70
  3020
  9
$CMLSTYLE
  2
Standard
  9
$CMLJUST
 70
     0
  9
$CMLSCALE
 40
20.0
  9
$PROXYGRAPHICS
 70
     1
  9
$MEASUREMENT
 70
     1
  9
$CELWEIGHT
370
    -1
  9
$ENDCAPS
280
     0
  9
$JOINSTYLE
280
     0
  9
$LWDISPLAY
290
     1
  9
$INSUNITS
 70
     4
  9
$HYPERLINKBASE
  1

  9
$STYLESHEET
  1
monochrome.ctb
  9
$XEDIT
290
     1
  9
$CEPSNTYPE
380
     0
  9
$PSTYLEMODE
290
     1
  9
$FINGERPRINTGUID
  2
{B75FF469-8246-4975-8E82-0E0A280FA871}
  9
$VERSIONGUID
  2
{32D6217D-7B74-4640-A5EB-D4AF22CB0257}
  9
$EXTNAMES
290
     1
  9
$PSVPSCALE
 40
0.0
  9
$OLESTARTUP
290
     0
  0
ENDSEC
  0
SECTION
  2
CLASSES
  0
CLASS
  1
ACDBDICTIONARYWDFLT
  2
AcDbDictionaryWithDefault
  3
ObjectDBX Classes
 90
        0
280
     0
281
     0
  0
CLASS
  1
ACDBPLACEHOLDER
  2
AcDbPlaceHolder
  3
ObjectDBX Classes
 90
        0
280
     0
281
     0
  0
CLASS
  1
LAYOUT
  2
AcDbLayout
  3
ObjectDBX Classes
 90
        0
280
     0
281
     0
  0
CLASS
  1
AMGSETTINGSOBJ
  2
AmgSettingsObj
  3
"AcadM|Product Description: AutoCAD Mechanical|Company: Autodesk"
 90
        0
280
     0
281
     0
  0
CLASS
  1
ACME_DOCUMENT
  2
AcMeDbDoc
  3
AcMeServices
 90
        0
280
     0
281
     0
  0
CLASS
  1
ACMESCOPE
  2
AcMeScope
  3
AcMeServices
 90
        0
280
     0
281
     0
  0
CLASS
  1
ACMECOMMANDHISTORY
  2
AcMeCommandHistory
  3
AcMeServices
 90
        0
280
     0
281
     0
  0
CLASS
  1
DICTIONARYVAR
  2
AcDbDictionaryVar
  3
ObjectDBX Classes
 90
        0
280
     0
281
     0
  0
CLASS
  1
ACIMSYSVARMAN
  2
AcImSysVarManager
  3
AcMeServices
 90
        0
280
     0
281
     0
  0
CLASS
  1
ACIMREALSYSVAR
  2
AcImRealSysVar
  3
AcMeServices
 90
        0
280
     0
281
     0
  0
CLASS
  1
ACIMINTSYSVAR
  2
AcImIntSysVar
  3
AcMeServices
 90
        0
280
     0
281
     0
  0
CLASS
  1
ACMEDRAWINGMAN
  2
AcMeDrawingMan
  3
AcMeServices
 90
        0
280
     0
281
     0
  0
CLASS
  1
ACMEVIEW
  2
AcMeView
  3
AcMeServices
 90
        0
280
     0
281
     0
  0
CLASS
  1
ACDBENTITYCACHE
  2
AcMeEntityCache
  3
AcMeServices
 90
        0
280
     0
281
     0
  0
CLASS
  1
GSMANAGER
  2
AcMeGSManager
  3
AcMeServices
 90
        0
280
     0
281
     0
  0
CLASS
  1
AMDTINTERNALREACTOR
  2
AmdtInternalReactor
  3
AcMeServices
 90
        0
280
     0
281
     0
  0
CLASS
  1
ACMESTATEMGR
  2
AcMeStateMgr
  3
AcMeServices
 90
        0
280
     0
281
     0
  0
CLASS
  1
ACGREFMASTER
  2
AcGrefMaster
  3
AcAttribServices
 90
        0
280
     0
281
     0
  0
CLASS
  1
ACME_DATABASE
  2
AcMeDbDatabase
  3
AcMeServices
 90
        0
280
     0
281
     0
  0
CLASS
  1
ACRFINSADJUSTERMGR
  2
AcRfInsAdjusterMgr
  3
AcMeServices
 90
        0
280
     0
281
     0
  0
CLASS
  1
ACGREFACADMASTER
  2
AcGrefacadMaster
  3
AcGrefServices
 90
        0
280
     0
281
     0
  0
CLASS
  1
AMIMASTER
  2
AmiMaster
  3
AmiServices
 90
        0
280
     0
281
     0
  0
CLASS
  1
ACMDATADICTIONARY
  2
AcmDataDictionary
  3
"AcmSymBB|Product Description: AutoCAD Mechanical|Company: Autodesk"
 90
        0
280
     0
281
     0
  0
CLASS
  1
ACMDATAENTRYBLOCK
  2
AcmDataEntryBlock
  3
"AcmSymBB|Product Description: AutoCAD Mechanical|Company: Autodesk"
 90
        0
280
     0
281
     0
  0
CLASS
  1
ACIMSTRSYSVAR
  2
AcImStrSysVar
  3
AcMeServices
 90
        0
280
     0
281
     0
  0
CLASS
  1
ACMSTANDARDISO
  2
AcmStandardISO
  3
"Amdt_StdImp|Product Description: AutoCAD Mechanical|Company: Autodesk"
 90
        0
280
     0
281
     0
  0
CLASS
  1
AMGOBJPROPCFG
  2
AmgObjPropCfg
  3
"AmgLay|Product Description: AutoCAD Mechanical|Company: Autodesk"
 90
        1
280
     0
281
     0
  0
CLASS
  1
AMDTEDGESTANDARDISO
  2
AmdtEdgeStdISO
  3
"Amdt_StdImp|Product Description: AutoCAD Mechanical|Company: Autodesk"
 90
        0
280
     0
281
     0
  0
CLASS
  1
ACMSURFSTANDARDISO
  2
AcmSurfTextStdISO
  3
"Amdt_StdImp|Product Description: AutoCAD Mechanical|Company: Autodesk"
 90
        0
280
     0
281
     0
  0
CLASS
  1
ACMFCFSTANDARDISO
  2
AcmFCFStdISO
  3
"Amdt_StdImp|Product Description: AutoCAD Mechanical|Company: Autodesk"
 90
        0
280
     0
281
     0
  0
CLASS
  1
ACMWELDSTANDARDISO
  2
AcmWeldingStdISO
  3
"Amdt_StdImp|Product Description: AutoCAD Mechanical|Company: Autodesk"
 90
        0
280
     0
281
     0
  0
CLASS
  1
ACMIDSTANDARDISO
  2
AcmIdStdISO
  3
"Amdt_StdImp|Product Description: AutoCAD Mechanical|Company: Autodesk"
 90
        0
280
     0
281
     0
  0
CLASS
  1
ACMDATUMSTANDARDISO
  2
AcmDatumStdISO
  3
"Amdt_StdImp|Product Description: AutoCAD Mechanical|Company: Autodesk"
 90
        0
280
     0
281
     0
  0
CLASS
  1
ACMBOMSTANDARDISO
  2
AcmBOMStdISO
  3
"Amdt_StdImp|Product Description: AutoCAD Mechanical|Company: Autodesk"
 90
        0
280
     0
281
     0
  0
CLASS
  1
ACMDETAILSTANDARDISO
  2
AmdtDetailSymStdISO
  3
"Amdt_StdImp|Product Description: AutoCAD Mechanical|Company: Autodesk"
 90
        0
280
     0
281
     0
  0
CLASS
  1
ACMSECTIONSTANDARDISO
  2
AmdtSectionSymStdISO
  3
"Amdt_StdImp|Product Description: AutoCAD Mechanical|Company: Autodesk"
 90
        0
280
     0
281
     0
  0
CLASS
  1
ACMCENTERLINESTANDARDISO
  2
AmdtCenterLineStdISO
  3
"Amdt_StdImp|Product Description: AutoCAD Mechanical|Company: Autodesk"
 90
        0
280
     0
281
     0
  0
CLASS
  1
ACAMGLAYSTD
  2
AcAmgLayStd
  3
"AmgLay|Product Description: AutoCAD Mechanical|Company: Autodesk"
 90
        0
280
     0
281
     0
  0
CLASS
  1
ACAMGDIMSTD
  2
AcAmgDimStd
  3
"AmgDim|Product Description: AutoCAD Mechanical|Company: Autodesk"
 90
        0
280
     0
281
     0
  0
CLASS
  1
ACAMGTITLESTD
  2
AcAmgTitleStd
  3
"AmgTitle|Product Description: AutoCAD Mechanical|Company: Autodesk"
 90
        0
280
     0
281
     0
  0
CLASS
  1
ACAMGFILTERDAT
  2
AcAmgFilterDat
  3
"AcadM|Product Description: AutoCAD Mechanical|Company: Autodesk"
 90
        0
280
     0
281
     0
  0
CLASS
  1
LAYER_INDEX
  2
AcDbLayerIndex
  3
ObjectDBX Classes
 90
    32768
280
     0
281
     0
  0
CLASS
  1
IDBUFFER
  2
AcDbIdBuffer
  3
ObjectDBX Classes
 90
    32768
280
     0
281
     0
  0
CLASS
  1
PLOTSETTINGS
  2
AcDbPlotSettings
  3
ObjectDBX Classes
 90
    32768
280
     0
281
     0
  0
CLASS
  1
AMDTFORMULAUPDATEDISPATCHER
  2
AmdtFormulaUpdateDispatcher
  3
AcMeServices
 90
        0
280
     0
281
     0
  0
CLASS
  1
ACMSTANDARDANSI
  2
AcmStandardANSI
  3
"Amdt_StdImp|Product Description: AutoCAD Mechanical|Company: Autodesk"
 90
        0
280
     0
281
     0
  0
CLASS
  1
ACMSURFSTANDARDANSI
  2
AcmSurfTextStdANSI
  3
"Amdt_StdImp|Product Description: AutoCAD Mechanical|Company: Autodesk"
 90
        0
280
     0
281
     0
  0
CLASS
  1
ACMFCFSTANDARDANSI
  2
AcmFCFStdANSI
  3
"Amdt_StdImp|Product Description: AutoCAD Mechanical|Company: Autodesk"
 90
        0
280
     0
281
     0
  0
CLASS
  1
ACMWELDSTANDARDANSI
  2
AcmWeldingStdANSI
  3
"Amdt_StdImp|Product Description: AutoCAD Mechanical|Company: Autodesk"
 90
        0
280
     0
281
     0
  0
CLASS
  1
ACMIDSTANDARDANSI
  2
AcmIdStdANSI
  3
"Amdt_StdImp|Product Description: AutoCAD Mechanical|Company: Autodesk"
 90
        0
280
     0
281
     0
  0
CLASS
  1
ACMDATUMSTANDARDANSI
  2
AcmDatumStdANSI
  3
"Amdt_StdImp|Product Description: AutoCAD Mechanical|Company: Autodesk"
 90
        0
280
     0
281
     0
  0
CLASS
  1
ACMBOMSTANDARDANSI
  2
AcmBOMStdANSI
  3
"Amdt_StdImp|Product Description: AutoCAD Mechanical|Company: Autodesk"
 90
        0
280
     0
281
     0
  0
CLASS
  1
ACMDETAILSTANDARDANSI
  2
AmdtDetailSymStdANSI
  3
"Amdt_StdImp|Product Description: AutoCAD Mechanical|Company: Autodesk"
 90
        0
280
     0
281
     0
  0
CLASS
  1
ACMSECTIONSTANDARDANSI
  2
AmdtSectionSymStdANSI
  3
"Amdt_StdImp|Product Description: AutoCAD Mechanical|Company: Autodesk"
 90
        0
280
     0
281
     0
  0
CLASS
  1
ACMCENTERLINESTANDARDANSI
  2
AmdtCenterLineStdANSI
  3
"Amdt_StdImp|Product Description: AutoCAD Mechanical|Company: Autodesk"
 90
        0
280
     0
281
     0
  0
CLASS
  1
ACMBOM
  2
AcmBom
  3
"AcmSymBB|Product Description: AutoCAD Mechanical|Company: Autodesk"
 90
        0
280
     0
281
     0
  0
CLASS
  1
ACMDATAENTRYPART
  2
AcmDataEntryPart
  3
"AcmSymBB|Product Description: AutoCAD Mechanical|Company: Autodesk"
 90
    32768
280
     0
281
     0
  0
CLASS
  1
ACMPARTREF
  2
AcmPartRef
  3
"AcmSymBB|Product Description: AutoCAD Mechanical|Company: Autodesk"
 90
    35839
280
     0
281
     1
  0
CLASS
  1
ACDBCIRCARCRES
  2
AcDbCircArcRes
  3
AcGrefServices
 90
    32768
280
     0
281
     0
  0
CLASS
  1
ACMBOMROW
  2
AcmBomRow
  3
"AcmSymBB|Product Description: AutoCAD Mechanical|Company: Autodesk"
 90
    32768
280
     0
281
     0
  0
CLASS
  1
ACMBALLOON
  2
AcmBalloon
  3
"AcmSymBB|Product Description: AutoCAD Mechanical|Company: Autodesk"
 90
    35839
280
     0
281
     1
  0
CLASS
  1
AMDTNOTE
  2
AmdtNote
  3
"AcmSymBB|Product Description: AutoCAD Mechanical|Company: Autodesk"
 90
    35839
280
     0
281
     1
  0
CLASS
  1
STDPART2D
  2
AmgStdPart
  3
"g3vace|Class: AmgStdPart|Product Description: AutoCAD Mechanical|Company: Autodesk"
 90
    35839
280
     0
281
     1
  0
CLASS
  1
ACDBSTDPARTRES_LINE
  2
AcDbStdPartRes_Line
  3
"g3vace|Class: AcDbStdPartRes_Line|Product Description: AutoCAD Mechanical|Company: Autodesk"
 90
    32768
280
     0
281
     0
  0
CLASS
  1
ACMDATAENTRY
  2
AcmDataEntry
  3
"AcmSymBB|Product Description: AutoCAD Mechanical|Company: Autodesk"
 90
        0
280
     0
281
     0
  0
CLASS
  1
ACDBOPPOLYLINERES
  2
AcDbOpPolylineRes
  3
AcGrefServices
 90
    32768
280
     0
281
     0
  0
CLASS
  1
ACMPARTLIST
  2
AcmPartList
  3
"AcmSymBB|Product Description: AutoCAD Mechanical|Company: Autodesk"
 90
    35839
280
     0
281
     1
  0
CLASS
  1
ACDBLINERES
  2
AcDbLineRes
  3
AcGrefServices
 90
    32768
280
     0
281
     0
  0
CLASS
  1
ACRFINSADJ
  2
AcRfInsAdjuster
  3
AcMeServices
 90
    32768
280
     0
281
     0
  0
CLASS
  1
AM_DRAWING_MGR
  2
AcDmDwgMgr
  3
AcMechDwgViewMgmt
 90
        0
280
     0
281
     0
  0
CLASS
  1
AM_DWG_DOCUMENT
  2
AcDmDwgDocument
  3
AcMechDwgViewMgmt
 90
        0
280
     0
281
     0
  0
CLASS
  1
AM_DWG_SHEET
  2
AcDmSheet
  3
AcMechDwgViewMgmt
 90
        0
280
     0
281
     0
  0
CLASS
  1
AM_VIEWDIMPARMAP
  2
AcDmViewDimParMap
  3
AcMechDwgViewMgmt
 90
        0
280
     0
281
     0
  0
CLASS
  1
AM_DWGMGR_NAME
  2
AcDmDwgMgrName
  3
AcMechDwgViewMgmt
 90
        0
280
     0
281
     0
  0
CLASS
  1
AMDTMENUSTATEMGR
  2
AmdtMenuStateMgr
  3
McadcomServices
 90
        0
280
     0
281
     0
  0
CLASS
  1
AMDTMCOMMENUSTATE
  2
AmdtMcomMenuState
  3
McadcomServices
 90
        0
280
     0
281
     0
  0
CLASS
  1
ASAPP
  2
AcAsAppObject
  3
AutoSurfServices
 90
        0
280
     0
281
     0
  0
CLASS
  1
IM_STATIC_MAN
  2
AcImStaticVarManager
  3
AcMeServices
 90
        0
280
     0
281
     0
  0
CLASS
  1
ACIMDBLSTATICVAR
  2
AcImDblStaticVar
  3
AcMeServices
 90
        0
280
     0
281
     0
  0
CLASS
  1
ACIMSTRSTATICVAR
  2
AcImStrStaticVar
  3
AcMeServices
 90
        0
280
     0
281
     0
  0
CLASS
  1
ACIMINTSTATICVAR
  2
AcImIntStaticVar
  3
AcMeServices
 90
        0
280
     0
281
     0
  0
CLASS
  1
ACASGREFMASTER
  2
AcAsGrefMaster
  3
AutoSurfResolverServices
 90
        0
280
     0
281
     0
  0
CLASS
  1
ACADGREFMODULE
  2
AcAdGrefModule
  3
AdGrefServices
 90
        0
280
     0
281
     0
  0
CLASS
  1
AMDTMAPISURFMOUDULE
  2
AmdtMApiSurfModule
  3
MApiSurfServices
 90
        0
280
     0
281
     0
  0
CLASS
  1
MAPIAMMOUDLE
  2
MApiAmModule
  3
MApiAmServices
 90
        0
280
     0
281
     0
  0
CLASS
  1
AMDTADMENUSTATE
  2
AmdtAdMenuState
  3
DesignerServices
 90
        0
280
     0
281
     0
  0
CLASS
  1
ADAPPL
  2
AcAdAppl
  3
DesignerServices
 90
        0
280
     0
281
     0
  0
CLASS
  1
DEPMGR
  2
AcAdDepMgr
  3
DesignerServices
 90
        0
280
     0
281
     0
  0
CLASS
  1
PARAMMGR
  2
AcAdParamMgr
  3
DesignerServices
 90
        0
280
     0
281
     0
  0
CLASS
  1
PARAMSCOPE
  2
AcAdParamScope
  3
DesignerServices
 90
        0
280
     0
281
     0
  0
CLASS
  1
NAMEDAPPL
  2
AcAdNamedAppl
  3
DesignerServices
 90
        0
280
     0
281
     0
  0
CLASS
  1
ADHNTMPLT
  2
AdHoleNoteTemplateMgr
  3
DesignerServices
 90
    32768
280
     0
281
     0
  0
CLASS
  1
AM_HNTEMPLATE_MGR_NAME
  2
AdHoleNoteTemplateMgrName
  3
DesignerServices
 90
    32768
280
     0
281
     0
  0
CLASS
  1
AMDTDMMENUSTATE
  2
AmdtDmMenuState
  3
AcMechDwgViewMgmt
 90
        0
280
     0
281
     0
  0
CLASS
  1
MAPIADMODULE
  2
MApiAdModule
  3
MApiAdServices
 90
        0
280
     0
281
     0
  0
CLASS
  1
AMDTAMMENUSTATE
  2
AmdtAmMenuState
  3
DesignerAssemblies
 90
        0
280
     0
281
     0
  0
CLASS
  1
ACAMPROJECT
  2
AcAmProject
  3
DesignerAssemblies
 90
        0
280
     0
281
     0
  0
CLASS
  1
ACAMGRCOMPDEF
  2
AcAmGrCompDef
  3
DesignerAssemblies
 90
        0
280
     0
281
     0
  0
CLASS
  1
ACCMCONTEXT
  2
AcCmContext
  3
DesignerAssemblies
 90
        0
280
     0
281
     0
  0
CLASS
  1
ACAMCOMPDEF
  2
AcAmCompDef
  3
DesignerAssemblies
 90
        0
280
     0
281
     0
  0
CLASS
  1
ACAMCOMPDEFMGR
  2
AcAmCompDefMgr
  3
DesignerAssemblies
 90
        0
280
     0
281
     0
  0
CLASS
  1
AMCONTEXTMGR
  2
AcAmContextMgr
  3
DesignerAssemblies
 90
        0
280
     0
281
     0
  0
CLASS
  1
ACAMCONTEXTMODELER
  2
AcAmContextModeler
  3
DesignerAssemblies
 90
        0
280
     0
281
     0
  0
CLASS
  1
CATALOGSTATE
  2
AcAmCatalogState
  3
DesignerAssemblies
 90
        0
280
     0
281
     0
  0
CLASS
  1
ACAMGRCOMPDEFSET
  2
AcAmGrCompDefSet
  3
DesignerAssemblies
 90
        0
280
     0
281
     0
  0
CLASS
  1
AMDTBROWSERDBTAB
  2
AmdtBrowserDbTab
  3
McadcomServices
 90
        0
280
     0
281
     0
  0
CLASS
  1
CBROWSERAPPOBJECT
  2
CBrowserAppObject
  3
McadcomServices
 90
        0
280
     0
281
     0
  0
CLASS
  1
DM_PLACEHOLDER
  2
AcDmSelsetPlaceholder
  3
AcMechDwgViewMgmt
 90
        0
280
     0
281
     0
  0
CLASS
  1
ACMPICKOBJ
  2
AcmPickEnt
  3
"AcmSymBB|Product Description: AutoCAD Mechanical|Company: Autodesk"
 90
    32768
280
     0
281
     1
  0
CLASS
  1
ACMNOTESTANDARDISO
  2
AmdtNoteStdISO
  3
"Amdt_StdImp|Product Description: AutoCAD Mechanical|Company: Autodesk"
 90
        0
280
     0
281
     0
  0
CLASS
  1
ACMNOTESTANDARDANSI
  2
AmdtNoteStdANSI
  3
"Amdt_StdImp|Product Description: AutoCAD Mechanical|Company: Autodesk"
 90
        0
280
     0
281
     0
  0
CLASS
  1
ACMTHREADLINESTANDARDISO
  2
AmdtThreadLineStdISO
  3
"Amdt_StdImp|Product Description: AutoCAD Mechanical|Company: Autodesk"
 90
        0
280
     0
281
     0
  0
CLASS
  1
ACMTHREADLINESTANDARDANSI
  2
AmdtThreadLineStdANSI
  3
"Amdt_StdImp|Product Description: AutoCAD Mechanical|Company: Autodesk"
 90
        0
280
     0
281
     0
  0
CLASS
  1
TABLESTYLE
  2
AcDbTableStyle
  3
ObjectDBX Classes
 90
     4095
280
     0
281
     0
  0
CLASS
  1
SORTENTSTABLE
  2
AcDbSortentsTable
  3
ObjectDBX Classes
 90
        0
280
     0
281
     0
  0
CLASS
  1
MATERIAL
  2
AcDbMaterial
  3
ObjectDBX Classes
 90
     1024
280
     0
281
     0
  0
CLASS
  1
VISUALSTYLE
  2
AcDbVisualStyle
  3
ObjectDBX Classes
 90
     4095
280
     0
281
     0
  0
CLASS
  1
ACRFATTGENMGR
  2
AcRfAttGeneralMgr
  3
AcAttribServices
 90
        0
280
     0
281
     0
  0
CLASS
  1
ACRFOBJATTMGR
  2
AcRfObjAttGroupMgr
  3
AcAttribServices
 90
        0
280
     0
281
     0
  0
CLASS
  1
ACRFMCADAPIATTHOLDER
  2
AcRfMCADAPIAttHolder
  3
AcAttribServices
 90
        0
280
     0
281
     0
  0
CLASS
  1
AMDTSYSATTR
  2
AmdtSystemAttribute
  3
AcAttribServices
 90
        0
280
     0
281
     0
  0
CLASS
  1
ACMTAPERSTANDARDISO
  2
AcmTaperStdISO
  3
"Amdt_StdImp|Product Description: AutoCAD Mechanical|Company: Autodesk"
 90
        0
280
     0
281
     0
  0
CLASS
  1
CAMSSTRUCTBTNSTATE
  2
StructBtnState
  3
L"DesignerAssemblies"
 90
        0
280
     0
281
     0
  0
CLASS
  1
DIMASSOC
  2
AcDbDimAssoc
  3
"AcDbDimAssoc|Product Desc:     AcDim ARX App For Dimension|Company:          Autodesk, Inc.|WEB Address:      www.autodesk.com"
 90
    32768
280
     0
281
     0
  0
CLASS
  1
AMDTNOTETEMPLATEDB
  2
AmdtNoteTemplateDB
  3
AMDT_STDIMP_MODULE_NAME
 90
        0
280
     0
281
     0
  0
CLASS
  1
ACMTAPERSTANDARDANSI
  2
AcmTaperStdANSI
  3
"Amdt_StdImp|Product Description: AutoCAD Mechanical|Company: Autodesk"
 90
        0
280
     0
281
     0
  0
CLASS
  1
ACAMGHOLECHARTSTDANSI
  2
AcAmgHoleChartStdANSI
  3
ACMSYMBB_MODULE_NAME
 90
        0
280
     0
281
     0
  0
ENDSEC
  0
SECTION
  2
TABLES
  0
TABLE
  2
VPORT
  5
8
330
0
100
AcDbSymbolTable
 70
     1
  0
VPORT
  5
B0EC
330
8
100
AcDbSymbolTableRecord
100
AcDbViewportTableRecord
  2
*Active
 70
     0
 10
0.0
 20
0.0
 11
1.0
 21
1.0
 12
190.5456300576607
 22
136.522327439807
 13
0.0
 23
0.0
 14
2.5
 24
2.5
 15
10.0
 25
10.0
 16
0.0
 26
0.0
 36
1.0
 17
0.0
 27
0.0
 37
0.0
 40
275.1690278121765
 41
1.648648648648648
 42
50.0
 43
-1370.695619172058
 44
-1370.695619172058
 50
0.0
 51
0.0
 71
    16
 72
   100
 73
     1
 74
     3
 75
     0
 76
     0
 77
     0
 78
     0
281
     0
 65
     0
110
0.0
120
0.0
130
0.0
111
1.0
121
0.0
131
0.0
112
0.0
122
1.0
132
0.0
 79
     0
146
0.0
  0
ENDTAB
  0
TABLE
  2
LTYPE
  5
5
330
0
100
AcDbSymbolTable
 70
    32
  0
LTYPE
  5
14
330
5
100
AcDbSymbolTableRecord
100
AcDbLinetypeTableRecord
  2
ByBlock
 70
     0
  3

 72
    65
 73
     0
 40
0.0
  0
LTYPE
  5
15
330
5
100
AcDbSymbolTableRecord
100
AcDbLinetypeTableRecord
  2
ByLayer
 70
     0
  3

 72
    65
 73
     0
 40
0.0
  0
LTYPE
  5
16
330
5
100
AcDbSymbolTableRecord
100
AcDbLinetypeTableRecord
  2
Continuous
 70
     0
  3
Solid line
 72
    65
 73
     0
 40
0.0
  0
LTYPE
  5
4F
330
5
100
AcDbSymbolTableRecord
100
AcDbLinetypeTableRecord
  2
AM_ISO02W050
 70
     0
  3
__ __ __ __ __ __ __ __ __ __ __ __ __ __ __
 72
    65
 73
     2
 40
7.5
 49
6.0
 74
     0
 49
-1.5
 74
     0
  0
LTYPE
  5
52
330
5
100
AcDbSymbolTableRecord
100
AcDbLinetypeTableRecord
  2
Amconstr
 70
     0
  3
_______________________
 72
    65
 73
     2
 40
9999.0
 49
9999.0
 74
     0
 49
0.0
 74
     0
  0
LTYPE
  5
64
330
5
100
AcDbSymbolTableRecord
100
AcDbLinetypeTableRecord
  2
ACISOWELD
 70
     0
  3
_ _ _ _ _
 72
    65
 73
     2
 40
2.0
 49
2.0
 74
     0
 49
-1.0
 74
     0
  0
LTYPE
  5
65
330
5
100
AcDbSymbolTableRecord
100
AcDbLinetypeTableRecord
  2
ACISOTGB
 70
     0
  3
__ . . __ . .
 72
    65
 73
     6
 40
9.0
 49
4.0
 74
     0
 49
-1.0
 74
     0
 49
1.0
 74
     0
 49
-1.0
 74
     0
 49
1.0
 74
     0
 49
-1.0
 74
     0
  0
LTYPE
  5
66
330
5
100
AcDbSymbolTableRecord
100
AcDbLinetypeTableRecord
  2
ACISOTGL
 70
     0
  3
_ _ _ _ _
 72
    65
 73
     2
 40
3.0
 49
2.0
 74
     0
 49
-1.0
 74
     0
  0
LTYPE
  5
69
330
5
100
AcDbSymbolTableRecord
100
AcDbLinetypeTableRecord
  2
CENTER
 70
     0
  3
__ . __
 72
    65
 73
     4
 40
7.0
 49
4.0
 74
     0
 49
-1.0
 74
     0
 49
1.0
 74
     0
 49
-1.0
 74
     0
  0
LTYPE
  5
A6E
330
5
100
AcDbSymbolTableRecord
100
AcDbLinetypeTableRecord
  2
PHANTOM2
 70
     0
  3
Phantom (.5x) ___ _ _ ___ _ _ ___ _ _ ___ _ _
 72
    65
 73
     6
 40
31.75
 49
15.875
 74
     0
 49
-3.174999999999999
 74
     0
 49
3.174999999999999
 74
     0
 49
-3.174999999999999
 74
     0
 49
3.174999999999999
 74
     0
 49
-3.174999999999999
 74
     0
  0
LTYPE
  5
4DED
330
5
100
AcDbSymbolTableRecord
100
AcDbLinetypeTableRecord
  2
中線
 70
     0
  3
___________________
 72
    65
 73
     2
 40
2.0
 49
1.0
 74
     0
 49
1.0
 74
     0
  0
LTYPE
  5
4DF6
330
5
100
AcDbSymbolTableRecord
100
AcDbLinetypeTableRecord
  2
細線
 70
     0
  3
___________________
 72
    65
 73
     2
 40
2.0
 49
1.0
 74
     0
 49
1.0
 74
     0
  0
LTYPE
  5
4DF7
330
5
100
AcDbSymbolTableRecord
100
AcDbLinetypeTableRecord
  2
太線
 70
     0
  3
___________________
 72
    65
 73
     2
 40
2.0
 49
1.0
 74
     0
 49
1.0
 74
     0
  0
LTYPE
  5
4EA7
330
5
100
AcDbSymbolTableRecord
100
AcDbLinetypeTableRecord
  2
文字
 70
     0
  3
_________________
 72
    65
 73
     2
 40
2.0
 49
1.0
 74
     0
 49
1.0
 74
     0
  0
LTYPE
  5
4EA9
330
5
100
AcDbSymbolTableRecord
100
AcDbLinetypeTableRecord
  2
寸法線
 70
     0
  3
________________
 72
    65
 73
     2
 40
2.0
 49
1.0
 74
     0
 49
1.0
 74
     0
  0
LTYPE
  5
4F12
330
5
100
AcDbSymbolTableRecord
100
AcDbLinetypeTableRecord
  2
ハッチング
 70
     0
  3
_________________
 72
    65
 73
     2
 40
2.0
 49
1.0
 74
     0
 49
1.0
 74
     0
  0
LTYPE
  5
5180
330
5
100
AcDbSymbolTableRecord
100
AcDbLinetypeTableRecord
  2
陰線1
 70
     0
  3
__ __ __ __
 72
    65
 73
     2
 40
4.0
 49
2.2
 74
     0
 49
-1.8
 74
     0
  0
LTYPE
  5
5182
330
5
100
AcDbSymbolTableRecord
100
AcDbLinetypeTableRecord
  2
切断線
 70
     0
  3
/\/-/\/-/\/-/\/-/\/-/\/
 72
    65
 73
     2
 40
11.0001
 49
0.0001
 74
     4
 75
   135
340
56
 46
0.04
 50
0.0
 44
0.0
 45
0.0
 49
-11.0
 74
     0
  0
LTYPE
  5
5183
330
5
100
AcDbSymbolTableRecord
100
AcDbLinetypeTableRecord
  2
想像線1
 70
     0
  3
__ __ __ _____ __ __ ____
 72
    65
 73
     6
 40
14.5
 49
6.0
 74
     0
 49
-1.5
 74
     0
 49
2.0
 74
     0
 49
-1.5
 74
     0
 49
2.0
 74
     0
 49
-1.5
 74
     0
  0
LTYPE
  5
5185
330
5
100
AcDbSymbolTableRecord
100
AcDbLinetypeTableRecord
  2
中心線1
 70
     0
  3
___ _ ___ _ ___
 72
    65
 73
     4
 40
18.0
 49
12.0
 74
     0
 49
-2.0
 74
     0
 49
2.0
 74
     0
 49
-2.0
 74
     0
  0
LTYPE
  5
5188
330
5
100
AcDbSymbolTableRecord
100
AcDbLinetypeTableRecord
  2
補助線
 70
     0
  3
______________
 72
    65
 73
     2
 40
2.0
 49
1.0
 74
     0
 49
1.0
 74
     0
  0
LTYPE
  5
6427
330
5
100
AcDbSymbolTableRecord
100
AcDbLinetypeTableRecord
  2
HIDDEN
 70
     0
  3
Hidden __ __ __ __ __ __ __ __ __ __ __ __ __ _
 72
    65
 73
     2
 40
0.375
 49
0.25
 74
     0
 49
-0.125
 74
     0
  0
LTYPE
  5
AC81
330
5
100
AcDbSymbolTableRecord
100
AcDbLinetypeTableRecord
  2
破断線
 70
     0
  3
/\/-/\/-/\/-/\/-/\/-/\/
 72
    65
 73
     2
 40
0.4401
 49
0.0001
 74
     4
 75
   136
340
AC80
 46
0.0016
 50
0.0
 44
0.0
 45
0.0
 49
-0.4400000000000001
 74
     0
  0
LTYPE
  5
AC9E
330
5
100
AcDbSymbolTableRecord
100
AcDbLinetypeTableRecord
  2
Amzigzag
 70
     0
  3
/\/-/\/-/\/-/\/-/\/-/\/
 72
    65
 73
     2
 40
11.0001
 49
0.0001
 74
     4
 75
   135
340
56
 46
0.04
 50
0.0
 44
0.0
 45
0.0
 49
-11.0
 74
     0
  0
LTYPE
  5
AF0F
330
5
100
AcDbSymbolTableRecord
100
AcDbLinetypeTableRecord
  2
genzigzag
 70
     0
  3
/\/-/\/-/\/-/\/-/\/-/\/
 72
    65
 73
     2
 40
12.0001
 49
0.0001
 74
     4
 75
   135
340
AC80
 46
2.0
 50
0.0
 44
0.0
 45
0.0
 49
-12.0
 74
     0
  0
LTYPE
  5
AF95
330
5
100
AcDbSymbolTableRecord
100
AcDbLinetypeTableRecord
  2
AM_ISO08W050
 70
     0
  3
____ . ____ . ____ . ____ . ____ . ____ . ____
 72
    65
 73
     4
 40
18.0
 49
12.0
 74
     0
 49
-1.5
 74
     0
 49
3.0
 74
     0
 49
-1.5
 74
     0
  0
LTYPE
  5
AF96
330
5
100
AcDbSymbolTableRecord
100
AcDbLinetypeTableRecord
  2
AM_ISO09W050
 70
     0
  3
_____ . . _____ . . _____ . . ____ .. ____
 72
    65
 73
     6
 40
22.5
 49
12.0
 74
     0
 49
-1.5
 74
     0
 49
3.0
 74
     0
 49
-1.5
 74
     0
 49
3.0
 74
     0
 49
-1.5
 74
     0
  0
LTYPE
  5
AF97
330
5
100
AcDbSymbolTableRecord
100
AcDbLinetypeTableRecord
  2
AM_ISO08W050x2
 70
     0
  3
__ . __ . __ . __ . __ . __
 72
    65
 73
     4
 40
9.0
 49
6.0
 74
     0
 49
-0.75
 74
     0
 49
1.5
 74
     0
 49
-0.75
 74
     0
  0
LTYPE
  5
AF98
330
5
100
AcDbSymbolTableRecord
100
AcDbLinetypeTableRecord
  2
AM_ISO02W050x2
 70
     0
  3
 _ _ _ _ _ _ _ _ _ _ _ _
 72
    65
 73
     2
 40
3.75
 49
3.0
 74
     0
 49
-0.75
 74
     0
  0
LTYPE
  5
B693
330
5
100
AcDbSymbolTableRecord
100
AcDbLinetypeTableRecord
  2
ACANSTGB
 70
     0
  3
__ . . __ . .
 72
    65
 73
     6
 40
0.35433070866
 49
0.15748031496
 74
     0
 49
-0.03937007874
 74
     0
 49
0.03937007874
 74
     0
 49
-0.03937007874
 74
     0
 49
0.03937007874
 74
     0
 49
-0.03937007874
 74
     0
  0
LTYPE
  5
B694
330
5
100
AcDbSymbolTableRecord
100
AcDbLinetypeTableRecord
  2
ACANSTGL
 70
     0
  3
_ _ _ _ _
 72
    65
 73
     2
 40
0.11811023622
 49
0.07874015748
 74
     0
 49
-0.03937007874
 74
     0
  0
LTYPE
  5
B695
330
5
100
AcDbSymbolTableRecord
100
AcDbLinetypeTableRecord
  2
CENTER2
 70
     0
  3
Center (.5x) ___ _ ___ _ ___ _ ___ _ ___ _ ___
 72
    65
 73
     4
 40
1.125
 49
0.75
 74
     0
 49
-0.125
 74
     0
 49
0.125
 74
     0
 49
-0.125
 74
     0
  0
LTYPE
  5
B696
330
5
100
AcDbSymbolTableRecord
100
AcDbLinetypeTableRecord
  2
HIDDEN2
 70
     0
  3
Hidden (.5x) _ _ _ _ _ _ _ _ _ _ _ _ _ _ _ _ _
 72
    65
 73
     2
 40
0.1875
 49
0.125
 74
     0
 49
-0.0625
 74
     0
  0
LTYPE
  5
B697
330
5
100
AcDbSymbolTableRecord
100
AcDbLinetypeTableRecord
  2
AMZIGZAG2
 70
     0
  3
/\/-/\/-/\/-/\/-/\/-/\/
 72
    65
 73
     2
 40
0.4401
 49
0.0001
 74
     0
 49
-0.4400000000000003
 74
     0
  0
ENDTAB
  0
TABLE
  2
LAYER
  5
2
102
{ACAD_XDICTIONARY
360
3F95
102
}
330
0
100
AcDbSymbolTable
 70
    18
  0
LAYER
  5
10
330
2
100
AcDbSymbolTableRecord
100
AcDbLayerTableRecord
  2
0
 70
     0
 62
     7
  6
Continuous
370
    -3
390
F
  0
LAYER
  5
6D1
330
2
100
AcDbSymbolTableRecord
100
AcDbLayerTableRecord
  2
Defpoints
 70
     0
 62
     7
  6
Continuous
290
     0
370
    -3
390
F
  0
LAYER
  5
5F85
330
2
100
AcDbSymbolTableRecord
100
AcDbLayerTableRecord
  2
AM_0
 70
     0
 62
     7
  6
中線
370
    30
390
F
1001
AcAecLayerStandard
1000

1000

  0
LAYER
  5
AC9F
330
2
100
AcDbSymbolTableRecord
100
AcDbLayerTableRecord
  2
size
 70
     0
 62
     5
  6
Continuous
290
     0
370
    25
390
F
  0
LAYER
  5
ACA0
330
2
100
AcDbSymbolTableRecord
100
AcDbLayerTableRecord
  2
waku
 70
     0
 62
     7
  6
Continuous
370
    35
390
F
  0
LAYER
  5
ACA1
330
2
100
AcDbSymbolTableRecord
100
AcDbLayerTableRecord
  2
AM_6
 70
     0
 62
     2
  6
文字
370
    13
390
F
1001
AcAecLayerStandard
1000

1000

  0
LAYER
  5
ACC8
330
2
100
AcDbSymbolTableRecord
100
AcDbLayerTableRecord
  2
hyomoji
 70
     0
 62
     2
  6
Continuous
370
    13
390
F
  0
LAYER
  5
ACC9
330
2
100
AcDbSymbolTableRecord
100
AcDbLayerTableRecord
  2
hyosen1
 70
     0
 62
     1
  6
Continuous
370
    30
390
F
  0
LAYER
  5
ACCA
330
2
100
AcDbSymbolTableRecord
100
AcDbLayerTableRecord
  2
hyosen2
 70
     0
 62
     1
  6
Continuous
370
    13
390
F
  0
LAYER
  5
AD60
330
2
100
AcDbSymbolTableRecord
100
AcDbLayerTableRecord
  2
AM_1
 70
     0
 62
    30
  6
太線
370
    40
390
F
1001
AcAecLayerStandard
1000

1000

  0
LAYER
  5
AD64
330
2
100
AcDbSymbolTableRecord
100
AcDbLayerTableRecord
  2
AM_2
 70
     0
 62
     1
  6
細線
370
    13
390
F
1001
AcAecLayerStandard
1000

1000

  0
LAYER
  5
AD67
330
2
100
AcDbSymbolTableRecord
100
AcDbLayerTableRecord
  2
AM_3
 70
     0
 62
     6
  6
陰線1
370
    13
390
F
1001
AcAecLayerStandard
1000

1000

  0
LAYER
  5
AD68
330
2
100
AcDbSymbolTableRecord
100
AcDbLayerTableRecord
  2
AM_5
 70
     0
 62
     3
  6
寸法線
370
    13
390
F
1001
AcAecLayerStandard
1000

1000

  0
LAYER
  5
AD69
330
2
100
AcDbSymbolTableRecord
100
AcDbLayerTableRecord
  2
AM_7
 70
     0
 62
     4
  6
中心線1
370
    13
390
F
1001
AcAecLayerStandard
1000

1000

  0
LAYER
  5
AD6A
330
2
100
AcDbSymbolTableRecord
100
AcDbLayerTableRecord
  2
AM_8
 70
     0
 62
     1
  6
ハッチング
370
    13
390
F
1001
AcAecLayerStandard
1000

1000

  0
LAYER
  5
AD6E
330
2
100
AcDbSymbolTableRecord
100
AcDbLayerTableRecord
  2
AM_10
 70
     0
 62
     7
  6
切断線
370
    30
390
F
1001
AcAecLayerStandard
1000

1000

  0
LAYER
  5
AD6F
330
2
100
AcDbSymbolTableRecord
100
AcDbLayerTableRecord
  2
AM_11
 70
     0
 62
     2
  6
想像線1
370
    13
390
F
1001
AcAecLayerStandard
1000

1000

  0
LAYER
  5
B1B6
330
2
100
AcDbSymbolTableRecord
100
AcDbLayerTableRecord
  2
AM_CL
 70
     1
 62
    -1
  6
Amconstr
370
    13
390
F
1001
AcAecLayerStandard
1000

1000

  0
ENDTAB
  0
TABLE
  2
STYLE
  5
3
330
0
100
AcDbSymbolTable
 70
     8
  0
STYLE
  5
11
330
3
100
AcDbSymbolTableRecord
100
AcDbTextStyleTableRecord
  2
STANDARD
 70
     0
 40
0.0
 41
0.7
 50
0.0
 71
     0
 42
3.2
  3
romans.shx
  4
extfont.shx
  0
STYLE
  5
56
330
3
100
AcDbSymbolTableRecord
100
AcDbTextStyleTableRecord
  2

 70
     1
 40
0.0
 41
1.0
 50
0.0
 71
     0
 42
2.5
  3
ltypeshp.shx
  4

  0
STYLE
  5
58
330
3
100
AcDbSymbolTableRecord
100
AcDbTextStyleTableRecord
  2
ACISOTS
 70
     0
 40
1.0
 41
1.0
 50
0.0
 71
     0
 42
2.5
  3
isocp.shx
  4
extfont.shx
  0
STYLE
  5
63
330
3
100
AcDbSymbolTableRecord
100
AcDbTextStyleTableRecord
  2
ACISOGDT
 70
     0
 40
0.0
 41
1.0
 50
0.0
 71
     0
 42
2.5
  3
amgdt.shx
  4

  0
STYLE
  5
A74
330
3
100
AcDbSymbolTableRecord
100
AcDbTextStyleTableRecord
  2
DIM
 70
     0
 40
0.0
 41
1.0
 50
0.0
 71
     0
 42
2.5
  3
monotxt.shx
  4
extfont.shx
  0
STYLE
  5
AC80
330
3
100
AcDbSymbolTableRecord
100
AcDbTextStyleTableRecord
  2

 70
     1
 40
0.0
 41
1.0
 50
0.0
 71
     0
 42
3.2
  3
genltshp.shx
  4

  0
STYLE
  5
B698
330
3
100
AcDbSymbolTableRecord
100
AcDbTextStyleTableRecord
  2
ACANSTS
 70
     0
 40
1.0
 41
1.0
 50
0.0
 71
     0
 42
0.2
  3
romans.shx
  4
extfont.shx
  0
STYLE
  5
B699
330
3
100
AcDbSymbolTableRecord
100
AcDbTextStyleTableRecord
  2
ACANSGDT
 70
     0
 40
0.0
 41
1.0
 50
0.0
 71
     0
 42
0.2
  3
amgdt.shx
  4

  0
ENDTAB
  0
TABLE
  2
VIEW
  5
6
330
0
100
AcDbSymbolTable
 70
     6
  0
VIEW
  5
AE1
330
6
100
AcDbSymbolTableRecord
100
AcDbViewTableRecord
  2
AM_VIEW1
 70
     0
 40
129.7276464542651
 10
1775.10588156276
 20
1793.121228859297
 41
148.5
 11
0.0
 21
0.0
 31
1.0
 12
0.0
 22
0.0
 32
0.0
 42
50.0
 43
-1370.695619172058
 44
-1370.695619172058
 50
0.0
 71
    16
281
     0
 72
     0
  0
VIEW
  5
AE2
330
6
100
AcDbSymbolTableRecord
100
AcDbViewTableRecord
  2
AM_VIEW2
 70
     0
 40
129.7276464542651
 10
1923.60588156276
 20
1793.121228859297
 41
148.5
 11
0.0
 21
0.0
 31
1.0
 12
0.0
 22
0.0
 32
0.0
 42
50.0
 43
-1370.695619172058
 44
-1370.695619172058
 50
0.0
 71
    16
281
     0
 72
     0
  0
VIEW
  5
AE3
330
6
100
AcDbSymbolTableRecord
100
AcDbViewTableRecord
  2
AM_VIEW3
 70
     0
 40
129.7276464542651
 10
1775.10588156276
 20
1712.848875313562
 41
148.5
 11
0.0
 21
0.0
 31
1.0
 12
0.0
 22
0.0
 32
0.0
 42
50.0
 43
-1370.695619172058
 44
-1370.695619172058
 50
0.0
 71
    16
281
     0
 72
     0
  0
VIEW
  5
AE4
330
6
100
AcDbSymbolTableRecord
100
AcDbViewTableRecord
  2
AM_VIEW4
 70
     0
 40
129.7276464542651
 10
1923.60588156276
 20
1712.848875313562
 41
148.5
 11
0.0
 21
0.0
 31
1.0
 12
0.0
 22
0.0
 32
0.0
 42
50.0
 43
-1370.695619172058
 44
-1370.695619172058
 50
0.0
 71
    16
281
     0
 72
     0
  0
VIEW
  5
AE5
330
6
100
AcDbSymbolTableRecord
100
AcDbViewTableRecord
  2
AM_VIEW5
 70
     0
 40
129.7276464542651
 10
1849.35588156276
 20
1752.985052086429
 41
148.5
 11
0.0
 21
0.0
 31
1.0
 12
0.0
 22
0.0
 32
0.0
 42
50.0
 43
-1370.695619172058
 44
-1370.695619172058
 50
0.0
 71
    16
281
     0
 72
     0
  0
VIEW
  5
AE6
330
6
100
AcDbSymbolTableRecord
100
AcDbViewTableRecord
  2
AM_VIEW6
 70
     0
 40
259.4526983556011
 10
1849.35588156276
 20
1752.985052086429
 41
296.99703
 11
0.0
 21
0.0
 31
1.0
 12
0.0
 22
0.0
 32
0.0
 42
50.0
 43
-1370.695619172058
 44
-1370.695619172058
 50
0.0
 71
    16
281
     0
 72
     0
  0
ENDTAB
  0
TABLE
  2
UCS
  5
7
330
0
100
AcDbSymbolTable
 70
     0
  0
ENDTAB
  0
TABLE
  2
APPID
  5
9
330
0
100
AcDbSymbolTable
 70
    55
  0
APPID
  5
12
330
9
100
AcDbSymbolTableRecord
100
AcDbRegAppTableRecord
  2
ACAD
 70
     0
  0
APPID
  5
30
330
9
100
AcDbSymbolTableRecord
100
AcDbRegAppTableRecord
  2
MCAD_NO_VIS
 70
     0
  0
APPID
  5
31
330
9
100
AcDbSymbolTableRecord
100
AcDbRegAppTableRecord
  2
ACAD_TEMP_GRAPHIC
 70
     0
  0
APPID
  5
44
330
9
100
AcDbSymbolTableRecord
100
AcDbRegAppTableRecord
  2
ACATTRIBSERVICES
 70
     0
  0
APPID
  5
7A1
330
9
100
AcDbSymbolTableRecord
100
AcDbRegAppTableRecord
  2
GENIUS_GENDIMSH_14
 70
     0
  0
APPID
  5
A49
330
9
100
AcDbSymbolTableRecord
100
AcDbRegAppTableRecord
  2
GENIUS_GENREC_14
 70
     0
  0
APPID
  5
A4A
330
9
100
AcDbSymbolTableRecord
100
AcDbRegAppTableRecord
  2
GENIUS_GENOBJ-N-REC_13
 70
     0
  0
APPID
  5
A4B
330
9
100
AcDbSymbolTableRecord
100
AcDbRegAppTableRecord
  2
GENIUS_GENODEF_13
 70
     0
  0
APPID
  5
A4C
330
9
100
AcDbSymbolTableRecord
100
AcDbRegAppTableRecord
  2
DCO15
 70
     0
  0
APPID
  5
ADC
330
9
100
AcDbSymbolTableRecord
100
AcDbRegAppTableRecord
  2
GENIUS_GENOLIS_13
 70
     0
  0
APPID
  5
ADD
330
9
100
AcDbSymbolTableRecord
100
AcDbRegAppTableRecord
  2
GENIUS_GENOENT_13
 70
     0
  0
APPID
  5
ADE
330
9
100
AcDbSymbolTableRecord
100
AcDbRegAppTableRecord
  2
GENIUS_GENOBJ-N-TIT_13
 70
     0
  0
APPID
  5
ADF
330
9
100
AcDbSymbolTableRecord
100
AcDbRegAppTableRecord
  2
GENIUS_GENTITLE_13
 70
     0
  0
APPID
  5
AE0
330
9
100
AcDbSymbolTableRecord
100
AcDbRegAppTableRecord
  2
GENIUS_GENOREF_13
 70
     0
  0
APPID
  5
AE7
330
9
100
AcDbSymbolTableRecord
100
AcDbRegAppTableRecord
  2
GENIUS_GENSCREG_15
 70
     0
  0
APPID
  5
AE8
330
9
100
AcDbSymbolTableRecord
100
AcDbRegAppTableRecord
  2
GENIUS_GENOBJ-N-SDF_13
 70
     0
  0
APPID
  5
FAF
330
9
100
AcDbSymbolTableRecord
100
AcDbRegAppTableRecord
  2
GENIUS_GENBLLY_14
 70
     0
  0
APPID
  5
FB0
330
9
100
AcDbSymbolTableRecord
100
AcDbRegAppTableRecord
  2
GENIUS_GENTRA_14
 70
     0
  0
APPID
  5
1285
330
9
100
AcDbSymbolTableRecord
100
AcDbRegAppTableRecord
  2
GENIUS_GENDTOL_13
 70
     0
  0
APPID
  5
142D
330
9
100
AcDbSymbolTableRecord
100
AcDbRegAppTableRecord
  2
GENIUS_GENOBJ-N-CEN_13
 70
     0
  0
APPID
  5
1AB5
330
9
100
AcDbSymbolTableRecord
100
AcDbRegAppTableRecord
  2
GENIUS_GENOBJ-N-CRS_13
 70
     0
  0
APPID
  5
1B36
330
9
100
AcDbSymbolTableRecord
100
AcDbRegAppTableRecord
  2
GENIUS_GENOBJ-N-HTC_13
 70
     0
  0
APPID
  5
1B37
330
9
100
AcDbSymbolTableRecord
100
AcDbRegAppTableRecord
  2
GENIUS_GENHATCH_13
 70
     0
  0
APPID
  5
216D
330
9
100
AcDbSymbolTableRecord
100
AcDbRegAppTableRecord
  2
GENIUS_GENOBJ-N-FIL_13
 70
     0
  0
APPID
  5
2356
330
9
100
AcDbSymbolTableRecord
100
AcDbRegAppTableRecord
  2
GEVID990412420
 70
     0
  0
APPID
  5
2357
330
9
100
AcDbSymbolTableRecord
100
AcDbRegAppTableRecord
  2
GEVDC
 70
     0
  0
APPID
  5
2358
330
9
100
AcDbSymbolTableRecord
100
AcDbRegAppTableRecord
  2
GEVCON
 70
     0
  0
APPID
  5
235B
330
9
100
AcDbSymbolTableRecord
100
AcDbRegAppTableRecord
  2
GEVRADREF
 70
     0
  0
APPID
  5
2360
330
9
100
AcDbSymbolTableRecord
100
AcDbRegAppTableRecord
  2
GENIUS_GENBH_13
 70
     0
  0
APPID
  5
2362
330
9
100
AcDbSymbolTableRecord
100
AcDbRegAppTableRecord
  2
GENIUS_GENOBJ-NBEHI-BHF_13
 70
     0
  0
APPID
  5
2364
330
9
100
AcDbSymbolTableRecord
100
AcDbRegAppTableRecord
  2
GENIUS_GENOBJ-NBEHI-BHB_13
 70
     0
  0
APPID
  5
2379
330
9
100
AcDbSymbolTableRecord
100
AcDbRegAppTableRecord
  2
GENIUS_GENOBJ-F-SCPASSM_13
 70
     0
  0
APPID
  5
3D74
330
9
100
AcDbSymbolTableRecord
100
AcDbRegAppTableRecord
  2
GENIUS_GENDIM_13
 70
     0
  0
APPID
  5
3D76
330
9
100
AcDbSymbolTableRecord
100
AcDbRegAppTableRecord
  2
GENIUS_GE3DTOL_13
 70
     0
  0
APPID
  5
3D9C
330
9
100
AcDbSymbolTableRecord
100
AcDbRegAppTableRecord
  2
AD_DRAW
 70
     0
  0
APPID
  5
3DE8
330
9
100
AcDbSymbolTableRecord
100
AcDbRegAppTableRecord
  2
ASURF_PCURVE_APPNAME
 70
     0
  0
APPID
  5
3DED
330
9
100
AcDbSymbolTableRecord
100
AcDbRegAppTableRecord
  2
AMG_3D2D_5.0
 70
     0
  0
APPID
  5
3E1B
330
9
100
AcDbSymbolTableRecord
100
AcDbRegAppTableRecord
  2
DESIGNERASSEMBLIES
 70
     0
  0
APPID
  5
3E20
330
9
100
AcDbSymbolTableRecord
100
AcDbRegAppTableRecord
  2
ACADM_DIM_EDIT
 70
     0
  0
APPID
  5
3E21
330
9
100
AcDbSymbolTableRecord
100
AcDbRegAppTableRecord
  2
AMDT_DM_ADJ
 70
     0
  0
APPID
  5
4143
330
9
100
AcDbSymbolTableRecord
100
AcDbRegAppTableRecord
  2
GENIUS_GENFIL_13
 70
     0
  0
APPID
  5
4144
330
9
100
AcDbSymbolTableRecord
100
AcDbRegAppTableRecord
  2
GENIUS_GENOBJ-N-CHA_13
 70
     0
  0
APPID
  5
4E17
330
9
100
AcDbSymbolTableRecord
100
AcDbRegAppTableRecord
  2
GEVID1008153417
 70
     0
  0
APPID
  5
4E58
330
9
100
AcDbSymbolTableRecord
100
AcDbRegAppTableRecord
  2
GEVID1008153418
 70
     0
  0
APPID
  5
4E5E
330
9
100
AcDbSymbolTableRecord
100
AcDbRegAppTableRecord
  2
GEVID1008153419
 70
     0
  0
APPID
  5
4E64
330
9
100
AcDbSymbolTableRecord
100
AcDbRegAppTableRecord
  2
GEVID1008153420
 70
     0
  0
APPID
  5
4E75
330
9
100
AcDbSymbolTableRecord
100
AcDbRegAppTableRecord
  2
GEVID1008153421
 70
     0
  0
APPID
  5
4EB7
330
9
100
AcDbSymbolTableRecord
100
AcDbRegAppTableRecord
  2
GENIUS_AMGTXT_16
 70
     0
  0
APPID
  5
7645
330
9
100
AcDbSymbolTableRecord
100
AcDbRegAppTableRecord
  2
GENIUS_GENOBJ-N-DIM_13
 70
     0
  0
APPID
  5
AAD0
330
9
100
AcDbSymbolTableRecord
100
AcDbRegAppTableRecord
  2
ACAD_DSTYLE_DIMARC_LENGTH_SYMBOL
 70
     0
  0
APPID
  5
AAD1
330
9
100
AcDbSymbolTableRecord
100
AcDbRegAppTableRecord
  2
ACAD_DSTYLE_DIMJOGGED_JOGANGLE_SYMBOL
 70
     0
  0
APPID
  5
AAFD
330
9
100
AcDbSymbolTableRecord
100
AcDbRegAppTableRecord
  2
ACAD_PSEXT
 70
     0
  0
APPID
  5
AD61
330
9
100
AcDbSymbolTableRecord
100
AcDbRegAppTableRecord
  2
AcAecLayerStandard
 70
     0
  0
APPID
  5
AEE3
330
9
100
AcDbSymbolTableRecord
100
AcDbRegAppTableRecord
  2
ACAD_EXEMPT_FROM_CAD_STANDARDS
 70
     0
  0
APPID
  5
B1BE
330
9
100
AcDbSymbolTableRecord
100
AcDbRegAppTableRecord
  2
GENIUS_GENCEN_19
 70
     0
  0
ENDTAB
  0
TABLE
  2
DIMSTYLE
  5
A
330
0
100
AcDbSymbolTable
 70
    23
100
AcDbDimStyleTable
 71
     1
340
2515
  0
DIMSTYLE
105
A76
330
A
100
AcDbSymbolTableRecord
100
AcDbDimStyleTableRecord
  2
STANDARD
 70
     0
 41
3.0
 42
1.0
 43
7.0
 44
2.0
 73
     0
 74
     0
 77
     1
140
2.799999999999999
141
0.0
143
0.0394
147
0.7
171
     4
172
     1
173
     1
176
     3
177
     3
178
     2
271
     3
272
     3
273
     8
274
     4
289
     0
340
A74
341
A66
343
A66
344
A66
  0
DIMSTYLE
105
2515
330
A
100
AcDbSymbolTableRecord
100
AcDbDimStyleTableRecord
  2
SYS
 70
     0
  4
"
 41
1.0
 42
1.0
 43
10.0
 44
1.0
 47
0.1
 48
0.1
 73
     0
 74
     0
 77
     1
 78
     8
 79
     2
140
3.5
141
0.0
143
0.0393701
146
0.71
147
1.5
172
     1
176
   256
177
   256
178
     7
271
     2
272
     2
283
     0
284
     8
340
11
371
    -1
372
    -1
1001
ACAD_DSTYLE_DIMJOGGED_JOGANGLE_SYMBOL
1070
   384
1040
0.7853981633974483
1001
ACAD_DSTYLE_DIMARC_LENGTH_SYMBOL
1070
   379
1070
     1
  0
DIMSTYLE
105
2516
330
A
100
AcDbSymbolTableRecord
100
AcDbDimStyleTableRecord
  2
SYS$3
 70
     0
  4
"
 41
2.0
 42
1.0
 43
10.0
 44
1.0
 47
0.1
 48
0.1
 73
     0
 77
     1
 78
     8
 79
     2
140
3.5
141
0.0
143
0.0393701
146
0.71
147
1.5
176
   256
177
   256
178
     2
271
     2
272
     2
283
     0
284
     8
288
     1
340
11
342
A66
371
    -1
372
    -1
1001
ACAD_DSTYLE_DIMJOGGED_JOGANGLE_SYMBOL
1070
   384
1040
0.7853981633974483
1001
ACAD_DSTYLE_DIMARC_LENGTH_SYMBOL
1070
   379
1070
     1
  0
DIMSTYLE
105
2517
330
A
100
AcDbSymbolTableRecord
100
AcDbDimStyleTableRecord
  2
SYS$4
 70
     0
  4
"
 41
2.0
 42
1.0
 43
10.0
 44
1.0
 47
0.1
 48
0.1
 73
     0
 77
     1
 78
     8
 79
     2
140
3.5
141
0.0
143
0.0393701
146
0.71
147
1.5
173
     1
176
   256
177
   256
178
     2
271
     2
272
     2
283
     0
284
     8
288
     1
340
11
344
A66
371
    -1
372
    -1
1001
ACAD_DSTYLE_DIMJOGGED_JOGANGLE_SYMBOL
1070
   384
1040
0.7853981633974483
1001
ACAD_DSTYLE_DIMARC_LENGTH_SYMBOL
1070
   379
1070
     1
  0
DIMSTYLE
105
2518
330
A
100
AcDbSymbolTableRecord
100
AcDbDimStyleTableRecord
  2
SYS$6
 70
     0
  4
"
 41
2.0
 42
1.0
 43
10.0
 44
1.0
 47
0.1
 48
0.1
 73
     0
 74
     0
 78
     8
 79
     2
140
3.5
141
0.0
143
0.0393701
146
0.71
147
1.5
172
     1
176
   256
177
   256
178
     2
271
     2
272
     2
283
     0
284
     8
340
11
341
A66
371
    -1
372
    -1
1001
ACAD_DSTYLE_DIMJOGGED_JOGANGLE_SYMBOL
1070
   384
1040
0.7853981633974483
1001
ACAD_DSTYLE_DIMARC_LENGTH_SYMBOL
1070
   379
1070
     1
  0
DIMSTYLE
105
2519
330
A
100
AcDbSymbolTableRecord
100
AcDbDimStyleTableRecord
  2
SYS$7
 70
     0
  4
"
 41
2.0
 42
1.0
 43
10.0
 44
1.0
 47
0.1
 48
0.1
 73
     0
 74
     0
 77
     1
 78
     8
 79
     2
140
5.0
141
0.0
143
0.0393701
146
0.71
147
1.5
172
     1
176
   256
177
   256
178
     2
271
     2
272
     2
283
     0
284
     8
340
11
341
A66
342
A66
371
    -1
372
    -1
1001
ACAD_DSTYLE_DIMJOGGED_JOGANGLE_SYMBOL
1070
   384
1040
0.7853981633974483
1001
ACAD_DSTYLE_DIMARC_LENGTH_SYMBOL
1070
   379
1070
     1
  0
DIMSTYLE
105
251A
330
A
100
AcDbSymbolTableRecord
100
AcDbDimStyleTableRecord
  2
SYS$SF
 70
     0
  4
"
 41
2.5
 42
1.0
 43
10.0
 44
1.0
 47
0.1
 48
0.1
 73
     0
 74
     0
 75
     1
 76
     1
 77
     1
 78
     8
 79
     2
140
3.5
141
0.0
143
0.0393701
146
0.71
147
1.5
172
     1
176
   256
177
   256
178
     2
271
     2
272
     3
283
     0
284
     8
340
11
341
6C4
342
6C4
371
    -1
372
    -1
1001
ACAD_DSTYLE_DIMJOGGED_JOGANGLE_SYMBOL
1070
   384
1040
0.7853981633974483
1001
ACAD_DSTYLE_DIMARC_LENGTH_SYMBOL
1070
   379
1070
     1
  0
DIMSTYLE
105
251B
330
A
100
AcDbSymbolTableRecord
100
AcDbDimStyleTableRecord
  2
SYS$SH
 70
     0
  4
"
 41
2.5
 42
1.0
 43
10.0
 44
1.0
 47
0.1
 48
0.1
 73
     0
 74
     0
 75
     1
 76
     1
 77
     1
 78
     8
 79
     2
140
3.5
141
0.0
143
0.0393701
144
2.0
146
0.71
147
1.5
172
     1
173
     1
176
   256
177
   256
178
     2
271
     2
272
     3
283
     0
284
     8
340
11
341
6C4
343
72
344
6C4
371
    -1
372
    -1
1001
ACAD_DSTYLE_DIMJOGGED_JOGANGLE_SYMBOL
1070
   384
1040
0.7853981633974483
1001
ACAD_DSTYLE_DIMARC_LENGTH_SYMBOL
1070
   379
1070
     1
  0
DIMSTYLE
105
2A59
330
A
100
AcDbSymbolTableRecord
100
AcDbDimStyleTableRecord
  2
SYS$2
 70
     0
  4
"
 41
1.0
 42
1.0
 43
10.0
 44
1.0
 47
0.1
 48
0.1
 73
     0
 74
     0
 77
     1
 78
     8
 79
     2
140
3.5
141
0.0
143
0.0393701
146
0.71
147
1.5
172
     1
176
   256
177
   256
178
     2
271
     2
272
     2
283
     0
284
     8
340
11
342
6C4
371
    -1
372
    -1
1001
ACAD_DSTYLE_DIMJOGGED_JOGANGLE_SYMBOL
1070
   384
1040
0.7853981633974483
1001
ACAD_DSTYLE_DIMARC_LENGTH_SYMBOL
1070
   379
1070
     1
  0
DIMSTYLE
105
2AAB
330
A
100
AcDbSymbolTableRecord
100
AcDbDimStyleTableRecord
  2
SYS$0
 70
     0
  4
"
 41
1.0
 42
1.0
 43
10.0
 44
1.0
 47
0.1
 48
0.1
 73
     0
 74
     0
 77
     1
 78
     8
 79
     2
140
3.200000000000001
141
0.0
143
0.0393701
146
0.71
147
1.5
172
     1
176
   256
177
   256
178
     2
271
     2
272
     2
283
     0
284
     8
340
11
341
A66
342
6C4
371
    -1
372
    -1
1001
ACAD_DSTYLE_DIMJOGGED_JOGANGLE_SYMBOL
1070
   384
1040
0.7853981633974483
1001
ACAD_DSTYLE_DIMARC_LENGTH_SYMBOL
1070
   379
1070
     1
  0
DIMSTYLE
105
AF99
102
{ACAD_REACTORS
330
B74B
330
B74C
330
B74D
330
B74E
330
B74F
330
B750
330
B751
330
B752
330
B753
330
B754
330
B755
330
B756
330
B757
330
B758
330
B759
330
B75A
330
B75B
330
B75C
330
B75D
102
}
330
A
100
AcDbSymbolTableRecord
100
AcDbDimStyleTableRecord
  2
AM_ISO
 70
     0
  4
"
 41
2.5
 42
1.0
 43
10.0
 44
1.0
 47
0.1
 48
0.1
 73
     0
 74
     0
 77
     1
 78
     8
 79
     2
140
3.5
141
0.0
143
0.0393701
146
0.71
147
1.5
172
     1
176
   256
177
   256
178
     2
271
     2
272
     3
274
     4
283
     0
284
     8
340
11
371
    -1
372
    -1
  0
DIMSTYLE
105
AF9A
330
A
100
AcDbSymbolTableRecord
100
AcDbDimStyleTableRecord
  2
AM_ISO$3
 70
     0
  4
"
 41
2.5
 42
1.0
 43
10.0
 44
1.0
 47
0.1
 48
0.1
 73
     0
 77
     1
 78
     8
 79
     2
140
3.5
141
0.0
143
0.0393701
146
0.71
147
1.5
176
   256
177
   256
178
     2
271
     2
272
     3
274
     4
283
     0
284
     8
288
     1
289
     0
340
11
371
    -1
372
    -1
  0
DIMSTYLE
105
AF9B
330
A
100
AcDbSymbolTableRecord
100
AcDbDimStyleTableRecord
  2
AM_ISO$4
 70
     0
  4
"
 41
2.5
 42
1.0
 43
10.0
 44
1.0
 47
0.1
 48
0.1
 73
     0
 77
     1
 78
     8
 79
     2
140
3.5
141
0.0
143
0.0393701
146
0.71
147
1.5
176
   256
177
   256
178
     2
271
     2
272
     3
274
     4
283
     0
284
     8
288
     1
289
     0
340
11
371
    -1
372
    -1
  0
DIMSTYLE
105
AF9C
330
A
100
AcDbSymbolTableRecord
100
AcDbDimStyleTableRecord
  2
AM_ISO$6
 70
     0
  4
"
 41
2.5
 42
1.0
 43
10.0
 44
1.0
 47
0.1
 48
0.1
 73
     0
 74
     0
 78
     8
 79
     2
140
3.5
141
0.0
143
0.0393701
146
0.71
147
1.5
172
     1
176
   256
177
   256
178
     2
271
     2
272
     3
274
     4
283
     0
284
     8
340
11
371
    -1
372
    -1
  0
DIMSTYLE
105
AF9D
330
A
100
AcDbSymbolTableRecord
100
AcDbDimStyleTableRecord
  2
AM_ISO$7
 70
     0
  4
"
 41
2.5
 42
1.0
 43
10.0
 44
1.0
 47
0.1
 48
0.1
 73
     0
 74
     0
 77
     1
 78
     8
 79
     2
140
5.0
141
0.0
143
0.0393701
146
0.71
147
1.5
172
     1
176
   256
177
   256
178
     2
271
     2
272
     3
274
     4
283
     0
284
     8
340
11
371
    -1
372
    -1
  0
DIMSTYLE
105
AF9E
330
A
100
AcDbSymbolTableRecord
100
AcDbDimStyleTableRecord
  2
AM_ISO$SF
 70
     0
  4
"
 41
2.5
 42
1.0
 43
10.0
 44
1.0
 47
0.1
 48
0.1
 73
     0
 74
     0
 75
     1
 76
     1
 77
     1
 78
     8
 79
     2
140
3.5
141
0.0
143
0.0393701
146
0.71
147
1.5
172
     1
176
   256
177
   256
178
     2
271
     2
272
     3
274
     4
283
     0
284
     8
340
11
371
    -1
372
    -1
  0
DIMSTYLE
105
AF9F
330
A
100
AcDbSymbolTableRecord
100
AcDbDimStyleTableRecord
  2
AM_ISO$SH
 70
     0
  4
"
 41
2.5
 42
1.0
 43
10.0
 44
1.0
 47
0.1
 48
0.1
 73
     0
 74
     0
 75
     1
 76
     1
 77
     1
 78
     8
 79
     2
140
3.5
141
0.0
143
0.0393701
144
2.0
146
0.71
147
1.5
172
     1
173
     1
176
   256
177
   256
178
     2
271
     2
272
     3
274
     4
283
     0
284
     8
340
11
343
72
371
    -1
372
    -1
  0
DIMSTYLE
105
B69A
330
A
100
AcDbSymbolTableRecord
100
AcDbDimStyleTableRecord
  2
AM_ANSI
 70
     0
  4
mm
 41
0.1
 42
0.05
 43
0.5
 44
0.1
 47
0.1
 48
0.1
 78
     7
140
0.12
141
0.0
146
0.71
147
0.06
176
   256
177
   256
178
     2
271
     2
272
     2
279
     2
284
     8
285
     8
286
     8
340
11
  0
DIMSTYLE
105
B69B
330
A
100
AcDbSymbolTableRecord
100
AcDbDimStyleTableRecord
  2
AM_ANSI$3
 70
     0
  4
mm
 41
0.1
 42
0.05
 43
0.5
 44
0.1
 47
0.1
 48
0.1
 78
     7
140
0.12
141
0.0
146
0.71
147
0.06
176
   256
177
   256
178
     2
271
     2
272
     2
279
     2
284
     8
285
     8
286
     8
340
11
  0
DIMSTYLE
105
B69C
330
A
100
AcDbSymbolTableRecord
100
AcDbDimStyleTableRecord
  2
AM_ANSI$4
 70
     0
  4
mm
 41
0.1
 42
0.05
 43
0.5
 44
0.1
 47
0.1
 48
0.1
 78
     7
140
0.12
141
0.0
146
0.71
147
0.06
176
   256
177
   256
178
     2
271
     2
272
     2
279
     2
284
     8
285
     8
286
     8
340
11
  0
DIMSTYLE
105
B69D
330
A
100
AcDbSymbolTableRecord
100
AcDbDimStyleTableRecord
  2
AM_ANSI$7
 70
     0
  4
mm
 41
0.1
 42
0.05
 43
0.5
 44
0.1
 47
0.1
 48
0.1
 78
     7
140
0.24
141
0.0
146
0.71
147
0.06
176
   256
177
   256
178
     2
271
     2
272
     2
279
     2
284
     8
285
     8
286
     8
340
11
  0
DIMSTYLE
105
B69E
330
A
100
AcDbSymbolTableRecord
100
AcDbDimStyleTableRecord
  2
AM_ANSI$SF
 70
     0
  4
mm
 41
0.1
 42
0.05
 43
0.5
 44
0.1
 47
0.1
 48
0.1
 75
     1
 76
     1
 78
     7
140
0.12
141
0.0
146
0.71
147
0.06
176
   256
177
   256
178
     2
271
     2
272
     2
279
     2
284
     8
285
     8
286
     8
340
11
  0
DIMSTYLE
105
B69F
330
A
100
AcDbSymbolTableRecord
100
AcDbDimStyleTableRecord
  2
AM_ANSI$SH
 70
     0
  4
mm
 41
0.1
 42
0.05
 43
0.5
 44
0.1
 47
0.1
 48
0.1
 75
     1
 76
     1
 78
     7
140
0.12
141
0.0
146
0.71
147
0.06
173
     1
176
   256
177
   256
178
     2
271
     2
272
     2
279
     2
284
     8
285
     8
286
     8
340
11
  0
ENDTAB
  0
TABLE
  2
BLOCK_RECORD
  5
1
330
0
100
AcDbSymbolTable
 70
    69
  0
BLOCK_RECORD
  5
1F
102
{ACAD_XDICTIONARY
360
8A
102
}
330
1
100
AcDbSymbolTableRecord
100
AcDbBlockTableRecord
  2
*Model_Space
340
22
  0
BLOCK_RECORD
  5
1B
330
1
100
AcDbSymbolTableRecord
100
AcDbBlockTableRecord
  2
*Paper_Space
340
1E
  0
BLOCK_RECORD
  5
23
330
1
100
AcDbSymbolTableRecord
100
AcDbBlockTableRecord
  2
*Paper_Space0
340
26
  0
BLOCK_RECORD
  5
72
330
1
100
AcDbSymbolTableRecord
100
AcDbBlockTableRecord
  2
GENAXEH
340
0
  0
BLOCK_RECORD
  5
6C4
330
1
100
AcDbSymbolTableRecord
100
AcDbBlockTableRecord
  2
_Dot
340
0
102
{BLKREFS
331
B547
331
B548
331
B552
331
B553
331
B55E
331
B55F
331
B56A
331
B56B
331
B576
331
B577
331
B582
331
B583
331
B58D
331
B58E
331
B599
331
B59A
331
B5A4
331
B5A5
331
B5AF
331
B5B0
331
B5BB
331
B5BC
331
B5C8
331
B5C9
331
B5D3
331
B5D4
331
B5E2
331
B5E3
331
B5EC
331
B5ED
331
B5F7
331
B5F8
331
B605
331
B606
331
B610
331
B611
331
B61C
331
B61D
331
B8BE
331
B8BF
331
B8C6
331
B8C7
331
B8CF
331
B8D0
331
B8D8
331
B8D9
331
B8E1
331
B8E2
331
B8EA
331
B8EB
331
B8F2
331
B8F3
331
B8FB
331
B8FC
331
B903
331
B904
331
B90B
331
B90C
331
B914
331
B915
331
B91E
331
B91F
331
B926
331
B927
331
B932
331
B933
331
B939
331
B93A
331
B941
331
B942
331
B94C
331
B94D
331
B954
331
B955
331
B95D
331
B95E
102
}
  0
BLOCK_RECORD
  5
A66
330
1
100
AcDbSymbolTableRecord
100
AcDbBlockTableRecord
  2
_OPEN30
340
0
102
{BLKREFS
331
B67B
331
B688
102
}
  0
BLOCK_RECORD
  5
B542
330
1
100
AcDbSymbolTableRecord
100
AcDbBlockTableRecord
  2
*D5
340
0
  0
BLOCK_RECORD
  5
B54E
330
1
100
AcDbSymbolTableRecord
100
AcDbBlockTableRecord
  2
*D6
340
0
  0
BLOCK_RECORD
  5
B559
330
1
100
AcDbSymbolTableRecord
100
AcDbBlockTableRecord
  2
*D7
340
0
  0
BLOCK_RECORD
  5
B565
330
1
100
AcDbSymbolTableRecord
100
AcDbBlockTableRecord
  2
*D8
340
0
  0
BLOCK_RECORD
  5
B571
330
1
100
AcDbSymbolTableRecord
100
AcDbBlockTableRecord
  2
*D9
340
0
  0
BLOCK_RECORD
  5
B57D
330
1
100
AcDbSymbolTableRecord
100
AcDbBlockTableRecord
  2
*D10
340
0
  0
BLOCK_RECORD
  5
B589
330
1
100
AcDbSymbolTableRecord
100
AcDbBlockTableRecord
  2
*D11
340
0
  0
BLOCK_RECORD
  5
B594
330
1
100
AcDbSymbolTableRecord
100
AcDbBlockTableRecord
  2
*D12
340
0
  0
BLOCK_RECORD
  5
B5A0
330
1
100
AcDbSymbolTableRecord
100
AcDbBlockTableRecord
  2
*D13
340
0
  0
BLOCK_RECORD
  5
B5AB
330
1
100
AcDbSymbolTableRecord
100
AcDbBlockTableRecord
  2
*D14
340
0
  0
BLOCK_RECORD
  5
B5B6
330
1
100
AcDbSymbolTableRecord
100
AcDbBlockTableRecord
  2
*D15
340
0
  0
BLOCK_RECORD
  5
B5C2
330
1
100
AcDbSymbolTableRecord
100
AcDbBlockTableRecord
  2
*D16
340
0
  0
BLOCK_RECORD
  5
B5CF
330
1
100
AcDbSymbolTableRecord
100
AcDbBlockTableRecord
  2
*D17
340
0
  0
BLOCK_RECORD
  5
B5DA
330
1
100
AcDbSymbolTableRecord
100
AcDbBlockTableRecord
  2
*D18
340
0
  0
BLOCK_RECORD
  5
B5E8
330
1
100
AcDbSymbolTableRecord
100
AcDbBlockTableRecord
  2
*D19
340
0
  0
BLOCK_RECORD
  5
B5F3
330
1
100
AcDbSymbolTableRecord
100
AcDbBlockTableRecord
  2
*D20
340
0
  0
BLOCK_RECORD
  5
B5FE
330
1
100
AcDbSymbolTableRecord
100
AcDbBlockTableRecord
  2
*D21
340
0
  0
BLOCK_RECORD
  5
B60B
330
1
100
AcDbSymbolTableRecord
100
AcDbBlockTableRecord
  2
*D22
340
0
  0
BLOCK_RECORD
  5
B617
330
1
100
AcDbSymbolTableRecord
100
AcDbBlockTableRecord
  2
*D23
340
0
  0
BLOCK_RECORD
  5
B623
102
{ACAD_XDICTIONARY
360
B624
102
}
330
1
100
AcDbSymbolTableRecord
100
AcDbBlockTableRecord
  2
*U24
340
0
102
{BLKREFS
331
B717
331
B7C1
102
}
  0
BLOCK_RECORD
  5
B629
330
1
100
AcDbSymbolTableRecord
100
AcDbBlockTableRecord
  2
*U25
340
0
102
{BLKREFS
331
B718
331
B7C2
102
}
  0
BLOCK_RECORD
  5
B62D
330
1
100
AcDbSymbolTableRecord
100
AcDbBlockTableRecord
  2
*U26
340
0
102
{BLKREFS
331
B719
331
B7C3
102
}
  0
BLOCK_RECORD
  5
B631
330
1
100
AcDbSymbolTableRecord
100
AcDbBlockTableRecord
  2
*U27
340
0
102
{BLKREFS
331
B71A
331
B7C4
102
}
  0
BLOCK_RECORD
  5
B635
330
1
100
AcDbSymbolTableRecord
100
AcDbBlockTableRecord
  2
*U28
340
0
102
{BLKREFS
331
B71B
331
B7C5
102
}
  0
BLOCK_RECORD
  5
B639
330
1
100
AcDbSymbolTableRecord
100
AcDbBlockTableRecord
  2
*U29
340
0
102
{BLKREFS
331
B71C
331
B7C6
102
}
  0
BLOCK_RECORD
  5
B63D
330
1
100
AcDbSymbolTableRecord
100
AcDbBlockTableRecord
  2
*U30
340
0
102
{BLKREFS
331
B71D
331
B7C7
102
}
  0
BLOCK_RECORD
  5
B641
330
1
100
AcDbSymbolTableRecord
100
AcDbBlockTableRecord
  2
*U31
340
0
102
{BLKREFS
331
B71E
331
B7C8
102
}
  0
BLOCK_RECORD
  5
B645
330
1
100
AcDbSymbolTableRecord
100
AcDbBlockTableRecord
  2
*U32
340
0
102
{BLKREFS
331
B71F
331
B7C9
102
}
  0
BLOCK_RECORD
  5
B649
330
1
100
AcDbSymbolTableRecord
100
AcDbBlockTableRecord
  2
*U33
340
0
102
{BLKREFS
331
B720
331
B7CA
102
}
  0
BLOCK_RECORD
  5
B64D
330
1
100
AcDbSymbolTableRecord
100
AcDbBlockTableRecord
  2
*U34
340
0
102
{BLKREFS
331
B721
331
B7CB
102
}
  0
BLOCK_RECORD
  5
B651
330
1
100
AcDbSymbolTableRecord
100
AcDbBlockTableRecord
  2
*U35
340
0
102
{BLKREFS
331
B722
331
B7CC
102
}
  0
BLOCK_RECORD
  5
B655
330
1
100
AcDbSymbolTableRecord
100
AcDbBlockTableRecord
  2
*U36
340
0
102
{BLKREFS
331
B723
331
B7CD
102
}
  0
BLOCK_RECORD
  5
B659
330
1
100
AcDbSymbolTableRecord
100
AcDbBlockTableRecord
  2
*U37
340
0
102
{BLKREFS
331
B724
331
B7CE
102
}
  0
BLOCK_RECORD
  5
B65D
330
1
100
AcDbSymbolTableRecord
100
AcDbBlockTableRecord
  2
*U38
340
0
102
{BLKREFS
331
B725
331
B7CF
102
}
  0
BLOCK_RECORD
  5
B661
330
1
100
AcDbSymbolTableRecord
100
AcDbBlockTableRecord
  2
*U39
340
0
102
{BLKREFS
331
B726
331
B7D0
102
}
  0
BLOCK_RECORD
  5
B665
330
1
100
AcDbSymbolTableRecord
100
AcDbBlockTableRecord
  2
*U40
340
0
102
{BLKREFS
331
B727
331
B7D1
102
}
  0
BLOCK_RECORD
  5
B669
330
1
100
AcDbSymbolTableRecord
100
AcDbBlockTableRecord
  2
*U41
340
0
102
{BLKREFS
331
B728
331
B7D2
102
}
  0
BLOCK_RECORD
  5
B66D
330
1
100
AcDbSymbolTableRecord
100
AcDbBlockTableRecord
  2
*U42
340
0
102
{BLKREFS
331
B729
331
B7D3
102
}
  0
BLOCK_RECORD
  5
B671
330
1
100
AcDbSymbolTableRecord
100
AcDbBlockTableRecord
  2
*U43
340
0
102
{BLKREFS
331
B72A
331
B7D4
102
}
  0
BLOCK_RECORD
  5
B675
330
1
100
AcDbSymbolTableRecord
100
AcDbBlockTableRecord
  2
*U44
340
0
102
{BLKREFS
331
B72B
331
B7D5
102
}
  0
BLOCK_RECORD
  5
B679
330
1
100
AcDbSymbolTableRecord
100
AcDbBlockTableRecord
  2
*U45
340
0
102
{BLKREFS
331
B72C
331
B7D6
102
}
  0
BLOCK_RECORD
  5
B682
330
1
100
AcDbSymbolTableRecord
100
AcDbBlockTableRecord
  2
*U46
340
0
102
{BLKREFS
331
B72D
331
B7D7
102
}
  0
BLOCK_RECORD
  5
B686
330
1
100
AcDbSymbolTableRecord
100
AcDbBlockTableRecord
  2
*U47
340
0
102
{BLKREFS
331
B72E
331
B7D8
102
}
  0
BLOCK_RECORD
  5
B68F
330
1
100
AcDbSymbolTableRecord
100
AcDbBlockTableRecord
  2
*U48
340
0
102
{BLKREFS
331
B72F
331
B7D9
102
}
  0
BLOCK_RECORD
  5
B7DA
330
1
100
AcDbSymbolTableRecord
100
AcDbBlockTableRecord
  2
*D50
340
0
  0
BLOCK_RECORD
  5
B7E6
330
1
100
AcDbSymbolTableRecord
100
AcDbBlockTableRecord
  2
*D51
340
0
  0
BLOCK_RECORD
  5
B7F1
330
1
100
AcDbSymbolTableRecord
100
AcDbBlockTableRecord
  2
*D52
340
0
  0
BLOCK_RECORD
  5
B7FD
330
1
100
AcDbSymbolTableRecord
100
AcDbBlockTableRecord
  2
*D53
340
0
  0
BLOCK_RECORD
  5
B809
330
1
100
AcDbSymbolTableRecord
100
AcDbBlockTableRecord
  2
*D54
340
0
  0
BLOCK_RECORD
  5
B815
330
1
100
AcDbSymbolTableRecord
100
AcDbBlockTableRecord
  2
*D55
340
0
  0
BLOCK_RECORD
  5
B821
330
1
100
AcDbSymbolTableRecord
100
AcDbBlockTableRecord
  2
*D56
340
0
  0
BLOCK_RECORD
  5
B82C
330
1
100
AcDbSymbolTableRecord
100
AcDbBlockTableRecord
  2
*D57
340
0
  0
BLOCK_RECORD
  5
B838
330
1
100
AcDbSymbolTableRecord
100
AcDbBlockTableRecord
  2
*D58
340
0
  0
BLOCK_RECORD
  5
B843
330
1
100
AcDbSymbolTableRecord
100
AcDbBlockTableRecord
  2
*D59
340
0
  0
BLOCK_RECORD
  5
B84E
330
1
100
AcDbSymbolTableRecord
100
AcDbBlockTableRecord
  2
*D60
340
0
  0
BLOCK_RECORD
  5
B85A
330
1
100
AcDbSymbolTableRecord
100
AcDbBlockTableRecord
  2
*D61
340
0
  0
BLOCK_RECORD
  5
B867
330
1
100
AcDbSymbolTableRecord
100
AcDbBlockTableRecord
  2
*D62
340
0
  0
BLOCK_RECORD
  5
B872
330
1
100
AcDbSymbolTableRecord
100
AcDbBlockTableRecord
  2
*D63
340
0
  0
BLOCK_RECORD
  5
B880
330
1
100
AcDbSymbolTableRecord
100
AcDbBlockTableRecord
  2
*D64
340
0
  0
BLOCK_RECORD
  5
B88B
330
1
100
AcDbSymbolTableRecord
100
AcDbBlockTableRecord
  2
*D65
340
0
  0
BLOCK_RECORD
  5
B896
330
1
100
AcDbSymbolTableRecord
100
AcDbBlockTableRecord
  2
*D66
340
0
  0
BLOCK_RECORD
  5
B8A3
330
1
100
AcDbSymbolTableRecord
100
AcDbBlockTableRecord
  2
*D67
340
0
  0
BLOCK_RECORD
  5
B8AF
330
1
100
AcDbSymbolTableRecord
100
AcDbBlockTableRecord
  2
*D68
340
0
  0
ENDTAB
  0
ENDSEC
  0
SECTION
  2
BLOCKS
  0
BLOCK
  5
20
330
1F
100
AcDbEntity
  8
0
100
AcDbBlockBegin
  2
*Model_Space
 70
     0
 10
0.0
 20
0.0
 30
0.0
  3
*Model_Space
  1

  0
ENDBLK
  5
21
330
1F
100
AcDbEntity
  8
0
100
AcDbBlockEnd
  0
BLOCK
  5
1C
330
1B
100
AcDbEntity
 67
     1
  8
0
100
AcDbBlockBegin
  2
*Paper_Space
 70
     0
 10
0.0
 20
0.0
 30
0.0
  3
*Paper_Space
  1

  0
ENDBLK
  5
1D
330
1B
100
AcDbEntity
 67
     1
  8
0
100
AcDbBlockEnd
  0
BLOCK
  5
24
330
23
100
AcDbEntity
 67
     1
  8
0
100
AcDbBlockBegin
  2
*Paper_Space0
 70
     0
 10
0.0
 20
0.0
 30
0.0
  3
*Paper_Space0
  1

  0
ENDBLK
  5
25
330
23
100
AcDbEntity
 67
     1
  8
0
100
AcDbBlockEnd
  0
BLOCK
  5
74
330
72
100
AcDbEntity
  8
0
100
AcDbBlockBegin
  2
GENAXEH
 70
     0
 10
0.0
 20
0.0
 30
0.0
  3
GENAXEH
  1

  0
LINE
  5
73
330
72
100
AcDbEntity
  8
0
100
AcDbLine
 10
-1.0
 20
0.0
 30
0.0
 11
1.0
 21
0.0
 31
0.0
  0
ENDBLK
  5
75
330
72
100
AcDbEntity
  8
0
100
AcDbBlockEnd
  0
BLOCK
  5
6C7
330
6C4
100
AcDbEntity
  8
0
100
AcDbBlockBegin
  2
_Dot
 70
     0
 10
0.0
 20
0.0
 30
0.0
  3
_Dot
  1

  0
LWPOLYLINE
  5
6C5
330
6C4
100
AcDbEntity
  8
0
  6
ByBlock
 62
     0
100
AcDbPolyline
 90
        2
 70
     1
 43
0.5
 10
-0.25
 20
0.0
 42
1.0
 10
0.25
 20
0.0
 42
1.0
  0
LINE
  5
6C6
330
6C4
100
AcDbEntity
  8
0
  6
ByBlock
 62
     0
370
    -2
100
AcDbLine
 10
-0.5
 20
0.0
 30
0.0
 11
-1.0
 21
0.0
 31
0.0
  0
ENDBLK
  5
6C8
330
6C4
100
AcDbEntity
  8
0
100
AcDbBlockEnd
  0
BLOCK
  5
A6A
330
A66
100
AcDbEntity
  8
0
100
AcDbBlockBegin
  2
_OPEN30
 70
     0
 10
0.0
 20
0.0
 30
0.0
  3
_OPEN30
  1

  0
LINE
  5
A67
330
A66
100
AcDbEntity
  8
0
  6
ByBlock
 62
     0
100
AcDbLine
 10
-1.0
 20
0.26794919
 30
0.0
 11
0.0
 21
0.0
 31
0.0
  0
LINE
  5
A68
330
A66
100
AcDbEntity
  8
0
  6
ByBlock
 62
     0
100
AcDbLine
 10
0.0
 20
0.0
 30
0.0
 11
-1.0
 21
-0.26794919
 31
0.0
  0
LINE
  5
A69
330
A66
100
AcDbEntity
  8
0
  6
ByBlock
 62
     0
100
AcDbLine
 10
0.0
 20
0.0
 30
0.0
 11
-1.0
 21
0.0
 31
0.0
  0
ENDBLK
  5
A6B
330
A66
100
AcDbEntity
  8
0
100
AcDbBlockEnd
  0
BLOCK
  5
B543
330
B542
100
AcDbEntity
  8
0
100
AcDbBlockBegin
  2
*D5
 70
     1
 10
0.0
 20
0.0
 30
0.0
  3
*D5
  1

  0
LINE
  5
B544
330
B542
100
AcDbEntity
  8
AM_5
100
AcDbLine
 10
-19.375974655151
 20
92.60012054443299
 30
0.0
 11
-19.375974655151
 21
102.10012054443
 31
0.0
  0
LINE
  5
B545
330
B542
100
AcDbEntity
  8
AM_5
100
AcDbLine
 10
34.624011993408
 20
96.65012359619101
 30
0.0
 11
34.624011993408
 21
102.10012054443
 31
0.0
  0
LINE
  5
B546
330
B542
100
AcDbEntity
  8
AM_5
100
AcDbLine
 10
-18.375974655151
 20
101.10012054443
 30
0.0
 11
33.624011993408
 21
101.10012054443
 31
0.0
  0
INSERT
  5
B547
330
B542
100
AcDbEntity
  8
AM_5
100
AcDbBlockReference
  2
_Dot
 10
-19.375974655151
 20
101.10012054443
 30
0.0
 50
180.0
  0
INSERT
  5
B548
330
B542
100
AcDbEntity
  8
AM_5
100
AcDbBlockReference
  2
_Dot
 10
34.624011993408
 20
101.10012054443
 30
0.0
  0
TEXT
  5
B549
330
B542
100
AcDbEntity
  8
AM_5
 62
     2
100
AcDbText
 10
7.624019999999998
 20
100.04
 30
0.0
 40
3.2
  1
54
100
AcDbText
  0
POINT
  5
B54A
330
B542
100
AcDbEntity
  8
Defpoints
 62
     0
100
AcDbPoint
 10
-19.375974655151
 20
91.100120544433
 30
0.0
  0
POINT
  5
B54B
330
B542
100
AcDbEntity
  8
Defpoints
 62
     0
100
AcDbPoint
 10
34.624011993408
 20
95.15012359619101
 30
0.0
  0
POINT
  5
B54C
330
B542
100
AcDbEntity
  8
Defpoints
 62
     0
100
AcDbPoint
 10
34.624011993408
 20
101.10012054443
 30
0.0
  0
ENDBLK
  5
B54D
330
B542
100
AcDbEntity
  8
0
100
AcDbBlockEnd
  0
BLOCK
  5
B54F
330
B54E
100
AcDbEntity
  8
0
100
AcDbBlockBegin
  2
*D6
 70
     1
 10
0.0
 20
0.0
 30
0.0
  3
*D6
  1

  0
LINE
  5
B550
330
B54E
100
AcDbEntity
  8
AM_5
100
AcDbLine
 10
88.62400817871
 20
15.10011768341
 30
0.0
 11
88.62400817871
 21
102.10012054443
 31
0.0
  0
LINE
  5
B551
330
B54E
100
AcDbEntity
  8
AM_5
100
AcDbLine
 10
35.624011993408
 20
101.10012054443
 30
0.0
 11
87.62400817871
 21
101.10012054443
 31
0.0
  0
INSERT
  5
B552
330
B54E
100
AcDbEntity
  8
AM_5
100
AcDbBlockReference
  2
_Dot
 10
34.624011993408
 20
101.10012054443
 30
0.0
 50
180.0
  0
INSERT
  5
B553
330
B54E
100
AcDbEntity
  8
AM_5
100
AcDbBlockReference
  2
_Dot
 10
88.62400817871
 20
101.10012054443
 30
0.0
  0
TEXT
  5
B554
330
B54E
100
AcDbEntity
  8
AM_5
 62
     2
100
AcDbText
 10
61.62399999999999
 20
100.04
 30
0.0
 40
3.2
  1
54
100
AcDbText
  0
POINT
  5
B555
330
B54E
100
AcDbEntity
  8
Defpoints
 62
     0
100
AcDbPoint
 10
34.624011993408
 20
95.15012359619101
 30
0.0
  0
POINT
  5
B556
330
B54E
100
AcDbEntity
  8
Defpoints
 62
     0
100
AcDbPoint
 10
88.62400817871
 20
13.60011768341
 30
0.0
  0
POINT
  5
B557
330
B54E
100
AcDbEntity
  8
Defpoints
 62
     0
100
AcDbPoint
 10
88.62400817871
 20
101.10012054443
 30
0.0
  0
ENDBLK
  5
B558
330
B54E
100
AcDbEntity
  8
0
100
AcDbBlockEnd
  0
BLOCK
  5
B55A
330
B559
100
AcDbEntity
  8
0
100
AcDbBlockBegin
  2
*D7
 70
     1
 10
0.0
 20
0.0
 30
0.0
  3
*D7
  1

  0
LINE
  5
B55B
330
B559
100
AcDbEntity
  8
AM_5
100
AcDbLine
 10
-19.375974655151
 20
92.60012054443299
 30
0.0
 11
-19.375974655151
 21
112.10012054443
 31
0.0
  0
LINE
  5
B55C
330
B559
100
AcDbEntity
  8
AM_5
100
AcDbLine
 10
88.62400817871
 20
15.10011768341
 30
0.0
 11
88.62400817871
 21
112.10012054443
 31
0.0
  0
LINE
  5
B55D
330
B559
100
AcDbEntity
  8
AM_5
100
AcDbLine
 10
-18.375974655151
 20
111.10012054443
 30
0.0
 11
87.62400817871
 21
111.10012054443
 31
0.0
  0
INSERT
  5
B55E
330
B559
100
AcDbEntity
  8
AM_5
100
AcDbBlockReference
  2
_Dot
 10
-19.375974655151
 20
111.10012054443
 30
0.0
 50
180.0
  0
INSERT
  5
B55F
330
B559
100
AcDbEntity
  8
AM_5
100
AcDbBlockReference
  2
_Dot
 10
88.62400817871
 20
111.10012054443
 30
0.0
  0
TEXT
  5
B560
330
B559
100
AcDbEntity
  8
AM_5
 62
     2
100
AcDbText
 10
34.62400000000001
 20
110.04
 30
0.0
 40
3.2
  1
108
100
AcDbText
  0
POINT
  5
B561
330
B559
100
AcDbEntity
  8
Defpoints
 62
     0
100
AcDbPoint
 10
-19.375974655151
 20
91.100120544433
 30
0.0
  0
POINT
  5
B562
330
B559
100
AcDbEntity
  8
Defpoints
 62
     0
100
AcDbPoint
 10
88.62400817871
 20
13.60011768341
 30
0.0
  0
POINT
  5
B563
330
B559
100
AcDbEntity
  8
Defpoints
 62
     0
100
AcDbPoint
 10
88.62400817871
 20
111.10012054443
 30
0.0
  0
ENDBLK
  5
B564
330
B559
100
AcDbEntity
  8
0
100
AcDbBlockEnd
  0
BLOCK
  5
B566
330
B565
100
AcDbEntity
  8
0
100
AcDbBlockBegin
  2
*D8
 70
     1
 10
0.0
 20
0.0
 30
0.0
  3
*D8
  1

  0
LINE
  5
B567
330
B565
100
AcDbEntity
  8
AM_5
100
AcDbLine
 10
34.624011993408
 20
132.77108764648
 30
0.0
 11
34.624011993408
 21
120.17108917236
 31
0.0
  0
LINE
  5
B568
330
B565
100
AcDbEntity
  8
AM_5
100
AcDbLine
 10
48.624019622802
 20
134.67108154296
 30
0.0
 11
48.624019622802
 21
120.17108917236
 31
0.0
  0
LINE
  5
B569
330
B565
100
AcDbEntity
  8
AM_5
100
AcDbLine
 10
35.624011993408
 20
121.17108917236
 30
0.0
 11
47.624019622802
 21
121.17108917236
 31
0.0
  0
INSERT
  5
B56A
330
B565
100
AcDbEntity
  8
AM_5
100
AcDbBlockReference
  2
_Dot
 10
34.624011993408
 20
121.17108917236
 30
0.0
 50
180.0
  0
INSERT
  5
B56B
330
B565
100
AcDbEntity
  8
AM_5
100
AcDbBlockReference
  2
_Dot
 10
48.624019622802
 20
121.17108917236
 30
0.0
  0
TEXT
  5
B56C
330
B565
100
AcDbEntity
  8
AM_5
 62
     2
100
AcDbText
 10
41.62399999999999
 20
120.111
 30
0.0
 40
3.2
  1
14
100
AcDbText
  0
POINT
  5
B56D
330
B565
100
AcDbEntity
  8
Defpoints
 62
     0
100
AcDbPoint
 10
34.624011993408
 20
134.27108764648
 30
0.0
  0
POINT
  5
B56E
330
B565
100
AcDbEntity
  8
Defpoints
 62
     0
100
AcDbPoint
 10
48.624019622802
 20
136.17108154296
 30
0.0
  0
POINT
  5
B56F
330
B565
100
AcDbEntity
  8
Defpoints
 62
     0
100
AcDbPoint
 10
48.624019622802
 20
121.17108917236
 30
0.0
  0
ENDBLK
  5
B570
330
B565
100
AcDbEntity
  8
0
100
AcDbBlockEnd
  0
BLOCK
  5
B572
330
B571
100
AcDbEntity
  8
0
100
AcDbBlockBegin
  2
*D9
 70
     1
 10
0.0
 20
0.0
 30
0.0
  3
*D9
  1

  0
LINE
  5
B573
330
B571
100
AcDbEntity
  8
AM_5
100
AcDbLine
 10
34.624011993408
 20
-68.702079772949
 30
0.0
 11
34.624011993408
 21
-76.89988708496
 31
0.0
  0
LINE
  5
B574
330
B571
100
AcDbEntity
  8
AM_5
100
AcDbLine
 10
65.62400817871
 20
-54.079898834228
 30
0.0
 11
65.62400817871
 21
-76.89988708496
 31
0.0
  0
LINE
  5
B575
330
B571
100
AcDbEntity
  8
AM_5
100
AcDbLine
 10
35.624011993408
 20
-75.89988708496
 30
0.0
 11
64.62400817870999
 21
-75.89988708496
 31
0.0
  0
INSERT
  5
B576
330
B571
100
AcDbEntity
  8
AM_5
100
AcDbBlockReference
  2
_Dot
 10
34.624011993408
 20
-75.89988708496
 30
0.0
 50
180.0
  0
INSERT
  5
B577
330
B571
100
AcDbEntity
  8
AM_5
100
AcDbBlockReference
  2
_Dot
 10
65.62400817871
 20
-75.89988708496
 30
0.0
  0
TEXT
  5
B578
330
B571
100
AcDbEntity
  8
AM_5
 62
     2
100
AcDbText
 10
50.12399999999999
 20
-76.9599
 30
0.0
 40
3.2
  1
31
100
AcDbText
  0
POINT
  5
B579
330
B571
100
AcDbEntity
  8
Defpoints
 62
     0
100
AcDbPoint
 10
34.624011993408
 20
-67.20207977294901
 30
0.0
  0
POINT
  5
B57A
330
B571
100
AcDbEntity
  8
Defpoints
 62
     0
100
AcDbPoint
 10
65.62400817871
 20
-52.579898834228
 30
0.0
  0
POINT
  5
B57B
330
B571
100
AcDbEntity
  8
Defpoints
 62
     0
100
AcDbPoint
 10
65.62400817871
 20
-75.89988708496
 30
0.0
  0
ENDBLK
  5
B57C
330
B571
100
AcDbEntity
  8
0
100
AcDbBlockEnd
  0
BLOCK
  5
B57E
330
B57D
100
AcDbEntity
  8
0
100
AcDbBlockBegin
  2
*D10
 70
     1
 10
0.0
 20
0.0
 30
0.0
  3
*D10
  1

  0
LINE
  5
B57F
330
B57D
100
AcDbEntity
  8
AM_5
100
AcDbLine
 10
65.62400817871
 20
-54.079898834228
 30
0.0
 11
65.62400817871
 21
-76.89988708496
 31
0.0
  0
LINE
  5
B580
330
B57D
100
AcDbEntity
  8
AM_5
100
AcDbLine
 10
83.62400817871
 20
-52.649890899658
 30
0.0
 11
83.62400817871
 21
-76.89988708496
 31
0.0
  0
LINE
  5
B581
330
B57D
100
AcDbEntity
  8
AM_5
100
AcDbLine
 10
66.62400817871
 20
-75.89988708496
 30
0.0
 11
82.62400817871
 21
-75.89988708496
 31
0.0
  0
INSERT
  5
B582
330
B57D
100
AcDbEntity
  8
AM_5
100
AcDbBlockReference
  2
_Dot
 10
65.62400817871
 20
-75.89988708496
 30
0.0
 50
180.0
  0
INSERT
  5
B583
330
B57D
100
AcDbEntity
  8
AM_5
100
AcDbBlockReference
  2
_Dot
 10
83.62400817871
 20
-75.89988708496
 30
0.0
  0
TEXT
  5
B584
330
B57D
100
AcDbEntity
  8
AM_5
 62
     2
100
AcDbText
 10
74.62399999999998
 20
-76.9599
 30
0.0
 40
3.2
  1
18
100
AcDbText
  0
POINT
  5
B585
330
B57D
100
AcDbEntity
  8
Defpoints
 62
     0
100
AcDbPoint
 10
65.62400817871
 20
-52.579898834228
 30
0.0
  0
POINT
  5
B586
330
B57D
100
AcDbEntity
  8
Defpoints
 62
     0
100
AcDbPoint
 10
83.62400817871
 20
-51.14989089965799
 30
0.0
  0
POINT
  5
B587
330
B57D
100
AcDbEntity
  8
Defpoints
 62
     0
100
AcDbPoint
 10
83.62400817871
 20
-75.89988708496
 30
0.0
  0
ENDBLK
  5
B588
330
B57D
100
AcDbEntity
  8
0
100
AcDbBlockEnd
  0
BLOCK
  5
B58A
330
B589
100
AcDbEntity
  8
0
100
AcDbBlockBegin
  2
*D11
 70
     1
 10
0.0
 20
0.0
 30
0.0
  3
*D11
  1

  0
LINE
  5
B58B
330
B589
100
AcDbEntity
  8
AM_5
100
AcDbLine
 10
88.62400817871
 20
-62.39989089965799
 30
0.0
 11
88.62400817871
 21
-76.89988708496
 31
0.0
  0
LINE
  5
B58C
330
B589
100
AcDbEntity
  8
AM_5
100
AcDbLine
 10
84.62400817870998
 20
-75.89988708496
 30
0.0
 11
87.62400817871
 21
-75.89988708496
 31
0.0
  0
INSERT
  5
B58D
330
B589
100
AcDbEntity
  8
AM_5
100
AcDbBlockReference
  2
_Dot
 10
83.62400817871
 20
-75.89988708496
 30
0.0
 50
180.0
  0
INSERT
  5
B58E
330
B589
100
AcDbEntity
  8
AM_5
100
AcDbBlockReference
  2
_Dot
 10
88.62400817871
 20
-75.89988708496
 30
0.0
  0
TEXT
  5
B58F
330
B589
100
AcDbEntity
  8
AM_5
 62
     2
100
AcDbText
 10
86.12399999999999
 20
-76.9599
 30
0.0
 40
3.2
  1
5
100
AcDbText
  0
POINT
  5
B590
330
B589
100
AcDbEntity
  8
Defpoints
 62
     0
100
AcDbPoint
 10
83.62400817871
 20
-51.14989089965799
 30
0.0
  0
POINT
  5
B591
330
B589
100
AcDbEntity
  8
Defpoints
 62
     0
100
AcDbPoint
 10
88.62400817871
 20
-60.89989089965801
 30
0.0
  0
POINT
  5
B592
330
B589
100
AcDbEntity
  8
Defpoints
 62
     0
100
AcDbPoint
 10
88.62400817871
 20
-75.89988708496
 30
0.0
  0
ENDBLK
  5
B593
330
B589
100
AcDbEntity
  8
0
100
AcDbBlockEnd
  0
BLOCK
  5
B595
330
B594
100
AcDbEntity
  8
0
100
AcDbBlockBegin
  2
*D12
 70
     1
 10
0.0
 20
0.0
 30
0.0
  3
*D12
  1

  0
LINE
  5
B596
330
B594
100
AcDbEntity
  8
AM_5
100
AcDbLine
 10
90.12400817871
 20
-60.89989089965801
 30
0.0
 11
104.62400817871
 21
-60.89989089965801
 31
0.0
  0
LINE
  5
B597
330
B594
100
AcDbEntity
  8
AM_5
100
AcDbLine
 10
90.62400817870999
 20
-45.64989089965798
 30
0.0
 11
104.62400817871
 21
-45.64989089965798
 31
0.0
  0
LINE
  5
B598
330
B594
100
AcDbEntity
  8
AM_5
100
AcDbLine
 10
103.62400817871
 20
-59.89989089965799
 30
0.0
 11
103.62400817871
 21
-46.64989089965799
 31
0.0
  0
INSERT
  5
B599
330
B594
100
AcDbEntity
  8
AM_5
100
AcDbBlockReference
  2
_Dot
 10
103.62400817871
 20
-60.89989089965801
 30
0.0
 50
270.0
  0
INSERT
  5
B59A
330
B594
100
AcDbEntity
  8
AM_5
100
AcDbBlockReference
  2
_Dot
 10
103.62400817871
 20
-45.64989089965798
 30
0.0
 50
90.0
  0
TEXT
  5
B59B
330
B594
100
AcDbEntity
  8
AM_5
 62
     2
100
AcDbText
 10
100.524
 20
-57.4349
 30
0.0
 40
3.2
  1
15.25
100
AcDbText
  0
POINT
  5
B59C
330
B594
100
AcDbEntity
  8
Defpoints
 62
     0
100
AcDbPoint
 10
88.62400817871
 20
-60.89989089965801
 30
0.0
  0
POINT
  5
B59D
330
B594
100
AcDbEntity
  8
Defpoints
 62
     0
100
AcDbPoint
 10
89.12400817871002
 20
-45.64989089965798
 30
0.0
  0
POINT
  5
B59E
330
B594
100
AcDbEntity
  8
Defpoints
 62
     0
100
AcDbPoint
 10
103.62400817871
 20
-45.64989089965798
 30
0.0
  0
ENDBLK
  5
B59F
330
B594
100
AcDbEntity
  8
0
100
AcDbBlockEnd
  0
BLOCK
  5
B5A1
330
B5A0
100
AcDbEntity
  8
0
100
AcDbBlockBegin
  2
*D13
 70
     1
 10
0.0
 20
0.0
 30
0.0
  3
*D13
  1

  0
LINE
  5
B5A2
330
B5A0
100
AcDbEntity
  8
AM_5
100
AcDbLine
 10
91.214004516601
 20
-1.649882793426499
 30
0.0
 11
104.62400817871
 21
-1.649882793426503
 31
0.0
  0
LINE
  5
B5A3
330
B5A0
100
AcDbEntity
  8
AM_5
100
AcDbLine
 10
103.62400817871
 20
-44.649890899658
 30
0.0
 11
103.62400817871
 21
-2.649882793426503
 31
0.0
  0
INSERT
  5
B5A4
330
B5A0
100
AcDbEntity
  8
AM_5
100
AcDbBlockReference
  2
_Dot
 10
103.62400817871
 20
-45.64989089965798
 30
0.0
 50
270.0
  0
INSERT
  5
B5A5
330
B5A0
100
AcDbEntity
  8
AM_5
100
AcDbBlockReference
  2
_Dot
 10
103.62400817871
 20
-1.649882793426503
 30
0.0
 50
90.0
  0
TEXT
  5
B5A6
330
B5A0
100
AcDbEntity
  8
AM_5
 62
     2
100
AcDbText
 10
100.524
 20
-27.8099
 30
0.0
 40
3.2
  1
44
100
AcDbText
  0
POINT
  5
B5A7
330
B5A0
100
AcDbEntity
  8
Defpoints
 62
     0
100
AcDbPoint
 10
89.12400817871002
 20
-45.64989089965798
 30
0.0
  0
POINT
  5
B5A8
330
B5A0
100
AcDbEntity
  8
Defpoints
 62
     0
100
AcDbPoint
 10
89.714004516601
 20
-1.649882793426499
 30
0.0
  0
POINT
  5
B5A9
330
B5A0
100
AcDbEntity
  8
Defpoints
 62
     0
100
AcDbPoint
 10
103.62400817871
 20
-1.649882793426503
 30
0.0
  0
ENDBLK
  5
B5AA
330
B5A0
100
AcDbEntity
  8
0
100
AcDbBlockEnd
  0
BLOCK
  5
B5AC
330
B5AB
100
AcDbEntity
  8
0
100
AcDbBlockBegin
  2
*D14
 70
     1
 10
0.0
 20
0.0
 30
0.0
  3
*D14
  1

  0
LINE
  5
B5AD
330
B5AB
100
AcDbEntity
  8
AM_5
100
AcDbLine
 10
90.12400817871
 20
13.60011768341
 30
0.0
 11
104.62400817871
 21
13.60011768340999
 31
0.0
  0
LINE
  5
B5AE
330
B5AB
100
AcDbEntity
  8
AM_5
100
AcDbLine
 10
103.62400817871
 20
-0.6498827934265039
 30
0.0
 11
103.62400817871
 21
12.60011768340999
 31
0.0
  0
INSERT
  5
B5AF
330
B5AB
100
AcDbEntity
  8
AM_5
100
AcDbBlockReference
  2
_Dot
 10
103.62400817871
 20
-1.649882793426503
 30
0.0
 50
270.0
  0
INSERT
  5
B5B0
330
B5AB
100
AcDbEntity
  8
AM_5
100
AcDbBlockReference
  2
_Dot
 10
103.62400817871
 20
13.60011768340999
 30
0.0
 50
90.0
  0
TEXT
  5
B5B1
330
B5AB
100
AcDbEntity
  8
AM_5
 62
     2
100
AcDbText
 10
100.524
 20
1.81512
 30
0.0
 40
3.2
  1
15.25
100
AcDbText
  0
POINT
  5
B5B2
330
B5AB
100
AcDbEntity
  8
Defpoints
 62
     0
100
AcDbPoint
 10
89.714004516601
 20
-1.649882793426499
 30
0.0
  0
POINT
  5
B5B3
330
B5AB
100
AcDbEntity
  8
Defpoints
 62
     0
100
AcDbPoint
 10
88.62400817871
 20
13.60011768341
 30
0.0
  0
POINT
  5
B5B4
330
B5AB
100
AcDbEntity
  8
Defpoints
 62
     0
100
AcDbPoint
 10
103.62400817871
 20
13.60011768340999
 30
0.0
  0
ENDBLK
  5
B5B5
330
B5AB
100
AcDbEntity
  8
0
100
AcDbBlockEnd
  0
BLOCK
  5
B5B7
330
B5B6
100
AcDbEntity
  8
0
100
AcDbBlockBegin
  2
*D15
 70
     1
 10
0.0
 20
0.0
 30
0.0
  3
*D15
  1

  0
LINE
  5
B5B8
330
B5B6
100
AcDbEntity
  8
AM_5
100
AcDbLine
 10
90.12400817871
 20
-60.89989089965801
 30
0.0
 11
114.62400817871
 21
-60.89989089965801
 31
0.0
  0
LINE
  5
B5B9
330
B5B6
100
AcDbEntity
  8
AM_5
100
AcDbLine
 10
90.12400817871
 20
13.60011768341
 30
0.0
 11
114.62400817871
 21
13.60011768340999
 31
0.0
  0
LINE
  5
B5BA
330
B5B6
100
AcDbEntity
  8
AM_5
100
AcDbLine
 10
113.62400817871
 20
-59.899890899658
 30
0.0
 11
113.62400817871
 21
12.60011768340999
 31
0.0
  0
INSERT
  5
B5BB
330
B5B6
100
AcDbEntity
  8
AM_5
100
AcDbBlockReference
  2
_Dot
 10
113.62400817871
 20
-60.89989089965801
 30
0.0
 50
270.0
  0
INSERT
  5
B5BC
330
B5B6
100
AcDbEntity
  8
AM_5
100
AcDbBlockReference
  2
_Dot
 10
113.62400817871
 20
13.60011768340999
 30
0.0
 50
90.0
  0
TEXT
  5
B5BD
330
B5B6
100
AcDbEntity
  8
AM_5
 62
     2
100
AcDbText
 10
110.524
 20
-27.8099
 30
0.0
 40
3.2
  1
74.5
100
AcDbText
  0
POINT
  5
B5BE
330
B5B6
100
AcDbEntity
  8
Defpoints
 62
     0
100
AcDbPoint
 10
88.62400817871
 20
-60.89989089965801
 30
0.0
  0
POINT
  5
B5BF
330
B5B6
100
AcDbEntity
  8
Defpoints
 62
     0
100
AcDbPoint
 10
88.62400817871
 20
13.60011768341
 30
0.0
  0
POINT
  5
B5C0
330
B5B6
100
AcDbEntity
  8
Defpoints
 62
     0
100
AcDbPoint
 10
113.62400817871
 20
13.60011768340999
 30
0.0
  0
ENDBLK
  5
B5C1
330
B5B6
100
AcDbEntity
  8
0
100
AcDbBlockEnd
  0
BLOCK
  5
B5C3
330
B5C2
100
AcDbEntity
  8
0
100
AcDbBlockBegin
  2
*D16
 70
     1
 10
0.0
 20
0.0
 30
0.0
  3
*D16
  1

  0
LINE
  5
B5C4
330
B5C2
100
AcDbEntity
  8
AM_5
100
AcDbLine
 10
46.124011993408
 20
16.600116729736
 30
0.0
 11
114.62400817871
 21
16.60011672973598
 31
0.0
  0
LINE
  5
B5C5
330
B5C2
100
AcDbEntity
  8
AM_5
100
AcDbLine
 10
113.62400817871
 20
12.60011768340999
 30
0.0
 11
113.62400817871
 21
11.60011768340999
 31
0.0
  0
LINE
  5
B5C6
330
B5C2
100
AcDbEntity
  8
AM_5
100
AcDbLine
 10
113.62400817871
 20
17.60011672973598
 30
0.0
 11
113.62400817871
 21
18.60011672973598
 31
0.0
  0
LINE
  5
B5C7
330
B5C2
100
AcDbEntity
  8
AM_5
100
AcDbLine
 10
113.62400817871
 20
13.60011768340999
 30
0.0
 11
113.62400817871
 21
16.60011672973598
 31
0.0
  0
INSERT
  5
B5C8
330
B5C2
100
AcDbEntity
  8
AM_5
100
AcDbBlockReference
  2
_Dot
 10
113.62400817871
 20
13.60011768340999
 30
0.0
 50
90.0
  0
INSERT
  5
B5C9
330
B5C2
100
AcDbEntity
  8
AM_5
100
AcDbBlockReference
  2
_Dot
 10
113.62400817871
 20
16.60011672973598
 30
0.0
 50
270.0
  0
TEXT
  5
B5CA
330
B5C2
100
AcDbEntity
  8
AM_5
 62
     2
100
AcDbText
 10
110.524
 20
10.9401
 30
0.0
 40
3.2
  1
3
100
AcDbText
  0
POINT
  5
B5CB
330
B5C2
100
AcDbEntity
  8
Defpoints
 62
     0
100
AcDbPoint
 10
88.62400817871
 20
13.60011768341
 30
0.0
  0
POINT
  5
B5CC
330
B5C2
100
AcDbEntity
  8
Defpoints
 62
     0
100
AcDbPoint
 10
44.62401199340797
 20
16.600116729736
 30
0.0
  0
POINT
  5
B5CD
330
B5C2
100
AcDbEntity
  8
Defpoints
 62
     0
100
AcDbPoint
 10
113.62400817871
 20
16.60011672973598
 30
0.0
  0
ENDBLK
  5
B5CE
330
B5C2
100
AcDbEntity
  8
0
100
AcDbBlockEnd
  0
BLOCK
  5
B5D0
330
B5CF
100
AcDbEntity
  8
0
100
AcDbBlockBegin
  2
*D17
 70
     1
 10
0.0
 20
0.0
 30
0.0
  3
*D17
  1

  0
LINE
  5
B5D1
330
B5CF
100
AcDbEntity
  8
AM_5
100
AcDbLine
 10
46.124011993408
 20
91.100120544433
 30
0.0
 11
114.62400817871
 21
91.10012054443298
 31
0.0
  0
LINE
  5
B5D2
330
B5CF
100
AcDbEntity
  8
AM_5
100
AcDbLine
 10
113.62400817871
 20
17.60011672973598
 30
0.0
 11
113.62400817871
 21
90.10012054443299
 31
0.0
  0
INSERT
  5
B5D3
330
B5CF
100
AcDbEntity
  8
AM_5
100
AcDbBlockReference
  2
_Dot
 10
113.62400817871
 20
16.60011672973598
 30
0.0
 50
270.0
  0
INSERT
  5
B5D4
330
B5CF
100
AcDbEntity
  8
AM_5
100
AcDbBlockReference
  2
_Dot
 10
113.62400817871
 20
91.10012054443298
 30
0.0
 50
90.0
  0
TEXT
  5
B5D5
330
B5CF
100
AcDbEntity
  8
AM_5
 62
     2
100
AcDbText
 10
110.524
 20
49.6901
 30
0.0
 40
3.2
  1
74.5
100
AcDbText
  0
POINT
  5
B5D6
330
B5CF
100
AcDbEntity
  8
Defpoints
 62
     0
100
AcDbPoint
 10
44.62401199340797
 20
16.600116729736
 30
0.0
  0
POINT
  5
B5D7
330
B5CF
100
AcDbEntity
  8
Defpoints
 62
     0
100
AcDbPoint
 10
44.62401199340797
 20
91.100120544433
 30
0.0
  0
POINT
  5
B5D8
330
B5CF
100
AcDbEntity
  8
Defpoints
 62
     0
100
AcDbPoint
 10
113.62400817871
 20
91.10012054443298
 30
0.0
  0
ENDBLK
  5
B5D9
330
B5CF
100
AcDbEntity
  8
0
100
AcDbBlockEnd
  0
BLOCK
  5
B5DB
330
B5DA
100
AcDbEntity
  8
0
100
AcDbBlockBegin
  2
*D18
 70
     1
 10
0.0
 20
0.0
 30
0.0
  3
*D18
  1

  0
LINE
  5
B5DC
330
B5DA
100
AcDbEntity
  8
AM_5
100
AcDbLine
 10
90.12400817871
 20
160.17109680175
 30
0.0
 11
104.62400817871
 21
160.17109680175
 31
0.0
  0
LINE
  5
B5DD
330
B5DA
100
AcDbEntity
  8
AM_5
100
AcDbLine
 10
90.12400817871
 20
156.17109680175
 30
0.0
 11
104.62400817871
 21
156.17109680175
 31
0.0
  0
LINE
  5
B5DE
330
B5DA
100
AcDbEntity
  8
AM_5
100
AcDbLine
 10
103.62400817871
 20
161.17109680175
 30
0.0
 11
103.62400817871
 21
162.17109680175
 31
0.0
  0
LINE
  5
B5DF
330
B5DA
100
AcDbEntity
  8
AM_5
100
AcDbLine
 10
103.62400817871
 20
155.17109680175
 30
0.0
 11
103.62400817871
 21
154.17109680175
 31
0.0
  0
TEXT
  5
B5E0
330
B5DA
100
AcDbEntity
  8
AM_5
 62
     2
100
AcDbText
 10
100.524
 20
154.011
 30
0.0
 40
3.2
  1
4
100
AcDbText
  0
LINE
  5
B5E1
330
B5DA
100
AcDbEntity
  8
AM_5
100
AcDbLine
 10
103.62400817871
 20
160.17109680175
 30
0.0
 11
103.62400817871
 21
156.17109680175
 31
0.0
  0
INSERT
  5
B5E2
330
B5DA
100
AcDbEntity
  8
AM_5
100
AcDbBlockReference
  2
_Dot
 10
103.62400817871
 20
160.17109680175
 30
0.0
 50
270.0
  0
INSERT
  5
B5E3
330
B5DA
100
AcDbEntity
  8
AM_5
100
AcDbBlockReference
  2
_Dot
 10
103.62400817871
 20
156.17109680175
 30
0.0
 50
90.0
  0
POINT
  5
B5E4
330
B5DA
100
AcDbEntity
  8
Defpoints
 62
     0
100
AcDbPoint
 10
88.62400817871
 20
160.17109680175
 30
0.0
  0
POINT
  5
B5E5
330
B5DA
100
AcDbEntity
  8
Defpoints
 62
     0
100
AcDbPoint
 10
88.62400817871
 20
156.17109680175
 30
0.0
  0
POINT
  5
B5E6
330
B5DA
100
AcDbEntity
  8
Defpoints
 62
     0
100
AcDbPoint
 10
103.62400817871
 20
156.17109680175
 30
0.0
  0
ENDBLK
  5
B5E7
330
B5DA
100
AcDbEntity
  8
0
100
AcDbBlockEnd
  0
BLOCK
  5
B5E9
330
B5E8
100
AcDbEntity
  8
0
100
AcDbBlockBegin
  2
*D19
 70
     1
 10
0.0
 20
0.0
 30
0.0
  3
*D19
  1

  0
LINE
  5
B5EA
330
B5E8
100
AcDbEntity
  8
AM_5
100
AcDbLine
 10
50.524005889892
 20
147.17108154296
 30
0.0
 11
104.62400817871
 21
147.1710815429599
 31
0.0
  0
LINE
  5
B5EB
330
B5E8
100
AcDbEntity
  8
AM_5
100
AcDbLine
 10
103.62400817871
 20
155.17109680175
 30
0.0
 11
103.62400817871
 21
148.1710815429599
 31
0.0
  0
INSERT
  5
B5EC
330
B5E8
100
AcDbEntity
  8
AM_5
100
AcDbBlockReference
  2
_Dot
 10
103.62400817871
 20
156.17109680175
 30
0.0
 50
90.0
  0
INSERT
  5
B5ED
330
B5E8
100
AcDbEntity
  8
AM_5
100
AcDbBlockReference
  2
_Dot
 10
103.62400817871
 20
147.1710815429599
 30
0.0
 50
270.0
  0
TEXT
  5
B5EE
330
B5E8
100
AcDbEntity
  8
AM_5
 62
     2
100
AcDbText
 10
100.524
 20
147.511
 30
0.0
 40
3.2
  1
9
100
AcDbText
  0
POINT
  5
B5EF
330
B5E8
100
AcDbEntity
  8
Defpoints
 62
     0
100
AcDbPoint
 10
88.62400817871
 20
156.17109680175
 30
0.0
  0
POINT
  5
B5F0
330
B5E8
100
AcDbEntity
  8
Defpoints
 62
     0
100
AcDbPoint
 10
49.02400588989199
 20
147.17108154296
 30
0.0
  0
POINT
  5
B5F1
330
B5E8
100
AcDbEntity
  8
Defpoints
 62
     0
100
AcDbPoint
 10
103.62400817871
 20
147.1710815429599
 30
0.0
  0
ENDBLK
  5
B5F2
330
B5E8
100
AcDbEntity
  8
0
100
AcDbBlockEnd
  0
BLOCK
  5
B5F4
330
B5F3
100
AcDbEntity
  8
0
100
AcDbBlockBegin
  2
*D20
 70
     1
 10
0.0
 20
0.0
 30
0.0
  3
*D20
  1

  0
LINE
  5
B5F5
330
B5F3
100
AcDbEntity
  8
AM_5
100
AcDbLine
 10
90.12400817871
 20
140.17108154296
 30
0.0
 11
104.62400817871
 21
140.17108154296
 31
0.0
  0
LINE
  5
B5F6
330
B5F3
100
AcDbEntity
  8
AM_5
100
AcDbLine
 10
103.62400817871
 20
146.1710815429599
 30
0.0
 11
103.62400817871
 21
141.17108154296
 31
0.0
  0
INSERT
  5
B5F7
330
B5F3
100
AcDbEntity
  8
AM_5
100
AcDbBlockReference
  2
_Dot
 10
103.62400817871
 20
147.1710815429599
 30
0.0
 50
90.0
  0
INSERT
  5
B5F8
330
B5F3
100
AcDbEntity
  8
AM_5
100
AcDbBlockReference
  2
_Dot
 10
103.62400817871
 20
140.17108154296
 30
0.0
 50
270.0
  0
TEXT
  5
B5F9
330
B5F3
100
AcDbEntity
  8
AM_5
 62
     2
100
AcDbText
 10
100.524
 20
139.511
 30
0.0
 40
3.2
  1
7
100
AcDbText
  0
POINT
  5
B5FA
330
B5F3
100
AcDbEntity
  8
Defpoints
 62
     0
100
AcDbPoint
 10
49.02400588989199
 20
147.17108154296
 30
0.0
  0
POINT
  5
B5FB
330
B5F3
100
AcDbEntity
  8
Defpoints
 62
     0
100
AcDbPoint
 10
88.62400817871
 20
140.17108154296
 30
0.0
  0
POINT
  5
B5FC
330
B5F3
100
AcDbEntity
  8
Defpoints
 62
     0
100
AcDbPoint
 10
103.62400817871
 20
140.17108154296
 30
0.0
  0
ENDBLK
  5
B5FD
330
B5F3
100
AcDbEntity
  8
0
100
AcDbBlockEnd
  0
BLOCK
  5
B5FF
330
B5FE
100
AcDbEntity
  8
0
100
AcDbBlockBegin
  2
*D21
 70
     1
 10
0.0
 20
0.0
 30
0.0
  3
*D21
  1

  0
LINE
  5
B600
330
B5FE
100
AcDbEntity
  8
AM_5
100
AcDbLine
 10
90.12400817871
 20
136.17108154296
 30
0.0
 11
104.62400817871
 21
136.17108154296
 31
0.0
  0
LINE
  5
B601
330
B5FE
100
AcDbEntity
  8
AM_5
100
AcDbLine
 10
103.62400817871
 20
141.17108154296
 30
0.0
 11
103.62400817871
 21
142.17108154296
 31
0.0
  0
LINE
  5
B602
330
B5FE
100
AcDbEntity
  8
AM_5
100
AcDbLine
 10
103.62400817871
 20
135.17108154296
 30
0.0
 11
103.62400817871
 21
134.17108154296
 31
0.0
  0
TEXT
  5
B603
330
B5FE
100
AcDbEntity
  8
AM_5
 62
     2
100
AcDbText
 10
100.524
 20
134.011
 30
0.0
 40
3.2
  1
4
100
AcDbText
  0
LINE
  5
B604
330
B5FE
100
AcDbEntity
  8
AM_5
100
AcDbLine
 10
103.62400817871
 20
140.17108154296
 30
0.0
 11
103.62400817871
 21
136.17108154296
 31
0.0
  0
INSERT
  5
B605
330
B5FE
100
AcDbEntity
  8
AM_5
100
AcDbBlockReference
  2
_Dot
 10
103.62400817871
 20
140.17108154296
 30
0.0
 50
270.0
  0
INSERT
  5
B606
330
B5FE
100
AcDbEntity
  8
AM_5
100
AcDbBlockReference
  2
_Dot
 10
103.62400817871
 20
136.17108154296
 30
0.0
 50
90.0
  0
POINT
  5
B607
330
B5FE
100
AcDbEntity
  8
Defpoints
 62
     0
100
AcDbPoint
 10
88.62400817871
 20
140.17108154296
 30
0.0
  0
POINT
  5
B608
330
B5FE
100
AcDbEntity
  8
Defpoints
 62
     0
100
AcDbPoint
 10
88.62400817871
 20
136.17108154296
 30
0.0
  0
POINT
  5
B609
330
B5FE
100
AcDbEntity
  8
Defpoints
 62
     0
100
AcDbPoint
 10
103.62400817871
 20
136.17108154296
 30
0.0
  0
ENDBLK
  5
B60A
330
B5FE
100
AcDbEntity
  8
0
100
AcDbBlockEnd
  0
BLOCK
  5
B60C
330
B60B
100
AcDbEntity
  8
0
100
AcDbBlockBegin
  2
*D22
 70
     1
 10
0.0
 20
0.0
 30
0.0
  3
*D22
  1

  0
LINE
  5
B60D
330
B60B
100
AcDbEntity
  8
AM_5
100
AcDbLine
 10
90.12400817871
 20
160.17109680175
 30
0.0
 11
114.62400817871
 21
160.17109680175
 31
0.0
  0
LINE
  5
B60E
330
B60B
100
AcDbEntity
  8
AM_5
100
AcDbLine
 10
90.12400817871
 20
136.17108154296
 30
0.0
 11
114.62400817871
 21
136.17108154296
 31
0.0
  0
LINE
  5
B60F
330
B60B
100
AcDbEntity
  8
AM_5
100
AcDbLine
 10
113.62400817871
 20
159.17109680175
 30
0.0
 11
113.62400817871
 21
137.17108154296
 31
0.0
  0
INSERT
  5
B610
330
B60B
100
AcDbEntity
  8
AM_5
100
AcDbBlockReference
  2
_Dot
 10
113.62400817871
 20
160.17109680175
 30
0.0
 50
90.0
  0
INSERT
  5
B611
330
B60B
100
AcDbEntity
  8
AM_5
100
AcDbBlockReference
  2
_Dot
 10
113.62400817871
 20
136.17108154296
 30
0.0
 50
270.0
  0
TEXT
  5
B612
330
B60B
100
AcDbEntity
  8
AM_5
 62
     2
100
AcDbText
 10
110.524
 20
144.011
 30
0.0
 40
3.2
  1
24
100
AcDbText
  0
POINT
  5
B613
330
B60B
100
AcDbEntity
  8
Defpoints
 62
     0
100
AcDbPoint
 10
88.62400817871
 20
160.17109680175
 30
0.0
  0
POINT
  5
B614
330
B60B
100
AcDbEntity
  8
Defpoints
 62
     0
100
AcDbPoint
 10
88.62400817871
 20
136.17108154296
 30
0.0
  0
POINT
  5
B615
330
B60B
100
AcDbEntity
  8
Defpoints
 62
     0
100
AcDbPoint
 10
113.62400817871
 20
136.17108154296
 30
0.0
  0
ENDBLK
  5
B616
330
B60B
100
AcDbEntity
  8
0
100
AcDbBlockEnd
  0
BLOCK
  5
B618
330
B617
100
AcDbEntity
  8
0
100
AcDbBlockBegin
  2
*D23
 70
     1
 10
0.0
 20
0.0
 30
0.0
  3
*D23
  1

  0
LINE
  5
B619
330
B617
100
AcDbEntity
  8
AM_5
100
AcDbLine
 10
46.124011993408
 20
91.100120544433
 30
0.0
 11
124.62400817871
 21
91.10012054443298
 31
0.0
  0
LINE
  5
B61A
330
B617
100
AcDbEntity
  8
AM_5
100
AcDbLine
 10
90.12400817871
 20
-60.89989089965801
 30
0.0
 11
124.6240081787099
 21
-60.89989089965801
 31
0.0
  0
LINE
  5
B61B
330
B617
100
AcDbEntity
  8
AM_5
100
AcDbLine
 10
123.62400817871
 20
90.10012054443299
 30
0.0
 11
123.62400817871
 21
-59.899890899658
 31
0.0
  0
INSERT
  5
B61C
330
B617
100
AcDbEntity
  8
AM_5
100
AcDbBlockReference
  2
_Dot
 10
123.62400817871
 20
91.10012054443298
 30
0.0
 50
90.0
  0
INSERT
  5
B61D
330
B617
100
AcDbEntity
  8
AM_5
100
AcDbBlockReference
  2
_Dot
 10
123.62400817871
 20
-60.89989089965801
 30
0.0
 50
270.0
  0
TEXT
  5
B61E
330
B617
100
AcDbEntity
  8
AM_5
 62
     2
100
AcDbText
 10
120.524
 20
10.9401
 30
0.0
 40
3.2
  1
152
100
AcDbText
  0
POINT
  5
B61F
330
B617
100
AcDbEntity
  8
Defpoints
 62
     0
100
AcDbPoint
 10
44.62401199340797
 20
91.100120544433
 30
0.0
  0
POINT
  5
B620
330
B617
100
AcDbEntity
  8
Defpoints
 62
     0
100
AcDbPoint
 10
88.62400817871
 20
-60.89989089965801
 30
0.0
  0
POINT
  5
B621
330
B617
100
AcDbEntity
  8
Defpoints
 62
     0
100
AcDbPoint
 10
123.62400817871
 20
-60.89989089965801
 30
0.0
  0
ENDBLK
  5
B622
330
B617
100
AcDbEntity
  8
0
100
AcDbBlockEnd
  0
BLOCK
  5
B626
330
B623
100
AcDbEntity
  8
0
100
AcDbBlockBegin
  2
*U24
 70
     1
 10
0.0
 20
0.0
 30
0.0
  3
*U24
  1

  0
TEXT
  5
B627
330
B623
100
AcDbEntity
  8
AM_6
100
AcDbText
 10
-187.5715000033378
 20
87.9
 30
0.0
 40
3.2
  1
丁番係数　27.4
 41
0.61
100
AcDbText
  0
ENDBLK
  5
B628
330
B623
100
AcDbEntity
  8
0
100
AcDbBlockEnd
  0
BLOCK
  5
B62A
330
B629
100
AcDbEntity
  8
0
100
AcDbBlockBegin
  2
*U25
 70
     1
 10
0.0
 20
0.0
 30
0.0
  3
*U25
  1

  0
TEXT
  5
B62B
330
B629
100
AcDbEntity
  8
AM_6
100
AcDbText
 10
-204.7715000510216
 20
167.4
 30
0.0
 40
3.2
  1
品　名
 41
0.61
100
AcDbText
  0
ENDBLK
  5
B62C
330
B629
100
AcDbEntity
  8
0
100
AcDbBlockEnd
  0
BLOCK
  5
B62E
330
B62D
100
AcDbEntity
  8
0
100
AcDbBlockBegin
  2
*U26
 70
     1
 10
0.0
 20
0.0
 30
0.0
  3
*U26
  1

  0
TEXT
  5
B62F
330
B62D
100
AcDbEntity
  8
AM_6
100
AcDbText
 10
-204.7715000510216
 20
159.4
 30
0.0
 40
3.2
  1
品　番
 41
0.61
100
AcDbText
  0
ENDBLK
  5
B630
330
B62D
100
AcDbEntity
  8
0
100
AcDbBlockEnd
  0
BLOCK
  5
B632
330
B631
100
AcDbEntity
  8
0
100
AcDbBlockBegin
  2
*U27
 70
     1
 10
0.0
 20
0.0
 30
0.0
  3
*U27
  1

  0
TEXT
  5
B633
330
B631
100
AcDbEntity
  8
AM_6
100
AcDbText
 10
-187.5715000033378
 20
79.90000000000001
 30
0.0
 40
3.2
  1
＊
 41
0.61
100
AcDbText
  0
ENDBLK
  5
B634
330
B631
100
AcDbEntity
  8
0
100
AcDbBlockEnd
  0
BLOCK
  5
B636
330
B635
100
AcDbEntity
  8
0
100
AcDbBlockBegin
  2
*U28
 70
     1
 10
0.0
 20
0.0
 30
0.0
  3
*U28
  1

  0
TEXT
  5
B637
330
B635
100
AcDbEntity
  8
AM_6
100
AcDbText
 10
-187.5715000033378
 20
71.90000000000002
 30
0.0
 40
3.2
  1
＊
 41
0.61
100
AcDbText
  0
ENDBLK
  5
B638
330
B635
100
AcDbEntity
  8
0
100
AcDbBlockEnd
  0
BLOCK
  5
B63A
330
B639
100
AcDbEntity
  8
0
100
AcDbBlockBegin
  2
*U29
 70
     1
 10
0.0
 20
0.0
 30
0.0
  3
*U29
  1

  0
TEXT
  5
B63B
330
B639
100
AcDbEntity
  8
AM_6
100
AcDbText
 10
-204.7715000510216
 20
151.4
 30
0.0
 40
3.2
  1
材　質
 41
0.61
100
AcDbText
  0
ENDBLK
  5
B63C
330
B639
100
AcDbEntity
  8
0
100
AcDbBlockEnd
  0
BLOCK
  5
B63E
330
B63D
100
AcDbEntity
  8
0
100
AcDbBlockBegin
  2
*U30
 70
     1
 10
0.0
 20
0.0
 30
0.0
  3
*U30
  1

  0
TEXT
  5
B63F
330
B63D
100
AcDbEntity
  8
AM_6
100
AcDbText
 10
-204.7715000510216
 20
135.9
 30
0.0
 40
3.2
  1
仕上げ
 41
0.61
100
AcDbText
  0
ENDBLK
  5
B640
330
B63D
100
AcDbEntity
  8
0
100
AcDbBlockEnd
  0
BLOCK
  5
B642
330
B641
100
AcDbEntity
  8
0
100
AcDbBlockBegin
  2
*U31
 70
     1
 10
0.0
 20
0.0
 30
0.0
  3
*U31
  1

  0
TEXT
  5
B643
330
B641
100
AcDbEntity
  8
AM_6
100
AcDbText
 10
-187.5715000033378
 20
95.90000000000001
 30
0.0
 40
3.2
  1
＊
 41
0.61
100
AcDbText
  0
ENDBLK
  5
B644
330
B641
100
AcDbEntity
  8
0
100
AcDbBlockEnd
  0
BLOCK
  5
B646
330
B645
100
AcDbEntity
  8
0
100
AcDbBlockBegin
  2
*U32
 70
     1
 10
0.0
 20
0.0
 30
0.0
  3
*U32
  1

  0
TEXT
  5
B647
330
B645
100
AcDbEntity
  8
AM_6
100
AcDbText
 10
-187.5715000033378
 20
103.9
 30
0.0
 40
3.2
  1
＊
 41
0.61
100
AcDbText
  0
ENDBLK
  5
B648
330
B645
100
AcDbEntity
  8
0
100
AcDbBlockEnd
  0
BLOCK
  5
B64A
330
B649
100
AcDbEntity
  8
0
100
AcDbBlockBegin
  2
*U33
 70
     1
 10
0.0
 20
0.0
 30
0.0
  3
*U33
  1

  0
TEXT
  5
B64B
330
B649
100
AcDbEntity
  8
AM_6
100
AcDbText
 10
-207.9715000987053
 20
111.9
 30
0.0
 40
3.2
  1
セットビス
 41
0.61
100
AcDbText
  0
ENDBLK
  5
B64C
330
B649
100
AcDbEntity
  8
0
100
AcDbBlockEnd
  0
BLOCK
  5
B64E
330
B64D
100
AcDbEntity
  8
0
100
AcDbBlockBegin
  2
*U34
 70
     1
 10
0.0
 20
0.0
 30
0.0
  3
*U34
  1

  0
TEXT
  5
B64F
330
B64D
100
AcDbEntity
  8
AM_6
100
AcDbText
 10
-187.5715000033378
 20
111.9
 30
0.0
 40
3.2
  1
＊
 41
0.61
100
AcDbText
  0
ENDBLK
  5
B650
330
B64D
100
AcDbEntity
  8
0
100
AcDbBlockEnd
  0
BLOCK
  5
B652
330
B651
100
AcDbEntity
  8
0
100
AcDbBlockBegin
  2
*U35
 70
     1
 10
0.0
 20
0.0
 30
0.0
  3
*U35
  1

  0
TEXT
  5
B653
330
B651
100
AcDbEntity
  8
AM_6
100
AcDbText
 10
-203.1715000271797
 20
87.9
 30
0.0
 40
3.2
  1
備考
 41
0.61
100
AcDbText
  0
ENDBLK
  5
B654
330
B651
100
AcDbEntity
  8
0
100
AcDbBlockEnd
  0
BLOCK
  5
B656
330
B655
100
AcDbEntity
  8
0
100
AcDbBlockBegin
  2
*U36
 70
     1
 10
0.0
 20
0.0
 30
0.0
  3
*U36
  1

  0
TEXT
  5
B657
330
B655
100
AcDbEntity
  8
AM_6
100
AcDbText
 10
-204.7715000510216
 20
127.9
 30
0.0
 40
3.2
  1
定　尺
 41
0.61
100
AcDbText
  0
ENDBLK
  5
B658
330
B655
100
AcDbEntity
  8
0
100
AcDbBlockEnd
  0
BLOCK
  5
B65A
330
B659
100
AcDbEntity
  8
0
100
AcDbBlockBegin
  2
*U37
 70
     1
 10
0.0
 20
0.0
 30
0.0
  3
*U37
  1

  0
TEXT
  5
B65B
330
B659
100
AcDbEntity
  8
AM_6
100
AcDbText
 10
-206.3715000748634
 20
119.9
 30
0.0
 40
3.2
  1
左右勝手
 41
0.61
100
AcDbText
  0
ENDBLK
  5
B65C
330
B659
100
AcDbEntity
  8
0
100
AcDbBlockEnd
  0
BLOCK
  5
B65E
330
B65D
100
AcDbEntity
  8
0
100
AcDbBlockBegin
  2
*U38
 70
     1
 10
0.0
 20
0.0
 30
0.0
  3
*U38
  1

  0
TEXT
  5
B65F
330
B65D
100
AcDbEntity
  8
AM_6
100
AcDbText
 10
-187.8070499300878
 20
127.46997680664
 30
0.0
 40
3.2
  1
＊
 41
0.61
100
AcDbText
  0
ENDBLK
  5
B660
330
B65D
100
AcDbEntity
  8
0
100
AcDbBlockEnd
  0
BLOCK
  5
B662
330
B661
100
AcDbEntity
  8
0
100
AcDbBlockBegin
  2
*U39
 70
     1
 10
0.0
 20
0.0
 30
0.0
  3
*U39
  1

  0
TEXT
  5
B663
330
B661
100
AcDbEntity
  8
AM_6
100
AcDbText
 10
-187.5715000033378
 20
167.4
 30
0.0
 40
3.2
  1
旗丁番
 41
0.61
100
AcDbText
  0
ENDBLK
  5
B664
330
B661
100
AcDbEntity
  8
0
100
AcDbBlockEnd
  0
BLOCK
  5
B666
330
B665
100
AcDbEntity
  8
0
100
AcDbBlockBegin
  2
*U40
 70
     1
 10
0.0
 20
0.0
 30
0.0
  3
*U40
  1

  0
TEXT
  5
B667
330
B665
100
AcDbEntity
  8
AM_6
100
AcDbText
 10
-187.5715000033378
 20
159.4
 30
0.0
 40
3.2
  1
ＤＨ－６０２
 41
0.61
100
AcDbText
  0
ENDBLK
  5
B668
330
B665
100
AcDbEntity
  8
0
100
AcDbBlockEnd
  0
BLOCK
  5
B66A
330
B669
100
AcDbEntity
  8
0
100
AcDbBlockBegin
  2
*U41
 70
     1
 10
0.0
 20
0.0
 30
0.0
  3
*U41
  1

  0
TEXT
  5
B66B
330
B669
100
AcDbEntity
  8
AM_6
100
AcDbText
 10
-187.5715000033378
 20
151.4
 30
0.0
 40
3.2
  1
羽根：ステンレス・軸：ステンレス
 41
0.61
100
AcDbText
  0
ENDBLK
  5
B66C
330
B669
100
AcDbEntity
  8
0
100
AcDbBlockEnd
  0
BLOCK
  5
B66E
330
B66D
100
AcDbEntity
  8
0
100
AcDbBlockBegin
  2
*U42
 70
     1
 10
0.0
 20
0.0
 30
0.0
  3
*U42
  1

  0
TEXT
  5
B66F
330
B66D
100
AcDbEntity
  8
AM_6
100
AcDbText
 10
-187.5715000033378
 20
135.9
 30
0.0
 40
3.2
  1
羽根：ヘアーライン・軸：生地
 41
0.61
100
AcDbText
  0
ENDBLK
  5
B670
330
B66D
100
AcDbEntity
  8
0
100
AcDbBlockEnd
  0
BLOCK
  5
B672
330
B671
100
AcDbEntity
  8
0
100
AcDbBlockBegin
  2
*U43
 70
     1
 10
0.0
 20
0.0
 30
0.0
  3
*U43
  1

  0
TEXT
  5
B673
330
B671
100
AcDbEntity
  8
AM_6
100
AcDbText
 10
-187.8070499300878
 20
119.86617126464
 30
0.0
 40
3.2
  1
左勝手
 41
0.61
100
AcDbText
  0
ENDBLK
  5
B674
330
B671
100
AcDbEntity
  8
0
100
AcDbBlockEnd
  0
BLOCK
  5
B676
330
B675
100
AcDbEntity
  8
0
100
AcDbBlockBegin
  2
*U44
 70
     1
 10
0.0
 20
0.0
 30
0.0
  3
*U44
  1

  0
TEXT
  5
B677
330
B675
100
AcDbEntity
  8
AM_6
100
AcDbText
 10
-187.5715000033378
 20
143.775
 30
0.0
 40
3.2
  1
＊
 41
0.61
100
AcDbText
  0
ENDBLK
  5
B678
330
B675
100
AcDbEntity
  8
0
100
AcDbBlockEnd
  0
BLOCK
  5
B67A
330
B679
100
AcDbEntity
  8
0
100
AcDbBlockBegin
  2
*U45
 70
     1
 10
0.0
 20
0.0
 30
0.0
  3
*U45
  1

  0
INSERT
  5
B67B
330
B679
100
AcDbEntity
  8
AM_5
100
AcDbBlockReference
  2
_OPEN30
 10
41.23160552978499
 20
154.67706298828
 30
0.0
 50
48.64220655619289
  0
POLYLINE
  5
B67C
330
B679
100
AcDbEntity
  8
AM_5
100
AcDb2dPolyline
 66
     1
 10
0.0
 20
0.0
 30
0.0
  0
VERTEX
  5
B67D
330
B67C
100
AcDbEntity
  8
AM_5
100
AcDbVertex
100
AcDb2dVertex
 10
40.57084640818696
 20
153.9264649712129
 30
0.0
  0
VERTEX
  5
B67E
330
B67C
100
AcDbEntity
  8
AM_5
100
AcDbVertex
100
AcDb2dVertex
 10
14.889924049377
 20
124.75388336181
 30
0.0
  0
VERTEX
  5
B67F
330
B67C
100
AcDbEntity
  8
AM_5
100
AcDbVertex
100
AcDb2dVertex
 10
-0.1988989412785
 20
124.75388336181
 30
0.0
  0
SEQEND
  5
B680
330
B67C
100
AcDbEntity
  8
AM_5
  0
ENDBLK
  5
B681
330
B679
100
AcDbEntity
  8
0
100
AcDbBlockEnd
  0
BLOCK
  5
B683
330
B682
100
AcDbEntity
  8
0
100
AcDbBlockBegin
  2
*U46
 70
     1
 10
0.0
 20
0.0
 30
0.0
  3
*U46
  1

  0
TEXT
  5
B684
330
B682
100
AcDbEntity
  8
AM_6
100
AcDbText
 10
2.200601041316748
 20
125.5538834571774
 30
0.0
 40
3.2
  1
φ２０
 41
0.61
100
AcDbText
  0
ENDBLK
  5
B685
330
B682
100
AcDbEntity
  8
0
100
AcDbBlockEnd
  0
BLOCK
  5
B687
330
B686
100
AcDbEntity
  8
0
100
AcDbBlockBegin
  2
*U47
 70
     1
 10
0.0
 20
0.0
 30
0.0
  3
*U47
  1

  0
INSERT
  5
B688
330
B686
100
AcDbEntity
  8
AM_5
100
AcDbBlockReference
  2
_OPEN30
 10
-13.256244659423
 20
34.085334777832
 30
0.0
 50
63.39148911136859
  0
POLYLINE
  5
B689
330
B686
100
AcDbEntity
  8
AM_5
100
AcDb2dPolyline
 66
     1
 10
0.0
 20
0.0
 30
0.0
  0
VERTEX
  5
B68A
330
B689
100
AcDbEntity
  8
AM_5
100
AcDbVertex
100
AcDb2dVertex
 10
-13.7041365627
 20
33.19124706234828
 30
0.0
  0
VERTEX
  5
B68B
330
B689
100
AcDbEntity
  8
AM_5
100
AcDbVertex
100
AcDb2dVertex
 10
-27.760950088501
 20
5.1308507919312
 30
0.0
  0
VERTEX
  5
B68C
330
B689
100
AcDbEntity
  8
AM_5
100
AcDbVertex
100
AcDb2dVertex
 10
-1.386153817176799
 20
5.1308507919312
 30
0.0
  0
SEQEND
  5
B68D
330
B689
100
AcDbEntity
  8
AM_5
  0
ENDBLK
  5
B68E
330
B686
100
AcDbEntity
  8
0
100
AcDbBlockEnd
  0
BLOCK
  5
B690
330
B68F
100
AcDbEntity
  8
0
100
AcDbBlockBegin
  2
*U48
 70
     1
 10
0.0
 20
0.0
 30
0.0
  3
*U48
  1

  0
TEXT
  5
B691
330
B68F
100
AcDbEntity
  8
AM_6
100
AcDbText
 10
-24.12865287065485
 20
5.930851364135746
 30
0.0
 40
3.2
  1
８－Ｍ５タップ
 41
0.61
100
AcDbText
  0
ENDBLK
  5
B692
330
B68F
100
AcDbEntity
  8
0
100
AcDbBlockEnd
  0
BLOCK
  5
B7E4
330
B7DA
100
AcDbEntity
  8
0
100
AcDbBlockBegin
  2
*D50
 70
     1
 10
0.0
 20
0.0
 30
0.0
  3
*D50
  1

  0
LINE
  5
B8BB
330
B7DA
100
AcDbEntity
  8
AM_5
100
AcDbLine
 10
191.6240250172288
 20
192.1001207046361
 30
0.0
 11
191.6240250172288
 21
202.1001207046332
 31
0.0
  0
LINE
  5
B8BC
330
B7DA
100
AcDbEntity
  8
AM_5
100
AcDbLine
 10
245.6240116657878
 20
196.1501237563942
 30
0.0
 11
245.6240116657878
 21
202.1001207046332
 31
0.0
  0
LINE
  5
B8BD
330
B7DA
100
AcDbEntity
  8
AM_5
100
AcDbLine
 10
192.6240250172287
 20
201.1001207046332
 30
0.0
 11
244.6240116657878
 21
201.1001207046332
 31
0.0
  0
INSERT
  5
B8BE
330
B7DA
100
AcDbEntity
  8
AM_5
100
AcDbBlockReference
  2
_Dot
 10
191.6240250172288
 20
201.1001207046332
 30
0.0
 50
180.0
  0
INSERT
  5
B8BF
330
B7DA
100
AcDbEntity
  8
AM_5
100
AcDbBlockReference
  2
_Dot
 10
245.6240116657878
 20
201.1001207046332
 30
0.0
  0
MTEXT
  5
B8C0
330
B7DA
100
AcDbEntity
  8
AM_5
 62
     2
100
AcDbMText
 10
218.624017864671
 20
204.2001207046332
 30
0.0
 40
3.2
 41
0.0
 71
     5
 72
     1
  1
54
 73
     1
 44
1.0
1001
ACAD
1000
MTEXTBEGIN
1070
    73
1070
     1
1070
    44
1040
1.0
1070
    74
1070
     0
1000
MTEXTEND
  0
POINT
  5
B8C1
330
B7DA
100
AcDbEntity
  8
Defpoints
 62
     0
100
AcDbPoint
 10
191.6240250172288
 20
191.1001207046362
 30
0.0
  0
POINT
  5
B8C2
330
B7DA
100
AcDbEntity
  8
Defpoints
 62
     0
100
AcDbPoint
 10
245.6240116657878
 20
195.1501237563942
 30
0.0
  0
POINT
  5
B8C3
330
B7DA
100
AcDbEntity
  8
Defpoints
 62
     0
100
AcDbPoint
 10
245.6240116657878
 20
201.1001207046332
 30
0.0
  0
ENDBLK
  5
B7E5
330
B7DA
100
AcDbEntity
  8
0
100
AcDbBlockEnd
  0
BLOCK
  5
B7EF
330
B7E6
100
AcDbEntity
  8
0
100
AcDbBlockBegin
  2
*D51
 70
     1
 10
0.0
 20
0.0
 30
0.0
  3
*D51
  1

  0
LINE
  5
B8C4
330
B7E6
100
AcDbEntity
  8
AM_5
100
AcDbLine
 10
299.6240078510898
 20
114.6001178436131
 30
0.0
 11
299.6240078510898
 21
202.1001207046332
 31
0.0
  0
LINE
  5
B8C5
330
B7E6
100
AcDbEntity
  8
AM_5
100
AcDbLine
 10
246.6240116657878
 20
201.1001207046332
 30
0.0
 11
298.6240078510898
 21
201.1001207046332
 31
0.0
  0
INSERT
  5
B8C6
330
B7E6
100
AcDbEntity
  8
AM_5
100
AcDbBlockReference
  2
_Dot
 10
245.6240116657878
 20
201.1001207046332
 30
0.0
 50
180.0
  0
INSERT
  5
B8C7
330
B7E6
100
AcDbEntity
  8
AM_5
100
AcDbBlockReference
  2
_Dot
 10
299.6240078510898
 20
201.1001207046332
 30
0.0
  0
MTEXT
  5
B8C8
330
B7E6
100
AcDbEntity
  8
AM_5
 62
     2
100
AcDbMText
 10
272.6240116657877
 20
204.2001207046332
 30
0.0
 40
3.2
 41
0.0
 71
     5
 72
     1
  1
54
 73
     1
 44
1.0
1001
ACAD
1000
MTEXTBEGIN
1070
    73
1070
     1
1070
    44
1040
1.0
1070
    74
1070
     0
1000
MTEXTEND
  0
POINT
  5
B8C9
330
B7E6
100
AcDbEntity
  8
Defpoints
 62
     0
100
AcDbPoint
 10
245.6240116657878
 20
195.1501237563942
 30
0.0
  0
POINT
  5
B8CA
330
B7E6
100
AcDbEntity
  8
Defpoints
 62
     0
100
AcDbPoint
 10
299.6240078510898
 20
113.6001178436131
 30
0.0
  0
POINT
  5
B8CB
330
B7E6
100
AcDbEntity
  8
Defpoints
 62
     0
100
AcDbPoint
 10
299.6240078510898
 20
201.1001207046332
 30
0.0
  0
ENDBLK
  5
B7F0
330
B7E6
100
AcDbEntity
  8
0
100
AcDbBlockEnd
  0
BLOCK
  5
B7FB
330
B7F1
100
AcDbEntity
  8
0
100
AcDbBlockBegin
  2
*D52
 70
     1
 10
0.0
 20
0.0
 30
0.0
  3
*D52
  1

  0
LINE
  5
B8CC
330
B7F1
100
AcDbEntity
  8
AM_5
100
AcDbLine
 10
191.6240250172288
 20
192.1001207046361
 30
0.0
 11
191.6240250172288
 21
212.1001207046332
 31
0.0
  0
LINE
  5
B8CD
330
B7F1
100
AcDbEntity
  8
AM_5
100
AcDbLine
 10
299.6240078510898
 20
114.6001178436131
 30
0.0
 11
299.6240078510898
 21
212.1001207046332
 31
0.0
  0
LINE
  5
B8CE
330
B7F1
100
AcDbEntity
  8
AM_5
100
AcDbLine
 10
192.6240250172287
 20
211.1001207046332
 30
0.0
 11
298.6240078510898
 21
211.1001207046332
 31
0.0
  0
INSERT
  5
B8CF
330
B7F1
100
AcDbEntity
  8
AM_5
100
AcDbBlockReference
  2
_Dot
 10
191.6240250172288
 20
211.1001207046332
 30
0.0
 50
180.0
  0
INSERT
  5
B8D0
330
B7F1
100
AcDbEntity
  8
AM_5
100
AcDbBlockReference
  2
_Dot
 10
299.6240078510898
 20
211.1001207046332
 30
0.0
  0
MTEXT
  5
B8D1
330
B7F1
100
AcDbEntity
  8
AM_5
 62
     2
100
AcDbMText
 10
245.6240192951818
 20
214.2001207046332
 30
0.0
 40
3.2
 41
0.0
 71
     5
 72
     1
  1
108
 73
     1
 44
1.0
1001
ACAD
1000
MTEXTBEGIN
1070
    73
1070
     1
1070
    44
1040
1.0
1070
    74
1070
     0
1000
MTEXTEND
  0
POINT
  5
B8D2
330
B7F1
100
AcDbEntity
  8
Defpoints
 62
     0
100
AcDbPoint
 10
191.6240250172288
 20
191.1001207046362
 30
0.0
  0
POINT
  5
B8D3
330
B7F1
100
AcDbEntity
  8
Defpoints
 62
     0
100
AcDbPoint
 10
299.6240078510898
 20
113.6001178436131
 30
0.0
  0
POINT
  5
B8D4
330
B7F1
100
AcDbEntity
  8
Defpoints
 62
     0
100
AcDbPoint
 10
299.6240078510898
 20
211.1001207046332
 30
0.0
  0
ENDBLK
  5
B7FC
330
B7F1
100
AcDbEntity
  8
0
100
AcDbBlockEnd
  0
BLOCK
  5
B807
330
B7FD
100
AcDbEntity
  8
0
100
AcDbBlockBegin
  2
*D53
 70
     1
 10
0.0
 20
0.0
 30
0.0
  3
*D53
  1

  0
LINE
  5
B8D5
330
B7FD
100
AcDbEntity
  8
AM_5
100
AcDbLine
 10
245.6240116657878
 20
233.2710878066832
 30
0.0
 11
245.6240116657878
 21
220.1710893325631
 31
0.0
  0
LINE
  5
B8D6
330
B7FD
100
AcDbEntity
  8
AM_5
100
AcDbLine
 10
259.6240192951817
 20
235.1710817031632
 30
0.0
 11
259.6240192951817
 21
220.1710893325631
 31
0.0
  0
LINE
  5
B8D7
330
B7FD
100
AcDbEntity
  8
AM_5
100
AcDbLine
 10
246.6240116657878
 20
221.1710893325632
 30
0.0
 11
258.6240192951818
 21
221.1710893325632
 31
0.0
  0
INSERT
  5
B8D8
330
B7FD
100
AcDbEntity
  8
AM_5
100
AcDbBlockReference
  2
_Dot
 10
245.6240116657878
 20
221.1710893325632
 30
0.0
 50
180.0
  0
INSERT
  5
B8D9
330
B7FD
100
AcDbEntity
  8
AM_5
100
AcDbBlockReference
  2
_Dot
 10
259.6240192951817
 20
221.1710893325632
 30
0.0
  0
MTEXT
  5
B8DA
330
B7FD
100
AcDbEntity
  8
AM_5
 62
     2
100
AcDbMText
 10
252.6240154804848
 20
224.2710893325631
 30
0.0
 40
3.2
 41
0.0
 71
     5
 72
     1
  1
14
 73
     1
 44
1.0
1001
ACAD
1000
MTEXTBEGIN
1070
    73
1070
     1
1070
    44
1040
1.0
1070
    74
1070
     0
1000
MTEXTEND
  0
POINT
  5
B8DB
330
B7FD
100
AcDbEntity
  8
Defpoints
 62
     0
100
AcDbPoint
 10
245.6240116657878
 20
234.2710878066831
 30
0.0
  0
POINT
  5
B8DC
330
B7FD
100
AcDbEntity
  8
Defpoints
 62
     0
100
AcDbPoint
 10
259.6240192951817
 20
236.1710817031632
 30
0.0
  0
POINT
  5
B8DD
330
B7FD
100
AcDbEntity
  8
Defpoints
 62
     0
100
AcDbPoint
 10
259.6240192951817
 20
221.1710893325632
 30
0.0
  0
ENDBLK
  5
B808
330
B7FD
100
AcDbEntity
  8
0
100
AcDbBlockEnd
  0
BLOCK
  5
B813
330
B809
100
AcDbEntity
  8
0
100
AcDbBlockBegin
  2
*D54
 70
     1
 10
0.0
 20
0.0
 30
0.0
  3
*D54
  1

  0
LINE
  5
B8DE
330
B809
100
AcDbEntity
  8
AM_5
100
AcDbLine
 10
245.6240116657878
 20
31.79792038725417
 30
0.0
 11
245.6240116657878
 21
23.10011307524317
 31
0.0
  0
LINE
  5
B8DF
330
B809
100
AcDbEntity
  8
AM_5
100
AcDbLine
 10
276.6240078510898
 20
46.42010132597516
 30
0.0
 11
276.6240078510898
 21
23.10011307524317
 31
0.0
  0
LINE
  5
B8E0
330
B809
100
AcDbEntity
  8
AM_5
100
AcDbLine
 10
246.6240116657878
 20
24.10011307524317
 30
0.0
 11
275.6240078510898
 21
24.10011307524317
 31
0.0
  0
INSERT
  5
B8E1
330
B809
100
AcDbEntity
  8
AM_5
100
AcDbBlockReference
  2
_Dot
 10
245.6240116657878
 20
24.10011307524317
 30
0.0
 50
180.0
  0
INSERT
  5
B8E2
330
B809
100
AcDbEntity
  8
AM_5
100
AcDbBlockReference
  2
_Dot
 10
276.6240078510898
 20
24.10011307524317
 30
0.0
  0
MTEXT
  5
B8E3
330
B809
100
AcDbEntity
  8
AM_5
 62
     2
100
AcDbMText
 10
261.1240116657878
 20
27.20011307524317
 30
0.0
 40
3.2
 41
0.0
 71
     5
 72
     1
  1
31
 73
     1
 44
1.0
1001
ACAD
1000
MTEXTBEGIN
1070
    73
1070
     1
1070
    44
1040
1.0
1070
    74
1070
     0
1000
MTEXTEND
  0
POINT
  5
B8E4
330
B809
100
AcDbEntity
  8
Defpoints
 62
     0
100
AcDbPoint
 10
245.6240116657878
 20
32.79792038725417
 30
0.0
  0
POINT
  5
B8E5
330
B809
100
AcDbEntity
  8
Defpoints
 62
     0
100
AcDbPoint
 10
276.6240078510898
 20
47.42010132597516
 30
0.0
  0
POINT
  5
B8E6
330
B809
100
AcDbEntity
  8
Defpoints
 62
     0
100
AcDbPoint
 10
276.6240078510898
 20
24.10011307524317
 30
0.0
  0
ENDBLK
  5
B814
330
B809
100
AcDbEntity
  8
0
100
AcDbBlockEnd
  0
BLOCK
  5
B81F
330
B815
100
AcDbEntity
  8
0
100
AcDbBlockBegin
  2
*D55
 70
     1
 10
0.0
 20
0.0
 30
0.0
  3
*D55
  1

  0
LINE
  5
B8E7
330
B815
100
AcDbEntity
  8
AM_5
100
AcDbLine
 10
276.6240078510898
 20
46.42010132597516
 30
0.0
 11
276.6240078510898
 21
23.10011307524317
 31
0.0
  0
LINE
  5
B8E8
330
B815
100
AcDbEntity
  8
AM_5
100
AcDbLine
 10
294.6240078510898
 20
47.85010926054518
 30
0.0
 11
294.6240078510898
 21
23.10011307524317
 31
0.0
  0
LINE
  5
B8E9
330
B815
100
AcDbEntity
  8
AM_5
100
AcDbLine
 10
277.6240078510898
 20
24.10011307524317
 30
0.0
 11
293.6240078510898
 21
24.10011307524317
 31
0.0
  0
INSERT
  5
B8EA
330
B815
100
AcDbEntity
  8
AM_5
100
AcDbBlockReference
  2
_Dot
 10
276.6240078510898
 20
24.10011307524317
 30
0.0
 50
180.0
  0
INSERT
  5
B8EB
330
B815
100
AcDbEntity
  8
AM_5
100
AcDbBlockReference
  2
_Dot
 10
294.6240078510898
 20
24.10011307524317
 30
0.0
  0
MTEXT
  5
B8EC
330
B815
100
AcDbEntity
  8
AM_5
 62
     2
100
AcDbMText
 10
285.6240078510897
 20
27.20011307524317
 30
0.0
 40
3.2
 41
0.0
 71
     5
 72
     1
  1
18
 73
     1
 44
1.0
1001
ACAD
1000
MTEXTBEGIN
1070
    73
1070
     1
1070
    44
1040
1.0
1070
    74
1070
     0
1000
MTEXTEND
  0
POINT
  5
B8ED
330
B815
100
AcDbEntity
  8
Defpoints
 62
     0
100
AcDbPoint
 10
276.6240078510898
 20
47.42010132597516
 30
0.0
  0
POINT
  5
B8EE
330
B815
100
AcDbEntity
  8
Defpoints
 62
     0
100
AcDbPoint
 10
294.6240078510898
 20
48.85010926054518
 30
0.0
  0
POINT
  5
B8EF
330
B815
100
AcDbEntity
  8
Defpoints
 62
     0
100
AcDbPoint
 10
294.6240078510898
 20
24.10011307524317
 30
0.0
  0
ENDBLK
  5
B820
330
B815
100
AcDbEntity
  8
0
100
AcDbBlockEnd
  0
BLOCK
  5
B82A
330
B821
100
AcDbEntity
  8
0
100
AcDbBlockBegin
  2
*D56
 70
     1
 10
0.0
 20
0.0
 30
0.0
  3
*D56
  1

  0
LINE
  5
B8F0
330
B821
100
AcDbEntity
  8
AM_5
100
AcDbLine
 10
299.6240078510898
 20
38.10010926054516
 30
0.0
 11
299.6240078510898
 21
23.10011307524317
 31
0.0
  0
LINE
  5
B8F1
330
B821
100
AcDbEntity
  8
AM_5
100
AcDbLine
 10
295.6240078510898
 20
24.10011307524317
 30
0.0
 11
298.6240078510898
 21
24.10011307524317
 31
0.0
  0
INSERT
  5
B8F2
330
B821
100
AcDbEntity
  8
AM_5
100
AcDbBlockReference
  2
_Dot
 10
294.6240078510898
 20
24.10011307524317
 30
0.0
 50
180.0
  0
INSERT
  5
B8F3
330
B821
100
AcDbEntity
  8
AM_5
100
AcDbBlockReference
  2
_Dot
 10
299.6240078510898
 20
24.10011307524317
 30
0.0
  0
MTEXT
  5
B8F4
330
B821
100
AcDbEntity
  8
AM_5
 62
     2
100
AcDbMText
 10
297.1240078510898
 20
27.20011307524317
 30
0.0
 40
3.2
 41
0.0
 71
     5
 72
     1
  1
5
 73
     1
 44
1.0
1001
ACAD
1000
MTEXTBEGIN
1070
    73
1070
     1
1070
    44
1040
1.0
1070
    74
1070
     0
1000
MTEXTEND
  0
POINT
  5
B8F5
330
B821
100
AcDbEntity
  8
Defpoints
 62
     0
100
AcDbPoint
 10
294.6240078510898
 20
48.85010926054518
 30
0.0
  0
POINT
  5
B8F6
330
B821
100
AcDbEntity
  8
Defpoints
 62
     0
100
AcDbPoint
 10
299.6240078510898
 20
39.10010926054516
 30
0.0
  0
POINT
  5
B8F7
330
B821
100
AcDbEntity
  8
Defpoints
 62
     0
100
AcDbPoint
 10
299.6240078510898
 20
24.10011307524317
 30
0.0
  0
ENDBLK
  5
B82B
330
B821
100
AcDbEntity
  8
0
100
AcDbBlockEnd
  0
BLOCK
  5
B836
330
B82C
100
AcDbEntity
  8
0
100
AcDbBlockBegin
  2
*D57
 70
     1
 10
0.0
 20
0.0
 30
0.0
  3
*D57
  1

  0
LINE
  5
B8F8
330
B82C
100
AcDbEntity
  8
AM_5
100
AcDbLine
 10
300.6240078510898
 20
39.10010926054516
 30
0.0
 11
315.6240078510898
 21
39.10010926054516
 31
0.0
  0
LINE
  5
B8F9
330
B82C
100
AcDbEntity
  8
AM_5
100
AcDbLine
 10
301.1240078510898
 20
54.3501092605452
 30
0.0
 11
315.6240078510898
 21
54.35010926054519
 31
0.0
  0
LINE
  5
B8FA
330
B82C
100
AcDbEntity
  8
AM_5
100
AcDbLine
 10
314.6240078510898
 20
40.10010926054515
 30
0.0
 11
314.6240078510898
 21
53.35010926054518
 31
0.0
  0
INSERT
  5
B8FB
330
B82C
100
AcDbEntity
  8
AM_5
100
AcDbBlockReference
  2
_Dot
 10
314.6240078510898
 20
39.10010926054516
 30
0.0
 50
270.0
  0
INSERT
  5
B8FC
330
B82C
100
AcDbEntity
  8
AM_5
100
AcDbBlockReference
  2
_Dot
 10
314.6240078510898
 20
54.35010926054519
 30
0.0
 50
90.0
  0
MTEXT
  5
B8FD
330
B82C
100
AcDbEntity
  8
AM_5
 62
     2
100
AcDbMText
 10
311.5240078510898
 20
46.72510926054516
 30
0.0
 40
3.2
 41
0.0
 71
     5
 72
     1
  1
15.25
 11
0.0000000000000001
 21
1.0
 31
0.0
 73
     1
 44
1.0
1001
ACAD
1000
MTEXTBEGIN
1070
    73
1070
     1
1070
    44
1040
1.0
1070
    74
1070
     0
1000
MTEXTEND
  0
POINT
  5
B8FE
330
B82C
100
AcDbEntity
  8
Defpoints
 62
     0
100
AcDbPoint
 10
299.6240078510898
 20
39.10010926054516
 30
0.0
  0
POINT
  5
B8FF
330
B82C
100
AcDbEntity
  8
Defpoints
 62
     0
100
AcDbPoint
 10
300.1240078510898
 20
54.3501092605452
 30
0.0
  0
POINT
  5
B900
330
B82C
100
AcDbEntity
  8
Defpoints
 62
     0
100
AcDbPoint
 10
314.6240078510898
 20
54.35010926054519
 30
0.0
  0
ENDBLK
  5
B837
330
B82C
100
AcDbEntity
  8
0
100
AcDbBlockEnd
  0
BLOCK
  5
B841
330
B838
100
AcDbEntity
  8
0
100
AcDbBlockBegin
  2
*D58
 70
     1
 10
0.0
 20
0.0
 30
0.0
  3
*D58
  1

  0
LINE
  5
B901
330
B838
100
AcDbEntity
  8
AM_5
100
AcDbLine
 10
301.7140041889807
 20
98.35011736677667
 30
0.0
 11
315.6240078510898
 21
98.35011736677667
 31
0.0
  0
LINE
  5
B902
330
B838
100
AcDbEntity
  8
AM_5
100
AcDbLine
 10
314.6240078510898
 20
55.35010926054519
 30
0.0
 11
314.6240078510898
 21
97.35011736677668
 31
0.0
  0
INSERT
  5
B903
330
B838
100
AcDbEntity
  8
AM_5
100
AcDbBlockReference
  2
_Dot
 10
314.6240078510898
 20
54.35010926054519
 30
0.0
 50
270.0
  0
INSERT
  5
B904
330
B838
100
AcDbEntity
  8
AM_5
100
AcDbBlockReference
  2
_Dot
 10
314.6240078510898
 20
98.35011736677667
 30
0.0
 50
90.0
  0
MTEXT
  5
B905
330
B838
100
AcDbEntity
  8
AM_5
 62
     2
100
AcDbMText
 10
311.5240078510898
 20
76.35011307524317
 30
0.0
 40
3.2
 41
0.0
 71
     5
 72
     1
  1
44
 11
0.0000000000000001
 21
1.0
 31
0.0
 73
     1
 44
1.0
1001
ACAD
1000
MTEXTBEGIN
1070
    73
1070
     1
1070
    44
1040
1.0
1070
    74
1070
     0
1000
MTEXTEND
  0
POINT
  5
B906
330
B838
100
AcDbEntity
  8
Defpoints
 62
     0
100
AcDbPoint
 10
300.1240078510898
 20
54.3501092605452
 30
0.0
  0
POINT
  5
B907
330
B838
100
AcDbEntity
  8
Defpoints
 62
     0
100
AcDbPoint
 10
300.7140041889808
 20
98.35011736677667
 30
0.0
  0
POINT
  5
B908
330
B838
100
AcDbEntity
  8
Defpoints
 62
     0
100
AcDbPoint
 10
314.6240078510898
 20
98.35011736677667
 30
0.0
  0
ENDBLK
  5
B842
330
B838
100
AcDbEntity
  8
0
100
AcDbBlockEnd
  0
BLOCK
  5
B84C
330
B843
100
AcDbEntity
  8
0
100
AcDbBlockBegin
  2
*D59
 70
     1
 10
0.0
 20
0.0
 30
0.0
  3
*D59
  1

  0
LINE
  5
B909
330
B843
100
AcDbEntity
  8
AM_5
100
AcDbLine
 10
300.6240078510898
 20
113.6001178436131
 30
0.0
 11
315.6240078510898
 21
113.6001178436131
 31
0.0
  0
LINE
  5
B90A
330
B843
100
AcDbEntity
  8
AM_5
100
AcDbLine
 10
314.6240078510898
 20
99.35011736677667
 30
0.0
 11
314.6240078510898
 21
112.6001178436132
 31
0.0
  0
INSERT
  5
B90B
330
B843
100
AcDbEntity
  8
AM_5
100
AcDbBlockReference
  2
_Dot
 10
314.6240078510898
 20
98.35011736677667
 30
0.0
 50
270.0
  0
INSERT
  5
B90C
330
B843
100
AcDbEntity
  8
AM_5
100
AcDbBlockReference
  2
_Dot
 10
314.6240078510898
 20
113.6001178436131
 30
0.0
 50
90.0
  0
MTEXT
  5
B90D
330
B843
100
AcDbEntity
  8
AM_5
 62
     2
100
AcDbMText
 10
311.5240078510898
 20
105.9751173667766
 30
0.0
 40
3.2
 41
0.0
 71
     5
 72
     1
  1
15.25
 11
0.0000000000000001
 21
1.0
 31
0.0
 73
     1
 44
1.0
1001
ACAD
1000
MTEXTBEGIN
1070
    73
1070
     1
1070
    44
1040
1.0
1070
    74
1070
     0
1000
MTEXTEND
  0
POINT
  5
B90E
330
B843
100
AcDbEntity
  8
Defpoints
 62
     0
100
AcDbPoint
 10
300.7140041889808
 20
98.35011736677667
 30
0.0
  0
POINT
  5
B90F
330
B843
100
AcDbEntity
  8
Defpoints
 62
     0
100
AcDbPoint
 10
299.6240078510898
 20
113.6001178436131
 30
0.0
  0
POINT
  5
B910
330
B843
100
AcDbEntity
  8
Defpoints
 62
     0
100
AcDbPoint
 10
314.6240078510898
 20
113.6001178436131
 30
0.0
  0
ENDBLK
  5
B84D
330
B843
100
AcDbEntity
  8
0
100
AcDbBlockEnd
  0
BLOCK
  5
B858
330
B84E
100
AcDbEntity
  8
0
100
AcDbBlockBegin
  2
*D60
 70
     1
 10
0.0
 20
0.0
 30
0.0
  3
*D60
  1

  0
LINE
  5
B911
330
B84E
100
AcDbEntity
  8
AM_5
100
AcDbLine
 10
300.6240078510898
 20
39.10010926054516
 30
0.0
 11
325.6240078510898
 21
39.10010926054516
 31
0.0
  0
LINE
  5
B912
330
B84E
100
AcDbEntity
  8
AM_5
100
AcDbLine
 10
300.6240078510898
 20
113.6001178436131
 30
0.0
 11
325.6240078510898
 21
113.6001178436131
 31
0.0
  0
LINE
  5
B913
330
B84E
100
AcDbEntity
  8
AM_5
100
AcDbLine
 10
324.6240078510898
 20
40.10010926054515
 30
0.0
 11
324.6240078510898
 21
112.6001178436132
 31
0.0
  0
INSERT
  5
B914
330
B84E
100
AcDbEntity
  8
AM_5
100
AcDbBlockReference
  2
_Dot
 10
324.6240078510898
 20
39.10010926054516
 30
0.0
 50
270.0
  0
INSERT
  5
B915
330
B84E
100
AcDbEntity
  8
AM_5
100
AcDbBlockReference
  2
_Dot
 10
324.6240078510898
 20
113.6001178436131
 30
0.0
 50
90.0
  0
MTEXT
  5
B916
330
B84E
100
AcDbEntity
  8
AM_5
 62
     2
100
AcDbMText
 10
321.5240078510898
 20
76.35011307524317
 30
0.0
 40
3.2
 41
0.0
 71
     5
 72
     1
  1
74.5
 11
0.0000000000000001
 21
1.0
 31
0.0
 73
     1
 44
1.0
1001
ACAD
1000
MTEXTBEGIN
1070
    73
1070
     1
1070
    44
1040
1.0
1070
    74
1070
     0
1000
MTEXTEND
  0
POINT
  5
B917
330
B84E
100
AcDbEntity
  8
Defpoints
 62
     0
100
AcDbPoint
 10
299.6240078510898
 20
39.10010926054516
 30
0.0
  0
POINT
  5
B918
330
B84E
100
AcDbEntity
  8
Defpoints
 62
     0
100
AcDbPoint
 10
299.6240078510898
 20
113.6001178436131
 30
0.0
  0
POINT
  5
B919
330
B84E
100
AcDbEntity
  8
Defpoints
 62
     0
100
AcDbPoint
 10
324.6240078510898
 20
113.6001178436131
 30
0.0
  0
ENDBLK
  5
B859
330
B84E
100
AcDbEntity
  8
0
100
AcDbBlockEnd
  0
BLOCK
  5
B865
330
B85A
100
AcDbEntity
  8
0
100
AcDbBlockBegin
  2
*D61
 70
     1
 10
0.0
 20
0.0
 30
0.0
  3
*D61
  1

  0
LINE
  5
B91A
330
B85A
100
AcDbEntity
  8
AM_5
100
AcDbLine
 10
256.6240116657878
 20
116.6001168899391
 30
0.0
 11
325.6240078510898
 21
116.6001168899391
 31
0.0
  0
LINE
  5
B91B
330
B85A
100
AcDbEntity
  8
AM_5
100
AcDbLine
 10
324.6240078510898
 20
112.6001178436132
 30
0.0
 11
324.6240078510898
 21
111.6001178436132
 31
0.0
  0
LINE
  5
B91C
330
B85A
100
AcDbEntity
  8
AM_5
100
AcDbLine
 10
324.6240078510898
 20
117.6001168899391
 30
0.0
 11
324.6240078510898
 21
118.6001168899391
 31
0.0
  0
LINE
  5
B91D
330
B85A
100
AcDbEntity
  8
AM_5
100
AcDbLine
 10
324.6240078510898
 20
113.6001178436131
 30
0.0
 11
324.6240078510898
 21
116.6001168899391
 31
0.0
  0
INSERT
  5
B91E
330
B85A
100
AcDbEntity
  8
AM_5
100
AcDbBlockReference
  2
_Dot
 10
324.6240078510898
 20
113.6001178436131
 30
0.0
 50
90.0
  0
INSERT
  5
B91F
330
B85A
100
AcDbEntity
  8
AM_5
100
AcDbBlockReference
  2
_Dot
 10
324.6240078510898
 20
116.6001168899391
 30
0.0
 50
270.0
  0
MTEXT
  5
B920
330
B85A
100
AcDbEntity
  8
AM_5
 62
     2
100
AcDbMText
 10
321.5240078510898
 20
115.1001173667762
 30
0.0
 40
3.2
 41
0.0
 71
     5
 72
     1
  1
3
 11
0.0000000000000001
 21
1.0
 31
0.0
 73
     1
 44
1.0
1001
ACAD
1000
MTEXTBEGIN
1070
    73
1070
     1
1070
    44
1040
1.0
1070
    74
1070
     0
1000
MTEXTEND
  0
POINT
  5
B921
330
B85A
100
AcDbEntity
  8
Defpoints
 62
     0
100
AcDbPoint
 10
299.6240078510898
 20
113.6001178436131
 30
0.0
  0
POINT
  5
B922
330
B85A
100
AcDbEntity
  8
Defpoints
 62
     0
100
AcDbPoint
 10
255.6240116657877
 20
116.6001168899391
 30
0.0
  0
POINT
  5
B923
330
B85A
100
AcDbEntity
  8
Defpoints
 62
     0
100
AcDbPoint
 10
324.6240078510898
 20
116.6001168899391
 30
0.0
  0
ENDBLK
  5
B866
330
B85A
100
AcDbEntity
  8
0
100
AcDbBlockEnd
  0
BLOCK
  5
B870
330
B867
100
AcDbEntity
  8
0
100
AcDbBlockBegin
  2
*D62
 70
     1
 10
0.0
 20
0.0
 30
0.0
  3
*D62
  1

  0
LINE
  5
B924
330
B867
100
AcDbEntity
  8
AM_5
100
AcDbLine
 10
256.6240116657878
 20
191.1001207046362
 30
0.0
 11
325.6240078510899
 21
191.1001207046361
 31
0.0
  0
LINE
  5
B925
330
B867
100
AcDbEntity
  8
AM_5
100
AcDbLine
 10
324.6240078510898
 20
117.6001168899391
 30
0.0
 11
324.6240078510898
 21
190.1001207046361
 31
0.0
  0
INSERT
  5
B926
330
B867
100
AcDbEntity
  8
AM_5
100
AcDbBlockReference
  2
_Dot
 10
324.6240078510898
 20
116.6001168899391
 30
0.0
 50
270.0
  0
INSERT
  5
B927
330
B867
100
AcDbEntity
  8
AM_5
100
AcDbBlockReference
  2
_Dot
 10
324.6240078510898
 20
191.1001207046361
 30
0.0
 50
90.0
  0
MTEXT
  5
B928
330
B867
100
AcDbEntity
  8
AM_5
 62
     2
100
AcDbMText
 10
321.5240078510898
 20
153.8501168899391
 30
0.0
 40
3.2
 41
0.0
 71
     5
 72
     1
  1
74.5
 11
0.0000000000000001
 21
1.0
 31
0.0
 73
     1
 44
1.0
1001
ACAD
1000
MTEXTBEGIN
1070
    73
1070
     1
1070
    44
1040
1.0
1070
    74
1070
     0
1000
MTEXTEND
  0
POINT
  5
B929
330
B867
100
AcDbEntity
  8
Defpoints
 62
     0
100
AcDbPoint
 10
255.6240116657877
 20
116.6001168899391
 30
0.0
  0
POINT
  5
B92A
330
B867
100
AcDbEntity
  8
Defpoints
 62
     0
100
AcDbPoint
 10
255.6240116657877
 20
191.1001207046362
 30
0.0
  0
POINT
  5
B92B
330
B867
100
AcDbEntity
  8
Defpoints
 62
     0
100
AcDbPoint
 10
324.6240078510898
 20
191.1001207046361
 30
0.0
  0
ENDBLK
  5
B871
330
B867
100
AcDbEntity
  8
0
100
AcDbBlockEnd
  0
BLOCK
  5
B87E
330
B872
100
AcDbEntity
  8
0
100
AcDbBlockBegin
  2
*D63
 70
     1
 10
0.0
 20
0.0
 30
0.0
  3
*D63
  1

  0
LINE
  5
B92C
330
B872
100
AcDbEntity
  8
AM_5
100
AcDbLine
 10
300.6240078510898
 20
260.1710969619531
 30
0.0
 11
315.6240078510898
 21
260.1710969619531
 31
0.0
  0
LINE
  5
B92D
330
B872
100
AcDbEntity
  8
AM_5
100
AcDbLine
 10
300.6240078510898
 20
256.1710969619531
 30
0.0
 11
315.6240078510898
 21
256.1710969619531
 31
0.0
  0
LINE
  5
B92E
330
B872
100
AcDbEntity
  8
AM_5
100
AcDbLine
 10
314.6240078510898
 20
261.1710969619531
 30
0.0
 11
314.6240078510898
 21
262.1710969619531
 31
0.0
  0
LINE
  5
B92F
330
B872
100
AcDbEntity
  8
AM_5
100
AcDbLine
 10
314.6240078510898
 20
255.1710969619531
 30
0.0
 11
314.6240078510898
 21
254.1710969619531
 31
0.0
  0
MTEXT
  5
B930
330
B872
100
AcDbEntity
  8
AM_5
 62
     2
100
AcDbMText
 10
311.5240078510898
 20
258.1710969619531
 30
0.0
 40
3.2
 41
0.0
 71
     5
 72
     1
  1
4
 11
0.0000000000000001
 21
1.0
 31
0.0
 73
     1
 44
1.0
1001
ACAD
1000
MTEXTBEGIN
1070
    73
1070
     1
1070
    44
1040
1.0
1070
    74
1070
     0
1000
MTEXTEND
  0
LINE
  5
B931
330
B872
100
AcDbEntity
  8
AM_5
100
AcDbLine
 10
314.6240078510898
 20
260.1710969619531
 30
0.0
 11
314.6240078510898
 21
256.1710969619531
 31
0.0
  0
INSERT
  5
B932
330
B872
100
AcDbEntity
  8
AM_5
100
AcDbBlockReference
  2
_Dot
 10
314.6240078510898
 20
260.1710969619531
 30
0.0
 50
270.0
  0
INSERT
  5
B933
330
B872
100
AcDbEntity
  8
AM_5
100
AcDbBlockReference
  2
_Dot
 10
314.6240078510898
 20
256.1710969619531
 30
0.0
 50
90.0
  0
POINT
  5
B934
330
B872
100
AcDbEntity
  8
Defpoints
 62
     0
100
AcDbPoint
 10
299.6240078510898
 20
260.1710969619531
 30
0.0
  0
POINT
  5
B935
330
B872
100
AcDbEntity
  8
Defpoints
 62
     0
100
AcDbPoint
 10
299.6240078510898
 20
256.1710969619531
 30
0.0
  0
POINT
  5
B936
330
B872
100
AcDbEntity
  8
Defpoints
 62
     0
100
AcDbPoint
 10
314.6240078510898
 20
256.1710969619531
 30
0.0
  0
ENDBLK
  5
B87F
330
B872
100
AcDbEntity
  8
0
100
AcDbBlockEnd
  0
BLOCK
  5
B889
330
B880
100
AcDbEntity
  8
0
100
AcDbBlockBegin
  2
*D64
 70
     1
 10
0.0
 20
0.0
 30
0.0
  3
*D64
  1

  0
LINE
  5
B937
330
B880
100
AcDbEntity
  8
AM_5
100
AcDbLine
 10
261.0240055622718
 20
247.1710817031632
 30
0.0
 11
315.6240078510899
 21
247.1710817031632
 31
0.0
  0
LINE
  5
B938
330
B880
100
AcDbEntity
  8
AM_5
100
AcDbLine
 10
314.6240078510899
 20
255.1710969619531
 30
0.0
 11
314.6240078510899
 21
248.1710817031632
 31
0.0
  0
INSERT
  5
B939
330
B880
100
AcDbEntity
  8
AM_5
100
AcDbBlockReference
  2
_Dot
 10
314.6240078510899
 20
256.1710969619531
 30
0.0
 50
90.0
  0
INSERT
  5
B93A
330
B880
100
AcDbEntity
  8
AM_5
100
AcDbBlockReference
  2
_Dot
 10
314.6240078510899
 20
247.1710817031632
 30
0.0
 50
270.0
  0
MTEXT
  5
B93B
330
B880
100
AcDbEntity
  8
AM_5
 62
     2
100
AcDbMText
 10
311.5240078510898
 20
251.6710817031632
 30
0.0
 40
3.2
 41
0.0
 71
     5
 72
     1
  1
9
 11
0.0000000000000001
 21
1.0
 31
0.0
 73
     1
 44
1.0
1001
ACAD
1000
MTEXTBEGIN
1070
    73
1070
     1
1070
    44
1040
1.0
1070
    74
1070
     0
1000
MTEXTEND
  0
POINT
  5
B93C
330
B880
100
AcDbEntity
  8
Defpoints
 62
     0
100
AcDbPoint
 10
299.6240078510898
 20
256.1710969619531
 30
0.0
  0
POINT
  5
B93D
330
B880
100
AcDbEntity
  8
Defpoints
 62
     0
100
AcDbPoint
 10
260.0240055622718
 20
247.1710817031632
 30
0.0
  0
POINT
  5
B93E
330
B880
100
AcDbEntity
  8
Defpoints
 62
     0
100
AcDbPoint
 10
314.6240078510899
 20
247.1710817031632
 30
0.0
  0
ENDBLK
  5
B88A
330
B880
100
AcDbEntity
  8
0
100
AcDbBlockEnd
  0
BLOCK
  5
B894
330
B88B
100
AcDbEntity
  8
0
100
AcDbBlockBegin
  2
*D65
 70
     1
 10
0.0
 20
0.0
 30
0.0
  3
*D65
  1

  0
LINE
  5
B93F
330
B88B
100
AcDbEntity
  8
AM_5
100
AcDbLine
 10
300.6240078510898
 20
240.1710817031632
 30
0.0
 11
315.6240078510899
 21
240.1710817031632
 31
0.0
  0
LINE
  5
B940
330
B88B
100
AcDbEntity
  8
AM_5
100
AcDbLine
 10
314.6240078510899
 20
246.1710817031632
 30
0.0
 11
314.6240078510899
 21
241.1710817031632
 31
0.0
  0
INSERT
  5
B941
330
B88B
100
AcDbEntity
  8
AM_5
100
AcDbBlockReference
  2
_Dot
 10
314.6240078510899
 20
247.1710817031632
 30
0.0
 50
90.0
  0
INSERT
  5
B942
330
B88B
100
AcDbEntity
  8
AM_5
100
AcDbBlockReference
  2
_Dot
 10
314.6240078510899
 20
240.1710817031632
 30
0.0
 50
270.0
  0
MTEXT
  5
B943
330
B88B
100
AcDbEntity
  8
AM_5
 62
     2
100
AcDbMText
 10
311.5240078510898
 20
243.6710817031632
 30
0.0
 40
3.2
 41
0.0
 71
     5
 72
     1
  1
7
 11
0.0000000000000001
 21
1.0
 31
0.0
 73
     1
 44
1.0
1001
ACAD
1000
MTEXTBEGIN
1070
    73
1070
     1
1070
    44
1040
1.0
1070
    74
1070
     0
1000
MTEXTEND
  0
POINT
  5
B944
330
B88B
100
AcDbEntity
  8
Defpoints
 62
     0
100
AcDbPoint
 10
260.0240055622718
 20
247.1710817031632
 30
0.0
  0
POINT
  5
B945
330
B88B
100
AcDbEntity
  8
Defpoints
 62
     0
100
AcDbPoint
 10
299.6240078510898
 20
240.1710817031632
 30
0.0
  0
POINT
  5
B946
330
B88B
100
AcDbEntity
  8
Defpoints
 62
     0
100
AcDbPoint
 10
314.6240078510899
 20
240.1710817031632
 30
0.0
  0
ENDBLK
  5
B895
330
B88B
100
AcDbEntity
  8
0
100
AcDbBlockEnd
  0
BLOCK
  5
B8A1
330
B896
100
AcDbEntity
  8
0
100
AcDbBlockBegin
  2
*D66
 70
     1
 10
0.0
 20
0.0
 30
0.0
  3
*D66
  1

  0
LINE
  5
B947
330
B896
100
AcDbEntity
  8
AM_5
100
AcDbLine
 10
300.6240078510898
 20
236.1710817031632
 30
0.0
 11
315.6240078510898
 21
236.1710817031632
 31
0.0
  0
LINE
  5
B948
330
B896
100
AcDbEntity
  8
AM_5
100
AcDbLine
 10
314.6240078510898
 20
241.1710817031632
 30
0.0
 11
314.6240078510898
 21
242.1710817031632
 31
0.0
  0
LINE
  5
B949
330
B896
100
AcDbEntity
  8
AM_5
100
AcDbLine
 10
314.6240078510898
 20
235.1710817031632
 30
0.0
 11
314.6240078510898
 21
234.1710817031632
 31
0.0
  0
MTEXT
  5
B94A
330
B896
100
AcDbEntity
  8
AM_5
 62
     2
100
AcDbMText
 10
311.5240078510898
 20
238.1710817031632
 30
0.0
 40
3.2
 41
0.0
 71
     5
 72
     1
  1
4
 11
0.0000000000000001
 21
1.0
 31
0.0
 73
     1
 44
1.0
1001
ACAD
1000
MTEXTBEGIN
1070
    73
1070
     1
1070
    44
1040
1.0
1070
    74
1070
     0
1000
MTEXTEND
  0
LINE
  5
B94B
330
B896
100
AcDbEntity
  8
AM_5
100
AcDbLine
 10
314.6240078510898
 20
240.1710817031632
 30
0.0
 11
314.6240078510898
 21
236.1710817031632
 31
0.0
  0
INSERT
  5
B94C
330
B896
100
AcDbEntity
  8
AM_5
100
AcDbBlockReference
  2
_Dot
 10
314.6240078510898
 20
240.1710817031632
 30
0.0
 50
270.0
  0
INSERT
  5
B94D
330
B896
100
AcDbEntity
  8
AM_5
100
AcDbBlockReference
  2
_Dot
 10
314.6240078510898
 20
236.1710817031632
 30
0.0
 50
90.0
  0
POINT
  5
B94E
330
B896
100
AcDbEntity
  8
Defpoints
 62
     0
100
AcDbPoint
 10
299.6240078510898
 20
240.1710817031632
 30
0.0
  0
POINT
  5
B94F
330
B896
100
AcDbEntity
  8
Defpoints
 62
     0
100
AcDbPoint
 10
299.6240078510898
 20
236.1710817031632
 30
0.0
  0
POINT
  5
B950
330
B896
100
AcDbEntity
  8
Defpoints
 62
     0
100
AcDbPoint
 10
314.6240078510898
 20
236.1710817031632
 30
0.0
  0
ENDBLK
  5
B8A2
330
B896
100
AcDbEntity
  8
0
100
AcDbBlockEnd
  0
BLOCK
  5
B8AD
330
B8A3
100
AcDbEntity
  8
0
100
AcDbBlockBegin
  2
*D67
 70
     1
 10
0.0
 20
0.0
 30
0.0
  3
*D67
  1

  0
LINE
  5
B951
330
B8A3
100
AcDbEntity
  8
AM_5
100
AcDbLine
 10
300.6240078510898
 20
260.1710969619531
 30
0.0
 11
325.6240078510899
 21
260.1710969619531
 31
0.0
  0
LINE
  5
B952
330
B8A3
100
AcDbEntity
  8
AM_5
100
AcDbLine
 10
300.6240078510898
 20
236.1710817031632
 30
0.0
 11
325.6240078510899
 21
236.1710817031632
 31
0.0
  0
LINE
  5
B953
330
B8A3
100
AcDbEntity
  8
AM_5
100
AcDbLine
 10
324.6240078510898
 20
259.1710969619531
 30
0.0
 11
324.6240078510898
 21
237.1710817031632
 31
0.0
  0
INSERT
  5
B954
330
B8A3
100
AcDbEntity
  8
AM_5
100
AcDbBlockReference
  2
_Dot
 10
324.6240078510898
 20
260.1710969619531
 30
0.0
 50
90.0
  0
INSERT
  5
B955
330
B8A3
100
AcDbEntity
  8
AM_5
100
AcDbBlockReference
  2
_Dot
 10
324.6240078510898
 20
236.1710817031632
 30
0.0
 50
270.0
  0
MTEXT
  5
B956
330
B8A3
100
AcDbEntity
  8
AM_5
 62
     2
100
AcDbMText
 10
321.5240078510898
 20
248.1710817031632
 30
0.0
 40
3.2
 41
0.0
 71
     5
 72
     1
  1
24
 11
0.0000000000000001
 21
1.0
 31
0.0
 73
     1
 44
1.0
1001
ACAD
1000
MTEXTBEGIN
1070
    73
1070
     1
1070
    44
1040
1.0
1070
    74
1070
     0
1000
MTEXTEND
  0
POINT
  5
B957
330
B8A3
100
AcDbEntity
  8
Defpoints
 62
     0
100
AcDbPoint
 10
299.6240078510898
 20
260.1710969619531
 30
0.0
  0
POINT
  5
B958
330
B8A3
100
AcDbEntity
  8
Defpoints
 62
     0
100
AcDbPoint
 10
299.6240078510898
 20
236.1710817031632
 30
0.0
  0
POINT
  5
B959
330
B8A3
100
AcDbEntity
  8
Defpoints
 62
     0
100
AcDbPoint
 10
324.6240078510898
 20
236.1710817031632
 30
0.0
  0
ENDBLK
  5
B8AE
330
B8A3
100
AcDbEntity
  8
0
100
AcDbBlockEnd
  0
BLOCK
  5
B8B9
330
B8AF
100
AcDbEntity
  8
0
100
AcDbBlockBegin
  2
*D68
 70
     1
 10
0.0
 20
0.0
 30
0.0
  3
*D68
  1

  0
LINE
  5
B95A
330
B8AF
100
AcDbEntity
  8
AM_5
100
AcDbLine
 10
256.6240116657878
 20
191.1001207046362
 30
0.0
 11
335.6240078510899
 21
191.1001207046361
 31
0.0
  0
LINE
  5
B95B
330
B8AF
100
AcDbEntity
  8
AM_5
100
AcDbLine
 10
300.6240078510898
 20
39.10010926054516
 30
0.0
 11
335.6240078510898
 21
39.10010926054516
 31
0.0
  0
LINE
  5
B95C
330
B8AF
100
AcDbEntity
  8
AM_5
100
AcDbLine
 10
334.6240078510898
 20
190.1001207046361
 30
0.0
 11
334.6240078510898
 21
40.10010926054515
 31
0.0
  0
INSERT
  5
B95D
330
B8AF
100
AcDbEntity
  8
AM_5
100
AcDbBlockReference
  2
_Dot
 10
334.6240078510898
 20
191.1001207046361
 30
0.0
 50
90.0
  0
INSERT
  5
B95E
330
B8AF
100
AcDbEntity
  8
AM_5
100
AcDbBlockReference
  2
_Dot
 10
334.6240078510898
 20
39.10010926054516
 30
0.0
 50
270.0
  0
MTEXT
  5
B95F
330
B8AF
100
AcDbEntity
  8
AM_5
 62
     2
100
AcDbMText
 10
331.5240078510898
 20
115.1001149825901
 30
0.0
 40
3.2
 41
0.0
 71
     5
 72
     1
  1
152
 11
0.0000000000000001
 21
1.0
 31
0.0
 73
     1
 44
1.0
1001
ACAD
1000
MTEXTBEGIN
1070
    73
1070
     1
1070
    44
1040
1.0
1070
    74
1070
     0
1000
MTEXTEND
  0
POINT
  5
B960
330
B8AF
100
AcDbEntity
  8
Defpoints
 62
     0
100
AcDbPoint
 10
255.6240116657877
 20
191.1001207046362
 30
0.0
  0
POINT
  5
B961
330
B8AF
100
AcDbEntity
  8
Defpoints
 62
     0
100
AcDbPoint
 10
299.6240078510898
 20
39.10010926054516
 30
0.0
  0
POINT
  5
B962
330
B8AF
100
AcDbEntity
  8
Defpoints
 62
     0
100
AcDbPoint
 10
334.6240078510898
 20
39.10010926054516
 30
0.0
  0
ENDBLK
  5
B8BA
330
B8AF
100
AcDbEntity
  8
0
100
AcDbBlockEnd
  0
ENDSEC
  0
SECTION
  2
ENTITIES
  0
DIMENSION
  5
B74B
330
1F
100
AcDbEntity
  8
AM_5
100
AcDbDimension
  2
*D50
 10
245.6240116657878
 20
201.1001207046332
 30
0.0
 11
218.624017864671
 21
201.1001207046332
 31
0.0
 70
   160
  1
<>
 71
     5
 42
53.999986648559
  3
AM_ISO
100
AcDbAlignedDimension
 13
191.6240250172288
 23
191.1001207046362
 33
0.0
 14
245.6240116657878
 24
195.1501237563942
 34
0.0
100
AcDbRotatedDimension
1001
ACAD
1000
DSTYLE
1002
{
1070
    40
1040
1.0
1070
    41
1040
1.0
1070
    45
1040
1.0
1070
   140
1040
3.2
1070
   173
1070
     1
1070
   271
1070
     0
1070
   284
1070
     8
1070
   341
1005
0
1070
     6
1000
DOT
1070
     7
1000
DOT
1002
}
  0
DIMENSION
  5
B74C
330
1F
100
AcDbEntity
  8
AM_5
100
AcDbDimension
  2
*D51
 10
299.6240078510898
 20
201.1001207046332
 30
0.0
 11
272.6240116657877
 21
201.1001207046332
 31
0.0
 70
   160
  1
<>
 71
     5
 42
53.99999618530202
  3
AM_ISO
100
AcDbAlignedDimension
 13
245.6240116657878
 23
195.1501237563942
 33
0.0
 14
299.6240078510898
 24
113.6001178436131
 34
0.0
100
AcDbRotatedDimension
1001
ACAD
1000
DSTYLE
1002
{
1070
    40
1040
1.0
1070
    41
1040
1.0
1070
    45
1040
1.0
1070
    75
1070
     1
1070
   140
1040
3.2
1070
   173
1070
     1
1070
   271
1070
     0
1070
   284
1070
     8
1070
   341
1005
0
1070
     6
1000
DOT
1070
     7
1000
DOT
1002
}
  0
DIMENSION
  5
B74D
330
1F
100
AcDbEntity
  8
AM_5
100
AcDbDimension
  2
*D52
 10
299.6240078510898
 20
211.1001207046332
 30
0.0
 11
245.6240192951818
 21
211.1001207046332
 31
0.0
 70
   160
  1
<>
 71
     5
 42
107.999982833861
  3
AM_ISO
100
AcDbAlignedDimension
 13
191.6240250172288
 23
191.1001207046362
 33
0.0
 14
299.6240078510898
 24
113.6001178436131
 34
0.0
100
AcDbRotatedDimension
1001
ACAD
1000
DSTYLE
1002
{
1070
    40
1040
1.0
1070
    41
1040
1.0
1070
    45
1040
1.0
1070
   140
1040
3.2
1070
   173
1070
     1
1070
   271
1070
     0
1070
   284
1070
     8
1070
   341
1005
0
1070
     6
1000
DOT
1070
     7
1000
DOT
1002
}
  0
DIMENSION
  5
B74E
330
1F
100
AcDbEntity
  8
AM_5
100
AcDbDimension
  2
*D53
 10
259.6240192951817
 20
221.1710893325632
 30
0.0
 11
252.6240154804848
 21
221.1710893325632
 31
0.0
 70
   160
  1
<>
 71
     5
 42
14.00000762939399
  3
AM_ISO
100
AcDbAlignedDimension
 13
245.6240116657878
 23
234.2710878066831
 33
0.0
 14
259.6240192951817
 24
236.1710817031632
 34
0.0
100
AcDbRotatedDimension
1001
ACAD
1000
DSTYLE
1002
{
1070
    40
1040
1.0
1070
    41
1040
1.0
1070
    45
1040
1.0
1070
   140
1040
3.2
1070
   173
1070
     1
1070
   271
1070
     0
1070
   284
1070
     8
1070
   341
1005
0
1070
     6
1000
DOT
1070
     7
1000
DOT
1002
}
  0
DIMENSION
  5
B74F
330
1F
100
AcDbEntity
  8
AM_5
100
AcDbDimension
  2
*D54
 10
276.6240078510898
 20
24.10011307524317
 30
0.0
 11
261.1240116657878
 21
24.10011307524317
 31
0.0
 70
   160
  1
<>
 71
     5
 42
30.99999618530203
  3
AM_ISO
100
AcDbAlignedDimension
 13
245.6240116657878
 23
32.79792038725417
 33
0.0
 14
276.6240078510898
 24
47.42010132597516
 34
0.0
100
AcDbRotatedDimension
1001
ACAD
1000
DSTYLE
1002
{
1070
    40
1040
1.0
1070
    41
1040
1.0
1070
    45
1040
1.0
1070
   140
1040
3.2
1070
   173
1070
     1
1070
   271
1070
     0
1070
   284
1070
     8
1070
   341
1005
0
1070
     6
1000
DOT
1070
     7
1000
DOT
1002
}
  0
DIMENSION
  5
B750
330
1F
100
AcDbEntity
  8
AM_5
100
AcDbDimension
  2
*D55
 10
294.6240078510898
 20
24.10011307524317
 30
0.0
 11
285.6240078510897
 21
24.10011307524317
 31
0.0
 70
   160
  1
<>
 71
     5
 42
18.0
  3
AM_ISO
100
AcDbAlignedDimension
 13
276.6240078510898
 23
47.42010132597516
 33
0.0
 14
294.6240078510898
 24
48.85010926054518
 34
0.0
100
AcDbRotatedDimension
1001
ACAD
1000
DSTYLE
1002
{
1070
    40
1040
1.0
1070
    41
1040
1.0
1070
    45
1040
1.0
1070
   140
1040
3.2
1070
   173
1070
     1
1070
   271
1070
     0
1070
   284
1070
     8
1070
   341
1005
0
1070
     6
1000
DOT
1070
     7
1000
DOT
1002
}
  0
DIMENSION
  5
B751
330
1F
100
AcDbEntity
  8
AM_5
100
AcDbDimension
  2
*D56
 10
299.6240078510898
 20
24.10011307524317
 30
0.0
 11
297.1240078510898
 21
24.10011307524317
 31
0.0
 70
   160
  1
<>
 71
     5
 42
5.0
  3
AM_ISO
100
AcDbAlignedDimension
 13
294.6240078510898
 23
48.85010926054518
 33
0.0
 14
299.6240078510898
 24
39.10010926054516
 34
0.0
100
AcDbRotatedDimension
1001
ACAD
1000
DSTYLE
1002
{
1070
    40
1040
1.0
1070
    41
1040
1.0
1070
    45
1040
1.0
1070
    75
1070
     1
1070
   140
1040
3.2
1070
   173
1070
     1
1070
   271
1070
     0
1070
   284
1070
     8
1070
   341
1005
0
1070
     6
1000
DOT
1070
     7
1000
DOT
1002
}
  0
DIMENSION
  5
B752
330
1F
100
AcDbEntity
  8
AM_5
100
AcDbDimension
  2
*D57
 10
314.6240078510898
 20
54.35010926054519
 30
0.0
 11
314.6240078510898
 21
46.72510926054516
 31
0.0
 70
   160
  1
<>
 71
     5
 42
15.25000000000003
  3
AM_ISO
100
AcDbAlignedDimension
 13
299.6240078510898
 23
39.10010926054516
 33
0.0
 14
300.1240078510898
 24
54.3501092605452
 34
0.0
 50
90.0
100
AcDbRotatedDimension
1001
ACAD
1000
DSTYLE
1002
{
1070
    40
1040
1.0
1070
    41
1040
1.0
1070
    45
1040
0.01
1070
   140
1040
3.2
1070
   173
1070
     1
1070
   271
1070
     2
1070
   284
1070
     8
1070
   341
1005
0
1070
     6
1000
DOT
1070
     7
1000
DOT
1002
}
  0
DIMENSION
  5
B753
330
1F
100
AcDbEntity
  8
AM_5
100
AcDbDimension
  2
*D58
 10
314.6240078510898
 20
98.35011736677667
 30
0.0
 11
314.6240078510898
 21
76.35011307524317
 31
0.0
 70
   160
  1
<>
 71
     5
 42
44.00000810623148
  3
AM_ISO
100
AcDbAlignedDimension
 13
300.1240078510898
 23
54.3501092605452
 33
0.0
 14
300.7140041889808
 24
98.35011736677667
 34
0.0
 50
90.0
100
AcDbRotatedDimension
1001
ACAD
1000
DSTYLE
1002
{
1070
    40
1040
1.0
1070
    41
1040
1.0
1070
    45
1040
1.0
1070
    75
1070
     1
1070
   140
1040
3.2
1070
   173
1070
     1
1070
   271
1070
     0
1070
   284
1070
     8
1070
   341
1005
0
1070
     6
1000
DOT
1070
     7
1000
DOT
1002
}
  0
DIMENSION
  5
B754
330
1F
100
AcDbEntity
  8
AM_5
100
AcDbDimension
  2
*D59
 10
314.6240078510898
 20
113.6001178436131
 30
0.0
 11
314.6240078510898
 21
105.9751173667766
 31
0.0
 70
   160
  1
<>
 71
     5
 42
15.2500004768365
  3
AM_ISO
100
AcDbAlignedDimension
 13
300.7140041889808
 23
98.35011736677667
 33
0.0
 14
299.6240078510898
 24
113.6001178436131
 34
0.0
 50
90.0
100
AcDbRotatedDimension
1001
ACAD
1000
DSTYLE
1002
{
1070
    40
1040
1.0
1070
    41
1040
1.0
1070
    45
1040
0.01
1070
    75
1070
     1
1070
   140
1040
3.2
1070
   173
1070
     1
1070
   271
1070
     2
1070
   284
1070
     8
1070
   341
1005
0
1070
     6
1000
DOT
1070
     7
1000
DOT
1002
}
  0
DIMENSION
  5
B755
330
1F
100
AcDbEntity
  8
AM_5
100
AcDbDimension
  2
*D60
 10
324.6240078510898
 20
113.6001178436131
 30
0.0
 11
324.6240078510898
 21
76.35011307524317
 31
0.0
 70
   160
  1
<>
 71
     5
 42
74.50000858306802
  3
AM_ISO
100
AcDbAlignedDimension
 13
299.6240078510898
 23
39.10010926054516
 33
0.0
 14
299.6240078510898
 24
113.6001178436131
 34
0.0
 50
90.0
100
AcDbRotatedDimension
1001
ACAD
1000
DSTYLE
1002
{
1070
    40
1040
1.0
1070
    41
1040
1.0
1070
    45
1040
0.1
1070
   140
1040
3.2
1070
   173
1070
     1
1070
   271
1070
     1
1070
   284
1070
     8
1070
   341
1005
0
1070
     6
1000
DOT
1070
     7
1000
DOT
1002
}
  0
DIMENSION
  5
B756
330
1F
100
AcDbEntity
  8
AM_5
100
AcDbDimension
  2
*D61
 10
324.6240078510898
 20
116.6001168899391
 30
0.0
 11
324.6240078510898
 21
115.1001173667762
 31
0.0
 70
   160
  1
<>
 71
     5
 42
2.999999046325982
  3
AM_ISO
100
AcDbAlignedDimension
 13
299.6240078510898
 23
113.6001178436131
 33
0.0
 14
255.6240116657877
 24
116.6001168899391
 34
0.0
 50
90.0
100
AcDbRotatedDimension
1001
ACAD
1000
DSTYLE
1002
{
1070
    40
1040
1.0
1070
    41
1040
1.0
1070
    45
1040
1.0
1070
    75
1070
     1
1070
   140
1040
3.2
1070
   173
1070
     1
1070
   271
1070
     0
1070
   284
1070
     8
1070
   341
1005
0
1070
     6
1000
DOT
1070
     7
1000
DOT
1002
}
  0
DIMENSION
  5
B757
330
1F
100
AcDbEntity
  8
AM_5
100
AcDbDimension
  2
*D62
 10
324.6240078510898
 20
191.1001207046361
 30
0.0
 11
324.6240078510898
 21
153.8501168899391
 31
0.0
 70
   160
  1
<>
 71
     5
 42
74.50000381469699
  3
AM_ISO
100
AcDbAlignedDimension
 13
255.6240116657877
 23
116.6001168899391
 33
0.0
 14
255.6240116657877
 24
191.1001207046362
 34
0.0
 50
90.0
100
AcDbRotatedDimension
1001
ACAD
1000
DSTYLE
1002
{
1070
    40
1040
1.0
1070
    41
1040
1.0
1070
    45
1040
0.1
1070
    75
1070
     1
1070
   140
1040
3.2
1070
   173
1070
     1
1070
   271
1070
     1
1070
   284
1070
     8
1070
   341
1005
0
1070
     6
1000
DOT
1070
     7
1000
DOT
1002
}
  0
DIMENSION
  5
B758
330
1F
100
AcDbEntity
  8
AM_5
100
AcDbDimension
  2
*D63
 10
314.6240078510898
 20
256.1710969619531
 30
0.0
 11
314.6240078510898
 21
258.1710969619531
 31
0.0
 70
   160
  1
<>
 71
     5
 42
4.0
  3
AM_ISO
100
AcDbAlignedDimension
 13
299.6240078510898
 23
260.1710969619531
 33
0.0
 14
299.6240078510898
 24
256.1710969619531
 34
0.0
 50
90.0
100
AcDbRotatedDimension
1001
ACAD
1000
DSTYLE
1002
{
1070
   287
1070
     4
1070
    40
1040
1.0
1070
    41
1040
1.0
1070
    45
1040
1.0
1070
   140
1040
3.2
1070
   173
1070
     1
1070
   271
1070
     0
1070
   279
1070
     1
1070
   284
1070
     8
1070
   341
1005
0
1070
     6
1000
DOT
1070
     7
1000
DOT
1002
}
  0
DIMENSION
  5
B759
330
1F
100
AcDbEntity
  8
AM_5
100
AcDbDimension
  2
*D64
 10
314.6240078510899
 20
247.1710817031632
 30
0.0
 11
314.6240078510898
 21
251.6710817031632
 31
0.0
 70
   160
  1
<>
 71
     5
 42
9.000015258789943
  3
AM_ISO
100
AcDbAlignedDimension
 13
299.6240078510898
 23
256.1710969619531
 33
0.0
 14
260.0240055622718
 24
247.1710817031632
 34
0.0
 50
90.0
100
AcDbRotatedDimension
1001
ACAD
1000
DSTYLE
1002
{
1070
    40
1040
1.0
1070
    41
1040
1.0
1070
    45
1040
1.0
1070
    75
1070
     1
1070
   140
1040
3.2
1070
   173
1070
     1
1070
   271
1070
     0
1070
   284
1070
     8
1070
   341
1005
0
1070
     6
1000
DOT
1070
     7
1000
DOT
1002
}
  0
DIMENSION
  5
B75A
330
1F
100
AcDbEntity
  8
AM_5
100
AcDbDimension
  2
*D65
 10
314.6240078510899
 20
240.1710817031632
 30
0.0
 11
314.6240078510898
 21
243.6710817031632
 31
0.0
 70
   160
  1
<>
 71
     5
 42
7.0
  3
AM_ISO
100
AcDbAlignedDimension
 13
260.0240055622718
 23
247.1710817031632
 33
0.0
 14
299.6240078510898
 24
240.1710817031632
 34
0.0
 50
90.0
100
AcDbRotatedDimension
1001
ACAD
1000
DSTYLE
1002
{
1070
    40
1040
1.0
1070
    41
1040
1.0
1070
    45
1040
1.0
1070
    75
1070
     1
1070
   140
1040
3.2
1070
   173
1070
     1
1070
   271
1070
     0
1070
   284
1070
     8
1070
   341
1005
0
1070
     6
1000
DOT
1070
     7
1000
DOT
1002
}
  0
DIMENSION
  5
B75B
330
1F
100
AcDbEntity
  8
AM_5
100
AcDbDimension
  2
*D66
 10
314.6240078510898
 20
236.1710817031632
 30
0.0
 11
314.6240078510898
 21
238.1710817031632
 31
0.0
 70
   160
  1
<>
 71
     5
 42
4.0
  3
AM_ISO
100
AcDbAlignedDimension
 13
299.6240078510898
 23
240.1710817031632
 33
0.0
 14
299.6240078510898
 24
236.1710817031632
 34
0.0
 50
90.0
100
AcDbRotatedDimension
1001
ACAD
1000
DSTYLE
1002
{
1070
   287
1070
     4
1070
    40
1040
1.0
1070
    41
1040
1.0
1070
    45
1040
1.0
1070
    75
1070
     1
1070
   140
1040
3.2
1070
   173
1070
     1
1070
   271
1070
     0
1070
   279
1070
     1
1070
   284
1070
     8
1070
   341
1005
0
1070
     6
1000
DOT
1070
     7
1000
DOT
1002
}
  0
DIMENSION
  5
B75C
330
1F
100
AcDbEntity
  8
AM_5
100
AcDbDimension
  2
*D67
 10
324.6240078510898
 20
236.1710817031632
 30
0.0
 11
324.6240078510898
 21
248.1710817031632
 31
0.0
 70
   160
  1
<>
 71
     5
 42
24.00001525878995
  3
AM_ISO
100
AcDbAlignedDimension
 13
299.6240078510898
 23
260.1710969619531
 33
0.0
 14
299.6240078510898
 24
236.1710817031632
 34
0.0
 50
90.0
100
AcDbRotatedDimension
1001
ACAD
1000
DSTYLE
1002
{
1070
    40
1040
1.0
1070
    41
1040
1.0
1070
    45
1040
1.0
1070
   140
1040
3.2
1070
   173
1070
     1
1070
   271
1070
     0
1070
   284
1070
     8
1070
   341
1005
0
1070
     6
1000
DOT
1070
     7
1000
DOT
1002
}
  0
DIMENSION
  5
B75D
330
1F
100
AcDbEntity
  8
AM_5
100
AcDbDimension
  2
*D68
 10
334.6240078510898
 20
39.10010926054516
 30
0.0
 11
334.6240078510898
 21
115.1001149825901
 31
0.0
 70
   160
  1
<>
 71
     5
 42
152.000011444091
  3
AM_ISO
100
AcDbAlignedDimension
 13
255.6240116657877
 23
191.1001207046362
 33
0.0
 14
299.6240078510898
 24
39.10010926054516
 34
0.0
 50
90.0
100
AcDbRotatedDimension
1001
ACAD
1000
DSTYLE
1002
{
1070
    40
1040
1.0
1070
    41
1040
1.0
1070
    45
1040
1.0
1070
   140
1040
3.2
1070
   173
1070
     1
1070
   271
1070
     0
1070
   284
1070
     8
1070
   341
1005
0
1070
     6
1000
DOT
1070
     7
1000
DOT
1002
}
  0
LINE
  5
B75E
330
1F
100
AcDbEntity
  8
AM_1
100
AcDbLine
 10
380.9999996723798
 20
273.0000001602032
 30
0.0
 11
380.9999996723798
 21
0.0000001602031716
 31
0.0
  0
LINE
  5
B75F
330
1F
100
AcDbEntity
  8
AM_1
100
AcDbLine
 10
-0.0000003276202278
 20
0.0000001602031716
 30
0.0
 11
380.9999996723798
 21
0.0000001602031716
 31
0.0
  0
LINE
  5
B760
330
1F
100
AcDbEntity
  8
AM_1
100
AcDbLine
 10
-0.0000003276202278
 20
273.0000001602032
 30
0.0
 11
380.9999996723798
 21
273.0000001602032
 31
0.0
  0
LINE
  5
B761
330
1F
100
AcDbEntity
  8
AM_1
100
AcDbLine
 10
-0.0000003276202278
 20
273.0000001602032
 30
0.0
 11
-0.0000003276202278
 21
0.0000001602031716
 31
0.0
  0
LINE
  5
B762
330
1F
100
AcDbEntity
  8
AM_0
100
AcDbLine
 10
19.99999967237977
 20
273.0000001602032
 30
0.0
 11
19.99999967237977
 21
169.5000001602031
 31
0.0
  0
LINE
  5
B763
330
1F
100
AcDbEntity
  8
AM_0
100
AcDbLine
 10
-0.0000003276202278
 20
265.0000001602032
 30
0.0
 11
109.9999996723797
 21
265.0000001602032
 31
0.0
  0
LINE
  5
B764
330
1F
100
AcDbEntity
  8
AM_0
100
AcDbLine
 10
-0.0000003276202278
 20
257.0000001602032
 30
0.0
 11
109.9999996723797
 21
257.0000001602032
 31
0.0
  0
LINE
  5
B765
330
1F
100
AcDbEntity
  8
AM_0
100
AcDbLine
 10
-0.0000003276202278
 20
241.5000001602032
 30
0.0
 11
109.9999996723797
 21
241.5000001602032
 31
0.0
  0
LINE
  5
B766
330
1F
100
AcDbEntity
  8
AM_0
100
AcDbLine
 10
-0.0000003276202278
 20
233.5000001602032
 30
0.0
 11
109.9999996723797
 21
233.5000001602032
 31
0.0
  0
LINE
  5
B767
330
1F
100
AcDbEntity
  8
AM_2
100
AcDbLine
 10
19.99999967237977
 20
209.5000001602032
 30
0.0
 11
109.9999996723797
 21
209.5000001602032
 31
0.0
  0
LINE
  5
B768
330
1F
100
AcDbEntity
  8
AM_2
100
AcDbLine
 10
19.99999967237977
 20
201.5000001602032
 30
0.0
 11
109.9999996723797
 21
201.5000001602032
 31
0.0
  0
LINE
  5
B769
330
1F
100
AcDbEntity
  8
AM_0
100
AcDbLine
 10
-0.0000003276202278
 20
193.5000001602031
 30
0.0
 11
109.9999996723797
 21
193.5000001602031
 31
0.0
  0
LINE
  5
B76A
330
1F
100
AcDbEntity
  8
AM_2
100
AcDbLine
 10
19.99999967237977
 20
185.5000001602032
 30
0.0
 11
109.9999996723797
 21
185.5000001602032
 31
0.0
  0
LINE
  5
B76B
330
1F
100
AcDbEntity
  8
AM_2
100
AcDbLine
 10
19.99999967237977
 20
177.5000001602031
 30
0.0
 11
109.9999996723797
 21
177.5000001602031
 31
0.0
  0
LINE
  5
B76C
330
1F
100
AcDbEntity
  8
AM_1
100
AcDbLine
 10
-0.0000003276202278
 20
169.5000001602031
 30
0.0
 11
109.9999996723797
 21
169.5000001602031
 31
0.0
  0
LINE
  5
B76D
330
1F
100
AcDbEntity
  8
AM_1
100
AcDbLine
 10
-0.0000003276202278
 20
273.0000001602032
 30
0.0
 11
-0.0000003276202278
 21
169.5000001602031
 31
0.0
  0
LINE
  5
B76E
330
1F
100
AcDbEntity
  8
AM_1
100
AcDbLine
 10
-0.0000003276202278
 20
273.0000001602032
 30
0.0
 11
109.9999996723797
 21
273.0000001602032
 31
0.0
  0
LINE
  5
B76F
330
1F
100
AcDbEntity
  8
AM_1
100
AcDbLine
 10
109.9999996723797
 20
273.0000001602032
 30
0.0
 11
109.9999996723797
 21
169.5000001602031
 31
0.0
  0
LINE
  5
B770
330
1F
100
AcDbEntity
  8
AM_0
100
AcDbLine
 10
-0.0000003276202278
 20
225.5000001602032
 30
0.0
 11
109.9999996723797
 21
225.5000001602032
 31
0.0
  0
LINE
  5
B771
330
1F
100
AcDbEntity
  8
AM_0
100
AcDbLine
 10
-0.0000003276202278
 20
217.5000001602032
 30
0.0
 11
109.9999996723797
 21
217.5000001602032
 31
0.0
  0
LINE
  5
B772
330
1F
100
AcDbEntity
  8
AM_2
100
AcDbLine
 10
19.99999967237977
 20
209.5000001602032
 30
0.0
 11
109.9999996723797
 21
209.5000001602032
 31
0.0
  0
LINE
  5
B773
330
1F
100
AcDbEntity
  8
AM_2
100
AcDbLine
 10
19.99999967237977
 20
249.2500001602032
 30
0.0
 11
109.9999996723797
 21
249.2500001602032
 31
0.0
  0
LINE
  5
B774
330
1F
100
AcDbEntity
  8
AM_0
100
AcDbLine
 10
299.6240078510898
 20
39.10010926054516
 30
0.0
 11
299.6240078510898
 21
113.6001178436131
 31
0.0
  0
LINE
  5
B775
330
1F
100
AcDbEntity
  8
AM_0
100
AcDbLine
 10
191.6240250172288
 20
116.6001168899391
 30
0.0
 11
191.6240250172288
 21
191.1001207046362
 31
0.0
  0
LINE
  5
B776
330
1F
100
AcDbEntity
  8
AM_0
100
AcDbLine
 10
255.6240116657877
 20
39.10010926054516
 30
0.0
 11
255.6240116657877
 21
191.1001207046362
 31
0.0
  0
LINE
  5
B777
330
1F
100
AcDbEntity
  8
AM_0
100
AcDbLine
 10
235.6240097584388
 20
39.10010926054516
 30
0.0
 11
235.6240097584388
 21
191.1001207046362
 31
0.0
  0
LINE
  5
B778
330
1F
100
AcDbEntity
  8
AM_7
100
AcDbLine
 10
245.6240116657878
 20
195.1501237563942
 30
0.0
 11
245.6240116657878
 21
32.79792038725417
 31
0.0
  0
LINE
  5
B779
330
1F
100
AcDbEntity
  8
AM_7
100
AcDbLine
 10
294.6240078510898
 20
105.000111263261
 30
0.0
 11
294.6240078510898
 21
91.42010990904347
 31
0.0
  0
LINE
  5
B77A
330
1F
100
AcDbEntity
  8
AM_7
100
AcDbLine
 10
288.6740109028477
 20
98.35011736677667
 30
0.0
 11
300.7140041889808
 21
98.35011736677667
 31
0.0
  0
LINE
  5
B77B
330
1F
100
AcDbEntity
  8
AM_7
100
AcDbLine
 10
276.6240078510898
 20
105.000111263261
 30
0.0
 11
276.6240078510898
 21
91.42010990904347
 31
0.0
  0
LINE
  5
B77C
330
1F
100
AcDbEntity
  8
AM_7
100
AcDbLine
 10
270.6740147175458
 20
98.35011736677667
 30
0.0
 11
282.7140041889808
 21
98.35011736677667
 31
0.0
  0
LINE
  5
B77D
330
1F
100
AcDbEntity
  8
AM_7
100
AcDbLine
 10
276.6240078510898
 20
61.00010315703017
 30
0.0
 11
276.6240078510898
 21
47.42010132597516
 31
0.0
  0
LINE
  5
B77E
330
1F
100
AcDbEntity
  8
AM_7
100
AcDbLine
 10
270.6740147175458
 20
54.3501092605452
 30
0.0
 11
282.7140041889808
 21
54.3501092605452
 31
0.0
  0
LINE
  5
B77F
330
1F
100
AcDbEntity
  8
AM_7
100
AcDbLine
 10
214.624025255647
 20
182.5001146011211
 30
0.0
 11
214.624025255647
 21
168.9201127700662
 31
0.0
  0
LINE
  5
B780
330
1F
100
AcDbEntity
  8
AM_7
100
AcDbLine
 10
208.6740130486158
 20
175.8501207046361
 30
0.0
 11
220.7140213551191
 21
175.8501207046361
 31
0.0
  0
LINE
  5
B781
330
1F
100
AcDbEntity
  8
AM_7
100
AcDbLine
 10
214.624025255647
 20
138.5001107864231
 30
0.0
 11
214.624025255647
 21
124.9201089553692
 31
0.0
  0
LINE
  5
B782
330
1F
100
AcDbEntity
  8
AM_7
100
AcDbLine
 10
208.6740130486158
 20
131.8501168899391
 30
0.0
 11
220.7140213551191
 21
131.8501168899391
 31
0.0
  0
LINE
  5
B783
330
1F
100
AcDbEntity
  8
AM_7
100
AcDbLine
 10
196.6240250172288
 20
138.5001107864231
 30
0.0
 11
196.6240250172288
 21
124.9201089553692
 31
0.0
  0
LINE
  5
B784
330
1F
100
AcDbEntity
  8
AM_7
100
AcDbLine
 10
190.6740128101978
 20
131.8501168899391
 30
0.0
 11
202.7140213551191
 21
131.8501168899391
 31
0.0
  0
LINE
  5
B785
330
1F
100
AcDbEntity
  8
AM_7
100
AcDbLine
 10
196.6240250172288
 20
182.5001146011211
 30
0.0
 11
196.6240250172288
 21
168.9201127700662
 31
0.0
  0
LINE
  5
B786
330
1F
100
AcDbEntity
  8
AM_7
100
AcDbLine
 10
190.6740128101978
 20
175.8501207046361
 30
0.0
 11
202.7140213551191
 21
175.8501207046361
 31
0.0
  0
LINE
  5
B787
330
1F
100
AcDbEntity
  8
AM_0
100
AcDbLine
 10
191.6240250172288
 20
191.1001207046362
 30
0.0
 11
255.6240116657877
 21
191.1001207046362
 31
0.0
  0
LINE
  5
B788
330
1F
100
AcDbEntity
  8
AM_0
100
AcDbLine
 10
255.6240116657877
 20
116.6001168899391
 30
0.0
 11
191.6240250172288
 21
116.6001168899391
 31
0.0
  0
LINE
  5
B789
330
1F
100
AcDbEntity
  8
AM_0
100
AcDbLine
 10
299.6240078510898
 20
113.6001178436131
 30
0.0
 11
235.6240097584388
 21
113.6001178436131
 31
0.0
  0
LINE
  5
B78A
330
1F
100
AcDbEntity
  8
AM_0
100
AcDbLine
 10
299.6240078510898
 20
39.10010926054516
 30
0.0
 11
235.6240097584388
 21
39.10010926054516
 31
0.0
  0
LINE
  5
B78B
330
1F
100
AcDbEntity
  8
AM_0
100
AcDbLine
 10
254.6240116657878
 20
191.1001207046362
 30
0.0
 11
254.6240116657878
 21
194.1001054458471
 31
0.0
  0
LINE
  5
B78C
330
1F
100
AcDbEntity
  8
AM_0
100
AcDbLine
 10
236.6240097584388
 20
191.1001207046362
 30
0.0
 11
236.6240097584388
 21
194.1001054458471
 31
0.0
  0
LINE
  5
B78D
330
1F
100
AcDbEntity
  8
AM_0
100
AcDbLine
 10
254.6240116657878
 20
194.1001054458471
 30
0.0
 11
236.6240097584388
 21
194.1001054458471
 31
0.0
  0
LINE
  5
B78E
330
1F
100
AcDbEntity
  8
AM_0
100
AcDbLine
 10
254.6240116657878
 20
36.10010926054517
 30
0.0
 11
236.6240097584388
 21
36.10010926054517
 31
0.0
  0
LINE
  5
B78F
330
1F
100
AcDbEntity
  8
AM_0
100
AcDbLine
 10
254.6240116657878
 20
36.10010926054517
 30
0.0
 11
254.6240116657878
 21
39.10010926054516
 31
0.0
  0
LINE
  5
B790
330
1F
100
AcDbEntity
  8
AM_0
100
AcDbLine
 10
236.6240097584388
 20
36.10010926054517
 30
0.0
 11
236.6240097584388
 21
39.10010926054516
 31
0.0
  0
LINE
  5
B791
330
1F
100
AcDbEntity
  8
AM_7
100
AcDbLine
 10
245.6240116657878
 20
234.2710878066831
 30
0.0
 11
245.6240116657878
 21
265.0710908584432
 31
0.0
  0
LINE
  5
B792
330
1F
100
AcDbEntity
  8
AM_0
100
AcDbLine
 10
191.6240250172288
 20
254.1710817031632
 30
0.0
 11
231.6240097584388
 21
254.1710817031632
 31
0.0
  0
LINE
  5
B793
330
1F
100
AcDbEntity
  8
AM_0
100
AcDbLine
 10
231.6240097584388
 20
258.1710817031632
 30
0.0
 11
191.6240250172288
 21
258.1710817031632
 31
0.0
  0
LINE
  5
B794
330
1F
100
AcDbEntity
  8
AM_0
100
AcDbLine
 10
191.6240250172288
 20
258.1710817031632
 30
0.0
 11
191.6240250172288
 21
254.1710817031632
 31
0.0
  0
LINE
  5
B795
330
1F
100
AcDbEntity
  8
AM_7
100
AcDbLine
 10
196.6240250172288
 20
263.5710908584432
 30
0.0
 11
196.6240250172288
 21
249.4710847549232
 31
0.0
  0
LINE
  5
B796
330
1F
100
AcDbEntity
  8
AM_7
100
AcDbLine
 10
214.624025255647
 20
263.6710817031632
 30
0.0
 11
214.624025255647
 21
249.3710939102032
 31
0.0
  0
LINE
  5
B797
330
1F
100
AcDbEntity
  8
AM_0
100
AcDbLine
 10
259.6240154804848
 20
260.1710817031632
 30
0.0
 11
243.6616894306798
 21
256.9766542129332
 31
0.0
  0
LINE
  5
B798
330
1F
100
AcDbEntity
  8
AM_0
100
AcDbLine
 10
299.6240078510898
 20
256.1710969619531
 30
0.0
 11
260.0203281941078
 21
256.1710969619531
 31
0.0
  0
LINE
  5
B799
330
1F
100
AcDbEntity
  8
AM_0
100
AcDbLine
 10
260.0203320088048
 20
256.1710817031632
 30
0.0
 11
252.2910801472328
 21
254.6242829971132
 31
0.0
  0
LINE
  5
B79A
330
1F
100
AcDbEntity
  8
AM_7
100
AcDbLine
 10
294.6240078510898
 20
263.5710908584432
 30
0.0
 11
294.6240078510898
 21
249.4710847549232
 31
0.0
  0
LINE
  5
B79B
330
1F
100
AcDbEntity
  8
AM_7
100
AcDbLine
 10
276.6240078510898
 20
263.6710817031632
 30
0.0
 11
276.6240078510898
 21
249.3710939102032
 31
0.0
  0
LINE
  5
B79C
330
1F
100
AcDbEntity
  8
AM_7
100
AcDbLine
 10
230.9240128101968
 20
247.1710817031632
 30
0.0
 11
260.0240055622718
 21
247.1710817031632
 31
0.0
  0
LINE
  5
B79D
330
1F
100
AcDbEntity
  8
AM_0
100
AcDbLine
 10
231.6240269245768
 20
258.1710817031632
 30
0.0
 11
245.6240307392738
 21
257.1953431777732
 31
0.0
  0
LINE
  5
B79E
330
1F
100
AcDbEntity
  8
AM_0
100
AcDbLine
 10
299.6240078510898
 20
260.1710969619531
 30
0.0
 11
299.6240078510898
 21
256.1710969619531
 31
0.0
  0
LINE
  5
B79F
330
1F
100
AcDbEntity
  8
AM_0
100
AcDbLine
 10
238.0605579914708
 20
253.7127687148831
 30
0.0
 11
231.4848019184728
 21
254.1710817031632
 31
0.0
  0
LINE
  5
B7A0
330
1F
100
AcDbEntity
  8
AM_7
100
AcDbLine
 10
294.6240078510898
 20
230.7710878066832
 30
0.0
 11
294.6240078510898
 21
244.8710939102032
 31
0.0
  0
LINE
  5
B7A1
330
1F
100
AcDbEntity
  8
AM_7
100
AcDbLine
 10
276.6240078510898
 20
230.6710817031632
 30
0.0
 11
276.6240078510898
 21
244.9710847549232
 31
0.0
  0
LINE
  5
B7A2
330
1F
100
AcDbEntity
  8
AM_11
100
AcDbLine
 10
259.6240231098798
 20
236.1710817031632
 30
0.0
 11
245.6240231098798
 21
237.1468202285532
 31
0.0
  0
LINE
  5
B7A3
330
1F
100
AcDbEntity
  8
AM_11
100
AcDbLine
 10
253.1875111164708
 20
240.6293794326632
 30
0.0
 11
259.7632481159828
 21
240.1710817031632
 31
0.0
  0
LINE
  5
B7A4
330
1F
100
AcDbEntity
  8
AM_11
100
AcDbLine
 10
259.6240116657877
 20
236.1710817031632
 30
0.0
 11
299.6240078510898
 21
236.1710817031632
 31
0.0
  0
LINE
  5
B7A5
330
1F
100
AcDbEntity
  8
AM_11
100
AcDbLine
 10
299.6240078510898
 20
240.1710817031632
 30
0.0
 11
259.6240116657877
 21
240.1710817031632
 31
0.0
  0
LINE
  5
B7A6
330
1F
100
AcDbEntity
  8
AM_11
100
AcDbLine
 10
299.6240078510898
 20
236.1710817031632
 30
0.0
 11
299.6240078510898
 21
240.1710817031632
 31
0.0
  0
LINE
  5
B7A7
330
1F
100
AcDbEntity
  8
AM_0
100
AcDbLine
 10
266.1411778034828
 20
113.6001178436131
 30
0.0
 11
271.5411716999668
 21
113.6001178436131
 31
0.0
  0
LINE
  5
B7A8
330
1F
100
AcDbEntity
  8
AM_2
100
AcDbLine
 10
247.0894505085608
 20
247.2810670547332
 30
0.0
 11
247.1870876850748
 21
247.1834260635232
 31
0.0
  0
LINE
  5
B7A9
330
1F
100
AcDbEntity
  8
AM_0
100
AcDbLine
 10
259.6240116657877
 20
260.1710969619531
 30
0.0
 11
299.6240078510898
 21
260.1710969619531
 31
0.0
  0
LINE
  5
B7AA
330
1F
100
AcDbEntity
  8
AM_7
100
AcDbLine
 10
300.1240078510898
 20
54.3501092605452
 30
0.0
 11
289.1240078510898
 21
54.3501092605452
 31
0.0
  0
LINE
  5
B7AB
330
1F
100
AcDbEntity
  8
AM_7
100
AcDbLine
 10
294.6240078510898
 20
59.85010926054517
 30
0.0
 11
294.6240078510898
 21
48.85010926054518
 31
0.0
  0
CIRCLE
  5
B7AC
330
1F
100
AcDbEntity
  8
AM_0
100
AcDbCircle
 10
294.6240078510898
 20
98.35011736677667
 30
0.0
 40
2.0
  0
CIRCLE
  5
B7AD
330
1F
100
AcDbEntity
  8
AM_2
100
AcDbCircle
 10
294.6240078510898
 20
98.35011736677667
 30
0.0
 40
2.5
  0
CIRCLE
  5
B7AE
330
1F
100
AcDbEntity
  8
AM_0
100
AcDbCircle
 10
276.6240078510898
 20
98.35011736677667
 30
0.0
 40
2.0
  0
CIRCLE
  5
B7AF
330
1F
100
AcDbEntity
  8
AM_2
100
AcDbCircle
 10
276.6240078510898
 20
98.35011736677667
 30
0.0
 40
2.5
  0
CIRCLE
  5
B7B0
330
1F
100
AcDbEntity
  8
AM_0
100
AcDbCircle
 10
276.6240078510898
 20
54.3501092605452
 30
0.0
 40
2.0
  0
CIRCLE
  5
B7B1
330
1F
100
AcDbEntity
  8
AM_2
100
AcDbCircle
 10
276.6240078510898
 20
54.3501092605452
 30
0.0
 40
2.5
  0
CIRCLE
  5
B7B2
330
1F
100
AcDbEntity
  8
AM_0
100
AcDbCircle
 10
294.6240078510898
 20
54.3501092605452
 30
0.0
 40
2.0
  0
CIRCLE
  5
B7B3
330
1F
100
AcDbEntity
  8
AM_2
100
AcDbCircle
 10
294.6240078510898
 20
54.3501092605452
 30
0.0
 40
2.5
  0
CIRCLE
  5
B7B4
330
1F
100
AcDbEntity
  8
AM_0
100
AcDbCircle
 10
214.624025255647
 20
175.8501207046361
 30
0.0
 40
2.0
  0
CIRCLE
  5
B7B5
330
1F
100
AcDbEntity
  8
AM_2
100
AcDbCircle
 10
214.624025255647
 20
175.8501207046361
 30
0.0
 40
2.5
  0
CIRCLE
  5
B7B6
330
1F
100
AcDbEntity
  8
AM_0
100
AcDbCircle
 10
214.624025255647
 20
131.8501168899391
 30
0.0
 40
2.0
  0
CIRCLE
  5
B7B7
330
1F
100
AcDbEntity
  8
AM_2
100
AcDbCircle
 10
214.624025255647
 20
131.8501168899391
 30
0.0
 40
2.5
  0
CIRCLE
  5
B7B8
330
1F
100
AcDbEntity
  8
AM_0
100
AcDbCircle
 10
196.6240250172288
 20
131.8501168899391
 30
0.0
 40
2.0
  0
CIRCLE
  5
B7B9
330
1F
100
AcDbEntity
  8
AM_2
100
AcDbCircle
 10
196.6240250172288
 20
131.8501168899391
 30
0.0
 40
2.5
  0
CIRCLE
  5
B7BA
330
1F
100
AcDbEntity
  8
AM_0
100
AcDbCircle
 10
196.6240250172288
 20
175.8501207046361
 30
0.0
 40
2.0
  0
CIRCLE
  5
B7BB
330
1F
100
AcDbEntity
  8
AM_2
100
AcDbCircle
 10
196.6240250172288
 20
175.8501207046361
 30
0.0
 40
2.5
  0
CIRCLE
  5
B7BC
330
1F
100
AcDbEntity
  8
AM_0
100
AcDbCircle
 10
245.6240116657878
 20
247.1710817031632
 30
0.0
 40
9.0
  0
ARC
  5
B7BD
330
1F
100
AcDbEntity
  8
AM_0
100
AcDbCircle
 10
245.6240116657878
 20
247.1710817031632
 30
0.0
 40
10.0
100
AcDbArc
 50
101.2814532773467
 51
101.260105293724
  0
CIRCLE
  5
B7BE
330
1F
100
AcDbEntity
  8
AM_3
100
AcDbCircle
 10
245.6240116657878
 20
247.1710817031632
 30
0.0
 40
6.0
  0
CIRCLE
  5
B7BF
330
1F
100
AcDbEntity
  8
AM_0
100
AcDbCircle
 10
195.5059305729538
 20
129.6148130111552
 30
0.0
 40
0.3000000119209
  0
CIRCLE
  5
B7C0
330
1F
100
AcDbEntity
  8
AM_0
100
AcDbCircle
 10
239.0232121052408
 20
239.6630098037532
 30
0.0
 40
0.3000000119209
  0
INSERT
  5
B7C1
330
1F
100
AcDbEntity
  8
AM_0
100
AcDbBlockReference
  2
*U24
 10
210.9999996723798
 20
100.0000001602032
 30
0.0
  0
INSERT
  5
B7C2
330
1F
100
AcDbEntity
  8
AM_0
100
AcDbBlockReference
  2
*U25
 10
210.9999996723798
 20
100.0000001602032
 30
0.0
  0
INSERT
  5
B7C3
330
1F
100
AcDbEntity
  8
AM_0
100
AcDbBlockReference
  2
*U26
 10
210.9999996723798
 20
100.0000001602032
 30
0.0
  0
INSERT
  5
B7C4
330
1F
100
AcDbEntity
  8
AM_0
100
AcDbBlockReference
  2
*U27
 10
210.9999996723798
 20
100.0000001602032
 30
0.0
  0
INSERT
  5
B7C5
330
1F
100
AcDbEntity
  8
AM_0
100
AcDbBlockReference
  2
*U28
 10
210.9999996723798
 20
100.0000001602032
 30
0.0
  0
INSERT
  5
B7C6
330
1F
100
AcDbEntity
  8
AM_0
100
AcDbBlockReference
  2
*U29
 10
210.9999996723798
 20
100.0000001602032
 30
0.0
  0
INSERT
  5
B7C7
330
1F
100
AcDbEntity
  8
AM_0
100
AcDbBlockReference
  2
*U30
 10
210.9999996723798
 20
100.0000001602032
 30
0.0
  0
INSERT
  5
B7C8
330
1F
100
AcDbEntity
  8
AM_0
100
AcDbBlockReference
  2
*U31
 10
210.9999996723798
 20
100.0000001602032
 30
0.0
  0
INSERT
  5
B7C9
330
1F
100
AcDbEntity
  8
AM_0
100
AcDbBlockReference
  2
*U32
 10
210.9999996723798
 20
100.0000001602032
 30
0.0
  0
INSERT
  5
B7CA
330
1F
100
AcDbEntity
  8
AM_0
100
AcDbBlockReference
  2
*U33
 10
210.9999996723798
 20
100.0000001602032
 30
0.0
  0
INSERT
  5
B7CB
330
1F
100
AcDbEntity
  8
AM_0
100
AcDbBlockReference
  2
*U34
 10
210.9999996723798
 20
100.0000001602032
 30
0.0
  0
INSERT
  5
B7CC
330
1F
100
AcDbEntity
  8
AM_0
100
AcDbBlockReference
  2
*U35
 10
210.9999996723798
 20
100.0000001602032
 30
0.0
  0
INSERT
  5
B7CD
330
1F
100
AcDbEntity
  8
AM_0
100
AcDbBlockReference
  2
*U36
 10
210.9999996723798
 20
100.0000001602032
 30
0.0
  0
INSERT
  5
B7CE
330
1F
100
AcDbEntity
  8
AM_0
100
AcDbBlockReference
  2
*U37
 10
210.9999996723798
 20
100.0000001602032
 30
0.0
  0
INSERT
  5
B7CF
330
1F
100
AcDbEntity
  8
AM_0
100
AcDbBlockReference
  2
*U38
 10
210.9999996723798
 20
100.0000001602032
 30
0.0
  0
INSERT
  5
B7D0
330
1F
100
AcDbEntity
  8
AM_0
100
AcDbBlockReference
  2
*U39
 10
210.9999996723798
 20
100.0000001602032
 30
0.0
  0
INSERT
  5
B7D1
330
1F
100
AcDbEntity
  8
AM_0
100
AcDbBlockReference
  2
*U40
 10
210.9999996723798
 20
100.0000001602032
 30
0.0
  0
INSERT
  5
B7D2
330
1F
100
AcDbEntity
  8
AM_0
100
AcDbBlockReference
  2
*U41
 10
210.9999996723798
 20
100.0000001602032
 30
0.0
  0
INSERT
  5
B7D3
330
1F
100
AcDbEntity
  8
AM_0
100
AcDbBlockReference
  2
*U42
 10
210.9999996723798
 20
100.0000001602032
 30
0.0
  0
INSERT
  5
B7D4
330
1F
100
AcDbEntity
  8
AM_0
100
AcDbBlockReference
  2
*U43
 10
210.9999996723798
 20
100.0000001602032
 30
0.0
  0
INSERT
  5
B7D5
330
1F
100
AcDbEntity
  8
AM_0
100
AcDbBlockReference
  2
*U44
 10
210.9999996723798
 20
100.0000001602032
 30
0.0
  0
INSERT
  5
B7D6
330
1F
100
AcDbEntity
  8
AM_0
100
AcDbBlockReference
  2
*U45
 10
210.9999996723798
 20
100.0000001602032
 30
0.0
1001
ACAD
1000
DSTYLE
1002
{
1070
    41
1040
1.0
1070
   173
1070
     1
1070
   176
1070
     0
1070
   341
1005
0
1070
   343
1005
0
1070
   344
1005
0
1002
}
  0
INSERT
  5
B7D7
330
1F
100
AcDbEntity
  8
AM_0
100
AcDbBlockReference
  2
*U46
 10
210.9999996723798
 20
100.0000001602032
 30
0.0
  0
INSERT
  5
B7D8
330
1F
100
AcDbEntity
  8
AM_0
100
AcDbBlockReference
  2
*U47
 10
210.9999996723798
 20
100.0000001602032
 30
0.0
1001
ACAD
1000
DSTYLE
1002
{
1070
    41
1040
1.0
1070
   173
1070
     1
1070
   176
1070
     0
1070
   341
1005
0
1070
   343
1005
0
1070
   344
1005
0
1002
}
  0
INSERT
  5
B7D9
330
1F
100
AcDbEntity
  8
AM_0
100
AcDbBlockReference
  2
*U48
 10
210.9999996723798
 20
100.0000001602032
 30
0.0
  0
ENDSEC
  0
SECTION
  2
OBJECTS
  0
DICTIONARY
  5
C
330
0
100
AcDbDictionary
281
     1
  3
ACAD_2007HEADERVARS_RT
350
B964
  3
ACAD_BGPLOT_KEY
350
AB06
  3
ACAD_COLOR
350
A91D
  3
ACAD_GROUP
350
D
  3
ACAD_LAYOUT
350
1A
  3
ACAD_MATERIAL
350
A91C
  3
ACAD_MLINESTYLE
350
17
  3
ACAD_PLOTSETTINGS
350
19
  3
ACAD_PLOTSTYLENAME
350
E
  3
ACAD_TABLESTYLE
350
AAB9
  3
ACAD_VISUALSTYLE
350
B0F1
  3
AcAsAppObject
350
3DA1
  3
ACASGREF_MASTER
350
3DE9
  3
AcDbVariableDictionary
350
34
  3
AcmDictionary
350
47
  3
AD_GREF_MODULE
350
3DEA
  3
AD_MAPI_MODULE
350
3E06
  3
AMG
350
2B
  3
AMGSNAPSETTINGS
350
7D
  3
ASE_INDEX_DICTIONARY
350
B331
  3
DWGPROPS
350
B963
  3
MAPISURF_MODULE
350
3DEB
  0
DICTIONARY
  5
3F95
330
2
100
AcDbDictionary
280
     1
281
     1
  3
ACAD_LAYERFILTERS
360
B523
  3
ACAD_LAYERSTATES
360
3F96
  3
ACLYDICTIONARY
360
B522
  3
AMLAYER_GROUPCOLORS
360
AAB4
  0
DICTIONARY
  5
8A
330
1F
100
AcDbDictionary
280
     1
281
     1
  3
ACAD_SORTENTS
360
B1BA
  0
DICTIONARY
  5
B624
330
B623
100
AcDbDictionary
280
     1
281
     1
  3
ACAD_SORTENTS
360
B625
  0
DICTIONARY
  5
B964
102
{ACAD_REACTORS
330
C
102
}
330
C
100
AcDbDictionary
281
     1
  3
DIMARCSYM
350
B965
  0
DICTIONARY
  5
AB06
102
{ACAD_REACTORS
330
C
102
}
330
C
100
AcDbDictionary
280
     1
281
     1
  0
DICTIONARY
  5
A91D
102
{ACAD_REACTORS
330
C
102
}
330
C
100
AcDbDictionary
281
     1
  0
DICTIONARY
  5
D
102
{ACAD_REACTORS
330
C
102
}
330
C
100
AcDbDictionary
281
     1
  0
DICTIONARY
  5
1A
102
{ACAD_REACTORS
330
C
102
}
330
C
100
AcDbDictionary
281
     1
  3
Model
350
22
  3
ﾚｲｱｳﾄ1
350
1E
  3
ﾚｲｱｳﾄ2
350
26
  0
DICTIONARY
  5
A91C
102
{ACAD_REACTORS
330
C
102
}
330
C
100
AcDbDictionary
281
     1
  3
ByBlock
350
B0EF
  3
ByLayer
350
B0EE
  3
Global
350
B0F0
  0
DICTIONARY
  5
17
102
{ACAD_REACTORS
330
C
102
}
330
C
100
AcDbDictionary
281
     1
  3
Standard
350
18
  0
DICTIONARY
  5
19
102
{ACAD_REACTORS
330
C
102
}
330
C
100
AcDbDictionary
281
     1
  0
ACDBDICTIONARYWDFLT
  5
E
102
{ACAD_REACTORS
330
C
102
}
330
C
100
AcDbDictionary
281
     1
  3
Normal
350
F
100
AcDbDictionaryWithDefault
340
F
  0
DICTIONARY
  5
AAB9
102
{ACAD_REACTORS
330
C
102
}
330
C
100
AcDbDictionary
281
     1
  3
Standard
350
AABA
  0
DICTIONARY
  5
B0F1
102
{ACAD_REACTORS
330
C
102
}
330
C
100
AcDbDictionary
281
     1
  3
2dWireframe
350
B0F7
  3
3D Hidden
350
B0F9
  3
3dWireframe
350
B0F8
  3
Basic
350
B0F6
  3
Brighten
350
B0FD
  3
ColorChange
350
B101
  3
Conceptual
350
B0FA
  3
Dim
350
B0FC
  3
Facepattern
350
B100
  3
Flat
350
B0F2
  3
FlatWithEdges
350
B0F3
  3
Gouraud
350
B0F4
  3
GouraudWithEdges
350
B0F5
  3
Linepattern
350
B0FF
  3
Realistic
350
B0FB
  3
Thicken
350
B0FE
  0
ACAD_PROXY_OBJECT
  5
3DA1
102
{ACAD_REACTORS
330
C
102
}
330
C
100
AcDbProxyObject
 90
      499
 91
      576
 95
   917527
 70
     0
 93
       10
310
407F
 94
        0
1001
ACAD
1000
AcRTDxfName
1000
ASAPP
  0
ACAD_PROXY_OBJECT
  5
3DE9
102
{ACAD_REACTORS
330
C
102
}
330
C
100
AcDbProxyObject
 90
      499
 91
      581
 95
   917527
 70
     0
 93
       34
310
010000407F
 94
        0
1001
ACAD
1000
AcRTDxfName
1000
ACASGREFMASTER
  0
DICTIONARY
  5
34
102
{ACAD_REACTORS
330
C
102
}
330
C
100
AcDbDictionary
281
     1
  3
CTABLESTYLE
350
AAF3
  3
DIMASSOC
350
A10C
  3
FIELDEVAL
350
AB07
  3
INDEXCTL
350
35
  3
SORTENTS
350
194C
  0
DICTIONARY
  5
47
102
{ACAD_REACTORS
330
C
102
}
330
C
100
AcDbDictionary
281
     1
  3
AcmBOM
350
7E8
  3
AcmStdDictionary
350
4C
  3
AMDTSECTSYM_ARROWCOLOR
350
A929
  0
ACAD_PROXY_OBJECT
  5
3DEA
102
{ACAD_REACTORS
330
C
102
}
330
C
100
AcDbProxyObject
 90
      499
 91
      582
 95
   917527
 70
     0
 93
      114
310
00000043800000000000000000003F
 94
        0
1001
ACAD
1000
AcRTDxfName
1000
ACADGREFMODULE
  0
ACAD_PROXY_OBJECT
  5
3E06
102
{ACAD_REACTORS
330
C
102
}
330
C
100
AcDbProxyObject
 90
      499
 91
      594
 95
   917527
 70
     0
 93
       34
310
05000044FF
 94
        0
1001
ACAD
1000
AcRTDxfName
1000
MAPIADMODULE
  0
DICTIONARY
  5
2B
102
{ACAD_REACTORS
330
C
102
}
330
C
100
AcDbDictionary
281
     1
  0
DICTIONARY
  5
7D
102
{ACAD_REACTORS
330
C
102
}
330
C
100
AcDbDictionary
281
     1
  0
DICTIONARY
  5
B331
102
{ACAD_REACTORS
330
C
102
}
330
C
100
AcDbDictionary
281
     1
  3
ASEBlockHierarchyIndexRecord
350
B332
1001
DCO15
1040
1594111214.218
  0
XRECORD
  5
B963
102
{ACAD_REACTORS
330
C
102
}
330
C
100
AcDbXrecord
280
     1
  1
DWGPROPS COOKIE
  2

  3

  4

  6

  7

  8
Administrator
  9

300
AmdtFileType=84
301
=
302
=
303
=
304
=
305
=
306
=
307
=
308
=
309
=
 40
0.0039087847222222
 41
2456745.601048715
 42
2456745.604956412
  1

 90
        1
  0
ACAD_PROXY_OBJECT
  5
3DEB
102
{ACAD_REACTORS
330
C
102
}
330
C
100
AcDbProxyObject
 90
      499
 91
      583
 95
   917527
 70
     0
 93
        8
310
047E
 94
        0
1001
ACAD
1000
AcRTDxfName
1000
AMDTMAPISURFMOUDULE
  0
DICTIONARY
  5
B523
102
{ACAD_REACTORS
330
3F95
102
}
330
3F95
100
AcDbDictionary
281
     1
  0
DICTIONARY
  5
3F96
102
{ACAD_REACTORS
330
3F95
102
}
330
3F95
100
AcDbDictionary
281
     1
  3
20011210
350
3FB7
  0
DICTIONARY
  5
B522
102
{ACAD_REACTORS
330
3F95
102
}
330
3F95
100
AcDbDictionary
281
     1
1001
ACAD
1000
<All
  0
DICTIONARY
  5
AAB4
102
{ACAD_REACTORS
330
3F95
102
}
330
3F95
100
AcDbDictionary
280
     1
281
     1
  0
SORTENTSTABLE
  5
B1BA
102
{ACAD_REACTORS
330
8A
102
}
330
8A
100
AcDbSortentsTable
330
1F
  0
SORTENTSTABLE
  5
B625
102
{ACAD_REACTORS
330
B624
102
}
330
B624
100
AcDbSortentsTable
330
B623
  0
XRECORD
  5
B965
102
{ACAD_REACTORS
330
B964
102
}
330
B964
100
AcDbXrecord
280
     1
 70
     1
  0
LAYOUT
  5
22
102
{ACAD_XDICTIONARY
360
B968
102
}
102
{ACAD_REACTORS
330
1A
102
}
330
1A
100
AcDbPlotSettings
  1

  2
DocuCentre-II C5400
  4
A3
  6
AM_VIEW1
 40
4.857749938964843
 41
4.942420959472656
 42
4.9423828125
 43
4.857757568359375
 44
297.0106506347656
 45
420.0313415527343
 46
0.0
 47
2.016715294974204
 48
214.3704939521119
 49
367.5855324241176
140
275.6727856380065
141
407.629191407817
142
1.0
143
0.7311709945292711
 70
  3764
 72
     1
 73
     1
 74
     2
  7
monochrome.ctb
 75
     0
147
1.367669132777622
148
-1700.85588156276
149
-1647.985052086429
100
AcDbLayout
  1
Model
 70
     1
 71
     0
 10
0.0
 20
0.0
 11
12.0
 21
9.0
 12
0.0
 22
0.0
 32
0.0
 14
0.0
 24
0.0
 34
0.0
 15
0.0
 25
0.0
 35
0.0
146
0.0
 13
0.0
 23
0.0
 33
0.0
 16
1.0
 26
0.0
 36
0.0
 17
0.0
 27
1.0
 37
0.0
 76
     0
330
1F
331
B0EC
1001
ACAD_PSEXT
1000
DocuCentre-II C5400
1000
FX DocuCentre-II C5400
1000
192.168.2.200
1000

1070
     0
  0
LAYOUT
  5
1E
102
{ACAD_XDICTIONARY
360
B966
102
}
102
{ACAD_REACTORS
330
1A
102
}
330
1A
100
AcDbPlotSettings
  1

  2
\\ML370\XEROX
  4
A4
  6

 40
3.174999952316284
 41
3.174999952316284
 42
3.175003051757812
 43
3.17498779296875
 44
209.8674926757813
 45
296.6719970703125
 46
0.0
 47
0.0
 48
0.0
 49
0.0
140
0.0
141
0.0
142
1.0
143
1.0
 70
   688
 72
     1
 73
     1
 74
     5
  7
monochrome.ctb
 75
    16
147
1.0
148
0.0
149
0.0
100
AcDbLayout
  1
ﾚｲｱｳﾄ1
 70
     1
 71
     1
 10
-3.17498779296875
 20
-3.174999952316284
 11
293.4970092773438
 21
206.692492723465
 12
0.0
 22
0.0
 32
0.0
 14
1.000000000000000E+20
 24
1.000000000000000E+20
 34
1.000000000000000E+20
 15
-1.000000000000000E+20
 25
-1.000000000000000E+20
 35
-1.000000000000000E+20
146
0.0
 13
0.0
 23
0.0
 33
0.0
 16
1.0
 26
0.0
 36
0.0
 17
0.0
 27
1.0
 37
0.0
 76
     0
330
1B
  0
LAYOUT
  5
26
102
{ACAD_XDICTIONARY
360
B96A
102
}
102
{ACAD_REACTORS
330
1A
102
}
330
1A
100
AcDbPlotSettings
  1

  2
\\ML370\XEROX
  4

  6

 40
0.0
 41
0.0
 42
0.0
 43
0.0
 44
0.0
 45
0.0
 46
0.0
 47
0.0
 48
0.0
 49
0.0
140
0.0
141
0.0
142
1.0
143
1.0
 70
   688
 72
     0
 73
     0
 74
     5
  7
monochrome.ctb
 75
    16
147
1.0
148
0.0
149
0.0
100
AcDbLayout
  1
ﾚｲｱｳﾄ2
 70
     1
 71
     2
 10
0.0
 20
0.0
 11
12.0
 21
9.0
 12
0.0
 22
0.0
 32
0.0
 14
0.0
 24
0.0
 34
0.0
 15
0.0
 25
0.0
 35
0.0
146
0.0
 13
0.0
 23
0.0
 33
0.0
 16
1.0
 26
0.0
 36
0.0
 17
0.0
 27
1.0
 37
0.0
 76
     0
330
23
  0
MATERIAL
  5
B0EF
102
{ACAD_XDICTIONARY
360
B970
102
}
102
{ACAD_REACTORS
330
A91C
102
}
330
A91C
100
AcDbMaterial
  1
ByBlock
  0
MATERIAL
  5
B0EE
102
{ACAD_XDICTIONARY
360
B96E
102
}
102
{ACAD_REACTORS
330
A91C
102
}
330
A91C
100
AcDbMaterial
  1
ByLayer
  0
MATERIAL
  5
B0F0
102
{ACAD_XDICTIONARY
360
B972
102
}
102
{ACAD_REACTORS
330
A91C
102
}
330
A91C
100
AcDbMaterial
  1
Global
  0
MLINESTYLE
  5
18
102
{ACAD_REACTORS
330
17
102
}
330
17
100
AcDbMlineStyle
  2
STANDARD
 70
     0
  3

 62
   256
 51
90.0
 52
90.0
 71
     2
 49
0.5
 62
   256
  6
BYLAYER
 49
-0.5
 62
   256
  6
BYLAYER
  0
ACDBPLACEHOLDER
  5
F
102
{ACAD_REACTORS
330
E
102
}
330
E
  0
TABLESTYLE
  5
AABA
102
{ACAD_XDICTIONARY
360
B96C
102
}
102
{ACAD_REACTORS
330
AAB9
102
}
330
AAB9
100
AcDbTableStyle
  3
Standard
 70
     0
 71
     0
 40
1.5
 41
1.5
280
     0
281
     0
  7
STANDARD
140
4.5
170
     2
 62
     0
 63
     7
283
     0
274
    -2
284
     1
 64
     0
275
    -2
285
     1
 65
     0
276
    -2
286
     1
 66
     0
277
    -2
287
     1
 67
     0
278
    -2
288
     1
 68
     0
279
    -2
289
     1
 69
     0
  7
STANDARD
140
6.0
170
     5
 62
     0
 63
     7
283
     0
274
    -2
284
     1
 64
     0
275
    -2
285
     1
 65
     0
276
    -2
286
     1
 66
     0
277
    -2
287
     1
 67
     0
278
    -2
288
     1
 68
     0
279
    -2
289
     1
 69
     0
  7
STANDARD
140
4.5
170
     5
 62
     0
 63
     7
283
     0
274
    -2
284
     1
 64
     0
275
    -2
285
     1
 65
     0
276
    -2
286
     1
 66
     0
277
    -2
287
     1
 67
     0
278
    -2
288
     1
 68
     0
279
    -2
289
     1
 69
     0
  0
VISUALSTYLE
  5
B0F7
102
{ACAD_REACTORS
330
B0F1
102
}
330
B0F1
100
AcDbVisualStyle
  2
2dWireframe
 70
     4
 71
     0
 72
     2
 73
     0
 90
        0
 40
-0.6
 41
-30.0
 62
     5
 63
     7
 74
     1
 91
        4
 64
     7
 65
   257
 75
     1
175
     1
 42
1.0
 92
        0
 66
   257
 43
1.0
 76
     1
 77
     6
 78
     2
 67
     7
 79
     5
170
     0
171
     0
290
     0
174
     0
 93
        1
 44
0.0
173
     0
291
     0
 45
0.0
1001
ACAD
1000
AcDbSavedByObjectVersion
1070
     0
  0
VISUALSTYLE
  5
B0F9
102
{ACAD_REACTORS
330
B0F1
102
}
330
B0F1
100
AcDbVisualStyle
  2
3D Hidden
 70
     6
 71
     1
 72
     2
 73
     2
 90
        0
 40
-0.6
 41
-30.0
 62
     5
 63
     7
 74
     2
 91
        2
 64
     7
 65
   257
 75
     2
175
     1
 42
40.0
 92
        0
 66
   257
 43
1.0
 76
     1
 77
     6
 78
     2
 67
     7
 79
     3
170
     0
171
     0
290
     0
174
     0
 93
        1
 44
0.0
173
     0
291
     0
 45
0.0
1001
ACAD
1000
AcDbSavedByObjectVersion
1070
     0
  0
VISUALSTYLE
  5
B0F8
102
{ACAD_REACTORS
330
B0F1
102
}
330
B0F1
100
AcDbVisualStyle
  2
3dWireframe
 70
     5
 71
     0
 72
     2
 73
     0
 90
        0
 40
-0.6
 41
-30.0
 62
     5
 63
     7
 74
     1
 91
        4
 64
     7
 65
   257
 75
     1
175
     1
 42
1.0
 92
        0
 66
   257
 43
1.0
 76
     1
 77
     6
 78
     2
 67
     7
 79
     5
170
     0
171
     0
290
     0
174
     0
 93
        1
 44
0.0
173
     0
291
     0
 45
0.0
1001
ACAD
1000
AcDbSavedByObjectVersion
1070
     0
  0
VISUALSTYLE
  5
B0F6
102
{ACAD_REACTORS
330
B0F1
102
}
330
B0F1
100
AcDbVisualStyle
  2
Basic
 70
     7
 71
     1
 72
     0
 73
     1
 90
        0
 40
-0.6
 41
-30.0
 62
     5
 63
     7
 74
     0
 91
        4
 64
     7
 65
   257
 75
     1
175
     1
 42
1.0
 92
        8
 66
     7
 43
1.0
 76
     1
 77
     6
 78
     2
 67
     7
 79
     5
170
     0
171
     0
290
     0
174
     0
 93
        1
 44
0.0
173
     0
291
     1
 45
0.0
1001
ACAD
1000
AcDbSavedByObjectVersion
1070
     0
  0
VISUALSTYLE
  5
B0FD
102
{ACAD_REACTORS
330
B0F1
102
}
330
B0F1
100
AcDbVisualStyle
  2
Brighten
 70
    12
 71
     2
 72
     2
 73
     0
 90
        0
 40
-0.6
 41
-30.0
 62
     5
 63
     7
 74
     1
 91
        4
 64
     7
 65
   257
 75
     1
175
     1
 42
1.0
 92
        8
 66
     7
 43
1.0
 76
     1
 77
     6
 78
     2
 67
     7
 79
     5
170
     0
171
     0
290
     0
174
     0
 93
        1
 44
50.0
173
     0
291
     1
 45
0.0
1001
ACAD
1000
AcDbSavedByObjectVersion
1070
     0
  0
VISUALSTYLE
  5
B101
102
{ACAD_REACTORS
330
B0F1
102
}
330
B0F1
100
AcDbVisualStyle
  2
ColorChange
 70
    16
 71
     2
 72
     2
 73
     3
 90
        0
 40
-0.6
 41
-30.0
 62
     5
 63
     8
 74
     1
 91
        4
 64
     7
 65
   257
 75
     1
175
     1
 42
1.0
 92
        8
 66
     8
 43
1.0
 76
     1
 77
     6
 78
     2
 67
     7
 79
     5
170
     0
171
     0
290
     0
174
     0
 93
        1
 44
0.0
173
     0
291
     1
 45
0.0
1001
ACAD
1000
AcDbSavedByObjectVersion
1070
     0
  0
VISUALSTYLE
  5
B0FA
102
{ACAD_REACTORS
330
B0F1
102
}
330
B0F1
100
AcDbVisualStyle
  2
Conceptual
 70
     9
 71
     3
 72
     2
 73
     0
 90
        0
 40
-0.6
 41
-30.0
 62
     5
 63
     7
 74
     2
 91
        2
 64
     7
 65
   257
 75
     1
175
     1
 42
40.0
 92
        8
 66
     7
 43
1.0
 76
     1
 77
     6
 78
     2
 67
     7
 79
     3
170
     0
171
     0
290
     0
174
     0
 93
        1
 44
0.0
173
     0
291
     0
 45
0.0
1001
ACAD
1000
AcDbSavedByObjectVersion
1070
     0
  0
VISUALSTYLE
  5
B0FC
102
{ACAD_REACTORS
330
B0F1
102
}
330
B0F1
100
AcDbVisualStyle
  2
Dim
 70
    11
 71
     2
 72
     2
 73
     0
 90
        0
 40
-0.6
 41
-30.0
 62
     5
 63
     7
 74
     1
 91
        4
 64
     7
 65
   257
 75
     1
175
     1
 42
1.0
 92
        8
 66
     7
 43
1.0
 76
     1
 77
     6
 78
     2
 67
     7
 79
     5
170
     0
171
     0
290
     0
174
     0
 93
        1
 44
-50.0
173
     0
291
     1
 45
0.0
1001
ACAD
1000
AcDbSavedByObjectVersion
1070
     0
  0
VISUALSTYLE
  5
B100
102
{ACAD_REACTORS
330
B0F1
102
}
330
B0F1
100
AcDbVisualStyle
  2
Facepattern
 70
    15
 71
     2
 72
     2
 73
     0
 90
        0
 40
-0.6
 41
-30.0
 62
     5
 63
     7
 74
     1
 91
        4
 64
     7
 65
   257
 75
     1
175
     1
 42
1.0
 92
        8
 66
     7
 43
1.0
 76
     1
 77
     6
 78
     2
 67
     7
 79
     5
170
     0
171
     0
290
     0
174
     0
 93
        1
 44
0.0
173
     0
291
     1
 45
0.0
1001
ACAD
1000
AcDbSavedByObjectVersion
1070
     0
  0
VISUALSTYLE
  5
B0F2
102
{ACAD_REACTORS
330
B0F1
102
}
330
B0F1
100
AcDbVisualStyle
  2
Flat
 70
     0
 71
     2
 72
     1
 73
     1
 90
        2
 40
-0.6
 41
30.0
 62
     5
 63
     7
 74
     0
 91
        4
 64
     7
 65
   257
 75
     1
175
     1
 42
1.0
 92
        8
 66
     7
 43
1.0
 76
     1
 77
     6
 78
     2
 67
     7
 79
     5
170
     0
171
     0
290
     0
174
     0
 93
       13
 44
0.0
173
     0
291
     1
 45
0.0
1001
ACAD
1000
AcDbSavedByObjectVersion
1070
     0
  0
VISUALSTYLE
  5
B0F3
102
{ACAD_REACTORS
330
B0F1
102
}
330
B0F1
100
AcDbVisualStyle
  2
FlatWithEdges
 70
     1
 71
     2
 72
     1
 73
     1
 90
        2
 40
-0.6
 41
30.0
 62
     5
 63
     7
 74
     1
 91
        4
 64
     7
 65
   257
 75
     1
175
     1
 42
1.0
 92
        0
 66
   257
 43
1.0
 76
     1
 77
     6
 78
     2
 67
     7
 79
     5
170
     0
171
     0
290
     0
174
     0
 93
       13
 44
0.0
173
     0
291
     1
 45
0.0
1001
ACAD
1000
AcDbSavedByObjectVersion
1070
     0
  0
VISUALSTYLE
  5
B0F4
102
{ACAD_REACTORS
330
B0F1
102
}
330
B0F1
100
AcDbVisualStyle
  2
Gouraud
 70
     2
 71
     2
 72
     2
 73
     1
 90
        2
 40
-0.6
 41
30.0
 62
     5
 63
     7
 74
     0
 91
        4
 64
     7
 65
   257
 75
     1
175
     1
 42
1.0
 92
        0
 66
     7
 43
1.0
 76
     1
 77
     6
 78
     2
 67
     7
 79
     5
170
     0
171
     0
290
     0
174
     0
 93
       13
 44
0.0
173
     0
291
     1
 45
0.0
1001
ACAD
1000
AcDbSavedByObjectVersion
1070
     0
  0
VISUALSTYLE
  5
B0F5
102
{ACAD_REACTORS
330
B0F1
102
}
330
B0F1
100
AcDbVisualStyle
  2
GouraudWithEdges
 70
     3
 71
     2
 72
     2
 73
     1
 90
        2
 40
-0.6
 41
30.0
 62
     5
 63
     7
 74
     1
 91
        4
 64
     7
 65
   257
 75
     1
175
     1
 42
1.0
 92
        0
 66
   257
 43
1.0
 76
     1
 77
     6
 78
     2
 67
     7
 79
     5
170
     0
171
     0
290
     0
174
     0
 93
       13
 44
0.0
173
     0
291
     1
 45
0.0
1001
ACAD
1000
AcDbSavedByObjectVersion
1070
     0
  0
VISUALSTYLE
  5
B0FF
102
{ACAD_REACTORS
330
B0F1
102
}
330
B0F1
100
AcDbVisualStyle
  2
Linepattern
 70
    14
 71
     2
 72
     2
 73
     0
 90
        0
 40
-0.6
 41
-30.0
 62
     5
 63
     7
 74
     1
 91
        4
 64
     7
 65
   257
 75
     7
175
     7
 42
1.0
 92
        8
 66
     7
 43
1.0
 76
     1
 77
     6
 78
     2
 67
     7
 79
     5
170
     0
171
     0
290
     0
174
     0
 93
        1
 44
0.0
173
     0
291
     1
 45
0.0
1001
ACAD
1000
AcDbSavedByObjectVersion
1070
     0
  0
VISUALSTYLE
  5
B0FB
102
{ACAD_REACTORS
330
B0F1
102
}
330
B0F1
100
AcDbVisualStyle
  2
Realistic
 70
     8
 71
     2
 72
     2
 73
     0
 90
        0
 40
-0.6
 41
-30.0
 62
     5
 63
     7
 74
     1
 91
        0
 64
     7
 65
   257
 75
     1
175
     1
 42
1.0
 92
        8
 66
     8
 43
1.0
 76
     1
 77
     6
 78
     2
 67
     7
 79
     5
170
     0
171
     0
290
     0
174
     0
 93
       13
 44
0.0
173
     0
291
     0
 45
0.0
1001
ACAD
1000
AcDbSavedByObjectVersion
1070
     0
  0
VISUALSTYLE
  5
B0FE
102
{ACAD_REACTORS
330
B0F1
102
}
330
B0F1
100
AcDbVisualStyle
  2
Thicken
 70
    13
 71
     2
 72
     2
 73
     0
 90
        0
 40
-0.6
 41
-30.0
 62
     5
 63
     7
 74
     1
 91
        4
 64
     7
 65
   257
 75
     1
175
     1
 42
1.0
 92
       12
 66
     7
 43
1.0
 76
     1
 77
     6
 78
     2
 67
     7
 79
     5
170
     0
171
     0
290
     0
174
     0
 93
        1
 44
0.0
173
     0
291
     1
 45
0.0
1001
ACAD
1000
AcDbSavedByObjectVersion
1070
     0
  0
DICTIONARYVAR
  5
AAF3
102
{ACAD_REACTORS
330
34
102
}
330
34
100
DictionaryVariables
280
     0
  1
STANDARD
  0
DICTIONARYVAR
  5
A10C
102
{ACAD_REACTORS
330
34
102
}
330
34
100
DictionaryVariables
280
     0
  1
1
  0
DICTIONARYVAR
  5
AB07
102
{ACAD_REACTORS
330
34
102
}
330
34
100
DictionaryVariables
280
     0
  1
4
  0
DICTIONARYVAR
  5
35
102
{ACAD_REACTORS
330
34
102
}
330
34
100
DictionaryVariables
280
     0
  1
0
  0
DICTIONARYVAR
  5
194C
102
{ACAD_REACTORS
330
34
102
}
330
34
100
DictionaryVariables
280
     0
  1
96
  0
DICTIONARY
  5
7E8
102
{ACAD_REACTORS
330
47
102
}
330
47
100
AcDbDictionary
281
     1
  0
DICTIONARY
  5
4C
102
{ACAD_REACTORS
330
47
102
}
330
47
100
AcDbDictionary
281
     1
  0
XRECORD
  5
A929
102
{ACAD_REACTORS
330
47
102
}
330
47
100
AcDbXrecord
280
     1
 90
-1023410169
  0
XRECORD
  5
B332
102
{ACAD_REACTORS
330
B331
102
}
330
B331
100
AcDbXrecord
280
     1
  0
XRECORD
  5
3FB7
102
{ACAD_REACTORS
330
3F96
102
}
330
3F96
100
AcDbXrecord
280
     1
 91
        3
330
0
 90
        8
 62
     7
370
    40
331
16
  1
Color_7
330
0
 90
        0
 62
    14
370
    -3
331
16
  1
Color_14
330
0
 90
        8
 62
     7
370
    20
331
16
  1
Color_7
330
6D1
 90
        0
 62
     7
370
    -3
331
16
  1
Color_7
330
0
 90
        8
 62
     7
370
    50
331
16
  1
Color_7
330
0
 90
        8
 62
     2
370
    35
331
16
  1
Color_2
330
0
 90
        8
 62
     7
370
    -3
331
16
  1
Color_7
330
10
 90
        8
 62
     7
370
    -3
331
16
  1
Color_7
  0
DICTIONARY
  5
B968
330
22
100
AcDbDictionary
280
     1
281
     1
  3
ACAD_XREC_ROUNDTRIP
360
B969
  0
DICTIONARY
  5
B966
330
1E
100
AcDbDictionary
280
     1
281
     1
  3
ACAD_XREC_ROUNDTRIP
360
B967
  0
DICTIONARY
  5
B96A
330
26
100
AcDbDictionary
280
     1
281
     1
  3
ACAD_XREC_ROUNDTRIP
360
B96B
  0
DICTIONARY
  5
B970
330
B0EF
100
AcDbDictionary
280
     1
281
     1
  3
ACAD_XREC_ROUNDTRIP
360
B971
  0
DICTIONARY
  5
B96E
330
B0EE
100
AcDbDictionary
280
     1
281
     1
  3
ACAD_XREC_ROUNDTRIP
360
B96F
  0
DICTIONARY
  5
B972
330
B0F0
100
AcDbDictionary
280
     1
281
     1
  3
ACAD_XREC_ROUNDTRIP
360
B973
  0
DICTIONARY
  5
B96C
330
AABA
100
AcDbDictionary
280
     1
281
     1
  3
ACAD_XREC_ROUNDTRIP
360
B96D
  0
XRECORD
  5
B969
102
{ACAD_REACTORS
330
B968
102
}
330
B968
100
AcDbXrecord
280
     1
102
SHADEPLOT
 70
     0
102
SHADEPLOTRESLEVEL
 70
     2
102
SHADEPLOTCUSTOMDPI
 70
   200
  0
XRECORD
  5
B967
102
{ACAD_REACTORS
330
B966
102
}
330
B966
100
AcDbXrecord
280
     1
102
SHADEPLOT
 70
     0
102
SHADEPLOTRESLEVEL
 70
     2
102
SHADEPLOTCUSTOMDPI
 70
   300
  0
XRECORD
  5
B96B
102
{ACAD_REACTORS
330
B96A
102
}
330
B96A
100
AcDbXrecord
280
     1
102
SHADEPLOT
 70
     0
102
SHADEPLOTRESLEVEL
 70
     2
102
SHADEPLOTCUSTOMDPI
 70
   300
  0
XRECORD
  5
B971
102
{ACAD_REACTORS
330
B970
102
}
330
B970
100
AcDbXrecord
280
     1
102
MATERIAL
148
0.0
149
0.0
149
0.0
 93
        0
 94
       63
282
     0
 72
     1
 77
     1
171
     1
175
     1
179
     1
273
     0
  0
XRECORD
  5
B96F
102
{ACAD_REACTORS
330
B96E
102
}
330
B96E
100
AcDbXrecord
280
     1
102
MATERIAL
148
0.0
149
0.0
149
0.0
 93
        0
 94
       63
282
     0
 72
     1
 77
     1
171
     1
175
     1
179
     1
273
     0
  0
XRECORD
  5
B973
102
{ACAD_REACTORS
330
B972
102
}
330
B972
100
AcDbXrecord
280
     1
102
MATERIAL
148
0.0
149
0.0
149
0.0
 93
        0
 94
       63
282
     0
 72
     1
 77
     1
171
     1
175
     1
179
     1
273
     0
  0
XRECORD
  5
B96D
102
{ACAD_REACTORS
330
B96C
102
}
330
B96C
100
AcDbXrecord
280
     1
102
ACAD_ROUNDTRIP_PRE2007_TABLESTYLE
 90
        4
 91
        0
  1

 92
        4
 93
        0
  2

 94
        4
 95
        0
  3

  0
ENDSEC
  0
EOF
