  0
SECTION
  2
HEADER
  9
$ACADVER
  1
AC1015
  9
$ACADMAINTVER
 70
    20
  9
$DWGCODEPAGE
  3
ANSI_932
  9
$INSBASE
 10
0.0
 20
0.0
 30
0.0
  9
$EXTMIN
 10
766.1129070804492
 20
-67.23110957528558
 30
-0.0015258207003583
  9
$EXTMAX
 10
1147.151201446037
 20
205.7963116181385
 30
0.0000000349246037
  9
$LIMMIN
 10
219.4956354736257
 20
-100.0
  9
$LIMMAX
 10
627.9956354736257
 20
188.5
  9
$ORTHOMODE
 70
     0
  9
$REGENMODE
 70
     1
  9
$FILLMODE
 70
     1
  9
$QTEXTMODE
 70
     0
  9
$MIRRTEXT
 70
     1
  9
$LTSCALE
 40
1.0
  9
$ATTMODE
 70
     1
  9
$TEXTSIZE
 40
3.2
  9
$TRACEWID
 40
1.0
  9
$TEXTSTYLE
  7
STANDARD
  9
$CLAYER
  8
AM_0
  9
$CELTYPE
  6
ByLayer
  9
$CECOLOR
 62
   256
  9
$CELTSCALE
 40
1.0
  9
$DISPSILH
 70
     0
  9
$DIMSCALE
 40
1.0
  9
$DIMASZ
 40
1.0
  9
$DIMEXO
 40
1.0
  9
$DIMDLI
 40
10.0
  9
$DIMRND
 40
0.0
  9
$DIMDLE
 40
0.0
  9
$DIMEXE
 40
1.0
  9
$DIMTP
 40
0.2
  9
$DIMTM
 40
0.2
  9
$DIMTXT
 40
3.5
  9
$DIMCEN
 40
0.0
  9
$DIMTSZ
 40
0.0
  9
$DIMTOL
 70
     1
  9
$DIMLIM
 70
     0
  9
$DIMTIH
 70
     0
  9
$DIMTOH
 70
     0
  9
$DIMSE1
 70
     0
  9
$DIMSE2
 70
     0
  9
$DIMTAD
 70
     1
  9
$DIMZIN
 70
     8
  9
$DIMBLK
  1
Dot
  9
$DIMASO
 70
     1
  9
$DIMSHO
 70
     1
  9
$DIMPOST
  1

  9
$DIMAPOST
  1
"
  9
$DIMALT
 70
     0
  9
$DIMALTD
 70
     2
  9
$DIMALTF
 40
0.0393701
  9
$DIMLFAC
 40
1.0
  9
$DIMTOFL
 70
     1
  9
$DIMTVP
 40
0.0
  9
$DIMTIX
 70
     0
  9
$DIMSOXD
 70
     0
  9
$DIMSAH
 70
     1
  9
$DIMBLK1
  1

  9
$DIMBLK2
  1

  9
$DIMSTYLE
  2
SYS
  9
$DIMCLRD
 70
   256
  9
$DIMCLRE
 70
   256
  9
$DIMCLRT
 70
     7
  9
$DIMTFAC
 40
0.6
  9
$DIMGAP
 40
1.5
  9
$DIMJUST
 70
     0
  9
$DIMSD1
 70
     0
  9
$DIMSD2
 70
     0
  9
$DIMTOLJ
 70
     0
  9
$DIMTZIN
 70
     8
  9
$DIMALTZ
 70
     0
  9
$DIMALTTZ
 70
     0
  9
$DIMUPT
 70
     0
  9
$DIMDEC
 70
     1
  9
$DIMTDEC
 70
     1
  9
$DIMALTU
 70
     2
  9
$DIMALTTD
 70
     2
  9
$DIMTXSTY
  7
STANDARD
  9
$DIMAUNIT
 70
     0
  9
$DIMADEC
 70
     0
  9
$DIMALTRND
 40
0.0
  9
$DIMAZIN
 70
     2
  9
$DIMDSEP
 70
    46
  9
$DIMATFIT
 70
     3
  9
$DIMFRAC
 70
     0
  9
$DIMLDRBLK
  1
OPEN30
  9
$DIMLUNIT
 70
     2
  9
$DIMLWD
 70
    -1
  9
$DIMLWE
 70
    -1
  9
$DIMTMOVE
 70
     0
  9
$LUNITS
 70
     2
  9
$LUPREC
 70
     2
  9
$SKETCHINC
 40
1.0
  9
$FILLETRAD
 40
5.0
  9
$AUNITS
 70
     0
  9
$AUPREC
 70
     0
  9
$MENU
  1
.
  9
$ELEVATION
 40
0.0
  9
$PELEVATION
 40
0.0
  9
$THICKNESS
 40
0.0
  9
$LIMCHECK
 70
     0
  9
$CHAMFERA
 40
0.5
  9
$CHAMFERB
 40
0.5
  9
$CHAMFERC
 40
20.0
  9
$CHAMFERD
 40
0.0
  9
$SKPOLY
 70
     0
  9
$TDCREATE
 40
2452002.615067627
  9
$TDUCREATE
 40
2452002.240067627
  9
$TDUPDATE
 40
2455236.539738137
  9
$TDUUPDATE
 40
2455236.164738136
  9
$TDINDWG
 40
10.7485006250
  9
$TDUSRTIMER
 40
10.7484923148
  9
$USRTIMER
 70
     1
  9
$ANGBASE
 50
0.0
  9
$ANGDIR
 70
     0
  9
$PDMODE
 70
     0
  9
$PDSIZE
 40
0.0
  9
$PLINEWID
 40
0.0
  9
$SPLFRAME
 70
     0
  9
$SPLINETYPE
 70
     6
  9
$SPLINESEGS
 70
     8
  9
$HANDSEED
  5
182F1
  9
$SURFTAB1
 70
     6
  9
$SURFTAB2
 70
     6
  9
$SURFTYPE
 70
     6
  9
$SURFU
 70
     6
  9
$SURFV
 70
     6
  9
$UCSBASE
  2

  9
$UCSNAME
  2

  9
$UCSORG
 10
0.0
 20
0.0
 30
0.0
  9
$UCSXDIR
 10
1.0
 20
0.0
 30
0.0
  9
$UCSYDIR
 10
0.0
 20
1.0
 30
0.0
  9
$UCSORTHOREF
  2

  9
$UCSORTHOVIEW
 70
     0
  9
$UCSORGTOP
 10
0.0
 20
0.0
 30
0.0
  9
$UCSORGBOTTOM
 10
0.0
 20
0.0
 30
0.0
  9
$UCSORGLEFT
 10
0.0
 20
0.0
 30
0.0
  9
$UCSORGRIGHT
 10
0.0
 20
0.0
 30
0.0
  9
$UCSORGFRONT
 10
0.0
 20
0.0
 30
0.0
  9
$UCSORGBACK
 10
0.0
 20
0.0
 30
0.0
  9
$PUCSBASE
  2

  9
$PUCSNAME
  2

  9
$PUCSORG
 10
0.0
 20
0.0
 30
0.0
  9
$PUCSXDIR
 10
1.0
 20
0.0
 30
0.0
  9
$PUCSYDIR
 10
0.0
 20
1.0
 30
0.0
  9
$PUCSORTHOREF
  2

  9
$PUCSORTHOVIEW
 70
     0
  9
$PUCSORGTOP
 10
0.0
 20
0.0
 30
0.0
  9
$PUCSORGBOTTOM
 10
0.0
 20
0.0
 30
0.0
  9
$PUCSORGLEFT
 10
0.0
 20
0.0
 30
0.0
  9
$PUCSORGRIGHT
 10
0.0
 20
0.0
 30
0.0
  9
$PUCSORGFRONT
 10
0.0
 20
0.0
 30
0.0
  9
$PUCSORGBACK
 10
0.0
 20
0.0
 30
0.0
  9
$USERI1
 70
     0
  9
$USERI2
 70
     0
  9
$USERI3
 70
     0
  9
$USERI4
 70
     0
  9
$USERI5
 70
     0
  9
$USERR1
 40
0.0
  9
$USERR2
 40
0.0
  9
$USERR3
 40
0.0
  9
$USERR4
 40
0.0
  9
$USERR5
 40
0.0
  9
$WORLDVIEW
 70
     1
  9
$SHADEDGE
 70
     3
  9
$SHADEDIF
 70
    70
  9
$TILEMODE
 70
     1
  9
$MAXACTVP
 70
    64
  9
$PINSBASE
 10
0.0
 20
0.0
 30
0.0
  9
$PLIMCHECK
 70
     0
  9
$PEXTMIN
 10
1.000000000000000E+20
 20
1.000000000000000E+20
 30
1.000000000000000E+20
  9
$PEXTMAX
 10
-1.000000000000000E+20
 20
-1.000000000000000E+20
 30
-1.000000000000000E+20
  9
$PLIMMIN
 10
-3.17498779296875
 20
-3.174999952316281
  9
$PLIMMAX
 10
293.4970092773438
 20
206.692492723465
  9
$UNITMODE
 70
     0
  9
$VISRETAIN
 70
     1
  9
$PLINEGEN
 70
     0
  9
$PSLTSCALE
 70
     1
  9
$TREEDEPTH
 70
  3020
  9
$CMLSTYLE
  2
Standard
  9
$CMLJUST
 70
     0
  9
$CMLSCALE
 40
20.0
  9
$PROXYGRAPHICS
 70
     1
  9
$MEASUREMENT
 70
     1
  9
$CELWEIGHT
370
    -1
  9
$ENDCAPS
280
     0
  9
$JOINSTYLE
280
     0
  9
$LWDISPLAY
290
     0
  9
$INSUNITS
 70
     4
  9
$HYPERLINKBASE
  1

  9
$STYLESHEET
  1
MONOCHROME.CTB
  9
$XEDIT
290
     1
  9
$CEPSNTYPE
380
     0
  9
$PSTYLEMODE
290
     1
  9
$FINGERPRINTGUID
  2
{83FB3AA1-FF18-4BFE-AFE0-611B71DE056D}
  9
$VERSIONGUID
  2
{015073CB-81BB-4CF9-8A5F-AA07594029CF}
  9
$EXTNAMES
290
     1
  9
$PSVPSCALE
 40
0.0
  9
$OLESTARTUP
290
     0
  0
ENDSEC
  0
SECTION
  2
CLASSES
  0
CLASS
  1
ACDBDICTIONARYWDFLT
  2
AcDbDictionaryWithDefault
  3
ObjectDBX Classes
 90
        0
280
     0
281
     0
  0
CLASS
  1
ACDBPLACEHOLDER
  2
AcDbPlaceHolder
  3
ObjectDBX Classes
 90
        0
280
     0
281
     0
  0
CLASS
  1
LAYOUT
  2
AcDbLayout
  3
ObjectDBX Classes
 90
        0
280
     0
281
     0
  0
CLASS
  1
AMGSETTINGSOBJ
  2
AmgSettingsObj
  3
"AcadM|Product Description: AutoCAD Mechanical|Company: Autodesk"
 90
        0
280
     0
281
     0
  0
CLASS
  1
ACME_DOCUMENT
  2
AcMeDbDoc
  3
AcMeServices
 90
        0
280
     0
281
     0
  0
CLASS
  1
ACMESCOPE
  2
AcMeScope
  3
AcMeServices
 90
        0
280
     0
281
     0
  0
CLASS
  1
ACMECOMMANDHISTORY
  2
AcMeCommandHistory
  3
AcMeServices
 90
        0
280
     0
281
     0
  0
CLASS
  1
DICTIONARYVAR
  2
AcDbDictionaryVar
  3
ObjectDBX Classes
 90
        0
280
     0
281
     0
  0
CLASS
  1
ACIMSYSVARMAN
  2
AcImSysVarManager
  3
AcMeServices
 90
        0
280
     0
281
     0
  0
CLASS
  1
ACIMREALSYSVAR
  2
AcImRealSysVar
  3
AcMeServices
 90
        0
280
     0
281
     0
  0
CLASS
  1
ACIMINTSYSVAR
  2
AcImIntSysVar
  3
AcMeServices
 90
        0
280
     0
281
     0
  0
CLASS
  1
ACMEDRAWINGMAN
  2
AcMeDrawingMan
  3
AcMeServices
 90
        0
280
     0
281
     0
  0
CLASS
  1
ACMEVIEW
  2
AcMeView
  3
AcMeServices
 90
        0
280
     0
281
     0
  0
CLASS
  1
ACDBENTITYCACHE
  2
AcMeEntityCache
  3
AcMeServices
 90
        0
280
     0
281
     0
  0
CLASS
  1
GSMANAGER
  2
AcMeGSManager
  3
AcMeServices
 90
        0
280
     0
281
     0
  0
CLASS
  1
AMDTINTERNALREACTOR
  2
AmdtInternalReactor
  3
AcMeServices
 90
        0
280
     0
281
     0
  0
CLASS
  1
ACMESTATEMGR
  2
AcMeStateMgr
  3
AcMeServices
 90
        0
280
     0
281
     0
  0
CLASS
  1
ACGREFMASTER
  2
AcGrefMaster
  3
AcAttribServices
 90
        0
280
     0
281
     0
  0
CLASS
  1
ACME_DATABASE
  2
AcMeDbDatabase
  3
AcMeServices
 90
        0
280
     0
281
     0
  0
CLASS
  1
ACRFINSADJUSTERMGR
  2
AcRfInsAdjusterMgr
  3
AcMeServices
 90
        0
280
     0
281
     0
  0
CLASS
  1
ACGREFACADMASTER
  2
AcGrefacadMaster
  3
AcGrefServices
 90
        0
280
     0
281
     0
  0
CLASS
  1
AMIMASTER
  2
AmiMaster
  3
AmiServices
 90
        0
280
     0
281
     0
  0
CLASS
  1
ACMDATADICTIONARY
  2
AcmDataDictionary
  3
"AcmSymBB|Product Description: AutoCAD Mechanical|Company: Autodesk"
 90
        0
280
     0
281
     0
  0
CLASS
  1
ACMDATAENTRYBLOCK
  2
AcmDataEntryBlock
  3
"AcmSymBB|Product Description: AutoCAD Mechanical|Company: Autodesk"
 90
    32768
280
     0
281
     0
  0
CLASS
  1
ACIMSTRSYSVAR
  2
AcImStrSysVar
  3
AcMeServices
 90
        0
280
     0
281
     0
  0
CLASS
  1
ACMSTANDARDISO
  2
AcmStandardISO
  3
"Amdt_StdImp|Product Description: AutoCAD Mechanical|Company: Autodesk"
 90
        0
280
     0
281
     0
  0
CLASS
  1
AMGOBJPROPCFG
  2
AmgObjPropCfg
  3
"AmgLay|Product Description: AutoCAD Mechanical|Company: Autodesk"
 90
        1
280
     0
281
     0
  0
CLASS
  1
AMDTEDGESTANDARDISO
  2
AmdtEdgeStdISO
  3
"Amdt_StdImp|Product Description: AutoCAD Mechanical|Company: Autodesk"
 90
    32768
280
     0
281
     0
  0
CLASS
  1
ACMSURFSTANDARDISO
  2
AcmSurfTextStdISO
  3
"Amdt_StdImp|Product Description: AutoCAD Mechanical|Company: Autodesk"
 90
        0
280
     0
281
     0
  0
CLASS
  1
ACMFCFSTANDARDISO
  2
AcmFCFStdISO
  3
"Amdt_StdImp|Product Description: AutoCAD Mechanical|Company: Autodesk"
 90
        0
280
     0
281
     0
  0
CLASS
  1
ACMWELDSTANDARDISO
  2
AcmWeldingStdISO
  3
"Amdt_StdImp|Product Description: AutoCAD Mechanical|Company: Autodesk"
 90
        0
280
     0
281
     0
  0
CLASS
  1
ACMIDSTANDARDISO
  2
AcmIdStdISO
  3
"Amdt_StdImp|Product Description: AutoCAD Mechanical|Company: Autodesk"
 90
        0
280
     0
281
     0
  0
CLASS
  1
ACMDATUMSTANDARDISO
  2
AcmDatumStdISO
  3
"Amdt_StdImp|Product Description: AutoCAD Mechanical|Company: Autodesk"
 90
        0
280
     0
281
     0
  0
CLASS
  1
ACMBOMSTANDARDISO
  2
AcmBOMStdISO
  3
"Amdt_StdImp|Product Description: AutoCAD Mechanical|Company: Autodesk"
 90
        0
280
     0
281
     0
  0
CLASS
  1
ACMDETAILSTANDARDISO
  2
AmdtDetailSymStdISO
  3
"Amdt_StdImp|Product Description: AutoCAD Mechanical|Company: Autodesk"
 90
        0
280
     0
281
     0
  0
CLASS
  1
ACMSECTIONSTANDARDISO
  2
AmdtSectionSymStdISO
  3
"Amdt_StdImp|Product Description: AutoCAD Mechanical|Company: Autodesk"
 90
        0
280
     0
281
     0
  0
CLASS
  1
ACMCENTERLINESTANDARDISO
  2
AmdtCenterLineStdISO
  3
"Amdt_StdImp|Product Description: AutoCAD Mechanical|Company: Autodesk"
 90
        0
280
     0
281
     0
  0
CLASS
  1
ACAMGLAYSTD
  2
AcAmgLayStd
  3
"AmgLay|Product Description: AutoCAD Mechanical|Company: Autodesk"
 90
        0
280
     0
281
     0
  0
CLASS
  1
ACAMGDIMSTD
  2
AcAmgDimStd
  3
"AmgDim|Product Description: AutoCAD Mechanical|Company: Autodesk"
 90
        0
280
     0
281
     0
  0
CLASS
  1
ACAMGTITLESTD
  2
AcAmgTitleStd
  3
"AmgTitle|Product Description: AutoCAD Mechanical|Company: Autodesk"
 90
        0
280
     0
281
     0
  0
CLASS
  1
ACAMGFILTERDAT
  2
AcAmgFilterDat
  3
"AcadM|Product Description: AutoCAD Mechanical|Company: Autodesk"
 90
    32768
280
     0
281
     0
  0
CLASS
  1
LAYER_INDEX
  2
AcDbLayerIndex
  3
ObjectDBX Classes
 90
    32768
280
     0
281
     0
  0
CLASS
  1
IDBUFFER
  2
AcDbIdBuffer
  3
ObjectDBX Classes
 90
    32768
280
     0
281
     0
  0
CLASS
  1
PLOTSETTINGS
  2
AcDbPlotSettings
  3
ObjectDBX Classes
 90
        0
280
     0
281
     0
  0
CLASS
  1
AMDTFORMULAUPDATEDISPATCHER
  2
AmdtFormulaUpdateDispatcher
  3
AcMeServices
 90
    32768
280
     0
281
     0
  0
CLASS
  1
ACMSTANDARDANSI
  2
AcmStandardANSI
  3
"Amdt_StdImp|Product Description: AutoCAD Mechanical|Company: Autodesk"
 90
    32768
280
     0
281
     0
  0
CLASS
  1
ACMSURFSTANDARDANSI
  2
AcmSurfTextStdANSI
  3
"Amdt_StdImp|Product Description: AutoCAD Mechanical|Company: Autodesk"
 90
    32768
280
     0
281
     0
  0
CLASS
  1
ACMFCFSTANDARDANSI
  2
AcmFCFStdANSI
  3
"Amdt_StdImp|Product Description: AutoCAD Mechanical|Company: Autodesk"
 90
    32768
280
     0
281
     0
  0
CLASS
  1
ACMWELDSTANDARDANSI
  2
AcmWeldingStdANSI
  3
"Amdt_StdImp|Product Description: AutoCAD Mechanical|Company: Autodesk"
 90
    32768
280
     0
281
     0
  0
CLASS
  1
ACMIDSTANDARDANSI
  2
AcmIdStdANSI
  3
"Amdt_StdImp|Product Description: AutoCAD Mechanical|Company: Autodesk"
 90
    32768
280
     0
281
     0
  0
CLASS
  1
ACMDATUMSTANDARDANSI
  2
AcmDatumStdANSI
  3
"Amdt_StdImp|Product Description: AutoCAD Mechanical|Company: Autodesk"
 90
    32768
280
     0
281
     0
  0
CLASS
  1
ACMBOMSTANDARDANSI
  2
AcmBOMStdANSI
  3
"Amdt_StdImp|Product Description: AutoCAD Mechanical|Company: Autodesk"
 90
    32768
280
     0
281
     0
  0
CLASS
  1
ACMDETAILSTANDARDANSI
  2
AmdtDetailSymStdANSI
  3
"Amdt_StdImp|Product Description: AutoCAD Mechanical|Company: Autodesk"
 90
    32768
280
     0
281
     0
  0
CLASS
  1
ACMSECTIONSTANDARDANSI
  2
AmdtSectionSymStdANSI
  3
"Amdt_StdImp|Product Description: AutoCAD Mechanical|Company: Autodesk"
 90
    32768
280
     0
281
     0
  0
CLASS
  1
ACMCENTERLINESTANDARDANSI
  2
AmdtCenterLineStdANSI
  3
"Amdt_StdImp|Product Description: AutoCAD Mechanical|Company: Autodesk"
 90
    32768
280
     0
281
     0
  0
CLASS
  1
ACMBOM
  2
AcmBom
  3
"AcmSymBB|Product Description: AutoCAD Mechanical|Company: Autodesk"
 90
    32768
280
     0
281
     0
  0
CLASS
  1
ACMDATAENTRYPART
  2
AcmDataEntryPart
  3
"AcmSymBB|Product Description: AutoCAD Mechanical|Company: Autodesk"
 90
    32768
280
     0
281
     0
  0
CLASS
  1
ACMPARTREF
  2
AcmPartRef
  3
"AcmSymBB|Product Description: AutoCAD Mechanical|Company: Autodesk"
 90
    35839
280
     0
281
     1
  0
CLASS
  1
ACDBCIRCARCRES
  2
AcDbCircArcRes
  3
AcGrefServices
 90
    32768
280
     0
281
     0
  0
CLASS
  1
ACMBOMROW
  2
AcmBomRow
  3
"AcmSymBB|Product Description: AutoCAD Mechanical|Company: Autodesk"
 90
    32768
280
     0
281
     0
  0
CLASS
  1
ACMBALLOON
  2
AcmBalloon
  3
"AcmSymBB|Product Description: AutoCAD Mechanical|Company: Autodesk"
 90
    35839
280
     0
281
     1
  0
CLASS
  1
AMDTNOTE
  2
AmdtNote
  3
"AcmSymBB|Product Description: AutoCAD Mechanical|Company: Autodesk"
 90
    35839
280
     0
281
     1
  0
CLASS
  1
STDPART2D
  2
AmgStdPart
  3
"g3vace|Class: AmgStdPart|Product Description: AutoCAD Mechanical|Company: Autodesk"
 90
    35839
280
     0
281
     1
  0
CLASS
  1
ACDBSTDPARTRES_LINE
  2
AcDbStdPartRes_Line
  3
"g3vace|Class: AcDbStdPartRes_Line|Product Description: AutoCAD Mechanical|Company: Autodesk"
 90
    32768
280
     0
281
     0
  0
CLASS
  1
ACMDATAENTRY
  2
AcmDataEntry
  3
"AcmSymBB|Product Description: AutoCAD Mechanical|Company: Autodesk"
 90
    32768
280
     0
281
     0
  0
CLASS
  1
ACDBOPPOLYLINERES
  2
AcDbOpPolylineRes
  3
AcGrefServices
 90
    32768
280
     0
281
     0
  0
CLASS
  1
ACMPARTLIST
  2
AcmPartList
  3
"AcmSymBB|Product Description: AutoCAD Mechanical|Company: Autodesk"
 90
    35839
280
     0
281
     1
  0
CLASS
  1
ACDBLINERES
  2
AcDbLineRes
  3
AcGrefServices
 90
    32768
280
     0
281
     0
  0
CLASS
  1
ACRFINSADJ
  2
AcRfInsAdjuster
  3
AcMeServices
 90
    32768
280
     0
281
     0
  0
CLASS
  1
AM_DRAWING_MGR
  2
AcDmDwgMgr
  3
AcMechDwgViewMgmt
 90
        0
280
     0
281
     0
  0
CLASS
  1
AM_DWG_DOCUMENT
  2
AcDmDwgDocument
  3
AcMechDwgViewMgmt
 90
        0
280
     0
281
     0
  0
CLASS
  1
AM_DWG_SHEET
  2
AcDmSheet
  3
AcMechDwgViewMgmt
 90
        0
280
     0
281
     0
  0
CLASS
  1
AM_VIEWDIMPARMAP
  2
AcDmViewDimParMap
  3
AcMechDwgViewMgmt
 90
        0
280
     0
281
     0
  0
CLASS
  1
AM_DWGMGR_NAME
  2
AcDmDwgMgrName
  3
AcMechDwgViewMgmt
 90
        0
280
     0
281
     0
  0
CLASS
  1
AMDTMENUSTATEMGR
  2
AmdtMenuStateMgr
  3
McadcomServices
 90
        0
280
     0
281
     0
  0
CLASS
  1
AMDTMCOMMENUSTATE
  2
AmdtMcomMenuState
  3
McadcomServices
 90
        0
280
     0
281
     0
  0
CLASS
  1
ASAPP
  2
AcAsAppObject
  3
AutoSurfServices
 90
        0
280
     0
281
     0
  0
CLASS
  1
IM_STATIC_MAN
  2
AcImStaticVarManager
  3
AcMeServices
 90
    32768
280
     0
281
     0
  0
CLASS
  1
ACIMDBLSTATICVAR
  2
AcImDblStaticVar
  3
AcMeServices
 90
    32768
280
     0
281
     0
  0
CLASS
  1
ACIMSTRSTATICVAR
  2
AcImStrStaticVar
  3
AcMeServices
 90
    32768
280
     0
281
     0
  0
CLASS
  1
ACIMINTSTATICVAR
  2
AcImIntStaticVar
  3
AcMeServices
 90
    32768
280
     0
281
     0
  0
CLASS
  1
ACASGREFMASTER
  2
AcAsGrefMaster
  3
AutoSurfResolverServices
 90
        0
280
     0
281
     0
  0
CLASS
  1
ACADGREFMODULE
  2
AcAdGrefModule
  3
AdGrefServices
 90
        0
280
     0
281
     0
  0
CLASS
  1
AMDTMAPISURFMOUDULE
  2
AmdtMApiSurfModule
  3
MApiSurfServices
 90
        0
280
     0
281
     0
  0
CLASS
  1
MAPIAMMOUDLE
  2
MApiAmModule
  3
MApiAmServices
 90
        0
280
     0
281
     0
  0
CLASS
  1
AMDTADMENUSTATE
  2
AmdtAdMenuState
  3
DesignerServices
 90
        0
280
     0
281
     0
  0
CLASS
  1
ADAPPL
  2
AcAdAppl
  3
DesignerServices
 90
        0
280
     0
281
     0
  0
CLASS
  1
DEPMGR
  2
AcAdDepMgr
  3
DesignerServices
 90
        0
280
     0
281
     0
  0
CLASS
  1
PARAMMGR
  2
AcAdParamMgr
  3
DesignerServices
 90
        0
280
     0
281
     0
  0
CLASS
  1
PARAMSCOPE
  2
AcAdParamScope
  3
DesignerServices
 90
        0
280
     0
281
     0
  0
CLASS
  1
NAMEDAPPL
  2
AcAdNamedAppl
  3
DesignerServices
 90
        0
280
     0
281
     0
  0
CLASS
  1
ADHNTMPLT
  2
AdHoleNoteTemplateMgr
  3
DesignerServices
 90
    32768
280
     0
281
     0
  0
CLASS
  1
AM_HNTEMPLATE_MGR_NAME
  2
AdHoleNoteTemplateMgrName
  3
DesignerServices
 90
    32768
280
     0
281
     0
  0
CLASS
  1
AMDTDMMENUSTATE
  2
AmdtDmMenuState
  3
AcMechDwgViewMgmt
 90
        0
280
     0
281
     0
  0
CLASS
  1
MAPIADMODULE
  2
MApiAdModule
  3
MApiAdServices
 90
        0
280
     0
281
     0
  0
CLASS
  1
AMDTAMMENUSTATE
  2
AmdtAmMenuState
  3
DesignerAssemblies
 90
        0
280
     0
281
     0
  0
CLASS
  1
ACAMPROJECT
  2
AcAmProject
  3
DesignerAssemblies
 90
        0
280
     0
281
     0
  0
CLASS
  1
ACAMGRCOMPDEF
  2
AcAmGrCompDef
  3
DesignerAssemblies
 90
        0
280
     0
281
     0
  0
CLASS
  1
ACCMCONTEXT
  2
AcCmContext
  3
DesignerAssemblies
 90
        0
280
     0
281
     0
  0
CLASS
  1
ACAMCOMPDEF
  2
AcAmCompDef
  3
DesignerAssemblies
 90
        0
280
     0
281
     0
  0
CLASS
  1
ACAMCOMPDEFMGR
  2
AcAmCompDefMgr
  3
DesignerAssemblies
 90
        0
280
     0
281
     0
  0
CLASS
  1
AMCONTEXTMGR
  2
AcAmContextMgr
  3
DesignerAssemblies
 90
        0
280
     0
281
     0
  0
CLASS
  1
ACAMCONTEXTMODELER
  2
AcAmContextModeler
  3
DesignerAssemblies
 90
        0
280
     0
281
     0
  0
CLASS
  1
CATALOGSTATE
  2
AcAmCatalogState
  3
DesignerAssemblies
 90
        0
280
     0
281
     0
  0
CLASS
  1
ACAMGRCOMPDEFSET
  2
AcAmGrCompDefSet
  3
DesignerAssemblies
 90
        0
280
     0
281
     0
  0
CLASS
  1
AMDTBROWSERDBTAB
  2
AmdtBrowserDbTab
  3
McadcomServices
 90
        0
280
     0
281
     0
  0
CLASS
  1
CBROWSERAPPOBJECT
  2
CBrowserAppObject
  3
McadcomServices
 90
        0
280
     0
281
     0
  0
CLASS
  1
DM_PLACEHOLDER
  2
AcDmSelsetPlaceholder
  3
AcMechDwgViewMgmt
 90
        0
280
     0
281
     0
  0
CLASS
  1
ACMPICKOBJ
  2
AcmPickEnt
  3
"AcmSymBB|Product Description: AutoCAD Mechanical|Company: Autodesk"
 90
    32768
280
     0
281
     1
  0
CLASS
  1
ACMNOTESTANDARDISO
  2
AmdtNoteStdISO
  3
"Amdt_StdImp|Product Description: AutoCAD Mechanical|Company: Autodesk"
 90
        0
280
     0
281
     0
  0
CLASS
  1
ACMNOTESTANDARDANSI
  2
AmdtNoteStdANSI
  3
"Amdt_StdImp|Product Description: AutoCAD Mechanical|Company: Autodesk"
 90
    32768
280
     0
281
     0
  0
CLASS
  1
TABLESTYLE
  2
AcDbTableStyle
  3
ObjectDBX Classes
 90
     4095
280
     0
281
     0
  0
CLASS
  1
ACMTHREADLINESTANDARDISO
  2
AmdtThreadLineStdISO
  3
"Amdt_StdImp|Product Description: AutoCAD Mechanical|Company: Autodesk"
 90
        0
280
     0
281
     0
  0
CLASS
  1
ACMTHREADLINESTANDARDANSI
  2
AmdtThreadLineStdANSI
  3
"Amdt_StdImp|Product Description: AutoCAD Mechanical|Company: Autodesk"
 90
    32768
280
     0
281
     0
  0
CLASS
  1
SORTENTSTABLE
  2
AcDbSortentsTable
  3
ObjectDBX Classes
 90
        0
280
     0
281
     0
  0
CLASS
  1
AMDTACMWBLOCKBOMENTITY
  2
AmdtAcmWblockBomEntity
  3
"AcmSymBB|Product Description: AutoCAD Mechanical|Company: Autodesk"
 90
     3071
280
     0
281
     1
  0
CLASS
  1
AMDTNOTETEMPLATEDB
  2
AmdtNoteTemplateDB
  3
AMDT_STDIMP_MODULE_NAME
 90
        0
280
     0
281
     0
  0
CLASS
  1
DIMASSOC
  2
AcDbDimAssoc
  3
"AcDbDimAssoc|Product Desc:     AcDim ARX App For Dimension|Company:          Autodesk, Inc.|WEB Address:      www.autodesk.com"
 90
    32768
280
     0
281
     0
  0
CLASS
  1
MATERIAL
  2
AcDbMaterial
  3
ObjectDBX Classes
 90
     1024
280
     0
281
     0
  0
CLASS
  1
VISUALSTYLE
  2
AcDbVisualStyle
  3
ObjectDBX Classes
 90
     4095
280
     0
281
     0
  0
CLASS
  1
ACRFATTGENMGR
  2
AcRfAttGeneralMgr
  3
AcAttribServices
 90
    32768
280
     0
281
     0
  0
CLASS
  1
ACRFOBJATTMGR
  2
AcRfObjAttGroupMgr
  3
AcAttribServices
 90
    32768
280
     0
281
     0
  0
CLASS
  1
ACRFMCADAPIATTHOLDER
  2
AcRfMCADAPIAttHolder
  3
AcAttribServices
 90
    32768
280
     0
281
     0
  0
CLASS
  1
AMDTSYSATTR
  2
AmdtSystemAttribute
  3
AcAttribServices
 90
    32768
280
     0
281
     0
  0
CLASS
  1
ACMTAPERSTANDARDISO
  2
AcmTaperStdISO
  3
"Amdt_StdImp|Product Description: AutoCAD Mechanical|Company: Autodesk"
 90
        0
280
     0
281
     0
  0
CLASS
  1
ACMTAPERSTANDARDANSI
  2
AcmTaperStdANSI
  3
"Amdt_StdImp|Product Description: AutoCAD Mechanical|Company: Autodesk"
 90
    32768
280
     0
281
     0
  0
CLASS
  1
AMDTEDGESTANDARDISO13715
  2
AmdtEdgeStdISO13715
  3
"Amdt_StdImp|Product Description: AutoCAD Mechanical|Company: Autodesk"
 90
        0
280
     0
281
     0
  0
CLASS
  1
ACAMGHOLECHARTSTDISO
  2
AcAmgHoleChartStdISO
  3
ACMSYMBB_MODULE_NAME
 90
        0
280
     0
281
     0
  0
CLASS
  1
CAMSSTRUCTBTNSTATE
  2
StructBtnState
  3
L"DesignerAssemblies"
 90
    32768
280
     0
281
     0
  0
ENDSEC
  0
SECTION
  2
TABLES
  0
TABLE
  2
VPORT
  5
8
330
0
100
AcDbSymbolTable
 70
     1
  0
VPORT
  5
160FA
330
8
100
AcDbSymbolTableRecord
100
AcDbViewportTableRecord
  2
*Active
 70
     0
 10
0.0
 20
0.0
 11
1.0
 21
1.0
 12
956.6320542632434
 22
69.28260102142643
 13
0.0
 23
0.0
 14
2.5
 24
2.5
 15
10.0
 25
10.0
 16
0.0
 26
0.0
 36
1.0
 17
0.0
 27
0.0
 37
0.0
 40
297.3191693053829
 41
1.287799791449426
 42
50.0
 43
-1370.695619172058
 44
-1370.695619172058
 50
0.0
 51
0.0
 71
    16
 72
   100
 73
     1
 74
     3
 75
     0
 76
     0
 77
     0
 78
     1
281
     0
 65
     0
110
0.0
120
0.0
130
0.0
111
1.0
121
0.0
131
0.0
112
0.0
122
1.0
132
0.0
 79
     0
146
0.0
  0
ENDTAB
  0
TABLE
  2
LTYPE
  5
5
330
0
100
AcDbSymbolTable
 70
    27
  0
LTYPE
  5
14
330
5
100
AcDbSymbolTableRecord
100
AcDbLinetypeTableRecord
  2
ByBlock
 70
     0
  3

 72
    65
 73
     0
 40
0.0
  0
LTYPE
  5
15
330
5
100
AcDbSymbolTableRecord
100
AcDbLinetypeTableRecord
  2
ByLayer
 70
     0
  3

 72
    65
 73
     0
 40
0.0
  0
LTYPE
  5
16
330
5
100
AcDbSymbolTableRecord
100
AcDbLinetypeTableRecord
  2
Continuous
 70
     0
  3
Solid line
 72
    65
 73
     0
 40
0.0
  0
LTYPE
  5
4F
330
5
100
AcDbSymbolTableRecord
100
AcDbLinetypeTableRecord
  2
AM_ISO02W050
 70
     0
  3
__ __ __ __ __ __ __ __ __ __ __ __ __ __ __
 72
    65
 73
     2
 40
7.5
 49
6.0
 74
     0
 49
-1.5
 74
     0
  0
LTYPE
  5
52
330
5
100
AcDbSymbolTableRecord
100
AcDbLinetypeTableRecord
  2
Amconstr
 70
     0
  3
_______________________
 72
    65
 73
     2
 40
9999.0
 49
9999.0
 74
     0
 49
0.0
 74
     0
  0
LTYPE
  5
64
330
5
100
AcDbSymbolTableRecord
100
AcDbLinetypeTableRecord
  2
ACISOWELD
 70
     0
  3
_ _ _ _ _
 72
    65
 73
     2
 40
2.0
 49
2.0
 74
     0
 49
-1.0
 74
     0
  0
LTYPE
  5
65
330
5
100
AcDbSymbolTableRecord
100
AcDbLinetypeTableRecord
  2
ACISOTGB
 70
     0
  3
__ . . __ . .
 72
    65
 73
     6
 40
9.0
 49
4.0
 74
     0
 49
-1.0
 74
     0
 49
1.0
 74
     0
 49
-1.0
 74
     0
 49
1.0
 74
     0
 49
-1.0
 74
     0
  0
LTYPE
  5
66
330
5
100
AcDbSymbolTableRecord
100
AcDbLinetypeTableRecord
  2
ACISOTGL
 70
     0
  3
_ _ _ _ _
 72
    65
 73
     2
 40
3.0
 49
2.0
 74
     0
 49
-1.0
 74
     0
  0
LTYPE
  5
69
330
5
100
AcDbSymbolTableRecord
100
AcDbLinetypeTableRecord
  2
CENTER
 70
     0
  3
__ . __
 72
    65
 73
     4
 40
7.0
 49
4.0
 74
     0
 49
-1.0
 74
     0
 49
1.0
 74
     0
 49
-1.0
 74
     0
  0
LTYPE
  5
A6E
330
5
100
AcDbSymbolTableRecord
100
AcDbLinetypeTableRecord
  2
PHANTOM2
 70
     0
  3
Phantom (.5x) ___ _ _ ___ _ _ ___ _ _ ___ _ _
 72
    65
 73
     6
 40
31.75
 49
15.875
 74
     0
 49
-3.174999999999998
 74
     0
 49
3.174999999999998
 74
     0
 49
-3.174999999999998
 74
     0
 49
3.174999999999998
 74
     0
 49
-3.174999999999998
 74
     0
  0
LTYPE
  5
FA3
330
5
100
AcDbSymbolTableRecord
100
AcDbLinetypeTableRecord
  2
ACANSTGB
 70
     0
  3
__ . . __ . .
 72
    65
 73
     6
 40
0.35433070866
 49
0.15748031496
 74
     0
 49
-0.03937007874
 74
     0
 49
0.03937007874
 74
     0
 49
-0.03937007874
 74
     0
 49
0.03937007874
 74
     0
 49
-0.03937007874
 74
     0
  0
LTYPE
  5
FA4
330
5
100
AcDbSymbolTableRecord
100
AcDbLinetypeTableRecord
  2
ACANSTGL
 70
     0
  3
_ _ _ _ _
 72
    65
 73
     2
 40
0.11811023622
 49
0.07874015748
 74
     0
 49
-0.03937007874
 74
     0
  0
LTYPE
  5
4DED
330
5
100
AcDbSymbolTableRecord
100
AcDbLinetypeTableRecord
  2
中線
 70
     0
  3
___________________
 72
    65
 73
     2
 40
2.0
 49
1.0
 74
     0
 49
1.0
 74
     0
  0
LTYPE
  5
4DF6
330
5
100
AcDbSymbolTableRecord
100
AcDbLinetypeTableRecord
  2
細線
 70
     0
  3
___________________
 72
    65
 73
     2
 40
2.0
 49
1.0
 74
     0
 49
1.0
 74
     0
  0
LTYPE
  5
4DF7
330
5
100
AcDbSymbolTableRecord
100
AcDbLinetypeTableRecord
  2
太線
 70
     0
  3
___________________
 72
    65
 73
     2
 40
2.0
 49
1.0
 74
     0
 49
1.0
 74
     0
  0
LTYPE
  5
4EA7
330
5
100
AcDbSymbolTableRecord
100
AcDbLinetypeTableRecord
  2
文字
 70
     0
  3
_________________
 72
    65
 73
     2
 40
2.0
 49
1.0
 74
     0
 49
1.0
 74
     0
  0
LTYPE
  5
4EA9
330
5
100
AcDbSymbolTableRecord
100
AcDbLinetypeTableRecord
  2
寸法線
 70
     0
  3
________________
 72
    65
 73
     2
 40
2.0
 49
1.0
 74
     0
 49
1.0
 74
     0
  0
LTYPE
  5
4F12
330
5
100
AcDbSymbolTableRecord
100
AcDbLinetypeTableRecord
  2
ハッチング
 70
     0
  3
_________________
 72
    65
 73
     2
 40
2.0
 49
1.0
 74
     0
 49
1.0
 74
     0
  0
LTYPE
  5
5180
330
5
100
AcDbSymbolTableRecord
100
AcDbLinetypeTableRecord
  2
陰線1
 70
     0
  3
__ __ __ __
 72
    65
 73
     2
 40
4.0
 49
2.2
 74
     0
 49
-1.8
 74
     0
  0
LTYPE
  5
5182
330
5
100
AcDbSymbolTableRecord
100
AcDbLinetypeTableRecord
  2
切断線
 70
     0
  3
/\/-/\/-/\/-/\/-/\/-/\/
 72
    65
 73
     2
 40
11.0001
 49
0.0001
 74
     4
 75
   135
340
56
 46
0.04
 50
0.0
 44
0.0
 45
0.0
 49
-11.0
 74
     0
  0
LTYPE
  5
5183
330
5
100
AcDbSymbolTableRecord
100
AcDbLinetypeTableRecord
  2
想像線1
 70
     0
  3
__ __ __ _____ __ __ ____
 72
    65
 73
     6
 40
14.5
 49
6.0
 74
     0
 49
-1.5
 74
     0
 49
2.0
 74
     0
 49
-1.5
 74
     0
 49
2.0
 74
     0
 49
-1.5
 74
     0
  0
LTYPE
  5
5185
330
5
100
AcDbSymbolTableRecord
100
AcDbLinetypeTableRecord
  2
中心線1
 70
     0
  3
___ _ ___ _ ___
 72
    65
 73
     4
 40
18.0
 49
12.0
 74
     0
 49
-2.0
 74
     0
 49
2.0
 74
     0
 49
-2.0
 74
     0
  0
LTYPE
  5
5188
330
5
100
AcDbSymbolTableRecord
100
AcDbLinetypeTableRecord
  2
補助線
 70
     0
  3
______________
 72
    65
 73
     2
 40
2.0
 49
1.0
 74
     0
 49
1.0
 74
     0
  0
LTYPE
  5
1293F
330
5
100
AcDbSymbolTableRecord
100
AcDbLinetypeTableRecord
  2
HIDDEN
 70
     0
  3
Hidden __ __ __ __ __ __ __ __ __ __ __ __ __ _
 72
    65
 73
     2
 40
9.524999999999996
 49
6.349999999999997
 74
     0
 49
-3.174999999999998
 74
     0
  0
LTYPE
  5
1535C
330
5
100
AcDbSymbolTableRecord
100
AcDbLinetypeTableRecord
  2
AM_ISO08W050
 70
     0
  3
____ . ____ . ____ . ____ . ____ . ____ . ____
 72
    65
 73
     4
 40
18.0
 49
12.0
 74
     0
 49
-1.5
 74
     0
 49
3.0
 74
     0
 49
-1.5
 74
     0
  0
LTYPE
  5
1535D
330
5
100
AcDbSymbolTableRecord
100
AcDbLinetypeTableRecord
  2
AM_ISO09W050
 70
     0
  3
_____ . . _____ . . _____ . . ____ .. ____
 72
    65
 73
     6
 40
22.5
 49
12.0
 74
     0
 49
-1.5
 74
     0
 49
3.0
 74
     0
 49
-1.5
 74
     0
 49
3.0
 74
     0
 49
-1.5
 74
     0
  0
LTYPE
  5
1535E
330
5
100
AcDbSymbolTableRecord
100
AcDbLinetypeTableRecord
  2
AM_ISO08W050x2
 70
     0
  3
__ . __ . __ . __ . __ . __
 72
    65
 73
     4
 40
9.0
 49
6.0
 74
     0
 49
-0.75
 74
     0
 49
1.5
 74
     0
 49
-0.75
 74
     0
  0
LTYPE
  5
1535F
330
5
100
AcDbSymbolTableRecord
100
AcDbLinetypeTableRecord
  2
AM_ISO02W050x2
 70
     0
  3
 _ _ _ _ _ _ _ _ _ _ _ _
 72
    65
 73
     2
 40
3.75
 49
3.0
 74
     0
 49
-0.75
 74
     0
  0
LTYPE
  5
15360
330
5
100
AcDbSymbolTableRecord
100
AcDbLinetypeTableRecord
  2
Amzigzag
 70
     0
  3
/\/-/\/-/\/-/\/-/\/-/\/
 72
    65
 73
     2
 40
11.0001
 49
0.0001
 74
     4
 75
   135
340
56
 46
0.04
 50
0.0
 44
0.0
 45
0.0
 49
-11.0
 74
     0
  0
ENDTAB
  0
TABLE
  2
LAYER
  5
2
102
{ACAD_XDICTIONARY
360
3F95
102
}
330
0
100
AcDbSymbolTable
 70
    24
  0
LAYER
  5
10
330
2
100
AcDbSymbolTableRecord
100
AcDbLayerTableRecord
  2
0
 70
     0
 62
     7
  6
Continuous
370
    -3
390
F
  0
LAYER
  5
6D1
330
2
100
AcDbSymbolTableRecord
100
AcDbLayerTableRecord
  2
Defpoints
 70
     0
 62
     7
  6
Continuous
290
     0
370
    -3
390
F
  0
LAYER
  5
A46
330
2
100
AcDbSymbolTableRecord
100
AcDbLayerTableRecord
  2
size
 70
     0
 62
     5
  6
Continuous
290
     0
370
    30
390
F
  0
LAYER
  5
A47
330
2
100
AcDbSymbolTableRecord
100
AcDbLayerTableRecord
  2
waku
 70
     0
 62
     7
  6
Continuous
370
    40
390
F
  0
LAYER
  5
A48
330
2
100
AcDbSymbolTableRecord
100
AcDbLayerTableRecord
  2
AM_6
 70
     0
 62
     2
  6
文字
370
    18
390
F
  0
LAYER
  5
3A31
330
2
100
AcDbSymbolTableRecord
100
AcDbLayerTableRecord
  2
hyosen1
 70
     0
 62
     1
  6
Continuous
370
    30
390
F
  0
LAYER
  5
5765
330
2
100
AcDbSymbolTableRecord
100
AcDbLayerTableRecord
  2
hyomoji
 70
     0
 62
     2
  6
Continuous
370
    20
390
F
  0
LAYER
  5
591A
330
2
100
AcDbSymbolTableRecord
100
AcDbLayerTableRecord
  2
hyosen2
 70
     0
 62
     1
  6
Continuous
370
    20
390
F
  0
LAYER
  5
5F85
330
2
100
AcDbSymbolTableRecord
100
AcDbLayerTableRecord
  2
AM_0
 70
     0
 62
     7
  6
中線
370
    30
390
F
  0
LAYER
  5
5F86
330
2
100
AcDbSymbolTableRecord
100
AcDbLayerTableRecord
  2
AM_1
 70
     0
 62
    30
  6
太線
370
    40
390
F
  0
LAYER
  5
5F87
330
2
100
AcDbSymbolTableRecord
100
AcDbLayerTableRecord
  2
AM_2
 70
     0
 62
     1
  6
細線
370
    15
390
F
  0
LAYER
  5
5F88
330
2
100
AcDbSymbolTableRecord
100
AcDbLayerTableRecord
  2
AM_3
 70
     0
 62
     6
  6
陰線1
370
    18
390
F
  0
LAYER
  5
5F89
330
2
100
AcDbSymbolTableRecord
100
AcDbLayerTableRecord
  2
AM_4
 70
     0
 62
     3
  6
補助線
370
    15
390
F
  0
LAYER
  5
5F8A
330
2
100
AcDbSymbolTableRecord
100
AcDbLayerTableRecord
  2
AM_5
 70
     0
 62
     3
  6
寸法線
370
    15
390
F
  0
LAYER
  5
5F8B
330
2
100
AcDbSymbolTableRecord
100
AcDbLayerTableRecord
  2
AM_7
 70
     0
 62
     4
  6
中心線1
370
    15
390
F
  0
LAYER
  5
5F8C
330
2
100
AcDbSymbolTableRecord
100
AcDbLayerTableRecord
  2
AM_8
 70
     0
 62
     1
  6
ハッチング
370
    15
390
F
  0
LAYER
  5
5F8D
330
2
100
AcDbSymbolTableRecord
100
AcDbLayerTableRecord
  2
AM_10
 70
     0
 62
     7
  6
切断線
370
    15
390
F
  0
LAYER
  5
642B
330
2
100
AcDbSymbolTableRecord
100
AcDbLayerTableRecord
  2
AM_CL
 70
     0
 62
     1
  6
Amconstr
370
     0
390
F
  0
LAYER
  5
65AF
330
2
100
AcDbSymbolTableRecord
100
AcDbLayerTableRecord
  2
AM_11
 70
     0
 62
     2
  6
想像線1
370
    15
390
F
  0
LAYER
  5
73C2
330
2
100
AcDbSymbolTableRecord
100
AcDbLayerTableRecord
  2
AM_12
 70
     0
 62
     7
  6
Continuous
290
     0
370
    20
390
F
  0
LAYER
  5
E33A
330
2
100
AcDbSymbolTableRecord
100
AcDbLayerTableRecord
  2
PV0001_1
 70
     0
 62
     7
  6
Continuous
370
    -3
390
F
  0
LAYER
  5
F630
330
2
100
AcDbSymbolTableRecord
100
AcDbLayerTableRecord
  2
IS0001D5_1
 70
     0
 62
     7
  6
Continuous
370
    -3
390
F
  0
LAYER
  5
F638
330
2
100
AcDbSymbolTableRecord
100
AcDbLayerTableRecord
  2
SS0001D22475_1
 70
     0
 62
     7
  6
Continuous
370
    -3
390
F
  0
LAYER
  5
11F6B
330
2
100
AcDbSymbolTableRecord
100
AcDbLayerTableRecord
  2
AM_PAREF
 70
     0
 62
     4
  6
Continuous
290
     0
370
    20
390
F
  0
ENDTAB
  0
TABLE
  2
STYLE
  5
3
330
0
100
AcDbSymbolTable
 70
     7
  0
STYLE
  5
11
330
3
100
AcDbSymbolTableRecord
100
AcDbTextStyleTableRecord
  2
STANDARD
 70
     0
 40
0.0
 41
0.7
 50
0.0
 71
     0
 42
3.2
  3
romans.shx
  4
extfont.shx
  0
STYLE
  5
56
330
3
100
AcDbSymbolTableRecord
100
AcDbTextStyleTableRecord
  2

 70
     1
 40
0.0
 41
1.0
 50
0.0
 71
     0
 42
2.5
  3
ltypeshp.shx
  4

  0
STYLE
  5
58
330
3
100
AcDbSymbolTableRecord
100
AcDbTextStyleTableRecord
  2
ACISOTS
 70
     0
 40
0.0
 41
0.7
 50
0.0
 71
     0
 42
2.5
  3
romans.shx
  4
extfont.shx
  0
STYLE
  5
63
330
3
100
AcDbSymbolTableRecord
100
AcDbTextStyleTableRecord
  2
ACISOGDT
 70
     0
 40
0.0
 41
1.0
 50
0.0
 71
     0
 42
2.5
  3
amgdt.shx
  4

  0
STYLE
  5
A74
330
3
100
AcDbSymbolTableRecord
100
AcDbTextStyleTableRecord
  2
DIM
 70
     0
 40
0.0
 41
1.0
 50
0.0
 71
     0
 42
2.5
  3
monotxt.shx
  4
extfont.shx
  0
STYLE
  5
FA7
330
3
100
AcDbSymbolTableRecord
100
AcDbTextStyleTableRecord
  2
ACANSTS
 70
     0
 40
1.0
 41
1.0
 50
0.0
 71
     0
 42
0.2
  3
romans.shx
  4
extfont.shx
  0
STYLE
  5
FA8
330
3
100
AcDbSymbolTableRecord
100
AcDbTextStyleTableRecord
  2
ACANSGDT
 70
     0
 40
0.0
 41
1.0
 50
0.0
 71
     0
 42
0.2
  3
amgdtans.shx
  4

  0
ENDTAB
  0
TABLE
  2
VIEW
  5
6
330
0
100
AcDbSymbolTable
 70
     6
  0
VIEW
  5
AE1
330
6
100
AcDbSymbolTableRecord
100
AcDbViewTableRecord
  2
AM_VIEW1
 70
     0
 40
144.25
 10
334.3858514422121
 20
116.375
 41
229.7804319371728
 11
0.0
 21
0.0
 31
1.0
 12
0.0
 22
0.0
 32
0.0
 42
50.0
 43
-1370.695619172058
 44
-1370.695619172058
 50
0.0
 71
    16
281
     0
 72
     0
  0
VIEW
  5
AE2
330
6
100
AcDbSymbolTableRecord
100
AcDbViewTableRecord
  2
AM_VIEW2
 70
     0
 40
144.25
 10
513.1054195050393
 20
116.375
 41
229.7804319371728
 11
0.0
 21
0.0
 31
1.0
 12
0.0
 22
0.0
 32
0.0
 42
50.0
 43
-1370.695619172058
 44
-1370.695619172058
 50
0.0
 71
    16
281
     0
 72
     0
  0
VIEW
  5
AE3
330
6
100
AcDbSymbolTableRecord
100
AcDbViewTableRecord
  2
AM_VIEW3
 70
     0
 40
144.25
 10
334.3858514422121
 20
-27.875
 41
229.7804319371728
 11
0.0
 21
0.0
 31
1.0
 12
0.0
 22
0.0
 32
0.0
 42
50.0
 43
-1370.695619172058
 44
-1370.695619172058
 50
0.0
 71
    16
281
     0
 72
     0
  0
VIEW
  5
AE4
330
6
100
AcDbSymbolTableRecord
100
AcDbViewTableRecord
  2
AM_VIEW4
 70
     0
 40
144.25
 10
513.1054195050393
 20
-27.875
 41
229.7804319371728
 11
0.0
 21
0.0
 31
1.0
 12
0.0
 22
0.0
 32
0.0
 42
50.0
 43
-1370.695619172058
 44
-1370.695619172058
 50
0.0
 71
    16
281
     0
 72
     0
  0
VIEW
  5
AE5
330
6
100
AcDbSymbolTableRecord
100
AcDbViewTableRecord
  2
AM_VIEW5
 70
     0
 40
144.25
 10
423.7456354736257
 20
44.24999999999999
 41
229.7804319371728
 11
0.0
 21
0.0
 31
1.0
 12
0.0
 22
0.0
 32
0.0
 42
50.0
 43
-1370.695619172058
 44
-1370.695619172058
 50
0.0
 71
    16
281
     0
 72
     0
  0
VIEW
  5
AE6
330
6
100
AcDbSymbolTableRecord
100
AcDbViewTableRecord
  2
AM_VIEW6
 70
     0
 40
288.497115
 10
423.7456354736257
 20
44.24999999999999
 41
459.5562682657067
 11
0.0
 21
0.0
 31
1.0
 12
0.0
 22
0.0
 32
0.0
 42
50.0
 43
-1370.695619172058
 44
-1370.695619172058
 50
0.0
 71
    16
281
     0
 72
     0
  0
ENDTAB
  0
TABLE
  2
UCS
  5
7
330
0
100
AcDbSymbolTable
 70
     0
  0
ENDTAB
  0
TABLE
  2
APPID
  5
9
330
0
100
AcDbSymbolTable
 70
    54
  0
APPID
  5
12
330
9
100
AcDbSymbolTableRecord
100
AcDbRegAppTableRecord
  2
ACAD
 70
     0
  0
APPID
  5
30
330
9
100
AcDbSymbolTableRecord
100
AcDbRegAppTableRecord
  2
MCAD_NO_VIS
 70
     0
  0
APPID
  5
31
330
9
100
AcDbSymbolTableRecord
100
AcDbRegAppTableRecord
  2
ACAD_TEMP_GRAPHIC
 70
     0
  0
APPID
  5
44
330
9
100
AcDbSymbolTableRecord
100
AcDbRegAppTableRecord
  2
ACATTRIBSERVICES
 70
     0
  0
APPID
  5
7A1
330
9
100
AcDbSymbolTableRecord
100
AcDbRegAppTableRecord
  2
GENIUS_GENDIMSH_14
 70
     0
  0
APPID
  5
A49
330
9
100
AcDbSymbolTableRecord
100
AcDbRegAppTableRecord
  2
GENIUS_GENREC_14
 70
     0
  0
APPID
  5
A4A
330
9
100
AcDbSymbolTableRecord
100
AcDbRegAppTableRecord
  2
GENIUS_GENOBJ-N-REC_13
 70
     0
  0
APPID
  5
A4B
330
9
100
AcDbSymbolTableRecord
100
AcDbRegAppTableRecord
  2
GENIUS_GENODEF_13
 70
     0
  0
APPID
  5
A4C
330
9
100
AcDbSymbolTableRecord
100
AcDbRegAppTableRecord
  2
DCO15
 70
     0
  0
APPID
  5
ADC
330
9
100
AcDbSymbolTableRecord
100
AcDbRegAppTableRecord
  2
GENIUS_GENOLIS_13
 70
     0
  0
APPID
  5
ADD
330
9
100
AcDbSymbolTableRecord
100
AcDbRegAppTableRecord
  2
GENIUS_GENOENT_13
 70
     0
  0
APPID
  5
ADE
330
9
100
AcDbSymbolTableRecord
100
AcDbRegAppTableRecord
  2
GENIUS_GENOBJ-N-TIT_13
 70
     0
  0
APPID
  5
ADF
330
9
100
AcDbSymbolTableRecord
100
AcDbRegAppTableRecord
  2
GENIUS_GENTITLE_13
 70
     0
  0
APPID
  5
AE0
330
9
100
AcDbSymbolTableRecord
100
AcDbRegAppTableRecord
  2
GENIUS_GENOREF_13
 70
     0
  0
APPID
  5
AE7
330
9
100
AcDbSymbolTableRecord
100
AcDbRegAppTableRecord
  2
GENIUS_GENSCREG_15
 70
     0
  0
APPID
  5
AE8
330
9
100
AcDbSymbolTableRecord
100
AcDbRegAppTableRecord
  2
GENIUS_GENOBJ-N-SDF_13
 70
     0
  0
APPID
  5
FAF
330
9
100
AcDbSymbolTableRecord
100
AcDbRegAppTableRecord
  2
GENIUS_GENBLLY_14
 70
     0
  0
APPID
  5
FB0
330
9
100
AcDbSymbolTableRecord
100
AcDbRegAppTableRecord
  2
GENIUS_GENTRA_14
 70
     0
  0
APPID
  5
1285
330
9
100
AcDbSymbolTableRecord
100
AcDbRegAppTableRecord
  2
GENIUS_GENDTOL_13
 70
     0
  0
APPID
  5
142D
330
9
100
AcDbSymbolTableRecord
100
AcDbRegAppTableRecord
  2
GENIUS_GENOBJ-N-CEN_13
 70
     0
  0
APPID
  5
1AB5
330
9
100
AcDbSymbolTableRecord
100
AcDbRegAppTableRecord
  2
GENIUS_GENOBJ-N-CRS_13
 70
     0
  0
APPID
  5
1B36
330
9
100
AcDbSymbolTableRecord
100
AcDbRegAppTableRecord
  2
GENIUS_GENOBJ-N-HTC_13
 70
     0
  0
APPID
  5
1B37
330
9
100
AcDbSymbolTableRecord
100
AcDbRegAppTableRecord
  2
GENIUS_GENHATCH_13
 70
     0
  0
APPID
  5
216D
330
9
100
AcDbSymbolTableRecord
100
AcDbRegAppTableRecord
  2
GENIUS_GENOBJ-N-FIL_13
 70
     0
  0
APPID
  5
2356
330
9
100
AcDbSymbolTableRecord
100
AcDbRegAppTableRecord
  2
GEVID990412420
 70
     0
  0
APPID
  5
2357
330
9
100
AcDbSymbolTableRecord
100
AcDbRegAppTableRecord
  2
GEVDC
 70
     0
  0
APPID
  5
2358
330
9
100
AcDbSymbolTableRecord
100
AcDbRegAppTableRecord
  2
GEVCON
 70
     0
  0
APPID
  5
235B
330
9
100
AcDbSymbolTableRecord
100
AcDbRegAppTableRecord
  2
GEVRADREF
 70
     0
  0
APPID
  5
2360
330
9
100
AcDbSymbolTableRecord
100
AcDbRegAppTableRecord
  2
GENIUS_GENBH_13
 70
     0
  0
APPID
  5
2362
330
9
100
AcDbSymbolTableRecord
100
AcDbRegAppTableRecord
  2
GENIUS_GENOBJ-NBEHI-BHF_13
 70
     0
  0
APPID
  5
2364
330
9
100
AcDbSymbolTableRecord
100
AcDbRegAppTableRecord
  2
GENIUS_GENOBJ-NBEHI-BHB_13
 70
     0
  0
APPID
  5
2379
330
9
100
AcDbSymbolTableRecord
100
AcDbRegAppTableRecord
  2
GENIUS_GENOBJ-F-SCPASSM_13
 70
     0
  0
APPID
  5
3D74
330
9
100
AcDbSymbolTableRecord
100
AcDbRegAppTableRecord
  2
GENIUS_GENDIM_13
 70
     0
  0
APPID
  5
3D76
330
9
100
AcDbSymbolTableRecord
100
AcDbRegAppTableRecord
  2
GENIUS_GE3DTOL_13
 70
     0
  0
APPID
  5
3D9C
330
9
100
AcDbSymbolTableRecord
100
AcDbRegAppTableRecord
  2
AD_DRAW
 70
     0
  0
APPID
  5
3DE8
330
9
100
AcDbSymbolTableRecord
100
AcDbRegAppTableRecord
  2
ASURF_PCURVE_APPNAME
 70
     0
  0
APPID
  5
3DED
330
9
100
AcDbSymbolTableRecord
100
AcDbRegAppTableRecord
  2
AMG_3D2D_5.0
 70
     0
  0
APPID
  5
3E1B
330
9
100
AcDbSymbolTableRecord
100
AcDbRegAppTableRecord
  2
DESIGNERASSEMBLIES
 70
     0
  0
APPID
  5
3E20
330
9
100
AcDbSymbolTableRecord
100
AcDbRegAppTableRecord
  2
ACADM_DIM_EDIT
 70
     0
  0
APPID
  5
3E21
330
9
100
AcDbSymbolTableRecord
100
AcDbRegAppTableRecord
  2
AMDT_DM_ADJ
 70
     0
  0
APPID
  5
4143
330
9
100
AcDbSymbolTableRecord
100
AcDbRegAppTableRecord
  2
GENIUS_GENFIL_13
 70
     0
  0
APPID
  5
4144
330
9
100
AcDbSymbolTableRecord
100
AcDbRegAppTableRecord
  2
GENIUS_GENOBJ-N-CHA_13
 70
     0
  0
APPID
  5
4E17
330
9
100
AcDbSymbolTableRecord
100
AcDbRegAppTableRecord
  2
GEVID1008153417
 70
     0
  0
APPID
  5
4E58
330
9
100
AcDbSymbolTableRecord
100
AcDbRegAppTableRecord
  2
GEVID1008153418
 70
     0
  0
APPID
  5
4E5E
330
9
100
AcDbSymbolTableRecord
100
AcDbRegAppTableRecord
  2
GEVID1008153419
 70
     0
  0
APPID
  5
4E64
330
9
100
AcDbSymbolTableRecord
100
AcDbRegAppTableRecord
  2
GEVID1008153420
 70
     0
  0
APPID
  5
4E75
330
9
100
AcDbSymbolTableRecord
100
AcDbRegAppTableRecord
  2
GEVID1008153421
 70
     0
  0
APPID
  5
4EB7
330
9
100
AcDbSymbolTableRecord
100
AcDbRegAppTableRecord
  2
GENIUS_AMGTXT_16
 70
     0
  0
APPID
  5
7645
330
9
100
AcDbSymbolTableRecord
100
AcDbRegAppTableRecord
  2
GENIUS_GENOBJ-N-DIM_13
 70
     0
  0
APPID
  5
1291E
330
9
100
AcDbSymbolTableRecord
100
AcDbRegAppTableRecord
  2
ACAD_DSTYLE_DIMARC_LENGTH_SYMBOL
 70
     0
  0
APPID
  5
1291F
330
9
100
AcDbSymbolTableRecord
100
AcDbRegAppTableRecord
  2
ACAD_DSTYLE_DIMJOGGED_JOGANGLE_SYMBOL
 70
     0
  0
APPID
  5
12AB6
330
9
100
AcDbSymbolTableRecord
100
AcDbRegAppTableRecord
  2
ACAD_PSEXT
 70
     0
  0
APPID
  5
14DD7
330
9
100
AcDbSymbolTableRecord
100
AcDbRegAppTableRecord
  2
ACAD_EXEMPT_FROM_CAD_STANDARDS
 70
     0
  0
APPID
  5
1536A
330
9
100
AcDbSymbolTableRecord
100
AcDbRegAppTableRecord
  2
GENIUS_GENCEN_19
 70
     0
  0
ENDTAB
  0
TABLE
  2
DIMSTYLE
  5
A
330
0
100
AcDbSymbolTable
 70
    36
100
AcDbDimStyleTable
 71
     3
340
2515
340
E921
340
FA9
  0
DIMSTYLE
105
A76
330
A
100
AcDbSymbolTableRecord
100
AcDbDimStyleTableRecord
  2
STANDARD
 70
     0
 41
3.0
 42
1.0
 43
7.0
 44
2.0
 73
     0
 74
     0
 77
     1
140
2.799999999999998
141
0.0
143
0.0394
147
0.7
171
     4
172
     1
173
     1
176
     3
177
     3
178
     2
271
     3
272
     3
273
     8
274
     4
289
     0
340
A74
341
A66
343
A66
344
A66
  0
DIMSTYLE
105
FA9
330
A
100
AcDbSymbolTableRecord
100
AcDbDimStyleTableRecord
  2
AM_ANSI
 70
     0
  4
mm
 41
0.1
 42
0.05
 43
0.5
 44
0.1
 47
0.1
 48
0.1
 78
     7
 79
     2
140
0.12
141
0.0
146
0.71
147
0.06
176
   256
177
   256
178
     2
274
     4
284
     7
340
11
371
    -1
372
    -1
1001
ACAD_DSTYLE_DIMJOGGED_JOGANGLE_SYMBOL
1070
   384
1040
0.7853981633974483
1001
ACAD_DSTYLE_DIMARC_LENGTH_SYMBOL
1070
   379
1070
     1
  0
DIMSTYLE
105
FAA
330
A
100
AcDbSymbolTableRecord
100
AcDbDimStyleTableRecord
  2
AM_ANSI$3
 70
     0
  4
mm
 41
0.1
 42
0.05
 43
0.5
 44
0.1
 47
0.1
 48
0.1
 78
     7
 79
     2
140
0.12
141
0.0
146
0.71
147
0.06
176
   256
177
   256
178
     2
274
     4
284
     7
288
     1
289
     0
340
11
371
    -1
372
    -1
1001
ACAD_DSTYLE_DIMJOGGED_JOGANGLE_SYMBOL
1070
   384
1040
0.7853981633974483
1001
ACAD_DSTYLE_DIMARC_LENGTH_SYMBOL
1070
   379
1070
     1
  0
DIMSTYLE
105
FAB
330
A
100
AcDbSymbolTableRecord
100
AcDbDimStyleTableRecord
  2
AM_ANSI$4
 70
     0
  4
mm
 41
0.1
 42
0.05
 43
0.5
 44
0.1
 47
0.1
 48
0.1
 78
     7
 79
     2
140
0.12
141
0.0
146
0.71
147
0.06
176
   256
177
   256
178
     2
274
     4
284
     7
288
     1
289
     0
340
11
371
    -1
372
    -1
1001
ACAD_DSTYLE_DIMJOGGED_JOGANGLE_SYMBOL
1070
   384
1040
0.7853981633974483
1001
ACAD_DSTYLE_DIMARC_LENGTH_SYMBOL
1070
   379
1070
     1
  0
DIMSTYLE
105
FAC
330
A
100
AcDbSymbolTableRecord
100
AcDbDimStyleTableRecord
  2
AM_ANSI$7
 70
     0
  4
mm
 41
0.1
 42
0.05
 43
0.5
 44
0.1
 47
0.1
 48
0.1
 78
     7
 79
     2
140
0.24
141
0.0
146
0.71
147
0.06
176
   256
177
   256
178
     2
274
     4
284
     7
340
11
371
    -1
372
    -1
1001
ACAD_DSTYLE_DIMJOGGED_JOGANGLE_SYMBOL
1070
   384
1040
0.7853981633974483
1001
ACAD_DSTYLE_DIMARC_LENGTH_SYMBOL
1070
   379
1070
     1
  0
DIMSTYLE
105
FAD
330
A
100
AcDbSymbolTableRecord
100
AcDbDimStyleTableRecord
  2
AM_ANSI$SF
 70
     0
  4
mm
 41
0.1
 42
0.05
 43
0.5
 44
0.1
 47
0.1
 48
0.1
 75
     1
 76
     1
 78
     7
 79
     2
140
0.12
141
0.0
146
0.71
147
0.06
176
   256
177
   256
178
     2
274
     4
284
     7
340
11
371
    -1
372
    -1
1001
ACAD_DSTYLE_DIMJOGGED_JOGANGLE_SYMBOL
1070
   384
1040
0.7853981633974483
1001
ACAD_DSTYLE_DIMARC_LENGTH_SYMBOL
1070
   379
1070
     1
  0
DIMSTYLE
105
FAE
330
A
100
AcDbSymbolTableRecord
100
AcDbDimStyleTableRecord
  2
AM_ANSI$SH
 70
     0
  4
mm
 41
0.1
 42
0.05
 43
0.5
 44
0.1
 47
0.1
 48
0.1
 75
     1
 76
     1
 78
     7
 79
     2
140
0.12
141
0.0
146
0.71
147
0.06
173
     1
176
   256
177
   256
178
     2
274
     4
284
     7
340
11
343
72
371
    -1
372
    -1
1001
ACAD_DSTYLE_DIMJOGGED_JOGANGLE_SYMBOL
1070
   384
1040
0.7853981633974483
1001
ACAD_DSTYLE_DIMARC_LENGTH_SYMBOL
1070
   379
1070
     1
  0
DIMSTYLE
105
2515
330
A
100
AcDbSymbolTableRecord
100
AcDbDimStyleTableRecord
  2
SYS
 70
     0
  4
"
 41
1.0
 42
1.0
 43
10.0
 44
1.0
 47
0.2
 48
0.2000000002
 71
     1
 73
     0
 74
     0
 77
     1
 78
     8
 79
     2
140
3.5
141
0.0
143
0.0393701
146
0.6
147
1.5
172
     1
176
   256
177
   256
178
     7
271
     2
272
     2
283
     0
284
     8
340
11
341
A66
342
6C4
371
    -1
372
    -1
1001
ACAD_DSTYLE_DIMJOGGED_JOGANGLE_SYMBOL
1070
   384
1040
0.7853981633974483
1001
ACAD_DSTYLE_DIMARC_LENGTH_SYMBOL
1070
   379
1070
     1
  0
DIMSTYLE
105
2516
102
{ACAD_REACTORS
330
17375
330
17443
102
}
330
A
100
AcDbSymbolTableRecord
100
AcDbDimStyleTableRecord
  2
SYS$3
 70
     0
  4
"
 41
2.0
 42
1.0
 43
10.0
 44
1.0
 47
0.1
 48
0.1
 73
     0
 74
     0
 77
     1
 78
     8
 79
     2
140
3.200000000000001
141
0.0
143
0.0393701
146
0.71
147
1.5
176
   256
177
   256
178
     2
271
     1
272
     1
283
     0
284
     8
288
     1
340
11
342
A66
371
    -1
372
    -1
1001
ACAD_DSTYLE_DIMJOGGED_JOGANGLE_SYMBOL
1070
   384
1040
0.7853981633974483
1001
ACAD_DSTYLE_DIMARC_LENGTH_SYMBOL
1070
   379
1070
     1
  0
DIMSTYLE
105
2517
330
A
100
AcDbSymbolTableRecord
100
AcDbDimStyleTableRecord
  2
SYS$4
 70
     0
  4
"
 41
2.0
 42
1.0
 43
10.0
 44
1.0
 47
0.1
 48
0.1
 73
     0
 74
     0
 77
     1
 78
     8
 79
     2
140
3.2
141
0.0
143
0.0393701
146
0.71
147
1.5
173
     1
176
   256
177
   256
178
     2
271
     2
272
     2
283
     0
284
     8
288
     1
340
11
344
A66
371
    -1
372
    -1
1001
ACAD_DSTYLE_DIMJOGGED_JOGANGLE_SYMBOL
1070
   384
1040
0.7853981633974483
1001
ACAD_DSTYLE_DIMARC_LENGTH_SYMBOL
1070
   379
1070
     1
  0
DIMSTYLE
105
2518
330
A
100
AcDbSymbolTableRecord
100
AcDbDimStyleTableRecord
  2
SYS$6
 70
     0
  4
"
 41
2.0
 42
1.0
 43
10.0
 44
1.0
 47
0.1
 48
0.1
 73
     0
 74
     0
 78
     8
 79
     2
140
3.2
141
0.0
143
0.0393701
146
0.71
147
1.5
172
     1
176
   256
177
   256
178
     2
271
     2
272
     2
283
     0
284
     8
340
11
341
A66
371
    -1
372
    -1
1001
ACAD_DSTYLE_DIMJOGGED_JOGANGLE_SYMBOL
1070
   384
1040
0.7853981633974483
1001
ACAD_DSTYLE_DIMARC_LENGTH_SYMBOL
1070
   379
1070
     1
  0
DIMSTYLE
105
2519
330
A
100
AcDbSymbolTableRecord
100
AcDbDimStyleTableRecord
  2
SYS$7
 70
     0
  4
"
 41
2.0
 42
1.5
 43
10.0
 44
1.0
 47
0.1
 48
0.1
 73
     0
 74
     0
 77
     1
 78
     8
 79
     2
140
3.2
141
0.0
143
0.0393701
146
0.71
147
1.5
172
     1
176
   256
177
   256
178
     2
271
     2
272
     2
283
     0
284
     8
340
11
341
A66
342
A66
371
    -1
372
    -1
1001
ACAD_DSTYLE_DIMJOGGED_JOGANGLE_SYMBOL
1070
   384
1040
0.7853981633974483
1001
ACAD_DSTYLE_DIMARC_LENGTH_SYMBOL
1070
   379
1070
     1
  0
DIMSTYLE
105
251A
330
A
100
AcDbSymbolTableRecord
100
AcDbDimStyleTableRecord
  2
SYS$SF
 70
     0
  4
"
 41
1.0
 42
1.0
 43
10.0
 44
1.0
 47
0.1
 48
0.1
 73
     0
 74
     0
 75
     1
 76
     1
 77
     1
 78
     8
 79
     2
140
3.2
141
0.0
143
0.0393701
146
0.71
147
1.5
172
     1
176
   256
177
   256
178
     2
271
     2
272
     2
283
     0
284
     8
340
11
341
6C4
342
6C4
371
    -1
372
    -1
1001
ACAD_DSTYLE_DIMJOGGED_JOGANGLE_SYMBOL
1070
   384
1040
0.7853981633974483
1001
ACAD_DSTYLE_DIMARC_LENGTH_SYMBOL
1070
   379
1070
     1
  0
DIMSTYLE
105
251B
330
A
100
AcDbSymbolTableRecord
100
AcDbDimStyleTableRecord
  2
SYS$SH
 70
     0
  4
"
 41
1.0
 42
1.0
 43
10.0
 44
1.0
 47
0.1
 48
0.1
 73
     0
 74
     0
 75
     1
 76
     1
 77
     1
 78
     8
 79
     2
140
3.2
141
0.0
143
0.0393701
144
2.0
146
0.71
147
1.5
172
     1
173
     1
176
   256
177
   256
178
     2
271
     2
272
     2
283
     0
284
     8
340
11
341
6C4
343
72
344
6C4
371
    -1
372
    -1
1001
ACAD_DSTYLE_DIMJOGGED_JOGANGLE_SYMBOL
1070
   384
1040
0.7853981633974483
1001
ACAD_DSTYLE_DIMARC_LENGTH_SYMBOL
1070
   379
1070
     1
  0
DIMSTYLE
105
2A59
330
A
100
AcDbSymbolTableRecord
100
AcDbDimStyleTableRecord
  2
SYS$2
 70
     0
  4
"
 41
1.0
 42
1.5
 43
10.0
 44
1.0
 47
0.1
 48
0.1
 73
     0
 74
     0
 77
     1
 78
     8
 79
     2
140
3.2
141
0.0
143
0.0393701
146
0.71
147
1.5
172
     1
176
   256
177
   256
178
     2
271
     2
272
     2
283
     0
284
     8
340
11
342
6C4
371
    -1
372
    -1
1001
ACAD_DSTYLE_DIMJOGGED_JOGANGLE_SYMBOL
1070
   384
1040
0.7853981633974483
1001
ACAD_DSTYLE_DIMARC_LENGTH_SYMBOL
1070
   379
1070
     1
  0
DIMSTYLE
105
2AAB
102
{ACAD_REACTORS
330
172F7
330
16E31
330
1718F
330
16E5E
330
17287
330
17270
330
16E8E
330
17179
330
16E48
330
172CB
330
172B4
330
1729E
330
1730D
330
172E1
330
171D5
330
171A9
330
17F32
330
17F4C
330
17F87
102
}
330
A
100
AcDbSymbolTableRecord
100
AcDbDimStyleTableRecord
  2
SYS$0
 70
     0
  4
"
 41
1.0
 42
1.5
 43
10.0
 44
1.0
 47
0.1
 48
0.1
 73
     0
 74
     0
 77
     1
 78
     8
 79
     2
140
3.2
141
0.0
143
0.0393701
146
0.71
147
1.5
172
     1
176
   256
177
   256
178
     2
271
     1
272
     1
283
     0
284
     8
340
11
341
A66
342
6C4
371
    -1
372
    -1
1001
ACAD_DSTYLE_DIMJOGGED_JOGANGLE_SYMBOL
1070
   384
1040
0.7853981633974483
1001
ACAD_DSTYLE_DIMARC_LENGTH_SYMBOL
1070
   379
1070
     1
  0
DIMSTYLE
105
E333
330
A
100
AcDbSymbolTableRecord
100
AcDbDimStyleTableRecord
  2
SYMBOL
 70
     0
  4
"
 41
1.0
 42
1.0
 43
10.0
 44
1.0
 47
0.2
 48
0.2000000002
 71
     1
 73
     0
 74
     0
 77
     1
 78
     8
 79
     2
140
3.5
141
0.0
143
0.0393701
146
0.6
147
1.5
172
     1
176
   256
177
   256
178
     7
271
     2
272
     2
283
     0
284
     8
340
11
341
A66
342
6C4
371
    -1
372
    -1
  0
DIMSTYLE
105
E921
330
A
100
AcDbSymbolTableRecord
100
AcDbDimStyleTableRecord
  2
SYSORG1P25
 70
     0
  4
"
 41
1.0
 42
1.0
 43
10.0
 44
1.0
 47
0.2
 48
0.2000000002
 71
     1
 73
     0
 74
     0
 77
     1
 78
     8
 79
     2
140
3.5
141
0.0
143
0.0393701
144
1.25000317891954
146
0.6
147
1.5
172
     1
176
   256
177
   256
178
     7
271
     2
272
     2
283
     0
284
     8
340
11
341
A66
342
6C4
371
    -1
372
    -1
  0
DIMSTYLE
105
E922
330
A
100
AcDbSymbolTableRecord
100
AcDbDimStyleTableRecord
  2
SYSORG1P25$0
 70
     0
  4
"
 41
1.0
 42
1.5
 43
10.0
 44
1.0
 47
0.1
 48
0.1
 73
     0
 74
     0
 77
     1
 78
     8
 79
     2
140
3.2
141
0.0
143
0.0393701
144
1.25000317891954
146
0.71
147
1.5
172
     1
176
   256
177
   256
178
     2
271
     1
272
     1
283
     0
284
     8
340
11
341
A66
342
6C4
371
    -1
372
    -1
  0
DIMSTYLE
105
F629
330
A
100
AcDbSymbolTableRecord
100
AcDbDimStyleTableRecord
  2
SYSIS0P66667
 70
     0
  4
"
 40
0.6666666666666666
 41
1.0
 42
1.0
 43
10.0
 44
1.0
 47
0.2
 48
0.2000000002
 71
     1
 73
     0
 74
     0
 77
     1
 78
     8
 79
     2
140
3.5
141
0.0
143
0.0393701
144
0.66667
146
0.6
147
1.5
172
     1
176
   256
177
   256
178
     7
271
     2
272
     2
283
     0
284
     8
340
11
341
A66
342
6C4
371
    -1
372
    -1
  0
DIMSTYLE
105
F631
330
A
100
AcDbSymbolTableRecord
100
AcDbDimStyleTableRecord
  2
SYSSS0P8165
 70
     0
  4
"
 40
0.8164964717411271
 41
1.0
 42
1.0
 43
10.0
 44
1.0
 47
0.2
 48
0.2000000002
 71
     1
 73
     0
 74
     0
 77
     1
 78
     8
 79
     2
140
3.5
141
0.0
143
0.0393701
144
0.8164999999999999
146
0.6
147
1.5
172
     1
176
   256
177
   256
178
     7
271
     2
272
     2
283
     0
284
     8
340
11
341
A66
342
6C4
371
    -1
372
    -1
  0
DIMSTYLE
105
12DB4
330
A
100
AcDbSymbolTableRecord
100
AcDbDimStyleTableRecord
  2
AM_ISO
 70
     0
  4
"
 41
2.5
 42
1.0
 43
10.0
 44
1.0
 47
0.1
 48
0.1
 73
     0
 74
     0
 77
     1
 78
     8
140
3.5
141
0.0
143
0.0393701
146
0.71
147
1.5
172
     1
176
   256
177
   256
178
     2
271
     2
272
     2
279
     2
284
     8
285
     8
286
     8
340
11
  0
DIMSTYLE
105
15361
330
A
100
AcDbSymbolTableRecord
100
AcDbDimStyleTableRecord
  2
AM_omu1
 70
     0
  4
"
 41
1.0
 42
1.0
 43
10.0
 44
1.0
 47
0.1
 48
0.1
 73
     0
 77
     1
 78
     8
 79
     2
140
2.500000000000003
141
0.0
143
0.0393701
146
0.71
147
1.5
172
     1
176
   256
177
   256
178
     2
179
     1
271
     2
272
     2
283
     0
284
     8
340
11
341
101A0
342
101A0
371
    -1
372
    -1
  0
DIMSTYLE
105
15362
330
A
100
AcDbSymbolTableRecord
100
AcDbDimStyleTableRecord
  2
AM_omu1$0
 70
     0
  4
"
 41
1.0
 42
1.0
 43
10.0
 44
1.0
 47
0.1
 48
0.1
 73
     0
 77
     1
 78
     8
 79
     2
140
2.500000000000003
141
0.0
143
0.0393701
146
0.71
147
1.5
172
     1
176
   256
177
   256
178
     2
179
     1
271
     2
272
     2
283
     0
284
     8
340
11
341
101A0
342
101A0
371
    -1
372
    -1
  0
DIMSTYLE
105
15363
330
A
100
AcDbSymbolTableRecord
100
AcDbDimStyleTableRecord
  2
AM_omu1$2
 70
     0
  4
"
 41
1.0
 42
1.0
 43
10.0
 44
1.0
 47
0.1
 48
0.1
 73
     0
 77
     1
 78
     8
 79
     2
140
2.500000000000003
141
0.0
143
0.0393701
146
0.71
147
1.5
172
     1
176
   256
177
   256
178
     2
179
     1
271
     2
272
     2
283
     0
284
     8
340
11
341
101A0
342
101A0
371
    -1
372
    -1
  0
DIMSTYLE
105
15364
330
A
100
AcDbSymbolTableRecord
100
AcDbDimStyleTableRecord
  2
AM_omu1$3
 70
     0
  4
"
 41
1.0
 42
1.0
 43
10.0
 44
1.0
 47
0.1
 48
0.1
 73
     0
 77
     1
 78
     8
 79
     2
140
2.500000000000003
141
0.0
143
0.0393701
146
0.71
147
1.5
172
     1
176
   256
177
   256
178
     2
179
     1
271
     2
272
     2
283
     0
284
     8
340
11
341
101A0
342
101A0
371
    -1
372
    -1
  0
DIMSTYLE
105
15365
330
A
100
AcDbSymbolTableRecord
100
AcDbDimStyleTableRecord
  2
AM_omu1$4
 70
     0
  4
"
 41
1.0
 42
1.0
 43
10.0
 44
1.0
 47
0.1
 48
0.1
 73
     0
 77
     1
 78
     8
 79
     2
140
2.500000000000003
141
0.0
143
0.0393701
146
0.71
147
1.5
172
     1
173
     1
176
   256
177
   256
178
     2
179
     1
271
     2
272
     2
283
     0
284
     8
340
11
341
101A0
343
6C4
344
101A0
371
    -1
372
    -1
  0
DIMSTYLE
105
15366
330
A
100
AcDbSymbolTableRecord
100
AcDbDimStyleTableRecord
  2
AM_ISO$6
 70
     0
  4
"
 41
2.5
 42
1.0
 43
10.0
 44
1.0
 47
0.1
 48
0.1
 73
     0
 74
     0
 78
     8
 79
     2
140
3.5
141
0.0
143
0.0393701
146
0.71
147
1.5
172
     1
176
   256
177
   256
178
     2
271
     2
272
     2
283
     0
284
     8
340
11
341
101A0
371
    -1
372
    -1
1001
ACAD_DSTYLE_DIMJOGGED_JOGANGLE_SYMBOL
1070
   384
1040
0.7853981633974483
1001
ACAD_DSTYLE_DIMARC_LENGTH_SYMBOL
1070
   379
1070
     1
  0
DIMSTYLE
105
15367
330
A
100
AcDbSymbolTableRecord
100
AcDbDimStyleTableRecord
  2
AM_omu1$7
 70
     0
  4
"
 41
2.5
 42
1.0
 43
10.0
 44
1.0
 47
0.1
 48
0.1
 73
     0
 77
     1
 78
     8
 79
     2
140
5.0
141
0.0
143
0.0393701
146
0.71
147
1.5
172
     1
176
   256
177
   256
178
     2
179
     1
271
     2
272
     2
283
     0
284
     8
340
11
341
101A0
342
101A0
371
    -1
372
    -1
  0
DIMSTYLE
105
15368
330
A
100
AcDbSymbolTableRecord
100
AcDbDimStyleTableRecord
  2
AM_ISO$SF
 70
     0
  4
"
 41
2.5
 42
1.0
 43
10.0
 44
1.0
 47
0.1
 48
0.1
 73
     0
 74
     0
 75
     1
 76
     1
 77
     1
 78
     8
 79
     2
140
3.5
141
0.0
143
0.0393701
146
0.71
147
1.5
172
     1
176
   256
177
   256
178
     2
271
     2
272
     2
283
     0
284
     8
340
11
341
101A0
342
101A0
371
    -1
372
    -1
1001
ACAD_DSTYLE_DIMJOGGED_JOGANGLE_SYMBOL
1070
   384
1040
0.7853981633974483
1001
ACAD_DSTYLE_DIMARC_LENGTH_SYMBOL
1070
   379
1070
     1
  0
DIMSTYLE
105
15369
330
A
100
AcDbSymbolTableRecord
100
AcDbDimStyleTableRecord
  2
AM_ISO$SH
 70
     0
  4
"
 41
2.5
 42
1.0
 43
10.0
 44
1.0
 47
0.1
 48
0.1
 73
     0
 74
     0
 75
     1
 76
     1
 77
     1
 78
     8
 79
     2
140
3.5
141
0.0
143
0.0393701
144
2.0
146
0.71
147
1.5
172
     1
173
     1
176
   256
177
   256
178
     2
271
     2
272
     2
283
     0
284
     8
340
11
341
101A0
343
72
344
101A0
371
    -1
372
    -1
1001
ACAD_DSTYLE_DIMJOGGED_JOGANGLE_SYMBOL
1070
   384
1040
0.7853981633974483
1001
ACAD_DSTYLE_DIMARC_LENGTH_SYMBOL
1070
   379
1070
     1
  0
DIMSTYLE
105
16377
330
A
100
AcDbSymbolTableRecord
100
AcDbDimStyleTableRecord
  2
AM_ISO$3
 70
     0
  4
"
 41
0.8
 42
1.0
 43
10.0
 44
1.0
 47
0.1
 48
0.1
 73
     0
 77
     1
 78
     8
 79
     2
140
3.2
141
0.0
143
0.0393701
146
0.71
147
0.9999999999999996
176
   256
177
   256
178
     2
271
     2
272
     2
283
     0
284
     8
288
     1
289
     0
340
11
341
6C4
342
6C4
371
    -1
372
    -1
1001
ACAD_DSTYLE_DIMJOGGED_JOGANGLE_SYMBOL
1070
   384
1040
0.7853981633974483
1001
ACAD_DSTYLE_DIMARC_LENGTH_SYMBOL
1070
   379
1070
     1
  0
DIMSTYLE
105
16378
330
A
100
AcDbSymbolTableRecord
100
AcDbDimStyleTableRecord
  2
AM_ISO$4
 70
     0
  4
"
 41
0.8
 42
1.0
 43
10.0
 44
1.0
 47
0.1
 48
0.1
 73
     0
 77
     1
 78
     8
 79
     2
140
3.2
141
0.0
143
0.0393701
146
0.71
147
1.0
173
     1
176
   256
177
   256
178
     2
271
     2
272
     2
283
     0
284
     8
288
     1
289
     0
340
11
344
6C4
371
    -1
372
    -1
1001
ACAD_DSTYLE_DIMJOGGED_JOGANGLE_SYMBOL
1070
   384
1040
0.7853981633974483
1001
ACAD_DSTYLE_DIMARC_LENGTH_SYMBOL
1070
   379
1070
     1
  0
DIMSTYLE
105
16379
330
A
100
AcDbSymbolTableRecord
100
AcDbDimStyleTableRecord
  2
AM_ISO$7
 70
     0
  4
"
 41
0.8
 42
1.0
 43
10.0
 44
1.0
 47
0.1
 48
0.1
 73
     0
 74
     0
 77
     1
 78
     8
 79
     2
140
3.2
141
0.0
143
0.0393701
146
0.71
147
1.0
172
     1
176
   256
177
   256
178
     2
271
     2
272
     2
283
     0
284
     8
340
11
341
6C4
342
6C4
371
    -1
372
    -1
1001
ACAD_DSTYLE_DIMJOGGED_JOGANGLE_SYMBOL
1070
   384
1040
0.7853981633974483
1001
ACAD_DSTYLE_DIMARC_LENGTH_SYMBOL
1070
   379
1070
     1
  0
DIMSTYLE
105
1637A
330
A
100
AcDbSymbolTableRecord
100
AcDbDimStyleTableRecord
  2
AM_ISO$0
 70
     0
  4
"
 41
0.8
 42
1.0
 43
10.0
 44
1.0
 47
0.1
 48
0.1
 73
     0
 74
     0
 77
     1
 78
     8
 79
     2
140
3.2
141
0.0
143
0.0393701
146
0.71
147
0.9999999999999996
172
     1
176
   256
177
   256
178
     2
271
     2
272
     2
283
     0
284
     8
340
11
341
6C4
342
6C4
371
    -1
372
    -1
1001
ACAD_DSTYLE_DIMJOGGED_JOGANGLE_SYMBOL
1070
   384
1040
0.7853981633974483
1001
ACAD_DSTYLE_DIMARC_LENGTH_SYMBOL
1070
   379
1070
     1
  0
DIMSTYLE
105
1637B
330
A
100
AcDbSymbolTableRecord
100
AcDbDimStyleTableRecord
  2
AM_ISO$2
 70
     0
  4
"
 41
0.8
 42
1.0
 43
10.0
 44
1.0
 47
0.1
 48
0.1
 73
     0
 74
     0
 77
     3
 78
     8
 79
     2
140
3.200000000000001
141
0.0
143
0.0393701
146
0.71
147
0.9999999999999996
172
     1
176
   256
177
   256
178
     2
271
     2
272
     2
283
     0
284
     8
340
11
341
6C4
342
6C4
371
    -1
372
    -1
1001
ACAD_DSTYLE_DIMJOGGED_JOGANGLE_SYMBOL
1070
   384
1040
0.7853981633974483
1001
ACAD_DSTYLE_DIMARC_LENGTH_SYMBOL
1070
   379
1070
     1
  0
ENDTAB
  0
TABLE
  2
BLOCK_RECORD
  5
1
330
0
100
AcDbSymbolTable
 70
    35
  0
BLOCK_RECORD
  5
1F
102
{ACAD_XDICTIONARY
360
8A
102
}
330
1
100
AcDbSymbolTableRecord
100
AcDbBlockTableRecord
  2
*Model_Space
340
22
  0
BLOCK_RECORD
  5
1B
330
1
100
AcDbSymbolTableRecord
100
AcDbBlockTableRecord
  2
*Paper_Space
340
1E
  0
BLOCK_RECORD
  5
23
330
1
100
AcDbSymbolTableRecord
100
AcDbBlockTableRecord
  2
*Paper_Space0
340
26
  0
BLOCK_RECORD
  5
72
330
1
100
AcDbSymbolTableRecord
100
AcDbBlockTableRecord
  2
GENAXEH
340
0
  0
BLOCK_RECORD
  5
6C4
330
1
100
AcDbSymbolTableRecord
100
AcDbBlockTableRecord
  2
_Dot
340
0
102
{BLKREFS
331
17509
331
1750A
331
17515
331
17516
331
1751D
331
1751E
331
17526
331
17527
331
1755C
331
1755D
331
17565
331
17566
331
1756E
331
1756F
331
17F6C
331
17F81
331
17F82
331
17FB4
331
17FB5
331
18096
331
18097
331
180B1
331
180B2
331
180BA
331
180BB
331
180C3
331
180C4
331
180CC
331
180CD
331
180F0
331
180F1
331
180F9
331
180FA
331
18102
331
18103
331
181A0
331
181A1
102
}
  0
BLOCK_RECORD
  5
A66
330
1
100
AcDbSymbolTableRecord
100
AcDbBlockTableRecord
  2
_OPEN30
340
0
  0
BLOCK_RECORD
  5
101A0
330
1
100
AcDbSymbolTableRecord
100
AcDbBlockTableRecord
  2
_DotSmall
340
0
  0
BLOCK_RECORD
  5
16E32
330
1
100
AcDbSymbolTableRecord
100
AcDbBlockTableRecord
  2
*D5
340
0
  0
BLOCK_RECORD
  5
16E49
330
1
100
AcDbSymbolTableRecord
100
AcDbBlockTableRecord
  2
*D6
340
0
  0
BLOCK_RECORD
  5
16E5F
330
1
100
AcDbSymbolTableRecord
100
AcDbBlockTableRecord
  2
*D7
340
0
  0
BLOCK_RECORD
  5
16E8F
330
1
100
AcDbSymbolTableRecord
100
AcDbBlockTableRecord
  2
*D8
340
0
  0
BLOCK_RECORD
  5
16F7B
330
1
100
AcDbSymbolTableRecord
100
AcDbBlockTableRecord
  2
*S228131999999
340
0
102
{BLKREFS
331
1673A
102
}
  0
BLOCK_RECORD
  5
16F82
330
1
100
AcDbSymbolTableRecord
100
AcDbBlockTableRecord
  2
*S229132101010101010
340
0
102
{BLKREFS
331
17107
102
}
  0
BLOCK_RECORD
  5
16F89
330
1
100
AcDbSymbolTableRecord
100
AcDbBlockTableRecord
  2
*S230133111111111111
340
0
102
{BLKREFS
331
1673E
102
}
  0
BLOCK_RECORD
  5
16F90
330
1
100
AcDbSymbolTableRecord
100
AcDbBlockTableRecord
  2
*S231134121212121212
340
0
102
{BLKREFS
331
16740
331
17108
102
}
  0
BLOCK_RECORD
  5
16F97
330
1
100
AcDbSymbolTableRecord
100
AcDbBlockTableRecord
  2
*S232135131313131313
340
0
102
{BLKREFS
331
16742
331
17109
102
}
  0
BLOCK_RECORD
  5
16F9E
330
1
100
AcDbSymbolTableRecord
100
AcDbBlockTableRecord
  2
*S233136141414141414
340
0
102
{BLKREFS
331
16744
102
}
  0
BLOCK_RECORD
  5
16FA5
330
1
100
AcDbSymbolTableRecord
100
AcDbBlockTableRecord
  2
*S234137151515151515
340
0
102
{BLKREFS
331
1674C
102
}
  0
BLOCK_RECORD
  5
1717A
330
1
100
AcDbSymbolTableRecord
100
AcDbBlockTableRecord
  2
*D16
340
0
  0
BLOCK_RECORD
  5
17190
330
1
100
AcDbSymbolTableRecord
100
AcDbBlockTableRecord
  2
*D17
340
0
  0
BLOCK_RECORD
  5
171AA
330
1
100
AcDbSymbolTableRecord
100
AcDbBlockTableRecord
  2
*D18
340
0
  0
BLOCK_RECORD
  5
171D6
330
1
100
AcDbSymbolTableRecord
100
AcDbBlockTableRecord
  2
*D19
340
0
  0
BLOCK_RECORD
  5
17271
330
1
100
AcDbSymbolTableRecord
100
AcDbBlockTableRecord
  2
*D20
340
0
  0
BLOCK_RECORD
  5
17288
330
1
100
AcDbSymbolTableRecord
100
AcDbBlockTableRecord
  2
*D21
340
0
  0
BLOCK_RECORD
  5
1729F
330
1
100
AcDbSymbolTableRecord
100
AcDbBlockTableRecord
  2
*D22
340
0
  0
BLOCK_RECORD
  5
172B5
330
1
100
AcDbSymbolTableRecord
100
AcDbBlockTableRecord
  2
*D23
340
0
  0
BLOCK_RECORD
  5
172CC
330
1
100
AcDbSymbolTableRecord
100
AcDbBlockTableRecord
  2
*D24
340
0
  0
BLOCK_RECORD
  5
172E2
330
1
100
AcDbSymbolTableRecord
100
AcDbBlockTableRecord
  2
*D25
340
0
  0
BLOCK_RECORD
  5
172F8
330
1
100
AcDbSymbolTableRecord
100
AcDbBlockTableRecord
  2
*D26
340
0
  0
BLOCK_RECORD
  5
1730E
330
1
100
AcDbSymbolTableRecord
100
AcDbBlockTableRecord
  2
*D27
340
0
  0
BLOCK_RECORD
  5
17376
330
1
100
AcDbSymbolTableRecord
100
AcDbBlockTableRecord
  2
*D28
340
0
  0
BLOCK_RECORD
  5
17394
330
1
100
AcDbSymbolTableRecord
100
AcDbBlockTableRecord
  2
GENDOT
340
0
102
{BLKREFS
331
17584
331
17585
331
17F6B
331
181A9
331
181AA
102
}
  0
BLOCK_RECORD
  5
17444
330
1
100
AcDbSymbolTableRecord
100
AcDbBlockTableRecord
  2
*D30
340
0
  0
BLOCK_RECORD
  5
17F33
330
1
100
AcDbSymbolTableRecord
100
AcDbBlockTableRecord
  2
*D31
340
0
  0
BLOCK_RECORD
  5
17F4D
330
1
100
AcDbSymbolTableRecord
100
AcDbBlockTableRecord
  2
*D32
340
0
  0
BLOCK_RECORD
  5
17F88
330
1
100
AcDbSymbolTableRecord
100
AcDbBlockTableRecord
  2
*D33
340
0
  0
ENDTAB
  0
ENDSEC
  0
SECTION
  2
BLOCKS
  0
BLOCK
  5
20
330
1F
100
AcDbEntity
  8
0
100
AcDbBlockBegin
  2
*Model_Space
 70
     0
 10
0.0
 20
0.0
 30
0.0
  3
*Model_Space
  1

  0
ENDBLK
  5
21
330
1F
100
AcDbEntity
  8
0
100
AcDbBlockEnd
  0
BLOCK
  5
1C
330
1B
100
AcDbEntity
 67
     1
  8
0
100
AcDbBlockBegin
  2
*Paper_Space
 70
     0
 10
0.0
 20
0.0
 30
0.0
  3
*Paper_Space
  1

  0
ENDBLK
  5
1D
330
1B
100
AcDbEntity
 67
     1
  8
0
100
AcDbBlockEnd
  0
BLOCK
  5
24
330
23
100
AcDbEntity
 67
     1
  8
0
100
AcDbBlockBegin
  2
*Paper_Space0
 70
     0
 10
0.0
 20
0.0
 30
0.0
  3
*Paper_Space0
  1

  0
ENDBLK
  5
25
330
23
100
AcDbEntity
 67
     1
  8
0
100
AcDbBlockEnd
  0
BLOCK
  5
74
330
72
100
AcDbEntity
  8
0
100
AcDbBlockBegin
  2
GENAXEH
 70
     0
 10
0.0
 20
0.0
 30
0.0
  3
GENAXEH
  1

  0
LINE
  5
73
330
72
100
AcDbEntity
  8
0
100
AcDbLine
 10
-1.0
 20
0.0
 30
0.0
 11
1.0
 21
0.0
 31
0.0
  0
ENDBLK
  5
75
330
72
100
AcDbEntity
  8
0
100
AcDbBlockEnd
  0
BLOCK
  5
6C7
330
6C4
100
AcDbEntity
  8
0
100
AcDbBlockBegin
  2
_Dot
 70
     0
 10
0.0
 20
0.0
 30
0.0
  3
_Dot
  1

  0
LWPOLYLINE
  5
6C5
330
6C4
100
AcDbEntity
  8
0
  6
ByBlock
 62
     0
100
AcDbPolyline
 90
        2
 70
     1
 43
0.5
 10
-0.25
 20
0.0
 42
1.0
 10
0.25
 20
0.0
 42
1.0
  0
LINE
  5
6C6
330
6C4
100
AcDbEntity
  8
0
  6
ByBlock
 62
     0
370
    -2
100
AcDbLine
 10
-0.5
 20
0.0
 30
0.0
 11
-1.0
 21
0.0
 31
0.0
  0
ENDBLK
  5
6C8
330
6C4
100
AcDbEntity
  8
0
100
AcDbBlockEnd
  0
BLOCK
  5
A6A
330
A66
100
AcDbEntity
  8
0
100
AcDbBlockBegin
  2
_OPEN30
 70
     0
 10
0.0
 20
0.0
 30
0.0
  3
_OPEN30
  1

  0
LINE
  5
A67
330
A66
100
AcDbEntity
  8
0
  6
ByBlock
 62
     0
100
AcDbLine
 10
-1.0
 20
0.26794919
 30
0.0
 11
0.0
 21
0.0
 31
0.0
  0
LINE
  5
A68
330
A66
100
AcDbEntity
  8
0
  6
ByBlock
 62
     0
100
AcDbLine
 10
0.0
 20
0.0
 30
0.0
 11
-1.0
 21
-0.26794919
 31
0.0
  0
LINE
  5
A69
330
A66
100
AcDbEntity
  8
0
  6
ByBlock
 62
     0
100
AcDbLine
 10
0.0
 20
0.0
 30
0.0
 11
-1.0
 21
0.0
 31
0.0
  0
ENDBLK
  5
A6B
330
A66
100
AcDbEntity
  8
0
100
AcDbBlockEnd
  0
BLOCK
  5
101A2
330
101A0
100
AcDbEntity
  8
0
100
AcDbBlockBegin
  2
_DotSmall
 70
     0
 10
0.0
 20
0.0
 30
0.0
  3
_DotSmall
  1

  0
LWPOLYLINE
  5
101A1
330
101A0
100
AcDbEntity
  8
0
  6
ByBlock
 62
     0
100
AcDbPolyline
 90
        2
 70
     1
 43
0.5
 10
-0.0625
 20
0.0
 42
1.0
 10
0.0625
 20
0.0
 42
1.0
  0
ENDBLK
  5
101A3
330
101A0
100
AcDbEntity
  8
0
100
AcDbBlockEnd
  0
BLOCK
  5
16E3D
330
16E32
100
AcDbEntity
  8
0
100
AcDbBlockBegin
  2
*D5
 70
     1
 10
0.0
 20
0.0
 30
0.0
  3
*D5
  1

  0
LINE
  5
180B7
330
16E32
100
AcDbEntity
  8
AM_5
100
AcDbLine
 10
1028.029227395877
 20
31.37324202257361
 30
0.0
 11
1039.529227395877
 21
31.37324202257361
 31
0.0
  0
LINE
  5
180B8
330
16E32
100
AcDbEntity
  8
AM_5
100
AcDbLine
 10
1031.529227395877
 20
19.37324202257349
 30
0.0
 11
1039.529227395877
 21
19.37324202257348
 31
0.0
  0
LINE
  5
180B9
330
16E32
100
AcDbEntity
  8
AM_5
100
AcDbLine
 10
1038.529227395877
 20
30.37324202257361
 30
0.0
 11
1038.529227395877
 21
20.37324202257349
 31
0.0
  0
INSERT
  5
180BA
330
16E32
100
AcDbEntity
  8
AM_5
100
AcDbBlockReference
  2
_Dot
 10
1038.529227395877
 20
31.37324202257361
 30
0.0
 50
90.0
  0
INSERT
  5
180BB
330
16E32
100
AcDbEntity
  8
AM_5
100
AcDbBlockReference
  2
_Dot
 10
1038.529227395877
 20
19.37324202257348
 30
0.0
 50
270.0
  0
MTEXT
  5
180BC
330
16E32
100
AcDbEntity
  8
AM_5
 62
     2
100
AcDbMText
 10
1035.429227395877
 20
25.37324202257372
 30
0.0
 40
3.2
 41
0.0
 71
     5
 72
     1
  1
12
 11
0.0000000000000001
 21
1.0
 31
0.0
 73
     1
 44
1.0
1001
ACAD
1000
MTEXTBEGIN
1070
    73
1070
     1
1070
    44
1040
1.0
1070
    74
1070
     0
1000
MTEXTEND
  0
POINT
  5
180BD
330
16E32
100
AcDbEntity
  8
Defpoints
 62
     0
100
AcDbPoint
 10
1026.529227395877
 20
31.37324202257361
 30
0.0
  0
POINT
  5
180BE
330
16E32
100
AcDbEntity
  8
Defpoints
 62
     0
100
AcDbPoint
 10
1030.029227395877
 20
19.37324202257349
 30
0.0
  0
POINT
  5
180BF
330
16E32
100
AcDbEntity
  8
Defpoints
 62
     0
100
AcDbPoint
 10
1038.529227395877
 20
19.37324202257348
 30
0.0
  0
ENDBLK
  5
16E3E
330
16E32
100
AcDbEntity
  8
0
100
AcDbBlockEnd
  0
BLOCK
  5
16E53
330
16E49
100
AcDbEntity
  8
0
100
AcDbBlockBegin
  2
*D6
 70
     1
 10
0.0
 20
0.0
 30
0.0
  3
*D6
  1

  0
LINE
  5
180C0
330
16E49
100
AcDbEntity
  8
AM_5
100
AcDbLine
 10
1031.529227395877
 20
19.37324202257349
 30
0.0
 11
1039.529227395877
 21
19.37324202257348
 31
0.0
  0
LINE
  5
180C1
330
16E49
100
AcDbEntity
  8
AM_5
100
AcDbLine
 10
1023.529227395877
 20
0.8732420225734918
 30
0.0
 11
1039.529227395877
 21
0.8732420225734871
 31
0.0
  0
LINE
  5
180C2
330
16E49
100
AcDbEntity
  8
AM_5
100
AcDbLine
 10
1038.529227395877
 20
18.37324202257348
 30
0.0
 11
1038.529227395877
 21
1.873242022573487
 31
0.0
  0
INSERT
  5
180C3
330
16E49
100
AcDbEntity
  8
AM_5
100
AcDbBlockReference
  2
_Dot
 10
1038.529227395877
 20
19.37324202257348
 30
0.0
 50
90.0
  0
INSERT
  5
180C4
330
16E49
100
AcDbEntity
  8
AM_5
100
AcDbBlockReference
  2
_Dot
 10
1038.529227395877
 20
0.8732420225734875
 30
0.0
 50
270.0
  0
MTEXT
  5
180C5
330
16E49
100
AcDbEntity
  8
AM_5
 62
     2
100
AcDbMText
 10
1035.429227395877
 20
10.12324202257365
 30
0.0
 40
3.2
 41
0.0
 71
     5
 72
     1
  1
18.5
 11
0.0000000000000001
 21
1.0
 31
0.0
 73
     1
 44
1.0
1001
ACAD
1000
MTEXTBEGIN
1070
    73
1070
     1
1070
    44
1040
1.0
1070
    74
1070
     0
1000
MTEXTEND
  0
POINT
  5
180C6
330
16E49
100
AcDbEntity
  8
Defpoints
 62
     0
100
AcDbPoint
 10
1030.029227395877
 20
19.37324202257349
 30
0.0
  0
POINT
  5
180C7
330
16E49
100
AcDbEntity
  8
Defpoints
 62
     0
100
AcDbPoint
 10
1022.029227395877
 20
0.8732420225734923
 30
0.0
  0
POINT
  5
180C8
330
16E49
100
AcDbEntity
  8
Defpoints
 62
     0
100
AcDbPoint
 10
1038.529227395877
 20
0.8732420225734875
 30
0.0
  0
ENDBLK
  5
16E54
330
16E49
100
AcDbEntity
  8
0
100
AcDbBlockEnd
  0
BLOCK
  5
16E69
330
16E5F
100
AcDbEntity
  8
0
100
AcDbBlockBegin
  2
*D7
 70
     1
 10
0.0
 20
0.0
 30
0.0
  3
*D7
  1

  0
LINE
  5
180AE
330
16E5F
100
AcDbEntity
  8
AM_5
100
AcDbLine
 10
1023.529227395877
 20
0.8732420225734918
 30
0.0
 11
1039.529227395877
 21
0.8732420225734871
 31
0.0
  0
LINE
  5
180AF
330
16E5F
100
AcDbEntity
  8
AM_5
100
AcDbLine
 10
1032.029227395877
 20
-17.62675797742651
 30
0.0
 11
1039.529227395877
 21
-17.62675797742651
 31
0.0
  0
LINE
  5
180B0
330
16E5F
100
AcDbEntity
  8
AM_5
100
AcDbLine
 10
1038.529227395877
 20
-0.1267579774265124
 30
0.0
 11
1038.529227395877
 21
-16.62675797742651
 31
0.0
  0
INSERT
  5
180B1
330
16E5F
100
AcDbEntity
  8
AM_5
100
AcDbBlockReference
  2
_Dot
 10
1038.529227395877
 20
0.8732420225734875
 30
0.0
 50
90.0
  0
INSERT
  5
180B2
330
16E5F
100
AcDbEntity
  8
AM_5
100
AcDbBlockReference
  2
_Dot
 10
1038.529227395877
 20
-17.62675797742651
 30
0.0
 50
270.0
  0
MTEXT
  5
180B3
330
16E5F
100
AcDbEntity
  8
AM_5
 62
     2
100
AcDbMText
 10
1035.429227395877
 20
-8.376757977426347
 30
0.0
 40
3.2
 41
0.0
 71
     5
 72
     1
  1
18.5
 11
0.0000000000000001
 21
1.0
 31
0.0
 73
     1
 44
1.0
1001
ACAD
1000
MTEXTBEGIN
1070
    73
1070
     1
1070
    44
1040
1.0
1070
    74
1070
     0
1000
MTEXTEND
  0
POINT
  5
180B4
330
16E5F
100
AcDbEntity
  8
Defpoints
 62
     0
100
AcDbPoint
 10
1022.029227395877
 20
0.8732420225734923
 30
0.0
  0
POINT
  5
180B5
330
16E5F
100
AcDbEntity
  8
Defpoints
 62
     0
100
AcDbPoint
 10
1030.529227395877
 20
-17.62675797742651
 30
0.0
  0
POINT
  5
180B6
330
16E5F
100
AcDbEntity
  8
Defpoints
 62
     0
100
AcDbPoint
 10
1038.529227395877
 20
-17.62675797742651
 30
0.0
  0
ENDBLK
  5
16E6A
330
16E5F
100
AcDbEntity
  8
0
100
AcDbBlockEnd
  0
BLOCK
  5
16E99
330
16E8F
100
AcDbEntity
  8
0
100
AcDbBlockBegin
  2
*D8
 70
     1
 10
0.0
 20
0.0
 30
0.0
  3
*D8
  1

  0
LINE
  5
18093
330
16E8F
100
AcDbEntity
  8
AM_5
100
AcDbLine
 10
1031.529227395877
 20
-17.62675797742651
 30
0.0
 11
1039.529227395877
 21
-17.62675797742651
 31
0.0
  0
LINE
  5
18094
330
16E8F
100
AcDbEntity
  8
AM_5
100
AcDbLine
 10
1028.029227395877
 20
-30.62675797742651
 30
0.0
 11
1039.529227395877
 21
-30.62675797742651
 31
0.0
  0
LINE
  5
18095
330
16E8F
100
AcDbEntity
  8
AM_5
100
AcDbLine
 10
1038.529227395877
 20
-18.62675797742651
 30
0.0
 11
1038.529227395877
 21
-29.62675797742651
 31
0.0
  0
INSERT
  5
18096
330
16E8F
100
AcDbEntity
  8
AM_5
100
AcDbBlockReference
  2
_Dot
 10
1038.529227395877
 20
-17.62675797742651
 30
0.0
 50
90.0
  0
INSERT
  5
18097
330
16E8F
100
AcDbEntity
  8
AM_5
100
AcDbBlockReference
  2
_Dot
 10
1038.529227395877
 20
-30.62675797742651
 30
0.0
 50
270.0
  0
MTEXT
  5
18098
330
16E8F
100
AcDbEntity
  8
AM_5
 62
     2
100
AcDbMText
 10
1035.429227395877
 20
-24.12675797742635
 30
0.0
 40
3.2
 41
0.0
 71
     5
 72
     1
  1
13
 11
0.0000000000000001
 21
1.0
 31
0.0
 73
     1
 44
1.0
1001
ACAD
1000
MTEXTBEGIN
1070
    73
1070
     1
1070
    44
1040
1.0
1070
    74
1070
     0
1000
MTEXTEND
  0
POINT
  5
18099
330
16E8F
100
AcDbEntity
  8
Defpoints
 62
     0
100
AcDbPoint
 10
1030.029227395877
 20
-17.62675797742651
 30
0.0
  0
POINT
  5
1809A
330
16E8F
100
AcDbEntity
  8
Defpoints
 62
     0
100
AcDbPoint
 10
1026.529227395877
 20
-30.62675797742651
 30
0.0
  0
POINT
  5
1809B
330
16E8F
100
AcDbEntity
  8
Defpoints
 62
     0
100
AcDbPoint
 10
1038.529227395877
 20
-30.62675797742651
 30
0.0
  0
ENDBLK
  5
16E9A
330
16E8F
100
AcDbEntity
  8
0
100
AcDbBlockEnd
  0
BLOCK
  5
16F7F
330
16F7B
100
AcDbEntity
  8
0
100
AcDbBlockBegin
  2
*S228131999999
 70
     1
 10
0.0
 20
0.0
 30
0.0
  3
*S228131999999
  1

  0
CIRCLE
  5
16F7C
330
16F7B
100
AcDbEntity
  8
AM_12
 62
     4
100
AcDbCircle
 10
851.4425469794105
 20
-274.3848055097557
 30
0.0
 40
1.75
  0
LINE
  5
16F7D
330
16F7B
100
AcDbEntity
  8
AM_12
 62
     4
100
AcDbLine
 10
853.1925469794105
 20
-276.1348055097557
 30
0.0
 11
849.6925469794105
 21
-272.6348055097556
 31
0.0
  0
LINE
  5
16F7E
330
16F7B
100
AcDbEntity
  8
AM_12
 62
     4
100
AcDbLine
 10
849.6925469794105
 20
-276.1348055097557
 30
0.0
 11
853.1925469794105
 21
-272.6348055097556
 31
0.0
  0
ENDBLK
  5
16F80
330
16F7B
100
AcDbEntity
  8
0
100
AcDbBlockEnd
  0
BLOCK
  5
16F86
330
16F82
100
AcDbEntity
  8
0
100
AcDbBlockBegin
  2
*S229132101010101010
 70
     1
 10
0.0
 20
0.0
 30
0.0
  3
*S229132101010101010
  1

  0
CIRCLE
  5
16F83
330
16F82
100
AcDbEntity
  8
AM_12
 62
     4
100
AcDbCircle
 10
850.3821928927838
 20
-154.6237362282401
 30
0.0
 40
1.75
  0
LINE
  5
16F84
330
16F82
100
AcDbEntity
  8
AM_12
 62
     4
100
AcDbLine
 10
852.1321928927838
 20
-156.3737362282402
 30
0.0
 11
848.6321928927837
 21
-152.8737362282402
 31
0.0
  0
LINE
  5
16F85
330
16F82
100
AcDbEntity
  8
AM_12
 62
     4
100
AcDbLine
 10
848.6321928927837
 20
-156.3737362282402
 30
0.0
 11
852.1321928927838
 21
-152.8737362282402
 31
0.0
  0
ENDBLK
  5
16F87
330
16F82
100
AcDbEntity
  8
0
100
AcDbBlockEnd
  0
BLOCK
  5
16F8D
330
16F89
100
AcDbEntity
  8
0
100
AcDbBlockBegin
  2
*S230133111111111111
 70
     1
 10
0.0
 20
0.0
 30
0.0
  3
*S230133111111111111
  1

  0
CIRCLE
  5
16F8A
330
16F89
100
AcDbEntity
  8
AM_12
 62
     4
100
AcDbCircle
 10
831.151519107713
 20
-283.8569883008464
 30
0.0
 40
1.75
  0
LINE
  5
16F8B
330
16F89
100
AcDbEntity
  8
AM_12
 62
     4
100
AcDbLine
 10
832.9015191077131
 20
-285.6069883008463
 30
0.0
 11
829.4015191077132
 21
-282.1069883008464
 31
0.0
  0
LINE
  5
16F8C
330
16F89
100
AcDbEntity
  8
AM_12
 62
     4
100
AcDbLine
 10
829.4015191077132
 20
-285.6069883008463
 30
0.0
 11
832.9015191077131
 21
-282.1069883008464
 31
0.0
  0
ENDBLK
  5
16F8E
330
16F89
100
AcDbEntity
  8
0
100
AcDbBlockEnd
  0
BLOCK
  5
16F94
330
16F90
100
AcDbEntity
  8
0
100
AcDbBlockBegin
  2
*S231134121212121212
 70
     1
 10
0.0
 20
0.0
 30
0.0
  3
*S231134121212121212
  1

  0
CIRCLE
  5
16F91
330
16F90
100
AcDbEntity
  8
AM_12
 62
     4
100
AcDbCircle
 10
832.2209927888177
 20
-154.031190636467
 30
0.0
 40
1.75
  0
LINE
  5
16F92
330
16F90
100
AcDbEntity
  8
AM_12
 62
     4
100
AcDbLine
 10
833.9709927888177
 20
-155.781190636467
 30
0.0
 11
830.4709927888179
 21
-152.281190636467
 31
0.0
  0
LINE
  5
16F93
330
16F90
100
AcDbEntity
  8
AM_12
 62
     4
100
AcDbLine
 10
830.4709927888179
 20
-155.781190636467
 30
0.0
 11
833.9709927888177
 21
-152.281190636467
 31
0.0
  0
ENDBLK
  5
16F95
330
16F90
100
AcDbEntity
  8
0
100
AcDbBlockEnd
  0
BLOCK
  5
16F9B
330
16F97
100
AcDbEntity
  8
0
100
AcDbBlockBegin
  2
*S232135131313131313
 70
     1
 10
0.0
 20
0.0
 30
0.0
  3
*S232135131313131313
  1

  0
CIRCLE
  5
16F98
330
16F97
100
AcDbEntity
  8
AM_12
 62
     4
100
AcDbCircle
 10
834.0965292253827
 20
-206.9673468099633
 30
0.0
 40
1.75
  0
LINE
  5
16F99
330
16F97
100
AcDbEntity
  8
AM_12
 62
     4
100
AcDbLine
 10
835.8465292253827
 20
-208.7173468099633
 30
0.0
 11
832.3465292253827
 21
-205.2173468099633
 31
0.0
  0
LINE
  5
16F9A
330
16F97
100
AcDbEntity
  8
AM_12
 62
     4
100
AcDbLine
 10
832.3465292253827
 20
-208.7173468099633
 30
0.0
 11
835.8465292253827
 21
-205.2173468099633
 31
0.0
  0
ENDBLK
  5
16F9C
330
16F97
100
AcDbEntity
  8
0
100
AcDbBlockEnd
  0
BLOCK
  5
16FA2
330
16F9E
100
AcDbEntity
  8
0
100
AcDbBlockBegin
  2
*S233136141414141414
 70
     1
 10
0.0
 20
0.0
 30
0.0
  3
*S233136141414141414
  1

  0
CIRCLE
  5
16F9F
330
16F9E
100
AcDbEntity
  8
AM_12
 62
     4
100
AcDbCircle
 10
834.2792841561275
 20
-218.1403263476692
 30
0.0
 40
1.75
  0
LINE
  5
16FA0
330
16F9E
100
AcDbEntity
  8
AM_12
 62
     4
100
AcDbLine
 10
836.0292841561275
 20
-219.8903263476692
 30
0.0
 11
832.5292841561275
 21
-216.3903263476692
 31
0.0
  0
LINE
  5
16FA1
330
16F9E
100
AcDbEntity
  8
AM_12
 62
     4
100
AcDbLine
 10
832.5292841561275
 20
-219.8903263476692
 30
0.0
 11
836.0292841561275
 21
-216.3903263476692
 31
0.0
  0
ENDBLK
  5
16FA3
330
16F9E
100
AcDbEntity
  8
0
100
AcDbBlockEnd
  0
BLOCK
  5
16FA9
330
16FA5
100
AcDbEntity
  8
0
100
AcDbBlockBegin
  2
*S234137151515151515
 70
     1
 10
0.0
 20
0.0
 30
0.0
  3
*S234137151515151515
  1

  0
CIRCLE
  5
16FA6
330
16FA5
100
AcDbEntity
  8
AM_12
 62
     4
100
AcDbCircle
 10
832.2209927888177
 20
-284.0846630018063
 30
0.0
 40
1.75
  0
LINE
  5
16FA7
330
16FA5
100
AcDbEntity
  8
AM_12
 62
     4
100
AcDbLine
 10
833.9709927888177
 20
-282.3346630018063
 30
0.0
 11
830.4709927888179
 21
-285.8346630018062
 31
0.0
  0
LINE
  5
16FA8
330
16FA5
100
AcDbEntity
  8
AM_12
 62
     4
100
AcDbLine
 10
830.4709927888179
 20
-282.3346630018063
 30
0.0
 11
833.9709927888177
 21
-285.8346630018062
 31
0.0
  0
ENDBLK
  5
16FAA
330
16FA5
100
AcDbEntity
  8
0
100
AcDbBlockEnd
  0
BLOCK
  5
17184
330
1717A
100
AcDbEntity
  8
0
100
AcDbBlockBegin
  2
*D16
 70
     1
 10
0.0
 20
0.0
 30
0.0
  3
*D16
  1

  0
LINE
  5
17506
330
1717A
100
AcDbEntity
  8
AM_5
100
AcDbLine
 10
1028.029227395877
 20
31.37324202257361
 30
0.0
 11
1049.529227395877
 21
31.3732420225736
 31
0.0
  0
LINE
  5
17507
330
1717A
100
AcDbEntity
  8
AM_5
100
AcDbLine
 10
1028.029227395877
 20
-30.62675797742651
 30
0.0
 11
1049.529227395877
 21
-30.62675797742651
 31
0.0
  0
LINE
  5
17508
330
1717A
100
AcDbEntity
  8
AM_5
100
AcDbLine
 10
1048.529227395877
 20
30.3732420225736
 30
0.0
 11
1048.529227395877
 21
-29.62675797742651
 31
0.0
  0
INSERT
  5
17509
330
1717A
100
AcDbEntity
  8
AM_5
100
AcDbBlockReference
  2
_Dot
 10
1048.529227395877
 20
31.3732420225736
 30
0.0
 50
90.0
  0
INSERT
  5
1750A
330
1717A
100
AcDbEntity
  8
AM_5
100
AcDbBlockReference
  2
_Dot
 10
1048.529227395877
 20
-30.62675797742651
 30
0.0
 50
270.0
  0
MTEXT
  5
1750B
330
1717A
100
AcDbEntity
  8
AM_5
 62
     2
100
AcDbMText
 10
1045.429227395877
 20
0.3732420225737131
 30
0.0
 40
3.2
 41
0.0
 71
     5
 72
     1
  1
62
 11
0.0000000000000001
 21
1.0
 31
0.0
 73
     1
 44
1.0
1001
ACAD
1000
MTEXTBEGIN
1070
    73
1070
     1
1070
    44
1040
1.0
1070
    74
1070
     0
1000
MTEXTEND
  0
POINT
  5
1750C
330
1717A
100
AcDbEntity
  8
Defpoints
 62
     0
100
AcDbPoint
 10
1026.529227395877
 20
31.37324202257361
 30
0.0
  0
POINT
  5
1750D
330
1717A
100
AcDbEntity
  8
Defpoints
 62
     0
100
AcDbPoint
 10
1026.529227395877
 20
-30.62675797742651
 30
0.0
  0
POINT
  5
1750E
330
1717A
100
AcDbEntity
  8
Defpoints
 62
     0
100
AcDbPoint
 10
1048.529227395877
 20
-30.62675797742651
 30
0.0
  0
ENDBLK
  5
17185
330
1717A
100
AcDbEntity
  8
0
100
AcDbBlockEnd
  0
BLOCK
  5
1719C
330
17190
100
AcDbEntity
  8
0
100
AcDbBlockBegin
  2
*D17
 70
     1
 10
0.0
 20
0.0
 30
0.0
  3
*D17
  1

  0
LINE
  5
1750F
330
17190
100
AcDbEntity
  8
AM_5
100
AcDbLine
 10
993.0292273958771
 20
34.37324202257367
 30
0.0
 11
1049.529227395876
 21
34.37324202257365
 31
0.0
  0
LINE
  5
17510
330
17190
100
AcDbEntity
  8
AM_5
100
AcDbLine
 10
993.0292273958771
 20
31.37324202257361
 30
0.0
 11
1049.529227395876
 21
31.37324202257359
 31
0.0
  0
LINE
  5
17511
330
17190
100
AcDbEntity
  8
AM_5
100
AcDbLine
 10
1048.529227395876
 20
35.37324202257365
 30
0.0
 11
1048.529227395876
 21
36.37324202257365
 31
0.0
  0
LINE
  5
17512
330
17190
100
AcDbEntity
  8
AM_5
100
AcDbLine
 10
1048.529227395876
 20
30.37324202257359
 30
0.0
 11
1048.529227395876
 21
29.37324202257359
 31
0.0
  0
MTEXT
  5
17513
330
17190
100
AcDbEntity
  8
AM_5
 62
     2
100
AcDbMText
 10
1043.309179616708
 20
32.80653307139818
 30
0.0
 40
3.2
 41
0.0
 71
     5
 72
     1
  1
3
 11
0.0000000000000001
 21
1.0
 31
0.0
 73
     1
 44
1.0
1001
ACAD
1000
MTEXTBEGIN
1070
    73
1070
     1
1070
    44
1040
1.0
1070
    74
1070
     0
1000
MTEXTEND
  0
LINE
  5
17514
330
17190
100
AcDbEntity
  8
AM_5
100
AcDbLine
 10
1048.529227395876
 20
34.37324202257365
 30
0.0
 11
1048.529227395876
 21
31.37324202257359
 31
0.0
  0
INSERT
  5
17515
330
17190
100
AcDbEntity
  8
AM_5
100
AcDbBlockReference
  2
_Dot
 10
1048.529227395876
 20
34.37324202257365
 30
0.0
 50
270.0
  0
INSERT
  5
17516
330
17190
100
AcDbEntity
  8
AM_5
100
AcDbBlockReference
  2
_Dot
 10
1048.529227395876
 20
31.37324202257359
 30
0.0
 50
90.0
  0
POINT
  5
17517
330
17190
100
AcDbEntity
  8
Defpoints
 62
     0
100
AcDbPoint
 10
991.5292273958772
 20
34.37324202257367
 30
0.0
  0
POINT
  5
17518
330
17190
100
AcDbEntity
  8
Defpoints
 62
     0
100
AcDbPoint
 10
991.5292273958772
 20
31.37324202257361
 30
0.0
  0
POINT
  5
17519
330
17190
100
AcDbEntity
  8
Defpoints
 62
     0
100
AcDbPoint
 10
1048.529227395876
 20
31.37324202257359
 30
0.0
  0
ENDBLK
  5
1719D
330
17190
100
AcDbEntity
  8
0
100
AcDbBlockEnd
  0
BLOCK
  5
171B4
330
171AA
100
AcDbEntity
  8
0
100
AcDbBlockBegin
  2
*D18
 70
     1
 10
0.0
 20
0.0
 30
0.0
  3
*D18
  1

  0
LINE
  5
1751A
330
171AA
100
AcDbEntity
  8
AM_5
100
AcDbLine
 10
993.0292273958771
 20
34.37324202257367
 30
0.0
 11
1049.529227395876
 21
34.37324202257365
 31
0.0
  0
LINE
  5
1751B
330
171AA
100
AcDbEntity
  8
AM_5
100
AcDbLine
 10
993.0292273958771
 20
96.37324202257349
 30
0.0
 11
1049.529227395876
 21
96.37324202257349
 31
0.0
  0
LINE
  5
1751C
330
171AA
100
AcDbEntity
  8
AM_5
100
AcDbLine
 10
1048.529227395876
 20
35.37324202257365
 30
0.0
 11
1048.529227395876
 21
95.3732420225735
 31
0.0
  0
INSERT
  5
1751D
330
171AA
100
AcDbEntity
  8
AM_5
100
AcDbBlockReference
  2
_Dot
 10
1048.529227395876
 20
34.37324202257365
 30
0.0
 50
270.0
  0
INSERT
  5
1751E
330
171AA
100
AcDbEntity
  8
AM_5
100
AcDbBlockReference
  2
_Dot
 10
1048.529227395876
 20
96.37324202257349
 30
0.0
 50
90.0
  0
MTEXT
  5
1751F
330
171AA
100
AcDbEntity
  8
AM_5
 62
     2
100
AcDbMText
 10
1045.429227395876
 20
65.37324202257372
 30
0.0
 40
3.2
 41
0.0
 71
     5
 72
     1
  1
62
 11
0.0000000000000001
 21
1.0
 31
0.0
 73
     1
 44
1.0
1001
ACAD
1000
MTEXTBEGIN
1070
    73
1070
     1
1070
    44
1040
1.0
1070
    74
1070
     0
1000
MTEXTEND
  0
POINT
  5
17520
330
171AA
100
AcDbEntity
  8
Defpoints
 62
     0
100
AcDbPoint
 10
991.5292273958772
 20
34.37324202257367
 30
0.0
  0
POINT
  5
17521
330
171AA
100
AcDbEntity
  8
Defpoints
 62
     0
100
AcDbPoint
 10
991.5292273958772
 20
96.37324202257349
 30
0.0
  0
POINT
  5
17522
330
171AA
100
AcDbEntity
  8
Defpoints
 62
     0
100
AcDbPoint
 10
1048.529227395876
 20
96.37324202257349
 30
0.0
  0
ENDBLK
  5
171B5
330
171AA
100
AcDbEntity
  8
0
100
AcDbBlockEnd
  0
BLOCK
  5
171E0
330
171D6
100
AcDbEntity
  8
0
100
AcDbBlockBegin
  2
*D19
 70
     1
 10
0.0
 20
0.0
 30
0.0
  3
*D19
  1

  0
LINE
  5
17523
330
171D6
100
AcDbEntity
  8
AM_5
100
AcDbLine
 10
994.529227395877
 20
96.37324202257349
 30
0.0
 11
1059.529227395876
 21
96.37324202257349
 31
0.0
  0
LINE
  5
17524
330
171D6
100
AcDbEntity
  8
AM_5
100
AcDbLine
 10
993.0292273958771
 20
-30.62675797742651
 30
0.0
 11
1059.529227395876
 21
-30.62675797742653
 31
0.0
  0
LINE
  5
17525
330
171D6
100
AcDbEntity
  8
AM_5
100
AcDbLine
 10
1058.529227395876
 20
95.3732420225735
 30
0.0
 11
1058.529227395876
 21
-29.62675797742653
 31
0.0
  0
INSERT
  5
17526
330
171D6
100
AcDbEntity
  8
AM_5
100
AcDbBlockReference
  2
_Dot
 10
1058.529227395876
 20
96.37324202257349
 30
0.0
 50
90.0
  0
INSERT
  5
17527
330
171D6
100
AcDbEntity
  8
AM_5
100
AcDbBlockReference
  2
_Dot
 10
1058.529227395876
 20
-30.62675797742653
 30
0.0
 50
270.0
  0
MTEXT
  5
17528
330
171D6
100
AcDbEntity
  8
AM_5
 62
     2
100
AcDbMText
 10
1055.429227395876
 20
32.87324202257365
 30
0.0
 40
3.2
 41
0.0
 71
     5
 72
     1
  1
127
 11
0.0000000000000001
 21
1.0
 31
0.0
 73
     1
 44
1.0
1001
ACAD
1000
MTEXTBEGIN
1070
    73
1070
     1
1070
    44
1040
1.0
1070
    74
1070
     0
1000
MTEXTEND
  0
POINT
  5
17529
330
171D6
100
AcDbEntity
  8
Defpoints
 62
     0
100
AcDbPoint
 10
993.0292273958771
 20
96.37324202257349
 30
0.0
  0
POINT
  5
1752A
330
171D6
100
AcDbEntity
  8
Defpoints
 62
     0
100
AcDbPoint
 10
991.5292273958772
 20
-30.62675797742651
 30
0.0
  0
POINT
  5
1752B
330
171D6
100
AcDbEntity
  8
Defpoints
 62
     0
100
AcDbPoint
 10
1058.529227395876
 20
-30.62675797742653
 30
0.0
  0
ENDBLK
  5
171E1
330
171D6
100
AcDbEntity
  8
0
100
AcDbBlockEnd
  0
BLOCK
  5
1727C
330
17271
100
AcDbEntity
  8
0
100
AcDbBlockBegin
  2
*D20
 70
     1
 10
0.0
 20
0.0
 30
0.0
  3
*D20
  1

  0
LINE
  5
180ED
330
17271
100
AcDbEntity
  8
AM_5
100
AcDbLine
 10
1017.529227395877
 20
-5.626757977426506
 30
0.0
 11
1017.529227395877
 21
-40.69747319169787
 31
0.0
  0
LINE
  5
180EE
330
17271
100
AcDbEntity
  8
AM_5
100
AcDbLine
 10
1025.529227395877
 20
-24.04491746228638
 30
0.0
 11
1025.529227395877
 21
-40.69747319169787
 31
0.0
  0
LINE
  5
180EF
330
17271
100
AcDbEntity
  8
AM_5
100
AcDbLine
 10
1018.529227395877
 20
-39.6974731916979
 30
0.0
 11
1024.529227395877
 21
-39.6974731916979
 31
0.0
  0
INSERT
  5
180F0
330
17271
100
AcDbEntity
  8
AM_5
100
AcDbBlockReference
  2
_Dot
 10
1017.529227395877
 20
-39.6974731916979
 30
0.0
 50
180.0
  0
INSERT
  5
180F1
330
17271
100
AcDbEntity
  8
AM_5
100
AcDbBlockReference
  2
_Dot
 10
1025.529227395877
 20
-39.6974731916979
 30
0.0
  0
MTEXT
  5
180F2
330
17271
100
AcDbEntity
  8
AM_5
 62
     2
100
AcDbMText
 10
1021.529227395877
 20
-36.5974731916979
 30
0.0
 40
3.2
 41
0.0
 71
     5
 72
     1
  1
8
 73
     1
 44
1.0
1001
ACAD
1000
MTEXTBEGIN
1070
    73
1070
     1
1070
    44
1040
1.0
1070
    74
1070
     0
1000
MTEXTEND
  0
POINT
  5
180F3
330
17271
100
AcDbEntity
  8
Defpoints
 62
     0
100
AcDbPoint
 10
1017.529227395877
 20
-4.126757977426507
 30
0.0
  0
POINT
  5
180F4
330
17271
100
AcDbEntity
  8
Defpoints
 62
     0
100
AcDbPoint
 10
1025.529227395877
 20
-22.54491746228638
 30
0.0
  0
POINT
  5
180F5
330
17271
100
AcDbEntity
  8
Defpoints
 62
     0
100
AcDbPoint
 10
1025.529227395877
 20
-39.6974731916979
 30
0.0
  0
ENDBLK
  5
1727D
330
17271
100
AcDbEntity
  8
0
100
AcDbBlockEnd
  0
BLOCK
  5
17293
330
17288
100
AcDbEntity
  8
0
100
AcDbBlockBegin
  2
*D21
 70
     1
 10
0.0
 20
0.0
 30
0.0
  3
*D21
  1

  0
LINE
  5
180F6
330
17288
100
AcDbEntity
  8
AM_5
100
AcDbLine
 10
1017.529227395877
 20
-5.626757977426506
 30
0.0
 11
1017.529227395877
 21
-40.69747319169858
 31
0.0
  0
LINE
  5
180F7
330
17288
100
AcDbEntity
  8
AM_5
100
AcDbLine
 10
1009.529227395877
 20
-24.12675797742651
 30
0.0
 11
1009.529227395877
 21
-40.69747319169858
 31
0.0
  0
LINE
  5
180F8
330
17288
100
AcDbEntity
  8
AM_5
100
AcDbLine
 10
1016.529227395877
 20
-39.69747319169858
 30
0.0
 11
1010.529227395877
 21
-39.69747319169858
 31
0.0
  0
INSERT
  5
180F9
330
17288
100
AcDbEntity
  8
AM_5
100
AcDbBlockReference
  2
_Dot
 10
1017.529227395877
 20
-39.69747319169858
 30
0.0
  0
INSERT
  5
180FA
330
17288
100
AcDbEntity
  8
AM_5
100
AcDbBlockReference
  2
_Dot
 10
1009.529227395877
 20
-39.69747319169858
 30
0.0
 50
180.0
  0
MTEXT
  5
180FB
330
17288
100
AcDbEntity
  8
AM_5
 62
     2
100
AcDbMText
 10
1013.529227395877
 20
-36.59747319169858
 30
0.0
 40
3.2
 41
0.0
 71
     5
 72
     1
  1
8
 73
     1
 44
1.0
1001
ACAD
1000
MTEXTBEGIN
1070
    73
1070
     1
1070
    44
1040
1.0
1070
    74
1070
     0
1000
MTEXTEND
  0
POINT
  5
180FC
330
17288
100
AcDbEntity
  8
Defpoints
 62
     0
100
AcDbPoint
 10
1017.529227395877
 20
-4.126757977426507
 30
0.0
  0
POINT
  5
180FD
330
17288
100
AcDbEntity
  8
Defpoints
 62
     0
100
AcDbPoint
 10
1009.529227395877
 20
-22.62675797742651
 30
0.0
  0
POINT
  5
180FE
330
17288
100
AcDbEntity
  8
Defpoints
 62
     0
100
AcDbPoint
 10
1009.529227395877
 20
-39.69747319169858
 30
0.0
  0
ENDBLK
  5
17294
330
17288
100
AcDbEntity
  8
0
100
AcDbBlockEnd
  0
BLOCK
  5
172A9
330
1729F
100
AcDbEntity
  8
0
100
AcDbBlockBegin
  2
*D22
 70
     1
 10
0.0
 20
0.0
 30
0.0
  3
*D22
  1

  0
LINE
  5
1819D
330
1729F
100
AcDbEntity
  8
AM_5
100
AcDbLine
 10
1025.529227395877
 20
-24.04491746228638
 30
0.0
 11
1025.529227395877
 21
-50.6974731916992
 31
0.0
  0
LINE
  5
1819E
330
1729F
100
AcDbEntity
  8
AM_5
100
AcDbLine
 10
1009.529227395877
 20
-24.12675797742651
 30
0.0
 11
1009.529227395877
 21
-50.6974731916992
 31
0.0
  0
LINE
  5
1819F
330
1729F
100
AcDbEntity
  8
AM_5
100
AcDbLine
 10
1024.529227395877
 20
-49.6974731916992
 30
0.0
 11
1010.529227395877
 21
-49.6974731916992
 31
0.0
  0
INSERT
  5
181A0
330
1729F
100
AcDbEntity
  8
AM_5
100
AcDbBlockReference
  2
_Dot
 10
1025.529227395877
 20
-49.6974731916992
 30
0.0
  0
INSERT
  5
181A1
330
1729F
100
AcDbEntity
  8
AM_5
100
AcDbBlockReference
  2
_Dot
 10
1009.529227395877
 20
-49.6974731916992
 30
0.0
 50
180.0
  0
MTEXT
  5
181A2
330
1729F
100
AcDbEntity
  8
AM_5
 62
     2
100
AcDbMText
 10
1017.529227395877
 20
-46.5974731916992
 30
0.0
 40
3.2
 41
0.0
 71
     5
 72
     1
  1
16
 73
     1
 44
1.0
1001
ACAD
1000
MTEXTBEGIN
1070
    73
1070
     1
1070
    44
1040
1.0
1070
    74
1070
     0
1000
MTEXTEND
  0
POINT
  5
181A3
330
1729F
100
AcDbEntity
  8
Defpoints
 62
     0
100
AcDbPoint
 10
1025.529227395877
 20
-22.54491746228638
 30
0.0
  0
POINT
  5
181A4
330
1729F
100
AcDbEntity
  8
Defpoints
 62
     0
100
AcDbPoint
 10
1009.529227395877
 20
-22.62675797742651
 30
0.0
  0
POINT
  5
181A5
330
1729F
100
AcDbEntity
  8
Defpoints
 62
     0
100
AcDbPoint
 10
1009.529227395877
 20
-49.6974731916992
 30
0.0
  0
ENDBLK
  5
172AA
330
1729F
100
AcDbEntity
  8
0
100
AcDbBlockEnd
  0
BLOCK
  5
172C0
330
172B5
100
AcDbEntity
  8
0
100
AcDbBlockBegin
  2
*D23
 70
     1
 10
0.0
 20
0.0
 30
0.0
  3
*D23
  1

  0
LINE
  5
180C9
330
172B5
100
AcDbEntity
  8
AM_5
100
AcDbLine
 10
1031.529227395877
 20
-29.1974721916979
 30
0.0
 11
1031.529227395877
 21
-50.69747319169852
 31
0.0
  0
LINE
  5
180CA
330
172B5
100
AcDbEntity
  8
AM_5
100
AcDbLine
 10
1025.529227395877
 20
-24.04491746228638
 30
0.0
 11
1025.529227395877
 21
-50.69747319169852
 31
0.0
  0
LINE
  5
180CB
330
172B5
100
AcDbEntity
  8
AM_5
100
AcDbLine
 10
1030.529227395877
 20
-49.69747319169852
 30
0.0
 11
1026.529227395877
 21
-49.69747319169852
 31
0.0
  0
INSERT
  5
180CC
330
172B5
100
AcDbEntity
  8
AM_5
100
AcDbBlockReference
  2
_Dot
 10
1031.529227395877
 20
-49.69747319169852
 30
0.0
  0
INSERT
  5
180CD
330
172B5
100
AcDbEntity
  8
AM_5
100
AcDbBlockReference
  2
_Dot
 10
1025.529227395877
 20
-49.69747319169852
 30
0.0
 50
180.0
  0
MTEXT
  5
180CE
330
172B5
100
AcDbEntity
  8
AM_5
 62
     2
100
AcDbMText
 10
1028.529227395877
 20
-46.5974731916985
 30
0.0
 40
3.2
 41
0.0
 71
     5
 72
     1
  1
6
 73
     1
 44
1.0
1001
ACAD
1000
MTEXTBEGIN
1070
    73
1070
     1
1070
    44
1040
1.0
1070
    74
1070
     0
1000
MTEXTEND
  0
POINT
  5
180CF
330
172B5
100
AcDbEntity
  8
Defpoints
 62
     0
100
AcDbPoint
 10
1031.529227395877
 20
-27.6974721916979
 30
0.0
  0
POINT
  5
180D0
330
172B5
100
AcDbEntity
  8
Defpoints
 62
     0
100
AcDbPoint
 10
1025.529227395877
 20
-22.54491746228638
 30
0.0
  0
POINT
  5
180D1
330
172B5
100
AcDbEntity
  8
Defpoints
 62
     0
100
AcDbPoint
 10
1025.529227395877
 20
-49.69747319169852
 30
0.0
  0
ENDBLK
  5
172C1
330
172B5
100
AcDbEntity
  8
0
100
AcDbBlockEnd
  0
BLOCK
  5
172D6
330
172CC
100
AcDbEntity
  8
0
100
AcDbBlockBegin
  2
*D24
 70
     1
 10
0.0
 20
0.0
 30
0.0
  3
*D24
  1

  0
LINE
  5
180FF
330
172CC
100
AcDbEntity
  8
AM_5
100
AcDbLine
 10
1009.529227395877
 20
-23.5908595925643
 30
0.0
 11
1009.529227395877
 21
-50.69747319169982
 31
0.0
  0
LINE
  5
18100
330
172CC
100
AcDbEntity
  8
AM_5
100
AcDbLine
 10
981.5292273958773
 20
-40.12675797742651
 30
0.0
 11
981.5292273958773
 21
-50.69747319169982
 31
0.0
  0
LINE
  5
18101
330
172CC
100
AcDbEntity
  8
AM_5
100
AcDbLine
 10
1008.529227395877
 20
-49.69747319169982
 30
0.0
 11
982.5292273958773
 21
-49.69747319169982
 31
0.0
  0
INSERT
  5
18102
330
172CC
100
AcDbEntity
  8
AM_5
100
AcDbBlockReference
  2
_Dot
 10
1009.529227395877
 20
-49.69747319169982
 30
0.0
  0
INSERT
  5
18103
330
172CC
100
AcDbEntity
  8
AM_5
100
AcDbBlockReference
  2
_Dot
 10
981.5292273958773
 20
-49.69747319169982
 30
0.0
 50
180.0
  0
MTEXT
  5
18104
330
172CC
100
AcDbEntity
  8
AM_5
 62
     2
100
AcDbMText
 10
995.5292273958772
 20
-46.59747319169982
 30
0.0
 40
3.2
 41
0.0
 71
     5
 72
     1
  1
28
 73
     1
 44
1.0
1001
ACAD
1000
MTEXTBEGIN
1070
    73
1070
     1
1070
    44
1040
1.0
1070
    74
1070
     0
1000
MTEXTEND
  0
POINT
  5
18105
330
172CC
100
AcDbEntity
  8
Defpoints
 62
     0
100
AcDbPoint
 10
1009.529227395877
 20
-22.0908595925643
 30
0.0
  0
POINT
  5
18106
330
172CC
100
AcDbEntity
  8
Defpoints
 62
     0
100
AcDbPoint
 10
981.5292273958773
 20
-38.62675797742651
 30
0.0
  0
POINT
  5
18107
330
172CC
100
AcDbEntity
  8
Defpoints
 62
     0
100
AcDbPoint
 10
981.5292273958773
 20
-49.69747319169982
 30
0.0
  0
ENDBLK
  5
172D7
330
172CC
100
AcDbEntity
  8
0
100
AcDbBlockEnd
  0
BLOCK
  5
172EC
330
172E2
100
AcDbEntity
  8
0
100
AcDbBlockBegin
  2
*D25
 70
     1
 10
0.0
 20
0.0
 30
0.0
  3
*D25
  1

  0
LINE
  5
17559
330
172E2
100
AcDbEntity
  8
AM_5
100
AcDbLine
 10
1031.529227395877
 20
29.943956236845
 30
0.0
 11
1031.529227395877
 21
115.8224838810038
 31
0.0
  0
LINE
  5
1755A
330
172E2
100
AcDbEntity
  8
AM_5
100
AcDbLine
 10
981.5292273958773
 20
104.3224838810038
 30
0.0
 11
981.5292273958773
 21
115.8224838810038
 31
0.0
  0
LINE
  5
1755B
330
172E2
100
AcDbEntity
  8
AM_5
100
AcDbLine
 10
1030.529227395877
 20
114.8224838810038
 30
0.0
 11
982.5292273958773
 21
114.8224838810038
 31
0.0
  0
INSERT
  5
1755C
330
172E2
100
AcDbEntity
  8
AM_5
100
AcDbBlockReference
  2
_Dot
 10
1031.529227395877
 20
114.8224838810038
 30
0.0
  0
INSERT
  5
1755D
330
172E2
100
AcDbEntity
  8
AM_5
100
AcDbBlockReference
  2
_Dot
 10
981.5292273958773
 20
114.8224838810038
 30
0.0
 50
180.0
  0
MTEXT
  5
1755E
330
172E2
100
AcDbEntity
  8
AM_5
 62
     2
100
AcDbMText
 10
1006.529227395877
 20
117.9224838810038
 30
0.0
 40
3.2
 41
0.0
 71
     5
 72
     1
  1
50
 73
     1
 44
1.0
1001
ACAD
1000
MTEXTBEGIN
1070
    73
1070
     1
1070
    44
1040
1.0
1070
    74
1070
     0
1000
MTEXTEND
  0
POINT
  5
1755F
330
172E2
100
AcDbEntity
  8
Defpoints
 62
     0
100
AcDbPoint
 10
1031.529227395877
 20
28.443956236845
 30
0.0
  0
POINT
  5
17560
330
172E2
100
AcDbEntity
  8
Defpoints
 62
     0
100
AcDbPoint
 10
981.5292273958773
 20
102.8224838810038
 30
0.0
  0
POINT
  5
17561
330
172E2
100
AcDbEntity
  8
Defpoints
 62
     0
100
AcDbPoint
 10
981.5292273958773
 20
114.8224838810038
 30
0.0
  0
ENDBLK
  5
172ED
330
172E2
100
AcDbEntity
  8
0
100
AcDbBlockEnd
  0
BLOCK
  5
17302
330
172F8
100
AcDbEntity
  8
0
100
AcDbBlockBegin
  2
*D26
 70
     1
 10
0.0
 20
0.0
 30
0.0
  3
*D26
  1

  0
LINE
  5
17562
330
172F8
100
AcDbEntity
  8
AM_5
100
AcDbLine
 10
981.5292273958773
 20
104.3224838810038
 30
0.0
 11
981.5292273958773
 21
115.8224838810038
 31
0.0
  0
LINE
  5
17563
330
172F8
100
AcDbEntity
  8
AM_5
100
AcDbLine
 10
931.5292273958768
 20
94.943956236845
 30
0.0
 11
931.5292273958768
 21
115.8224838810038
 31
0.0
  0
LINE
  5
17564
330
172F8
100
AcDbEntity
  8
AM_5
100
AcDbLine
 10
980.5292273958771
 20
114.8224838810038
 30
0.0
 11
932.5292273958767
 21
114.8224838810038
 31
0.0
  0
INSERT
  5
17565
330
172F8
100
AcDbEntity
  8
AM_5
100
AcDbBlockReference
  2
_Dot
 10
981.5292273958773
 20
114.8224838810038
 30
0.0
  0
INSERT
  5
17566
330
172F8
100
AcDbEntity
  8
AM_5
100
AcDbBlockReference
  2
_Dot
 10
931.5292273958768
 20
114.8224838810038
 30
0.0
 50
180.0
  0
MTEXT
  5
17567
330
172F8
100
AcDbEntity
  8
AM_5
 62
     2
100
AcDbMText
 10
956.5292273958773
 20
117.9224838810038
 30
0.0
 40
3.2
 41
0.0
 71
     5
 72
     1
  1
50
 73
     1
 44
1.0
1001
ACAD
1000
MTEXTBEGIN
1070
    73
1070
     1
1070
    44
1040
1.0
1070
    74
1070
     0
1000
MTEXTEND
  0
POINT
  5
17568
330
172F8
100
AcDbEntity
  8
Defpoints
 62
     0
100
AcDbPoint
 10
981.5292273958773
 20
102.8224838810038
 30
0.0
  0
POINT
  5
17569
330
172F8
100
AcDbEntity
  8
Defpoints
 62
     0
100
AcDbPoint
 10
931.5292273958768
 20
93.443956236845
 30
0.0
  0
POINT
  5
1756A
330
172F8
100
AcDbEntity
  8
Defpoints
 62
     0
100
AcDbPoint
 10
931.5292273958768
 20
114.8224838810038
 30
0.0
  0
ENDBLK
  5
17303
330
172F8
100
AcDbEntity
  8
0
100
AcDbBlockEnd
  0
BLOCK
  5
17318
330
1730E
100
AcDbEntity
  8
0
100
AcDbBlockBegin
  2
*D27
 70
     1
 10
0.0
 20
0.0
 30
0.0
  3
*D27
  1

  0
LINE
  5
1756B
330
1730E
100
AcDbEntity
  8
AM_5
100
AcDbLine
 10
1031.529227395877
 20
29.943956236845
 30
0.0
 11
1031.529227395877
 21
125.8224838810034
 31
0.0
  0
LINE
  5
1756C
330
1730E
100
AcDbEntity
  8
AM_5
100
AcDbLine
 10
931.5292273958768
 20
94.943956236845
 30
0.0
 11
931.5292273958768
 21
125.8224838810034
 31
0.0
  0
LINE
  5
1756D
330
1730E
100
AcDbEntity
  8
AM_5
100
AcDbLine
 10
1030.529227395877
 20
124.8224838810034
 30
0.0
 11
932.5292273958767
 21
124.8224838810034
 31
0.0
  0
INSERT
  5
1756E
330
1730E
100
AcDbEntity
  8
AM_5
100
AcDbBlockReference
  2
_Dot
 10
1031.529227395877
 20
124.8224838810034
 30
0.0
  0
INSERT
  5
1756F
330
1730E
100
AcDbEntity
  8
AM_5
100
AcDbBlockReference
  2
_Dot
 10
931.5292273958768
 20
124.8224838810034
 30
0.0
 50
180.0
  0
MTEXT
  5
17570
330
1730E
100
AcDbEntity
  8
AM_5
 62
     2
100
AcDbMText
 10
981.5292273958773
 20
127.9224838810034
 30
0.0
 40
3.2
 41
0.0
 71
     5
 72
     1
  1
100
 73
     1
 44
1.0
1001
ACAD
1000
MTEXTBEGIN
1070
    73
1070
     1
1070
    44
1040
1.0
1070
    74
1070
     0
1000
MTEXTEND
  0
POINT
  5
17571
330
1730E
100
AcDbEntity
  8
Defpoints
 62
     0
100
AcDbPoint
 10
1031.529227395877
 20
28.443956236845
 30
0.0
  0
POINT
  5
17572
330
1730E
100
AcDbEntity
  8
Defpoints
 62
     0
100
AcDbPoint
 10
931.5292273958768
 20
93.443956236845
 30
0.0
  0
POINT
  5
17573
330
1730E
100
AcDbEntity
  8
Defpoints
 62
     0
100
AcDbPoint
 10
931.5292273958768
 20
124.8224838810034
 30
0.0
  0
ENDBLK
  5
17319
330
1730E
100
AcDbEntity
  8
0
100
AcDbBlockEnd
  0
BLOCK
  5
1737F
330
17376
100
AcDbEntity
  8
0
100
AcDbBlockBegin
  2
*D28
 70
     1
 10
0.0
 20
0.0
 30
0.0
  3
*D28
  1

  0
LINE
  5
17581
330
17376
100
AcDbEntity
  8
AM_5
100
AcDbLine
 10
986.4178294063892
 20
169.9885750527026
 30
0.0
 11
976.6406253853633
 21
157.3234149064097
 31
0.0
  0
LINE
  5
17582
330
17376
100
AcDbEntity
  8
AM_5
100
AcDbLine
 10
975.4184748827352
 20
155.740269888123
 30
0.0
 11
964.7632890334874
 21
141.9377927301306
 31
0.0
  0
LINE
  5
17583
330
17376
100
AcDbEntity
  8
AM_5
100
AcDbLine
 10
964.7632890334874
 20
141.9377927301306
 30
0.0
 11
957.6099557001539
 21
141.9377927301306
 31
0.0
  0
INSERT
  5
17584
330
17376
100
AcDbEntity
  8
AM_5
100
AcDbBlockReference
  2
GENDOT
 10
987.6399799090174
 20
171.5717200709892
 30
0.0
 41
2.0
 42
2.0
 43
2.0
 50
52.33270869295799
  0
INSERT
  5
17585
330
17376
100
AcDbEntity
  8
AM_5
100
AcDbBlockReference
  2
GENDOT
 10
975.4184748827352
 20
155.740269888123
 30
0.0
 41
2.0
 42
2.0
 43
2.0
 50
232.332708692958
  0
MTEXT
  5
17586
330
17376
100
AcDbEntity
  8
AM_5
 62
     2
100
AcDbMText
 10
960.4366223668206
 20
145.0377927301307
 30
0.0
 40
3.200000000000001
 41
0.0
 71
     5
 72
     1
  1
\U+220520
 73
     1
 44
1.0
1001
ACAD
1000
MTEXTBEGIN
1070
    73
1070
     1
1070
    44
1040
1.0
1070
    74
1070
     0
1000
MTEXTEND
  0
POINT
  5
17587
330
17376
100
AcDbEntity
  8
Defpoints
 62
     0
100
AcDbPoint
 10
975.4184748827352
 20
155.740269888123
 30
0.0
  0
POINT
  5
17588
330
17376
100
AcDbEntity
  8
Defpoints
 62
     0
100
AcDbPoint
 10
987.6399799090174
 20
171.5717200709892
 30
0.0
  0
ENDBLK
  5
17380
330
17376
100
AcDbEntity
  8
0
100
AcDbBlockEnd
  0
BLOCK
  5
17397
330
17394
100
AcDbEntity
  8
0
100
AcDbBlockBegin
  2
GENDOT
 70
     0
 10
0.0
 20
0.0
 30
0.0
  3
GENDOT
  1

  0
LINE
  5
17395
330
17394
100
AcDbEntity
  8
0
100
AcDbLine
 10
0.0
 20
0.0
 30
0.0
 11
-1.0
 21
0.0
 31
0.0
  0
LWPOLYLINE
  5
17396
330
17394
100
AcDbEntity
  8
0
100
AcDbPolyline
 90
        2
 70
     1
 43
0.25
 10
-0.125
 20
0.0
 42
1.0
 10
0.125
 20
0.0
 42
1.0
  0
ENDBLK
  5
17398
330
17394
100
AcDbEntity
  8
0
100
AcDbBlockEnd
  0
BLOCK
  5
1744D
330
17444
100
AcDbEntity
  8
0
100
AcDbBlockBegin
  2
*D30
 70
     1
 10
0.0
 20
0.0
 30
0.0
  3
*D30
  1

  0
LINE
  5
181A6
330
17444
100
AcDbEntity
  8
AM_5
100
AcDbLine
 10
1011.603121147176
 20
20.24586147475031
 30
0.0
 11
1007.455333644577
 21
18.50062257039389
 31
0.0
  0
LINE
  5
181A7
330
17444
100
AcDbEntity
  8
AM_5
100
AcDbLine
 10
1005.61187253231
 20
17.72496083512431
 30
0.0
 11
951.6802601748263
 21
-4.967510271933518
 31
0.0
  0
LINE
  5
181A8
330
17444
100
AcDbEntity
  8
AM_5
100
AcDbLine
 10
951.6802601748263
 20
-4.967510271933518
 30
0.0
 11
934.7775935081598
 21
-4.967510271933576
 31
0.0
  0
INSERT
  5
181A9
330
17444
100
AcDbEntity
  8
AM_5
100
AcDbBlockReference
  2
GENDOT
 10
1013.446582259442
 20
21.02152321001989
 30
0.0
 41
2.0
 42
2.0
 43
2.0
 50
22.8195968134143
  0
INSERT
  5
181AA
330
17444
100
AcDbEntity
  8
AM_5
100
AcDbBlockReference
  2
GENDOT
 10
1005.61187253231
 20
17.72496083512431
 30
0.0
 41
2.0
 42
2.0
 43
2.0
 50
202.8195968134143
  0
MTEXT
  5
181AB
330
17444
100
AcDbEntity
  8
AM_5
 62
     2
100
AcDbMText
 10
942.4789268414933
 20
0.7991563947329789
 30
0.0
 40
3.200000000000001
 41
0.0
 71
     5
 72
     1
  1
10-%%c5.5×\P\U+22058.5サラ
 73
     1
 44
1.0
1001
ACAD
1000
MTEXTBEGIN
1070
    73
1070
     1
1070
    44
1040
1.0
1070
    74
1070
     0
1000
MTEXTEND
  0
POINT
  5
181AC
330
17444
100
AcDbEntity
  8
Defpoints
 62
     0
100
AcDbPoint
 10
1005.61187253231
 20
17.72496083512431
 30
0.0
  0
POINT
  5
181AD
330
17444
100
AcDbEntity
  8
Defpoints
 62
     0
100
AcDbPoint
 10
1013.446582259442
 20
21.02152321001989
 30
0.0
  0
ENDBLK
  5
1744E
330
17444
100
AcDbEntity
  8
0
100
AcDbBlockEnd
  0
BLOCK
  5
17F3F
330
17F33
100
AcDbEntity
  8
0
100
AcDbBlockBegin
  2
*D31
 70
     1
 10
0.0
 20
0.0
 30
0.0
  3
*D31
  1

  0
LINE
  5
17F66
330
17F33
100
AcDbEntity
  8
AM_5
100
AcDbLine
 10
1036.029227395877
 20
163.655994979556
 30
0.0
 11
1044.529228395877
 21
163.655994979556
 31
0.0
  0
LINE
  5
17F67
330
17F33
100
AcDbEntity
  8
AM_5
100
AcDbLine
 10
1033.029227395877
 20
162.155994979556
 30
0.0
 11
1044.529228395877
 21
162.155994979556
 31
0.0
  0
LINE
  5
17F68
330
17F33
100
AcDbEntity
  8
AM_5
100
AcDbLine
 10
1043.529228395877
 20
164.655994979556
 30
0.0
 11
1043.529228395877
 21
165.655994979556
 31
0.0
  0
LINE
  5
17F69
330
17F33
100
AcDbEntity
  8
AM_5
100
AcDbLine
 10
1043.529228395877
 20
161.155994979556
 30
0.0
 11
1043.529228395877
 21
152.7826616462226
 31
0.0
  0
LINE
  5
17F6A
330
17F33
100
AcDbEntity
  8
AM_5
100
AcDbLine
 10
1043.529228395877
 20
163.655994979556
 30
0.0
 11
1043.529228395877
 21
162.155994979556
 31
0.0
  0
INSERT
  5
17F6B
330
17F33
100
AcDbEntity
  8
AM_5
100
AcDbBlockReference
  2
GENDOT
 10
1043.529228395877
 20
163.655994979556
 30
0.0
 50
270.0
  0
INSERT
  5
17F6C
330
17F33
100
AcDbEntity
  8
AM_5
100
AcDbBlockReference
  2
_Dot
 10
1043.529228395877
 20
162.155994979556
 30
0.0
 50
90.0
  0
MTEXT
  5
17F6D
330
17F33
100
AcDbEntity
  8
AM_5
 62
     2
100
AcDbMText
 10
1040.429228395877
 20
156.4693283128895
 30
0.0
 40
3.2
 41
0.0
 71
     5
 72
     1
  1
1.5
 11
0.0000000000000001
 21
1.0
 31
0.0
 73
     1
 44
1.0
1001
ACAD
1000
MTEXTBEGIN
1070
    73
1070
     1
1070
    44
1040
1.0
1070
    74
1070
     0
1000
MTEXTEND
  0
POINT
  5
17F6E
330
17F33
100
AcDbEntity
  8
Defpoints
 62
     0
100
AcDbPoint
 10
1034.529227395877
 20
163.655994979556
 30
0.0
  0
POINT
  5
17F6F
330
17F33
100
AcDbEntity
  8
Defpoints
 62
     0
100
AcDbPoint
 10
1031.529227395877
 20
162.155994979556
 30
0.0
  0
POINT
  5
17F70
330
17F33
100
AcDbEntity
  8
Defpoints
 62
     0
100
AcDbPoint
 10
1043.529228395877
 20
162.155994979556
 30
0.0
  0
ENDBLK
  5
17F40
330
17F33
100
AcDbEntity
  8
0
100
AcDbBlockEnd
  0
BLOCK
  5
17F59
330
17F4D
100
AcDbEntity
  8
0
100
AcDbBlockBegin
  2
*D32
 70
     1
 10
0.0
 20
0.0
 30
0.0
  3
*D32
  1

  0
LINE
  5
17F7C
330
17F4D
100
AcDbEntity
  8
AM_5
100
AcDbLine
 10
1036.029227395877
 20
163.655994979556
 30
0.0
 11
1044.529228395877
 21
163.655994979556
 31
0.0
  0
LINE
  5
17F7D
330
17F4D
100
AcDbEntity
  8
AM_5
100
AcDbLine
 10
1033.029227395877
 20
166.155994979556
 30
0.0
 11
1044.529228395877
 21
166.155994979556
 31
0.0
  0
LINE
  5
17F7E
330
17F4D
100
AcDbEntity
  8
AM_5
100
AcDbLine
 10
1043.529228395877
 20
162.655994979556
 30
0.0
 11
1043.529228395877
 21
161.655994979556
 31
0.0
  0
LINE
  5
17F7F
330
17F4D
100
AcDbEntity
  8
AM_5
100
AcDbLine
 10
1043.529228395877
 20
167.155994979556
 30
0.0
 11
1043.529228395877
 21
175.8493283128893
 31
0.0
  0
LINE
  5
17F80
330
17F4D
100
AcDbEntity
  8
AM_5
100
AcDbLine
 10
1043.529228395877
 20
163.655994979556
 30
0.0
 11
1043.529228395877
 21
166.155994979556
 31
0.0
  0
INSERT
  5
17F81
330
17F4D
100
AcDbEntity
  8
AM_5
100
AcDbBlockReference
  2
_Dot
 10
1043.529228395877
 20
163.655994979556
 30
0.0
 50
90.0
  0
INSERT
  5
17F82
330
17F4D
100
AcDbEntity
  8
AM_5
100
AcDbBlockReference
  2
_Dot
 10
1043.529228395877
 20
166.155994979556
 30
0.0
 50
270.0
  0
MTEXT
  5
17F83
330
17F4D
100
AcDbEntity
  8
AM_5
 62
     2
100
AcDbMText
 10
1040.429228395877
 20
172.0026616462228
 30
0.0
 40
3.2
 41
0.0
 71
     5
 72
     1
  1
2.5
 11
0.0000000000000001
 21
1.0
 31
0.0
 73
     1
 44
1.0
1001
ACAD
1000
MTEXTBEGIN
1070
    73
1070
     1
1070
    44
1040
1.0
1070
    74
1070
     0
1000
MTEXTEND
  0
POINT
  5
17F84
330
17F4D
100
AcDbEntity
  8
Defpoints
 62
     0
100
AcDbPoint
 10
1034.529227395877
 20
163.655994979556
 30
0.0
  0
POINT
  5
17F85
330
17F4D
100
AcDbEntity
  8
Defpoints
 62
     0
100
AcDbPoint
 10
1031.529227395877
 20
166.155994979556
 30
0.0
  0
POINT
  5
17F86
330
17F4D
100
AcDbEntity
  8
Defpoints
 62
     0
100
AcDbPoint
 10
1043.529228395877
 20
166.155994979556
 30
0.0
  0
ENDBLK
  5
17F5A
330
17F4D
100
AcDbEntity
  8
0
100
AcDbBlockEnd
  0
BLOCK
  5
17F94
330
17F88
100
AcDbEntity
  8
0
100
AcDbBlockBegin
  2
*D33
 70
     1
 10
0.0
 20
0.0
 30
0.0
  3
*D33
  1

  0
LINE
  5
17FAC
330
17F88
100
AcDbEntity
  8
AM_5
100
AcDbLine
 10
1033.029227395877
 20
166.155994979556
 30
0.0
 11
1054.529228395877
 21
166.155994979556
 31
0.0
  0
LINE
  5
17FAD
330
17F88
100
AcDbEntity
  8
AM_5
100
AcDbLine
 10
1033.029227395877
 20
162.155994979556
 30
0.0
 11
1054.529228395877
 21
162.155994979556
 31
0.0
  0
LINE
  5
17FAE
330
17F88
100
AcDbEntity
  8
AM_5
100
AcDbLine
 10
1053.529228395877
 20
167.155994979556
 30
0.0
 11
1053.529228395877
 21
168.155994979556
 31
0.0
  0
LINE
  5
17FAF
330
17F88
100
AcDbEntity
  8
AM_5
100
AcDbLine
 10
1053.529228395877
 20
161.155994979556
 30
0.0
 11
1053.529228395877
 21
160.155994979556
 31
0.0
  0
LINE
  5
17FB0
330
17F88
100
AcDbEntity
  8
AM_5
100
AcDbLine
 10
1053.529228395877
 20
173.4393679794085
 30
0.0
 11
1053.529228395877
 21
166.155994979556
 31
0.0
  0
MTEXT
  5
17FB1
330
17F88
100
AcDbEntity
  8
AM_5
 62
     2
100
AcDbMText
 10
1050.429228395877
 20
171.1393679794087
 30
0.0
 40
3.2
 41
0.0
 71
     5
 72
     1
  1
4
 11
0.0000000000000001
 21
1.0
 31
0.0
 73
     1
 44
1.0
1001
ACAD
1000
MTEXTBEGIN
1070
    73
1070
     1
1070
    44
1040
1.0
1070
    74
1070
     0
1000
MTEXTEND
  0
LINE
  5
17FB2
330
17F88
100
AcDbEntity
  8
AM_5
100
AcDbLine
 10
1053.529228395877
 20
166.155994979556
 30
0.0
 11
1053.529228395877
 21
162.155994979556
 31
0.0
  0
LINE
  5
17FB3
330
17F88
100
AcDbEntity
  8
AM_5
100
AcDbLine
 10
1053.529228395877
 20
166.155994979556
 30
0.0
 11
1053.529228395877
 21
162.155994979556
 31
0.0
  0
INSERT
  5
17FB4
330
17F88
100
AcDbEntity
  8
AM_5
100
AcDbBlockReference
  2
_Dot
 10
1053.529228395877
 20
166.155994979556
 30
0.0
 50
270.0
  0
INSERT
  5
17FB5
330
17F88
100
AcDbEntity
  8
AM_5
100
AcDbBlockReference
  2
_Dot
 10
1053.529228395877
 20
162.155994979556
 30
0.0
 50
90.0
  0
POINT
  5
17FB6
330
17F88
100
AcDbEntity
  8
Defpoints
 62
     0
100
AcDbPoint
 10
1031.529227395877
 20
166.155994979556
 30
0.0
  0
POINT
  5
17FB7
330
17F88
100
AcDbEntity
  8
Defpoints
 62
     0
100
AcDbPoint
 10
1031.529227395877
 20
162.155994979556
 30
0.0
  0
POINT
  5
17FB8
330
17F88
100
AcDbEntity
  8
Defpoints
 62
     0
100
AcDbPoint
 10
1053.529228395877
 20
162.155994979556
 30
0.0
  0
ENDBLK
  5
17F95
330
17F88
100
AcDbEntity
  8
0
100
AcDbBlockEnd
  0
ENDSEC
  0
SECTION
  2
ENTITIES
  0
AMDTACMWBLOCKBOMENTITY
  5
1311C
330
1F
100
AcDbEntity
  8
AM_5
 92
        8
310
0800000000000000
  0
AMDTACMWBLOCKBOMENTITY
  5
1311D
330
1F
100
AcDbEntity
  8
AM_5
 92
        8
310
0800000000000000
  0
AMDTACMWBLOCKBOMENTITY
  5
1311E
330
1F
100
AcDbEntity
  8
AM_5
 92
        8
310
0800000000000000
  0
AMDTACMWBLOCKBOMENTITY
  5
1311F
330
1F
100
AcDbEntity
  8
AM_5
 92
        8
310
0800000000000000
  0
AMDTACMWBLOCKBOMENTITY
  5
13120
330
1F
100
AcDbEntity
  8
AM_5
 92
        8
310
0800000000000000
  0
AMDTACMWBLOCKBOMENTITY
  5
13121
330
1F
100
AcDbEntity
  8
AM_5
 92
        8
310
0800000000000000
  0
AMDTACMWBLOCKBOMENTITY
  5
13A60
330
1F
100
AcDbEntity
  8
AM_5
 92
        8
310
0800000000000000
  0
AMDTACMWBLOCKBOMENTITY
  5
13A61
330
1F
100
AcDbEntity
  8
AM_5
 92
        8
310
0800000000000000
  0
AMDTACMWBLOCKBOMENTITY
  5
13A62
330
1F
100
AcDbEntity
  8
AM_5
 92
        8
310
0800000000000000
  0
AMDTACMWBLOCKBOMENTITY
  5
13A63
330
1F
100
AcDbEntity
  8
AM_5
 92
        8
310
0800000000000000
  0
AMDTACMWBLOCKBOMENTITY
  5
13A64
330
1F
100
AcDbEntity
  8
AM_5
 92
        8
310
0800000000000000
  0
AMDTACMWBLOCKBOMENTITY
  5
14222
330
1F
100
AcDbEntity
  8
AM_5
 92
        8
310
0800000000000000
  0
AMDTACMWBLOCKBOMENTITY
  5
14224
330
1F
100
AcDbEntity
  8
AM_5
 92
        8
310
0800000000000000
  0
AMDTACMWBLOCKBOMENTITY
  5
14226
330
1F
100
AcDbEntity
  8
AM_5
 92
        8
310
0800000000000000
  0
AMDTACMWBLOCKBOMENTITY
  5
14228
330
1F
100
AcDbEntity
  8
AM_5
 92
        8
310
0800000000000000
  0
AMDTACMWBLOCKBOMENTITY
  5
1422A
330
1F
100
AcDbEntity
  8
AM_5
 92
        8
310
0800000000000000
  0
AMDTACMWBLOCKBOMENTITY
  5
1422C
330
1F
100
AcDbEntity
  8
AM_5
 92
        8
310
0800000000000000
  0
AMDTACMWBLOCKBOMENTITY
  5
14B93
330
1F
100
AcDbEntity
  8
AM_5
 92
        8
310
0800000000000000
  0
AMDTACMWBLOCKBOMENTITY
  5
14B94
330
1F
100
AcDbEntity
  8
AM_5
 92
        8
310
0800000000000000
  0
AMDTACMWBLOCKBOMENTITY
  5
14B95
330
1F
100
AcDbEntity
  8
AM_5
 92
        8
310
0800000000000000
  0
AMDTACMWBLOCKBOMENTITY
  5
14B96
330
1F
100
AcDbEntity
  8
AM_5
 92
        8
310
0800000000000000
  0
AMDTACMWBLOCKBOMENTITY
  5
14B97
330
1F
100
AcDbEntity
  8
AM_5
 92
        8
310
0800000000000000
  0
AMDTACMWBLOCKBOMENTITY
  5
14B98
330
1F
100
AcDbEntity
  8
AM_5
 92
        8
310
0800000000000000
  0
LINE
  5
16426
330
1F
100
AcDbEntity
  8
0
  6
Continuous
 62
     7
100
AcDbLine
 10
1147.122890348983
 20
205.7869790281397
 30
0.0
 11
1147.122890348983
 21
-67.21302097186009
 31
0.0
  0
LINE
  5
16427
330
1F
100
AcDbEntity
  8
0
  6
Continuous
 62
     7
100
AcDbLine
 10
766.1228903489833
 20
-67.21302097186009
 30
0.0
 11
1147.122890348983
 21
-67.21302097186009
 31
0.0
  0
LINE
  5
16428
330
1F
100
AcDbEntity
  8
0
  6
Continuous
 62
     7
100
AcDbLine
 10
766.1228903489833
 20
205.7869790281397
 30
0.0
 11
1147.122890348983
 21
205.7869790281397
 31
0.0
  0
LINE
  5
16429
330
1F
100
AcDbEntity
  8
0
  6
Continuous
 62
     7
100
AcDbLine
 10
766.1228903489833
 20
205.7869790281397
 30
0.0
 11
766.1228903489833
 21
-67.21302097186009
 31
0.0
  0
LINE
  5
1642A
330
1F
100
AcDbEntity
  8
0
  6
Continuous
 62
     7
100
AcDbLine
 10
786.1228903489833
 20
205.7869790281397
 30
0.0
 11
786.1228903489833
 21
125.7869790281397
 31
0.0
  0
LINE
  5
1642B
330
1F
100
AcDbEntity
  8
0
  6
Continuous
 62
     7
100
AcDbLine
 10
766.1228903489833
 20
197.7869790281397
 30
0.0
 11
876.1228903489833
 21
197.7869790281397
 31
0.0
  0
LINE
  5
1642C
330
1F
100
AcDbEntity
  8
0
  6
Continuous
 62
     7
100
AcDbLine
 10
766.1228903489833
 20
189.7869790281396
 30
0.0
 11
876.1228903489833
 21
189.7869790281396
 31
0.0
  0
LINE
  5
1642D
330
1F
100
AcDbEntity
  8
0
  6
Continuous
 62
     7
100
AcDbLine
 10
766.1228903489833
 20
181.7869790281397
 30
0.0
 11
876.1228903489833
 21
181.7869790281397
 31
0.0
  0
LINE
  5
1642E
330
1F
100
AcDbEntity
  8
0
  6
Continuous
 62
     7
100
AcDbLine
 10
766.1228903489833
 20
173.7869790281397
 30
0.0
 11
876.1228903489833
 21
173.7869790281397
 31
0.0
  0
LINE
  5
1642F
330
1F
100
AcDbEntity
  8
0
  6
Continuous
 62
     7
100
AcDbLine
 10
786.1228903489833
 20
165.7869790281397
 30
0.0
 11
876.1228903489833
 21
165.7869790281397
 31
0.0
  0
LINE
  5
16430
330
1F
100
AcDbEntity
  8
0
  6
Continuous
 62
     7
100
AcDbLine
 10
786.1228903489833
 20
157.7869790281398
 30
0.0
 11
876.1228903489833
 21
157.7869790281398
 31
0.0
  0
LINE
  5
16431
330
1F
100
AcDbEntity
  8
0
  6
Continuous
 62
     7
100
AcDbLine
 10
766.1228903489833
 20
149.7869790281397
 30
0.0
 11
876.1228903489833
 21
149.7869790281397
 31
0.0
  0
LINE
  5
16432
330
1F
100
AcDbEntity
  8
0
  6
Continuous
 62
     7
100
AcDbLine
 10
786.1228903489833
 20
141.7869790281397
 30
0.0
 11
876.1228903489833
 21
141.7869790281397
 31
0.0
  0
LINE
  5
16433
330
1F
100
AcDbEntity
  8
0
  6
Continuous
 62
     7
100
AcDbLine
 10
786.1228903489833
 20
133.7869790281397
 30
0.0
 11
876.1228903489833
 21
133.7869790281397
 31
0.0
  0
LINE
  5
16434
330
1F
100
AcDbEntity
  8
0
  6
Continuous
 62
     7
100
AcDbLine
 10
766.1228903489833
 20
125.7869790281397
 30
0.0
 11
876.1228903489833
 21
125.7869790281397
 31
0.0
  0
LINE
  5
16435
330
1F
100
AcDbEntity
  8
0
  6
Continuous
 62
     7
100
AcDbLine
 10
766.1228903489833
 20
205.7869790281397
 30
0.0
 11
766.1228903489833
 21
109.7869790281397
 31
0.0
  0
LINE
  5
16436
330
1F
100
AcDbEntity
  8
0
  6
Continuous
 62
     7
100
AcDbLine
 10
766.1228903489833
 20
205.7869790281397
 30
0.0
 11
876.1228903489833
 21
205.7869790281397
 31
0.0
  0
LINE
  5
16437
330
1F
100
AcDbEntity
  8
0
  6
Continuous
 62
     7
100
AcDbLine
 10
876.1228903489833
 20
205.7869790281397
 30
0.0
 11
876.1228903489833
 21
125.7869790281397
 31
0.0
  0
LINE
  5
16438
330
1F
100
AcDbEntity
  8
0
  6
Continuous
 62
     7
100
AcDbLine
 10
766.1228903489833
 20
173.7869790281397
 30
0.0
 11
876.1228903489833
 21
173.7869790281397
 31
0.0
  0
LINE
  5
16439
330
1F
100
AcDbEntity
  8
0
  6
Continuous
 62
     7
100
AcDbLine
 10
786.1228903489833
 20
165.7869790281397
 30
0.0
 11
876.1228903489833
 21
165.7869790281397
 31
0.0
  0
TEXT
  5
1643A
330
1F
100
AcDbEntity
  8
0
  6
Continuous
 62
     7
100
AcDbText
 10
771.7798903489832
 20
200.1869790281397
 30
0.0
 40
3.2
  1
品　名
 41
0.85537027
100
AcDbText
  0
TEXT
  5
1643B
330
1F
100
AcDbEntity
  8
0
  6
Continuous
 62
     7
100
AcDbText
 10
771.7798903489832
 20
192.1869790281397
 30
0.0
 40
3.2
  1
品　番
 41
0.85537027
100
AcDbText
  0
TEXT
  5
1643C
330
1F
100
AcDbEntity
  8
0
  6
Continuous
 62
     7
100
AcDbText
 10
788.9798903489833
 20
136.1869790281397
 30
0.0
 40
3.2
  1
＊左勝手
 41
0.90047268
100
AcDbText
  0
TEXT
  5
1643D
330
1F
100
AcDbEntity
  8
0
  6
Continuous
 62
     7
100
AcDbText
 10
788.9798903489833
 20
128.1869790281397
 30
0.0
 40
3.2
  1
＊
 41
0.90047268
100
AcDbText
  0
TEXT
  5
1643E
330
1F
100
AcDbEntity
  8
0
  6
Continuous
 62
     7
100
AcDbText
 10
771.7798903489832
 20
184.1869790281397
 30
0.0
 40
3.2
  1
材　質
 41
0.85537027
100
AcDbText
  0
TEXT
  5
1643F
330
1F
100
AcDbEntity
  8
0
  6
Continuous
 62
     7
100
AcDbText
 10
771.7798903489832
 20
176.1869790281397
 30
0.0
 40
3.2
  1
仕上げ
 41
0.85537027
100
AcDbText
  0
TEXT
  5
16440
330
1F
100
AcDbEntity
  8
0
  6
Continuous
 62
     7
100
AcDbText
 10
788.9798903489833
 20
152.1869790281397
 30
0.0
 40
3.2
  1
＊
 41
0.90047268
100
AcDbText
  0
TEXT
  5
16441
330
1F
100
AcDbEntity
  8
0
  6
Continuous
 62
     7
100
AcDbText
 10
788.9798903489833
 20
160.1869790281398
 30
0.0
 40
3.2
  1
＊
 41
0.90047268
100
AcDbText
  0
TEXT
  5
16442
330
1F
100
AcDbEntity
  8
0
  6
Continuous
 62
     7
100
AcDbText
 10
768.5798903489833
 20
168.1869790281397
 30
0.0
 40
3.2
  1
セットビス
 41
0.84892707
100
AcDbText
  0
TEXT
  5
16443
330
1F
100
AcDbEntity
  8
0
  6
Continuous
 62
     7
100
AcDbText
 10
788.9798903489833
 20
168.1869790281397
 30
0.0
 40
3.2
  1
＊
 41
0.90047268
100
AcDbText
  0
TEXT
  5
16444
330
1F
100
AcDbEntity
  8
0
  6
Continuous
 62
     7
100
AcDbText
 10
773.3798903489831
 20
144.1869790281397
 30
0.0
 40
3.2
  1
備考
 41
0.8643907499999999
100
AcDbText
  0
TEXT
  5
16446
330
1F
100
AcDbEntity
  8
0
  6
Continuous
 62
     7
100
AcDbText
 10
788.9798903489833
 20
200.1869790281397
 30
0.0
 40
3.2
  1
旗丁番
 41
0.85537027
100
AcDbText
  0
TEXT
  5
16447
330
1F
100
AcDbEntity
  8
0
  6
Continuous
 62
     7
100
AcDbText
 10
788.9798903489833
 20
192.1869790281397
 30
0.0
 40
3.2
  1
DH-506S
 41
0.84496202
100
AcDbText
  0
TEXT
  5
16448
330
1F
100
AcDbEntity
  8
0
  6
Continuous
 62
     7
100
AcDbText
 10
788.9798903489833
 20
184.1869790281397
 30
0.0
 40
3.2
  1
羽根：ステンレス／軸：ステンレス
 41
0.8428951399999997
100
AcDbText
  0
TEXT
  5
16449
330
1F
100
AcDbEntity
  8
0
  6
Continuous
 62
     7
100
AcDbText
 10
788.9798903489833
 20
176.1869790281397
 30
0.0
 40
3.2
  1
羽根：ヘアーライン／軸：生地
 41
0.84326962
100
AcDbText
  0
TEXT
  5
164BC
330
1F
100
AcDbEntity
  8
0
  6
Continuous
 62
     7
100
AcDbText
 10
788.9798903489833
 20
144.1869790281397
 30
0.0
 40
3.2
  1
＊丁番係数：21.1
 41
0.90047268
100
AcDbText
  0
LINE
  5
166D9
330
1F
100
AcDbEntity
  8
AM_0
100
AcDbLine
 10
971.5292273958771
 20
-30.62675797742651
 30
0.0
 11
1026.529227395877
 21
-30.62675797742651
 31
0.0
  0
LINE
  5
166DA
330
1F
100
AcDbEntity
  8
AM_0
100
AcDbLine
 10
971.5292273958771
 20
96.37324202257367
 30
0.0
 11
991.5292273958767
 21
96.37324202257373
 31
0.0
  0
LINE
  5
166DB
330
1F
100
AcDbEntity
  8
AM_0
100
AcDbLine
 10
971.5292273958771
 20
31.37324202257361
 30
0.0
 11
1026.529227395877
 21
31.37324202257361
 31
0.0
  0
LINE
  5
166DC
330
1F
100
AcDbEntity
  8
AM_0
100
AcDbLine
 10
971.5292273958771
 20
34.37324202257361
 30
0.0
 11
991.5292273958772
 21
34.37324202257367
 31
0.0
  0
LINE
  5
166DF
330
1F
100
AcDbEntity
  8
AM_0
 48
0.5
100
AcDbLine
 10
973.029227395877
 20
99.37324202257366
 30
0.0
 11
990.029227395877
 21
99.37324202257366
 31
0.0
  0
LINE
  5
166E0
330
1F
100
AcDbEntity
  8
AM_0
100
AcDbLine
 10
971.5292273958771
 20
-30.62675797742651
 30
0.0
 11
971.5292273958771
 21
96.37324202257349
 31
0.0
  0
LINE
  5
166E1
330
1F
100
AcDbEntity
  8
AM_0
 48
0.5
100
AcDbLine
 10
973.029227395877
 20
96.37324202257367
 30
0.0
 11
973.029227395877
 21
99.37324202257366
 31
0.0
  0
LINE
  5
166E2
330
1F
100
AcDbEntity
  8
AM_0
100
AcDbLine
 10
1031.529227395877
 20
-27.6974721916979
 30
0.0
 11
1031.529227395877
 21
28.443956236845
 31
0.0
  0
LINE
  5
166E3
330
1F
100
AcDbEntity
  8
AM_7
 48
0.5
100
AcDbLine
 10
1025.529227395877
 20
-22.54491746228638
 30
0.0
 11
1025.529227395877
 21
-12.62675797742651
 31
0.0
  0
LINE
  5
166E4
330
1F
100
AcDbEntity
  8
AM_7
 48
0.5
100
AcDbLine
 10
1009.529227395877
 20
-22.62675797742651
 30
0.0
 11
1009.529227395877
 21
-12.62675797742651
 31
0.0
  0
LINE
  5
166E5
330
1F
100
AcDbEntity
  8
AM_7
 48
0.5
100
AcDbLine
 10
1017.529227395877
 20
-4.126757977426507
 30
0.0
 11
1017.529227395877
 21
5.873242022573492
 31
0.0
  0
LINE
  5
166E6
330
1F
100
AcDbEntity
  8
AM_7
 48
0.5
100
AcDbLine
 10
1025.529227395877
 20
14.37324202257349
 30
0.0
 11
1025.529227395877
 21
24.37324202257349
 31
0.0
  0
LINE
  5
166E7
330
1F
100
AcDbEntity
  8
AM_7
 48
0.5
100
AcDbLine
 10
1009.529227395877
 20
14.37324202257349
 30
0.0
 11
1009.529227395877
 21
24.37324202257349
 31
0.0
  0
LINE
  5
166ED
330
1F
100
AcDbEntity
  8
AM_7
 48
0.5
100
AcDbLine
 10
1004.529227395877
 20
-17.62675797742651
 30
0.0
 11
1014.529227395877
 21
-17.62675797742651
 31
0.0
  0
LINE
  5
166EE
330
1F
100
AcDbEntity
  8
AM_7
 48
0.5
100
AcDbLine
 10
1012.529227395877
 20
0.8732420225734927
 30
0.0
 11
1022.529227395877
 21
0.8732420225734927
 31
0.0
  0
LINE
  5
166EF
330
1F
100
AcDbEntity
  8
AM_7
 48
0.5
100
AcDbLine
 10
1004.529227395877
 20
19.37324202257349
 30
0.0
 11
1014.529227395877
 21
19.37324202257349
 31
0.0
  0
LINE
  5
166F2
330
1F
100
AcDbEntity
  8
AM_7
 48
0.5
100
AcDbLine
 10
1020.529227395877
 20
-17.62675797742651
 30
0.0
 11
1030.529227395877
 21
-17.62675797742651
 31
0.0
  0
LINE
  5
166F3
330
1F
100
AcDbEntity
  8
AM_7
 48
0.5
100
AcDbLine
 10
1020.529227395877
 20
19.37324202257349
 30
0.0
 11
1030.529227395877
 21
19.37324202257349
 31
0.0
  0
LINE
  5
16702
330
1F
100
AcDbEntity
  8
AM_7
 48
0.5
100
AcDbLine
 10
981.5292273958773
 20
151.655994979556
 30
0.0
 11
981.5292273958773
 21
175.655994979556
 31
0.0
  0
LINE
  5
16704
330
1F
100
AcDbEntity
  8
AM_0
100
AcDbLine
 10
991.4160873625196
 20
166.155994979556
 30
0.0
 11
1031.529227395877
 21
166.155994979556
 31
0.0
  0
LINE
  5
16705
330
1F
100
AcDbEntity
  8
AM_0
100
AcDbLine
 10
991.3271863670097
 20
162.155994979556
 30
0.0
 11
1031.529227395877
 21
162.155994979556
 31
0.0
  0
LINE
  5
16707
330
1F
100
AcDbEntity
  8
AM_7
 48
0.5
100
AcDbLine
 10
1009.529227395877
 20
158.6559949795559
 30
0.0
 11
1009.529227395877
 21
168.655994979556
 31
0.0
  0
LINE
  5
16708
330
1F
100
AcDbEntity
  8
AM_7
 48
0.5
100
AcDbLine
 10
1025.529227395877
 20
158.6559949795559
 30
0.0
 11
1025.529227395877
 21
168.655994979556
 31
0.0
  0
LINE
  5
16709
330
1F
100
AcDbEntity
  8
AM_7
 48
0.5
100
AcDbLine
 10
1017.529227395877
 20
158.6559949795559
 30
0.0
 11
1017.529227395877
 21
168.655994979556
 31
0.0
  0
CIRCLE
  5
1670E
330
1F
100
AcDbEntity
  8
AM_0
 48
0.5
100
AcDbCircle
 10
1025.529227395877
 20
-17.62675797742651
 30
0.0
 40
2.75
  0
CIRCLE
  5
1670F
330
1F
100
AcDbEntity
  8
AM_0
 48
0.5
100
AcDbCircle
 10
1009.529227395877
 20
-17.62675797742651
 30
0.0
 40
2.75
  0
CIRCLE
  5
16710
330
1F
100
AcDbEntity
  8
AM_0
 48
0.5
100
AcDbCircle
 10
1017.529227395877
 20
0.8732420225734927
 30
0.0
 40
2.75
  0
CIRCLE
  5
16711
330
1F
100
AcDbEntity
  8
AM_0
 48
0.5
100
AcDbCircle
 10
1009.529227395877
 20
19.37324202257349
 30
0.0
 40
2.75
  0
CIRCLE
  5
16712
330
1F
100
AcDbEntity
  8
AM_0
 48
0.5
100
AcDbCircle
 10
1025.529227395877
 20
19.37324202257349
 30
0.0
 40
2.75
  0
CIRCLE
  5
16717
330
1F
100
AcDbEntity
  8
AM_0
 48
0.5
100
AcDbCircle
 10
1017.529227395877
 20
0.8732420225734927
 30
0.0
 40
4.25
  0
CIRCLE
  5
16718
330
1F
100
AcDbEntity
  8
AM_0
 48
0.5
100
AcDbCircle
 10
1009.529227395877
 20
-17.62675797742651
 30
0.0
 40
4.25
  0
CIRCLE
  5
16719
330
1F
100
AcDbEntity
  8
AM_0
 48
0.5
100
AcDbCircle
 10
1025.529227395877
 20
-17.62675797742651
 30
0.0
 40
4.25
  0
CIRCLE
  5
1671A
330
1F
100
AcDbEntity
  8
AM_0
 48
0.5
100
AcDbCircle
 10
1009.529227395877
 20
19.37324202257349
 30
0.0
 40
4.25
  0
CIRCLE
  5
1671B
330
1F
100
AcDbEntity
  8
AM_0
 48
0.5
100
AcDbCircle
 10
1025.529227395877
 20
19.37324202257349
 30
0.0
 40
4.25
  0
ARC
  5
1672F
330
1F
100
AcDbEntity
  8
AM_0
100
AcDbCircle
 10
981.529227395881
 20
163.6559949795636
 30
0.0
 40
9.99999999999499
100
AcDbArc
 50
9.000119143448943
 51
8.626926558644422
  0
LINE
  5
16737
330
1F
100
AcDbEntity
  8
AM_7
 48
0.6
100
AcDbLine
 10
981.5292273958773
 20
102.8224838810038
 30
0.0
 11
981.5292273958773
 21
-38.62675797742651
 31
0.0
1001
GENIUS_GENODEF_13
1002
{
1000
HIER
1070
     0
1002
}
1002
{
1000
MANEDIT
1070
     0
1002
}
1002
{
1000
NOSEL
1070
     0
1002
}
1002
{
1000
BEHIND
1070
     0
1002
}
1002
{
1000
OTHER
1070
     0
1002
}
1002
{
1000
REACTOR
1002
}
1001
GENIUS_GENOBJ-N-CEN_13
1002
{
1000
OWNER
1000
GEN
1002
}
  0
INSERT
  5
1673A
330
1F
100
AcDbEntity
  8
AM_12
100
AcDbBlockReference
  2
*S228131999999
 10
144.2423994481045
 20
251.9311688417103
 30
0.0
  0
INSERT
  5
1673E
330
1F
100
AcDbEntity
  8
AM_12
100
AcDbBlockReference
  2
*S230133111111111111
 10
144.2423994481045
 20
251.9311688417103
 30
0.0
  0
INSERT
  5
16740
330
1F
100
AcDbEntity
  8
AM_12
100
AcDbBlockReference
  2
*S231134121212121212
 10
144.2423994481045
 20
251.9311688417103
 30
0.0
  0
INSERT
  5
16742
330
1F
100
AcDbEntity
  8
AM_12
100
AcDbBlockReference
  2
*S232135131313131313
 10
144.2423994481045
 20
251.9311688417103
 30
0.0
  0
INSERT
  5
16744
330
1F
100
AcDbEntity
  8
AM_12
100
AcDbBlockReference
  2
*S233136141414141414
 10
144.2423994481045
 20
251.9311688417103
 30
0.0
  0
CIRCLE
  5
16747
330
1F
100
AcDbEntity
  8
AM_0
100
AcDbCircle
 10
981.5292273958773
 20
163.655994979556
 30
0.0
 40
8.500000000000026
  0
LINE
  5
16749
330
1F
100
AcDbEntity
  8
AM_0
 48
0.5
100
AcDbLine
 10
973.029227395877
 20
-33.62675797742651
 30
0.0
 11
990.029227395877
 21
-33.62675797742639
 31
0.0
  0
LINE
  5
1674A
330
1F
100
AcDbEntity
  8
AM_0
 48
0.5
100
AcDbLine
 10
990.029227395877
 20
-30.62675797742639
 30
0.0
 11
990.029227395877
 21
-33.62675797742639
 31
0.0
  0
LINE
  5
1674B
330
1F
100
AcDbEntity
  8
AM_0
 48
0.5
100
AcDbLine
 10
973.029227395877
 20
-30.62675797742639
 30
0.0
 11
973.029227395877
 21
-33.62675797742651
 31
0.0
  0
INSERT
  5
1674C
330
1F
100
AcDbEntity
  8
AM_12
100
AcDbBlockReference
  2
*S234137151515151515
 10
144.2423994481045
 20
251.9311688417103
 30
0.0
  0
ARC
  5
16777
330
1F
100
AcDbEntity
  8
AM_0
100
AcDbCircle
 10
1026.529227395877
 20
26.37324202257361
 30
0.0
 40
5.0
100
AcDbArc
 50
45.57299599919539
 51
90.0
1001
GENIUS_GENREC_14
1002
{
1000
PYDIR
1011
939.5292273958771
1021
31.37324202257361
1031
0.0
1002
}
1002
{
1000
PXDIR
1011
1031.529227395877
1021
-30.62675797742639
1031
0.0
1002
}
1002
{
1000
PORI
1011
1031.529227395877
1021
31.37324202257361
1031
0.0
1002
}
1002
{
1000
PINS
1011
985.529227395877
1021
0.3732420225736064
1031
0.0
1002
}
1002
{
1000
HVAL
1000
92
1002
}
1002
{
1000
H
1070
     2
1002
}
1002
{
1000
WVAL
1000
62
1002
}
1002
{
1000
W
1070
     2
1002
}
1002
{
1000
C
1070
     4
1002
}
1001
GENIUS_GENODEF_13
1002
{
1000
HIER
1070
     0
1002
}
1002
{
1000
MANEDIT
1070
     0
1002
}
1002
{
1000
NOSEL
1070
     0
1002
}
1002
{
1000
BEHIND
1070
     0
1002
}
1002
{
1000
OTHER
1070
     0
1002
}
1002
{
1000
REACTOR
1002
}
1001
GENIUS_GENOBJ-N-REC_13
1002
{
1000
OWNER
1000
GEN
1002
}
  0
LINE
  5
16778
330
1F
100
AcDbEntity
  8
AM_0
100
AcDbLine
 10
1031.529227395877
 20
28.443956236845
 30
0.0
 11
1030.029227395877
 21
29.94395623684511
 31
0.0
  0
ARC
  5
16779
330
1F
100
AcDbEntity
  8
AM_0
100
AcDbCircle
 10
1026.529227395877
 20
-25.62675797742639
 30
0.0
 40
5.0
100
AcDbArc
 50
270.0
 51
314.4270040008046
1001
GENIUS_GENREC_14
1002
{
1000
PYDIR
1011
939.5292273958771
1021
-30.62675797742639
1031
0.0
1002
}
1002
{
1000
PXDIR
1011
1031.529227395877
1021
31.37324202257361
1031
0.0
1002
}
1002
{
1000
PORI
1011
1031.529227395877
1021
-30.62675797742639
1031
0.0
1002
}
1002
{
1000
PINS
1011
985.529227395877
1021
0.3732420225736064
1031
0.0
1002
}
1002
{
1000
HVAL
1000
92
1002
}
1002
{
1000
H
1070
     2
1002
}
1002
{
1000
WVAL
1000
62
1002
}
1002
{
1000
W
1070
     2
1002
}
1002
{
1000
C
1070
     4
1002
}
1001
GENIUS_GENODEF_13
1002
{
1000
HIER
1070
     0
1002
}
1002
{
1000
MANEDIT
1070
     0
1002
}
1002
{
1000
NOSEL
1070
     0
1002
}
1002
{
1000
BEHIND
1070
     0
1002
}
1002
{
1000
OTHER
1070
     0
1002
}
1002
{
1000
REACTOR
1002
}
1001
GENIUS_GENOBJ-N-REC_13
1002
{
1000
OWNER
1000
GEN
1002
}
  0
LINE
  5
1677A
330
1F
100
AcDbEntity
  8
AM_0
100
AcDbLine
 10
1031.529227395877
 20
-27.6974721916979
 30
0.0
 11
1030.029227395877
 21
-29.19747219169801
 31
0.0
  0
DIMENSION
  5
16E31
330
1F
100
AcDbEntity
  8
AM_5
100
AcDbDimension
  2
*D5
 10
1038.529227395877
 20
19.37324202257348
 30
0.0
 11
1035.429227395877
 21
25.37324202257372
 31
0.0
 70
    32
 71
     5
 42
12.00000000000012
  3
SYS$0
100
AcDbAlignedDimension
 13
1026.529227395877
 23
31.37324202257361
 33
0.0
 14
1030.029227395877
 24
19.37324202257349
 34
0.0
 50
90.0
100
AcDbRotatedDimension
1001
ACAD
1000
DSTYLE
1002
{
1070
    48
1040
0.2
1070
   173
1070
     1
1070
   271
1070
     1
1070
   272
1070
     1
1002
}
  0
DIMENSION
  5
16E48
330
1F
100
AcDbEntity
  8
AM_5
100
AcDbDimension
  2
*D6
 10
1038.529227395877
 20
0.8732420225734875
 30
0.0
 11
1035.429227395877
 21
10.12324202257365
 31
0.0
 70
    32
 71
     5
 42
18.49999999999999
  3
SYS$0
100
AcDbAlignedDimension
 13
1030.029227395877
 23
19.37324202257349
 33
0.0
 14
1022.029227395877
 24
0.8732420225734923
 34
0.0
 50
90.0
100
AcDbRotatedDimension
1001
ACAD
1000
DSTYLE
1002
{
1070
    48
1040
0.2
1070
   173
1070
     1
1070
   271
1070
     1
1070
   272
1070
     1
1002
}
  0
DIMENSION
  5
16E5E
330
1F
100
AcDbEntity
  8
AM_5
100
AcDbDimension
  2
*D7
 10
1038.529227395877
 20
-17.62675797742651
 30
0.0
 11
1035.429227395877
 21
-8.376757977426347
 31
0.0
 70
    32
 71
     5
 42
18.5
  3
SYS$0
100
AcDbAlignedDimension
 13
1022.029227395877
 23
0.8732420225734923
 33
0.0
 14
1030.529227395877
 24
-17.62675797742651
 34
0.0
 50
90.0
100
AcDbRotatedDimension
1001
ACAD
1000
DSTYLE
1002
{
1070
    48
1040
0.2
1070
   173
1070
     1
1070
   271
1070
     1
1070
   272
1070
     1
1002
}
  0
DIMENSION
  5
16E8E
330
1F
100
AcDbEntity
  8
AM_5
100
AcDbDimension
  2
*D8
 10
1038.529227395877
 20
-30.62675797742651
 30
0.0
 11
1035.429227395877
 21
-24.12675797742635
 31
0.0
 70
    32
 71
     5
 42
13.0
  3
SYS$0
100
AcDbAlignedDimension
 13
1030.029227395877
 23
-17.62675797742651
 33
0.0
 14
1026.529227395877
 24
-30.62675797742651
 34
0.0
 50
90.0
100
AcDbRotatedDimension
1001
ACAD
1000
DSTYLE
1002
{
1070
    48
1040
0.2
1070
   173
1070
     1
1070
   271
1070
     1
1070
   272
1070
     1
1002
}
  0
LINE
  5
170EC
330
1F
100
AcDbEntity
  8
AM_0
100
AcDbLine
 10
991.5292273958767
 20
96.37324202257373
 30
0.0
 11
936.529227395877
 21
96.37324202257332
 31
0.0
  0
LINE
  5
170ED
330
1F
100
AcDbEntity
  8
AM_0
100
AcDbLine
 10
991.5292273958772
 20
34.37324202257367
 30
0.0
 11
936.5292273958772
 21
34.37324202257355
 31
0.0
  0
LINE
  5
170EE
330
1F
100
AcDbEntity
  8
AM_0
100
AcDbLine
 10
931.5292273958773
 20
37.30252780830205
 30
0.0
 11
931.5292273958768
 21
91.37324202257332
 31
0.0
  0
LINE
  5
170EF
330
1F
100
AcDbEntity
  8
AM_0
 48
0.5
100
AcDbLine
 10
990.029227395877
 20
99.37324202257372
 30
0.0
 11
973.029227395877
 21
99.37324202257366
 31
0.0
  0
LINE
  5
170F1
330
1F
100
AcDbEntity
  8
AM_7
 48
0.5
100
AcDbLine
 10
953.5292273958772
 20
41.37324202257355
 30
0.0
 11
953.5292273958772
 21
51.37324202257355
 31
0.0
  0
LINE
  5
170F2
330
1F
100
AcDbEntity
  8
AM_7
 48
0.5
100
AcDbLine
 10
937.5292273958772
 20
41.37324202257341
 30
0.0
 11
937.5292273958772
 21
51.37324202257343
 31
0.0
  0
LINE
  5
170F3
330
1F
100
AcDbEntity
  8
AM_7
 48
0.5
100
AcDbLine
 10
945.5292273958772
 20
59.87324202257349
 30
0.0
 11
945.5292273958772
 21
69.87324202257349
 31
0.0
  0
LINE
  5
170F4
330
1F
100
AcDbEntity
  8
AM_7
 48
0.5
100
AcDbLine
 10
953.5292273958772
 20
78.37324202257372
 30
0.0
 11
953.5292273958772
 21
88.37324202257361
 31
0.0
  0
LINE
  5
170F5
330
1F
100
AcDbEntity
  8
AM_7
 48
0.5
100
AcDbLine
 10
937.5292273958768
 20
78.37324202257367
 30
0.0
 11
937.5292273958768
 21
88.37324202257354
 31
0.0
  0
LINE
  5
170F6
330
1F
100
AcDbEntity
  8
AM_7
 48
0.5
100
AcDbLine
 10
958.5292273958772
 20
46.37324202257355
 30
0.0
 11
948.5292273958773
 21
46.37324202257349
 31
0.0
  0
LINE
  5
170F7
330
1F
100
AcDbEntity
  8
AM_7
 48
0.5
100
AcDbLine
 10
958.5292273958772
 20
83.37324202257361
 30
0.0
 11
948.5292273958773
 21
83.37324202257354
 31
0.0
  0
LINE
  5
170F8
330
1F
100
AcDbEntity
  8
AM_7
 48
0.5
100
AcDbLine
 10
942.5292273958772
 20
46.37324202257343
 30
0.0
 11
932.5292273958773
 21
46.37324202257343
 31
0.0
  0
LINE
  5
170F9
330
1F
100
AcDbEntity
  8
AM_7
 48
0.5
100
AcDbLine
 10
942.5292273958772
 20
83.37324202257354
 30
0.0
 11
932.5292273958773
 21
83.37324202257354
 31
0.0
  0
LINE
  5
170FA
330
1F
100
AcDbEntity
  8
AM_7
 48
0.5
100
AcDbLine
 10
950.5292273958772
 20
64.87324202257349
 30
0.0
 11
945.5292273958772
 21
64.87324202257349
 31
0.0
  0
CIRCLE
  5
170FB
330
1F
100
AcDbEntity
  8
AM_0
 48
0.5
100
AcDbCircle
 10
953.5292273958772
 20
46.37324202257355
 30
0.0
 40
2.75
  0
CIRCLE
  5
170FC
330
1F
100
AcDbEntity
  8
AM_0
 48
0.5
100
AcDbCircle
 10
953.5292273958772
 20
83.37324202257361
 30
0.0
 40
2.75
  0
CIRCLE
  5
170FD
330
1F
100
AcDbEntity
  8
AM_0
 48
0.5
100
AcDbCircle
 10
937.5292273958768
 20
83.37324202257354
 30
0.0
 40
2.75
  0
CIRCLE
  5
170FE
330
1F
100
AcDbEntity
  8
AM_0
 48
0.5
100
AcDbCircle
 10
937.5292273958772
 20
46.37324202257343
 30
0.0
 40
2.75
  0
CIRCLE
  5
170FF
330
1F
100
AcDbEntity
  8
AM_0
 48
0.5
100
AcDbCircle
 10
937.5292273958772
 20
46.37324202257343
 30
0.0
 40
4.25
  0
CIRCLE
  5
17100
330
1F
100
AcDbEntity
  8
AM_0
 48
0.5
100
AcDbCircle
 10
953.5292273958772
 20
46.37324202257355
 30
0.0
 40
4.25
  0
CIRCLE
  5
17101
330
1F
100
AcDbEntity
  8
AM_0
 48
0.5
100
AcDbCircle
 10
953.5292273958772
 20
83.37324202257361
 30
0.0
 40
4.25
  0
CIRCLE
  5
17102
330
1F
100
AcDbEntity
  8
AM_0
 48
0.5
100
AcDbCircle
 10
937.5292273958768
 20
83.37324202257354
 30
0.0
 40
4.25
  0
CIRCLE
  5
17103
330
1F
100
AcDbEntity
  8
AM_0
 48
0.5
100
AcDbCircle
 10
945.5292273958772
 20
64.87324202257349
 30
0.0
 40
4.25
  0
CIRCLE
  5
17104
330
1F
100
AcDbEntity
  8
AM_0
 48
0.5
100
AcDbCircle
 10
945.5292273958772
 20
64.87324202257349
 30
0.0
 40
2.75
  0
LINE
  5
17105
330
1F
100
AcDbEntity
  8
AM_0
 48
0.5
100
AcDbLine
 10
973.029227395877
 20
96.37324202257367
 30
0.0
 11
973.029227395877
 21
99.37324202257366
 31
0.0
  0
LINE
  5
17106
330
1F
100
AcDbEntity
  8
AM_7
 48
0.5
100
AcDbLine
 10
950.5292273958772
 20
64.87324202257349
 30
0.0
 11
940.5292273958773
 21
64.87324202257344
 31
0.0
  0
INSERT
  5
17107
330
1F
100
AcDbEntity
  8
AM_12
100
AcDbBlockReference
  2
*S229132101010101010
 10
1818.816055343649
 20
251.9311688417132
 30
0.0
 41
-1.0
  0
INSERT
  5
17108
330
1F
100
AcDbEntity
  8
AM_12
100
AcDbBlockReference
  2
*S231134121212121212
 10
1818.816055343649
 20
251.9311688417132
 30
0.0
 41
-1.0
  0
INSERT
  5
17109
330
1F
100
AcDbEntity
  8
AM_12
100
AcDbBlockReference
  2
*S232135131313131313
 10
1818.816055343649
 20
251.9311688417132
 30
0.0
 41
-1.0
  0
LINE
  5
1710A
330
1F
100
AcDbEntity
  8
AM_0
100
AcDbLine
 10
931.5292273958768
 20
91.37324202257357
 30
0.0
 11
931.5292273958768
 21
93.44395623684482
 31
0.0
  0
ARC
  5
1710B
330
1F
100
AcDbEntity
  8
AM_0
100
AcDbCircle
 10
936.529227395877
 20
91.37324202257357
 30
0.0
 40
5.0
100
AcDbArc
 50
90.0
 51
134.427004000808
1001
GENIUS_GENREC_14
1002
{
1000
PYDIR
1011
1023.529227395877
1021
96.37324202257385
1031
0.0
1002
}
1002
{
1000
PXDIR
1011
931.5292273958773
1021
34.37324202257344
1031
0.0
1002
}
1002
{
1000
PORI
1011
931.5292273958768
1021
96.37324202257357
1031
0.0
1002
}
1002
{
1000
PINS
1011
977.5292273958772
1021
65.37324202257355
1031
0.0
1002
}
1002
{
1000
HVAL
1000
92
1002
}
1002
{
1000
H
1070
     2
1002
}
1002
{
1000
WVAL
1000
62
1002
}
1002
{
1000
W
1070
     2
1002
}
1002
{
1000
C
1070
     4
1002
}
1001
GENIUS_GENODEF_13
1002
{
1000
HIER
1070
     0
1002
}
1002
{
1000
MANEDIT
1070
     0
1002
}
1002
{
1000
NOSEL
1070
     0
1002
}
1002
{
1000
BEHIND
1070
     0
1002
}
1002
{
1000
OTHER
1070
     0
1002
}
1002
{
1000
REACTOR
1002
}
1001
GENIUS_GENOBJ-N-REC_13
1002
{
1000
OWNER
1000
GEN
1002
}
  0
LINE
  5
1710C
330
1F
100
AcDbEntity
  8
AM_0
100
AcDbLine
 10
931.5292273958768
 20
91.37324202257357
 30
0.0
 11
931.5292273958768
 21
92.34588002549196
 31
0.0
  0
LINE
  5
1710D
330
1F
100
AcDbEntity
  8
AM_0
100
AcDbLine
 10
931.5292273958768
 20
93.443956236845
 30
0.0
 11
933.0292273958772
 21
94.943956236845
 31
0.0
  0
ARC
  5
1710E
330
1F
100
AcDbEntity
  8
AM_0
100
AcDbCircle
 10
936.5292273958772
 20
39.37324202257343
 30
0.0
 40
5.0
100
AcDbArc
 50
225.572995999192
 51
270.0
1001
GENIUS_GENREC_14
1002
{
1000
PYDIR
1011
1023.529227395877
1021
34.37324202257379
1031
0.0
1002
}
1002
{
1000
PXDIR
1011
931.5292273958768
1021
96.37324202257357
1031
0.0
1002
}
1002
{
1000
PORI
1011
931.5292273958773
1021
34.37324202257344
1031
0.0
1002
}
1002
{
1000
PINS
1011
977.5292273958772
1021
65.37324202257355
1031
0.0
1002
}
1002
{
1000
HVAL
1000
92
1002
}
1002
{
1000
H
1070
     2
1002
}
1002
{
1000
WVAL
1000
62
1002
}
1002
{
1000
W
1070
     2
1002
}
1002
{
1000
C
1070
     4
1002
}
1001
GENIUS_GENODEF_13
1002
{
1000
HIER
1070
     0
1002
}
1002
{
1000
MANEDIT
1070
     0
1002
}
1002
{
1000
NOSEL
1070
     0
1002
}
1002
{
1000
BEHIND
1070
     0
1002
}
1002
{
1000
OTHER
1070
     0
1002
}
1002
{
1000
REACTOR
1002
}
1001
GENIUS_GENOBJ-N-REC_13
1002
{
1000
OWNER
1000
GEN
1002
}
  0
LINE
  5
1710F
330
1F
100
AcDbEntity
  8
AM_0
100
AcDbLine
 10
931.5292273958773
 20
37.30252780830205
 30
0.0
 11
933.0292273958772
 21
35.80252780830182
 31
0.0
  0
LINE
  5
1716E
330
1F
100
AcDbEntity
  8
AM_0
100
AcDbLine
 10
991.5292273958772
 20
-30.62675797742651
 30
0.0
 11
991.5292273958772
 21
96.37324202257349
 31
0.0
  0
LINE
  5
1716F
330
1F
100
AcDbEntity
  8
AM_0
100
AcDbLine
 10
990.029227395877
 20
99.37324202257372
 30
0.0
 11
990.029227395877
 21
96.37324202257373
 31
0.0
  0
LINE
  5
17170
330
1F
100
AcDbEntity
  8
AM_0
 48
0.5
100
AcDbLine
 10
931.5292273958773
 20
162.155994979556
 30
0.0
 11
931.5292273958773
 21
166.155994979556
 31
0.0
  0
LINE
  5
17171
330
1F
100
AcDbEntity
  8
AM_0
100
AcDbLine
 10
971.6423674292343
 20
166.155994979556
 30
0.0
 11
931.5292273958773
 21
166.155994979556
 31
0.0
  0
LINE
  5
17172
330
1F
100
AcDbEntity
  8
AM_0
100
AcDbLine
 10
971.6423674292343
 20
162.155994979556
 30
0.0
 11
931.5292273958773
 21
162.155994979556
 31
0.0
  0
LINE
  5
17173
330
1F
100
AcDbEntity
  8
AM_0
100
AcDbLine
 10
1031.529227395877
 20
166.155994979556
 30
0.0
 11
1031.529227395877
 21
162.155994979556
 31
0.0
  0
LINE
  5
17174
330
1F
100
AcDbEntity
  8
AM_7
100
AcDbLine
 10
1034.529227395877
 20
163.655994979556
 30
0.0
 11
928.5292273958772
 21
163.655994979556
 31
0.0
1001
GENIUS_GENODEF_13
1002
{
1000
HIER
1070
     0
1002
}
1002
{
1000
MANEDIT
1070
     0
1002
}
1002
{
1000
NOSEL
1070
     0
1002
}
1002
{
1000
BEHIND
1070
     0
1002
}
1002
{
1000
OTHER
1070
     0
1002
}
1002
{
1000
REACTOR
1002
}
1001
GENIUS_GENOBJ-N-CEN_13
1002
{
1000
OWNER
1000
GEN
1002
}
1001
GENIUS_GENCEN_19
1002
{
1040
3.0
1002
}
  0
LINE
  5
17175
330
1F
100
AcDbEntity
  8
AM_7
 48
0.5
100
AcDbLine
 10
953.5292273958768
 20
158.6559949795559
 30
0.0
 11
953.5292273958768
 21
168.655994979556
 31
0.0
  0
LINE
  5
17176
330
1F
100
AcDbEntity
  8
AM_7
 48
0.5
100
AcDbLine
 10
937.5292273958768
 20
158.6559949795559
 30
0.0
 11
937.5292273958768
 21
168.655994979556
 31
0.0
  0
LINE
  5
17177
330
1F
100
AcDbEntity
  8
AM_7
 48
0.5
100
AcDbLine
 10
945.5292273958768
 20
158.6559949795559
 30
0.0
 11
945.5292273958768
 21
168.655994979556
 31
0.0
  0
DIMENSION
  5
17179
330
1F
100
AcDbEntity
  8
AM_5
100
AcDbDimension
  2
*D16
 10
1048.529227395877
 20
-30.62675797742651
 30
0.0
 11
1045.429227395877
 21
0.3732420225737131
 31
0.0
 70
    32
 71
     5
 42
62.0000000000001
  3
SYS$0
100
AcDbAlignedDimension
 13
1026.529227395877
 23
31.37324202257361
 33
0.0
 14
1026.529227395877
 24
-30.62675797742651
 34
0.0
 50
90.0
100
AcDbRotatedDimension
1001
ACAD
1000
DSTYLE
1002
{
1070
    48
1040
0.2
1070
   173
1070
     1
1070
   271
1070
     1
1070
   272
1070
     1
1002
}
  0
DIMENSION
  5
1718F
330
1F
100
AcDbEntity
  8
AM_5
100
AcDbDimension
  2
*D17
 10
1048.529227395876
 20
31.37324202257359
 30
0.0
 11
1046.409179616708
 21
32.80653307139818
 31
0.0
 70
   160
 71
     5
 42
3.000000000000055
  3
SYS$0
100
AcDbAlignedDimension
 13
991.5292273958772
 23
34.37324202257367
 33
0.0
 14
991.5292273958772
 24
31.37324202257361
 34
0.0
 50
90.0
100
AcDbRotatedDimension
1001
ACAD
1000
DSTYLE
1002
{
1070
    48
1040
0.2
1070
   173
1070
     1
1070
   279
1070
     1
1002
}
  0
DIMENSION
  5
171A9
330
1F
100
AcDbEntity
  8
AM_5
100
AcDbDimension
  2
*D18
 10
1048.529227395876
 20
96.37324202257349
 30
0.0
 11
1045.429227395876
 21
65.37324202257372
 31
0.0
 70
    32
 71
     5
 42
61.99999999999981
  3
SYS$0
100
AcDbAlignedDimension
 13
991.5292273958772
 23
34.37324202257367
 33
0.0
 14
991.5292273958772
 24
96.37324202257349
 34
0.0
 50
90.0
100
AcDbRotatedDimension
1001
ACAD
1000
DSTYLE
1002
{
1070
    48
1040
0.2
1070
   173
1070
     1
1070
   271
1070
     1
1070
   272
1070
     1
1002
}
  0
DIMENSION
  5
171D5
330
1F
100
AcDbEntity
  8
AM_5
100
AcDbDimension
  2
*D19
 10
1058.529227395876
 20
-30.62675797742653
 30
0.0
 11
1055.429227395876
 21
32.87324202257365
 31
0.0
 70
    32
 71
     5
 42
127.0
  3
SYS$0
100
AcDbAlignedDimension
 13
993.0292273958771
 23
96.37324202257349
 33
0.0
 14
991.5292273958772
 24
-30.62675797742651
 34
0.0
 50
90.0
100
AcDbRotatedDimension
1001
ACAD
1000
DSTYLE
1002
{
1070
    48
1040
0.2
1070
   173
1070
     1
1070
   271
1070
     1
1070
   272
1070
     1
1002
}
  0
DIMENSION
  5
17270
330
1F
100
AcDbEntity
  8
AM_5
100
AcDbDimension
  2
*D20
 10
1025.529227395877
 20
-39.6974731916979
 30
0.0
 11
1021.529227395877
 21
-36.5974731916979
 31
0.0
 70
    32
 71
     5
 42
8.0
  3
SYS$0
100
AcDbAlignedDimension
 13
1017.529227395877
 23
-4.126757977426507
 33
0.0
 14
1025.529227395877
 24
-22.54491746228638
 34
0.0
100
AcDbRotatedDimension
1001
ACAD
1000
DSTYLE
1002
{
1070
    48
1040
0.2
1070
   173
1070
     1
1070
   271
1070
     1
1070
   272
1070
     1
1002
}
  0
DIMENSION
  5
17287
330
1F
100
AcDbEntity
  8
AM_5
100
AcDbDimension
  2
*D21
 10
1009.529227395877
 20
-39.69747319169858
 30
0.0
 11
1013.529227395877
 21
-36.59747319169858
 31
0.0
 70
    32
 71
     5
 42
8.0
  3
SYS$0
100
AcDbAlignedDimension
 13
1017.529227395877
 23
-4.126757977426507
 33
0.0
 14
1009.529227395877
 24
-22.62675797742651
 34
0.0
100
AcDbRotatedDimension
1001
ACAD
1000
DSTYLE
1002
{
1070
    48
1040
0.2
1070
   173
1070
     1
1070
   271
1070
     1
1070
   272
1070
     1
1002
}
  0
DIMENSION
  5
1729E
330
1F
100
AcDbEntity
  8
AM_5
100
AcDbDimension
  2
*D22
 10
1009.529227395877
 20
-49.6974731916992
 30
0.0
 11
1017.529227395877
 21
-46.5974731916992
 31
0.0
 70
    32
 71
     5
 42
16.0
  3
SYS$0
100
AcDbAlignedDimension
 13
1025.529227395877
 23
-22.54491746228638
 33
0.0
 14
1009.529227395877
 24
-22.62675797742651
 34
0.0
100
AcDbRotatedDimension
1001
ACAD
1000
DSTYLE
1002
{
1070
    48
1040
0.2
1070
   173
1070
     1
1070
   271
1070
     1
1070
   272
1070
     1
1002
}
  0
DIMENSION
  5
172B4
330
1F
100
AcDbEntity
  8
AM_5
100
AcDbDimension
  2
*D23
 10
1025.529227395877
 20
-49.69747319169852
 30
0.0
 11
1028.529227395877
 21
-46.5974731916985
 31
0.0
 70
    32
 71
     5
 42
6.0
  3
SYS$0
100
AcDbAlignedDimension
 13
1031.529227395877
 23
-27.6974721916979
 33
0.0
 14
1025.529227395877
 24
-22.54491746228638
 34
0.0
100
AcDbRotatedDimension
1001
ACAD
1000
DSTYLE
1002
{
1070
    48
1040
0.2
1070
   173
1070
     1
1070
   271
1070
     1
1070
   272
1070
     1
1002
}
  0
DIMENSION
  5
172CB
330
1F
100
AcDbEntity
  8
AM_5
100
AcDbDimension
  2
*D24
 10
981.5292273958773
 20
-49.69747319169982
 30
0.0
 11
995.5292273958772
 21
-46.59747319169982
 31
0.0
 70
    32
 71
     5
 42
27.99999999999989
  3
SYS$0
100
AcDbAlignedDimension
 13
1009.529227395877
 23
-22.0908595925643
 33
0.0
 14
981.5292273958773
 24
-38.62675797742651
 34
0.0
100
AcDbRotatedDimension
1001
ACAD
1000
DSTYLE
1002
{
1070
    48
1040
0.2
1070
   173
1070
     1
1070
   271
1070
     1
1070
   272
1070
     1
1002
}
  0
DIMENSION
  5
172E1
330
1F
100
AcDbEntity
  8
AM_5
100
AcDbDimension
  2
*D25
 10
981.5292273958773
 20
114.8224838810038
 30
0.0
 11
1006.529227395877
 21
117.9224838810038
 31
0.0
 70
    32
 71
     5
 42
50.0
  3
SYS$0
100
AcDbAlignedDimension
 13
1031.529227395877
 23
28.443956236845
 33
0.0
 14
981.5292273958773
 24
102.8224838810038
 34
0.0
100
AcDbRotatedDimension
1001
ACAD
1000
DSTYLE
1002
{
1070
    48
1040
0.2
1070
   173
1070
     1
1070
   271
1070
     1
1070
   272
1070
     1
1002
}
  0
DIMENSION
  5
172F7
330
1F
100
AcDbEntity
  8
AM_5
100
AcDbDimension
  2
*D26
 10
931.5292273958768
 20
114.8224838810038
 30
0.0
 11
956.5292273958773
 21
117.9224838810038
 31
0.0
 70
    32
 71
     5
 42
50.0000000000001
  3
SYS$0
100
AcDbAlignedDimension
 13
981.5292273958773
 23
102.8224838810038
 33
0.0
 14
931.5292273958768
 24
93.443956236845
 34
0.0
100
AcDbRotatedDimension
1001
ACAD
1000
DSTYLE
1002
{
1070
    48
1040
0.2
1070
   173
1070
     1
1070
   271
1070
     1
1070
   272
1070
     1
1002
}
  0
DIMENSION
  5
1730D
330
1F
100
AcDbEntity
  8
AM_5
100
AcDbDimension
  2
*D27
 10
931.5292273958768
 20
124.8224838810034
 30
0.0
 11
981.5292273958773
 21
127.9224838810034
 31
0.0
 70
    32
 71
     5
 42
100.0000000000001
  3
SYS$0
100
AcDbAlignedDimension
 13
1031.529227395877
 23
28.443956236845
 33
0.0
 14
931.5292273958768
 24
93.443956236845
 34
0.0
100
AcDbRotatedDimension
1001
ACAD
1000
DSTYLE
1002
{
1070
    48
1040
0.2
1070
   173
1070
     1
1070
   271
1070
     1
1070
   272
1070
     1
1002
}
  0
DIMENSION
  5
17375
330
1F
100
AcDbEntity
  8
AM_5
100
AcDbDimension
  2
*D28
 10
987.6399799090174
 20
171.5717200709892
 30
0.0
 11
960.4366223668206
 21
141.9377927301307
 31
0.0
 70
   163
 71
     5
 42
20.00000000000023
  3
SYS$3
100
AcDbDiametricDimension
 15
975.4184748827352
 25
155.740269888123
 35
0.0
 40
0.0
1001
ACAD
1000
DSTYLE
1002
{
1070
    48
1040
0.2
1070
    74
1070
     1
1070
   172
1070
     1
1070
   289
1070
     2
1070
   342
1005
17394
1002
}
  0
DIMENSION
  5
17443
330
1F
100
AcDbEntity
  8
AM_5
100
AcDbDimension
  2
*D30
 10
1013.446582259442
 20
21.02152321001989
 30
0.0
 11
942.4789268414933
 21
-4.96751027193369
 31
0.0
 70
   163
  1
10-%%c5.5×\P<>サラ
 71
     5
 42
8.499999999999657
  3
SYS$3
100
AcDbDiametricDimension
 15
1005.61187253231
 25
17.72496083512431
 35
0.0
 40
0.0
1001
ACAD
1000
DSTYLE
1002
{
1070
    47
1040
0.2
1070
    48
1040
0.2
1070
    74
1070
     1
1070
   172
1070
     1
1070
   289
1070
     2
1070
   342
1005
17394
1002
}
  0
DIMENSION
  5
17F32
330
1F
100
AcDbEntity
  8
AM_5
100
AcDbDimension
  2
*D31
 10
1043.529228395877
 20
162.155994979556
 30
0.0
 11
1040.429228395877
 21
156.4693283128895
 31
0.0
 70
    32
 71
     5
 42
1.5
  3
SYS$0
100
AcDbAlignedDimension
 13
1034.529227395877
 23
163.655994979556
 33
0.0
 14
1031.529227395877
 24
162.155994979556
 34
0.0
 50
90.00000000000005
100
AcDbRotatedDimension
1001
ACAD
1000
DSTYLE
1002
{
1070
    48
1040
0.2
1070
   173
1070
     1
1070
   343
1005
17394
1070
   344
1005
6C4
1002
}
  0
DIMENSION
  5
17F4C
330
1F
100
AcDbEntity
  8
AM_5
100
AcDbDimension
  2
*D32
 10
1043.529228395877
 20
166.155994979556
 30
0.0
 11
1040.429228395877
 21
172.0026616462228
 31
0.0
 70
    32
 71
     5
 42
2.5
  3
SYS$0
100
AcDbAlignedDimension
 13
1034.529227395877
 23
163.655994979556
 33
0.0
 14
1031.529227395877
 24
166.155994979556
 34
0.0
 50
90.0
100
AcDbRotatedDimension
1001
ACAD
1000
DSTYLE
1002
{
1070
    48
1040
0.2
1070
   173
1070
     1
1002
}
  0
DIMENSION
  5
17F87
330
1F
100
AcDbEntity
  8
AM_5
100
AcDbDimension
  2
*D33
 10
1053.529228395877
 20
162.155994979556
 30
0.0
 11
1053.160701972851
 21
171.1393679794087
 31
0.0
 70
   160
 71
     5
 42
4.0
  3
SYS$0
100
AcDbAlignedDimension
 13
1031.529227395877
 23
166.155994979556
 33
0.0
 14
1031.529227395877
 24
162.155994979556
 34
0.0
 50
90.00000000000005
100
AcDbRotatedDimension
1001
ACAD
1000
DSTYLE
1002
{
1070
    48
1040
0.2
1070
   173
1070
     1
1070
   279
1070
     1
1002
}
  0
ENDSEC
  0
SECTION
  2
OBJECTS
  0
DICTIONARY
  5
C
330
0
100
AcDbDictionary
281
     1
  3
ACAD_2007HEADERVARS_RT
350
182DB
  3
ACAD_COLOR
350
128FC
  3
ACAD_GROUP
350
D
  3
ACAD_LAYOUT
350
1A
  3
ACAD_MATERIAL
350
128FB
  3
ACAD_MLINESTYLE
350
17
  3
ACAD_PLOTSETTINGS
350
19
  3
ACAD_PLOTSTYLENAME
350
E
  3
ACAD_TABLESTYLE
350
128FD
  3
ACAD_VISUALSTYLE
350
160FF
  3
AcAsAppObject
350
3DA1
  3
ACASGREF_MASTER
350
3DE9
  3
AcDbVariableDictionary
350
34
  3
AcmDictionary
350
47
  3
AD_GREF_MODULE
350
3DEA
  3
AD_MAPI_MODULE
350
3E06
  3
AMG
350
2B
  3
AMGSNAPSETTINGS
350
7D
  3
ASE_INDEX_DICTIONARY
350
A0F3
  3
DWGPROPS
350
182DA
  3
MAPISURF_MODULE
350
3DEB
  3
SAKAE_DICT
350
F639
  0
DICTIONARY
  5
3F95
330
2
100
AcDbDictionary
280
     1
281
     1
  3
ACAD_LAYERFILTERS
360
3F98
  3
ACAD_LAYERSTATES
360
3F96
  0
DICTIONARY
  5
8A
330
1F
100
AcDbDictionary
280
     1
281
     1
  3
ACAD_SORTENTS
360
14E13
  0
DICTIONARY
  5
182DB
102
{ACAD_REACTORS
330
C
102
}
330
C
100
AcDbDictionary
281
     1
  3
DIMARCSYM
350
182DC
  0
DICTIONARY
  5
128FC
102
{ACAD_REACTORS
330
C
102
}
330
C
100
AcDbDictionary
281
     1
  0
DICTIONARY
  5
D
102
{ACAD_REACTORS
330
C
102
}
330
C
100
AcDbDictionary
281
     1
  0
DICTIONARY
  5
1A
102
{ACAD_REACTORS
330
C
102
}
330
C
100
AcDbDictionary
281
     1
  3
Model
350
22
  3
ﾚｲｱｳﾄ1
350
1E
  3
ﾚｲｱｳﾄ2
350
26
  0
DICTIONARY
  5
128FB
102
{ACAD_REACTORS
330
C
102
}
330
C
100
AcDbDictionary
281
     1
  3
ByBlock
350
160FD
  3
ByLayer
350
160FC
  3
Global
350
160FE
  0
DICTIONARY
  5
17
102
{ACAD_REACTORS
330
C
102
}
330
C
100
AcDbDictionary
281
     1
  3
Standard
350
18
  0
DICTIONARY
  5
19
102
{ACAD_REACTORS
330
C
102
}
330
C
100
AcDbDictionary
281
     1
  3
０１　Ａ３　１：１
350
D3FB
  3
０２　Ａ４　１：１
350
D3FC
  3
０３　Ａ２をＡ３に
350
D3FD
  3
０４　Ａ２　１：１
350
D3FE
  3
０５　Ａ３をＡ４に
350
D3FF
  3
０６　Ａ２をＡ４に
350
D400
  0
ACDBDICTIONARYWDFLT
  5
E
102
{ACAD_REACTORS
330
C
102
}
330
C
100
AcDbDictionary
281
     1
  3
Normal
350
F
100
AcDbDictionaryWithDefault
340
F
  0
DICTIONARY
  5
128FD
102
{ACAD_REACTORS
330
C
102
}
330
C
100
AcDbDictionary
281
     1
  3
Standard
350
128FE
  0
DICTIONARY
  5
160FF
102
{ACAD_REACTORS
330
C
102
}
330
C
100
AcDbDictionary
281
     1
  3
2dWireframe
350
16105
  3
3D Hidden
350
16107
  3
3dWireframe
350
16106
  3
Basic
350
16104
  3
Brighten
350
1610B
  3
ColorChange
350
1610F
  3
Conceptual
350
16108
  3
Dim
350
1610A
  3
Facepattern
350
1610E
  3
Flat
350
16100
  3
FlatWithEdges
350
16101
  3
Gouraud
350
16102
  3
GouraudWithEdges
350
16103
  3
Linepattern
350
1610D
  3
Realistic
350
16109
  3
Thicken
350
1610C
  0
ACAD_PROXY_OBJECT
  5
3DA1
102
{ACAD_REACTORS
330
C
102
}
330
C
100
AcDbProxyObject
 90
      499
 91
      576
 95
       23
 70
     0
 93
       10
310
407F
 94
        0
1001
ACAD
1000
AcRTDxfName
1000
ASAPP
1000
AcRTDxfName
1000
ASAPP
1000
AcRTDxfName
1000
ASAPP
1000
AcRTDxfName
1000
ASAPP
1000
AcRTDxfName
1000
ASAPP
1000
AcRTDxfName
1000
ASAPP
1000
AcRTDxfName
1000
ASAPP
  0
ACAD_PROXY_OBJECT
  5
3DE9
102
{ACAD_REACTORS
330
C
102
}
330
C
100
AcDbProxyObject
 90
      499
 91
      581
 95
       23
 70
     0
 93
       34
310
010000407F
 94
        0
1001
ACAD
1000
AcRTDxfName
1000
ACASGREFMASTER
1000
AcRTDxfName
1000
ACASGREFMASTER
1000
AcRTDxfName
1000
ACASGREFMASTER
1000
AcRTDxfName
1000
ACASGREFMASTER
1000
AcRTDxfName
1000
ACASGREFMASTER
1000
AcRTDxfName
1000
ACASGREFMASTER
1000
AcRTDxfName
1000
ACASGREFMASTER
  0
DICTIONARY
  5
34
102
{ACAD_REACTORS
330
C
102
}
330
C
100
AcDbDictionary
281
     1
  3
CTABLESTYLE
350
12946
  3
DIMASSOC
350
D350
  3
INDEXCTL
350
35
  3
SORTENTS
350
194C
  0
DICTIONARY
  5
47
102
{ACAD_REACTORS
330
C
102
}
330
C
100
AcDbDictionary
281
     1
  3
AcmBOM
350
7E8
  3
AcmStdDictionary
350
4C
  3
AMDTSECTSYM_ARROWCOLOR
350
1291C
  0
ACAD_PROXY_OBJECT
  5
3DEA
102
{ACAD_REACTORS
330
C
102
}
330
C
100
AcDbProxyObject
 90
      499
 91
      582
 95
       23
 70
     0
 93
      114
310
00000043800000000000000000003F
 94
        0
1001
ACAD
1000
AcRTDxfName
1000
ACADGREFMODULE
1000
AcRTDxfName
1000
ACADGREFMODULE
1000
AcRTDxfName
1000
ACADGREFMODULE
1000
AcRTDxfName
1000
ACADGREFMODULE
1000
AcRTDxfName
1000
ACADGREFMODULE
1000
AcRTDxfName
1000
ACADGREFMODULE
1000
AcRTDxfName
1000
ACADGREFMODULE
  0
ACAD_PROXY_OBJECT
  5
3E06
102
{ACAD_REACTORS
330
C
102
}
330
C
100
AcDbProxyObject
 90
      499
 91
      594
 95
       23
 70
     0
 93
       34
310
05000044FF
 94
        0
1001
ACAD
1000
AcRTDxfName
1000
MAPIADMODULE
1000
AcRTDxfName
1000
MAPIADMODULE
1000
AcRTDxfName
1000
MAPIADMODULE
1000
AcRTDxfName
1000
MAPIADMODULE
1000
AcRTDxfName
1000
MAPIADMODULE
1000
AcRTDxfName
1000
MAPIADMODULE
1000
AcRTDxfName
1000
MAPIADMODULE
  0
DICTIONARY
  5
2B
102
{ACAD_REACTORS
330
C
102
}
330
C
100
AcDbDictionary
281
     1
  0
DICTIONARY
  5
7D
102
{ACAD_REACTORS
330
C
102
}
330
C
100
AcDbDictionary
281
     1
  0
DICTIONARY
  5
A0F3
102
{ACAD_REACTORS
330
C
102
}
330
C
100
AcDbDictionary
281
     1
  3
ASEBlockHierarchyIndexRecord
350
A0F4
1001
DCO15
1040
1430562227.187
  0
XRECORD
  5
182DA
102
{ACAD_REACTORS
330
C
102
}
330
C
100
AcDbXrecord
280
     1
  1
DWGPROPS COOKIE
  2

  3

  4

  6

  7

  8
Administrator
  9

300
AmdtFileType=84
301
=
302
=
303
=
304
=
305
=
306
=
307
=
308
=
309
=
 40
10.74850045138889
 41
2452002.615067627
 42
2455236.539738137
  1

 90
        1
  0
ACAD_PROXY_OBJECT
  5
3DEB
102
{ACAD_REACTORS
330
C
102
}
330
C
100
AcDbProxyObject
 90
      499
 91
      583
 95
       23
 70
     0
 93
        8
310
047E
 94
        0
1001
ACAD
1000
AcRTDxfName
1000
AMDTMAPISURFMOUDULE
1000
AcRTDxfName
1000
AMDTMAPISURFMOUDULE
1000
AcRTDxfName
1000
AMDTMAPISURFMOUDULE
1000
AcRTDxfName
1000
AMDTMAPISURFMOUDULE
1000
AcRTDxfName
1000
AMDTMAPISURFMOUDULE
1000
AcRTDxfName
1000
AMDTMAPISURFMOUDULE
1000
AcRTDxfName
1000
AMDTMAPISURFMOUDULE
  0
DICTIONARY
  5
F639
102
{ACAD_REACTORS
330
C
102
}
330
C
100
AcDbDictionary
281
     1
  3
XREC1
350
F63A
  0
DICTIONARY
  5
3F98
102
{ACAD_REACTORS
330
3F95
102
}
330
3F95
100
AcDbDictionary
280
     1
281
     1
  0
DICTIONARY
  5
3F96
102
{ACAD_REACTORS
330
3F95
102
}
330
3F95
100
AcDbDictionary
281
     1
  3
20011210
350
3FB7
  0
SORTENTSTABLE
  5
14E13
102
{ACAD_REACTORS
330
8A
102
}
330
8A
100
AcDbSortentsTable
330
1F
331
1311F
  5
13A62
331
14226
  5
1422E
331
13A64
  5
1420D
331
14B96
  5
14DC8
331
1422C
  5
14231
331
1311D
  5
13A60
331
14224
  5
1422D
331
13A62
  5
1420B
331
14B94
  5
14DC6
331
13120
  5
13A63
331
1422A
  5
14230
331
14222
  5
1422C
331
13A60
  5
14209
331
14B97
  5
14DC9
331
1311E
  5
13A61
331
14228
  5
1422F
331
13A63
  5
1420C
331
14B95
  5
14DC7
331
13121
  5
13A64
331
1311C
  5
13121
331
13A61
  5
1420A
331
14B98
  5
14DCB
331
14B93
  5
14B98
  0
XRECORD
  5
182DC
102
{ACAD_REACTORS
330
182DB
102
}
330
182DB
100
AcDbXrecord
280
     1
 70
     1
  0
LAYOUT
  5
22
102
{ACAD_XDICTIONARY
360
182DF
102
}
102
{ACAD_REACTORS
330
1A
102
}
330
1A
100
AcDbPlotSettings
  1

  2
RICOH imagio Wide 7040e RP-GL/2
  4
A3
  6
AM_VIEW1
 40
5.069416522979736
 41
7.22842264175415
 42
5.238739013671875
 43
7.05908203125
 44
419.9889831542968
 45
296.9683227539062
 46
-5.159586191177368
 47
-7.15959095954895
 48
219.4956354736258
 49
-100.0
140
639.4956354736257
141
197.0
142
1.0
143
1.0
 70
 11956
 72
     1
 73
     0
 74
     4
  7
monochrome.ctb
 75
    16
147
1.0
148
-219.4956354736258
149
100.0
100
AcDbLayout
  1
Model
 70
     1
 71
     0
 10
0.0
 20
0.0
 11
12.0
 21
9.0
 12
0.0
 22
0.0
 32
0.0
 14
0.0
 24
0.0
 34
0.0
 15
0.0
 25
0.0
 35
0.0
146
0.0
 13
0.0
 23
0.0
 33
0.0
 16
1.0
 26
0.0
 36
0.0
 17
0.0
 27
1.0
 37
0.0
 76
     0
330
1F
331
160FA
1001
ACAD_PSEXT
1000
RICOH imagio Wide 7040e RP-GL/2
1000
RICOH imagio Wide 7040e RP-GL/2
1000
192.200.51.212@imagioW7040e@
1000
RP-GL/2 Driver (Windows 2000/XP/Server 2003)
1070
     0
  0
LAYOUT
  5
1E
102
{ACAD_XDICTIONARY
360
182DD
102
}
102
{ACAD_REACTORS
330
1A
102
}
330
1A
100
AcDbPlotSettings
  1

  2
\\ML370\XEROX
  4
A4
  6

 40
3.174999952316281
 41
3.174999952316281
 42
3.175003051757812
 43
3.17498779296875
 44
209.8674926757813
 45
296.6719970703125
 46
0.0
 47
0.0
 48
0.0
 49
0.0
140
0.0
141
0.0
142
1.0
143
1.0
 70
   688
 72
     1
 73
     1
 74
     5
  7
monochrome.ctb
 75
    16
147
1.0
148
0.0
149
0.0
100
AcDbLayout
  1
ﾚｲｱｳﾄ1
 70
     1
 71
     1
 10
-3.17498779296875
 20
-3.174999952316281
 11
293.4970092773438
 21
206.692492723465
 12
0.0
 22
0.0
 32
0.0
 14
1.000000000000000E+20
 24
1.000000000000000E+20
 34
1.000000000000000E+20
 15
-1.000000000000000E+20
 25
-1.000000000000000E+20
 35
-1.000000000000000E+20
146
0.0
 13
0.0
 23
0.0
 33
0.0
 16
1.0
 26
0.0
 36
0.0
 17
0.0
 27
1.0
 37
0.0
 76
     0
330
1B
  0
LAYOUT
  5
26
102
{ACAD_XDICTIONARY
360
182E1
102
}
102
{ACAD_REACTORS
330
1A
102
}
330
1A
100
AcDbPlotSettings
  1

  2
\\ML370\XEROX
  4

  6

 40
0.0
 41
0.0
 42
0.0
 43
0.0
 44
0.0
 45
0.0
 46
0.0
 47
0.0
 48
0.0
 49
0.0
140
0.0
141
0.0
142
1.0
143
1.0
 70
   688
 72
     0
 73
     0
 74
     5
  7
monochrome.ctb
 75
    16
147
1.0
148
0.0
149
0.0
100
AcDbLayout
  1
ﾚｲｱｳﾄ2
 70
     1
 71
     2
 10
0.0
 20
0.0
 11
12.0
 21
9.0
 12
0.0
 22
0.0
 32
0.0
 14
0.0
 24
0.0
 34
0.0
 15
0.0
 25
0.0
 35
0.0
146
0.0
 13
0.0
 23
0.0
 33
0.0
 16
1.0
 26
0.0
 36
0.0
 17
0.0
 27
1.0
 37
0.0
 76
     0
330
23
  0
MATERIAL
  5
160FD
102
{ACAD_XDICTIONARY
360
16FC5
102
}
102
{ACAD_REACTORS
330
128FB
102
}
330
128FB
100
AcDbMaterial
  1
ByBlock
  0
MATERIAL
  5
160FC
102
{ACAD_XDICTIONARY
360
16FC3
102
}
102
{ACAD_REACTORS
330
128FB
102
}
330
128FB
100
AcDbMaterial
  1
ByLayer
  0
MATERIAL
  5
160FE
102
{ACAD_XDICTIONARY
360
16FC7
102
}
102
{ACAD_REACTORS
330
128FB
102
}
330
128FB
100
AcDbMaterial
  1
Global
  0
MLINESTYLE
  5
18
102
{ACAD_REACTORS
330
17
102
}
330
17
100
AcDbMlineStyle
  2
STANDARD
 70
     0
  3

 62
   256
 51
90.0
 52
90.0
 71
     2
 49
0.5
 62
   256
  6
BYLAYER
 49
-0.5
 62
   256
  6
BYLAYER
  0
PLOTSETTINGS
  5
D3FB
102
{ACAD_XDICTIONARY
360
182E3
102
}
102
{ACAD_REACTORS
330
19
102
}
330
19
100
AcDbPlotSettings
  1
０１　Ａ３　１：１
  2
Fuji Xerox BT9050
  4
A3
  6
AM_VIEW1
 40
3.174999952316281
 41
3.174999952316281
 42
3.17498779296875
 43
3.17498779296875
 44
296.6719970703125
 45
419.7984924316406
 46
-3.339999999999998
 47
-3.279999999999998
 48
214.3704939521119
 49
367.5855324241177
140
275.6727856380065
141
407.6291914078168
142
1.0
143
1.0
 70
  1716
 72
     1
 73
     1
 74
     2
  7
monochrome.ctb
 75
    16
147
1.0
148
0.0
149
0.0
  0
PLOTSETTINGS
  5
D3FC
102
{ACAD_XDICTIONARY
360
182E5
102
}
102
{ACAD_REACTORS
330
19
102
}
330
19
100
AcDbPlotSettings
  1
０２　Ａ４　１：１
  2
Fuji Xerox BT9050
  4
A4
  6
AM_VIEW1
 40
3.174999952316281
 41
3.174999952316281
 42
3.175003051757812
 43
3.17498779296875
 44
209.8674926757813
 45
296.6719970703125
 46
-3.24
 47
-3.339999999999998
 48
214.3704939521119
 49
367.5855324241177
140
275.6727856380065
141
407.6291914078168
142
1.0
143
1.0
 70
  1716
 72
     1
 73
     1
 74
     2
  7
monochrome.ctb
 75
    16
147
1.0
148
-1753.413893958421
149
379.6629084990108
  0
PLOTSETTINGS
  5
D3FD
102
{ACAD_XDICTIONARY
360
182E7
102
}
102
{ACAD_REACTORS
330
19
102
}
330
19
100
AcDbPlotSettings
  1
０３　Ａ２をＡ３に
  2
Fuji Xerox BT9050
  4
A3
  6
AM_VIEW1
 40
3.174999952316281
 41
3.174999952316281
 42
3.17498779296875
 43
3.17498779296875
 44
296.6719970703125
 45
419.7984924316406
 46
-0.6700000000000001
 47
0.47
 48
214.3704939521119
 49
367.5855324241177
140
275.6727856380065
141
407.6291914078168
142
1.0
143
1.439999999999999
 70
  1700
 72
     1
 73
     1
 74
     2
  7
monochrome.ctb
 75
     0
147
0.6944444444444448
148
-1022.592658137922
149
-190.0829775733665
  0
PLOTSETTINGS
  5
D3FE
102
{ACAD_XDICTIONARY
360
182E9
102
}
102
{ACAD_REACTORS
330
19
102
}
330
19
100
AcDbPlotSettings
  1
０４　Ａ２　１：１
  2
Fuji Xerox BT9050
  4
User120
  6
AM_VIEW1
 40
3.174999952316281
 41
3.174999952316281
 42
3.17498779296875
 43
3.17498779296875
 44
420.0
 45
594.0
 46
-3.169999999999998
 47
-3.169999999999998
 48
214.3704939521119
 49
367.5855324241177
140
275.6727856380065
141
407.6291914078168
142
1.0
143
1.0
 70
  1716
 72
     1
 73
     1
 74
     2
  7
monochrome.ctb
 75
    16
147
1.0
148
-2162.975993882549
149
549.9788423436521
  0
PLOTSETTINGS
  5
D3FF
102
{ACAD_XDICTIONARY
360
182EB
102
}
102
{ACAD_REACTORS
330
19
102
}
330
19
100
AcDbPlotSettings
  1
０５　Ａ３をＡ４に
  2
Fuji Xerox BT9050
  4
A4
  6
AM_VIEW1
 40
3.174999952316281
 41
3.174999952316281
 42
3.175003051757812
 43
3.17498779296875
 44
209.8674926757813
 45
296.6719970703125
 46
0.0
 47
1.26
 48
214.3704939521119
 49
367.5855324241177
140
275.6727856380065
141
407.6291914078168
142
1.0
143
1.45933403796936
 70
  1700
 72
     1
 73
     1
 74
     2
  7
monochrome.ctb
 75
     0
147
0.6852440729687112
148
0.0
149
0.0
  0
PLOTSETTINGS
  5
D400
102
{ACAD_XDICTIONARY
360
182ED
102
}
102
{ACAD_REACTORS
330
19
102
}
330
19
100
AcDbPlotSettings
  1
０６　Ａ２をＡ４に
  2
Fuji Xerox BT9050
  4
A4
  6
AM_VIEW1
 40
3.174999952316281
 41
3.174999952316281
 42
3.175003051757812
 43
3.17498779296875
 44
209.8674926757813
 45
296.6719970703125
 46
-3.24
 47
-3.339999999999998
 48
214.3704939521119
 49
367.5855324241177
140
275.6727856380065
141
407.6291914078168
142
1.0
143
2.0
 70
  1716
 72
     1
 73
     1
 74
     2
  7
monochrome.ctb
 75
    17
147
0.5
148
-2387.839592618423
149
409.4215764521081
  0
ACDBPLACEHOLDER
  5
F
102
{ACAD_REACTORS
330
E
102
}
330
E
  0
TABLESTYLE
  5
128FE
102
{ACAD_XDICTIONARY
360
182EF
102
}
102
{ACAD_REACTORS
330
128FD
102
}
330
128FD
100
AcDbTableStyle
  3
Standard
 70
     0
 71
     0
 40
1.5
 41
1.5
280
     0
281
     0
  7
STANDARD
140
4.5
170
     2
 62
     0
 63
     7
283
     0
274
    -2
284
     1
 64
     0
275
    -2
285
     1
 65
     0
276
    -2
286
     1
 66
     0
277
    -2
287
     1
 67
     0
278
    -2
288
     1
 68
     0
279
    -2
289
     1
 69
     0
  7
STANDARD
140
6.0
170
     5
 62
     0
 63
     7
283
     0
274
    -2
284
     1
 64
     0
275
    -2
285
     1
 65
     0
276
    -2
286
     1
 66
     0
277
    -2
287
     1
 67
     0
278
    -2
288
     1
 68
     0
279
    -2
289
     1
 69
     0
  7
STANDARD
140
4.5
170
     5
 62
     0
 63
     7
283
     0
274
    -2
284
     1
 64
     0
275
    -2
285
     1
 65
     0
276
    -2
286
     1
 66
     0
277
    -2
287
     1
 67
     0
278
    -2
288
     1
 68
     0
279
    -2
289
     1
 69
     0
  0
VISUALSTYLE
  5
16105
102
{ACAD_REACTORS
330
160FF
102
}
330
160FF
100
AcDbVisualStyle
  2
2dWireframe
 70
     4
 71
     0
 72
     2
 73
     0
 90
        0
 40
-0.6
 41
-30.0
 62
     5
 63
     7
 74
     1
 91
        4
 64
     7
 65
   257
 75
     1
175
     1
 42
1.0
 92
        0
 66
   257
 43
1.0
 76
     1
 77
     6
 78
     2
 67
     7
 79
     5
170
     0
171
     0
290
     0
174
     0
 93
        1
 44
0.0
173
     0
291
     0
 45
0.0
1001
ACAD
1000
AcDbSavedByObjectVersion
1070
     0
1000
AcDbSavedByObjectVersion
1070
     0
1000
AcDbSavedByObjectVersion
1070
     0
1000
AcDbSavedByObjectVersion
1070
     0
1000
AcDbSavedByObjectVersion
1070
     0
1000
AcDbSavedByObjectVersion
1070
     0
1000
AcDbSavedByObjectVersion
1070
     0
  0
VISUALSTYLE
  5
16107
102
{ACAD_REACTORS
330
160FF
102
}
330
160FF
100
AcDbVisualStyle
  2
3D Hidden
 70
     6
 71
     1
 72
     2
 73
     2
 90
        0
 40
-0.6
 41
-30.0
 62
     5
 63
     7
 74
     2
 91
        2
 64
     7
 65
   257
 75
     2
175
     1
 42
40.0
 92
        0
 66
   257
 43
1.0
 76
     1
 77
     6
 78
     2
 67
     7
 79
     3
170
     0
171
     0
290
     0
174
     0
 93
        1
 44
0.0
173
     0
291
     0
 45
0.0
1001
ACAD
1000
AcDbSavedByObjectVersion
1070
     0
1000
AcDbSavedByObjectVersion
1070
     0
1000
AcDbSavedByObjectVersion
1070
     0
1000
AcDbSavedByObjectVersion
1070
     0
1000
AcDbSavedByObjectVersion
1070
     0
1000
AcDbSavedByObjectVersion
1070
     0
1000
AcDbSavedByObjectVersion
1070
     0
  0
VISUALSTYLE
  5
16106
102
{ACAD_REACTORS
330
160FF
102
}
330
160FF
100
AcDbVisualStyle
  2
3dWireframe
 70
     5
 71
     0
 72
     2
 73
     0
 90
        0
 40
-0.6
 41
-30.0
 62
     5
 63
     7
 74
     1
 91
        4
 64
     7
 65
   257
 75
     1
175
     1
 42
1.0
 92
        0
 66
   257
 43
1.0
 76
     1
 77
     6
 78
     2
 67
     7
 79
     5
170
     0
171
     0
290
     0
174
     0
 93
        1
 44
0.0
173
     0
291
     0
 45
0.0
1001
ACAD
1000
AcDbSavedByObjectVersion
1070
     0
1000
AcDbSavedByObjectVersion
1070
     0
1000
AcDbSavedByObjectVersion
1070
     0
1000
AcDbSavedByObjectVersion
1070
     0
1000
AcDbSavedByObjectVersion
1070
     0
1000
AcDbSavedByObjectVersion
1070
     0
1000
AcDbSavedByObjectVersion
1070
     0
  0
VISUALSTYLE
  5
16104
102
{ACAD_REACTORS
330
160FF
102
}
330
160FF
100
AcDbVisualStyle
  2
Basic
 70
     7
 71
     1
 72
     0
 73
     1
 90
        0
 40
-0.6
 41
-30.0
 62
     5
 63
     7
 74
     0
 91
        4
 64
     7
 65
   257
 75
     1
175
     1
 42
1.0
 92
        8
 66
     7
 43
1.0
 76
     1
 77
     6
 78
     2
 67
     7
 79
     5
170
     0
171
     0
290
     0
174
     0
 93
        1
 44
0.0
173
     0
291
     1
 45
0.0
1001
ACAD
1000
AcDbSavedByObjectVersion
1070
     0
1000
AcDbSavedByObjectVersion
1070
     0
1000
AcDbSavedByObjectVersion
1070
     0
1000
AcDbSavedByObjectVersion
1070
     0
1000
AcDbSavedByObjectVersion
1070
     0
1000
AcDbSavedByObjectVersion
1070
     0
1000
AcDbSavedByObjectVersion
1070
     0
  0
VISUALSTYLE
  5
1610B
102
{ACAD_REACTORS
330
160FF
102
}
330
160FF
100
AcDbVisualStyle
  2
Brighten
 70
    12
 71
     2
 72
     2
 73
     0
 90
        0
 40
-0.6
 41
-30.0
 62
     5
 63
     7
 74
     1
 91
        4
 64
     7
 65
   257
 75
     1
175
     1
 42
1.0
 92
        8
 66
     7
 43
1.0
 76
     1
 77
     6
 78
     2
 67
     7
 79
     5
170
     0
171
     0
290
     0
174
     0
 93
        1
 44
50.0
173
     0
291
     1
 45
0.0
1001
ACAD
1000
AcDbSavedByObjectVersion
1070
     0
1000
AcDbSavedByObjectVersion
1070
     0
1000
AcDbSavedByObjectVersion
1070
     0
1000
AcDbSavedByObjectVersion
1070
     0
1000
AcDbSavedByObjectVersion
1070
     0
1000
AcDbSavedByObjectVersion
1070
     0
1000
AcDbSavedByObjectVersion
1070
     0
  0
VISUALSTYLE
  5
1610F
102
{ACAD_REACTORS
330
160FF
102
}
330
160FF
100
AcDbVisualStyle
  2
ColorChange
 70
    16
 71
     2
 72
     2
 73
     3
 90
        0
 40
-0.6
 41
-30.0
 62
     5
 63
     8
 74
     1
 91
        4
 64
     7
 65
   257
 75
     1
175
     1
 42
1.0
 92
        8
 66
     8
 43
1.0
 76
     1
 77
     6
 78
     2
 67
     7
 79
     5
170
     0
171
     0
290
     0
174
     0
 93
        1
 44
0.0
173
     0
291
     1
 45
0.0
1001
ACAD
1000
AcDbSavedByObjectVersion
1070
     0
1000
AcDbSavedByObjectVersion
1070
     0
1000
AcDbSavedByObjectVersion
1070
     0
1000
AcDbSavedByObjectVersion
1070
     0
1000
AcDbSavedByObjectVersion
1070
     0
1000
AcDbSavedByObjectVersion
1070
     0
1000
AcDbSavedByObjectVersion
1070
     0
  0
VISUALSTYLE
  5
16108
102
{ACAD_REACTORS
330
160FF
102
}
330
160FF
100
AcDbVisualStyle
  2
Conceptual
 70
     9
 71
     3
 72
     2
 73
     0
 90
        0
 40
-0.6
 41
-30.0
 62
     5
 63
     7
 74
     2
 91
        2
 64
     7
 65
   257
 75
     1
175
     1
 42
40.0
 92
        8
 66
     7
 43
1.0
 76
     1
 77
     6
 78
     2
 67
     7
 79
     3
170
     0
171
     0
290
     0
174
     0
 93
        1
 44
0.0
173
     0
291
     0
 45
0.0
1001
ACAD
1000
AcDbSavedByObjectVersion
1070
     0
1000
AcDbSavedByObjectVersion
1070
     0
1000
AcDbSavedByObjectVersion
1070
     0
1000
AcDbSavedByObjectVersion
1070
     0
1000
AcDbSavedByObjectVersion
1070
     0
1000
AcDbSavedByObjectVersion
1070
     0
1000
AcDbSavedByObjectVersion
1070
     0
  0
VISUALSTYLE
  5
1610A
102
{ACAD_REACTORS
330
160FF
102
}
330
160FF
100
AcDbVisualStyle
  2
Dim
 70
    11
 71
     2
 72
     2
 73
     0
 90
        0
 40
-0.6
 41
-30.0
 62
     5
 63
     7
 74
     1
 91
        4
 64
     7
 65
   257
 75
     1
175
     1
 42
1.0
 92
        8
 66
     7
 43
1.0
 76
     1
 77
     6
 78
     2
 67
     7
 79
     5
170
     0
171
     0
290
     0
174
     0
 93
        1
 44
-50.0
173
     0
291
     1
 45
0.0
1001
ACAD
1000
AcDbSavedByObjectVersion
1070
     0
1000
AcDbSavedByObjectVersion
1070
     0
1000
AcDbSavedByObjectVersion
1070
     0
1000
AcDbSavedByObjectVersion
1070
     0
1000
AcDbSavedByObjectVersion
1070
     0
1000
AcDbSavedByObjectVersion
1070
     0
1000
AcDbSavedByObjectVersion
1070
     0
  0
VISUALSTYLE
  5
1610E
102
{ACAD_REACTORS
330
160FF
102
}
330
160FF
100
AcDbVisualStyle
  2
Facepattern
 70
    15
 71
     2
 72
     2
 73
     0
 90
        0
 40
-0.6
 41
-30.0
 62
     5
 63
     7
 74
     1
 91
        4
 64
     7
 65
   257
 75
     1
175
     1
 42
1.0
 92
        8
 66
     7
 43
1.0
 76
     1
 77
     6
 78
     2
 67
     7
 79
     5
170
     0
171
     0
290
     0
174
     0
 93
        1
 44
0.0
173
     0
291
     1
 45
0.0
1001
ACAD
1000
AcDbSavedByObjectVersion
1070
     0
1000
AcDbSavedByObjectVersion
1070
     0
1000
AcDbSavedByObjectVersion
1070
     0
1000
AcDbSavedByObjectVersion
1070
     0
1000
AcDbSavedByObjectVersion
1070
     0
1000
AcDbSavedByObjectVersion
1070
     0
1000
AcDbSavedByObjectVersion
1070
     0
  0
VISUALSTYLE
  5
16100
102
{ACAD_REACTORS
330
160FF
102
}
330
160FF
100
AcDbVisualStyle
  2
Flat
 70
     0
 71
     2
 72
     1
 73
     1
 90
        2
 40
-0.6
 41
30.0
 62
     5
 63
     7
 74
     0
 91
        4
 64
     7
 65
   257
 75
     1
175
     1
 42
1.0
 92
        8
 66
     7
 43
1.0
 76
     1
 77
     6
 78
     2
 67
     7
 79
     5
170
     0
171
     0
290
     0
174
     0
 93
       13
 44
0.0
173
     0
291
     1
 45
0.0
1001
ACAD
1000
AcDbSavedByObjectVersion
1070
     0
1000
AcDbSavedByObjectVersion
1070
     0
1000
AcDbSavedByObjectVersion
1070
     0
1000
AcDbSavedByObjectVersion
1070
     0
1000
AcDbSavedByObjectVersion
1070
     0
1000
AcDbSavedByObjectVersion
1070
     0
1000
AcDbSavedByObjectVersion
1070
     0
  0
VISUALSTYLE
  5
16101
102
{ACAD_REACTORS
330
160FF
102
}
330
160FF
100
AcDbVisualStyle
  2
FlatWithEdges
 70
     1
 71
     2
 72
     1
 73
     1
 90
        2
 40
-0.6
 41
30.0
 62
     5
 63
     7
 74
     1
 91
        4
 64
     7
 65
   257
 75
     1
175
     1
 42
1.0
 92
        0
 66
   257
 43
1.0
 76
     1
 77
     6
 78
     2
 67
     7
 79
     5
170
     0
171
     0
290
     0
174
     0
 93
       13
 44
0.0
173
     0
291
     1
 45
0.0
1001
ACAD
1000
AcDbSavedByObjectVersion
1070
     0
1000
AcDbSavedByObjectVersion
1070
     0
1000
AcDbSavedByObjectVersion
1070
     0
1000
AcDbSavedByObjectVersion
1070
     0
1000
AcDbSavedByObjectVersion
1070
     0
1000
AcDbSavedByObjectVersion
1070
     0
1000
AcDbSavedByObjectVersion
1070
     0
  0
VISUALSTYLE
  5
16102
102
{ACAD_REACTORS
330
160FF
102
}
330
160FF
100
AcDbVisualStyle
  2
Gouraud
 70
     2
 71
     2
 72
     2
 73
     1
 90
        2
 40
-0.6
 41
30.0
 62
     5
 63
     7
 74
     0
 91
        4
 64
     7
 65
   257
 75
     1
175
     1
 42
1.0
 92
        0
 66
     7
 43
1.0
 76
     1
 77
     6
 78
     2
 67
     7
 79
     5
170
     0
171
     0
290
     0
174
     0
 93
       13
 44
0.0
173
     0
291
     1
 45
0.0
1001
ACAD
1000
AcDbSavedByObjectVersion
1070
     0
1000
AcDbSavedByObjectVersion
1070
     0
1000
AcDbSavedByObjectVersion
1070
     0
1000
AcDbSavedByObjectVersion
1070
     0
1000
AcDbSavedByObjectVersion
1070
     0
1000
AcDbSavedByObjectVersion
1070
     0
1000
AcDbSavedByObjectVersion
1070
     0
  0
VISUALSTYLE
  5
16103
102
{ACAD_REACTORS
330
160FF
102
}
330
160FF
100
AcDbVisualStyle
  2
GouraudWithEdges
 70
     3
 71
     2
 72
     2
 73
     1
 90
        2
 40
-0.6
 41
30.0
 62
     5
 63
     7
 74
     1
 91
        4
 64
     7
 65
   257
 75
     1
175
     1
 42
1.0
 92
        0
 66
   257
 43
1.0
 76
     1
 77
     6
 78
     2
 67
     7
 79
     5
170
     0
171
     0
290
     0
174
     0
 93
       13
 44
0.0
173
     0
291
     1
 45
0.0
1001
ACAD
1000
AcDbSavedByObjectVersion
1070
     0
1000
AcDbSavedByObjectVersion
1070
     0
1000
AcDbSavedByObjectVersion
1070
     0
1000
AcDbSavedByObjectVersion
1070
     0
1000
AcDbSavedByObjectVersion
1070
     0
1000
AcDbSavedByObjectVersion
1070
     0
1000
AcDbSavedByObjectVersion
1070
     0
  0
VISUALSTYLE
  5
1610D
102
{ACAD_REACTORS
330
160FF
102
}
330
160FF
100
AcDbVisualStyle
  2
Linepattern
 70
    14
 71
     2
 72
     2
 73
     0
 90
        0
 40
-0.6
 41
-30.0
 62
     5
 63
     7
 74
     1
 91
        4
 64
     7
 65
   257
 75
     7
175
     7
 42
1.0
 92
        8
 66
     7
 43
1.0
 76
     1
 77
     6
 78
     2
 67
     7
 79
     5
170
     0
171
     0
290
     0
174
     0
 93
        1
 44
0.0
173
     0
291
     1
 45
0.0
1001
ACAD
1000
AcDbSavedByObjectVersion
1070
     0
1000
AcDbSavedByObjectVersion
1070
     0
1000
AcDbSavedByObjectVersion
1070
     0
1000
AcDbSavedByObjectVersion
1070
     0
1000
AcDbSavedByObjectVersion
1070
     0
1000
AcDbSavedByObjectVersion
1070
     0
1000
AcDbSavedByObjectVersion
1070
     0
  0
VISUALSTYLE
  5
16109
102
{ACAD_REACTORS
330
160FF
102
}
330
160FF
100
AcDbVisualStyle
  2
Realistic
 70
     8
 71
     2
 72
     2
 73
     0
 90
        0
 40
-0.6
 41
-30.0
 62
     5
 63
     7
 74
     1
 91
        0
 64
     7
 65
   257
 75
     1
175
     1
 42
1.0
 92
        8
 66
     8
 43
1.0
 76
     1
 77
     6
 78
     2
 67
     7
 79
     5
170
     0
171
     0
290
     0
174
     0
 93
       13
 44
0.0
173
     0
291
     0
 45
0.0
1001
ACAD
1000
AcDbSavedByObjectVersion
1070
     0
1000
AcDbSavedByObjectVersion
1070
     0
1000
AcDbSavedByObjectVersion
1070
     0
1000
AcDbSavedByObjectVersion
1070
     0
1000
AcDbSavedByObjectVersion
1070
     0
1000
AcDbSavedByObjectVersion
1070
     0
1000
AcDbSavedByObjectVersion
1070
     0
  0
VISUALSTYLE
  5
1610C
102
{ACAD_REACTORS
330
160FF
102
}
330
160FF
100
AcDbVisualStyle
  2
Thicken
 70
    13
 71
     2
 72
     2
 73
     0
 90
        0
 40
-0.6
 41
-30.0
 62
     5
 63
     7
 74
     1
 91
        4
 64
     7
 65
   257
 75
     1
175
     1
 42
1.0
 92
       12
 66
     7
 43
1.0
 76
     1
 77
     6
 78
     2
 67
     7
 79
     5
170
     0
171
     0
290
     0
174
     0
 93
        1
 44
0.0
173
     0
291
     1
 45
0.0
1001
ACAD
1000
AcDbSavedByObjectVersion
1070
     0
1000
AcDbSavedByObjectVersion
1070
     0
1000
AcDbSavedByObjectVersion
1070
     0
1000
AcDbSavedByObjectVersion
1070
     0
1000
AcDbSavedByObjectVersion
1070
     0
1000
AcDbSavedByObjectVersion
1070
     0
1000
AcDbSavedByObjectVersion
1070
     0
  0
DICTIONARYVAR
  5
12946
102
{ACAD_REACTORS
330
34
102
}
330
34
100
DictionaryVariables
280
     0
  1
STANDARD
  0
DICTIONARYVAR
  5
D350
102
{ACAD_REACTORS
330
34
102
}
330
34
100
DictionaryVariables
280
     0
  1
1
  0
DICTIONARYVAR
  5
35
102
{ACAD_REACTORS
330
34
102
}
330
34
100
DictionaryVariables
280
     0
  1
0
  0
DICTIONARYVAR
  5
194C
102
{ACAD_REACTORS
330
34
102
}
330
34
100
DictionaryVariables
280
     0
  1
96
  0
DICTIONARY
  5
7E8
102
{ACAD_REACTORS
330
47
102
}
330
47
100
AcDbDictionary
281
     1
  0
DICTIONARY
  5
4C
102
{ACAD_REACTORS
330
47
102
}
330
47
100
AcDbDictionary
281
     1
  0
XRECORD
  5
1291C
102
{ACAD_REACTORS
330
47
102
}
330
47
100
AcDbXrecord
280
     1
 90
-1023410169
  0
XRECORD
  5
A0F4
102
{ACAD_REACTORS
330
A0F3
102
}
330
A0F3
100
AcDbXrecord
280
     1
330
0
330
0
330
0
330
0
330
0
330
0
330
0
330
0
  0
XRECORD
  5
F63A
102
{ACAD_REACTORS
330
F639
102
}
330
F639
100
AcDbXrecord
280
     1
  1
PV
 40
1.0
 50
-12089.40947726037
 51
-5729.577951308232
 52
9740.282517223997
 53
9912.169855763243
  0
XRECORD
  5
3FB7
102
{ACAD_REACTORS
330
3F96
102
}
330
3F96
100
AcDbXrecord
280
     1
 91
        3
330
A47
 90
        8
 62
     7
370
    40
331
16
  1
Color_7
330
A46
 90
        0
 62
    14
370
    -3
331
16
  1
Color_14
330
3A31
 90
        8
 62
     7
370
    20
331
16
  1
Color_7
330
6D1
 90
        0
 62
     7
370
    -3
331
16
  1
Color_7
330
0
 90
        8
 62
     7
370
    50
331
16
  1
Color_7
330
A48
 90
        8
 62
     2
370
    35
331
16
  1
Color_2
330
0
 90
        8
 62
     7
370
    -3
331
16
  1
Color_7
330
10
 90
        8
 62
     7
370
    -3
331
16
  1
Color_7
  0
DICTIONARY
  5
182DF
330
22
100
AcDbDictionary
280
     1
281
     1
  3
ACAD_XREC_ROUNDTRIP
360
182E0
  0
DICTIONARY
  5
182DD
330
1E
100
AcDbDictionary
280
     1
281
     1
  3
ACAD_XREC_ROUNDTRIP
360
182DE
  0
DICTIONARY
  5
182E1
330
26
100
AcDbDictionary
280
     1
281
     1
  3
ACAD_XREC_ROUNDTRIP
360
182E2
  0
DICTIONARY
  5
16FC5
330
160FD
100
AcDbDictionary
280
     1
281
     1
  3
ACAD_XREC_ROUNDTRIP
360
16FC6
  0
DICTIONARY
  5
16FC3
330
160FC
100
AcDbDictionary
280
     1
281
     1
  3
ACAD_XREC_ROUNDTRIP
360
16FC4
  0
DICTIONARY
  5
16FC7
330
160FE
100
AcDbDictionary
280
     1
281
     1
  3
ACAD_XREC_ROUNDTRIP
360
16FC8
  0
DICTIONARY
  5
182E3
330
D3FB
100
AcDbDictionary
280
     1
281
     1
  3
ACAD_XREC_ROUNDTRIP
360
182E4
  0
DICTIONARY
  5
182E5
330
D3FC
100
AcDbDictionary
280
     1
281
     1
  3
ACAD_XREC_ROUNDTRIP
360
182E6
  0
DICTIONARY
  5
182E7
330
D3FD
100
AcDbDictionary
280
     1
281
     1
  3
ACAD_XREC_ROUNDTRIP
360
182E8
  0
DICTIONARY
  5
182E9
330
D3FE
100
AcDbDictionary
280
     1
281
     1
  3
ACAD_XREC_ROUNDTRIP
360
182EA
  0
DICTIONARY
  5
182EB
330
D3FF
100
AcDbDictionary
280
     1
281
     1
  3
ACAD_XREC_ROUNDTRIP
360
182EC
  0
DICTIONARY
  5
182ED
330
D400
100
AcDbDictionary
280
     1
281
     1
  3
ACAD_XREC_ROUNDTRIP
360
182EE
  0
DICTIONARY
  5
182EF
330
128FE
100
AcDbDictionary
280
     1
281
     1
  3
ACAD_XREC_ROUNDTRIP
360
182F0
  0
XRECORD
  5
182E0
102
{ACAD_REACTORS
330
182DF
102
}
330
182DF
100
AcDbXrecord
280
     1
102
SHADEPLOT
 70
     0
102
SHADEPLOTRESLEVEL
 70
     2
102
SHADEPLOTCUSTOMDPI
 70
   300
  0
XRECORD
  5
182DE
102
{ACAD_REACTORS
330
182DD
102
}
330
182DD
100
AcDbXrecord
280
     1
102
SHADEPLOT
 70
     0
102
SHADEPLOTRESLEVEL
 70
     2
102
SHADEPLOTCUSTOMDPI
 70
   300
  0
XRECORD
  5
182E2
102
{ACAD_REACTORS
330
182E1
102
}
330
182E1
100
AcDbXrecord
280
     1
102
SHADEPLOT
 70
     0
102
SHADEPLOTRESLEVEL
 70
     2
102
SHADEPLOTCUSTOMDPI
 70
   300
  0
XRECORD
  5
16FC6
102
{ACAD_REACTORS
330
16FC5
102
}
330
16FC5
100
AcDbXrecord
280
     1
102
MATERIAL
148
0.0
149
0.0
149
0.0
 93
        0
 94
       63
282
     0
 72
     1
 77
     1
171
     1
175
     1
179
     1
273
     0
  0
XRECORD
  5
16FC4
102
{ACAD_REACTORS
330
16FC3
102
}
330
16FC3
100
AcDbXrecord
280
     1
102
MATERIAL
148
0.0
149
0.0
149
0.0
 93
        0
 94
       63
282
     0
 72
     1
 77
     1
171
     1
175
     1
179
     1
273
     0
  0
XRECORD
  5
16FC8
102
{ACAD_REACTORS
330
16FC7
102
}
330
16FC7
100
AcDbXrecord
280
     1
102
MATERIAL
148
0.0
149
0.0
149
0.0
 93
        0
 94
       63
282
     0
 72
     1
 77
     1
171
     1
175
     1
179
     1
273
     0
  0
XRECORD
  5
182E4
102
{ACAD_REACTORS
330
182E3
102
}
330
182E3
100
AcDbXrecord
280
     1
102
SHADEPLOT
 70
     0
102
SHADEPLOTRESLEVEL
 70
     2
102
SHADEPLOTCUSTOMDPI
 70
   300
  0
XRECORD
  5
182E6
102
{ACAD_REACTORS
330
182E5
102
}
330
182E5
100
AcDbXrecord
280
     1
102
SHADEPLOT
 70
     0
102
SHADEPLOTRESLEVEL
 70
     2
102
SHADEPLOTCUSTOMDPI
 70
   300
  0
XRECORD
  5
182E8
102
{ACAD_REACTORS
330
182E7
102
}
330
182E7
100
AcDbXrecord
280
     1
102
SHADEPLOT
 70
     0
102
SHADEPLOTRESLEVEL
 70
     2
102
SHADEPLOTCUSTOMDPI
 70
   300
  0
XRECORD
  5
182EA
102
{ACAD_REACTORS
330
182E9
102
}
330
182E9
100
AcDbXrecord
280
     1
102
SHADEPLOT
 70
     0
102
SHADEPLOTRESLEVEL
 70
     2
102
SHADEPLOTCUSTOMDPI
 70
   300
  0
XRECORD
  5
182EC
102
{ACAD_REACTORS
330
182EB
102
}
330
182EB
100
AcDbXrecord
280
     1
102
SHADEPLOT
 70
     0
102
SHADEPLOTRESLEVEL
 70
     2
102
SHADEPLOTCUSTOMDPI
 70
   300
  0
XRECORD
  5
182EE
102
{ACAD_REACTORS
330
182ED
102
}
330
182ED
100
AcDbXrecord
280
     1
102
SHADEPLOT
 70
     0
102
SHADEPLOTRESLEVEL
 70
     2
102
SHADEPLOTCUSTOMDPI
 70
   300
  0
XRECORD
  5
182F0
102
{ACAD_REACTORS
330
182EF
102
}
330
182EF
100
AcDbXrecord
280
     1
102
ACAD_ROUNDTRIP_PRE2007_TABLESTYLE
 90
        4
 91
        0
  1

 92
        4
 93
        0
  2

 94
        4
 95
        0
  3

  0
ENDSEC
  0
EOF
