  0
SECTION
  2
HEADER
  9
$ACADVER
  1
AC1018
  9
$ACADMAINTVER
 70
   104
  9
$DWGCODEPAGE
  3
ANSI_932
  9
$LASTSAVEDBY
  1
Administrator
  9
$CUSTOMPROPERTYTAG
  1
AmdtFileType
  9
$CUSTOMPROPERTY
  1
84
  9
$INSBASE
 10
0.0
 20
0.0
 30
0.0
  9
$EXTMIN
 10
3651.369091152614
 20
2845.638237428211
 30
0.0
  9
$EXTMAX
 10
4032.369091152614
 20
3118.638237428211
 30
0.0
  9
$LIMMIN
 10
1700.85588156276
 20
1647.985052086429
  9
$LIMMAX
 10
1997.85588156276
 20
1857.985052086429
  9
$ORTHOMODE
 70
     0
  9
$REGENMODE
 70
     1
  9
$FILLMODE
 70
     1
  9
$QTEXTMODE
 70
     0
  9
$MIRRTEXT
 70
     0
  9
$LTSCALE
 40
1.0
  9
$ATTMODE
 70
     1
  9
$TEXTSIZE
 40
3.2
  9
$TRACEWID
 40
1.0
  9
$TEXTSTYLE
  7
STANDARD
  9
$CLAYER
  8
AM_0
  9
$CELTYPE
  6
ByLayer
  9
$CECOLOR
 62
   256
  9
$CELTSCALE
 40
1.0
  9
$DISPSILH
 70
     0
  9
$DIMSCALE
 40
1.0
  9
$DIMASZ
 40
1.0
  9
$DIMEXO
 40
1.0
  9
$DIMDLI
 40
10.0
  9
$DIMRND
 40
0.0
  9
$DIMDLE
 40
0.0
  9
$DIMEXE
 40
1.0
  9
$DIMTP
 40
0.1
  9
$DIMTM
 40
0.1
  9
$DIMTXT
 40
3.5
  9
$DIMCEN
 40
0.0
  9
$DIMTSZ
 40
0.0
  9
$DIMTOL
 70
     0
  9
$DIMLIM
 70
     0
  9
$DIMTIH
 70
     0
  9
$DIMTOH
 70
     0
  9
$DIMSE1
 70
     0
  9
$DIMSE2
 70
     0
  9
$DIMTAD
 70
     1
  9
$DIMZIN
 70
     8
  9
$DIMBLK
  1

  9
$DIMASO
 70
     1
  9
$DIMSHO
 70
     1
  9
$DIMPOST
  1

  9
$DIMAPOST
  1
"
  9
$DIMALT
 70
     0
  9
$DIMALTD
 70
     2
  9
$DIMALTF
 40
0.0393701
  9
$DIMLFAC
 40
1.0
  9
$DIMTOFL
 70
     1
  9
$DIMTVP
 40
0.0
  9
$DIMTIX
 70
     0
  9
$DIMSOXD
 70
     0
  9
$DIMSAH
 70
     0
  9
$DIMBLK1
  1

  9
$DIMBLK2
  1

  9
$DIMSTYLE
  2
SYS
  9
$DIMCLRD
 70
   256
  9
$DIMCLRE
 70
   256
  9
$DIMCLRT
 70
     7
  9
$DIMTFAC
 40
0.71
  9
$DIMGAP
 40
1.5
  9
$DIMJUST
 70
     0
  9
$DIMSD1
 70
     0
  9
$DIMSD2
 70
     0
  9
$DIMTOLJ
 70
     0
  9
$DIMTZIN
 70
     8
  9
$DIMALTZ
 70
     0
  9
$DIMALTTZ
 70
     0
  9
$DIMUPT
 70
     0
  9
$DIMDEC
 70
     2
  9
$DIMTDEC
 70
     2
  9
$DIMALTU
 70
     2
  9
$DIMALTTD
 70
     2
  9
$DIMTXSTY
  7
STANDARD
  9
$DIMAUNIT
 70
     0
  9
$DIMADEC
 70
     0
  9
$DIMALTRND
 40
0.0
  9
$DIMAZIN
 70
     2
  9
$DIMDSEP
 70
    46
  9
$DIMATFIT
 70
     3
  9
$DIMFRAC
 70
     0
  9
$DIMLDRBLK
  1

  9
$DIMLUNIT
 70
     2
  9
$DIMLWD
 70
    -1
  9
$DIMLWE
 70
    -1
  9
$DIMTMOVE
 70
     0
  9
$LUNITS
 70
     2
  9
$LUPREC
 70
     2
  9
$SKETCHINC
 40
1.0
  9
$FILLETRAD
 40
0.0
  9
$AUNITS
 70
     0
  9
$AUPREC
 70
     0
  9
$MENU
  1
.
  9
$ELEVATION
 40
0.0
  9
$PELEVATION
 40
0.0
  9
$THICKNESS
 40
0.0
  9
$LIMCHECK
 70
     0
  9
$CHAMFERA
 40
0.0
  9
$CHAMFERB
 40
0.0
  9
$CHAMFERC
 40
20.0
  9
$CHAMFERD
 40
0.0
  9
$SKPOLY
 70
     0
  9
$TDCREATE
 40
2454613.544950266
  9
$TDUCREATE
 40
2454613.169950266
  9
$TDUPDATE
 40
2455457.655429143
  9
$TDUUPDATE
 40
2455457.280429143
  9
$TDINDWG
 40
0.0524095718
  9
$TDUSRTIMER
 40
0.0524093866
  9
$USRTIMER
 70
     1
  9
$ANGBASE
 50
0.0
  9
$ANGDIR
 70
     0
  9
$PDMODE
 70
     0
  9
$PDSIZE
 40
-3.0
  9
$PLINEWID
 40
0.0
  9
$SPLFRAME
 70
     0
  9
$SPLINETYPE
 70
     6
  9
$SPLINESEGS
 70
     8
  9
$HANDSEED
  5
BB6D
  9
$SURFTAB1
 70
     6
  9
$SURFTAB2
 70
     6
  9
$SURFTYPE
 70
     6
  9
$SURFU
 70
     6
  9
$SURFV
 70
     6
  9
$UCSBASE
  2

  9
$UCSNAME
  2

  9
$UCSORG
 10
0.0
 20
0.0
 30
0.0
  9
$UCSXDIR
 10
1.0
 20
0.0
 30
0.0
  9
$UCSYDIR
 10
0.0
 20
1.0
 30
0.0
  9
$UCSORTHOREF
  2

  9
$UCSORTHOVIEW
 70
     0
  9
$UCSORGTOP
 10
0.0
 20
0.0
 30
0.0
  9
$UCSORGBOTTOM
 10
0.0
 20
0.0
 30
0.0
  9
$UCSORGLEFT
 10
0.0
 20
0.0
 30
0.0
  9
$UCSORGRIGHT
 10
0.0
 20
0.0
 30
0.0
  9
$UCSORGFRONT
 10
0.0
 20
0.0
 30
0.0
  9
$UCSORGBACK
 10
0.0
 20
0.0
 30
0.0
  9
$PUCSBASE
  2

  9
$PUCSNAME
  2

  9
$PUCSORG
 10
0.0
 20
0.0
 30
0.0
  9
$PUCSXDIR
 10
1.0
 20
0.0
 30
0.0
  9
$PUCSYDIR
 10
0.0
 20
1.0
 30
0.0
  9
$PUCSORTHOREF
  2

  9
$PUCSORTHOVIEW
 70
     0
  9
$PUCSORGTOP
 10
0.0
 20
0.0
 30
0.0
  9
$PUCSORGBOTTOM
 10
0.0
 20
0.0
 30
0.0
  9
$PUCSORGLEFT
 10
0.0
 20
0.0
 30
0.0
  9
$PUCSORGRIGHT
 10
0.0
 20
0.0
 30
0.0
  9
$PUCSORGFRONT
 10
0.0
 20
0.0
 30
0.0
  9
$PUCSORGBACK
 10
0.0
 20
0.0
 30
0.0
  9
$USERI1
 70
     0
  9
$USERI2
 70
     0
  9
$USERI3
 70
     0
  9
$USERI4
 70
     0
  9
$USERI5
 70
     0
  9
$USERR1
 40
0.0
  9
$USERR2
 40
0.0
  9
$USERR3
 40
0.0
  9
$USERR4
 40
0.0
  9
$USERR5
 40
0.0
  9
$WORLDVIEW
 70
     1
  9
$SHADEDGE
 70
     3
  9
$SHADEDIF
 70
    70
  9
$TILEMODE
 70
     1
  9
$MAXACTVP
 70
    64
  9
$PINSBASE
 10
0.0
 20
0.0
 30
0.0
  9
$PLIMCHECK
 70
     0
  9
$PEXTMIN
 10
1.000000000000000E+20
 20
1.000000000000000E+20
 30
1.000000000000000E+20
  9
$PEXTMAX
 10
-1.000000000000000E+20
 20
-1.000000000000000E+20
 30
-1.000000000000000E+20
  9
$PLIMMIN
 10
-3.17498779296875
 20
-3.174999952316284
  9
$PLIMMAX
 10
293.4970092773438
 20
206.692492723465
  9
$UNITMODE
 70
     0
  9
$VISRETAIN
 70
     1
  9
$PLINEGEN
 70
     0
  9
$PSLTSCALE
 70
     1
  9
$TREEDEPTH
 70
  3020
  9
$CMLSTYLE
  2
Standard
  9
$CMLJUST
 70
     0
  9
$CMLSCALE
 40
20.0
  9
$PROXYGRAPHICS
 70
     1
  9
$MEASUREMENT
 70
     1
  9
$CELWEIGHT
370
    -1
  9
$ENDCAPS
280
     0
  9
$JOINSTYLE
280
     0
  9
$LWDISPLAY
290
     0
  9
$INSUNITS
 70
     4
  9
$HYPERLINKBASE
  1

  9
$STYLESHEET
  1
monochrome.ctb
  9
$XEDIT
290
     1
  9
$CEPSNTYPE
380
     0
  9
$PSTYLEMODE
290
     1
  9
$FINGERPRINTGUID
  2
{8644823F-39EB-4237-B927-AC75E0975194}
  9
$VERSIONGUID
  2
{BA90CC02-1F48-41E2-BEED-53593E7559D9}
  9
$EXTNAMES
290
     1
  9
$PSVPSCALE
 40
0.0
  9
$OLESTARTUP
290
     0
  9
$SORTENTS
280
    96
  9
$INDEXCTL
280
     0
  9
$HIDETEXT
280
     0
  9
$XCLIPFRAME
290
     0
  9
$HALOGAP
280
     0
  9
$OBSCOLOR
 70
   257
  9
$OBSLTYPE
280
     0
  9
$INTERSECTIONDISPLAY
280
     0
  9
$INTERSECTIONCOLOR
 70
   257
  9
$DIMASSOC
280
     1
  9
$PROJECTNAME
  1

  0
ENDSEC
  0
SECTION
  2
CLASSES
  0
CLASS
  1
ACDBDICTIONARYWDFLT
  2
AcDbDictionaryWithDefault
  3
ObjectDBX Classes
 90
        0
 91
        1
280
     0
281
     0
  0
CLASS
  1
ACDBPLACEHOLDER
  2
AcDbPlaceHolder
  3
ObjectDBX Classes
 90
        0
 91
        1
280
     0
281
     0
  0
CLASS
  1
LAYOUT
  2
AcDbLayout
  3
ObjectDBX Classes
 90
        0
 91
        3
280
     0
281
     0
  0
CLASS
  1
AMGSETTINGSOBJ
  2
AmgSettingsObj
  3
"AcadM|Product Description: AutoCAD Mechanical|Company: Autodesk"
 90
        0
 91
        4
280
     0
281
     0
  0
CLASS
  1
ACME_DOCUMENT
  2
AcMeDbDoc
  3
AcMeServices
 90
        0
 91
        2
280
     0
281
     0
  0
CLASS
  1
ACMESCOPE
  2
AcMeScope
  3
AcMeServices
 90
        0
 91
        1
280
     0
281
     0
  0
CLASS
  1
ACMECOMMANDHISTORY
  2
AcMeCommandHistory
  3
AcMeServices
 90
        0
 91
        1
280
     0
281
     0
  0
CLASS
  1
DICTIONARYVAR
  2
AcDbDictionaryVar
  3
ObjectDBX Classes
 90
        0
 91
        5
280
     0
281
     0
  0
CLASS
  1
ACIMSYSVARMAN
  2
AcImSysVarManager
  3
AcMeServices
 90
        0
 91
        6
280
     0
281
     0
  0
CLASS
  1
ACIMREALSYSVAR
  2
AcImRealSysVar
  3
AcMeServices
 90
        0
 91
       16
280
     0
281
     0
  0
CLASS
  1
ACIMINTSYSVAR
  2
AcImIntSysVar
  3
AcMeServices
 90
        0
 91
       48
280
     0
281
     0
  0
CLASS
  1
ACMEDRAWINGMAN
  2
AcMeDrawingMan
  3
AcMeServices
 90
        0
 91
        1
280
     0
281
     0
  0
CLASS
  1
ACMEVIEW
  2
AcMeView
  3
AcMeServices
 90
        0
 91
        1
280
     0
281
     0
  0
CLASS
  1
ACDBENTITYCACHE
  2
AcMeEntityCache
  3
AcMeServices
 90
        0
 91
        1
280
     0
281
     0
  0
CLASS
  1
GSMANAGER
  2
AcMeGSManager
  3
AcMeServices
 90
        0
 91
        1
280
     0
281
     0
  0
CLASS
  1
AMDTINTERNALREACTOR
  2
AmdtInternalReactor
  3
AcMeServices
 90
        0
 91
        2
280
     0
281
     0
  0
CLASS
  1
ACMESTATEMGR
  2
AcMeStateMgr
  3
AcMeServices
 90
        0
 91
        1
280
     0
281
     0
  0
CLASS
  1
ACGREFMASTER
  2
AcGrefMaster
  3
AcAttribServices
 90
        0
 91
        1
280
     0
281
     0
  0
CLASS
  1
ACME_DATABASE
  2
AcMeDbDatabase
  3
AcMeServices
 90
        0
 91
        1
280
     0
281
     0
  0
CLASS
  1
ACRFINSADJUSTERMGR
  2
AcRfInsAdjusterMgr
  3
AcMeServices
 90
        0
 91
        1
280
     0
281
     0
  0
CLASS
  1
ACGREFACADMASTER
  2
AcGrefacadMaster
  3
AcGrefServices
 90
        0
 91
        1
280
     0
281
     0
  0
CLASS
  1
AMIMASTER
  2
AmiMaster
  3
AmiServices
 90
        0
 91
        1
280
     0
281
     0
  0
CLASS
  1
ACMDATADICTIONARY
  2
AcmDataDictionary
  3
"AcmSymBB|Product Description: AutoCAD Mechanical|Company: Autodesk"
 90
        0
 91
        1
280
     0
281
     0
  0
CLASS
  1
ACMDATAENTRYBLOCK
  2
AcmDataEntryBlock
  3
"AcmSymBB|Product Description: AutoCAD Mechanical|Company: Autodesk"
 90
        0
 91
        6
280
     0
281
     0
  0
CLASS
  1
ACIMSTRSYSVAR
  2
AcImStrSysVar
  3
AcMeServices
 90
        0
 91
       11
280
     0
281
     0
  0
CLASS
  1
ACMSTANDARDISO
  2
AcmStandardISO
  3
"Amdt_StdImp|Product Description: AutoCAD Mechanical|Company: Autodesk"
 90
        0
 91
        1
280
     0
281
     0
  0
CLASS
  1
AMGOBJPROPCFG
  2
AmgObjPropCfg
  3
"AmgLay|Product Description: AutoCAD Mechanical|Company: Autodesk"
 90
        1
 91
        1
280
     0
281
     0
  0
CLASS
  1
AMDTEDGESTANDARDISO
  2
AmdtEdgeStdISO
  3
"Amdt_StdImp|Product Description: AutoCAD Mechanical|Company: Autodesk"
 90
        0
 91
        1
280
     0
281
     0
  0
CLASS
  1
ACMSURFSTANDARDISO
  2
AcmSurfTextStdISO
  3
"Amdt_StdImp|Product Description: AutoCAD Mechanical|Company: Autodesk"
 90
        0
 91
        1
280
     0
281
     0
  0
CLASS
  1
ACMFCFSTANDARDISO
  2
AcmFCFStdISO
  3
"Amdt_StdImp|Product Description: AutoCAD Mechanical|Company: Autodesk"
 90
        0
 91
        1
280
     0
281
     0
  0
CLASS
  1
ACMWELDSTANDARDISO
  2
AcmWeldingStdISO
  3
"Amdt_StdImp|Product Description: AutoCAD Mechanical|Company: Autodesk"
 90
        0
 91
        1
280
     0
281
     0
  0
CLASS
  1
ACMIDSTANDARDISO
  2
AcmIdStdISO
  3
"Amdt_StdImp|Product Description: AutoCAD Mechanical|Company: Autodesk"
 90
        0
 91
        1
280
     0
281
     0
  0
CLASS
  1
ACMDATUMSTANDARDISO
  2
AcmDatumStdISO
  3
"Amdt_StdImp|Product Description: AutoCAD Mechanical|Company: Autodesk"
 90
        0
 91
        1
280
     0
281
     0
  0
CLASS
  1
ACMBOMSTANDARDISO
  2
AcmBOMStdISO
  3
"Amdt_StdImp|Product Description: AutoCAD Mechanical|Company: Autodesk"
 90
        0
 91
        1
280
     0
281
     0
  0
CLASS
  1
ACMDETAILSTANDARDISO
  2
AmdtDetailSymStdISO
  3
"Amdt_StdImp|Product Description: AutoCAD Mechanical|Company: Autodesk"
 90
        0
 91
        1
280
     0
281
     0
  0
CLASS
  1
ACMSECTIONSTANDARDISO
  2
AmdtSectionSymStdISO
  3
"Amdt_StdImp|Product Description: AutoCAD Mechanical|Company: Autodesk"
 90
        0
 91
        1
280
     0
281
     0
  0
CLASS
  1
ACMCENTERLINESTANDARDISO
  2
AmdtCenterLineStdISO
  3
"Amdt_StdImp|Product Description: AutoCAD Mechanical|Company: Autodesk"
 90
        0
 91
        1
280
     0
281
     0
  0
CLASS
  1
ACAMGLAYSTD
  2
AcAmgLayStd
  3
"AmgLay|Product Description: AutoCAD Mechanical|Company: Autodesk"
 90
        0
 91
        2
280
     0
281
     0
  0
CLASS
  1
ACAMGDIMSTD
  2
AcAmgDimStd
  3
"AmgDim|Product Description: AutoCAD Mechanical|Company: Autodesk"
 90
        0
 91
        2
280
     0
281
     0
  0
CLASS
  1
ACAMGTITLESTD
  2
AcAmgTitleStd
  3
"AmgTitle|Product Description: AutoCAD Mechanical|Company: Autodesk"
 90
        0
 91
        2
280
     0
281
     0
  0
CLASS
  1
ACAMGFILTERDAT
  2
AcAmgFilterDat
  3
"AcadM|Product Description: AutoCAD Mechanical|Company: Autodesk"
 90
        0
 91
        6
280
     0
281
     0
  0
CLASS
  1
LAYER_INDEX
  2
AcDbLayerIndex
  3
ObjectDBX Classes
 90
        0
 91
        0
280
     0
281
     0
  0
CLASS
  1
IDBUFFER
  2
AcDbIdBuffer
  3
ObjectDBX Classes
 90
        0
 91
        0
280
     0
281
     0
  0
CLASS
  1
PLOTSETTINGS
  2
AcDbPlotSettings
  3
ObjectDBX Classes
 90
        0
 91
        0
280
     0
281
     0
  0
CLASS
  1
AMDTFORMULAUPDATEDISPATCHER
  2
AmdtFormulaUpdateDispatcher
  3
AcMeServices
 90
        0
 91
        1
280
     0
281
     0
  0
CLASS
  1
ACMSTANDARDANSI
  2
AcmStandardANSI
  3
"Amdt_StdImp|Product Description: AutoCAD Mechanical|Company: Autodesk"
 90
        0
 91
        1
280
     0
281
     0
  0
CLASS
  1
ACMSURFSTANDARDANSI
  2
AcmSurfTextStdANSI
  3
"Amdt_StdImp|Product Description: AutoCAD Mechanical|Company: Autodesk"
 90
        0
 91
        1
280
     0
281
     0
  0
CLASS
  1
ACMFCFSTANDARDANSI
  2
AcmFCFStdANSI
  3
"Amdt_StdImp|Product Description: AutoCAD Mechanical|Company: Autodesk"
 90
        0
 91
        1
280
     0
281
     0
  0
CLASS
  1
ACMWELDSTANDARDANSI
  2
AcmWeldingStdANSI
  3
"Amdt_StdImp|Product Description: AutoCAD Mechanical|Company: Autodesk"
 90
        0
 91
        1
280
     0
281
     0
  0
CLASS
  1
ACMIDSTANDARDANSI
  2
AcmIdStdANSI
  3
"Amdt_StdImp|Product Description: AutoCAD Mechanical|Company: Autodesk"
 90
        0
 91
        1
280
     0
281
     0
  0
CLASS
  1
ACMDATUMSTANDARDANSI
  2
AcmDatumStdANSI
  3
"Amdt_StdImp|Product Description: AutoCAD Mechanical|Company: Autodesk"
 90
        0
 91
        1
280
     0
281
     0
  0
CLASS
  1
ACMBOMSTANDARDANSI
  2
AcmBOMStdANSI
  3
"Amdt_StdImp|Product Description: AutoCAD Mechanical|Company: Autodesk"
 90
        0
 91
        1
280
     0
281
     0
  0
CLASS
  1
ACMDETAILSTANDARDANSI
  2
AmdtDetailSymStdANSI
  3
"Amdt_StdImp|Product Description: AutoCAD Mechanical|Company: Autodesk"
 90
        0
 91
        1
280
     0
281
     0
  0
CLASS
  1
ACMSECTIONSTANDARDANSI
  2
AmdtSectionSymStdANSI
  3
"Amdt_StdImp|Product Description: AutoCAD Mechanical|Company: Autodesk"
 90
        0
 91
        1
280
     0
281
     0
  0
CLASS
  1
ACMCENTERLINESTANDARDANSI
  2
AmdtCenterLineStdANSI
  3
"Amdt_StdImp|Product Description: AutoCAD Mechanical|Company: Autodesk"
 90
        0
 91
        1
280
     0
281
     0
  0
CLASS
  1
ACMBOM
  2
AcmBom
  3
"AcmSymBB|Product Description: AutoCAD Mechanical|Company: Autodesk"
 90
        0
 91
        1
280
     0
281
     0
  0
CLASS
  1
ACMDATAENTRYPART
  2
AcmDataEntryPart
  3
"AcmSymBB|Product Description: AutoCAD Mechanical|Company: Autodesk"
 90
        0
 91
        0
280
     0
281
     0
  0
CLASS
  1
ACMPARTREF
  2
AcmPartRef
  3
"AcmSymBB|Product Description: AutoCAD Mechanical|Company: Autodesk"
 90
     3071
 91
        0
280
     0
281
     1
  0
CLASS
  1
ACDBCIRCARCRES
  2
AcDbCircArcRes
  3
AcGrefServices
 90
        0
 91
        0
280
     0
281
     0
  0
CLASS
  1
ACMBOMROW
  2
AcmBomRow
  3
"AcmSymBB|Product Description: AutoCAD Mechanical|Company: Autodesk"
 90
        0
 91
        0
280
     0
281
     0
  0
CLASS
  1
ACMBALLOON
  2
AcmBalloon
  3
"AcmSymBB|Product Description: AutoCAD Mechanical|Company: Autodesk"
 90
     3071
 91
        0
280
     0
281
     1
  0
CLASS
  1
AMDTNOTE
  2
AmdtNote
  3
"AcmSymBB|Product Description: AutoCAD Mechanical|Company: Autodesk"
 90
     3071
 91
        0
280
     0
281
     1
  0
CLASS
  1
STDPART2D
  2
AmgStdPart
  3
"g3vace|Class: AmgStdPart|Product Description: AutoCAD Mechanical|Company: Autodesk"
 90
     3071
 91
        0
280
     0
281
     1
  0
CLASS
  1
ACDBSTDPARTRES_LINE
  2
AcDbStdPartRes_Line
  3
"g3vace|Class: AcDbStdPartRes_Line|Product Description: AutoCAD Mechanical|Company: Autodesk"
 90
        0
 91
        0
280
     0
281
     0
  0
CLASS
  1
ACMDATAENTRY
  2
AcmDataEntry
  3
"AcmSymBB|Product Description: AutoCAD Mechanical|Company: Autodesk"
 90
        0
 91
        9
280
     0
281
     0
  0
CLASS
  1
ACDBOPPOLYLINERES
  2
AcDbOpPolylineRes
  3
AcGrefServices
 90
        0
 91
        0
280
     0
281
     0
  0
CLASS
  1
ACMPARTLIST
  2
AcmPartList
  3
"AcmSymBB|Product Description: AutoCAD Mechanical|Company: Autodesk"
 90
     3071
 91
        0
280
     0
281
     1
  0
CLASS
  1
ACDBLINERES
  2
AcDbLineRes
  3
AcGrefServices
 90
        0
 91
        0
280
     0
281
     0
  0
CLASS
  1
ACRFINSADJ
  2
AcRfInsAdjuster
  3
AcMeServices
 90
        0
 91
        0
280
     0
281
     0
  0
CLASS
  1
AM_DRAWING_MGR
  2
AcDmDwgMgr
  3
AcMechDwgViewMgmt
 90
        0
 91
        1
280
     0
281
     0
  0
CLASS
  1
AM_DWG_DOCUMENT
  2
AcDmDwgDocument
  3
AcMechDwgViewMgmt
 90
        0
 91
        1
280
     0
281
     0
  0
CLASS
  1
AM_DWG_SHEET
  2
AcDmSheet
  3
AcMechDwgViewMgmt
 90
        0
 91
        2
280
     0
281
     0
  0
CLASS
  1
AM_VIEWDIMPARMAP
  2
AcDmViewDimParMap
  3
AcMechDwgViewMgmt
 90
        0
 91
        2
280
     0
281
     0
  0
CLASS
  1
AM_DWGMGR_NAME
  2
AcDmDwgMgrName
  3
AcMechDwgViewMgmt
 90
        0
 91
        1
280
     0
281
     0
  0
CLASS
  1
AMDTMENUSTATEMGR
  2
AmdtMenuStateMgr
  3
McadcomServices
 90
        0
 91
        1
280
     0
281
     0
  0
CLASS
  1
AMDTMCOMMENUSTATE
  2
AmdtMcomMenuState
  3
McadcomServices
 90
        0
 91
        1
280
     0
281
     0
  0
CLASS
  1
ASAPP
  2
AcAsAppObject
  3
AutoSurfServices
 90
        0
 91
        2
280
     0
281
     0
  0
CLASS
  1
IM_STATIC_MAN
  2
AcImStaticVarManager
  3
AcMeServices
 90
        0
 91
        1
280
     0
281
     0
  0
CLASS
  1
ACIMDBLSTATICVAR
  2
AcImDblStaticVar
  3
AcMeServices
 90
        0
 91
       20
280
     0
281
     0
  0
CLASS
  1
ACIMSTRSTATICVAR
  2
AcImStrStaticVar
  3
AcMeServices
 90
        0
 91
       12
280
     0
281
     0
  0
CLASS
  1
ACIMINTSTATICVAR
  2
AcImIntStaticVar
  3
AcMeServices
 90
        0
 91
       17
280
     0
281
     0
  0
CLASS
  1
ACASGREFMASTER
  2
AcAsGrefMaster
  3
AutoSurfResolverServices
 90
        0
 91
        2
280
     0
281
     0
  0
CLASS
  1
ACADGREFMODULE
  2
AcAdGrefModule
  3
AdGrefServices
 90
        0
 91
        2
280
     0
281
     0
  0
CLASS
  1
AMDTMAPISURFMOUDULE
  2
AmdtMApiSurfModule
  3
MApiSurfServices
 90
        0
 91
        2
280
     0
281
     0
  0
CLASS
  1
MAPIAMMOUDLE
  2
MApiAmModule
  3
MApiAmServices
 90
        0
 91
        1
280
     0
281
     0
  0
CLASS
  1
AMDTADMENUSTATE
  2
AmdtAdMenuState
  3
DesignerServices
 90
        0
 91
        1
280
     0
281
     0
  0
CLASS
  1
ADAPPL
  2
AcAdAppl
  3
DesignerServices
 90
        0
 91
        1
280
     0
281
     0
  0
CLASS
  1
DEPMGR
  2
AcAdDepMgr
  3
DesignerServices
 90
        0
 91
        1
280
     0
281
     0
  0
CLASS
  1
PARAMMGR
  2
AcAdParamMgr
  3
DesignerServices
 90
        0
 91
        1
280
     0
281
     0
  0
CLASS
  1
PARAMSCOPE
  2
AcAdParamScope
  3
DesignerServices
 90
        0
 91
        1
280
     0
281
     0
  0
CLASS
  1
NAMEDAPPL
  2
AcAdNamedAppl
  3
DesignerServices
 90
        0
 91
        1
280
     0
281
     0
  0
CLASS
  1
ADHNTMPLT
  2
AdHoleNoteTemplateMgr
  3
DesignerServices
 90
        0
 91
        0
280
     0
281
     0
  0
CLASS
  1
AM_HNTEMPLATE_MGR_NAME
  2
AdHoleNoteTemplateMgrName
  3
DesignerServices
 90
        0
 91
        0
280
     0
281
     0
  0
CLASS
  1
AMDTDMMENUSTATE
  2
AmdtDmMenuState
  3
AcMechDwgViewMgmt
 90
        0
 91
        1
280
     0
281
     0
  0
CLASS
  1
MAPIADMODULE
  2
MApiAdModule
  3
MApiAdServices
 90
        0
 91
        2
280
     0
281
     0
  0
CLASS
  1
AMDTAMMENUSTATE
  2
AmdtAmMenuState
  3
DesignerAssemblies
 90
        0
 91
        1
280
     0
281
     0
  0
CLASS
  1
ACAMPROJECT
  2
AcAmProject
  3
DesignerAssemblies
 90
        0
 91
        1
280
     0
281
     0
  0
CLASS
  1
ACAMGRCOMPDEF
  2
AcAmGrCompDef
  3
DesignerAssemblies
 90
        0
 91
        1
280
     0
281
     0
  0
CLASS
  1
ACCMCONTEXT
  2
AcCmContext
  3
DesignerAssemblies
 90
        0
 91
        1
280
     0
281
     0
  0
CLASS
  1
ACAMCOMPDEF
  2
AcAmCompDef
  3
DesignerAssemblies
 90
        0
 91
        1
280
     0
281
     0
  0
CLASS
  1
ACAMCOMPDEFMGR
  2
AcAmCompDefMgr
  3
DesignerAssemblies
 90
        0
 91
        1
280
     0
281
     0
  0
CLASS
  1
AMCONTEXTMGR
  2
AcAmContextMgr
  3
DesignerAssemblies
 90
        0
 91
        1
280
     0
281
     0
  0
CLASS
  1
ACAMCONTEXTMODELER
  2
AcAmContextModeler
  3
DesignerAssemblies
 90
        0
 91
        1
280
     0
281
     0
  0
CLASS
  1
CATALOGSTATE
  2
AcAmCatalogState
  3
DesignerAssemblies
 90
        0
 91
        1
280
     0
281
     0
  0
CLASS
  1
ACAMGRCOMPDEFSET
  2
AcAmGrCompDefSet
  3
DesignerAssemblies
 90
        0
 91
        1
280
     0
281
     0
  0
CLASS
  1
AMDTBROWSERDBTAB
  2
AmdtBrowserDbTab
  3
McadcomServices
 90
        0
 91
        1
280
     0
281
     0
  0
CLASS
  1
CBROWSERAPPOBJECT
  2
CBrowserAppObject
  3
McadcomServices
 90
        0
 91
        3
280
     0
281
     0
  0
CLASS
  1
DM_PLACEHOLDER
  2
AcDmSelsetPlaceholder
  3
AcMechDwgViewMgmt
 90
        0
 91
        1
280
     0
281
     0
  0
CLASS
  1
ACMPICKOBJ
  2
AcmPickEnt
  3
"AcmSymBB|Product Description: AutoCAD Mechanical|Company: Autodesk"
 90
        0
 91
        0
280
     0
281
     1
  0
CLASS
  1
ACMNOTESTANDARDISO
  2
AmdtNoteStdISO
  3
"Amdt_StdImp|Product Description: AutoCAD Mechanical|Company: Autodesk"
 90
        0
 91
        1
280
     0
281
     0
  0
CLASS
  1
ACMNOTESTANDARDANSI
  2
AmdtNoteStdANSI
  3
"Amdt_StdImp|Product Description: AutoCAD Mechanical|Company: Autodesk"
 90
        0
 91
        1
280
     0
281
     0
  0
CLASS
  1
ACMTHREADLINESTANDARDISO
  2
AmdtThreadLineStdISO
  3
"Amdt_StdImp|Product Description: AutoCAD Mechanical|Company: Autodesk"
 90
        0
 91
        1
280
     0
281
     0
  0
CLASS
  1
ACMTHREADLINESTANDARDANSI
  2
AmdtThreadLineStdANSI
  3
"Amdt_StdImp|Product Description: AutoCAD Mechanical|Company: Autodesk"
 90
        0
 91
        1
280
     0
281
     0
  0
CLASS
  1
TABLESTYLE
  2
AcDbTableStyle
  3
ObjectDBX Classes
 90
     4095
 91
        1
280
     0
281
     0
  0
CLASS
  1
SORTENTSTABLE
  2
AcDbSortentsTable
  3
ObjectDBX Classes
 90
        0
 91
        1
280
     0
281
     0
  0
CLASS
  1
MATERIAL
  2
AcDbMaterial
  3
ObjectDBX Classes
 90
     1024
 91
        3
280
     0
281
     0
  0
CLASS
  1
VISUALSTYLE
  2
AcDbVisualStyle
  3
ObjectDBX Classes
 90
     4095
 91
       16
280
     0
281
     0
  0
CLASS
  1
ACRFATTGENMGR
  2
AcRfAttGeneralMgr
  3
AcAttribServices
 90
        0
 91
        1
280
     0
281
     0
  0
CLASS
  1
ACRFOBJATTMGR
  2
AcRfObjAttGroupMgr
  3
AcAttribServices
 90
        0
 91
        1
280
     0
281
     0
  0
CLASS
  1
ACRFMCADAPIATTHOLDER
  2
AcRfMCADAPIAttHolder
  3
AcAttribServices
 90
        0
 91
        1
280
     0
281
     0
  0
CLASS
  1
AMDTSYSATTR
  2
AmdtSystemAttribute
  3
AcAttribServices
 90
        0
 91
        1
280
     0
281
     0
  0
CLASS
  1
ACMTAPERSTANDARDISO
  2
AcmTaperStdISO
  3
"Amdt_StdImp|Product Description: AutoCAD Mechanical|Company: Autodesk"
 90
        0
 91
        1
280
     0
281
     0
  0
CLASS
  1
CAMSSTRUCTBTNSTATE
  2
StructBtnState
  3
L"DesignerAssemblies"
 90
        0
 91
        1
280
     0
281
     0
  0
CLASS
  1
DIMASSOC
  2
AcDbDimAssoc
  3
"AcDbDimAssoc|Product Desc:     AcDim ARX App For Dimension|Company:          Autodesk, Inc.|WEB Address:      www.autodesk.com"
 90
        0
 91
        0
280
     0
281
     0
  0
CLASS
  1
AMDTNOTETEMPLATEDB
  2
AmdtNoteTemplateDB
  3
AMDT_STDIMP_MODULE_NAME
 90
        0
 91
        6
280
     0
281
     0
  0
CLASS
  1
ACMTAPERSTANDARDANSI
  2
AcmTaperStdANSI
  3
"Amdt_StdImp|Product Description: AutoCAD Mechanical|Company: Autodesk"
 90
        0
 91
        1
280
     0
281
     0
  0
CLASS
  1
ACAMGHOLECHARTSTDANSI
  2
AcAmgHoleChartStdANSI
  3
ACMSYMBB_MODULE_NAME
 90
        0
 91
        1
280
     0
281
     0
  0
ENDSEC
  0
SECTION
  2
TABLES
  0
TABLE
  2
VPORT
  5
8
330
0
100
AcDbSymbolTable
 70
     1
  0
VPORT
  5
B0EC
330
8
100
AcDbSymbolTableRecord
100
AcDbViewportTableRecord
  2
*Active
 70
     0
 10
0.0
 20
0.0
 11
1.0
 21
1.0
 12
3710.076042866256
 22
3050.394152800192
 13
0.0
 23
0.0
 14
2.5
 24
2.5
 15
10.0
 25
10.0
 16
0.0
 26
0.0
 36
1.0
 17
0.0
 27
0.0
 37
0.0
 40
28.99854681937132
 41
2.919431279620853
 42
50.0
 43
-1370.695619172058
 44
-1370.695619172058
 50
0.0
 51
0.0
 71
    16
 72
   100
 73
     1
 74
     3
 75
     0
 76
     0
 77
     0
 78
     0
281
     0
 65
     0
110
0.0
120
0.0
130
0.0
111
1.0
121
0.0
131
0.0
112
0.0
122
1.0
132
0.0
 79
     0
146
0.0
  0
ENDTAB
  0
TABLE
  2
LTYPE
  5
5
330
0
100
AcDbSymbolTable
 70
    32
  0
LTYPE
  5
14
330
5
100
AcDbSymbolTableRecord
100
AcDbLinetypeTableRecord
  2
ByBlock
 70
     0
  3

 72
    65
 73
     0
 40
0.0
  0
LTYPE
  5
15
330
5
100
AcDbSymbolTableRecord
100
AcDbLinetypeTableRecord
  2
ByLayer
 70
     0
  3

 72
    65
 73
     0
 40
0.0
  0
LTYPE
  5
16
330
5
100
AcDbSymbolTableRecord
100
AcDbLinetypeTableRecord
  2
Continuous
 70
     0
  3
Solid line
 72
    65
 73
     0
 40
0.0
  0
LTYPE
  5
4F
330
5
100
AcDbSymbolTableRecord
100
AcDbLinetypeTableRecord
  2
AM_ISO02W050
 70
     0
  3
__ __ __ __ __ __ __ __ __ __ __ __ __ __ __
 72
    65
 73
     2
 40
7.5
 49
6.0
 74
     0
 49
-1.5
 74
     0
  0
LTYPE
  5
52
330
5
100
AcDbSymbolTableRecord
100
AcDbLinetypeTableRecord
  2
Amconstr
 70
     0
  3
_______________________
 72
    65
 73
     2
 40
9999.0
 49
9999.0
 74
     0
 49
0.0
 74
     0
  0
LTYPE
  5
64
330
5
100
AcDbSymbolTableRecord
100
AcDbLinetypeTableRecord
  2
ACISOWELD
 70
     0
  3
_ _ _ _ _
 72
    65
 73
     2
 40
2.0
 49
2.0
 74
     0
 49
-1.0
 74
     0
  0
LTYPE
  5
65
330
5
100
AcDbSymbolTableRecord
100
AcDbLinetypeTableRecord
  2
ACISOTGB
 70
     0
  3
__ . . __ . .
 72
    65
 73
     6
 40
9.0
 49
4.0
 74
     0
 49
-1.0
 74
     0
 49
1.0
 74
     0
 49
-1.0
 74
     0
 49
1.0
 74
     0
 49
-1.0
 74
     0
  0
LTYPE
  5
66
330
5
100
AcDbSymbolTableRecord
100
AcDbLinetypeTableRecord
  2
ACISOTGL
 70
     0
  3
_ _ _ _ _
 72
    65
 73
     2
 40
3.0
 49
2.0
 74
     0
 49
-1.0
 74
     0
  0
LTYPE
  5
69
330
5
100
AcDbSymbolTableRecord
100
AcDbLinetypeTableRecord
  2
CENTER
 70
     0
  3
__ . __
 72
    65
 73
     4
 40
7.0
 49
4.0
 74
     0
 49
-1.0
 74
     0
 49
1.0
 74
     0
 49
-1.0
 74
     0
  0
LTYPE
  5
A6E
330
5
100
AcDbSymbolTableRecord
100
AcDbLinetypeTableRecord
  2
PHANTOM2
 70
     0
  3
Phantom (.5x) ___ _ _ ___ _ _ ___ _ _ ___ _ _
 72
    65
 73
     6
 40
31.75
 49
15.875
 74
     0
 49
-3.174999999999999
 74
     0
 49
3.174999999999999
 74
     0
 49
-3.174999999999999
 74
     0
 49
3.174999999999999
 74
     0
 49
-3.174999999999999
 74
     0
  0
LTYPE
  5
4DED
330
5
100
AcDbSymbolTableRecord
100
AcDbLinetypeTableRecord
  2
中線
 70
     0
  3
___________________
 72
    65
 73
     2
 40
2.0
 49
1.0
 74
     0
 49
1.0
 74
     0
  0
LTYPE
  5
4DF6
330
5
100
AcDbSymbolTableRecord
100
AcDbLinetypeTableRecord
  2
細線
 70
     0
  3
___________________
 72
    65
 73
     2
 40
2.0
 49
1.0
 74
     0
 49
1.0
 74
     0
  0
LTYPE
  5
4DF7
330
5
100
AcDbSymbolTableRecord
100
AcDbLinetypeTableRecord
  2
太線
 70
     0
  3
___________________
 72
    65
 73
     2
 40
2.0
 49
1.0
 74
     0
 49
1.0
 74
     0
  0
LTYPE
  5
4EA7
330
5
100
AcDbSymbolTableRecord
100
AcDbLinetypeTableRecord
  2
文字
 70
     0
  3
_________________
 72
    65
 73
     2
 40
2.0
 49
1.0
 74
     0
 49
1.0
 74
     0
  0
LTYPE
  5
4EA9
330
5
100
AcDbSymbolTableRecord
100
AcDbLinetypeTableRecord
  2
寸法線
 70
     0
  3
________________
 72
    65
 73
     2
 40
2.0
 49
1.0
 74
     0
 49
1.0
 74
     0
  0
LTYPE
  5
4F12
330
5
100
AcDbSymbolTableRecord
100
AcDbLinetypeTableRecord
  2
ハッチング
 70
     0
  3
_________________
 72
    65
 73
     2
 40
2.0
 49
1.0
 74
     0
 49
1.0
 74
     0
  0
LTYPE
  5
5180
330
5
100
AcDbSymbolTableRecord
100
AcDbLinetypeTableRecord
  2
陰線1
 70
     0
  3
__ __ __ __
 72
    65
 73
     2
 40
4.0
 49
2.2
 74
     0
 49
-1.8
 74
     0
  0
LTYPE
  5
5182
330
5
100
AcDbSymbolTableRecord
100
AcDbLinetypeTableRecord
  2
切断線
 70
     0
  3
/\/-/\/-/\/-/\/-/\/-/\/
 72
    65
 73
     2
 40
11.0001
 49
0.0001
 74
     4
 75
   135
340
56
 46
0.04
 50
0.0
 44
0.0
 45
0.0
 49
-11.0
 74
     0
  0
LTYPE
  5
5183
330
5
100
AcDbSymbolTableRecord
100
AcDbLinetypeTableRecord
  2
想像線1
 70
     0
  3
__ __ __ _____ __ __ ____
 72
    65
 73
     6
 40
14.5
 49
6.0
 74
     0
 49
-1.5
 74
     0
 49
2.0
 74
     0
 49
-1.5
 74
     0
 49
2.0
 74
     0
 49
-1.5
 74
     0
  0
LTYPE
  5
5185
330
5
100
AcDbSymbolTableRecord
100
AcDbLinetypeTableRecord
  2
中心線1
 70
     0
  3
___ _ ___ _ ___
 72
    65
 73
     4
 40
18.0
 49
12.0
 74
     0
 49
-2.0
 74
     0
 49
2.0
 74
     0
 49
-2.0
 74
     0
  0
LTYPE
  5
5188
330
5
100
AcDbSymbolTableRecord
100
AcDbLinetypeTableRecord
  2
補助線
 70
     0
  3
______________
 72
    65
 73
     2
 40
2.0
 49
1.0
 74
     0
 49
1.0
 74
     0
  0
LTYPE
  5
6427
330
5
100
AcDbSymbolTableRecord
100
AcDbLinetypeTableRecord
  2
HIDDEN
 70
     0
  3
Hidden __ __ __ __ __ __ __ __ __ __ __ __ __ _
 72
    65
 73
     2
 40
0.375
 49
0.25
 74
     0
 49
-0.125
 74
     0
  0
LTYPE
  5
AC81
330
5
100
AcDbSymbolTableRecord
100
AcDbLinetypeTableRecord
  2
破断線
 70
     0
  3
/\/-/\/-/\/-/\/-/\/-/\/
 72
    65
 73
     2
 40
0.4401
 49
0.0001
 74
     4
 75
   136
340
AC80
 46
0.0016
 50
0.0
 44
0.0
 45
0.0
 49
-0.4400000000000001
 74
     0
  0
LTYPE
  5
AC9E
330
5
100
AcDbSymbolTableRecord
100
AcDbLinetypeTableRecord
  2
Amzigzag
 70
     0
  3
/\/-/\/-/\/-/\/-/\/-/\/
 72
    65
 73
     2
 40
11.0001
 49
0.0001
 74
     4
 75
   135
340
56
 46
0.04
 50
0.0
 44
0.0
 45
0.0
 49
-11.0
 74
     0
  0
LTYPE
  5
AF0F
330
5
100
AcDbSymbolTableRecord
100
AcDbLinetypeTableRecord
  2
genzigzag
 70
     0
  3
/\/-/\/-/\/-/\/-/\/-/\/
 72
    65
 73
     2
 40
12.0001
 49
0.0001
 74
     4
 75
   135
340
AC80
 46
2.0
 50
0.0
 44
0.0
 45
0.0
 49
-12.0
 74
     0
  0
LTYPE
  5
AF95
330
5
100
AcDbSymbolTableRecord
100
AcDbLinetypeTableRecord
  2
AM_ISO08W050
 70
     0
  3
____ . ____ . ____ . ____ . ____ . ____ . ____
 72
    65
 73
     4
 40
18.0
 49
12.0
 74
     0
 49
-1.5
 74
     0
 49
3.0
 74
     0
 49
-1.5
 74
     0
  0
LTYPE
  5
AF96
330
5
100
AcDbSymbolTableRecord
100
AcDbLinetypeTableRecord
  2
AM_ISO09W050
 70
     0
  3
_____ . . _____ . . _____ . . ____ .. ____
 72
    65
 73
     6
 40
22.5
 49
12.0
 74
     0
 49
-1.5
 74
     0
 49
3.0
 74
     0
 49
-1.5
 74
     0
 49
3.0
 74
     0
 49
-1.5
 74
     0
  0
LTYPE
  5
AF97
330
5
100
AcDbSymbolTableRecord
100
AcDbLinetypeTableRecord
  2
AM_ISO08W050x2
 70
     0
  3
__ . __ . __ . __ . __ . __
 72
    65
 73
     4
 40
9.0
 49
6.0
 74
     0
 49
-0.75
 74
     0
 49
1.5
 74
     0
 49
-0.75
 74
     0
  0
LTYPE
  5
AF98
330
5
100
AcDbSymbolTableRecord
100
AcDbLinetypeTableRecord
  2
AM_ISO02W050x2
 70
     0
  3
 _ _ _ _ _ _ _ _ _ _ _ _
 72
    65
 73
     2
 40
3.75
 49
3.0
 74
     0
 49
-0.75
 74
     0
  0
LTYPE
  5
B494
330
5
100
AcDbSymbolTableRecord
100
AcDbLinetypeTableRecord
  2
CENTER2
 70
     0
  3
Center (.5x) ___ _ ___ _ ___ _ ___ _ ___ _ ___
 72
    65
 73
     4
 40
1.125
 49
0.75
 74
     0
 49
-0.125
 74
     0
 49
0.125
 74
     0
 49
-0.125
 74
     0
  0
LTYPE
  5
B495
330
5
100
AcDbSymbolTableRecord
100
AcDbLinetypeTableRecord
  2
HIDDEN2
 70
     0
  3
Hidden (.5x) _ _ _ _ _ _ _ _ _ _ _ _ _ _ _ _ _
 72
    65
 73
     2
 40
0.1875
 49
0.125
 74
     0
 49
-0.0625
 74
     0
  0
LTYPE
  5
B496
330
5
100
AcDbSymbolTableRecord
100
AcDbLinetypeTableRecord
  2
Amzigzag2
 70
     0
  3
/\/-/\/-/\/-/\/-/\/-/\/
 72
    65
 73
     2
 40
0.4401
 49
0.0001
 74
     4
 75
   136
340
AC80
 46
0.0016
 50
0.0
 44
0.0
 45
0.0
 49
-0.4400000000000001
 74
     0
  0
LTYPE
  5
B497
330
5
100
AcDbSymbolTableRecord
100
AcDbLinetypeTableRecord
  2
ACANSTGB
 70
     0
  3
__ . . __ . .
 72
    65
 73
     6
 40
0.35433070866
 49
0.15748031496
 74
     0
 49
-0.03937007874
 74
     0
 49
0.03937007874
 74
     0
 49
-0.03937007874
 74
     0
 49
0.03937007874
 74
     0
 49
-0.03937007874
 74
     0
  0
LTYPE
  5
B498
330
5
100
AcDbSymbolTableRecord
100
AcDbLinetypeTableRecord
  2
ACANSTGL
 70
     0
  3
_ _ _ _ _
 72
    65
 73
     2
 40
0.11811023622
 49
0.07874015748
 74
     0
 49
-0.03937007874
 74
     0
  0
ENDTAB
  0
TABLE
  2
LAYER
  5
2
102
{ACAD_XDICTIONARY
360
3F95
102
}
330
0
100
AcDbSymbolTable
 70
    20
  0
LAYER
  5
10
330
2
100
AcDbSymbolTableRecord
100
AcDbLayerTableRecord
  2
0
 70
     0
 62
     7
  6
Continuous
370
    -3
390
F
  0
LAYER
  5
6D1
330
2
100
AcDbSymbolTableRecord
100
AcDbLayerTableRecord
  2
Defpoints
 70
     0
 62
     7
  6
Continuous
290
     0
370
    -3
390
F
  0
LAYER
  5
5F85
330
2
100
AcDbSymbolTableRecord
100
AcDbLayerTableRecord
  2
AM_0
 70
     0
 62
     7
  6
中線
370
    25
390
F
1001
AcAecLayerStandard
1000

1000

  0
LAYER
  5
AC9F
330
2
100
AcDbSymbolTableRecord
100
AcDbLayerTableRecord
  2
size
 70
     0
 62
     5
  6
Continuous
290
     0
370
    25
390
F
  0
LAYER
  5
ACA0
330
2
100
AcDbSymbolTableRecord
100
AcDbLayerTableRecord
  2
waku
 70
     0
 62
     7
  6
Continuous
370
    35
390
F
  0
LAYER
  5
ACA1
330
2
100
AcDbSymbolTableRecord
100
AcDbLayerTableRecord
  2
AM_6
 70
     0
 62
     2
  6
文字
370
    15
390
F
1001
AcAecLayerStandard
1000

1000

  0
LAYER
  5
ACC8
330
2
100
AcDbSymbolTableRecord
100
AcDbLayerTableRecord
  2
hyomoji
 70
     0
 62
     2
  6
Continuous
370
    15
390
F
  0
LAYER
  5
ACC9
330
2
100
AcDbSymbolTableRecord
100
AcDbLayerTableRecord
  2
hyosen1
 70
     0
 62
     1
  6
Continuous
370
    25
390
F
  0
LAYER
  5
ACCA
330
2
100
AcDbSymbolTableRecord
100
AcDbLayerTableRecord
  2
hyosen2
 70
     0
 62
     1
  6
Continuous
370
    15
390
F
  0
LAYER
  5
AD60
330
2
100
AcDbSymbolTableRecord
100
AcDbLayerTableRecord
  2
AM_1
 70
     0
 62
    30
  6
太線
370
    35
390
F
1001
AcAecLayerStandard
1000

1000

  0
LAYER
  5
AD64
330
2
100
AcDbSymbolTableRecord
100
AcDbLayerTableRecord
  2
AM_2
 70
     0
 62
     1
  6
細線
370
    15
390
F
1001
AcAecLayerStandard
1000

1000

  0
LAYER
  5
AD67
330
2
100
AcDbSymbolTableRecord
100
AcDbLayerTableRecord
  2
AM_3
 70
     0
 62
     6
  6
陰線1
370
    15
390
F
1001
AcAecLayerStandard
1000

1000

  0
LAYER
  5
AD68
330
2
100
AcDbSymbolTableRecord
100
AcDbLayerTableRecord
  2
AM_5
 70
     0
 62
     3
  6
寸法線
370
    15
390
F
1001
AcAecLayerStandard
1000

1000

  0
LAYER
  5
AD69
330
2
100
AcDbSymbolTableRecord
100
AcDbLayerTableRecord
  2
AM_7
 70
     0
 62
     4
  6
中心線1
370
    15
390
F
1001
AcAecLayerStandard
1000

1000

  0
LAYER
  5
AD6A
330
2
100
AcDbSymbolTableRecord
100
AcDbLayerTableRecord
  2
AM_8
 70
     0
 62
     1
  6
ハッチング
370
    15
390
F
1001
AcAecLayerStandard
1000

1000

  0
LAYER
  5
AD6E
330
2
100
AcDbSymbolTableRecord
100
AcDbLayerTableRecord
  2
AM_10
 70
     0
 62
     7
  6
切断線
370
    25
390
F
1001
AcAecLayerStandard
1000

1000

  0
LAYER
  5
AD6F
330
2
100
AcDbSymbolTableRecord
100
AcDbLayerTableRecord
  2
AM_11
 70
     0
 62
     2
  6
想像線1
370
    15
390
F
1001
AcAecLayerStandard
1000

1000

  0
LAYER
  5
B1B6
330
2
100
AcDbSymbolTableRecord
100
AcDbLayerTableRecord
  2
AM_CL
 70
     0
 62
     1
  6
Amconstr
370
    15
390
F
1001
AcAecLayerStandard
1000

1000

  0
LAYER
  5
B2EB
330
2
100
AcDbSymbolTableRecord
100
AcDbLayerTableRecord
  2
AM_14
 70
     0
 62
     5
  6
細線
370
     9
390
F
1001
AcAecLayerStandard
1000

1000

  0
LAYER
  5
B2EC
330
2
100
AcDbSymbolTableRecord
100
AcDbLayerTableRecord
  2
AM_15
 70
     0
 62
     6
  6
陰線1
370
     9
390
F
1001
AcAecLayerStandard
1000

1000

  0
ENDTAB
  0
TABLE
  2
STYLE
  5
3
330
0
100
AcDbSymbolTable
 70
     8
  0
STYLE
  5
11
330
3
100
AcDbSymbolTableRecord
100
AcDbTextStyleTableRecord
  2
STANDARD
 70
     0
 40
0.0
 41
0.7
 50
0.0
 71
     0
 42
3.2
  3
romans.shx
  4
extfont.shx
  0
STYLE
  5
56
330
3
100
AcDbSymbolTableRecord
100
AcDbTextStyleTableRecord
  2

 70
     1
 40
0.0
 41
1.0
 50
0.0
 71
     0
 42
2.5
  3
ltypeshp.shx
  4

  0
STYLE
  5
58
330
3
100
AcDbSymbolTableRecord
100
AcDbTextStyleTableRecord
  2
ACISOTS
 70
     0
 40
1.0
 41
1.0
 50
0.0
 71
     0
 42
2.5
  3
isocp.shx
  4
extfont.shx
  0
STYLE
  5
63
330
3
100
AcDbSymbolTableRecord
100
AcDbTextStyleTableRecord
  2
ACISOGDT
 70
     0
 40
0.0
 41
1.0
 50
0.0
 71
     0
 42
2.5
  3
amgdt.shx
  4

  0
STYLE
  5
A74
330
3
100
AcDbSymbolTableRecord
100
AcDbTextStyleTableRecord
  2
DIM
 70
     0
 40
0.0
 41
1.0
 50
0.0
 71
     0
 42
2.5
  3
monotxt.shx
  4
extfont.shx
  0
STYLE
  5
AC80
330
3
100
AcDbSymbolTableRecord
100
AcDbTextStyleTableRecord
  2

 70
     1
 40
0.0
 41
1.0
 50
0.0
 71
     0
 42
3.2
  3
genltshp.shx
  4

  0
STYLE
  5
B499
330
3
100
AcDbSymbolTableRecord
100
AcDbTextStyleTableRecord
  2
ACANSTS
 70
     0
 40
1.0
 41
1.0
 50
0.0
 71
     0
 42
3.2
  3
romans.shx
  4
extfont.shx
  0
STYLE
  5
B49A
330
3
100
AcDbSymbolTableRecord
100
AcDbTextStyleTableRecord
  2
ACANSGDT
 70
     0
 40
0.0
 41
1.0
 50
0.0
 71
     0
 42
3.2
  3
amgdt.shx
  4

  0
ENDTAB
  0
TABLE
  2
VIEW
  5
6
330
0
100
AcDbSymbolTable
 70
     6
  0
VIEW
  5
AE1
330
6
100
AcDbSymbolTableRecord
100
AcDbViewTableRecord
  2
AM_VIEW1
 70
     0
 40
129.7276464542651
 10
1775.10588156276
 20
1793.121228859297
 41
148.5
 11
0.0
 21
0.0
 31
1.0
 12
0.0
 22
0.0
 32
0.0
 42
50.0
 43
-1370.695619172058
 44
-1370.695619172058
 50
0.0
 71
    16
281
     0
 72
     0
  0
VIEW
  5
AE2
330
6
100
AcDbSymbolTableRecord
100
AcDbViewTableRecord
  2
AM_VIEW2
 70
     0
 40
129.7276464542651
 10
1923.60588156276
 20
1793.121228859297
 41
148.5
 11
0.0
 21
0.0
 31
1.0
 12
0.0
 22
0.0
 32
0.0
 42
50.0
 43
-1370.695619172058
 44
-1370.695619172058
 50
0.0
 71
    16
281
     0
 72
     0
  0
VIEW
  5
AE3
330
6
100
AcDbSymbolTableRecord
100
AcDbViewTableRecord
  2
AM_VIEW3
 70
     0
 40
129.7276464542651
 10
1775.10588156276
 20
1712.848875313562
 41
148.5
 11
0.0
 21
0.0
 31
1.0
 12
0.0
 22
0.0
 32
0.0
 42
50.0
 43
-1370.695619172058
 44
-1370.695619172058
 50
0.0
 71
    16
281
     0
 72
     0
  0
VIEW
  5
AE4
330
6
100
AcDbSymbolTableRecord
100
AcDbViewTableRecord
  2
AM_VIEW4
 70
     0
 40
129.7276464542651
 10
1923.60588156276
 20
1712.848875313562
 41
148.5
 11
0.0
 21
0.0
 31
1.0
 12
0.0
 22
0.0
 32
0.0
 42
50.0
 43
-1370.695619172058
 44
-1370.695619172058
 50
0.0
 71
    16
281
     0
 72
     0
  0
VIEW
  5
AE5
330
6
100
AcDbSymbolTableRecord
100
AcDbViewTableRecord
  2
AM_VIEW5
 70
     0
 40
129.7276464542651
 10
1849.35588156276
 20
1752.985052086429
 41
148.5
 11
0.0
 21
0.0
 31
1.0
 12
0.0
 22
0.0
 32
0.0
 42
50.0
 43
-1370.695619172058
 44
-1370.695619172058
 50
0.0
 71
    16
281
     0
 72
     0
  0
VIEW
  5
AE6
330
6
100
AcDbSymbolTableRecord
100
AcDbViewTableRecord
  2
AM_VIEW6
 70
     0
 40
259.4526983556011
 10
1849.35588156276
 20
1752.985052086429
 41
296.99703
 11
0.0
 21
0.0
 31
1.0
 12
0.0
 22
0.0
 32
0.0
 42
50.0
 43
-1370.695619172058
 44
-1370.695619172058
 50
0.0
 71
    16
281
     0
 72
     0
  0
ENDTAB
  0
TABLE
  2
UCS
  5
7
330
0
100
AcDbSymbolTable
 70
     0
  0
ENDTAB
  0
TABLE
  2
APPID
  5
9
330
0
100
AcDbSymbolTable
 70
    55
  0
APPID
  5
12
330
9
100
AcDbSymbolTableRecord
100
AcDbRegAppTableRecord
  2
ACAD
 70
     0
  0
APPID
  5
30
330
9
100
AcDbSymbolTableRecord
100
AcDbRegAppTableRecord
  2
MCAD_NO_VIS
 70
     0
  0
APPID
  5
31
330
9
100
AcDbSymbolTableRecord
100
AcDbRegAppTableRecord
  2
ACAD_TEMP_GRAPHIC
 70
     0
  0
APPID
  5
44
330
9
100
AcDbSymbolTableRecord
100
AcDbRegAppTableRecord
  2
ACATTRIBSERVICES
 70
     0
  0
APPID
  5
7A1
330
9
100
AcDbSymbolTableRecord
100
AcDbRegAppTableRecord
  2
GENIUS_GENDIMSH_14
 70
     0
  0
APPID
  5
A49
330
9
100
AcDbSymbolTableRecord
100
AcDbRegAppTableRecord
  2
GENIUS_GENREC_14
 70
     0
  0
APPID
  5
A4A
330
9
100
AcDbSymbolTableRecord
100
AcDbRegAppTableRecord
  2
GENIUS_GENOBJ-N-REC_13
 70
     0
  0
APPID
  5
A4B
330
9
100
AcDbSymbolTableRecord
100
AcDbRegAppTableRecord
  2
GENIUS_GENODEF_13
 70
     0
  0
APPID
  5
A4C
330
9
100
AcDbSymbolTableRecord
100
AcDbRegAppTableRecord
  2
DCO15
 70
     0
  0
APPID
  5
ADC
330
9
100
AcDbSymbolTableRecord
100
AcDbRegAppTableRecord
  2
GENIUS_GENOLIS_13
 70
     0
  0
APPID
  5
ADD
330
9
100
AcDbSymbolTableRecord
100
AcDbRegAppTableRecord
  2
GENIUS_GENOENT_13
 70
     0
  0
APPID
  5
ADE
330
9
100
AcDbSymbolTableRecord
100
AcDbRegAppTableRecord
  2
GENIUS_GENOBJ-N-TIT_13
 70
     0
  0
APPID
  5
ADF
330
9
100
AcDbSymbolTableRecord
100
AcDbRegAppTableRecord
  2
GENIUS_GENTITLE_13
 70
     0
  0
APPID
  5
AE0
330
9
100
AcDbSymbolTableRecord
100
AcDbRegAppTableRecord
  2
GENIUS_GENOREF_13
 70
     0
  0
APPID
  5
AE7
330
9
100
AcDbSymbolTableRecord
100
AcDbRegAppTableRecord
  2
GENIUS_GENSCREG_15
 70
     0
  0
APPID
  5
AE8
330
9
100
AcDbSymbolTableRecord
100
AcDbRegAppTableRecord
  2
GENIUS_GENOBJ-N-SDF_13
 70
     0
  0
APPID
  5
FAF
330
9
100
AcDbSymbolTableRecord
100
AcDbRegAppTableRecord
  2
GENIUS_GENBLLY_14
 70
     0
  0
APPID
  5
FB0
330
9
100
AcDbSymbolTableRecord
100
AcDbRegAppTableRecord
  2
GENIUS_GENTRA_14
 70
     0
  0
APPID
  5
1285
330
9
100
AcDbSymbolTableRecord
100
AcDbRegAppTableRecord
  2
GENIUS_GENDTOL_13
 70
     0
  0
APPID
  5
142D
330
9
100
AcDbSymbolTableRecord
100
AcDbRegAppTableRecord
  2
GENIUS_GENOBJ-N-CEN_13
 70
     0
  0
APPID
  5
1AB5
330
9
100
AcDbSymbolTableRecord
100
AcDbRegAppTableRecord
  2
GENIUS_GENOBJ-N-CRS_13
 70
     0
  0
APPID
  5
1B36
330
9
100
AcDbSymbolTableRecord
100
AcDbRegAppTableRecord
  2
GENIUS_GENOBJ-N-HTC_13
 70
     0
  0
APPID
  5
1B37
330
9
100
AcDbSymbolTableRecord
100
AcDbRegAppTableRecord
  2
GENIUS_GENHATCH_13
 70
     0
  0
APPID
  5
216D
330
9
100
AcDbSymbolTableRecord
100
AcDbRegAppTableRecord
  2
GENIUS_GENOBJ-N-FIL_13
 70
     0
  0
APPID
  5
2356
330
9
100
AcDbSymbolTableRecord
100
AcDbRegAppTableRecord
  2
GEVID990412420
 70
     0
  0
APPID
  5
2357
330
9
100
AcDbSymbolTableRecord
100
AcDbRegAppTableRecord
  2
GEVDC
 70
     0
  0
APPID
  5
2358
330
9
100
AcDbSymbolTableRecord
100
AcDbRegAppTableRecord
  2
GEVCON
 70
     0
  0
APPID
  5
235B
330
9
100
AcDbSymbolTableRecord
100
AcDbRegAppTableRecord
  2
GEVRADREF
 70
     0
  0
APPID
  5
2360
330
9
100
AcDbSymbolTableRecord
100
AcDbRegAppTableRecord
  2
GENIUS_GENBH_13
 70
     0
  0
APPID
  5
2362
330
9
100
AcDbSymbolTableRecord
100
AcDbRegAppTableRecord
  2
GENIUS_GENOBJ-NBEHI-BHF_13
 70
     0
  0
APPID
  5
2364
330
9
100
AcDbSymbolTableRecord
100
AcDbRegAppTableRecord
  2
GENIUS_GENOBJ-NBEHI-BHB_13
 70
     0
  0
APPID
  5
2379
330
9
100
AcDbSymbolTableRecord
100
AcDbRegAppTableRecord
  2
GENIUS_GENOBJ-F-SCPASSM_13
 70
     0
  0
APPID
  5
3D74
330
9
100
AcDbSymbolTableRecord
100
AcDbRegAppTableRecord
  2
GENIUS_GENDIM_13
 70
     0
  0
APPID
  5
3D76
330
9
100
AcDbSymbolTableRecord
100
AcDbRegAppTableRecord
  2
GENIUS_GE3DTOL_13
 70
     0
  0
APPID
  5
3D9C
330
9
100
AcDbSymbolTableRecord
100
AcDbRegAppTableRecord
  2
AD_DRAW
 70
     0
  0
APPID
  5
3DE8
330
9
100
AcDbSymbolTableRecord
100
AcDbRegAppTableRecord
  2
ASURF_PCURVE_APPNAME
 70
     0
  0
APPID
  5
3DED
330
9
100
AcDbSymbolTableRecord
100
AcDbRegAppTableRecord
  2
AMG_3D2D_5.0
 70
     0
  0
APPID
  5
3E1B
330
9
100
AcDbSymbolTableRecord
100
AcDbRegAppTableRecord
  2
DESIGNERASSEMBLIES
 70
     0
  0
APPID
  5
3E20
330
9
100
AcDbSymbolTableRecord
100
AcDbRegAppTableRecord
  2
ACADM_DIM_EDIT
 70
     0
  0
APPID
  5
3E21
330
9
100
AcDbSymbolTableRecord
100
AcDbRegAppTableRecord
  2
AMDT_DM_ADJ
 70
     0
  0
APPID
  5
4143
330
9
100
AcDbSymbolTableRecord
100
AcDbRegAppTableRecord
  2
GENIUS_GENFIL_13
 70
     0
  0
APPID
  5
4144
330
9
100
AcDbSymbolTableRecord
100
AcDbRegAppTableRecord
  2
GENIUS_GENOBJ-N-CHA_13
 70
     0
  0
APPID
  5
4E17
330
9
100
AcDbSymbolTableRecord
100
AcDbRegAppTableRecord
  2
GEVID1008153417
 70
     0
  0
APPID
  5
4E58
330
9
100
AcDbSymbolTableRecord
100
AcDbRegAppTableRecord
  2
GEVID1008153418
 70
     0
  0
APPID
  5
4E5E
330
9
100
AcDbSymbolTableRecord
100
AcDbRegAppTableRecord
  2
GEVID1008153419
 70
     0
  0
APPID
  5
4E64
330
9
100
AcDbSymbolTableRecord
100
AcDbRegAppTableRecord
  2
GEVID1008153420
 70
     0
  0
APPID
  5
4E75
330
9
100
AcDbSymbolTableRecord
100
AcDbRegAppTableRecord
  2
GEVID1008153421
 70
     0
  0
APPID
  5
4EB7
330
9
100
AcDbSymbolTableRecord
100
AcDbRegAppTableRecord
  2
GENIUS_AMGTXT_16
 70
     0
  0
APPID
  5
7645
330
9
100
AcDbSymbolTableRecord
100
AcDbRegAppTableRecord
  2
GENIUS_GENOBJ-N-DIM_13
 70
     0
  0
APPID
  5
AAD0
330
9
100
AcDbSymbolTableRecord
100
AcDbRegAppTableRecord
  2
ACAD_DSTYLE_DIMARC_LENGTH_SYMBOL
 70
     0
  0
APPID
  5
AAD1
330
9
100
AcDbSymbolTableRecord
100
AcDbRegAppTableRecord
  2
ACAD_DSTYLE_DIMJOGGED_JOGANGLE_SYMBOL
 70
     0
  0
APPID
  5
AAFD
330
9
100
AcDbSymbolTableRecord
100
AcDbRegAppTableRecord
  2
ACAD_PSEXT
 70
     0
  0
APPID
  5
AD61
330
9
100
AcDbSymbolTableRecord
100
AcDbRegAppTableRecord
  2
AcAecLayerStandard
 70
     0
  0
APPID
  5
AEE3
330
9
100
AcDbSymbolTableRecord
100
AcDbRegAppTableRecord
  2
ACAD_EXEMPT_FROM_CAD_STANDARDS
 70
     0
  0
APPID
  5
B1BE
330
9
100
AcDbSymbolTableRecord
100
AcDbRegAppTableRecord
  2
GENIUS_GENCEN_19
 70
     0
  0
ENDTAB
  0
TABLE
  2
DIMSTYLE
  5
A
330
0
100
AcDbSymbolTable
 70
    24
100
AcDbDimStyleTable
 71
     1
340
2515
  0
DIMSTYLE
105
A76
330
A
100
AcDbSymbolTableRecord
100
AcDbDimStyleTableRecord
  2
STANDARD
 70
     0
 41
3.0
 42
1.0
 43
7.0
 44
2.0
 73
     0
 74
     0
 77
     1
140
2.799999999999999
141
0.0
143
0.0394
147
0.7
171
     4
172
     1
173
     1
176
     3
177
     3
178
     2
271
     3
272
     3
273
     8
274
     4
289
     0
340
A74
341
A66
343
A66
344
A66
  0
DIMSTYLE
105
2515
330
A
100
AcDbSymbolTableRecord
100
AcDbDimStyleTableRecord
  2
SYS
 70
     0
  4
"
 41
1.0
 42
1.0
 43
10.0
 44
1.0
 47
0.1
 48
0.1
 73
     0
 74
     0
 77
     1
 78
     8
 79
     2
140
3.5
141
0.0
143
0.0393701
146
0.71
147
1.5
172
     1
176
   256
177
   256
178
     7
271
     2
272
     2
283
     0
284
     8
340
11
371
    -1
372
    -1
1001
ACAD_DSTYLE_DIMJOGGED_JOGANGLE_SYMBOL
1070
   384
1040
0.7853981633974483
1001
ACAD_DSTYLE_DIMARC_LENGTH_SYMBOL
1070
   379
1070
     1
  0
DIMSTYLE
105
2516
102
{ACAD_REACTORS
330
B774
330
BA08
102
}
330
A
100
AcDbSymbolTableRecord
100
AcDbDimStyleTableRecord
  2
SYS$3
 70
     0
  4
"
 41
2.0
 42
1.0
 43
10.0
 44
1.0
 47
0.1
 48
0.1
 73
     0
 77
     1
 78
     8
 79
     2
140
3.5
141
0.0
143
0.0393701
146
0.71
147
1.5
176
   256
177
   256
178
     2
271
     2
272
     2
283
     0
284
     8
288
     1
340
11
342
A66
371
    -1
372
    -1
1001
ACAD_DSTYLE_DIMJOGGED_JOGANGLE_SYMBOL
1070
   384
1040
0.7853981633974483
1001
ACAD_DSTYLE_DIMARC_LENGTH_SYMBOL
1070
   379
1070
     1
  0
DIMSTYLE
105
2517
330
A
100
AcDbSymbolTableRecord
100
AcDbDimStyleTableRecord
  2
SYS$4
 70
     0
  4
"
 41
2.0
 42
1.0
 43
10.0
 44
1.0
 47
0.1
 48
0.1
 73
     0
 77
     1
 78
     8
 79
     2
140
3.5
141
0.0
143
0.0393701
146
0.71
147
1.5
173
     1
176
   256
177
   256
178
     2
271
     2
272
     2
283
     0
284
     8
288
     1
340
11
344
A66
371
    -1
372
    -1
1001
ACAD_DSTYLE_DIMJOGGED_JOGANGLE_SYMBOL
1070
   384
1040
0.7853981633974483
1001
ACAD_DSTYLE_DIMARC_LENGTH_SYMBOL
1070
   379
1070
     1
  0
DIMSTYLE
105
2518
330
A
100
AcDbSymbolTableRecord
100
AcDbDimStyleTableRecord
  2
SYS$6
 70
     0
  4
"
 41
2.0
 42
1.0
 43
10.0
 44
1.0
 47
0.1
 48
0.1
 73
     0
 74
     0
 78
     8
 79
     2
140
3.5
141
0.0
143
0.0393701
146
0.71
147
1.5
172
     1
176
   256
177
   256
178
     2
271
     2
272
     2
283
     0
284
     8
340
11
341
A66
371
    -1
372
    -1
1001
ACAD_DSTYLE_DIMJOGGED_JOGANGLE_SYMBOL
1070
   384
1040
0.7853981633974483
1001
ACAD_DSTYLE_DIMARC_LENGTH_SYMBOL
1070
   379
1070
     1
  0
DIMSTYLE
105
2519
330
A
100
AcDbSymbolTableRecord
100
AcDbDimStyleTableRecord
  2
SYS$7
 70
     0
  4
"
 41
2.0
 42
1.0
 43
10.0
 44
1.0
 47
0.1
 48
0.1
 73
     0
 74
     0
 77
     1
 78
     8
 79
     2
140
5.0
141
0.0
143
0.0393701
146
0.71
147
1.5
172
     1
176
   256
177
   256
178
     2
271
     2
272
     2
283
     0
284
     8
340
11
341
A66
342
A66
371
    -1
372
    -1
1001
ACAD_DSTYLE_DIMJOGGED_JOGANGLE_SYMBOL
1070
   384
1040
0.7853981633974483
1001
ACAD_DSTYLE_DIMARC_LENGTH_SYMBOL
1070
   379
1070
     1
  0
DIMSTYLE
105
251A
330
A
100
AcDbSymbolTableRecord
100
AcDbDimStyleTableRecord
  2
SYS$SF
 70
     0
  4
"
 41
2.5
 42
1.0
 43
10.0
 44
1.0
 47
0.1
 48
0.1
 73
     0
 74
     0
 75
     1
 76
     1
 77
     1
 78
     8
 79
     2
140
3.5
141
0.0
143
0.0393701
146
0.71
147
1.5
172
     1
176
   256
177
   256
178
     2
271
     2
272
     3
283
     0
284
     8
340
11
341
6C4
342
6C4
371
    -1
372
    -1
1001
ACAD_DSTYLE_DIMJOGGED_JOGANGLE_SYMBOL
1070
   384
1040
0.7853981633974483
1001
ACAD_DSTYLE_DIMARC_LENGTH_SYMBOL
1070
   379
1070
     1
  0
DIMSTYLE
105
251B
330
A
100
AcDbSymbolTableRecord
100
AcDbDimStyleTableRecord
  2
SYS$SH
 70
     0
  4
"
 41
2.5
 42
1.0
 43
10.0
 44
1.0
 47
0.1
 48
0.1
 73
     0
 74
     0
 75
     1
 76
     1
 77
     1
 78
     8
 79
     2
140
3.5
141
0.0
143
0.0393701
144
2.0
146
0.71
147
1.5
172
     1
173
     1
176
   256
177
   256
178
     2
271
     2
272
     3
283
     0
284
     8
340
11
341
6C4
343
72
344
6C4
371
    -1
372
    -1
1001
ACAD_DSTYLE_DIMJOGGED_JOGANGLE_SYMBOL
1070
   384
1040
0.7853981633974483
1001
ACAD_DSTYLE_DIMARC_LENGTH_SYMBOL
1070
   379
1070
     1
  0
DIMSTYLE
105
2A59
330
A
100
AcDbSymbolTableRecord
100
AcDbDimStyleTableRecord
  2
SYS$2
 70
     0
  4
"
 41
1.0
 42
1.0
 43
10.0
 44
1.0
 47
0.1
 48
0.1
 73
     0
 74
     0
 77
     1
 78
     8
 79
     2
140
3.5
141
0.0
143
0.0393701
146
0.71
147
1.5
172
     1
176
   256
177
   256
178
     2
271
     2
272
     2
283
     0
284
     8
340
11
342
6C4
371
    -1
372
    -1
1001
ACAD_DSTYLE_DIMJOGGED_JOGANGLE_SYMBOL
1070
   384
1040
0.7853981633974483
1001
ACAD_DSTYLE_DIMARC_LENGTH_SYMBOL
1070
   379
1070
     1
  0
DIMSTYLE
105
2AAB
102
{ACAD_REACTORS
330
B74C
330
B7A0
330
B7B6
330
B7CC
330
B80E
330
B824
330
B83A
330
B866
330
B8BE
330
B8D4
330
B8EA
330
B916
330
B92C
330
BA88
330
BAA7
330
BAC1
330
BB16
102
}
330
A
100
AcDbSymbolTableRecord
100
AcDbDimStyleTableRecord
  2
SYS$0
 70
     0
  4
"
 41
1.0
 42
1.0
 43
10.0
 44
1.0
 47
0.1
 48
0.1
 73
     0
 74
     0
 77
     1
 78
     8
 79
     2
140
3.200000000000001
141
0.0
143
0.0393701
146
0.71
147
1.5
172
     1
176
   256
177
   256
178
     2
271
     2
272
     2
283
     0
284
     8
340
11
341
A66
342
6C4
371
    -1
372
    -1
1001
ACAD_DSTYLE_DIMJOGGED_JOGANGLE_SYMBOL
1070
   384
1040
0.7853981633974483
1001
ACAD_DSTYLE_DIMARC_LENGTH_SYMBOL
1070
   379
1070
     1
  0
DIMSTYLE
105
AF99
330
A
100
AcDbSymbolTableRecord
100
AcDbDimStyleTableRecord
  2
AM_ISO
 70
     0
  4
"
 41
2.5
 42
1.0
 43
10.0
 44
1.0
 47
0.1
 48
0.1
 73
     0
 74
     0
 77
     1
 78
     8
 79
     2
140
3.5
141
0.0
143
0.0393701
146
0.71
147
1.5
172
     1
176
   256
177
   256
178
     2
271
     2
272
     3
274
     4
283
     0
284
     8
340
11
371
    -1
372
    -1
  0
DIMSTYLE
105
AF9A
330
A
100
AcDbSymbolTableRecord
100
AcDbDimStyleTableRecord
  2
AM_ISO$3
 70
     0
  4
"
 41
2.5
 42
1.0
 43
10.0
 44
1.0
 47
0.1
 48
0.1
 73
     0
 77
     1
 78
     8
 79
     2
140
3.5
141
0.0
143
0.0393701
146
0.71
147
1.5
176
   256
177
   256
178
     2
271
     2
272
     3
274
     4
283
     0
284
     8
288
     1
289
     0
340
11
371
    -1
372
    -1
  0
DIMSTYLE
105
AF9B
330
A
100
AcDbSymbolTableRecord
100
AcDbDimStyleTableRecord
  2
AM_ISO$4
 70
     0
  4
"
 41
2.5
 42
1.0
 43
10.0
 44
1.0
 47
0.1
 48
0.1
 73
     0
 77
     1
 78
     8
 79
     2
140
3.5
141
0.0
143
0.0393701
146
0.71
147
1.5
176
   256
177
   256
178
     2
271
     2
272
     3
274
     4
283
     0
284
     8
288
     1
289
     0
340
11
371
    -1
372
    -1
  0
DIMSTYLE
105
AF9C
330
A
100
AcDbSymbolTableRecord
100
AcDbDimStyleTableRecord
  2
AM_ISO$6
 70
     0
  4
"
 41
2.5
 42
1.0
 43
10.0
 44
1.0
 47
0.1
 48
0.1
 73
     0
 74
     0
 78
     8
 79
     2
140
3.5
141
0.0
143
0.0393701
146
0.71
147
1.5
172
     1
176
   256
177
   256
178
     2
271
     2
272
     3
274
     4
283
     0
284
     8
340
11
371
    -1
372
    -1
  0
DIMSTYLE
105
AF9D
330
A
100
AcDbSymbolTableRecord
100
AcDbDimStyleTableRecord
  2
AM_ISO$7
 70
     0
  4
"
 41
2.5
 42
1.0
 43
10.0
 44
1.0
 47
0.1
 48
0.1
 73
     0
 74
     0
 77
     1
 78
     8
 79
     2
140
5.0
141
0.0
143
0.0393701
146
0.71
147
1.5
172
     1
176
   256
177
   256
178
     2
271
     2
272
     3
274
     4
283
     0
284
     8
340
11
371
    -1
372
    -1
  0
DIMSTYLE
105
AF9E
330
A
100
AcDbSymbolTableRecord
100
AcDbDimStyleTableRecord
  2
AM_ISO$SF
 70
     0
  4
"
 41
2.5
 42
1.0
 43
10.0
 44
1.0
 47
0.1
 48
0.1
 73
     0
 74
     0
 75
     1
 76
     1
 77
     1
 78
     8
 79
     2
140
3.5
141
0.0
143
0.0393701
146
0.71
147
1.5
172
     1
176
   256
177
   256
178
     2
271
     2
272
     3
274
     4
283
     0
284
     8
340
11
371
    -1
372
    -1
  0
DIMSTYLE
105
AF9F
330
A
100
AcDbSymbolTableRecord
100
AcDbDimStyleTableRecord
  2
AM_ISO$SH
 70
     0
  4
"
 41
2.5
 42
1.0
 43
10.0
 44
1.0
 47
0.1
 48
0.1
 73
     0
 74
     0
 75
     1
 76
     1
 77
     1
 78
     8
 79
     2
140
3.5
141
0.0
143
0.0393701
144
2.0
146
0.71
147
1.5
172
     1
173
     1
176
   256
177
   256
178
     2
271
     2
272
     3
274
     4
283
     0
284
     8
340
11
343
72
371
    -1
372
    -1
  0
DIMSTYLE
105
B49B
330
A
100
AcDbSymbolTableRecord
100
AcDbDimStyleTableRecord
  2
DIMSTYLE
 70
     0
 41
1.0
 42
2.54
 44
2.54
 73
     0
 74
     0
140
3.2
147
1.6
173
     1
279
     2
340
11
  0
DIMSTYLE
105
B49C
330
A
100
AcDbSymbolTableRecord
100
AcDbDimStyleTableRecord
  2
AM_ANSI
 70
     0
  4
mm
 41
0.1
 42
0.05
 43
0.5
 44
0.1
 47
0.1
 48
0.1
 78
     7
 79
     2
140
0.12
141
0.0
146
0.71
147
0.06
176
   256
177
   256
178
     2
274
     4
284
     7
340
11
371
    -1
372
    -1
1001
ACAD_DSTYLE_DIMARC_LENGTH_SYMBOL
1070
   379
1070
     1
  0
DIMSTYLE
105
B49D
330
A
100
AcDbSymbolTableRecord
100
AcDbDimStyleTableRecord
  2
AM_ANSI$3
 70
     0
  4
mm
 41
0.1
 42
0.05
 43
0.5
 44
0.1
 47
0.1
 48
0.1
 78
     7
 79
     2
140
0.12
141
0.0
146
0.71
147
0.06
176
   256
177
   256
178
     2
274
     4
284
     7
288
     1
289
     0
340
11
371
    -1
372
    -1
1001
ACAD_DSTYLE_DIMARC_LENGTH_SYMBOL
1070
   379
1070
     1
  0
DIMSTYLE
105
B49E
330
A
100
AcDbSymbolTableRecord
100
AcDbDimStyleTableRecord
  2
AM_ANSI$4
 70
     0
  4
mm
 41
0.1
 42
0.05
 43
0.5
 44
0.1
 47
0.1
 48
0.1
 78
     7
 79
     2
140
0.12
141
0.0
146
0.71
147
0.06
176
   256
177
   256
178
     2
274
     4
284
     7
288
     1
289
     0
340
11
371
    -1
372
    -1
1001
ACAD_DSTYLE_DIMARC_LENGTH_SYMBOL
1070
   379
1070
     1
  0
DIMSTYLE
105
B49F
330
A
100
AcDbSymbolTableRecord
100
AcDbDimStyleTableRecord
  2
AM_ANSI$7
 70
     0
  4
mm
 41
0.1
 42
0.05
 43
0.5
 44
0.1
 47
0.1
 48
0.1
 78
     7
 79
     2
140
0.24
141
0.0
146
0.71
147
0.06
176
   256
177
   256
178
     2
274
     4
284
     7
340
11
371
    -1
372
    -1
1001
ACAD_DSTYLE_DIMARC_LENGTH_SYMBOL
1070
   379
1070
     1
  0
DIMSTYLE
105
B4A0
330
A
100
AcDbSymbolTableRecord
100
AcDbDimStyleTableRecord
  2
AM_ANSI$SF
 70
     0
  4
mm
 41
0.1
 42
0.05
 43
0.5
 44
0.1
 47
0.1
 48
0.1
 75
     1
 76
     1
 78
     7
 79
     2
140
0.12
141
0.0
146
0.71
147
0.06
176
   256
177
   256
178
     2
274
     4
284
     7
340
11
371
    -1
372
    -1
1001
ACAD_DSTYLE_DIMARC_LENGTH_SYMBOL
1070
   379
1070
     1
  0
DIMSTYLE
105
B4A1
330
A
100
AcDbSymbolTableRecord
100
AcDbDimStyleTableRecord
  2
AM_ANSI$SH
 70
     0
  4
mm
 41
0.1
 42
0.05
 43
0.5
 44
0.1
 47
0.1
 48
0.1
 75
     1
 76
     1
 78
     7
 79
     2
140
0.12
141
0.0
146
0.71
147
0.06
173
     1
176
   256
177
   256
178
     2
274
     4
284
     7
340
11
343
72
371
    -1
372
    -1
1001
ACAD_DSTYLE_DIMARC_LENGTH_SYMBOL
1070
   379
1070
     1
  0
ENDTAB
  0
TABLE
  2
BLOCK_RECORD
  5
1
330
0
100
AcDbSymbolTable
 70
    24
  0
BLOCK_RECORD
  5
1F
102
{ACAD_XDICTIONARY
360
8A
102
}
330
1
100
AcDbSymbolTableRecord
100
AcDbBlockTableRecord
  2
*Model_Space
340
22
  0
BLOCK_RECORD
  5
1B
330
1
100
AcDbSymbolTableRecord
100
AcDbBlockTableRecord
  2
*Paper_Space
340
1E
  0
BLOCK_RECORD
  5
23
330
1
100
AcDbSymbolTableRecord
100
AcDbBlockTableRecord
  2
*Paper_Space0
340
26
  0
BLOCK_RECORD
  5
72
330
1
100
AcDbSymbolTableRecord
100
AcDbBlockTableRecord
  2
GENAXEH
340
0
  0
BLOCK_RECORD
  5
6C4
330
1
100
AcDbSymbolTableRecord
100
AcDbBlockTableRecord
  2
_Dot
340
0
102
{BLKREFS
331
B973
331
B974
331
B984
331
B985
331
B98D
331
B98E
331
B996
331
B997
331
B99F
331
B9A0
331
B9A8
331
B9A9
331
B9B1
331
B9B2
331
B9BA
331
B9BB
331
B9CC
331
B9CD
331
B9D5
331
B9D6
331
B9DE
331
B9DF
331
B9E7
331
B9E8
331
B9F0
331
B9F1
331
BA7B
331
BA7C
331
BA83
331
BA84
331
BAE5
331
BAE6
331
BAF7
331
BAF8
331
BB11
331
BB12
331
BB26
331
BB27
102
}
  0
BLOCK_RECORD
  5
A66
330
1
100
AcDbSymbolTableRecord
100
AcDbBlockTableRecord
  2
_OPEN30
340
0
  0
BLOCK_RECORD
  5
B74D
330
1
100
AcDbSymbolTableRecord
100
AcDbBlockTableRecord
  2
*D5
340
0
  0
BLOCK_RECORD
  5
B775
330
1
100
AcDbSymbolTableRecord
100
AcDbBlockTableRecord
  2
*D6
340
0
  0
BLOCK_RECORD
  5
B7A1
330
1
100
AcDbSymbolTableRecord
100
AcDbBlockTableRecord
  2
*D7
340
0
  0
BLOCK_RECORD
  5
B7B7
330
1
100
AcDbSymbolTableRecord
100
AcDbBlockTableRecord
  2
*D8
340
0
  0
BLOCK_RECORD
  5
B7CD
330
1
100
AcDbSymbolTableRecord
100
AcDbBlockTableRecord
  2
*D9
340
0
  0
BLOCK_RECORD
  5
B80F
330
1
100
AcDbSymbolTableRecord
100
AcDbBlockTableRecord
  2
*D10
340
0
  0
BLOCK_RECORD
  5
B825
330
1
100
AcDbSymbolTableRecord
100
AcDbBlockTableRecord
  2
*D11
340
0
  0
BLOCK_RECORD
  5
B83B
330
1
100
AcDbSymbolTableRecord
100
AcDbBlockTableRecord
  2
*D12
340
0
  0
BLOCK_RECORD
  5
B867
330
1
100
AcDbSymbolTableRecord
100
AcDbBlockTableRecord
  2
*D13
340
0
  0
BLOCK_RECORD
  5
B8BF
330
1
100
AcDbSymbolTableRecord
100
AcDbBlockTableRecord
  2
*D14
340
0
  0
BLOCK_RECORD
  5
B8D5
330
1
100
AcDbSymbolTableRecord
100
AcDbBlockTableRecord
  2
*D15
340
0
  0
BLOCK_RECORD
  5
B8EB
330
1
100
AcDbSymbolTableRecord
100
AcDbBlockTableRecord
  2
*D16
340
0
  0
BLOCK_RECORD
  5
B917
330
1
100
AcDbSymbolTableRecord
100
AcDbBlockTableRecord
  2
*D17
340
0
  0
BLOCK_RECORD
  5
B92D
330
1
100
AcDbSymbolTableRecord
100
AcDbBlockTableRecord
  2
*D18
340
0
  0
BLOCK_RECORD
  5
BA09
330
1
100
AcDbSymbolTableRecord
100
AcDbBlockTableRecord
  2
*D19
340
0
  0
BLOCK_RECORD
  5
BA89
330
1
100
AcDbSymbolTableRecord
100
AcDbBlockTableRecord
  2
*D20
340
0
  0
BLOCK_RECORD
  5
BAA8
330
1
100
AcDbSymbolTableRecord
100
AcDbBlockTableRecord
  2
*D21
340
0
  0
BLOCK_RECORD
  5
BAC2
330
1
100
AcDbSymbolTableRecord
100
AcDbBlockTableRecord
  2
*D22
340
0
  0
BLOCK_RECORD
  5
BB17
330
1
100
AcDbSymbolTableRecord
100
AcDbBlockTableRecord
  2
*D23
340
0
  0
ENDTAB
  0
ENDSEC
  0
SECTION
  2
BLOCKS
  0
BLOCK
  5
20
330
1F
100
AcDbEntity
  8
0
100
AcDbBlockBegin
  2
*Model_Space
 70
     0
 10
0.0
 20
0.0
 30
0.0
  3
*Model_Space
  1

  0
ENDBLK
  5
21
330
1F
100
AcDbEntity
  8
0
100
AcDbBlockEnd
  0
BLOCK
  5
1C
330
1B
100
AcDbEntity
 67
     1
  8
0
100
AcDbBlockBegin
  2
*Paper_Space
 70
     0
 10
0.0
 20
0.0
 30
0.0
  3
*Paper_Space
  1

  0
ENDBLK
  5
1D
330
1B
100
AcDbEntity
 67
     1
  8
0
100
AcDbBlockEnd
  0
BLOCK
  5
24
330
23
100
AcDbEntity
 67
     1
  8
0
100
AcDbBlockBegin
  2
*Paper_Space0
 70
     0
 10
0.0
 20
0.0
 30
0.0
  3
*Paper_Space0
  1

  0
ENDBLK
  5
25
330
23
100
AcDbEntity
 67
     1
  8
0
100
AcDbBlockEnd
  0
BLOCK
  5
74
330
72
100
AcDbEntity
  8
0
100
AcDbBlockBegin
  2
GENAXEH
 70
     0
 10
0.0
 20
0.0
 30
0.0
  3
GENAXEH
  1

  0
LINE
  5
73
330
72
100
AcDbEntity
  8
0
100
AcDbLine
 10
-1.0
 20
0.0
 30
0.0
 11
1.0
 21
0.0
 31
0.0
  0
ENDBLK
  5
75
330
72
100
AcDbEntity
  8
0
100
AcDbBlockEnd
  0
BLOCK
  5
6C7
330
6C4
100
AcDbEntity
  8
0
100
AcDbBlockBegin
  2
_Dot
 70
     0
 10
0.0
 20
0.0
 30
0.0
  3
_Dot
  1

  0
LWPOLYLINE
  5
6C5
330
6C4
100
AcDbEntity
  8
0
  6
ByBlock
 62
     0
100
AcDbPolyline
 90
        2
 70
     1
 43
0.5
 10
-0.25
 20
0.0
 42
1.0
 10
0.25
 20
0.0
 42
1.0
  0
LINE
  5
6C6
330
6C4
100
AcDbEntity
  8
0
  6
ByBlock
 62
     0
370
    -2
100
AcDbLine
 10
-0.5
 20
0.0
 30
0.0
 11
-1.0
 21
0.0
 31
0.0
  0
ENDBLK
  5
6C8
330
6C4
100
AcDbEntity
  8
0
100
AcDbBlockEnd
  0
BLOCK
  5
A6A
330
A66
100
AcDbEntity
  8
0
100
AcDbBlockBegin
  2
_OPEN30
 70
     0
 10
0.0
 20
0.0
 30
0.0
  3
_OPEN30
  1

  0
LINE
  5
A67
330
A66
100
AcDbEntity
  8
0
  6
ByBlock
 62
     0
100
AcDbLine
 10
-1.0
 20
0.26794919
 30
0.0
 11
0.0
 21
0.0
 31
0.0
  0
LINE
  5
A68
330
A66
100
AcDbEntity
  8
0
  6
ByBlock
 62
     0
100
AcDbLine
 10
0.0
 20
0.0
 30
0.0
 11
-1.0
 21
-0.26794919
 31
0.0
  0
LINE
  5
A69
330
A66
100
AcDbEntity
  8
0
  6
ByBlock
 62
     0
100
AcDbLine
 10
0.0
 20
0.0
 30
0.0
 11
-1.0
 21
0.0
 31
0.0
  0
ENDBLK
  5
A6B
330
A66
100
AcDbEntity
  8
0
100
AcDbBlockEnd
  0
BLOCK
  5
B759
330
B74D
100
AcDbEntity
  8
0
100
AcDbBlockBegin
  2
*D5
 70
     1
 10
0.0
 20
0.0
 30
0.0
  3
*D5
  1

  0
LINE
  5
B96E
330
B74D
100
AcDbEntity
  8
AM_5
100
AcDbLine
 10
3911.390132080175
 20
3084.167507428211
 30
0.0
 11
3923.390132080175
 21
3084.167507428211
 31
0.0
  0
LINE
  5
B96F
330
B74D
100
AcDbEntity
  8
AM_5
100
AcDbLine
 10
3911.390132080175
 20
3087.367497428211
 30
0.0
 11
3923.390132080175
 21
3087.367497428211
 31
0.0
  0
LINE
  5
B970
330
B74D
100
AcDbEntity
  8
AM_5
100
AcDbLine
 10
3922.390132080175
 20
3083.167507428211
 30
0.0
 11
3922.390132080175
 21
3082.167507428211
 31
0.0
  0
LINE
  5
B971
330
B74D
100
AcDbEntity
  8
AM_5
100
AcDbLine
 10
3922.390132080175
 20
3088.367497428211
 30
0.0
 11
3922.390132080175
 21
3097.060830761544
 31
0.0
  0
LINE
  5
B972
330
B74D
100
AcDbEntity
  8
AM_5
100
AcDbLine
 10
3922.390132080175
 20
3084.167507428211
 30
0.0
 11
3922.390132080175
 21
3087.367497428211
 31
0.0
  0
INSERT
  5
B973
330
B74D
100
AcDbEntity
  8
AM_5
100
AcDbBlockReference
  2
_Dot
 10
3922.390132080175
 20
3084.167507428211
 30
0.0
 50
90.0
  0
INSERT
  5
B974
330
B74D
100
AcDbEntity
  8
AM_5
100
AcDbBlockReference
  2
_Dot
 10
3922.390132080175
 20
3087.367497428211
 30
0.0
 50
270.0
  0
MTEXT
  5
B975
330
B74D
100
AcDbEntity
  8
AM_5
 62
     2
100
AcDbMText
 10
3919.290132080174
 20
3093.214164094879
 30
0.0
 40
3.200000000000001
 41
0.0
 71
     5
 72
     1
  1
3.2
 11
0.0000000000000001
 21
1.0
 31
0.0
 73
     1
 44
1.0
  0
POINT
  5
B976
330
B74D
100
AcDbEntity
  8
Defpoints
 62
     0
100
AcDbPoint
 10
3910.390132080175
 20
3084.167507428211
 30
0.0
  0
POINT
  5
B977
330
B74D
100
AcDbEntity
  8
Defpoints
 62
     0
100
AcDbPoint
 10
3910.390132080175
 20
3087.367497428211
 30
0.0
  0
POINT
  5
B978
330
B74D
100
AcDbEntity
  8
Defpoints
 62
     0
100
AcDbPoint
 10
3922.390132080175
 20
3087.367497428211
 30
0.0
  0
ENDBLK
  5
B75A
330
B74D
100
AcDbEntity
  8
0
100
AcDbBlockEnd
  0
BLOCK
  5
B77B
330
B775
100
AcDbEntity
  8
0
100
AcDbBlockBegin
  2
*D6
 70
     1
 10
0.0
 20
0.0
 30
0.0
  3
*D6
  1

  0
LINE
  5
BA80
330
B775
100
AcDbEntity
  8
AM_5
100
AcDbLine
 10
3865.81318965545
 20
3091.193052930146
 30
0.0
 11
3856.967070504897
 21
3080.341961926274
 31
0.0
  0
LINE
  5
BA81
330
B775
100
AcDbEntity
  8
AM_5
100
AcDbLine
 10
3856.335204851287
 20
3079.566883997427
 30
0.0
 11
3847.978051300419
 21
3069.315582588253
 31
0.0
  0
LINE
  5
BA82
330
B775
100
AcDbEntity
  8
AM_5
100
AcDbLine
 10
3847.978051300419
 20
3069.315582588253
 30
0.0
 11
3840.294717967086
 21
3069.315582588253
 31
0.0
  0
INSERT
  5
BA83
330
B775
100
AcDbEntity
  8
AM_5
100
AcDbBlockReference
  2
_Dot
 10
3866.445055309061
 20
3091.968130858993
 30
0.0
 50
50.81209840577507
  0
INSERT
  5
BA84
330
B775
100
AcDbEntity
  8
AM_5
100
AcDbBlockReference
  2
_Dot
 10
3856.335204851287
 20
3079.566883997427
 30
0.0
 50
230.8120984057751
  0
MTEXT
  5
BA85
330
B775
100
AcDbEntity
  8
AM_5
 62
     2
100
AcDbMText
 10
3843.386384633753
 20
3072.565582588252
 30
0.0
 40
3.5
 41
0.0
 71
     5
 72
     1
  1
\U+220516
 73
     1
 44
1.0
  0
POINT
  5
BA86
330
B775
100
AcDbEntity
  8
Defpoints
 62
     0
100
AcDbPoint
 10
3856.335204851287
 20
3079.566883997427
 30
0.0
  0
POINT
  5
BA87
330
B775
100
AcDbEntity
  8
Defpoints
 62
     0
100
AcDbPoint
 10
3866.445055309061
 20
3091.968130858993
 30
0.0
  0
ENDBLK
  5
B77C
330
B775
100
AcDbEntity
  8
0
100
AcDbBlockEnd
  0
BLOCK
  5
B7AB
330
B7A1
100
AcDbEntity
  8
0
100
AcDbBlockBegin
  2
*D7
 70
     1
 10
0.0
 20
0.0
 30
0.0
  3
*D7
  1

  0
LINE
  5
B981
330
B7A1
100
AcDbEntity
  8
AM_5
100
AcDbLine
 10
3812.390130080175
 20
3020.078293428211
 30
0.0
 11
3812.390130080175
 21
3034.078294428211
 31
0.0
  0
LINE
  5
B982
330
B7A1
100
AcDbEntity
  8
AM_5
100
AcDbLine
 10
3861.390130080175
 20
3024.993660428211
 30
0.0
 11
3861.390130080175
 21
3034.078294428211
 31
0.0
  0
LINE
  5
B983
330
B7A1
100
AcDbEntity
  8
AM_5
100
AcDbLine
 10
3813.390130080176
 20
3033.078294428211
 30
0.0
 11
3860.390130080175
 21
3033.078294428211
 31
0.0
  0
INSERT
  5
B984
330
B7A1
100
AcDbEntity
  8
AM_5
100
AcDbBlockReference
  2
_Dot
 10
3812.390130080175
 20
3033.078294428211
 30
0.0
 50
180.0
  0
INSERT
  5
B985
330
B7A1
100
AcDbEntity
  8
AM_5
100
AcDbBlockReference
  2
_Dot
 10
3861.390130080175
 20
3033.078294428211
 30
0.0
  0
MTEXT
  5
B986
330
B7A1
100
AcDbEntity
  8
AM_5
 62
     2
100
AcDbMText
 10
3836.890130080175
 20
3036.178294428211
 30
0.0
 40
3.200000000000001
 41
0.0
 71
     5
 72
     1
  1
49
 73
     1
 44
1.0
  0
POINT
  5
B987
330
B7A1
100
AcDbEntity
  8
Defpoints
 62
     0
100
AcDbPoint
 10
3812.390130080175
 20
3019.078293428211
 30
0.0
  0
POINT
  5
B988
330
B7A1
100
AcDbEntity
  8
Defpoints
 62
     0
100
AcDbPoint
 10
3861.390130080175
 20
3023.993660428211
 30
0.0
  0
POINT
  5
B989
330
B7A1
100
AcDbEntity
  8
Defpoints
 62
     0
100
AcDbPoint
 10
3861.390130080175
 20
3033.078294428211
 30
0.0
  0
ENDBLK
  5
B7AC
330
B7A1
100
AcDbEntity
  8
0
100
AcDbBlockEnd
  0
BLOCK
  5
B7C1
330
B7B7
100
AcDbEntity
  8
0
100
AcDbBlockBegin
  2
*D8
 70
     1
 10
0.0
 20
0.0
 30
0.0
  3
*D8
  1

  0
LINE
  5
B98A
330
B7B7
100
AcDbEntity
  8
AM_5
100
AcDbLine
 10
3861.390130080175
 20
3024.993660428211
 30
0.0
 11
3861.390130080175
 21
3034.078294428209
 31
0.0
  0
LINE
  5
B98B
330
B7B7
100
AcDbEntity
  8
AM_5
100
AcDbLine
 10
3910.390132080175
 20
2955.378294428211
 30
0.0
 11
3910.390132080175
 21
3034.078294428209
 31
0.0
  0
LINE
  5
B98C
330
B7B7
100
AcDbEntity
  8
AM_5
100
AcDbLine
 10
3862.390130080175
 20
3033.078294428209
 30
0.0
 11
3909.390132080175
 21
3033.078294428209
 31
0.0
  0
INSERT
  5
B98D
330
B7B7
100
AcDbEntity
  8
AM_5
100
AcDbBlockReference
  2
_Dot
 10
3861.390130080175
 20
3033.078294428209
 30
0.0
 50
180.0
  0
INSERT
  5
B98E
330
B7B7
100
AcDbEntity
  8
AM_5
100
AcDbBlockReference
  2
_Dot
 10
3910.390132080175
 20
3033.078294428209
 30
0.0
  0
MTEXT
  5
B98F
330
B7B7
100
AcDbEntity
  8
AM_5
 62
     2
100
AcDbMText
 10
3885.890131080175
 20
3036.178294428209
 30
0.0
 40
3.200000000000001
 41
0.0
 71
     5
 72
     1
  1
49
 73
     1
 44
1.0
  0
POINT
  5
B990
330
B7B7
100
AcDbEntity
  8
Defpoints
 62
     0
100
AcDbPoint
 10
3861.390130080175
 20
3023.993660428211
 30
0.0
  0
POINT
  5
B991
330
B7B7
100
AcDbEntity
  8
Defpoints
 62
     0
100
AcDbPoint
 10
3910.390132080175
 20
2954.378294428211
 30
0.0
  0
POINT
  5
B992
330
B7B7
100
AcDbEntity
  8
Defpoints
 62
     0
100
AcDbPoint
 10
3910.390132080175
 20
3033.078294428209
 30
0.0
  0
ENDBLK
  5
B7C2
330
B7B7
100
AcDbEntity
  8
0
100
AcDbBlockEnd
  0
BLOCK
  5
B7D7
330
B7CD
100
AcDbEntity
  8
0
100
AcDbBlockBegin
  2
*D9
 70
     1
 10
0.0
 20
0.0
 30
0.0
  3
*D9
  1

  0
LINE
  5
B993
330
B7CD
100
AcDbEntity
  8
AM_5
100
AcDbLine
 10
3812.390130080175
 20
3020.078293428211
 30
0.0
 11
3812.390130080175
 21
3044.07829442821
 31
0.0
  0
LINE
  5
B994
330
B7CD
100
AcDbEntity
  8
AM_5
100
AcDbLine
 10
3910.390132080175
 20
2955.378294428211
 30
0.0
 11
3910.390132080175
 21
3044.07829442821
 31
0.0
  0
LINE
  5
B995
330
B7CD
100
AcDbEntity
  8
AM_5
100
AcDbLine
 10
3813.390130080176
 20
3043.078294428211
 30
0.0
 11
3909.390132080175
 21
3043.078294428211
 31
0.0
  0
INSERT
  5
B996
330
B7CD
100
AcDbEntity
  8
AM_5
100
AcDbBlockReference
  2
_Dot
 10
3812.390130080175
 20
3043.078294428211
 30
0.0
 50
180.0
  0
INSERT
  5
B997
330
B7CD
100
AcDbEntity
  8
AM_5
100
AcDbBlockReference
  2
_Dot
 10
3910.390132080175
 20
3043.078294428211
 30
0.0
  0
MTEXT
  5
B998
330
B7CD
100
AcDbEntity
  8
AM_5
 62
     2
100
AcDbMText
 10
3861.390131080175
 20
3046.178294428211
 30
0.0
 40
3.200000000000001
 41
0.0
 71
     5
 72
     1
  1
98
 73
     1
 44
1.0
  0
POINT
  5
B999
330
B7CD
100
AcDbEntity
  8
Defpoints
 62
     0
100
AcDbPoint
 10
3812.390130080175
 20
3019.078293428211
 30
0.0
  0
POINT
  5
B99A
330
B7CD
100
AcDbEntity
  8
Defpoints
 62
     0
100
AcDbPoint
 10
3910.390132080175
 20
2954.378294428211
 30
0.0
  0
POINT
  5
B99B
330
B7CD
100
AcDbEntity
  8
Defpoints
 62
     0
100
AcDbPoint
 10
3910.390132080175
 20
3043.078294428211
 30
0.0
  0
ENDBLK
  5
B7D8
330
B7CD
100
AcDbEntity
  8
0
100
AcDbBlockEnd
  0
BLOCK
  5
B819
330
B80F
100
AcDbEntity
  8
0
100
AcDbBlockBegin
  2
*D10
 70
     1
 10
0.0
 20
0.0
 30
0.0
  3
*D10
  1

  0
LINE
  5
B99C
330
B80F
100
AcDbEntity
  8
AM_5
100
AcDbLine
 10
3910.890132080175
 20
2944.478293228211
 30
0.0
 11
3923.390132080175
 21
2944.478293228211
 31
0.0
  0
LINE
  5
B99D
330
B80F
100
AcDbEntity
  8
AM_5
100
AcDbLine
 10
3911.390132080175
 20
2954.378294428211
 30
0.0
 11
3923.390132080175
 21
2954.378294428211
 31
0.0
  0
LINE
  5
B99E
330
B80F
100
AcDbEntity
  8
AM_5
100
AcDbLine
 10
3922.390132080175
 20
2945.478293228211
 30
0.0
 11
3922.390132080175
 21
2953.378294428211
 31
0.0
  0
INSERT
  5
B99F
330
B80F
100
AcDbEntity
  8
AM_5
100
AcDbBlockReference
  2
_Dot
 10
3922.390132080175
 20
2944.478293228211
 30
0.0
 50
270.0
  0
INSERT
  5
B9A0
330
B80F
100
AcDbEntity
  8
AM_5
100
AcDbBlockReference
  2
_Dot
 10
3922.390132080175
 20
2954.378294428211
 30
0.0
 50
90.0
  0
MTEXT
  5
B9A1
330
B80F
100
AcDbEntity
  8
AM_5
 62
     2
100
AcDbMText
 10
3919.290132080174
 20
2949.428293828212
 30
0.0
 40
3.200000000000001
 41
0.0
 71
     5
 72
     1
  1
9.9
 11
0.0000000000000001
 21
1.0
 31
0.0
 73
     1
 44
1.0
  0
POINT
  5
B9A2
330
B80F
100
AcDbEntity
  8
Defpoints
 62
     0
100
AcDbPoint
 10
3909.890132080175
 20
2944.478293228211
 30
0.0
  0
POINT
  5
B9A3
330
B80F
100
AcDbEntity
  8
Defpoints
 62
     0
100
AcDbPoint
 10
3910.390132080175
 20
2954.378294428211
 30
0.0
  0
POINT
  5
B9A4
330
B80F
100
AcDbEntity
  8
Defpoints
 62
     0
100
AcDbPoint
 10
3922.390132080175
 20
2954.378294428211
 30
0.0
  0
ENDBLK
  5
B81A
330
B80F
100
AcDbEntity
  8
0
100
AcDbBlockEnd
  0
BLOCK
  5
B82F
330
B825
100
AcDbEntity
  8
0
100
AcDbBlockBegin
  2
*D11
 70
     1
 10
0.0
 20
0.0
 30
0.0
  3
*D11
  1

  0
LINE
  5
B9A5
330
B825
100
AcDbEntity
  8
AM_5
100
AcDbLine
 10
3910.890132080175
 20
2901.978293428211
 30
0.0
 11
3923.390132080177
 21
2901.978293428211
 31
0.0
  0
LINE
  5
B9A6
330
B825
100
AcDbEntity
  8
AM_5
100
AcDbLine
 10
3911.390132080175
 20
2892.078293428211
 30
0.0
 11
3923.390132080177
 21
2892.078293428211
 31
0.0
  0
LINE
  5
B9A7
330
B825
100
AcDbEntity
  8
AM_5
100
AcDbLine
 10
3922.390132080177
 20
2900.978293428211
 30
0.0
 11
3922.390132080177
 21
2893.078293428211
 31
0.0
  0
INSERT
  5
B9A8
330
B825
100
AcDbEntity
  8
AM_5
100
AcDbBlockReference
  2
_Dot
 10
3922.390132080177
 20
2901.978293428211
 30
0.0
 50
90.0
  0
INSERT
  5
B9A9
330
B825
100
AcDbEntity
  8
AM_5
100
AcDbBlockReference
  2
_Dot
 10
3922.390132080177
 20
2892.078293428211
 30
0.0
 50
270.0
  0
MTEXT
  5
B9AA
330
B825
100
AcDbEntity
  8
AM_5
 62
     2
100
AcDbMText
 10
3919.290132080176
 20
2897.028293428212
 30
0.0
 40
3.200000000000001
 41
0.0
 71
     5
 72
     1
  1
9.9
 11
0.0000000000000001
 21
1.0
 31
0.0
 73
     1
 44
1.0
  0
POINT
  5
B9AB
330
B825
100
AcDbEntity
  8
Defpoints
 62
     0
100
AcDbPoint
 10
3909.890132080175
 20
2901.978293428211
 30
0.0
  0
POINT
  5
B9AC
330
B825
100
AcDbEntity
  8
Defpoints
 62
     0
100
AcDbPoint
 10
3910.390132080175
 20
2892.078293428211
 30
0.0
  0
POINT
  5
B9AD
330
B825
100
AcDbEntity
  8
Defpoints
 62
     0
100
AcDbPoint
 10
3922.390132080177
 20
2892.078293428211
 30
0.0
  0
ENDBLK
  5
B830
330
B825
100
AcDbEntity
  8
0
100
AcDbBlockEnd
  0
BLOCK
  5
B845
330
B83B
100
AcDbEntity
  8
0
100
AcDbBlockBegin
  2
*D12
 70
     1
 10
0.0
 20
0.0
 30
0.0
  3
*D12
  1

  0
LINE
  5
B9AE
330
B83B
100
AcDbEntity
  8
AM_5
100
AcDbLine
 10
3910.890132080175
 20
2901.978293428211
 30
0.0
 11
3923.390132080179
 21
2901.978293428211
 31
0.0
  0
LINE
  5
B9AF
330
B83B
100
AcDbEntity
  8
AM_5
100
AcDbLine
 10
3903.890132080175
 20
2923.228293428211
 30
0.0
 11
3923.390132080179
 21
2923.228293428211
 31
0.0
  0
LINE
  5
B9B0
330
B83B
100
AcDbEntity
  8
AM_5
100
AcDbLine
 10
3922.390132080179
 20
2902.978293428211
 30
0.0
 11
3922.390132080179
 21
2922.228293428211
 31
0.0
  0
INSERT
  5
B9B1
330
B83B
100
AcDbEntity
  8
AM_5
100
AcDbBlockReference
  2
_Dot
 10
3922.390132080179
 20
2901.978293428211
 30
0.0
 50
270.0
  0
INSERT
  5
B9B2
330
B83B
100
AcDbEntity
  8
AM_5
100
AcDbBlockReference
  2
_Dot
 10
3922.390132080179
 20
2923.228293428211
 30
0.0
 50
90.0
  0
MTEXT
  5
B9B3
330
B83B
100
AcDbEntity
  8
AM_5
 62
     2
100
AcDbMText
 10
3919.290132080178
 20
2912.603293428212
 30
0.0
 40
3.200000000000001
 41
0.0
 71
     5
 72
     1
  1
21.25
 11
0.0000000000000001
 21
1.0
 31
0.0
 73
     1
 44
1.0
  0
POINT
  5
B9B4
330
B83B
100
AcDbEntity
  8
Defpoints
 62
     0
100
AcDbPoint
 10
3909.890132080175
 20
2901.978293428211
 30
0.0
  0
POINT
  5
B9B5
330
B83B
100
AcDbEntity
  8
Defpoints
 62
     0
100
AcDbPoint
 10
3902.890132080175
 20
2923.228293428211
 30
0.0
  0
POINT
  5
B9B6
330
B83B
100
AcDbEntity
  8
Defpoints
 62
     0
100
AcDbPoint
 10
3922.390132080179
 20
2923.228293428211
 30
0.0
  0
ENDBLK
  5
B846
330
B83B
100
AcDbEntity
  8
0
100
AcDbBlockEnd
  0
BLOCK
  5
B871
330
B867
100
AcDbEntity
  8
0
100
AcDbBlockBegin
  2
*D13
 70
     1
 10
0.0
 20
0.0
 30
0.0
  3
*D13
  1

  0
LINE
  5
B9B7
330
B867
100
AcDbEntity
  8
AM_5
100
AcDbLine
 10
3910.890132080175
 20
2944.478293228211
 30
0.0
 11
3923.390132080177
 21
2944.478293228211
 31
0.0
  0
LINE
  5
B9B8
330
B867
100
AcDbEntity
  8
AM_5
100
AcDbLine
 10
3903.890132080175
 20
2923.228293428211
 30
0.0
 11
3923.390132080177
 21
2923.228293428211
 31
0.0
  0
LINE
  5
B9B9
330
B867
100
AcDbEntity
  8
AM_5
100
AcDbLine
 10
3922.390132080177
 20
2943.478293228212
 30
0.0
 11
3922.390132080177
 21
2924.228293428211
 31
0.0
  0
INSERT
  5
B9BA
330
B867
100
AcDbEntity
  8
AM_5
100
AcDbBlockReference
  2
_Dot
 10
3922.390132080177
 20
2944.478293228211
 30
0.0
 50
90.0
  0
INSERT
  5
B9BB
330
B867
100
AcDbEntity
  8
AM_5
100
AcDbBlockReference
  2
_Dot
 10
3922.390132080177
 20
2923.228293428211
 30
0.0
 50
270.0
  0
MTEXT
  5
B9BC
330
B867
100
AcDbEntity
  8
AM_5
 62
     2
100
AcDbMText
 10
3919.290132080176
 20
2933.853293328212
 30
0.0
 40
3.200000000000001
 41
0.0
 71
     5
 72
     1
  1
21.25
 11
0.0000000000000001
 21
1.0
 31
0.0
 73
     1
 44
1.0
  0
POINT
  5
B9BD
330
B867
100
AcDbEntity
  8
Defpoints
 62
     0
100
AcDbPoint
 10
3909.890132080175
 20
2944.478293228211
 30
0.0
  0
POINT
  5
B9BE
330
B867
100
AcDbEntity
  8
Defpoints
 62
     0
100
AcDbPoint
 10
3902.890132080175
 20
2923.228293428211
 30
0.0
  0
POINT
  5
B9BF
330
B867
100
AcDbEntity
  8
Defpoints
 62
     0
100
AcDbPoint
 10
3922.390132080177
 20
2923.228293428211
 30
0.0
  0
ENDBLK
  5
B872
330
B867
100
AcDbEntity
  8
0
100
AcDbBlockEnd
  0
BLOCK
  5
B8C9
330
B8BF
100
AcDbEntity
  8
0
100
AcDbBlockBegin
  2
*D14
 70
     1
 10
0.0
 20
0.0
 30
0.0
  3
*D14
  1

  0
LINE
  5
B9C9
330
B8BF
100
AcDbEntity
  8
AM_5
100
AcDbLine
 10
3895.390132080175
 20
2914.728293428212
 30
0.0
 11
3895.390132080175
 21
2881.478293428211
 31
0.0
  0
LINE
  5
B9CA
330
B8BF
100
AcDbEntity
  8
AM_5
100
AcDbLine
 10
3902.390132080175
 20
2893.478293428211
 30
0.0
 11
3902.390132080175
 21
2881.478293428211
 31
0.0
  0
LINE
  5
B9CB
330
B8BF
100
AcDbEntity
  8
AM_5
100
AcDbLine
 10
3896.390132080174
 20
2882.478293428211
 30
0.0
 11
3901.390132080175
 21
2882.478293428211
 31
0.0
  0
INSERT
  5
B9CC
330
B8BF
100
AcDbEntity
  8
AM_5
100
AcDbBlockReference
  2
_Dot
 10
3895.390132080175
 20
2882.478293428211
 30
0.0
 50
180.0
  0
INSERT
  5
B9CD
330
B8BF
100
AcDbEntity
  8
AM_5
100
AcDbBlockReference
  2
_Dot
 10
3902.390132080175
 20
2882.478293428211
 30
0.0
  0
MTEXT
  5
B9CE
330
B8BF
100
AcDbEntity
  8
AM_5
 62
     2
100
AcDbMText
 10
3898.890132080174
 20
2885.578293428211
 30
0.0
 40
3.200000000000001
 41
0.0
 71
     5
 72
     1
  1
7
 73
     1
 44
1.0
  0
POINT
  5
B9CF
330
B8BF
100
AcDbEntity
  8
Defpoints
 62
     0
100
AcDbPoint
 10
3895.390132080175
 20
2915.728293428211
 30
0.0
  0
POINT
  5
B9D0
330
B8BF
100
AcDbEntity
  8
Defpoints
 62
     0
100
AcDbPoint
 10
3902.390132080175
 20
2894.478293428211
 30
0.0
  0
POINT
  5
B9D1
330
B8BF
100
AcDbEntity
  8
Defpoints
 62
     0
100
AcDbPoint
 10
3902.390132080175
 20
2882.478293428211
 30
0.0
  0
ENDBLK
  5
B8CA
330
B8BF
100
AcDbEntity
  8
0
100
AcDbBlockEnd
  0
BLOCK
  5
B8DF
330
B8D5
100
AcDbEntity
  8
0
100
AcDbBlockBegin
  2
*D15
 70
     1
 10
0.0
 20
0.0
 30
0.0
  3
*D15
  1

  0
LINE
  5
B9D2
330
B8D5
100
AcDbEntity
  8
AM_5
100
AcDbLine
 10
3888.390132080175
 20
2893.478293428211
 30
0.0
 11
3888.390132080175
 21
2871.478293428209
 31
0.0
  0
LINE
  5
B9D3
330
B8D5
100
AcDbEntity
  8
AM_5
100
AcDbLine
 10
3902.390132080175
 20
2893.478293428211
 30
0.0
 11
3902.390132080175
 21
2871.478293428209
 31
0.0
  0
LINE
  5
B9D4
330
B8D5
100
AcDbEntity
  8
AM_5
100
AcDbLine
 10
3889.390132080175
 20
2872.478293428209
 30
0.0
 11
3901.390132080175
 21
2872.478293428209
 31
0.0
  0
INSERT
  5
B9D5
330
B8D5
100
AcDbEntity
  8
AM_5
100
AcDbBlockReference
  2
_Dot
 10
3888.390132080175
 20
2872.478293428209
 30
0.0
 50
180.0
  0
INSERT
  5
B9D6
330
B8D5
100
AcDbEntity
  8
AM_5
100
AcDbBlockReference
  2
_Dot
 10
3902.390132080175
 20
2872.478293428209
 30
0.0
  0
MTEXT
  5
B9D7
330
B8D5
100
AcDbEntity
  8
AM_5
 62
     2
100
AcDbMText
 10
3895.390132080175
 20
2875.578293428209
 30
0.0
 40
3.200000000000001
 41
0.0
 71
     5
 72
     1
  1
14
 73
     1
 44
1.0
  0
POINT
  5
B9D8
330
B8D5
100
AcDbEntity
  8
Defpoints
 62
     0
100
AcDbPoint
 10
3888.390132080175
 20
2894.478293428211
 30
0.0
  0
POINT
  5
B9D9
330
B8D5
100
AcDbEntity
  8
Defpoints
 62
     0
100
AcDbPoint
 10
3902.390132080175
 20
2894.478293428211
 30
0.0
  0
POINT
  5
B9DA
330
B8D5
100
AcDbEntity
  8
Defpoints
 62
     0
100
AcDbPoint
 10
3902.390132080175
 20
2872.478293428209
 30
0.0
  0
ENDBLK
  5
B8E0
330
B8D5
100
AcDbEntity
  8
0
100
AcDbBlockEnd
  0
BLOCK
  5
B8F5
330
B8EB
100
AcDbEntity
  8
0
100
AcDbBlockBegin
  2
*D16
 70
     1
 10
0.0
 20
0.0
 30
0.0
  3
*D16
  1

  0
LINE
  5
B9DB
330
B8EB
100
AcDbEntity
  8
AM_5
100
AcDbLine
 10
3902.390132080175
 20
2893.478293428211
 30
0.0
 11
3902.390132080175
 21
2871.478293428206
 31
0.0
  0
LINE
  5
B9DC
330
B8EB
100
AcDbEntity
  8
AM_5
100
AcDbLine
 10
3910.390132080175
 20
2891.078293428211
 30
0.0
 11
3910.390132080175
 21
2871.478293428206
 31
0.0
  0
LINE
  5
B9DD
330
B8EB
100
AcDbEntity
  8
AM_5
100
AcDbLine
 10
3903.390132080175
 20
2872.478293428206
 30
0.0
 11
3909.390132080175
 21
2872.478293428206
 31
0.0
  0
INSERT
  5
B9DE
330
B8EB
100
AcDbEntity
  8
AM_5
100
AcDbBlockReference
  2
_Dot
 10
3902.390132080175
 20
2872.478293428206
 30
0.0
 50
180.0
  0
INSERT
  5
B9DF
330
B8EB
100
AcDbEntity
  8
AM_5
100
AcDbBlockReference
  2
_Dot
 10
3910.390132080175
 20
2872.478293428206
 30
0.0
  0
MTEXT
  5
B9E0
330
B8EB
100
AcDbEntity
  8
AM_5
 62
     2
100
AcDbMText
 10
3906.390132080175
 20
2875.578293428206
 30
0.0
 40
3.200000000000001
 41
0.0
 71
     5
 72
     1
  1
8
 73
     1
 44
1.0
  0
POINT
  5
B9E1
330
B8EB
100
AcDbEntity
  8
Defpoints
 62
     0
100
AcDbPoint
 10
3902.390132080175
 20
2894.478293428211
 30
0.0
  0
POINT
  5
B9E2
330
B8EB
100
AcDbEntity
  8
Defpoints
 62
     0
100
AcDbPoint
 10
3910.390132080175
 20
2892.078293428211
 30
0.0
  0
POINT
  5
B9E3
330
B8EB
100
AcDbEntity
  8
Defpoints
 62
     0
100
AcDbPoint
 10
3910.390132080175
 20
2872.478293428206
 30
0.0
  0
ENDBLK
  5
B8F6
330
B8EB
100
AcDbEntity
  8
0
100
AcDbBlockEnd
  0
BLOCK
  5
B921
330
B917
100
AcDbEntity
  8
0
100
AcDbBlockBegin
  2
*D17
 70
     1
 10
0.0
 20
0.0
 30
0.0
  3
*D17
  1

  0
LINE
  5
B9E4
330
B917
100
AcDbEntity
  8
AM_5
100
AcDbLine
 10
3888.390132080175
 20
2893.478293428211
 30
0.0
 11
3888.390132080175
 21
2871.478293428206
 31
0.0
  0
LINE
  5
B9E5
330
B917
100
AcDbEntity
  8
AM_5
100
AcDbLine
 10
3861.390130080175
 20
2884.057426428212
 30
0.0
 11
3861.390130080175
 21
2871.478293428206
 31
0.0
  0
LINE
  5
B9E6
330
B917
100
AcDbEntity
  8
AM_5
100
AcDbLine
 10
3887.390132080175
 20
2872.478293428206
 30
0.0
 11
3862.390130080175
 21
2872.478293428206
 31
0.0
  0
INSERT
  5
B9E7
330
B917
100
AcDbEntity
  8
AM_5
100
AcDbBlockReference
  2
_Dot
 10
3888.390132080175
 20
2872.478293428206
 30
0.0
  0
INSERT
  5
B9E8
330
B917
100
AcDbEntity
  8
AM_5
100
AcDbBlockReference
  2
_Dot
 10
3861.390130080175
 20
2872.478293428206
 30
0.0
 50
180.0
  0
MTEXT
  5
B9E9
330
B917
100
AcDbEntity
  8
AM_5
 62
     2
100
AcDbMText
 10
3874.890131080175
 20
2875.578293428206
 30
0.0
 40
3.200000000000001
 41
0.0
 71
     5
 72
     1
  1
27
 73
     1
 44
1.0
  0
POINT
  5
B9EA
330
B917
100
AcDbEntity
  8
Defpoints
 62
     0
100
AcDbPoint
 10
3888.390132080175
 20
2894.478293428211
 30
0.0
  0
POINT
  5
B9EB
330
B917
100
AcDbEntity
  8
Defpoints
 62
     0
100
AcDbPoint
 10
3861.390130080175
 20
2885.057426428211
 30
0.0
  0
POINT
  5
B9EC
330
B917
100
AcDbEntity
  8
Defpoints
 62
     0
100
AcDbPoint
 10
3861.390130080175
 20
2872.478293428206
 30
0.0
  0
ENDBLK
  5
B922
330
B917
100
AcDbEntity
  8
0
100
AcDbBlockEnd
  0
BLOCK
  5
B937
330
B92D
100
AcDbEntity
  8
0
100
AcDbBlockBegin
  2
*D18
 70
     1
 10
0.0
 20
0.0
 30
0.0
  3
*D18
  1

  0
LINE
  5
B9ED
330
B92D
100
AcDbEntity
  8
AM_5
100
AcDbLine
 10
3895.390132080175
 20
2914.728293428212
 30
0.0
 11
3895.390132080175
 21
2881.478293428206
 31
0.0
  0
LINE
  5
B9EE
330
B92D
100
AcDbEntity
  8
AM_5
100
AcDbLine
 10
3888.390132080175
 20
2893.478293428211
 30
0.0
 11
3888.390132080175
 21
2881.478293428206
 31
0.0
  0
LINE
  5
B9EF
330
B92D
100
AcDbEntity
  8
AM_5
100
AcDbLine
 10
3894.390132080175
 20
2882.478293428206
 30
0.0
 11
3889.390132080175
 21
2882.478293428206
 31
0.0
  0
INSERT
  5
B9F0
330
B92D
100
AcDbEntity
  8
AM_5
100
AcDbBlockReference
  2
_Dot
 10
3895.390132080175
 20
2882.478293428206
 30
0.0
  0
INSERT
  5
B9F1
330
B92D
100
AcDbEntity
  8
AM_5
100
AcDbBlockReference
  2
_Dot
 10
3888.390132080175
 20
2882.478293428206
 30
0.0
 50
180.0
  0
MTEXT
  5
B9F2
330
B92D
100
AcDbEntity
  8
AM_5
 62
     2
100
AcDbMText
 10
3891.890132080174
 20
2885.578293428206
 30
0.0
 40
3.200000000000001
 41
0.0
 71
     5
 72
     1
  1
7
 73
     1
 44
1.0
  0
POINT
  5
B9F3
330
B92D
100
AcDbEntity
  8
Defpoints
 62
     0
100
AcDbPoint
 10
3895.390132080175
 20
2915.728293428211
 30
0.0
  0
POINT
  5
B9F4
330
B92D
100
AcDbEntity
  8
Defpoints
 62
     0
100
AcDbPoint
 10
3888.390132080175
 20
2894.478293428211
 30
0.0
  0
POINT
  5
B9F5
330
B92D
100
AcDbEntity
  8
Defpoints
 62
     0
100
AcDbPoint
 10
3888.390132080175
 20
2882.478293428206
 30
0.0
  0
ENDBLK
  5
B938
330
B92D
100
AcDbEntity
  8
0
100
AcDbBlockEnd
  0
BLOCK
  5
BA12
330
BA09
100
AcDbEntity
  8
0
100
AcDbBlockBegin
  2
*D19
 70
     1
 10
0.0
 20
0.0
 30
0.0
  3
*D19
  1

  0
LINE
  5
BA78
330
BA09
100
AcDbEntity
  8
AM_5
100
AcDbLine
 10
3900.292357581861
 20
2904.77996117336
 30
0.0
 11
3904.487906578495
 21
2899.176625683066
 31
0.0
  0
LINE
  5
BA79
330
BA09
100
AcDbEntity
  8
AM_5
100
AcDbLine
 10
3905.087270720872
 20
2898.376149184452
 30
0.0
 11
3917.940964758449
 21
2881.209489936777
 31
0.0
  0
LINE
  5
BA7A
330
BA09
100
AcDbEntity
  8
AM_5
100
AcDbLine
 10
3917.940964758449
 20
2881.209489936777
 30
0.0
 11
3963.377631425117
 21
2881.209489936777
 31
0.0
  0
INSERT
  5
BA7B
330
BA09
100
AcDbEntity
  8
AM_5
100
AcDbBlockReference
  2
_Dot
 10
3899.692993439484
 20
2905.580437671974
 30
0.0
 50
126.8243712587883
  0
INSERT
  5
BA7C
330
BA09
100
AcDbEntity
  8
AM_5
100
AcDbBlockReference
  2
_Dot
 10
3905.087270720872
 20
2898.376149184452
 30
0.0
 50
306.8243712587883
  0
MTEXT
  5
BA7D
330
BA09
100
AcDbEntity
  8
AM_5
 62
     2
100
AcDbMText
 10
3941.409298091783
 20
2884.459489936777
 30
0.0
 40
3.5
 41
0.0
 71
     5
 72
     1
  1
10-%%c5.8×\U+22059サラ（両面サラ）
 73
     1
 44
1.0
  0
POINT
  5
BA7E
330
BA09
100
AcDbEntity
  8
Defpoints
 62
     0
100
AcDbPoint
 10
3905.087270720872
 20
2898.376149184452
 30
0.0
  0
POINT
  5
BA7F
330
BA09
100
AcDbEntity
  8
Defpoints
 62
     0
100
AcDbPoint
 10
3899.692993439484
 20
2905.580437671974
 30
0.0
  0
ENDBLK
  5
BA13
330
BA09
100
AcDbEntity
  8
0
100
AcDbBlockEnd
  0
BLOCK
  5
BA93
330
BA89
100
AcDbEntity
  8
0
100
AcDbBlockBegin
  2
*D20
 70
     1
 10
0.0
 20
0.0
 30
0.0
  3
*D20
  1

  0
LINE
  5
BAE2
330
BA89
100
AcDbEntity
  8
AM_5
100
AcDbLine
 10
3870.390132080175
 20
2956.778294428211
 30
0.0
 11
3933.39013208018
 21
2956.778294428211
 31
0.0
  0
LINE
  5
BAE3
330
BA89
100
AcDbEntity
  8
AM_5
100
AcDbLine
 10
3870.390132080175
 20
3019.078293428211
 30
0.0
 11
3933.39013208018
 21
3019.078293428211
 31
0.0
  0
LINE
  5
BAE4
330
BA89
100
AcDbEntity
  8
AM_5
100
AcDbLine
 10
3932.390132080179
 20
2957.778294428211
 30
0.0
 11
3932.390132080179
 21
3018.078293428211
 31
0.0
  0
INSERT
  5
BAE5
330
BA89
100
AcDbEntity
  8
AM_5
100
AcDbBlockReference
  2
_Dot
 10
3932.390132080179
 20
2956.778294428211
 30
0.0
 50
270.0
  0
INSERT
  5
BAE6
330
BA89
100
AcDbEntity
  8
AM_5
100
AcDbBlockReference
  2
_Dot
 10
3932.390132080179
 20
3019.078293428211
 30
0.0
 50
90.0
  0
MTEXT
  5
BAE7
330
BA89
100
AcDbEntity
  8
AM_5
 62
     2
100
AcDbMText
 10
3929.290132080179
 20
2987.928293928212
 30
0.0
 40
3.200000000000001
 41
0.0
 71
     5
 72
     1
  1
62.3
 11
0.0000000000000001
 21
1.0
 31
0.0
 73
     1
 44
1.0
  0
POINT
  5
BAE8
330
BA89
100
AcDbEntity
  8
Defpoints
 62
     0
100
AcDbPoint
 10
3869.390132080175
 20
2956.778294428211
 30
0.0
  0
POINT
  5
BAE9
330
BA89
100
AcDbEntity
  8
Defpoints
 62
     0
100
AcDbPoint
 10
3869.390132080175
 20
3019.078293428211
 30
0.0
  0
POINT
  5
BAEA
330
BA89
100
AcDbEntity
  8
Defpoints
 62
     0
100
AcDbPoint
 10
3932.390132080179
 20
3019.078293428211
 30
0.0
  0
ENDBLK
  5
BA94
330
BA89
100
AcDbEntity
  8
0
100
AcDbBlockEnd
  0
BLOCK
  5
BAB4
330
BAA8
100
AcDbEntity
  8
0
100
AcDbBlockBegin
  2
*D21
 70
     1
 10
0.0
 20
0.0
 30
0.0
  3
*D21
  1

  0
LINE
  5
BB08
330
BAA8
100
AcDbEntity
  8
AM_5
100
AcDbLine
 10
3870.390132080175
 20
2954.378294428211
 30
0.0
 11
3933.390132080182
 21
2954.378294428211
 31
0.0
  0
LINE
  5
BB09
330
BAA8
100
AcDbEntity
  8
AM_5
100
AcDbLine
 10
3870.390132080175
 20
2956.778294428211
 30
0.0
 11
3933.390132080182
 21
2956.778294428211
 31
0.0
  0
LINE
  5
BB0A
330
BAA8
100
AcDbEntity
  8
AM_5
100
AcDbLine
 10
3932.390132080182
 20
2953.378294428211
 30
0.0
 11
3932.390132080182
 21
2952.378294428211
 31
0.0
  0
LINE
  5
BB0B
330
BAA8
100
AcDbEntity
  8
AM_5
100
AcDbLine
 10
3932.390132080182
 20
2957.778294428211
 30
0.0
 11
3932.390132080182
 21
2958.778294428211
 31
0.0
  0
LINE
  5
BB0C
330
BAA8
100
AcDbEntity
  8
AM_5
100
AcDbLine
 10
3932.390132080182
 20
2955.578294428211
 30
0.0
 11
3926.249537707502
 21
2960.175590358288
 31
0.0
  0
LINE
  5
BB0D
330
BAA8
100
AcDbEntity
  8
AM_5
100
AcDbLine
 10
3926.249537707502
 20
2960.175590358288
 30
0.0
 11
3926.249537707502
 21
2967.975590358287
 31
0.0
  0
MTEXT
  5
BB0E
330
BAA8
100
AcDbEntity
  8
AM_5
 62
     2
100
AcDbMText
 10
3923.149537707502
 20
2964.075590358288
 30
0.0
 40
3.200000000000001
 41
0.0
 71
     5
 72
     1
  1
2.4
 11
0.0000000000000001
 21
1.0
 31
0.0
 73
     1
 44
1.0
  0
LINE
  5
BB0F
330
BAA8
100
AcDbEntity
  8
AM_5
100
AcDbLine
 10
3932.390132080182
 20
2954.378294428211
 30
0.0
 11
3932.390132080182
 21
2956.778294428211
 31
0.0
  0
LINE
  5
BB10
330
BAA8
100
AcDbEntity
  8
AM_5
100
AcDbLine
 10
3932.390132080182
 20
2954.378294428211
 30
0.0
 11
3932.390132080182
 21
2956.778294428211
 31
0.0
  0
INSERT
  5
BB11
330
BAA8
100
AcDbEntity
  8
AM_5
100
AcDbBlockReference
  2
_Dot
 10
3932.390132080182
 20
2954.378294428211
 30
0.0
 50
90.0
  0
INSERT
  5
BB12
330
BAA8
100
AcDbEntity
  8
AM_5
100
AcDbBlockReference
  2
_Dot
 10
3932.390132080182
 20
2956.778294428211
 30
0.0
 50
270.0
  0
POINT
  5
BB13
330
BAA8
100
AcDbEntity
  8
Defpoints
 62
     0
100
AcDbPoint
 10
3869.390132080175
 20
2954.378294428211
 30
0.0
  0
POINT
  5
BB14
330
BAA8
100
AcDbEntity
  8
Defpoints
 62
     0
100
AcDbPoint
 10
3869.390132080175
 20
2956.778294428211
 30
0.0
  0
POINT
  5
BB15
330
BAA8
100
AcDbEntity
  8
Defpoints
 62
     0
100
AcDbPoint
 10
3932.390132080182
 20
2956.778294428211
 30
0.0
  0
ENDBLK
  5
BAB5
330
BAA8
100
AcDbEntity
  8
0
100
AcDbBlockEnd
  0
BLOCK
  5
BACC
330
BAC2
100
AcDbEntity
  8
0
100
AcDbBlockBegin
  2
*D22
 70
     1
 10
0.0
 20
0.0
 30
0.0
  3
*D22
  1

  0
LINE
  5
BAF4
330
BAC2
100
AcDbEntity
  8
AM_5
100
AcDbLine
 10
3911.390132080175
 20
2892.078293428211
 30
0.0
 11
3933.390132080182
 21
2892.078293428211
 31
0.0
  0
LINE
  5
BAF5
330
BAC2
100
AcDbEntity
  8
AM_5
100
AcDbLine
 10
3870.390132080175
 20
2954.378294428211
 30
0.0
 11
3933.390132080182
 21
2954.378294428211
 31
0.0
  0
LINE
  5
BAF6
330
BAC2
100
AcDbEntity
  8
AM_5
100
AcDbLine
 10
3932.390132080182
 20
2893.078293428211
 30
0.0
 11
3932.390132080182
 21
2953.378294428211
 31
0.0
  0
INSERT
  5
BAF7
330
BAC2
100
AcDbEntity
  8
AM_5
100
AcDbBlockReference
  2
_Dot
 10
3932.390132080182
 20
2892.078293428211
 30
0.0
 50
270.0
  0
INSERT
  5
BAF8
330
BAC2
100
AcDbEntity
  8
AM_5
100
AcDbBlockReference
  2
_Dot
 10
3932.390132080182
 20
2954.378294428211
 30
0.0
 50
90.0
  0
MTEXT
  5
BAF9
330
BAC2
100
AcDbEntity
  8
AM_5
 62
     2
100
AcDbMText
 10
3929.290132080181
 20
2923.228293928212
 30
0.0
 40
3.200000000000001
 41
0.0
 71
     5
 72
     1
  1
62.3
 11
0.0000000000000001
 21
1.0
 31
0.0
 73
     1
 44
1.0
  0
POINT
  5
BAFA
330
BAC2
100
AcDbEntity
  8
Defpoints
 62
     0
100
AcDbPoint
 10
3910.390132080175
 20
2892.078293428211
 30
0.0
  0
POINT
  5
BAFB
330
BAC2
100
AcDbEntity
  8
Defpoints
 62
     0
100
AcDbPoint
 10
3869.390132080175
 20
2954.378294428211
 30
0.0
  0
POINT
  5
BAFC
330
BAC2
100
AcDbEntity
  8
Defpoints
 62
     0
100
AcDbPoint
 10
3932.390132080182
 20
2954.378294428211
 30
0.0
  0
ENDBLK
  5
BACD
330
BAC2
100
AcDbEntity
  8
0
100
AcDbBlockEnd
  0
BLOCK
  5
BB21
330
BB17
100
AcDbEntity
  8
0
100
AcDbBlockBegin
  2
*D23
 70
     1
 10
0.0
 20
0.0
 30
0.0
  3
*D23
  1

  0
LINE
  5
BB23
330
BB17
100
AcDbEntity
  8
AM_5
100
AcDbLine
 10
3870.390132080175
 20
3019.078293428211
 30
0.0
 11
3943.390132080182
 21
3019.078293428211
 31
0.0
  0
LINE
  5
BB24
330
BB17
100
AcDbEntity
  8
AM_5
100
AcDbLine
 10
3870.390132080175
 20
2892.078293428211
 30
0.0
 11
3943.390132080182
 21
2892.078293428211
 31
0.0
  0
LINE
  5
BB25
330
BB17
100
AcDbEntity
  8
AM_5
100
AcDbLine
 10
3942.390132080182
 20
3018.078293428211
 30
0.0
 11
3942.390132080182
 21
2893.078293428211
 31
0.0
  0
INSERT
  5
BB26
330
BB17
100
AcDbEntity
  8
AM_5
100
AcDbBlockReference
  2
_Dot
 10
3942.390132080182
 20
3019.078293428211
 30
0.0
 50
90.0
  0
INSERT
  5
BB27
330
BB17
100
AcDbEntity
  8
AM_5
100
AcDbBlockReference
  2
_Dot
 10
3942.390132080182
 20
2892.078293428211
 30
0.0
 50
270.0
  0
MTEXT
  5
BB28
330
BB17
100
AcDbEntity
  8
AM_5
 62
     2
100
AcDbMText
 10
3939.290132080182
 20
2955.578293428212
 30
0.0
 40
3.200000000000001
 41
0.0
 71
     5
 72
     1
  1
127
 11
0.0000000000000001
 21
1.0
 31
0.0
 73
     1
 44
1.0
  0
POINT
  5
BB29
330
BB17
100
AcDbEntity
  8
Defpoints
 62
     0
100
AcDbPoint
 10
3869.390132080175
 20
3019.078293428211
 30
0.0
  0
POINT
  5
BB2A
330
BB17
100
AcDbEntity
  8
Defpoints
 62
     0
100
AcDbPoint
 10
3869.390132080175
 20
2892.078293428211
 30
0.0
  0
POINT
  5
BB2B
330
BB17
100
AcDbEntity
  8
Defpoints
 62
     0
100
AcDbPoint
 10
3942.390132080182
 20
2892.078293428211
 30
0.0
  0
ENDBLK
  5
BB22
330
BB17
100
AcDbEntity
  8
0
100
AcDbBlockEnd
  0
ENDSEC
  0
SECTION
  2
ENTITIES
  0
LINE
  5
B540
330
1F
100
AcDbEntity
  8
0
  6
Continuous
 62
     7
100
AcDbLine
 10
4032.369091152614
 20
3118.638237428211
 30
0.0
 11
4032.369091152614
 21
2845.638237428211
 31
0.0
  0
LINE
  5
B541
330
1F
100
AcDbEntity
  8
0
  6
Continuous
 62
     7
100
AcDbLine
 10
3651.369091152614
 20
2845.638237428211
 30
0.0
 11
4032.369091152614
 21
2845.638237428211
 31
0.0
  0
LINE
  5
B542
330
1F
100
AcDbEntity
  8
0
  6
Continuous
 62
     7
100
AcDbLine
 10
3651.369091152614
 20
3118.638237428211
 30
0.0
 11
4032.369091152614
 21
3118.638237428211
 31
0.0
  0
LINE
  5
B543
330
1F
100
AcDbEntity
  8
0
  6
Continuous
 62
     7
100
AcDbLine
 10
3651.369091152614
 20
3118.638237428211
 30
0.0
 11
3651.369091152614
 21
2845.638237428211
 31
0.0
  0
LINE
  5
B544
330
1F
100
AcDbEntity
  8
0
  6
Continuous
 62
     7
100
AcDbLine
 10
3671.369091152615
 20
3118.638237428211
 30
0.0
 11
3671.369091152615
 21
3022.638237428211
 31
0.0
  0
LINE
  5
B545
330
1F
100
AcDbEntity
  8
0
  6
Continuous
 62
     7
100
AcDbLine
 10
3651.369091152614
 20
3110.638237428211
 30
0.0
 11
3761.369091152614
 21
3110.638237428211
 31
0.0
  0
LINE
  5
B546
330
1F
100
AcDbEntity
  8
0
  6
Continuous
 62
     7
100
AcDbLine
 10
3651.369091152614
 20
3094.638237428211
 30
0.0
 11
3761.369091152614
 21
3094.638237428211
 31
0.0
  0
LINE
  5
B547
330
1F
100
AcDbEntity
  8
AM_2
100
AcDbLine
 10
3671.369091152615
 20
3086.638237428211
 30
0.0
 11
3761.369091152614
 21
3086.638237428211
 31
0.0
  0
LINE
  5
B548
330
1F
100
AcDbEntity
  8
AM_2
100
AcDbLine
 10
3671.369091152615
 20
3062.638237428211
 30
0.0
 11
3761.369091152614
 21
3062.638237428211
 31
0.0
  0
LINE
  5
B549
330
1F
100
AcDbEntity
  8
AM_2
100
AcDbLine
 10
3671.369091152615
 20
3054.638237428211
 30
0.0
 11
3761.369091152614
 21
3054.638237428211
 31
0.0
  0
LINE
  5
B54A
330
1F
100
AcDbEntity
  8
0
  6
Continuous
 62
     7
100
AcDbLine
 10
3651.369091152614
 20
3046.638237428211
 30
0.0
 11
3761.369091152614
 21
3046.638237428211
 31
0.0
  0
LINE
  5
B54B
330
1F
100
AcDbEntity
  8
AM_2
100
AcDbLine
 10
3671.369091152615
 20
3038.638237428211
 30
0.0
 11
3761.369091152614
 21
3038.638237428211
 31
0.0
  0
LINE
  5
B54C
330
1F
100
AcDbEntity
  8
AM_2
100
AcDbLine
 10
3671.369091152615
 20
3030.638237428211
 30
0.0
 11
3761.369091152614
 21
3030.638237428211
 31
0.0
  0
LINE
  5
B54D
330
1F
100
AcDbEntity
  8
0
  6
Continuous
 62
     7
100
AcDbLine
 10
3651.369091152614
 20
3022.638237428211
 30
0.0
 11
3761.369091152614
 21
3022.638237428211
 31
0.0
  0
LINE
  5
B54E
330
1F
100
AcDbEntity
  8
0
  6
Continuous
 62
     7
100
AcDbLine
 10
3651.369091152614
 20
3118.638237428211
 30
0.0
 11
3651.369091152614
 21
3022.638237428211
 31
0.0
  0
LINE
  5
B54F
330
1F
100
AcDbEntity
  8
0
  6
Continuous
 62
     7
100
AcDbLine
 10
3651.369091152614
 20
3118.638237428211
 30
0.0
 11
3761.369091152614
 21
3118.638237428211
 31
0.0
  0
LINE
  5
B550
330
1F
100
AcDbEntity
  8
0
  6
Continuous
 62
     7
100
AcDbLine
 10
3761.369091152614
 20
3118.638237428211
 30
0.0
 11
3761.369091152614
 21
3022.638237428211
 31
0.0
  0
LINE
  5
B551
330
1F
100
AcDbEntity
  8
0
  6
Continuous
 62
     7
100
AcDbLine
 10
3651.369091152614
 20
3070.638237428211
 30
0.0
 11
3761.369091152614
 21
3070.638237428211
 31
0.0
  0
LINE
  5
B552
330
1F
100
AcDbEntity
  8
AM_2
100
AcDbLine
 10
3671.369091152615
 20
3062.638237428211
 30
0.0
 11
3761.369091152614
 21
3062.638237428211
 31
0.0
  0
LINE
  5
B553
330
1F
100
AcDbEntity
  8
0
  6
Continuous
 62
     7
100
AcDbLine
 10
3651.369091152614
 20
3102.638237428211
 30
0.0
 11
3761.369091152614
 21
3102.638237428211
 31
0.0
  0
LINE
  5
B554
330
1F
100
AcDbEntity
  8
0
  6
Continuous
 62
     7
100
AcDbLine
 10
3651.369091152614
 20
3078.638237428211
 30
0.0
 11
3761.369091152614
 21
3078.638237428211
 31
0.0
  0
LINE
  5
B555
330
1F
100
AcDbEntity
  8
AM_7
100
AcDbLine
 10
3861.390130080175
 20
3023.993660428211
 30
0.0
 11
3861.390130080175
 21
2885.057426428211
 31
0.0
  0
LINE
  5
B556
330
1F
100
AcDbEntity
  8
AM_0
100
AcDbLine
 10
3812.390130080175
 20
3019.078293428211
 30
0.0
 11
3869.390132080175
 21
3019.078293428211
 31
0.0
  0
LINE
  5
B557
330
1F
100
AcDbEntity
  8
AM_0
100
AcDbLine
 10
3869.390132080175
 20
3021.078293428211
 30
0.0
 11
3869.390132080175
 21
2890.078293428211
 31
0.0
  0
LINE
  5
B558
330
1F
100
AcDbEntity
  8
AM_0
100
AcDbLine
 10
3812.390130080175
 20
3019.078293428211
 30
0.0
 11
3812.390130080175
 21
2956.778294428211
 31
0.0
  0
LINE
  5
B559
330
1F
100
AcDbEntity
  8
AM_0
100
AcDbLine
 10
3853.390130080175
 20
2892.078293428211
 30
0.0
 11
3910.390132080175
 21
2892.078293428211
 31
0.0
  0
LINE
  5
B55A
330
1F
100
AcDbEntity
  8
AM_0
100
AcDbLine
 10
3910.390132080175
 20
2954.378294428211
 30
0.0
 11
3910.390132080175
 21
2892.078293428211
 31
0.0
  0
LINE
  5
B55B
330
1F
100
AcDbEntity
  8
AM_0
100
AcDbLine
 10
3853.390130080175
 20
2954.378294428211
 30
0.0
 11
3910.390132080175
 21
2954.378294428211
 31
0.0
  0
LINE
  5
B55C
330
1F
100
AcDbEntity
  8
AM_0
100
AcDbLine
 10
3853.390130080175
 20
2955.578293228212
 30
0.0
 11
3869.390132080175
 21
2955.578293228212
 31
0.0
  0
LINE
  5
B55D
330
1F
100
AcDbEntity
  8
AM_0
100
AcDbLine
 10
3853.390130080175
 20
3021.078293428211
 30
0.0
 11
3853.390130080175
 21
2890.078293428211
 31
0.0
  0
LINE
  5
B55E
330
1F
100
AcDbEntity
  8
AM_0
100
AcDbLine
 10
3812.390130080175
 20
2956.778294428211
 30
0.0
 11
3869.390132080175
 21
2956.778294428211
 31
0.0
  0
LINE
  5
B55F
330
1F
100
AcDbEntity
  8
AM_7
100
AcDbLine
 10
3834.390130080175
 20
3016.678293428211
 30
0.0
 11
3834.390130080175
 21
3001.678293428211
 31
0.0
  0
LINE
  5
B560
330
1F
100
AcDbEntity
  8
AM_7
100
AcDbLine
 10
3820.390130080176
 20
3016.678293428211
 30
0.0
 11
3820.390130080176
 21
3001.678293428211
 31
0.0
  0
LINE
  5
B561
330
1F
100
AcDbEntity
  8
AM_7
100
AcDbLine
 10
3842.410645480175
 20
3009.178293428211
 30
0.0
 11
3812.890130080175
 21
3009.178293428211
 31
0.0
  0
LINE
  5
B562
330
1F
100
AcDbEntity
  8
AM_7
100
AcDbLine
 10
3842.410645480175
 20
2966.678293428211
 30
0.0
 11
3812.890130080175
 21
2966.678293428211
 31
0.0
  0
LINE
  5
B563
330
1F
100
AcDbEntity
  8
AM_0
100
AcDbLine
 10
3853.390130080175
 20
3021.078293428211
 30
0.0
 11
3869.390132080175
 21
3021.078293428211
 31
0.0
  0
LINE
  5
B564
330
1F
100
AcDbEntity
  8
AM_7
100
AcDbLine
 10
3834.390130080175
 20
2974.178293428211
 30
0.0
 11
3834.390130080175
 21
2959.178293428211
 31
0.0
  0
LINE
  5
B565
330
1F
100
AcDbEntity
  8
AM_7
100
AcDbLine
 10
3820.390130080176
 20
2974.178293428211
 30
0.0
 11
3820.390130080176
 21
2959.178293428211
 31
0.0
  0
LINE
  5
B566
330
1F
100
AcDbEntity
  8
AM_7
100
AcDbLine
 10
3834.890130080175
 20
2987.928293428211
 30
0.0
 11
3819.890130080175
 21
2987.928293428211
 31
0.0
  0
LINE
  5
B567
330
1F
100
AcDbEntity
  8
AM_7
100
AcDbLine
 10
3827.390130080175
 20
2995.428293428211
 30
0.0
 11
3827.390130080175
 21
2980.428293428211
 31
0.0
  0
LINE
  5
B568
330
1F
100
AcDbEntity
  8
AM_7
100
AcDbLine
 10
3888.390132080175
 20
2894.478293428211
 30
0.0
 11
3888.390132080175
 21
2909.478293428211
 31
0.0
  0
LINE
  5
B569
330
1F
100
AcDbEntity
  8
AM_7
100
AcDbLine
 10
3902.390132080175
 20
2894.478293428211
 30
0.0
 11
3902.390132080175
 21
2909.478293428211
 31
0.0
  0
LINE
  5
B56A
330
1F
100
AcDbEntity
  8
AM_7
100
AcDbLine
 10
3880.369616080175
 20
2901.978293428211
 30
0.0
 11
3909.890132080175
 21
2901.978293428211
 31
0.0
  0
LINE
  5
B56B
330
1F
100
AcDbEntity
  8
AM_7
100
AcDbLine
 10
3887.890132080175
 20
2923.228293428211
 30
0.0
 11
3902.890132080175
 21
2923.228293428211
 31
0.0
  0
LINE
  5
B56C
330
1F
100
AcDbEntity
  8
AM_7
100
AcDbLine
 10
3880.369616080175
 20
2944.478293228211
 30
0.0
 11
3909.890132080175
 21
2944.478293228211
 31
0.0
  0
LINE
  5
B56D
330
1F
100
AcDbEntity
  8
AM_7
100
AcDbLine
 10
3888.390132080175
 20
2936.978293228211
 30
0.0
 11
3888.390132080175
 21
2951.978293228212
 31
0.0
  0
LINE
  5
B56E
330
1F
100
AcDbEntity
  8
AM_7
100
AcDbLine
 10
3895.390132080175
 20
2915.728293428211
 30
0.0
 11
3895.390132080175
 21
2930.728293428212
 31
0.0
  0
LINE
  5
B56F
330
1F
100
AcDbEntity
  8
AM_7
100
AcDbLine
 10
3902.390132080175
 20
2936.978293228211
 30
0.0
 11
3902.390132080175
 21
2951.978293228212
 31
0.0
  0
LINE
  5
B570
330
1F
100
AcDbEntity
  8
AM_0
100
AcDbLine
 10
3853.390130080175
 20
2890.078293428211
 30
0.0
 11
3869.390132080175
 21
2890.078293428211
 31
0.0
  0
LINE
  5
B571
330
1F
100
AcDbEntity
  8
AM_0
100
AcDbLine
 10
3910.390132080175
 20
3087.367497428211
 30
0.0
 11
3910.390132080175
 21
3084.167507428211
 31
0.0
  0
LINE
  5
B572
330
1F
100
AcDbEntity
  8
AM_0
100
AcDbLine
 10
3812.390130080175
 20
3087.367497428211
 30
0.0
 11
3812.390130080175
 21
3084.167507428211
 31
0.0
  0
LINE
  5
B573
330
1F
100
AcDbEntity
  8
AM_0
100
AcDbLine
 10
3812.390130080175
 20
3087.367497428211
 30
0.0
 11
3852.060601080175
 21
3087.367497428211
 31
0.0
  0
LINE
  5
B574
330
1F
100
AcDbEntity
  8
AM_0
100
AcDbLine
 10
3812.390130080175
 20
3084.167507428211
 30
0.0
 11
3852.060609080175
 21
3084.167507428211
 31
0.0
  0
LINE
  5
B575
330
1F
100
AcDbEntity
  8
AM_7
100
AcDbLine
 10
3809.390130080175
 20
3085.767507428211
 30
0.0
 11
3913.390132080175
 21
3085.767507428211
 31
0.0
  0
LINE
  5
B576
330
1F
100
AcDbEntity
  8
AM_7
100
AcDbLine
 10
3861.390130080175
 20
3095.767507428211
 30
0.0
 11
3861.390130080175
 21
3075.767507428211
 31
0.0
  0
LINE
  5
B577
330
1F
100
AcDbEntity
  8
AM_0
100
AcDbLine
 10
3870.719661080175
 20
3087.367497428211
 30
0.0
 11
3910.390132080175
 21
3087.367497428211
 31
0.0
  0
LINE
  5
B578
330
1F
100
AcDbEntity
  8
AM_0
100
AcDbLine
 10
3870.719653080175
 20
3084.167507428211
 30
0.0
 11
3910.390132080175
 21
3084.167507428211
 31
0.0
  0
CIRCLE
  5
B579
330
1F
100
AcDbEntity
  8
AM_0
100
AcDbCircle
 10
3834.390130080175
 20
2966.678293428211
 30
0.0
 40
4.5
  0
CIRCLE
  5
B57A
330
1F
100
AcDbEntity
  8
AM_0
100
AcDbCircle
 10
3820.390130080176
 20
3009.178293428211
 30
0.0
 40
4.5
  0
CIRCLE
  5
B57B
330
1F
100
AcDbEntity
  8
AM_0
100
AcDbCircle
 10
3834.390130080175
 20
2966.678293428211
 30
0.0
 40
2.9000001
  0
CIRCLE
  5
B57C
330
1F
100
AcDbEntity
  8
AM_0
100
AcDbCircle
 10
3834.390130080175
 20
3009.178293428211
 30
0.0
 40
4.5
  0
CIRCLE
  5
B57D
330
1F
100
AcDbEntity
  8
AM_0
100
AcDbCircle
 10
3820.390130080176
 20
3009.178293428211
 30
0.0
 40
2.9000001
  0
CIRCLE
  5
B57E
330
1F
100
AcDbEntity
  8
AM_0
100
AcDbCircle
 10
3834.390130080175
 20
3009.178293428211
 30
0.0
 40
2.9000001
  0
CIRCLE
  5
B57F
330
1F
100
AcDbEntity
  8
AM_0
100
AcDbCircle
 10
3827.390130080175
 20
2987.928293428211
 30
0.0
 40
2.9000001
  0
CIRCLE
  5
B580
330
1F
100
AcDbEntity
  8
AM_0
100
AcDbCircle
 10
3827.390130080175
 20
2987.928293428211
 30
0.0
 40
4.5
  0
CIRCLE
  5
B581
330
1F
100
AcDbEntity
  8
AM_0
100
AcDbCircle
 10
3820.390130080176
 20
2966.678293428211
 30
0.0
 40
2.9000001
  0
CIRCLE
  5
B582
330
1F
100
AcDbEntity
  8
AM_0
100
AcDbCircle
 10
3820.390130080176
 20
2966.678293428211
 30
0.0
 40
4.5
  0
CIRCLE
  5
B583
330
1F
100
AcDbEntity
  8
AM_0
100
AcDbCircle
 10
3888.390132080175
 20
2944.478293228211
 30
0.0
 40
4.5
  0
CIRCLE
  5
B584
330
1F
100
AcDbEntity
  8
AM_0
100
AcDbCircle
 10
3888.390132080175
 20
2944.478293228211
 30
0.0
 40
2.9000001
  0
CIRCLE
  5
B585
330
1F
100
AcDbEntity
  8
AM_0
100
AcDbCircle
 10
3902.390132080175
 20
2901.978293428211
 30
0.0
 40
4.5
  0
CIRCLE
  5
B586
330
1F
100
AcDbEntity
  8
AM_0
100
AcDbCircle
 10
3895.390132080175
 20
2923.228293428211
 30
0.0
 40
2.9000001
  0
CIRCLE
  5
B587
330
1F
100
AcDbEntity
  8
AM_0
100
AcDbCircle
 10
3895.390132080175
 20
2923.228293428211
 30
0.0
 40
4.5
  0
CIRCLE
  5
B588
330
1F
100
AcDbEntity
  8
AM_0
100
AcDbCircle
 10
3888.390132080175
 20
2901.978293428211
 30
0.0
 40
2.9000001
  0
CIRCLE
  5
B589
330
1F
100
AcDbEntity
  8
AM_0
100
AcDbCircle
 10
3902.390132080175
 20
2901.978293428211
 30
0.0
 40
2.9000001
  0
CIRCLE
  5
B58A
330
1F
100
AcDbEntity
  8
AM_0
100
AcDbCircle
 10
3888.390132080175
 20
2901.978293428211
 30
0.0
 40
4.5
  0
CIRCLE
  5
B58B
330
1F
100
AcDbEntity
  8
AM_0
100
AcDbCircle
 10
3902.390132080175
 20
2944.478293228211
 30
0.0
 40
4.5
  0
CIRCLE
  5
B58C
330
1F
100
AcDbEntity
  8
AM_0
100
AcDbCircle
 10
3902.390132080175
 20
2944.478293228211
 30
0.0
 40
2.9000001
  0
CIRCLE
  5
B58D
330
1F
100
AcDbEntity
  8
AM_0
100
AcDbCircle
 10
3861.390130080175
 20
3085.767507428211
 30
0.0
 40
8.0
  0
ARC
  5
B58E
330
1F
100
AcDbEntity
  8
AM_0
100
AcDbCircle
 10
3852.060601080175
 20
3089.367497428212
 30
0.0
 40
2.0
100
AcDbArc
 50
270.000030000003
 51
338.89976
  0
ARC
  5
B58F
330
1F
100
AcDbEntity
  8
AM_0
100
AcDbCircle
 10
3870.719653080175
 20
3082.167507428211
 30
0.0
 40
2.0
100
AcDbArc
 50
90.0
 51
158.8997800000091
  0
ARC
  5
B590
330
1F
100
AcDbEntity
  8
AM_0
100
AcDbCircle
 10
3852.060609080175
 20
3082.167507428211
 30
0.0
 40
2.0
100
AcDbArc
 50
21.10023600000907
 51
89.99997300000769
  0
ARC
  5
B591
330
1F
100
AcDbEntity
  8
AM_0
100
AcDbCircle
 10
3870.719661080175
 20
3089.367497428212
 30
0.0
 40
2.0
100
AcDbArc
 50
201.1002199999909
 51
270.0
  0
TEXT
  5
B592
330
1F
100
AcDbEntity
  8
AM_6
100
AcDbText
 10
3674.226091152615
 20
3041.038237428211
 30
0.0
 40
3.2
  1
丁番係数：4.1
 41
0.84496202
100
AcDbText
  0
TEXT
  5
B593
330
1F
100
AcDbEntity
  8
AM_6
100
AcDbText
 10
3657.026091152614
 20
3113.038237428212
 30
0.0
 40
3.2
  1
品　名
 41
0.85537027
100
AcDbText
  0
TEXT
  5
B594
330
1F
100
AcDbEntity
  8
AM_6
100
AcDbText
 10
3657.026091152614
 20
3105.038237428211
 30
0.0
 40
3.2
  1
品　番
 41
0.85537027
100
AcDbText
  0
TEXT
  5
B595
330
1F
100
AcDbEntity
  8
AM_6
100
AcDbText
 10
3657.026091152614
 20
3097.038237428212
 30
0.0
 40
3.2
  1
材　質
 41
0.85537027
100
AcDbText
  0
TEXT
  5
B596
330
1F
100
AcDbEntity
  8
AM_6
100
AcDbText
 10
3657.026091152614
 20
3089.038237428211
 30
0.0
 40
3.2
  1
仕上げ
 41
0.85537027
100
AcDbText
  0
TEXT
  5
B597
330
1F
100
AcDbEntity
  8
AM_6
100
AcDbText
 10
3674.226091152615
 20
3049.038237428212
 30
0.0
 40
3.2
  1
＊
 41
0.90047268
100
AcDbText
  0
TEXT
  5
B598
330
1F
100
AcDbEntity
  8
AM_6
100
AcDbText
 10
3674.226091152615
 20
3057.038237428211
 30
0.0
 40
3.2
  1
＊
 41
0.90047268
100
AcDbText
  0
TEXT
  5
B599
330
1F
100
AcDbEntity
  8
AM_6
100
AcDbText
 10
3653.826091152615
 20
3065.038237428212
 30
0.0
 40
3.2
  1
セットビス
 41
0.84892707
100
AcDbText
  0
TEXT
  5
B59A
330
1F
100
AcDbEntity
  8
AM_6
100
AcDbText
 10
3658.626091152615
 20
3041.038237428211
 30
0.0
 40
3.2
  1
備考
 41
0.8643907499999999
100
AcDbText
  0
TEXT
  5
B59B
330
1F
100
AcDbEntity
  8
AM_6
100
AcDbText
 10
3655.426091152615
 20
3073.038237428211
 30
0.0
 40
3.2
  1
左右勝手
 41
0.8512700499999999
100
AcDbText
  0
TEXT
  5
B59C
330
1F
100
AcDbEntity
  8
AM_6
100
AcDbText
 10
3674.226091152615
 20
3113.038237428212
 30
0.0
 40
3.2
  1
旗丁番（左右兼用）
 41
0.84496202
100
AcDbText
  0
TEXT
  5
B59D
330
1F
100
AcDbEntity
  8
AM_6
100
AcDbText
 10
3674.226091152615
 20
3105.038237428211
 30
0.0
 40
3.2
  1
DH-202
 41
0.84741102
100
AcDbText
  0
TEXT
  5
B59E
330
1F
100
AcDbEntity
  8
AM_6
100
AcDbText
 10
3674.226091152615
 20
3097.038237428212
 30
0.0
 40
3.2
  1
羽根：アルミ/軸：ステンレス
 41
0.8428951399999998
100
AcDbText
  0
TEXT
  5
B59F
330
1F
100
AcDbEntity
  8
AM_6
100
AcDbText
 10
3674.311751152615
 20
3089.038237428211
 30
0.0
 40
3.2
  1
羽根：プレアルマイト（シルバー）
 41
0.7797279900000001
100
AcDbText
  0
TEXT
  5
B5A0
330
1F
100
AcDbEntity
  8
AM_6
100
AcDbText
 10
3673.990541152615
 20
3073.004407428212
 30
0.0
 40
3.2
  1
左右兼用
 41
0.8512700499999999
100
AcDbText
  0
TEXT
  5
B5A1
330
1F
100
AcDbEntity
  8
AM_6
100
AcDbText
 10
3674.226091152615
 20
3081.038237428212
 30
0.0
 40
3.2
  1
軸　：生地
 41
0.84892707
100
AcDbText
  0
DIMENSION
  5
B74C
330
1F
100
AcDbEntity
  8
AM_5
100
AcDbDimension
  2
*D5
 10
3922.390132080175
 20
3087.367497428211
 30
0.0
 11
3919.290132080174
 21
3093.214164094879
 31
0.0
 70
    32
 71
     5
 42
3.19999000000007
  3
SYS$0
100
AcDbAlignedDimension
 13
3910.390132080175
 23
3084.167507428211
 33
0.0
 14
3910.390132080175
 24
3087.367497428211
 34
0.0
 50
90.0
100
AcDbRotatedDimension
  0
DIMENSION
  5
B774
330
1F
100
AcDbEntity
  8
AM_5
100
AcDbDimension
  2
*D6
 10
3866.445055309061
 20
3091.968130858993
 30
0.0
 11
3843.386384633753
 21
3069.315582588253
 31
0.0
 70
   163
 71
     5
 42
16.00000000000182
  3
SYS$3
100
AcDbDiametricDimension
 15
3856.335204851287
 25
3079.566883997427
 35
0.0
 40
0.0
1001
ACAD
1000
DSTYLE
1002
{
1070
    41
1040
1.0
1070
   172
1070
     1
1070
   289
1070
     2
1070
   342
1005
6C4
1002
}
  0
DIMENSION
  5
B7A0
330
1F
100
AcDbEntity
  8
AM_5
100
AcDbDimension
  2
*D7
 10
3861.390130080175
 20
3033.078294428211
 30
0.0
 11
3836.890130080175
 21
3036.178294428211
 31
0.0
 70
    32
 71
     5
 42
49.0
  3
SYS$0
100
AcDbAlignedDimension
 13
3812.390130080175
 23
3019.078293428211
 33
0.0
 14
3861.390130080175
 24
3023.993660428211
 34
0.0
 50
0.0000000000000114
100
AcDbRotatedDimension
  0
DIMENSION
  5
B7B6
330
1F
100
AcDbEntity
  8
AM_5
100
AcDbDimension
  2
*D8
 10
3910.390132080175
 20
3033.078294428209
 30
0.0
 11
3885.890131080175
 21
3036.178294428209
 31
0.0
 70
    32
 71
     5
 42
49.00000199999976
  3
SYS$0
100
AcDbAlignedDimension
 13
3861.390130080175
 23
3023.993660428211
 33
0.0
 14
3910.390132080175
 24
2954.378294428211
 34
0.0
100
AcDbRotatedDimension
  0
DIMENSION
  5
B7CC
330
1F
100
AcDbEntity
  8
AM_5
100
AcDbDimension
  2
*D9
 10
3910.390132080175
 20
3043.078294428211
 30
0.0
 11
3861.390131080175
 21
3046.178294428211
 31
0.0
 70
    32
 71
     5
 42
98.00000199999978
  3
SYS$0
100
AcDbAlignedDimension
 13
3812.390130080175
 23
3019.078293428211
 33
0.0
 14
3910.390132080175
 24
2954.378294428211
 34
0.0
 50
0.0000000000000114
100
AcDbRotatedDimension
  0
DIMENSION
  5
B80E
330
1F
100
AcDbEntity
  8
AM_5
100
AcDbDimension
  2
*D10
 10
3922.390132080175
 20
2954.378294428211
 30
0.0
 11
3919.290132080174
 21
2949.428293828212
 31
0.0
 70
    32
 71
     5
 42
9.900001199999678
  3
SYS$0
100
AcDbAlignedDimension
 13
3909.890132080175
 23
2944.478293228211
 33
0.0
 14
3910.390132080175
 24
2954.378294428211
 34
0.0
 50
90.0
100
AcDbRotatedDimension
  0
DIMENSION
  5
B824
330
1F
100
AcDbEntity
  8
AM_5
100
AcDbDimension
  2
*D11
 10
3922.390132080177
 20
2892.078293428211
 30
0.0
 11
3919.290132080176
 21
2897.028293428212
 31
0.0
 70
    32
 71
     5
 42
9.90000000000009
  3
SYS$0
100
AcDbAlignedDimension
 13
3909.890132080175
 23
2901.978293428211
 33
0.0
 14
3910.390132080175
 24
2892.078293428211
 34
0.0
 50
90.0
100
AcDbRotatedDimension
  0
DIMENSION
  5
B83A
330
1F
100
AcDbEntity
  8
AM_5
100
AcDbDimension
  2
*D12
 10
3922.390132080179
 20
2923.228293428211
 30
0.0
 11
3919.290132080178
 21
2912.603293428212
 31
0.0
 70
    32
 71
     5
 42
21.25
  3
SYS$0
100
AcDbAlignedDimension
 13
3909.890132080175
 23
2901.978293428211
 33
0.0
 14
3902.890132080175
 24
2923.228293428211
 34
0.0
 50
90.0
100
AcDbRotatedDimension
  0
DIMENSION
  5
B866
330
1F
100
AcDbEntity
  8
AM_5
100
AcDbDimension
  2
*D13
 10
3922.390132080177
 20
2923.228293428211
 30
0.0
 11
3919.290132080176
 21
2933.853293328212
 31
0.0
 70
    32
 71
     5
 42
21.2499998000003
  3
SYS$0
100
AcDbAlignedDimension
 13
3909.890132080175
 23
2944.478293228211
 33
0.0
 14
3902.890132080175
 24
2923.228293428211
 34
0.0
 50
90.0
100
AcDbRotatedDimension
  0
DIMENSION
  5
B8BE
330
1F
100
AcDbEntity
  8
AM_5
100
AcDbDimension
  2
*D14
 10
3902.390132080175
 20
2882.478293428211
 30
0.0
 11
3898.890132080174
 21
2885.578293428211
 31
0.0
 70
    32
 71
     5
 42
7.0
  3
SYS$0
100
AcDbAlignedDimension
 13
3895.390132080175
 23
2915.728293428211
 33
0.0
 14
3902.390132080175
 24
2894.478293428211
 34
0.0
 50
0.0000000000001132
100
AcDbRotatedDimension
  0
DIMENSION
  5
B8D4
330
1F
100
AcDbEntity
  8
AM_5
100
AcDbDimension
  2
*D15
 10
3902.390132080175
 20
2872.478293428209
 30
0.0
 11
3895.390132080175
 21
2875.578293428209
 31
0.0
 70
    32
 71
     5
 42
14.0
  3
SYS$0
100
AcDbAlignedDimension
 13
3888.390132080175
 23
2894.478293428211
 33
0.0
 14
3902.390132080175
 24
2894.478293428211
 34
0.0
 50
0.0000000000001132
100
AcDbRotatedDimension
  0
DIMENSION
  5
B8EA
330
1F
100
AcDbEntity
  8
AM_5
100
AcDbDimension
  2
*D16
 10
3910.390132080175
 20
2872.478293428206
 30
0.0
 11
3906.390132080175
 21
2875.578293428206
 31
0.0
 70
    32
 71
     5
 42
8.0
  3
SYS$0
100
AcDbAlignedDimension
 13
3902.390132080175
 23
2894.478293428211
 33
0.0
 14
3910.390132080175
 24
2892.078293428211
 34
0.0
 50
0.0000000000001132
100
AcDbRotatedDimension
  0
DIMENSION
  5
B916
330
1F
100
AcDbEntity
  8
AM_5
100
AcDbDimension
  2
*D17
 10
3861.390130080175
 20
2872.478293428206
 30
0.0
 11
3874.890131080175
 21
2875.578293428206
 31
0.0
 70
    32
 71
     5
 42
27.00000199999977
  3
SYS$0
100
AcDbAlignedDimension
 13
3888.390132080175
 23
2894.478293428211
 33
0.0
 14
3861.390130080175
 24
2885.057426428211
 34
0.0
 50
0.0000000000001132
100
AcDbRotatedDimension
  0
DIMENSION
  5
B92C
330
1F
100
AcDbEntity
  8
AM_5
100
AcDbDimension
  2
*D18
 10
3888.390132080175
 20
2882.478293428206
 30
0.0
 11
3891.890132080174
 21
2885.578293428206
 31
0.0
 70
    32
 71
     5
 42
7.0
  3
SYS$0
100
AcDbAlignedDimension
 13
3895.390132080175
 23
2915.728293428211
 33
0.0
 14
3888.390132080175
 24
2894.478293428211
 34
0.0
 50
0.0000000000001132
100
AcDbRotatedDimension
  0
DIMENSION
  5
BA08
330
1F
100
AcDbEntity
  8
AM_5
100
AcDbDimension
  2
*D19
 10
3899.692993439484
 20
2905.580437671974
 30
0.0
 11
3941.409298091783
 21
2881.209489936777
 31
0.0
 70
   163
  1
10-%%c5.8×<>サラ（両面サラ）
 71
     5
 42
8.999999999996362
  3
SYS$3
100
AcDbDiametricDimension
 15
3905.087270720872
 25
2898.376149184452
 35
0.0
 40
0.0
1001
ACAD
1000
DSTYLE
1002
{
1070
    41
1040
1.0
1070
   172
1070
     1
1070
   289
1070
     2
1070
   342
1005
6C4
1002
}
  0
DIMENSION
  5
BA88
330
1F
100
AcDbEntity
  8
AM_5
100
AcDbDimension
  2
*D20
 10
3932.390132080179
 20
3019.078293428211
 30
0.0
 11
3929.290132080179
 21
2987.928293928212
 31
0.0
 70
    32
 71
     5
 42
62.29999899999985
  3
SYS$0
100
AcDbAlignedDimension
 13
3869.390132080175
 23
2956.778294428211
 33
0.0
 14
3869.390132080175
 24
3019.078293428211
 34
0.0
 50
90.0
100
AcDbRotatedDimension
  0
DIMENSION
  5
BAA7
330
1F
100
AcDbEntity
  8
AM_5
100
AcDbDimension
  2
*D21
 10
3932.390132080182
 20
2956.778294428211
 30
0.0
 11
3926.249537707502
 21
2961.675590358288
 31
0.0
 70
   160
 71
     5
 42
2.40000000000009
  3
SYS$0
100
AcDbAlignedDimension
 13
3869.390132080175
 23
2954.378294428211
 33
0.0
 14
3869.390132080175
 24
2956.778294428211
 34
0.0
 50
90.0
100
AcDbRotatedDimension
1001
ACAD
1000
DSTYLE
1002
{
1070
   279
1070
     1
1002
}
  0
DIMENSION
  5
BAC1
330
1F
100
AcDbEntity
  8
AM_5
100
AcDbDimension
  2
*D22
 10
3932.390132080182
 20
2954.378294428211
 30
0.0
 11
3929.290132080181
 21
2923.228293928212
 31
0.0
 70
    32
 71
     5
 42
62.30000100000006
  3
SYS$0
100
AcDbAlignedDimension
 13
3910.390132080175
 23
2892.078293428211
 33
0.0
 14
3869.390132080175
 24
2954.378294428211
 34
0.0
 50
90.0
100
AcDbRotatedDimension
  0
DIMENSION
  5
BB16
330
1F
100
AcDbEntity
  8
AM_5
100
AcDbDimension
  2
*D23
 10
3942.390132080182
 20
2892.078293428211
 30
0.0
 11
3939.290132080182
 21
2955.578293428212
 31
0.0
 70
    32
 71
     5
 42
127.0
  3
SYS$0
100
AcDbAlignedDimension
 13
3869.390132080175
 23
3019.078293428211
 33
0.0
 14
3869.390132080175
 24
2892.078293428211
 34
0.0
 50
90.00000000000003
100
AcDbRotatedDimension
  0
ENDSEC
  0
SECTION
  2
OBJECTS
  0
DICTIONARY
  5
C
330
0
100
AcDbDictionary
281
     1
  3
ACAD_2007HEADERVARS_RT
350
BB63
  3
ACAD_BGPLOT_KEY
350
AB06
  3
ACAD_COLOR
350
A91D
  3
ACAD_GROUP
350
D
  3
ACAD_LAYOUT
350
1A
  3
ACAD_MATERIAL
350
A91C
  3
ACAD_MLINESTYLE
350
17
  3
ACAD_PLOTSETTINGS
350
19
  3
ACAD_PLOTSTYLENAME
350
E
  3
ACAD_TABLESTYLE
350
AAB9
  3
ACAD_VISUALSTYLE
350
B0F1
  3
AcAsAppObject
350
3DA1
  3
ACASGREF_MASTER
350
3DE9
  3
AcDbVariableDictionary
350
34
  3
AcmDictionary
350
47
  3
AD_GREF_MODULE
350
3DEA
  3
AD_MAPI_MODULE
350
3E06
  3
AMG
350
2B
  3
AMGSNAPSETTINGS
350
7D
  3
ASE_INDEX_DICTIONARY
350
B331
  3
MAPISURF_MODULE
350
3DEB
  0
DICTIONARY
  5
3F95
330
2
100
AcDbDictionary
280
     1
281
     1
  3
ACAD_LAYERFILTERS
360
B3A8
  3
ACAD_LAYERSTATES
360
3F96
  3
ACLYDICTIONARY
360
B3A7
  3
AMLAYER_GROUPCOLORS
360
AAB4
  0
DICTIONARY
  5
8A
330
1F
100
AcDbDictionary
280
     1
281
     1
  3
ACAD_SORTENTS
360
B1BA
  0
DICTIONARY
  5
BB63
102
{ACAD_REACTORS
330
C
102
}
330
C
100
AcDbDictionary
281
     1
  3
DIMARCSYM
350
BB64
  0
DICTIONARY
  5
AB06
102
{ACAD_REACTORS
330
C
102
}
330
C
100
AcDbDictionary
280
     1
281
     1
  0
DICTIONARY
  5
A91D
102
{ACAD_REACTORS
330
C
102
}
330
C
100
AcDbDictionary
281
     1
  0
DICTIONARY
  5
D
102
{ACAD_REACTORS
330
C
102
}
330
C
100
AcDbDictionary
281
     1
  0
DICTIONARY
  5
1A
102
{ACAD_REACTORS
330
C
102
}
330
C
100
AcDbDictionary
281
     1
  3
Model
350
22
  3
ﾚｲｱｳﾄ1
350
1E
  3
ﾚｲｱｳﾄ2
350
26
  0
DICTIONARY
  5
A91C
102
{ACAD_REACTORS
330
C
102
}
330
C
100
AcDbDictionary
281
     1
  3
ByBlock
350
B0EF
  3
ByLayer
350
B0EE
  3
Global
350
B0F0
  0
DICTIONARY
  5
17
102
{ACAD_REACTORS
330
C
102
}
330
C
100
AcDbDictionary
281
     1
  3
Standard
350
18
  0
DICTIONARY
  5
19
102
{ACAD_REACTORS
330
C
102
}
330
C
100
AcDbDictionary
281
     1
  0
ACDBDICTIONARYWDFLT
  5
E
102
{ACAD_REACTORS
330
C
102
}
330
C
100
AcDbDictionary
281
     1
  3
Normal
350
F
100
AcDbDictionaryWithDefault
340
F
  0
DICTIONARY
  5
AAB9
102
{ACAD_REACTORS
330
C
102
}
330
C
100
AcDbDictionary
281
     1
  3
Standard
350
AABA
  0
DICTIONARY
  5
B0F1
102
{ACAD_REACTORS
330
C
102
}
330
C
100
AcDbDictionary
281
     1
  3
2dWireframe
350
B0F7
  3
3D Hidden
350
B0F9
  3
3dWireframe
350
B0F8
  3
Basic
350
B0F6
  3
Brighten
350
B0FD
  3
ColorChange
350
B101
  3
Conceptual
350
B0FA
  3
Dim
350
B0FC
  3
Facepattern
350
B100
  3
Flat
350
B0F2
  3
FlatWithEdges
350
B0F3
  3
Gouraud
350
B0F4
  3
GouraudWithEdges
350
B0F5
  3
Linepattern
350
B0FF
  3
Realistic
350
B0FB
  3
Thicken
350
B0FE
  0
ACAD_PROXY_OBJECT
  5
3DA1
102
{ACAD_REACTORS
330
C
102
}
330
C
100
AcDbProxyObject
 90
      499
 91
      576
 95
       23
 70
     0
 93
       10
310
404C
 94
        0
  0
ACAD_PROXY_OBJECT
  5
3DE9
102
{ACAD_REACTORS
330
C
102
}
330
C
100
AcDbProxyObject
 90
      499
 91
      581
 95
       23
 70
     0
 93
       34
310
010000404C
 94
        0
  0
DICTIONARY
  5
34
102
{ACAD_REACTORS
330
C
102
}
330
C
100
AcDbDictionary
281
     1
  3
CTABLESTYLE
350
AAF3
  3
DIMASSOC
350
A10C
  3
FIELDEVAL
350
AB07
  3
INDEXCTL
350
35
  3
SORTENTS
350
194C
  0
DICTIONARY
  5
47
102
{ACAD_REACTORS
330
C
102
}
330
C
100
AcDbDictionary
281
     1
  3
AcmBOM
350
7E8
  3
AcmStdDictionary
350
4C
  3
AMDTSECTSYM_ARROWCOLOR
350
A929
  0
ACAD_PROXY_OBJECT
  5
3DEA
102
{ACAD_REACTORS
330
C
102
}
330
C
100
AcDbProxyObject
 90
      499
 91
      582
 95
       23
 70
     0
 93
      114
310
00000043800000000000000000000C
 94
        0
  0
ACAD_PROXY_OBJECT
  5
3E06
102
{ACAD_REACTORS
330
C
102
}
330
C
100
AcDbProxyObject
 90
      499
 91
      594
 95
       23
 70
     0
 93
       34
310
05000044CC
 94
        0
  0
DICTIONARY
  5
2B
102
{ACAD_REACTORS
330
C
102
}
330
C
100
AcDbDictionary
281
     1
  0
DICTIONARY
  5
7D
102
{ACAD_REACTORS
330
C
102
}
330
C
100
AcDbDictionary
281
     1
  0
DICTIONARY
  5
B331
102
{ACAD_REACTORS
330
C
102
}
330
C
100
AcDbDictionary
281
     1
  3
ASEBlockHierarchyIndexRecord
350
B332
1001
DCO15
1040
1594111214.218
  0
ACAD_PROXY_OBJECT
  5
3DEB
102
{ACAD_REACTORS
330
C
102
}
330
C
100
AcDbProxyObject
 90
      499
 91
      583
 95
       23
 70
     0
 93
        8
310
047E
 94
        0
  0
DICTIONARY
  5
B3A8
102
{ACAD_REACTORS
330
3F95
102
}
330
3F95
100
AcDbDictionary
281
     1
  0
DICTIONARY
  5
3F96
102
{ACAD_REACTORS
330
3F95
102
}
330
3F95
100
AcDbDictionary
281
     1
  3
20011210
350
3FB7
  0
DICTIONARY
  5
B3A7
102
{ACAD_REACTORS
330
3F95
102
}
330
3F95
100
AcDbDictionary
281
     1
1001
ACAD
1000
<All
  0
DICTIONARY
  5
AAB4
102
{ACAD_REACTORS
330
3F95
102
}
330
3F95
100
AcDbDictionary
280
     1
281
     1
  0
SORTENTSTABLE
  5
B1BA
102
{ACAD_REACTORS
330
8A
102
}
330
8A
100
AcDbSortentsTable
330
1F
  0
XRECORD
  5
BB64
102
{ACAD_REACTORS
330
BB63
102
}
330
BB63
100
AcDbXrecord
280
     1
 70
     1
  0
LAYOUT
  5
22
102
{ACAD_REACTORS
330
1A
102
}
330
1A
100
AcDbPlotSettings
  1

  2
FX DocuWide 2050/2051
  4
A3
  6
AM_VIEW1
 40
3.174999952316284
 41
3.174999952316284
 42
3.17498779296875
 43
3.17498779296875
 44
296.989501953125
 45
419.9889831542968
 46
0.0
 47
1.295841228961961
 48
214.3704939521119
 49
367.5855324241176
140
275.6727856380065
141
407.629191407817
142
1.0
143
0.7225445603030646
 70
  3764
 72
     1
 73
     1
 74
     2
  7
monochrome.ctb
 75
     0
147
1.383997686703999
 76
     0
 77
     2
 78
   200
148
-1700.85588156276
149
-1647.985052086429
100
AcDbLayout
  1
Model
 70
     1
 71
     0
 10
0.0
 20
0.0
 11
12.0
 21
9.0
 12
0.0
 22
0.0
 32
0.0
 14
0.0
 24
0.0
 34
0.0
 15
0.0
 25
0.0
 35
0.0
146
0.0
 13
0.0
 23
0.0
 33
0.0
 16
1.0
 26
0.0
 36
0.0
 17
0.0
 27
1.0
 37
0.0
 76
     0
330
1F
331
B0EC
1001
ACAD_PSEXT
1000
FX DocuWide 2050/2051
1000
FX DocuWide 2050/2051
1000
IP_192.200.15.252
1000

1070
     0
  0
LAYOUT
  5
1E
102
{ACAD_REACTORS
330
1A
102
}
330
1A
100
AcDbPlotSettings
  1

  2
\\ML370\XEROX
  4
A4
  6

 40
3.174999952316284
 41
3.174999952316284
 42
3.175003051757812
 43
3.17498779296875
 44
209.8674926757813
 45
296.6719970703125
 46
0.0
 47
0.0
 48
0.0
 49
0.0
140
0.0
141
0.0
142
1.0
143
1.0
 70
   688
 72
     1
 73
     1
 74
     5
  7
monochrome.ctb
 75
    16
147
1.0
 76
     0
 77
     2
 78
   300
148
0.0
149
0.0
100
AcDbLayout
  1
ﾚｲｱｳﾄ1
 70
     1
 71
     1
 10
-3.17498779296875
 20
-3.174999952316284
 11
293.4970092773438
 21
206.692492723465
 12
0.0
 22
0.0
 32
0.0
 14
1.000000000000000E+20
 24
1.000000000000000E+20
 34
1.000000000000000E+20
 15
-1.000000000000000E+20
 25
-1.000000000000000E+20
 35
-1.000000000000000E+20
146
0.0
 13
0.0
 23
0.0
 33
0.0
 16
1.0
 26
0.0
 36
0.0
 17
0.0
 27
1.0
 37
0.0
 76
     0
330
1B
  0
LAYOUT
  5
26
102
{ACAD_REACTORS
330
1A
102
}
330
1A
100
AcDbPlotSettings
  1

  2
\\ML370\XEROX
  4

  6

 40
0.0
 41
0.0
 42
0.0
 43
0.0
 44
0.0
 45
0.0
 46
0.0
 47
0.0
 48
0.0
 49
0.0
140
0.0
141
0.0
142
1.0
143
1.0
 70
   688
 72
     0
 73
     0
 74
     5
  7
monochrome.ctb
 75
    16
147
1.0
 76
     0
 77
     2
 78
   300
148
0.0
149
0.0
100
AcDbLayout
  1
ﾚｲｱｳﾄ2
 70
     1
 71
     2
 10
0.0
 20
0.0
 11
12.0
 21
9.0
 12
0.0
 22
0.0
 32
0.0
 14
0.0
 24
0.0
 34
0.0
 15
0.0
 25
0.0
 35
0.0
146
0.0
 13
0.0
 23
0.0
 33
0.0
 16
1.0
 26
0.0
 36
0.0
 17
0.0
 27
1.0
 37
0.0
 76
     0
330
23
  0
MATERIAL
  5
B0EF
102
{ACAD_XDICTIONARY
360
BB69
102
}
102
{ACAD_REACTORS
330
A91C
102
}
330
A91C
100
AcDbMaterial
  1
ByBlock
  0
MATERIAL
  5
B0EE
102
{ACAD_XDICTIONARY
360
BB67
102
}
102
{ACAD_REACTORS
330
A91C
102
}
330
A91C
100
AcDbMaterial
  1
ByLayer
  0
MATERIAL
  5
B0F0
102
{ACAD_XDICTIONARY
360
BB6B
102
}
102
{ACAD_REACTORS
330
A91C
102
}
330
A91C
100
AcDbMaterial
  1
Global
  0
MLINESTYLE
  5
18
102
{ACAD_REACTORS
330
17
102
}
330
17
100
AcDbMlineStyle
  2
STANDARD
 70
     0
  3

 62
   256
 51
90.0
 52
90.0
 71
     2
 49
0.5
 62
   256
  6
BYLAYER
 49
-0.5
 62
   256
  6
BYLAYER
  0
ACDBPLACEHOLDER
  5
F
102
{ACAD_REACTORS
330
E
102
}
330
E
  0
TABLESTYLE
  5
AABA
102
{ACAD_XDICTIONARY
360
BB65
102
}
102
{ACAD_REACTORS
330
AAB9
102
}
330
AAB9
100
AcDbTableStyle
  3
Standard
 70
     0
 71
     0
 40
1.5
 41
1.5
280
     0
281
     0
  7
STANDARD
140
4.5
170
     2
 62
     0
 63
     7
283
     0
274
    -2
284
     1
 64
     0
275
    -2
285
     1
 65
     0
276
    -2
286
     1
 66
     0
277
    -2
287
     1
 67
     0
278
    -2
288
     1
 68
     0
279
    -2
289
     1
 69
     0
  7
STANDARD
140
6.0
170
     5
 62
     0
 63
     7
283
     0
274
    -2
284
     1
 64
     0
275
    -2
285
     1
 65
     0
276
    -2
286
     1
 66
     0
277
    -2
287
     1
 67
     0
278
    -2
288
     1
 68
     0
279
    -2
289
     1
 69
     0
  7
STANDARD
140
4.5
170
     5
 62
     0
 63
     7
283
     0
274
    -2
284
     1
 64
     0
275
    -2
285
     1
 65
     0
276
    -2
286
     1
 66
     0
277
    -2
287
     1
 67
     0
278
    -2
288
     1
 68
     0
279
    -2
289
     1
 69
     0
  0
VISUALSTYLE
  5
B0F7
102
{ACAD_REACTORS
330
B0F1
102
}
330
B0F1
100
AcDbVisualStyle
  2
2dWireframe
 70
     4
 71
     0
 72
     2
 73
     0
 90
        0
 40
-0.6
 41
-30.0
 62
     5
 63
     7
421
 16777215
 74
     1
 91
        4
 64
     7
 65
   257
 75
     1
175
     1
 42
1.0
 92
        0
 66
   257
 43
1.0
 76
     1
 77
     6
 78
     2
 67
     7
 79
     5
170
     0
171
     0
290
     0
174
     0
 93
        1
 44
0.0
173
     0
291
     0
 45
0.0
1001
ACAD
1000
AcDbSavedByObjectVersion
1070
     0
  0
VISUALSTYLE
  5
B0F9
102
{ACAD_REACTORS
330
B0F1
102
}
330
B0F1
100
AcDbVisualStyle
  2
3D Hidden
 70
     6
 71
     1
 72
     2
 73
     2
 90
        0
 40
-0.6
 41
-30.0
 62
     5
 63
     7
421
 16777215
 74
     2
 91
        2
 64
     7
 65
   257
 75
     2
175
     1
 42
40.0
 92
        0
 66
   257
 43
1.0
 76
     1
 77
     6
 78
     2
 67
     7
 79
     3
170
     0
171
     0
290
     0
174
     0
 93
        1
 44
0.0
173
     0
291
     0
 45
0.0
1001
ACAD
1000
AcDbSavedByObjectVersion
1070
     0
  0
VISUALSTYLE
  5
B0F8
102
{ACAD_REACTORS
330
B0F1
102
}
330
B0F1
100
AcDbVisualStyle
  2
3dWireframe
 70
     5
 71
     0
 72
     2
 73
     0
 90
        0
 40
-0.6
 41
-30.0
 62
     5
 63
     7
421
 16777215
 74
     1
 91
        4
 64
     7
 65
   257
 75
     1
175
     1
 42
1.0
 92
        0
 66
   257
 43
1.0
 76
     1
 77
     6
 78
     2
 67
     7
 79
     5
170
     0
171
     0
290
     0
174
     0
 93
        1
 44
0.0
173
     0
291
     0
 45
0.0
1001
ACAD
1000
AcDbSavedByObjectVersion
1070
     0
  0
VISUALSTYLE
  5
B0F6
102
{ACAD_REACTORS
330
B0F1
102
}
330
B0F1
100
AcDbVisualStyle
  2
Basic
 70
     7
 71
     1
 72
     0
 73
     1
 90
        0
 40
-0.6
 41
-30.0
 62
     5
 63
     7
421
 16777215
 74
     0
 91
        4
 64
     7
 65
   257
 75
     1
175
     1
 42
1.0
 92
        8
 66
     7
 43
1.0
 76
     1
 77
     6
 78
     2
 67
     7
 79
     5
170
     0
171
     0
290
     0
174
     0
 93
        1
 44
0.0
173
     0
291
     1
 45
0.0
1001
ACAD
1000
AcDbSavedByObjectVersion
1070
     0
  0
VISUALSTYLE
  5
B0FD
102
{ACAD_REACTORS
330
B0F1
102
}
330
B0F1
100
AcDbVisualStyle
  2
Brighten
 70
    12
 71
     2
 72
     2
 73
     0
 90
        0
 40
-0.6
 41
-30.0
 62
     5
 63
     7
421
 16777215
 74
     1
 91
        4
 64
     7
 65
   257
 75
     1
175
     1
 42
1.0
 92
        8
 66
     7
 43
1.0
 76
     1
 77
     6
 78
     2
 67
     7
 79
     5
170
     0
171
     0
290
     0
174
     0
 93
        1
 44
50.0
173
     0
291
     1
 45
0.0
1001
ACAD
1000
AcDbSavedByObjectVersion
1070
     0
  0
VISUALSTYLE
  5
B101
102
{ACAD_REACTORS
330
B0F1
102
}
330
B0F1
100
AcDbVisualStyle
  2
ColorChange
 70
    16
 71
     2
 72
     2
 73
     3
 90
        0
 40
-0.6
 41
-30.0
 62
     5
 63
     8
421
  8421504
 74
     1
 91
        4
 64
     7
 65
   257
 75
     1
175
     1
 42
1.0
 92
        8
 66
     8
424
  8421504
 43
1.0
 76
     1
 77
     6
 78
     2
 67
     7
 79
     5
170
     0
171
     0
290
     0
174
     0
 93
        1
 44
0.0
173
     0
291
     1
 45
0.0
1001
ACAD
1000
AcDbSavedByObjectVersion
1070
     0
  0
VISUALSTYLE
  5
B0FA
102
{ACAD_REACTORS
330
B0F1
102
}
330
B0F1
100
AcDbVisualStyle
  2
Conceptual
 70
     9
 71
     3
 72
     2
 73
     0
 90
        0
 40
-0.6
 41
-30.0
 62
     5
 63
     7
421
 16777215
 74
     2
 91
        2
 64
     7
 65
   257
 75
     1
175
     1
 42
40.0
 92
        8
 66
     7
 43
1.0
 76
     1
 77
     6
 78
     2
 67
     7
 79
     3
170
     0
171
     0
290
     0
174
     0
 93
        1
 44
0.0
173
     0
291
     0
 45
0.0
1001
ACAD
1000
AcDbSavedByObjectVersion
1070
     0
  0
VISUALSTYLE
  5
B0FC
102
{ACAD_REACTORS
330
B0F1
102
}
330
B0F1
100
AcDbVisualStyle
  2
Dim
 70
    11
 71
     2
 72
     2
 73
     0
 90
        0
 40
-0.6
 41
-30.0
 62
     5
 63
     7
421
 16777215
 74
     1
 91
        4
 64
     7
 65
   257
 75
     1
175
     1
 42
1.0
 92
        8
 66
     7
 43
1.0
 76
     1
 77
     6
 78
     2
 67
     7
 79
     5
170
     0
171
     0
290
     0
174
     0
 93
        1
 44
-50.0
173
     0
291
     1
 45
0.0
1001
ACAD
1000
AcDbSavedByObjectVersion
1070
     0
  0
VISUALSTYLE
  5
B100
102
{ACAD_REACTORS
330
B0F1
102
}
330
B0F1
100
AcDbVisualStyle
  2
Facepattern
 70
    15
 71
     2
 72
     2
 73
     0
 90
        0
 40
-0.6
 41
-30.0
 62
     5
 63
     7
421
 16777215
 74
     1
 91
        4
 64
     7
 65
   257
 75
     1
175
     1
 42
1.0
 92
        8
 66
     7
 43
1.0
 76
     1
 77
     6
 78
     2
 67
     7
 79
     5
170
     0
171
     0
290
     0
174
     0
 93
        1
 44
0.0
173
     0
291
     1
 45
0.0
1001
ACAD
1000
AcDbSavedByObjectVersion
1070
     0
  0
VISUALSTYLE
  5
B0F2
102
{ACAD_REACTORS
330
B0F1
102
}
330
B0F1
100
AcDbVisualStyle
  2
Flat
 70
     0
 71
     2
 72
     1
 73
     1
 90
        2
 40
-0.6
 41
30.0
 62
     5
 63
     7
421
 16777215
 74
     0
 91
        4
 64
     7
 65
   257
 75
     1
175
     1
 42
1.0
 92
        8
 66
     7
 43
1.0
 76
     1
 77
     6
 78
     2
 67
     7
 79
     5
170
     0
171
     0
290
     0
174
     0
 93
       13
 44
0.0
173
     0
291
     1
 45
0.0
1001
ACAD
1000
AcDbSavedByObjectVersion
1070
     0
  0
VISUALSTYLE
  5
B0F3
102
{ACAD_REACTORS
330
B0F1
102
}
330
B0F1
100
AcDbVisualStyle
  2
FlatWithEdges
 70
     1
 71
     2
 72
     1
 73
     1
 90
        2
 40
-0.6
 41
30.0
 62
     5
 63
     7
421
 16777215
 74
     1
 91
        4
 64
     7
 65
   257
 75
     1
175
     1
 42
1.0
 92
        0
 66
   257
 43
1.0
 76
     1
 77
     6
 78
     2
 67
     7
 79
     5
170
     0
171
     0
290
     0
174
     0
 93
       13
 44
0.0
173
     0
291
     1
 45
0.0
1001
ACAD
1000
AcDbSavedByObjectVersion
1070
     0
  0
VISUALSTYLE
  5
B0F4
102
{ACAD_REACTORS
330
B0F1
102
}
330
B0F1
100
AcDbVisualStyle
  2
Gouraud
 70
     2
 71
     2
 72
     2
 73
     1
 90
        2
 40
-0.6
 41
30.0
 62
     5
 63
     7
421
 16777215
 74
     0
 91
        4
 64
     7
 65
   257
 75
     1
175
     1
 42
1.0
 92
        0
 66
     7
 43
1.0
 76
     1
 77
     6
 78
     2
 67
     7
 79
     5
170
     0
171
     0
290
     0
174
     0
 93
       13
 44
0.0
173
     0
291
     1
 45
0.0
1001
ACAD
1000
AcDbSavedByObjectVersion
1070
     0
  0
VISUALSTYLE
  5
B0F5
102
{ACAD_REACTORS
330
B0F1
102
}
330
B0F1
100
AcDbVisualStyle
  2
GouraudWithEdges
 70
     3
 71
     2
 72
     2
 73
     1
 90
        2
 40
-0.6
 41
30.0
 62
     5
 63
     7
421
 16777215
 74
     1
 91
        4
 64
     7
 65
   257
 75
     1
175
     1
 42
1.0
 92
        0
 66
   257
 43
1.0
 76
     1
 77
     6
 78
     2
 67
     7
 79
     5
170
     0
171
     0
290
     0
174
     0
 93
       13
 44
0.0
173
     0
291
     1
 45
0.0
1001
ACAD
1000
AcDbSavedByObjectVersion
1070
     0
  0
VISUALSTYLE
  5
B0FF
102
{ACAD_REACTORS
330
B0F1
102
}
330
B0F1
100
AcDbVisualStyle
  2
Linepattern
 70
    14
 71
     2
 72
     2
 73
     0
 90
        0
 40
-0.6
 41
-30.0
 62
     5
 63
     7
421
 16777215
 74
     1
 91
        4
 64
     7
 65
   257
 75
     7
175
     7
 42
1.0
 92
        8
 66
     7
 43
1.0
 76
     1
 77
     6
 78
     2
 67
     7
 79
     5
170
     0
171
     0
290
     0
174
     0
 93
        1
 44
0.0
173
     0
291
     1
 45
0.0
1001
ACAD
1000
AcDbSavedByObjectVersion
1070
     0
  0
VISUALSTYLE
  5
B0FB
102
{ACAD_REACTORS
330
B0F1
102
}
330
B0F1
100
AcDbVisualStyle
  2
Realistic
 70
     8
 71
     2
 72
     2
 73
     0
 90
        0
 40
-0.6
 41
-30.0
 62
     5
 63
     7
421
 16777215
 74
     1
 91
        0
 64
     7
 65
   257
 75
     1
175
     1
 42
1.0
 92
        8
 66
     8
424
  7895160
 43
1.0
 76
     1
 77
     6
 78
     2
 67
     7
 79
     5
170
     0
171
     0
290
     0
174
     0
 93
       13
 44
0.0
173
     0
291
     0
 45
0.0
1001
ACAD
1000
AcDbSavedByObjectVersion
1070
     0
  0
VISUALSTYLE
  5
B0FE
102
{ACAD_REACTORS
330
B0F1
102
}
330
B0F1
100
AcDbVisualStyle
  2
Thicken
 70
    13
 71
     2
 72
     2
 73
     0
 90
        0
 40
-0.6
 41
-30.0
 62
     5
 63
     7
421
 16777215
 74
     1
 91
        4
 64
     7
 65
   257
 75
     1
175
     1
 42
1.0
 92
       12
 66
     7
 43
1.0
 76
     1
 77
     6
 78
     2
 67
     7
 79
     5
170
     0
171
     0
290
     0
174
     0
 93
        1
 44
0.0
173
     0
291
     1
 45
0.0
1001
ACAD
1000
AcDbSavedByObjectVersion
1070
     0
  0
DICTIONARYVAR
  5
AAF3
102
{ACAD_REACTORS
330
34
102
}
330
34
100
DictionaryVariables
280
     0
  1
STANDARD
  0
DICTIONARYVAR
  5
A10C
102
{ACAD_REACTORS
330
34
102
}
330
34
100
DictionaryVariables
280
     0
  1
1
  0
DICTIONARYVAR
  5
AB07
102
{ACAD_REACTORS
330
34
102
}
330
34
100
DictionaryVariables
280
     0
  1
4
  0
DICTIONARYVAR
  5
35
102
{ACAD_REACTORS
330
34
102
}
330
34
100
DictionaryVariables
280
     0
  1
1
  0
DICTIONARYVAR
  5
194C
102
{ACAD_REACTORS
330
34
102
}
330
34
100
DictionaryVariables
280
     0
  1
96
  0
DICTIONARY
  5
7E8
102
{ACAD_REACTORS
330
47
102
}
330
47
100
AcDbDictionary
281
     1
  0
DICTIONARY
  5
4C
102
{ACAD_REACTORS
330
47
102
}
330
47
100
AcDbDictionary
281
     1
  0
XRECORD
  5
A929
102
{ACAD_REACTORS
330
47
102
}
330
47
100
AcDbXrecord
280
     1
 90
-1023410169
  0
XRECORD
  5
B332
102
{ACAD_REACTORS
330
B331
102
}
330
B331
100
AcDbXrecord
280
     1
  0
XRECORD
  5
3FB7
102
{ACAD_REACTORS
330
3F96
102
}
330
3F96
100
AcDbXrecord
280
     1
 91
        3
330
0
 90
        8
 62
     7
370
    40
331
16
  1
Color_7
330
0
 90
        0
 62
    14
370
    -3
331
16
  1
Color_14
330
0
 90
        8
 62
     7
370
    20
331
16
  1
Color_7
330
6D1
 90
        0
 62
     7
370
    -3
331
16
  1
Color_7
330
0
 90
        8
 62
     7
370
    50
331
16
  1
Color_7
330
0
 90
        8
 62
     2
370
    35
331
16
  1
Color_2
330
0
 90
        8
 62
     7
370
    -3
331
16
  1
Color_7
330
10
 90
        8
 62
     7
370
    -3
331
16
  1
Color_7
  0
DICTIONARY
  5
BB69
330
B0EF
100
AcDbDictionary
280
     1
281
     1
  3
ACAD_XREC_ROUNDTRIP
360
BB6A
  0
DICTIONARY
  5
BB67
330
B0EE
100
AcDbDictionary
280
     1
281
     1
  3
ACAD_XREC_ROUNDTRIP
360
BB68
  0
DICTIONARY
  5
BB6B
330
B0F0
100
AcDbDictionary
280
     1
281
     1
  3
ACAD_XREC_ROUNDTRIP
360
BB6C
  0
DICTIONARY
  5
BB65
330
AABA
100
AcDbDictionary
280
     1
281
     1
  3
ACAD_XREC_ROUNDTRIP
360
BB66
  0
XRECORD
  5
BB6A
102
{ACAD_REACTORS
330
BB69
102
}
330
BB69
100
AcDbXrecord
280
     1
102
MATERIAL
148
0.0
149
0.0
149
0.0
 93
        0
 94
       63
282
     0
 72
     1
 77
     1
171
     1
175
     1
179
     1
273
     0
  0
XRECORD
  5
BB68
102
{ACAD_REACTORS
330
BB67
102
}
330
BB67
100
AcDbXrecord
280
     1
102
MATERIAL
148
0.0
149
0.0
149
0.0
 93
        0
 94
       63
282
     0
 72
     1
 77
     1
171
     1
175
     1
179
     1
273
     0
  0
XRECORD
  5
BB6C
102
{ACAD_REACTORS
330
BB6B
102
}
330
BB6B
100
AcDbXrecord
280
     1
102
MATERIAL
148
0.0
149
0.0
149
0.0
 93
        0
 94
       63
282
     0
 72
     1
 77
     1
171
     1
175
     1
179
     1
273
     0
  0
XRECORD
  5
BB66
102
{ACAD_REACTORS
330
BB65
102
}
330
BB65
100
AcDbXrecord
280
     1
102
ACAD_ROUNDTRIP_PRE2007_TABLESTYLE
 90
        4
 91
        0
  1

 92
        4
 93
        0
  2

 94
        4
 95
        0
  3

  0
ENDSEC
  0
EOF
