  0
SECTION
  2
HEADER
  9
$EXTMAX
 10
622.71063
 20
480.23294
 30
0
  9
$EXTMIN
 10
202.71063
 20
183.23294
 30
0
  9
$LIMMAX
 10
622.71063
 20
480.23294
  9
$LIMMIN
 10
202.71063
 20
183.23294
  9
$PLIMMAX
 10
622.71063
 20
480.23294
  9
$PLIMMIN
 10
202.71063
 20
183.23294
  9
$TEXTSIZE
 40
3.2
  9
$DIMSHO
 70
     0
  9
$DIMASZ
 40
1.0
  9
$DIMTAD
 70
     1
  9
$DIMTIH
 70
     0
  9
$DIMTOH
 70
     0
  9
$DIMEXE
 40
2.54
  9
$DIMEXO
 40
2.54
  9
$DIMTVP
 40
1.0
  9
$DIMSAH
 70
     1
  9
$DIMDLE
 40
0.0
  9
$DIMTXT
 40
3.2
  9
$DIMGAP
 40
1.6
  0
ENDSEC
  0
SECTION
  2
TABLES
  0
TABLE
  2
LTYPE
 70
     6
  0
LTYPE
  2
CONTINUOUS
 70
    64
  3
Solid line
 72
    65
 73
     0
 40
0.0
  0
LTYPE
  2
DASHED
 70
    64
  3
__ __ __ __ __ __ __ __ __ __ __ __ __ __ __
 72
    65
 73
     2
 40
3.5
 49
2.0
 49
-1.5
  0
LTYPE
  2
CENTER
 70
    64
  3
____ _ ____ _ ____ _ ____ _ ____ _ ____ _ ____
 72
    65
 73
     4
 40
17.5
 49
13.0
 49
-1.5
 49
1.5
 49
-1.5
  0
LTYPE
  2
PHANTOM
 70
    64
  3
_____ _ _ _____ _ _ _____ _ _ _____ _ _ ____  
 72
    65
 73
     6
 40
15.5
 49
8.0
 49
-1.5
 49
1.5
 49
-1.5
 49
1.5
 49
-1.5
  0
LTYPE
  2
DOT
 70
    64
  3
. . . . . . . . . . . . . . . . . . . . . . . .
 72
    65
 73
     2
 40
0.25
 49
0.0
 49
-0.25
  0
LTYPE
  2
HIDDEN
 70
    64
  3
__ __ __ __ __ __ __ __ __ __ __ __ __ __ __
 72
    65
 73
     2
 40
3.5
 49
2.0
 49
-1.5
  0
ENDTAB
  0
TABLE
  2
LAYER
 70
     2
  0
LAYER
  2
0
 70
     0
 62
     7
  6
CONTINUOUS
  0
LAYER
  2
DEFPOINTS
 70
     0
 62
     7
  6
CONTINUOUS
  0
ENDTAB
  0
TABLE
  2
STYLE
 70
     1
  0
STYLE
  2
STANDARD
 70
     0
 40
0.0
 41
1.0
 50
0.0
 71
     0
 42
0.2
  3
txt
  4
BIGFONT
  0
ENDTAB
  0
TABLE
  2
DIMSTYLE
 70
     1
  0
DIMSTYLE
  2
DIMSTYLE
 70
     0
  3

  4

  5
_DOT
  6
_DOT
  7
_DOT
 40
1
 41
1
 42
2.54
 43
0.38
 44
2.54
 45
0
 46
0
 47
0
 48
0
140
3.2
141
0.09
142
0
143
25.4
144
1
145
0
146
1
147
1.6
 71
     0
 72
     0
 73
     0
 74
     0
 75
     0
 76
     0
 78
     0
170
     0
171
     2
 77
     0
172
     0
173
     1
174
     0
175
     0
176
     0
177
     0
178
     0
  0
ENDTAB
  0
ENDSEC
  0
SECTION
  2
BLOCKS
  0
BLOCK
  8
0
  2
_DOT
 70
    64
 10
0
 20
0
  3
_DOT
  0
POLYLINE
  8
0
  6
BYBLOCK
 62
     0
 66
     1
 10
0
 20
0
 70
     1
 40
0.40000001
 41
0.40000001
  0
VERTEX
  8
0
  6
BYBLOCK
 62
     0
 10
-0.2
 20
0
 42
1
  0
VERTEX
  8
0
  6
BYBLOCK
 62
     0
 10
0.2
 20
0
 42
1
  0
SEQEND
  8
0
  6
BYBLOCK
 62
     0
  0
LINE
  8
0
  6
BYBLOCK
 62
     0
 10
-0.40000001
 20
0
 11
-3
 21
0
  0
ENDBLK
  8
0
  0
BLOCK
  8
0
  2
*D1
 70
    65
 10
0
 20
0
  0
LINE
  8
0
  6
CONTINUOUS
 62
     7
 10
473.58127
 20
310.10254
 11
473.58127
 21
304.97668
  0
LINE
  8
0
  6
CONTINUOUS
 62
     7
 10
473.58127
 20
310.10254
 11
473.58127
 21
311.10254
  0
INSERT
  8
0
  6
CONTINUOUS
 62
     7
  2
_DOT
 10
473.58127
 20
310.10254
 50
270
  0
INSERT
  8
0
  6
CONTINUOUS
 62
     7
  2
_DOT
 10
473.58127
 20
311.10254
 50
90
  0
LINE
  8
0
  6
CONTINUOUS
 62
     7
 10
458.62127
 20
310.10254
 11
474.78128
 21
310.10254
  0
LINE
  8
0
  6
CONTINUOUS
 62
     7
 10
458.62127
 20
311.10254
 11
474.78128
 21
311.10254
  0
TEXT
  8
0
  6
CONTINUOUS
 62
     7
 10
472.78127
 20
304.97669
 40
3.2
 41
0.66666667
  1
1
 50
90.000003
  0
POINT
  8
DEFPOINTS
  6
CONTINUOUS
 62
     7
 10
456.08127
 20
310.10254
  0
POINT
  8
DEFPOINTS
  6
CONTINUOUS
 62
     7
 10
456.08127
 20
311.10254
  0
POINT
  8
DEFPOINTS
  6
CONTINUOUS
 62
     7
 10
473.58127
 20
311.10254
  0
ENDBLK
  8
0
  0
BLOCK
  8
0
  2
KOZU0001
 70
    64
 10
0
 20
0
  0
POLYLINE
  8
0
  6
CONTINUOUS
 62
     7
 66
     1
 10
0
 20
0
 70
     1
 40
0.375
 41
0.375
  0
VERTEX
  8
0
  6
CONTINUOUS
 62
     7
 10
-0.1875
 20
0
 42
1
  0
VERTEX
  8
0
  6
CONTINUOUS
 62
     7
 10
0.1875
 20
0
 42
1
  0
SEQEND
  8
0
  6
CONTINUOUS
 62
     7
  0
ENDBLK
  8
0
  0
BLOCK
  8
0
  2
KOZU0002
 70
    64
 10
0
 20
0
  0
POLYLINE
  8
0
  6
CONTINUOUS
 62
     7
 66
     1
 10
0
 20
0
 70
     1
 40
0.375
 41
0.375
  0
VERTEX
  8
0
  6
CONTINUOUS
 62
     7
 10
-0.1875
 20
0
 42
1
  0
VERTEX
  8
0
  6
CONTINUOUS
 62
     7
 10
0.1875
 20
0
 42
1
  0
SEQEND
  8
0
  6
CONTINUOUS
 62
     7
  0
ENDBLK
  8
0
  0
BLOCK
  8
0
  2
KOZU0003
 70
    64
 10
0
 20
0
  0
POLYLINE
  8
0
  6
CONTINUOUS
 62
     7
 66
     1
 10
0
 20
0
 70
     1
 40
0.375
 41
0.375
  0
VERTEX
  8
0
  6
CONTINUOUS
 62
     7
 10
-0.1875
 20
0
 42
1
  0
VERTEX
  8
0
  6
CONTINUOUS
 62
     7
 10
0.1875
 20
0
 42
1
  0
SEQEND
  8
0
  6
CONTINUOUS
 62
     7
  0
ENDBLK
  8
0
  0
BLOCK
  8
0
  2
KOZU0004
 70
    64
 10
0
 20
0
  0
POLYLINE
  8
0
  6
CONTINUOUS
 62
     7
 66
     1
 10
0
 20
0
 70
     1
 40
0.375
 41
0.375
  0
VERTEX
  8
0
  6
CONTINUOUS
 62
     7
 10
-0.1875
 20
0
 42
1
  0
VERTEX
  8
0
  6
CONTINUOUS
 62
     7
 10
0.1875
 20
0
 42
1
  0
SEQEND
  8
0
  6
CONTINUOUS
 62
     7
  0
ENDBLK
  8
0
  0
BLOCK
  8
0
  2
KOZU0005
 70
    64
 10
0
 20
0
  0
POLYLINE
  8
0
  6
CONTINUOUS
 62
     7
 66
     1
 10
0
 20
0
 70
     1
 40
0.375
 41
0.375
  0
VERTEX
  8
0
  6
CONTINUOUS
 62
     7
 10
-0.1875
 20
0
 42
1
  0
VERTEX
  8
0
  6
CONTINUOUS
 62
     7
 10
0.1875
 20
0
 42
1
  0
SEQEND
  8
0
  6
CONTINUOUS
 62
     7
  0
ENDBLK
  8
0
  0
BLOCK
  8
0
  2
KOZU0006
 70
    64
 10
0
 20
0
  0
POLYLINE
  8
0
  6
CONTINUOUS
 62
     7
 66
     1
 10
0
 20
0
 70
     1
 40
0.375
 41
0.375
  0
VERTEX
  8
0
  6
CONTINUOUS
 62
     7
 10
-0.1875
 20
0
 42
1
  0
VERTEX
  8
0
  6
CONTINUOUS
 62
     7
 10
0.1875
 20
0
 42
1
  0
SEQEND
  8
0
  6
CONTINUOUS
 62
     7
  0
ENDBLK
  8
0
  0
BLOCK
  8
0
  2
KOZU0007
 70
    64
 10
0
 20
0
  0
POLYLINE
  8
0
  6
CONTINUOUS
 62
     7
 66
     1
 10
0
 20
0
 70
     1
 40
0.375
 41
0.375
  0
VERTEX
  8
0
  6
CONTINUOUS
 62
     7
 10
-0.1875
 20
0
 42
1
  0
VERTEX
  8
0
  6
CONTINUOUS
 62
     7
 10
0.1875
 20
0
 42
1
  0
SEQEND
  8
0
  6
CONTINUOUS
 62
     7
  0
ENDBLK
  8
0
  0
BLOCK
  8
0
  2
KOZU0008
 70
    64
 10
0
 20
0
  0
POLYLINE
  8
0
  6
CONTINUOUS
 62
     7
 66
     1
 10
0
 20
0
 70
     1
 40
0.375
 41
0.375
  0
VERTEX
  8
0
  6
CONTINUOUS
 62
     7
 10
-0.1875
 20
0
 42
1
  0
VERTEX
  8
0
  6
CONTINUOUS
 62
     7
 10
0.1875
 20
0
 42
1
  0
SEQEND
  8
0
  6
CONTINUOUS
 62
     7
  0
ENDBLK
  8
0
  0
BLOCK
  8
0
  2
KOZU0009
 70
    64
 10
0
 20
0
  0
POLYLINE
  8
0
  6
CONTINUOUS
 62
     7
 66
     1
 10
0
 20
0
 70
     1
 40
0.375
 41
0.375
  0
VERTEX
  8
0
  6
CONTINUOUS
 62
     7
 10
-0.1875
 20
0
 42
1
  0
VERTEX
  8
0
  6
CONTINUOUS
 62
     7
 10
0.1875
 20
0
 42
1
  0
SEQEND
  8
0
  6
CONTINUOUS
 62
     7
  0
ENDBLK
  8
0
  0
BLOCK
  8
0
  2
KOZU0010
 70
    64
 10
0
 20
0
  0
POLYLINE
  8
0
  6
CONTINUOUS
 62
     7
 66
     1
 10
0
 20
0
 70
     1
 40
0.375
 41
0.375
  0
VERTEX
  8
0
  6
CONTINUOUS
 62
     7
 10
-0.1875
 20
0
 42
1
  0
VERTEX
  8
0
  6
CONTINUOUS
 62
     7
 10
0.1875
 20
0
 42
1
  0
SEQEND
  8
0
  6
CONTINUOUS
 62
     7
  0
ENDBLK
  8
0
  0
BLOCK
  8
0
  2
KOZU0011
 70
    64
 10
0
 20
0
  0
POLYLINE
  8
0
  6
CONTINUOUS
 62
     7
 66
     1
 10
0
 20
0
 70
     1
 40
0.375
 41
0.375
  0
VERTEX
  8
0
  6
CONTINUOUS
 62
     7
 10
-0.1875
 20
0
 42
1
  0
VERTEX
  8
0
  6
CONTINUOUS
 62
     7
 10
0.1875
 20
0
 42
1
  0
SEQEND
  8
0
  6
CONTINUOUS
 62
     7
  0
ENDBLK
  8
0
  0
BLOCK
  8
0
  2
KOZU0012
 70
    64
 10
0
 20
0
  0
POLYLINE
  8
0
  6
CONTINUOUS
 62
     7
 66
     1
 10
0
 20
0
 70
     1
 40
0.375
 41
0.375
  0
VERTEX
  8
0
  6
CONTINUOUS
 62
     7
 10
-0.1875
 20
0
 42
1
  0
VERTEX
  8
0
  6
CONTINUOUS
 62
     7
 10
0.1875
 20
0
 42
1
  0
SEQEND
  8
0
  6
CONTINUOUS
 62
     7
  0
ENDBLK
  8
0
  0
BLOCK
  8
0
  2
KOZU0013
 70
    64
 10
0
 20
0
  0
POLYLINE
  8
0
  6
CONTINUOUS
 62
     7
 66
     1
 10
0
 20
0
 70
     1
 40
0.375
 41
0.375
  0
VERTEX
  8
0
  6
CONTINUOUS
 62
     7
 10
-0.1875
 20
0
 42
1
  0
VERTEX
  8
0
  6
CONTINUOUS
 62
     7
 10
0.1875
 20
0
 42
1
  0
SEQEND
  8
0
  6
CONTINUOUS
 62
     7
  0
ENDBLK
  8
0
  0
BLOCK
  8
0
  2
KOZU0014
 70
    64
 10
0
 20
0
  0
POLYLINE
  8
0
  6
CONTINUOUS
 62
     7
 66
     1
 10
0
 20
0
 70
     1
 40
0.375
 41
0.375
  0
VERTEX
  8
0
  6
CONTINUOUS
 62
     7
 10
-0.1875
 20
0
 42
1
  0
VERTEX
  8
0
  6
CONTINUOUS
 62
     7
 10
0.1875
 20
0
 42
1
  0
SEQEND
  8
0
  6
CONTINUOUS
 62
     7
  0
ENDBLK
  8
0
  0
BLOCK
  8
0
  2
KOZU0015
 70
    64
 10
0
 20
0
  0
POLYLINE
  8
0
  6
CONTINUOUS
 62
     7
 66
     1
 10
0
 20
0
 70
     1
 40
0.375
 41
0.375
  0
VERTEX
  8
0
  6
CONTINUOUS
 62
     7
 10
-0.1875
 20
0
 42
1
  0
VERTEX
  8
0
  6
CONTINUOUS
 62
     7
 10
0.1875
 20
0
 42
1
  0
SEQEND
  8
0
  6
CONTINUOUS
 62
     7
  0
ENDBLK
  8
0
  0
BLOCK
  8
0
  2
KOZU0016
 70
    64
 10
0
 20
0
  0
POLYLINE
  8
0
  6
CONTINUOUS
 62
     7
 66
     1
 10
0
 20
0
 70
     1
 40
0.375
 41
0.375
  0
VERTEX
  8
0
  6
CONTINUOUS
 62
     7
 10
-0.1875
 20
0
 42
1
  0
VERTEX
  8
0
  6
CONTINUOUS
 62
     7
 10
0.1875
 20
0
 42
1
  0
SEQEND
  8
0
  6
CONTINUOUS
 62
     7
  0
ENDBLK
  8
0
  0
BLOCK
  8
0
  2
KOZU0017
 70
    64
 10
0
 20
0
  0
POLYLINE
  8
0
  6
CONTINUOUS
 62
     7
 66
     1
 10
0
 20
0
 70
     1
 40
0.40000001
 41
0.40000001
  0
VERTEX
  8
0
  6
CONTINUOUS
 62
     7
 10
-0.2
 20
0
 42
1
  0
VERTEX
  8
0
  6
CONTINUOUS
 62
     7
 10
0.2
 20
0
 42
1
  0
SEQEND
  8
0
  6
CONTINUOUS
 62
     7
  0
ENDBLK
  8
0
  0
BLOCK
  8
0
  2
KOZU0018
 70
    64
 10
0
 20
0
  0
POLYLINE
  8
0
  6
CONTINUOUS
 62
     7
 66
     1
 10
0
 20
0
 70
     1
 40
0.40000001
 41
0.40000001
  0
VERTEX
  8
0
  6
CONTINUOUS
 62
     7
 10
-0.2
 20
0
 42
1
  0
VERTEX
  8
0
  6
CONTINUOUS
 62
     7
 10
0.2
 20
0
 42
1
  0
SEQEND
  8
0
  6
CONTINUOUS
 62
     7
  0
ENDBLK
  8
0
  0
BLOCK
  8
0
  2
KOZU0019
 70
    64
 10
0
 20
0
  0
POLYLINE
  8
0
  6
CONTINUOUS
 62
     7
 66
     1
 10
0
 20
0
 70
     1
 40
0.40000001
 41
0.40000001
  0
VERTEX
  8
0
  6
CONTINUOUS
 62
     7
 10
-0.2
 20
0
 42
1
  0
VERTEX
  8
0
  6
CONTINUOUS
 62
     7
 10
0.2
 20
0
 42
1
  0
SEQEND
  8
0
  6
CONTINUOUS
 62
     7
  0
ENDBLK
  8
0
  0
BLOCK
  8
0
  2
KOZU0020
 70
    64
 10
0
 20
0
  0
POLYLINE
  8
0
  6
CONTINUOUS
 62
     7
 66
     1
 10
0
 20
0
 70
     1
 40
0.40000001
 41
0.40000001
  0
VERTEX
  8
0
  6
CONTINUOUS
 62
     7
 10
-0.2
 20
0
 42
1
  0
VERTEX
  8
0
  6
CONTINUOUS
 62
     7
 10
0.2
 20
0
 42
1
  0
SEQEND
  8
0
  6
CONTINUOUS
 62
     7
  0
ENDBLK
  8
0
  0
ENDSEC
  0
SECTION
  2
ENTITIES
  0
LINE
  8
0
  6
CONTINUOUS
 62
     7
 10
202.71063
 20
183.23294
 11
622.71063
 21
183.23294
  0
LINE
  8
0
  6
CONTINUOUS
 62
     7
 10
202.71063
 20
480.23294
 11
202.71063
 21
183.23294
  0
LINE
  8
0
  6
CONTINUOUS
 62
     7
 10
603.21063
 20
195.23294
 11
603.21063
 21
468.23294
  0
LINE
  8
0
  6
CONTINUOUS
 62
     7
 10
222.21063
 20
372.23294
 11
222.21063
 21
195.98294
  0
LINE
  8
0
  6
CONTINUOUS
 62
     7
 10
603.21063
 20
468.23294
 11
332.21063
 21
468.23294
  0
LINE
  8
0
  6
CONTINUOUS
 62
     7
 10
222.21063
 20
195.23294
 11
603.21063
 21
195.23294
  0
LINE
  8
0
  6
CONTINUOUS
 62
     7
 10
622.71063
 20
480.23294
 11
622.71063
 21
183.23294
  0
LINE
  8
0
  6
CONTINUOUS
 62
     7
 10
202.71063
 20
480.23294
 11
622.71063
 21
480.23294
  0
LINE
  8
0
  6
CONTINUOUS
 62
     7
 10
222.21063
 20
468.23294
 11
332.21063
 21
468.23294
  0
LINE
  8
0
  6
CONTINUOUS
 62
     7
 10
222.21063
 20
468.23294
 11
222.21063
 21
372.23294
  0
LINE
  8
0
  6
CONTINUOUS
 62
     7
 10
242.21063
 20
468.23294
 11
242.21063
 21
372.23294
  0
LINE
  8
0
  6
CONTINUOUS
 62
     7
 10
222.21063
 20
460.23294
 11
332.21063
 21
460.23294
  0
LINE
  8
0
  6
CONTINUOUS
 62
     7
 10
222.21063
 20
452.23294
 11
332.21063
 21
452.23294
  0
LINE
  8
0
  6
CONTINUOUS
 62
     7
 10
222.21063
 20
444.23294
 11
332.21063
 21
444.23294
  0
LINE
  8
0
  6
CONTINUOUS
 62
     7
 10
222.21063
 20
436.23294
 11
332.21063
 21
436.23294
  0
LINE
  8
0
  6
CONTINUOUS
 62
     7
 10
242.21063
 20
412.23294
 11
332.21063
 21
412.23294
  0
LINE
  8
0
  6
CONTINUOUS
 62
     7
 10
242.21063
 20
404.23294
 11
332.21063
 21
404.23294
  0
LINE
  8
0
  6
CONTINUOUS
 62
     7
 10
222.21063
 20
396.23294
 11
332.21063
 21
396.23294
  0
LINE
  8
0
  6
CONTINUOUS
 62
     7
 10
242.21063
 20
388.23294
 11
332.21063
 21
388.23294
  0
LINE
  8
0
  6
CONTINUOUS
 62
     7
 10
242.21063
 20
380.23294
 11
332.21063
 21
380.23294
  0
LINE
  8
0
  6
CONTINUOUS
 62
     7
 10
222.21063
 20
372.23294
 11
332.21063
 21
372.23294
  0
LINE
  8
0
  6
CONTINUOUS
 62
     7
 10
222.21063
 20
468.23294
 11
222.21063
 21
372.23294
  0
LINE
  8
0
  6
CONTINUOUS
 62
     7
 10
222.21063
 20
468.23294
 11
332.21063
 21
468.23294
  0
LINE
  8
0
  6
CONTINUOUS
 62
     7
 10
332.21063
 20
468.23294
 11
332.21063
 21
372.23294
  0
LINE
  8
0
  6
CONTINUOUS
 62
     7
 10
222.21063
 20
428.23294
 11
332.21063
 21
428.23294
  0
LINE
  8
0
  6
CONTINUOUS
 62
     7
 10
222.21063
 20
420.23294
 11
332.21063
 21
420.23294
  0
LINE
  8
0
  6
CONTINUOUS
 62
     7
 10
242.21063
 20
412.23294
 11
332.21063
 21
412.23294
  0
LINE
  8
0
  6
CONTINUOUS
 62
     7
 10
423.58127
 20
302.10254
 11
448.58127
 21
302.10254
  0
LINE
  8
0
  6
CONTINUOUS
 62
     7
 10
416.08127
 20
310.10254
 11
456.08127
 21
310.10254
  0
LINE
  8
0
  6
CONTINUOUS
 62
     7
 10
415.58127
 20
353.10254
 11
456.58127
 21
353.10254
  0
LINE
  8
0
  6
CONTINUOUS
 62
     7
 10
413.58127
 20
341.10254
 11
458.58127
 21
341.10254
  0
LINE
  8
0
  6
PHANTOM
 62
     4
 10
435.58127
 20
283.10254
 11
436.58127
 21
283.10254
  0
LINE
  8
0
  6
CONTINUOUS
 62
     7
 10
416.08127
 20
311.10254
 11
456.08127
 21
311.10254
  0
LINE
  8
0
  6
CENTER
 62
     4
 10
408.58127
 20
408.10254
 11
463.58127
 21
408.10254
  0
LINE
  8
0
  6
CONTINUOUS
 62
     7
 10
423.58127
 20
301.10254
 11
423.58127
 21
285.10254
  0
LINE
  8
0
  6
CONTINUOUS
 62
     7
 10
448.58127
 20
301.10254
 11
448.58127
 21
285.10254
  0
LINE
  8
0
  6
CONTINUOUS
 62
     7
 10
448.58127
 20
287.10254
 11
451.58127
 21
287.10254
  0
LINE
  8
0
  6
CONTINUOUS
 62
     7
 10
423.58127
 20
287.10254
 11
401.50986
 21
287.10254
  0
LINE
  8
0
  6
CONTINUOUS
 62
     7
 10
448.58127
 20
287.10254
 11
423.58127
 21
287.10254
  0
LINE
  8
0
  6
CONTINUOUS
 62
     7
 10
416.08127
 20
309.10254
 11
416.08127
 21
229.87047
  0
LINE
  8
0
  6
CONTINUOUS
 62
     7
 10
456.08127
 20
309.10254
 11
456.08127
 21
229.87047
  0
LINE
  8
0
  6
CONTINUOUS
 62
     7
 10
416.08127
 20
231.87047
 11
456.08127
 21
231.87047
  0
LINE
  8
0
  6
CONTINUOUS
 62
     7
 10
421.08127
 20
309.10254
 11
421.08127
 21
239.87047
  0
LINE
  8
0
  6
CONTINUOUS
 62
     7
 10
451.08127
 20
309.10254
 11
451.08127
 21
239.87047
  0
LINE
  8
0
  6
CONTINUOUS
 62
     7
 10
421.08127
 20
241.87047
 11
451.08127
 21
241.87047
  0
LINE
  8
0
  6
CONTINUOUS
 62
     7
 10
431.08127
 20
277.45248
 11
431.08127
 21
249.71442
  0
LINE
  8
0
  6
CONTINUOUS
 62
     7
 10
441.08127
 20
277.45248
 11
441.08127
 21
249.71442
  0
LINE
  8
0
  6
CONTINUOUS
 62
     7
 10
431.08127
 20
251.71442
 11
428.08127
 21
251.71442
  0
LINE
  8
0
  6
CONTINUOUS
 62
     7
 10
441.08127
 20
251.71442
 11
491.80606
 21
251.71442
  0
LINE
  8
0
  6
CONTINUOUS
 62
     7
 10
431.08127
 20
251.71442
 11
441.08127
 21
251.71442
  0
LINE
  8
0
  6
CONTINUOUS
 62
     7
 10
421.08127
 20
341.10254
 11
421.08127
 21
311.10254
  0
LINE
  8
0
  6
CENTER
 62
     4
 10
436.08127
 20
358.10254
 11
436.08127
 21
261.71442
  0
LINE
  8
0
  6
PHANTOM
 62
     4
 10
431.08127
 20
302.10254
 11
431.08127
 21
278.45248
  0
LINE
  8
0
  6
PHANTOM
 62
     4
 10
429.37878
 20
268.79715
 11
431.08127
 21
278.45248
  0
LINE
  8
0
  6
PHANTOM
 62
     4
 10
433.80292
 20
268.01706
 11
435.58127
 21
278.10254
  0
LINE
  8
0
  6
PHANTOM
 62
     4
 10
429.37878
 20
268.79709
 11
433.80295
 21
268.017
  0
LINE
  8
0
  6
PHANTOM
 62
     4
 10
435.58127
 20
283.10254
 11
435.58127
 21
278.10254
  0
LINE
  8
0
  6
CONTINUOUS
 62
     7
 10
423.58127
 20
310.10254
 11
423.58127
 21
302.10254
  0
LINE
  8
0
  6
CONTINUOUS
 62
     7
 10
416.08127
 20
311.10254
 11
416.08127
 21
310.10254
  0
LINE
  8
0
  6
CENTER
 62
     4
 10
436.08127
 20
435.60254
 11
436.08127
 21
380.60254
  0
LINE
  8
0
  6
CONTINUOUS
 62
     7
 10
413.58127
 20
351.10254
 11
413.58127
 21
341.10254
  0
LINE
  8
0
  6
CONTINUOUS
 62
     7
 10
451.08127
 20
341.10254
 11
451.08127
 21
311.10254
  0
LINE
  8
0
  6
CONTINUOUS
 62
     7
 10
473.58127
 20
341.10254
 11
473.58127
 21
311.10254
  0
LINE
  8
0
  6
CONTINUOUS
 62
     7
 10
460.58127
 20
353.10254
 11
485.58127
 21
353.10254
  0
LINE
  8
0
  6
CONTINUOUS
 62
     7
 10
483.58127
 20
311.10254
 11
483.58127
 21
353.10254
  0
LINE
  8
0
  6
PHANTOM
 62
     4
 10
441.08127
 20
302.10254
 11
441.08127
 21
278.45248
  0
LINE
  8
0
  6
CONTINUOUS
 62
     7
 10
438.08127
 20
266.71442
 11
485.58127
 21
266.71442
  0
LINE
  8
0
  6
CONTINUOUS
 62
     7
 10
483.58127
 20
302.10254
 11
483.58127
 21
266.71442
  0
LINE
  8
0
  6
PHANTOM
 62
     4
 10
441.08127
 20
278.45251
 11
442.78378
 21
268.79715
  0
LINE
  8
0
  6
PHANTOM
 62
     4
 10
436.58127
 20
278.10254
 11
438.35962
 21
268.01703
  0
LINE
  8
0
  6
PHANTOM
 62
     4
 10
442.78378
 20
268.79712
 11
438.35962
 21
268.01703
  0
LINE
  8
0
  6
PHANTOM
 62
     4
 10
436.58127
 20
283.10254
 11
436.58127
 21
278.10254
  0
LINE
  8
0
  6
CONTINUOUS
 62
     7
 10
457.08127
 20
311.10254
 11
485.58127
 21
311.10254
  0
LINE
  8
0
  6
CONTINUOUS
 62
     7
 10
449.58127
 20
302.10254
 11
485.58127
 21
302.10254
  0
LINE
  8
0
  6
CONTINUOUS
 62
     7
 10
483.58127
 20
311.10254
 11
483.58127
 21
302.10254
  0
LINE
  8
0
  6
CONTINUOUS
 62
     7
 10
448.58127
 20
310.10254
 11
448.58127
 21
302.10254
  0
LINE
  8
0
  6
CONTINUOUS
 62
     7
 10
456.08127
 20
311.10254
 11
456.08127
 21
310.10254
  0
LINE
  8
0
  6
CONTINUOUS
 62
     7
 10
458.58127
 20
351.10254
 11
458.58127
 21
341.10254
  0
LINE
  8
0
  6
CONTINUOUS
 62
     3
 10
458.58127
 20
355.10254
 11
458.58127
 21
364.10254
  0
LINE
  8
0
  6
CONTINUOUS
 62
     3
 10
413.58127
 20
355.10254
 11
413.58127
 21
364.10254
  0
LINE
  8
0
  6
CONTINUOUS
 62
     3
 10
457.78128
 20
363.10254
 11
414.38129
 21
363.10254
  0
LINE
  8
0
  6
CONTINUOUS
 62
     7
 10
458.18127
 20
363.10254
 11
457.78128
 21
363.10254
  0
LINE
  8
0
  6
CONTINUOUS
 62
     7
 10
413.98129
 20
363.10254
 11
414.38129
 21
363.10254
  0
LINE
  8
0
  6
CONTINUOUS
 62
     3
 10
460.58127
 20
353.10254
 11
474.58127
 21
353.10254
  0
LINE
  8
0
  6
CONTINUOUS
 62
     3
 10
460.58127
 20
341.10254
 11
474.58127
 21
341.10254
  0
LINE
  8
0
  6
CONTINUOUS
 62
     3
 10
473.58127
 20
352.30252
 11
473.58127
 21
341.90253
  0
LINE
  8
0
  6
CONTINUOUS
 62
     7
 10
473.58127
 20
352.70255
 11
473.58127
 21
352.30252
  0
LINE
  8
0
  6
CONTINUOUS
 62
     7
 10
473.58127
 20
341.50253
 11
473.58127
 21
341.90253
  0
LINE
  8
0
  6
CONTINUOUS
 62
     3
 10
457.08127
 20
311.10254
 11
474.39362
 21
311.10254
  0
CIRCLE
  8
0
  6
CONTINUOUS
 62
     7
 10
436.08127
 20
408.10254
 40
9
  0
CIRCLE
  8
0
  6
CONTINUOUS
 62
     7
 10
436.08127
 20
408.10254
 40
22.5
  0
ARC
  8
0
  6
PHANTOM
 62
     4
 10
436.08127
 20
269.35822
 40
2.6437922
 50
210.48385
 51
329.51615
  0
ARC
  8
0
  6
CONTINUOUS
 62
     7
 10
415.58127
 20
351.10254
 40
2
 50
90
 51
180
  0
ARC
  8
0
  6
CONTINUOUS
 62
     7
 10
456.58127
 20
351.10254
 40
2
 50
0
 51
90
  0
TEXT
  8
0
  6
CONTINUOUS
 62
     2
 10
202.71063
 20
183.23294
 40
2.5
 41
1.09375
  1
!GENTITLE-LL
  0
TEXT
  8
0
  6
CONTINUOUS
 62
     2
 10
603.21065
 20
468.23294
 40
2.5
 41
1.09375
  1
!GENTITLE-RU
  0
TEXT
  8
0
  6
CONTINUOUS
 62
     2
 10
222.21064
 20
468.23294
 40
2.5
 41
1.0930233
  1
!GENTITLE-INSERT
  0
TEXT
  8
0
  6
CONTINUOUS
 62
     2
 10
622.71063
 20
480.23294
 40
2.5
 41
1.0857143
  1
!GENTITLE-MAX
  0
TEXT
  8
0
  6
CONTINUOUS
 62
     7
 10
228.43913
 20
464.23295
 40
3.2
 41
0.60999997
  1
品　名
  0
TEXT
  8
0
  6
CONTINUOUS
 62
     7
 10
228.43913
 20
456.23295
 40
3.2
 41
0.60999997
  1
品　番
  0
TEXT
  8
0
  6
CONTINUOUS
 62
     7
 10
228.43913
 20
448.23295
 40
3.2
 41
0.60999997
  1
材　質
  0
TEXT
  8
0
  6
CONTINUOUS
 62
     7
 10
228.43913
 20
440.23295
 40
3.2
 41
0.60999997
  1
仕上げ
  0
TEXT
  8
0
  6
CONTINUOUS
 62
     7
 10
225.23913
 20
416.23295
 40
3.2
 41
0.60999999
  1
セットビス
  0
TEXT
  8
0
  6
CONTINUOUS
 62
     7
 10
230.03913
 20
392.23295
 40
3.2
 41
0.61
  1
備考
  0
TEXT
  8
0
  6
CONTINUOUS
 62
     7
 10
228.43913
 20
432.23295
 40
3.2
 41
0.60999997
  1
定　尺
  0
TEXT
  8
0
  6
CONTINUOUS
 62
     7
 10
226.83913
 20
424.23295
 40
3.2
 41
0.60999998
  1
左右勝手
  0
TEXT
  8
0
  6
CONTINUOUS
 62
     7
 10
245.63913
 20
462.63295
 40
3.2
 41
0.75000002
  1
ドアーストップ（じゅうたん用）
  0
TEXT
  8
0
  6
CONTINUOUS
 62
     7
 10
245.63914
 20
454.63295
 40
3.2
 41
0.75000002
  1
DCJ-56
  0
TEXT
  8
0
  6
CONTINUOUS
 62
     7
 10
245.63913
 20
446.63295
 40
3.2
 41
0.74999998
  1
亜鉛ダイキャスト
  0
TEXT
  8
0
  6
CONTINUOUS
 62
     7
 10
245.63913
 20
438.63295
 40
3.2
 41
0.75000003
  1
サーチライトニッケルクロム
  0
TEXT
  8
0
  6
CONTINUOUS
 62
     7
 10
245.63913
 20
422.63295
 40
3.2
 41
0.74999999
  1
無し
  0
TEXT
  8
0
  6
CONTINUOUS
 62
     7
 10
245.63913
 20
390.63295
 40
3.2
 41
0.70917684
  1
※オールアンカーＭ１０×６０付
  0
TEXT
  8
0
  6
CONTINUOUS
 62
     7
 10
401.92487
 20
287.80252
 40
3
 41
0.90021008
  1
%%C２５
  0
TEXT
  8
0
  6
CONTINUOUS
 62
     7
 10
431.79627
 20
232.57048
 40
3
 41
0.90021008
  1
%%C４０
  0
TEXT
  8
0
  6
CONTINUOUS
 62
     7
 10
431.79627
 20
242.57048
 40
3
 41
0.90021008
  1
%%C３０
  0
TEXT
  8
0
  6
CONTINUOUS
 62
     7
 10
455.35607
 20
252.41441
 40
3
 41
0.94012607
  1
（ドリル径%%C１０．５）
  0
TEXT
  8
0
  6
CONTINUOUS
 62
     7
 10
472.88129
 20
323.60254
 40
3
 41
1.0714285
  1
30
 50
90.000003
  0
TEXT
  8
0
  6
CONTINUOUS
 62
     7
 10
482.88129
 20
329.60254
 40
3
 41
0.99999995
  1
42
 50
90.000003
  0
TEXT
  8
0
  6
CONTINUOUS
 62
     7
 10
482.88129
 20
281.90848
 40
3
 41
0.99999995
  1
35
 50
90.000003
  0
TEXT
  8
0
  6
CONTINUOUS
 62
     7
 10
482.88129
 20
305.60254
 40
3
 41
1
  1
9
 50
90.000003
  0
TEXT
  8
0
  6
CONTINUOUS
 62
     3
 10
431.5106
 20
364.60255
 40
3.2
 41
0.90021012
  1
%%C４５
  0
TEXT
  8
0
  6
CONTINUOUS
 62
     3
 10
472.08096
 20
344.43587
 40
3.2
 41
1.25
  1
12
 50
90.000003
  0
INSERT
  8
0
  6
CONTINUOUS
 62
     7
  2
KOZU0001
 10
448.58127
 20
287.10254
  0
INSERT
  8
0
  6
CONTINUOUS
 62
     7
  2
KOZU0002
 10
423.58127
 20
287.10254
  0
INSERT
  8
0
  6
CONTINUOUS
 62
     7
  2
KOZU0003
 10
416.08127
 20
231.87047
  0
INSERT
  8
0
  6
CONTINUOUS
 62
     7
  2
KOZU0004
 10
456.08127
 20
231.87047
  0
INSERT
  8
0
  6
CONTINUOUS
 62
     7
  2
KOZU0005
 10
421.08127
 20
241.87047
  0
INSERT
  8
0
  6
CONTINUOUS
 62
     7
  2
KOZU0006
 10
451.08127
 20
241.87047
  0
INSERT
  8
0
  6
CONTINUOUS
 62
     7
  2
KOZU0007
 10
431.08127
 20
251.71442
  0
INSERT
  8
0
  6
CONTINUOUS
 62
     7
  2
KOZU0008
 10
441.08127
 20
251.71442
  0
INSERT
  8
0
  6
CONTINUOUS
 62
     7
  2
KOZU0009
 10
473.58127
 20
341.10254
  0
INSERT
  8
0
  6
CONTINUOUS
 62
     7
  2
KOZU0010
 10
473.58127
 20
311.10254
  0
INSERT
  8
0
  6
CONTINUOUS
 62
     7
  2
KOZU0011
 10
483.58127
 20
311.10254
  0
INSERT
  8
0
  6
CONTINUOUS
 62
     7
  2
KOZU0012
 10
483.58127
 20
353.10254
  0
INSERT
  8
0
  6
CONTINUOUS
 62
     7
  2
KOZU0013
 10
483.58127
 20
302.10254
  0
INSERT
  8
0
  6
CONTINUOUS
 62
     7
  2
KOZU0014
 10
483.58127
 20
266.71442
  0
INSERT
  8
0
  6
CONTINUOUS
 62
     7
  2
KOZU0015
 10
483.58127
 20
311.10254
  0
INSERT
  8
0
  6
CONTINUOUS
 62
     7
  2
KOZU0016
 10
483.58127
 20
302.10254
  0
INSERT
  8
0
  6
CONTINUOUS
 62
     7
  2
KOZU0017
 10
458.58127
 20
363.10254
  0
INSERT
  8
0
  6
CONTINUOUS
 62
     7
  2
KOZU0018
 10
413.58127
 20
363.10254
  0
INSERT
  8
0
  6
CONTINUOUS
 62
     7
  2
KOZU0019
 10
473.58127
 20
353.10254
  0
INSERT
  8
0
  6
CONTINUOUS
 62
     7
  2
KOZU0020
 10
473.58127
 20
341.10254
  0
DIMENSION
  8
0
  6
CONTINUOUS
 62
     7
  2
*D1
 70
     0
 10
473.58127
 20
311.10254
 11
473.58127
 21
306.11969
  3
DIMSTYLE
 13
456.08127
 23
310.10254
 14
456.08127
 24
311.10254
 50
90
1001
ACAD
1000
DSTYLE
1002
{
1070
    77
1070
     1
1070
   172
1070
     1
1002
}
  0
ENDSEC
  0
EOF
