  0
SECTION
  2
HEADER
  9
$EXTMAX
 10
557.13251
 20
490.52232
 30
0
  9
$EXTMIN
 10
137.13251
 20
193.52232
 30
0
  9
$LIMMAX
 10
557.13251
 20
490.52232
  9
$LIMMIN
 10
137.13251
 20
193.52232
  9
$PLIMMAX
 10
557.13251
 20
490.52232
  9
$PLIMMIN
 10
137.13251
 20
193.52232
  9
$TEXTSIZE
 40
3.2
  9
$DIMSHO
 70
     0
  9
$DIMASZ
 40
1.0
  9
$DIMTAD
 70
     1
  9
$DIMTIH
 70
     0
  9
$DIMTOH
 70
     0
  9
$DIMEXE
 40
2.54
  9
$DIMEXO
 40
2.54
  9
$DIMTVP
 40
1.0
  9
$DIMSAH
 70
     1
  9
$DIMDLE
 40
0.0
  9
$DIMTXT
 40
3.2
  9
$DIMGAP
 40
1.6
  0
ENDSEC
  0
SECTION
  2
TABLES
  0
TABLE
  2
LTYPE
 70
     6
  0
LTYPE
  2
CONTINUOUS
 70
    64
  3
Solid line
 72
    65
 73
     0
 40
0.0
  0
LTYPE
  2
DASHED
 70
    64
  3
__ __ __ __ __ __ __ __ __ __ __ __ __ __ __
 72
    65
 73
     2
 40
3.5
 49
2.0
 49
-1.5
  0
LTYPE
  2
CENTER
 70
    64
  3
____ _ ____ _ ____ _ ____ _ ____ _ ____ _ ____
 72
    65
 73
     4
 40
17.5
 49
13.0
 49
-1.5
 49
1.5
 49
-1.5
  0
LTYPE
  2
PHANTOM
 70
    64
  3
_____ _ _ _____ _ _ _____ _ _ _____ _ _ ____  
 72
    65
 73
     6
 40
15.5
 49
8.0
 49
-1.5
 49
1.5
 49
-1.5
 49
1.5
 49
-1.5
  0
LTYPE
  2
DOT
 70
    64
  3
. . . . . . . . . . . . . . . . . . . . . . . .
 72
    65
 73
     2
 40
0.25
 49
0.0
 49
-0.25
  0
LTYPE
  2
HIDDEN
 70
    64
  3
__ __ __ __ __ __ __ __ __ __ __ __ __ __ __
 72
    65
 73
     2
 40
3.5
 49
2.0
 49
-1.5
  0
ENDTAB
  0
TABLE
  2
LAYER
 70
     2
  0
LAYER
  2
0
 70
     0
 62
     7
  6
CONTINUOUS
  0
LAYER
  2
DEFPOINTS
 70
     0
 62
     7
  6
CONTINUOUS
  0
ENDTAB
  0
TABLE
  2
STYLE
 70
     1
  0
STYLE
  2
STANDARD
 70
     0
 40
0.0
 41
1.0
 50
0.0
 71
     0
 42
0.2
  3
txt
  4
BIGFONT
  0
ENDTAB
  0
TABLE
  2
DIMSTYLE
 70
     1
  0
DIMSTYLE
  2
DIMSTYLE
 70
     0
  3

  4

  5
_DOT
  6
_DOT
  7
_DOT
 40
1
 41
1
 42
2.54
 43
0.38
 44
2.54
 45
0
 46
0
 47
0
 48
0
140
3.2
141
0.09
142
0
143
25.4
144
1
145
0
146
1
147
1.6
 71
     0
 72
     0
 73
     0
 74
     0
 75
     0
 76
     0
 78
     0
170
     0
171
     2
 77
     0
172
     0
173
     1
174
     0
175
     0
176
     0
177
     0
178
     0
  0
ENDTAB
  0
ENDSEC
  0
SECTION
  2
BLOCKS
  0
BLOCK
  8
0
  2
_DOT
 70
    64
 10
0
 20
0
  3
_DOT
  0
POLYLINE
  8
0
  6
BYBLOCK
 62
     0
 66
     1
 10
0
 20
0
 70
     1
 40
0.40000001
 41
0.40000001
  0
VERTEX
  8
0
  6
BYBLOCK
 62
     0
 10
-0.2
 20
0
 42
1
  0
VERTEX
  8
0
  6
BYBLOCK
 62
     0
 10
0.2
 20
0
 42
1
  0
SEQEND
  8
0
  6
BYBLOCK
 62
     0
  0
LINE
  8
0
  6
BYBLOCK
 62
     0
 10
-0.40000001
 20
0
 11
-3
 21
0
  0
ENDBLK
  8
0
  0
BLOCK
  8
0
  2
*D1
 70
    65
 10
0
 20
0
  0
LINE
  8
0
  6
CONTINUOUS
 62
     7
 10
377.0101
 20
287.62805
 11
400.58481
 21
287.62805
  0
LINE
  8
0
  6
CONTINUOUS
 62
     7
 10
366.5101
 20
287.62805
 11
377.0101
 21
287.62805
  0
INSERT
  8
0
  6
CONTINUOUS
 62
     7
  2
_DOT
 10
366.5101
 20
287.62805
 50
180
  0
INSERT
  8
0
  6
CONTINUOUS
 62
     7
  2
_DOT
 10
377.0101
 20
287.62805
  0
LINE
  8
0
  6
CONTINUOUS
 62
     7
 10
366.5101
 20
303.08805
 11
366.5101
 21
286.42804
  0
LINE
  8
0
  6
CONTINUOUS
 62
     7
 10
377.0101
 20
303.08805
 11
377.0101
 21
286.42804
  0
TEXT
  8
0
  6
CONTINUOUS
 62
     7
 10
385.49881
 20
288.42805
 40
3.2
 41
1.2776084
  1
%%C10.5
  0
POINT
  8
DEFPOINTS
  6
CONTINUOUS
 62
     7
 10
366.5101
 20
305.62805
  0
POINT
  8
DEFPOINTS
  6
CONTINUOUS
 62
     7
 10
377.0101
 20
305.62805
  0
POINT
  8
DEFPOINTS
  6
CONTINUOUS
 62
     7
 10
377.0101
 20
287.62805
  0
ENDBLK
  8
0
  0
BLOCK
  8
0
  2
KOZU0001
 70
    64
 10
0
 20
0
  0
POLYLINE
  8
0
  6
CONTINUOUS
 62
     7
 66
     1
 10
0
 20
0
 70
     1
 40
0.40000001
 41
0.40000001
  0
VERTEX
  8
0
  6
CONTINUOUS
 62
     7
 10
-0.2
 20
0
 42
1
  0
VERTEX
  8
0
  6
CONTINUOUS
 62
     7
 10
0.2
 20
0
 42
1
  0
SEQEND
  8
0
  6
CONTINUOUS
 62
     7
  0
ENDBLK
  8
0
  0
BLOCK
  8
0
  2
KOZU0002
 70
    64
 10
0
 20
0
  0
POLYLINE
  8
0
  6
CONTINUOUS
 62
     7
 66
     1
 10
0
 20
0
 70
     1
 40
0.40000001
 41
0.40000001
  0
VERTEX
  8
0
  6
CONTINUOUS
 62
     7
 10
-0.2
 20
0
 42
1
  0
VERTEX
  8
0
  6
CONTINUOUS
 62
     7
 10
0.2
 20
0
 42
1
  0
SEQEND
  8
0
  6
CONTINUOUS
 62
     7
  0
ENDBLK
  8
0
  0
BLOCK
  8
0
  2
KOZU0003
 70
    64
 10
0
 20
0
  0
POLYLINE
  8
0
  6
CONTINUOUS
 62
     7
 66
     1
 10
0
 20
0
 70
     1
 40
0.40000001
 41
0.40000001
  0
VERTEX
  8
0
  6
CONTINUOUS
 62
     7
 10
-0.2
 20
0
 42
1
  0
VERTEX
  8
0
  6
CONTINUOUS
 62
     7
 10
0.2
 20
0
 42
1
  0
SEQEND
  8
0
  6
CONTINUOUS
 62
     7
  0
ENDBLK
  8
0
  0
BLOCK
  8
0
  2
KOZU0004
 70
    64
 10
0
 20
0
  0
POLYLINE
  8
0
  6
CONTINUOUS
 62
     7
 66
     1
 10
0
 20
0
 70
     1
 40
0.40000001
 41
0.40000001
  0
VERTEX
  8
0
  6
CONTINUOUS
 62
     7
 10
-0.2
 20
0
 42
1
  0
VERTEX
  8
0
  6
CONTINUOUS
 62
     7
 10
0.2
 20
0
 42
1
  0
SEQEND
  8
0
  6
CONTINUOUS
 62
     7
  0
ENDBLK
  8
0
  0
ENDSEC
  0
SECTION
  2
ENTITIES
  0
LINE
  8
0
  6
CONTINUOUS
 62
     7
 10
137.13254
 20
193.52232
 11
557.13251
 21
193.52232
  0
LINE
  8
0
  6
CONTINUOUS
 62
     7
 10
137.13254
 20
490.52231
 11
137.13254
 21
193.52232
  0
LINE
  8
0
  6
CONTINUOUS
 62
     7
 10
537.63251
 20
205.52232
 11
537.63251
 21
478.52231
  0
LINE
  8
0
  6
CONTINUOUS
 62
     7
 10
156.63254
 20
382.52231
 11
156.63254
 21
206.27232
  0
LINE
  8
0
  6
CONTINUOUS
 62
     7
 10
537.63251
 20
478.52231
 11
266.63254
 21
478.52231
  0
LINE
  8
0
  6
CONTINUOUS
 62
     7
 10
156.63254
 20
205.52232
 11
537.63251
 21
205.52232
  0
LINE
  8
0
  6
CONTINUOUS
 62
     7
 10
557.13251
 20
490.52231
 11
557.13251
 21
193.52232
  0
LINE
  8
0
  6
CONTINUOUS
 62
     7
 10
137.13254
 20
490.52231
 11
557.13251
 21
490.52231
  0
LINE
  8
0
  6
CONTINUOUS
 62
     7
 10
156.63254
 20
478.52231
 11
266.63254
 21
478.52231
  0
LINE
  8
0
  6
CONTINUOUS
 62
     7
 10
156.63254
 20
478.52231
 11
156.63254
 21
382.52231
  0
LINE
  8
0
  6
CONTINUOUS
 62
     7
 10
176.63254
 20
478.52231
 11
176.63254
 21
382.52231
  0
LINE
  8
0
  6
CONTINUOUS
 62
     7
 10
156.63254
 20
470.52231
 11
266.63254
 21
470.52231
  0
LINE
  8
0
  6
CONTINUOUS
 62
     7
 10
156.63254
 20
462.52231
 11
266.63254
 21
462.52231
  0
LINE
  8
0
  6
CONTINUOUS
 62
     7
 10
156.63254
 20
454.52231
 11
266.63254
 21
454.52231
  0
LINE
  8
0
  6
CONTINUOUS
 62
     7
 10
156.63254
 20
446.52231
 11
266.63254
 21
446.52231
  0
LINE
  8
0
  6
CONTINUOUS
 62
     7
 10
176.63254
 20
422.52231
 11
266.63254
 21
422.52231
  0
LINE
  8
0
  6
CONTINUOUS
 62
     7
 10
176.63254
 20
414.52231
 11
266.63254
 21
414.52231
  0
LINE
  8
0
  6
CONTINUOUS
 62
     7
 10
156.63254
 20
406.52231
 11
266.63254
 21
406.52231
  0
LINE
  8
0
  6
CONTINUOUS
 62
     7
 10
176.63254
 20
398.52231
 11
266.63254
 21
398.52231
  0
LINE
  8
0
  6
CONTINUOUS
 62
     7
 10
176.63254
 20
390.52231
 11
266.63254
 21
390.52231
  0
LINE
  8
0
  6
CONTINUOUS
 62
     7
 10
156.63254
 20
382.52231
 11
266.63254
 21
382.52231
  0
LINE
  8
0
  6
CONTINUOUS
 62
     7
 10
156.63254
 20
478.52231
 11
156.63254
 21
382.52231
  0
LINE
  8
0
  6
CONTINUOUS
 62
     7
 10
156.63254
 20
478.52231
 11
266.63254
 21
478.52231
  0
LINE
  8
0
  6
CONTINUOUS
 62
     7
 10
266.63254
 20
478.52231
 11
266.63254
 21
382.52231
  0
LINE
  8
0
  6
CONTINUOUS
 62
     7
 10
156.63254
 20
438.52231
 11
266.63254
 21
438.52231
  0
LINE
  8
0
  6
CONTINUOUS
 62
     7
 10
156.63254
 20
430.52231
 11
266.63254
 21
430.52231
  0
LINE
  8
0
  6
CONTINUOUS
 62
     7
 10
176.63254
 20
422.52231
 11
266.63254
 21
422.52231
  0
LINE
  8
0
  6
CONTINUOUS
 62
     3
 10
359.2601
 20
304.62805
 11
359.2601
 21
276.62805
  0
LINE
  8
0
  6
CONTINUOUS
 62
     3
 10
384.2601
 20
304.62805
 11
384.2601
 21
276.62805
  0
LINE
  8
0
  6
CONTINUOUS
 62
     3
 10
360.06012
 20
277.62805
 11
383.46011
 21
277.62805
  0
LINE
  8
0
  6
CONTINUOUS
 62
     7
 10
359.66013
 20
277.62805
 11
360.06012
 21
277.62805
  0
LINE
  8
0
  6
CONTINUOUS
 62
     7
 10
383.86011
 20
277.62805
 11
383.46011
 21
277.62805
  0
LINE
  8
0
  6
CENTER
 62
     4
 10
371.7601
 20
323.62805
 11
371.7601
 21
302.62805
  0
LINE
  8
0
  6
DASHED
 62
     6
 10
366.5101
 20
320.62805
 11
366.5101
 21
305.62805
  0
LINE
  8
0
  6
CONTINUOUS
 62
     3
 10
385.2601
 20
320.62805
 11
400.2601
 21
320.62805
  0
LINE
  8
0
  6
CONTINUOUS
 62
     3
 10
385.2601
 20
305.62805
 11
400.2601
 21
305.62805
  0
LINE
  8
0
  6
CONTINUOUS
 62
     3
 10
399.2601
 20
319.82803
 11
399.2601
 21
306.42804
  0
LINE
  8
0
  6
CONTINUOUS
 62
     7
 10
399.2601
 20
320.22803
 11
399.2601
 21
319.82803
  0
LINE
  8
0
  6
CONTINUOUS
 62
     7
 10
399.2601
 20
306.02805
 11
399.2601
 21
306.42804
  0
LINE
  8
0
  6
DASHED
 62
     6
 10
377.0101
 20
320.62805
 11
377.0101
 21
305.62805
  0
LINE
  8
0
  6
CENTER
 62
     4
 10
356.2601
 20
397.55273
 11
387.2601
 21
397.55273
  0
LINE
  8
0
  6
CENTER
 62
     4
 10
371.7601
 20
413.05273
 11
371.7601
 21
382.05273
  0
CIRCLE
  8
0
  6
CONTINUOUS
 62
     7
 10
371.7601
 20
397.55273
 40
5.25
  0
CIRCLE
  8
0
  6
CONTINUOUS
 62
     7
 10
371.7601
 20
397.55273
 40
12.5
  0
POLYLINE
  8
0
  6
CONTINUOUS
 62
     7
 66
     1
 10
0
 20
0
  0
VERTEX
  8
0
  6
CONTINUOUS
 62
     7
 10
359.2601
 20
305.62805
  0
VERTEX
  8
0
  6
CONTINUOUS
 62
     7
 10
384.2601
 20
305.62805
  0
VERTEX
  8
0
  6
CONTINUOUS
 62
     7
 10
384.2601
 20
320.62805
  0
VERTEX
  8
0
  6
CONTINUOUS
 62
     7
 10
359.2601
 20
320.62805
  0
VERTEX
  8
0
  6
CONTINUOUS
 62
     7
 10
359.2601
 20
305.62805
  0
SEQEND
  8
0
  6
CONTINUOUS
 62
     7
  0
TEXT
  8
0
  6
CONTINUOUS
 62
     2
 10
137.13252
 20
193.52232
 40
2.5
 41
1.09375
  1
!GENTITLE-LL
  0
TEXT
  8
0
  6
CONTINUOUS
 62
     2
 10
537.63252
 20
478.52231
 40
2.5
 41
1.09375
  1
!GENTITLE-RU
  0
TEXT
  8
0
  6
CONTINUOUS
 62
     2
 10
156.63253
 20
478.52231
 40
2.5
 41
1.0930233
  1
!GENTITLE-INSERT
  0
TEXT
  8
0
  6
CONTINUOUS
 62
     2
 10
557.13251
 20
490.52231
 40
2.5
 41
1.0857143
  1
!GENTITLE-MAX
  0
TEXT
  8
0
  6
CONTINUOUS
 62
     7
 10
162.86104
 20
474.52232
 40
3.2
 41
0.60999997
  1
品　名
  0
TEXT
  8
0
  6
CONTINUOUS
 62
     7
 10
162.86104
 20
466.52232
 40
3.2
 41
0.60999997
  1
品　番
  0
TEXT
  8
0
  6
CONTINUOUS
 62
     7
 10
162.86104
 20
458.52232
 40
3.2
 41
0.60999997
  1
材　質
  0
TEXT
  8
0
  6
CONTINUOUS
 62
     7
 10
162.86104
 20
450.52232
 40
3.2
 41
0.60999997
  1
仕上げ
  0
TEXT
  8
0
  6
CONTINUOUS
 62
     7
 10
159.66103
 20
426.52232
 40
3.2
 41
0.60999999
  1
セットビス
  0
TEXT
  8
0
  6
CONTINUOUS
 62
     7
 10
164.46103
 20
402.52232
 40
3.2
 41
0.61
  1
備考
  0
TEXT
  8
0
  6
CONTINUOUS
 62
     7
 10
162.86104
 20
442.52232
 40
3.2
 41
0.60999997
  1
定　尺
  0
TEXT
  8
0
  6
CONTINUOUS
 62
     7
 10
161.26104
 20
434.52232
 40
3.2
 41
0.60999998
  1
左右勝手
  0
TEXT
  8
0
  6
CONTINUOUS
 62
     7
 10
180.06103
 20
472.92231
 40
3.2
 41
0.75000002
  1
じゅうたん用スペーサー
  0
TEXT
  8
0
  6
CONTINUOUS
 62
     7
 10
180.06103
 20
464.92231
 40
3.2
 41
0.79687502
  1
DCJ-15
  0
TEXT
  8
0
  6
CONTINUOUS
 62
     7
 10
180.06103
 20
456.92231
 40
3.2
 41
0.74999999
  1
真鍮
  0
TEXT
  8
0
  6
CONTINUOUS
 62
     7
 10
180.06103
 20
448.92231
 40
3.2
 41
0.74999999
  1
生地
  0
TEXT
  8
0
  6
CONTINUOUS
 62
     3
 10
367.18943
 20
279.12836
 40
3.2
 41
0.90021012
  1
%%C２５
  0
TEXT
  8
0
  6
CONTINUOUS
 62
     3
 10
397.76013
 20
310.46139
 40
3.2
 41
1.25
  1
15
 50
90.000003
  0
INSERT
  8
0
  6
CONTINUOUS
 62
     7
  2
KOZU0001
 10
359.2601
 20
277.62805
  0
INSERT
  8
0
  6
CONTINUOUS
 62
     7
  2
KOZU0002
 10
384.2601
 20
277.62805
  0
INSERT
  8
0
  6
CONTINUOUS
 62
     7
  2
KOZU0003
 10
399.2601
 20
320.62805
  0
INSERT
  8
0
  6
CONTINUOUS
 62
     7
  2
KOZU0004
 10
399.2601
 20
305.62805
  0
DIMENSION
  8
0
  6
CONTINUOUS
 62
     7
  2
*D1
 70
     0
 10
377.0101
 20
287.62805
 11
393.04181
 21
287.62805
  3
DIMSTYLE
 13
366.5101
 23
305.62805
 14
377.0101
 24
305.62805
 50
0
1001
ACAD
1000
DSTYLE
1002
{
1070
    77
1070
     1
1070
   172
1070
     1
1002
}
  0
ENDSEC
  0
EOF
