  0
SECTION
  2
HEADER
  9
$EXTMAX
 10
559.54114
 20
490.63997
 30
0
  9
$EXTMIN
 10
139.54114
 20
193.63997
 30
0
  9
$LIMMAX
 10
559.54114
 20
490.63997
  9
$LIMMIN
 10
139.54114
 20
193.63997
  9
$PLIMMAX
 10
559.54114
 20
490.63997
  9
$PLIMMIN
 10
139.54114
 20
193.63997
  9
$TEXTSIZE
 40
3.2
  9
$DIMSHO
 70
     0
  9
$DIMASZ
 40
1.0
  9
$DIMTAD
 70
     1
  9
$DIMTIH
 70
     0
  9
$DIMTOH
 70
     0
  9
$DIMEXE
 40
2.54
  9
$DIMEXO
 40
2.54
  9
$DIMTVP
 40
1.0
  9
$DIMSAH
 70
     1
  9
$DIMDLE
 40
0.0
  9
$DIMTXT
 40
3.2
  9
$DIMGAP
 40
1.6
  0
ENDSEC
  0
SECTION
  2
TABLES
  0
TABLE
  2
LTYPE
 70
     6
  0
LTYPE
  2
CONTINUOUS
 70
    64
  3
Solid line
 72
    65
 73
     0
 40
0.0
  0
LTYPE
  2
DASHED
 70
    64
  3
__ __ __ __ __ __ __ __ __ __ __ __ __ __ __
 72
    65
 73
     2
 40
3.5
 49
2.0
 49
-1.5
  0
LTYPE
  2
CENTER
 70
    64
  3
____ _ ____ _ ____ _ ____ _ ____ _ ____ _ ____
 72
    65
 73
     4
 40
17.5
 49
13.0
 49
-1.5
 49
1.5
 49
-1.5
  0
LTYPE
  2
PHANTOM
 70
    64
  3
_____ _ _ _____ _ _ _____ _ _ _____ _ _ ____  
 72
    65
 73
     6
 40
15.5
 49
8.0
 49
-1.5
 49
1.5
 49
-1.5
 49
1.5
 49
-1.5
  0
LTYPE
  2
DOT
 70
    64
  3
. . . . . . . . . . . . . . . . . . . . . . . .
 72
    65
 73
     2
 40
0.25
 49
0.0
 49
-0.25
  0
LTYPE
  2
HIDDEN
 70
    64
  3
__ __ __ __ __ __ __ __ __ __ __ __ __ __ __
 72
    65
 73
     2
 40
3.5
 49
2.0
 49
-1.5
  0
ENDTAB
  0
TABLE
  2
LAYER
 70
     2
  0
LAYER
  2
0
 70
     0
 62
     7
  6
CONTINUOUS
  0
LAYER
  2
DEFPOINTS
 70
     0
 62
     7
  6
CONTINUOUS
  0
ENDTAB
  0
TABLE
  2
STYLE
 70
     1
  0
STYLE
  2
STANDARD
 70
     0
 40
0.0
 41
1.0
 50
0.0
 71
     0
 42
0.2
  3
txt
  4
BIGFONT
  0
ENDTAB
  0
TABLE
  2
DIMSTYLE
 70
     1
  0
DIMSTYLE
  2
DIMSTYLE
 70
     0
  3

  4

  5
_DOT
  6
_DOT
  7
_DOT
 40
1
 41
1
 42
2.54
 43
0.38
 44
2.54
 45
0
 46
0
 47
0
 48
0
140
3.2
141
0.09
142
0
143
25.4
144
1
145
0
146
1
147
1.6
 71
     0
 72
     0
 73
     0
 74
     0
 75
     0
 76
     0
 78
     0
170
     0
171
     2
 77
     0
172
     0
173
     1
174
     0
175
     0
176
     0
177
     0
178
     0
  0
ENDTAB
  0
ENDSEC
  0
SECTION
  2
BLOCKS
  0
BLOCK
  8
0
  2
_DOT
 70
    64
 10
0
 20
0
  3
_DOT
  0
POLYLINE
  8
0
  6
BYBLOCK
 62
     0
 66
     1
 10
0
 20
0
 70
     1
 40
0.40000001
 41
0.40000001
  0
VERTEX
  8
0
  6
BYBLOCK
 62
     0
 10
-0.2
 20
0
 42
1
  0
VERTEX
  8
0
  6
BYBLOCK
 62
     0
 10
0.2
 20
0
 42
1
  0
SEQEND
  8
0
  6
BYBLOCK
 62
     0
  0
LINE
  8
0
  6
BYBLOCK
 62
     0
 10
-0.40000001
 20
0
 11
-3
 21
0
  0
ENDBLK
  8
0
  0
BLOCK
  8
0
  2
*D1
 70
    65
 10
0
 20
0
  0
LINE
  8
0
  6
CONTINUOUS
 62
     7
 10
391.418
 20
283.66125
 11
416.24338
 21
283.66125
  0
LINE
  8
0
  6
CONTINUOUS
 62
     7
 10
380.918
 20
283.66125
 11
391.418
 21
283.66125
  0
INSERT
  8
0
  6
CONTINUOUS
 62
     7
  2
_DOT
 10
380.918
 20
283.66125
 50
180
  0
INSERT
  8
0
  6
CONTINUOUS
 62
     7
  2
_DOT
 10
391.418
 20
283.66125
  0
LINE
  8
0
  6
CONTINUOUS
 62
     7
 10
380.918
 20
296.12125
 11
380.918
 21
282.46124
  0
LINE
  8
0
  6
CONTINUOUS
 62
     7
 10
391.418
 20
296.12125
 11
391.418
 21
282.46124
  0
TEXT
  8
0
  6
CONTINUOUS
 62
     7
 10
401.15738
 20
284.46125
 40
3.2
 41
1.2776084
  1
%%C10.5
  0
POINT
  8
DEFPOINTS
  6
CONTINUOUS
 62
     7
 10
380.918
 20
298.66125
  0
POINT
  8
DEFPOINTS
  6
CONTINUOUS
 62
     7
 10
391.418
 20
298.66125
  0
POINT
  8
DEFPOINTS
  6
CONTINUOUS
 62
     7
 10
391.418
 20
283.66125
  0
ENDBLK
  8
0
  0
BLOCK
  8
0
  2
KOZU0001
 70
    64
 10
0
 20
0
  0
POLYLINE
  8
0
  6
CONTINUOUS
 62
     7
 66
     1
 10
0
 20
0
 70
     1
 40
0.40000001
 41
0.40000001
  0
VERTEX
  8
0
  6
CONTINUOUS
 62
     7
 10
-0.2
 20
0
 42
1
  0
VERTEX
  8
0
  6
CONTINUOUS
 62
     7
 10
0.2
 20
0
 42
1
  0
SEQEND
  8
0
  6
CONTINUOUS
 62
     7
  0
ENDBLK
  8
0
  0
BLOCK
  8
0
  2
KOZU0002
 70
    64
 10
0
 20
0
  0
POLYLINE
  8
0
  6
CONTINUOUS
 62
     7
 66
     1
 10
0
 20
0
 70
     1
 40
0.40000001
 41
0.40000001
  0
VERTEX
  8
0
  6
CONTINUOUS
 62
     7
 10
-0.2
 20
0
 42
1
  0
VERTEX
  8
0
  6
CONTINUOUS
 62
     7
 10
0.2
 20
0
 42
1
  0
SEQEND
  8
0
  6
CONTINUOUS
 62
     7
  0
ENDBLK
  8
0
  0
BLOCK
  8
0
  2
KOZU0003
 70
    64
 10
0
 20
0
  0
POLYLINE
  8
0
  6
CONTINUOUS
 62
     7
 66
     1
 10
0
 20
0
 70
     1
 40
0.40000001
 41
0.40000001
  0
VERTEX
  8
0
  6
CONTINUOUS
 62
     7
 10
-0.2
 20
0
 42
1
  0
VERTEX
  8
0
  6
CONTINUOUS
 62
     7
 10
0.2
 20
0
 42
1
  0
SEQEND
  8
0
  6
CONTINUOUS
 62
     7
  0
ENDBLK
  8
0
  0
BLOCK
  8
0
  2
KOZU0004
 70
    64
 10
0
 20
0
  0
POLYLINE
  8
0
  6
CONTINUOUS
 62
     7
 66
     1
 10
0
 20
0
 70
     1
 40
0.40000001
 41
0.40000001
  0
VERTEX
  8
0
  6
CONTINUOUS
 62
     7
 10
-0.2
 20
0
 42
1
  0
VERTEX
  8
0
  6
CONTINUOUS
 62
     7
 10
0.2
 20
0
 42
1
  0
SEQEND
  8
0
  6
CONTINUOUS
 62
     7
  0
ENDBLK
  8
0
  0
ENDSEC
  0
SECTION
  2
ENTITIES
  0
LINE
  8
0
  6
CONTINUOUS
 62
     7
 10
139.54114
 20
193.63997
 11
559.54114
 21
193.63997
  0
LINE
  8
0
  6
CONTINUOUS
 62
     7
 10
139.54114
 20
490.63998
 11
139.54114
 21
193.63997
  0
LINE
  8
0
  6
CONTINUOUS
 62
     7
 10
540.04114
 20
205.63997
 11
540.04114
 21
478.63998
  0
LINE
  8
0
  6
CONTINUOUS
 62
     7
 10
159.04114
 20
382.63998
 11
159.04114
 21
206.38997
  0
LINE
  8
0
  6
CONTINUOUS
 62
     7
 10
540.04114
 20
478.63998
 11
269.04114
 21
478.63998
  0
LINE
  8
0
  6
CONTINUOUS
 62
     7
 10
159.04114
 20
205.63997
 11
540.04114
 21
205.63997
  0
LINE
  8
0
  6
CONTINUOUS
 62
     7
 10
559.54114
 20
490.63998
 11
559.54114
 21
193.63997
  0
LINE
  8
0
  6
CONTINUOUS
 62
     7
 10
139.54114
 20
490.63998
 11
559.54114
 21
490.63998
  0
LINE
  8
0
  6
CONTINUOUS
 62
     7
 10
159.04114
 20
478.63998
 11
269.04114
 21
478.63998
  0
LINE
  8
0
  6
CONTINUOUS
 62
     7
 10
159.04114
 20
478.63998
 11
159.04114
 21
382.63998
  0
LINE
  8
0
  6
CONTINUOUS
 62
     7
 10
179.04114
 20
478.63998
 11
179.04114
 21
382.63998
  0
LINE
  8
0
  6
CONTINUOUS
 62
     7
 10
159.04114
 20
470.63998
 11
269.04114
 21
470.63998
  0
LINE
  8
0
  6
CONTINUOUS
 62
     7
 10
159.04114
 20
462.63998
 11
269.04114
 21
462.63998
  0
LINE
  8
0
  6
CONTINUOUS
 62
     7
 10
159.04114
 20
454.63998
 11
269.04114
 21
454.63998
  0
LINE
  8
0
  6
CONTINUOUS
 62
     7
 10
159.04114
 20
446.63998
 11
269.04114
 21
446.63998
  0
LINE
  8
0
  6
CONTINUOUS
 62
     7
 10
179.04114
 20
422.63998
 11
269.04114
 21
422.63998
  0
LINE
  8
0
  6
CONTINUOUS
 62
     7
 10
179.04114
 20
414.63998
 11
269.04114
 21
414.63998
  0
LINE
  8
0
  6
CONTINUOUS
 62
     7
 10
159.04114
 20
406.63998
 11
269.04114
 21
406.63998
  0
LINE
  8
0
  6
CONTINUOUS
 62
     7
 10
179.04114
 20
398.63998
 11
269.04114
 21
398.63998
  0
LINE
  8
0
  6
CONTINUOUS
 62
     7
 10
179.04114
 20
390.63998
 11
269.04114
 21
390.63998
  0
LINE
  8
0
  6
CONTINUOUS
 62
     7
 10
159.04114
 20
382.63998
 11
269.04114
 21
382.63998
  0
LINE
  8
0
  6
CONTINUOUS
 62
     7
 10
159.04114
 20
478.63998
 11
159.04114
 21
382.63998
  0
LINE
  8
0
  6
CONTINUOUS
 62
     7
 10
159.04114
 20
478.63998
 11
269.04114
 21
478.63998
  0
LINE
  8
0
  6
CONTINUOUS
 62
     7
 10
269.04114
 20
478.63998
 11
269.04114
 21
382.63998
  0
LINE
  8
0
  6
CONTINUOUS
 62
     7
 10
159.04114
 20
438.63998
 11
269.04114
 21
438.63998
  0
LINE
  8
0
  6
CONTINUOUS
 62
     7
 10
159.04114
 20
430.63998
 11
269.04114
 21
430.63998
  0
LINE
  8
0
  6
CONTINUOUS
 62
     7
 10
179.04114
 20
422.63998
 11
269.04114
 21
422.63998
  0
LINE
  8
0
  6
CENTER
 62
     4
 10
401.668
 20
390.58597
 11
370.668
 21
390.58597
  0
LINE
  8
0
  6
CONTINUOUS
 62
     3
 10
373.668
 20
297.66125
 11
373.668
 21
272.66125
  0
LINE
  8
0
  6
CONTINUOUS
 62
     3
 10
398.668
 20
297.66125
 11
398.668
 21
272.66125
  0
LINE
  8
0
  6
CONTINUOUS
 62
     3
 10
374.46799
 20
273.66125
 11
397.86798
 21
273.66125
  0
LINE
  8
0
  6
CONTINUOUS
 62
     7
 10
374.06799
 20
273.66125
 11
374.46799
 21
273.66125
  0
LINE
  8
0
  6
CONTINUOUS
 62
     7
 10
398.26797
 20
273.66125
 11
397.86798
 21
273.66125
  0
LINE
  8
0
  6
CENTER
 62
     4
 10
386.168
 20
311.66125
 11
386.168
 21
295.66125
  0
LINE
  8
0
  6
DASHED
 62
     6
 10
380.918
 20
308.66125
 11
380.918
 21
298.66125
  0
LINE
  8
0
  6
DASHED
 62
     6
 10
391.418
 20
308.66125
 11
391.418
 21
298.66125
  0
LINE
  8
0
  6
CENTER
 62
     4
 10
386.168
 20
406.08597
 11
386.168
 21
375.08597
  0
LINE
  8
0
  6
CONTINUOUS
 62
     3
 10
399.668
 20
308.66125
 11
413.85477
 21
308.66125
  0
LINE
  8
0
  6
CONTINUOUS
 62
     3
 10
399.668
 20
298.66125
 11
413.85477
 21
298.66125
  0
LINE
  8
0
  6
CONTINUOUS
 62
     3
 10
412.85477
 20
307.86127
 11
412.85477
 21
299.46127
  0
LINE
  8
0
  6
CONTINUOUS
 62
     7
 10
412.85477
 20
308.26126
 11
412.85477
 21
307.86127
  0
LINE
  8
0
  6
CONTINUOUS
 62
     7
 10
412.85477
 20
299.06128
 11
412.85477
 21
299.46127
  0
CIRCLE
  8
0
  6
CONTINUOUS
 62
     7
 10
386.168
 20
390.58597
 40
12.5
  0
CIRCLE
  8
0
  6
CONTINUOUS
 62
     7
 10
386.168
 20
390.58597
 40
5.25
  0
POLYLINE
  8
0
  6
CONTINUOUS
 62
     7
 66
     1
 10
0
 20
0
  0
VERTEX
  8
0
  6
CONTINUOUS
 62
     7
 10
373.668
 20
298.66125
  0
VERTEX
  8
0
  6
CONTINUOUS
 62
     7
 10
398.668
 20
298.66125
  0
VERTEX
  8
0
  6
CONTINUOUS
 62
     7
 10
398.668
 20
308.66125
  0
VERTEX
  8
0
  6
CONTINUOUS
 62
     7
 10
373.668
 20
308.66125
  0
VERTEX
  8
0
  6
CONTINUOUS
 62
     7
 10
373.668
 20
298.66125
  0
SEQEND
  8
0
  6
CONTINUOUS
 62
     7
  0
TEXT
  8
0
  6
CONTINUOUS
 62
     2
 10
139.54114
 20
193.63997
 40
2.5
 41
1.09375
  1
!GENTITLE-LL
  0
TEXT
  8
0
  6
CONTINUOUS
 62
     2
 10
540.04116
 20
478.63998
 40
2.5
 41
1.09375
  1
!GENTITLE-RU
  0
TEXT
  8
0
  6
CONTINUOUS
 62
     2
 10
159.04113
 20
478.63998
 40
2.5
 41
1.0930233
  1
!GENTITLE-INSERT
  0
TEXT
  8
0
  6
CONTINUOUS
 62
     2
 10
559.54114
 20
490.63998
 40
2.5
 41
1.0857143
  1
!GENTITLE-MAX
  0
TEXT
  8
0
  6
CONTINUOUS
 62
     7
 10
165.26964
 20
474.63997
 40
3.2
 41
0.60999997
  1
品　名
  0
TEXT
  8
0
  6
CONTINUOUS
 62
     7
 10
165.26964
 20
466.63997
 40
3.2
 41
0.60999997
  1
品　番
  0
TEXT
  8
0
  6
CONTINUOUS
 62
     7
 10
165.26964
 20
458.63997
 40
3.2
 41
0.60999997
  1
材　質
  0
TEXT
  8
0
  6
CONTINUOUS
 62
     7
 10
165.26964
 20
450.63997
 40
3.2
 41
0.60999997
  1
仕上げ
  0
TEXT
  8
0
  6
CONTINUOUS
 62
     7
 10
162.06963
 20
426.63997
 40
3.2
 41
0.60999999
  1
セットビス
  0
TEXT
  8
0
  6
CONTINUOUS
 62
     7
 10
166.86964
 20
402.63997
 40
3.2
 41
0.61
  1
備考
  0
TEXT
  8
0
  6
CONTINUOUS
 62
     7
 10
165.26964
 20
442.63997
 40
3.2
 41
0.60999997
  1
定　尺
  0
TEXT
  8
0
  6
CONTINUOUS
 62
     7
 10
163.66964
 20
434.63997
 40
3.2
 41
0.60999998
  1
左右勝手
  0
TEXT
  8
0
  6
CONTINUOUS
 62
     7
 10
182.46963
 20
473.03996
 40
3.2
 41
0.75000002
  1
じゅうたん用スペーサー
  0
TEXT
  8
0
  6
CONTINUOUS
 62
     7
 10
182.46963
 20
465.03996
 40
3.2
 41
0.81382981
  1
DCJ-10
  0
TEXT
  8
0
  6
CONTINUOUS
 62
     7
 10
182.46963
 20
457.03996
 40
3.2
 41
0.74999999
  1
真鍮
  0
TEXT
  8
0
  6
CONTINUOUS
 62
     7
 10
182.46963
 20
449.03996
 40
3.2
 41
0.74999999
  1
生地
  0
TEXT
  8
0
  6
CONTINUOUS
 62
     3
 10
381.59733
 20
275.1616
 40
3.2
 41
0.90021012
  1
%%C２５
  0
TEXT
  8
0
  6
CONTINUOUS
 62
     3
 10
411.35476
 20
300.99459
 40
3.2
 41
1.3636364
  1
10
 50
90.000003
  0
INSERT
  8
0
  6
CONTINUOUS
 62
     7
  2
KOZU0001
 10
373.668
 20
273.66125
  0
INSERT
  8
0
  6
CONTINUOUS
 62
     7
  2
KOZU0002
 10
398.668
 20
273.66125
  0
INSERT
  8
0
  6
CONTINUOUS
 62
     7
  2
KOZU0003
 10
412.85477
 20
308.66125
  0
INSERT
  8
0
  6
CONTINUOUS
 62
     7
  2
KOZU0004
 10
412.85477
 20
298.66125
  0
DIMENSION
  8
0
  6
CONTINUOUS
 62
     7
  2
*D1
 70
     0
 10
391.418
 20
283.66125
 11
408.70038
 21
283.66125
  3
DIMSTYLE
 13
380.918
 23
298.66125
 14
391.418
 24
298.66125
 50
0
1001
ACAD
1000
DSTYLE
1002
{
1070
    77
1070
     1
1070
   172
1070
     1
1002
}
  0
ENDSEC
  0
EOF
