  0
SECTION
  2
HEADER
  9
$ACADVER
  1
AC1021
  9
$ACADMAINTVER
 70
     3
  9
$DWGCODEPAGE
  3
ANSI_932
  9
$LASTSAVEDBY
  1
Administrator
  9
$CUSTOMPROPERTYTAG
  1
AmdtFileType
  9
$CUSTOMPROPERTY
  1
84
  9
$INSBASE
 10
0.0
 20
0.0
 30
0.0
  9
$EXTMIN
 10
2.98663521539197
 20
-120.0064526181406
 30
-0.0000000349181948
  9
$EXTMAX
 10
300.0155663956651
 20
300.009339771054
 30
0.0000000814935746
  9
$LIMMIN
 10
0.0
 20
0.0
  9
$LIMMAX
 10
420.0
 20
297.0
  9
$ORTHOMODE
 70
     0
  9
$REGENMODE
 70
     1
  9
$FILLMODE
 70
     1
  9
$QTEXTMODE
 70
     0
  9
$MIRRTEXT
 70
     0
  9
$LTSCALE
 40
1.0
  9
$ATTMODE
 70
     1
  9
$TEXTSIZE
 40
3.2
  9
$TRACEWID
 40
1.0
  9
$TEXTSTYLE
  7
STANDARD
  9
$CLAYER
  8
AM_6
  9
$CELTYPE
  6
ByLayer
  9
$CECOLOR
 62
   256
  9
$CELTSCALE
 40
1.0
  9
$DISPSILH
 70
     0
  9
$DIMSCALE
 40
1.0
  9
$DIMASZ
 40
1.0
  9
$DIMEXO
 40
1.0
  9
$DIMDLI
 40
10.0
  9
$DIMRND
 40
0.0
  9
$DIMDLE
 40
0.0
  9
$DIMEXE
 40
1.0
  9
$DIMTP
 40
0.1
  9
$DIMTM
 40
0.1
  9
$DIMTXT
 40
3.5
  9
$DIMCEN
 40
0.0
  9
$DIMTSZ
 40
0.0
  9
$DIMTOL
 70
     0
  9
$DIMLIM
 70
     0
  9
$DIMTIH
 70
     0
  9
$DIMTOH
 70
     0
  9
$DIMSE1
 70
     0
  9
$DIMSE2
 70
     0
  9
$DIMTAD
 70
     1
  9
$DIMZIN
 70
     8
  9
$DIMBLK
  1

  9
$DIMASO
 70
     1
  9
$DIMSHO
 70
     1
  9
$DIMPOST
  1

  9
$DIMAPOST
  1
"
  9
$DIMALT
 70
     0
  9
$DIMALTD
 70
     2
  9
$DIMALTF
 40
0.0393701
  9
$DIMLFAC
 40
1.0
  9
$DIMTOFL
 70
     1
  9
$DIMTVP
 40
0.0
  9
$DIMTIX
 70
     0
  9
$DIMSOXD
 70
     0
  9
$DIMSAH
 70
     0
  9
$DIMBLK1
  1

  9
$DIMBLK2
  1

  9
$DIMSTYLE
  2
SYS
  9
$DIMCLRD
 70
   256
  9
$DIMCLRE
 70
   256
  9
$DIMCLRT
 70
     7
  9
$DIMTFAC
 40
0.71
  9
$DIMGAP
 40
1.5
  9
$DIMJUST
 70
     0
  9
$DIMSD1
 70
     0
  9
$DIMSD2
 70
     0
  9
$DIMTOLJ
 70
     0
  9
$DIMTZIN
 70
     8
  9
$DIMALTZ
 70
     0
  9
$DIMALTTZ
 70
     0
  9
$DIMUPT
 70
     0
  9
$DIMDEC
 70
     2
  9
$DIMTDEC
 70
     2
  9
$DIMALTU
 70
     2
  9
$DIMALTTD
 70
     2
  9
$DIMTXSTY
  7
STANDARD
  9
$DIMAUNIT
 70
     0
  9
$DIMADEC
 70
     0
  9
$DIMALTRND
 40
0.0
  9
$DIMAZIN
 70
     2
  9
$DIMDSEP
 70
    46
  9
$DIMATFIT
 70
     3
  9
$DIMFRAC
 70
     0
  9
$DIMLDRBLK
  1

  9
$DIMLUNIT
 70
     2
  9
$DIMLWD
 70
    -1
  9
$DIMLWE
 70
    -1
  9
$DIMTMOVE
 70
     0
  9
$DIMFXL
 40
1.0
  9
$DIMFXLON
 70
     0
  9
$DIMJOGANG
 40
0.7853981633974483
  9
$DIMTFILL
 70
     0
  9
$DIMTFILLCLR
 70
     0
  9
$DIMARCSYM
 70
     1
  9
$DIMLTYPE
  6

  9
$DIMLTEX1
  6

  9
$DIMLTEX2
  6

  9
$LUNITS
 70
     2
  9
$LUPREC
 70
     2
  9
$SKETCHINC
 40
1.0
  9
$FILLETRAD
 40
0.0
  9
$AUNITS
 70
     0
  9
$AUPREC
 70
     0
  9
$MENU
  1
.
  9
$ELEVATION
 40
0.0
  9
$PELEVATION
 40
0.0
  9
$THICKNESS
 40
0.0
  9
$LIMCHECK
 70
     0
  9
$CHAMFERA
 40
0.0
  9
$CHAMFERB
 40
0.0
  9
$CHAMFERC
 40
20.0
  9
$CHAMFERD
 40
0.0
  9
$SKPOLY
 70
     0
  9
$TDCREATE
 40
2454344.621952581
  9
$TDUCREATE
 40
2454344.246952581
  9
$TDUPDATE
 40
2455436.760113982
  9
$TDUUPDATE
 40
2455436.385113982
  9
$TDINDWG
 40
0.1118901852
  9
$TDUSRTIMER
 40
0.1118901852
  9
$USRTIMER
 70
     1
  9
$ANGBASE
 50
0.0
  9
$ANGDIR
 70
     0
  9
$PDMODE
 70
     0
  9
$PDSIZE
 40
-3.0
  9
$PLINEWID
 40
0.0
  9
$SPLFRAME
 70
     0
  9
$SPLINETYPE
 70
     6
  9
$SPLINESEGS
 70
     8
  9
$HANDSEED
  5
CDFD
  9
$SURFTAB1
 70
     6
  9
$SURFTAB2
 70
     6
  9
$SURFTYPE
 70
     6
  9
$SURFU
 70
     6
  9
$SURFV
 70
     6
  9
$UCSBASE
  2

  9
$UCSNAME
  2

  9
$UCSORG
 10
0.0
 20
0.0
 30
0.0
  9
$UCSXDIR
 10
1.0
 20
0.0
 30
0.0
  9
$UCSYDIR
 10
0.0
 20
1.0
 30
0.0
  9
$UCSORTHOREF
  2

  9
$UCSORTHOVIEW
 70
     0
  9
$UCSORGTOP
 10
0.0
 20
0.0
 30
0.0
  9
$UCSORGBOTTOM
 10
0.0
 20
0.0
 30
0.0
  9
$UCSORGLEFT
 10
0.0
 20
0.0
 30
0.0
  9
$UCSORGRIGHT
 10
0.0
 20
0.0
 30
0.0
  9
$UCSORGFRONT
 10
0.0
 20
0.0
 30
0.0
  9
$UCSORGBACK
 10
0.0
 20
0.0
 30
0.0
  9
$PUCSBASE
  2

  9
$PUCSNAME
  2

  9
$PUCSORG
 10
0.0
 20
0.0
 30
0.0
  9
$PUCSXDIR
 10
1.0
 20
0.0
 30
0.0
  9
$PUCSYDIR
 10
0.0
 20
1.0
 30
0.0
  9
$PUCSORTHOREF
  2

  9
$PUCSORTHOVIEW
 70
     0
  9
$PUCSORGTOP
 10
0.0
 20
0.0
 30
0.0
  9
$PUCSORGBOTTOM
 10
0.0
 20
0.0
 30
0.0
  9
$PUCSORGLEFT
 10
0.0
 20
0.0
 30
0.0
  9
$PUCSORGRIGHT
 10
0.0
 20
0.0
 30
0.0
  9
$PUCSORGFRONT
 10
0.0
 20
0.0
 30
0.0
  9
$PUCSORGBACK
 10
0.0
 20
0.0
 30
0.0
  9
$USERI1
 70
     0
  9
$USERI2
 70
     0
  9
$USERI3
 70
     0
  9
$USERI4
 70
     0
  9
$USERI5
 70
     0
  9
$USERR1
 40
0.0
  9
$USERR2
 40
0.0
  9
$USERR3
 40
0.0
  9
$USERR4
 40
0.0
  9
$USERR5
 40
0.0
  9
$WORLDVIEW
 70
     1
  9
$SHADEDGE
 70
     3
  9
$SHADEDIF
 70
    70
  9
$TILEMODE
 70
     1
  9
$MAXACTVP
 70
    64
  9
$PINSBASE
 10
0.0
 20
0.0
 30
0.0
  9
$PLIMCHECK
 70
     0
  9
$PEXTMIN
 10
1.000000000000000E+20
 20
1.000000000000000E+20
 30
1.000000000000000E+20
  9
$PEXTMAX
 10
-1.000000000000000E+20
 20
-1.000000000000000E+20
 30
-1.000000000000000E+20
  9
$PLIMMIN
 10
-3.17498779296875
 20
-3.174999952316284
  9
$PLIMMAX
 10
293.4970092773438
 20
206.692492723465
  9
$UNITMODE
 70
     0
  9
$VISRETAIN
 70
     1
  9
$PLINEGEN
 70
     0
  9
$PSLTSCALE
 70
     1
  9
$TREEDEPTH
 70
  3020
  9
$CMLSTYLE
  2
Standard
  9
$CMLJUST
 70
     0
  9
$CMLSCALE
 40
20.0
  9
$PROXYGRAPHICS
 70
     1
  9
$MEASUREMENT
 70
     1
  9
$CELWEIGHT
370
    -1
  9
$ENDCAPS
280
     0
  9
$JOINSTYLE
280
     0
  9
$LWDISPLAY
290
     1
  9
$INSUNITS
 70
     4
  9
$HYPERLINKBASE
  1

  9
$STYLESHEET
  1
monochrome.ctb
  9
$XEDIT
290
     1
  9
$CEPSNTYPE
380
     0
  9
$PSTYLEMODE
290
     1
  9
$FINGERPRINTGUID
  2
{106AE3C9-D8E1-4D87-BEAD-AB0E4D7E4938}
  9
$VERSIONGUID
  2
{58C7CE6F-442E-4BC0-B2BF-B303C28A53BF}
  9
$EXTNAMES
290
     1
  9
$PSVPSCALE
 40
0.0
  9
$OLESTARTUP
290
     0
  9
$SORTENTS
280
    96
  9
$INDEXCTL
280
     0
  9
$HIDETEXT
280
     0
  9
$XCLIPFRAME
290
     0
  9
$HALOGAP
280
     0
  9
$OBSCOLOR
 70
   257
  9
$OBSLTYPE
280
     0
  9
$INTERSECTIONDISPLAY
280
     0
  9
$INTERSECTIONCOLOR
 70
   257
  9
$DIMASSOC
280
     1
  9
$PROJECTNAME
  1

  9
$CAMERADISPLAY
290
     0
  9
$LENSLENGTH
 40
50.0
  9
$CAMERAHEIGHT
 40
0.0
  9
$STEPSPERSEC
 40
2.0
  9
$STEPSIZE
 40
6.0
  9
$3DDWFPREC
 40
2.0
  9
$PSOLWIDTH
 40
0.25
  9
$PSOLHEIGHT
 40
4.0
  9
$LOFTANG1
 40
1.570796326794896
  9
$LOFTANG2
 40
1.570796326794896
  9
$LOFTMAG1
 40
0.0
  9
$LOFTMAG2
 40
0.0
  9
$LOFTPARAM
 70
     7
  9
$LOFTNORMALS
280
     1
  9
$LATITUDE
 40
37.795
  9
$LONGITUDE
 40
-122.394
  9
$NORTHDIRECTION
 40
0.0
  9
$TIMEZONE
 70
 -8000
  9
$LIGHTGLYPHDISPLAY
280
     1
  9
$TILEMODELIGHTSYNCH
280
     1
  9
$CMATERIAL
347
B0EE
  9
$SOLIDHIST
280
     1
  9
$SHOWHIST
280
     1
  9
$DWFFRAME
280
     2
  9
$DGNFRAME
280
     0
  9
$REALWORLDSCALE
290
     1
  9
$INTERFERECOLOR
 62
     1
  9
$INTERFEREOBJVS
345
B0FB
  9
$INTERFEREVPVS
346
B0F8
  9
$CSHADOW
280
     0
  9
$SHADOWPLANELOCATION
 40
0.0
  0
ENDSEC
  0
SECTION
  2
CLASSES
  0
CLASS
  1
ACDBDICTIONARYWDFLT
  2
AcDbDictionaryWithDefault
  3
ObjectDBX Classes
 90
        0
 91
        1
280
     0
281
     0
  0
CLASS
  1
ACDBPLACEHOLDER
  2
AcDbPlaceHolder
  3
ObjectDBX Classes
 90
        0
 91
        1
280
     0
281
     0
  0
CLASS
  1
LAYOUT
  2
AcDbLayout
  3
ObjectDBX Classes
 90
        0
 91
        3
280
     0
281
     0
  0
CLASS
  1
AMGSETTINGSOBJ
  2
AmgSettingsObj
  3
"AcadM|Product Description: AutoCAD Mechanical|Company: Autodesk"
 90
        0
 91
        2
280
     0
281
     0
  0
CLASS
  1
ACME_DOCUMENT
  2
AcMeDbDoc
  3
AcMeServices
 90
        0
 91
        2
280
     0
281
     0
  0
CLASS
  1
ACMESCOPE
  2
AcMeScope
  3
AcMeServices
 90
        0
 91
        1
280
     0
281
     0
  0
CLASS
  1
ACMECOMMANDHISTORY
  2
AcMeCommandHistory
  3
AcMeServices
 90
        0
 91
        1
280
     0
281
     0
  0
CLASS
  1
DICTIONARYVAR
  2
AcDbDictionaryVar
  3
ObjectDBX Classes
 90
        0
 91
        5
280
     0
281
     0
  0
CLASS
  1
ACIMSYSVARMAN
  2
AcImSysVarManager
  3
AcMeServices
 90
        0
 91
        5
280
     0
281
     0
  0
CLASS
  1
ACIMREALSYSVAR
  2
AcImRealSysVar
  3
AcMeServices
 90
        0
 91
        1
280
     0
281
     0
  0
CLASS
  1
ACIMINTSYSVAR
  2
AcImIntSysVar
  3
AcMeServices
 90
        0
 91
       28
280
     0
281
     0
  0
CLASS
  1
ACMEDRAWINGMAN
  2
AcMeDrawingMan
  3
AcMeServices
 90
        0
 91
        1
280
     0
281
     0
  0
CLASS
  1
ACMEVIEW
  2
AcMeView
  3
AcMeServices
 90
        0
 91
        1
280
     0
281
     0
  0
CLASS
  1
ACDBENTITYCACHE
  2
AcMeEntityCache
  3
AcMeServices
 90
        0
 91
        1
280
     0
281
     0
  0
CLASS
  1
GSMANAGER
  2
AcMeGSManager
  3
AcMeServices
 90
        0
 91
        1
280
     0
281
     0
  0
CLASS
  1
AMDTINTERNALREACTOR
  2
AmdtInternalReactor
  3
AcMeServices
 90
        0
 91
        2
280
     0
281
     0
  0
CLASS
  1
ACMESTATEMGR
  2
AcMeStateMgr
  3
AcMeServices
 90
        0
 91
        1
280
     0
281
     0
  0
CLASS
  1
ACGREFMASTER
  2
AcGrefMaster
  3
AcAttribServices
 90
        0
 91
        1
280
     0
281
     0
  0
CLASS
  1
ACME_DATABASE
  2
AcMeDbDatabase
  3
AcMeServices
 90
        0
 91
        1
280
     0
281
     0
  0
CLASS
  1
ACRFINSADJUSTERMGR
  2
AcRfInsAdjusterMgr
  3
AcMeServices
 90
        0
 91
        1
280
     0
281
     0
  0
CLASS
  1
ACGREFACADMASTER
  2
AcGrefacadMaster
  3
AcGrefServices
 90
        0
 91
        1
280
     0
281
     0
  0
CLASS
  1
AMIMASTER
  2
AmiMaster
  3
AmiServices
 90
        0
 91
        1
280
     0
281
     0
  0
CLASS
  1
ACMDATADICTIONARY
  2
AcmDataDictionary
  3
"AcmSymBB|Product Description: AutoCAD Mechanical|Company: Autodesk"
 90
        0
 91
        1
280
     0
281
     0
  0
CLASS
  1
ACMDATAENTRYBLOCK
  2
AcmDataEntryBlock
  3
"AcmSymBB|Product Description: AutoCAD Mechanical|Company: Autodesk"
 90
        0
 91
        0
280
     0
281
     0
  0
CLASS
  1
ACIMSTRSYSVAR
  2
AcImStrSysVar
  3
AcMeServices
 90
        0
 91
        5
280
     0
281
     0
  0
CLASS
  1
ACMSTANDARDISO
  2
AcmStandardISO
  3
"Amdt_StdImp|Product Description: AutoCAD Mechanical|Company: Autodesk"
 90
        0
 91
        2
280
     0
281
     0
  0
CLASS
  1
AMGOBJPROPCFG
  2
AmgObjPropCfg
  3
"AmgLay|Product Description: AutoCAD Mechanical|Company: Autodesk"
 90
        1
 91
        1
280
     0
281
     0
  0
CLASS
  1
AMDTEDGESTANDARDISO
  2
AmdtEdgeStdISO
  3
"Amdt_StdImp|Product Description: AutoCAD Mechanical|Company: Autodesk"
 90
        0
 91
        1
280
     0
281
     0
  0
CLASS
  1
ACMSURFSTANDARDISO
  2
AcmSurfTextStdISO
  3
"Amdt_StdImp|Product Description: AutoCAD Mechanical|Company: Autodesk"
 90
        0
 91
        2
280
     0
281
     0
  0
CLASS
  1
ACMFCFSTANDARDISO
  2
AcmFCFStdISO
  3
"Amdt_StdImp|Product Description: AutoCAD Mechanical|Company: Autodesk"
 90
        0
 91
        2
280
     0
281
     0
  0
CLASS
  1
ACMWELDSTANDARDISO
  2
AcmWeldingStdISO
  3
"Amdt_StdImp|Product Description: AutoCAD Mechanical|Company: Autodesk"
 90
        0
 91
        2
280
     0
281
     0
  0
CLASS
  1
ACMIDSTANDARDISO
  2
AcmIdStdISO
  3
"Amdt_StdImp|Product Description: AutoCAD Mechanical|Company: Autodesk"
 90
        0
 91
        2
280
     0
281
     0
  0
CLASS
  1
ACMDATUMSTANDARDISO
  2
AcmDatumStdISO
  3
"Amdt_StdImp|Product Description: AutoCAD Mechanical|Company: Autodesk"
 90
        0
 91
        2
280
     0
281
     0
  0
CLASS
  1
ACMBOMSTANDARDISO
  2
AcmBOMStdISO
  3
"Amdt_StdImp|Product Description: AutoCAD Mechanical|Company: Autodesk"
 90
        0
 91
        2
280
     0
281
     0
  0
CLASS
  1
ACMDETAILSTANDARDISO
  2
AmdtDetailSymStdISO
  3
"Amdt_StdImp|Product Description: AutoCAD Mechanical|Company: Autodesk"
 90
        0
 91
        2
280
     0
281
     0
  0
CLASS
  1
ACMSECTIONSTANDARDISO
  2
AmdtSectionSymStdISO
  3
"Amdt_StdImp|Product Description: AutoCAD Mechanical|Company: Autodesk"
 90
        0
 91
        2
280
     0
281
     0
  0
CLASS
  1
ACMCENTERLINESTANDARDISO
  2
AmdtCenterLineStdISO
  3
"Amdt_StdImp|Product Description: AutoCAD Mechanical|Company: Autodesk"
 90
        0
 91
        2
280
     0
281
     0
  0
CLASS
  1
ACAMGLAYSTD
  2
AcAmgLayStd
  3
"AmgLay|Product Description: AutoCAD Mechanical|Company: Autodesk"
 90
        0
 91
        2
280
     0
281
     0
  0
CLASS
  1
ACAMGDIMSTD
  2
AcAmgDimStd
  3
"AmgDim|Product Description: AutoCAD Mechanical|Company: Autodesk"
 90
        0
 91
        2
280
     0
281
     0
  0
CLASS
  1
ACAMGTITLESTD
  2
AcAmgTitleStd
  3
"AmgTitle|Product Description: AutoCAD Mechanical|Company: Autodesk"
 90
        0
 91
        2
280
     0
281
     0
  0
CLASS
  1
ACAMGFILTERDAT
  2
AcAmgFilterDat
  3
"AcadM|Product Description: AutoCAD Mechanical|Company: Autodesk"
 90
        0
 91
        0
280
     0
281
     0
  0
CLASS
  1
LAYER_INDEX
  2
AcDbLayerIndex
  3
ObjectDBX Classes
 90
        0
 91
        0
280
     0
281
     0
  0
CLASS
  1
IDBUFFER
  2
AcDbIdBuffer
  3
ObjectDBX Classes
 90
        0
 91
        0
280
     0
281
     0
  0
CLASS
  1
PLOTSETTINGS
  2
AcDbPlotSettings
  3
ObjectDBX Classes
 90
        0
 91
        8
280
     0
281
     0
  0
CLASS
  1
AMDTFORMULAUPDATEDISPATCHER
  2
AmdtFormulaUpdateDispatcher
  3
AcMeServices
 90
        0
 91
        0
280
     0
281
     0
  0
CLASS
  1
ACMSTANDARDANSI
  2
AcmStandardANSI
  3
"Amdt_StdImp|Product Description: AutoCAD Mechanical|Company: Autodesk"
 90
        0
 91
        0
280
     0
281
     0
  0
CLASS
  1
ACMSURFSTANDARDANSI
  2
AcmSurfTextStdANSI
  3
"Amdt_StdImp|Product Description: AutoCAD Mechanical|Company: Autodesk"
 90
        0
 91
        0
280
     0
281
     0
  0
CLASS
  1
ACMFCFSTANDARDANSI
  2
AcmFCFStdANSI
  3
"Amdt_StdImp|Product Description: AutoCAD Mechanical|Company: Autodesk"
 90
        0
 91
        0
280
     0
281
     0
  0
CLASS
  1
ACMWELDSTANDARDANSI
  2
AcmWeldingStdANSI
  3
"Amdt_StdImp|Product Description: AutoCAD Mechanical|Company: Autodesk"
 90
        0
 91
        0
280
     0
281
     0
  0
CLASS
  1
ACMIDSTANDARDANSI
  2
AcmIdStdANSI
  3
"Amdt_StdImp|Product Description: AutoCAD Mechanical|Company: Autodesk"
 90
        0
 91
        0
280
     0
281
     0
  0
CLASS
  1
ACMDATUMSTANDARDANSI
  2
AcmDatumStdANSI
  3
"Amdt_StdImp|Product Description: AutoCAD Mechanical|Company: Autodesk"
 90
        0
 91
        0
280
     0
281
     0
  0
CLASS
  1
ACMBOMSTANDARDANSI
  2
AcmBOMStdANSI
  3
"Amdt_StdImp|Product Description: AutoCAD Mechanical|Company: Autodesk"
 90
        0
 91
        0
280
     0
281
     0
  0
CLASS
  1
ACMDETAILSTANDARDANSI
  2
AmdtDetailSymStdANSI
  3
"Amdt_StdImp|Product Description: AutoCAD Mechanical|Company: Autodesk"
 90
        0
 91
        0
280
     0
281
     0
  0
CLASS
  1
ACMSECTIONSTANDARDANSI
  2
AmdtSectionSymStdANSI
  3
"Amdt_StdImp|Product Description: AutoCAD Mechanical|Company: Autodesk"
 90
        0
 91
        0
280
     0
281
     0
  0
CLASS
  1
ACMCENTERLINESTANDARDANSI
  2
AmdtCenterLineStdANSI
  3
"Amdt_StdImp|Product Description: AutoCAD Mechanical|Company: Autodesk"
 90
        0
 91
        0
280
     0
281
     0
  0
CLASS
  1
ACMBOM
  2
AcmBom
  3
"AcmSymBB|Product Description: AutoCAD Mechanical|Company: Autodesk"
 90
        0
 91
        0
280
     0
281
     0
  0
CLASS
  1
ACMDATAENTRYPART
  2
AcmDataEntryPart
  3
"AcmSymBB|Product Description: AutoCAD Mechanical|Company: Autodesk"
 90
        0
 91
        0
280
     0
281
     0
  0
CLASS
  1
ACMPARTREF
  2
AcmPartRef
  3
"AcmSymBB|Product Description: AutoCAD Mechanical|Company: Autodesk"
 90
     3071
 91
        0
280
     0
281
     1
  0
CLASS
  1
ACDBCIRCARCRES
  2
AcDbCircArcRes
  3
AcGrefServices
 90
        0
 91
        0
280
     0
281
     0
  0
CLASS
  1
ACMBOMROW
  2
AcmBomRow
  3
"AcmSymBB|Product Description: AutoCAD Mechanical|Company: Autodesk"
 90
        0
 91
        0
280
     0
281
     0
  0
CLASS
  1
ACMBALLOON
  2
AcmBalloon
  3
"AcmSymBB|Product Description: AutoCAD Mechanical|Company: Autodesk"
 90
     3071
 91
        0
280
     0
281
     1
  0
CLASS
  1
AMDTNOTE
  2
AmdtNote
  3
"AcmSymBB|Product Description: AutoCAD Mechanical|Company: Autodesk"
 90
     3071
 91
        0
280
     0
281
     1
  0
CLASS
  1
STDPART2D
  2
AmgStdPart
  3
"AmgStdPart|Product Description: AutoCAD Mechanical|Company: Autodesk"
 90
     3071
 91
        0
280
     0
281
     1
  0
CLASS
  1
ACDBSTDPARTRES_LINE
  2
AcDbStdPartRes_Line
  3
"AmgStdPart|Product Description: AutoCAD Mechanical|Company: Autodesk"
 90
        0
 91
        0
280
     0
281
     0
  0
CLASS
  1
ACMDATAENTRY
  2
AcmDataEntry
  3
"AcmSymBB|Product Description: AutoCAD Mechanical|Company: Autodesk"
 90
        0
 91
        0
280
     0
281
     0
  0
CLASS
  1
ACDBOPPOLYLINERES
  2
AcDbOpPolylineRes
  3
AcGrefServices
 90
        0
 91
        0
280
     0
281
     0
  0
CLASS
  1
ACMPARTLIST
  2
AcmPartList
  3
"AcmSymBB|Product Description: AutoCAD Mechanical|Company: Autodesk"
 90
     3071
 91
        0
280
     0
281
     1
  0
CLASS
  1
ACDBLINERES
  2
AcDbLineRes
  3
AcGrefServices
 90
        0
 91
        0
280
     0
281
     0
  0
CLASS
  1
ACRFINSADJ
  2
AcRfInsAdjuster
  3
AcMeServices
 90
        0
 91
        0
280
     0
281
     0
  0
CLASS
  1
AM_DRAWING_MGR
  2
AcDmDwgMgr
  3
AcMechDwgViewMgmt
 90
        0
 91
        1
280
     0
281
     0
  0
CLASS
  1
AM_DWG_DOCUMENT
  2
AcDmDwgDocument
  3
AcMechDwgViewMgmt
 90
        0
 91
        1
280
     0
281
     0
  0
CLASS
  1
AM_DWG_SHEET
  2
AcDmSheet
  3
AcMechDwgViewMgmt
 90
        0
 91
        2
280
     0
281
     0
  0
CLASS
  1
AM_VIEWDIMPARMAP
  2
AcDmViewDimParMap
  3
AcMechDwgViewMgmt
 90
        0
 91
        2
280
     0
281
     0
  0
CLASS
  1
AM_DWGMGR_NAME
  2
AcDmDwgMgrName
  3
AcMechDwgViewMgmt
 90
        0
 91
        1
280
     0
281
     0
  0
CLASS
  1
AMDTMENUSTATEMGR
  2
AmdtMenuStateMgr
  3
McadcomServices
 90
        0
 91
        1
280
     0
281
     0
  0
CLASS
  1
AMDTMCOMMENUSTATE
  2
AmdtMcomMenuState
  3
McadcomServices
 90
        0
 91
        1
280
     0
281
     0
  0
CLASS
  1
ASAPP
  2
AcAsAppObject
  3
AutoSurfServices
 90
        0
 91
        2
280
     0
281
     0
  0
CLASS
  1
IM_STATIC_MAN
  2
AcImStaticVarManager
  3
AcMeServices
 90
        0
 91
        0
280
     0
281
     0
  0
CLASS
  1
ACIMDBLSTATICVAR
  2
AcImDblStaticVar
  3
AcMeServices
 90
        0
 91
        0
280
     0
281
     0
  0
CLASS
  1
ACIMSTRSTATICVAR
  2
AcImStrStaticVar
  3
AcMeServices
 90
        0
 91
        0
280
     0
281
     0
  0
CLASS
  1
ACIMINTSTATICVAR
  2
AcImIntStaticVar
  3
AcMeServices
 90
        0
 91
        0
280
     0
281
     0
  0
CLASS
  1
ACASGREFMASTER
  2
AcAsGrefMaster
  3
AutoSurfResolverServices
 90
        0
 91
        2
280
     0
281
     0
  0
CLASS
  1
ACADGREFMODULE
  2
AcAdGrefModule
  3
AdGrefServices
 90
        0
 91
        2
280
     0
281
     0
  0
CLASS
  1
AMDTMAPISURFMOUDULE
  2
AmdtMApiSurfModule
  3
MApiSurfServices
 90
        0
 91
        2
280
     0
281
     0
  0
CLASS
  1
MAPIAMMOUDLE
  2
MApiAmModule
  3
MApiAmServices
 90
        0
 91
        1
280
     0
281
     0
  0
CLASS
  1
AMDTADMENUSTATE
  2
AmdtAdMenuState
  3
DesignerServices
 90
        0
 91
        1
280
     0
281
     0
  0
CLASS
  1
ADAPPL
  2
AcAdAppl
  3
DesignerServices
 90
        0
 91
        1
280
     0
281
     0
  0
CLASS
  1
DEPMGR
  2
AcAdDepMgr
  3
DesignerServices
 90
        0
 91
        1
280
     0
281
     0
  0
CLASS
  1
PARAMMGR
  2
AcAdParamMgr
  3
DesignerServices
 90
        0
 91
        1
280
     0
281
     0
  0
CLASS
  1
PARAMSCOPE
  2
AcAdParamScope
  3
DesignerServices
 90
        0
 91
        1
280
     0
281
     0
  0
CLASS
  1
NAMEDAPPL
  2
AcAdNamedAppl
  3
DesignerServices
 90
        0
 91
        1
280
     0
281
     0
  0
CLASS
  1
ADHNTMPLT
  2
AdHoleNoteTemplateMgr
  3
DesignerServices
 90
        0
 91
        0
280
     0
281
     0
  0
CLASS
  1
AM_HNTEMPLATE_MGR_NAME
  2
AdHoleNoteTemplateMgrName
  3
DesignerServices
 90
        0
 91
        0
280
     0
281
     0
  0
CLASS
  1
AMDTDMMENUSTATE
  2
AmdtDmMenuState
  3
AcMechDwgViewMgmt
 90
        0
 91
        1
280
     0
281
     0
  0
CLASS
  1
MAPIADMODULE
  2
MApiAdModule
  3
MApiAdServices
 90
        0
 91
        2
280
     0
281
     0
  0
CLASS
  1
AMDTAMMENUSTATE
  2
AmdtAmMenuState
  3
DesignerAssemblies
 90
        0
 91
        1
280
     0
281
     0
  0
CLASS
  1
ACAMPROJECT
  2
AcAmProject
  3
DesignerAssemblies
 90
        0
 91
        1
280
     0
281
     0
  0
CLASS
  1
ACAMGRCOMPDEF
  2
AcAmGrCompDef
  3
DesignerAssemblies
 90
        0
 91
        1
280
     0
281
     0
  0
CLASS
  1
ACCMCONTEXT
  2
AcCmContext
  3
DesignerAssemblies
 90
        0
 91
        1
280
     0
281
     0
  0
CLASS
  1
ACAMCOMPDEF
  2
AcAmCompDef
  3
DesignerAssemblies
 90
        0
 91
        1
280
     0
281
     0
  0
CLASS
  1
ACAMCOMPDEFMGR
  2
AcAmCompDefMgr
  3
DesignerAssemblies
 90
        0
 91
        1
280
     0
281
     0
  0
CLASS
  1
AMCONTEXTMGR
  2
AcAmContextMgr
  3
DesignerAssemblies
 90
        0
 91
        1
280
     0
281
     0
  0
CLASS
  1
ACAMCONTEXTMODELER
  2
AcAmContextModeler
  3
DesignerAssemblies
 90
        0
 91
        1
280
     0
281
     0
  0
CLASS
  1
CATALOGSTATE
  2
AcAmCatalogState
  3
DesignerAssemblies
 90
        0
 91
        1
280
     0
281
     0
  0
CLASS
  1
ACAMGRCOMPDEFSET
  2
AcAmGrCompDefSet
  3
DesignerAssemblies
 90
        0
 91
        1
280
     0
281
     0
  0
CLASS
  1
AMDTBROWSERDBTAB
  2
AmdtBrowserDbTab
  3
McadcomServices
 90
        0
 91
        1
280
     0
281
     0
  0
CLASS
  1
CBROWSERAPPOBJECT
  2
CBrowserAppObject
  3
McadcomServices
 90
        0
 91
        3
280
     0
281
     0
  0
CLASS
  1
DM_PLACEHOLDER
  2
AcDmSelsetPlaceholder
  3
AcMechDwgViewMgmt
 90
        0
 91
        1
280
     0
281
     0
  0
CLASS
  1
ACMPICKOBJ
  2
AcmPickEnt
  3
"AcmSymBB|Product Description: AutoCAD Mechanical|Company: Autodesk"
 90
        0
 91
        0
280
     0
281
     1
  0
CLASS
  1
ACMNOTESTANDARDISO
  2
AmdtNoteStdISO
  3
"Amdt_StdImp|Product Description: AutoCAD Mechanical|Company: Autodesk"
 90
        0
 91
        2
280
     0
281
     0
  0
CLASS
  1
ACMNOTESTANDARDANSI
  2
AmdtNoteStdANSI
  3
"Amdt_StdImp|Product Description: AutoCAD Mechanical|Company: Autodesk"
 90
        0
 91
        0
280
     0
281
     0
  0
CLASS
  1
ACMTHREADLINESTANDARDISO
  2
AmdtThreadLineStdISO
  3
"Amdt_StdImp|Product Description: AutoCAD Mechanical|Company: Autodesk"
 90
        0
 91
        2
280
     0
281
     0
  0
CLASS
  1
ACMTHREADLINESTANDARDANSI
  2
AmdtThreadLineStdANSI
  3
"Amdt_StdImp|Product Description: AutoCAD Mechanical|Company: Autodesk"
 90
        0
 91
        0
280
     0
281
     0
  0
CLASS
  1
TABLESTYLE
  2
AcDbTableStyle
  3
ObjectDBX Classes
 90
     4095
 91
        1
280
     0
281
     0
  0
CLASS
  1
SORTENTSTABLE
  2
AcDbSortentsTable
  3
ObjectDBX Classes
 90
        0
 91
        1
280
     0
281
     0
  0
CLASS
  1
MATERIAL
  2
AcDbMaterial
  3
ObjectDBX Classes
 90
     1153
 91
        3
280
     0
281
     0
  0
CLASS
  1
VISUALSTYLE
  2
AcDbVisualStyle
  3
ObjectDBX Classes
 90
     4095
 91
       16
280
     0
281
     0
  0
CLASS
  1
ACRFATTGENMGR
  2
AcRfAttGeneralMgr
  3
AcAttribServices
 90
        0
 91
        0
280
     0
281
     0
  0
CLASS
  1
ACRFOBJATTMGR
  2
AcRfObjAttGroupMgr
  3
AcAttribServices
 90
        0
 91
        0
280
     0
281
     0
  0
CLASS
  1
ACRFMCADAPIATTHOLDER
  2
AcRfMCADAPIAttHolder
  3
AcAttribServices
 90
        0
 91
        0
280
     0
281
     0
  0
CLASS
  1
AMDTSYSATTR
  2
AmdtSystemAttribute
  3
AcAttribServices
 90
        0
 91
        0
280
     0
281
     0
  0
CLASS
  1
ACMTAPERSTANDARDISO
  2
AcmTaperStdISO
  3
"Amdt_StdImp|Product Description: AutoCAD Mechanical|Company: Autodesk"
 90
        0
 91
        2
280
     0
281
     0
  0
CLASS
  1
CAMSSTRUCTBTNSTATE
  2
StructBtnState
  3
L"DesignerAssemblies"
 90
        0
 91
        1
280
     0
281
     0
  0
CLASS
  1
DIMASSOC
  2
AcDbDimAssoc
  3
"AcDbDimAssoc|Product Desc:     AcDim ARX App For Dimension|Company:          Autodesk, Inc.|WEB Address:      www.autodesk.com"
 90
        0
 91
        0
280
     0
281
     0
  0
CLASS
  1
AMDTEDGESTANDARDISO13715
  2
AmdtEdgeStdISO13715
  3
"Amdt_StdImp|Product Description: AutoCAD Mechanical|Company: Autodesk"
 90
        0
 91
        1
280
     0
281
     0
  0
CLASS
  1
AMDTNOTETEMPLATEDB
  2
AmdtNoteTemplateDB
  3
AMDT_STDIMP_MODULE_NAME
 90
        0
 91
       10
280
     0
281
     0
  0
CLASS
  1
ACAMGHOLECHARTSTDISO
  2
AcAmgHoleChartStdISO
  3
ACMSYMBB_MODULE_NAME
 90
        0
 91
        1
280
     0
281
     0
  0
ENDSEC
  0
SECTION
  2
TABLES
  0
TABLE
  2
VPORT
  5
8
102
{ACAD_XDICTIONARY
360
BCF5
102
}
330
0
100
AcDbSymbolTable
 70
     1
  0
VPORT
  5
B0EC
330
8
100
AcDbSymbolTableRecord
100
AcDbViewportTableRecord
  2
*Active
 70
     0
 10
0.0
 20
0.0
 11
1.0
 21
1.0
 12
132.0635578725612
 22
161.6165111515382
 13
0.0
 23
0.0
 14
2.5
 24
2.5
 15
10.0
 25
10.0
 16
0.0
 26
0.0
 36
1.0
 17
0.0
 27
0.0
 37
0.0
 40
323.7033451913186
 41
2.112244897959183
 42
50.0
 43
-1370.695619172058
 44
-1370.695619172058
 50
0.0
 51
0.0
 71
     0
 72
   100
 73
     1
 74
     3
 75
     0
 76
     0
 77
     0
 78
     0
281
     0
 65
     0
110
0.0
120
0.0
130
0.0
111
1.0
121
0.0
131
0.0
112
0.0
122
1.0
132
0.0
 79
     0
146
0.0
348
B0F7
 60
     3
 61
     5
292
     1
282
     1
141
0.0
142
0.0
 63
   250
421
  3355443
  0
ENDTAB
  0
TABLE
  2
LTYPE
  5
5
330
0
100
AcDbSymbolTable
 70
    30
  0
LTYPE
  5
14
330
5
100
AcDbSymbolTableRecord
100
AcDbLinetypeTableRecord
  2
ByBlock
 70
     0
  3

 72
    65
 73
     0
 40
0.0
  0
LTYPE
  5
15
330
5
100
AcDbSymbolTableRecord
100
AcDbLinetypeTableRecord
  2
ByLayer
 70
     0
  3

 72
    65
 73
     0
 40
0.0
  0
LTYPE
  5
16
330
5
100
AcDbSymbolTableRecord
100
AcDbLinetypeTableRecord
  2
Continuous
 70
     0
  3
Solid line
 72
    65
 73
     0
 40
0.0
  0
LTYPE
  5
4F
330
5
100
AcDbSymbolTableRecord
100
AcDbLinetypeTableRecord
  2
AM_ISO02W050
 70
     0
  3
__ __ __ __ __ __ __ __ __ __ __ __ __ __ __
 72
    65
 73
     2
 40
7.5
 49
6.0
 74
     0
 49
-1.5
 74
     0
  0
LTYPE
  5
52
330
5
100
AcDbSymbolTableRecord
100
AcDbLinetypeTableRecord
  2
Amconstr
 70
     0
  3
_______________________
 72
    65
 73
     2
 40
9999.0
 49
9999.0
 74
     0
 49
0.0
 74
     0
  0
LTYPE
  5
64
330
5
100
AcDbSymbolTableRecord
100
AcDbLinetypeTableRecord
  2
ACISOWELD
 70
     0
  3
_ _ _ _ _
 72
    65
 73
     2
 40
2.0
 49
2.0
 74
     0
 49
-1.0
 74
     0
  0
LTYPE
  5
65
330
5
100
AcDbSymbolTableRecord
100
AcDbLinetypeTableRecord
  2
ACISOTGB
 70
     0
  3
__ . . __ . .
 72
    65
 73
     6
 40
9.0
 49
4.0
 74
     0
 49
-1.0
 74
     0
 49
1.0
 74
     0
 49
-1.0
 74
     0
 49
1.0
 74
     0
 49
-1.0
 74
     0
  0
LTYPE
  5
66
330
5
100
AcDbSymbolTableRecord
100
AcDbLinetypeTableRecord
  2
ACISOTGL
 70
     0
  3
_ _ _ _ _
 72
    65
 73
     2
 40
3.0
 49
2.0
 74
     0
 49
-1.0
 74
     0
  0
LTYPE
  5
69
330
5
100
AcDbSymbolTableRecord
100
AcDbLinetypeTableRecord
  2
CENTER
 70
     0
  3
__ . __
 72
    65
 73
     4
 40
7.0
 49
4.0
 74
     0
 49
-1.0
 74
     0
 49
1.0
 74
     0
 49
-1.0
 74
     0
  0
LTYPE
  5
A6E
330
5
100
AcDbSymbolTableRecord
100
AcDbLinetypeTableRecord
  2
PHANTOM2
 70
     0
  3
Phantom (.5x) ___ _ _ ___ _ _ ___ _ _ ___ _ _
 72
    65
 73
     6
 40
31.75
 49
15.875
 74
     0
 49
-3.174999999999999
 74
     0
 49
3.174999999999999
 74
     0
 49
-3.174999999999999
 74
     0
 49
3.174999999999999
 74
     0
 49
-3.174999999999999
 74
     0
  0
LTYPE
  5
4DED
330
5
100
AcDbSymbolTableRecord
100
AcDbLinetypeTableRecord
  2
中線
 70
     0
  3
___________________
 72
    65
 73
     2
 40
2.0
 49
1.0
 74
     0
 49
1.0
 74
     0
  0
LTYPE
  5
4DF6
330
5
100
AcDbSymbolTableRecord
100
AcDbLinetypeTableRecord
  2
細線
 70
     0
  3
___________________
 72
    65
 73
     2
 40
2.0
 49
1.0
 74
     0
 49
1.0
 74
     0
  0
LTYPE
  5
4DF7
330
5
100
AcDbSymbolTableRecord
100
AcDbLinetypeTableRecord
  2
太線
 70
     0
  3
___________________
 72
    65
 73
     2
 40
2.0
 49
1.0
 74
     0
 49
1.0
 74
     0
  0
LTYPE
  5
4EA7
330
5
100
AcDbSymbolTableRecord
100
AcDbLinetypeTableRecord
  2
文字
 70
     0
  3
_________________
 72
    65
 73
     2
 40
2.0
 49
1.0
 74
     0
 49
1.0
 74
     0
  0
LTYPE
  5
4EA9
330
5
100
AcDbSymbolTableRecord
100
AcDbLinetypeTableRecord
  2
寸法線
 70
     0
  3
________________
 72
    65
 73
     2
 40
2.0
 49
1.0
 74
     0
 49
1.0
 74
     0
  0
LTYPE
  5
4F12
330
5
100
AcDbSymbolTableRecord
100
AcDbLinetypeTableRecord
  2
ハッチング
 70
     0
  3
_________________
 72
    65
 73
     2
 40
2.0
 49
1.0
 74
     0
 49
1.0
 74
     0
  0
LTYPE
  5
5180
330
5
100
AcDbSymbolTableRecord
100
AcDbLinetypeTableRecord
  2
陰線1
 70
     0
  3
__ __ __ __
 72
    65
 73
     2
 40
4.0
 49
2.2
 74
     0
 49
-1.8
 74
     0
  0
LTYPE
  5
5182
330
5
100
AcDbSymbolTableRecord
100
AcDbLinetypeTableRecord
  2
切断線
 70
     0
  3
/\/-/\/-/\/-/\/-/\/-/\/
 72
    65
 73
     2
 40
11.0001
 49
0.0001
 74
     4
 75
   135
340
56
 46
0.04
 50
0.0
 44
0.0
 45
0.0
 49
-11.0
 74
     0
  0
LTYPE
  5
5183
330
5
100
AcDbSymbolTableRecord
100
AcDbLinetypeTableRecord
  2
想像線1
 70
     0
  3
__ __ __ _____ __ __ ____
 72
    65
 73
     6
 40
14.5
 49
6.0
 74
     0
 49
-1.5
 74
     0
 49
2.0
 74
     0
 49
-1.5
 74
     0
 49
2.0
 74
     0
 49
-1.5
 74
     0
  0
LTYPE
  5
5185
330
5
100
AcDbSymbolTableRecord
100
AcDbLinetypeTableRecord
  2
中心線1
 70
     0
  3
___ _ ___ _ ___
 72
    65
 73
     4
 40
18.0
 49
12.0
 74
     0
 49
-2.0
 74
     0
 49
2.0
 74
     0
 49
-2.0
 74
     0
  0
LTYPE
  5
5188
330
5
100
AcDbSymbolTableRecord
100
AcDbLinetypeTableRecord
  2
補助線
 70
     0
  3
______________
 72
    65
 73
     2
 40
2.0
 49
1.0
 74
     0
 49
1.0
 74
     0
  0
LTYPE
  5
6427
330
5
100
AcDbSymbolTableRecord
100
AcDbLinetypeTableRecord
  2
HIDDEN
 70
     0
  3
Hidden __ __ __ __ __ __ __ __ __ __ __ __ __ _
 72
    65
 73
     2
 40
0.375
 49
0.25
 74
     0
 49
-0.125
 74
     0
  0
LTYPE
  5
AC81
330
5
100
AcDbSymbolTableRecord
100
AcDbLinetypeTableRecord
  2
破断線
 70
     0
  3
/\/-/\/-/\/-/\/-/\/-/\/
 72
    65
 73
     2
 40
0.4401
 49
0.0001
 74
     4
 75
   136
340
AC80
 46
0.0016
 50
0.0
 44
0.0
 45
0.0
 49
-0.4400000000000001
 74
     0
  0
LTYPE
  5
AC9E
330
5
100
AcDbSymbolTableRecord
100
AcDbLinetypeTableRecord
  2
Amzigzag
 70
     0
  3
/\/-/\/-/\/-/\/-/\/-/\/
 72
    65
 73
     2
 40
11.0001
 49
0.0001
 74
     4
 75
   135
340
56
 46
0.04
 50
0.0
 44
0.0
 45
0.0
 49
-11.0
 74
     0
  0
LTYPE
  5
AF0F
330
5
100
AcDbSymbolTableRecord
100
AcDbLinetypeTableRecord
  2
genzigzag
 70
     0
  3
/\/-/\/-/\/-/\/-/\/-/\/
 72
    65
 73
     2
 40
12.0001
 49
0.0001
 74
     4
 75
   135
340
AC80
 46
2.0
 50
0.0
 44
0.0
 45
0.0
 49
-12.0
 74
     0
  0
LTYPE
  5
AF95
330
5
100
AcDbSymbolTableRecord
100
AcDbLinetypeTableRecord
  2
AM_ISO08W050
 70
     0
  3
____ . ____ . ____ . ____ . ____ . ____ . ____
 72
    65
 73
     4
 40
18.0
 49
12.0
 74
     0
 49
-1.5
 74
     0
 49
3.0
 74
     0
 49
-1.5
 74
     0
  0
LTYPE
  5
AF96
330
5
100
AcDbSymbolTableRecord
100
AcDbLinetypeTableRecord
  2
AM_ISO09W050
 70
     0
  3
_____ . . _____ . . _____ . . ____ .. ____
 72
    65
 73
     6
 40
22.5
 49
12.0
 74
     0
 49
-1.5
 74
     0
 49
3.0
 74
     0
 49
-1.5
 74
     0
 49
3.0
 74
     0
 49
-1.5
 74
     0
  0
LTYPE
  5
AF97
330
5
100
AcDbSymbolTableRecord
100
AcDbLinetypeTableRecord
  2
AM_ISO08W050x2
 70
     0
  3
__ . __ . __ . __ . __ . __
 72
    65
 73
     4
 40
9.0
 49
6.0
 74
     0
 49
-0.75
 74
     0
 49
1.5
 74
     0
 49
-0.75
 74
     0
  0
LTYPE
  5
AF98
330
5
100
AcDbSymbolTableRecord
100
AcDbLinetypeTableRecord
  2
AM_ISO02W050x2
 70
     0
  3
 _ _ _ _ _ _ _ _ _ _ _ _
 72
    65
 73
     2
 40
3.75
 49
3.0
 74
     0
 49
-0.75
 74
     0
  0
LTYPE
  5
B4C7
330
5
100
AcDbSymbolTableRecord
100
AcDbLinetypeTableRecord
  2
CENTER2
 70
     0
  3
Center (.5x) ___ _ ___ _ ___ _ ___ _ ___ _ ___
 72
    65
 73
     4
 40
28.57499999999999
 49
19.05
 74
     0
 49
-3.174999999999998
 74
     0
 49
3.174999999999998
 74
     0
 49
-3.174999999999998
 74
     0
  0
LTYPE
  5
B4C8
330
5
100
AcDbSymbolTableRecord
100
AcDbLinetypeTableRecord
  2
HIDDEN3
 70
     0
  3
Hidden (.25x) _ _ _ _ _ _ _ _ _ _ _ _ _ _ _ _ _
 72
    65
 73
     2
 40
2.5
 49
1.25
 74
     0
 49
-1.25
 74
     0
  0
ENDTAB
  0
TABLE
  2
LAYER
  5
2
102
{ACAD_XDICTIONARY
360
3F95
102
}
330
0
100
AcDbSymbolTable
 70
    26
  0
LAYER
  5
10
330
2
100
AcDbSymbolTableRecord
100
AcDbLayerTableRecord
  2
0
 70
     0
 62
     7
  6
Continuous
370
    -3
390
F
347
B0F0
  0
LAYER
  5
6D1
330
2
100
AcDbSymbolTableRecord
100
AcDbLayerTableRecord
  2
Defpoints
 70
     0
 62
     7
  6
Continuous
290
     0
370
    -3
390
F
347
B0F0
  0
LAYER
  5
5F85
330
2
100
AcDbSymbolTableRecord
100
AcDbLayerTableRecord
  2
AM_0
 70
     0
 62
     7
  6
中線
370
    25
390
F
347
B0F0
1001
AcAecLayerStandard
1000

1000

  0
LAYER
  5
AC9F
330
2
100
AcDbSymbolTableRecord
100
AcDbLayerTableRecord
  2
size
 70
     0
 62
     5
  6
Continuous
290
     0
370
    25
390
F
347
B0F0
  0
LAYER
  5
ACA0
330
2
100
AcDbSymbolTableRecord
100
AcDbLayerTableRecord
  2
waku
 70
     0
 62
     7
  6
Continuous
370
    35
390
F
347
B0F0
  0
LAYER
  5
ACA1
330
2
100
AcDbSymbolTableRecord
100
AcDbLayerTableRecord
  2
AM_6
 70
     0
 62
     2
  6
文字
370
    15
390
F
347
B0F0
1001
AcAecLayerStandard
1000

1000

  0
LAYER
  5
ACC8
330
2
100
AcDbSymbolTableRecord
100
AcDbLayerTableRecord
  2
hyomoji
 70
     0
 62
     2
  6
Continuous
370
    15
390
F
347
B0F0
  0
LAYER
  5
ACC9
330
2
100
AcDbSymbolTableRecord
100
AcDbLayerTableRecord
  2
hyosen1
 70
     0
 62
     1
  6
Continuous
370
    25
390
F
347
B0F0
  0
LAYER
  5
ACCA
330
2
100
AcDbSymbolTableRecord
100
AcDbLayerTableRecord
  2
hyosen2
 70
     0
 62
     1
  6
Continuous
370
    15
390
F
347
B0F0
  0
LAYER
  5
AD60
330
2
100
AcDbSymbolTableRecord
100
AcDbLayerTableRecord
  2
AM_1
 70
     0
 62
    30
  6
太線
370
    25
390
F
347
B0F0
1001
AcAecLayerStandard
1000

1000

  0
LAYER
  5
AD64
330
2
100
AcDbSymbolTableRecord
100
AcDbLayerTableRecord
  2
AM_2
 70
     0
 62
     1
  6
細線
370
    15
390
F
347
B0F0
1001
AcAecLayerStandard
1000

1000

  0
LAYER
  5
AD67
330
2
100
AcDbSymbolTableRecord
100
AcDbLayerTableRecord
  2
AM_3
 70
     0
 62
     6
  6
陰線1
370
    15
390
F
347
B0F0
1001
AcAecLayerStandard
1000

1000

  0
LAYER
  5
AD68
330
2
100
AcDbSymbolTableRecord
100
AcDbLayerTableRecord
  2
AM_5
 70
     0
 62
     3
  6
寸法線
370
    15
390
F
347
B0F0
1001
AcAecLayerStandard
1000

1000

  0
LAYER
  5
AD69
330
2
100
AcDbSymbolTableRecord
100
AcDbLayerTableRecord
  2
AM_7
 70
     0
 62
     4
  6
中心線1
370
    15
390
F
347
B0F0
1001
AcAecLayerStandard
1000

1000

  0
LAYER
  5
AD6A
330
2
100
AcDbSymbolTableRecord
100
AcDbLayerTableRecord
  2
AM_8
 70
     0
 62
     1
  6
ハッチング
370
    15
390
F
347
B0F0
1001
AcAecLayerStandard
1000

1000

  0
LAYER
  5
AD6E
330
2
100
AcDbSymbolTableRecord
100
AcDbLayerTableRecord
  2
AM_10
 70
     0
 62
     7
  6
切断線
370
    25
390
F
347
B0F0
1001
AcAecLayerStandard
1000

1000

  0
LAYER
  5
AD6F
330
2
100
AcDbSymbolTableRecord
100
AcDbLayerTableRecord
  2
AM_11
 70
     0
 62
     2
  6
想像線1
370
    15
390
F
347
B0F0
1001
AcAecLayerStandard
1000

1000

  0
LAYER
  5
B1B6
330
2
100
AcDbSymbolTableRecord
100
AcDbLayerTableRecord
  2
AM_CL
 70
     0
 62
     1
  6
Amconstr
370
    15
390
F
347
B0F0
1001
AcAecLayerStandard
1000

1000

  0
LAYER
  5
B2EB
330
2
100
AcDbSymbolTableRecord
100
AcDbLayerTableRecord
  2
AM_14
 70
     0
 62
     5
  6
細線
370
     9
390
F
347
B0F0
1001
AcAecLayerStandard
1000

1000

  0
LAYER
  5
B2EC
330
2
100
AcDbSymbolTableRecord
100
AcDbLayerTableRecord
  2
AM_15
 70
     0
 62
     6
  6
陰線1
370
     9
390
F
347
B0F0
1001
AcAecLayerStandard
1000

1000

  0
LAYER
  5
B4C9
330
2
100
AcDbSymbolTableRecord
100
AcDbLayerTableRecord
  2
実線
 70
     0
 62
     7
  6
Continuous
370
    -3
390
F
347
B0F0
  0
LAYER
  5
B4CA
330
2
100
AcDbSymbolTableRecord
100
AcDbLayerTableRecord
  2
破線
 70
     0
 62
     1
  6
HIDDEN3
370
    -3
390
F
347
B0F0
  0
LAYER
  5
B4CB
330
2
100
AcDbSymbolTableRecord
100
AcDbLayerTableRecord
  2
一点鎖線
 70
     0
 62
     2
  6
CENTER2
370
    -3
390
F
347
B0F0
  0
LAYER
  5
B4CC
330
2
100
AcDbSymbolTableRecord
100
AcDbLayerTableRecord
  2
寸法
 70
     0
 62
     2
  6
Continuous
370
    -3
390
F
347
B0F0
  0
LAYER
  5
B4CD
330
2
100
AcDbSymbolTableRecord
100
AcDbLayerTableRecord
  2
細線1
 70
     0
 62
     1
  6
Continuous
370
    25
390
F
347
B0F0
  0
LAYER
  5
BF44
102
{ACAD_XDICTIONARY
360
BF45
102
}
330
2
100
AcDbSymbolTableRecord
100
AcDbLayerTableRecord
  2
破線2
 70
     0
 62
     2
  6
HIDDEN3
370
    15
390
F
347
B0F0
  0
ENDTAB
  0
TABLE
  2
STYLE
  5
3
330
0
100
AcDbSymbolTable
 70
    11
  0
STYLE
  5
11
330
3
100
AcDbSymbolTableRecord
100
AcDbTextStyleTableRecord
  2
STANDARD
 70
     0
 40
0.0
 41
0.7
 50
0.0
 71
     0
 42
3.2
  3
romans.shx
  4
extfont.shx
  0
STYLE
  5
56
330
3
100
AcDbSymbolTableRecord
100
AcDbTextStyleTableRecord
  2

 70
     1
 40
0.0
 41
1.0
 50
0.0
 71
     0
 42
2.5
  3
ltypeshp.shx
  4

  0
STYLE
  5
58
330
3
100
AcDbSymbolTableRecord
100
AcDbTextStyleTableRecord
  2
ACISOTS
 70
     0
 40
1.0
 41
1.0
 50
0.0
 71
     0
 42
2.5
  3
isocp.shx
  4
extfont.shx
  0
STYLE
  5
63
330
3
100
AcDbSymbolTableRecord
100
AcDbTextStyleTableRecord
  2
ACISOGDT
 70
     0
 40
0.0
 41
1.0
 50
0.0
 71
     0
 42
2.5
  3
amgdt.shx
  4

  0
STYLE
  5
A74
330
3
100
AcDbSymbolTableRecord
100
AcDbTextStyleTableRecord
  2
DIM
 70
     0
 40
0.0
 41
1.0
 50
0.0
 71
     0
 42
2.5
  3
monotxt.shx
  4
extfont.shx
  0
STYLE
  5
AC80
330
3
100
AcDbSymbolTableRecord
100
AcDbTextStyleTableRecord
  2

 70
     1
 40
0.0
 41
1.0
 50
0.0
 71
     0
 42
3.2
  3
genltshp.shx
  4

  0
ENDTAB
  0
TABLE
  2
VIEW
  5
6
330
0
100
AcDbSymbolTable
 70
     6
  0
VIEW
  5
AE1
330
6
100
AcDbSymbolTableRecord
100
AcDbViewTableRecord
  2
AM_VIEW1
 70
     0
 40
148.5
 10
118.8385214007782
 20
222.75
 41
237.6770428015564
 11
0.0
 21
0.0
 31
1.0
 12
0.0
 22
0.0
 32
0.0
 42
50.0
 43
-1370.695619172058
 44
-1370.695619172058
 50
0.0
 71
     0
281
     0
 72
     0
 73
     0
348
B0F7
  0
VIEW
  5
AE2
330
6
100
AcDbSymbolTableRecord
100
AcDbViewTableRecord
  2
AM_VIEW2
 70
     0
 40
148.5
 10
301.1614785992218
 20
222.75
 41
237.6770428015564
 11
0.0
 21
0.0
 31
1.0
 12
0.0
 22
0.0
 32
0.0
 42
50.0
 43
-1370.695619172058
 44
-1370.695619172058
 50
0.0
 71
     0
281
     0
 72
     0
 73
     0
348
B0F7
  0
VIEW
  5
AE3
330
6
100
AcDbSymbolTableRecord
100
AcDbViewTableRecord
  2
AM_VIEW3
 70
     0
 40
148.5
 10
118.8385214007782
 20
74.25
 41
237.6770428015564
 11
0.0
 21
0.0
 31
1.0
 12
0.0
 22
0.0
 32
0.0
 42
50.0
 43
-1370.695619172058
 44
-1370.695619172058
 50
0.0
 71
     0
281
     0
 72
     0
 73
     0
348
B0F7
  0
VIEW
  5
AE4
330
6
100
AcDbSymbolTableRecord
100
AcDbViewTableRecord
  2
AM_VIEW4
 70
     0
 40
148.5
 10
301.1614785992218
 20
74.25
 41
237.6770428015564
 11
0.0
 21
0.0
 31
1.0
 12
0.0
 22
0.0
 32
0.0
 42
50.0
 43
-1370.695619172058
 44
-1370.695619172058
 50
0.0
 71
     0
281
     0
 72
     0
 73
     0
348
B0F7
  0
VIEW
  5
AE5
330
6
100
AcDbSymbolTableRecord
100
AcDbViewTableRecord
  2
AM_VIEW5
 70
     0
 40
148.5
 10
210.0
 20
148.5
 41
237.6770428015565
 11
0.0
 21
0.0
 31
1.0
 12
0.0
 22
0.0
 32
0.0
 42
50.0
 43
-1370.695619172058
 44
-1370.695619172058
 50
0.0
 71
     0
281
     0
 72
     0
 73
     0
348
B0F7
  0
VIEW
  5
AE6
330
6
100
AcDbSymbolTableRecord
100
AcDbViewTableRecord
  2
AM_VIEW6
 70
     0
 40
296.99703
 10
210.0
 20
148.5
 41
475.3493320622568
 11
0.0
 21
0.0
 31
1.0
 12
0.0
 22
0.0
 32
0.0
 42
50.0
 43
-1370.695619172058
 44
-1370.695619172058
 50
0.0
 71
     0
281
     0
 72
     0
 73
     0
348
B0F7
  0
ENDTAB
  0
TABLE
  2
UCS
  5
7
330
0
100
AcDbSymbolTable
 70
     0
  0
ENDTAB
  0
TABLE
  2
APPID
  5
9
330
0
100
AcDbSymbolTable
 70
    55
  0
APPID
  5
12
330
9
100
AcDbSymbolTableRecord
100
AcDbRegAppTableRecord
  2
ACAD
 70
     0
  0
APPID
  5
30
330
9
100
AcDbSymbolTableRecord
100
AcDbRegAppTableRecord
  2
MCAD_NO_VIS
 70
     0
  0
APPID
  5
31
330
9
100
AcDbSymbolTableRecord
100
AcDbRegAppTableRecord
  2
ACAD_TEMP_GRAPHIC
 70
     0
  0
APPID
  5
44
330
9
100
AcDbSymbolTableRecord
100
AcDbRegAppTableRecord
  2
ACATTRIBSERVICES
 70
     0
  0
APPID
  5
7A1
330
9
100
AcDbSymbolTableRecord
100
AcDbRegAppTableRecord
  2
GENIUS_GENDIMSH_14
 70
     0
  0
APPID
  5
A49
330
9
100
AcDbSymbolTableRecord
100
AcDbRegAppTableRecord
  2
GENIUS_GENREC_14
 70
     0
  0
APPID
  5
A4A
330
9
100
AcDbSymbolTableRecord
100
AcDbRegAppTableRecord
  2
GENIUS_GENOBJ-N-REC_13
 70
     0
  0
APPID
  5
A4B
330
9
100
AcDbSymbolTableRecord
100
AcDbRegAppTableRecord
  2
GENIUS_GENODEF_13
 70
     0
  0
APPID
  5
A4C
330
9
100
AcDbSymbolTableRecord
100
AcDbRegAppTableRecord
  2
DCO15
 70
     0
  0
APPID
  5
ADC
330
9
100
AcDbSymbolTableRecord
100
AcDbRegAppTableRecord
  2
GENIUS_GENOLIS_13
 70
     0
  0
APPID
  5
ADD
330
9
100
AcDbSymbolTableRecord
100
AcDbRegAppTableRecord
  2
GENIUS_GENOENT_13
 70
     0
  0
APPID
  5
ADE
330
9
100
AcDbSymbolTableRecord
100
AcDbRegAppTableRecord
  2
GENIUS_GENOBJ-N-TIT_13
 70
     0
  0
APPID
  5
ADF
330
9
100
AcDbSymbolTableRecord
100
AcDbRegAppTableRecord
  2
GENIUS_GENTITLE_13
 70
     0
  0
APPID
  5
AE0
330
9
100
AcDbSymbolTableRecord
100
AcDbRegAppTableRecord
  2
GENIUS_GENOREF_13
 70
     0
  0
APPID
  5
AE7
330
9
100
AcDbSymbolTableRecord
100
AcDbRegAppTableRecord
  2
GENIUS_GENSCREG_15
 70
     0
  0
APPID
  5
AE8
330
9
100
AcDbSymbolTableRecord
100
AcDbRegAppTableRecord
  2
GENIUS_GENOBJ-N-SDF_13
 70
     0
  0
APPID
  5
FAF
330
9
100
AcDbSymbolTableRecord
100
AcDbRegAppTableRecord
  2
GENIUS_GENBLLY_14
 70
     0
  0
APPID
  5
FB0
330
9
100
AcDbSymbolTableRecord
100
AcDbRegAppTableRecord
  2
GENIUS_GENTRA_14
 70
     0
  0
APPID
  5
1285
330
9
100
AcDbSymbolTableRecord
100
AcDbRegAppTableRecord
  2
GENIUS_GENDTOL_13
 70
     0
  0
APPID
  5
142D
330
9
100
AcDbSymbolTableRecord
100
AcDbRegAppTableRecord
  2
GENIUS_GENOBJ-N-CEN_13
 70
     0
  0
APPID
  5
1AB5
330
9
100
AcDbSymbolTableRecord
100
AcDbRegAppTableRecord
  2
GENIUS_GENOBJ-N-CRS_13
 70
     0
  0
APPID
  5
1B36
330
9
100
AcDbSymbolTableRecord
100
AcDbRegAppTableRecord
  2
GENIUS_GENOBJ-N-HTC_13
 70
     0
  0
APPID
  5
1B37
330
9
100
AcDbSymbolTableRecord
100
AcDbRegAppTableRecord
  2
GENIUS_GENHATCH_13
 70
     0
  0
APPID
  5
216D
330
9
100
AcDbSymbolTableRecord
100
AcDbRegAppTableRecord
  2
GENIUS_GENOBJ-N-FIL_13
 70
     0
  0
APPID
  5
2356
330
9
100
AcDbSymbolTableRecord
100
AcDbRegAppTableRecord
  2
GEVID990412420
 70
     0
  0
APPID
  5
2357
330
9
100
AcDbSymbolTableRecord
100
AcDbRegAppTableRecord
  2
GEVDC
 70
     0
  0
APPID
  5
2358
330
9
100
AcDbSymbolTableRecord
100
AcDbRegAppTableRecord
  2
GEVCON
 70
     0
  0
APPID
  5
235B
330
9
100
AcDbSymbolTableRecord
100
AcDbRegAppTableRecord
  2
GEVRADREF
 70
     0
  0
APPID
  5
2360
330
9
100
AcDbSymbolTableRecord
100
AcDbRegAppTableRecord
  2
GENIUS_GENBH_13
 70
     0
  0
APPID
  5
2362
330
9
100
AcDbSymbolTableRecord
100
AcDbRegAppTableRecord
  2
GENIUS_GENOBJ-NBEHI-BHF_13
 70
     0
  0
APPID
  5
2364
330
9
100
AcDbSymbolTableRecord
100
AcDbRegAppTableRecord
  2
GENIUS_GENOBJ-NBEHI-BHB_13
 70
     0
  0
APPID
  5
2379
330
9
100
AcDbSymbolTableRecord
100
AcDbRegAppTableRecord
  2
GENIUS_GENOBJ-F-SCPASSM_13
 70
     0
  0
APPID
  5
3D74
330
9
100
AcDbSymbolTableRecord
100
AcDbRegAppTableRecord
  2
GENIUS_GENDIM_13
 70
     0
  0
APPID
  5
3D76
330
9
100
AcDbSymbolTableRecord
100
AcDbRegAppTableRecord
  2
GENIUS_GE3DTOL_13
 70
     0
  0
APPID
  5
3D9C
330
9
100
AcDbSymbolTableRecord
100
AcDbRegAppTableRecord
  2
AD_DRAW
 70
     0
  0
APPID
  5
3DE8
330
9
100
AcDbSymbolTableRecord
100
AcDbRegAppTableRecord
  2
ASURF_PCURVE_APPNAME
 70
     0
  0
APPID
  5
3DED
330
9
100
AcDbSymbolTableRecord
100
AcDbRegAppTableRecord
  2
AMG_3D2D_5.0
 70
     0
  0
APPID
  5
3E1B
330
9
100
AcDbSymbolTableRecord
100
AcDbRegAppTableRecord
  2
DESIGNERASSEMBLIES
 70
     0
  0
APPID
  5
3E20
330
9
100
AcDbSymbolTableRecord
100
AcDbRegAppTableRecord
  2
ACADM_DIM_EDIT
 70
     0
  0
APPID
  5
3E21
330
9
100
AcDbSymbolTableRecord
100
AcDbRegAppTableRecord
  2
AMDT_DM_ADJ
 70
     0
  0
APPID
  5
4143
330
9
100
AcDbSymbolTableRecord
100
AcDbRegAppTableRecord
  2
GENIUS_GENFIL_13
 70
     0
  0
APPID
  5
4144
330
9
100
AcDbSymbolTableRecord
100
AcDbRegAppTableRecord
  2
GENIUS_GENOBJ-N-CHA_13
 70
     0
  0
APPID
  5
4E17
330
9
100
AcDbSymbolTableRecord
100
AcDbRegAppTableRecord
  2
GEVID1008153417
 70
     0
  0
APPID
  5
4E58
330
9
100
AcDbSymbolTableRecord
100
AcDbRegAppTableRecord
  2
GEVID1008153418
 70
     0
  0
APPID
  5
4E5E
330
9
100
AcDbSymbolTableRecord
100
AcDbRegAppTableRecord
  2
GEVID1008153419
 70
     0
  0
APPID
  5
4E64
330
9
100
AcDbSymbolTableRecord
100
AcDbRegAppTableRecord
  2
GEVID1008153420
 70
     0
  0
APPID
  5
4E75
330
9
100
AcDbSymbolTableRecord
100
AcDbRegAppTableRecord
  2
GEVID1008153421
 70
     0
  0
APPID
  5
4EB7
330
9
100
AcDbSymbolTableRecord
100
AcDbRegAppTableRecord
  2
GENIUS_AMGTXT_16
 70
     0
  0
APPID
  5
7645
330
9
100
AcDbSymbolTableRecord
100
AcDbRegAppTableRecord
  2
GENIUS_GENOBJ-N-DIM_13
 70
     0
  0
APPID
  5
AAD0
330
9
100
AcDbSymbolTableRecord
100
AcDbRegAppTableRecord
  2
ACAD_DSTYLE_DIMARC_LENGTH_SYMBOL
 70
     0
  0
APPID
  5
AAD1
330
9
100
AcDbSymbolTableRecord
100
AcDbRegAppTableRecord
  2
ACAD_DSTYLE_DIMJOGGED_JOGANGLE_SYMBOL
 70
     0
  0
APPID
  5
AAFD
330
9
100
AcDbSymbolTableRecord
100
AcDbRegAppTableRecord
  2
ACAD_PSEXT
 70
     0
  0
APPID
  5
AD61
330
9
100
AcDbSymbolTableRecord
100
AcDbRegAppTableRecord
  2
AcAecLayerStandard
 70
     0
  0
APPID
  5
AEE3
330
9
100
AcDbSymbolTableRecord
100
AcDbRegAppTableRecord
  2
ACAD_EXEMPT_FROM_CAD_STANDARDS
 70
     0
  0
APPID
  5
B1BE
330
9
100
AcDbSymbolTableRecord
100
AcDbRegAppTableRecord
  2
GENIUS_GENCEN_19
 70
     0
  0
ENDTAB
  0
TABLE
  2
DIMSTYLE
  5
A
330
0
100
AcDbSymbolTable
 70
    26
100
AcDbDimStyleTable
 71
     2
340
2515
340
B4D0
  0
DIMSTYLE
105
A76
330
A
100
AcDbSymbolTableRecord
100
AcDbDimStyleTableRecord
  2
STANDARD
 70
     0
 41
3.0
 42
1.0
 43
7.0
 44
2.0
 73
     0
 74
     0
 77
     1
140
2.799999999999999
141
0.0
143
0.0394
147
0.7
171
     4
172
     1
173
     1
176
     3
177
     3
178
     2
271
     3
272
     3
273
     8
274
     4
289
     0
340
A74
341
A66
343
A66
344
A66
  0
DIMSTYLE
105
2515
330
A
100
AcDbSymbolTableRecord
100
AcDbDimStyleTableRecord
  2
SYS
 70
     0
  4
"
 41
1.0
 42
1.0
 43
10.0
 44
1.0
 47
0.1
 48
0.1
 73
     0
 74
     0
 77
     1
 78
     8
 79
     2
 90
     1
140
3.5
141
0.0
143
0.0393701
146
0.71
147
1.5
172
     1
176
   256
177
   256
178
     7
271
     2
272
     2
283
     0
284
     8
340
11
371
    -1
372
    -1
1001
ACAD_DSTYLE_DIMJOGGED_JOGANGLE_SYMBOL
1070
   384
1040
0.7853981633974483
  0
DIMSTYLE
105
2516
102
{ACAD_REACTORS
330
C99B
102
}
330
A
100
AcDbSymbolTableRecord
100
AcDbDimStyleTableRecord
  2
SYS$3
 70
     0
  4
"
 41
2.0
 42
1.0
 43
10.0
 44
1.0
 47
0.1
 48
0.1
 73
     0
 77
     1
 78
     8
 79
     2
 90
     1
140
3.5
141
0.0
143
0.0393701
146
0.71
147
1.5
176
   256
177
   256
178
     2
271
     2
272
     2
283
     0
284
     8
288
     1
340
11
342
A66
371
    -1
372
    -1
1001
ACAD_DSTYLE_DIMJOGGED_JOGANGLE_SYMBOL
1070
   384
1040
0.7853981633974483
  0
DIMSTYLE
105
2517
102
{ACAD_REACTORS
330
C7CE
102
}
330
A
100
AcDbSymbolTableRecord
100
AcDbDimStyleTableRecord
  2
SYS$4
 70
     0
  4
"
 41
2.0
 42
1.0
 43
10.0
 44
1.0
 47
0.1
 48
0.1
 73
     0
 77
     1
 78
     8
 79
     2
 90
     1
140
3.5
141
0.0
143
0.0393701
146
0.71
147
1.5
173
     1
176
   256
177
   256
178
     2
271
     2
272
     2
283
     0
284
     8
288
     1
340
11
344
A66
371
    -1
372
    -1
1001
ACAD_DSTYLE_DIMJOGGED_JOGANGLE_SYMBOL
1070
   384
1040
0.7853981633974483
  0
DIMSTYLE
105
2518
330
A
100
AcDbSymbolTableRecord
100
AcDbDimStyleTableRecord
  2
SYS$6
 70
     0
  4
"
 41
2.0
 42
1.0
 43
10.0
 44
1.0
 47
0.1
 48
0.1
 73
     0
 74
     0
 78
     8
 79
     2
 90
     1
140
3.5
141
0.0
143
0.0393701
146
0.71
147
1.5
172
     1
176
   256
177
   256
178
     2
271
     2
272
     2
283
     0
284
     8
340
11
341
A66
371
    -1
372
    -1
1001
ACAD_DSTYLE_DIMJOGGED_JOGANGLE_SYMBOL
1070
   384
1040
0.7853981633974483
  0
DIMSTYLE
105
2519
330
A
100
AcDbSymbolTableRecord
100
AcDbDimStyleTableRecord
  2
SYS$7
 70
     0
  4
"
 41
2.0
 42
1.0
 43
10.0
 44
1.0
 47
0.1
 48
0.1
 73
     0
 74
     0
 77
     1
 78
     8
 79
     2
 90
     1
140
5.0
141
0.0
143
0.0393701
146
0.71
147
1.5
172
     1
176
   256
177
   256
178
     2
271
     2
272
     2
283
     0
284
     8
340
11
341
A66
342
A66
371
    -1
372
    -1
1001
ACAD_DSTYLE_DIMJOGGED_JOGANGLE_SYMBOL
1070
   384
1040
0.7853981633974483
  0
DIMSTYLE
105
251A
330
A
100
AcDbSymbolTableRecord
100
AcDbDimStyleTableRecord
  2
SYS$SF
 70
     0
  4
"
 41
2.5
 42
1.0
 43
10.0
 44
1.0
 47
0.1
 48
0.1
 73
     0
 74
     0
 75
     1
 76
     1
 77
     1
 78
     8
 79
     2
 90
     1
140
3.5
141
0.0
143
0.0393701
146
0.71
147
1.5
172
     1
176
   256
177
   256
178
     2
271
     2
272
     3
283
     0
284
     8
340
11
341
6C4
342
6C4
371
    -1
372
    -1
1001
ACAD_DSTYLE_DIMJOGGED_JOGANGLE_SYMBOL
1070
   384
1040
0.7853981633974483
  0
DIMSTYLE
105
251B
330
A
100
AcDbSymbolTableRecord
100
AcDbDimStyleTableRecord
  2
SYS$SH
 70
     0
  4
"
 41
2.5
 42
1.0
 43
10.0
 44
1.0
 47
0.1
 48
0.1
 73
     0
 74
     0
 75
     1
 76
     1
 77
     1
 78
     8
 79
     2
 90
     1
140
3.5
141
0.0
143
0.0393701
144
2.0
146
0.71
147
1.5
172
     1
173
     1
176
   256
177
   256
178
     2
271
     2
272
     3
283
     0
284
     8
340
11
341
6C4
343
72
344
6C4
371
    -1
372
    -1
1001
ACAD_DSTYLE_DIMJOGGED_JOGANGLE_SYMBOL
1070
   384
1040
0.7853981633974483
  0
DIMSTYLE
105
2A59
330
A
100
AcDbSymbolTableRecord
100
AcDbDimStyleTableRecord
  2
SYS$2
 70
     0
  4
"
 41
1.0
 42
1.0
 43
10.0
 44
1.0
 47
0.1
 48
0.1
 73
     0
 74
     0
 77
     1
 78
     8
 79
     2
 90
     1
140
3.5
141
0.0
143
0.0393701
146
0.71
147
1.5
172
     1
176
   256
177
   256
178
     2
271
     2
272
     2
283
     0
284
     8
340
11
342
6C4
371
    -1
372
    -1
1001
ACAD_DSTYLE_DIMJOGGED_JOGANGLE_SYMBOL
1070
   384
1040
0.7853981633974483
  0
DIMSTYLE
105
2AAB
102
{ACAD_REACTORS
330
C09F
330
C0C2
330
C0C3
330
C0C9
330
C0CA
330
C0CB
330
C0CC
330
C0CD
330
C0CE
330
C11D
330
C11E
330
C11F
330
C120
330
C7A2
330
C7B8
330
C7F2
330
C8D9
330
C957
330
C92D
330
C9DC
330
CA0F
330
C0C1
330
CB48
330
CCEA
102
}
330
A
100
AcDbSymbolTableRecord
100
AcDbDimStyleTableRecord
  2
SYS$0
 70
     0
  4
"
 41
1.0
 42
1.0
 43
10.0
 44
1.0
 47
0.1
 48
0.1
 73
     0
 74
     0
 77
     1
 78
     8
 79
     2
 90
     1
140
3.200000000000001
141
0.0
143
0.0393701
146
0.71
147
1.5
172
     1
176
   256
177
   256
178
     2
271
     2
272
     2
283
     0
284
     8
340
11
341
A66
342
6C4
371
    -1
372
    -1
1001
ACAD_DSTYLE_DIMJOGGED_JOGANGLE_SYMBOL
1070
   384
1040
0.7853981633974483
  0
DIMSTYLE
105
AF99
330
A
100
AcDbSymbolTableRecord
100
AcDbDimStyleTableRecord
  2
AM_ISO
 70
     0
  4
"
 41
2.5
 42
1.0
 43
10.0
 44
1.0
 47
0.1
 48
0.1
 73
     0
 74
     0
 77
     1
 78
     8
 79
     2
140
3.5
141
0.0
143
0.0393701
146
0.71
147
1.5
172
     1
176
   256
177
   256
178
     2
271
     2
272
     3
274
     4
283
     0
284
     8
340
11
371
    -1
372
    -1
  0
DIMSTYLE
105
AF9A
330
A
100
AcDbSymbolTableRecord
100
AcDbDimStyleTableRecord
  2
AM_ISO$3
 70
     0
  4
"
 41
2.5
 42
1.0
 43
10.0
 44
1.0
 47
0.1
 48
0.1
 73
     0
 77
     1
 78
     8
 79
     2
140
3.5
141
0.0
143
0.0393701
146
0.71
147
1.5
176
   256
177
   256
178
     2
271
     2
272
     3
274
     4
283
     0
284
     8
288
     1
289
     0
340
11
371
    -1
372
    -1
  0
DIMSTYLE
105
AF9B
330
A
100
AcDbSymbolTableRecord
100
AcDbDimStyleTableRecord
  2
AM_ISO$4
 70
     0
  4
"
 41
2.5
 42
1.0
 43
10.0
 44
1.0
 47
0.1
 48
0.1
 73
     0
 77
     1
 78
     8
 79
     2
140
3.5
141
0.0
143
0.0393701
146
0.71
147
1.5
176
   256
177
   256
178
     2
271
     2
272
     3
274
     4
283
     0
284
     8
288
     1
289
     0
340
11
371
    -1
372
    -1
  0
DIMSTYLE
105
AF9C
330
A
100
AcDbSymbolTableRecord
100
AcDbDimStyleTableRecord
  2
AM_ISO$6
 70
     0
  4
"
 41
2.5
 42
1.0
 43
10.0
 44
1.0
 47
0.1
 48
0.1
 73
     0
 74
     0
 78
     8
 79
     2
140
3.5
141
0.0
143
0.0393701
146
0.71
147
1.5
172
     1
176
   256
177
   256
178
     2
271
     2
272
     3
274
     4
283
     0
284
     8
340
11
371
    -1
372
    -1
  0
DIMSTYLE
105
AF9D
330
A
100
AcDbSymbolTableRecord
100
AcDbDimStyleTableRecord
  2
AM_ISO$7
 70
     0
  4
"
 41
2.5
 42
1.0
 43
10.0
 44
1.0
 47
0.1
 48
0.1
 73
     0
 74
     0
 77
     1
 78
     8
 79
     2
140
5.0
141
0.0
143
0.0393701
146
0.71
147
1.5
172
     1
176
   256
177
   256
178
     2
271
     2
272
     3
274
     4
283
     0
284
     8
340
11
371
    -1
372
    -1
  0
DIMSTYLE
105
AF9E
330
A
100
AcDbSymbolTableRecord
100
AcDbDimStyleTableRecord
  2
AM_ISO$SF
 70
     0
  4
"
 41
2.5
 42
1.0
 43
10.0
 44
1.0
 47
0.1
 48
0.1
 73
     0
 74
     0
 75
     1
 76
     1
 77
     1
 78
     8
 79
     2
140
3.5
141
0.0
143
0.0393701
146
0.71
147
1.5
172
     1
176
   256
177
   256
178
     2
271
     2
272
     3
274
     4
283
     0
284
     8
340
11
371
    -1
372
    -1
  0
DIMSTYLE
105
AF9F
330
A
100
AcDbSymbolTableRecord
100
AcDbDimStyleTableRecord
  2
AM_ISO$SH
 70
     0
  4
"
 41
2.5
 42
1.0
 43
10.0
 44
1.0
 47
0.1
 48
0.1
 73
     0
 74
     0
 75
     1
 76
     1
 77
     1
 78
     8
 79
     2
140
3.5
141
0.0
143
0.0393701
144
2.0
146
0.71
147
1.5
172
     1
173
     1
176
   256
177
   256
178
     2
271
     2
272
     3
274
     4
283
     0
284
     8
340
11
343
72
371
    -1
372
    -1
  0
DIMSTYLE
105
B4CE
330
A
100
AcDbSymbolTableRecord
100
AcDbDimStyleTableRecord
  2
56
 70
     0
 41
3.0
 42
1.0
 43
7.0
 44
2.0
 73
     0
 74
     0
 77
     1
140
2.799999999999999
141
0.0
143
0.0394
147
0.7
171
     4
172
     1
173
     1
176
     3
177
     3
178
     2
271
     0
272
     3
273
     8
274
     4
289
     0
340
A74
341
A66
343
A66
344
A66
  0
DIMSTYLE
105
B4CF
330
A
100
AcDbSymbolTableRecord
100
AcDbDimStyleTableRecord
  2
8000
 70
     0
 41
3.0
 42
1.0
 43
7.0
 44
2.0
 73
     0
 74
     0
 77
     1
140
2.799999999999999
141
0.0
143
0.0394
147
0.7
171
     4
172
     1
176
     3
177
     3
178
     2
271
     0
272
     3
273
     8
274
     4
289
     0
340
A74
341
A66
342
B4C3
  0
DIMSTYLE
105
B4D0
330
A
100
AcDbSymbolTableRecord
100
AcDbDimStyleTableRecord
  2
55555
 70
     0
 41
3.0
 42
1.0
 43
7.0
 44
2.0
 73
     0
 74
     0
 77
     1
140
2.799999999999999
141
0.0
143
0.0394
147
0.7
171
     4
172
     1
176
     3
177
     3
178
     2
271
     1
272
     3
273
     8
274
     4
289
     0
340
A74
341
A66
342
B4C3
  0
ENDTAB
  0
TABLE
  2
BLOCK_RECORD
  5
1
330
0
100
AcDbSymbolTable
 70
    47
  0
BLOCK_RECORD
  5
1F
102
{ACAD_XDICTIONARY
360
8A
102
}
330
1
100
AcDbSymbolTableRecord
100
AcDbBlockTableRecord
  2
*Model_Space
340
22
 70
     0
280
     1
281
     0
  0
BLOCK_RECORD
  5
1B
330
1
100
AcDbSymbolTableRecord
100
AcDbBlockTableRecord
  2
*Paper_Space
340
1E
 70
     0
280
     1
281
     0
  0
BLOCK_RECORD
  5
23
330
1
100
AcDbSymbolTableRecord
100
AcDbBlockTableRecord
  2
*Paper_Space0
340
26
 70
     0
280
     1
281
     0
  0
BLOCK_RECORD
  5
72
330
1
100
AcDbSymbolTableRecord
100
AcDbBlockTableRecord
  2
GENAXEH
340
0
 70
     0
280
     1
281
     0
  0
BLOCK_RECORD
  5
6C4
330
1
100
AcDbSymbolTableRecord
100
AcDbBlockTableRecord
  2
_Dot
340
0
102
{BLKREFS
331
C562
331
C563
331
C623
331
C624
331
C62C
331
C62D
331
C7EC
331
C7ED
331
C88E
331
C88F
331
C927
331
C928
331
C987
331
C988
331
CC26
331
CC27
331
CC31
331
CC32
331
CC3A
331
CC3B
331
CCB2
331
CCB3
331
CCBB
331
CCBC
331
CCC4
331
CCC5
331
CCCD
331
CCCE
331
CCD6
331
CCD7
331
CCE4
331
CCE5
331
CD12
331
CD13
331
CD20
331
CD21
331
CD29
331
CD2A
331
CD84
331
CD85
331
CD92
331
CD93
331
CD9B
331
CD9C
331
CDA6
331
CDA7
331
CDB1
331
CDB2
331
CDBB
331
CDBC
331
CDC4
331
CDC5
331
CDCE
331
CDCF
331
CDD7
331
CDD8
331
CDE0
331
CDE1
331
CDE8
331
CDE9
331
CDEF
331
CDF0
102
}
 70
     0
280
     1
281
     0
  0
BLOCK_RECORD
  5
A66
330
1
100
AcDbSymbolTableRecord
100
AcDbBlockTableRecord
  2
_OPEN30
340
0
102
{BLKREFS
331
C658
331
CD1A
331
CD7E
331
CD8C
102
}
 70
     0
280
     1
281
     0
  0
BLOCK_RECORD
  5
B4C3
330
1
100
AcDbSymbolTableRecord
100
AcDbBlockTableRecord
  2
_DotSmall
340
0
 70
     0
280
     1
281
     0
  0
BLOCK_RECORD
  5
C121
330
1
100
AcDbSymbolTableRecord
100
AcDbBlockTableRecord
  2
*D6
340
0
 70
     0
280
     1
281
     0
  0
BLOCK_RECORD
  5
C12D
330
1
100
AcDbSymbolTableRecord
100
AcDbBlockTableRecord
  2
*D7
340
0
 70
     0
280
     1
281
     0
  0
BLOCK_RECORD
  5
C138
330
1
100
AcDbSymbolTableRecord
100
AcDbBlockTableRecord
  2
*D8
340
0
 70
     0
280
     1
281
     0
  0
BLOCK_RECORD
  5
C144
330
1
100
AcDbSymbolTableRecord
100
AcDbBlockTableRecord
  2
*D9
340
0
 70
     0
280
     1
281
     0
  0
BLOCK_RECORD
  5
C14C
330
1
100
AcDbSymbolTableRecord
100
AcDbBlockTableRecord
  2
*D10
340
0
 70
     0
280
     1
281
     0
  0
BLOCK_RECORD
  5
C158
330
1
100
AcDbSymbolTableRecord
100
AcDbBlockTableRecord
  2
*D11
340
0
 70
     0
280
     1
281
     0
  0
BLOCK_RECORD
  5
C164
330
1
100
AcDbSymbolTableRecord
100
AcDbBlockTableRecord
  2
*D12
340
0
 70
     0
280
     1
281
     0
  0
BLOCK_RECORD
  5
C172
330
1
100
AcDbSymbolTableRecord
100
AcDbBlockTableRecord
  2
*D13
340
0
 70
     0
280
     1
281
     0
  0
BLOCK_RECORD
  5
C17E
330
1
100
AcDbSymbolTableRecord
100
AcDbBlockTableRecord
  2
*D14
340
0
 70
     0
280
     1
281
     0
  0
BLOCK_RECORD
  5
C188
330
1
100
AcDbSymbolTableRecord
100
AcDbBlockTableRecord
  2
*D15
340
0
 70
     0
280
     1
281
     0
  0
BLOCK_RECORD
  5
C190
330
1
100
AcDbSymbolTableRecord
100
AcDbBlockTableRecord
  2
*D16
340
0
 70
     0
280
     1
281
     0
  0
BLOCK_RECORD
  5
C19D
330
1
100
AcDbSymbolTableRecord
100
AcDbBlockTableRecord
  2
*D17
340
0
 70
     0
280
     1
281
     0
  0
BLOCK_RECORD
  5
C1A9
330
1
100
AcDbSymbolTableRecord
100
AcDbBlockTableRecord
  2
*D18
340
0
 70
     0
280
     1
281
     0
  0
BLOCK_RECORD
  5
C1B5
330
1
100
AcDbSymbolTableRecord
100
AcDbBlockTableRecord
  2
*D19
340
0
 70
     0
280
     1
281
     0
  0
BLOCK_RECORD
  5
C1C3
330
1
100
AcDbSymbolTableRecord
100
AcDbBlockTableRecord
  2
*D20
340
0
 70
     0
280
     1
281
     0
  0
BLOCK_RECORD
  5
C1D0
330
1
100
AcDbSymbolTableRecord
100
AcDbBlockTableRecord
  2
*D21
340
0
 70
     0
280
     1
281
     0
  0
BLOCK_RECORD
  5
C1DC
330
1
100
AcDbSymbolTableRecord
100
AcDbBlockTableRecord
  2
*D22
340
0
 70
     0
280
     1
281
     0
  0
BLOCK_RECORD
  5
C1E8
330
1
100
AcDbSymbolTableRecord
100
AcDbBlockTableRecord
  2
*D23
340
0
 70
     0
280
     1
281
     0
  0
BLOCK_RECORD
  5
C1F6
330
1
100
AcDbSymbolTableRecord
100
AcDbBlockTableRecord
  2
*D24
340
0
 70
     0
280
     1
281
     0
  0
BLOCK_RECORD
  5
C202
330
1
100
AcDbSymbolTableRecord
100
AcDbBlockTableRecord
  2
*D25
340
0
 70
     0
280
     1
281
     0
  0
BLOCK_RECORD
  5
C743
330
1
100
AcDbSymbolTableRecord
100
AcDbBlockTableRecord
  2
*D27
340
0
 70
     0
280
     1
281
     0
  0
BLOCK_RECORD
  5
C7A3
330
1
100
AcDbSymbolTableRecord
100
AcDbBlockTableRecord
  2
*D28
340
0
 70
     0
280
     1
281
     0
  0
BLOCK_RECORD
  5
C7B9
330
1
100
AcDbSymbolTableRecord
100
AcDbBlockTableRecord
  2
*D29
340
0
 70
     0
280
     1
281
     0
  0
BLOCK_RECORD
  5
C7CF
330
1
100
AcDbSymbolTableRecord
100
AcDbBlockTableRecord
  2
*D30
340
0
 70
     0
280
     1
281
     0
  0
BLOCK_RECORD
  5
C7DD
330
1
100
AcDbSymbolTableRecord
100
AcDbBlockTableRecord
  2
*D31
340
0
 70
     0
280
     1
281
     0
  0
BLOCK_RECORD
  5
C7F3
330
1
100
AcDbSymbolTableRecord
100
AcDbBlockTableRecord
  2
*D32
340
0
 70
     0
280
     1
281
     0
  0
BLOCK_RECORD
  5
C8DA
330
1
100
AcDbSymbolTableRecord
100
AcDbBlockTableRecord
  2
*D33
340
0
 70
     0
280
     1
281
     0
  0
BLOCK_RECORD
  5
C92E
330
1
100
AcDbSymbolTableRecord
100
AcDbBlockTableRecord
  2
*D34
340
0
 70
     0
280
     1
281
     0
  0
BLOCK_RECORD
  5
C958
330
1
100
AcDbSymbolTableRecord
100
AcDbBlockTableRecord
  2
*D35
340
0
 70
     0
280
     1
281
     0
  0
BLOCK_RECORD
  5
C978
330
1
100
AcDbSymbolTableRecord
100
AcDbBlockTableRecord
  2
*D36
340
0
 70
     0
280
     1
281
     0
  0
BLOCK_RECORD
  5
C99C
330
1
100
AcDbSymbolTableRecord
100
AcDbBlockTableRecord
  2
*D38
340
0
 70
     0
280
     1
281
     0
  0
BLOCK_RECORD
  5
C9DD
330
1
100
AcDbSymbolTableRecord
100
AcDbBlockTableRecord
  2
*D39
340
0
 70
     0
280
     1
281
     0
  0
BLOCK_RECORD
  5
CA10
330
1
100
AcDbSymbolTableRecord
100
AcDbBlockTableRecord
  2
*D40
340
0
 70
     0
280
     1
281
     0
  0
BLOCK_RECORD
  5
CB49
330
1
100
AcDbSymbolTableRecord
100
AcDbBlockTableRecord
  2
*D41
340
0
 70
     0
280
     1
281
     0
  0
BLOCK_RECORD
  5
CCEB
330
1
100
AcDbSymbolTableRecord
100
AcDbBlockTableRecord
  2
*D44
340
0
 70
     0
280
     1
281
     0
  0
ENDTAB
  0
ENDSEC
  0
SECTION
  2
BLOCKS
  0
BLOCK
  5
20
330
1F
100
AcDbEntity
  8
0
100
AcDbBlockBegin
  2
*Model_Space
 70
     0
 10
0.0
 20
0.0
 30
0.0
  3
*Model_Space
  1

  0
ENDBLK
  5
21
330
1F
100
AcDbEntity
  8
0
100
AcDbBlockEnd
  0
BLOCK
  5
1C
330
1B
100
AcDbEntity
 67
     1
  8
0
100
AcDbBlockBegin
  2
*Paper_Space
 70
     0
 10
0.0
 20
0.0
 30
0.0
  3
*Paper_Space
  1

  0
ENDBLK
  5
1D
330
1B
100
AcDbEntity
 67
     1
  8
0
100
AcDbBlockEnd
  0
BLOCK
  5
24
330
23
100
AcDbEntity
 67
     1
  8
0
100
AcDbBlockBegin
  2
*Paper_Space0
 70
     0
 10
0.0
 20
0.0
 30
0.0
  3
*Paper_Space0
  1

  0
ENDBLK
  5
25
330
23
100
AcDbEntity
 67
     1
  8
0
100
AcDbBlockEnd
  0
BLOCK
  5
74
330
72
100
AcDbEntity
  8
0
100
AcDbBlockBegin
  2
GENAXEH
 70
     0
 10
0.0
 20
0.0
 30
0.0
  3
GENAXEH
  1

  0
LINE
  5
73
330
72
100
AcDbEntity
  8
0
100
AcDbLine
 10
-1.0
 20
0.0
 30
0.0
 11
1.0
 21
0.0
 31
0.0
  0
ENDBLK
  5
75
330
72
100
AcDbEntity
  8
0
100
AcDbBlockEnd
  0
BLOCK
  5
6C7
330
6C4
100
AcDbEntity
  8
0
100
AcDbBlockBegin
  2
_Dot
 70
     0
 10
0.0
 20
0.0
 30
0.0
  3
_Dot
  1

  0
LWPOLYLINE
  5
6C5
330
6C4
100
AcDbEntity
  8
0
  6
ByBlock
 62
     0
100
AcDbPolyline
 90
        2
 70
     1
 43
0.5
 10
-0.25
 20
0.0
 42
1.0
 10
0.25
 20
0.0
 42
1.0
  0
LINE
  5
6C6
330
6C4
100
AcDbEntity
  8
0
  6
ByBlock
 62
     0
370
    -2
100
AcDbLine
 10
-0.5
 20
0.0
 30
0.0
 11
-1.0
 21
0.0
 31
0.0
  0
ENDBLK
  5
6C8
330
6C4
100
AcDbEntity
  8
0
100
AcDbBlockEnd
  0
BLOCK
  5
A6A
330
A66
100
AcDbEntity
  8
0
100
AcDbBlockBegin
  2
_OPEN30
 70
     0
 10
0.0
 20
0.0
 30
0.0
  3
_OPEN30
  1

  0
LINE
  5
A67
330
A66
100
AcDbEntity
  8
0
  6
ByBlock
 62
     0
100
AcDbLine
 10
-1.0
 20
0.26794919
 30
0.0
 11
0.0
 21
0.0
 31
0.0
  0
LINE
  5
A68
330
A66
100
AcDbEntity
  8
0
  6
ByBlock
 62
     0
100
AcDbLine
 10
0.0
 20
0.0
 30
0.0
 11
-1.0
 21
-0.26794919
 31
0.0
  0
LINE
  5
A69
330
A66
100
AcDbEntity
  8
0
  6
ByBlock
 62
     0
100
AcDbLine
 10
0.0
 20
0.0
 30
0.0
 11
-1.0
 21
0.0
 31
0.0
  0
ENDBLK
  5
A6B
330
A66
100
AcDbEntity
  8
0
100
AcDbBlockEnd
  0
BLOCK
  5
B4C4
330
B4C3
100
AcDbEntity
  8
0
100
AcDbBlockBegin
  2
_DotSmall
 70
     0
 10
0.0
 20
0.0
 30
0.0
  3
_DotSmall
  1

  0
LWPOLYLINE
  5
B4C5
330
B4C3
100
AcDbEntity
  8
0
  6
ByBlock
 62
     0
100
AcDbPolyline
 90
        2
 70
     1
 43
0.5
 10
-0.0625
 20
0.0
 42
1.0
 10
0.0625
 20
0.0
 42
1.0
  0
ENDBLK
  5
B4C6
330
B4C3
100
AcDbEntity
  8
0
100
AcDbBlockEnd
  0
BLOCK
  5
C12B
330
C121
100
AcDbEntity
  8
0
100
AcDbBlockBegin
  2
*D6
 70
     1
 10
0.0
 20
0.0
 30
0.0
  3
*D6
  1

  0
LINE
  5
CD81
330
C121
100
AcDbEntity
  8
AM_5
100
AcDbLine
 10
104.7460573932712
 20
103.9638707868813
 30
0.0
 11
104.7460573932712
 21
85.7638707868806
 31
0.0
  0
LINE
  5
CD82
330
C121
100
AcDbEntity
  8
AM_5
100
AcDbLine
 10
120.7460573932694
 20
103.9638707868813
 30
0.0
 11
120.7460573932694
 21
85.7638707868806
 31
0.0
  0
LINE
  5
CD83
330
C121
100
AcDbEntity
  8
AM_5
100
AcDbLine
 10
105.7460573932712
 20
86.7638707868806
 30
0.0
 11
119.7460573932694
 21
86.7638707868806
 31
0.0
  0
INSERT
  5
CD84
330
C121
100
AcDbEntity
  8
AM_5
100
AcDbBlockReference
  2
_Dot
 10
104.7460573932712
 20
86.7638707868806
 30
0.0
 50
180.0
  0
INSERT
  5
CD85
330
C121
100
AcDbEntity
  8
AM_5
100
AcDbBlockReference
  2
_Dot
 10
120.7460573932694
 20
86.7638707868806
 30
0.0
  0
MTEXT
  5
CD86
330
C121
100
AcDbEntity
  8
AM_5
 62
     2
100
AcDbMText
 10
112.7460573932703
 20
89.86387078688059
 30
0.0
 40
3.200000000000001
 41
0.0
 46
0.0
 71
     5
 72
     1
  1
16
 73
     1
 44
1.0
  0
POINT
  5
CD87
330
C121
100
AcDbEntity
  8
Defpoints
 62
     0
100
AcDbPoint
 10
104.7460573932712
 20
104.9638707868813
 30
0.0
  0
POINT
  5
CD88
330
C121
100
AcDbEntity
  8
Defpoints
 62
     0
100
AcDbPoint
 10
120.7460573932694
 20
104.9638707868813
 30
0.0
  0
POINT
  5
CD89
330
C121
100
AcDbEntity
  8
Defpoints
 62
     0
100
AcDbPoint
 10
120.7460573932694
 20
86.7638707868806
 30
0.0
  0
ENDBLK
  5
C12C
330
C121
100
AcDbEntity
  8
0
100
AcDbBlockEnd
  0
BLOCK
  5
C136
330
C12D
100
AcDbEntity
  8
0
100
AcDbBlockBegin
  2
*D7
 70
     1
 10
0.0
 20
0.0
 30
0.0
  3
*D7
  1

  0
LINE
  5
C621
330
C12D
100
AcDbEntity
  8
AM_5
100
AcDbLine
 10
139.2460573932867
 20
91.69284028574281
 30
0.0
 11
139.2460573932867
 21
103.6928402857455
 31
0.0
  0
LINE
  5
C622
330
C12D
100
AcDbEntity
  8
AM_5
100
AcDbLine
 10
140.2460573932867
 20
102.6928402857455
 30
0.0
 11
148.2460573932835
 21
102.6928402857455
 31
0.0
  0
INSERT
  5
C623
330
C12D
100
AcDbEntity
  8
AM_5
100
AcDbBlockReference
  2
_Dot
 10
139.2460573932867
 20
102.6928402857455
 30
0.0
 50
180.0
  0
INSERT
  5
C624
330
C12D
100
AcDbEntity
  8
AM_5
100
AcDbBlockReference
  2
_Dot
 10
149.2460573932835
 20
102.6928402857455
 30
0.0
  0
MTEXT
  5
C625
330
C12D
100
AcDbEntity
  8
AM_5
 62
     2
100
AcDbMText
 10
144.2460573932851
 20
105.7928402857455
 30
0.0
 40
3.200000000000001
 41
0.0
 46
0.0
 71
     5
 72
     1
  1
10
 73
     1
 44
1.0
  0
POINT
  5
C626
330
C12D
100
AcDbEntity
  8
Defpoints
 62
     0
100
AcDbPoint
 10
139.2460573932867
 20
90.69284028574282
 30
0.0
  0
POINT
  5
C627
330
C12D
100
AcDbEntity
  8
Defpoints
 62
     0
100
AcDbPoint
 10
149.2460573932835
 20
90.69284028574555
 30
0.0
  0
POINT
  5
C628
330
C12D
100
AcDbEntity
  8
Defpoints
 62
     0
100
AcDbPoint
 10
149.2460573932835
 20
102.6928402857455
 30
0.0
  0
ENDBLK
  5
C137
330
C12D
100
AcDbEntity
  8
0
100
AcDbBlockEnd
  0
BLOCK
  5
C142
330
C138
100
AcDbEntity
  8
0
100
AcDbBlockBegin
  2
*D8
 70
     1
 10
0.0
 20
0.0
 30
0.0
  3
*D8
  1

  0
LINE
  5
C629
330
C138
100
AcDbEntity
  8
AM_5
100
AcDbLine
 10
139.2460573932867
 20
91.69284028574281
 30
0.0
 11
139.2460573932867
 21
103.6928402857433
 31
0.0
  0
LINE
  5
C62A
330
C138
100
AcDbEntity
  8
AM_5
100
AcDbLine
 10
85.24605739327126
 20
91.69284028574281
 30
0.0
 11
85.24605739327126
 21
103.6928402857433
 31
0.0
  0
LINE
  5
C62B
330
C138
100
AcDbEntity
  8
AM_5
100
AcDbLine
 10
138.2460573932867
 20
102.6928402857433
 30
0.0
 11
86.24605739327126
 21
102.6928402857433
 31
0.0
  0
INSERT
  5
C62C
330
C138
100
AcDbEntity
  8
AM_5
100
AcDbBlockReference
  2
_Dot
 10
139.2460573932867
 20
102.6928402857433
 30
0.0
  0
INSERT
  5
C62D
330
C138
100
AcDbEntity
  8
AM_5
100
AcDbBlockReference
  2
_Dot
 10
85.24605739327126
 20
102.6928402857433
 30
0.0
 50
180.0
  0
MTEXT
  5
C62E
330
C138
100
AcDbEntity
  8
AM_5
 62
     2
100
AcDbMText
 10
112.246057393279
 20
105.7928402857432
 30
0.0
 40
3.200000000000001
 41
0.0
 46
0.0
 71
     5
 72
     1
  1
54
 73
     1
 44
1.0
  0
POINT
  5
C62F
330
C138
100
AcDbEntity
  8
Defpoints
 62
     0
100
AcDbPoint
 10
139.2460573932867
 20
90.69284028574282
 30
0.0
  0
POINT
  5
C630
330
C138
100
AcDbEntity
  8
Defpoints
 62
     0
100
AcDbPoint
 10
85.24605739327126
 20
90.69284028574282
 30
0.0
  0
POINT
  5
C631
330
C138
100
AcDbEntity
  8
Defpoints
 62
     0
100
AcDbPoint
 10
85.24605739327126
 20
102.6928402857433
 30
0.0
  0
ENDBLK
  5
C143
330
C138
100
AcDbEntity
  8
0
100
AcDbBlockEnd
  0
BLOCK
  5
C14A
330
C144
100
AcDbEntity
  8
0
100
AcDbBlockBegin
  2
*D9
 70
     1
 10
0.0
 20
0.0
 30
0.0
  3
*D9
  1

  0
LINE
  5
CD8A
330
C144
100
AcDbEntity
  8
AM_5
100
AcDbLine
 10
207.6585251145522
 20
137.2963918158729
 30
0.0
 11
227.4210572389793
 21
147.509273580623
 31
0.0
  0
MTEXT
  5
CD8B
330
C144
100
AcDbEntity
  8
AM_5
 62
     2
100
AcDbMText
 10
209.2091696926261
 20
141.7560584393427
 30
0.0
 40
3.5
 41
0.0
 46
0.0
 71
     5
 72
     1
  1
∅8
 11
0.8883848364094127
 21
0.4590995343472054
 31
0.0
 73
     1
 44
1.0
  0
INSERT
  5
CD8C
330
C144
100
AcDbEntity
  8
AM_5
100
AcDbBlockReference
  2
_OPEN30
 10
229.1978269117981
 20
148.4274726493174
 30
0.0
 41
2.0
 42
2.0
 43
2.0
 50
27.32901735108503
  0
POINT
  5
CD8D
330
C144
100
AcDbEntity
  8
Defpoints
 62
     0
100
AcDbPoint
 10
229.1978269117981
 20
148.4274726493174
 30
0.0
  0
POINT
  5
CD8E
330
C144
100
AcDbEntity
  8
Defpoints
 62
     0
100
AcDbPoint
 10
236.3049056030718
 20
152.1002689240942
 30
0.0
  0
ENDBLK
  5
C14B
330
C144
100
AcDbEntity
  8
0
100
AcDbBlockEnd
  0
BLOCK
  5
C156
330
C14C
100
AcDbEntity
  8
0
100
AcDbBlockBegin
  2
*D10
 70
     1
 10
0.0
 20
0.0
 30
0.0
  3
*D10
  1

  0
LINE
  5
CD8F
330
C14C
100
AcDbEntity
  8
AM_5
100
AcDbLine
 10
239.3939551833653
 20
150.2638707867023
 30
0.0
 11
262.2513662574682
 21
150.2638707867023
 31
0.0
  0
LINE
  5
CD90
330
C14C
100
AcDbEntity
  8
AM_5
100
AcDbLine
 10
250.2513662574681
 20
113.7638707868769
 30
0.0
 11
262.2513662574681
 21
113.7638707868769
 31
0.0
  0
LINE
  5
CD91
330
C14C
100
AcDbEntity
  8
AM_5
100
AcDbLine
 10
261.2513662574682
 20
149.2638707867023
 30
0.0
 11
261.2513662574681
 21
114.7638707868769
 31
0.0
  0
INSERT
  5
CD92
330
C14C
100
AcDbEntity
  8
AM_5
100
AcDbBlockReference
  2
_Dot
 10
261.2513662574682
 20
150.2638707867023
 30
0.0
 50
90.0
  0
INSERT
  5
CD93
330
C14C
100
AcDbEntity
  8
AM_5
100
AcDbBlockReference
  2
_Dot
 10
261.2513662574681
 20
113.7638707868769
 30
0.0
 50
270.0
  0
MTEXT
  5
CD94
330
C14C
100
AcDbEntity
  8
AM_5
 62
     2
100
AcDbMText
 10
258.1513662574681
 20
132.0138707867896
 30
0.0
 40
3.200000000000001
 41
0.0
 46
0.0
 71
     5
 72
     1
  1
36.5
 11
0.0000000000000001
 21
1.0
 31
0.0
 73
     1
 44
1.0
  0
POINT
  5
CD95
330
C14C
100
AcDbEntity
  8
Defpoints
 62
     0
100
AcDbPoint
 10
238.3939551833653
 20
150.2638707867023
 30
0.0
  0
POINT
  5
CD96
330
C14C
100
AcDbEntity
  8
Defpoints
 62
     0
100
AcDbPoint
 10
249.2513662574681
 20
113.7638707868769
 30
0.0
  0
POINT
  5
CD97
330
C14C
100
AcDbEntity
  8
Defpoints
 62
     0
100
AcDbPoint
 10
261.2513662574681
 20
113.7638707868769
 30
0.0
  0
ENDBLK
  5
C157
330
C14C
100
AcDbEntity
  8
0
100
AcDbBlockEnd
  0
BLOCK
  5
C162
330
C158
100
AcDbEntity
  8
0
100
AcDbBlockBegin
  2
*D11
 70
     1
 10
0.0
 20
0.0
 30
0.0
  3
*D11
  1

  0
LINE
  5
CD98
330
C158
100
AcDbEntity
  8
AM_5
100
AcDbLine
 10
250.2513662574681
 20
113.7638707868769
 30
0.0
 11
272.6054899300077
 21
113.7638707868769
 31
0.0
  0
LINE
  5
CD99
330
C158
100
AcDbEntity
  8
AM_5
100
AcDbLine
 10
246.7513662574827
 20
160.7638707868956
 30
0.0
 11
272.6054899300077
 21
160.7638707868956
 31
0.0
  0
LINE
  5
CD9A
330
C158
100
AcDbEntity
  8
AM_5
100
AcDbLine
 10
271.6054899300077
 20
114.7638707868769
 30
0.0
 11
271.6054899300078
 21
159.7638707868956
 31
0.0
  0
INSERT
  5
CD9B
330
C158
100
AcDbEntity
  8
AM_5
100
AcDbBlockReference
  2
_Dot
 10
271.6054899300077
 20
113.7638707868769
 30
0.0
 50
270.0
  0
INSERT
  5
CD9C
330
C158
100
AcDbEntity
  8
AM_5
100
AcDbBlockReference
  2
_Dot
 10
271.6054899300078
 20
160.7638707868956
 30
0.0
 50
90.0
  0
MTEXT
  5
CD9D
330
C158
100
AcDbEntity
  8
AM_5
 62
     2
100
AcDbMText
 10
268.5054899300077
 20
137.2044871479976
 30
0.0
 40
3.200000000000001
 41
0.0
 46
0.0
 71
     5
 72
     1
  1
47
 11
0.0000000000000001
 21
1.0
 31
0.0
 73
     1
 44
1.0
  0
POINT
  5
CD9E
330
C158
100
AcDbEntity
  8
Defpoints
 62
     0
100
AcDbPoint
 10
249.2513662574681
 20
113.7638707868769
 30
0.0
  0
POINT
  5
CD9F
330
C158
100
AcDbEntity
  8
Defpoints
 62
     0
100
AcDbPoint
 10
245.7513662574827
 20
160.7638707868956
 30
0.0
  0
POINT
  5
CDA0
330
C158
100
AcDbEntity
  8
Defpoints
 62
     0
100
AcDbPoint
 10
271.6054899300078
 20
160.7638707868956
 30
0.0
  0
ENDBLK
  5
C163
330
C158
100
AcDbEntity
  8
0
100
AcDbBlockEnd
  0
BLOCK
  5
C170
330
C164
100
AcDbEntity
  8
0
100
AcDbBlockBegin
  2
*D12
 70
     1
 10
0.0
 20
0.0
 30
0.0
  3
*D12
  1

  0
LINE
  5
CDA1
330
C164
100
AcDbEntity
  8
AM_5
100
AcDbLine
 10
250.2513662574681
 20
113.7638707868697
 30
0.0
 11
272.6054899300086
 21
113.7638707868697
 31
0.0
  0
LINE
  5
CDA2
330
C164
100
AcDbEntity
  8
AM_5
100
AcDbLine
 10
243.7513667498395
 20
108.7638707868974
 30
0.0
 11
272.6054899300086
 21
108.7638707868974
 31
0.0
  0
LINE
  5
CDA3
330
C164
100
AcDbEntity
  8
AM_5
100
AcDbLine
 10
271.6054899300086
 20
114.7638707868697
 30
0.0
 11
271.6054899300086
 21
115.7638707868697
 31
0.0
  0
LINE
  5
CDA4
330
C164
100
AcDbEntity
  8
AM_5
100
AcDbLine
 10
271.6054899300086
 20
107.7638707868974
 30
0.0
 11
271.6054899300086
 21
76.47853745356409
 31
0.0
  0
LINE
  5
CDA5
330
C164
100
AcDbEntity
  8
AM_5
100
AcDbLine
 10
271.6054899300086
 20
113.7638707868697
 30
0.0
 11
271.6054899300086
 21
108.7638707868974
 31
0.0
  0
INSERT
  5
CDA6
330
C164
100
AcDbEntity
  8
AM_5
100
AcDbBlockReference
  2
_Dot
 10
271.6054899300086
 20
113.7638707868697
 30
0.0
 50
270.0
  0
INSERT
  5
CDA7
330
C164
100
AcDbEntity
  8
AM_5
100
AcDbBlockReference
  2
_Dot
 10
271.6054899300086
 20
108.7638707868974
 30
0.0
 50
90.0
  0
MTEXT
  5
CDA8
330
C164
100
AcDbEntity
  8
AM_5
 62
     2
100
AcDbMText
 10
265.838823263342
 20
91.6212041202308
 30
0.0
 40
3.200000000000001
 41
0.0
 46
0.0
 71
     5
 72
     1
  1
上下調整量\P0（Min）～9（Max）
 11
0.0000000000000001
 21
1.0
 31
0.0
 73
     1
 44
1.0
  0
POINT
  5
CDA9
330
C164
100
AcDbEntity
  8
Defpoints
 62
     0
100
AcDbPoint
 10
249.2513662574681
 20
113.7638707868697
 30
0.0
  0
POINT
  5
CDAA
330
C164
100
AcDbEntity
  8
Defpoints
 62
     0
100
AcDbPoint
 10
242.7513667498395
 20
108.7638707868974
 30
0.0
  0
POINT
  5
CDAB
330
C164
100
AcDbEntity
  8
Defpoints
 62
     0
100
AcDbPoint
 10
271.6054899300086
 20
108.7638707868974
 30
0.0
  0
ENDBLK
  5
C171
330
C164
100
AcDbEntity
  8
0
100
AcDbBlockEnd
  0
BLOCK
  5
C17C
330
C172
100
AcDbEntity
  8
0
100
AcDbBlockBegin
  2
*D13
 70
     1
 10
0.0
 20
0.0
 30
0.0
  3
*D13
  1

  0
LINE
  5
C55F
330
C172
100
AcDbEntity
  8
AM_5
100
AcDbLine
 10
220.2513662574754
 20
91.69284028556409
 30
0.0
 11
220.2513662574754
 21
103.6928402855641
 31
0.0
  0
LINE
  5
C560
330
C172
100
AcDbEntity
  8
AM_5
100
AcDbLine
 10
245.2513662574754
 20
91.69284028556409
 30
0.0
 11
245.2513662574754
 21
103.6928402855641
 31
0.0
  0
LINE
  5
C561
330
C172
100
AcDbEntity
  8
AM_5
100
AcDbLine
 10
221.2513662574754
 20
102.6928402855641
 30
0.0
 11
244.2513662574754
 21
102.6928402855641
 31
0.0
  0
INSERT
  5
C562
330
C172
100
AcDbEntity
  8
AM_5
100
AcDbBlockReference
  2
_Dot
 10
220.2513662574754
 20
102.6928402855641
 30
0.0
 50
180.0
  0
INSERT
  5
C563
330
C172
100
AcDbEntity
  8
AM_5
100
AcDbBlockReference
  2
_Dot
 10
245.2513662574754
 20
102.6928402855641
 30
0.0
  0
MTEXT
  5
C564
330
C172
100
AcDbEntity
  8
AM_5
 62
     2
100
AcDbMText
 10
232.7513662574754
 20
105.7928402855641
 30
0.0
 40
3.200000000000001
 41
0.0
 46
0.0
 71
     5
 72
     1
  1
25
 73
     1
 44
1.0
  0
POINT
  5
C565
330
C172
100
AcDbEntity
  8
Defpoints
 62
     0
100
AcDbPoint
 10
220.2513662574754
 20
90.6928402855641
 30
0.0
  0
POINT
  5
C566
330
C172
100
AcDbEntity
  8
Defpoints
 62
     0
100
AcDbPoint
 10
245.2513662574754
 20
90.6928402855641
 30
0.0
  0
POINT
  5
C567
330
C172
100
AcDbEntity
  8
Defpoints
 62
     0
100
AcDbPoint
 10
245.2513662574754
 20
102.6928402855641
 30
0.0
  0
ENDBLK
  5
C17D
330
C172
100
AcDbEntity
  8
0
100
AcDbBlockEnd
  0
BLOCK
  5
C186
330
C17E
100
AcDbEntity
  8
0
100
AcDbBlockBegin
  2
*D14
 70
     1
 10
0.0
 20
0.0
 30
0.0
  3
*D14
  1

  0
LINE
  5
C88B
330
C17E
100
AcDbEntity
  8
AM_5
100
AcDbLine
 10
70.98453206706699
 20
-55.04761745306166
 30
0.0
 11
60.72809094644161
 21
-55.04761745306166
 31
0.0
  0
LINE
  5
C88C
330
C17E
100
AcDbEntity
  8
AM_5
100
AcDbLine
 10
70.64600582514003
 20
-22.04761745306166
 30
0.0
 11
60.72809094644162
 21
-22.04761745306166
 31
0.0
  0
LINE
  5
C88D
330
C17E
100
AcDbEntity
  8
AM_5
100
AcDbLine
 10
61.72809094644161
 20
-54.04761745306166
 30
0.0
 11
61.72809094644161
 21
-23.04761745306166
 31
0.0
  0
INSERT
  5
C88E
330
C17E
100
AcDbEntity
  8
AM_5
100
AcDbBlockReference
  2
_Dot
 10
61.72809094644161
 20
-55.04761745306166
 30
0.0
 50
270.0
  0
INSERT
  5
C88F
330
C17E
100
AcDbEntity
  8
AM_5
100
AcDbBlockReference
  2
_Dot
 10
61.72809094644161
 20
-22.04761745306166
 30
0.0
 50
90.0
  0
MTEXT
  5
C890
330
C17E
100
AcDbEntity
  8
AM_5
 62
     2
100
AcDbMText
 10
58.62809094644163
 20
-38.54761745306165
 30
0.0
 40
3.200000000000001
 41
0.0
 46
0.0
 71
     5
 72
     1
  1
（33）
 11
0.0000000000000001
 21
1.0
 31
0.0
 73
     1
 44
1.0
  0
POINT
  5
C891
330
C17E
100
AcDbEntity
  8
Defpoints
 62
     0
100
AcDbPoint
 10
71.98453206706699
 20
-55.04761745306166
 30
0.0
  0
POINT
  5
C892
330
C17E
100
AcDbEntity
  8
Defpoints
 62
     0
100
AcDbPoint
 10
71.64600582514004
 20
-22.04761745306166
 30
0.0
  0
POINT
  5
C893
330
C17E
100
AcDbEntity
  8
Defpoints
 62
     0
100
AcDbPoint
 10
61.72809094644161
 20
-22.04761745306166
 30
0.0
  0
ENDBLK
  5
C187
330
C17E
100
AcDbEntity
  8
0
100
AcDbBlockEnd
  0
BLOCK
  5
C18E
330
C188
100
AcDbEntity
  8
0
100
AcDbBlockBegin
  2
*D15
 70
     1
 10
0.0
 20
0.0
 30
0.0
  3
*D15
  1

  0
LINE
  5
C656
330
C188
100
AcDbEntity
  8
AM_5
100
AcDbLine
 10
76.99949642966797
 20
-15.79781535516413
 30
0.0
 11
88.01617065280323
 21
-31.55530260374549
 31
0.0
  0
MTEXT
  5
C657
330
C188
100
AcDbEntity
  8
AM_5
 62
     2
100
AcDbMText
 10
82.54807508229903
 20
-18.06210330848777
 30
0.0
 40
3.5
 41
0.0
 46
0.0
 71
     5
 72
     1
  1
（R8）
 11
0.5729886740430187
 21
-0.819563285792149
 31
0.0
 73
     1
 44
1.0
  0
INSERT
  5
C658
330
C188
100
AcDbEntity
  8
AM_5
100
AcDbBlockReference
  2
_OPEN30
 10
89.16214800088926
 20
-33.19442917532978
 30
0.0
 41
2.0
 42
2.0
 43
2.0
 50
304.958899147955
  0
POINT
  5
C659
330
C188
100
AcDbEntity
  8
Defpoints
 62
     0
100
AcDbPoint
 10
89.16214800088926
 20
-33.19442917532978
 30
0.0
  0
POINT
  5
C65A
330
C188
100
AcDbEntity
  8
Defpoints
 62
     0
100
AcDbPoint
 10
93.74605739323397
 20
-39.75093546166778
 30
0.0
  0
ENDBLK
  5
C18F
330
C188
100
AcDbEntity
  8
0
100
AcDbBlockEnd
  0
BLOCK
  5
C19B
330
C190
100
AcDbEntity
  8
0
100
AcDbBlockBegin
  2
*D16
 70
     1
 10
0.0
 20
0.0
 30
0.0
  3
*D16
  1

  0
LINE
  5
CCAE
330
C190
100
AcDbEntity
  8
AM_5
100
AcDbLine
 10
139.7460573932721
 20
-70.20599011086836
 30
0.0
 11
139.7460573932721
 21
-96.87154665658329
 31
0.0
  0
LINE
  5
CCAF
330
C190
100
AcDbEntity
  8
AM_5
100
AcDbLine
 10
132.2460573932649
 20
-79.87154665658329
 30
0.0
 11
132.2460573932649
 21
-96.87154665658329
 31
0.0
  0
LINE
  5
CCB0
330
C190
100
AcDbEntity
  8
AM_5
100
AcDbLine
 10
133.2460573932649
 20
-95.8715466565833
 30
0.0
 11
138.7460573932721
 21
-95.8715466565833
 31
0.0
  0
LINE
  5
CCB1
330
C190
100
AcDbEntity
  8
AM_5
100
AcDbLine
 10
139.7460573932721
 20
-95.8715466565833
 30
0.0
 11
148.4393907266055
 21
-95.8715466565833
 31
0.0
  0
INSERT
  5
CCB2
330
C190
100
AcDbEntity
  8
AM_5
100
AcDbBlockReference
  2
_Dot
 10
132.2460573932649
 20
-95.8715466565833
 30
0.0
 50
180.0
  0
INSERT
  5
CCB3
330
C190
100
AcDbEntity
  8
AM_5
100
AcDbBlockReference
  2
_Dot
 10
139.7460573932721
 20
-95.8715466565833
 30
0.0
  0
MTEXT
  5
CCB4
330
C190
100
AcDbEntity
  8
AM_5
 62
     2
100
AcDbMText
 10
144.5927240599388
 20
-92.77154665658329
 30
0.0
 40
3.200000000000001
 41
0.0
 46
0.0
 71
     5
 72
     1
  1
7.5
 73
     1
 44
1.0
  0
POINT
  5
CCB5
330
C190
100
AcDbEntity
  8
Defpoints
 62
     0
100
AcDbPoint
 10
139.7460573932721
 20
-69.20599011086835
 30
0.0
  0
POINT
  5
CCB6
330
C190
100
AcDbEntity
  8
Defpoints
 62
     0
100
AcDbPoint
 10
132.2460573932649
 20
-78.87154665658329
 30
0.0
  0
POINT
  5
CCB7
330
C190
100
AcDbEntity
  8
Defpoints
 62
     0
100
AcDbPoint
 10
132.2460573932649
 20
-95.8715466565833
 30
0.0
  0
ENDBLK
  5
C19C
330
C190
100
AcDbEntity
  8
0
100
AcDbBlockEnd
  0
BLOCK
  5
C1A7
330
C19D
100
AcDbEntity
  8
0
100
AcDbBlockBegin
  2
*D17
 70
     1
 10
0.0
 20
0.0
 30
0.0
  3
*D17
  1

  0
LINE
  5
CCB8
330
C19D
100
AcDbEntity
  8
AM_5
100
AcDbLine
 10
132.2460573932649
 20
-79.87154665658329
 30
0.0
 11
132.2460573932649
 21
-96.87154665658603
 31
0.0
  0
LINE
  5
CCB9
330
C19D
100
AcDbEntity
  8
AM_5
100
AcDbLine
 10
91.1460573932336
 20
-70.30599011086327
 30
0.0
 11
91.1460573932336
 21
-96.87154665658603
 31
0.0
  0
LINE
  5
CCBA
330
C19D
100
AcDbEntity
  8
AM_5
100
AcDbLine
 10
131.2460573932649
 20
-95.87154665658601
 30
0.0
 11
92.1460573932336
 21
-95.87154665658601
 31
0.0
  0
INSERT
  5
CCBB
330
C19D
100
AcDbEntity
  8
AM_5
100
AcDbBlockReference
  2
_Dot
 10
132.2460573932649
 20
-95.87154665658601
 30
0.0
  0
INSERT
  5
CCBC
330
C19D
100
AcDbEntity
  8
AM_5
100
AcDbBlockReference
  2
_Dot
 10
91.1460573932336
 20
-95.87154665658601
 30
0.0
 50
180.0
  0
MTEXT
  5
CCBD
330
C19D
100
AcDbEntity
  8
AM_5
 62
     2
100
AcDbMText
 10
111.6960573932492
 20
-92.77154665658603
 30
0.0
 40
3.200000000000001
 41
0.0
 46
0.0
 71
     5
 72
     1
  1
41.1
 73
     1
 44
1.0
  0
POINT
  5
CCBE
330
C19D
100
AcDbEntity
  8
Defpoints
 62
     0
100
AcDbPoint
 10
132.2460573932649
 20
-78.87154665658329
 30
0.0
  0
POINT
  5
CCBF
330
C19D
100
AcDbEntity
  8
Defpoints
 62
     0
100
AcDbPoint
 10
91.1460573932336
 20
-69.30599011086326
 30
0.0
  0
POINT
  5
CCC0
330
C19D
100
AcDbEntity
  8
Defpoints
 62
     0
100
AcDbPoint
 10
91.1460573932336
 20
-95.87154665658601
 30
0.0
  0
ENDBLK
  5
C1A8
330
C19D
100
AcDbEntity
  8
0
100
AcDbBlockEnd
  0
BLOCK
  5
C1B3
330
C1A9
100
AcDbEntity
  8
0
100
AcDbBlockBegin
  2
*D18
 70
     1
 10
0.0
 20
0.0
 30
0.0
  3
*D18
  1

  0
LINE
  5
CCC1
330
C1A9
100
AcDbEntity
  8
AM_5
100
AcDbLine
 10
137.729978115959
 20
-57.00599011086308
 30
0.0
 11
165.7280023149788
 21
-57.00599011086309
 31
0.0
  0
LINE
  5
CCC2
330
C1A9
100
AcDbEntity
  8
AM_5
100
AcDbLine
 10
137.729978115959
 20
-72.40599011086363
 30
0.0
 11
165.7280023149787
 21
-72.40599011086364
 31
0.0
  0
LINE
  5
CCC3
330
C1A9
100
AcDbEntity
  8
AM_5
100
AcDbLine
 10
164.7280023149788
 20
-58.00599011086308
 30
0.0
 11
164.7280023149787
 21
-71.40599011086364
 31
0.0
  0
INSERT
  5
CCC4
330
C1A9
100
AcDbEntity
  8
AM_5
100
AcDbBlockReference
  2
_Dot
 10
164.7280023149788
 20
-57.00599011086309
 30
0.0
 50
90.0
  0
INSERT
  5
CCC5
330
C1A9
100
AcDbEntity
  8
AM_5
100
AcDbBlockReference
  2
_Dot
 10
164.7280023149787
 20
-72.40599011086364
 30
0.0
 50
270.0
  0
MTEXT
  5
CCC6
330
C1A9
100
AcDbEntity
  8
AM_5
 62
     2
100
AcDbMText
 10
161.6280023149788
 20
-64.70599011086334
 30
0.0
 40
3.200000000000001
 41
0.0
 46
0.0
 71
     5
 72
     1
  1
15.4
 11
0.0000000000000001
 21
1.0
 31
0.0
 73
     1
 44
1.0
  0
POINT
  5
CCC7
330
C1A9
100
AcDbEntity
  8
Defpoints
 62
     0
100
AcDbPoint
 10
136.729978115959
 20
-57.00599011086308
 30
0.0
  0
POINT
  5
CCC8
330
C1A9
100
AcDbEntity
  8
Defpoints
 62
     0
100
AcDbPoint
 10
136.729978115959
 20
-72.40599011086363
 30
0.0
  0
POINT
  5
CCC9
330
C1A9
100
AcDbEntity
  8
Defpoints
 62
     0
100
AcDbPoint
 10
164.7280023149787
 20
-72.40599011086364
 30
0.0
  0
ENDBLK
  5
C1B4
330
C1A9
100
AcDbEntity
  8
0
100
AcDbBlockEnd
  0
BLOCK
  5
C1C1
330
C1B5
100
AcDbEntity
  8
0
100
AcDbBlockBegin
  2
*D19
 70
     1
 10
0.0
 20
0.0
 30
0.0
  3
*D19
  1

  0
LINE
  5
CDAC
330
C1B5
100
AcDbEntity
  8
AM_5
100
AcDbLine
 10
86.74605739327034
 20
101.7638707868806
 30
0.0
 11
75.94351728898712
 21
101.7638707868806
 31
0.0
  0
LINE
  5
CDAD
330
C1B5
100
AcDbEntity
  8
AM_5
100
AcDbLine
 10
89.50404238737428
 20
104.9638707868813
 30
0.0
 11
75.94351728898712
 21
104.9638707868813
 31
0.0
  0
LINE
  5
CDAE
330
C1B5
100
AcDbEntity
  8
AM_5
100
AcDbLine
 10
76.94351728898713
 20
105.9638707868813
 30
0.0
 11
76.94351728898713
 21
106.9638707868813
 31
0.0
  0
LINE
  5
CDAF
330
C1B5
100
AcDbEntity
  8
AM_5
100
AcDbLine
 10
76.94351728898713
 20
100.7638707868806
 30
0.0
 11
76.94351728898711
 21
92.07053745354723
 31
0.0
  0
LINE
  5
CDB0
330
C1B5
100
AcDbEntity
  8
AM_5
100
AcDbLine
 10
76.94351728898713
 20
104.9638707868813
 30
0.0
 11
76.94351728898713
 21
101.7638707868806
 31
0.0
  0
INSERT
  5
CDB1
330
C1B5
100
AcDbEntity
  8
AM_5
100
AcDbBlockReference
  2
_Dot
 10
76.94351728898713
 20
104.9638707868813
 30
0.0
 50
270.0
  0
INSERT
  5
CDB2
330
C1B5
100
AcDbEntity
  8
AM_5
100
AcDbBlockReference
  2
_Dot
 10
76.94351728898713
 20
101.7638707868806
 30
0.0
 50
90.0
  0
MTEXT
  5
CDB3
330
C1B5
100
AcDbEntity
  8
AM_5
 62
     2
100
AcDbMText
 10
73.8435172889871
 20
95.91720412021391
 30
0.0
 40
3.200000000000001
 41
0.0
 46
0.0
 71
     5
 72
     1
  1
3.2
 11
0.0000000000000001
 21
1.0
 31
0.0
 73
     1
 44
1.0
  0
POINT
  5
CDB4
330
C1B5
100
AcDbEntity
  8
Defpoints
 62
     0
100
AcDbPoint
 10
87.74605739327034
 20
101.7638707868806
 30
0.0
  0
POINT
  5
CDB5
330
C1B5
100
AcDbEntity
  8
Defpoints
 62
     0
100
AcDbPoint
 10
90.50404238737428
 20
104.9638707868813
 30
0.0
  0
POINT
  5
CDB6
330
C1B5
100
AcDbEntity
  8
Defpoints
 62
     0
100
AcDbPoint
 10
76.94351728898713
 20
104.9638707868813
 30
0.0
  0
ENDBLK
  5
C1C2
330
C1B5
100
AcDbEntity
  8
0
100
AcDbBlockEnd
  0
BLOCK
  5
C1CE
330
C1C3
100
AcDbEntity
  8
0
100
AcDbBlockBegin
  2
*D20
 70
     1
 10
0.0
 20
0.0
 30
0.0
  3
*D20
  1

  0
LINE
  5
CDB7
330
C1C3
100
AcDbEntity
  8
AM_5
100
AcDbLine
 10
138.7460573932703
 20
101.7638707868806
 30
0.0
 11
185.246057393294
 21
101.7638707868806
 31
0.0
  0
LINE
  5
CDB8
330
C1C3
100
AcDbEntity
  8
AM_5
100
AcDbLine
 10
150.2460573932694
 20
113.7638707868733
 30
0.0
 11
185.246057393294
 21
113.7638707868733
 31
0.0
  0
LINE
  5
CDB9
330
C1C3
100
AcDbEntity
  8
AM_5
100
AcDbLine
 10
184.246057393294
 20
112.7638707868733
 30
0.0
 11
184.246057393294
 21
102.7638707868806
 31
0.0
  0
LINE
  5
CDBA
330
C1C3
100
AcDbEntity
  8
AM_5
100
AcDbLine
 10
184.246057393294
 20
101.7638707868806
 30
0.0
 11
184.246057393294
 21
69.43320412021387
 31
0.0
  0
INSERT
  5
CDBB
330
C1C3
100
AcDbEntity
  8
AM_5
100
AcDbBlockReference
  2
_Dot
 10
184.246057393294
 20
113.7638707868733
 30
0.0
 50
90.0
  0
INSERT
  5
CDBC
330
C1C3
100
AcDbEntity
  8
AM_5
100
AcDbBlockReference
  2
_Dot
 10
184.246057393294
 20
101.7638707868806
 30
0.0
 50
270.0
  0
MTEXT
  5
CDBD
330
C1C3
100
AcDbEntity
  8
AM_5
 62
     2
100
AcDbMText
 10
178.4793907266273
 20
85.09853745354723
 30
0.0
 40
3.200000000000001
 41
0.0
 46
0.0
 71
     5
 72
     1
  1
床～扉 スキマ\P7～16 範囲まで対応可
 11
0.0000000000000001
 21
1.0
 31
0.0
 73
     1
 44
1.0
  0
POINT
  5
CDBE
330
C1C3
100
AcDbEntity
  8
Defpoints
 62
     0
100
AcDbPoint
 10
137.7460573932703
 20
101.7638707868806
 30
0.0
  0
POINT
  5
CDBF
330
C1C3
100
AcDbEntity
  8
Defpoints
 62
     0
100
AcDbPoint
 10
149.2460573932694
 20
113.7638707868733
 30
0.0
  0
POINT
  5
CDC0
330
C1C3
100
AcDbEntity
  8
Defpoints
 62
     0
100
AcDbPoint
 10
184.246057393294
 20
113.7638707868733
 30
0.0
  0
ENDBLK
  5
C1CF
330
C1C3
100
AcDbEntity
  8
0
100
AcDbBlockEnd
  0
BLOCK
  5
C1DA
330
C1D0
100
AcDbEntity
  8
0
100
AcDbBlockBegin
  2
*D21
 70
     1
 10
0.0
 20
0.0
 30
0.0
  3
*D21
  1

  0
LINE
  5
CDC1
330
C1D0
100
AcDbEntity
  8
AM_5
100
AcDbLine
 10
221.7513657651123
 20
108.7638707868942
 30
0.0
 11
221.7513657651123
 21
85.7638707868797
 31
0.0
  0
LINE
  5
CDC2
330
C1D0
100
AcDbEntity
  8
AM_5
100
AcDbLine
 10
243.7513667498395
 20
108.7638707869015
 30
0.0
 11
243.7513667498395
 21
85.7638707868797
 31
0.0
  0
LINE
  5
CDC3
330
C1D0
100
AcDbEntity
  8
AM_5
100
AcDbLine
 10
222.7513657651122
 20
86.76387078687969
 30
0.0
 11
242.7513667498395
 21
86.76387078687969
 31
0.0
  0
INSERT
  5
CDC4
330
C1D0
100
AcDbEntity
  8
AM_5
100
AcDbBlockReference
  2
_Dot
 10
221.7513657651123
 20
86.76387078687969
 30
0.0
 50
180.0
  0
INSERT
  5
CDC5
330
C1D0
100
AcDbEntity
  8
AM_5
100
AcDbBlockReference
  2
_Dot
 10
243.7513667498395
 20
86.76387078687969
 30
0.0
  0
MTEXT
  5
CDC6
330
C1D0
100
AcDbEntity
  8
AM_5
 62
     2
100
AcDbMText
 10
232.7513662574759
 20
89.86387078687968
 30
0.0
 40
3.200000000000001
 41
0.0
 46
0.0
 71
     5
 72
     1
  1
22
 73
     1
 44
1.0
  0
POINT
  5
CDC7
330
C1D0
100
AcDbEntity
  8
Defpoints
 62
     0
100
AcDbPoint
 10
221.7513657651123
 20
109.7638707868942
 30
0.0
  0
POINT
  5
CDC8
330
C1D0
100
AcDbEntity
  8
Defpoints
 62
     0
100
AcDbPoint
 10
243.7513667498395
 20
109.7638707869015
 30
0.0
  0
POINT
  5
CDC9
330
C1D0
100
AcDbEntity
  8
Defpoints
 62
     0
100
AcDbPoint
 10
243.7513667498395
 20
86.76387078687969
 30
0.0
  0
ENDBLK
  5
C1DB
330
C1D0
100
AcDbEntity
  8
0
100
AcDbBlockEnd
  0
BLOCK
  5
C1E6
330
C1DC
100
AcDbEntity
  8
0
100
AcDbBlockBegin
  2
*D22
 70
     1
 10
0.0
 20
0.0
 30
0.0
  3
*D22
  1

  0
LINE
  5
CC23
330
C1DC
100
AcDbEntity
  8
AM_5
100
AcDbLine
 10
178.7998194801191
 20
252.0815271934723
 30
0.0
 11
148.3663136152634
 21
252.0815271934723
 31
0.0
  0
LINE
  5
CC24
330
C1DC
100
AcDbEntity
  8
AM_5
100
AcDbLine
 10
178.7998194801191
 20
220.0815271934723
 30
0.0
 11
148.3663136152634
 21
220.0815271934723
 31
0.0
  0
LINE
  5
CC25
330
C1DC
100
AcDbEntity
  8
AM_5
100
AcDbLine
 10
149.3663136152633
 20
251.0815271934723
 30
0.0
 11
149.3663136152633
 21
221.0815271934723
 31
0.0
  0
INSERT
  5
CC26
330
C1DC
100
AcDbEntity
  8
AM_5
100
AcDbBlockReference
  2
_Dot
 10
149.3663136152633
 20
252.0815271934723
 30
0.0
 50
90.0
  0
INSERT
  5
CC27
330
C1DC
100
AcDbEntity
  8
AM_5
100
AcDbBlockReference
  2
_Dot
 10
149.3663136152633
 20
220.0815271934723
 30
0.0
 50
270.0
  0
MTEXT
  5
CC28
330
C1DC
100
AcDbEntity
  8
AM_5
 62
     2
100
AcDbMText
 10
146.2663136152633
 20
236.0815271934723
 30
0.0
 40
3.200000000000001
 41
0.0
 46
0.0
 71
     5
 72
     1
  1
32
 11
0.0000000000000001
 21
1.0
 31
0.0
 73
     1
 44
1.0
  0
POINT
  5
CC29
330
C1DC
100
AcDbEntity
  8
Defpoints
 62
     0
100
AcDbPoint
 10
179.7998194801191
 20
252.0815271934723
 30
0.0
  0
POINT
  5
CC2A
330
C1DC
100
AcDbEntity
  8
Defpoints
 62
     0
100
AcDbPoint
 10
179.7998194801191
 20
220.0815271934723
 30
0.0
  0
POINT
  5
CC2B
330
C1DC
100
AcDbEntity
  8
Defpoints
 62
     0
100
AcDbPoint
 10
149.3663136152633
 20
220.0815271934723
 30
0.0
  0
ENDBLK
  5
C1E7
330
C1DC
100
AcDbEntity
  8
0
100
AcDbBlockEnd
  0
BLOCK
  5
C1F4
330
C1E8
100
AcDbEntity
  8
0
100
AcDbBlockBegin
  2
*D23
 70
     1
 10
0.0
 20
0.0
 30
0.0
  3
*D23
  1

  0
LINE
  5
CC2C
330
C1E8
100
AcDbEntity
  8
AM_5
100
AcDbLine
 10
184.7998194801191
 20
205.0815271934723
 30
0.0
 11
184.7998194801191
 21
198.0815261834725
 31
0.0
  0
LINE
  5
CC2D
330
C1E8
100
AcDbEntity
  8
AM_5
100
AcDbLine
 10
183.7998194801191
 20
215.0815271934723
 30
0.0
 11
183.7998194801191
 21
198.0815261834725
 31
0.0
  0
LINE
  5
CC2E
330
C1E8
100
AcDbEntity
  8
AM_5
100
AcDbLine
 10
185.7998194801191
 20
199.0815261834725
 30
0.0
 11
186.7998194801191
 21
199.0815261834725
 31
0.0
  0
LINE
  5
CC2F
330
C1E8
100
AcDbEntity
  8
AM_5
100
AcDbLine
 10
182.7998194801191
 20
199.0815261834725
 30
0.0
 11
178.2664861467858
 21
199.0815261834725
 31
0.0
  0
LINE
  5
CC30
330
C1E8
100
AcDbEntity
  8
AM_5
100
AcDbLine
 10
184.7998194801191
 20
199.0815261834725
 30
0.0
 11
183.7998194801191
 21
199.0815261834725
 31
0.0
  0
INSERT
  5
CC31
330
C1E8
100
AcDbEntity
  8
AM_5
100
AcDbBlockReference
  2
_Dot
 10
184.7998194801191
 20
199.0815261834725
 30
0.0
 50
180.0
  0
INSERT
  5
CC32
330
C1E8
100
AcDbEntity
  8
AM_5
100
AcDbBlockReference
  2
_Dot
 10
183.7998194801191
 20
199.0815261834725
 30
0.0
  0
MTEXT
  5
CC33
330
C1E8
100
AcDbEntity
  8
AM_5
 62
     2
100
AcDbMText
 10
180.0331528134524
 20
202.1815261834725
 30
0.0
 40
3.200000000000001
 41
0.0
 46
0.0
 71
     5
 72
     1
  1
1
 73
     1
 44
1.0
  0
POINT
  5
CC34
330
C1E8
100
AcDbEntity
  8
Defpoints
 62
     0
100
AcDbPoint
 10
184.7998194801191
 20
206.0815271934723
 30
0.0
  0
POINT
  5
CC35
330
C1E8
100
AcDbEntity
  8
Defpoints
 62
     0
100
AcDbPoint
 10
183.7998194801191
 20
216.0815271934723
 30
0.0
  0
POINT
  5
CC36
330
C1E8
100
AcDbEntity
  8
Defpoints
 62
     0
100
AcDbPoint
 10
183.7998194801191
 20
199.0815261834725
 30
0.0
  0
ENDBLK
  5
C1F5
330
C1E8
100
AcDbEntity
  8
0
100
AcDbBlockEnd
  0
BLOCK
  5
C200
330
C1F6
100
AcDbEntity
  8
0
100
AcDbBlockBegin
  2
*D24
 70
     1
 10
0.0
 20
0.0
 30
0.0
  3
*D24
  1

  0
LINE
  5
CC37
330
C1F6
100
AcDbEntity
  8
AM_5
100
AcDbLine
 10
183.7998194801191
 20
261.0815271934723
 30
0.0
 11
138.3663136152652
 21
261.0815271934723
 31
0.0
  0
LINE
  5
CC38
330
C1F6
100
AcDbEntity
  8
AM_5
100
AcDbLine
 10
183.7998194801191
 20
211.0815271934723
 30
0.0
 11
138.3663136152652
 21
211.0815271934723
 31
0.0
  0
LINE
  5
CC39
330
C1F6
100
AcDbEntity
  8
AM_5
100
AcDbLine
 10
139.3663136152652
 20
260.0815271934723
 30
0.0
 11
139.3663136152652
 21
212.0815271934723
 31
0.0
  0
INSERT
  5
CC3A
330
C1F6
100
AcDbEntity
  8
AM_5
100
AcDbBlockReference
  2
_Dot
 10
139.3663136152652
 20
261.0815271934723
 30
0.0
 50
90.0
  0
INSERT
  5
CC3B
330
C1F6
100
AcDbEntity
  8
AM_5
100
AcDbBlockReference
  2
_Dot
 10
139.3663136152652
 20
211.0815271934723
 30
0.0
 50
270.0
  0
MTEXT
  5
CC3C
330
C1F6
100
AcDbEntity
  8
AM_5
 62
     2
100
AcDbMText
 10
136.2663136152651
 20
236.0815271934724
 30
0.0
 40
3.200000000000001
 41
0.0
 46
0.0
 71
     5
 72
     1
  1
%%c50
 11
0.0000000000000001
 21
1.0
 31
0.0
 73
     1
 44
1.0
  0
POINT
  5
CC3D
330
C1F6
100
AcDbEntity
  8
Defpoints
 62
     0
100
AcDbPoint
 10
184.7998194801191
 20
261.0815271934723
 30
0.0
  0
POINT
  5
CC3E
330
C1F6
100
AcDbEntity
  8
Defpoints
 62
     0
100
AcDbPoint
 10
184.7998194801191
 20
211.0815271934723
 30
0.0
  0
POINT
  5
CC3F
330
C1F6
100
AcDbEntity
  8
Defpoints
 62
     0
100
AcDbPoint
 10
139.3663136152652
 20
211.0815271934723
 30
0.0
  0
ENDBLK
  5
C201
330
C1F6
100
AcDbEntity
  8
0
100
AcDbBlockEnd
  0
BLOCK
  5
C20D
330
C202
100
AcDbEntity
  8
0
100
AcDbBlockBegin
  2
*D25
 70
     1
 10
0.0
 20
0.0
 30
0.0
  3
*D25
  1

  0
LINE
  5
CDCA
330
C202
100
AcDbEntity
  8
AM_5
100
AcDbLine
 10
126.2468640458573
 20
108.7638707868951
 30
0.0
 11
170.3190552438746
 21
108.7638707868951
 31
0.0
  0
LINE
  5
CDCB
330
C202
100
AcDbEntity
  8
AM_5
100
AcDbLine
 10
138.7460573932703
 20
101.7638707868806
 30
0.0
 11
170.3190552438746
 21
101.7638707868806
 31
0.0
  0
LINE
  5
CDCC
330
C202
100
AcDbEntity
  8
AM_5
100
AcDbLine
 10
169.3190552438746
 20
107.7638707868951
 30
0.0
 11
169.3190552438746
 21
102.7638707868806
 31
0.0
  0
LINE
  5
CDCD
330
C202
100
AcDbEntity
  8
AM_5
100
AcDbLine
 10
169.3190552438746
 20
101.7638707868806
 30
0.0
 11
169.3190552438746
 21
57.40875730548655
 31
0.0
  0
INSERT
  5
CDCE
330
C202
100
AcDbEntity
  8
AM_5
100
AcDbBlockReference
  2
_Dot
 10
169.3190552438746
 20
108.7638707868951
 30
0.0
 50
90.0
  0
INSERT
  5
CDCF
330
C202
100
AcDbEntity
  8
AM_5
100
AcDbBlockReference
  2
_Dot
 10
169.3190552438746
 20
101.7638707868806
 30
0.0
 50
270.0
  0
MTEXT
  5
CDD0
330
C202
100
AcDbEntity
  8
AM_5
 62
     2
100
AcDbMText
 10
160.8857219105412
 20
78.45009063881992
 30
0.0
 40
3.200000000000001
 41
0.0
 46
0.0
 71
     5
 72
     1
  1
床～マグネット本体底部\P7（推奨）\P（7～10mmに上下調整のこと）
 11
0.0000000000000001
 21
1.0
 31
0.0
 73
     1
 44
1.0
  0
POINT
  5
CDD1
330
C202
100
AcDbEntity
  8
Defpoints
 62
     0
100
AcDbPoint
 10
125.2468640458573
 20
108.7638707868951
 30
0.0
  0
POINT
  5
CDD2
330
C202
100
AcDbEntity
  8
Defpoints
 62
     0
100
AcDbPoint
 10
137.7460573932703
 20
101.7638707868806
 30
0.0
  0
POINT
  5
CDD3
330
C202
100
AcDbEntity
  8
Defpoints
 62
     0
100
AcDbPoint
 10
169.3190552438746
 20
101.7638707868806
 30
0.0
  0
ENDBLK
  5
C20E
330
C202
100
AcDbEntity
  8
0
100
AcDbBlockEnd
  0
BLOCK
  5
C74D
330
C743
100
AcDbEntity
  8
0
100
AcDbBlockBegin
  2
*D27
 70
     1
 10
0.0
 20
0.0
 30
0.0
  3
*D27
  1

  0
LINE
  5
C924
330
C743
100
AcDbEntity
  8
AM_5
100
AcDbLine
 10
150.7460573932735
 20
-34.54761745305984
 30
0.0
 11
165.7280023149787
 21
-34.54761745305984
 31
0.0
  0
LINE
  5
C925
330
C743
100
AcDbEntity
  8
AM_5
100
AcDbLine
 10
150.7460573932735
 20
-42.54761745305984
 30
0.0
 11
165.7280023149787
 21
-42.54761745305984
 31
0.0
  0
LINE
  5
C926
330
C743
100
AcDbEntity
  8
AM_5
100
AcDbLine
 10
164.7280023149787
 20
-35.54761745305984
 30
0.0
 11
164.7280023149787
 21
-41.54761745305984
 31
0.0
  0
INSERT
  5
C927
330
C743
100
AcDbEntity
  8
AM_5
100
AcDbBlockReference
  2
_Dot
 10
164.7280023149787
 20
-34.54761745305984
 30
0.0
 50
90.0
  0
INSERT
  5
C928
330
C743
100
AcDbEntity
  8
AM_5
100
AcDbBlockReference
  2
_Dot
 10
164.7280023149787
 20
-42.54761745305984
 30
0.0
 50
270.0
  0
MTEXT
  5
C929
330
C743
100
AcDbEntity
  8
AM_5
 62
     2
100
AcDbMText
 10
161.6280023149787
 20
-38.54761745305982
 30
0.0
 40
3.200000000000001
 41
0.0
 46
0.0
 71
     5
 72
     1
  1
%%c8
 11
0.0000000000000001
 21
1.0
 31
0.0
 73
     1
 44
1.0
  0
POINT
  5
C92A
330
C743
100
AcDbEntity
  8
Defpoints
 62
     0
100
AcDbPoint
 10
149.7460573932735
 20
-34.54761745305984
 30
0.0
  0
POINT
  5
C92B
330
C743
100
AcDbEntity
  8
Defpoints
 62
     0
100
AcDbPoint
 10
149.7460573932735
 20
-42.54761745305984
 30
0.0
  0
POINT
  5
C92C
330
C743
100
AcDbEntity
  8
Defpoints
 62
     0
100
AcDbPoint
 10
164.7280023149787
 20
-42.54761745305984
 30
0.0
  0
ENDBLK
  5
C74E
330
C743
100
AcDbEntity
  8
0
100
AcDbBlockEnd
  0
BLOCK
  5
C7AD
330
C7A3
100
AcDbEntity
  8
0
100
AcDbBlockBegin
  2
*D28
 70
     1
 10
0.0
 20
0.0
 30
0.0
  3
*D28
  1

  0
LINE
  5
CCCA
330
C7A3
100
AcDbEntity
  8
AM_5
100
AcDbLine
 10
139.7460573932735
 20
-59.20599011086335
 30
0.0
 11
139.7460573932735
 21
-35.20599011086517
 31
0.0
  0
LINE
  5
CCCB
330
C7A3
100
AcDbEntity
  8
AM_5
100
AcDbLine
 10
149.7460573932735
 20
-47.20599011086517
 30
0.0
 11
149.7460573932735
 21
-35.20599011086517
 31
0.0
  0
LINE
  5
CCCC
330
C7A3
100
AcDbEntity
  8
AM_5
100
AcDbLine
 10
140.7460573932735
 20
-36.20599011086517
 30
0.0
 11
148.7460573932735
 21
-36.20599011086517
 31
0.0
  0
INSERT
  5
CCCD
330
C7A3
100
AcDbEntity
  8
AM_5
100
AcDbBlockReference
  2
_Dot
 10
139.7460573932735
 20
-36.20599011086517
 30
0.0
 50
180.0
  0
INSERT
  5
CCCE
330
C7A3
100
AcDbEntity
  8
AM_5
100
AcDbBlockReference
  2
_Dot
 10
149.7460573932735
 20
-36.20599011086517
 30
0.0
  0
MTEXT
  5
CCCF
330
C7A3
100
AcDbEntity
  8
AM_5
 62
     2
100
AcDbMText
 10
144.7460573932735
 20
-33.10599011086517
 30
0.0
 40
3.200000000000001
 41
0.0
 46
0.0
 71
     5
 72
     1
  1
10
 73
     1
 44
1.0
  0
POINT
  5
CCD0
330
C7A3
100
AcDbEntity
  8
Defpoints
 62
     0
100
AcDbPoint
 10
139.7460573932735
 20
-60.20599011086336
 30
0.0
  0
POINT
  5
CCD1
330
C7A3
100
AcDbEntity
  8
Defpoints
 62
     0
100
AcDbPoint
 10
149.7460573932735
 20
-48.20599011086518
 30
0.0
  0
POINT
  5
CCD2
330
C7A3
100
AcDbEntity
  8
Defpoints
 62
     0
100
AcDbPoint
 10
149.7460573932735
 20
-36.20599011086517
 30
0.0
  0
ENDBLK
  5
C7AE
330
C7A3
100
AcDbEntity
  8
0
100
AcDbBlockEnd
  0
BLOCK
  5
C7C3
330
C7B9
100
AcDbEntity
  8
0
100
AcDbBlockBegin
  2
*D29
 70
     1
 10
0.0
 20
0.0
 30
0.0
  3
*D29
  1

  0
LINE
  5
CCD3
330
C7B9
100
AcDbEntity
  8
AM_5
100
AcDbLine
 10
139.7460573932735
 20
-59.20599011086335
 30
0.0
 11
139.7460573932735
 21
-35.20598911086517
 31
0.0
  0
LINE
  5
CCD4
330
C7B9
100
AcDbEntity
  8
AM_5
100
AcDbLine
 10
85.74605739326079
 20
-59.20599011085608
 30
0.0
 11
85.74605739326079
 21
-35.20598911086517
 31
0.0
  0
LINE
  5
CCD5
330
C7B9
100
AcDbEntity
  8
AM_5
100
AcDbLine
 10
138.7460573932735
 20
-36.20598911086517
 30
0.0
 11
86.7460573932608
 21
-36.20598911086517
 31
0.0
  0
INSERT
  5
CCD6
330
C7B9
100
AcDbEntity
  8
AM_5
100
AcDbBlockReference
  2
_Dot
 10
139.7460573932735
 20
-36.20598911086517
 30
0.0
  0
INSERT
  5
CCD7
330
C7B9
100
AcDbEntity
  8
AM_5
100
AcDbBlockReference
  2
_Dot
 10
85.74605739326079
 20
-36.20598911086517
 30
0.0
 50
180.0
  0
MTEXT
  5
CCD8
330
C7B9
100
AcDbEntity
  8
AM_5
 62
     2
100
AcDbMText
 10
112.7460573932671
 20
-33.10598911086517
 30
0.0
 40
3.200000000000001
 41
0.0
 46
0.0
 71
     5
 72
     1
  1
54
 73
     1
 44
1.0
  0
POINT
  5
CCD9
330
C7B9
100
AcDbEntity
  8
Defpoints
 62
     0
100
AcDbPoint
 10
139.7460573932735
 20
-60.20599011086336
 30
0.0
  0
POINT
  5
CCDA
330
C7B9
100
AcDbEntity
  8
Defpoints
 62
     0
100
AcDbPoint
 10
85.74605739326079
 20
-60.20599011085607
 30
0.0
  0
POINT
  5
CCDB
330
C7B9
100
AcDbEntity
  8
Defpoints
 62
     0
100
AcDbPoint
 10
85.74605739326079
 20
-36.20598911086517
 30
0.0
  0
ENDBLK
  5
C7C4
330
C7B9
100
AcDbEntity
  8
0
100
AcDbBlockEnd
  0
BLOCK
  5
C7D5
330
C7CF
100
AcDbEntity
  8
0
100
AcDbBlockBegin
  2
*D30
 70
     1
 10
0.0
 20
0.0
 30
0.0
  3
*D30
  1

  0
LINE
  5
CD7C
330
C7CF
100
AcDbEntity
  8
AM_5
100
AcDbLine
 10
75.75406132275436
 20
-100.4568674286075
 30
0.0
 11
88.75660732592484
 21
-77.87232659325127
 31
0.0
  0
MTEXT
  5
CD7D
330
C7CF
100
AcDbEntity
  8
AM_5
 62
     2
100
AcDbMText
 10
77.06793504670113
 20
-91.6610139387351
 30
0.0
 40
3.5
 41
0.0
 46
0.0
 71
     5
 72
     1
  1
4-（R8）
 11
0.4989450067308653
 21
0.8666336482380179
 31
0.0
 73
     1
 44
1.0
  0
INSERT
  5
CD7E
330
C7CF
100
AcDbEntity
  8
AM_5
100
AcDbBlockReference
  2
_OPEN30
 10
89.75449733938658
 20
-76.13905929677523
 30
0.0
 41
2.0
 42
2.0
 43
2.0
 50
60.06977328193393
  0
POINT
  5
CD7F
330
C7CF
100
AcDbEntity
  8
Defpoints
 62
     0
100
AcDbPoint
 10
89.75449733938658
 20
-76.13905929677523
 30
0.0
  0
POINT
  5
CD80
330
C7CF
100
AcDbEntity
  8
Defpoints
 62
     0
100
AcDbPoint
 10
93.74605739323397
 20
-69.20599011087024
 30
0.0
  0
ENDBLK
  5
C7D6
330
C7CF
100
AcDbEntity
  8
0
100
AcDbBlockEnd
  0
BLOCK
  5
C7E7
330
C7DD
100
AcDbEntity
  8
0
100
AcDbBlockBegin
  2
*D31
 70
     1
 10
0.0
 20
0.0
 30
0.0
  3
*D31
  1

  0
LINE
  5
C7E9
330
C7DD
100
AcDbEntity
  8
AM_5
100
AcDbLine
 10
132.7460573932735
 20
-31.75093546167102
 30
0.0
 11
184.7280023149787
 21
-31.75093546167104
 31
0.0
  0
LINE
  5
C7EA
330
C7DD
100
AcDbEntity
  8
AM_5
100
AcDbLine
 10
132.7460573932735
 20
-56.75093546167011
 30
0.0
 11
184.7280023149787
 21
-56.75093546167012
 31
0.0
  0
LINE
  5
C7EB
330
C7DD
100
AcDbEntity
  8
AM_5
100
AcDbLine
 10
183.7280023149787
 20
-32.75093546167104
 30
0.0
 11
183.7280023149787
 21
-55.75093546167012
 31
0.0
  0
INSERT
  5
C7EC
330
C7DD
100
AcDbEntity
  8
AM_5
100
AcDbBlockReference
  2
_Dot
 10
183.7280023149787
 20
-31.75093546167103
 30
0.0
 50
90.0
  0
INSERT
  5
C7ED
330
C7DD
100
AcDbEntity
  8
AM_5
100
AcDbBlockReference
  2
_Dot
 10
183.7280023149787
 20
-56.75093546167012
 30
0.0
 50
270.0
  0
MTEXT
  5
C7EE
330
C7DD
100
AcDbEntity
  8
AM_5
 62
     2
100
AcDbMText
 10
180.6280023149787
 20
-44.25093546167055
 30
0.0
 40
3.200000000000001
 41
0.0
 46
0.0
 71
     5
 72
     1
  1
25
 11
0.0000000000000001
 21
1.0
 31
0.0
 73
     1
 44
1.0
  0
POINT
  5
C7EF
330
C7DD
100
AcDbEntity
  8
Defpoints
 62
     0
100
AcDbPoint
 10
131.7460573932735
 20
-31.75093546167102
 30
0.0
  0
POINT
  5
C7F0
330
C7DD
100
AcDbEntity
  8
Defpoints
 62
     0
100
AcDbPoint
 10
131.7460573932735
 20
-56.75093546167011
 30
0.0
  0
POINT
  5
C7F1
330
C7DD
100
AcDbEntity
  8
Defpoints
 62
     0
100
AcDbPoint
 10
183.7280023149787
 20
-56.75093546167012
 30
0.0
  0
ENDBLK
  5
C7E8
330
C7DD
100
AcDbEntity
  8
0
100
AcDbBlockEnd
  0
BLOCK
  5
C7FD
330
C7F3
100
AcDbEntity
  8
0
100
AcDbBlockBegin
  2
*D32
 70
     1
 10
0.0
 20
0.0
 30
0.0
  3
*D32
  1

  0
LINE
  5
CCE1
330
C7F3
100
AcDbEntity
  8
AM_5
100
AcDbLine
 10
92.7460573932608
 20
-52.20599011086335
 30
0.0
 11
74.76886754596446
 21
-52.20599011086335
 31
0.0
  0
LINE
  5
CCE2
330
C7F3
100
AcDbEntity
  8
AM_5
100
AcDbLine
 10
92.74605739325352
 20
-77.20599011084971
 30
0.0
 11
74.76886754596446
 21
-77.20599011084971
 31
0.0
  0
LINE
  5
CCE3
330
C7F3
100
AcDbEntity
  8
AM_5
100
AcDbLine
 10
75.76886754596445
 20
-53.20599011086335
 30
0.0
 11
75.76886754596445
 21
-76.20599011084971
 31
0.0
  0
INSERT
  5
CCE4
330
C7F3
100
AcDbEntity
  8
AM_5
100
AcDbBlockReference
  2
_Dot
 10
75.76886754596445
 20
-52.20599011086335
 30
0.0
 50
90.0
  0
INSERT
  5
CCE5
330
C7F3
100
AcDbEntity
  8
AM_5
100
AcDbBlockReference
  2
_Dot
 10
75.76886754596445
 20
-77.20599011084971
 30
0.0
 50
270.0
  0
MTEXT
  5
CCE6
330
C7F3
100
AcDbEntity
  8
AM_5
 62
     2
100
AcDbMText
 10
72.66886754596447
 20
-64.70599011085652
 30
0.0
 40
3.200000000000001
 41
0.0
 46
0.0
 71
     5
 72
     1
  1
25
 11
0.0000000000000001
 21
1.0
 31
0.0
 73
     1
 44
1.0
  0
POINT
  5
CCE7
330
C7F3
100
AcDbEntity
  8
Defpoints
 62
     0
100
AcDbPoint
 10
93.7460573932608
 20
-52.20599011086335
 30
0.0
  0
POINT
  5
CCE8
330
C7F3
100
AcDbEntity
  8
Defpoints
 62
     0
100
AcDbPoint
 10
93.74605739325351
 20
-77.20599011084971
 30
0.0
  0
POINT
  5
CCE9
330
C7F3
100
AcDbEntity
  8
Defpoints
 62
     0
100
AcDbPoint
 10
75.76886754596445
 20
-77.20599011084971
 30
0.0
  0
ENDBLK
  5
C7FE
330
C7F3
100
AcDbEntity
  8
0
100
AcDbBlockEnd
  0
BLOCK
  5
C8E4
330
C8DA
100
AcDbEntity
  8
0
100
AcDbBlockBegin
  2
*D33
 70
     1
 10
0.0
 20
0.0
 30
0.0
  3
*D33
  1

  0
LINE
  5
CD0F
330
C8DA
100
AcDbEntity
  8
AM_5
100
AcDbLine
 10
249.2513662574606
 20
-25.05100983195203
 30
0.0
 11
249.2513662574606
 21
-36.93029336953618
 31
0.0
  0
LINE
  5
CD10
330
C8DA
100
AcDbEntity
  8
AM_5
100
AcDbLine
 10
216.2513662574774
 20
-25.05100983194842
 30
0.0
 11
216.2513662574774
 21
-36.93029336953618
 31
0.0
  0
LINE
  5
CD11
330
C8DA
100
AcDbEntity
  8
AM_5
100
AcDbLine
 10
248.2513662574605
 20
-35.93029336953617
 30
0.0
 11
217.2513662574774
 21
-35.93029336953617
 31
0.0
  0
INSERT
  5
CD12
330
C8DA
100
AcDbEntity
  8
AM_5
100
AcDbBlockReference
  2
_Dot
 10
249.2513662574606
 20
-35.93029336953617
 30
0.0
  0
INSERT
  5
CD13
330
C8DA
100
AcDbEntity
  8
AM_5
100
AcDbBlockReference
  2
_Dot
 10
216.2513662574774
 20
-35.93029336953617
 30
0.0
 50
180.0
  0
MTEXT
  5
CD14
330
C8DA
100
AcDbEntity
  8
AM_5
 62
     2
100
AcDbMText
 10
231.9143213875941
 20
-32.83029336953617
 30
0.0
 40
3.200000000000001
 41
0.0
 46
0.0
 71
     5
 72
     1
  1
Dt
 73
     1
 44
1.0
  0
POINT
  5
CD15
330
C8DA
100
AcDbEntity
  8
Defpoints
 62
     0
100
AcDbPoint
 10
249.2513662574606
 20
-24.05100983195203
 30
0.0
  0
POINT
  5
CD16
330
C8DA
100
AcDbEntity
  8
Defpoints
 62
     0
100
AcDbPoint
 10
216.2513662574774
 20
-24.05100983194842
 30
0.0
  0
POINT
  5
CD17
330
C8DA
100
AcDbEntity
  8
Defpoints
 62
     0
100
AcDbPoint
 10
216.2513662574774
 20
-35.93029336953617
 30
0.0
  0
ENDBLK
  5
C8E5
330
C8DA
100
AcDbEntity
  8
0
100
AcDbBlockEnd
  0
BLOCK
  5
C938
330
C92E
100
AcDbEntity
  8
0
100
AcDbBlockBegin
  2
*D34
 70
     1
 10
0.0
 20
0.0
 30
0.0
  3
*D34
  1

  0
LINE
  5
CDD4
330
C92E
100
AcDbEntity
  8
AM_5
100
AcDbLine
 10
139.2460573932867
 20
161.2638707868756
 30
0.0
 11
139.2460573932867
 21
171.8200319745355
 31
0.0
  0
LINE
  5
CDD5
330
C92E
100
AcDbEntity
  8
AM_5
100
AcDbLine
 10
85.24605739327126
 20
161.2638707868756
 30
0.0
 11
85.24605739327126
 21
171.8200319745355
 31
0.0
  0
LINE
  5
CDD6
330
C92E
100
AcDbEntity
  8
AM_5
100
AcDbLine
 10
138.2460573932867
 20
170.8200319745355
 30
0.0
 11
86.24605739327126
 21
170.8200319745355
 31
0.0
  0
INSERT
  5
CDD7
330
C92E
100
AcDbEntity
  8
AM_5
100
AcDbBlockReference
  2
_Dot
 10
139.2460573932867
 20
170.8200319745355
 30
0.0
  0
INSERT
  5
CDD8
330
C92E
100
AcDbEntity
  8
AM_5
100
AcDbBlockReference
  2
_Dot
 10
85.24605739327126
 20
170.8200319745355
 30
0.0
 50
180.0
  0
MTEXT
  5
CDD9
330
C92E
100
AcDbEntity
  8
AM_5
 62
     2
100
AcDbMText
 10
112.246057393279
 20
173.9200319745354
 30
0.0
 40
3.200000000000001
 41
0.0
 46
0.0
 71
     5
 72
     1
  1
54
 73
     1
 44
1.0
  0
POINT
  5
CDDA
330
C92E
100
AcDbEntity
  8
Defpoints
 62
     0
100
AcDbPoint
 10
139.2460573932867
 20
160.2638707868756
 30
0.0
  0
POINT
  5
CDDB
330
C92E
100
AcDbEntity
  8
Defpoints
 62
     0
100
AcDbPoint
 10
85.24605739327126
 20
160.2638707868756
 30
0.0
  0
POINT
  5
CDDC
330
C92E
100
AcDbEntity
  8
Defpoints
 62
     0
100
AcDbPoint
 10
85.24605739327126
 20
170.8200319745355
 30
0.0
  0
ENDBLK
  5
C939
330
C92E
100
AcDbEntity
  8
0
100
AcDbBlockEnd
  0
BLOCK
  5
C962
330
C958
100
AcDbEntity
  8
0
100
AcDbBlockBegin
  2
*D35
 70
     1
 10
0.0
 20
0.0
 30
0.0
  3
*D35
  1

  0
LINE
  5
CDDD
330
C958
100
AcDbEntity
  8
AM_5
100
AcDbLine
 10
245.2513662574754
 20
161.2638707866937
 30
0.0
 11
245.2513662574754
 21
171.8200319745354
 31
0.0
  0
LINE
  5
CDDE
330
C958
100
AcDbEntity
  8
AM_5
100
AcDbLine
 10
220.2513662574754
 20
161.2638707866898
 30
0.0
 11
220.2513662574754
 21
171.8200319745354
 31
0.0
  0
LINE
  5
CDDF
330
C958
100
AcDbEntity
  8
AM_5
100
AcDbLine
 10
244.2513662574754
 20
170.8200319745354
 30
0.0
 11
221.2513662574754
 21
170.8200319745354
 31
0.0
  0
INSERT
  5
CDE0
330
C958
100
AcDbEntity
  8
AM_5
100
AcDbBlockReference
  2
_Dot
 10
245.2513662574754
 20
170.8200319745354
 30
0.0
  0
INSERT
  5
CDE1
330
C958
100
AcDbEntity
  8
AM_5
100
AcDbBlockReference
  2
_Dot
 10
220.2513662574754
 20
170.8200319745354
 30
0.0
 50
180.0
  0
MTEXT
  5
CDE2
330
C958
100
AcDbEntity
  8
AM_5
 62
     2
100
AcDbMText
 10
232.7513662574754
 20
173.9200319745354
 30
0.0
 40
3.200000000000001
 41
0.0
 46
0.0
 71
     5
 72
     1
  1
25
 73
     1
 44
1.0
  0
POINT
  5
CDE3
330
C958
100
AcDbEntity
  8
Defpoints
 62
     0
100
AcDbPoint
 10
245.2513662574754
 20
160.2638707866937
 30
0.0
  0
POINT
  5
CDE4
330
C958
100
AcDbEntity
  8
Defpoints
 62
     0
100
AcDbPoint
 10
220.2513662574754
 20
160.2638707866898
 30
0.0
  0
POINT
  5
CDE5
330
C958
100
AcDbEntity
  8
Defpoints
 62
     0
100
AcDbPoint
 10
220.2513662574754
 20
170.8200319745354
 30
0.0
  0
ENDBLK
  5
C963
330
C958
100
AcDbEntity
  8
0
100
AcDbBlockEnd
  0
BLOCK
  5
C982
330
C978
100
AcDbEntity
  8
0
100
AcDbBlockBegin
  2
*D36
 70
     1
 10
0.0
 20
0.0
 30
0.0
  3
*D36
  1

  0
LINE
  5
C984
330
C978
100
AcDbEntity
  8
AM_5
100
AcDbLine
 10
237.2513662574763
 20
242.5839206327659
 30
0.0
 11
262.6054899300077
 21
242.5839206327659
 31
0.0
  0
LINE
  5
C985
330
C978
100
AcDbEntity
  8
AM_5
100
AcDbLine
 10
237.2513662574763
 20
188.5839206327276
 30
0.0
 11
262.6054899300077
 21
188.5839206327276
 31
0.0
  0
LINE
  5
C986
330
C978
100
AcDbEntity
  8
AM_5
100
AcDbLine
 10
261.6054899300077
 20
241.5839206327659
 30
0.0
 11
261.6054899300077
 21
189.5839206327276
 31
0.0
  0
INSERT
  5
C987
330
C978
100
AcDbEntity
  8
AM_5
100
AcDbBlockReference
  2
_Dot
 10
261.6054899300077
 20
242.5839206327659
 30
0.0
 50
90.0
  0
INSERT
  5
C988
330
C978
100
AcDbEntity
  8
AM_5
100
AcDbBlockReference
  2
_Dot
 10
261.6054899300077
 20
188.5839206327276
 30
0.0
 50
270.0
  0
MTEXT
  5
C989
330
C978
100
AcDbEntity
  8
AM_5
 62
     2
100
AcDbMText
 10
258.5054899300076
 20
215.5839206327468
 30
0.0
 40
3.200000000000001
 41
0.0
 46
0.0
 71
     5
 72
     1
  1
54
 11
0.0000000000000001
 21
1.0
 31
0.0
 73
     1
 44
1.0
  0
POINT
  5
C98A
330
C978
100
AcDbEntity
  8
Defpoints
 62
     0
100
AcDbPoint
 10
236.2513662574763
 20
242.5839206327659
 30
0.0
  0
POINT
  5
C98B
330
C978
100
AcDbEntity
  8
Defpoints
 62
     0
100
AcDbPoint
 10
236.2513662574763
 20
188.5839206327276
 30
0.0
  0
POINT
  5
C98C
330
C978
100
AcDbEntity
  8
Defpoints
 62
     0
100
AcDbPoint
 10
261.6054899300077
 20
188.5839206327276
 30
0.0
  0
ENDBLK
  5
C983
330
C978
100
AcDbEntity
  8
0
100
AcDbBlockEnd
  0
BLOCK
  5
C9A2
330
C99C
100
AcDbEntity
  8
0
100
AcDbBlockBegin
  2
*D38
 70
     1
 10
0.0
 20
0.0
 30
0.0
  3
*D38
  1

  0
LINE
  5
CD18
330
C99C
100
AcDbEntity
  8
AM_5
100
AcDbLine
 10
244.9784795522703
 20
32.90608942817036
 30
0.0
 11
235.8296089007591
 21
17.59917678865145
 31
0.0
  0
MTEXT
  5
CD19
330
C99C
100
AcDbEntity
  8
AM_5
 62
     2
100
AcDbMText
 10
240.4316316237855
 20
31.63357266394543
 30
0.0
 40
3.5
 41
0.0
 46
0.0
 71
     5
 72
     1
  1
∅8
 11
0.5130404405541784
 21
0.8583644367959186
 31
0.0
 73
     1
 44
1.0
  0
INSERT
  5
CD1A
330
C99C
100
AcDbEntity
  8
AM_5
100
AcDbBlockReference
  2
_OPEN30
 10
234.8035280196508
 20
15.88244791505961
 30
0.0
 41
2.0
 42
2.0
 43
2.0
 50
239.1334349733895
  0
POINT
  5
CD1B
330
C99C
100
AcDbEntity
  8
Defpoints
 62
     0
100
AcDbPoint
 10
234.8035280196508
 20
15.88244791505961
 30
0.0
  0
POINT
  5
CD1C
330
C99C
100
AcDbEntity
  8
Defpoints
 62
     0
100
AcDbPoint
 10
230.6992044952183
 20
9.015532420693986
 30
0.0
  0
ENDBLK
  5
C9A3
330
C99C
100
AcDbEntity
  8
0
100
AcDbBlockEnd
  0
BLOCK
  5
C9E7
330
C9DD
100
AcDbEntity
  8
0
100
AcDbBlockBegin
  2
*D39
 70
     1
 10
0.0
 20
0.0
 30
0.0
  3
*D39
  1

  0
LINE
  5
CD1D
330
C9DD
100
AcDbEntity
  8
AM_5
100
AcDbLine
 10
250.2513662574605
 20
-24.05100983195203
 30
0.0
 11
264.9169228031896
 21
-24.05100983195203
 31
0.0
  0
LINE
  5
CD1E
330
C9DD
100
AcDbEntity
  8
AM_5
100
AcDbLine
 10
246.7513662574751
 20
22.94899016806661
 30
0.0
 11
264.9169228031896
 21
22.94899016806661
 31
0.0
  0
LINE
  5
CD1F
330
C9DD
100
AcDbEntity
  8
AM_5
100
AcDbLine
 10
263.9169228031895
 20
-23.05100983195203
 30
0.0
 11
263.9169228031895
 21
21.94899016806661
 31
0.0
  0
INSERT
  5
CD20
330
C9DD
100
AcDbEntity
  8
AM_5
100
AcDbBlockReference
  2
_Dot
 10
263.9169228031895
 20
-24.05100983195203
 30
0.0
 50
270.0
  0
INSERT
  5
CD21
330
C9DD
100
AcDbEntity
  8
AM_5
100
AcDbBlockReference
  2
_Dot
 10
263.9169228031895
 20
22.94899016806661
 30
0.0
 50
90.0
  0
MTEXT
  5
CD22
330
C9DD
100
AcDbEntity
  8
AM_5
 62
     2
100
AcDbMText
 10
260.8169228031895
 20
-0.610393470831411
 30
0.0
 40
3.200000000000001
 41
0.0
 46
0.0
 71
     5
 72
     1
  1
47（掘込）
 11
0.0000000000000001
 21
1.0
 31
0.0
 73
     1
 44
1.0
  0
POINT
  5
CD23
330
C9DD
100
AcDbEntity
  8
Defpoints
 62
     0
100
AcDbPoint
 10
249.2513662574606
 20
-24.05100983195203
 30
0.0
  0
POINT
  5
CD24
330
C9DD
100
AcDbEntity
  8
Defpoints
 62
     0
100
AcDbPoint
 10
245.7513662574751
 20
22.94899016806661
 30
0.0
  0
POINT
  5
CD25
330
C9DD
100
AcDbEntity
  8
Defpoints
 62
     0
100
AcDbPoint
 10
263.9169228031895
 20
22.94899016806661
 30
0.0
  0
ENDBLK
  5
C9E8
330
C9DD
100
AcDbEntity
  8
0
100
AcDbBlockEnd
  0
BLOCK
  5
CA1A
330
CA10
100
AcDbEntity
  8
0
100
AcDbBlockBegin
  2
*D40
 70
     1
 10
0.0
 20
0.0
 30
0.0
  3
*D40
  1

  0
LINE
  5
CD26
330
CA10
100
AcDbEntity
  8
AM_5
100
AcDbLine
 10
215.2513662574751
 20
-24.05100983194842
 30
0.0
 11
203.2513662574714
 21
-24.05100983194842
 31
0.0
  0
LINE
  5
CD27
330
CA10
100
AcDbEntity
  8
AM_5
100
AcDbLine
 10
226.1087773315852
 20
12.44899016787332
 30
0.0
 11
203.2513662574714
 21
12.44899016787332
 31
0.0
  0
LINE
  5
CD28
330
CA10
100
AcDbEntity
  8
AM_5
100
AcDbLine
 10
204.2513662574715
 20
-23.05100983194842
 30
0.0
 11
204.2513662574715
 21
11.44899016787332
 31
0.0
  0
INSERT
  5
CD29
330
CA10
100
AcDbEntity
  8
AM_5
100
AcDbBlockReference
  2
_Dot
 10
204.2513662574715
 20
-24.05100983194842
 30
0.0
 50
270.0
  0
INSERT
  5
CD2A
330
CA10
100
AcDbEntity
  8
AM_5
100
AcDbBlockReference
  2
_Dot
 10
204.2513662574715
 20
12.44899016787332
 30
0.0
 50
90.0
  0
MTEXT
  5
CD2B
330
CA10
100
AcDbEntity
  8
AM_5
 62
     2
100
AcDbMText
 10
201.1513662574714
 20
-5.801009832037512
 30
0.0
 40
3.200000000000001
 41
0.0
 46
0.0
 71
     5
 72
     1
  1
36.5
 11
0.0000000000000001
 21
1.0
 31
0.0
 73
     1
 44
1.0
  0
POINT
  5
CD2C
330
CA10
100
AcDbEntity
  8
Defpoints
 62
     0
100
AcDbPoint
 10
216.2513662574751
 20
-24.05100983194842
 30
0.0
  0
POINT
  5
CD2D
330
CA10
100
AcDbEntity
  8
Defpoints
 62
     0
100
AcDbPoint
 10
227.1087773315852
 20
12.44899016787332
 30
0.0
  0
POINT
  5
CD2E
330
CA10
100
AcDbEntity
  8
Defpoints
 62
     0
100
AcDbPoint
 10
204.2513662574715
 20
12.44899016787332
 30
0.0
  0
ENDBLK
  5
CA1B
330
CA10
100
AcDbEntity
  8
0
100
AcDbBlockEnd
  0
BLOCK
  5
CB52
330
CB49
100
AcDbEntity
  8
0
100
AcDbBlockBegin
  2
*D41
 70
     1
 10
0.0
 20
0.0
 30
0.0
  3
*D41
  1

  0
LINE
  5
CDE6
330
CB49
100
AcDbEntity
  8
AM_5
100
AcDbLine
 10
216.2513662574754
 20
179.5633749546933
 30
0.0
 11
216.2513662574754
 21
179.1639306502685
 31
0.0
  0
LINE
  5
CDE7
330
CB49
100
AcDbEntity
  8
AM_5
100
AcDbLine
 10
217.2513662574754
 20
180.1639306502685
 30
0.0
 11
248.2513662574754
 21
180.1639306502685
 31
0.0
  0
INSERT
  5
CDE8
330
CB49
100
AcDbEntity
  8
AM_5
100
AcDbBlockReference
  2
_Dot
 10
216.2513662574754
 20
180.1639306502685
 30
0.0
 50
180.0
  0
INSERT
  5
CDE9
330
CB49
100
AcDbEntity
  8
AM_5
100
AcDbBlockReference
  2
_Dot
 10
249.2513662574754
 20
180.1639306502685
 30
0.0
  0
MTEXT
  5
CDEA
330
CB49
100
AcDbEntity
  8
AM_5
 62
     2
100
AcDbMText
 10
232.7513662574754
 20
183.2639306502685
 30
0.0
 40
3.200000000000001
 41
0.0
 46
0.0
 71
     5
 72
     1
  1
（33）
 73
     1
 44
1.0
  0
POINT
  5
CDEB
330
CB49
100
AcDbEntity
  8
Defpoints
 62
     0
100
AcDbPoint
 10
216.2513662574754
 20
180.5633749546933
 30
0.0
  0
POINT
  5
CDEC
330
CB49
100
AcDbEntity
  8
Defpoints
 62
     0
100
AcDbPoint
 10
249.2513662574754
 20
180.1639306502685
 30
0.0
  0
POINT
  5
CDED
330
CB49
100
AcDbEntity
  8
Defpoints
 62
     0
100
AcDbPoint
 10
249.2513662574754
 20
180.1639306502685
 30
0.0
  0
ENDBLK
  5
CB53
330
CB49
100
AcDbEntity
  8
0
100
AcDbBlockEnd
  0
BLOCK
  5
CCF5
330
CCEB
100
AcDbEntity
  8
0
100
AcDbBlockBegin
  2
*D44
 70
     1
 10
0.0
 20
0.0
 30
0.0
  3
*D44
  1

  0
LINE
  5
CDEE
330
CCEB
100
AcDbEntity
  8
AM_5
100
AcDbLine
 10
140.2460573932867
 20
170.8200319745354
 30
0.0
 11
148.2460573932825
 21
170.8200319745354
 31
0.0
  0
INSERT
  5
CDEF
330
CCEB
100
AcDbEntity
  8
AM_5
100
AcDbBlockReference
  2
_Dot
 10
139.2460573932867
 20
170.8200319745354
 30
0.0
 50
180.0
  0
INSERT
  5
CDF0
330
CCEB
100
AcDbEntity
  8
AM_5
100
AcDbBlockReference
  2
_Dot
 10
149.2460573932825
 20
170.8200319745354
 30
0.0
  0
MTEXT
  5
CDF1
330
CCEB
100
AcDbEntity
  8
AM_5
 62
     2
100
AcDbMText
 10
144.2460573932846
 20
173.9200319745354
 30
0.0
 40
3.200000000000001
 41
0.0
 46
0.0
 71
     5
 72
     1
  1
10
 73
     1
 44
1.0
  0
POINT
  5
CDF2
330
CCEB
100
AcDbEntity
  8
Defpoints
 62
     0
100
AcDbPoint
 10
139.2460573932867
 20
160.2638707868756
 30
0.0
  0
POINT
  5
CDF3
330
CCEB
100
AcDbEntity
  8
Defpoints
 62
     0
100
AcDbPoint
 10
149.2460573932825
 20
160.2638707868782
 30
0.0
  0
POINT
  5
CDF4
330
CCEB
100
AcDbEntity
  8
Defpoints
 62
     0
100
AcDbPoint
 10
149.2460573932825
 20
170.8200319745354
 30
0.0
  0
ENDBLK
  5
CCF6
330
CCEB
100
AcDbEntity
  8
0
100
AcDbBlockEnd
  0
ENDSEC
  0
SECTION
  2
ENTITIES
  0
TEXT
  5
BAB6
330
1F
100
AcDbEntity
  8
AM_6
 60
     1
100
AcDbText
 10
408.4999999999999
 20
8.5
 30
0.0
 40
2.5
  1
!GENTITLE-INSERT
100
AcDbText
  0
TEXT
  5
BAB7
330
1F
100
AcDbEntity
  8
AM_6
 60
     1
100
AcDbText
 10
0.0
 20
0.0
 30
0.0
 40
2.5
  1
!GENTITLE-LL
100
AcDbText
  0
TEXT
  5
BAB8
330
1F
100
AcDbEntity
  8
AM_6
 60
     1
100
AcDbText
 10
420.0
 20
297.0
 30
0.0
 40
2.5
  1
!GENTITLE-RU
100
AcDbText
  0
TEXT
  5
BAB9
330
1F
100
AcDbEntity
  8
AM_6
 60
     1
100
AcDbText
 10
420.0
 20
297.0
 30
0.0
 40
2.5
  1
!GENTITLE-MAX
100
AcDbText
  0
LINE
  5
BABB
330
1F
100
AcDbEntity
  8
size
100
AcDbLine
 10
3.000000000000005
 20
300.0
 30
0.0
 11
2.999999999999928
 21
-120.0
 31
0.0
1001
GENIUS_GENREC_14
1002
{
1000
PYDIR
1011
300.0
1021
300.0
1031
0.0
1002
}
1002
{
1000
PXDIR
1011
2.999999999999928
1021
-120.0
1031
0.0
1002
}
1002
{
1000
PORI
1011
3.000000000000005
1021
300.0
1031
0.0
1002
}
1002
{
1000
PINS
1011
151.4999999999999
1021
89.99999999999994
1031
0.0
1002
}
1002
{
1000
HVAL
1000
297
1002
}
1002
{
1000
H
1070
     2
1002
}
1002
{
1000
WVAL
1000
420
1002
}
1002
{
1000
W
1070
     2
1002
}
1002
{
1000
C
1070
     4
1002
}
1001
GENIUS_GENOBJ-N-REC_13
1002
{
1000
OWNER
1000
GEN
1002
}
1001
GENIUS_GENODEF_13
1002
{
1000
HIER
1070
     0
1002
}
1002
{
1000
MANEDIT
1070
     0
1002
}
1002
{
1000
NOSEL
1070
     0
1002
}
1002
{
1000
BEHIND
1070
     0
1002
}
1002
{
1000
OTHER
1070
     0
1002
}
1002
{
1000
REACTOR
1002
}
  0
LINE
  5
BABC
330
1F
100
AcDbEntity
  8
size
100
AcDbLine
 10
2.999999999999928
 20
-120.0
 30
0.0
 11
300.0
 21
-120.0
 31
0.0
1001
GENIUS_GENREC_14
1002
{
1000
PYDIR
1011
300.0
1021
300.0
1031
0.0
1002
}
1002
{
1000
PXDIR
1011
2.999999999999928
1021
-120.0
1031
0.0
1002
}
1002
{
1000
PORI
1011
3.000000000000005
1021
300.0
1031
0.0
1002
}
1002
{
1000
PINS
1011
151.4999999999999
1021
89.99999999999994
1031
0.0
1002
}
1002
{
1000
HVAL
1000
297
1002
}
1002
{
1000
H
1070
     2
1002
}
1002
{
1000
WVAL
1000
420
1002
}
1002
{
1000
W
1070
     2
1002
}
1002
{
1000
C
1070
     4
1002
}
1001
GENIUS_GENOBJ-N-REC_13
1002
{
1000
OWNER
1000
GEN
1002
}
1001
GENIUS_GENODEF_13
1002
{
1000
HIER
1070
     0
1002
}
1002
{
1000
MANEDIT
1070
     0
1002
}
1002
{
1000
NOSEL
1070
     0
1002
}
1002
{
1000
BEHIND
1070
     0
1002
}
1002
{
1000
OTHER
1070
     0
1002
}
1002
{
1000
REACTOR
1002
}
  0
LINE
  5
BABD
330
1F
100
AcDbEntity
  8
size
100
AcDbLine
 10
300.0
 20
-120.0
 30
0.0
 11
300.0
 21
300.0
 31
0.0
1001
GENIUS_GENREC_14
1002
{
1000
PYDIR
1011
300.0
1021
300.0
1031
0.0
1002
}
1002
{
1000
PXDIR
1011
2.999999999999928
1021
-120.0
1031
0.0
1002
}
1002
{
1000
PORI
1011
3.000000000000005
1021
300.0
1031
0.0
1002
}
1002
{
1000
PINS
1011
151.4999999999999
1021
89.99999999999994
1031
0.0
1002
}
1002
{
1000
HVAL
1000
297
1002
}
1002
{
1000
H
1070
     2
1002
}
1002
{
1000
WVAL
1000
420
1002
}
1002
{
1000
W
1070
     2
1002
}
1002
{
1000
C
1070
     4
1002
}
1001
GENIUS_GENOBJ-N-REC_13
1002
{
1000
OWNER
1000
GEN
1002
}
1001
GENIUS_GENODEF_13
1002
{
1000
HIER
1070
     0
1002
}
1002
{
1000
MANEDIT
1070
     0
1002
}
1002
{
1000
NOSEL
1070
     0
1002
}
1002
{
1000
BEHIND
1070
     0
1002
}
1002
{
1000
OTHER
1070
     0
1002
}
1002
{
1000
REACTOR
1002
}
  0
LINE
  5
BABE
330
1F
100
AcDbEntity
  8
size
100
AcDbLine
 10
300.0
 20
300.0
 30
0.0
 11
3.000000000000005
 21
300.0
 31
0.0
1001
GENIUS_GENREC_14
1002
{
1000
PYDIR
1011
300.0
1021
300.0
1031
0.0
1002
}
1002
{
1000
PXDIR
1011
2.999999999999928
1021
-120.0
1031
0.0
1002
}
1002
{
1000
PORI
1011
3.000000000000005
1021
300.0
1031
0.0
1002
}
1002
{
1000
PINS
1011
151.4999999999999
1021
89.99999999999994
1031
0.0
1002
}
1002
{
1000
HVAL
1000
297
1002
}
1002
{
1000
H
1070
     2
1002
}
1002
{
1000
WVAL
1000
420
1002
}
1002
{
1000
W
1070
     2
1002
}
1002
{
1000
C
1070
     4
1002
}
1001
GENIUS_GENOBJ-N-REC_13
1002
{
1000
OWNER
1000
GEN
1002
}
1001
GENIUS_GENODEF_13
1002
{
1000
HIER
1070
     0
1002
}
1002
{
1000
MANEDIT
1070
     0
1002
}
1002
{
1000
NOSEL
1070
     0
1002
}
1002
{
1000
BEHIND
1070
     0
1002
}
1002
{
1000
OTHER
1070
     0
1002
}
1002
{
1000
REACTOR
1002
}
  0
LINE
  5
BABF
330
1F
100
AcDbEntity
  8
waku
100
AcDbLine
 10
11.49999999999993
 20
-108.4999999999999
 30
0.0
 11
291.5
 21
-108.5
 31
0.0
1001
GENIUS_GENREC_14
1002
{
1000
PYDIR
1011
300.0
1021
300.0
1031
0.0
1002
}
1002
{
1000
PXDIR
1011
2.999999999999928
1021
-120.0
1031
0.0
1002
}
1002
{
1000
PORI
1011
3.000000000000005
1021
300.0
1031
0.0
1002
}
1002
{
1000
PINS
1011
151.4999999999999
1021
89.99999999999994
1031
0.0
1002
}
1002
{
1000
HVAL
1000
297
1002
}
1002
{
1000
H
1070
     2
1002
}
1002
{
1000
WVAL
1000
420
1002
}
1002
{
1000
W
1070
     2
1002
}
1002
{
1000
C
1070
     4
1002
}
1001
GENIUS_GENOBJ-N-REC_13
1002
{
1000
OWNER
1000
GEN
1002
}
1001
GENIUS_GENODEF_13
1002
{
1000
HIER
1070
     0
1002
}
1002
{
1000
MANEDIT
1070
     0
1002
}
1002
{
1000
NOSEL
1070
     0
1002
}
1002
{
1000
BEHIND
1070
     0
1002
}
1002
{
1000
OTHER
1070
     0
1002
}
1002
{
1000
REACTOR
1002
}
  0
LINE
  5
BAC0
330
1F
100
AcDbEntity
  8
waku
100
AcDbLine
 10
291.5
 20
288.4999999999999
 30
0.0
 11
11.5
 21
288.5
 31
0.0
1001
GENIUS_GENREC_14
1002
{
1000
PYDIR
1011
300.0
1021
300.0
1031
0.0
1002
}
1002
{
1000
PXDIR
1011
2.999999999999928
1021
-120.0
1031
0.0
1002
}
1002
{
1000
PORI
1011
3.000000000000005
1021
300.0
1031
0.0
1002
}
1002
{
1000
PINS
1011
151.4999999999999
1021
89.99999999999994
1031
0.0
1002
}
1002
{
1000
HVAL
1000
297
1002
}
1002
{
1000
H
1070
     2
1002
}
1002
{
1000
WVAL
1000
420
1002
}
1002
{
1000
W
1070
     2
1002
}
1002
{
1000
C
1070
     4
1002
}
1001
GENIUS_GENOBJ-N-REC_13
1002
{
1000
OWNER
1000
GEN
1002
}
1001
GENIUS_GENODEF_13
1002
{
1000
HIER
1070
     0
1002
}
1002
{
1000
MANEDIT
1070
     0
1002
}
1002
{
1000
NOSEL
1070
     0
1002
}
1002
{
1000
BEHIND
1070
     0
1002
}
1002
{
1000
OTHER
1070
     0
1002
}
1002
{
1000
REACTOR
1002
}
  0
LINE
  5
BAC1
330
1F
100
AcDbEntity
  8
waku
100
AcDbLine
 10
291.5
 20
-108.5
 30
0.0
 11
291.5
 21
288.4999999999999
 31
0.0
1001
GENIUS_GENREC_14
1002
{
1000
PYDIR
1011
300.0
1021
300.0
1031
0.0
1002
}
1002
{
1000
PXDIR
1011
2.999999999999928
1021
-120.0
1031
0.0
1002
}
1002
{
1000
PORI
1011
3.000000000000005
1021
300.0
1031
0.0
1002
}
1002
{
1000
PINS
1011
151.4999999999999
1021
89.99999999999994
1031
0.0
1002
}
1002
{
1000
HVAL
1000
297
1002
}
1002
{
1000
H
1070
     2
1002
}
1002
{
1000
WVAL
1000
420
1002
}
1002
{
1000
W
1070
     2
1002
}
1002
{
1000
C
1070
     4
1002
}
1001
GENIUS_GENOBJ-N-REC_13
1002
{
1000
OWNER
1000
GEN
1002
}
1001
GENIUS_GENODEF_13
1002
{
1000
HIER
1070
     0
1002
}
1002
{
1000
MANEDIT
1070
     0
1002
}
1002
{
1000
NOSEL
1070
     0
1002
}
1002
{
1000
BEHIND
1070
     0
1002
}
1002
{
1000
OTHER
1070
     0
1002
}
1002
{
1000
REACTOR
1002
}
  0
TEXT
  5
BAC2
330
1F
100
AcDbEntity
  8
AM_6
 60
     1
100
AcDbText
 10
0.0
 20
0.0
 30
0.0
 40
2.5
  1
!GENTITLE-LL
100
AcDbText
  0
TEXT
  5
BAC3
330
1F
100
AcDbEntity
  8
AM_6
 60
     1
100
AcDbText
 10
408.4999999999999
 20
288.5
 30
0.0
 40
2.5
  1
!GENTITLE-RU
100
AcDbText
  0
TEXT
  5
BAC4
330
1F
100
AcDbEntity
  8
AM_6
 60
     1
100
AcDbText
 10
420.0
 20
297.0
 30
0.0
 40
2.5
  1
!GENTITLE-MAX
100
AcDbText
  0
TEXT
  5
BAC5
330
1F
100
AcDbEntity
  8
AM_6
 60
     1
100
AcDbText
 10
408.4999999999999
 20
8.5
 30
0.0
 40
2.5
  1
!GENTITLE-INSERT
100
AcDbText
  0
LINE
  5
BAC6
330
1F
100
AcDbEntity
  8
waku
100
AcDbLine
 10
11.5
 20
288.5
 30
0.0
 11
11.49999999999993
 21
-108.4999999999999
 31
0.0
  0
MTEXT
  5
BC28
330
1F
100
AcDbEntity
  8
AM_6
100
AcDbMText
 10
80.63491667972789
 20
238.339315010154
 30
0.0
 40
3.2
 41
74.09164112590565
 46
0.0
 71
     1
 72
     5
  1
+ Fe
 73
     1
 44
1.0
  0
CIRCLE
  5
BC2A
330
1F
100
AcDbEntity
  8
AM_CL
100
AcDbCircle
 10
81.53065007305645
 20
236.3644260376291
 30
0.0
 40
1.549226502583842
  0
LINE
  5
C042
330
1F
100
AcDbEntity
  8
AM_2
 48
0.5
100
AcDbLine
 10
230.7513662574754
 20
150.7638707867023
 30
0.0
 11
231.7513662574681
 21
150.7638707867023
 31
0.0
  0
LINE
  5
C043
330
1F
100
AcDbEntity
  8
AM_2
 48
0.5
100
AcDbLine
 10
232.2513662574754
 20
152.2638707867023
 30
0.0
 11
232.251366257469
 21
151.2638707867023
 31
0.0
  0
ARC
  5
C044
330
1F
100
AcDbEntity
  8
AM_2
 48
0.5
100
AcDbCircle
 10
231.7513662574681
 20
151.2638707867023
 30
0.0
 40
0.5
100
AcDbArc
 50
270.0
 51
0.0
  0
ARC
  5
C045
330
1F
100
AcDbEntity
  8
AM_2
 48
0.5
100
AcDbCircle
 10
231.7513662574681
 20
149.2638707866987
 30
0.0
 40
0.5
100
AcDbArc
 50
0.0
 51
90.0
  0
LINE
  5
C046
330
1F
100
AcDbEntity
  8
AM_2
 48
0.5
100
AcDbLine
 10
231.7513662574681
 20
149.7638707866987
 30
0.0
 11
230.7513662574754
 21
149.7638707867023
 31
0.0
  0
LINE
  5
C047
330
1F
100
AcDbEntity
  8
AM_2
 48
0.5
100
AcDbLine
 10
232.251366257469
 20
149.2638707866987
 30
0.0
 11
232.2513662574754
 21
148.2638707867023
 31
0.0
  0
LINE
  5
C048
330
1F
100
AcDbEntity
  8
AM_2
 48
0.5
100
AcDbLine
 10
230.7513662574754
 20
150.7638707867023
 30
0.0
 11
230.7513662574754
 21
149.7638707867023
 31
0.0
  0
LINE
  5
C049
330
1F
100
AcDbEntity
  8
AM_2
 48
0.5
100
AcDbLine
 10
233.2513662573963
 20
149.2638707866987
 30
0.0
 11
233.2513662573881
 21
148.2638707867023
 31
0.0
  0
LINE
  5
C04A
330
1F
100
AcDbEntity
  8
AM_2
 48
0.5
100
AcDbLine
 10
233.7513662573963
 20
149.7638707866987
 30
0.0
 11
234.7513662573881
 21
149.7638707867023
 31
0.0
  0
ARC
  5
C04B
330
1F
100
AcDbEntity
  8
AM_2
 48
0.5
100
AcDbCircle
 10
233.7513662573963
 20
149.2638707866987
 30
0.0
 40
0.5
100
AcDbArc
 50
90.0
 51
180.0
  0
LINE
  5
C04C
330
1F
100
AcDbEntity
  8
AM_2
 48
0.5
100
AcDbLine
 10
233.2513662574754
 20
148.2638707867023
 30
0.0
 11
232.2513662574754
 21
148.2638707867023
 31
0.0
  0
ARC
  5
C04D
330
1F
100
AcDbEntity
  8
AM_2
 48
0.5
100
AcDbCircle
 10
233.7513662574754
 20
151.2638707867023
 30
0.0
 40
0.5
100
AcDbArc
 50
180.0
 51
270.0
  0
LINE
  5
C04E
330
1F
100
AcDbEntity
  8
AM_2
 48
0.5
100
AcDbLine
 10
234.7513662574754
 20
150.7638707867023
 30
0.0
 11
233.7513662574754
 21
150.7638707867023
 31
0.0
  0
LINE
  5
C04F
330
1F
100
AcDbEntity
  8
AM_2
 48
0.5
100
AcDbLine
 10
234.7513662574754
 20
150.7638707867023
 30
0.0
 11
234.7513662574754
 21
149.7638707866987
 31
0.0
  0
LINE
  5
C050
330
1F
100
AcDbEntity
  8
AM_2
 48
0.5
100
AcDbLine
 10
233.2513662574754
 20
152.2638707867023
 30
0.0
 11
233.2513662574754
 21
151.2638707867023
 31
0.0
  0
LINE
  5
C051
330
1F
100
AcDbEntity
  8
AM_2
 48
0.5
100
AcDbLine
 10
233.2513662574754
 20
152.2638707867023
 30
0.0
 11
232.2513662574754
 21
152.2638707867023
 31
0.0
  0
CIRCLE
  5
C052
330
1F
100
AcDbEntity
  8
AM_0
 48
0.5
100
AcDbCircle
 10
232.7513662574754
 20
150.2638707867023
 30
0.0
 40
3.5
  0
LINE
  5
C055
330
1F
100
AcDbEntity
  8
AM_7
 48
0.5
100
AcDbLine
 10
238.3939551833653
 20
150.2638707867023
 30
0.0
 11
227.1087773315855
 21
150.2638707867023
 31
0.0
  0
LINE
  5
C056
330
1F
100
AcDbEntity
  8
AM_7
 48
0.5
100
AcDbLine
 10
232.7513662574754
 20
164.1293561563035
 30
0.0
 11
232.7513662574754
 21
95.33014756453997
 31
0.0
  0
LINE
  5
C058
330
1F
100
AcDbEntity
  8
AM_11
 48
0.5
100
AcDbLine
 10
149.2460573932949
 20
113.7638707868806
 30
0.0
 11
149.2460573932767
 21
181.976302200109
 31
0.0
  0
LINE
  5
C059
330
1F
100
AcDbEntity
  8
AM_11
 48
0.5
100
AcDbLine
 10
249.2513662574754
 20
180.1639306502685
 30
0.0
 11
249.2513662574681
 21
113.7638707868769
 31
0.0
  0
LINE
  5
C05A
330
1F
100
AcDbEntity
  8
AM_11
 48
0.5
100
AcDbLine
 10
216.2513662574754
 20
180.5633749546933
 30
0.0
 11
216.2513662574754
 21
113.7638707868806
 31
0.0
  0
LINE
  5
C05B
330
1F
100
AcDbEntity
  8
AM_11
 48
0.5
100
AcDbLine
 10
249.2513662574681
 20
113.7638707868769
 30
0.0
 11
216.2513662574754
 21
113.7638707868806
 31
0.0
  0
LINE
  5
C05C
330
1F
100
AcDbEntity
  8
AM_0
100
AcDbLine
 10
90.50404238737428
 20
104.9638707868813
 30
0.0
 11
134.98807239916
 21
104.9638707868813
 31
0.0
  0
LINE
  5
C05D
330
1F
100
AcDbEntity
  8
AM_0
100
AcDbLine
 10
87.74605739327034
 20
101.7638707868806
 30
0.0
 11
137.7460573932703
 21
101.7638707868806
 31
0.0
  0
LINE
  5
C05E
330
1F
100
AcDbEntity
  8
AM_0
100
AcDbLine
 10
89.64367773284266
 20
104.6925988533163
 30
0.0
 11
88.38569273873963
 21
103.8117482774884
 31
0.0
  0
LINE
  5
C05F
330
1F
100
AcDbEntity
  8
AM_0
100
AcDbLine
 10
87.74605739327034
 20
101.7638707868806
 30
0.0
 11
87.74605739327034
 21
102.5830202110534
 31
0.0
  0
ARC
  5
C060
330
1F
100
AcDbEntity
  8
AM_0
100
AcDbCircle
 10
89.24605739327034
 20
102.5830202110534
 30
0.0
 40
1.5
100
AcDbArc
 50
124.9999999999234
 51
180.0
  0
ARC
  5
C061
330
1F
100
AcDbEntity
  8
AM_0
100
AcDbCircle
 10
90.50404238737428
 20
103.4638707868813
 30
0.0
 40
1.5
100
AcDbArc
 50
90.0
 51
124.9999999999234
  0
LINE
  5
C062
330
1F
100
AcDbEntity
  8
AM_0
100
AcDbLine
 10
137.7460573932703
 20
101.7638707868806
 30
0.0
 11
137.7460573932703
 21
102.5830202110534
 31
0.0
  0
ARC
  5
C063
330
1F
100
AcDbEntity
  8
AM_0
100
AcDbCircle
 10
134.98807239916
 20
103.4638707868813
 30
0.0
 40
1.5
100
AcDbArc
 50
55.00000000007656
 51
90.0
  0
LINE
  5
C064
330
1F
100
AcDbEntity
  8
AM_0
100
AcDbLine
 10
135.8484370536844
 20
104.6925988533163
 30
0.0
 11
137.1064220477947
 21
103.8117482774884
 31
0.0
  0
ARC
  5
C065
330
1F
100
AcDbEntity
  8
AM_0
100
AcDbCircle
 10
136.2460573932703
 20
102.5830202110534
 30
0.0
 40
1.5
100
AcDbArc
 50
0.0
 51
55.00000000007656
  0
LINE
  5
C066
330
1F
100
AcDbEntity
  8
AM_11
 48
0.25
100
AcDbLine
 10
120.7460573932694
 20
104.9638707868813
 30
0.0
 11
120.746057393264
 21
108.7638707868806
 31
0.0
  0
LINE
  5
C067
330
1F
100
AcDbEntity
  8
AM_11
 48
0.25
100
AcDbLine
 10
104.7460573932712
 20
104.9638707868813
 30
0.0
 11
104.7460573932703
 21
108.7638707868878
 31
0.0
  0
ARC
  5
C068
330
1F
100
AcDbEntity
  8
AM_0
 48
0.5
100
AcDbCircle
 10
100.2452507406833
 20
111.7638707868951
 30
0.0
 40
3.0
100
AcDbArc
 50
180.0
 51
270.0
  0
ARC
  5
C069
330
1F
100
AcDbEntity
  8
AM_0
 48
0.5
100
AcDbCircle
 10
125.245250740676
 20
111.7638707869097
 30
0.0
 40
3.0
100
AcDbArc
 50
270.0
 51
0.0
  0
LINE
  5
C06A
330
1F
100
AcDbEntity
  8
AM_0
 48
0.5
100
AcDbLine
 10
125.245250740676
 20
108.7638707869097
 30
0.0
 11
100.2452507406833
 21
108.7638707868951
 31
0.0
  0
LINE
  5
C06B
330
1F
100
AcDbEntity
  8
AM_0
 48
0.5
100
AcDbLine
 10
128.2452507407051
 20
113.7638707868947
 30
0.0
 11
128.245250740676
 21
111.7638707869097
 31
0.0
  0
LINE
  5
C06C
330
1F
100
AcDbEntity
  8
AM_0
 48
0.5
100
AcDbLine
 10
97.24525074069152
 20
113.7638707868947
 30
0.0
 11
97.24525074069061
 21
111.7638707868951
 31
0.0
  0
LINE
  5
C06D
330
1F
100
AcDbEntity
  8
AM_2
 48
0.5
100
AcDbLine
 10
113.9104860969437
 20
111.2638707868951
 30
0.0
 11
111.590550202307
 21
111.2638707868988
 31
0.0
  0
LINE
  5
C06E
330
1F
100
AcDbEntity
  8
AM_2
 48
0.5
100
AcDbLine
 10
113.9104860969437
 20
111.2638707868951
 30
0.0
 11
112.7456523751225
 21
109.2631751356345
 31
0.0
  0
LINE
  5
C06F
330
1F
100
AcDbEntity
  8
AM_2
 48
0.5
100
AcDbLine
 10
111.590550202307
 20
111.2638707868988
 30
0.0
 11
112.7456523751225
 21
109.2631751356345
 31
0.0
  0
LINE
  5
C070
330
1F
100
AcDbEntity
  8
AM_11
 48
0.5
100
AcDbLine
 10
149.2460573932694
 20
113.7638707868733
 30
0.0
 11
63.09284185105389
 21
113.7638707868792
 31
0.0
  0
LINE
  5
C072
330
1F
100
AcDbEntity
  8
AM_0
100
AcDbLine
 10
245.2513662574754
 20
160.2638707866937
 30
0.0
 11
244.7513662574682
 21
160.7638707867023
 31
0.0
  0
LINE
  5
C073
330
1F
100
AcDbEntity
  8
AM_0
100
AcDbLine
 10
220.7513662574727
 20
160.7638707867023
 30
0.0
 11
220.2513662574754
 21
160.263870786706
 31
0.0
  0
ARC
  5
C074
330
1F
100
AcDbEntity
  8
AM_0
 48
0.5
100
AcDbCircle
 10
241.6575711203084
 20
109.9568270645678
 30
0.0
 40
2.0
100
AcDbArc
 50
270.0
 51
332.3461157664965
  0
ARC
  5
C075
330
1F
100
AcDbEntity
  8
AM_0
 48
0.5
100
AcDbCircle
 10
222.7513657651122
 20
109.7638707868942
 30
0.0
 40
1.0
100
AcDbArc
 50
180.0
 51
270.0
  0
LINE
  5
C076
330
1F
100
AcDbEntity
  8
AM_0
 48
0.5
100
AcDbLine
 10
221.7513657651077
 20
113.7638707868788
 30
0.0
 11
221.7513657651123
 21
109.7638707868942
 31
0.0
  0
LINE
  5
C077
330
1F
100
AcDbEntity
  8
AM_0
 48
0.5
100
AcDbLine
 10
222.7513657651122
 20
108.7638707868979
 30
0.0
 11
242.7513667498395
 21
108.7638707868974
 31
0.0
  0
LINE
  5
C078
330
1F
100
AcDbEntity
  8
AM_0
 48
0.5
100
AcDbLine
 10
243.751366099538
 20
113.7638707864236
 30
0.0
 11
243.7513667498331
 21
109.7638709727003
 31
0.0
  0
ARC
  5
C079
330
1F
100
AcDbEntity
  8
AM_0
 48
0.5
100
AcDbCircle
 10
242.7513667498395
 20
109.7638707869015
 30
0.0
 40
1.0
100
AcDbArc
 50
270.0
 51
0.0000106454901517
  0
LINE
  5
C07A
330
1F
100
AcDbEntity
  8
AM_0
 48
0.5
100
AcDbLine
 10
233.8575711203055
 20
107.9568270645715
 30
0.0
 11
241.6575711203084
 21
107.9568270645678
 31
0.0
  0
LINE
  5
C07B
330
1F
100
AcDbEntity
  8
AM_0
 48
0.5
100
AcDbLine
 10
233.6575711203084
 20
108.6120660056214
 30
0.0
 11
233.6575711203084
 21
108.1568270645722
 31
0.0
  0
ARC
  5
C07C
330
1F
100
AcDbEntity
  8
AM_0
 48
0.5
100
AcDbCircle
 10
233.8575711203055
 20
108.1568270645722
 30
0.0
 40
0.2
100
AcDbArc
 50
180.0
 51
270.0
  0
ARC
  5
C07D
330
1F
100
AcDbEntity
  8
AM_0
 48
0.5
100
AcDbCircle
 10
237.1575711203084
 20
108.6120660056214
 30
0.0
 40
3.5
100
AcDbArc
 50
177.5141421059766
 51
180.0
  0
LINE
  5
C081
330
1F
100
AcDbEntity
  8
AM_11
 48
0.5
100
AcDbLine
 10
139.2460573932876
 20
146.2638707868374
 30
0.0
 11
149.2460573932885
 21
146.2638707868374
 31
0.0
  0
LINE
  5
C082
330
1F
100
AcDbEntity
  8
AM_11
 48
0.5
100
AcDbLine
 10
139.2460573932876
 20
154.2638707868374
 30
0.0
 11
149.2460573932885
 21
154.2638707868374
 31
0.0
  0
LINE
  5
C083
330
1F
100
AcDbEntity
  8
AM_7
 48
0.5
100
AcDbLine
 10
154.3131980815396
 20
150.2638707868369
 30
0.0
 11
135.478300295972
 21
150.2638707868369
 31
0.0
  0
LINE
  5
C084
330
1F
100
AcDbEntity
  8
AM_0
100
AcDbLine
 10
199.7998194801191
 20
101.7638707868751
 30
0.0
 11
249.7998194801264
 21
101.7638707868788
 31
0.0
  0
LINE
  5
C085
330
1F
100
AcDbEntity
  8
AM_0
100
AcDbLine
 10
202.5578044742295
 20
104.9638707868795
 30
0.0
 11
247.0418344860234
 21
104.9638707868795
 31
0.0
  0
LINE
  5
C086
330
1F
100
AcDbEntity
  8
AM_0
100
AcDbLine
 10
247.9021991405468
 20
104.6925988533145
 30
0.0
 11
249.1601841346571
 21
103.8117482774866
 31
0.0
  0
ARC
  5
C087
330
1F
100
AcDbEntity
  8
AM_0
100
AcDbCircle
 10
247.0418344860234
 20
103.4638707868795
 30
0.0
 40
1.499999999999999
100
AcDbArc
 50
55.00000000007659
 51
90.0
  0
LINE
  5
C088
330
1F
100
AcDbEntity
  8
AM_0
100
AcDbLine
 10
249.7998194801264
 20
101.7638707868788
 30
0.0
 11
249.7998194801264
 21
102.5830202110515
 31
0.0
  0
ARC
  5
C089
330
1F
100
AcDbEntity
  8
AM_0
100
AcDbCircle
 10
248.2998194801264
 20
102.5830202110515
 30
0.0
 40
1.499999999999999
100
AcDbArc
 50
0.0
 51
55.00000000007659
  0
LINE
  5
C08A
330
1F
100
AcDbEntity
  8
AM_11
 48
0.25
100
AcDbLine
 10
218.9096327011564
 20
104.9638707868795
 30
0.0
 11
227.5329480398521
 21
108.7638707868979
 31
0.0
  0
LINE
  5
C08B
330
1F
100
AcDbEntity
  8
AM_11
 48
0.25
100
AcDbLine
 10
215.4378322533746
 20
104.9638707868795
 30
0.0
 11
224.061147592073
 21
108.7638707868979
 31
0.0
  0
ARC
  5
C08C
330
1F
100
AcDbEntity
  8
AM_0
100
AcDbCircle
 10
202.5578044742295
 20
103.4638707868795
 30
0.0
 40
1.499999999999999
100
AcDbArc
 50
90.0
 51
124.9999999999233
  0
ARC
  5
C08D
330
1F
100
AcDbEntity
  8
AM_0
100
AcDbCircle
 10
201.2998194801264
 20
102.5830202110515
 30
0.0
 40
1.499999999999999
100
AcDbArc
 50
124.9999999999233
 51
180.0
  0
LINE
  5
C08E
330
1F
100
AcDbEntity
  8
AM_0
100
AcDbLine
 10
199.7998194801191
 20
101.7638707868751
 30
0.0
 11
199.7998194801264
 21
102.5830202110515
 31
0.0
  0
LINE
  5
C08F
330
1F
100
AcDbEntity
  8
AM_0
100
AcDbLine
 10
201.697439819706
 20
104.6925988533145
 30
0.0
 11
200.4394548255957
 21
103.8117482774866
 31
0.0
  0
LINE
  5
C090
330
1F
100
AcDbEntity
  8
AM_11
 48
0.25
100
AcDbLine
 10
232.4926629652516
 20
108.7638707868979
 30
0.0
 11
226.9670835479471
 21
106.3289370101357
 31
0.0
  0
LINE
  5
C091
330
1F
100
AcDbEntity
  8
AM_11
 48
0.25
100
AcDbLine
 10
228.7728767712031
 20
108.7638707868979
 30
0.0
 11
225.8131558931752
 21
107.4596230706985
 31
0.0
  0
LINE
  5
C092
330
1F
100
AcDbEntity
  8
AM_11
 48
0.25
100
AcDbLine
 10
225.8131558931752
 20
107.4596230706985
 30
0.0
 11
225.6115314016394
 21
107.9171682208345
 31
0.0
  0
LINE
  5
C093
330
1F
100
AcDbEntity
  8
AM_11
 48
0.25
100
AcDbLine
 10
226.9670835479471
 20
106.3289370101353
 30
0.0
 11
226.362210073338
 21
107.7015724605427
 31
0.0
  0
LINE
  5
C094
330
1F
100
AcDbEntity
  8
AM_0
100
AcDbLine
 10
85.24605739327126
 20
113.7638707868737
 30
0.0
 11
139.2460573932867
 21
113.7638707868701
 31
0.0
  0
LINE
  5
C095
330
1F
100
AcDbEntity
  8
AM_0
100
AcDbLine
 10
220.2513662574754
 20
160.263870786706
 30
0.0
 11
220.2513662574827
 21
113.7638707868769
 31
0.0
  0
LINE
  5
C096
330
1F
100
AcDbEntity
  8
AM_0
100
AcDbLine
 10
220.2513662574827
 20
113.7638707868769
 30
0.0
 11
245.2513662574754
 21
113.7638707868806
 31
0.0
  0
LINE
  5
C097
330
1F
100
AcDbEntity
  8
AM_0
100
AcDbLine
 10
245.2513662574754
 20
160.2638707866937
 30
0.0
 11
245.2513662574818
 21
113.7638707868806
 31
0.0
  0
LINE
  5
C098
330
1F
100
AcDbEntity
  8
AM_0
100
AcDbLine
 10
220.7513662574727
 20
160.7638707867023
 30
0.0
 11
244.7513662574682
 21
160.7638707867023
 31
0.0
  0
LINE
  5
C099
330
1F
100
AcDbEntity
  8
AM_0
 48
0.5
100
AcDbLine
 10
139.2460573932826
 20
160.2638707868797
 30
0.0
 11
138.7460573932899
 21
160.7638707868737
 31
0.0
  0
LINE
  5
C09A
330
1F
100
AcDbEntity
  8
AM_0
 48
0.5
100
AcDbLine
 10
85.74605739326807
 20
160.7638707868737
 30
0.0
 11
85.24605739326807
 21
160.2638707868738
 31
0.0
  0
LINE
  5
C09B
330
1F
100
AcDbEntity
  8
AM_0
100
AcDbLine
 10
85.24605739327126
 20
113.7638707868737
 30
0.0
 11
85.24605739327126
 21
160.2638707868769
 31
0.0
  0
LINE
  5
C09C
330
1F
100
AcDbEntity
  8
AM_0
100
AcDbLine
 10
85.74605739326807
 20
160.7638707868737
 30
0.0
 11
138.7460573932899
 21
160.7638707868737
 31
0.0
  0
LINE
  5
C09D
330
1F
100
AcDbEntity
  8
AM_0
100
AcDbLine
 10
139.2460573932867
 20
160.2638707868756
 30
0.0
 11
139.2460573932867
 21
113.7638707868701
 31
0.0
  0
LINE
  5
C09E
330
1F
100
AcDbEntity
  8
AM_7
100
AcDbLine
 10
112.7460573932703
 20
95.29527978929001
 30
0.0
 11
112.7460573932703
 21
167.5802125449496
 31
0.0
1001
GENIUS_GENODEF_13
1002
{
1000
HIER
1070
     0
1002
}
1002
{
1000
MANEDIT
1070
     0
1002
}
1002
{
1000
NOSEL
1070
     0
1002
}
1002
{
1000
BEHIND
1070
     0
1002
}
1002
{
1000
OTHER
1070
     0
1002
}
1002
{
1000
REACTOR
1002
}
1001
GENIUS_GENOBJ-N-CEN_13
1002
{
1000
OWNER
1000
GEN
1002
}
1001
GENIUS_GENCEN_19
1002
{
1040
3.0
1002
}
  0
DIMENSION
  5
C09F
330
1F
100
AcDbEntity
  8
AM_5
100
AcDbDimension
  2
*D6
 10
120.7460573932694
 20
86.7638707868806
 30
0.0
 11
112.7460573932703
 21
89.86387078688059
 31
0.0
 70
    32
 71
     5
 42
15.99999999999818
 73
     0
 74
     0
 75
     0
  3
SYS$0
100
AcDbAlignedDimension
 13
104.7460573932712
 23
104.9638707868813
 33
0.0
 14
120.7460573932694
 24
104.9638707868813
 34
0.0
100
AcDbRotatedDimension
  0
LINE
  5
C0A2
330
1F
100
AcDbEntity
  8
AM_11
100
AcDbLine
 10
216.2513662574754
 20
199.0815271934641
 30
0.0
 11
249.2513662574754
 21
199.0815271934641
 31
0.0
  0
LINE
  5
C0A3
330
1F
100
AcDbEntity
  8
AM_11
100
AcDbLine
 10
249.2513662574754
 20
199.0815271934641
 30
0.0
 11
249.2513662574754
 21
277.1815787615976
 31
0.0
  0
LINE
  5
C0A4
330
1F
100
AcDbEntity
  8
AM_11
100
AcDbLine
 10
216.2513662574754
 20
199.0815271934641
 30
0.0
 11
216.2513662574754
 21
276.8430525196706
 31
0.0
  0
LINE
  5
C0A5
330
1F
100
AcDbEntity
  8
AM_7
100
AcDbLine
 10
232.7513662574754
 20
195.0664419843885
 30
0.0
 11
232.7513662574754
 21
268.4080799539713
 31
0.0
1001
GENIUS_GENOBJ-N-CEN_13
1002
{
1000
OWNER
1000
GEN
1002
}
1001
GENIUS_GENODEF_13
1002
{
1000
HIER
1070
     0
1002
}
1002
{
1000
MANEDIT
1070
     0
1002
}
1002
{
1000
NOSEL
1070
     0
1002
}
1002
{
1000
BEHIND
1070
     0
1002
}
1002
{
1000
OTHER
1070
     0
1002
}
1002
{
1000
REACTOR
1002
}
1001
GENIUS_GENCEN_19
1002
{
1040
3.0
1002
}
  0
LINE
  5
C0AE
330
1F
100
AcDbEntity
  8
AM_0
 48
0.5
100
AcDbLine
 10
245.2513662574754
 20
218.081527193466
 30
0.0
 11
245.2513662574754
 21
254.0815271935041
 31
0.0
  0
CIRCLE
  5
C0AF
330
1F
100
AcDbEntity
  8
AM_0
100
AcDbCircle
 10
225.051366257472
 20
216.5815271934714
 30
0.0
 40
2.0
  0
LINE
  5
C0B0
330
1F
100
AcDbEntity
  8
AM_7
 48
0.5
100
AcDbLine
 10
218.5858097117586
 20
216.5815271934714
 30
0.0
 11
246.9169228031922
 21
216.5815271934714
 31
0.0
  0
LINE
  5
C0B1
330
1F
100
AcDbEntity
  8
AM_7
 48
0.5
100
AcDbLine
 10
225.051366257472
 20
212.0976064707772
 30
0.0
 11
225.0513662574729
 21
221.0654479161637
 31
0.0
  0
LINE
  5
C0B2
330
1F
100
AcDbEntity
  8
AM_0
 48
0.5
100
AcDbLine
 10
229.2513662574727
 20
209.0815271934641
 30
0.0
 11
236.2513662574754
 21
209.0815271934641
 31
0.0
  0
ARC
  5
C0B3
330
1F
100
AcDbEntity
  8
AM_0
 48
0.5
100
AcDbCircle
 10
229.2513662574727
 20
218.0815271934641
 30
0.0
 40
9.0
100
AcDbArc
 50
180.0
 51
270.0
  0
ARC
  5
C0B4
330
1F
100
AcDbEntity
  8
AM_0
 48
0.5
100
AcDbCircle
 10
236.2513662574763
 20
218.0815271934641
 30
0.0
 40
9.0
100
AcDbArc
 50
270.0
 51
0.0
  0
CIRCLE
  5
C0B5
330
1F
100
AcDbEntity
  8
AM_0
100
AcDbCircle
 10
240.4513662574725
 20
216.5815271934714
 30
0.0
 40
2.0
  0
LINE
  5
C0B6
330
1F
100
AcDbEntity
  8
AM_7
 48
0.5
100
AcDbLine
 10
240.4513662574725
 20
212.0976064707772
 30
0.0
 11
240.4513662574725
 21
221.0654479161637
 31
0.0
  0
CIRCLE
  5
C0B7
330
1F
100
AcDbEntity
  8
AM_0
100
AcDbCircle
 10
232.7513662574763
 20
257.6815271935027
 30
0.0
 40
2.0
  0
CIRCLE
  5
C0B8
330
1F
100
AcDbEntity
  8
AM_3
 48
0.5
100
AcDbCircle
 10
232.7513662574763
 20
257.6815271935027
 30
0.0
 40
3.599999999999908
  0
ARC
  5
C0B9
330
1F
100
AcDbEntity
  8
AM_0
 48
0.5
100
AcDbCircle
 10
229.2513662574791
 20
254.0815271935023
 30
0.0
 40
9.000000000000056
100
AcDbArc
 50
90.0
 51
180.0
  0
ARC
  5
C0BA
330
1F
100
AcDbEntity
  8
AM_0
 48
0.5
100
AcDbCircle
 10
236.2513662574763
 20
254.0815271935023
 30
0.0
 40
9.000000000000056
100
AcDbArc
 50
0.0
 51
90.0
  0
LINE
  5
C0BB
330
1F
100
AcDbEntity
  8
AM_0
 48
0.5
100
AcDbLine
 10
236.2513662574763
 20
263.0815271935023
 30
0.0
 11
229.2513662574791
 21
263.0815271935023
 31
0.0
  0
LINE
  5
C0BC
330
1F
100
AcDbEntity
  8
AM_7
 48
0.5
100
AcDbLine
 10
228.1513662574723
 20
257.6815271935027
 30
0.0
 11
237.3513662574721
 21
257.6815271935027
 31
0.0
  0
LINE
  5
C0BF
330
1F
100
AcDbEntity
  8
AM_0
100
AcDbLine
 10
220.2513662574791
 20
254.0815271935023
 30
0.0
 11
220.2513662574781
 21
218.0815271934668
 31
0.0
  0
DIMENSION
  5
C0C1
330
1F
100
AcDbEntity
  8
AM_5
100
AcDbDimension
  2
*D10
 10
261.2513662574681
 20
113.7638707868769
 30
0.0
 11
258.1513662574681
 21
132.0138707867896
 31
0.0
 70
    32
 71
     5
 42
36.49999999982538
 73
     0
 74
     0
 75
     0
  3
SYS$0
100
AcDbAlignedDimension
 13
238.3939551833653
 23
150.2638707867023
 33
0.0
 14
249.2513662574681
 24
113.7638707868769
 34
0.0
 50
90.0
100
AcDbRotatedDimension
  0
DIMENSION
  5
C0C2
330
1F
100
AcDbEntity
  8
AM_5
100
AcDbDimension
  2
*D11
 10
271.6054899300078
 20
160.7638707868956
 30
0.0
 11
271.6054899300077
 21
137.2044871479976
 31
0.0
 70
   160
  1
<>
 71
     5
 42
47.00000000001864
 73
     0
 74
     0
 75
     0
  3
SYS$0
100
AcDbAlignedDimension
 13
249.2513662574681
 23
113.7638707868769
 33
0.0
 14
245.7513662574827
 24
160.7638707868956
 34
0.0
 50
90.0
100
AcDbRotatedDimension
  0
DIMENSION
  5
C0C3
330
1F
100
AcDbEntity
  8
AM_5
100
AcDbDimension
  2
*D12
 10
271.6054899300086
 20
108.7638707868974
 30
0.0
 11
265.838823263342
 21
91.6212041202308
 31
0.0
 70
    32
  1
上下調整量\P0（Min）～9（Max）
 71
     5
 42
4.99999999997226
 73
     0
 74
     0
 75
     0
  3
SYS$0
100
AcDbAlignedDimension
 13
249.2513662574681
 23
113.7638707868697
 33
0.0
 14
242.7513667498395
 24
108.7638707868974
 34
0.0
 50
90.0
100
AcDbRotatedDimension
  0
CIRCLE
  5
C0C6
330
1F
100
AcDbEntity
  8
AM_3
 48
0.5
100
AcDbCircle
 10
240.4513662574771
 20
216.5815271934705
 30
0.0
 40
3.599999999999908
  0
CIRCLE
  5
C0C7
330
1F
100
AcDbEntity
  8
AM_3
 48
0.5
100
AcDbCircle
 10
225.0513662574774
 20
216.5815271934705
 30
0.0
 40
3.599999999999908
  0
DIMENSION
  5
C0C9
330
1F
100
AcDbEntity
  8
AM_5
100
AcDbDimension
  2
*D16
 10
132.2460573932649
 20
-95.8715466565833
 30
0.0
 11
144.5927240599388
 21
-95.8715466565833
 31
0.0
 70
   160
 71
     5
 42
7.500000000007275
 73
     0
 74
     0
 75
     0
  3
SYS$0
100
AcDbAlignedDimension
 13
139.7460573932721
 23
-69.20599011086835
 33
0.0
 14
132.2460573932649
 24
-78.87154665658329
 34
0.0
 50
180.0
100
AcDbRotatedDimension
  0
DIMENSION
  5
C0CA
330
1F
100
AcDbEntity
  8
AM_5
100
AcDbDimension
  2
*D17
 10
91.1460573932336
 20
-95.87154665658601
 30
0.0
 11
111.6960573932492
 21
-92.77154665658603
 31
0.0
 70
    32
 71
     5
 42
41.10000000003128
 73
     0
 74
     0
 75
     0
  3
SYS$0
100
AcDbAlignedDimension
 13
132.2460573932649
 23
-78.87154665658329
 33
0.0
 14
91.1460573932336
 24
-69.30599011086326
 34
0.0
 50
180.0
100
AcDbRotatedDimension
  0
DIMENSION
  5
C0CB
330
1F
100
AcDbEntity
  8
AM_5
100
AcDbDimension
  2
*D18
 10
164.7280023149787
 20
-72.40599011086364
 30
0.0
 11
161.6280023149788
 21
-64.70599011086334
 31
0.0
 70
    32
 71
     5
 42
15.40000000000054
 73
     0
 74
     0
 75
     0
  3
SYS$0
100
AcDbAlignedDimension
 13
136.729978115959
 23
-57.00599011086308
 33
0.0
 14
136.729978115959
 24
-72.40599011086363
 34
0.0
 50
270.0
100
AcDbRotatedDimension
  0
DIMENSION
  5
C0CC
330
1F
100
AcDbEntity
  8
AM_5
100
AcDbDimension
  2
*D19
 10
76.94351728898713
 20
104.9638707868813
 30
0.0
 11
76.94351728898709
 21
95.91720412021391
 31
0.0
 70
   160
 71
     5
 42
3.200000000000727
 73
     0
 74
     0
 75
     0
  3
SYS$0
100
AcDbAlignedDimension
 13
87.74605739327034
 23
101.7638707868806
 33
0.0
 14
90.50404238737428
 24
104.9638707868813
 34
0.0
 50
90.0
100
AcDbRotatedDimension
  0
DIMENSION
  5
C0CD
330
1F
100
AcDbEntity
  8
AM_5
100
AcDbDimension
  2
*D20
 10
184.246057393294
 20
113.7638707868733
 30
0.0
 11
184.246057393294
 21
85.09853745354723
 31
0.0
 70
   160
  1
床～扉 スキマ\P7～16 範囲まで対応可
 71
     5
 42
11.99999999999272
 73
     0
 74
     0
 75
     0
  3
SYS$0
100
AcDbAlignedDimension
 13
137.7460573932703
 23
101.7638707868806
 33
0.0
 14
149.2460573932694
 24
113.7638707868733
 34
0.0
 50
90.0
100
AcDbRotatedDimension
  0
DIMENSION
  5
C0CE
330
1F
100
AcDbEntity
  8
AM_5
100
AcDbDimension
  2
*D21
 10
243.7513667498395
 20
86.76387078687969
 30
0.0
 11
232.7513662574759
 21
89.86387078687968
 31
0.0
 70
    32
 71
     5
 42
22.00000098472719
 73
     0
 74
     0
 75
     0
  3
SYS$0
100
AcDbAlignedDimension
 13
221.7513657651123
 23
109.7638707868942
 33
0.0
 14
243.7513667498395
 24
109.7638707869015
 34
0.0
100
AcDbRotatedDimension
  0
LINE
  5
C0CF
330
1F
100
AcDbEntity
  8
AM_0
100
AcDbLine
 10
178.599819480122
 20
227.7815271934694
 30
0.0
 11
200.7998194801191
 21
227.7815271934694
 31
0.0
  0
LINE
  5
C0D0
330
1F
100
AcDbEntity
  8
AM_0
100
AcDbLine
 10
200.7998194801191
 20
244.3815271934716
 30
0.0
 11
178.599819480122
 21
244.3815271934716
 31
0.0
  0
LINE
  5
C0D1
330
1F
100
AcDbEntity
  8
AM_7
100
AcDbLine
 10
154.7998194801191
 20
236.0815271934723
 30
0.0
 11
251.7265128134174
 21
236.0815271934673
 31
0.0
  0
LINE
  5
C0D2
330
1F
100
AcDbEntity
  8
AM_0
100
AcDbLine
 10
200.2998194801191
 20
228.0815271934723
 30
0.0
 11
173.6998194801278
 21
228.0815271934723
 31
0.0
  0
LINE
  5
C0D3
330
1F
100
AcDbEntity
  8
AM_0
100
AcDbLine
 10
173.6998194801278
 20
244.0815271934723
 30
0.0
 11
200.2998194801191
 21
244.0815271934723
 31
0.0
  0
LINE
  5
C0D4
330
1F
100
AcDbEntity
  8
AM_7
100
AcDbLine
 10
184.7998194801191
 20
206.0815271934723
 30
0.0
 11
184.7998194801191
 21
266.0815271934723
 31
0.0
  0
LINE
  5
C0D5
330
1F
100
AcDbEntity
  8
AM_0
100
AcDbLine
 10
173.6998194801278
 20
228.0815271934723
 30
0.0
 11
173.6998194801278
 21
234.5815271934723
 31
0.0
  0
LINE
  5
C0D6
330
1F
100
AcDbEntity
  8
AM_0
100
AcDbLine
 10
168.7998194801191
 20
222.6815271934709
 30
0.0
 11
168.7998194801191
 21
249.4815271934701
 31
0.0
  0
LINE
  5
C0D7
330
1F
100
AcDbEntity
  8
AM_0
100
AcDbLine
 10
173.4998194801235
 20
227.8815271934716
 30
0.0
 11
173.4998194801235
 21
244.2815271934694
 31
0.0
  0
LINE
  5
C0D8
330
1F
100
AcDbEntity
  8
AM_7
100
AcDbLine
 10
175.2998194801191
 20
220.6973182183572
 30
0.0
 11
175.2998194801191
 21
251.4657361685875
 31
0.0
  0
LINE
  5
C0D9
330
1F
100
AcDbEntity
  8
AM_0
100
AcDbLine
 10
168.7998194801191
 20
222.6815271934709
 30
0.0
 11
177.599819480122
 21
222.6815271934709
 31
0.0
  0
LINE
  5
C0DA
330
1F
100
AcDbEntity
  8
AM_0
100
AcDbLine
 10
168.7998194801191
 20
222.8815271934716
 30
0.0
 11
177.7998194801191
 21
222.8815271934716
 31
0.0
  0
ARC
  5
C0DB
330
1F
100
AcDbEntity
  8
AM_0
100
AcDbCircle
 10
177.7998194801191
 20
223.3815271934716
 30
0.0
 40
0.5
100
AcDbArc
 50
270.0
 51
0.0
  0
LINE
  5
C0DC
330
1F
100
AcDbEntity
  8
AM_0
100
AcDbLine
 10
178.599819480122
 20
223.6815271934708
 30
0.0
 11
178.599819480122
 21
227.7815271934694
 31
0.0
  0
LINE
  5
C0DD
330
1F
100
AcDbEntity
  8
AM_2
100
AcDbLine
 10
178.2998194801191
 20
227.0815271934723
 30
0.0
 11
178.599819480122
 21
227.0815271934723
 31
0.0
  0
LINE
  5
C0DE
330
1F
100
AcDbEntity
  8
AM_0
100
AcDbLine
 10
177.4998194801235
 20
227.8815271934716
 30
0.0
 11
178.2998194801191
 21
227.0815271934723
 31
0.0
  0
LINE
  5
C0DF
330
1F
100
AcDbEntity
  8
AM_0
100
AcDbLine
 10
178.2998194801191
 20
223.3815271934716
 30
0.0
 11
178.2998194801191
 21
227.0815271934723
 31
0.0
  0
ARC
  5
C0E0
330
1F
100
AcDbEntity
  8
AM_0
100
AcDbCircle
 10
177.599819480122
 20
223.6815271934708
 30
0.0
 40
1.0
100
AcDbArc
 50
270.0
 51
0.0
  0
LINE
  5
C0E1
330
1F
100
AcDbEntity
  8
AM_7
100
AcDbLine
 10
187.7998194801191
 20
220.0815271934723
 30
0.0
 11
179.7998194801191
 21
220.0815271934723
 31
0.0
  0
CIRCLE
  5
C0E2
330
1F
100
AcDbEntity
  8
AM_3
100
AcDbCircle
 10
183.7998194801191
 20
220.0815271934723
 30
0.0
 40
3.2
  0
LINE
  5
C0E3
330
1F
100
AcDbEntity
  8
AM_7
100
AcDbLine
 10
183.7998194801191
 20
216.0815271934723
 30
0.0
 11
183.7998194801191
 21
224.0815271934723
 31
0.0
  0
CIRCLE
  5
C0E4
330
1F
100
AcDbEntity
  8
AM_3
100
AcDbCircle
 10
183.7998194801191
 20
220.0815271934723
 30
0.0
 40
2.0
  0
LINE
  5
C0E5
330
1F
100
AcDbEntity
  8
AM_0
100
AcDbLine
 10
177.4998194801235
 20
227.8815271934716
 30
0.0
 11
173.4998194801235
 21
227.8815271934716
 31
0.0
  0
LINE
  5
C0E6
330
1F
100
AcDbEntity
  8
AM_0
100
AcDbLine
 10
168.7998194801191
 20
249.4815271934701
 30
0.0
 11
177.599819480122
 21
249.4815271934701
 31
0.0
  0
LINE
  5
C0E7
330
1F
100
AcDbEntity
  8
AM_0
100
AcDbLine
 10
168.7998194801191
 20
249.2815271934694
 30
0.0
 11
177.7998194801191
 21
249.2815271934694
 31
0.0
  0
LINE
  5
C0E8
330
1F
100
AcDbEntity
  8
AM_0
100
AcDbLine
 10
178.2998194801191
 20
248.7815271934694
 30
0.0
 11
178.2998194801191
 21
245.0815271934723
 31
0.0
  0
LINE
  5
C0E9
330
1F
100
AcDbEntity
  8
AM_0
100
AcDbLine
 10
178.599819480122
 20
244.3815271934716
 30
0.0
 11
178.599819480122
 21
248.4815271934701
 31
0.0
  0
LINE
  5
C0EA
330
1F
100
AcDbEntity
  8
AM_0
100
AcDbLine
 10
178.2998194801191
 20
245.0815271934723
 30
0.0
 11
177.4998194801235
 21
244.2815271934694
 31
0.0
  0
LINE
  5
C0EB
330
1F
100
AcDbEntity
  8
AM_2
100
AcDbLine
 10
178.2998194801191
 20
245.0815271934723
 30
0.0
 11
178.599819480122
 21
245.0815271934723
 31
0.0
  0
LINE
  5
C0EC
330
1F
100
AcDbEntity
  8
AM_0
100
AcDbLine
 10
177.4998194801235
 20
244.2815271934694
 30
0.0
 11
178.2998194801191
 21
245.0815271934723
 31
0.0
  0
LINE
  5
C0ED
330
1F
100
AcDbEntity
  8
AM_2
100
AcDbLine
 10
176.099819480122
 20
249.2815271934694
 30
0.0
 11
176.099819480122
 21
249.4815271934701
 31
0.0
  0
LINE
  5
C0EE
330
1F
100
AcDbEntity
  8
AM_2
100
AcDbLine
 10
174.4998194801235
 20
249.4815271934701
 30
0.0
 11
174.4998194801235
 21
249.2815271934694
 31
0.0
  0
LINE
  5
C0EF
330
1F
100
AcDbEntity
  8
AM_0
100
AcDbLine
 10
174.6284069572218
 20
237.5815271934723
 30
0.0
 11
174.6284069572218
 21
234.5815271934723
 31
0.0
  0
LINE
  5
C0F0
330
1F
100
AcDbEntity
  8
AM_0
100
AcDbLine
 10
174.6284069572218
 20
234.5815271934723
 30
0.0
 11
173.6998194801278
 21
234.5815271934723
 31
0.0
  0
LINE
  5
C0F1
330
1F
100
AcDbEntity
  8
AM_2
100
AcDbLine
 10
174.2998194801191
 20
237.3315271934723
 30
0.0
 11
173.4998194801235
 21
237.3315271934723
 31
0.0
  0
LINE
  5
C0F2
330
1F
100
AcDbEntity
  8
AM_0
100
AcDbLine
 10
173.6998194801278
 20
237.5815271934723
 30
0.0
 11
174.6284069572218
 21
237.5815271934723
 31
0.0
  0
ARC
  5
C0F3
330
1F
100
AcDbEntity
  8
AM_2
100
AcDbCircle
 10
174.2998194801191
 20
235.0315271934694
 30
0.0
 40
0.2
100
AcDbArc
 50
270.0
 51
0.0
  0
LINE
  5
C0F4
330
1F
100
AcDbEntity
  8
AM_2
100
AcDbLine
 10
174.4998194801235
 20
235.0315271934694
 30
0.0
 11
174.4998194801235
 21
237.1315271934716
 31
0.0
  0
LINE
  5
C0F5
330
1F
100
AcDbEntity
  8
AM_2
100
AcDbLine
 10
173.4998194801235
 20
234.8315271934723
 30
0.0
 11
174.2998194801191
 21
234.8315271934723
 31
0.0
  0
ARC
  5
C0F6
330
1F
100
AcDbEntity
  8
AM_2
100
AcDbCircle
 10
174.2998194801191
 20
237.1315271934716
 30
0.0
 40
0.2
100
AcDbArc
 50
0.0
 51
90.0
  0
LINE
  5
C0F7
330
1F
100
AcDbEntity
  8
AM_0
100
AcDbLine
 10
173.6998194801278
 20
237.5815271934723
 30
0.0
 11
173.6998194801278
 21
244.0815271934723
 31
0.0
  0
LINE
  5
C0F8
330
1F
100
AcDbEntity
  8
AM_0
100
AcDbLine
 10
173.4998194801235
 20
244.2815271934694
 30
0.0
 11
177.4998194801235
 21
244.2815271934694
 31
0.0
  0
LINE
  5
C0F9
330
1F
100
AcDbEntity
  8
AM_0
100
AcDbLine
 10
177.4998194801235
 20
244.2815271934694
 30
0.0
 11
173.4998194801235
 21
244.2815271934694
 31
0.0
  0
LINE
  5
C0FA
330
1F
100
AcDbEntity
  8
AM_0
100
AcDbLine
 10
201.7998194801192
 20
228.7815271934694
 30
0.0
 11
201.7998194801192
 21
243.3815271934716
 31
0.0
  0
LINE
  5
C0FB
330
1F
100
AcDbEntity
  8
AM_0
100
AcDbLine
 10
201.2998194801191
 20
243.0815271934723
 30
0.0
 11
201.2998194801191
 21
229.0815271934723
 31
0.0
  0
LINE
  5
C0FC
330
1F
100
AcDbEntity
  8
AM_0
100
AcDbLine
 10
200.2998194801191
 20
228.0815271934723
 30
0.0
 11
201.2998194801191
 21
229.0815271934723
 31
0.0
  0
LINE
  5
C0FD
330
1F
100
AcDbEntity
  8
AM_0
100
AcDbLine
 10
201.7998194801192
 20
228.7815271934694
 30
0.0
 11
200.7998194801191
 21
227.7815271934694
 31
0.0
  0
LINE
  5
C0FE
330
1F
100
AcDbEntity
  8
AM_3
100
AcDbLine
 10
191.3174718834277
 20
221.8769431745811
 30
0.0
 11
194.709664268056
 21
223.9966202315143
 31
0.0
  0
LINE
  5
C0FF
330
1F
100
AcDbEntity
  8
AM_3
100
AcDbLine
 10
190.7875526191935
 20
222.7249912707364
 30
0.0
 11
194.1797450038145
 21
224.8446683276695
 31
0.0
  0
LINE
  5
C100
330
1F
100
AcDbEntity
  8
AM_3
100
AcDbLine
 10
193.9670682045914
 20
217.6367026937976
 30
0.0
 11
197.3592605892197
 21
219.7563797507307
 31
0.0
  0
LINE
  5
C101
330
1F
100
AcDbEntity
  8
AM_3
100
AcDbLine
 10
193.4371489403572
 20
218.4847507899565
 30
0.0
 11
196.8293413249855
 21
220.604427846886
 31
0.0
  0
LINE
  5
C102
330
1F
100
AcDbEntity
  8
AM_7
100
AcDbLine
 10
193.6498257395876
 20
225.6927164238248
 30
0.0
 11
197.8891798534466
 21
218.9083316545755
 31
0.0
  0
ARC
  5
C103
330
1F
100
AcDbEntity
  8
AM_3
100
AcDbCircle
 10
195.7695027965171
 20
222.3005240392001
 30
0.0
 40
3.0
100
AcDbArc
 50
302.0000000000707
 51
122.0000000000707
  0
ARC
  5
C104
330
1F
100
AcDbEntity
  8
AM_3
100
AcDbCircle
 10
195.7695027965171
 20
222.3005240392001
 30
0.0
 40
2.0
100
AcDbArc
 50
302.0000000000707
 51
122.0000000000707
  0
LINE
  5
C105
330
1F
100
AcDbEntity
  8
AM_7
100
AcDbLine
 10
190.2576333549593
 20
223.5730393668916
 30
0.0
 11
194.4969874688256
 21
216.7886545976423
 31
0.0
  0
LINE
  5
C106
330
1F
100
AcDbEntity
  8
AM_7
100
AcDbLine
 10
188.9851180272678
 20
218.0611699253339
 30
0.0
 11
199.1616951811454
 21
224.4202010961333
 31
0.0
  0
ARC
  5
C107
330
1F
100
AcDbEntity
  8
AM_3
100
AcDbCircle
 10
192.3773104118888
 20
220.180846982267
 30
0.0
 40
3.0
100
AcDbArc
 50
122.0000000000707
 51
302.0000000000707
  0
ARC
  5
C108
330
1F
100
AcDbEntity
  8
AM_3
100
AcDbCircle
 10
192.3773104118888
 20
220.180846982267
 30
0.0
 40
2.0
100
AcDbArc
 50
122.0000000000707
 51
302.0000000000707
  0
LINE
  5
C109
330
1F
100
AcDbEntity
  8
AM_0
100
AcDbLine
 10
201.2998194801191
 20
243.0815271934723
 30
0.0
 11
200.2998194801191
 21
244.0815271934723
 31
0.0
  0
LINE
  5
C10A
330
1F
100
AcDbEntity
  8
AM_0
100
AcDbLine
 10
200.7998194801191
 20
244.3815271934716
 30
0.0
 11
201.7998194801192
 21
243.3815271934716
 31
0.0
  0
CIRCLE
  5
C10B
330
1F
100
AcDbEntity
  8
AM_0
 48
0.5
100
AcDbCircle
 10
184.7998194801191
 20
236.0815271934723
 30
0.0
 40
25.0
  0
ARC
  5
C10C
330
1F
100
AcDbEntity
  8
AM_0
100
AcDbCircle
 10
177.7998194801191
 20
248.7815271934731
 30
0.0
 40
0.5
100
AcDbArc
 50
0.0
 51
90.0
  0
ARC
  5
C10D
330
1F
100
AcDbEntity
  8
AM_0
100
AcDbCircle
 10
177.599819480122
 20
248.4815271934738
 30
0.0
 40
1.0
100
AcDbArc
 50
0.0
 51
90.0
  0
LINE
  5
C10E
330
1F
100
AcDbEntity
  8
AM_7
100
AcDbLine
 10
187.7998194801191
 20
252.0815271934723
 30
0.0
 11
179.7998194801191
 21
252.0815271934723
 31
0.0
  0
CIRCLE
  5
C10F
330
1F
100
AcDbEntity
  8
AM_3
100
AcDbCircle
 10
183.7998194801191
 20
252.0815271934723
 30
0.0
 40
3.2
  0
LINE
  5
C110
330
1F
100
AcDbEntity
  8
AM_7
100
AcDbLine
 10
183.7998194801191
 20
256.0815271934723
 30
0.0
 11
183.7998194801191
 21
248.0815271934723
 31
0.0
  0
CIRCLE
  5
C111
330
1F
100
AcDbEntity
  8
AM_3
100
AcDbCircle
 10
183.7998194801191
 20
252.0815271934723
 30
0.0
 40
2.0
  0
LINE
  5
C112
330
1F
100
AcDbEntity
  8
AM_3
100
AcDbLine
 10
191.3174718834277
 20
250.2861112123635
 30
0.0
 11
194.709664268056
 21
248.1664341554303
 31
0.0
  0
LINE
  5
C113
330
1F
100
AcDbEntity
  8
AM_3
100
AcDbLine
 10
190.7875526191935
 20
249.4380631162083
 30
0.0
 11
194.1797450038145
 21
247.3183860592751
 31
0.0
  0
LINE
  5
C114
330
1F
100
AcDbEntity
  8
AM_3
100
AcDbLine
 10
193.9670682045914
 20
254.526351693147
 30
0.0
 11
197.3592605892197
 21
252.4066746362139
 31
0.0
  0
LINE
  5
C115
330
1F
100
AcDbEntity
  8
AM_3
100
AcDbLine
 10
193.4371489403572
 20
253.6783035969881
 30
0.0
 11
196.8293413249855
 21
251.5586265400586
 31
0.0
  0
LINE
  5
C116
330
1F
100
AcDbEntity
  8
AM_7
100
AcDbLine
 10
193.6498257395876
 20
246.4703379631199
 30
0.0
 11
197.8891798534466
 21
253.2547227323691
 31
0.0
  0
ARC
  5
C117
330
1F
100
AcDbEntity
  8
AM_3
100
AcDbCircle
 10
195.7695027965171
 20
249.8625303477445
 30
0.0
 40
3.0
100
AcDbArc
 50
237.9999999998727
 51
57.99999999987259
  0
ARC
  5
C118
330
1F
100
AcDbEntity
  8
AM_3
100
AcDbCircle
 10
195.7695027965171
 20
249.8625303477445
 30
0.0
 40
2.0
100
AcDbArc
 50
237.9999999998727
 51
57.99999999987259
  0
LINE
  5
C119
330
1F
100
AcDbEntity
  8
AM_7
100
AcDbLine
 10
190.2576333549593
 20
248.590015020053
 30
0.0
 11
194.4969874688256
 21
255.3743997893023
 31
0.0
  0
LINE
  5
C11A
330
1F
100
AcDbEntity
  8
AM_7
100
AcDbLine
 10
188.9851180272678
 20
254.1018844616108
 30
0.0
 11
199.1616951811454
 21
247.7428532908113
 31
0.0
  0
ARC
  5
C11B
330
1F
100
AcDbEntity
  8
AM_3
100
AcDbCircle
 10
192.3773104118888
 20
251.9822074046776
 30
0.0
 40
3.0
100
AcDbArc
 50
57.99999999987259
 51
237.9999999998727
  0
ARC
  5
C11C
330
1F
100
AcDbEntity
  8
AM_3
100
AcDbCircle
 10
192.3773104118888
 20
251.9822074046776
 30
0.0
 40
2.0
100
AcDbArc
 50
57.99999999987259
 51
237.9999999998727
  0
DIMENSION
  5
C11D
330
1F
100
AcDbEntity
  8
AM_5
100
AcDbDimension
  2
*D22
 10
149.3663136152633
 20
220.0815271934723
 30
0.0
 11
146.2663136152633
 21
236.0815271934723
 31
0.0
 70
    32
 71
     5
 42
32.0
 73
     0
 74
     0
 75
     0
  3
SYS$0
100
AcDbAlignedDimension
 13
179.7998194801191
 23
252.0815271934723
 33
0.0
 14
179.7998194801191
 24
220.0815271934723
 34
0.0
 50
90.0
100
AcDbRotatedDimension
  0
DIMENSION
  5
C11E
330
1F
100
AcDbEntity
  8
AM_5
100
AcDbDimension
  2
*D23
 10
183.7998194801191
 20
199.0815261834725
 30
0.0
 11
180.0331528134524
 21
202.1815261834725
 31
0.0
 70
    32
 71
     5
 73
     0
 74
     0
 75
     0
  3
SYS$0
100
AcDbAlignedDimension
 13
184.7998194801191
 23
206.0815271934723
 33
0.0
 14
183.7998194801191
 24
216.0815271934723
 34
0.0
100
AcDbRotatedDimension
  0
DIMENSION
  5
C11F
330
1F
100
AcDbEntity
  8
AM_5
100
AcDbDimension
  2
*D24
 10
139.3663136152652
 20
211.0815271934723
 30
0.0
 11
136.2663136152651
 21
236.0815271934724
 31
0.0
 70
    32
  1
%%c<>
 71
     5
 42
50.00000000000003
 73
     0
 74
     0
 75
     0
  3
SYS$0
100
AcDbAlignedDimension
 13
184.7998194801191
 23
261.0815271934723
 33
0.0
 14
184.7998194801191
 24
211.0815271934723
 34
0.0
 50
90.0
100
AcDbRotatedDimension
  0
DIMENSION
  5
C120
330
1F
100
AcDbEntity
  8
AM_5
100
AcDbDimension
  2
*D25
 10
169.3190552438746
 20
101.7638707868806
 30
0.0
 11
169.3190552438746
 21
78.45009063881992
 31
0.0
 70
   160
  1
床～マグネット本体底部\P<>（推奨）\P（7～10mmに上下調整のこと）
 71
     5
 42
7.000000000014551
 73
     0
 74
     0
 75
     0
  3
SYS$0
100
AcDbAlignedDimension
 13
125.2468640458573
 23
108.7638707868951
 33
0.0
 14
137.7460573932703
 24
101.7638707868806
 34
0.0
 50
89.99999999994789
100
AcDbRotatedDimension
  0
LINE
  5
C2EB
330
1F
100
AcDbEntity
  8
AM_1
100
AcDbLine
 10
11.5
 20
232.5
 30
0.0
 11
121.5
 21
232.5
 31
0.0
  0
LINE
  5
C2EC
330
1F
100
AcDbEntity
  8
AM_2
100
AcDbLine
 10
31.5
 20
240.5
 30
0.0
 11
121.5
 21
240.5
 31
0.0
  0
LINE
  5
C2EE
330
1F
100
AcDbEntity
  8
AM_2
100
AcDbLine
 10
11.5
 20
256.5
 30
0.0
 11
121.5
 21
256.5
 31
0.0
  0
LINE
  5
C2EF
330
1F
100
AcDbEntity
  8
AM_2
100
AcDbLine
 10
11.5
 20
272.5
 30
0.0
 11
121.5
 21
272.5
 31
0.0
  0
LINE
  5
C2F0
330
1F
100
AcDbEntity
  8
AM_2
100
AcDbLine
 10
11.5
 20
280.5
 30
0.0
 11
121.5
 21
280.5
 31
0.0
  0
LINE
  5
C2F2
330
1F
100
AcDbEntity
  8
AM_2
100
AcDbLine
 10
31.5
 20
288.5
 30
0.0
 11
31.5
 21
232.5
 31
0.0
  0
MTEXT
  5
C2F4
330
1F
100
AcDbEntity
  8
AM_6
100
AcDbMText
 10
21.5
 20
260.5
 30
0.0
 40
3.2
 41
20.0
 46
0.0
 71
     5
 72
     5
  1
仕上げ
 73
     1
 44
1.0
  0
MTEXT
  5
C2F5
330
1F
100
AcDbEntity
  8
AM_6
100
AcDbMText
 10
21.5
 20
240.5
 30
0.0
 40
3.2
 41
20.0
 46
0.0
 71
     5
 72
     5
  1
セットビス
 73
     1
 44
1.0
  0
MTEXT
  5
C2F6
330
1F
100
AcDbEntity
  8
AM_6
100
AcDbMText
 10
21.5
 20
268.5
 30
0.0
 40
3.2
 41
20.0
 46
0.0
 71
     5
 72
     5
  1
材　質
 73
     1
 44
1.0
  0
MTEXT
  5
C2F7
330
1F
100
AcDbEntity
  8
AM_6
100
AcDbMText
 10
21.5
 20
284.5
 30
0.0
 40
3.2
 41
20.0
 46
0.0
 71
     5
 72
     5
  1
品　名
 73
     1
 44
1.0
  0
MTEXT
  5
C2F8
330
1F
100
AcDbEntity
  8
AM_6
100
AcDbMText
 10
21.5
 20
276.5
 30
0.0
 40
3.2
 41
20.0
 46
0.0
 71
     5
 72
     5
  1
品　番
 73
     1
 44
1.0
  0
MTEXT
  5
C2F9
330
1F
100
AcDbEntity
  8
AM_6
100
AcDbMText
 10
36.5
 20
244.5
 30
0.0
 40
3.2
 41
90.0
 46
0.0
 71
     4
 72
     5
  1
呼び3×16 サラタッピンネジ　　　　　：4本
 73
     1
 44
1.0
  0
MTEXT
  5
C2FA
330
1F
100
AcDbEntity
  8
AM_6
100
AcDbMText
 10
36.5
 20
268.5
 30
0.0
 40
3.2
 41
90.0
 46
0.0
 71
     4
 72
     5
  1
樹脂
 73
     1
 44
1.0
  0
MTEXT
  5
C2FB
330
1F
100
AcDbEntity
  8
AM_6
100
AcDbMText
 10
36.5
 20
276.5
 30
0.0
 40
3.2
 41
90.0
 46
0.0
 71
     4
 72
     5
  1
DCI-84C
 73
     1
 44
1.0
  0
MTEXT
  5
C2FC
330
1F
100
AcDbEntity
  8
AM_6
100
AcDbMText
 10
36.5
 20
284.5
 30
0.0
 40
3.2
 41
90.0
 46
0.0
 71
     4
 72
     5
  1
ドアストッパー（コンシールドタイプ）
 73
     1
 44
1.0
  0
LINE
  5
C2FD
330
1F
100
AcDbEntity
  8
AM_1
100
AcDbLine
 10
121.5
 20
288.5
 30
0.0
 11
121.5
 21
232.5
 31
0.0
  0
MTEXT
  5
C2FE
330
1F
100
AcDbEntity
  8
AM_6
100
AcDbMText
 10
36.5
 20
236.5
 30
0.0
 40
3.2
 41
90.0
 46
0.0
 71
     4
 72
     5
  1
呼び3.5×30 サラタッピンネジ　　　　  ：3本
 73
     1
 44
1.0
  0
LINE
  5
C301
330
1F
100
AcDbEntity
  8
AM_2
100
AcDbLine
 10
11.5
 20
264.5
 30
0.0
 11
121.5
 21
264.5
 31
0.0
  0
LINE
  5
C302
330
1F
100
AcDbEntity
  8
AM_2
100
AcDbLine
 10
11.5
 20
248.5
 30
0.0
 11
121.5
 21
248.5
 31
0.0
  0
MTEXT
  5
C304
330
1F
100
AcDbEntity
  8
AM_6
100
AcDbMText
 10
36.17864283800918
 20
260.5
 30
0.0
 40
3.2
 41
90.0
 46
0.0
 71
     4
 72
     5
  1
扉側金具：生地、　床側金具：クロ-ムメッキ
 73
     1
 44
1.0
  0
MTEXT
  5
C307
330
1F
100
AcDbEntity
  8
AM_6
100
AcDbMText
 10
21.5
 20
252.5
 30
0.0
 40
3.2
 41
20.0
 46
0.0
 71
     5
 72
     5
  1
左右勝手
 73
     1
 44
1.0
  0
MTEXT
  5
C308
330
1F
100
AcDbEntity
  8
AM_6
100
AcDbMText
 10
36.17864283800918
 20
252.5
 30
0.0
 40
3.2
 41
90.0
 46
0.0
 71
     4
 72
     5
  1
有り（本図は左勝手）
 73
     1
 44
1.0
  0
MTEXT
  5
C309
330
1F
100
AcDbEntity
  8
AM_6
100
AcDbMText
 10
76.44721054327352
 20
246.3738310890489
 30
0.0
 40
3.2
 41
74.09164112590565
 46
0.0
 71
     1
 72
     5
  1
+ Fe
 73
     1
 44
1.0
  0
CIRCLE
  5
C30A
330
1F
100
AcDbEntity
  8
AM_CL
100
AcDbCircle
 10
77.34294393660208
 20
244.3989421165239
 30
0.0
 40
1.549226502583842
  0
LINE
  5
C455
330
1F
100
AcDbEntity
  8
AM_0
100
AcDbLine
 10
149.7460573932735
 20
-81.20599011086516
 30
0.0
 11
149.7460573932735
 21
-48.20599011086518
 31
0.0
  0
LINE
  5
C456
330
1F
100
AcDbEntity
  8
AM_0
100
AcDbLine
 10
149.7460573932735
 20
-48.20599011086518
 30
0.0
 11
71.64600582514004
 21
-48.20599011086518
 31
0.0
  0
LINE
  5
C457
330
1F
100
AcDbEntity
  8
AM_0
100
AcDbLine
 10
149.7460573932735
 20
-81.20599011086516
 30
0.0
 11
71.98453206706699
 21
-81.20599011086516
 31
0.0
  0
LINE
  5
C458
330
1F
100
AcDbEntity
  8
AM_7
100
AcDbLine
 10
154.6825570100088
 20
-64.70599011086516
 30
0.0
 11
80.11310123566909
 21
-64.70599011086517
 31
0.0
1001
GENIUS_GENOBJ-N-CEN_13
1002
{
1000
OWNER
1000
GEN
1002
}
1001
GENIUS_GENODEF_13
1002
{
1000
HIER
1070
     0
1002
}
1002
{
1000
MANEDIT
1070
     0
1002
}
1002
{
1000
NOSEL
1070
     0
1002
}
1002
{
1000
BEHIND
1070
     0
1002
}
1002
{
1000
OTHER
1070
     0
1002
}
1002
{
1000
REACTOR
1002
}
1001
GENIUS_GENCEN_19
1002
{
1040
3.0
1002
}
  0
LINE
  5
C459
330
1F
100
AcDbEntity
  8
AM_0
 48
0.5
100
AcDbLine
 10
131.7460573932735
 20
-52.20599011086335
 30
0.0
 11
93.7460573932608
 21
-52.20599011086335
 31
0.0
  0
ARC
  5
C45A
330
1F
100
AcDbEntity
  8
AM_0
 48
0.5
100
AcDbCircle
 10
93.7460573932608
 20
-60.20599011086336
 30
0.0
 40
8.0
100
AcDbArc
 50
90.0
 51
179.9999999999479
  0
ARC
  5
C45B
330
1F
100
AcDbEntity
  8
AM_0
 48
0.5
100
AcDbCircle
 10
131.7460573932735
 20
-60.20599011086336
 30
0.0
 40
8.0
100
AcDbArc
 50
0.0
 51
90.0
  0
LINE
  5
C45C
330
1F
100
AcDbEntity
  8
AM_0
 48
0.5
100
AcDbLine
 10
131.7460573932717
 20
-77.20599011086244
 30
0.0
 11
93.74605739325534
 21
-77.20599011085062
 31
0.0
  0
LINE
  5
C45D
330
1F
100
AcDbEntity
  8
AM_0
 48
0.5
100
AcDbLine
 10
139.7460573932735
 20
-69.20599011086244
 30
0.0
 11
139.7460573932735
 21
-60.20599011086336
 31
0.0
  0
ARC
  5
C45E
330
1F
100
AcDbEntity
  8
AM_0
 48
0.5
100
AcDbCircle
 10
131.7460573932735
 20
-69.20599011086244
 30
0.0
 40
8.0
100
AcDbArc
 50
269.9999999999739
 51
0.0
  0
LINE
  5
C45F
330
1F
100
AcDbEntity
  8
AM_0
 48
0.5
100
AcDbLine
 10
85.74605739325717
 20
-69.20599011084698
 30
0.0
 11
85.74605739326079
 21
-60.20599011086154
 31
0.0
  0
ARC
  5
C460
330
1F
100
AcDbEntity
  8
AM_0
 48
0.5
100
AcDbCircle
 10
93.74605739325716
 20
-69.20599011084971
 30
0.0
 40
8.0
100
AcDbArc
 50
179.9999999999479
 51
269.9999999999739
  0
CIRCLE
  5
C461
330
1F
100
AcDbEntity
  8
AM_0
100
AcDbCircle
 10
132.2460573932662
 20
-72.40599011086863
 30
0.0
 40
1.25
  0
LINE
  5
C462
330
1F
100
AcDbEntity
  8
AM_7
 48
0.5
100
AcDbLine
 10
132.2460573932662
 20
-78.87154665658193
 30
0.0
 11
132.2460573932662
 21
-50.54043356514842
 31
0.0
  0
LINE
  5
C463
330
1F
100
AcDbEntity
  8
AM_7
 48
0.5
100
AcDbLine
 10
136.7299781159604
 20
-72.40599011086863
 30
0.0
 11
127.7621366705739
 21
-72.40599011086771
 31
0.0
  0
CIRCLE
  5
C464
330
1F
100
AcDbEntity
  8
AM_0
100
AcDbCircle
 10
132.2460573932662
 20
-57.00599011086808
 30
0.0
 40
1.25
  0
LINE
  5
C465
330
1F
100
AcDbEntity
  8
AM_7
 48
0.5
100
AcDbLine
 10
136.7299781159604
 20
-57.00599011086808
 30
0.0
 11
127.7621366705739
 21
-57.00599011086808
 31
0.0
  0
CIRCLE
  5
C466
330
1F
100
AcDbEntity
  8
AM_0
100
AcDbCircle
 10
91.14605739323497
 20
-64.70599011086426
 30
0.0
 40
1.25
  0
LINE
  5
C467
330
1F
100
AcDbEntity
  8
AM_3
 48
0.5
100
AcDbLine
 10
149.7460573932735
 20
-68.70599011086335
 30
0.0
 11
139.7460573932735
 21
-68.70599011086335
 31
0.0
  0
LINE
  5
C468
330
1F
100
AcDbEntity
  8
AM_3
 48
0.5
100
AcDbLine
 10
149.7460573932735
 20
-60.70599011086335
 30
0.0
 11
139.7460573932735
 21
-60.70599011086335
 31
0.0
  0
LINE
  5
C65D
330
1F
100
AcDbEntity
  8
AM_7
  6
AM_ISO08W050x2
100
AcDbLine
 10
91.14605739323497
 20
-59.70599011086426
 30
0.0
 11
91.14605739323497
 21
-69.70599011086426
 31
0.0
1001
GENIUS_GENODEF_13
1002
{
1000
HIER
1070
     0
1002
}
1002
{
1000
MANEDIT
1070
     0
1002
}
1002
{
1000
NOSEL
1070
     0
1002
}
1002
{
1000
BEHIND
1070
     0
1002
}
1002
{
1000
OTHER
1070
     0
1002
}
1002
{
1000
REACTOR
1002
}
1001
GENIUS_GENOBJ-N-CEN_13
1002
{
1000
OWNER
1000
GEN
1002
}
1001
GENIUS_GENCEN_19
1002
{
1040
3.0
1002
}
  0
LINE
  5
C73F
330
1F
100
AcDbEntity
  8
AM_11
 48
0.5
100
AcDbLine
 10
228.7513662574759
 20
209.0815271934632
 30
0.0
 11
228.7513662574759
 21
199.0815271934622
 31
0.0
  0
LINE
  5
C740
330
1F
100
AcDbEntity
  8
AM_11
 48
0.5
100
AcDbLine
 10
236.7513662574759
 20
209.0815271934632
 30
0.0
 11
236.7513662574759
 21
199.0815271934622
 31
0.0
  0
DIMENSION
  5
C7A2
330
1F
100
AcDbEntity
  8
AM_5
100
AcDbDimension
  2
*D28
 10
149.7460573932735
 20
-36.20599011086517
 30
0.0
 11
144.7460573932735
 21
-33.10599011086517
 31
0.0
 70
    32
 71
     5
 42
10.0
 73
     0
 74
     0
 75
     0
  3
SYS$0
100
AcDbAlignedDimension
 13
139.7460573932735
 23
-60.20599011086336
 33
0.0
 14
149.7460573932735
 24
-48.20599011086518
 34
0.0
100
AcDbRotatedDimension
  0
DIMENSION
  5
C7B8
330
1F
100
AcDbEntity
  8
AM_5
100
AcDbDimension
  2
*D29
 10
85.74605739326079
 20
-36.20598911086517
 30
0.0
 11
112.7460573932671
 21
-33.10598911086517
 31
0.0
 70
    32
 71
     5
 42
54.00000000001274
 73
     0
 74
     0
 75
     0
  3
SYS$0
100
AcDbAlignedDimension
 13
139.7460573932735
 23
-60.20599011086336
 33
0.0
 14
85.74605739326079
 24
-60.20599011085607
 34
0.0
100
AcDbRotatedDimension
  0
DIMENSION
  5
C7CE
330
1F
100
AcDbEntity
  8
AM_5
100
AcDbDimension
  2
*D30
 10
93.74605739323397
 20
-69.20599011087024
 30
0.0
 11
79.8844944034747
 21
-93.28258521061043
 31
0.0
 70
   164
  1
4-（<>）
 71
     5
 42
8.000000000000966
 73
     0
 74
     0
 75
     0
  3
SYS$4
100
AcDbRadialDimension
 15
89.75449733938658
 25
-76.13905929677523
 35
0.0
 40
0.0
1001
ACAD
1000
DSTYLE
1002
{
1070
    74
1070
     0
1002
}
  0
DIMENSION
  5
C7F2
330
1F
100
AcDbEntity
  8
AM_5
100
AcDbDimension
  2
*D32
 10
75.76886754596445
 20
-77.20599011084971
 30
0.0
 11
72.66886754596447
 21
-64.70599011085652
 31
0.0
 70
    32
 71
     5
 42
24.99999999998637
 73
     0
 74
     0
 75
     0
  3
SYS$0
100
AcDbAlignedDimension
 13
93.7460573932608
 23
-52.20599011086335
 33
0.0
 14
93.74605739325351
 24
-77.20599011084971
 34
0.0
 50
90.00000000000003
100
AcDbRotatedDimension
  0
DIMENSION
  5
C8D9
330
1F
100
AcDbEntity
  8
AM_5
100
AcDbDimension
  2
*D33
 10
216.2513662574774
 20
-35.93029336953617
 30
0.0
 11
231.9143213875941
 21
-35.93029336953617
 31
0.0
 70
   160
  1
Dt
 71
     5
 42
32.99999999998312
 73
     0
 74
     0
 75
     0
  3
SYS$0
100
AcDbAlignedDimension
 13
249.2513662574606
 23
-24.05100983195203
 33
0.0
 14
216.2513662574774
 24
-24.05100983194842
 34
0.0
 50
180.0
100
AcDbRotatedDimension
  0
DIMENSION
  5
C92D
330
1F
100
AcDbEntity
  8
AM_5
100
AcDbDimension
  2
*D34
 10
85.24605739327126
 20
170.8200319745355
 30
0.0
 11
112.246057393279
 21
173.9200319745354
 31
0.0
 70
    32
 71
     5
 42
54.00000000001546
 73
     0
 74
     0
 75
     0
  3
SYS$0
100
AcDbAlignedDimension
 13
139.2460573932867
 23
160.2638707868756
 33
0.0
 14
85.24605739327126
 24
160.2638707868756
 34
0.0
100
AcDbRotatedDimension
  0
DIMENSION
  5
C957
330
1F
100
AcDbEntity
  8
AM_5
100
AcDbDimension
  2
*D35
 10
220.2513662574754
 20
170.8200319745354
 30
0.0
 11
232.7513662574754
 21
173.9200319745354
 31
0.0
 70
    32
 71
     5
 42
25.0
 73
     0
 74
     0
 75
     0
  3
SYS$0
100
AcDbAlignedDimension
 13
245.2513662574754
 23
160.2638707866937
 33
0.0
 14
220.2513662574754
 24
160.2638707866898
 34
0.0
100
AcDbRotatedDimension
  0
CIRCLE
  5
C996
330
1F
100
AcDbEntity
  8
AM_0
 48
0.25
100
AcDbCircle
 10
232.7513662574324
 20
12.44899016787696
 30
0.0
 40
4.0
  0
LINE
  5
C997
330
1F
100
AcDbEntity
  8
AM_7
 48
0.5
100
AcDbLine
 10
238.393955183365
 20
12.44899016787332
 30
0.0
 11
227.1087773315852
 21
12.44899016787332
 31
0.0
  0
LINE
  5
C998
330
1F
100
AcDbEntity
  8
AM_0
 48
0.5
100
AcDbLine
 10
249.2513662574745
 20
36.3214255514149
 30
0.0
 11
249.2513662574678
 21
-24.05100983195206
 31
0.0
  0
LINE
  5
C999
330
1F
100
AcDbEntity
  8
AM_0
 48
0.5
100
AcDbLine
 10
216.2513662574751
 20
36.3214255514149
 30
0.0
 11
216.2513662574751
 21
-24.05100983194842
 31
0.0
  0
LINE
  5
C99A
330
1F
100
AcDbEntity
  8
AM_0
 48
0.5
100
AcDbLine
 10
249.2513662574678
 20
-24.05100983195206
 30
0.0
 11
216.2513662574751
 21
-24.05100983194842
 31
0.0
  0
DIMENSION
  5
C99B
330
1F
100
AcDbEntity
  8
AM_5
100
AcDbDimension
  2
*D38
 10
230.6992044952183
 20
9.015532420693986
 30
0.0
 11
243.2213160433722
 21
29.96619123214435
 31
0.0
 70
   163
  1
<>
 71
     5
 42
7.999999999997982
 73
     0
 74
     0
 75
     0
  3
SYS$3
100
AcDbDiametricDimension
 15
234.8035280196508
 25
15.88244791505961
 35
0.0
 40
0.0
1001
ACAD
1000
DSTYLE
1002
{
1070
    74
1070
     0
1002
}
  0
LINE
  5
C9AE
330
1F
100
AcDbEntity
  8
AM_3
100
AcDbLine
 10
220.2513662574697
 20
22.94899016805112
 30
0.0
 11
220.2513662574697
 21
-24.05100983194888
 31
0.0
  0
LINE
  5
C9AF
330
1F
100
AcDbEntity
  8
AM_3
100
AcDbLine
 10
245.2513662574628
 20
22.9489901680484
 30
0.0
 11
245.2513662574628
 21
-24.0510098319516
 31
0.0
  0
LINE
  5
C9B2
330
1F
100
AcDbEntity
  8
AM_3
 48
0.5
100
AcDbLine
 10
245.2513662574628
 20
22.9489901680484
 30
0.0
 11
220.2513662574697
 21
22.94899016805112
 31
0.0
  0
LINE
  5
C9B5
330
1F
100
AcDbEntity
  8
AM_7
100
AcDbLine
 10
232.7513662574744
 20
36.3214255514149
 30
0.0
 11
232.7513662574675
 21
-27.0510098319503
 31
0.0
1001
GENIUS_GENOBJ-N-CEN_13
1002
{
1000
OWNER
1000
GEN
1002
}
1001
GENIUS_GENODEF_13
1002
{
1000
HIER
1070
     0
1002
}
1002
{
1000
MANEDIT
1070
     0
1002
}
1002
{
1000
NOSEL
1070
     0
1002
}
1002
{
1000
BEHIND
1070
     0
1002
}
1002
{
1000
OTHER
1070
     0
1002
}
1002
{
1000
REACTOR
1002
}
1001
GENIUS_GENCEN_19
1002
{
1040
3.0
1002
}
  0
DIMENSION
  5
C9DC
330
1F
100
AcDbEntity
  8
AM_5
100
AcDbDimension
  2
*D39
 10
263.9169228031895
 20
22.94899016806661
 30
0.0
 11
263.9169228031895
 21
-0.6103934708314114
 31
0.0
 70
   160
  1
<>（掘込）
 71
     5
 42
47.00000000001864
 73
     0
 74
     0
 75
     0
  3
SYS$0
100
AcDbAlignedDimension
 13
249.2513662574606
 23
-24.05100983195203
 33
0.0
 14
245.7513662574751
 24
22.94899016806661
 34
0.0
 50
90.0
100
AcDbRotatedDimension
  0
DIMENSION
  5
CA0F
330
1F
100
AcDbEntity
  8
AM_5
100
AcDbDimension
  2
*D40
 10
204.2513662574715
 20
12.44899016787332
 30
0.0
 11
201.1513662574714
 21
-5.801009832037512
 31
0.0
 70
    32
 71
     5
 42
36.49999999982174
 73
     0
 74
     0
 75
     0
  3
SYS$0
100
AcDbAlignedDimension
 13
216.2513662574751
 23
-24.05100983194842
 33
0.0
 14
227.1087773315852
 24
12.44899016787332
 34
0.0
 50
90.0
100
AcDbRotatedDimension
  0
DIMENSION
  5
CB48
330
1F
100
AcDbEntity
  8
AM_5
100
AcDbDimension
  2
*D41
 10
249.2513662574754
 20
180.1639306502685
 30
0.0
 11
232.7513662574754
 21
183.2639306502685
 31
0.0
 70
    32
  1
（<>）
 71
     5
 42
33.0
 73
     0
 74
     0
 75
     0
  3
SYS$0
100
AcDbAlignedDimension
 13
216.2513662574754
 23
180.5633749546933
 33
0.0
 14
249.2513662574754
 24
180.1639306502685
 34
0.0
 50
0.0000000000002036
100
AcDbRotatedDimension
  0
MTEXT
  5
CB64
330
1F
100
AcDbEntity
  8
AM_6
100
AcDbMText
 10
188.4126415466837
 20
-56.06396842340626
 30
0.0
 40
3.2
 41
16.91267358125697
 46
0.0
 71
     1
 72
     5
  1
切欠図
 73
     1
 44
1.0
  0
LWPOLYLINE
  5
CB6E
330
1F
100
AcDbEntity
  8
AM_2
100
AcDbPolyline
 90
        4
 70
     1
 43
0.0
 10
184.8690133417292
 20
-54.97009479667434
 10
199.2351117496641
 20
-54.97009479667434
 10
199.2351117496641
 20
-60.99385969618805
 10
184.8690133417292
 20
-60.99385969618805
1001
GENIUS_GENREC_14
1002
{
1000
PYDIR
1011
184.8690133417292
1021
-60.99385969618805
1031
0.0
1002
}
1002
{
1000
PXDIR
1011
199.2351117496641
1021
-54.97009479667434
1031
0.0
1002
}
1002
{
1000
PORI
1011
184.8690133417292
1021
-54.97009479667434
1031
0.0
1002
}
1002
{
1000
PINS
1011
184.8690133417292
1021
-54.97009479667434
1031
0.0
1002
}
1002
{
1000
PINS2
1011
199.2351117496641
1021
-60.99385969618805
1031
0.0
1002
}
1002
{
1000
C
1070
     1
1002
}
1001
GENIUS_GENOBJ-N-REC_13
1002
{
1000
OWNER
1000
GEN
1002
}
1001
GENIUS_GENODEF_13
1002
{
1000
HIER
1070
     0
1002
}
1002
{
1000
MANEDIT
1070
     0
1002
}
1002
{
1000
NOSEL
1070
     0
1002
}
1002
{
1000
BEHIND
1070
     0
1002
}
1002
{
1000
OTHER
1070
     0
1002
}
1002
{
1000
REACTOR
1002
}
  0
LINE
  5
CBDF
330
1F
100
AcDbEntity
  8
AM_0
 48
0.5
100
AcDbLine
 10
148.746057393299
 20
-22.22315668085435
 30
0.0
 11
148.7460573932834
 21
36.3214255514149
 31
0.0
  0
LINE
  5
CBE0
330
1F
100
AcDbEntity
  8
AM_0
 48
0.5
100
AcDbLine
 10
148.7460573932735
 20
-22.22315668086162
 30
0.0
 11
62.59284185105798
 21
-22.22315668085571
 31
0.0
  0
LINE
  5
CBE1
330
1F
100
AcDbEntity
  8
AM_3
 48
0.5
100
AcDbLine
 10
138.7460573932917
 20
10.27684331910245
 30
0.0
 11
148.7460573932926
 21
10.27684331910245
 31
0.0
  0
LINE
  5
CBE2
330
1F
100
AcDbEntity
  8
AM_3
 48
0.5
100
AcDbLine
 10
138.7460573932917
 20
18.27684331910245
 30
0.0
 11
148.7460573932926
 21
18.27684331910245
 31
0.0
  0
LINE
  5
CBE3
330
1F
100
AcDbEntity
  8
AM_7
 48
0.5
100
AcDbLine
 10
153.8131980815437
 20
14.276843319102
 30
0.0
 11
134.9783002959761
 21
14.276843319102
 31
0.0
  0
LINE
  5
CBE4
330
1F
100
AcDbEntity
  8
AM_3
100
AcDbLine
 10
84.74605739327534
 20
-22.22315668086117
 30
0.0
 11
84.74605739327534
 21
24.77684331913883
 31
0.0
  0
LINE
  5
CBE5
330
1F
100
AcDbEntity
  8
AM_3
100
AcDbLine
 10
84.74605739327534
 20
24.77684331913883
 30
0.0
 11
138.7460573932908
 21
24.77684331913883
 31
0.0
  0
LINE
  5
CBE6
330
1F
100
AcDbEntity
  8
AM_3
100
AcDbLine
 10
138.7460573932908
 20
24.77684331913883
 30
0.0
 11
138.7460573932908
 21
-22.2231566808648
 31
0.0
  0
DIMENSION
  5
CCEA
330
1F
100
AcDbEntity
  8
AM_5
100
AcDbDimension
  2
*D44
 10
149.2460573932825
 20
170.8200319745354
 30
0.0
 11
144.2460573932846
 21
173.9200319745354
 31
0.0
 70
    32
 71
     5
 42
9.999999999995765
 73
     0
 74
     0
 75
     0
  3
SYS$0
100
AcDbAlignedDimension
 13
139.2460573932867
 23
160.2638707868756
 33
0.0
 14
149.2460573932825
 24
160.2638707868782
 34
0.0
100
AcDbRotatedDimension
1001
ACAD
1000
DSTYLE
1002
{
1070
    75
1070
     1
1070
    76
1070
     1
1002
}
  0
ENDSEC
  0
SECTION
  2
OBJECTS
  0
DICTIONARY
  5
C
330
0
100
AcDbDictionary
281
     1
  3
ACAD_BGPLOT_KEY
350
AB06
  3
ACAD_COLOR
350
A91D
  3
ACAD_GROUP
350
D
  3
ACAD_LAYOUT
350
1A
  3
ACAD_MATERIAL
350
A91C
  3
ACAD_MLINESTYLE
350
17
  3
ACAD_PLOTSETTINGS
350
19
  3
ACAD_PLOTSTYLENAME
350
E
  3
ACAD_TABLESTYLE
350
AAB9
  3
ACAD_VISUALSTYLE
350
B0F1
  3
AcAsAppObject
350
3DA1
  3
ACASGREF_MASTER
350
3DE9
  3
AcDbVariableDictionary
350
34
  3
AcmDictionary
350
47
  3
AD_GREF_MODULE
350
3DEA
  3
AD_MAPI_MODULE
350
3E06
  3
AMG
350
2B
  3
AMGSNAPSETTINGS
350
7D
  3
ASE_INDEX_DICTIONARY
350
B331
  3
MAPISURF_MODULE
350
3DEB
  0
DICTIONARY
  5
BCF5
330
8
100
AcDbDictionary
280
     1
281
     1
  0
DICTIONARY
  5
3F95
330
2
100
AcDbDictionary
280
     1
281
     1
  3
ACAD_LAYERFILTERS
360
B313
  3
ACAD_LAYERSTATES
360
3F96
  3
ACLYDICTIONARY
360
B312
  3
AMLAYER_GROUPCOLORS
360
AAB4
  0
DICTIONARY
  5
BF45
330
BF44
100
AcDbDictionary
280
     1
281
     1
  3
ADSK_XREC_LAYER_RECONCILED
360
BF46
  0
DICTIONARY
  5
8A
330
1F
100
AcDbDictionary
280
     1
281
     1
  3
ACAD_SORTENTS
360
B1BA
  0
DICTIONARY
  5
AB06
102
{ACAD_REACTORS
330
C
102
}
330
C
100
AcDbDictionary
280
     1
281
     1
  0
DICTIONARY
  5
A91D
102
{ACAD_REACTORS
330
C
102
}
330
C
100
AcDbDictionary
281
     1
  0
DICTIONARY
  5
D
102
{ACAD_REACTORS
330
C
102
}
330
C
100
AcDbDictionary
281
     1
  0
DICTIONARY
  5
1A
102
{ACAD_REACTORS
330
C
102
}
330
C
100
AcDbDictionary
281
     1
  3
Model
350
22
  3
ﾚｲｱｳﾄ1
350
1E
  3
ﾚｲｱｳﾄ2
350
26
  0
DICTIONARY
  5
A91C
102
{ACAD_REACTORS
330
C
102
}
330
C
100
AcDbDictionary
281
     1
  3
ByBlock
350
B0EF
  3
ByLayer
350
B0EE
  3
Global
350
B0F0
  0
DICTIONARY
  5
17
102
{ACAD_REACTORS
330
C
102
}
330
C
100
AcDbDictionary
281
     1
  3
Standard
350
18
  0
DICTIONARY
  5
19
102
{ACAD_REACTORS
330
C
102
}
330
C
100
AcDbDictionary
281
     1
  3
01 A3フィット
350
B37F
  3
02 A3
350
B380
  3
03 A2フィット
350
B381
  3
04 A2
350
B382
  3
05 A1フィット
350
B383
  3
06 A1
350
B384
  3
06 A4フィット
350
B385
  3
07 A4
350
B386
  0
ACDBDICTIONARYWDFLT
  5
E
102
{ACAD_REACTORS
330
C
102
}
330
C
100
AcDbDictionary
281
     1
  3
Normal
350
F
100
AcDbDictionaryWithDefault
340
F
  0
DICTIONARY
  5
AAB9
102
{ACAD_REACTORS
330
C
102
}
330
C
100
AcDbDictionary
281
     1
  3
Standard
350
AABA
  0
DICTIONARY
  5
B0F1
102
{ACAD_REACTORS
330
C
102
}
330
C
100
AcDbDictionary
281
     1
  3
2dWireframe
350
B0F7
  3
3D Hidden
350
B0F9
  3
3dWireframe
350
B0F8
  3
Basic
350
B0F6
  3
Brighten
350
B0FD
  3
ColorChange
350
B101
  3
Conceptual
350
B0FA
  3
Dim
350
B0FC
  3
Facepattern
350
B100
  3
Flat
350
B0F2
  3
FlatWithEdges
350
B0F3
  3
Gouraud
350
B0F4
  3
GouraudWithEdges
350
B0F5
  3
Linepattern
350
B0FF
  3
Realistic
350
B0FB
  3
Thicken
350
B0FE
  0
ACAD_PROXY_OBJECT
  5
3DA1
102
{ACAD_REACTORS
330
C
102
}
330
C
100
AcDbProxyObject
 90
      499
 91
      576
 95
       23
 70
     0
 93
       10
310
407F
 94
        0
  0
ACAD_PROXY_OBJECT
  5
3DE9
102
{ACAD_REACTORS
330
C
102
}
330
C
100
AcDbProxyObject
 90
      499
 91
      581
 95
       23
 70
     0
 93
       34
310
010000407F
 94
        0
  0
DICTIONARY
  5
34
102
{ACAD_REACTORS
330
C
102
}
330
C
100
AcDbDictionary
281
     1
  3
CTABLESTYLE
350
AAF3
  3
DIMASSOC
350
A10C
  3
FIELDEVAL
350
AB07
  3
INDEXCTL
350
35
  3
SORTENTS
350
194C
  0
DICTIONARY
  5
47
102
{ACAD_REACTORS
330
C
102
}
330
C
100
AcDbDictionary
281
     1
  3
AcmBOM
350
7E8
  3
AcmStdDictionary
350
4C
  3
AMDTSECTSYM_ARROWCOLOR
350
A929
  0
ACAD_PROXY_OBJECT
  5
3DEA
102
{ACAD_REACTORS
330
C
102
}
330
C
100
AcDbProxyObject
 90
      499
 91
      582
 95
       23
 70
     0
 93
      114
310
00000043800000000000000000003F
 94
        0
  0
ACAD_PROXY_OBJECT
  5
3E06
102
{ACAD_REACTORS
330
C
102
}
330
C
100
AcDbProxyObject
 90
      499
 91
      594
 95
       23
 70
     0
 93
       34
310
05000044FF
 94
        0
  0
DICTIONARY
  5
2B
102
{ACAD_REACTORS
330
C
102
}
330
C
100
AcDbDictionary
281
     1
  0
DICTIONARY
  5
7D
102
{ACAD_REACTORS
330
C
102
}
330
C
100
AcDbDictionary
281
     1
  0
DICTIONARY
  5
B331
102
{ACAD_REACTORS
330
C
102
}
330
C
100
AcDbDictionary
281
     1
  3
ASEBlockHierarchyIndexRecord
350
B332
1001
DCO15
1040
1594111214.218
  0
ACAD_PROXY_OBJECT
  5
3DEB
102
{ACAD_REACTORS
330
C
102
}
330
C
100
AcDbProxyObject
 90
      499
 91
      583
 95
       23
 70
     0
 93
        8
310
047D
 94
        0
  0
DICTIONARY
  5
B313
102
{ACAD_REACTORS
330
3F95
102
}
330
3F95
100
AcDbDictionary
281
     1
  0
DICTIONARY
  5
3F96
102
{ACAD_REACTORS
330
3F95
102
}
330
3F95
100
AcDbDictionary
281
     1
  3
20011210
350
3FB7
  0
DICTIONARY
  5
B312
102
{ACAD_REACTORS
330
3F95
102
}
330
3F95
100
AcDbDictionary
281
     1
1001
ACAD
1000
<All
  0
DICTIONARY
  5
AAB4
102
{ACAD_REACTORS
330
3F95
102
}
330
3F95
100
AcDbDictionary
280
     1
281
     1
  0
XRECORD
  5
BF46
102
{ACAD_REACTORS
330
BF45
102
}
330
BF45
100
AcDbXrecord
280
     1
290
     1
  0
SORTENTSTABLE
  5
B1BA
102
{ACAD_REACTORS
330
8A
102
}
330
8A
100
AcDbSortentsTable
330
1F
331
C463
  5
C463
331
C302
  5
C302
331
C101
  5
C101
331
C092
  5
C092
331
C0B4
  5
C0B4
331
C07B
  5
C07B
331
C059
  5
C059
331
C99B
  5
C99B
331
C112
  5
C112
331
C0F8
  5
C0F8
331
C0D6
  5
C0D6
331
C0E7
  5
C0E7
331
C0A3
  5
C0A3
331
C06A
  5
C06A
331
C048
  5
C048
331
BABC
  5
B66F
331
C461
  5
C461
331
C090
  5
C090
331
C7F2
  5
C7F2
331
C2EF
  5
C2EF
331
C999
  5
C999
331
C110
  5
C110
331
C0F6
  5
C0F6
331
C0D4
  5
C0D4
331
C0B2
  5
C0B2
331
C079
  5
C079
331
C0E5
  5
C0E5
331
C0C3
  5
C0C3
331
C068
  5
C068
331
C046
  5
C046
331
C7CE
  5
C7CE
331
C08E
  5
C08E
331
C0B0
  5
C0B0
331
C077
  5
C077
331
C055
  5
C055
331
C997
  5
C997
331
C73F
  5
C73F
331
C10E
  5
C10E
331
C0F4
  5
C0F4
331
C0D2
  5
C0D2
331
C2FE
  5
C2FE
331
C45F
  5
C45F
331
C11F
  5
C11F
331
C0E3
  5
C0E3
331
C0C1
  5
C0C1
331
C09F
  5
C09F
331
C066
  5
C066
331
C044
  5
C044
331
BAB8
  5
B66A
331
C08C
  5
C08C
331
C0AE
  5
C0AE
331
C075
  5
C075
331
C2EB
  5
C2EB
331
C10C
  5
C10C
331
C0F2
  5
C0F2
331
C0D0
  5
C0D0
331
C09D
  5
C09D
331
C2FC
  5
C2FC
331
C45D
  5
C45D
331
C11D
  5
C11D
331
C0E1
  5
C0E1
331
C0BF
  5
C0BF
331
C086
  5
C086
331
C064
  5
C064
331
C042
  5
C042
331
BAB6
  5
B409
331
C08A
  5
C08A
331
C10A
  5
C10A
331
C0F0
  5
C0F0
331
C0CE
  5
C0CE
331
C073
  5
C073
331
C09B
  5
C09B
331
C084
  5
C084
331
C062
  5
C062
331
C051
  5
C051
331
C2FA
  5
C2FA
331
C65D
  5
C65D
331
C45B
  5
C45B
331
C11B
  5
C11B
331
C0DF
  5
C0DF
331
BAC5
  5
B678
331
C8D9
  5
C8D9
331
C309
  5
C309
331
C108
  5
C108
331
C0EE
  5
C0EE
331
C0CC
  5
C0CC
331
C088
  5
C088
331
C099
  5
C099
331
C0BB
  5
C0BB
331
C082
  5
C082
331
C060
  5
C060
331
C2F8
  5
C2F8
331
C459
  5
C459
331
C119
  5
C119
331
C0FF
  5
C0FF
331
C0DD
  5
C0DD
331
C04F
  5
C04F
331
BAC3
  5
B676
331
C0CA
  5
C0CA
331
C957
  5
C957
331
C468
  5
C468
331
C307
  5
C307
331
C106
  5
C106
331
C0EC
  5
C0EC
331
C0B9
  5
C0B9
331
C097
  5
C097
331
C05E
  5
C05E
331
BC2A
  5
BC2A
331
C2F6
  5
C2F6
331
C457
  5
C457
331
C117
  5
C117
331
C0FD
  5
C0FD
331
C0DB
  5
C0DB
331
C06F
  5
C06F
331
C04D
  5
C04D
331
BAC1
  5
B674
331
C9AF
  5
C9B0
331
C466
  5
C466
331
C104
  5
C104
331
C0EA
  5
C0EA
331
C0B7
  5
C0B7
331
C095
  5
C095
331
C05C
  5
C05C
331
BC28
  5
BC28
331
C2F4
  5
C2F4
331
C7A2
  5
C7A2
331
C455
  5
C455
331
C115
  5
C115
331
C0FB
  5
C0FB
331
C0D9
  5
C0D9
331
C06D
  5
C06D
331
C04B
  5
C04B
331
BABF
  5
B672
331
C464
  5
C464
331
C102
  5
C102
331
C0E8
  5
C0E8
331
C093
  5
C093
331
C0B5
  5
C0B5
331
C07C
  5
C07C
331
C05A
  5
C05A
331
C2F2
  5
C2F2
331
C113
  5
C113
331
C0F9
  5
C0F9
331
C0D7
  5
C0D7
331
C0C6
  5
C0C6
331
C0A4
  5
C0A4
331
C06B
  5
C06B
331
C049
  5
C049
331
BABD
  5
B670
331
C462
  5
C462
331
C301
  5
C301
331
C100
  5
C100
331
C091
  5
C091
331
C0B3
  5
C0B3
331
C07A
  5
C07A
331
C058
  5
C058
331
C2F0
  5
C2F0
331
C99A
  5
C99A
331
C111
  5
C111
331
C0F7
  5
C0F7
331
C0D5
  5
C0D5
331
C0E6
  5
C0E6
331
C0A2
  5
C0A2
331
C069
  5
C069
331
C047
  5
C047
331
BABB
  5
B66E
331
C460
  5
C460
331
C120
  5
C120
331
C08F
  5
C08F
331
C0B1
  5
C0B1
331
C078
  5
C078
331
C056
  5
C056
331
C2EE
  5
C2EE
331
C998
  5
C998
331
C740
  5
C740
331
C10F
  5
C10F
331
C0F5
  5
C0F5
331
C0D3
  5
C0D3
331
C92D
  5
C92D
331
C0E4
  5
C0E4
331
C0C2
  5
C0C2
331
C067
  5
C067
331
C045
  5
C045
331
BAB9
  5
B66B
331
C08D
  5
C08D
331
C0AF
  5
C0AF
331
C076
  5
C076
331
C2EC
  5
C2EC
331
C996
  5
C996
331
C10D
  5
C10D
331
C0F3
  5
C0F3
331
C0D1
  5
C0D1
331
C09E
  5
C09E
331
C2FD
  5
C2FD
331
C45E
  5
C45E
331
C11E
  5
C11E
331
C0E2
  5
C0E2
331
C087
  5
C087
331
C065
  5
C065
331
C043
  5
C043
331
BAB7
  5
B669
331
C08B
  5
C08B
331
C10B
  5
C10B
331
C0F1
  5
C0F1
331
C0CF
  5
C0CF
331
C074
  5
C074
331
C09C
  5
C09C
331
C085
  5
C085
331
C063
  5
C063
331
C052
  5
C052
331
C2FB
  5
C2FB
331
C45C
  5
C45C
331
C11C
  5
C11C
331
C0E0
  5
C0E0
331
BAC6
  5
B679
331
C089
  5
C089
331
C7B8
  5
C7B8
331
C30A
  5
C30A
331
C109
  5
C109
331
C0EF
  5
C0EF
331
C0CD
  5
C0CD
331
C072
  5
C072
331
C09A
  5
C09A
331
C0BC
  5
C0BC
331
C083
  5
C083
331
C061
  5
C061
331
C050
  5
C050
331
C2F9
  5
C2F9
331
C45A
  5
C45A
331
C11A
  5
C11A
331
C0DE
  5
C0DE
331
BAC4
  5
B677
331
C9B2
  5
C9B4
331
C308
  5
C308
331
C107
  5
C107
331
C0ED
  5
C0ED
331
C0CB
  5
C0CB
331
C070
  5
C070
331
C098
  5
C098
331
C0BA
  5
C0BA
331
C081
  5
C081
331
C05F
  5
C05F
331
C2F7
  5
C2F7
331
C458
  5
C458
331
C118
  5
C118
331
C0FE
  5
C0FE
331
C0DC
  5
C0DC
331
C04E
  5
C04E
331
BAC2
  5
B675
331
C467
  5
C467
331
C105
  5
C105
331
C0EB
  5
C0EB
331
C0C9
  5
C0C9
331
C0B8
  5
C0B8
331
C096
  5
C096
331
C05D
  5
C05D
331
C2F5
  5
C2F5
331
C456
  5
C456
331
C116
  5
C116
331
C0FC
  5
C0FC
331
C0DA
  5
C0DA
331
C06E
  5
C06E
331
C04C
  5
C04C
331
BAC0
  5
B673
331
C9AE
  5
C9AE
331
C465
  5
C465
331
C304
  5
C304
331
C103
  5
C103
331
C0E9
  5
C0E9
331
C094
  5
C094
331
C0B6
  5
C0B6
331
C07D
  5
C07D
331
C05B
  5
C05B
331
C114
  5
C114
331
C0FA
  5
C0FA
331
C0D8
  5
C0D8
331
C0C7
  5
C0C7
331
C0A5
  5
C0A5
331
C06C
  5
C06C
331
C04A
  5
C04A
331
BABE
  5
B671
  0
LAYOUT
  5
22
102
{ACAD_REACTORS
330
1A
102
}
330
1A
100
AcDbPlotSettings
  1

  2
DocuCentre-II C5400
  4
A4
  6

 40
4.857749938964843
 41
4.942390441894531
 42
4.942413330078125
 43
4.857757568359375
 44
209.9733276367187
 45
297.0106506347656
 46
-5.984846387590664
 47
-6.394748687744169
 48
3.000000000000005
 49
-120.0
140
300.0
141
300.0
142
1.0
143
1.399999999999999
 70
  3748
 72
     1
 73
     0
 74
     4
  7
monochrome.ctb
 75
     0
147
0.6739837184096828
 76
     0
 77
     2
 78
   200
148
-3.000000000000005
149
120.0
100
AcDbLayout
  1
Model
 70
     1
 71
     0
 10
0.0
 20
0.0
 11
12.0
 21
9.0
 12
0.0
 22
0.0
 32
0.0
 14
0.0
 24
0.0
 34
0.0
 15
0.0
 25
0.0
 35
0.0
146
0.0
 13
0.0
 23
0.0
 33
0.0
 16
1.0
 26
0.0
 36
0.0
 17
0.0
 27
1.0
 37
0.0
 76
     0
330
1F
331
B0EC
1001
ACAD_PSEXT
1000
DocuCentre-II C5400
1000
FX DocuCentre-II C5400
1000
192.168.2.200
1000

1070
     0
  0
LAYOUT
  5
1E
102
{ACAD_REACTORS
330
1A
102
}
330
1A
100
AcDbPlotSettings
  1

  2
\\ML370\XEROX
  4
A4
  6

 40
3.174999952316284
 41
3.174999952316284
 42
3.175003051757812
 43
3.17498779296875
 44
209.8674926757813
 45
296.6719970703125
 46
0.0
 47
0.0
 48
0.0
 49
0.0
140
0.0
141
0.0
142
1.0
143
1.0
 70
   688
 72
     1
 73
     1
 74
     5
  7
monochrome.ctb
 75
    16
147
1.0
 76
     0
 77
     2
 78
   300
148
0.0
149
0.0
100
AcDbLayout
  1
ﾚｲｱｳﾄ1
 70
     1
 71
     1
 10
-3.17498779296875
 20
-3.174999952316284
 11
293.4970092773438
 21
206.692492723465
 12
0.0
 22
0.0
 32
0.0
 14
1.000000000000000E+20
 24
1.000000000000000E+20
 34
1.000000000000000E+20
 15
-1.000000000000000E+20
 25
-1.000000000000000E+20
 35
-1.000000000000000E+20
146
0.0
 13
0.0
 23
0.0
 33
0.0
 16
1.0
 26
0.0
 36
0.0
 17
0.0
 27
1.0
 37
0.0
 76
     0
330
1B
  0
LAYOUT
  5
26
102
{ACAD_REACTORS
330
1A
102
}
330
1A
100
AcDbPlotSettings
  1

  2
\\ML370\XEROX
  4

  6

 40
0.0
 41
0.0
 42
0.0
 43
0.0
 44
0.0
 45
0.0
 46
0.0
 47
0.0
 48
0.0
 49
0.0
140
0.0
141
0.0
142
1.0
143
1.0
 70
   688
 72
     0
 73
     0
 74
     5
  7
monochrome.ctb
 75
    16
147
1.0
 76
     0
 77
     2
 78
   300
148
0.0
149
0.0
100
AcDbLayout
  1
ﾚｲｱｳﾄ2
 70
     1
 71
     2
 10
0.0
 20
0.0
 11
12.0
 21
9.0
 12
0.0
 22
0.0
 32
0.0
 14
0.0
 24
0.0
 34
0.0
 15
0.0
 25
0.0
 35
0.0
146
0.0
 13
0.0
 23
0.0
 33
0.0
 16
1.0
 26
0.0
 36
0.0
 17
0.0
 27
1.0
 37
0.0
 76
     0
330
23
  0
MATERIAL
  5
B0EF
102
{ACAD_REACTORS
330
A91C
102
}
330
A91C
100
AcDbMaterial
  1
ByBlock
  0
MATERIAL
  5
B0EE
102
{ACAD_REACTORS
330
A91C
102
}
330
A91C
100
AcDbMaterial
  1
ByLayer
  0
MATERIAL
  5
B0F0
102
{ACAD_REACTORS
330
A91C
102
}
330
A91C
100
AcDbMaterial
  1
Global
  0
MLINESTYLE
  5
18
102
{ACAD_REACTORS
330
17
102
}
330
17
100
AcDbMlineStyle
  2
STANDARD
 70
     0
  3

 62
   256
 51
90.0
 52
90.0
 71
     2
 49
0.5
 62
   256
  6
BYLAYER
 49
-0.5
 62
   256
  6
BYLAYER
  0
PLOTSETTINGS
  5
B37F
102
{ACAD_REACTORS
330
19
102
}
330
19
100
AcDbPlotSettings
  1
01 A3フィット
  2
FX DocuWide 2050/2051
  4
A3
  6

 40
3.174999952316284
 41
3.174999952316284
 42
3.17498779296875
 43
3.17498779296875
 44
296.989501953125
 45
419.9889831542968
 46
0.0
 47
1.295841228961961
 48
214.3704939521119
 49
367.5855324241176
140
275.6727856380065
141
407.629191407817
142
1.0
143
1.445089120606129
 70
  3764
 72
     1
 73
     1
 74
     2
  7
monochrome.ctb
 75
     0
147
0.6919988433519999
 76
     0
 77
     2
 78
   200
148
0.0
149
0.0
1001
ACAD_PSEXT
1000
FX DocuWide 2050/2051
1000
FX DocuWide 2050/2051
1000
IP_192.200.15.252
1000

1070
     0
  0
PLOTSETTINGS
  5
B380
102
{ACAD_REACTORS
330
19
102
}
330
19
100
AcDbPlotSettings
  1
02 A3
  2
FX DocuWide 2050/2051
  4
A3
  6

 40
3.174999952316284
 41
3.174999952316284
 42
3.17498779296875
 43
3.17498779296875
 44
296.989501953125
 45
419.9889831542968
 46
-64.68024289608002
 47
-90.18050229549407
 48
214.3704939521119
 49
367.5855324241176
140
275.6727856380065
141
407.629191407817
142
1.0
143
1.0
 70
  3764
 72
     1
 73
     1
 74
     2
  7
monochrome.ctb
 75
    16
147
1.0
 76
     0
 77
     2
 78
   200
148
0.0
149
0.0
1001
ACAD_PSEXT
1000
FX DocuWide 2050/2051
1000
FX DocuWide 2050/2051
1000
IP_192.200.15.252
1000

1070
     0
  0
PLOTSETTINGS
  5
B381
102
{ACAD_REACTORS
330
19
102
}
330
19
100
AcDbPlotSettings
  1
03 A2フィット
  2
FX DocuWide 2050/2051
  4
User66
  6

 40
3.174999952316284
 41
3.174999952316284
 42
3.17498779296875
 43
3.17498779296875
 44
419.9889831542968
 45
593.97900390625
 46
0.0
 47
1.312647041252716
 48
214.3704939521119
 49
367.5855324241176
140
275.6727856380065
141
407.629191407817
142
1.0
143
1.015378155013403
 70
  3764
 72
     1
 73
     1
 74
     2
  7
monochrome.ctb
 75
     0
147
0.9848547509738377
 76
     0
 77
     2
 78
   200
148
0.0
149
0.0
1001
ACAD_PSEXT
1000
FX DocuWide 2050/2051
1000
FX DocuWide 2050/2051
1000
IP_192.200.15.252
1000

1070
     0
  0
PLOTSETTINGS
  5
B382
102
{ACAD_REACTORS
330
19
102
}
330
19
100
AcDbPlotSettings
  1
04 A2
  2
FX DocuWide 2050/2051
  4
User66
  6

 40
3.174999952316284
 41
3.174999952316284
 42
3.17498779296875
 43
3.17498779296875
 44
419.9889831542968
 45
593.97900390625
 46
-3.180502295494079
 47
-3.185491919517517
 48
214.3704939521119
 49
367.5855324241176
140
275.6727856380065
141
407.629191407817
142
1.0
143
1.0
 70
  3764
 72
     1
 73
     1
 74
     2
  7
monochrome.ctb
 75
    16
147
1.0
 76
     0
 77
     2
 78
   200
148
0.0
149
0.0
1001
ACAD_PSEXT
1000
FX DocuWide 2050/2051
1000
FX DocuWide 2050/2051
1000
IP_192.200.15.252
1000

1070
     0
  0
PLOTSETTINGS
  5
B383
102
{ACAD_REACTORS
330
19
102
}
330
19
100
AcDbPlotSettings
  1
05 A1フィット
  2
FX DocuWide 2050/2051
  4
User139
  6

 40
3.174999952316284
 41
3.174999952316284
 42
3.17498779296875
 43
3.17498779296875
 44
593.97900390625
 45
840.9939575195313
 46
0.0
 47
1.784323459012171
 48
214.3704939521119
 49
367.5855324241176
140
275.6727856380065
141
407.629191407817
142
1.0
143
0.7147366594384652
 70
  3764
 72
     1
 73
     1
 74
     2
  7
monochrome.ctb
 75
     0
147
1.399116705145154
 76
     0
 77
     2
 78
   200
148
0.0
149
0.0
1001
ACAD_PSEXT
1000
FX DocuWide 2050/2051
1000
FX DocuWide 2050/2051
1000
IP_192.200.15.252
1000

1070
     0
  0
PLOTSETTINGS
  5
B384
102
{ACAD_REACTORS
330
19
102
}
330
19
100
AcDbPlotSettings
  1
06 A1
  2
FX DocuWide 2050/2051
  4
User139
  6

 40
3.174999952316284
 41
3.174999952316284
 42
3.17498779296875
 43
3.17498779296875
 44
593.97900390625
 45
840.9939575195313
 46
83.81450808048247
 47
120.3219848871231
 48
214.3704939521119
 49
367.5855324241176
140
275.6727856380065
141
407.629191407817
142
1.0
143
1.0
 70
  3764
 72
     1
 73
     1
 74
     2
  7
monochrome.ctb
 75
    16
147
1.0
 76
     0
 77
     2
 78
   200
148
0.0
149
0.0
1001
ACAD_PSEXT
1000
FX DocuWide 2050/2051
1000
FX DocuWide 2050/2051
1000
IP_192.200.15.252
1000

1070
     0
  0
PLOTSETTINGS
  5
B385
102
{ACAD_REACTORS
330
19
102
}
330
19
100
AcDbPlotSettings
  1
06 A4フィット
  2
FX DocuWide 2050/2051
  4
A4
  6

 40
3.174999952316284
 41
3.174999952316284
 42
3.175003051757812
 43
3.17498779296875
 44
209.9944915771484
 45
296.989501953125
 46
0.0
 47
1.314011612960285
 48
214.3704939521119
 49
367.5855324241176
140
275.6727856380065
141
407.629191407817
142
1.0
143
2.06241771109504
 70
  3764
 72
     1
 73
     1
 74
     2
  7
monochrome.ctb
 75
     0
147
0.4848678299358913
 76
     0
 77
     2
 78
   200
148
0.0
149
0.0
1001
ACAD_PSEXT
1000
FX DocuWide 2050/2051
1000
FX DocuWide 2050/2051
1000
IP_192.200.15.252
1000

1070
     0
  0
PLOTSETTINGS
  5
B386
102
{ACAD_REACTORS
330
19
102
}
330
19
100
AcDbPlotSettings
  1
07 A4
  2
FX DocuWide 2050/2051
  4
A4
  6

 40
3.174999952316284
 41
3.174999952316284
 42
3.175003051757812
 43
3.17498779296875
 44
209.9944915771484
 45
296.989501953125
 46
-108.1777557134628
 47
-151.68024289608
 48
214.3704939521119
 49
367.5855324241176
140
275.6727856380065
141
407.629191407817
142
1.0
143
1.0
 70
  3764
 72
     1
 73
     1
 74
     2
  7
monochrome.ctb
 75
    16
147
1.0
 76
     0
 77
     2
 78
   200
148
0.0
149
0.0
1001
ACAD_PSEXT
1000
FX DocuWide 2050/2051
1000
FX DocuWide 2050/2051
1000
IP_192.200.15.252
1000

1070
     0
  0
ACDBPLACEHOLDER
  5
F
102
{ACAD_REACTORS
330
E
102
}
330
E
  0
TABLESTYLE
  5
AABA
102
{ACAD_REACTORS
330
AAB9
102
}
330
AAB9
100
AcDbTableStyle
  3
Standard
 70
     0
 71
     0
 40
1.5
 41
1.5
280
     0
281
     0
  7
STANDARD
140
4.5
170
     2
 62
     0
 63
     7
283
     0
 90
        4
 91
        0
  1

274
    -2
284
     1
 64
     0
275
    -2
285
     1
 65
     0
276
    -2
286
     1
 66
     0
277
    -2
287
     1
 67
     0
278
    -2
288
     1
 68
     0
279
    -2
289
     1
 69
     0
  7
STANDARD
140
6.0
170
     5
 62
     0
 63
     7
283
     0
 90
        4
 91
        0
  1

274
    -2
284
     1
 64
     0
275
    -2
285
     1
 65
     0
276
    -2
286
     1
 66
     0
277
    -2
287
     1
 67
     0
278
    -2
288
     1
 68
     0
279
    -2
289
     1
 69
     0
  7
STANDARD
140
4.5
170
     5
 62
     0
 63
     7
283
     0
 90
        4
 91
        0
  1

274
    -2
284
     1
 64
     0
275
    -2
285
     1
 65
     0
276
    -2
286
     1
 66
     0
277
    -2
287
     1
 67
     0
278
    -2
288
     1
 68
     0
279
    -2
289
     1
 69
     0
  0
VISUALSTYLE
  5
B0F7
102
{ACAD_REACTORS
330
B0F1
102
}
330
B0F1
100
AcDbVisualStyle
  2
2dWireframe
 70
     4
 71
     0
 72
     2
 73
     0
 90
        0
 40
-0.6
 41
-30.0
 62
     5
 63
     7
421
 16777215
 74
     1
 91
        4
 64
     7
 65
   257
 75
     1
175
     1
 42
1.0
 92
        0
 66
   257
 43
1.0
 76
     1
 77
     6
 78
     2
 67
     7
 79
     5
170
     0
171
     0
290
     0
174
     0
 93
        1
 44
0.0
173
     0
291
     0
 45
0.0
  0
VISUALSTYLE
  5
B0F9
102
{ACAD_REACTORS
330
B0F1
102
}
330
B0F1
100
AcDbVisualStyle
  2
3D Hidden
 70
     6
 71
     1
 72
     2
 73
     2
 90
        0
 40
-0.6
 41
-30.0
 62
     5
 63
     7
421
 16777215
 74
     2
 91
        2
 64
     7
 65
   257
 75
     2
175
     1
 42
40.0
 92
        0
 66
   257
 43
1.0
 76
     1
 77
     6
 78
     2
 67
     7
 79
     3
170
     0
171
     0
290
     0
174
     0
 93
        1
 44
0.0
173
     0
291
     0
 45
0.0
  0
VISUALSTYLE
  5
B0F8
102
{ACAD_REACTORS
330
B0F1
102
}
330
B0F1
100
AcDbVisualStyle
  2
3dWireframe
 70
     5
 71
     0
 72
     2
 73
     0
 90
        0
 40
-0.6
 41
-30.0
 62
     5
 63
     7
421
 16777215
 74
     1
 91
        4
 64
     7
 65
   257
 75
     1
175
     1
 42
1.0
 92
        0
 66
   257
 43
1.0
 76
     1
 77
     6
 78
     2
 67
     7
 79
     5
170
     0
171
     0
290
     0
174
     0
 93
        1
 44
0.0
173
     0
291
     0
 45
0.0
  0
VISUALSTYLE
  5
B0F6
102
{ACAD_REACTORS
330
B0F1
102
}
330
B0F1
100
AcDbVisualStyle
  2
Basic
 70
     7
 71
     1
 72
     0
 73
     1
 90
        0
 40
-0.6
 41
-30.0
 62
     5
 63
     7
421
 16777215
 74
     0
 91
        4
 64
     7
 65
   257
 75
     1
175
     1
 42
1.0
 92
        8
 66
     7
 43
1.0
 76
     1
 77
     6
 78
     2
 67
     7
 79
     5
170
     0
171
     0
290
     0
174
     0
 93
        1
 44
0.0
173
     0
291
     1
 45
0.0
  0
VISUALSTYLE
  5
B0FD
102
{ACAD_REACTORS
330
B0F1
102
}
330
B0F1
100
AcDbVisualStyle
  2
Brighten
 70
    12
 71
     2
 72
     2
 73
     0
 90
        0
 40
-0.6
 41
-30.0
 62
     5
 63
     7
421
 16777215
 74
     1
 91
        4
 64
     7
 65
   257
 75
     1
175
     1
 42
1.0
 92
        8
 66
     7
 43
1.0
 76
     1
 77
     6
 78
     2
 67
     7
 79
     5
170
     0
171
     0
290
     0
174
     0
 93
        1
 44
50.0
173
     0
291
     1
 45
0.0
  0
VISUALSTYLE
  5
B101
102
{ACAD_REACTORS
330
B0F1
102
}
330
B0F1
100
AcDbVisualStyle
  2
ColorChange
 70
    16
 71
     2
 72
     2
 73
     3
 90
        0
 40
-0.6
 41
-30.0
 62
     5
 63
     8
421
  8421504
 74
     1
 91
        4
 64
     7
 65
   257
 75
     1
175
     1
 42
1.0
 92
        8
 66
     8
424
  8421504
 43
1.0
 76
     1
 77
     6
 78
     2
 67
     7
 79
     5
170
     0
171
     0
290
     0
174
     0
 93
        1
 44
0.0
173
     0
291
     1
 45
0.0
  0
VISUALSTYLE
  5
B0FA
102
{ACAD_REACTORS
330
B0F1
102
}
330
B0F1
100
AcDbVisualStyle
  2
Conceptual
 70
     9
 71
     3
 72
     2
 73
     0
 90
        0
 40
-0.6
 41
-30.0
 62
     5
 63
     7
421
 16777215
 74
     2
 91
        2
 64
     7
 65
   257
 75
     1
175
     1
 42
40.0
 92
        8
 66
     7
 43
1.0
 76
     1
 77
     6
 78
     2
 67
     7
 79
     3
170
     0
171
     0
290
     0
174
     0
 93
        1
 44
0.0
173
     0
291
     0
 45
0.0
  0
VISUALSTYLE
  5
B0FC
102
{ACAD_REACTORS
330
B0F1
102
}
330
B0F1
100
AcDbVisualStyle
  2
Dim
 70
    11
 71
     2
 72
     2
 73
     0
 90
        0
 40
-0.6
 41
-30.0
 62
     5
 63
     7
421
 16777215
 74
     1
 91
        4
 64
     7
 65
   257
 75
     1
175
     1
 42
1.0
 92
        8
 66
     7
 43
1.0
 76
     1
 77
     6
 78
     2
 67
     7
 79
     5
170
     0
171
     0
290
     0
174
     0
 93
        1
 44
-50.0
173
     0
291
     1
 45
0.0
  0
VISUALSTYLE
  5
B100
102
{ACAD_REACTORS
330
B0F1
102
}
330
B0F1
100
AcDbVisualStyle
  2
Facepattern
 70
    15
 71
     2
 72
     2
 73
     0
 90
        0
 40
-0.6
 41
-30.0
 62
     5
 63
     7
421
 16777215
 74
     1
 91
        4
 64
     7
 65
   257
 75
     1
175
     1
 42
1.0
 92
        8
 66
     7
 43
1.0
 76
     1
 77
     6
 78
     2
 67
     7
 79
     5
170
     0
171
     0
290
     0
174
     0
 93
        1
 44
0.0
173
     0
291
     1
 45
0.0
  0
VISUALSTYLE
  5
B0F2
102
{ACAD_REACTORS
330
B0F1
102
}
330
B0F1
100
AcDbVisualStyle
  2
Flat
 70
     0
 71
     2
 72
     1
 73
     1
 90
        2
 40
-0.6
 41
30.0
 62
     5
 63
     7
421
 16777215
 74
     0
 91
        4
 64
     7
 65
   257
 75
     1
175
     1
 42
1.0
 92
        8
 66
     7
 43
1.0
 76
     1
 77
     6
 78
     2
 67
     7
 79
     5
170
     0
171
     0
290
     0
174
     0
 93
       13
 44
0.0
173
     0
291
     1
 45
0.0
  0
VISUALSTYLE
  5
B0F3
102
{ACAD_REACTORS
330
B0F1
102
}
330
B0F1
100
AcDbVisualStyle
  2
FlatWithEdges
 70
     1
 71
     2
 72
     1
 73
     1
 90
        2
 40
-0.6
 41
30.0
 62
     5
 63
     7
421
 16777215
 74
     1
 91
        4
 64
     7
 65
   257
 75
     1
175
     1
 42
1.0
 92
        0
 66
   257
 43
1.0
 76
     1
 77
     6
 78
     2
 67
     7
 79
     5
170
     0
171
     0
290
     0
174
     0
 93
       13
 44
0.0
173
     0
291
     1
 45
0.0
  0
VISUALSTYLE
  5
B0F4
102
{ACAD_REACTORS
330
B0F1
102
}
330
B0F1
100
AcDbVisualStyle
  2
Gouraud
 70
     2
 71
     2
 72
     2
 73
     1
 90
        2
 40
-0.6
 41
30.0
 62
     5
 63
     7
421
 16777215
 74
     0
 91
        4
 64
     7
 65
   257
 75
     1
175
     1
 42
1.0
 92
        0
 66
     7
 43
1.0
 76
     1
 77
     6
 78
     2
 67
     7
 79
     5
170
     0
171
     0
290
     0
174
     0
 93
       13
 44
0.0
173
     0
291
     1
 45
0.0
  0
VISUALSTYLE
  5
B0F5
102
{ACAD_REACTORS
330
B0F1
102
}
330
B0F1
100
AcDbVisualStyle
  2
GouraudWithEdges
 70
     3
 71
     2
 72
     2
 73
     1
 90
        2
 40
-0.6
 41
30.0
 62
     5
 63
     7
421
 16777215
 74
     1
 91
        4
 64
     7
 65
   257
 75
     1
175
     1
 42
1.0
 92
        0
 66
   257
 43
1.0
 76
     1
 77
     6
 78
     2
 67
     7
 79
     5
170
     0
171
     0
290
     0
174
     0
 93
       13
 44
0.0
173
     0
291
     1
 45
0.0
  0
VISUALSTYLE
  5
B0FF
102
{ACAD_REACTORS
330
B0F1
102
}
330
B0F1
100
AcDbVisualStyle
  2
Linepattern
 70
    14
 71
     2
 72
     2
 73
     0
 90
        0
 40
-0.6
 41
-30.0
 62
     5
 63
     7
421
 16777215
 74
     1
 91
        4
 64
     7
 65
   257
 75
     7
175
     7
 42
1.0
 92
        8
 66
     7
 43
1.0
 76
     1
 77
     6
 78
     2
 67
     7
 79
     5
170
     0
171
     0
290
     0
174
     0
 93
        1
 44
0.0
173
     0
291
     1
 45
0.0
  0
VISUALSTYLE
  5
B0FB
102
{ACAD_REACTORS
330
B0F1
102
}
330
B0F1
100
AcDbVisualStyle
  2
Realistic
 70
     8
 71
     2
 72
     2
 73
     0
 90
        0
 40
-0.6
 41
-30.0
 62
     5
 63
     7
421
 16777215
 74
     1
 91
        0
 64
     7
 65
   257
 75
     1
175
     1
 42
1.0
 92
        8
 66
     8
424
  7895160
 43
1.0
 76
     1
 77
     6
 78
     2
 67
     7
 79
     5
170
     0
171
     0
290
     0
174
     0
 93
       13
 44
0.0
173
     0
291
     0
 45
0.0
  0
VISUALSTYLE
  5
B0FE
102
{ACAD_REACTORS
330
B0F1
102
}
330
B0F1
100
AcDbVisualStyle
  2
Thicken
 70
    13
 71
     2
 72
     2
 73
     0
 90
        0
 40
-0.6
 41
-30.0
 62
     5
 63
     7
421
 16777215
 74
     1
 91
        4
 64
     7
 65
   257
 75
     1
175
     1
 42
1.0
 92
       12
 66
     7
 43
1.0
 76
     1
 77
     6
 78
     2
 67
     7
 79
     5
170
     0
171
     0
290
     0
174
     0
 93
        1
 44
0.0
173
     0
291
     1
 45
0.0
  0
DICTIONARYVAR
  5
AAF3
102
{ACAD_REACTORS
330
34
102
}
330
34
100
DictionaryVariables
280
     0
  1
STANDARD
  0
DICTIONARYVAR
  5
A10C
102
{ACAD_REACTORS
330
34
102
}
330
34
100
DictionaryVariables
280
     0
  1
1
  0
DICTIONARYVAR
  5
AB07
102
{ACAD_REACTORS
330
34
102
}
330
34
100
DictionaryVariables
280
     0
  1
4
  0
DICTIONARYVAR
  5
35
102
{ACAD_REACTORS
330
34
102
}
330
34
100
DictionaryVariables
280
     0
  1
1
  0
DICTIONARYVAR
  5
194C
102
{ACAD_REACTORS
330
34
102
}
330
34
100
DictionaryVariables
280
     0
  1
96
  0
DICTIONARY
  5
7E8
102
{ACAD_REACTORS
330
47
102
}
330
47
100
AcDbDictionary
281
     1
  0
DICTIONARY
  5
4C
102
{ACAD_REACTORS
330
47
102
}
330
47
100
AcDbDictionary
281
     1
  0
XRECORD
  5
A929
102
{ACAD_REACTORS
330
47
102
}
330
47
100
AcDbXrecord
280
     1
 90
-1023410169
  0
XRECORD
  5
B332
102
{ACAD_REACTORS
330
B331
102
}
330
B331
100
AcDbXrecord
280
     1
  0
XRECORD
  5
3FB7
102
{ACAD_REACTORS
330
3F96
102
}
330
3F96
100
AcDbXrecord
280
     1
 91
        3
330
0
 90
        8
 62
     7
370
    40
331
16
  1
Color_7
330
0
 90
        0
 62
    14
370
    -3
331
16
  1
Color_14
330
0
 90
        8
 62
     7
370
    20
331
16
  1
Color_7
330
6D1
 90
        0
 62
     7
370
    -3
331
16
  1
Color_7
330
0
 90
        8
 62
     7
370
    50
331
16
  1
Color_7
330
0
 90
        8
 62
     2
370
    35
331
16
  1
Color_2
330
0
 90
        8
 62
     7
370
    -3
331
16
  1
Color_7
330
10
 90
        8
 62
     7
370
    -3
331
16
  1
Color_7
  0
ENDSEC
  0
EOF
