  0
SECTION
  2
HEADER
  9
$ACADVER
  1
AC1015
  9
$ACADMAINTVER
 70
    20
  9
$DWGCODEPAGE
  3
ANSI_932
  9
$INSBASE
 10
0.0
 20
0.0
 30
0.0
  9
$EXTMIN
 10
-0.0128164049386896
 20
-0.0090630292066862
 30
-0.0015258207003583
  9
$EXTMAX
 10
420.0128183607161
 20
297.0090644122207
 30
0.0000000349246037
  9
$LIMMIN
 10
0.0
 20
0.0
  9
$LIMMAX
 10
420.0
 20
297.0
  9
$ORTHOMODE
 70
     0
  9
$REGENMODE
 70
     1
  9
$FILLMODE
 70
     1
  9
$QTEXTMODE
 70
     0
  9
$MIRRTEXT
 70
     0
  9
$LTSCALE
 40
1.0
  9
$ATTMODE
 70
     1
  9
$TEXTSIZE
 40
3.2
  9
$TRACEWID
 40
1.0
  9
$TEXTSTYLE
  7
STANDARD
  9
$CLAYER
  8
AM_0
  9
$CELTYPE
  6
ByLayer
  9
$CECOLOR
 62
   256
  9
$CELTSCALE
 40
1.0
  9
$DISPSILH
 70
     0
  9
$DIMSCALE
 40
1.0
  9
$DIMASZ
 40
1.0
  9
$DIMEXO
 40
1.0
  9
$DIMDLI
 40
10.0
  9
$DIMRND
 40
0.0
  9
$DIMDLE
 40
0.0
  9
$DIMEXE
 40
1.0
  9
$DIMTP
 40
0.1
  9
$DIMTM
 40
0.1
  9
$DIMTXT
 40
3.5
  9
$DIMCEN
 40
0.0
  9
$DIMTSZ
 40
0.0
  9
$DIMTOL
 70
     0
  9
$DIMLIM
 70
     0
  9
$DIMTIH
 70
     0
  9
$DIMTOH
 70
     0
  9
$DIMSE1
 70
     0
  9
$DIMSE2
 70
     0
  9
$DIMTAD
 70
     1
  9
$DIMZIN
 70
     8
  9
$DIMBLK
  1

  9
$DIMASO
 70
     1
  9
$DIMSHO
 70
     1
  9
$DIMPOST
  1

  9
$DIMAPOST
  1
"
  9
$DIMALT
 70
     0
  9
$DIMALTD
 70
     2
  9
$DIMALTF
 40
0.0393701
  9
$DIMLFAC
 40
1.0
  9
$DIMTOFL
 70
     1
  9
$DIMTVP
 40
0.0
  9
$DIMTIX
 70
     0
  9
$DIMSOXD
 70
     0
  9
$DIMSAH
 70
     0
  9
$DIMBLK1
  1

  9
$DIMBLK2
  1

  9
$DIMSTYLE
  2
SYS
  9
$DIMCLRD
 70
   256
  9
$DIMCLRE
 70
   256
  9
$DIMCLRT
 70
     7
  9
$DIMTFAC
 40
0.71
  9
$DIMGAP
 40
1.5
  9
$DIMJUST
 70
     0
  9
$DIMSD1
 70
     0
  9
$DIMSD2
 70
     0
  9
$DIMTOLJ
 70
     0
  9
$DIMTZIN
 70
     8
  9
$DIMALTZ
 70
     0
  9
$DIMALTTZ
 70
     0
  9
$DIMUPT
 70
     0
  9
$DIMDEC
 70
     2
  9
$DIMTDEC
 70
     2
  9
$DIMALTU
 70
     2
  9
$DIMALTTD
 70
     2
  9
$DIMTXSTY
  7
STANDARD
  9
$DIMAUNIT
 70
     0
  9
$DIMADEC
 70
     0
  9
$DIMALTRND
 40
0.0
  9
$DIMAZIN
 70
     2
  9
$DIMDSEP
 70
    46
  9
$DIMATFIT
 70
     3
  9
$DIMFRAC
 70
     0
  9
$DIMLDRBLK
  1

  9
$DIMLUNIT
 70
     2
  9
$DIMLWD
 70
    -1
  9
$DIMLWE
 70
    -1
  9
$DIMTMOVE
 70
     0
  9
$LUNITS
 70
     2
  9
$LUPREC
 70
     2
  9
$SKETCHINC
 40
1.0
  9
$FILLETRAD
 40
0.0
  9
$AUNITS
 70
     0
  9
$AUPREC
 70
     0
  9
$MENU
  1
.
  9
$ELEVATION
 40
0.0
  9
$PELEVATION
 40
0.0
  9
$THICKNESS
 40
0.0
  9
$LIMCHECK
 70
     0
  9
$CHAMFERA
 40
0.0
  9
$CHAMFERB
 40
0.0
  9
$CHAMFERC
 40
20.0
  9
$CHAMFERD
 40
0.0
  9
$SKPOLY
 70
     0
  9
$TDCREATE
 40
2455237.495577790
  9
$TDUCREATE
 40
2455237.120577789
  9
$TDUPDATE
 40
2455399.557001586
  9
$TDUUPDATE
 40
2455399.182001586
  9
$TDINDWG
 40
1.1810235995
  9
$TDUSRTIMER
 40
1.1810232407
  9
$USRTIMER
 70
     1
  9
$ANGBASE
 50
0.0
  9
$ANGDIR
 70
     0
  9
$PDMODE
 70
     0
  9
$PDSIZE
 40
-3.0
  9
$PLINEWID
 40
0.0
  9
$SPLFRAME
 70
     0
  9
$SPLINETYPE
 70
     6
  9
$SPLINESEGS
 70
     8
  9
$HANDSEED
  5
15024
  9
$SURFTAB1
 70
     6
  9
$SURFTAB2
 70
     6
  9
$SURFTYPE
 70
     6
  9
$SURFU
 70
     6
  9
$SURFV
 70
     6
  9
$UCSBASE
  2

  9
$UCSNAME
  2

  9
$UCSORG
 10
0.0
 20
0.0
 30
0.0
  9
$UCSXDIR
 10
1.0
 20
0.0
 30
0.0
  9
$UCSYDIR
 10
0.0
 20
1.0
 30
0.0
  9
$UCSORTHOREF
  2

  9
$UCSORTHOVIEW
 70
     0
  9
$UCSORGTOP
 10
0.0
 20
0.0
 30
0.0
  9
$UCSORGBOTTOM
 10
0.0
 20
0.0
 30
0.0
  9
$UCSORGLEFT
 10
0.0
 20
0.0
 30
0.0
  9
$UCSORGRIGHT
 10
0.0
 20
0.0
 30
0.0
  9
$UCSORGFRONT
 10
0.0
 20
0.0
 30
0.0
  9
$UCSORGBACK
 10
0.0
 20
0.0
 30
0.0
  9
$PUCSBASE
  2

  9
$PUCSNAME
  2

  9
$PUCSORG
 10
0.0
 20
0.0
 30
0.0
  9
$PUCSXDIR
 10
1.0
 20
0.0
 30
0.0
  9
$PUCSYDIR
 10
0.0
 20
1.0
 30
0.0
  9
$PUCSORTHOREF
  2

  9
$PUCSORTHOVIEW
 70
     0
  9
$PUCSORGTOP
 10
0.0
 20
0.0
 30
0.0
  9
$PUCSORGBOTTOM
 10
0.0
 20
0.0
 30
0.0
  9
$PUCSORGLEFT
 10
0.0
 20
0.0
 30
0.0
  9
$PUCSORGRIGHT
 10
0.0
 20
0.0
 30
0.0
  9
$PUCSORGFRONT
 10
0.0
 20
0.0
 30
0.0
  9
$PUCSORGBACK
 10
0.0
 20
0.0
 30
0.0
  9
$USERI1
 70
     0
  9
$USERI2
 70
     0
  9
$USERI3
 70
     0
  9
$USERI4
 70
     0
  9
$USERI5
 70
     0
  9
$USERR1
 40
0.0
  9
$USERR2
 40
0.0
  9
$USERR3
 40
0.0
  9
$USERR4
 40
0.0
  9
$USERR5
 40
0.0
  9
$WORLDVIEW
 70
     1
  9
$SHADEDGE
 70
     3
  9
$SHADEDIF
 70
    70
  9
$TILEMODE
 70
     1
  9
$MAXACTVP
 70
    64
  9
$PINSBASE
 10
0.0
 20
0.0
 30
0.0
  9
$PLIMCHECK
 70
     0
  9
$PEXTMIN
 10
1.000000000000000E+20
 20
1.000000000000000E+20
 30
1.000000000000000E+20
  9
$PEXTMAX
 10
-1.000000000000000E+20
 20
-1.000000000000000E+20
 30
-1.000000000000000E+20
  9
$PLIMMIN
 10
-3.17498779296875
 20
-3.174999952316284
  9
$PLIMMAX
 10
293.4970092773438
 20
206.692492723465
  9
$UNITMODE
 70
     0
  9
$VISRETAIN
 70
     1
  9
$PLINEGEN
 70
     0
  9
$PSLTSCALE
 70
     1
  9
$TREEDEPTH
 70
  3020
  9
$CMLSTYLE
  2
Standard
  9
$CMLJUST
 70
     0
  9
$CMLSCALE
 40
20.0
  9
$PROXYGRAPHICS
 70
     1
  9
$MEASUREMENT
 70
     1
  9
$CELWEIGHT
370
    -1
  9
$ENDCAPS
280
     0
  9
$JOINSTYLE
280
     0
  9
$LWDISPLAY
290
     1
  9
$INSUNITS
 70
     4
  9
$HYPERLINKBASE
  1

  9
$STYLESHEET
  1
monochrome.ctb
  9
$XEDIT
290
     1
  9
$CEPSNTYPE
380
     0
  9
$PSTYLEMODE
290
     1
  9
$FINGERPRINTGUID
  2
{45AF8DDD-6F74-43C8-8911-2F58558F067A}
  9
$VERSIONGUID
  2
{2F9009B8-47A9-4F7A-B588-3E8CBCC3FAB6}
  9
$EXTNAMES
290
     1
  9
$PSVPSCALE
 40
0.0
  9
$OLESTARTUP
290
     0
  0
ENDSEC
  0
SECTION
  2
CLASSES
  0
CLASS
  1
ACDBDICTIONARYWDFLT
  2
AcDbDictionaryWithDefault
  3
ObjectDBX Classes
 90
        0
280
     0
281
     0
  0
CLASS
  1
ACDBPLACEHOLDER
  2
AcDbPlaceHolder
  3
ObjectDBX Classes
 90
        0
280
     0
281
     0
  0
CLASS
  1
LAYOUT
  2
AcDbLayout
  3
ObjectDBX Classes
 90
        0
280
     0
281
     0
  0
CLASS
  1
AMGSETTINGSOBJ
  2
AmgSettingsObj
  3
"AcadM|Product Description: AutoCAD Mechanical|Company: Autodesk, Inc."
 90
     1024
280
     0
281
     0
  0
CLASS
  1
ACME_DOCUMENT
  2
AcMeDbDoc
  3
AcMeServices
 90
     1024
280
     0
281
     0
  0
CLASS
  1
ACMESCOPE
  2
AcMeScope
  3
AcMeServices
 90
     1024
280
     0
281
     0
  0
CLASS
  1
ACMECOMMANDHISTORY
  2
AcMeCommandHistory
  3
AcMeServices
 90
     1024
280
     0
281
     0
  0
CLASS
  1
DICTIONARYVAR
  2
AcDbDictionaryVar
  3
ObjectDBX Classes
 90
        0
280
     0
281
     0
  0
CLASS
  1
ACIMSYSVARMAN
  2
AcImSysVarManager
  3
AcMeServices
 90
     1024
280
     0
281
     0
  0
CLASS
  1
ACIMREALSYSVAR
  2
AcImRealSysVar
  3
AcMeServices
 90
     1024
280
     0
281
     0
  0
CLASS
  1
ACIMINTSYSVAR
  2
AcImIntSysVar
  3
AcMeServices
 90
     1024
280
     0
281
     0
  0
CLASS
  1
ACMEDRAWINGMAN
  2
AcMeDrawingMan
  3
AcMeServices
 90
     1024
280
     0
281
     0
  0
CLASS
  1
ACMEVIEW
  2
AcMeView
  3
AcMeServices
 90
     1024
280
     0
281
     0
  0
CLASS
  1
ACDBENTITYCACHE
  2
AcMeEntityCache
  3
AcMeServices
 90
     1024
280
     0
281
     0
  0
CLASS
  1
GSMANAGER
  2
AcMeGSManager
  3
AcMeServices
 90
     1024
280
     0
281
     0
  0
CLASS
  1
AMDTINTERNALREACTOR
  2
AmdtInternalReactor
  3
AcMeServices
 90
     1024
280
     0
281
     0
  0
CLASS
  1
ACMESTATEMGR
  2
AcMeStateMgr
  3
AcMeServices
 90
     1024
280
     0
281
     0
  0
CLASS
  1
ACGREFMASTER
  2
AcGrefMaster
  3
AcAttribServices
 90
     1024
280
     0
281
     0
  0
CLASS
  1
ACME_DATABASE
  2
AcMeDbDatabase
  3
AcMeServices
 90
     1024
280
     0
281
     0
  0
CLASS
  1
ACRFINSADJUSTERMGR
  2
AcRfInsAdjusterMgr
  3
AcMeServices
 90
     1024
280
     0
281
     0
  0
CLASS
  1
ACGREFACADMASTER
  2
AcGrefacadMaster
  3
AcGrefServices
 90
     1024
280
     0
281
     0
  0
CLASS
  1
AMIMASTER
  2
AmiMaster
  3
AmiServices
 90
     1024
280
     0
281
     0
  0
CLASS
  1
ACMDATADICTIONARY
  2
AcmDataDictionary
  3
"AcmSymBB|Product Description: AutoCAD Mechanical|Company: Autodesk, Inc."
 90
     1024
280
     0
281
     0
  0
CLASS
  1
ACMDATAENTRYBLOCK
  2
AcmDataEntryBlock
  3
AcmSymBB|Product Description: AutoCAD Mechanical|Company: Autodesk, Inc.
 90
     1024
280
     0
281
     0
  0
CLASS
  1
ACIMSTRSYSVAR
  2
AcImStrSysVar
  3
AcMeServices
 90
     1024
280
     0
281
     0
  0
CLASS
  1
ACMSTANDARDISO
  2
AcmStandardISO
  3
"Amdt_StdImp|Product Description: AutoCAD Mechanical|Company: Autodesk, Inc."
 90
     1024
280
     0
281
     0
  0
CLASS
  1
AMGOBJPROPCFG
  2
AmgObjPropCfg
  3
"AmgLay|Product Description: AutoCAD Mechanical|Company: Autodesk, Inc."
 90
     1025
280
     0
281
     0
  0
CLASS
  1
AMDTEDGESTANDARDISO
  2
AmdtEdgeStdISO
  3
"Amdt_StdImp|Product Description: AutoCAD Mechanical|Company: Autodesk, Inc."
 90
     1024
280
     0
281
     0
  0
CLASS
  1
ACMSURFSTANDARDISO
  2
AcmSurfTextStdISO
  3
"Amdt_StdImp|Product Description: AutoCAD Mechanical|Company: Autodesk, Inc."
 90
     1024
280
     0
281
     0
  0
CLASS
  1
ACMFCFSTANDARDISO
  2
AcmFCFStdISO
  3
"Amdt_StdImp|Product Description: AutoCAD Mechanical|Company: Autodesk, Inc."
 90
     1024
280
     0
281
     0
  0
CLASS
  1
ACMWELDSTANDARDISO
  2
AcmWeldingStdISO
  3
"Amdt_StdImp|Product Description: AutoCAD Mechanical|Company: Autodesk, Inc."
 90
     1024
280
     0
281
     0
  0
CLASS
  1
ACMIDSTANDARDISO
  2
AcmIdStdISO
  3
"Amdt_StdImp|Product Description: AutoCAD Mechanical|Company: Autodesk, Inc."
 90
     1024
280
     0
281
     0
  0
CLASS
  1
ACMDATUMSTANDARDISO
  2
AcmDatumStdISO
  3
"Amdt_StdImp|Product Description: AutoCAD Mechanical|Company: Autodesk, Inc."
 90
     1024
280
     0
281
     0
  0
CLASS
  1
ACMBOMSTANDARDISO
  2
AcmBOMStdISO
  3
"Amdt_StdImp|Product Description: AutoCAD Mechanical|Company: Autodesk, Inc."
 90
     1024
280
     0
281
     0
  0
CLASS
  1
ACMDETAILSTANDARDISO
  2
AmdtDetailSymStdISO
  3
"Amdt_StdImp|Product Description: AutoCAD Mechanical|Company: Autodesk, Inc."
 90
     1024
280
     0
281
     0
  0
CLASS
  1
ACMSECTIONSTANDARDISO
  2
AmdtSectionSymStdISO
  3
"Amdt_StdImp|Product Description: AutoCAD Mechanical|Company: Autodesk, Inc."
 90
     1024
280
     0
281
     0
  0
CLASS
  1
ACMCENTERLINESTANDARDISO
  2
AmdtCenterLineStdISO
  3
"Amdt_StdImp|Product Description: AutoCAD Mechanical|Company: Autodesk, Inc."
 90
     1024
280
     0
281
     0
  0
CLASS
  1
ACAMGLAYSTD
  2
AcAmgLayStd
  3
"AmgLay|Product Description: AutoCAD Mechanical|Company: Autodesk, Inc."
 90
     1024
280
     0
281
     0
  0
CLASS
  1
ACAMGDIMSTD
  2
AcAmgDimStd
  3
"AmgDim|Product Description: AutoCAD Mechanical|Company: Autodesk, Inc."
 90
     1024
280
     0
281
     0
  0
CLASS
  1
ACAMGTITLESTD
  2
AcAmgTitleStd
  3
"AmgTitle|Product Description: AutoCAD Mechanical|Company: Autodesk, Inc."
 90
     4095
280
     0
281
     0
  0
CLASS
  1
ACAMGFILTERDAT
  2
AcAmgFilterDat
  3
"AcadM|Product Description: AutoCAD Mechanical|Company: Autodesk, Inc."
 90
     1024
280
     0
281
     0
  0
CLASS
  1
LAYER_INDEX
  2
AcDbLayerIndex
  3
ObjectDBX Classes
 90
    32768
280
     0
281
     0
  0
CLASS
  1
IDBUFFER
  2
AcDbIdBuffer
  3
ObjectDBX Classes
 90
    32768
280
     0
281
     0
  0
CLASS
  1
PLOTSETTINGS
  2
AcDbPlotSettings
  3
ObjectDBX Classes
 90
        0
280
     0
281
     0
  0
CLASS
  1
AMDTFORMULAUPDATEDISPATCHER
  2
AmdtFormulaUpdateDispatcher
  3
AcMeServices
 90
     1024
280
     0
281
     0
  0
CLASS
  1
ACMSTANDARDANSI
  2
AcmStandardANSI
  3
"Amdt_StdImp|Product Description: AutoCAD Mechanical|Company: Autodesk, Inc."
 90
     1024
280
     0
281
     0
  0
CLASS
  1
ACMSURFSTANDARDANSI
  2
AcmSurfTextStdANSI
  3
"Amdt_StdImp|Product Description: AutoCAD Mechanical|Company: Autodesk, Inc."
 90
     1024
280
     0
281
     0
  0
CLASS
  1
ACMFCFSTANDARDANSI
  2
AcmFCFStdANSI
  3
"Amdt_StdImp|Product Description: AutoCAD Mechanical|Company: Autodesk, Inc."
 90
     1024
280
     0
281
     0
  0
CLASS
  1
ACMWELDSTANDARDANSI
  2
AcmWeldingStdANSI
  3
"Amdt_StdImp|Product Description: AutoCAD Mechanical|Company: Autodesk, Inc."
 90
     1024
280
     0
281
     0
  0
CLASS
  1
ACMIDSTANDARDANSI
  2
AcmIdStdANSI
  3
"Amdt_StdImp|Product Description: AutoCAD Mechanical|Company: Autodesk, Inc."
 90
     1024
280
     0
281
     0
  0
CLASS
  1
ACMDATUMSTANDARDANSI
  2
AcmDatumStdANSI
  3
"Amdt_StdImp|Product Description: AutoCAD Mechanical|Company: Autodesk, Inc."
 90
     1024
280
     0
281
     0
  0
CLASS
  1
ACMBOMSTANDARDANSI
  2
AcmBOMStdANSI
  3
"Amdt_StdImp|Product Description: AutoCAD Mechanical|Company: Autodesk, Inc."
 90
     1024
280
     0
281
     0
  0
CLASS
  1
ACMDETAILSTANDARDANSI
  2
AmdtDetailSymStdANSI
  3
"Amdt_StdImp|Product Description: AutoCAD Mechanical|Company: Autodesk, Inc."
 90
     1024
280
     0
281
     0
  0
CLASS
  1
ACMSECTIONSTANDARDANSI
  2
AmdtSectionSymStdANSI
  3
"Amdt_StdImp|Product Description: AutoCAD Mechanical|Company: Autodesk, Inc."
 90
     1024
280
     0
281
     0
  0
CLASS
  1
ACMCENTERLINESTANDARDANSI
  2
AmdtCenterLineStdANSI
  3
"Amdt_StdImp|Product Description: AutoCAD Mechanical|Company: Autodesk, Inc."
 90
     1024
280
     0
281
     0
  0
CLASS
  1
ACMBOM
  2
AcmBom
  3
"AcmSymBB|Product Description: AutoCAD Mechanical|Company: Autodesk, Inc."
 90
     1024
280
     0
281
     0
  0
CLASS
  1
ACMDATAENTRYPART
  2
AcmDataEntryPart
  3
AcmSymBB|Product Description: AutoCAD Mechanical|Company: Autodesk, Inc.
 90
    33792
280
     0
281
     0
  0
CLASS
  1
ACMPARTREF
  2
AcmPartRef
  3
"AcmSymBB|Product Description: AutoCAD Mechanical|Company: Autodesk, Inc."
 90
    36863
280
     0
281
     1
  0
CLASS
  1
ACDBCIRCARCRES
  2
AcDbCircArcRes
  3
AcGrefServices
 90
    33792
280
     0
281
     0
  0
CLASS
  1
ACMBOMROW
  2
AcmBomRow
  3
"AcmSymBB|Product Description: AutoCAD Mechanical|Company: Autodesk, Inc."
 90
    33792
280
     0
281
     0
  0
CLASS
  1
ACMBALLOON
  2
AcmBalloon
  3
"AcmSymBB|Product Description: AutoCAD Mechanical|Company: Autodesk, Inc."
 90
    36863
280
     0
281
     1
  0
CLASS
  1
AMDTNOTE
  2
AmdtNote
  3
"AcmSymBB|Product Description: AutoCAD Mechanical|Company: Autodesk, Inc."
 90
    36863
280
     0
281
     1
  0
CLASS
  1
STDPART2D
  2
AmgStdPart
  3
AmgStdPart|Product Description: AutoCAD Mechanical|Company: Autodesk, Inc.
 90
    36863
280
     0
281
     1
  0
CLASS
  1
ACDBSTDPARTRES_LINE
  2
AcDbStdPartRes_Line
  3
AmgStdPart|Product Description: AutoCAD Mechanical|Company: Autodesk, Inc.
 90
    33792
280
     0
281
     0
  0
CLASS
  1
ACMDATAENTRY
  2
AcmDataEntry
  3
AcmSymBB|Product Description: AutoCAD Mechanical|Company: Autodesk, Inc.
 90
     1024
280
     0
281
     0
  0
CLASS
  1
ACDBOPPOLYLINERES
  2
AcDbOpPolylineRes
  3
AcGrefServices
 90
    33792
280
     0
281
     0
  0
CLASS
  1
ACMPARTLIST
  2
AcmPartList
  3
"AcmSymBB|Product Description: AutoCAD Mechanical|Company: Autodesk, Inc."
 90
    36863
280
     0
281
     1
  0
CLASS
  1
ACDBLINERES
  2
AcDbLineRes
  3
AcGrefServices
 90
    33792
280
     0
281
     0
  0
CLASS
  1
ACRFINSADJ
  2
AcRfInsAdjuster
  3
AcMeServices
 90
    33792
280
     0
281
     0
  0
CLASS
  1
AM_DRAWING_MGR
  2
AcDmDwgMgr
  3
AcMechDwgViewMgmt
 90
     1024
280
     0
281
     0
  0
CLASS
  1
AM_DWG_DOCUMENT
  2
AcDmDwgDocument
  3
AcMechDwgViewMgmt
 90
     1024
280
     0
281
     0
  0
CLASS
  1
AM_DWG_SHEET
  2
AcDmSheet
  3
AcMechDwgViewMgmt
 90
     1024
280
     0
281
     0
  0
CLASS
  1
AM_VIEWDIMPARMAP
  2
AcDmViewDimParMap
  3
AcMechDwgViewMgmt
 90
     1024
280
     0
281
     0
  0
CLASS
  1
AM_DWGMGR_NAME
  2
AcDmDwgMgrName
  3
AcMechDwgViewMgmt
 90
     1024
280
     0
281
     0
  0
CLASS
  1
AMDTMENUSTATEMGR
  2
AmdtMenuStateMgr
  3
McadcomServices
 90
     1024
280
     0
281
     0
  0
CLASS
  1
AMDTMCOMMENUSTATE
  2
AmdtMcomMenuState
  3
McadcomServices
 90
     1024
280
     0
281
     0
  0
CLASS
  1
ASAPP
  2
AcAsAppObject
  3
AutoSurfServices
 90
        0
280
     0
281
     0
  0
CLASS
  1
IM_STATIC_MAN
  2
AcImStaticVarManager
  3
AcMeServices
 90
     1024
280
     0
281
     0
  0
CLASS
  1
ACIMDBLSTATICVAR
  2
AcImDblStaticVar
  3
AcMeServices
 90
     1024
280
     0
281
     0
  0
CLASS
  1
ACIMSTRSTATICVAR
  2
AcImStrStaticVar
  3
AcMeServices
 90
     1024
280
     0
281
     0
  0
CLASS
  1
ACIMINTSTATICVAR
  2
AcImIntStaticVar
  3
AcMeServices
 90
     1024
280
     0
281
     0
  0
CLASS
  1
ACASGREFMASTER
  2
AcAsGrefMaster
  3
AutoSurfResolverServices
 90
        0
280
     0
281
     0
  0
CLASS
  1
ACADGREFMODULE
  2
AcAdGrefModule
  3
AdGrefServices
 90
        0
280
     0
281
     0
  0
CLASS
  1
AMDTMAPISURFMOUDULE
  2
AmdtMApiSurfModule
  3
MApiSurfServices
 90
        0
280
     0
281
     0
  0
CLASS
  1
MAPIAMMOUDLE
  2
MApiAmModule
  3
MApiAmServices
 90
     1024
280
     0
281
     0
  0
CLASS
  1
AMDTADMENUSTATE
  2
AmdtAdMenuState
  3
DesignerServices
 90
     1024
280
     0
281
     0
  0
CLASS
  1
ADAPPL
  2
AcAdAppl
  3
DesignerServices
 90
     1024
280
     0
281
     0
  0
CLASS
  1
DEPMGR
  2
AcAdDepMgr
  3
DesignerServices
 90
     1024
280
     0
281
     0
  0
CLASS
  1
PARAMMGR
  2
AcAdParamMgr
  3
DesignerServices
 90
     1024
280
     0
281
     0
  0
CLASS
  1
PARAMSCOPE
  2
AcAdParamScope
  3
DesignerServices
 90
     1024
280
     0
281
     0
  0
CLASS
  1
NAMEDAPPL
  2
AcAdNamedAppl
  3
DesignerServices
 90
     1024
280
     0
281
     0
  0
CLASS
  1
ADHNTMPLT
  2
AdHoleNoteTemplateMgr
  3
DesignerServices
 90
    33792
280
     0
281
     0
  0
CLASS
  1
AM_HNTEMPLATE_MGR_NAME
  2
AdHoleNoteTemplateMgrName
  3
DesignerServices
 90
    33792
280
     0
281
     0
  0
CLASS
  1
AMDTDMMENUSTATE
  2
AmdtDmMenuState
  3
AcMechDwgViewMgmt
 90
     1024
280
     0
281
     0
  0
CLASS
  1
MAPIADMODULE
  2
MApiAdModule
  3
MApiAdServices
 90
        0
280
     0
281
     0
  0
CLASS
  1
AMDTAMMENUSTATE
  2
AmdtAmMenuState
  3
DesignerAssemblies
 90
     1024
280
     0
281
     0
  0
CLASS
  1
ACAMPROJECT
  2
AcAmProject
  3
DesignerAssemblies
 90
     1024
280
     0
281
     0
  0
CLASS
  1
ACAMGRCOMPDEF
  2
AcAmGrCompDef
  3
DesignerAssemblies
 90
     1024
280
     0
281
     0
  0
CLASS
  1
ACCMCONTEXT
  2
AcCmContext
  3
DesignerAssemblies
 90
     1024
280
     0
281
     0
  0
CLASS
  1
ACAMCOMPDEF
  2
AcAmCompDef
  3
DesignerAssemblies
 90
     1024
280
     0
281
     0
  0
CLASS
  1
ACAMCOMPDEFMGR
  2
AcAmCompDefMgr
  3
DesignerAssemblies
 90
     1024
280
     0
281
     0
  0
CLASS
  1
AMCONTEXTMGR
  2
AcAmContextMgr
  3
DesignerAssemblies
 90
     1024
280
     0
281
     0
  0
CLASS
  1
ACAMCONTEXTMODELER
  2
AcAmContextModeler
  3
DesignerAssemblies
 90
     1024
280
     0
281
     0
  0
CLASS
  1
CATALOGSTATE
  2
AcAmCatalogState
  3
DesignerAssemblies
 90
     1024
280
     0
281
     0
  0
CLASS
  1
ACAMGRCOMPDEFSET
  2
AcAmGrCompDefSet
  3
DesignerAssemblies
 90
     1024
280
     0
281
     0
  0
CLASS
  1
AMDTBROWSERDBTAB
  2
AmdtBrowserDbTab
  3
McadcomServices
 90
     1024
280
     0
281
     0
  0
CLASS
  1
CBROWSERAPPOBJECT
  2
CBrowserAppObject
  3
McadcomServices
 90
     1024
280
     0
281
     0
  0
CLASS
  1
DM_PLACEHOLDER
  2
AcDmSelsetPlaceholder
  3
AcMechDwgViewMgmt
 90
     1024
280
     0
281
     0
  0
CLASS
  1
ACMPICKOBJ
  2
AcmPickEnt
  3
"AcmSymBB|Product Description: AutoCAD Mechanical|Company: Autodesk, Inc."
 90
    33792
280
     0
281
     1
  0
CLASS
  1
ACMNOTESTANDARDISO
  2
AmdtNoteStdISO
  3
"Amdt_StdImp|Product Description: AutoCAD Mechanical|Company: Autodesk, Inc."
 90
     1024
280
     0
281
     0
  0
CLASS
  1
ACMNOTESTANDARDANSI
  2
AmdtNoteStdANSI
  3
"Amdt_StdImp|Product Description: AutoCAD Mechanical|Company: Autodesk, Inc."
 90
     1024
280
     0
281
     0
  0
CLASS
  1
ACMTHREADLINESTANDARDISO
  2
AmdtThreadLineStdISO
  3
"Amdt_StdImp|Product Description: AutoCAD Mechanical|Company: Autodesk, Inc."
 90
     1024
280
     0
281
     0
  0
CLASS
  1
ACMTHREADLINESTANDARDANSI
  2
AmdtThreadLineStdANSI
  3
"Amdt_StdImp|Product Description: AutoCAD Mechanical|Company: Autodesk, Inc."
 90
     1024
280
     0
281
     0
  0
CLASS
  1
TABLESTYLE
  2
AcDbTableStyle
  3
ObjectDBX Classes
 90
     4095
280
     0
281
     0
  0
CLASS
  1
SORTENTSTABLE
  2
AcDbSortentsTable
  3
ObjectDBX Classes
 90
        0
280
     0
281
     0
  0
CLASS
  1
MATERIAL
  2
AcDbMaterial
  3
ObjectDBX Classes
 90
     1153
280
     0
281
     0
  0
CLASS
  1
VISUALSTYLE
  2
AcDbVisualStyle
  3
ObjectDBX Classes
 90
     4095
280
     0
281
     0
  0
CLASS
  1
ACRFATTGENMGR
  2
AcRfAttGeneralMgr
  3
AcAttribServices
 90
     1024
280
     0
281
     0
  0
CLASS
  1
ACRFOBJATTMGR
  2
AcRfObjAttGroupMgr
  3
AcAttribServices
 90
     1024
280
     0
281
     0
  0
CLASS
  1
ACRFMCADAPIATTHOLDER
  2
AcRfMCADAPIAttHolder
  3
AcAttribServices
 90
     1024
280
     0
281
     0
  0
CLASS
  1
AMDTSYSATTR
  2
AmdtSystemAttribute
  3
AcAttribServices
 90
     1024
280
     0
281
     0
  0
CLASS
  1
ACMTAPERSTANDARDISO
  2
AcmTaperStdISO
  3
"Amdt_StdImp|Product Description: AutoCAD Mechanical|Company: Autodesk, Inc."
 90
     1024
280
     0
281
     0
  0
CLASS
  1
CAMSSTRUCTBTNSTATE
  2
StructBtnState
  3
DesignerAssemblies
 90
     1024
280
     0
281
     0
  0
CLASS
  1
DIMASSOC
  2
AcDbDimAssoc
  3
"AcDbDimAssoc|Product Desc:     AcDim ARX App For Dimension|Company:          Autodesk, Inc.|WEB Address:      www.autodesk.com"
 90
    32768
280
     0
281
     0
  0
CLASS
  1
SCALE
  2
AcDbScale
  3
ObjectDBX Classes
 90
     1153
280
     0
281
     0
  0
CLASS
  1
MLEADERSTYLE
  2
AcDbMLeaderStyle
  3
ACDB_MLEADERSTYLE_CLASS
 90
     4095
280
     0
281
     0
  0
CLASS
  1
ACMANOOTATIONVIEWSTANDARDISO
  2
AmdtAnViewStdISO
  3
"Amdt_StdImp|Product Description: AutoCAD Mechanical|Company: Autodesk, Inc."
 90
     1024
280
     0
281
     0
  0
CLASS
  1
CELLSTYLEMAP
  2
AcDbCellStyleMap
  3
ObjectDBX Classes
 90
     1152
280
     0
281
     0
  0
CLASS
  1
AMDTNOTETEMPLATEDB
  2
AmdtNoteTemplateDB
  3
AcmSymBB|Product Description: AutoCAD Mechanical|Company: Autodesk, Inc.
 90
     1024
280
     0
281
     0
  0
CLASS
  1
ACMTAPERSTANDARDANSI
  2
AcmTaperStdANSI
  3
"Amdt_StdImp|Product Description: AutoCAD Mechanical|Company: Autodesk, Inc."
 90
     1024
280
     0
281
     0
  0
CLASS
  1
ACMANOOTATIONVIEWSTANDARDANSI
  2
AmdtAnViewStdANSI
  3
"Amdt_StdImp|Product Description: AutoCAD Mechanical|Company: Autodesk, Inc."
 90
     1024
280
     0
281
     0
  0
CLASS
  1
ACAMGHOLECHARTSTDANSI
  2
AcAmgHoleChartStdANSI
  3
AmgDim|Product Description: AutoCAD Mechanical|Company: Autodesk, Inc.
 90
     1024
280
     0
281
     0
  0
CLASS
  1
AMDTEDGESTANDARDISO13715
  2
AmdtEdgeStdISO13715
  3
"Amdt_StdImp|Product Description: AutoCAD Mechanical|Company: Autodesk, Inc."
 90
     1024
280
     0
281
     0
  0
CLASS
  1
ACMSURFSTANDARDISO2002
  2
AcmSurfTextStdISO2002
  3
"Amdt_StdImp|Product Description: AutoCAD Mechanical|Company: Autodesk, Inc."
 90
     1024
280
     0
281
     0
  0
CLASS
  1
ACMSECTIONSTANDARDISO2001
  2
AmdtSectionSymStdISO2001
  3
"Amdt_StdImp|Product Description: AutoCAD Mechanical|Company: Autodesk, Inc."
 90
     1024
280
     0
281
     0
  0
CLASS
  1
ACAMGHOLECHARTSTDISO
  2
AcAmgHoleChartStdISO
  3
AmgDim|Product Description: AutoCAD Mechanical|Company: Autodesk, Inc.
 90
     1024
280
     0
281
     0
  0
ENDSEC
  0
SECTION
  2
TABLES
  0
TABLE
  2
VPORT
  5
8
330
0
100
AcDbSymbolTable
 70
     1
  0
VPORT
  5
B0EC
330
8
100
AcDbSymbolTableRecord
100
AcDbViewportTableRecord
  2
*Active
 70
     0
 10
0.0
 20
0.0
 11
1.0
 21
1.0
 12
210.0000009778888
 22
148.500000691507
 13
0.0
 23
0.0
 14
2.5
 24
2.5
 15
10.0
 25
10.0
 16
0.0
 26
0.0
 36
1.0
 17
0.0
 27
0.0
 37
0.0
 40
298.8999740778039
 41
1.641649048625792
 42
50.0
 43
-1370.695619172058
 44
-1370.695619172058
 50
0.0
 51
0.0
 71
     0
 72
   100
 73
     1
 74
     3
 75
     0
 76
     0
 77
     0
 78
     0
281
     0
 65
     0
110
0.0
120
0.0
130
0.0
111
1.0
121
0.0
131
0.0
112
0.0
122
1.0
132
0.0
 79
     0
146
0.0
  0
ENDTAB
  0
TABLE
  2
LTYPE
  5
5
330
0
100
AcDbSymbolTable
 70
    33
  0
LTYPE
  5
14
330
5
100
AcDbSymbolTableRecord
100
AcDbLinetypeTableRecord
  2
ByBlock
 70
     0
  3

 72
    65
 73
     0
 40
0.0
  0
LTYPE
  5
15
330
5
100
AcDbSymbolTableRecord
100
AcDbLinetypeTableRecord
  2
ByLayer
 70
     0
  3

 72
    65
 73
     0
 40
0.0
  0
LTYPE
  5
16
330
5
100
AcDbSymbolTableRecord
100
AcDbLinetypeTableRecord
  2
Continuous
 70
     0
  3
Solid line
 72
    65
 73
     0
 40
0.0
  0
LTYPE
  5
4F
330
5
100
AcDbSymbolTableRecord
100
AcDbLinetypeTableRecord
  2
AM_ISO02W050
 70
     0
  3
__ __ __ __ __ __ __ __ __ __ __ __ __ __ __
 72
    65
 73
     2
 40
7.5
 49
6.0
 74
     0
 49
-1.5
 74
     0
  0
LTYPE
  5
52
330
5
100
AcDbSymbolTableRecord
100
AcDbLinetypeTableRecord
  2
Amconstr
 70
     0
  3
_______________________
 72
    65
 73
     2
 40
9999.0
 49
9999.0
 74
     0
 49
0.0
 74
     0
  0
LTYPE
  5
64
330
5
100
AcDbSymbolTableRecord
100
AcDbLinetypeTableRecord
  2
ACISOWELD
 70
     0
  3
_ _ _ _ _
 72
    65
 73
     2
 40
2.0
 49
2.0
 74
     0
 49
-1.0
 74
     0
  0
LTYPE
  5
65
330
5
100
AcDbSymbolTableRecord
100
AcDbLinetypeTableRecord
  2
ACISOTGB
 70
     0
  3
__ . . __ . .
 72
    65
 73
     6
 40
9.0
 49
4.0
 74
     0
 49
-1.0
 74
     0
 49
1.0
 74
     0
 49
-1.0
 74
     0
 49
1.0
 74
     0
 49
-1.0
 74
     0
  0
LTYPE
  5
66
330
5
100
AcDbSymbolTableRecord
100
AcDbLinetypeTableRecord
  2
ACISOTGL
 70
     0
  3
_ _ _ _ _
 72
    65
 73
     2
 40
3.0
 49
2.0
 74
     0
 49
-1.0
 74
     0
  0
LTYPE
  5
69
330
5
100
AcDbSymbolTableRecord
100
AcDbLinetypeTableRecord
  2
CENTER
 70
     0
  3
__ . __
 72
    65
 73
     4
 40
7.0
 49
4.0
 74
     0
 49
-1.0
 74
     0
 49
1.0
 74
     0
 49
-1.0
 74
     0
  0
LTYPE
  5
A6E
330
5
100
AcDbSymbolTableRecord
100
AcDbLinetypeTableRecord
  2
PHANTOM2
 70
     0
  3
Phantom (.5x) ___ _ _ ___ _ _ ___ _ _ ___ _ _
 72
    65
 73
     6
 40
31.75
 49
15.875
 74
     0
 49
-3.174999999999999
 74
     0
 49
3.174999999999999
 74
     0
 49
-3.174999999999999
 74
     0
 49
3.174999999999999
 74
     0
 49
-3.174999999999999
 74
     0
  0
LTYPE
  5
4DED
330
5
100
AcDbSymbolTableRecord
100
AcDbLinetypeTableRecord
  2
中線
 70
     0
  3
___________________
 72
    65
 73
     2
 40
2.0
 49
1.0
 74
     0
 49
1.0
 74
     0
  0
LTYPE
  5
4DF6
330
5
100
AcDbSymbolTableRecord
100
AcDbLinetypeTableRecord
  2
細線
 70
     0
  3
___________________
 72
    65
 73
     2
 40
2.0
 49
1.0
 74
     0
 49
1.0
 74
     0
  0
LTYPE
  5
4DF7
330
5
100
AcDbSymbolTableRecord
100
AcDbLinetypeTableRecord
  2
太線
 70
     0
  3
___________________
 72
    65
 73
     2
 40
2.0
 49
1.0
 74
     0
 49
1.0
 74
     0
  0
LTYPE
  5
4EA7
330
5
100
AcDbSymbolTableRecord
100
AcDbLinetypeTableRecord
  2
文字
 70
     0
  3
_________________
 72
    65
 73
     2
 40
2.0
 49
1.0
 74
     0
 49
1.0
 74
     0
  0
LTYPE
  5
4EA9
330
5
100
AcDbSymbolTableRecord
100
AcDbLinetypeTableRecord
  2
寸法線
 70
     0
  3
________________
 72
    65
 73
     2
 40
2.0
 49
1.0
 74
     0
 49
1.0
 74
     0
  0
LTYPE
  5
4F12
330
5
100
AcDbSymbolTableRecord
100
AcDbLinetypeTableRecord
  2
ハッチング
 70
     0
  3
_________________
 72
    65
 73
     2
 40
2.0
 49
1.0
 74
     0
 49
1.0
 74
     0
  0
LTYPE
  5
5180
330
5
100
AcDbSymbolTableRecord
100
AcDbLinetypeTableRecord
  2
陰線1
 70
     0
  3
__ __ __ __
 72
    65
 73
     2
 40
4.0
 49
2.2
 74
     0
 49
-1.8
 74
     0
  0
LTYPE
  5
5182
330
5
100
AcDbSymbolTableRecord
100
AcDbLinetypeTableRecord
  2
切断線
 70
     0
  3
/\/-/\/-/\/-/\/-/\/-/\/
 72
    65
 73
     2
 40
11.0001
 49
0.0001
 74
     4
 75
   135
340
56
 46
0.04
 50
0.0
 44
0.0
 45
0.0
 49
-11.0
 74
     0
  0
LTYPE
  5
5183
330
5
100
AcDbSymbolTableRecord
100
AcDbLinetypeTableRecord
  2
想像線1
 70
     0
  3
__ __ __ _____ __ __ ____
 72
    65
 73
     6
 40
14.5
 49
6.0
 74
     0
 49
-1.5
 74
     0
 49
2.0
 74
     0
 49
-1.5
 74
     0
 49
2.0
 74
     0
 49
-1.5
 74
     0
  0
LTYPE
  5
5185
330
5
100
AcDbSymbolTableRecord
100
AcDbLinetypeTableRecord
  2
中心線1
 70
     0
  3
___ _ ___ _ ___
 72
    65
 73
     4
 40
18.0
 49
12.0
 74
     0
 49
-2.0
 74
     0
 49
2.0
 74
     0
 49
-2.0
 74
     0
  0
LTYPE
  5
5188
330
5
100
AcDbSymbolTableRecord
100
AcDbLinetypeTableRecord
  2
補助線
 70
     0
  3
______________
 72
    65
 73
     2
 40
2.0
 49
1.0
 74
     0
 49
1.0
 74
     0
  0
LTYPE
  5
6427
330
5
100
AcDbSymbolTableRecord
100
AcDbLinetypeTableRecord
  2
HIDDEN
 70
     0
  3
Hidden __ __ __ __ __ __ __ __ __ __ __ __ __ _
 72
    65
 73
     2
 40
0.375
 49
0.25
 74
     0
 49
-0.125
 74
     0
  0
LTYPE
  5
AC81
330
5
100
AcDbSymbolTableRecord
100
AcDbLinetypeTableRecord
  2
破断線
 70
     0
  3
/\/-/\/-/\/-/\/-/\/-/\/
 72
    65
 73
     2
 40
0.4401
 49
0.0001
 74
     4
 75
   136
340
AC80
 46
0.0016
 50
0.0
 44
0.0
 45
0.0
 49
-0.4400000000000001
 74
     0
  0
LTYPE
  5
AC9E
330
5
100
AcDbSymbolTableRecord
100
AcDbLinetypeTableRecord
  2
Amzigzag
 70
     0
  3
/\/-/\/-/\/-/\/-/\/-/\/
 72
    65
 73
     2
 40
11.0001
 49
0.0001
 74
     4
 75
   135
340
56
 46
0.04
 50
0.0
 44
0.0
 45
0.0
 49
-11.0
 74
     0
  0
LTYPE
  5
AF0F
330
5
100
AcDbSymbolTableRecord
100
AcDbLinetypeTableRecord
  2
genzigzag
 70
     0
  3
/\/-/\/-/\/-/\/-/\/-/\/
 72
    65
 73
     2
 40
12.0001
 49
0.0001
 74
     4
 75
   135
340
AC80
 46
2.0
 50
0.0
 44
0.0
 45
0.0
 49
-12.0
 74
     0
  0
LTYPE
  5
AF95
330
5
100
AcDbSymbolTableRecord
100
AcDbLinetypeTableRecord
  2
AM_ISO08W050
 70
     0
  3
____ . ____ . ____ . ____ . ____ . ____ . ____
 72
    65
 73
     4
 40
18.0
 49
12.0
 74
     0
 49
-1.5
 74
     0
 49
3.0
 74
     0
 49
-1.5
 74
     0
  0
LTYPE
  5
AF96
330
5
100
AcDbSymbolTableRecord
100
AcDbLinetypeTableRecord
  2
AM_ISO09W050
 70
     0
  3
_____ . . _____ . . _____ . . ____ .. ____
 72
    65
 73
     6
 40
22.5
 49
12.0
 74
     0
 49
-1.5
 74
     0
 49
3.0
 74
     0
 49
-1.5
 74
     0
 49
3.0
 74
     0
 49
-1.5
 74
     0
  0
LTYPE
  5
AF97
330
5
100
AcDbSymbolTableRecord
100
AcDbLinetypeTableRecord
  2
AM_ISO08W050x2
 70
     0
  3
__ . __ . __ . __ . __ . __
 72
    65
 73
     4
 40
9.0
 49
6.0
 74
     0
 49
-0.75
 74
     0
 49
1.5
 74
     0
 49
-0.75
 74
     0
  0
LTYPE
  5
AF98
330
5
100
AcDbSymbolTableRecord
100
AcDbLinetypeTableRecord
  2
AM_ISO02W050x2
 70
     0
  3
 _ _ _ _ _ _ _ _ _ _ _ _
 72
    65
 73
     2
 40
3.75
 49
3.0
 74
     0
 49
-0.75
 74
     0
  0
LTYPE
  5
B68A
330
5
100
AcDbSymbolTableRecord
100
AcDbLinetypeTableRecord
  2
HIDDEN2
 70
     0
  3
Hidden (.5x) _ _ _ _ _ _ _ _ _ _ _ _ _ _ _ _ _
 72
    65
 73
     2
 40
4.762499999999998
 49
3.174999999999998
 74
     0
 49
-1.587499999999999
 74
     0
  0
LTYPE
  5
B68B
330
5
100
AcDbSymbolTableRecord
100
AcDbLinetypeTableRecord
  2
CENTER2
 70
     0
  3
Center (.5x) ___ _ ___ _ ___ _ ___ _ ___ _ ___
 72
    65
 73
     4
 40
28.57499999999999
 49
19.05
 74
     0
 49
-3.174999999999998
 74
     0
 49
3.174999999999998
 74
     0
 49
-3.174999999999998
 74
     0
  0
LTYPE
  5
B68C
330
5
100
AcDbSymbolTableRecord
100
AcDbLinetypeTableRecord
  2
HIDDEN3
 70
     0
  3
Hidden (.25x) _ _ _ _ _ _ _ _ _ _ _ _ _ _ _ _ _
 72
    65
 73
     2
 40
2.5
 49
1.25
 74
     0
 49
-1.25
 74
     0
  0
LTYPE
  5
B68D
330
5
100
AcDbSymbolTableRecord
100
AcDbLinetypeTableRecord
  2
Amzigzag2
 70
     0
  3
/\/-/\/-/\/-/\/-/\/-/\/
 72
    65
 73
     2
 40
0.4401
 49
0.0001
 74
     4
 75
   136
340
AC80
 46
0.0016
 50
0.0
 44
0.0
 45
0.0
 49
-0.4400000000000001
 74
     0
  0
LTYPE
  5
B68E
330
5
100
AcDbSymbolTableRecord
100
AcDbLinetypeTableRecord
  2
ACANSTGB
 70
     0
  3
__ . . __ . .
 72
    65
 73
     6
 40
0.35433070866
 49
0.15748031496
 74
     0
 49
-0.03937007874
 74
     0
 49
0.03937007874
 74
     0
 49
-0.03937007874
 74
     0
 49
0.03937007874
 74
     0
 49
-0.03937007874
 74
     0
  0
LTYPE
  5
B68F
330
5
100
AcDbSymbolTableRecord
100
AcDbLinetypeTableRecord
  2
ACANSTGL
 70
     0
  3
_ _ _ _ _
 72
    65
 73
     2
 40
0.11811023622
 49
0.07874015748
 74
     0
 49
-0.03937007874
 74
     0
  0
ENDTAB
  0
TABLE
  2
LAYER
  5
2
102
{ACAD_XDICTIONARY
360
3F95
102
}
330
0
100
AcDbSymbolTable
 70
    41
  0
LAYER
  5
10
102
{ACAD_XDICTIONARY
360
BB8F
102
}
330
2
100
AcDbSymbolTableRecord
100
AcDbLayerTableRecord
  2
0
 70
     0
 62
     7
  6
Continuous
370
    -3
390
F
  0
LAYER
  5
6D1
330
2
100
AcDbSymbolTableRecord
100
AcDbLayerTableRecord
  2
Defpoints
 70
     0
 62
     7
  6
Continuous
290
     0
370
    -3
390
F
  0
LAYER
  5
5F85
102
{ACAD_XDICTIONARY
360
BB91
102
}
330
2
100
AcDbSymbolTableRecord
100
AcDbLayerTableRecord
  2
AM_0
 70
     0
 62
     7
  6
中線
370
    25
390
F
1001
AcAecLayerStandard
1000

1000

  0
LAYER
  5
AC9F
102
{ACAD_XDICTIONARY
360
BB93
102
}
330
2
100
AcDbSymbolTableRecord
100
AcDbLayerTableRecord
  2
size
 70
     0
 62
     5
  6
Continuous
290
     0
370
    25
390
F
  0
LAYER
  5
ACA0
102
{ACAD_XDICTIONARY
360
BB95
102
}
330
2
100
AcDbSymbolTableRecord
100
AcDbLayerTableRecord
  2
waku
 70
     0
 62
     7
  6
Continuous
370
    35
390
F
  0
LAYER
  5
ACA1
102
{ACAD_XDICTIONARY
360
BB97
102
}
330
2
100
AcDbSymbolTableRecord
100
AcDbLayerTableRecord
  2
AM_6
 70
     0
 62
     2
  6
文字
370
    15
390
F
1001
AcAecLayerStandard
1000

1000

  0
LAYER
  5
ACC8
102
{ACAD_XDICTIONARY
360
BB99
102
}
330
2
100
AcDbSymbolTableRecord
100
AcDbLayerTableRecord
  2
hyomoji
 70
     0
 62
     2
  6
Continuous
370
    15
390
F
  0
LAYER
  5
ACC9
102
{ACAD_XDICTIONARY
360
BB9B
102
}
330
2
100
AcDbSymbolTableRecord
100
AcDbLayerTableRecord
  2
hyosen1
 70
     0
 62
     1
  6
Continuous
370
    25
390
F
  0
LAYER
  5
ACCA
102
{ACAD_XDICTIONARY
360
BB9D
102
}
330
2
100
AcDbSymbolTableRecord
100
AcDbLayerTableRecord
  2
hyosen2
 70
     0
 62
     1
  6
Continuous
370
    15
390
F
  0
LAYER
  5
AD60
102
{ACAD_XDICTIONARY
360
BB9F
102
}
330
2
100
AcDbSymbolTableRecord
100
AcDbLayerTableRecord
  2
AM_1
 70
     0
 62
    30
  6
太線
370
    25
390
F
1001
AcAecLayerStandard
1000

1000

  0
LAYER
  5
AD64
102
{ACAD_XDICTIONARY
360
BBA1
102
}
330
2
100
AcDbSymbolTableRecord
100
AcDbLayerTableRecord
  2
AM_2
 70
     0
 62
     1
  6
細線
370
    15
390
F
1001
AcAecLayerStandard
1000

1000

  0
LAYER
  5
AD67
102
{ACAD_XDICTIONARY
360
BBA3
102
}
330
2
100
AcDbSymbolTableRecord
100
AcDbLayerTableRecord
  2
AM_3
 70
     0
 62
     6
  6
陰線1
370
    15
390
F
1001
AcAecLayerStandard
1000

1000

  0
LAYER
  5
AD68
102
{ACAD_XDICTIONARY
360
BBA5
102
}
330
2
100
AcDbSymbolTableRecord
100
AcDbLayerTableRecord
  2
AM_5
 70
     0
 62
     3
  6
寸法線
370
    15
390
F
1001
AcAecLayerStandard
1000

1000

  0
LAYER
  5
AD69
102
{ACAD_XDICTIONARY
360
BBA7
102
}
330
2
100
AcDbSymbolTableRecord
100
AcDbLayerTableRecord
  2
AM_7
 70
     0
 62
     4
  6
中心線1
370
    15
390
F
1001
AcAecLayerStandard
1000

1000

  0
LAYER
  5
AD6A
102
{ACAD_XDICTIONARY
360
BBA9
102
}
330
2
100
AcDbSymbolTableRecord
100
AcDbLayerTableRecord
  2
AM_8
 70
     0
 62
     1
  6
ハッチング
370
    15
390
F
1001
AcAecLayerStandard
1000

1000

  0
LAYER
  5
AD6E
102
{ACAD_XDICTIONARY
360
BBAB
102
}
330
2
100
AcDbSymbolTableRecord
100
AcDbLayerTableRecord
  2
AM_10
 70
     0
 62
     7
  6
切断線
370
    25
390
F
1001
AcAecLayerStandard
1000

1000

  0
LAYER
  5
AD6F
102
{ACAD_XDICTIONARY
360
BBAD
102
}
330
2
100
AcDbSymbolTableRecord
100
AcDbLayerTableRecord
  2
AM_11
 70
     0
 62
     2
  6
想像線1
370
    15
390
F
1001
AcAecLayerStandard
1000

1000

  0
LAYER
  5
B1B6
102
{ACAD_XDICTIONARY
360
BBAF
102
}
330
2
100
AcDbSymbolTableRecord
100
AcDbLayerTableRecord
  2
AM_CL
 70
     0
 62
     1
  6
Amconstr
370
    15
390
F
1001
AcAecLayerStandard
1000

1000

  0
LAYER
  5
B2EB
102
{ACAD_XDICTIONARY
360
BBB1
102
}
330
2
100
AcDbSymbolTableRecord
100
AcDbLayerTableRecord
  2
AM_14
 70
     0
 62
     5
  6
細線
370
     9
390
F
1001
AcAecLayerStandard
1000

1000

  0
LAYER
  5
B2EC
102
{ACAD_XDICTIONARY
360
BBB3
102
}
330
2
100
AcDbSymbolTableRecord
100
AcDbLayerTableRecord
  2
AM_15
 70
     0
 62
     6
  6
陰線1
370
     9
390
F
1001
AcAecLayerStandard
1000

1000

  0
LAYER
  5
B690
102
{ACAD_XDICTIONARY
360
BBB5
102
}
330
2
100
AcDbSymbolTableRecord
100
AcDbLayerTableRecord
  2
実線
 70
     0
 62
     7
  6
Continuous
370
    40
390
F
  0
LAYER
  5
B691
102
{ACAD_XDICTIONARY
360
BBB7
102
}
330
2
100
AcDbSymbolTableRecord
100
AcDbLayerTableRecord
  2
破線
 70
     0
 62
     1
  6
HIDDEN3
370
    25
390
F
  0
LAYER
  5
B692
102
{ACAD_XDICTIONARY
360
BBB9
102
}
330
2
100
AcDbSymbolTableRecord
100
AcDbLayerTableRecord
  2
一点鎖線
 70
     0
 62
     2
  6
CENTER2
370
    15
390
F
  0
LAYER
  5
B693
102
{ACAD_XDICTIONARY
360
BBBB
102
}
330
2
100
AcDbSymbolTableRecord
100
AcDbLayerTableRecord
  2
寸法
 70
     0
 62
     2
  6
Continuous
370
    15
390
F
  0
LAYER
  5
B694
102
{ACAD_XDICTIONARY
360
BBBD
102
}
330
2
100
AcDbSymbolTableRecord
100
AcDbLayerTableRecord
  2
文字
 70
     0
 62
     1
  6
Continuous
370
    30
390
F
  0
LAYER
  5
B695
102
{ACAD_XDICTIONARY
360
BBBF
102
}
330
2
100
AcDbSymbolTableRecord
100
AcDbLayerTableRecord
  2
破線2
 70
     0
 62
     2
  6
HIDDEN3
370
    15
390
F
  0
LAYER
  5
B696
102
{ACAD_XDICTIONARY
360
BBC1
102
}
330
2
100
AcDbSymbolTableRecord
100
AcDbLayerTableRecord
  2
細線2
 70
     0
 62
     2
  6
Continuous
370
    15
390
F
  0
LAYER
  5
B697
102
{ACAD_XDICTIONARY
360
BBC3
102
}
330
2
100
AcDbSymbolTableRecord
100
AcDbLayerTableRecord
  2
実線1
 70
     0
 62
     7
  6
Continuous
370
    -3
390
F
  0
LAYER
  5
B698
102
{ACAD_XDICTIONARY
360
BBC5
102
}
330
2
100
AcDbSymbolTableRecord
100
AcDbLayerTableRecord
  2
破線1
 70
     0
 62
     1
  6
HIDDEN2
370
    -3
390
F
  0
LAYER
  5
B699
102
{ACAD_XDICTIONARY
360
BBC7
102
}
330
2
100
AcDbSymbolTableRecord
100
AcDbLayerTableRecord
  2
A4部品図面枠
 70
     0
 62
     7
  6
Continuous
370
    -3
390
F
  0
LAYER
  5
B69A
102
{ACAD_XDICTIONARY
360
BBC9
102
}
330
2
100
AcDbSymbolTableRecord
100
AcDbLayerTableRecord
  2
文字(中細）
 70
     0
 62
     2
  6
Continuous
370
    -3
390
F
1001
AcAecLayerStandard
1000

1000

  0
LAYER
  5
B69B
102
{ACAD_XDICTIONARY
360
BBCB
102
}
330
2
100
AcDbSymbolTableRecord
100
AcDbLayerTableRecord
  2
colorstamp
 70
     0
 62
    20
  6
Continuous
370
    30
390
F
1001
AcAecLayerStandard
1000

1000

  0
LAYER
  5
B69C
102
{ACAD_XDICTIONARY
360
B69D
102
}
330
2
100
AcDbSymbolTableRecord
100
AcDbLayerTableRecord
  2
文字1
 70
     0
 62
     1
  6
Continuous
370
    25
390
F
  0
LAYER
  5
B69E
102
{ACAD_XDICTIONARY
360
BBCE
102
}
330
2
100
AcDbSymbolTableRecord
100
AcDbLayerTableRecord
  2
実線4
 70
     0
 62
     3
  6
Continuous
370
    -3
390
F
1001
AcAecLayerStandard
1000

1000

  0
LAYER
  5
CF3A
330
2
100
AcDbSymbolTableRecord
100
AcDbLayerTableRecord
  2
二点鎖線
 70
     0
 62
     3
  6
PHANTOM2
370
     9
390
F
  0
LAYER
  5
CF3B
330
2
100
AcDbSymbolTableRecord
100
AcDbLayerTableRecord
  2
細線1
 70
     0
 62
     1
  6
Continuous
370
    25
390
F
  0
LAYER
  5
CF3C
330
2
100
AcDbSymbolTableRecord
100
AcDbLayerTableRecord
  2
細線3
 70
     0
 62
     4
  6
Continuous
370
     5
390
F
  0
LAYER
  5
CF3D
330
2
100
AcDbSymbolTableRecord
100
AcDbLayerTableRecord
  2
実線3
 70
     0
 62
     2
  6
Continuous
370
    -3
390
F
  0
LAYER
  5
D6C4
330
2
100
AcDbSymbolTableRecord
100
AcDbLayerTableRecord
  2
AM_4
 70
     0
 62
     3
  6
補助線
370
    15
390
F
1001
AcAecLayerStandard
1000

1000

  0
LAYER
  5
D719
330
2
100
AcDbSymbolTableRecord
100
AcDbLayerTableRecord
  2
0太線
 70
     0
 62
   120
  6
中線
370
    30
390
F
1001
AcAecLayerStandard
1000

1000

  0
LAYER
  5
12FD5
330
2
100
AcDbSymbolTableRecord
100
AcDbLayerTableRecord
  2
PV0001_1
 70
     0
 62
     7
  6
Continuous
370
    -3
390
F
  0
ENDTAB
  0
TABLE
  2
STYLE
  5
3
330
0
100
AcDbSymbolTable
 70
    12
  0
STYLE
  5
11
330
3
100
AcDbSymbolTableRecord
100
AcDbTextStyleTableRecord
  2
STANDARD
 70
     0
 40
0.0
 41
0.7
 50
0.0
 71
     0
 42
3.2
  3
romans.shx
  4
extfont.shx
  0
STYLE
  5
56
330
3
100
AcDbSymbolTableRecord
100
AcDbTextStyleTableRecord
  2

 70
     1
 40
0.0
 41
1.0
 50
0.0
 71
     0
 42
2.5
  3
ltypeshp.shx
  4

  0
STYLE
  5
58
330
3
100
AcDbSymbolTableRecord
100
AcDbTextStyleTableRecord
  2
ACISOTS
 70
     0
 40
1.0
 41
1.0
 50
0.0
 71
     0
 42
2.5
  3
isocp.shx
  4
extfont.shx
  0
STYLE
  5
63
330
3
100
AcDbSymbolTableRecord
100
AcDbTextStyleTableRecord
  2
ACISOGDT
 70
     0
 40
0.0
 41
1.0
 50
0.0
 71
     0
 42
2.5
  3
amgdt.shx
  4

  0
STYLE
  5
A74
330
3
100
AcDbSymbolTableRecord
100
AcDbTextStyleTableRecord
  2
DIM
 70
     0
 40
0.0
 41
1.0
 50
0.0
 71
     0
 42
2.5
  3
monotxt.shx
  4
extfont.shx
  0
STYLE
  5
AC80
330
3
100
AcDbSymbolTableRecord
100
AcDbTextStyleTableRecord
  2

 70
     1
 40
0.0
 41
1.0
 50
0.0
 71
     0
 42
3.2
  3
genltshp.shx
  4

  0
STYLE
  5
B69F
330
3
100
AcDbSymbolTableRecord
100
AcDbTextStyleTableRecord
  2
明朝
 70
     0
 40
0.0
 41
1.0
 50
0.0
 71
     0
 42
2.0
  3
MSMINCHO.TTF
  4

1001
ACAD
1000
MS Mincho
1071
    32785
  0
STYLE
  5
B6A0
330
3
100
AcDbSymbolTableRecord
100
AcDbTextStyleTableRecord
  2
Mincho
 70
     0
 40
0.0
 41
1.0
 50
0.0
 71
     0
 42
2.0
  3
MSMINCHO.TTF
  4

1001
ACAD
1000
MS Mincho
1071
    32785
  0
STYLE
  5
B6A1
330
3
100
AcDbSymbolTableRecord
100
AcDbTextStyleTableRecord
  2
ACANSTS
 70
     0
 40
1.0
 41
1.0
 50
0.0
 71
     0
 42
5.0
  3
romans.shx
  4
extfont.shx
  0
STYLE
  5
B6A2
330
3
100
AcDbSymbolTableRecord
100
AcDbTextStyleTableRecord
  2
ACANSGDT
 70
     0
 40
0.0
 41
1.0
 50
0.0
 71
     0
 42
5.0
  3
amgdt.shx
  4

  0
ENDTAB
  0
TABLE
  2
VIEW
  5
6
330
0
100
AcDbSymbolTable
 70
     6
  0
VIEW
  5
AE1
330
6
100
AcDbSymbolTableRecord
100
AcDbViewTableRecord
  2
AM_VIEW1
 70
     0
 40
148.5
 10
121.8421330517423
 20
222.75
 41
243.6842661034847
 11
0.0
 21
0.0
 31
1.0
 12
0.0
 22
0.0
 32
0.0
 42
50.0
 43
-1370.695619172058
 44
-1370.695619172058
 50
0.0
 71
     0
281
     0
 72
     0
  0
VIEW
  5
AE2
330
6
100
AcDbSymbolTableRecord
100
AcDbViewTableRecord
  2
AM_VIEW2
 70
     0
 40
148.5
 10
298.1578669482577
 20
222.75
 41
243.6842661034847
 11
0.0
 21
0.0
 31
1.0
 12
0.0
 22
0.0
 32
0.0
 42
50.0
 43
-1370.695619172058
 44
-1370.695619172058
 50
0.0
 71
     0
281
     0
 72
     0
  0
VIEW
  5
AE3
330
6
100
AcDbSymbolTableRecord
100
AcDbViewTableRecord
  2
AM_VIEW3
 70
     0
 40
148.5
 10
121.8421330517423
 20
74.25
 41
243.6842661034847
 11
0.0
 21
0.0
 31
1.0
 12
0.0
 22
0.0
 32
0.0
 42
50.0
 43
-1370.695619172058
 44
-1370.695619172058
 50
0.0
 71
     0
281
     0
 72
     0
  0
VIEW
  5
AE4
330
6
100
AcDbSymbolTableRecord
100
AcDbViewTableRecord
  2
AM_VIEW4
 70
     0
 40
148.5
 10
298.1578669482577
 20
74.25
 41
243.6842661034847
 11
0.0
 21
0.0
 31
1.0
 12
0.0
 22
0.0
 32
0.0
 42
50.0
 43
-1370.695619172058
 44
-1370.695619172058
 50
0.0
 71
     0
281
     0
 72
     0
  0
VIEW
  5
AE5
330
6
100
AcDbSymbolTableRecord
100
AcDbViewTableRecord
  2
AM_VIEW5
 70
     0
 40
148.5
 10
210.0
 20
148.5
 41
243.6842661034847
 11
0.0
 21
0.0
 31
1.0
 12
0.0
 22
0.0
 32
0.0
 42
50.0
 43
-1370.695619172058
 44
-1370.695619172058
 50
0.0
 71
     0
281
     0
 72
     0
  0
VIEW
  5
AE6
330
6
100
AcDbSymbolTableRecord
100
AcDbViewTableRecord
  2
AM_VIEW6
 70
     0
 40
296.99703
 10
210.0
 20
148.5
 41
487.3636585216472
 11
0.0
 21
0.0
 31
1.0
 12
0.0
 22
0.0
 32
0.0
 42
50.0
 43
-1370.695619172058
 44
-1370.695619172058
 50
0.0
 71
     0
281
     0
 72
     0
  0
ENDTAB
  0
TABLE
  2
UCS
  5
7
330
0
100
AcDbSymbolTable
 70
     0
  0
ENDTAB
  0
TABLE
  2
APPID
  5
9
330
0
100
AcDbSymbolTable
 70
    63
  0
APPID
  5
12
330
9
100
AcDbSymbolTableRecord
100
AcDbRegAppTableRecord
  2
ACAD
 70
     0
  0
APPID
  5
30
330
9
100
AcDbSymbolTableRecord
100
AcDbRegAppTableRecord
  2
MCAD_NO_VIS
 70
     0
  0
APPID
  5
31
330
9
100
AcDbSymbolTableRecord
100
AcDbRegAppTableRecord
  2
ACAD_TEMP_GRAPHIC
 70
     0
  0
APPID
  5
44
330
9
100
AcDbSymbolTableRecord
100
AcDbRegAppTableRecord
  2
ACATTRIBSERVICES
 70
     0
  0
APPID
  5
7A1
330
9
100
AcDbSymbolTableRecord
100
AcDbRegAppTableRecord
  2
GENIUS_GENDIMSH_14
 70
     0
  0
APPID
  5
A49
330
9
100
AcDbSymbolTableRecord
100
AcDbRegAppTableRecord
  2
GENIUS_GENREC_14
 70
     0
  0
APPID
  5
A4A
330
9
100
AcDbSymbolTableRecord
100
AcDbRegAppTableRecord
  2
GENIUS_GENOBJ-N-REC_13
 70
     0
  0
APPID
  5
A4B
330
9
100
AcDbSymbolTableRecord
100
AcDbRegAppTableRecord
  2
GENIUS_GENODEF_13
 70
     0
  0
APPID
  5
A4C
330
9
100
AcDbSymbolTableRecord
100
AcDbRegAppTableRecord
  2
DCO15
 70
     0
  0
APPID
  5
ADC
330
9
100
AcDbSymbolTableRecord
100
AcDbRegAppTableRecord
  2
GENIUS_GENOLIS_13
 70
     0
  0
APPID
  5
ADD
330
9
100
AcDbSymbolTableRecord
100
AcDbRegAppTableRecord
  2
GENIUS_GENOENT_13
 70
     0
  0
APPID
  5
ADE
330
9
100
AcDbSymbolTableRecord
100
AcDbRegAppTableRecord
  2
GENIUS_GENOBJ-N-TIT_13
 70
     0
  0
APPID
  5
ADF
330
9
100
AcDbSymbolTableRecord
100
AcDbRegAppTableRecord
  2
GENIUS_GENTITLE_13
 70
     0
  0
APPID
  5
AE0
330
9
100
AcDbSymbolTableRecord
100
AcDbRegAppTableRecord
  2
GENIUS_GENOREF_13
 70
     0
  0
APPID
  5
AE7
330
9
100
AcDbSymbolTableRecord
100
AcDbRegAppTableRecord
  2
GENIUS_GENSCREG_15
 70
     0
  0
APPID
  5
AE8
330
9
100
AcDbSymbolTableRecord
100
AcDbRegAppTableRecord
  2
GENIUS_GENOBJ-N-SDF_13
 70
     0
  0
APPID
  5
FAF
330
9
100
AcDbSymbolTableRecord
100
AcDbRegAppTableRecord
  2
GENIUS_GENBLLY_14
 70
     0
  0
APPID
  5
FB0
330
9
100
AcDbSymbolTableRecord
100
AcDbRegAppTableRecord
  2
GENIUS_GENTRA_14
 70
     0
  0
APPID
  5
1285
330
9
100
AcDbSymbolTableRecord
100
AcDbRegAppTableRecord
  2
GENIUS_GENDTOL_13
 70
     0
  0
APPID
  5
142D
330
9
100
AcDbSymbolTableRecord
100
AcDbRegAppTableRecord
  2
GENIUS_GENOBJ-N-CEN_13
 70
     0
  0
APPID
  5
1AB5
330
9
100
AcDbSymbolTableRecord
100
AcDbRegAppTableRecord
  2
GENIUS_GENOBJ-N-CRS_13
 70
     0
  0
APPID
  5
1B36
330
9
100
AcDbSymbolTableRecord
100
AcDbRegAppTableRecord
  2
GENIUS_GENOBJ-N-HTC_13
 70
     0
  0
APPID
  5
1B37
330
9
100
AcDbSymbolTableRecord
100
AcDbRegAppTableRecord
  2
GENIUS_GENHATCH_13
 70
     0
  0
APPID
  5
216D
330
9
100
AcDbSymbolTableRecord
100
AcDbRegAppTableRecord
  2
GENIUS_GENOBJ-N-FIL_13
 70
     0
  0
APPID
  5
2356
330
9
100
AcDbSymbolTableRecord
100
AcDbRegAppTableRecord
  2
GEVID990412420
 70
     0
  0
APPID
  5
2357
330
9
100
AcDbSymbolTableRecord
100
AcDbRegAppTableRecord
  2
GEVDC
 70
     0
  0
APPID
  5
2358
330
9
100
AcDbSymbolTableRecord
100
AcDbRegAppTableRecord
  2
GEVCON
 70
     0
  0
APPID
  5
235B
330
9
100
AcDbSymbolTableRecord
100
AcDbRegAppTableRecord
  2
GEVRADREF
 70
     0
  0
APPID
  5
2360
330
9
100
AcDbSymbolTableRecord
100
AcDbRegAppTableRecord
  2
GENIUS_GENBH_13
 70
     0
  0
APPID
  5
2362
330
9
100
AcDbSymbolTableRecord
100
AcDbRegAppTableRecord
  2
GENIUS_GENOBJ-NBEHI-BHF_13
 70
     0
  0
APPID
  5
2364
330
9
100
AcDbSymbolTableRecord
100
AcDbRegAppTableRecord
  2
GENIUS_GENOBJ-NBEHI-BHB_13
 70
     0
  0
APPID
  5
2379
330
9
100
AcDbSymbolTableRecord
100
AcDbRegAppTableRecord
  2
GENIUS_GENOBJ-F-SCPASSM_13
 70
     0
  0
APPID
  5
3D74
330
9
100
AcDbSymbolTableRecord
100
AcDbRegAppTableRecord
  2
GENIUS_GENDIM_13
 70
     0
  0
APPID
  5
3D76
330
9
100
AcDbSymbolTableRecord
100
AcDbRegAppTableRecord
  2
GENIUS_GE3DTOL_13
 70
     0
  0
APPID
  5
3D9C
330
9
100
AcDbSymbolTableRecord
100
AcDbRegAppTableRecord
  2
AD_DRAW
 70
     0
  0
APPID
  5
3DE8
330
9
100
AcDbSymbolTableRecord
100
AcDbRegAppTableRecord
  2
ASURF_PCURVE_APPNAME
 70
     0
  0
APPID
  5
3DED
330
9
100
AcDbSymbolTableRecord
100
AcDbRegAppTableRecord
  2
AMG_3D2D_5.0
 70
     0
  0
APPID
  5
3E1B
330
9
100
AcDbSymbolTableRecord
100
AcDbRegAppTableRecord
  2
DESIGNERASSEMBLIES
 70
     0
  0
APPID
  5
3E20
330
9
100
AcDbSymbolTableRecord
100
AcDbRegAppTableRecord
  2
ACADM_DIM_EDIT
 70
     0
  0
APPID
  5
3E21
330
9
100
AcDbSymbolTableRecord
100
AcDbRegAppTableRecord
  2
AMDT_DM_ADJ
 70
     0
  0
APPID
  5
4143
330
9
100
AcDbSymbolTableRecord
100
AcDbRegAppTableRecord
  2
GENIUS_GENFIL_13
 70
     0
  0
APPID
  5
4144
330
9
100
AcDbSymbolTableRecord
100
AcDbRegAppTableRecord
  2
GENIUS_GENOBJ-N-CHA_13
 70
     0
  0
APPID
  5
4E17
330
9
100
AcDbSymbolTableRecord
100
AcDbRegAppTableRecord
  2
GEVID1008153417
 70
     0
  0
APPID
  5
4E58
330
9
100
AcDbSymbolTableRecord
100
AcDbRegAppTableRecord
  2
GEVID1008153418
 70
     0
  0
APPID
  5
4E5E
330
9
100
AcDbSymbolTableRecord
100
AcDbRegAppTableRecord
  2
GEVID1008153419
 70
     0
  0
APPID
  5
4E64
330
9
100
AcDbSymbolTableRecord
100
AcDbRegAppTableRecord
  2
GEVID1008153420
 70
     0
  0
APPID
  5
4E75
330
9
100
AcDbSymbolTableRecord
100
AcDbRegAppTableRecord
  2
GEVID1008153421
 70
     0
  0
APPID
  5
4EB7
330
9
100
AcDbSymbolTableRecord
100
AcDbRegAppTableRecord
  2
GENIUS_AMGTXT_16
 70
     0
  0
APPID
  5
7645
330
9
100
AcDbSymbolTableRecord
100
AcDbRegAppTableRecord
  2
GENIUS_GENOBJ-N-DIM_13
 70
     0
  0
APPID
  5
AAD0
330
9
100
AcDbSymbolTableRecord
100
AcDbRegAppTableRecord
  2
ACAD_DSTYLE_DIMARC_LENGTH_SYMBOL
 70
     0
  0
APPID
  5
AAD1
330
9
100
AcDbSymbolTableRecord
100
AcDbRegAppTableRecord
  2
ACAD_DSTYLE_DIMJOGGED_JOGANGLE_SYMBOL
 70
     0
  0
APPID
  5
AAFD
330
9
100
AcDbSymbolTableRecord
100
AcDbRegAppTableRecord
  2
ACAD_PSEXT
 70
     0
  0
APPID
  5
AD61
330
9
100
AcDbSymbolTableRecord
100
AcDbRegAppTableRecord
  2
AcAecLayerStandard
 70
     0
  0
APPID
  5
AEE3
330
9
100
AcDbSymbolTableRecord
100
AcDbRegAppTableRecord
  2
ACAD_EXEMPT_FROM_CAD_STANDARDS
 70
     0
  0
APPID
  5
B1BE
330
9
100
AcDbSymbolTableRecord
100
AcDbRegAppTableRecord
  2
GENIUS_GENCEN_19
 70
     0
  0
APPID
  5
B3AF
330
9
100
AcDbSymbolTableRecord
100
AcDbRegAppTableRecord
  2
ACAD_MLEADERVER
 70
     0
  0
APPID
  5
C399
330
9
100
AcDbSymbolTableRecord
100
AcDbRegAppTableRecord
  2
ACAD_DSTYLE_DIMINSPECT
 70
     0
  0
APPID
  5
146C8
330
9
100
AcDbSymbolTableRecord
100
AcDbRegAppTableRecord
  2
ACAD_DSTYLE_DIMEXT_LENGTH
 70
     0
  0
APPID
  5
146C9
330
9
100
AcDbSymbolTableRecord
100
AcDbRegAppTableRecord
  2
ACAD_DSTYLE_DIMEXT_ENABLED
 70
     0
  0
APPID
  5
146CA
330
9
100
AcDbSymbolTableRecord
100
AcDbRegAppTableRecord
  2
ACAUTHENVIRON
 70
     0
  0
APPID
  5
146CB
330
9
100
AcDbSymbolTableRecord
100
AcDbRegAppTableRecord
  2
AcDbDynamicBlockTrueName
 70
     0
  0
APPID
  5
146CC
330
9
100
AcDbSymbolTableRecord
100
AcDbRegAppTableRecord
  2
AcDbDynamicBlockGUID
 70
     0
  0
APPID
  5
146CD
330
9
100
AcDbSymbolTableRecord
100
AcDbRegAppTableRecord
  2
ACDBBLOCKREPETAG
 70
     0
  0
ENDTAB
  0
TABLE
  2
DIMSTYLE
  5
A
330
0
100
AcDbSymbolTable
 70
    32
100
AcDbDimStyleTable
 71
     2
340
2515
340
A76
  0
DIMSTYLE
105
A76
330
A
100
AcDbSymbolTableRecord
100
AcDbDimStyleTableRecord
  2
STANDARD
 70
     0
 41
3.0
 42
1.0
 43
7.0
 44
2.0
 73
     0
 74
     0
 77
     1
140
2.799999999999999
141
0.0
143
0.0394
147
0.7
171
     4
172
     1
173
     1
176
     3
177
     3
178
     2
271
     3
272
     3
273
     8
274
     4
289
     0
340
A74
341
A66
343
A66
344
A66
  0
DIMSTYLE
105
2515
330
A
100
AcDbSymbolTableRecord
100
AcDbDimStyleTableRecord
  2
SYS
 70
     0
  4
"
 41
1.0
 42
1.0
 43
10.0
 44
1.0
 47
0.1
 48
0.1
 73
     0
 74
     0
 77
     1
 78
     8
 79
     2
140
3.5
141
0.0
143
0.0393701
146
0.71
147
1.5
172
     1
176
   256
177
   256
178
     7
271
     2
272
     2
283
     0
284
     8
340
11
371
    -1
372
    -1
1001
ACAD_DSTYLE_DIMJOGGED_JOGANGLE_SYMBOL
1070
   384
1040
0.7853981633974483
1001
ACAD_DSTYLE_DIMARC_LENGTH_SYMBOL
1070
   379
1070
     1
  0
DIMSTYLE
105
2516
330
A
100
AcDbSymbolTableRecord
100
AcDbDimStyleTableRecord
  2
SYS$3
 70
     0
  4
"
 41
2.0
 42
1.0
 43
10.0
 44
1.0
 47
0.1
 48
0.1
 73
     0
 77
     1
 78
     8
 79
     2
140
3.5
141
0.0
143
0.0393701
146
0.71
147
1.5
176
   256
177
   256
178
     2
271
     2
272
     2
283
     0
284
     8
288
     1
340
11
342
A66
371
    -1
372
    -1
1001
ACAD_DSTYLE_DIMJOGGED_JOGANGLE_SYMBOL
1070
   384
1040
0.7853981633974483
1001
ACAD_DSTYLE_DIMARC_LENGTH_SYMBOL
1070
   379
1070
     1
  0
DIMSTYLE
105
2517
330
A
100
AcDbSymbolTableRecord
100
AcDbDimStyleTableRecord
  2
SYS$4
 70
     0
  4
"
 41
2.0
 42
1.0
 43
10.0
 44
1.0
 47
0.1
 48
0.1
 73
     0
 77
     1
 78
     8
 79
     2
140
3.5
141
0.0
143
0.0393701
146
0.71
147
1.5
173
     1
176
   256
177
   256
178
     2
271
     2
272
     2
283
     0
284
     8
288
     1
340
11
344
A66
371
    -1
372
    -1
1001
ACAD_DSTYLE_DIMJOGGED_JOGANGLE_SYMBOL
1070
   384
1040
0.7853981633974483
1001
ACAD_DSTYLE_DIMARC_LENGTH_SYMBOL
1070
   379
1070
     1
  0
DIMSTYLE
105
2518
330
A
100
AcDbSymbolTableRecord
100
AcDbDimStyleTableRecord
  2
SYS$6
 70
     0
  4
"
 41
2.0
 42
1.0
 43
10.0
 44
1.0
 47
0.1
 48
0.1
 73
     0
 74
     0
 78
     8
 79
     2
140
3.5
141
0.0
143
0.0393701
146
0.71
147
1.5
172
     1
176
   256
177
   256
178
     2
271
     2
272
     2
283
     0
284
     8
340
11
341
A66
371
    -1
372
    -1
1001
ACAD_DSTYLE_DIMJOGGED_JOGANGLE_SYMBOL
1070
   384
1040
0.7853981633974483
1001
ACAD_DSTYLE_DIMARC_LENGTH_SYMBOL
1070
   379
1070
     1
  0
DIMSTYLE
105
2519
330
A
100
AcDbSymbolTableRecord
100
AcDbDimStyleTableRecord
  2
SYS$7
 70
     0
  4
"
 41
2.0
 42
1.0
 43
10.0
 44
1.0
 47
0.1
 48
0.1
 73
     0
 74
     0
 77
     1
 78
     8
 79
     2
140
5.0
141
0.0
143
0.0393701
146
0.71
147
1.5
172
     1
176
   256
177
   256
178
     2
271
     2
272
     2
283
     0
284
     8
340
11
341
A66
342
A66
371
    -1
372
    -1
1001
ACAD_DSTYLE_DIMJOGGED_JOGANGLE_SYMBOL
1070
   384
1040
0.7853981633974483
1001
ACAD_DSTYLE_DIMARC_LENGTH_SYMBOL
1070
   379
1070
     1
  0
DIMSTYLE
105
251A
330
A
100
AcDbSymbolTableRecord
100
AcDbDimStyleTableRecord
  2
SYS$SF
 70
     0
  4
"
 41
2.5
 42
1.0
 43
10.0
 44
1.0
 47
0.1
 48
0.1
 73
     0
 74
     0
 75
     1
 76
     1
 77
     1
 78
     8
 79
     2
140
3.5
141
0.0
143
0.0393701
146
0.71
147
1.5
172
     1
176
   256
177
   256
178
     2
271
     2
272
     3
283
     0
284
     8
340
11
341
6C4
342
6C4
371
    -1
372
    -1
1001
ACAD_DSTYLE_DIMJOGGED_JOGANGLE_SYMBOL
1070
   384
1040
0.7853981633974483
1001
ACAD_DSTYLE_DIMARC_LENGTH_SYMBOL
1070
   379
1070
     1
  0
DIMSTYLE
105
251B
330
A
100
AcDbSymbolTableRecord
100
AcDbDimStyleTableRecord
  2
SYS$SH
 70
     0
  4
"
 41
2.5
 42
1.0
 43
10.0
 44
1.0
 47
0.1
 48
0.1
 73
     0
 74
     0
 75
     1
 76
     1
 77
     1
 78
     8
 79
     2
140
3.5
141
0.0
143
0.0393701
144
2.0
146
0.71
147
1.5
172
     1
173
     1
176
   256
177
   256
178
     2
271
     2
272
     3
283
     0
284
     8
340
11
341
6C4
343
72
344
6C4
371
    -1
372
    -1
1001
ACAD_DSTYLE_DIMJOGGED_JOGANGLE_SYMBOL
1070
   384
1040
0.7853981633974483
1001
ACAD_DSTYLE_DIMARC_LENGTH_SYMBOL
1070
   379
1070
     1
  0
DIMSTYLE
105
2A59
330
A
100
AcDbSymbolTableRecord
100
AcDbDimStyleTableRecord
  2
SYS$2
 70
     0
  4
"
 41
1.0
 42
1.0
 43
10.0
 44
1.0
 47
0.1
 48
0.1
 73
     0
 74
     0
 77
     1
 78
     8
 79
     2
140
3.5
141
0.0
143
0.0393701
146
0.71
147
1.5
172
     1
176
   256
177
   256
178
     2
271
     2
272
     2
283
     0
284
     8
340
11
342
6C4
371
    -1
372
    -1
1001
ACAD_DSTYLE_DIMJOGGED_JOGANGLE_SYMBOL
1070
   384
1040
0.7853981633974483
1001
ACAD_DSTYLE_DIMARC_LENGTH_SYMBOL
1070
   379
1070
     1
  0
DIMSTYLE
105
2AAB
102
{ACAD_REACTORS
330
C383
330
C3AC
330
C40D
330
C5C4
330
C5EC
330
C6FB
330
D4CA
330
D50C
330
D564
330
D988
330
DC05
330
14C35
330
14CFB
102
}
330
A
100
AcDbSymbolTableRecord
100
AcDbDimStyleTableRecord
  2
SYS$0
 70
     0
  4
"
 41
1.0
 42
1.0
 43
10.0
 44
1.0
 47
0.1
 48
0.1
 73
     0
 74
     0
 77
     1
 78
     8
 79
     2
140
3.200000000000001
141
0.0
143
0.0393701
146
0.71
147
1.5
172
     1
176
   256
177
   256
178
     2
271
     2
272
     2
283
     0
284
     8
340
11
341
A66
342
6C4
371
    -1
372
    -1
1001
ACAD_DSTYLE_DIMJOGGED_JOGANGLE_SYMBOL
1070
   384
1040
0.7853981633974483
1001
ACAD_DSTYLE_DIMARC_LENGTH_SYMBOL
1070
   379
1070
     1
  0
DIMSTYLE
105
AF99
330
A
100
AcDbSymbolTableRecord
100
AcDbDimStyleTableRecord
  2
AM_ISO
 70
     0
  4
"
 41
2.5
 42
1.0
 43
10.0
 44
1.0
 47
0.1
 48
0.1
 73
     0
 74
     0
 77
     1
 78
     8
 79
     2
140
3.5
141
0.0
143
0.0393701
146
0.71
147
1.5
172
     1
176
   256
177
   256
178
     2
271
     2
272
     3
274
     4
283
     0
284
     8
340
11
371
    -1
372
    -1
  0
DIMSTYLE
105
AF9A
330
A
100
AcDbSymbolTableRecord
100
AcDbDimStyleTableRecord
  2
AM_ISO$3
 70
     0
  4
"
 41
2.5
 42
1.0
 43
10.0
 44
1.0
 47
0.1
 48
0.1
 73
     0
 77
     1
 78
     8
 79
     2
140
3.5
141
0.0
143
0.0393701
146
0.71
147
1.5
176
   256
177
   256
178
     2
271
     2
272
     3
274
     4
283
     0
284
     8
288
     1
289
     0
340
11
371
    -1
372
    -1
  0
DIMSTYLE
105
AF9B
330
A
100
AcDbSymbolTableRecord
100
AcDbDimStyleTableRecord
  2
AM_ISO$4
 70
     0
  4
"
 41
2.5
 42
1.0
 43
10.0
 44
1.0
 47
0.1
 48
0.1
 73
     0
 77
     1
 78
     8
 79
     2
140
3.5
141
0.0
143
0.0393701
146
0.71
147
1.5
176
   256
177
   256
178
     2
271
     2
272
     3
274
     4
283
     0
284
     8
288
     1
289
     0
340
11
371
    -1
372
    -1
  0
DIMSTYLE
105
AF9C
330
A
100
AcDbSymbolTableRecord
100
AcDbDimStyleTableRecord
  2
AM_ISO$6
 70
     0
  4
"
 41
2.5
 42
1.0
 43
10.0
 44
1.0
 47
0.1
 48
0.1
 73
     0
 74
     0
 78
     8
 79
     2
140
3.5
141
0.0
143
0.0393701
146
0.71
147
1.5
172
     1
176
   256
177
   256
178
     2
271
     2
272
     3
274
     4
283
     0
284
     8
340
11
371
    -1
372
    -1
  0
DIMSTYLE
105
AF9D
330
A
100
AcDbSymbolTableRecord
100
AcDbDimStyleTableRecord
  2
AM_ISO$7
 70
     0
  4
"
 41
2.5
 42
1.0
 43
10.0
 44
1.0
 47
0.1
 48
0.1
 73
     0
 74
     0
 77
     1
 78
     8
 79
     2
140
5.0
141
0.0
143
0.0393701
146
0.71
147
1.5
172
     1
176
   256
177
   256
178
     2
271
     2
272
     3
274
     4
283
     0
284
     8
340
11
371
    -1
372
    -1
  0
DIMSTYLE
105
AF9E
330
A
100
AcDbSymbolTableRecord
100
AcDbDimStyleTableRecord
  2
AM_ISO$SF
 70
     0
  4
"
 41
2.5
 42
1.0
 43
10.0
 44
1.0
 47
0.1
 48
0.1
 73
     0
 74
     0
 75
     1
 76
     1
 77
     1
 78
     8
 79
     2
140
3.5
141
0.0
143
0.0393701
146
0.71
147
1.5
172
     1
176
   256
177
   256
178
     2
271
     2
272
     3
274
     4
283
     0
284
     8
340
11
371
    -1
372
    -1
  0
DIMSTYLE
105
AF9F
330
A
100
AcDbSymbolTableRecord
100
AcDbDimStyleTableRecord
  2
AM_ISO$SH
 70
     0
  4
"
 41
2.5
 42
1.0
 43
10.0
 44
1.0
 47
0.1
 48
0.1
 73
     0
 74
     0
 75
     1
 76
     1
 77
     1
 78
     8
 79
     2
140
3.5
141
0.0
143
0.0393701
144
2.0
146
0.71
147
1.5
172
     1
173
     1
176
   256
177
   256
178
     2
271
     2
272
     3
274
     4
283
     0
284
     8
340
11
343
72
371
    -1
372
    -1
  0
DIMSTYLE
105
B6A3
330
A
100
AcDbSymbolTableRecord
100
AcDbDimStyleTableRecord
  2
尺度２／１
 70
     0
 41
2.0
 42
0.0
 43
1.0
 44
1.0
 73
     0
 74
     0
 77
     3
 78
     8
140
2.5
144
0.5
146
0.7
147
1.0
172
     1
173
     1
176
     2
177
     2
178
     1
271
     3
272
     3
284
     8
340
11
341
B50F
343
B50F
344
B50F
1001
ACAD_DSTYLE_DIMJOGGED_JOGANGLE_SYMBOL
1070
   384
1040
1.570796326794896
  0
DIMSTYLE
105
B6A4
330
A
100
AcDbSymbolTableRecord
100
AcDbDimStyleTableRecord
  2
直径尺度２／１
 70
     0
  3
%%c<>
 41
2.0
 42
0.0
 43
1.0
 44
1.0
 73
     0
 74
     0
 77
     3
 78
     8
140
2.5
144
0.5
146
0.7
147
1.0
172
     1
173
     1
176
     2
177
     2
178
     1
271
     3
272
     3
284
     8
340
11
341
B50F
343
B50F
344
B50F
  0
DIMSTYLE
105
B6A5
330
A
100
AcDbSymbolTableRecord
100
AcDbDimStyleTableRecord
  2
尺度１／２
 70
     0
 41
2.0
 42
0.0
 43
1.0
 44
1.0
 73
     0
 74
     0
 77
     3
 78
     8
140
2.5
144
2.0
146
0.7
147
1.0
172
     1
173
     1
176
     2
177
     2
178
     1
271
     3
272
     3
284
     8
340
11
341
B50F
343
B50F
344
B50F
  0
DIMSTYLE
105
B6A6
330
A
100
AcDbSymbolTableRecord
100
AcDbDimStyleTableRecord
  2
尺度４／１
 70
     0
 41
2.0
 42
0.0
 43
1.0
 44
1.0
 73
     0
 74
     0
 77
     3
 78
     8
140
2.5
144
0.25
146
0.7
147
1.0
172
     1
173
     1
176
     2
177
     2
178
     1
271
     3
272
     3
284
     8
340
11
341
B50F
343
B50F
344
B50F
  0
DIMSTYLE
105
B6A7
330
A
100
AcDbSymbolTableRecord
100
AcDbDimStyleTableRecord
  2
尺度１０／１
 70
     0
 41
2.0
 42
0.0
 43
1.0
 44
1.0
 73
     0
 74
     0
 77
     3
 78
     8
140
2.5
144
0.1
146
0.7
147
1.0
172
     1
173
     1
176
     2
177
     2
178
     1
271
     3
272
     3
284
     8
340
11
341
B50F
343
B50F
344
B50F
1001
ACAD_DSTYLE_DIMJOGGED_JOGANGLE_SYMBOL
1070
   384
1040
0.7853981633974483
  0
DIMSTYLE
105
B6A8
330
A
100
AcDbSymbolTableRecord
100
AcDbDimStyleTableRecord
  2
AM_ANSI
 70
     0
  4
mm
 41
0.1
 42
0.05
 43
0.5
 44
0.1
 47
0.1
 48
0.1
 78
     7
 79
     2
140
0.12
141
0.0
146
0.71
147
0.06
176
   256
177
   256
178
     2
274
     4
284
     7
340
11
371
    -1
372
    -1
1001
ACAD_DSTYLE_DIMARC_LENGTH_SYMBOL
1070
   379
1070
     1
  0
DIMSTYLE
105
B6A9
330
A
100
AcDbSymbolTableRecord
100
AcDbDimStyleTableRecord
  2
AM_ANSI$3
 70
     0
  4
mm
 41
0.1
 42
0.05
 43
0.5
 44
0.1
 47
0.1
 48
0.1
 78
     7
 79
     2
140
0.12
141
0.0
146
0.71
147
0.06
176
   256
177
   256
178
     2
274
     4
284
     7
288
     1
289
     0
340
11
371
    -1
372
    -1
1001
ACAD_DSTYLE_DIMARC_LENGTH_SYMBOL
1070
   379
1070
     1
  0
DIMSTYLE
105
B6AA
330
A
100
AcDbSymbolTableRecord
100
AcDbDimStyleTableRecord
  2
AM_ANSI$4
 70
     0
  4
mm
 41
0.1
 42
0.05
 43
0.5
 44
0.1
 47
0.1
 48
0.1
 78
     7
 79
     2
140
0.12
141
0.0
146
0.71
147
0.06
176
   256
177
   256
178
     2
274
     4
284
     7
288
     1
289
     0
340
11
371
    -1
372
    -1
1001
ACAD_DSTYLE_DIMARC_LENGTH_SYMBOL
1070
   379
1070
     1
  0
DIMSTYLE
105
B6AB
330
A
100
AcDbSymbolTableRecord
100
AcDbDimStyleTableRecord
  2
AM_ANSI$7
 70
     0
  4
mm
 41
0.1
 42
0.05
 43
0.5
 44
0.1
 47
0.1
 48
0.1
 78
     7
 79
     2
140
0.24
141
0.0
146
0.71
147
0.06
176
   256
177
   256
178
     2
274
     4
284
     7
340
11
371
    -1
372
    -1
1001
ACAD_DSTYLE_DIMARC_LENGTH_SYMBOL
1070
   379
1070
     1
  0
DIMSTYLE
105
B6AC
330
A
100
AcDbSymbolTableRecord
100
AcDbDimStyleTableRecord
  2
AM_ANSI$SF
 70
     0
  4
mm
 41
0.1
 42
0.05
 43
0.5
 44
0.1
 47
0.1
 48
0.1
 75
     1
 76
     1
 78
     7
 79
     2
140
0.12
141
0.0
146
0.71
147
0.06
176
   256
177
   256
178
     2
274
     4
284
     7
340
11
371
    -1
372
    -1
1001
ACAD_DSTYLE_DIMARC_LENGTH_SYMBOL
1070
   379
1070
     1
  0
DIMSTYLE
105
B6AD
330
A
100
AcDbSymbolTableRecord
100
AcDbDimStyleTableRecord
  2
AM_ANSI$SH
 70
     0
  4
mm
 41
0.1
 42
0.05
 43
0.5
 44
0.1
 47
0.1
 48
0.1
 75
     1
 76
     1
 78
     7
 79
     2
140
0.12
141
0.0
146
0.71
147
0.06
173
     1
176
   256
177
   256
178
     2
274
     4
284
     7
340
11
343
72
371
    -1
372
    -1
1001
ACAD_DSTYLE_DIMARC_LENGTH_SYMBOL
1070
   379
1070
     1
  0
DIMSTYLE
105
114D2
330
A
100
AcDbSymbolTableRecord
100
AcDbDimStyleTableRecord
  2
AM_ISO$0
 70
     0
  4
"
 41
0.8
 42
1.0
 43
10.0
 44
1.0
 47
0.1
 48
0.1
 73
     0
 74
     0
 77
     1
 78
     8
 79
     2
140
3.2
141
0.0
143
0.0393701
146
0.71
147
0.9999999999999996
172
     1
176
   256
177
   256
178
     2
271
     2
272
     2
283
     0
284
     8
340
11
341
6C4
342
6C4
371
    -1
372
    -1
1001
ACAD_DSTYLE_DIMJOGGED_JOGANGLE_SYMBOL
1070
   384
1040
0.7853981633974483
1001
ACAD_DSTYLE_DIMARC_LENGTH_SYMBOL
1070
   379
1070
     1
  0
DIMSTYLE
105
114D3
330
A
100
AcDbSymbolTableRecord
100
AcDbDimStyleTableRecord
  2
AM_ISO$2
 70
     0
  4
"
 41
0.8
 42
1.0
 43
10.0
 44
1.0
 47
0.1
 48
0.1
 73
     0
 74
     0
 77
     3
 78
     8
 79
     2
140
3.200000000000001
141
0.0
143
0.0393701
146
0.71
147
0.9999999999999996
172
     1
176
   256
177
   256
178
     2
271
     2
272
     2
283
     0
284
     8
340
11
342
6C4
371
    -1
372
    -1
1001
ACAD_DSTYLE_DIMJOGGED_JOGANGLE_SYMBOL
1070
   384
1040
0.7853981633974483
1001
ACAD_DSTYLE_DIMARC_LENGTH_SYMBOL
1070
   379
1070
     1
  0
ENDTAB
  0
TABLE
  2
BLOCK_RECORD
  5
1
330
0
100
AcDbSymbolTable
 70
    22
  0
BLOCK_RECORD
  5
1F
102
{ACAD_XDICTIONARY
360
8A
102
}
330
1
100
AcDbSymbolTableRecord
100
AcDbBlockTableRecord
  2
*Model_Space
340
22
  0
BLOCK_RECORD
  5
1B
330
1
100
AcDbSymbolTableRecord
100
AcDbBlockTableRecord
  2
*Paper_Space
340
1E
  0
BLOCK_RECORD
  5
23
330
1
100
AcDbSymbolTableRecord
100
AcDbBlockTableRecord
  2
*Paper_Space0
340
26
  0
BLOCK_RECORD
  5
72
330
1
100
AcDbSymbolTableRecord
100
AcDbBlockTableRecord
  2
GENAXEH
340
0
  0
BLOCK_RECORD
  5
6C4
330
1
100
AcDbSymbolTableRecord
100
AcDbBlockTableRecord
  2
_Dot
340
0
102
{BLKREFS
331
14E79
331
14E7A
331
14E82
331
14E83
331
14E8D
331
14E8E
331
14E96
331
14E97
331
14E9F
331
14EA0
331
14EA8
331
14EA9
331
14EB1
331
14EB2
331
14EBB
331
14EBC
331
14EC5
331
14EC6
331
14ECE
331
14ECF
331
14ED7
331
14ED8
331
14EDF
331
14EE0
331
14EE9
331
14EEA
331
14EF2
331
14EF3
102
}
  0
BLOCK_RECORD
  5
A66
330
1
100
AcDbSymbolTableRecord
100
AcDbBlockTableRecord
  2
_OPEN30
340
0
  0
BLOCK_RECORD
  5
B50F
330
1
100
AcDbSymbolTableRecord
100
AcDbBlockTableRecord
  2
_OPEN
340
0
  0
BLOCK_RECORD
  5
C384
330
1
100
AcDbSymbolTableRecord
100
AcDbBlockTableRecord
  2
*D6
340
0
  0
BLOCK_RECORD
  5
C3AD
330
1
100
AcDbSymbolTableRecord
100
AcDbBlockTableRecord
  2
*D7
340
0
  0
BLOCK_RECORD
  5
C40E
330
1
100
AcDbSymbolTableRecord
100
AcDbBlockTableRecord
  2
*D8
340
0
  0
BLOCK_RECORD
  5
C5C5
330
1
100
AcDbSymbolTableRecord
100
AcDbBlockTableRecord
  2
*D9
340
0
  0
BLOCK_RECORD
  5
C5ED
330
1
100
AcDbSymbolTableRecord
100
AcDbBlockTableRecord
  2
*D10
340
0
  0
BLOCK_RECORD
  5
C6FC
330
1
100
AcDbSymbolTableRecord
100
AcDbBlockTableRecord
  2
*D11
340
0
  0
BLOCK_RECORD
  5
D4CB
330
1
100
AcDbSymbolTableRecord
100
AcDbBlockTableRecord
  2
*D13
340
0
  0
BLOCK_RECORD
  5
D50D
330
1
100
AcDbSymbolTableRecord
100
AcDbBlockTableRecord
  2
*D14
340
0
  0
BLOCK_RECORD
  5
D565
330
1
100
AcDbSymbolTableRecord
100
AcDbBlockTableRecord
  2
*D15
340
0
  0
BLOCK_RECORD
  5
D989
330
1
100
AcDbSymbolTableRecord
100
AcDbBlockTableRecord
  2
*D16
340
0
  0
BLOCK_RECORD
  5
DC06
330
1
100
AcDbSymbolTableRecord
100
AcDbBlockTableRecord
  2
*D17
340
0
  0
BLOCK_RECORD
  5
14C36
330
1
100
AcDbSymbolTableRecord
100
AcDbBlockTableRecord
  2
*D18
340
0
  0
BLOCK_RECORD
  5
14CFC
330
1
100
AcDbSymbolTableRecord
100
AcDbBlockTableRecord
  2
*D19
340
0
  0
ENDTAB
  0
ENDSEC
  0
SECTION
  2
BLOCKS
  0
BLOCK
  5
20
330
1F
100
AcDbEntity
  8
0
100
AcDbBlockBegin
  2
*Model_Space
 70
     0
 10
0.0
 20
0.0
 30
0.0
  3
*Model_Space
  1

  0
ENDBLK
  5
21
330
1F
100
AcDbEntity
  8
0
100
AcDbBlockEnd
  0
BLOCK
  5
1C
330
1B
100
AcDbEntity
 67
     1
  8
0
100
AcDbBlockBegin
  2
*Paper_Space
 70
     0
 10
0.0
 20
0.0
 30
0.0
  3
*Paper_Space
  1

  0
ENDBLK
  5
1D
330
1B
100
AcDbEntity
 67
     1
  8
0
100
AcDbBlockEnd
  0
BLOCK
  5
24
330
23
100
AcDbEntity
 67
     1
  8
0
100
AcDbBlockBegin
  2
*Paper_Space0
 70
     0
 10
0.0
 20
0.0
 30
0.0
  3
*Paper_Space0
  1

  0
ENDBLK
  5
25
330
23
100
AcDbEntity
 67
     1
  8
0
100
AcDbBlockEnd
  0
BLOCK
  5
74
330
72
100
AcDbEntity
  8
0
100
AcDbBlockBegin
  2
GENAXEH
 70
     0
 10
0.0
 20
0.0
 30
0.0
  3
GENAXEH
  1

  0
LINE
  5
73
330
72
100
AcDbEntity
  8
0
100
AcDbLine
 10
-1.0
 20
0.0
 30
0.0
 11
1.0
 21
0.0
 31
0.0
  0
ENDBLK
  5
75
330
72
100
AcDbEntity
  8
0
100
AcDbBlockEnd
  0
BLOCK
  5
6C7
330
6C4
100
AcDbEntity
  8
0
100
AcDbBlockBegin
  2
_Dot
 70
     0
 10
0.0
 20
0.0
 30
0.0
  3
_Dot
  1

  0
LWPOLYLINE
  5
6C5
330
6C4
100
AcDbEntity
  8
0
  6
ByBlock
 62
     0
100
AcDbPolyline
 90
        2
 70
     1
 43
0.5
 10
-0.25
 20
0.0
 42
1.0
 10
0.25
 20
0.0
 42
1.0
  0
LINE
  5
6C6
330
6C4
100
AcDbEntity
  8
0
  6
ByBlock
 62
     0
370
    -2
100
AcDbLine
 10
-0.5
 20
0.0
 30
0.0
 11
-1.0
 21
0.0
 31
0.0
  0
ENDBLK
  5
6C8
330
6C4
100
AcDbEntity
  8
0
100
AcDbBlockEnd
  0
BLOCK
  5
A6A
330
A66
100
AcDbEntity
  8
0
100
AcDbBlockBegin
  2
_OPEN30
 70
     0
 10
0.0
 20
0.0
 30
0.0
  3
_OPEN30
  1

  0
LINE
  5
A67
330
A66
100
AcDbEntity
  8
0
  6
ByBlock
 62
     0
100
AcDbLine
 10
-1.0
 20
0.26794919
 30
0.0
 11
0.0
 21
0.0
 31
0.0
  0
LINE
  5
A68
330
A66
100
AcDbEntity
  8
0
  6
ByBlock
 62
     0
100
AcDbLine
 10
0.0
 20
0.0
 30
0.0
 11
-1.0
 21
-0.26794919
 31
0.0
  0
LINE
  5
A69
330
A66
100
AcDbEntity
  8
0
  6
ByBlock
 62
     0
100
AcDbLine
 10
0.0
 20
0.0
 30
0.0
 11
-1.0
 21
0.0
 31
0.0
  0
ENDBLK
  5
A6B
330
A66
100
AcDbEntity
  8
0
100
AcDbBlockEnd
  0
BLOCK
  5
B510
330
B50F
100
AcDbEntity
  8
0
100
AcDbBlockBegin
  2
_OPEN
 70
     0
 10
0.0
 20
0.0
 30
0.0
  3
_OPEN
  1

  0
LINE
  5
B511
330
B50F
100
AcDbEntity
  8
0
  6
ByBlock
 62
     0
100
AcDbLine
 10
-1.0
 20
0.1666666666666666
 30
0.0
 11
0.0
 21
0.0
 31
0.0
  0
LINE
  5
B512
330
B50F
100
AcDbEntity
  8
0
  6
ByBlock
 62
     0
100
AcDbLine
 10
0.0
 20
0.0
 30
0.0
 11
-1.0
 21
-0.1666666666666666
 31
0.0
  0
LINE
  5
B513
330
B50F
100
AcDbEntity
  8
0
  6
ByBlock
 62
     0
100
AcDbLine
 10
0.0
 20
0.0
 30
0.0
 11
-1.0
 21
0.0
 31
0.0
  0
ENDBLK
  5
B514
330
B50F
100
AcDbEntity
  8
0
100
AcDbBlockEnd
  0
BLOCK
  5
C385
330
C384
100
AcDbEntity
  8
0
100
AcDbBlockBegin
  2
*D6
 70
     1
 10
0.0
 20
0.0
 30
0.0
  3
*D6
  1

  0
LINE
  5
14E76
330
C384
100
AcDbEntity
  8
AM_5
100
AcDbLine
 10
248.4834853661419
 20
188.2034435132259
 30
0.0
 11
217.0834853661411
 21
188.2034435132259
 31
0.0
  0
LINE
  5
14E77
330
C384
100
AcDbEntity
  8
AM_5
100
AcDbLine
 10
248.4834853661429
 20
220.2034435132241
 30
0.0
 11
217.0834853661411
 21
220.2034435132241
 31
0.0
  0
LINE
  5
14E78
330
C384
100
AcDbEntity
  8
AM_5
100
AcDbLine
 10
218.083485366141
 20
189.2034435132259
 30
0.0
 11
218.0834853661411
 21
219.2034435132241
 31
0.0
  0
INSERT
  5
14E79
330
C384
100
AcDbEntity
  8
AM_5
100
AcDbBlockReference
  2
_Dot
 10
218.083485366141
 20
188.2034435132259
 30
0.0
 50
270.0
  0
INSERT
  5
14E7A
330
C384
100
AcDbEntity
  8
AM_5
100
AcDbBlockReference
  2
_Dot
 10
218.0834853661411
 20
220.2034435132241
 30
0.0
 50
90.0
  0
MTEXT
  5
14E7B
330
C384
100
AcDbEntity
  8
AM_5
 62
     2
100
AcDbMText
 10
214.983485366141
 20
204.2034435132251
 30
0.0
 40
3.200000000000001
 41
0.0
 71
     5
 72
     1
  1
32
 11
0.0000000000000001
 21
1.0
 31
0.0
 73
     1
 44
1.0
1001
ACAD
1000
MTEXTBEGIN
1070
    73
1070
     1
1070
    44
1040
1.0
1070
    74
1070
     0
1000
MTEXTEND
  0
POINT
  5
14E7C
330
C384
100
AcDbEntity
  8
Defpoints
 62
     0
100
AcDbPoint
 10
249.483485366142
 20
188.2034435132259
 30
0.0
  0
POINT
  5
14E7D
330
C384
100
AcDbEntity
  8
Defpoints
 62
     0
100
AcDbPoint
 10
249.4834853661429
 20
220.2034435132241
 30
0.0
  0
POINT
  5
14E7E
330
C384
100
AcDbEntity
  8
Defpoints
 62
     0
100
AcDbPoint
 10
218.0834853661411
 20
220.2034435132241
 30
0.0
  0
ENDBLK
  5
C386
330
C384
100
AcDbEntity
  8
0
100
AcDbBlockEnd
  0
BLOCK
  5
C3AE
330
C3AD
100
AcDbEntity
  8
0
100
AcDbBlockBegin
  2
*D7
 70
     1
 10
0.0
 20
0.0
 30
0.0
  3
*D7
  1

  0
LINE
  5
14E7F
330
C3AD
100
AcDbEntity
  8
AM_5
100
AcDbLine
 10
238.0834853661438
 20
193.6378044207085
 30
0.0
 11
238.0834853661438
 21
160.7378042046962
 31
0.0
  0
LINE
  5
14E80
330
C3AD
100
AcDbEntity
  8
AM_5
100
AcDbLine
 10
255.3834853661419
 20
181.3034435132259
 30
0.0
 11
255.3834853661419
 21
160.7378042046962
 31
0.0
  0
LINE
  5
14E81
330
C3AD
100
AcDbEntity
  8
AM_5
100
AcDbLine
 10
239.0834853661439
 20
161.7378042046962
 30
0.0
 11
254.3834853661419
 21
161.7378042046962
 31
0.0
  0
INSERT
  5
14E82
330
C3AD
100
AcDbEntity
  8
AM_5
100
AcDbBlockReference
  2
_Dot
 10
238.0834853661438
 20
161.7378042046962
 30
0.0
 50
180.0
  0
INSERT
  5
14E83
330
C3AD
100
AcDbEntity
  8
AM_5
100
AcDbBlockReference
  2
_Dot
 10
255.3834853661419
 20
161.7378042046962
 30
0.0
  0
MTEXT
  5
14E84
330
C3AD
100
AcDbEntity
  8
AM_5
 62
     2
100
AcDbMText
 10
246.7334853661429
 20
164.8378042046962
 30
0.0
 40
3.200000000000001
 41
0.0
 71
     5
 72
     1
  1
17.3
 73
     1
 44
1.0
1001
ACAD
1000
MTEXTBEGIN
1070
    73
1070
     1
1070
    44
1040
1.0
1070
    74
1070
     0
1000
MTEXTEND
  0
POINT
  5
14E85
330
C3AD
100
AcDbEntity
  8
Defpoints
 62
     0
100
AcDbPoint
 10
238.0834853661438
 20
194.6378044207085
 30
0.0
  0
POINT
  5
14E86
330
C3AD
100
AcDbEntity
  8
Defpoints
 62
     0
100
AcDbPoint
 10
255.3834853661419
 20
182.3034435132259
 30
0.0
  0
POINT
  5
14E87
330
C3AD
100
AcDbEntity
  8
Defpoints
 62
     0
100
AcDbPoint
 10
255.3834853661419
 20
161.7378042046962
 30
0.0
  0
ENDBLK
  5
C3AF
330
C3AD
100
AcDbEntity
  8
0
100
AcDbBlockEnd
  0
BLOCK
  5
C40F
330
C40E
100
AcDbEntity
  8
0
100
AcDbBlockBegin
  2
*D8
 70
     1
 10
0.0
 20
0.0
 30
0.0
  3
*D8
  1

  0
LINE
  5
14E88
330
C40E
100
AcDbEntity
  8
AM_5
100
AcDbLine
 10
255.3834853661419
 20
181.3034435132259
 30
0.0
 11
255.3834853661419
 21
160.7378042046962
 31
0.0
  0
LINE
  5
14E89
330
C40E
100
AcDbEntity
  8
AM_5
100
AcDbLine
 10
260.0834853661408
 20
169.7378042046962
 30
0.0
 11
260.0834853661408
 21
160.7378042046962
 31
0.0
  0
LINE
  5
14E8A
330
C40E
100
AcDbEntity
  8
AM_5
100
AcDbLine
 10
254.3834853661419
 20
161.7378042046962
 30
0.0
 11
253.3834853661419
 21
161.7378042046962
 31
0.0
  0
LINE
  5
14E8B
330
C40E
100
AcDbEntity
  8
AM_5
100
AcDbLine
 10
261.0834853661408
 20
161.7378042046962
 30
0.0
 11
269.7768186994742
 21
161.7378042046962
 31
0.0
  0
LINE
  5
14E8C
330
C40E
100
AcDbEntity
  8
AM_5
100
AcDbLine
 10
255.3834853661419
 20
161.7378042046962
 30
0.0
 11
260.0834853661408
 21
161.7378042046962
 31
0.0
  0
INSERT
  5
14E8D
330
C40E
100
AcDbEntity
  8
AM_5
100
AcDbBlockReference
  2
_Dot
 10
255.3834853661419
 20
161.7378042046962
 30
0.0
  0
INSERT
  5
14E8E
330
C40E
100
AcDbEntity
  8
AM_5
100
AcDbBlockReference
  2
_Dot
 10
260.0834853661408
 20
161.7378042046962
 30
0.0
 50
180.0
  0
MTEXT
  5
14E8F
330
C40E
100
AcDbEntity
  8
AM_5
 62
     2
100
AcDbMText
 10
265.9301520328075
 20
164.8378042046962
 30
0.0
 40
3.200000000000001
 41
0.0
 71
     5
 72
     1
  1
4.7
 73
     1
 44
1.0
1001
ACAD
1000
MTEXTBEGIN
1070
    73
1070
     1
1070
    44
1040
1.0
1070
    74
1070
     0
1000
MTEXTEND
  0
POINT
  5
14E90
330
C40E
100
AcDbEntity
  8
Defpoints
 62
     0
100
AcDbPoint
 10
255.3834853661419
 20
182.3034435132259
 30
0.0
  0
POINT
  5
14E91
330
C40E
100
AcDbEntity
  8
Defpoints
 62
     0
100
AcDbPoint
 10
260.0834853661408
 20
170.7378042046962
 30
0.0
  0
POINT
  5
14E92
330
C40E
100
AcDbEntity
  8
Defpoints
 62
     0
100
AcDbPoint
 10
260.0834853661408
 20
161.7378042046962
 30
0.0
  0
ENDBLK
  5
C410
330
C40E
100
AcDbEntity
  8
0
100
AcDbBlockEnd
  0
BLOCK
  5
C5C6
330
C5C5
100
AcDbEntity
  8
0
100
AcDbBlockBegin
  2
*D9
 70
     1
 10
0.0
 20
0.0
 30
0.0
  3
*D9
  1

  0
LINE
  5
14E93
330
C5C5
100
AcDbEntity
  8
AM_5
100
AcDbLine
 10
123.4599828266984
 20
112.1741179008009
 30
0.0
 11
110.0100430662905
 21
112.1741179008009
 31
0.0
  0
LINE
  5
14E94
330
C5C5
100
AcDbEntity
  8
AM_5
100
AcDbLine
 10
123.4599828266693
 20
102.8741179007438
 30
0.0
 11
110.0100430662905
 21
102.8741179007438
 31
0.0
  0
LINE
  5
14E95
330
C5C5
100
AcDbEntity
  8
AM_5
100
AcDbLine
 10
111.0100430662905
 20
111.1741179008009
 30
0.0
 11
111.0100430662905
 21
103.8741179007438
 31
0.0
  0
INSERT
  5
14E96
330
C5C5
100
AcDbEntity
  8
AM_5
100
AcDbBlockReference
  2
_Dot
 10
111.0100430662905
 20
112.1741179008009
 30
0.0
 50
90.0
  0
INSERT
  5
14E97
330
C5C5
100
AcDbEntity
  8
AM_5
100
AcDbBlockReference
  2
_Dot
 10
111.0100430662905
 20
102.8741179007438
 30
0.0
 50
270.0
  0
MTEXT
  5
14E98
330
C5C5
100
AcDbEntity
  8
AM_5
 62
     2
100
AcDbMText
 10
107.9100430662905
 20
107.5241179007724
 30
0.0
 40
3.200000000000001
 41
0.0
 71
     5
 72
     1
  1
9.3
 11
0.0000000000000001
 21
1.0
 31
0.0
 73
     1
 44
1.0
1001
ACAD
1000
MTEXTBEGIN
1070
    73
1070
     1
1070
    44
1040
1.0
1070
    74
1070
     0
1000
MTEXTEND
  0
POINT
  5
14E99
330
C5C5
100
AcDbEntity
  8
Defpoints
 62
     0
100
AcDbPoint
 10
124.4599828266985
 20
112.1741179008009
 30
0.0
  0
POINT
  5
14E9A
330
C5C5
100
AcDbEntity
  8
Defpoints
 62
     0
100
AcDbPoint
 10
124.4599828266693
 20
102.8741179007438
 30
0.0
  0
POINT
  5
14E9B
330
C5C5
100
AcDbEntity
  8
Defpoints
 62
     0
100
AcDbPoint
 10
111.0100430662905
 20
102.8741179007438
 30
0.0
  0
ENDBLK
  5
C5C7
330
C5C5
100
AcDbEntity
  8
0
100
AcDbBlockEnd
  0
BLOCK
  5
C5EE
330
C5ED
100
AcDbEntity
  8
0
100
AcDbBlockBegin
  2
*D10
 70
     1
 10
0.0
 20
0.0
 30
0.0
  3
*D10
  1

  0
LINE
  5
14E9C
330
C5ED
100
AcDbEntity
  8
AM_5
100
AcDbLine
 10
123.4599828266693
 20
102.8741179007438
 30
0.0
 11
110.0100430662905
 21
102.8741179007438
 31
0.0
  0
LINE
  5
14E9D
330
C5ED
100
AcDbEntity
  8
AM_5
100
AcDbLine
 10
123.4599828266693
 20
90.87411846487297
 30
0.0
 11
110.0100430662905
 21
90.87411846487297
 31
0.0
  0
LINE
  5
14E9E
330
C5ED
100
AcDbEntity
  8
AM_5
100
AcDbLine
 10
111.0100430662905
 20
101.8741179007438
 30
0.0
 11
111.0100430662905
 21
91.87411846487297
 31
0.0
  0
INSERT
  5
14E9F
330
C5ED
100
AcDbEntity
  8
AM_5
100
AcDbBlockReference
  2
_Dot
 10
111.0100430662905
 20
102.8741179007438
 30
0.0
 50
90.0
  0
INSERT
  5
14EA0
330
C5ED
100
AcDbEntity
  8
AM_5
100
AcDbBlockReference
  2
_Dot
 10
111.0100430662905
 20
90.87411846487297
 30
0.0
 50
270.0
  0
MTEXT
  5
14EA1
330
C5ED
100
AcDbEntity
  8
AM_5
 62
     2
100
AcDbMText
 10
107.9100430662905
 20
96.87411818280843
 30
0.0
 40
3.200000000000001
 41
0.0
 71
     5
 72
     1
  1
12
 11
0.0000000000000001
 21
1.0
 31
0.0
 73
     1
 44
1.0
1001
ACAD
1000
MTEXTBEGIN
1070
    73
1070
     1
1070
    44
1040
1.0
1070
    74
1070
     0
1000
MTEXTEND
  0
POINT
  5
14EA2
330
C5ED
100
AcDbEntity
  8
Defpoints
 62
     0
100
AcDbPoint
 10
124.4599828266693
 20
102.8741179007438
 30
0.0
  0
POINT
  5
14EA3
330
C5ED
100
AcDbEntity
  8
Defpoints
 62
     0
100
AcDbPoint
 10
124.4599828266693
 20
90.87411846487297
 30
0.0
  0
POINT
  5
14EA4
330
C5ED
100
AcDbEntity
  8
Defpoints
 62
     0
100
AcDbPoint
 10
111.0100430662905
 20
90.87411846487297
 30
0.0
  0
ENDBLK
  5
C5EF
330
C5ED
100
AcDbEntity
  8
0
100
AcDbBlockEnd
  0
BLOCK
  5
C6FD
330
C6FC
100
AcDbEntity
  8
0
100
AcDbBlockBegin
  2
*D11
 70
     1
 10
0.0
 20
0.0
 30
0.0
  3
*D11
  1

  0
LINE
  5
14EA5
330
C6FC
100
AcDbEntity
  8
AM_5
100
AcDbLine
 10
129.7099828267019
 20
118.0909581550309
 30
0.0
 11
129.7099828267019
 21
132.8065805512604
 31
0.0
  0
LINE
  5
14EA6
330
C6FC
100
AcDbEntity
  8
AM_5
100
AcDbLine
 10
159.709982812581
 20
118.0909582956052
 30
0.0
 11
159.709982812581
 21
132.8065805512604
 31
0.0
  0
LINE
  5
14EA7
330
C6FC
100
AcDbEntity
  8
AM_5
100
AcDbLine
 10
130.7099828267019
 20
131.8065805512603
 30
0.0
 11
158.709982812581
 21
131.8065805512603
 31
0.0
  0
INSERT
  5
14EA8
330
C6FC
100
AcDbEntity
  8
AM_5
100
AcDbBlockReference
  2
_Dot
 10
129.7099828267019
 20
131.8065805512603
 30
0.0
 50
180.0
  0
INSERT
  5
14EA9
330
C6FC
100
AcDbEntity
  8
AM_5
100
AcDbBlockReference
  2
_Dot
 10
159.709982812581
 20
131.8065805512603
 30
0.0
  0
MTEXT
  5
14EAA
330
C6FC
100
AcDbEntity
  8
AM_5
 62
     2
100
AcDbMText
 10
144.7099828196414
 20
134.9065805512603
 30
0.0
 40
3.200000000000001
 41
0.0
 71
     5
 72
     1
  1
30
 73
     1
 44
1.0
1001
ACAD
1000
MTEXTBEGIN
1070
    73
1070
     1
1070
    44
1040
1.0
1070
    74
1070
     0
1000
MTEXTEND
  0
POINT
  5
14EAB
330
C6FC
100
AcDbEntity
  8
Defpoints
 62
     0
100
AcDbPoint
 10
129.7099828267019
 20
117.0909581550309
 30
0.0
  0
POINT
  5
14EAC
330
C6FC
100
AcDbEntity
  8
Defpoints
 62
     0
100
AcDbPoint
 10
159.709982812581
 20
117.0909582956052
 30
0.0
  0
POINT
  5
14EAD
330
C6FC
100
AcDbEntity
  8
Defpoints
 62
     0
100
AcDbPoint
 10
159.709982812581
 20
131.8065805512603
 30
0.0
  0
ENDBLK
  5
C6FE
330
C6FC
100
AcDbEntity
  8
0
100
AcDbBlockEnd
  0
BLOCK
  5
D4CC
330
D4CB
100
AcDbEntity
  8
0
100
AcDbBlockBegin
  2
*D13
 70
     1
 10
0.0
 20
0.0
 30
0.0
  3
*D13
  1

  0
LINE
  5
14EB7
330
D4CB
100
AcDbEntity
  8
AM_5
100
AcDbLine
 10
166.4022076837933
 20
85.47411790074582
 30
0.0
 11
195.7099842861792
 21
85.47411790074582
 31
0.0
  0
LINE
  5
14EB8
330
D4CB
100
AcDbEntity
  8
AM_5
100
AcDbLine
 10
175.710035624175
 20
75.47385272046179
 30
0.0
 11
195.7099842861792
 21
75.47385272046179
 31
0.0
  0
LINE
  5
14EB9
330
D4CB
100
AcDbEntity
  8
AM_5
100
AcDbLine
 10
194.7099842861792
 20
84.47411790074582
 30
0.0
 11
194.7099842861792
 21
76.47385272046179
 31
0.0
  0
LINE
  5
14EBA
330
D4CB
100
AcDbEntity
  8
AM_5
100
AcDbLine
 10
194.7099842861792
 20
75.47385272046179
 30
0.0
 11
194.7099842861791
 21
49.86318605379511
 31
0.0
  0
INSERT
  5
14EBB
330
D4CB
100
AcDbEntity
  8
AM_5
100
AcDbBlockReference
  2
_Dot
 10
194.7099842861792
 20
85.47411790074582
 30
0.0
 50
90.0
  0
INSERT
  5
14EBC
330
D4CB
100
AcDbEntity
  8
AM_5
100
AcDbBlockReference
  2
_Dot
 10
194.7099842861792
 20
75.47385272046179
 30
0.0
 50
270.0
  0
MTEXT
  5
14EBD
330
D4CB
100
AcDbEntity
  8
AM_5
 62
     2
100
AcDbMText
 10
191.6099842861791
 20
62.16851938712848
 30
0.0
 40
3.200000000000001
 41
0.0
 71
     5
 72
     1
  1
11±2（推奨10）
 11
0.0000000000000001
 21
1.0
 31
0.0
 73
     1
 44
1.0
1001
ACAD
1000
MTEXTBEGIN
1070
    73
1070
     1
1070
    44
1040
1.0
1070
    74
1070
     0
1000
MTEXTEND
  0
POINT
  5
14EBE
330
D4CB
100
AcDbEntity
  8
Defpoints
 62
     0
100
AcDbPoint
 10
165.4022076837933
 20
85.47411790074582
 30
0.0
  0
POINT
  5
14EBF
330
D4CB
100
AcDbEntity
  8
Defpoints
 62
     0
100
AcDbPoint
 10
174.710035624175
 20
75.47385272046179
 30
0.0
  0
POINT
  5
14EC0
330
D4CB
100
AcDbEntity
  8
Defpoints
 62
     0
100
AcDbPoint
 10
194.7099842861792
 20
75.47385272046179
 30
0.0
  0
ENDBLK
  5
D4CD
330
D4CB
100
AcDbEntity
  8
0
100
AcDbBlockEnd
  0
BLOCK
  5
D50E
330
D50D
100
AcDbEntity
  8
0
100
AcDbBlockBegin
  2
*D14
 70
     1
 10
0.0
 20
0.0
 30
0.0
  3
*D14
  1

  0
LINE
  5
14EC1
330
D50D
100
AcDbEntity
  8
AM_5
100
AcDbLine
 10
169.7099915844536
 20
78.97369507834929
 30
0.0
 11
185.7099842861791
 21
78.97369507834929
 31
0.0
  0
LINE
  5
14EC2
330
D50D
100
AcDbEntity
  8
AM_5
100
AcDbLine
 10
184.7099842861791
 20
79.97369507834929
 30
0.0
 11
184.7099842861791
 21
80.9736950783493
 31
0.0
  0
LINE
  5
14EC3
330
D50D
100
AcDbEntity
  8
AM_5
100
AcDbLine
 10
184.7099842861791
 20
74.47376514073278
 30
0.0
 11
184.7099842861791
 21
65.78043180739945
 31
0.0
  0
LINE
  5
14EC4
330
D50D
100
AcDbEntity
  8
AM_5
100
AcDbLine
 10
184.7099842861791
 20
78.97369507834929
 30
0.0
 11
184.7099842861791
 21
75.47376514073278
 31
0.0
  0
INSERT
  5
14EC5
330
D50D
100
AcDbEntity
  8
AM_5
100
AcDbBlockReference
  2
_Dot
 10
184.7099842861791
 20
78.97369507834929
 30
0.0
 50
270.0
  0
INSERT
  5
14EC6
330
D50D
100
AcDbEntity
  8
AM_5
100
AcDbBlockReference
  2
_Dot
 10
184.7099842861791
 20
75.47376514073278
 30
0.0
 50
90.0
  0
MTEXT
  5
14EC7
330
D50D
100
AcDbEntity
  8
AM_5
 62
     2
100
AcDbMText
 10
181.6099842861791
 20
69.62709847406614
 30
0.0
 40
3.200000000000001
 41
0.0
 71
     5
 72
     1
  1
3.5
 11
0.0000000000000001
 21
1.0
 31
0.0
 73
     1
 44
1.0
1001
ACAD
1000
MTEXTBEGIN
1070
    73
1070
     1
1070
    44
1040
1.0
1070
    74
1070
     0
1000
MTEXTEND
  0
POINT
  5
14EC8
330
D50D
100
AcDbEntity
  8
Defpoints
 62
     0
100
AcDbPoint
 10
168.7099915844536
 20
78.97369507834929
 30
0.0
  0
POINT
  5
14EC9
330
D50D
100
AcDbEntity
  8
Defpoints
 62
     0
100
AcDbPoint
 10
174.7099842861792
 20
75.47376514073278
 30
0.0
  0
POINT
  5
14ECA
330
D50D
100
AcDbEntity
  8
Defpoints
 62
     0
100
AcDbPoint
 10
184.7099842861791
 20
75.47376514073278
 30
0.0
  0
ENDBLK
  5
D50F
330
D50D
100
AcDbEntity
  8
0
100
AcDbBlockEnd
  0
BLOCK
  5
D566
330
D565
100
AcDbEntity
  8
0
100
AcDbBlockBegin
  2
*D15
 70
     1
 10
0.0
 20
0.0
 30
0.0
  3
*D15
  1

  0
LINE
  5
14ECB
330
D565
100
AcDbEntity
  8
AM_5
100
AcDbLine
 10
123.0099828266686
 20
114.1695337223169
 30
0.0
 11
123.0099828266686
 21
142.8065805512603
 31
0.0
  0
LINE
  5
14ECC
330
D565
100
AcDbEntity
  8
AM_5
100
AcDbLine
 10
166.4099828266537
 20
114.1695337223169
 30
0.0
 11
166.4099828266537
 21
142.8065805512603
 31
0.0
  0
LINE
  5
14ECD
330
D565
100
AcDbEntity
  8
AM_5
100
AcDbLine
 10
124.0099828266686
 20
141.8065805512603
 30
0.0
 11
165.4099828266537
 21
141.8065805512603
 31
0.0
  0
INSERT
  5
14ECE
330
D565
100
AcDbEntity
  8
AM_5
100
AcDbBlockReference
  2
_Dot
 10
123.0099828266686
 20
141.8065805512603
 30
0.0
 50
180.0
  0
INSERT
  5
14ECF
330
D565
100
AcDbEntity
  8
AM_5
100
AcDbBlockReference
  2
_Dot
 10
166.4099828266537
 20
141.8065805512603
 30
0.0
  0
MTEXT
  5
14ED0
330
D565
100
AcDbEntity
  8
AM_5
 62
     2
100
AcDbMText
 10
144.7099828266612
 20
144.9065805512603
 30
0.0
 40
3.200000000000001
 41
0.0
 71
     5
 72
     1
  1
43.4
 73
     1
 44
1.0
1001
ACAD
1000
MTEXTBEGIN
1070
    73
1070
     1
1070
    44
1040
1.0
1070
    74
1070
     0
1000
MTEXTEND
  0
POINT
  5
14ED1
330
D565
100
AcDbEntity
  8
Defpoints
 62
     0
100
AcDbPoint
 10
123.0099828266686
 20
113.1695337223169
 30
0.0
  0
POINT
  5
14ED2
330
D565
100
AcDbEntity
  8
Defpoints
 62
     0
100
AcDbPoint
 10
166.4099828266537
 20
113.1695337223169
 30
0.0
  0
POINT
  5
14ED3
330
D565
100
AcDbEntity
  8
Defpoints
 62
     0
100
AcDbPoint
 10
166.4099828266537
 20
141.8065805512603
 30
0.0
  0
ENDBLK
  5
D567
330
D565
100
AcDbEntity
  8
0
100
AcDbBlockEnd
  0
BLOCK
  5
D98A
330
D989
100
AcDbEntity
  8
0
100
AcDbBlockBegin
  2
*D16
 70
     1
 10
0.0
 20
0.0
 30
0.0
  3
*D16
  1

  0
LINE
  5
14ED4
330
D989
100
AcDbEntity
  8
AM_5
100
AcDbLine
 10
259.0834853661409
 20
233.7378042046962
 30
0.0
 11
207.0834853661411
 21
233.7378042046962
 31
0.0
  0
LINE
  5
14ED5
330
D989
100
AcDbEntity
  8
AM_5
100
AcDbLine
 10
259.0834853661409
 20
173.7378042046962
 30
0.0
 11
207.0834853661411
 21
173.7378042046962
 31
0.0
  0
LINE
  5
14ED6
330
D989
100
AcDbEntity
  8
AM_5
100
AcDbLine
 10
208.0834853661411
 20
232.7378042046962
 30
0.0
 11
208.0834853661411
 21
174.7378042046962
 31
0.0
  0
INSERT
  5
14ED7
330
D989
100
AcDbEntity
  8
AM_5
100
AcDbBlockReference
  2
_Dot
 10
208.0834853661411
 20
233.7378042046962
 30
0.0
 50
90.0
  0
INSERT
  5
14ED8
330
D989
100
AcDbEntity
  8
AM_5
100
AcDbBlockReference
  2
_Dot
 10
208.0834853661411
 20
173.7378042046962
 30
0.0
 50
270.0
  0
MTEXT
  5
14ED9
330
D989
100
AcDbEntity
  8
AM_5
 62
     2
100
AcDbMText
 10
204.9834853661411
 20
203.7378042046963
 30
0.0
 40
3.200000000000001
 41
0.0
 71
     5
 72
     1
  1
%%c60
 11
0.0000000000000001
 21
1.0
 31
0.0
 73
     1
 44
1.0
1001
ACAD
1000
MTEXTBEGIN
1070
    73
1070
     1
1070
    44
1040
1.0
1070
    74
1070
     0
1000
MTEXTEND
  0
POINT
  5
14EDA
330
D989
100
AcDbEntity
  8
Defpoints
 62
     0
100
AcDbPoint
 10
260.0834853661408
 20
233.7378042046962
 30
0.0
  0
POINT
  5
14EDB
330
D989
100
AcDbEntity
  8
Defpoints
 62
     0
100
AcDbPoint
 10
260.0834853661408
 20
173.7378042046962
 30
0.0
  0
POINT
  5
14EDC
330
D989
100
AcDbEntity
  8
Defpoints
 62
     0
100
AcDbPoint
 10
208.0834853661411
 20
173.7378042046962
 30
0.0
  0
ENDBLK
  5
D98B
330
D989
100
AcDbEntity
  8
0
100
AcDbBlockEnd
  0
BLOCK
  5
DC07
330
DC06
100
AcDbEntity
  8
0
100
AcDbBlockBegin
  2
*D17
 70
     1
 10
0.0
 20
0.0
 30
0.0
  3
*D17
  1

  0
LINE
  5
14EDD
330
DC06
100
AcDbEntity
  8
AM_5
100
AcDbLine
 10
145.7100069361248
 20
121.8065803409609
 30
0.0
 11
195.70996174607
 21
121.8065803409609
 31
0.0
  0
LINE
  5
14EDE
330
DC06
100
AcDbEntity
  8
AM_5
100
AcDbLine
 10
194.70996174607
 20
120.8065803409609
 30
0.0
 11
194.70996174607
 21
86.47411790035903
 31
0.0
  0
INSERT
  5
14EDF
330
DC06
100
AcDbEntity
  8
AM_5
100
AcDbBlockReference
  2
_Dot
 10
194.70996174607
 20
121.8065803409609
 30
0.0
 50
90.0
  0
INSERT
  5
14EE0
330
DC06
100
AcDbEntity
  8
AM_5
100
AcDbBlockReference
  2
_Dot
 10
194.70996174607
 20
85.47411790035903
 30
0.0
 50
270.0
  0
MTEXT
  5
14EE1
330
DC06
100
AcDbEntity
  8
AM_5
 62
     2
100
AcDbMText
 10
191.60996174607
 20
103.64034912066
 30
0.0
 40
3.200000000000001
 41
0.0
 71
     5
 72
     1
  1
36
 11
0.0000000000000001
 21
1.0
 31
0.0
 73
     1
 44
1.0
1001
ACAD
1000
MTEXTBEGIN
1070
    73
1070
     1
1070
    44
1040
1.0
1070
    74
1070
     0
1000
MTEXTEND
  0
POINT
  5
14EE2
330
DC06
100
AcDbEntity
  8
Defpoints
 62
     0
100
AcDbPoint
 10
144.7100069361248
 20
121.8065803409609
 30
0.0
  0
POINT
  5
14EE3
330
DC06
100
AcDbEntity
  8
Defpoints
 62
     0
100
AcDbPoint
 10
165.4021474441824
 20
85.47411790035903
 30
0.0
  0
POINT
  5
14EE4
330
DC06
100
AcDbEntity
  8
Defpoints
 62
     0
100
AcDbPoint
 10
194.70996174607
 20
85.47411790035903
 30
0.0
  0
ENDBLK
  5
DC08
330
DC06
100
AcDbEntity
  8
0
100
AcDbBlockEnd
  0
BLOCK
  5
14C37
330
14C36
100
AcDbEntity
  8
0
100
AcDbBlockBegin
  2
*D18
 70
     1
 10
0.0
 20
0.0
 30
0.0
  3
*D18
  1

  0
LINE
  5
14EE5
330
14C36
100
AcDbEntity
  8
AM_5
100
AcDbLine
 10
123.4599739250378
 20
90.87411846449153
 30
0.0
 11
110.0100527146206
 21
90.87411846449153
 31
0.0
  0
LINE
  5
14EE6
330
14C36
100
AcDbEntity
  8
AM_5
100
AcDbLine
 10
123.0178093002632
 20
85.47411790035893
 30
0.0
 11
110.0100527146206
 21
85.47411790035893
 31
0.0
  0
LINE
  5
14EE7
330
14C36
100
AcDbEntity
  8
AM_5
100
AcDbLine
 10
111.0100527146206
 20
89.87411846449154
 30
0.0
 11
111.0100527146206
 21
86.47411790035894
 31
0.0
  0
LINE
  5
14EE8
330
14C36
100
AcDbEntity
  8
AM_5
100
AcDbLine
 10
111.0100527146206
 20
85.47411790035893
 30
0.0
 11
111.0100527146206
 21
76.67411790035894
 31
0.0
  0
INSERT
  5
14EE9
330
14C36
100
AcDbEntity
  8
AM_5
100
AcDbBlockReference
  2
_Dot
 10
111.0100527146206
 20
90.87411846449153
 30
0.0
 50
90.0
  0
INSERT
  5
14EEA
330
14C36
100
AcDbEntity
  8
AM_5
100
AcDbBlockReference
  2
_Dot
 10
111.0100527146206
 20
85.47411790035893
 30
0.0
 50
270.0
  0
MTEXT
  5
14EEB
330
14C36
100
AcDbEntity
  8
AM_5
 62
     2
100
AcDbMText
 10
107.9100527146207
 20
80.57411790035896
 30
0.0
 40
3.200000000000001
 41
0.0
 71
     5
 72
     1
  1
5.4
 11
0.0000000000000001
 21
1.0
 31
0.0
 73
     1
 44
1.0
1001
ACAD
1000
MTEXTBEGIN
1070
    73
1070
     1
1070
    44
1040
1.0
1070
    74
1070
     0
1000
MTEXTEND
  0
POINT
  5
14EEC
330
14C36
100
AcDbEntity
  8
Defpoints
 62
     0
100
AcDbPoint
 10
124.4599739250378
 20
90.87411846449153
 30
0.0
  0
POINT
  5
14EED
330
14C36
100
AcDbEntity
  8
Defpoints
 62
     0
100
AcDbPoint
 10
124.0178093002632
 20
85.47411790035893
 30
0.0
  0
POINT
  5
14EEE
330
14C36
100
AcDbEntity
  8
Defpoints
 62
     0
100
AcDbPoint
 10
111.0100527146206
 20
85.47411790035893
 30
0.0
  0
ENDBLK
  5
14C38
330
14C36
100
AcDbEntity
  8
0
100
AcDbBlockEnd
  0
BLOCK
  5
14CFD
330
14CFC
100
AcDbEntity
  8
0
100
AcDbBlockBegin
  2
*D19
 70
     1
 10
0.0
 20
0.0
 30
0.0
  3
*D19
  1

  0
LINE
  5
14EEF
330
14CFC
100
AcDbEntity
  8
AM_5
100
AcDbLine
 10
254.0548903495848
 20
212.3251307459463
 30
0.0
 11
254.0548903495848
 21
246.7378052146962
 31
0.0
  0
LINE
  5
14EF0
330
14CFC
100
AcDbEntity
  8
AM_5
100
AcDbLine
 10
290.5574850734149
 20
226.4378046368852
 30
0.0
 11
290.5574850734149
 21
246.7378052146962
 31
0.0
  0
LINE
  5
14EF1
330
14CFC
100
AcDbEntity
  8
AM_5
100
AcDbLine
 10
255.0548903495847
 20
245.7378052146962
 30
0.0
 11
289.5574850734149
 21
245.7378052146962
 31
0.0
  0
INSERT
  5
14EF2
330
14CFC
100
AcDbEntity
  8
AM_5
100
AcDbBlockReference
  2
_Dot
 10
254.0548903495848
 20
245.7378052146962
 30
0.0
 50
180.0
  0
INSERT
  5
14EF3
330
14CFC
100
AcDbEntity
  8
AM_5
100
AcDbBlockReference
  2
_Dot
 10
290.5574850734149
 20
245.7378052146962
 30
0.0
  0
MTEXT
  5
14EF4
330
14CFC
100
AcDbEntity
  8
AM_5
 62
     2
100
AcDbMText
 10
272.3061877114998
 20
248.8378052146962
 30
0.0
 40
3.200000000000001
 41
0.0
 71
     5
 72
     1
  1
36.5
 73
     1
 44
1.0
1001
ACAD
1000
MTEXTBEGIN
1070
    73
1070
     1
1070
    44
1040
1.0
1070
    74
1070
     0
1000
MTEXTEND
  0
POINT
  5
14EF5
330
14CFC
100
AcDbEntity
  8
Defpoints
 62
     0
100
AcDbPoint
 10
254.0548903495848
 20
211.3251307459464
 30
0.0
  0
POINT
  5
14EF6
330
14CFC
100
AcDbEntity
  8
Defpoints
 62
     0
100
AcDbPoint
 10
290.5574850734149
 20
225.4378046368852
 30
0.0
  0
POINT
  5
14EF7
330
14CFC
100
AcDbEntity
  8
Defpoints
 62
     0
100
AcDbPoint
 10
290.5574850734149
 20
245.7378052146962
 30
0.0
  0
ENDBLK
  5
14CFE
330
14CFC
100
AcDbEntity
  8
0
100
AcDbBlockEnd
  0
ENDSEC
  0
SECTION
  2
ENTITIES
  0
LINE
  5
C0A9
330
1F
100
AcDbEntity
  8
AM_0
100
AcDbLine
 10
114.7099842864375
 20
76.47385272045792
 30
0.0
 11
114.7099813671377
 21
75.47385272046179
 31
0.0
  0
ELLIPSE
  5
C0AA
330
1F
100
AcDbEntity
  8
AM_0
100
AcDbEllipse
 10
168.7099842862083
 20
76.47369507835995
 30
0.0
 11
-5.999999999974427
 21
0.0000175157886948
 31
0.0
210
0.0
220
0.0
230
1.0
 40
0.4166666666666666
 41
3.141592653589792
 42
4.712388935726528
  0
ELLIPSE
  5
C0AB
330
1F
100
AcDbEntity
  8
AM_0
100
AcDbEllipse
 10
120.7099842864174
 20
76.47383520466886
 30
0.0
 11
5.999999999974427
 21
-0.0000175157886941
 31
0.0
210
0.0
220
0.0
230
1.0
 40
0.4166666666666666
 41
1.570796326794901
 42
3.141592396358786
  0
LINE
  5
C0AD
330
1F
100
AcDbEntity
  8
AM_0
100
AcDbLine
 10
114.7099813671377
 20
75.47385272046179
 30
0.0
 11
174.7099842861792
 21
75.47367756178189
 31
0.0
  0
LINE
  5
C0AE
330
1F
100
AcDbEntity
  8
AM_0
100
AcDbLine
 10
120.7099915846577
 20
78.97383520465772
 30
0.0
 11
168.7099918523965
 21
78.97369507834881
 31
0.0
  0
LINE
  5
C0AF
330
1F
100
AcDbEntity
  8
AM_0
100
AcDbLine
 10
174.7099842861792
 20
76.47367756257065
 30
0.0
 11
174.7099842861792
 21
75.47367756178189
 31
0.0
  0
SPLINE
  5
C0CA
330
1F
100
AcDbEntity
  8
AM_0
100
AcDbSpline
210
0.0
220
0.0
230
1.0
 70
     8
 71
     3
 72
    16
 73
    12
 74
     0
 42
0.0000000001
 43
0.0000000001
 40
0.1165360534200915
 40
0.1165360534200915
 40
0.1165360534200915
 40
0.1165360534200915
 40
0.2500000000000002
 40
0.2500000000000002
 40
0.3750000000000001
 40
0.3750000000000001
 40
0.5
 40
0.5
 40
0.75
 40
0.75
 40
1.0
 40
1.0
 40
1.0
 40
1.0
 10
266.1810821715989
 20
224.4005965599258
 30
0.0
 10
267.5079731195719
 20
224.3707918197956
 30
0.0
 10
268.7322219742309
 20
224.3318671449247
 30
0.0
 10
271.1031415943319
 20
224.2681693875052
 30
0.0
 10
272.2498073576698
 20
224.242433263445
 30
0.0
 10
274.5433097769708
 20
224.2238625667464
 30
0.0
 10
275.6901531986327
 20
224.2323305786044
 30
0.0
 10
279.1310564344528
 20
224.3295418107041
 30
0.0
 10
281.4252395494259
 20
224.4808735260554
 30
0.0
 10
285.9977801470268
 20
224.891801848185
 30
0.0
 10
288.278879830837
 20
225.1516782855647
 30
0.0
 10
290.5574850734149
 20
225.4378046368852
 30
0.0
  0
SPLINE
  5
C0CC
330
1F
100
AcDbEntity
  8
AM_0
100
AcDbSpline
210
0.0
220
0.0
230
1.0
 70
     8
 71
     3
 72
    16
 73
    12
 74
     0
 42
0.0000000001
 43
0.0000000001
 40
0.0
 40
0.0
 40
0.0
 40
0.0
 40
0.2499999999999999
 40
0.2499999999999999
 40
0.5
 40
0.5
 40
0.625
 40
0.625
 40
0.7499999999999997
 40
0.7499999999999997
 40
0.8834084728049909
 40
0.8834084728049909
 40
0.8834084728049909
 40
0.8834084728049909
 10
290.5574850734149
 20
182.0378046368855
 30
0.0
 10
288.2799354281149
 20
182.3237984359652
 30
0.0
 10
285.9998946263929
 20
182.5835662879649
 30
0.0
 10
281.4294880874838
 20
182.9944049780347
 30
0.0
 10
279.13672509804
 20
183.1457554604653
 30
0.0
 10
275.6963408620759
 20
183.243179511795
 30
0.0
 10
274.5493740352829
 20
183.2517410651739
 30
0.0
 10
272.2551842710268
 20
183.233274020065
 30
0.0
 10
271.1079645556329
 20
183.2075570959655
 30
0.0
 10
268.736304571936
 20
183.143864963145
 30
0.0
 10
267.51201956001
 20
183.1049281484752
 30
0.0
 10
266.1811269535427
 20
183.0750068376251
 30
0.0
  0
LINE
  5
C0CE
330
1F
100
AcDbEntity
  8
AM_0
100
AcDbLine
 10
290.5574850734149
 20
182.0378046368855
 30
0.0
 11
290.5574850734149
 21
225.4378046368852
 31
0.0
  0
SPLINE
  5
C0DE
330
1F
100
AcDbEntity
  8
AM_0
100
AcDbSpline
210
0.0
220
0.0
230
1.0
 70
     8
 71
     3
 72
    14
 73
    10
 74
     0
 42
0.0000000001
 43
0.0000000001
 40
0.0
 40
0.0
 40
0.0
 40
0.0
 40
0.25
 40
0.25
 40
0.5
 40
0.5
 40
0.75
 40
0.75
 40
1.0
 40
1.0
 40
1.0
 40
1.0
 10
254.0548903495848
 20
211.3251307459464
 30
0.0
 10
254.0548903495848
 20
211.5100733988761
 30
0.0
 10
254.0800607142288
 20
211.6907294660755
 30
0.0
 10
254.1794468023287
 20
212.0436890344058
 30
0.0
 10
254.2538903399258
 20
212.2137820397143
 30
0.0
 10
254.4444612218768
 20
212.5250558191542
 30
0.0
 10
254.5630545281818
 20
212.669629766056
 30
0.0
 10
254.8308019972909
 20
212.9172549367245
 30
0.0
 10
254.9826878581487
 20
213.0235375294446
 30
0.0
 10
255.1475008253179
 20
213.1074450423635
 30
0.0
  0
ARC
  5
C0E0
330
1F
100
AcDbEntity
  8
AM_0
100
AcDbCircle
 10
256.0548903495838
 20
196.1504785275351
 30
0.0
 40
2.000000000000725
100
AcDbArc
 50
180.0
 51
243.019015668104
  0
SPLINE
  5
C0E2
330
1F
100
AcDbEntity
  8
AM_0
100
AcDbSpline
210
0.0
220
0.0
230
1.0
 70
     8
 71
     3
 72
    26
 73
    22
 74
     0
 42
0.0000000001
 43
0.0000000001
 40
0.0
 40
0.0
 40
0.0
 40
0.0
 40
0.1249999999999996
 40
0.1249999999999996
 40
0.2499999999999993
 40
0.2499999999999993
 40
0.3749999999999989
 40
0.3749999999999989
 40
0.4374999999999988
 40
0.4374999999999988
 40
0.4999999999999986
 40
0.4999999999999986
 40
0.6249999999999987
 40
0.6249999999999987
 40
0.6874999999999988
 40
0.6874999999999988
 40
0.7499999999999992
 40
0.7499999999999992
 40
0.8749999999999994
 40
0.8749999999999994
 40
0.9290120032399702
 40
0.9290120032399702
 40
0.9290120032399702
 40
0.9290120032399702
 10
257.2818818811448
 20
191.438990359376
 30
0.0
 10
257.3781713655459
 20
190.8405654776356
 30
0.0
 10
257.5273413064468
 20
190.257518423426
 30
0.0
 10
257.9296241182868
 20
189.1215120526353
 30
0.0
 10
258.1858820675019
 20
188.5653640452451
 30
0.0
 10
258.7788909990239
 20
187.5323900066537
 30
0.0
 10
259.1172082616469
 20
187.0490479853956
 30
0.0
 10
259.6856550465899
 20
186.3719653869752
 30
0.0
 10
259.8853616026949
 20
186.1543094204457
 30
0.0
 10
260.3056828966088
 20
185.7353730283262
 30
0.0
 10
260.5254876738599
 20
185.5351149652956
 30
0.0
 10
261.2016358612958
 20
184.9713294350054
 30
0.0
 10
261.6787889783269
 20
184.6402070099061
 30
0.0
 10
262.4327860566928
 20
184.2079576499959
 30
0.0
 10
262.6905335459698
 20
184.074679638526
 30
0.0
 10
263.2190771903139
 20
183.8300618428543
 30
0.0
 10
263.4913216882427
 20
183.7182531614139
 30
0.0
 10
264.3147038608707
 20
183.4216417597049
 30
0.0
 10
264.8730706521318
 20
183.2743563338458
 30
0.0
 10
265.6856690810279
 20
183.1329463479956
 30
0.0
 10
265.9325384057478
 20
183.0993419510337
 30
0.0
 10
266.1811269535427
 20
183.0750068376251
 30
0.0
  0
SPLINE
  5
C0E5
330
1F
100
AcDbEntity
  8
AM_0
100
AcDbSpline
210
0.0
220
0.0
230
1.0
 70
     8
 71
     3
 72
    14
 73
    10
 74
     0
 42
0.0000000001
 43
0.0000000001
 40
0.0
 40
0.0
 40
0.0
 40
0.0
 40
0.25
 40
0.25
 40
0.5
 40
0.5
 40
0.75
 40
0.75
 40
1.0
 40
1.0
 40
1.0
 40
1.0
 10
257.2819127976048
 20
191.4390592657942
 30
0.0
 10
257.231686408527
 20
191.7511697777349
 30
0.0
 10
257.1459734202427
 20
192.0511949265342
 30
0.0
 10
256.9061093015999
 20
192.6279378399063
 30
0.0
 10
256.7498059194887
 20
192.906101285525
 30
0.0
 10
256.3826643362128
 20
193.4102762704547
 30
0.0
 10
256.1689858420008
 20
193.6416396402742
 30
0.0
 10
255.6897696336608
 20
194.0506194952554
 30
0.0
 10
255.42921878962
 20
194.2247395107256
 30
0.0
 10
255.1475008253179
 20
194.3681642310944
 30
0.0
  0
LINE
  5
C0E6
330
1F
100
AcDbEntity
  8
AM_0
100
AcDbLine
 10
254.0548903495848
 20
196.1504785275351
 30
0.0
 11
254.0548903495848
 21
211.3251307459464
 31
0.0
  0
SPLINE
  5
C0E9
330
1F
100
AcDbEntity
  8
AM_0
100
AcDbSpline
210
0.0
220
0.0
230
1.0
 70
     8
 71
     3
 72
    26
 73
    22
 74
     0
 42
0.0000000001
 43
0.0000000001
 40
0.0711952884900387
 40
0.0711952884900387
 40
0.0711952884900387
 40
0.0711952884900387
 40
0.1250000000000003
 40
0.1250000000000003
 40
0.2500000000000007
 40
0.2500000000000007
 40
0.3750000000000011
 40
0.3750000000000011
 40
0.5000000000000016
 40
0.5000000000000016
 40
0.6250000000000017
 40
0.6250000000000017
 40
0.6875000000000016
 40
0.6875000000000016
 40
0.7500000000000016
 40
0.7500000000000016
 40
0.8750000000000007
 40
0.8750000000000007
 40
0.9375000000000003
 40
0.9375000000000003
 40
1.0
 40
1.0
 40
1.0
 40
1.0
 10
266.1810821715989
 20
224.4005965599258
 30
0.0
 10
265.9340231362447
 20
224.3764100205549
 30
0.0
 10
265.6885614256438
 20
224.3430586231038
 30
0.0
 10
264.8780716794949
 20
224.2023702424444
 30
0.0
 10
264.319967575858
 20
224.0555326025746
 30
0.0
 10
263.2215954742538
 20
223.660519270175
 30
0.0
 10
262.6938014027959
 20
223.4165625334749
 30
0.0
 10
261.6877269881228
 20
222.8412361993537
 30
0.0
 10
261.2067421185808
 20
222.5082811522256
 30
0.0
 10
260.300111119709
 20
221.7528258880971
 30
0.0
 10
259.8835512562479
 20
221.3382892142468
 30
0.0
 10
259.3136359304139
 20
220.6610480611848
 30
0.0
 10
259.1328710233539
 20
220.4260074381741
 30
0.0
 10
258.7904040347488
 20
219.9365971250968
 30
0.0
 10
258.6293226179779
 20
219.6828804184038
 30
0.0
 10
258.1835753521419
 20
218.9058292469049
 30
0.0
 10
257.9331747044008
 20
218.3627008561048
 30
0.0
 10
257.6300528618548
 20
217.5088357144154
 30
0.0
 10
257.5410480153808
 20
217.2166961919643
 30
0.0
 10
257.3911898259479
 20
216.6301518062951
 30
0.0
 10
257.329819537557
 20
216.334544347455
 30
0.0
 10
257.2818818811448
 20
216.0366189140946
 30
0.0
  0
SPLINE
  5
C0EC
330
1F
100
AcDbEntity
  8
AM_0
100
AcDbSpline
210
0.0
220
0.0
230
1.0
 70
     8
 71
     3
 72
    10
 73
     6
 74
     0
 42
0.0000000001
 43
0.0000000001
 40
0.0
 40
0.0
 40
0.0
 40
0.0
 40
0.5
 40
0.5
 40
1.0
 40
1.0
 40
1.0
 40
1.0
 10
255.1474863976467
 20
213.1074517877637
 30
0.0
 10
255.7061467220459
 20
213.3918756272537
 30
0.0
 10
256.1962880616669
 20
213.8097696673954
 30
0.0
 10
256.9346583204709
 20
214.8230822919045
 30
0.0
 10
257.1822921607128
 20
215.4176842114753
 30
0.0
 10
257.2818818811448
 20
216.0366189141055
 30
0.0
  0
LINE
  5
C144
330
1F
100
AcDbEntity
  8
AM_0
100
AcDbLine
 10
136.7099828266693
 20
85.47411790074582
 30
0.0
 11
136.7099828266693
 21
78.9737826573187
 31
0.0
  0
LINE
  5
C145
330
1F
100
AcDbEntity
  8
AM_0
100
AcDbLine
 10
152.7099828266568
 20
85.47411790074582
 30
0.0
 11
152.7099828266694
 21
78.97374762574171
 31
0.0
  0
LINE
  5
C149
330
1F
100
AcDbEntity
  8
AM_0
100
AcDbLine
 10
245.1334852208268
 20
211.9378043557749
 30
0.0
 11
245.1334852208268
 21
211.737804695525
 31
0.0
  0
LINE
  5
C14A
330
1F
100
AcDbEntity
  8
AM_0
100
AcDbLine
 10
245.1334852208268
 20
195.7378039355549
 30
0.0
 11
245.1334852208268
 21
195.5378042753141
 31
0.0
  0
LINE
  5
C14B
330
1F
100
AcDbEntity
  8
AM_0
100
AcDbLine
 10
246.6334845353738
 20
195.5378042753141
 30
0.0
 11
246.6334845353738
 21
195.7378039355549
 31
0.0
  0
LINE
  5
C14C
330
1F
100
AcDbEntity
  8
AM_0
100
AcDbLine
 10
246.6334845353738
 20
211.737804695525
 30
0.0
 11
246.6334845353738
 21
211.9378043557749
 31
0.0
  0
LINE
  5
C14D
330
1F
100
AcDbEntity
  8
AM_0
100
AcDbLine
 10
244.3906967707528
 20
211.7378042046961
 30
0.0
 11
244.3906967707528
 21
195.7378042046962
 31
0.0
  0
LINE
  5
C14F
330
1F
100
AcDbEntity
  8
AM_0
100
AcDbLine
 10
254.2005232585411
 20
195.7378037704674
 30
0.0
 11
245.1875647917798
 21
195.7378042046962
 31
0.0
  0
LINE
  5
C150
330
1F
100
AcDbEntity
  8
AM_0
100
AcDbLine
 10
245.1875647917798
 20
211.7378042046962
 30
0.0
 11
254.2004737436627
 21
211.7378049966124
 31
0.0
  0
LINE
  5
C151
330
1F
100
AcDbEntity
  8
AM_0
100
AcDbLine
 10
245.1875647917798
 20
195.7378042046962
 30
0.0
 11
244.3906967707528
 21
195.7378042046962
 31
0.0
  0
LINE
  5
C152
330
1F
100
AcDbEntity
  8
AM_0
100
AcDbLine
 10
244.3906967707528
 20
211.7378042046962
 30
0.0
 11
245.1875647917798
 21
211.7378042046962
 31
0.0
  0
LINE
  5
C156
330
1F
100
AcDbEntity
  8
AM_0
100
AcDbLine
 10
248.4356581112059
 20
211.9378042046769
 30
0.0
 11
247.5834863059788
 21
211.9378042046769
 31
0.0
  0
LINE
  5
C157
330
1F
100
AcDbEntity
  8
AM_0
100
AcDbLine
 10
248.4356581112059
 20
195.5378042047246
 30
0.0
 11
247.5834863059788
 21
195.5378042047246
 31
0.0
  0
LINE
  5
C158
330
1F
100
AcDbEntity
  8
AM_0
100
AcDbLine
 10
247.5834863059788
 20
195.5378042047246
 30
0.0
 11
244.1834880655768
 21
195.5378042047246
 31
0.0
  0
LINE
  5
C159
330
1F
100
AcDbEntity
  8
AM_0
100
AcDbLine
 10
247.5834863059788
 20
211.9378042046769
 30
0.0
 11
244.1834880655768
 21
211.9378042046769
 31
0.0
  0
LINE
  5
C15A
330
1F
100
AcDbEntity
  8
AM_0
100
AcDbLine
 10
244.1834880655768
 20
195.5378042047246
 30
0.0
 11
244.093587417583
 21
195.5378042047246
 31
0.0
  0
LINE
  5
C15B
330
1F
100
AcDbEntity
  8
AM_0
100
AcDbLine
 10
244.1834880655768
 20
211.9378042046769
 30
0.0
 11
244.093587417583
 21
211.9378042046769
 31
0.0
  0
LINE
  5
C15C
330
1F
100
AcDbEntity
  8
AM_0
100
AcDbLine
 10
249.8834836711058
 20
195.5378042753141
 30
0.0
 11
248.4356581112059
 21
195.5378042047246
 31
0.0
  0
LINE
  5
C15D
330
1F
100
AcDbEntity
  8
AM_0
100
AcDbLine
 10
249.883487396397
 20
211.9378043557749
 30
0.0
 11
248.4356581112059
 21
211.9378042046769
 31
0.0
  0
LINE
  5
C15E
330
1F
100
AcDbEntity
  8
AM_0
100
AcDbLine
 10
250.6834860374109
 20
195.1378040234845
 30
0.0
 11
250.2834867169038
 21
195.5378042753141
 31
0.0
  0
LINE
  5
C15F
330
1F
100
AcDbEntity
  8
AM_0
100
AcDbLine
 10
250.2834867169038
 20
211.9378043557749
 30
0.0
 11
250.6834860374109
 21
212.3378036762856
 31
0.0
  0
LINE
  5
C162
330
1F
100
AcDbEntity
  8
AM_0
100
AcDbLine
 10
250.2834867169038
 20
211.9378043557749
 30
0.0
 11
249.883487396397
 21
211.9378043557749
 31
0.0
  0
LINE
  5
C163
330
1F
100
AcDbEntity
  8
AM_0
100
AcDbLine
 10
249.8834836711058
 20
195.5378042753141
 30
0.0
 11
250.2834867169038
 21
195.5378042753141
 31
0.0
  0
LINE
  5
C165
330
1F
100
AcDbEntity
  8
AM_0
100
AcDbLine
 10
254.4328176668019
 20
212.3378034137854
 30
0.0
 11
244.5834853661429
 21
212.3378042046947
 31
0.0
  0
LINE
  5
C166
330
1F
100
AcDbEntity
  8
AM_0
100
AcDbLine
 10
244.5834853661429
 20
195.1378042046958
 30
0.0
 11
254.4328140420262
 21
195.1378039334603
 31
0.0
  0
ARC
  5
C167
330
1F
100
AcDbEntity
  8
AM_0
100
AcDbCircle
 10
244.5834853661418
 20
211.8378042046838
 30
0.0
 40
0.5
100
AcDbArc
 50
90.0
 51
180.0
  0
ARC
  5
C168
330
1F
100
AcDbEntity
  8
AM_0
100
AcDbCircle
 10
244.5834853661418
 20
195.6378042046958
 30
0.0
 40
0.5
100
AcDbArc
 50
180.0
 51
270.0
  0
LINE
  5
C169
330
1F
100
AcDbEntity
  8
AM_0
100
AcDbLine
 10
244.0834853661429
 20
211.8378042046838
 30
0.0
 11
244.0834853661429
 21
195.6378042046958
 31
0.0
  0
LINE
  5
C16A
330
1F
100
AcDbEntity
  8
AM_0
100
AcDbLine
 10
250.6834860374109
 20
195.1378040234845
 30
0.0
 11
250.2834867169038
 21
195.5378042753141
 31
0.0
  0
LINE
  5
C16B
330
1F
100
AcDbEntity
  8
AM_0
100
AcDbLine
 10
250.2834867169038
 20
211.9378043557749
 30
0.0
 11
250.6834860374109
 21
212.3378036762856
 31
0.0
  0
LINE
  5
C16C
330
1F
100
AcDbEntity
  8
AM_0
100
AcDbLine
 10
250.2834867169038
 20
211.9378043557749
 30
0.0
 11
249.883487396397
 21
211.9378043557749
 31
0.0
  0
LINE
  5
C16D
330
1F
100
AcDbEntity
  8
AM_0
100
AcDbLine
 10
249.8834836711058
 20
195.5378042753141
 30
0.0
 11
250.2834867169038
 21
195.5378042753141
 31
0.0
  0
LINE
  5
C306
330
1F
100
AcDbEntity
  8
AM_0
100
AcDbLine
 10
11.50000000000002
 20
288.5
 30
0.0
 11
121.5
 21
288.5
 31
0.0
  0
LINE
  5
C307
330
1F
100
AcDbEntity
  8
AM_2
100
AcDbLine
 10
11.5
 20
240.5
 30
0.0
 11
121.5
 21
240.5
 31
0.0
  0
LINE
  5
C30A
330
1F
100
AcDbEntity
  8
AM_2
100
AcDbLine
 10
31.50000000000004
 20
248.5
 30
0.0
 11
121.5
 21
248.5
 31
0.0
  0
LINE
  5
C30B
330
1F
100
AcDbEntity
  8
AM_2
100
AcDbLine
 10
11.50000000000003
 20
256.5
 30
0.0
 11
121.5
 21
256.5
 31
0.0
  0
LINE
  5
C30C
330
1F
100
AcDbEntity
  8
AM_2
100
AcDbLine
 10
11.50000000000003
 20
272.5
 30
0.0
 11
121.5
 21
272.5
 31
0.0
  0
LINE
  5
C30D
330
1F
100
AcDbEntity
  8
AM_2
100
AcDbLine
 10
11.50000000000003
 20
280.5
 30
0.0
 11
121.5
 21
280.5
 31
0.0
  0
LINE
  5
C30F
330
1F
100
AcDbEntity
  8
AM_0
100
AcDbLine
 10
11.50000000000002
 20
288.5
 30
0.0
 11
11.5
 21
240.5
 31
0.0
  0
LINE
  5
C310
330
1F
100
AcDbEntity
  8
AM_2
100
AcDbLine
 10
31.50000000000003
 20
288.5
 30
0.0
 11
31.50000000000001
 21
232.5
 31
0.0
  0
MTEXT
  5
C312
330
1F
100
AcDbEntity
  8
AM_6
100
AcDbMText
 10
21.50000000000003
 20
264.5
 30
0.0
 40
3.2
 41
20.0
 71
     5
 72
     5
  1
品番・仕上げ
 73
     1
 44
1.0
1001
ACAD
1000
MTEXTBEGIN
1070
    73
1070
     1
1070
    44
1040
1.0
1070
    74
1070
     0
1000
MTEXTEND
  0
MTEXT
  5
C313
330
1F
100
AcDbEntity
  8
AM_6
100
AcDbMText
 10
21.50000000000003
 20
248.5
 30
0.0
 40
3.2
 41
20.0
 71
     5
 72
     5
  1
セットビス
 73
     1
 44
1.0
1001
ACAD
1000
MTEXTBEGIN
1070
    73
1070
     1
1070
    44
1040
1.0
1070
    74
1070
     0
1000
MTEXTEND
  0
MTEXT
  5
C314
330
1F
100
AcDbEntity
  8
AM_6
100
AcDbMText
 10
21.50000000000003
 20
276.5
 30
0.0
 40
3.2
 41
20.0
 71
     5
 72
     5
  1
材　質
 73
     1
 44
1.0
1001
ACAD
1000
MTEXTBEGIN
1070
    73
1070
     1
1070
    44
1040
1.0
1070
    74
1070
     0
1000
MTEXTEND
  0
MTEXT
  5
C315
330
1F
100
AcDbEntity
  8
AM_6
100
AcDbMText
 10
21.50000000000003
 20
284.5
 30
0.0
 40
3.2
 41
20.0
 71
     5
 72
     5
  1
品　名
 73
     1
 44
1.0
1001
ACAD
1000
MTEXTBEGIN
1070
    73
1070
     1
1070
    44
1040
1.0
1070
    74
1070
     0
1000
MTEXTEND
  0
MTEXT
  5
C317
330
1F
100
AcDbEntity
  8
AM_6
100
AcDbMText
 10
36.50000000000004
 20
252.5
 30
0.0
 40
3.2
 41
90.0
 71
     4
 72
     5
  1
呼び3×16サラタッピンネジ + Fe：3本
 73
     1
 44
1.0
1001
ACAD
1000
MTEXTBEGIN
1070
    73
1070
     1
1070
    44
1040
1.0
1070
    74
1070
     0
1000
MTEXTEND
  0
MTEXT
  5
C318
330
1F
100
AcDbEntity
  8
AM_6
100
AcDbMText
 10
36.50000000000003
 20
276.5
 30
0.0
 40
3.2
 41
90.0
 71
     4
 72
     5
  1
ABS
 73
     1
 44
1.0
1001
ACAD
1000
MTEXTBEGIN
1070
    73
1070
     1
1070
    44
1040
1.0
1070
    74
1070
     0
1000
MTEXTEND
  0
MTEXT
  5
C31A
330
1F
100
AcDbEntity
  8
AM_6
100
AcDbMText
 10
36.50000000000003
 20
284.5
 30
0.0
 40
3.2
 41
90.0
 71
     4
 72
     5
  1
ドアストッパー（プッシュロックタイプ）
 73
     1
 44
1.0
1001
ACAD
1000
MTEXTBEGIN
1070
    73
1070
     1
1070
    44
1040
1.0
1070
    74
1070
     0
1000
MTEXTEND
  0
LINE
  5
C31B
330
1F
100
AcDbEntity
  8
AM_0
100
AcDbLine
 10
121.5
 20
288.5
 30
0.0
 11
121.5
 21
232.5
 31
0.0
  0
MTEXT
  5
C31C
330
1F
100
AcDbEntity
  8
AM_6
100
AcDbMText
 10
36.50000000000004
 20
244.5
 30
0.0
 40
3.2
 41
90.0
 71
     4
 72
     5
  1
呼び3.5×16トラスタッピンネジ + Fe：4本
 73
     1
 44
1.0
1001
ACAD
1000
MTEXTBEGIN
1070
    73
1070
     1
1070
    44
1040
1.0
1070
    74
1070
     0
1000
MTEXTEND
  0
LINE
  5
C320
330
1F
100
AcDbEntity
  8
AM_2
100
AcDbLine
 10
31.50000000000002
 20
264.5
 30
0.0
 11
121.5
 21
264.5
 31
0.0
  0
MTEXT
  5
C322
330
1F
100
AcDbEntity
  8
AM_6
100
AcDbMText
 10
36.17864283800919
 20
268.5
 30
0.0
 40
3.2
 41
90.0
 71
     4
 72
     5
  1
DCI-83C：クロームメッキ
 73
     1
 44
1.0
1001
ACAD
1000
MTEXTBEGIN
1070
    73
1070
     1
1070
    44
1040
1.0
1070
    74
1070
     0
1000
MTEXTEND
  0
MTEXT
  5
C323
330
1F
100
AcDbEntity
  8
AM_6
100
AcDbMText
 10
36.50000000000003
 20
260.5
 30
0.0
 40
3.2
 41
90.0
 71
     4
 72
     5
  1
DCI-83S：シルバー塗装
 73
     1
 44
1.0
1001
ACAD
1000
MTEXTBEGIN
1070
    73
1070
     1
1070
    44
1040
1.0
1070
    74
1070
     0
1000
MTEXTEND
  0
LINE
  5
C374
330
1F
100
AcDbEntity
  8
AM_0
100
AcDbLine
 10
292.9913784595834
 20
75.47376514190353
 30
0.0
 11
292.9913805030907
 21
76.1737651418997
 31
0.0
  0
LWPOLYLINE
  5
C375
330
1F
100
AcDbEntity
  8
AM_0
100
AcDbPolyline
 90
        6
 70
     0
 43
0.0
 10
293.0200112266618
 20
76.47376505831914
 10
293.0108390441388
 20
76.45673316202453
 10
293.0024224705018
 20
76.40752659381348
 10
292.9958665547261
 20
76.33175391812608
 10
292.9920858633692
 20
76.23830552337484
 10
292.9913805030907
 20
76.1737651418997
  0
LINE
  5
C376
330
1F
100
AcDbEntity
  8
AM_0
100
AcDbLine
 10
233.1417582659366
 20
76.47393986079066
 30
0.0
 11
233.1417553466405
 21
75.47393986079521
 31
0.0
  0
ELLIPSE
  5
C377
330
1F
100
AcDbEntity
  8
AM_0
100
AcDbEllipse
 10
287.1417582657074
 20
76.47378221869246
 30
0.0
 11
-5.999999999974427
 21
0.0000175157886948
 31
0.0
210
0.0
220
0.0
230
1.0
 40
0.4166666666666666
 41
3.141592653589792
 42
4.712388935726528
  0
ELLIPSE
  5
C378
330
1F
100
AcDbEntity
  8
AM_0
100
AcDbEllipse
 10
239.1417582659166
 20
76.47392234500137
 30
0.0
 11
5.999999999974427
 21
-0.0000175157886941
 31
0.0
210
0.0
220
0.0
230
1.0
 40
0.4166666666666666
 41
1.570796326794901
 42
3.141592396358786
  0
LINE
  5
C379
330
1F
100
AcDbEntity
  8
AM_0
100
AcDbLine
 10
293.0200112266626
 20
76.47376505832088
 30
0.0
 11
293.1417582656819
 21
76.47376470290499
 31
0.0
  0
LINE
  5
C37A
330
1F
100
AcDbEntity
  8
AM_0
100
AcDbLine
 10
233.1417553466405
 20
75.47393986079521
 30
0.0
 11
292.9913784595834
 21
75.47376514111954
 31
0.0
  0
LINE
  5
C37B
330
1F
100
AcDbEntity
  8
AM_0
100
AcDbLine
 10
239.1417655641568
 20
78.97392234499045
 30
0.0
 11
287.141765831903
 21
78.97378221868155
 31
0.0
  0
LINE
  5
C37D
330
1F
100
AcDbEntity
  8
AM_7
 48
0.5
100
AcDbLine
 10
249.483485366142
 20
188.2034435132259
 30
0.0
 11
261.283485366142
 21
188.2034435132259
 31
0.0
1001
GENIUS_GENODEF_13
1002
{
1000
HIER
1070
     0
1002
}
1002
{
1000
MANEDIT
1070
     0
1002
}
1002
{
1000
NOSEL
1070
     0
1002
}
1002
{
1000
BEHIND
1070
     0
1002
}
1002
{
1000
OTHER
1070
     0
1002
}
1002
{
1000
REACTOR
1002
}
1001
GENIUS_GENOBJ-N-CEN_13
1002
{
1000
OWNER
1000
GEN
1002
}
1001
GENIUS_GENCEN_19
1002
{
1040
3.0
1002
}
  0
LINE
  5
C37E
330
1F
100
AcDbEntity
  8
AM_7
 48
0.5
100
AcDbLine
 10
255.3834853661419
 20
194.1034435132259
 30
0.0
 11
255.3834853661419
 21
182.3034435132259
 31
0.0
1001
GENIUS_GENODEF_13
1002
{
1000
HIER
1070
     0
1002
}
1002
{
1000
MANEDIT
1070
     0
1002
}
1002
{
1000
NOSEL
1070
     0
1002
}
1002
{
1000
BEHIND
1070
     0
1002
}
1002
{
1000
OTHER
1070
     0
1002
}
1002
{
1000
REACTOR
1002
}
1001
GENIUS_GENOBJ-N-CEN_13
1002
{
1000
OWNER
1000
GEN
1002
}
1001
GENIUS_GENCEN_19
1002
{
1040
3.0
1002
}
  0
LINE
  5
C37F
330
1F
100
AcDbEntity
  8
AM_7
 48
0.5
100
AcDbLine
 10
249.4834853661429
 20
220.2034435132241
 30
0.0
 11
261.2834853661429
 21
220.2034435132241
 31
0.0
1001
GENIUS_GENODEF_13
1002
{
1000
HIER
1070
     0
1002
}
1002
{
1000
MANEDIT
1070
     0
1002
}
1002
{
1000
NOSEL
1070
     0
1002
}
1002
{
1000
BEHIND
1070
     0
1002
}
1002
{
1000
OTHER
1070
     0
1002
}
1002
{
1000
REACTOR
1002
}
1001
GENIUS_GENOBJ-N-CEN_13
1002
{
1000
OWNER
1000
GEN
1002
}
1001
GENIUS_GENCEN_19
1002
{
1040
3.0
1002
}
  0
LINE
  5
C380
330
1F
100
AcDbEntity
  8
AM_7
 48
0.5
100
AcDbLine
 10
255.3834853661428
 20
226.1034435132241
 30
0.0
 11
255.3834853661428
 21
214.3034435132241
 31
0.0
1001
GENIUS_GENODEF_13
1002
{
1000
HIER
1070
     0
1002
}
1002
{
1000
MANEDIT
1070
     0
1002
}
1002
{
1000
NOSEL
1070
     0
1002
}
1002
{
1000
BEHIND
1070
     0
1002
}
1002
{
1000
OTHER
1070
     0
1002
}
1002
{
1000
REACTOR
1002
}
1001
GENIUS_GENOBJ-N-CEN_13
1002
{
1000
OWNER
1000
GEN
1002
}
1001
GENIUS_GENCEN_19
1002
{
1040
3.0
1002
}
  0
LINE
  5
C382
330
1F
100
AcDbEntity
  8
AM_7
 48
0.5
100
AcDbLine
 10
238.0834853661438
 20
213.0957156950304
 30
0.0
 11
238.0834853661438
 21
194.6378044207085
 31
0.0
1001
GENIUS_GENODEF_13
1002
{
1000
HIER
1070
     0
1002
}
1002
{
1000
MANEDIT
1070
     0
1002
}
1002
{
1000
NOSEL
1070
     0
1002
}
1002
{
1000
BEHIND
1070
     0
1002
}
1002
{
1000
OTHER
1070
     0
1002
}
1002
{
1000
REACTOR
1002
}
1001
GENIUS_GENOBJ-N-CEN_13
1002
{
1000
OWNER
1000
GEN
1002
}
1001
GENIUS_GENCEN_19
1002
{
1040
3.0
1002
}
  0
DIMENSION
  5
C383
330
1F
100
AcDbEntity
  8
AM_5
100
AcDbDimension
  2
*D6
 10
218.0834853661411
 20
220.2034435132241
 30
0.0
 11
214.983485366141
 21
204.2034435132251
 31
0.0
 70
    32
 71
     5
 42
31.99999999999818
  3
SYS$0
100
AcDbAlignedDimension
 13
249.483485366142
 23
188.2034435132259
 33
0.0
 14
249.4834853661429
 24
220.2034435132241
 34
0.0
 50
90.0
100
AcDbRotatedDimension
1001
ACAD_DSTYLE_DIMINSPECT
1070
   396
1000
100%
1070
   395
1000

1070
   394
1070
    33
1070
   393
1070
     0
  0
DIMENSION
  5
C3AC
330
1F
100
AcDbEntity
  8
AM_5
100
AcDbDimension
  2
*D7
 10
255.3834853661419
 20
161.7378042046962
 30
0.0
 11
246.7334853661429
 21
164.8378042046962
 31
0.0
 70
    32
 71
     5
 42
17.29999999999808
  3
SYS$0
100
AcDbAlignedDimension
 13
238.0834853661438
 23
194.6378044207085
 33
0.0
 14
255.3834853661419
 24
182.3034435132259
 34
0.0
 50
180.0
100
AcDbRotatedDimension
1001
ACAD_DSTYLE_DIMINSPECT
1070
   396
1000
100%
1070
   395
1000

1070
   394
1070
    33
1070
   393
1070
     0
  0
DIMENSION
  5
C40D
330
1F
100
AcDbEntity
  8
AM_5
100
AcDbDimension
  2
*D8
 10
260.0834853661408
 20
161.7378042046962
 30
0.0
 11
265.9301520328075
 21
164.8378042046962
 31
0.0
 70
    32
 71
     5
 42
4.699999999998908
  3
SYS$0
100
AcDbAlignedDimension
 13
255.3834853661419
 23
182.3034435132259
 33
0.0
 14
260.0834853661408
 24
170.7378042046962
 34
0.0
 50
180.0
100
AcDbRotatedDimension
1001
ACAD_DSTYLE_DIMINSPECT
1070
   396
1000
100%
1070
   395
1000

1070
   394
1070
    33
1070
   393
1070
     0
  0
LINE
  5
C43D
330
1F
100
AcDbEntity
  8
AM_7
 48
0.9
100
AcDbLine
 10
260.0834853661408
 20
170.7378042046962
 30
0.0
 11
260.0834853661408
 21
236.7378042046962
 31
0.0
1001
GENIUS_GENOBJ-N-CEN_13
1002
{
1000
OWNER
1000
GEN
1002
}
1001
GENIUS_GENODEF_13
1002
{
1000
HIER
1070
     0
1002
}
1002
{
1000
MANEDIT
1070
     0
1002
}
1002
{
1000
NOSEL
1070
     0
1002
}
1002
{
1000
BEHIND
1070
     0
1002
}
1002
{
1000
OTHER
1070
     0
1002
}
1002
{
1000
REACTOR
1002
}
1001
GENIUS_GENCEN_19
1002
{
1040
3.0
1002
}
  0
LINE
  5
C453
330
1F
100
AcDbEntity
  8
AM_7
 48
0.9
100
AcDbLine
 10
227.0834853661408
 20
203.7378041830948
 30
0.0
 11
293.0834853661409
 21
203.7378046583258
 31
0.0
1001
GENIUS_GENODEF_13
1002
{
1000
HIER
1070
     0
1002
}
1002
{
1000
MANEDIT
1070
     0
1002
}
1002
{
1000
NOSEL
1070
     0
1002
}
1002
{
1000
BEHIND
1070
     0
1002
}
1002
{
1000
OTHER
1070
     0
1002
}
1002
{
1000
REACTOR
1002
}
1001
GENIUS_GENOBJ-N-CEN_13
1002
{
1000
OWNER
1000
GEN
1002
}
1001
GENIUS_GENCEN_19
1002
{
1040
3.0
1002
}
  0
DIMENSION
  5
C5C4
330
1F
100
AcDbEntity
  8
AM_5
100
AcDbDimension
  2
*D9
 10
111.0100430662905
 20
102.8741179007438
 30
0.0
 11
107.9100430662905
 21
107.5241179007724
 31
0.0
 70
    32
 71
     5
 42
9.300000000057053
  3
SYS$0
100
AcDbAlignedDimension
 13
124.4599828266985
 23
112.1741179008009
 33
0.0
 14
124.4599828266693
 24
102.8741179007438
 34
0.0
 50
90.0
100
AcDbRotatedDimension
1001
ACAD_DSTYLE_DIMINSPECT
1070
   396
1000
100%
1070
   395
1000

1070
   394
1070
    33
1070
   393
1070
     0
  0
DIMENSION
  5
C5EC
330
1F
100
AcDbEntity
  8
AM_5
100
AcDbDimension
  2
*D10
 10
111.0100430662905
 20
90.87411846487297
 30
0.0
 11
107.9100430662905
 21
96.87411818280843
 31
0.0
 70
    32
 71
     5
 42
11.99999943587087
  3
SYS$0
100
AcDbAlignedDimension
 13
124.4599828266693
 23
102.8741179007438
 33
0.0
 14
124.4599828266693
 24
90.87411846487297
 34
0.0
 50
90.0
100
AcDbRotatedDimension
1001
ACAD_DSTYLE_DIMINSPECT
1070
   396
1000
100%
1070
   395
1000

1070
   394
1070
    33
1070
   393
1070
     0
  0
LINE
  5
C6E8
330
1F
100
AcDbEntity
  8
AM_7
100
AcDbLine
 10
144.7099812967236
 20
72.47376514112223
 30
0.0
 11
144.7100084956564
 21
124.807277646515
 31
0.0
1001
GENIUS_GENODEF_13
1002
{
1000
HIER
1070
     0
1002
}
1002
{
1000
MANEDIT
1070
     0
1002
}
1002
{
1000
NOSEL
1070
     0
1002
}
1002
{
1000
BEHIND
1070
     0
1002
}
1002
{
1000
OTHER
1070
     0
1002
}
1002
{
1000
REACTOR
1002
}
1001
GENIUS_GENOBJ-N-CEN_13
1002
{
1000
OWNER
1000
GEN
1002
}
1001
GENIUS_GENCEN_19
1002
{
1040
3.0
1002
}
  0
DIMENSION
  5
C6FB
330
1F
100
AcDbEntity
  8
AM_5
100
AcDbDimension
  2
*D11
 10
159.709982812581
 20
131.8065805512603
 30
0.0
 11
144.7099828196414
 21
134.9065805512603
 31
0.0
 70
    32
 71
     5
 42
29.99999998587913
  3
SYS$0
100
AcDbAlignedDimension
 13
129.7099828267019
 23
117.0909581550309
 33
0.0
 14
159.709982812581
 24
117.0909582956052
 34
0.0
100
AcDbRotatedDimension
1001
ACAD_DSTYLE_DIMINSPECT
1070
   396
1000
100%
1070
   395
1000

1070
   394
1070
    33
1070
   393
1070
     0
  0
DIMENSION
  5
D4CA
330
1F
100
AcDbEntity
  8
AM_5
100
AcDbDimension
  2
*D13
 10
194.7099842861792
 20
75.47385272046179
 30
0.0
 11
191.6099842861791
 21
62.16851938712848
 31
0.0
 70
    32
  1
11±2（推奨10）
 71
     5
 42
10.00026518028403
  3
SYS$0
100
AcDbAlignedDimension
 13
165.4022076837933
 23
85.47411790074582
 33
0.0
 14
174.710035624175
 24
75.47385272046179
 34
0.0
 50
90.0
100
AcDbRotatedDimension
1001
ACAD_DSTYLE_DIMINSPECT
1070
   396
1000
100%
1070
   395
1000

1070
   394
1070
    33
1070
   393
1070
     0
1001
ACAD
1000
DSTYLE
1002
{
1070
    47
1040
2.0
1070
    48
1040
2.0
1002
}
  0
DIMENSION
  5
D50C
330
1F
100
AcDbEntity
  8
AM_5
100
AcDbDimension
  2
*D14
 10
184.7099842861791
 20
75.47376514073278
 30
0.0
 11
181.6099842861791
 21
69.62709847406614
 31
0.0
 70
    32
 71
     5
 42
3.499929937616514
  3
SYS$0
100
AcDbAlignedDimension
 13
168.7099915844536
 23
78.97369507834929
 33
0.0
 14
174.7099842861792
 24
75.47376514073278
 34
0.0
 50
90.0
100
AcDbRotatedDimension
1001
ACAD_DSTYLE_DIMINSPECT
1070
   396
1000
100%
1070
   395
1000

1070
   394
1070
    33
1070
   393
1070
     0
1001
ACAD
1000
DSTYLE
1002
{
1070
    76
1070
     1
1002
}
  0
DIMENSION
  5
D564
330
1F
100
AcDbEntity
  8
AM_5
100
AcDbDimension
  2
*D15
 10
166.4099828266537
 20
141.8065805512603
 30
0.0
 11
144.7099828266612
 21
144.9065805512603
 31
0.0
 70
    32
 71
     5
 42
43.39999999998508
  3
SYS$0
100
AcDbAlignedDimension
 13
123.0099828266686
 23
113.1695337223169
 33
0.0
 14
166.4099828266537
 24
113.1695337223169
 34
0.0
100
AcDbRotatedDimension
1001
ACAD_DSTYLE_DIMINSPECT
1070
   396
1000
100%
1070
   395
1000

1070
   394
1070
    33
1070
   393
1070
     0
  0
DIMENSION
  5
D988
330
1F
100
AcDbEntity
  8
AM_5
100
AcDbDimension
  2
*D16
 10
208.0834853661411
 20
173.7378042046962
 30
0.0
 11
204.9834853661411
 21
203.7378042046963
 31
0.0
 70
    32
  1
%%c<>
 71
     5
 42
59.99999999999997
  3
SYS$0
100
AcDbAlignedDimension
 13
260.0834853661408
 23
233.7378042046962
 33
0.0
 14
260.0834853661408
 24
173.7378042046962
 34
0.0
 50
90.0
100
AcDbRotatedDimension
1001
ACAD_DSTYLE_DIMINSPECT
1070
   396
1000
100%
1070
   395
1000

1070
   394
1070
    33
1070
   393
1070
     0
  0
CIRCLE
  5
DA44
330
1F
100
AcDbEntity
  8
AM_3
 48
0.4
100
AcDbCircle
 10
255.3834853661411
 20
220.2034435132241
 30
0.0
 40
3.0
  0
ARC
  5
DA46
330
1F
100
AcDbEntity
  8
AM_3
 48
0.5
100
AcDbCircle
 10
238.0834853657263
 20
200.4878041830948
 30
0.0
 40
3.1
100
AcDbArc
 50
180.0
 51
0.0
  0
CIRCLE
  5
DA47
330
1F
100
AcDbEntity
  8
AM_3
100
AcDbCircle
 10
255.3834853657262
 20
188.2034435132213
 30
0.0
 40
3.1
  0
ARC
  5
DA48
330
1F
100
AcDbEntity
  8
AM_3
 48
0.5
100
AcDbCircle
 10
238.0834853657263
 20
200.4878041830948
 30
0.0
 40
2.0
100
AcDbArc
 50
180.0
 51
0.0
  0
CIRCLE
  5
DA49
330
1F
100
AcDbEntity
  8
AM_3
100
AcDbCircle
 10
255.383485365726
 20
220.2034435132241
 30
0.0
 40
2.0
  0
LINE
  5
DA4A
330
1F
100
AcDbEntity
  8
AM_3
 48
0.5
100
AcDbLine
 10
241.1834853661437
 20
206.9878041830948
 30
0.0
 11
241.1834853657262
 21
200.4878041830948
 31
0.0
  0
ARC
  5
DA4B
330
1F
100
AcDbEntity
  8
AM_3
 48
0.5
100
AcDbCircle
 10
238.0834853661438
 20
206.9878041830948
 30
0.0
 40
3.1
100
AcDbArc
 50
0.0
 51
180.0
  0
LINE
  5
DA4C
330
1F
100
AcDbEntity
  8
AM_3
 48
0.5
100
AcDbLine
 10
234.9834853657263
 20
200.4878041830948
 30
0.0
 11
234.9834853661439
 21
206.9878041830943
 31
0.0
  0
LINE
  5
DA4D
330
1F
100
AcDbEntity
  8
AM_3
 48
0.5
100
AcDbLine
 10
236.0834853661438
 20
206.9878041830948
 30
0.0
 11
236.0834853657263
 21
200.4878041830948
 31
0.0
  0
LINE
  5
DA4E
330
1F
100
AcDbEntity
  8
AM_3
 48
0.5
100
AcDbLine
 10
240.0834853657263
 20
200.4878041830948
 30
0.0
 11
240.0834853661439
 21
206.9878041830948
 31
0.0
  0
ARC
  5
DA4F
330
1F
100
AcDbEntity
  8
AM_3
 48
0.5
100
AcDbCircle
 10
238.0834853661438
 20
206.9878041830948
 30
0.0
 40
2.0
100
AcDbArc
 50
0.0
 51
180.0
  0
CIRCLE
  5
DA51
330
1F
100
AcDbEntity
  8
AM_3
100
AcDbCircle
 10
255.383485365726
 20
188.2034435132259
 30
0.0
 40
2.0
  0
LINE
  5
DB58
330
1F
100
AcDbEntity
  8
AM_7
 48
0.5
100
AcDbLine
 10
231.9834853661439
 20
206.9878041830948
 30
0.0
 11
244.1834853661438
 21
206.9878041830948
 31
0.0
1001
GENIUS_GENODEF_13
1002
{
1000
HIER
1070
     0
1002
}
1002
{
1000
MANEDIT
1070
     0
1002
}
1002
{
1000
NOSEL
1070
     0
1002
}
1002
{
1000
BEHIND
1070
     0
1002
}
1002
{
1000
OTHER
1070
     0
1002
}
1002
{
1000
REACTOR
1002
}
1001
GENIUS_GENOBJ-N-CEN_13
1002
{
1000
OWNER
1000
GEN
1002
}
1001
GENIUS_GENCEN_19
1002
{
1040
3.0
1002
}
  0
LINE
  5
DB59
330
1F
100
AcDbEntity
  8
AM_7
 48
0.5
100
AcDbLine
 10
244.1834853657263
 20
200.487804182902
 30
0.0
 11
231.9834853657262
 21
200.4878041836859
 31
0.0
1001
GENIUS_GENOBJ-N-CEN_13
1002
{
1000
OWNER
1000
GEN
1002
}
1001
GENIUS_GENODEF_13
1002
{
1000
HIER
1070
     0
1002
}
1002
{
1000
MANEDIT
1070
     0
1002
}
1002
{
1000
NOSEL
1070
     0
1002
}
1002
{
1000
BEHIND
1070
     0
1002
}
1002
{
1000
OTHER
1070
     0
1002
}
1002
{
1000
REACTOR
1002
}
1001
GENIUS_GENCEN_19
1002
{
1040
3.0
1002
}
  0
DIMENSION
  5
DC05
330
1F
100
AcDbEntity
  8
AM_5
100
AcDbDimension
  2
*D17
 10
194.70996174607
 20
85.47411790035903
 30
0.0
 11
191.60996174607
 21
103.64034912066
 31
0.0
 70
    32
 71
     5
 42
36.33246244060187
  3
SYS$0
100
AcDbAlignedDimension
 13
144.7100069361248
 23
121.8065803409609
 33
0.0
 14
165.4021474441824
 24
85.47411790035903
 34
0.0
 50
89.99996412630208
100
AcDbRotatedDimension
1001
ACAD_DSTYLE_DIMINSPECT
1070
   396
1000
100%
1070
   395
1000

1070
   394
1070
    33
1070
   393
1070
     0
1001
ACAD
1000
DSTYLE
1002
{
1070
    76
1070
     1
1070
   271
1070
     0
1002
}
  0
ARC
  5
1013A
330
1F
100
AcDbEntity
  8
AM_0
100
AcDbCircle
 10
260.0834853661408
 20
203.7378042046962
 30
0.0
 40
29.99999999999998
100
AcDbArc
 50
43.85211948180328
 51
316.1478929916453
  0
LINE
  5
108AD
330
1F
100
AcDbEntity
  8
AM_0
100
AcDbLine
 10
256.6548901413254
 20
85.4741179007458
 30
0.0
 11
290.5574850734148
 21
85.4741179007458
 31
0.0
  0
LINE
  5
108B5
330
1F
100
AcDbEntity
  8
AM_0
100
AcDbLine
 10
290.5574850734148
 20
118.8759444712428
 30
0.0
 11
290.5574850734148
 21
85.4741179007458
 31
0.0
  0
ARC
  5
108B6
330
1F
100
AcDbEntity
  8
AM_0
100
AcDbCircle
 10
255.0548903495847
 20
86.57886685181471
 30
0.0
 40
1.000000000000026
100
AcDbArc
 50
180.0
 51
270.0
  0
ARC
  5
108B7
330
1F
100
AcDbEntity
  8
AM_0
100
AcDbCircle
 10
260.0548903495848
 20
103.2034754135887
 30
0.0
 40
6.000000000000027
100
AcDbArc
 50
127.3178298105999
 51
180.0000002547147
  0
SPLINE
  5
108B8
330
1F
100
AcDbEntity
  8
AM_0
100
AcDbSpline
210
0.0
220
0.0
230
1.0
 70
     8
 71
     3
 72
    20
 73
    16
 74
     0
 42
0.0000000001
 43
0.0000000001
 40
0.0990155375963523
 40
0.0990155375963523
 40
0.0990155375963523
 40
0.0990155375963523
 40
0.1220578368265006
 40
0.1819965888479638
 40
0.2416026344146115
 40
0.301165525915729
 40
0.3609662554115251
 40
0.4212745422861561
 40
0.4823466794653413
 40
0.5653590407842875
 40
0.6503252176082897
 40
0.7370976893026935
 40
0.8255173949340083
 40
0.9154307415508311
 40
0.9999999999999998
 40
0.9999999999999998
 40
0.9999999999999998
 40
0.9999999999999998
 10
290.5601561174364
 20
121.4741179007459
 30
0.0
 10
290.2427486561638
 20
121.4592511904896
 30
0.0
 10
289.1001630361635
 20
121.3942500314098
 30
0.0
 10
287.1413951933856
 20
121.2193441953507
 30
0.0
 10
284.6950736107348
 20
120.8742554808237
 30
0.0
 10
282.2707437427336
 20
120.4094245616628
 30
0.0
 10
279.8623364665938
 20
119.8256516071857
 30
0.0
 10
277.4637467213644
 20
119.1247799169078
 30
0.0
 10
274.7957311756537
 20
118.2149875394978
 30
0.0
 10
271.8581081576441
 20
117.0515980004548
 30
0.0
 10
268.6628091140148
 20
115.5897423825348
 30
0.0
 10
265.4793614771453
 20
113.9333415595548
 30
0.0
 10
262.3266808806339
 20
112.0816393483588
 30
0.0
 10
259.2861887391547
 20
110.1039416104766
 30
0.0
 10
257.3565154585241
 20
108.6666151676168
 30
0.0
 10
256.4212300280334
 20
107.9699633072428
 30
0.0
  0
LINE
  5
108B9
330
1F
100
AcDbEntity
  8
AM_0
100
AcDbLine
 10
290.5601561174364
 20
121.4741179007477
 30
0.0
 11
290.5601545532946
 21
118.9759444702727
 31
0.0
  0
LINE
  5
108BA
330
1F
100
AcDbEntity
  8
AM_0
100
AcDbLine
 10
290.5601545532947
 20
118.5895619023217
 30
0.0
 11
290.5574850734149
 21
118.5895619023217
 31
0.0
  0
LINE
  5
108C2
330
1F
100
AcDbEntity
  8
AM_0
100
AcDbLine
 10
276.3386239025141
 20
83.30212684015782
 30
0.0
 11
286.0875907179844
 21
83.30212684091089
 31
0.0
  0
LINE
  5
108C3
330
1F
100
AcDbEntity
  8
AM_0
100
AcDbLine
 10
270.5993711891034
 20
85.18816480061877
 30
0.0
 11
276.1805100195044
 21
83.32778519100793
 31
0.0
  0
ARC
  5
108C5
330
1F
100
AcDbEntity
  8
AM_0
100
AcDbCircle
 10
270.7574850720749
 20
85.66250644965681
 30
0.0
 40
0.5
100
AcDbArc
 50
202.1341909931568
 51
251.565051181971
  0
ARC
  5
108C7
330
1F
100
AcDbEntity
  8
AM_0
100
AcDbCircle
 10
276.3386239024741
 20
83.80212684004687
 30
0.0
 40
0.5
100
AcDbArc
 50
251.565051181971
 51
270.0000000043773
  0
ARC
  5
108C9
330
1F
100
AcDbEntity
  8
AM_0
100
AcDbCircle
 10
286.0875907179135
 20
84.30212684091088
 30
0.0
 40
1.0
100
AcDbArc
 50
270.0000000043773
 51
321.5000000065442
  0
LINE
  5
108CA
330
1F
100
AcDbEntity
  8
AM_0
100
AcDbLine
 10
288.2976131580664
 20
85.4741179007458
 30
0.0
 11
286.8701988748354
 21
83.67961220436177
 31
0.0
  0
LINE
  5
108E8
330
1F
100
AcDbEntity
  8
AM_0
100
AcDbLine
 10
254.0548903495848
 20
103.2034753869151
 30
0.0
 11
254.0548903495848
 21
86.57886685181471
 31
0.0
  0
LINE
  5
108F0
330
1F
100
AcDbEntity
  8
AM_0
100
AcDbLine
 10
255.0548903495847
 20
85.5788668518147
 30
0.0
 11
256.3486604753574
 21
85.5788668518147
 31
0.0
  0
LINE
  5
108F3
330
1F
100
AcDbEntity
  8
AM_0
 48
0.8
100
AcDbLine
 10
249.4241035474838
 20
78.97389232778086
 30
0.0
 11
262.8388400592923
 21
85.47411790074578
 31
0.0
  0
LINE
  5
108F4
330
1F
100
AcDbEntity
  8
AM_0
 48
0.8
100
AcDbLine
 10
252.6346349540232
 20
78.97388295528266
 30
0.0
 11
266.049390808175
 21
85.47411790074578
 31
0.0
  0
ARC
  5
108F7
330
1F
100
AcDbEntity
  8
AM_0
100
AcDbCircle
 10
256.6548901413254
 20
85.97411790074579
 30
0.0
 40
0.5
100
AcDbArc
 50
232.2324581010346
 51
270.0
  0
LINE
  5
141DE
330
1F
100
AcDbEntity
  8
AM_0
100
AcDbLine
 10
11.50000000000002
 20
232.5
 30
0.0
 11
121.5000008827918
 21
232.5
 31
0.0
  0
MTEXT
  5
141DF
330
1F
100
AcDbEntity
  8
AM_6
100
AcDbMText
 10
21.50000088279178
 20
236.5
 30
0.0
 40
3.2
 41
20.0
 71
     5
 72
     5
  1
備　考
 73
     1
 44
1.0
1001
ACAD
1000
MTEXTBEGIN
1070
    73
1070
     1
1070
    44
1040
1.0
1070
    74
1070
     0
1000
MTEXTEND
  0
LINE
  5
14433
330
1F
100
AcDbEntity
  8
AM_0
100
AcDbLine
 10
131.9599739250378
 20
102.8741179003665
 30
0.0
 11
131.9599739250378
 21
90.87411790036652
 31
0.0
  0
LINE
  5
14434
330
1F
100
AcDbEntity
  8
AM_0
100
AcDbLine
 10
127.4599739250378
 20
90.87411790036652
 30
0.0
 11
127.4599739250378
 21
102.8741179003665
 31
0.0
  0
CIRCLE
  5
14435
330
1F
100
AcDbEntity
  8
AM_0
100
AcDbCircle
 10
129.709973925067
 20
112.1741179004194
 30
0.0
 40
2.25
  0
ARC
  5
14436
330
1F
100
AcDbEntity
  8
AM_0
100
AcDbCircle
 10
129.7099739250378
 20
90.87411790036242
 30
0.0
 40
2.25
100
AcDbArc
 50
180.0
 51
359.9999938433874
  0
ARC
  5
14437
330
1F
100
AcDbEntity
  8
AM_0
100
AcDbCircle
 10
129.7099739250378
 20
102.8741179003624
 30
0.0
 40
2.25
100
AcDbArc
 50
0.0
 51
180.0
  0
LINE
  5
14438
330
1F
100
AcDbEntity
  8
AM_0
100
AcDbLine
 10
157.4599739250251
 20
102.8741179003665
 30
0.0
 11
157.4599739250251
 21
90.87411790036652
 31
0.0
  0
LINE
  5
14439
330
1F
100
AcDbEntity
  8
AM_0
100
AcDbLine
 10
161.959973925016
 20
90.87411790036652
 30
0.0
 11
161.959973925016
 21
102.8741179003665
 31
0.0
  0
CIRCLE
  5
1443A
330
1F
100
AcDbEntity
  8
AM_0
100
AcDbCircle
 10
159.7099739250069
 20
112.1741179004194
 30
0.0
 40
2.25
  0
ARC
  5
1443B
330
1F
100
AcDbEntity
  8
AM_0
100
AcDbCircle
 10
159.709973925016
 20
90.87411790036242
 30
0.0
 40
2.25
100
AcDbArc
 50
180.0000061566126
 51
0.0
  0
ARC
  5
1443C
330
1F
100
AcDbEntity
  8
AM_0
100
AcDbCircle
 10
159.709973925016
 20
102.8741179003624
 30
0.0
 40
2.25
100
AcDbArc
 50
0.0
 51
180.0
  0
LINE
  5
1443D
330
1F
100
AcDbEntity
  8
AM_0
100
AcDbLine
 10
134.7099739250378
 20
85.47411790036438
 30
0.0
 11
125.8099739250382
 21
85.47411790036438
 31
0.0
  0
SPLINE
  5
1443E
330
1F
100
AcDbEntity
  8
AM_0
100
AcDbSpline
210
0.0
220
0.0
230
1.0
 70
     8
 71
     3
 72
    14
 73
    10
 74
     0
 42
0.0000000001
 43
0.0000000001
 40
0.0
 40
0.0
 40
0.0
 40
0.0
 40
0.0081667352415032
 40
0.0081667352415032
 40
0.0081667352415032
 40
0.0163334704830064
 40
0.0163334704830064
 40
0.0163334704830064
 40
0.0280107633137918
 40
0.0280107633137918
 40
0.0280107633137918
 40
0.0280107633137918
 10
124.521271562612
 20
113.1517214649544
 30
0.0
 10
124.521312681324
 20
110.7626361305333
 30
0.0
 10
124.5213542134742
 20
108.0403910503505
 30
0.0
 10
124.5213961704329
 20
105.3181459701723
 30
0.0
 10
124.5214381274244
 20
102.5959008899931
 30
0.0
 10
124.5214805092245
 20
99.87365580982032
 30
0.0
 10
124.5215233276548
 20
97.15141072965934
 30
0.0
 10
124.5215845520332
 20
93.25897978654438
 30
0.0
 10
124.5216466690043
 20
89.36654884344397
 30
0.0
 10
124.5217097144531
 20
85.47411790035903
 30
0.0
  0
LINE
  5
1443F
330
1F
100
AcDbEntity
  8
AM_0
100
AcDbLine
 10
123.0099739250317
 20
113.1695337219303
 30
0.0
 11
123.0099739250317
 21
86.47411790036267
 31
0.0
  0
LINE
  5
14440
330
1F
100
AcDbEntity
  8
AM_0
100
AcDbLine
 10
166.4099739250222
 20
86.47411790036267
 30
0.0
 11
166.4099739250222
 21
113.1695337219303
 31
0.0
  0
SPLINE
  5
14441
330
1F
100
AcDbEntity
  8
AM_0
100
AcDbSpline
210
0.0
220
0.0
230
1.0
 70
     8
 71
     3
 72
    12
 73
     8
 74
     0
 42
0.0000000001
 43
0.0000000001
 40
0.0
 40
0.0
 40
0.0
 40
0.0
 40
0.25
 40
0.25
 40
0.5
 40
0.5
 40
1.0
 40
1.0
 40
1.0
 40
1.0
 10
124.0178004058824
 20
85.47411790035903
 30
0.0
 10
123.8852343879834
 20
85.47411790035903
 30
0.0
 10
123.755191192923
 20
85.49985610173962
 30
0.0
 10
123.5116394157129
 20
85.59956472514613
 30
0.0
 10
123.399985035633
 20
85.67335752425924
 30
0.0
 10
123.1204596494343
 20
85.9494332428917
 30
0.0
 10
123.0099739250317
 20
86.20892697078625
 30
0.0
 10
123.0099739250317
 20
86.47411790036267
 30
0.0
  0
SPLINE
  5
14442
330
1F
100
AcDbEntity
  8
AM_0
100
AcDbSpline
210
0.0
220
0.0
230
1.0
 70
     8
 71
     3
 72
    14
 73
    10
 74
     0
 42
0.0000000001
 43
0.0000000001
 40
0.0
 40
0.0
 40
0.0
 40
0.0
 40
0.25
 40
0.25
 40
0.5
 40
0.5
 40
0.75
 40
0.75
 40
1.0
 40
1.0
 40
1.0
 40
1.0
 10
166.4099739250222
 20
86.47411790036267
 30
0.0
 10
166.4099739250222
 20
86.34154075978267
 30
0.0
 10
166.3835431904835
 20
86.21142075267972
 30
0.0
 10
166.2818986462033
 20
85.96889055390283
 30
0.0
 10
166.2066978760821
 20
85.85791983015269
 30
0.0
 10
166.0205983041041
 20
85.67385411994155
 30
0.0
 10
165.9082753395932
 20
85.59967697966067
 30
0.0
 10
165.6664527376023
 20
85.50042552553122
 30
0.0
 10
165.5346957700229
 20
85.47411790035903
 30
0.0
 10
165.4021474441823
 20
85.47411790035903
 30
0.0
  0
SPLINE
  5
14443
330
1F
100
AcDbEntity
  8
AM_0
100
AcDbSpline
210
0.0
220
0.0
230
1.0
 70
     8
 71
     3
 72
    17
 73
    13
 74
     0
 42
0.0000000001
 43
0.0000000001
 40
0.1279067512670693
 40
0.1279067512670693
 40
0.1279067512670693
 40
0.1279067512670693
 40
0.1307929851893887
 40
0.1307929851893887
 40
0.1307929851893887
 40
0.1419210626889892
 40
0.1419210626889892
 40
0.1419210626889892
 40
0.1500956242633106
 40
0.1500956242633106
 40
0.1500956242633106
 40
0.155917514580817
 40
0.155917514580817
 40
0.155917514580817
 40
0.155917514580817
 10
164.8982381355971
 20
85.47411790036438
 30
0.0
 10
164.8982537183264
 20
86.43619587434647
 30
0.0
 10
164.898269244305
 20
87.39827384832745
 30
0.0
 10
164.8982847141168
 20
88.36035182231341
 30
0.0
 10
164.8983443590377
 20
92.06971098837232
 30
0.0
 10
164.8984031689569
 20
95.77907015444532
 30
0.0
 10
164.8984611745863
 20
99.48842932053242
 30
0.0
 10
164.898503784886
 20
102.2132831783084
 30
0.0
 10
164.8985459611366
 20
104.9381370360944
 30
0.0
 10
164.8985877150452
 20
107.6629908938863
 30
0.0
 10
164.8986174520477
 20
109.6036209994955
 30
0.0
 10
164.8986469747969
 20
111.5442511051125
 30
0.0
 10
164.8986762874382
 20
113.1517214649583
 30
0.0
  0
SPLINE
  5
14444
330
1F
100
AcDbEntity
  8
AM_0
100
AcDbSpline
210
0.0
220
0.0
230
1.0
 70
     8
 71
     3
 72
    11
 73
     7
 74
     0
 42
0.0000000001
 43
0.0000000001
 40
0.1279067512670693
 40
0.1279067512670693
 40
0.1279067512670693
 40
0.1279067512670693
 40
0.1307929851893887
 40
0.1307929851893887
 40
0.1307929851893887
 40
0.1389067512684585
 40
0.1389067512684585
 40
0.1389067512684585
 40
0.1389067512684585
 10
164.8982381355971
 20
85.47411790036438
 30
0.0
 10
164.8982537183264
 20
86.43619587434647
 30
0.0
 10
164.898269244305
 20
87.39827384832745
 30
0.0
 10
164.8982847141168
 20
88.36035182231341
 30
0.0
 10
164.8983282027447
 20
91.06494051499145
 30
0.0
 10
164.8983712474864
 20
93.76952920767427
 30
0.0
 10
164.8984138602162
 20
96.47411790036642
 30
0.0
  0
SPLINE
  5
14445
330
1F
100
AcDbEntity
  8
AM_0
100
AcDbSpline
210
0.0
220
0.0
230
1.0
 70
     8
 71
     3
 72
    14
 73
    10
 74
     0
 42
0.0000000001
 43
0.0000000001
 40
0.1389067512684585
 40
0.1389067512684585
 40
0.1389067512684585
 40
0.1389067512684585
 40
0.1419210626889892
 40
0.1419210626889892
 40
0.1419210626889892
 40
0.1500956242633106
 40
0.1500956242633106
 40
0.1500956242633106
 40
0.155917514580817
 40
0.155917514580817
 40
0.155917514580817
 40
0.155917514580817
 10
164.8984138602162
 20
96.47411790036642
 30
0.0
 10
164.8984296910884
 20
97.47888837375434
 30
0.0
 10
164.8984454623377
 20
98.48365884714247
 30
0.0
 10
164.8984611745863
 20
99.48842932053242
 30
0.0
 10
164.898503784886
 20
102.2132831783084
 30
0.0
 10
164.8985459611366
 20
104.9381370360944
 30
0.0
 10
164.8985877150452
 20
107.6629908938863
 30
0.0
 10
164.8986174520477
 20
109.6036209994955
 30
0.0
 10
164.8986469747969
 20
111.5442511051125
 30
0.0
 10
164.8986762874382
 20
113.1517214649583
 30
0.0
  0
LINE
  5
14446
330
1F
100
AcDbEntity
  8
AM_7
 48
0.5
100
AcDbLine
 10
124.459973925067
 20
112.1741179004194
 30
0.0
 11
134.959973925067
 21
112.1741179004194
 31
0.0
1001
GENIUS_GENOBJ-N-CEN_13
1002
{
1000
OWNER
1000
GEN
1002
}
1001
GENIUS_GENODEF_13
1002
{
1000
HIER
1070
     0
1002
}
1002
{
1000
MANEDIT
1070
     0
1002
}
1002
{
1000
NOSEL
1070
     0
1002
}
1002
{
1000
BEHIND
1070
     0
1002
}
1002
{
1000
OTHER
1070
     0
1002
}
1002
{
1000
REACTOR
1002
}
1001
GENIUS_GENCEN_19
1002
{
1040
3.0
1002
}
  0
LINE
  5
14447
330
1F
100
AcDbEntity
  8
AM_7
 48
0.6
100
AcDbLine
 10
129.7099739250704
 20
117.4241179004194
 30
0.0
 11
129.7099739250344
 21
85.62411790036241
 31
0.0
1001
GENIUS_GENODEF_13
1002
{
1000
HIER
1070
     0
1002
}
1002
{
1000
MANEDIT
1070
     0
1002
}
1002
{
1000
NOSEL
1070
     0
1002
}
1002
{
1000
BEHIND
1070
     0
1002
}
1002
{
1000
OTHER
1070
     0
1002
}
1002
{
1000
REACTOR
1002
}
1001
GENIUS_GENOBJ-N-CEN_13
1002
{
1000
OWNER
1000
GEN
1002
}
1001
GENIUS_GENCEN_19
1002
{
1040
3.0
1002
}
  0
LINE
  5
14448
330
1F
100
AcDbEntity
  8
AM_7
 48
0.5
100
AcDbLine
 10
164.9599739250069
 20
112.1741179004194
 30
0.0
 11
154.4599739250069
 21
112.1741179004194
 31
0.0
1001
GENIUS_GENODEF_13
1002
{
1000
HIER
1070
     0
1002
}
1002
{
1000
MANEDIT
1070
     0
1002
}
1002
{
1000
NOSEL
1070
     0
1002
}
1002
{
1000
BEHIND
1070
     0
1002
}
1002
{
1000
OTHER
1070
     0
1002
}
1002
{
1000
REACTOR
1002
}
1001
GENIUS_GENOBJ-N-CEN_13
1002
{
1000
OWNER
1000
GEN
1002
}
1001
GENIUS_GENCEN_19
1002
{
1040
3.0
1002
}
  0
LINE
  5
14449
330
1F
100
AcDbEntity
  8
AM_7
 48
0.6
100
AcDbLine
 10
159.7099739109494
 20
117.4241179004194
 30
0.0
 11
159.7099740599583
 21
85.62411790036241
 31
0.0
1001
GENIUS_GENODEF_13
1002
{
1000
HIER
1070
     0
1002
}
1002
{
1000
MANEDIT
1070
     0
1002
}
1002
{
1000
NOSEL
1070
     0
1002
}
1002
{
1000
BEHIND
1070
     0
1002
}
1002
{
1000
OTHER
1070
     0
1002
}
1002
{
1000
REACTOR
1002
}
1001
GENIUS_GENOBJ-N-CEN_13
1002
{
1000
OWNER
1000
GEN
1002
}
1001
GENIUS_GENCEN_19
1002
{
1040
3.0
1002
}
  0
LINE
  5
1444A
330
1F
100
AcDbEntity
  8
AM_7
 48
0.5
100
AcDbLine
 10
154.459973925016
 20
102.8741179003624
 30
0.0
 11
164.959973925016
 21
102.8741179003624
 31
0.0
1001
GENIUS_GENODEF_13
1002
{
1000
HIER
1070
     0
1002
}
1002
{
1000
MANEDIT
1070
     0
1002
}
1002
{
1000
NOSEL
1070
     0
1002
}
1002
{
1000
BEHIND
1070
     0
1002
}
1002
{
1000
OTHER
1070
     0
1002
}
1002
{
1000
REACTOR
1002
}
1001
GENIUS_GENOBJ-N-CEN_13
1002
{
1000
OWNER
1000
GEN
1002
}
1001
GENIUS_GENCEN_19
1002
{
1040
3.0
1002
}
  0
LINE
  5
1444B
330
1F
100
AcDbEntity
  8
AM_7
 48
0.5
100
AcDbLine
 10
164.959973925016
 20
90.87411790036652
 30
0.0
 11
154.4599739250251
 21
90.87411790036652
 31
0.0
1001
GENIUS_GENOBJ-N-CEN_13
1002
{
1000
OWNER
1000
GEN
1002
}
1001
GENIUS_GENODEF_13
1002
{
1000
HIER
1070
     0
1002
}
1002
{
1000
MANEDIT
1070
     0
1002
}
1002
{
1000
NOSEL
1070
     0
1002
}
1002
{
1000
BEHIND
1070
     0
1002
}
1002
{
1000
OTHER
1070
     0
1002
}
1002
{
1000
REACTOR
1002
}
1001
GENIUS_GENCEN_19
1002
{
1040
3.0
1002
}
  0
LINE
  5
1444C
330
1F
100
AcDbEntity
  8
AM_7
 48
0.5
100
AcDbLine
 10
134.9599739250378
 20
102.8741179003624
 30
0.0
 11
124.4599739250378
 21
102.8741179003624
 31
0.0
1001
GENIUS_GENODEF_13
1002
{
1000
HIER
1070
     0
1002
}
1002
{
1000
MANEDIT
1070
     0
1002
}
1002
{
1000
NOSEL
1070
     0
1002
}
1002
{
1000
BEHIND
1070
     0
1002
}
1002
{
1000
OTHER
1070
     0
1002
}
1002
{
1000
REACTOR
1002
}
1001
GENIUS_GENOBJ-N-CEN_13
1002
{
1000
OWNER
1000
GEN
1002
}
1001
GENIUS_GENCEN_19
1002
{
1040
3.0
1002
}
  0
LINE
  5
1444D
330
1F
100
AcDbEntity
  8
AM_7
 48
0.5
100
AcDbLine
 10
134.9599739250378
 20
90.87411733623332
 30
0.0
 11
124.4599739250378
 21
90.87411846449152
 31
0.0
1001
GENIUS_GENODEF_13
1002
{
1000
HIER
1070
     0
1002
}
1002
{
1000
MANEDIT
1070
     0
1002
}
1002
{
1000
NOSEL
1070
     0
1002
}
1002
{
1000
BEHIND
1070
     0
1002
}
1002
{
1000
OTHER
1070
     0
1002
}
1002
{
1000
REACTOR
1002
}
1001
GENIUS_GENOBJ-N-CEN_13
1002
{
1000
OWNER
1000
GEN
1002
}
1001
GENIUS_GENCEN_19
1002
{
1040
3.0
1002
}
  0
LINE
  5
1444E
330
1F
100
AcDbEntity
  8
AM_0
100
AcDbLine
 10
164.8982381356135
 20
85.47411790035903
 30
0.0
 11
165.4021474441824
 21
85.47411790035903
 31
0.0
  0
LINE
  5
1444F
330
1F
100
AcDbEntity
  8
AM_0
100
AcDbLine
 10
124.5217097144531
 20
85.47411790035903
 30
0.0
 11
124.0178004058824
 21
85.47411790035903
 31
0.0
  0
LINE
  5
14450
330
1F
100
AcDbEntity
  8
AM_0
100
AcDbLine
 10
143.7099791614054
 20
104.4741179003644
 30
0.0
 11
143.7099791614167
 21
83.34834824207808
 31
0.0
  0
LINE
  5
14451
330
1F
100
AcDbEntity
  8
AM_0
100
AcDbLine
 10
145.7099791614044
 20
104.4741179003644
 30
0.0
 11
145.7099791614169
 21
83.34834824207808
 31
0.0
  0
LINE
  5
14452
330
1F
100
AcDbEntity
  8
AM_0
100
AcDbLine
 10
143.7099791614169
 20
83.34834824207808
 30
0.0
 11
145.7099791614169
 21
83.34834824207808
 31
0.0
  0
LINE
  5
14453
330
1F
100
AcDbEntity
  8
AM_0
100
AcDbLine
 10
145.7099791614044
 20
104.4741179003644
 30
0.0
 11
143.7099791614054
 21
104.4741179003644
 31
0.0
  0
SPLINE
  5
14454
330
1F
100
AcDbEntity
  8
AM_0
100
AcDbSpline
210
0.0
220
0.0
230
1.0
 70
     8
 71
     3
 72
    14
 73
    10
 74
     0
 42
0.0000000001
 43
0.0000000001
 40
0.0
 40
0.0
 40
0.0
 40
0.0
 40
0.0081667352415032
 40
0.0081667352415032
 40
0.0081667352415032
 40
0.0163334704830064
 40
0.0163334704830064
 40
0.0163334704830064
 40
0.0280107633137918
 40
0.0280107633137918
 40
0.0280107633137918
 40
0.0280107633137918
 10
124.5212804569928
 20
113.4848812107242
 30
0.0
 10
124.5213215757049
 20
110.7626361305332
 30
0.0
 10
124.521363107855
 20
108.0403910503504
 30
0.0
 10
124.5214050648137
 20
105.3181459701721
 30
0.0
 10
124.5214470218052
 20
102.595900889993
 30
0.0
 10
124.5214894036053
 20
99.87365580982022
 30
0.0
 10
124.5215322220356
 20
97.15141072965923
 30
0.0
 10
124.521593446414
 20
93.25897978654428
 30
0.0
 10
124.5216555633851
 20
89.36654884344386
 30
0.0
 10
124.5217186088339
 20
85.47411790035893
 30
0.0
  0
SPLINE
  5
14455
330
1F
100
AcDbEntity
  8
AM_0
100
AcDbSpline
210
0.0
220
0.0
230
1.0
 70
     8
 71
     3
 72
    17
 73
    13
 74
     0
 42
0.0000000001
 43
0.0000000001
 40
0.1279067512670693
 40
0.1279067512670693
 40
0.1279067512670693
 40
0.1279067512670693
 40
0.1307929851893887
 40
0.1307929851893887
 40
0.1307929851893887
 40
0.1419210626889892
 40
0.1419210626889892
 40
0.1419210626889892
 40
0.1500956242633106
 40
0.1500956242633106
 40
0.1500956242633106
 40
0.155917514580817
 40
0.155917514580817
 40
0.155917514580817
 40
0.155917514580817
 10
164.8982470299943
 20
85.47411790035893
 30
0.0
 10
164.8982626127035
 20
86.43619587434239
 30
0.0
 10
164.8982781386731
 20
87.39827384832768
 30
0.0
 10
164.8982936084849
 20
88.3603518223075
 30
0.0
 10
164.8983532534148
 20
92.06971098836708
 30
0.0
 10
164.898412063334
 20
95.77907015444123
 30
0.0
 10
164.8984700689725
 20
99.4884293205272
 30
0.0
 10
164.8985126792632
 20
102.2132831783068
 30
0.0
 10
164.8985548555138
 20
104.9381370360928
 30
0.0
 10
164.8985966094351
 20
107.6629908938815
 30
0.0
 10
164.898626346414
 20
109.6036209994921
 30
0.0
 10
164.8986558691831
 20
111.5442511051072
 30
0.0
 10
164.8986851818354
 20
113.4848812107242
 30
0.0
  0
LINE
  5
14456
330
1F
100
AcDbEntity
  8
AM_0
100
AcDbLine
 10
123.0099828194125
 20
113.5026934677001
 30
0.0
 11
123.0099828194125
 21
86.47411790036256
 31
0.0
  0
LINE
  5
14457
330
1F
100
AcDbEntity
  8
AM_0
100
AcDbLine
 10
166.409982819403
 20
86.47411790036256
 30
0.0
 11
166.409982819403
 21
113.5026934677001
 31
0.0
  0
SPLINE
  5
14458
330
1F
100
AcDbEntity
  8
AM_0
100
AcDbSpline
210
0.0
220
0.0
230
1.0
 70
     8
 71
     3
 72
    12
 73
     8
 74
     0
 42
0.0000000001
 43
0.0000000001
 40
0.0
 40
0.0
 40
0.0
 40
0.0
 40
0.25
 40
0.25
 40
0.5
 40
0.5
 40
1.0
 40
1.0
 40
1.0
 40
1.0
 10
124.0178093002633
 20
85.47411790035893
 30
0.0
 10
123.8852432823642
 20
85.47411790035893
 30
0.0
 10
123.7552000873038
 20
85.49985610173951
 30
0.0
 10
123.5116483100937
 20
85.59956472514603
 30
0.0
 10
123.3999939300138
 20
85.67335752425913
 30
0.0
 10
123.1204685438151
 20
85.94943324289159
 30
0.0
 10
123.0099828194125
 20
86.20892697078614
 30
0.0
 10
123.0099828194125
 20
86.47411790036256
 30
0.0
  0
LINE
  5
14459
330
1F
100
AcDbEntity
  8
AM_0
100
AcDbLine
 10
165.4021563385631
 20
85.47411790035893
 30
0.0
 11
145.7099791614157
 21
85.47411790035893
 31
0.0
  0
LINE
  5
1445A
330
1F
100
AcDbEntity
  8
AM_0
100
AcDbLine
 10
143.7099791614155
 20
85.47411790035894
 30
0.0
 11
124.0178093002633
 21
85.47411790035893
 31
0.0
  0
SPLINE
  5
1445B
330
1F
100
AcDbEntity
  8
AM_0
100
AcDbSpline
210
0.0
220
0.0
230
1.0
 70
     8
 71
     3
 72
    14
 73
    10
 74
     0
 42
0.0000000001
 43
0.0000000001
 40
0.0
 40
0.0
 40
0.0
 40
0.0
 40
0.25
 40
0.25
 40
0.5
 40
0.5
 40
0.75
 40
0.75
 40
1.0
 40
1.0
 40
1.0
 40
1.0
 10
166.409982819403
 20
86.47411790036256
 30
0.0
 10
166.409982819403
 20
86.34154075978257
 30
0.0
 10
166.3835520848643
 20
86.21142075267959
 30
0.0
 10
166.2819075405842
 20
85.96889055390272
 30
0.0
 10
166.2067067704629
 20
85.85791983015258
 30
0.0
 10
166.0206071984849
 20
85.67385411994143
 30
0.0
 10
165.908284233974
 20
85.59967697966056
 30
0.0
 10
165.6664616319831
 20
85.50042552553112
 30
0.0
 10
165.5347046644038
 20
85.47411790035893
 30
0.0
 10
165.4021563385631
 20
85.47411790035893
 30
0.0
  0
SPLINE
  5
1445C
330
1F
100
AcDbEntity
  8
AM_0
100
AcDbSpline
210
0.0
220
0.0
230
1.0
 70
     8
 71
     3
 72
    19
 73
    15
 74
     0
 42
0.0000000001
 43
0.0000000001
 40
0.0398855471870172
 40
0.0398855471870172
 40
0.0398855471870172
 40
0.0398855471870172
 40
0.0884929118706158
 40
0.1738537489385113
 40
0.2570551304260289
 40
0.3387924551348652
 40
0.4196066615026677
 40
0.4999791334607246
 40
0.5803577746399295
 40
0.6611705342942705
 40
0.7428959763041087
 40
0.8260995594257773
 40
0.9114745672684366
 40
0.9876235133446895
 40
0.9876235133446895
 40
0.9876235133446895
 40
0.9876235133446895
 10
158.4853266219343
 20
121.0141070922385
 30
0.0
 10
158.0114119444425
 20
121.0675207989565
 30
0.0
 10
156.7023986742643
 20
121.2110287883128
 30
0.0
 10
154.5522373468939
 20
121.4069155398987
 30
0.0
 10
152.0563019471938
 20
121.587301498373
 30
0.0
 10
149.5911132856036
 20
121.7144578192541
 30
0.0
 10
147.1460756581528
 20
121.7904349421154
 30
0.0
 10
144.7104923223651
 20
121.8156700618004
 30
0.0
 10
142.2750483701548
 20
121.7904592271019
 30
0.0
 10
139.8299617446646
 20
121.7145030086889
 30
0.0
 10
137.3648936099544
 20
121.5873764394131
 30
0.0
 10
134.8686348529045
 20
121.4069973131139
 30
0.0
 10
132.4449373836542
 20
121.1861907036685
 30
0.0
 10
130.8715601177555
 20
121.0076157152347
 30
0.0
 10
130.1306234666445
 20
120.922407806512
 30
0.0
  0
SPLINE
  5
1445D
330
1F
100
AcDbEntity
  8
AM_0
100
AcDbSpline
210
0.0
220
0.0
230
1.0
 70
     8
 71
     3
 72
    14
 73
    10
 74
     0
 42
0.0000000001
 43
0.0000000001
 40
0.0
 40
0.0
 40
0.0
 40
0.0
 40
0.25
 40
0.25
 40
0.5
 40
0.5
 40
0.75
 40
0.75
 40
1.0
 40
1.0
 40
1.0
 40
1.0
 10
124.5212804569928
 20
113.4848812107242
 30
0.0
 10
124.5212772892446
 20
113.6946007404707
 30
0.0
 10
124.5472105295939
 20
113.8999215675124
 30
0.0
 10
124.6496932202044
 20
114.3019789311796
 30
0.0
 10
124.7272606355327
 20
114.4986733598629
 30
0.0
 10
124.926011304713
 20
114.8612481223921
 30
0.0
 10
125.0499261515342
 20
115.0322394815097
 30
0.0
 10
125.3342536542841
 20
115.3350247801194
 30
0.0
 10
125.493672370023
 20
115.4671365055623
 30
0.0
 10
125.6708005686342
 20
115.5794594221837
 30
0.0
  0
SPLINE
  5
1445E
330
1F
100
AcDbEntity
  8
AM_0
100
AcDbSpline
210
0.0
220
0.0
230
1.0
 70
     8
 71
     3
 72
    17
 73
    13
 74
     0
 42
0.0000000001
 43
0.0000000001
 40
0.0
 40
0.0
 40
0.0
 40
0.0
 40
0.2500000000000014
 40
0.2500000000000014
 40
0.3750000000000018
 40
0.3750000000000018
 40
0.5000000000000023
 40
0.6250000000000026
 40
0.6250000000000026
 40
0.7500000000000031
 40
0.7500000000000031
 40
1.0
 40
1.0
 40
1.0
 40
1.0
 10
123.0099828194125
 20
113.5026934677001
 30
0.0
 10
123.0099828194125
 20
113.8359450854244
 30
0.0
 10
123.0509341301131
 20
114.1622503470984
 30
0.0
 10
123.172259653782
 20
114.6415479614419
 30
0.0
 10
123.2232608834856
 20
114.8006860281515
 30
0.0
 10
123.3441060574842
 20
115.1092995627135
 30
0.0
 10
123.4832215378428
 20
115.4077877823987
 30
0.0
 10
123.6579942437056
 20
115.6865149412218
 30
0.0
 10
123.8509804402238
 20
115.9551482721484
 30
0.0
 10
123.9570659237343
 20
116.0847232323889
 30
0.0
 10
124.2941326904547
 20
116.4473692913492
 30
0.0
 10
124.5460041644838
 20
116.6585585077831
 30
0.0
 10
124.8255403921357
 20
116.8386050248094
 30
0.0
  0
SPLINE
  5
1445F
330
1F
100
AcDbEntity
  8
AM_0
100
AcDbSpline
210
0.0
220
0.0
230
1.0
 70
     8
 71
     3
 72
    14
 73
    10
 74
     0
 42
0.0000000001
 43
0.0000000001
 40
0.0
 40
0.0
 40
0.0
 40
0.0
 40
0.25
 40
0.25
 40
0.5
 40
0.5
 40
0.75
 40
0.75
 40
1.0
 40
1.0
 40
1.0
 40
1.0
 10
125.6708005686342
 20
115.5794594221837
 30
0.0
 10
125.9666412043062
 20
115.767061866711
 30
0.0
 10
126.2419332303944
 20
115.9776314668601
 30
0.0
 10
126.7517728170351
 20
116.4443107061264
 30
0.0
 10
126.9878201631527
 20
116.7023955987891
 30
0.0
 10
127.4086355694926
 20
117.2593742575694
 30
0.0
 10
127.5903229309733
 20
117.5534251417406
 30
0.0
 10
127.8962108055439
 20
118.1726750332485
 30
0.0
 10
128.0209826441351
 20
118.5001598207349
 30
0.0
 10
128.1124345124645
 20
118.8387585780832
 30
0.0
  0
SPLINE
  5
14460
330
1F
100
AcDbEntity
  8
AM_0
100
AcDbSpline
210
0.0
220
0.0
230
1.0
 70
     8
 71
     3
 72
    12
 73
     8
 74
     0
 42
0.0000000001
 43
0.0000000001
 40
0.0
 40
0.0
 40
0.0
 40
0.0
 40
0.2500000000000013
 40
0.2500000000000013
 40
0.5000000000000027
 40
0.5000000000000027
 40
1.0
 40
1.0
 40
1.0
 40
1.0
 10
126.5767892237145
 20
119.1949835919462
 30
0.0
 10
126.6311396078545
 20
119.395665166245
 30
0.0
 10
126.7156349757625
 20
119.5822653012523
 30
0.0
 10
126.9414399510333
 20
119.928926287976
 30
0.0
 10
127.0795400725838
 20
120.0830294575647
 30
0.0
 10
127.5545988137637
 20
120.4792075393774
 30
0.0
 10
127.946560626393
 20
120.648453411581
 30
0.0
 10
128.3582692056734
 20
120.7027769380923
 30
0.0
  0
SPLINE
  5
14461
330
1F
100
AcDbEntity
  8
AM_0
100
AcDbSpline
210
0.0
220
0.0
230
1.0
 70
     8
 71
     3
 72
    14
 73
    10
 74
     0
 42
0.0000000001
 43
0.0000000001
 40
0.0
 40
0.0
 40
0.0
 40
0.0
 40
0.25
 40
0.25
 40
0.5
 40
0.5
 40
0.75
 40
0.75
 40
1.0
 40
1.0
 40
1.0
 40
1.0
 10
124.8255403921357
 20
116.8386050248094
 30
0.0
 10
125.0378130834342
 20
116.9753277639296
 30
0.0
 10
125.2351984544639
 20
117.1284395008473
 30
0.0
 10
125.6005730086527
 20
117.4670243433041
 30
0.0
 10
125.7695569335137
 20
117.6537383474655
 30
0.0
 10
126.0713257885727
 20
118.0566385980359
 30
0.0
 10
126.2016461328549
 20
118.2690440760146
 30
0.0
 10
126.421231114593
 20
118.7157271350391
 30
0.0
 10
126.5111117693941
 20
118.9524783155551
 30
0.0
 10
126.5767892237145
 20
119.1949835919498
 30
0.0
  0
SPLINE
  5
14462
330
1F
100
AcDbEntity
  8
AM_0
100
AcDbSpline
210
0.0
220
0.0
230
1.0
 70
     8
 71
     3
 72
    10
 73
     6
 74
     0
 42
0.0000000001
 43
0.0000000001
 40
0.0
 40
0.0
 40
0.0
 40
0.0
 40
0.5
 40
0.5
 40
1.0
 40
1.0
 40
1.0
 40
1.0
 10
128.1124345124645
 20
118.8387585780832
 30
0.0
 10
128.1395576945033
 20
118.9391816301526
 30
0.0
 10
128.1984768659731
 20
119.0279240804688
 30
0.0
 10
128.3568891311224
 20
119.160127688678
 30
0.0
 10
128.4549305372839
 20
119.2024922393224
 30
0.0
 10
128.5579227098642
 20
119.2160842128909
 30
0.0
  0
SPLINE
  5
14463
330
1F
100
AcDbEntity
  8
AM_0
100
AcDbSpline
210
0.0
220
0.0
230
1.0
 70
     8
 71
     3
 72
     8
 73
     4
 74
     0
 42
0.0000000001
 43
0.0000000001
 40
0.0
 40
0.0
 40
0.0
 40
0.0
 40
1.0
 40
1.0
 40
1.0
 40
1.0
 10
129.0039611708053
 20
119.2741179003636
 30
0.0
 10
128.8552608559039
 20
119.2550473080849
 30
0.0
 10
128.7065813621648
 20
119.2357028345999
 30
0.0
 10
128.5579227098642
 20
119.2160842128909
 30
0.0
  0
LINE
  5
14464
330
1F
100
AcDbEntity
  8
AM_0
100
AcDbLine
 10
130.1306234666445
 20
120.922407806512
 30
0.0
 11
128.3582690976236
 21
120.7027777569168
 31
0.0
  0
SPLINE
  5
14465
330
1F
100
AcDbEntity
  8
AM_0
100
AcDbSpline
210
0.0
220
0.0
230
1.0
 70
     8
 71
     3
 72
    14
 73
    10
 74
     0
 42
0.0000000001
 43
0.0000000001
 40
0.0
 40
0.0
 40
0.0
 40
0.0
 40
0.25
 40
0.25
 40
0.5
 40
0.5
 40
0.75
 40
0.75
 40
1.0
 40
1.0
 40
1.0
 40
1.0
 10
163.7491650701941
 20
115.5794594221837
 30
0.0
 10
163.9262924706527
 20
115.467137011697
 30
0.0
 10
164.0856276275044
 20
115.3350787547819
 30
0.0
 10
164.3697238954428
 20
115.0326113688965
 30
0.0
 10
164.4938191148431
 20
114.8614568175056
 30
0.0
 10
164.6926304455337
 20
114.4988473144734
 30
0.0
 10
164.7701663665448
 20
114.3023222671785
 30
0.0
 10
164.8727550014155
 20
113.8999946399075
 30
0.0
 10
164.8986883495836
 20
113.6946008906228
 30
0.0
 10
164.8986851818354
 20
113.4848812107242
 30
0.0
  0
SPLINE
  5
14466
330
1F
100
AcDbEntity
  8
AM_0
100
AcDbSpline
210
0.0
220
0.0
230
1.0
 70
     8
 71
     3
 72
    16
 73
    12
 74
     0
 42
0.0000000001
 43
0.0000000001
 40
0.0
 40
0.0
 40
0.0
 40
0.0
 40
0.1249999999999986
 40
0.1249999999999986
 40
0.2499999999999972
 40
0.2499999999999972
 40
0.4999999999999984
 40
0.4999999999999984
 40
0.7499999999999992
 40
0.7499999999999992
 40
1.0
 40
1.0
 40
1.0
 40
1.0
 10
164.5944252466834
 20
116.8386050248094
 30
0.0
 10
164.732331352594
 20
116.7497810671542
 30
0.0
 10
164.8647152385038
 20
116.6524601754239
 30
0.0
 10
165.1181693653143
 20
116.4404103032888
 30
0.0
 10
165.2394145872931
 20
116.3252582203343
 30
0.0
 10
165.5758197698651
 20
115.9630526123768
 30
0.0
 10
165.7677646778047
 20
115.6967529155566
 30
0.0
 10
166.0855011301847
 20
115.1133405200565
 30
0.0
 10
166.2056103003033
 20
114.8059522373781
 30
0.0
 10
166.3679428785636
 20
114.1684142753323
 30
0.0
 10
166.409982819403
 20
113.8355415030831
 30
0.0
 10
166.409982819403
 20
113.5026934677001
 30
0.0
  0
SPLINE
  5
14467
330
1F
100
AcDbEntity
  8
AM_0
100
AcDbSpline
210
0.0
220
0.0
230
1.0
 70
     8
 71
     3
 72
     8
 73
     4
 74
     0
 42
0.0000000001
 43
0.0000000001
 40
0.0
 40
0.0
 40
0.0
 40
0.0
 40
1.0
 40
1.0
 40
1.0
 40
1.0
 10
160.8620434953136
 20
119.2160841381468
 30
0.0
 10
160.7133893608243
 20
119.2357021643441
 30
0.0
 10
160.564709678385
 20
119.2550466802498
 30
0.0
 10
160.4160044680557
 20
119.2741179003591
 30
0.0
  0
LWPOLYLINE
  5
14468
330
1F
100
AcDbEntity
  8
AM_0
100
AcDbPolyline
 90
        2
 70
   128
 43
0.0
 10
161.0616965412137
 20
120.702777756915
 10
158.4853266218051
 20
121.0141070923131
  0
SPLINE
  5
14469
330
1F
100
AcDbEntity
  8
AM_0
100
AcDbSpline
210
0.0
220
0.0
230
1.0
 70
     8
 71
     3
 72
    14
 73
    10
 74
     0
 42
0.0000000001
 43
0.0000000001
 40
0.0
 40
0.0
 40
0.0
 40
0.0
 40
0.25
 40
0.25
 40
0.5
 40
0.5
 40
0.75
 40
0.75
 40
1.0
 40
1.0
 40
1.0
 40
1.0
 10
161.061696433153
 20
120.7027769380923
 30
0.0
 10
161.2677688083531
 20
120.6755863992006
 30
0.0
 10
161.4653995938224
 20
120.6209313098146
 30
0.0
 10
161.843918648854
 20
120.4571496761904
 30
0.0
 10
162.0217392590439
 20
120.3483694753453
 30
0.0
 10
162.337193561214
 20
120.086148086429
 30
0.0
 10
162.4777850673636
 20
119.9295032450694
 30
0.0
 10
162.7018004876045
 20
119.586701617582
 30
0.0
 10
162.7887639933851
 20
119.3958942317898
 30
0.0
 10
162.8431764151137
 20
119.1949835919462
 30
0.0
  0
SPLINE
  5
1446A
330
1F
100
AcDbEntity
  8
AM_0
100
AcDbSpline
210
0.0
220
0.0
230
1.0
 70
     8
 71
     3
 72
    10
 73
     6
 74
     0
 42
0.0000000001
 43
0.0000000001
 40
0.0
 40
0.0
 40
0.0
 40
0.0
 40
0.5
 40
0.5
 40
1.0
 40
1.0
 40
1.0
 40
1.0
 10
160.8620434953136
 20
119.2160841381468
 30
0.0
 10
160.9651447366832
 20
119.2024776635147
 30
0.0
 10
161.0627390544341
 20
119.1601947263438
 30
0.0
 10
161.220522652633
 20
119.0289431785971
 30
0.0
 10
161.2803771750132
 20
118.9392955528332
 30
0.0
 10
161.3075311263528
 20
118.8387585780832
 30
0.0
  0
SPLINE
  5
1446B
330
1F
100
AcDbEntity
  8
AM_0
100
AcDbSpline
210
0.0
220
0.0
230
1.0
 70
     8
 71
     3
 72
    16
 73
    12
 74
     0
 42
0.0000000001
 43
0.0000000001
 40
0.0
 40
0.0
 40
0.0
 40
0.0
 40
0.2499999999999985
 40
0.2499999999999985
 40
0.3749999999999994
 40
0.3749999999999994
 40
0.5000000000000006
 40
0.5000000000000006
 40
0.7500000000000001
 40
0.7500000000000001
 40
1.0
 40
1.0
 40
1.0
 40
1.0
 10
161.3075311263528
 20
118.8387585780832
 30
0.0
 10
161.3988905399238
 20
118.5005021326964
 30
0.0
 10
161.5219469550029
 20
118.1770273263558
 30
0.0
 10
161.7508958162725
 20
117.7125040189979
 30
0.0
 10
161.8346592952239
 20
117.5611358539439
 30
0.0
 10
162.0171406497939
 20
117.2653733851952
 30
0.0
 10
162.1164002724836
 20
117.1203420885853
 30
0.0
 10
162.4311642477551
 20
116.7036233287302
 30
0.0
 10
162.6642681095928
 20
116.4483080534768
 30
0.0
 10
163.1746115443439
 20
115.9803636413502
 30
0.0
 10
163.4535784914351
 20
115.766900760724
 30
0.0
 10
163.7491650701941
 20
115.5794594221837
 30
0.0
  0
SPLINE
  5
1446C
330
1F
100
AcDbEntity
  8
AM_0
100
AcDbSpline
210
0.0
220
0.0
230
1.0
 70
     8
 71
     3
 72
    14
 73
    10
 74
     0
 42
0.0000000001
 43
0.0000000001
 40
0.0
 40
0.0
 40
0.0
 40
0.0
 40
0.25
 40
0.25
 40
0.5
 40
0.5
 40
0.75
 40
0.75
 40
1.0
 40
1.0
 40
1.0
 40
1.0
 10
162.8431764151137
 20
119.1949835919462
 30
0.0
 10
162.9085305634053
 20
118.9536720801364
 30
0.0
 10
162.9986473841345
 20
118.7158461335242
 30
0.0
 10
163.218767364604
 20
118.2681913940054
 30
0.0
 10
163.3492809930231
 20
118.0556837974276
 30
0.0
 10
163.6509254432331
 20
117.6531476083895
 30
0.0
 10
163.8198647272839
 20
117.4665451961922
 30
0.0
 10
164.1850581735143
 20
117.1282115992675
 30
0.0
 10
164.3823190491839
 20
116.9752205269227
 30
0.0
 10
164.5944252466743
 20
116.8386050248094
 30
0.0
  0
LWPOLYLINE
  5
1446D
330
1F
100
AcDbEntity
  8
AM_0
100
AcDbPolyline
 90
        8
 70
     0
 43
0.0
 10
143.7099791614155
 20
85.47411790036438
 10
125.7099739250161
 20
85.47411790036438
 42
-0.4142135623731046
 10
124.709973925038
 20
86.47411790036528
 10
124.709973925038
 20
113.8598418960783
 42
-0.1989123673796409
 10
125.0028671438367
 20
114.5669486772673
 10
129.4170807062174
 20
118.9811622396354
 42
-0.198912367379617
 10
130.1241874873968
 20
119.2740554584494
 10
144.7099739250161
 20
119.2740554584523
  0
LWPOLYLINE
  5
1446E
330
1F
100
AcDbEntity
  8
AM_0
100
AcDbPolyline
 90
        8
 70
     0
 43
0.0
 10
145.7099791614156
 20
85.47411790036438
 10
163.709973925038
 20
85.47411790036438
 42
0.4142135623731046
 10
164.7099739250161
 20
86.47411790036528
 10
164.7099739250161
 20
113.8598418960783
 42
0.1989123673796409
 10
164.4170807062174
 20
114.5669486772673
 10
160.0028671438368
 20
118.9811622396354
 42
0.198912367379617
 10
159.2957603626464
 20
119.2740554584494
 10
144.7099739250161
 20
119.2740554584523
  0
LINE
  5
1446F
330
1F
100
AcDbEntity
  8
AM_0
100
AcDbLine
 10
129.0034742962911
 20
119.2740554584494
 30
0.0
 11
160.4164913425345
 21
119.2740554584494
 31
0.0
  0
CIRCLE
  5
147EC
330
1F
100
AcDbEntity
  8
AM_6
100
AcDbCircle
 10
75.22947832550814
 20
252.269342119313
 30
0.0
 40
1.8
  0
CIRCLE
  5
147ED
330
1F
100
AcDbEntity
  8
AM_6
100
AcDbCircle
 10
81.10360428437822
 20
244.2990238828242
 30
0.0
 40
1.8
  0
TEXT
  5
147EE
330
1F
100
AcDbEntity
  8
AM_6
 60
     1
100
AcDbText
 10
408.4999999999999
 20
8.5
 30
0.0
 40
2.5
  1
!GENTITLE-INSERT
100
AcDbText
  0
TEXT
  5
147EF
330
1F
100
AcDbEntity
  8
AM_6
 60
     1
100
AcDbText
 10
0.0
 20
0.0
 30
0.0
 40
2.5
  1
!GENTITLE-LL
100
AcDbText
  0
TEXT
  5
147F0
330
1F
100
AcDbEntity
  8
AM_6
 60
     1
100
AcDbText
 10
420.0
 20
297.0
 30
0.0
 40
2.5
  1
!GENTITLE-RU
100
AcDbText
  0
TEXT
  5
147F1
330
1F
100
AcDbEntity
  8
AM_6
 60
     1
100
AcDbText
 10
420.0
 20
297.0
 30
0.0
 40
2.5
  1
!GENTITLE-MAX
100
AcDbText
  0
LINE
  5
147F3
330
1F
100
AcDbEntity
  8
size
100
AcDbLine
 10
0.0
 20
0.0
 30
0.0
 11
420.0
 21
0.0
 31
0.0
1001
GENIUS_GENREC_14
1002
{
1000
PYDIR
1011
0.0000000000000178
1021
297.0
1031
0.0
1002
}
1002
{
1000
PXDIR
1011
420.0
1021
0.0
1031
0.0
1002
}
1002
{
1000
PORI
1011
0.0
1021
0.0
1031
0.0
1002
}
1002
{
1000
PINS
1011
210.0
1021
148.4999999999999
1031
0.0
1002
}
1002
{
1000
HVAL
1000
297
1002
}
1002
{
1000
H
1070
     2
1002
}
1002
{
1000
WVAL
1000
420
1002
}
1002
{
1000
W
1070
     2
1002
}
1002
{
1000
C
1070
     4
1002
}
1001
GENIUS_GENOBJ-N-REC_13
1002
{
1000
OWNER
1000
GEN
1002
}
1001
GENIUS_GENODEF_13
1002
{
1000
HIER
1070
     0
1002
}
1002
{
1000
MANEDIT
1070
     0
1002
}
1002
{
1000
NOSEL
1070
     0
1002
}
1002
{
1000
BEHIND
1070
     0
1002
}
1002
{
1000
OTHER
1070
     0
1002
}
1002
{
1000
REACTOR
1002
}
  0
LINE
  5
147F4
330
1F
100
AcDbEntity
  8
size
100
AcDbLine
 10
420.0
 20
0.0
 30
0.0
 11
420.0
 21
297.0
 31
0.0
1001
GENIUS_GENREC_14
1002
{
1000
PYDIR
1011
0.0000000000000178
1021
297.0
1031
0.0
1002
}
1002
{
1000
PXDIR
1011
420.0
1021
0.0
1031
0.0
1002
}
1002
{
1000
PORI
1011
0.0
1021
0.0
1031
0.0
1002
}
1002
{
1000
PINS
1011
210.0
1021
148.4999999999999
1031
0.0
1002
}
1002
{
1000
HVAL
1000
297
1002
}
1002
{
1000
H
1070
     2
1002
}
1002
{
1000
WVAL
1000
420
1002
}
1002
{
1000
W
1070
     2
1002
}
1002
{
1000
C
1070
     4
1002
}
1001
GENIUS_GENOBJ-N-REC_13
1002
{
1000
OWNER
1000
GEN
1002
}
1001
GENIUS_GENODEF_13
1002
{
1000
HIER
1070
     0
1002
}
1002
{
1000
MANEDIT
1070
     0
1002
}
1002
{
1000
NOSEL
1070
     0
1002
}
1002
{
1000
BEHIND
1070
     0
1002
}
1002
{
1000
OTHER
1070
     0
1002
}
1002
{
1000
REACTOR
1002
}
  0
LINE
  5
147F5
330
1F
100
AcDbEntity
  8
size
100
AcDbLine
 10
420.0
 20
297.0
 30
0.0
 11
0.0000000000000275
 21
297.0
 31
0.0
1001
GENIUS_GENREC_14
1002
{
1000
PYDIR
1011
0.0000000000000178
1021
297.0
1031
0.0
1002
}
1002
{
1000
PXDIR
1011
420.0
1021
0.0
1031
0.0
1002
}
1002
{
1000
PORI
1011
0.0
1021
0.0
1031
0.0
1002
}
1002
{
1000
PINS
1011
210.0
1021
148.4999999999999
1031
0.0
1002
}
1002
{
1000
HVAL
1000
297
1002
}
1002
{
1000
H
1070
     2
1002
}
1002
{
1000
WVAL
1000
420
1002
}
1002
{
1000
W
1070
     2
1002
}
1002
{
1000
C
1070
     4
1002
}
1001
GENIUS_GENOBJ-N-REC_13
1002
{
1000
OWNER
1000
GEN
1002
}
1001
GENIUS_GENODEF_13
1002
{
1000
HIER
1070
     0
1002
}
1002
{
1000
MANEDIT
1070
     0
1002
}
1002
{
1000
NOSEL
1070
     0
1002
}
1002
{
1000
BEHIND
1070
     0
1002
}
1002
{
1000
OTHER
1070
     0
1002
}
1002
{
1000
REACTOR
1002
}
  0
LINE
  5
147F6
330
1F
100
AcDbEntity
  8
size
100
AcDbLine
 10
0.0000000000000275
 20
297.0
 30
0.0
 11
0.0
 21
0.0
 31
0.0
1001
GENIUS_GENREC_14
1002
{
1000
PYDIR
1011
0.0000000000000178
1021
297.0
1031
0.0
1002
}
1002
{
1000
PXDIR
1011
420.0
1021
0.0
1031
0.0
1002
}
1002
{
1000
PORI
1011
0.0
1021
0.0
1031
0.0
1002
}
1002
{
1000
PINS
1011
210.0
1021
148.4999999999999
1031
0.0
1002
}
1002
{
1000
HVAL
1000
297
1002
}
1002
{
1000
H
1070
     2
1002
}
1002
{
1000
WVAL
1000
420
1002
}
1002
{
1000
W
1070
     2
1002
}
1002
{
1000
C
1070
     4
1002
}
1001
GENIUS_GENOBJ-N-REC_13
1002
{
1000
OWNER
1000
GEN
1002
}
1001
GENIUS_GENODEF_13
1002
{
1000
HIER
1070
     0
1002
}
1002
{
1000
MANEDIT
1070
     0
1002
}
1002
{
1000
NOSEL
1070
     0
1002
}
1002
{
1000
BEHIND
1070
     0
1002
}
1002
{
1000
OTHER
1070
     0
1002
}
1002
{
1000
REACTOR
1002
}
  0
LINE
  5
147F7
330
1F
100
AcDbEntity
  8
waku
100
AcDbLine
 10
408.4999999999999
 20
8.5
 30
0.0
 11
408.4999999999999
 21
288.5
 31
0.0
1001
GENIUS_GENREC_14
1002
{
1000
PYDIR
1011
0.0000000000000178
1021
297.0
1031
0.0
1002
}
1002
{
1000
PXDIR
1011
420.0
1021
0.0
1031
0.0
1002
}
1002
{
1000
PORI
1011
0.0
1021
0.0
1031
0.0
1002
}
1002
{
1000
PINS
1011
210.0
1021
148.4999999999999
1031
0.0
1002
}
1002
{
1000
HVAL
1000
297
1002
}
1002
{
1000
H
1070
     2
1002
}
1002
{
1000
WVAL
1000
420
1002
}
1002
{
1000
W
1070
     2
1002
}
1002
{
1000
C
1070
     4
1002
}
1001
GENIUS_GENOBJ-N-REC_13
1002
{
1000
OWNER
1000
GEN
1002
}
1001
GENIUS_GENODEF_13
1002
{
1000
HIER
1070
     0
1002
}
1002
{
1000
MANEDIT
1070
     0
1002
}
1002
{
1000
NOSEL
1070
     0
1002
}
1002
{
1000
BEHIND
1070
     0
1002
}
1002
{
1000
OTHER
1070
     0
1002
}
1002
{
1000
REACTOR
1002
}
  0
LINE
  5
147F8
330
1F
100
AcDbEntity
  8
waku
100
AcDbLine
 10
11.50000000000002
 20
288.5
 30
0.0
 11
11.5
 21
8.5
 31
0.0
1001
GENIUS_GENREC_14
1002
{
1000
PYDIR
1011
0.0000000000000178
1021
297.0
1031
0.0
1002
}
1002
{
1000
PXDIR
1011
420.0
1021
0.0
1031
0.0
1002
}
1002
{
1000
PORI
1011
0.0
1021
0.0
1031
0.0
1002
}
1002
{
1000
PINS
1011
210.0
1021
148.4999999999999
1031
0.0
1002
}
1002
{
1000
HVAL
1000
297
1002
}
1002
{
1000
H
1070
     2
1002
}
1002
{
1000
WVAL
1000
420
1002
}
1002
{
1000
W
1070
     2
1002
}
1002
{
1000
C
1070
     4
1002
}
1001
GENIUS_GENOBJ-N-REC_13
1002
{
1000
OWNER
1000
GEN
1002
}
1001
GENIUS_GENODEF_13
1002
{
1000
HIER
1070
     0
1002
}
1002
{
1000
MANEDIT
1070
     0
1002
}
1002
{
1000
NOSEL
1070
     0
1002
}
1002
{
1000
BEHIND
1070
     0
1002
}
1002
{
1000
OTHER
1070
     0
1002
}
1002
{
1000
REACTOR
1002
}
  0
LINE
  5
147F9
330
1F
100
AcDbEntity
  8
waku
100
AcDbLine
 10
408.4999999999999
 20
288.5
 30
0.0
 11
11.50000000000002
 21
288.5
 31
0.0
1001
GENIUS_GENREC_14
1002
{
1000
PYDIR
1011
0.0000000000000178
1021
297.0
1031
0.0
1002
}
1002
{
1000
PXDIR
1011
420.0
1021
0.0
1031
0.0
1002
}
1002
{
1000
PORI
1011
0.0
1021
0.0
1031
0.0
1002
}
1002
{
1000
PINS
1011
210.0
1021
148.4999999999999
1031
0.0
1002
}
1002
{
1000
HVAL
1000
297
1002
}
1002
{
1000
H
1070
     2
1002
}
1002
{
1000
WVAL
1000
420
1002
}
1002
{
1000
W
1070
     2
1002
}
1002
{
1000
C
1070
     4
1002
}
1001
GENIUS_GENOBJ-N-REC_13
1002
{
1000
OWNER
1000
GEN
1002
}
1001
GENIUS_GENODEF_13
1002
{
1000
HIER
1070
     0
1002
}
1002
{
1000
MANEDIT
1070
     0
1002
}
1002
{
1000
NOSEL
1070
     0
1002
}
1002
{
1000
BEHIND
1070
     0
1002
}
1002
{
1000
OTHER
1070
     0
1002
}
1002
{
1000
REACTOR
1002
}
  0
TEXT
  5
147FA
330
1F
100
AcDbEntity
  8
AM_6
 60
     1
100
AcDbText
 10
0.0
 20
0.0
 30
0.0
 40
2.5
  1
!GENTITLE-LL
100
AcDbText
  0
TEXT
  5
147FB
330
1F
100
AcDbEntity
  8
AM_6
 60
     1
100
AcDbText
 10
408.4999999999999
 20
288.5
 30
0.0
 40
2.5
  1
!GENTITLE-RU
100
AcDbText
  0
TEXT
  5
147FC
330
1F
100
AcDbEntity
  8
AM_6
 60
     1
100
AcDbText
 10
420.0
 20
297.0
 30
0.0
 40
2.5
  1
!GENTITLE-MAX
100
AcDbText
  0
TEXT
  5
147FD
330
1F
100
AcDbEntity
  8
AM_6
 60
     1
100
AcDbText
 10
408.4999999999999
 20
8.5
 30
0.0
 40
2.5
  1
!GENTITLE-INSERT
100
AcDbText
  0
LINE
  5
147FE
330
1F
100
AcDbEntity
  8
waku
100
AcDbLine
 10
11.5
 20
8.5
 30
0.0
 11
408.4999999999999
 21
8.5
 31
0.0
  0
DIMENSION
  5
14C35
330
1F
100
AcDbEntity
  8
AM_5
100
AcDbDimension
  2
*D18
 10
111.0100527146206
 20
85.47411790035893
 30
0.0
 11
107.9100527146207
 21
80.57411790035896
 31
0.0
 70
    32
 71
     5
 42
5.400000564132596
  3
SYS$0
100
AcDbAlignedDimension
 13
124.4599739250378
 23
90.87411846449153
 33
0.0
 14
124.0178093002632
 24
85.47411790035893
 34
0.0
 50
89.99999384338737
100
AcDbRotatedDimension
1001
ACAD_DSTYLE_DIMINSPECT
1070
   396
1000
100%
1070
   395
1000

1070
   394
1070
    33
1070
   393
1070
     0
  0
DIMENSION
  5
14CFB
330
1F
100
AcDbEntity
  8
AM_5
100
AcDbDimension
  2
*D19
 10
290.5574850734149
 20
245.7378052146962
 30
0.0
 11
272.3061877114998
 21
248.8378052146962
 31
0.0
 70
    32
 71
     5
 42
36.50259472383016
  3
SYS$0
100
AcDbAlignedDimension
 13
254.0548903495848
 23
211.3251307459464
 33
0.0
 14
290.5574850734149
 24
225.4378046368852
 34
0.0
100
AcDbRotatedDimension
1001
ACAD_DSTYLE_DIMINSPECT
1070
   396
1000
100%
1070
   395
1000

1070
   394
1070
    33
1070
   393
1070
     0
  0
ENDSEC
  0
SECTION
  2
OBJECTS
  0
DICTIONARY
  5
C
330
0
100
AcDbDictionary
281
     1
  3
ACAD_2007HEADERVARS_RT
350
15005
  3
ACAD_BGPLOT_KEY
350
AB06
  3
ACAD_COLOR
350
A91D
  3
ACAD_GROUP
350
D
  3
ACAD_LAYOUT
350
1A
  3
ACAD_MATERIAL
350
A91C
  3
ACAD_MLEADERSTYLE
350
B3AD
  3
ACAD_MLINESTYLE
350
17
  3
ACAD_PLOTSETTINGS
350
19
  3
ACAD_PLOTSTYLENAME
350
E
  3
ACAD_SCALELIST
350
B38B
  3
ACAD_TABLESTYLE
350
AAB9
  3
ACAD_VISUALSTYLE
350
B0F1
  3
AcAsAppObject
350
3DA1
  3
ACASGREF_MASTER
350
3DE9
  3
ACDB_RECOMPOSE_DATA
350
B3DD
  3
AcDbVariableDictionary
350
34
  3
AcmDictionary
350
47
  3
AD_GREF_MODULE
350
3DEA
  3
AD_MAPI_MODULE
350
3E06
  3
AMG
350
2B
  3
AMGSNAPSETTINGS
350
7D
  3
ASE_INDEX_DICTIONARY
350
B331
  3
DWGPROPS
350
15004
  3
MAPISURF_MODULE
350
3DEB
  0
DICTIONARY
  5
3F95
330
2
100
AcDbDictionary
280
     1
281
     1
  3
ACAD_LAYERFILTERS
360
D71B
  3
ACAD_LAYERSTATES
360
3F96
  3
ACLYDICTIONARY
360
D71A
  3
AMLAYER_GROUPCOLORS
360
AAB4
  0
DICTIONARY
  5
BB8F
330
10
100
AcDbDictionary
280
     1
281
     1
  3
ADSK_XREC_LAYER_RECONCILED
360
BB90
  0
DICTIONARY
  5
BB91
330
5F85
100
AcDbDictionary
280
     1
281
     1
  3
ADSK_XREC_LAYER_RECONCILED
360
BB92
  0
DICTIONARY
  5
BB93
330
AC9F
100
AcDbDictionary
280
     1
281
     1
  3
ADSK_XREC_LAYER_RECONCILED
360
BB94
  0
DICTIONARY
  5
BB95
330
ACA0
100
AcDbDictionary
280
     1
281
     1
  3
ADSK_XREC_LAYER_RECONCILED
360
BB96
  0
DICTIONARY
  5
BB97
330
ACA1
100
AcDbDictionary
280
     1
281
     1
  3
ADSK_XREC_LAYER_RECONCILED
360
BB98
  0
DICTIONARY
  5
BB99
330
ACC8
100
AcDbDictionary
280
     1
281
     1
  3
ADSK_XREC_LAYER_RECONCILED
360
BB9A
  0
DICTIONARY
  5
BB9B
330
ACC9
100
AcDbDictionary
280
     1
281
     1
  3
ADSK_XREC_LAYER_RECONCILED
360
BB9C
  0
DICTIONARY
  5
BB9D
330
ACCA
100
AcDbDictionary
280
     1
281
     1
  3
ADSK_XREC_LAYER_RECONCILED
360
BB9E
  0
DICTIONARY
  5
BB9F
330
AD60
100
AcDbDictionary
280
     1
281
     1
  3
ADSK_XREC_LAYER_RECONCILED
360
BBA0
  0
DICTIONARY
  5
BBA1
330
AD64
100
AcDbDictionary
280
     1
281
     1
  3
ADSK_XREC_LAYER_RECONCILED
360
BBA2
  0
DICTIONARY
  5
BBA3
330
AD67
100
AcDbDictionary
280
     1
281
     1
  3
ADSK_XREC_LAYER_RECONCILED
360
BBA4
  0
DICTIONARY
  5
BBA5
330
AD68
100
AcDbDictionary
280
     1
281
     1
  3
ADSK_XREC_LAYER_RECONCILED
360
BBA6
  0
DICTIONARY
  5
BBA7
330
AD69
100
AcDbDictionary
280
     1
281
     1
  3
ADSK_XREC_LAYER_RECONCILED
360
BBA8
  0
DICTIONARY
  5
BBA9
330
AD6A
100
AcDbDictionary
280
     1
281
     1
  3
ADSK_XREC_LAYER_RECONCILED
360
BBAA
  0
DICTIONARY
  5
BBAB
330
AD6E
100
AcDbDictionary
280
     1
281
     1
  3
ADSK_XREC_LAYER_RECONCILED
360
BBAC
  0
DICTIONARY
  5
BBAD
330
AD6F
100
AcDbDictionary
280
     1
281
     1
  3
ADSK_XREC_LAYER_RECONCILED
360
BBAE
  0
DICTIONARY
  5
BBAF
330
B1B6
100
AcDbDictionary
280
     1
281
     1
  3
ADSK_XREC_LAYER_RECONCILED
360
BBB0
  0
DICTIONARY
  5
BBB1
330
B2EB
100
AcDbDictionary
280
     1
281
     1
  3
ADSK_XREC_LAYER_RECONCILED
360
BBB2
  0
DICTIONARY
  5
BBB3
330
B2EC
100
AcDbDictionary
280
     1
281
     1
  3
ADSK_XREC_LAYER_RECONCILED
360
BBB4
  0
DICTIONARY
  5
BBB5
330
B690
100
AcDbDictionary
280
     1
281
     1
  3
ADSK_XREC_LAYER_RECONCILED
360
BBB6
  0
DICTIONARY
  5
BBB7
330
B691
100
AcDbDictionary
280
     1
281
     1
  3
ADSK_XREC_LAYER_RECONCILED
360
BBB8
  0
DICTIONARY
  5
BBB9
330
B692
100
AcDbDictionary
280
     1
281
     1
  3
ADSK_XREC_LAYER_RECONCILED
360
BBBA
  0
DICTIONARY
  5
BBBB
330
B693
100
AcDbDictionary
280
     1
281
     1
  3
ADSK_XREC_LAYER_RECONCILED
360
BBBC
  0
DICTIONARY
  5
BBBD
330
B694
100
AcDbDictionary
280
     1
281
     1
  3
ADSK_XREC_LAYER_RECONCILED
360
BBBE
  0
DICTIONARY
  5
BBBF
330
B695
100
AcDbDictionary
280
     1
281
     1
  3
ADSK_XREC_LAYER_RECONCILED
360
BBC0
  0
DICTIONARY
  5
BBC1
330
B696
100
AcDbDictionary
280
     1
281
     1
  3
ADSK_XREC_LAYER_RECONCILED
360
BBC2
  0
DICTIONARY
  5
BBC3
330
B697
100
AcDbDictionary
280
     1
281
     1
  3
ADSK_XREC_LAYER_RECONCILED
360
BBC4
  0
DICTIONARY
  5
BBC5
330
B698
100
AcDbDictionary
280
     1
281
     1
  3
ADSK_XREC_LAYER_RECONCILED
360
BBC6
  0
DICTIONARY
  5
BBC7
330
B699
100
AcDbDictionary
280
     1
281
     1
  3
ADSK_XREC_LAYER_RECONCILED
360
BBC8
  0
DICTIONARY
  5
BBC9
330
B69A
100
AcDbDictionary
280
     1
281
     1
  3
ADSK_XREC_LAYER_RECONCILED
360
BBCA
  0
DICTIONARY
  5
BBCB
330
B69B
100
AcDbDictionary
280
     1
281
     1
  3
ADSK_XREC_LAYER_RECONCILED
360
BBCC
  0
DICTIONARY
  5
B69D
330
B69C
100
AcDbDictionary
280
     1
281
     1
  3
ADSK_XREC_LAYER_RECONCILED
360
BBCD
  0
DICTIONARY
  5
BBCE
330
B69E
100
AcDbDictionary
280
     1
281
     1
  3
ADSK_XREC_LAYER_RECONCILED
360
BBCF
  0
DICTIONARY
  5
8A
330
1F
100
AcDbDictionary
280
     1
281
     1
  3
ACAD_SORTENTS
360
B1BA
  0
DICTIONARY
  5
15005
102
{ACAD_REACTORS
330
C
102
}
330
C
100
AcDbDictionary
281
     1
  3
DIMARCSYM
350
15006
  0
DICTIONARY
  5
AB06
102
{ACAD_REACTORS
330
C
102
}
330
C
100
AcDbDictionary
280
     1
281
     1
  0
DICTIONARY
  5
A91D
102
{ACAD_REACTORS
330
C
102
}
330
C
100
AcDbDictionary
281
     1
  0
DICTIONARY
  5
D
102
{ACAD_REACTORS
330
C
102
}
330
C
100
AcDbDictionary
281
     1
  0
DICTIONARY
  5
1A
102
{ACAD_REACTORS
330
C
102
}
330
C
100
AcDbDictionary
281
     1
  3
Model
350
22
  3
ﾚｲｱｳﾄ1
350
1E
  3
ﾚｲｱｳﾄ2
350
26
  0
DICTIONARY
  5
A91C
102
{ACAD_REACTORS
330
C
102
}
330
C
100
AcDbDictionary
281
     1
  3
ByBlock
350
B0EF
  3
ByLayer
350
B0EE
  3
Global
350
B0F0
  0
DICTIONARY
  5
B3AD
102
{ACAD_REACTORS
330
C
102
}
330
C
100
AcDbDictionary
281
     1
  3
Standard
350
B3AE
  0
DICTIONARY
  5
17
102
{ACAD_REACTORS
330
C
102
}
330
C
100
AcDbDictionary
281
     1
  3
Standard
350
18
  0
DICTIONARY
  5
19
102
{ACAD_REACTORS
330
C
102
}
330
C
100
AcDbDictionary
281
     1
  3
01 A3フィット
350
B46C
  3
02 A3
350
B46D
  3
03 A2フィット
350
B46E
  3
04 A2
350
B46F
  3
05 A1フィット
350
B470
  3
06 A1
350
B471
  3
06 A4フィット
350
B472
  3
07 A4
350
B473
  0
ACDBDICTIONARYWDFLT
  5
E
102
{ACAD_REACTORS
330
C
102
}
330
C
100
AcDbDictionary
281
     1
  3
Normal
350
F
100
AcDbDictionaryWithDefault
340
F
  0
DICTIONARY
  5
B38B
102
{ACAD_REACTORS
330
C
102
}
330
C
100
AcDbDictionary
281
     1
  3
A0
350
B38C
  3
A1
350
B38D
  3
A2
350
B38E
  3
A3
350
B38F
  3
A4
350
B390
  3
A5
350
B391
  3
A6
350
B392
  3
A7
350
B393
  3
A8
350
B394
  3
A9
350
B395
  3
B0
350
B396
  3
B1
350
B397
  3
B2
350
B398
  3
B3
350
B399
  3
B4
350
B39A
  3
B5
350
B39B
  3
B6
350
B39C
  3
B7
350
B39D
  3
B8
350
B39E
  3
B9
350
B39F
  3
C0
350
B3A0
  3
C1
350
B3A1
  3
C2
350
B3A2
  3
C3
350
B3A3
  3
C4
350
B3A4
  3
C5
350
B3A5
  3
C6
350
B3A6
  3
C7
350
B3A7
  3
C8
350
B3A8
  3
C9
350
B3A9
  3
D0
350
B3AA
  3
D1
350
B3AB
  3
D2
350
B3AC
  0
DICTIONARY
  5
AAB9
102
{ACAD_REACTORS
330
C
102
}
330
C
100
AcDbDictionary
281
     1
  3
Standard
350
AABA
  0
DICTIONARY
  5
B0F1
102
{ACAD_REACTORS
330
C
102
}
330
C
100
AcDbDictionary
281
     1
  3
2dWireframe
350
B0F7
  3
3D Hidden
350
B0F9
  3
3dWireframe
350
B0F8
  3
Basic
350
B0F6
  3
Brighten
350
B0FD
  3
ColorChange
350
B101
  3
Conceptual
350
B0FA
  3
Dim
350
B0FC
  3
Facepattern
350
B100
  3
Flat
350
B0F2
  3
FlatWithEdges
350
B0F3
  3
Gouraud
350
B0F4
  3
GouraudWithEdges
350
B0F5
  3
Linepattern
350
B0FF
  3
Realistic
350
B0FB
  3
Thicken
350
B0FE
  0
ACAD_PROXY_OBJECT
  5
3DA1
102
{ACAD_REACTORS
330
C
102
}
330
C
100
AcDbProxyObject
 90
      499
 91
      576
 95
   917527
 70
     0
 93
       10
310
407F
 94
        0
1001
ACAD
1000
AcRTDxfName
1000
ASAPP
  0
ACAD_PROXY_OBJECT
  5
3DE9
102
{ACAD_REACTORS
330
C
102
}
330
C
100
AcDbProxyObject
 90
      499
 91
      581
 95
   917527
 70
     0
 93
       34
310
010000407F
 94
        0
1001
ACAD
1000
AcRTDxfName
1000
ACASGREFMASTER
  0
XRECORD
  5
B3DD
102
{ACAD_REACTORS
330
C
102
}
330
C
100
AcDbXrecord
280
     1
 90
        1
330
AABA
  0
DICTIONARY
  5
34
102
{ACAD_REACTORS
330
C
102
}
330
C
100
AcDbDictionary
281
     1
  3
CANNOSCALE
350
B3E0
  3
CMLEADERSTYLE
350
B3DE
  3
CTABLESTYLE
350
AAF3
  3
DIMASSOC
350
A10C
  3
FIELDEVAL
350
AB07
  3
INDEXCTL
350
35
  3
LIGHTINGUNITS
350
B3E1
  3
MSLTSCALE
350
B3DF
  3
SORTENTS
350
194C
  0
DICTIONARY
  5
47
102
{ACAD_REACTORS
330
C
102
}
330
C
100
AcDbDictionary
281
     1
  3
AcmBOM
350
7E8
  3
AcmStdDictionary
350
4C
  3
AMDTSECTSYM_ARROWCOLOR
350
A929
  0
ACAD_PROXY_OBJECT
  5
3DEA
102
{ACAD_REACTORS
330
C
102
}
330
C
100
AcDbProxyObject
 90
      499
 91
      582
 95
   917527
 70
     0
 93
      114
310
00000043800000000000000000003F
 94
        0
1001
ACAD
1000
AcRTDxfName
1000
ACADGREFMODULE
  0
ACAD_PROXY_OBJECT
  5
3E06
102
{ACAD_REACTORS
330
C
102
}
330
C
100
AcDbProxyObject
 90
      499
 91
      594
 95
   917527
 70
     0
 93
       34
310
05000044FF
 94
        0
1001
ACAD
1000
AcRTDxfName
1000
MAPIADMODULE
  0
DICTIONARY
  5
2B
102
{ACAD_REACTORS
330
C
102
}
330
C
100
AcDbDictionary
281
     1
  0
DICTIONARY
  5
7D
102
{ACAD_REACTORS
330
C
102
}
330
C
100
AcDbDictionary
281
     1
  0
DICTIONARY
  5
B331
102
{ACAD_REACTORS
330
C
102
}
330
C
100
AcDbDictionary
281
     1
  3
ASEBlockHierarchyIndexRecord
350
B332
1001
DCO15
1040
1594111214.218
  0
XRECORD
  5
15004
102
{ACAD_REACTORS
330
C
102
}
330
C
100
AcDbXrecord
280
     1
  1
DWGPROPS COOKIE
  2

  3

  4

  6

  7

  8
Administrator
  9

300
AmdtFileType=84
301
=
302
=
303
=
304
=
305
=
306
=
307
=
308
=
309
=
 40
1.181023425925926
 41
2455237.49557779
 42
2455399.557001586
  1

 90
        1
  0
ACAD_PROXY_OBJECT
  5
3DEB
102
{ACAD_REACTORS
330
C
102
}
330
C
100
AcDbProxyObject
 90
      499
 91
      583
 95
   917527
 70
     0
 93
        8
310
047E
 94
        0
1001
ACAD
1000
AcRTDxfName
1000
AMDTMAPISURFMOUDULE
  0
DICTIONARY
  5
D71B
102
{ACAD_REACTORS
330
3F95
102
}
330
3F95
100
AcDbDictionary
281
     1
  0
DICTIONARY
  5
3F96
102
{ACAD_REACTORS
330
3F95
102
}
330
3F95
100
AcDbDictionary
281
     1
  3
20011210
350
3FB7
  0
DICTIONARY
  5
D71A
102
{ACAD_REACTORS
330
3F95
102
}
330
3F95
100
AcDbDictionary
281
     1
1001
ACAD
1000
<All
  0
DICTIONARY
  5
AAB4
102
{ACAD_REACTORS
330
3F95
102
}
330
3F95
100
AcDbDictionary
280
     1
281
     1
  0
XRECORD
  5
BB90
102
{ACAD_REACTORS
330
BB8F
102
}
330
BB8F
100
AcDbXrecord
280
     1
290
     1
  0
XRECORD
  5
BB92
102
{ACAD_REACTORS
330
BB91
102
}
330
BB91
100
AcDbXrecord
280
     1
290
     1
  0
XRECORD
  5
BB94
102
{ACAD_REACTORS
330
BB93
102
}
330
BB93
100
AcDbXrecord
280
     1
290
     1
  0
XRECORD
  5
BB96
102
{ACAD_REACTORS
330
BB95
102
}
330
BB95
100
AcDbXrecord
280
     1
290
     1
  0
XRECORD
  5
BB98
102
{ACAD_REACTORS
330
BB97
102
}
330
BB97
100
AcDbXrecord
280
     1
290
     1
  0
XRECORD
  5
BB9A
102
{ACAD_REACTORS
330
BB99
102
}
330
BB99
100
AcDbXrecord
280
     1
290
     1
  0
XRECORD
  5
BB9C
102
{ACAD_REACTORS
330
BB9B
102
}
330
BB9B
100
AcDbXrecord
280
     1
290
     1
  0
XRECORD
  5
BB9E
102
{ACAD_REACTORS
330
BB9D
102
}
330
BB9D
100
AcDbXrecord
280
     1
290
     1
  0
XRECORD
  5
BBA0
102
{ACAD_REACTORS
330
BB9F
102
}
330
BB9F
100
AcDbXrecord
280
     1
290
     1
  0
XRECORD
  5
BBA2
102
{ACAD_REACTORS
330
BBA1
102
}
330
BBA1
100
AcDbXrecord
280
     1
290
     1
  0
XRECORD
  5
BBA4
102
{ACAD_REACTORS
330
BBA3
102
}
330
BBA3
100
AcDbXrecord
280
     1
290
     1
  0
XRECORD
  5
BBA6
102
{ACAD_REACTORS
330
BBA5
102
}
330
BBA5
100
AcDbXrecord
280
     1
290
     1
  0
XRECORD
  5
BBA8
102
{ACAD_REACTORS
330
BBA7
102
}
330
BBA7
100
AcDbXrecord
280
     1
290
     1
  0
XRECORD
  5
BBAA
102
{ACAD_REACTORS
330
BBA9
102
}
330
BBA9
100
AcDbXrecord
280
     1
290
     1
  0
XRECORD
  5
BBAC
102
{ACAD_REACTORS
330
BBAB
102
}
330
BBAB
100
AcDbXrecord
280
     1
290
     1
  0
XRECORD
  5
BBAE
102
{ACAD_REACTORS
330
BBAD
102
}
330
BBAD
100
AcDbXrecord
280
     1
290
     1
  0
XRECORD
  5
BBB0
102
{ACAD_REACTORS
330
BBAF
102
}
330
BBAF
100
AcDbXrecord
280
     1
290
     1
  0
XRECORD
  5
BBB2
102
{ACAD_REACTORS
330
BBB1
102
}
330
BBB1
100
AcDbXrecord
280
     1
290
     1
  0
XRECORD
  5
BBB4
102
{ACAD_REACTORS
330
BBB3
102
}
330
BBB3
100
AcDbXrecord
280
     1
290
     1
  0
XRECORD
  5
BBB6
102
{ACAD_REACTORS
330
BBB5
102
}
330
BBB5
100
AcDbXrecord
280
     1
290
     1
  0
XRECORD
  5
BBB8
102
{ACAD_REACTORS
330
BBB7
102
}
330
BBB7
100
AcDbXrecord
280
     1
290
     1
  0
XRECORD
  5
BBBA
102
{ACAD_REACTORS
330
BBB9
102
}
330
BBB9
100
AcDbXrecord
280
     1
290
     1
  0
XRECORD
  5
BBBC
102
{ACAD_REACTORS
330
BBBB
102
}
330
BBBB
100
AcDbXrecord
280
     1
290
     1
  0
XRECORD
  5
BBBE
102
{ACAD_REACTORS
330
BBBD
102
}
330
BBBD
100
AcDbXrecord
280
     1
290
     1
  0
XRECORD
  5
BBC0
102
{ACAD_REACTORS
330
BBBF
102
}
330
BBBF
100
AcDbXrecord
280
     1
290
     1
  0
XRECORD
  5
BBC2
102
{ACAD_REACTORS
330
BBC1
102
}
330
BBC1
100
AcDbXrecord
280
     1
290
     1
  0
XRECORD
  5
BBC4
102
{ACAD_REACTORS
330
BBC3
102
}
330
BBC3
100
AcDbXrecord
280
     1
290
     1
  0
XRECORD
  5
BBC6
102
{ACAD_REACTORS
330
BBC5
102
}
330
BBC5
100
AcDbXrecord
280
     1
290
     1
  0
XRECORD
  5
BBC8
102
{ACAD_REACTORS
330
BBC7
102
}
330
BBC7
100
AcDbXrecord
280
     1
290
     1
  0
XRECORD
  5
BBCA
102
{ACAD_REACTORS
330
BBC9
102
}
330
BBC9
100
AcDbXrecord
280
     1
290
     1
  0
XRECORD
  5
BBCC
102
{ACAD_REACTORS
330
BBCB
102
}
330
BBCB
100
AcDbXrecord
280
     1
290
     1
  0
XRECORD
  5
BBCD
102
{ACAD_REACTORS
330
B69D
102
}
330
B69D
100
AcDbXrecord
280
     1
290
     1
  0
XRECORD
  5
BBCF
102
{ACAD_REACTORS
330
BBCE
102
}
330
BBCE
100
AcDbXrecord
280
     1
290
     1
  0
SORTENTSTABLE
  5
B1BA
102
{ACAD_REACTORS
330
8A
102
}
330
8A
100
AcDbSortentsTable
330
1F
331
C151
  5
C310
331
C318
  5
C7BD
331
C320
  5
D168
331
C0AA
  5
C197
331
C159
  5
C585
331
14438
  5
1444B
331
C0CA
  5
C19F
331
14440
  5
14453
331
DA4D
  5
108B9
331
C378
  5
C134
331
14448
  5
1445B
331
108F3
  5
143CC
331
14450
  5
14463
331
147EE
  5
B4F6
331
147F6
  5
C0B6
331
147FE
  5
C12C
331
C380
  5
D63F
331
C169
  5
C5A9
331
C0E2
  5
C1A4
331
14458
  5
1446B
331
14460
  5
147EE
331
DC05
  5
108BF
331
C14A
  5
C30A
331
14468
  5
147F6
331
C152
  5
C311
331
C0AB
  5
C198
331
C15A
  5
C586
331
14439
  5
1444C
331
DA46
  5
E73B
331
C162
  5
C5A0
331
14441
  5
14454
331
DA4E
  5
108BA
331
C379
  5
C135
331
14449
  5
1445C
331
108F4
  5
143CE
331
14451
  5
14464
331
147EF
  5
C0AF
331
147F7
  5
C0E5
331
C16A
  5
C5AA
331
14459
  5
1446C
331
108AD
  5
108E8
331
C30A
  5
C5B5
331
14461
  5
147EF
331
C6E8
  5
DD74
331
108B5
  5
108F4
331
C14B
  5
C30B
331
C312
  5
C5BE
331
14469
  5
147F7
331
108C5
  5
10FEE
331
C31A
  5
D149
331
C322
  5
D169
331
C15B
  5
C58F
331
1443A
  5
1444D
331
DA47
  5
E752
331
C163
  5
C5A1
331
C0CC
  5
C1A0
331
14442
  5
14455
331
DA4F
  5
108BB
331
C37A
  5
C193
331
1444A
  5
1445D
331
14452
  5
14465
331
147F0
  5
C0B0
331
147F8
  5
C0E6
331
C382
  5
D64B
331
C16B
  5
C5AC
331
C0EC
  5
C1AA
331
1445A
  5
1446D
331
C144
  5
C1AB
331
C30B
  5
C5B6
331
14462
  5
147F0
331
108B6
  5
108F5
331
C14C
  5
C30C
331
C313
  5
C5BF
331
1446A
  5
147F8
331
D988
  5
DD9F
331
14433
  5
14446
331
C31B
  5
D160
331
C323
  5
D16A
331
C0AD
  5
C199
331
C15C
  5
C590
331
1443B
  5
1444E
331
DA48
  5
108B4
331
14443
  5
14456
331
C37B
  5
C194
331
1444B
  5
1445E
331
14453
  5
14466
331
147F1
  5
C0B1
331
147F9
  5
C0E7
331
C383
  5
D64C
331
C16C
  5
C5AD
331
C0E5
  5
C1A5
331
DB58
  5
108BD
331
1445B
  5
1446E
331
C145
  5
C1AC
331
C30C
  5
C5B8
331
14463
  5
147F1
331
108B7
  5
108F6
331
C14D
  5
C30D
331
C314
  5
C5C0
331
1446B
  5
147F9
331
14434
  5
14447
331
108C7
  5
12F88
331
C31C
  5
D161
331
C0AE
  5
C19A
331
C15D
  5
C592
331
1443C
  5
1444F
331
DA49
  5
108B5
331
C453
  5
DD70
331
C165
  5
C5A5
331
C0CE
  5
C1A1
331
C374
  5
C12F
331
14444
  5
14457
331
DA51
  5
108BC
331
D4CA
  5
DD7D
331
C0DE
  5
C1A2
331
1444C
  5
1445F
331
108F7
  5
142EC
331
14454
  5
14467
331
147FA
  5
C0EB
331
C16D
  5
C5AE
331
C0E6
  5
C1A6
331
DB59
  5
108BE
331
1445C
  5
1446F
331
C3AC
  5
DA44
331
C30D
  5
C5B9
331
14464
  5
147F2
331
108B8
  5
108F7
331
C315
  5
C5C1
331
C6FB
  5
DD75
331
1446C
  5
147FA
331
14435
  5
14448
331
C156
  5
C312
331
C0AF
  5
C19E
331
C15E
  5
C593
331
1443D
  5
14450
331
108E8
  5
141DF
331
DA4A
  5
108B6
331
C166
  5
C5A6
331
C375
  5
C131
331
14445
  5
14458
331
108F0
  5
142ED
331
C37D
  5
D16B
331
1444D
  5
14460
331
14455
  5
14468
331
147F3
  5
C0B3
331
147FB
  5
C0F2
331
C5C4
  5
DD71
331
C306
  5
C5B1
331
C5EC
  5
DD72
331
1445D
  5
14470
331
14465
  5
147F3
331
108B9
  5
1090E
331
C40D
  5
DD6E
331
C14F
  5
C30E
331
141DE
  5
14442
331
1013A
  5
C5A3
331
1446D
  5
147FB
331
14436
  5
14449
331
C157
  5
C313
331
108C9
  5
12F8A
331
C43D
  5
DD6F
331
C15F
  5
C59F
331
1443E
  5
14451
331
DA4B
  5
108B7
331
C167
  5
C5A7
331
C376
  5
C132
331
14446
  5
14459
331
C37E
  5
D638
331
1444E
  5
14461
331
D50C
  5
DD7E
331
147EC
  5
147FE
331
14456
  5
14469
331
147F4
  5
C0B4
331
147FC
  5
C0F7
331
C0E0
  5
C1A3
331
D564
  5
DD9D
331
C307
  5
C5B3
331
1445E
  5
147EC
331
C30F
  5
C5BC
331
14466
  5
147F4
331
108BA
  5
109EB
331
C317
  5
C7BC
331
141DF
  5
14443
331
108C2
  5
10FEB
331
1446E
  5
147FC
331
14437
  5
1444A
331
C150
  5
C30F
331
C0A9
  5
C195
331
C158
  5
C584
331
108CA
  5
141DA
331
DA44
  5
DEDD
331
1443F
  5
14452
331
DA4C
  5
108B8
331
C377
  5
C133
331
14447
  5
1445A
331
C37F
  5
D63B
331
1444F
  5
14462
331
147ED
  5
147FF
331
14457
  5
1446A
331
147F5
  5
C0B5
331
147FD
  5
C11B
331
C168
  5
C5A8
331
C0E9
  5
C1A7
331
1445F
  5
147ED
331
C149
  5
C309
331
C310
  5
C5BD
331
14467
  5
147F5
331
1446F
  5
147FD
331
108C3
  5
10FEC
  0
XRECORD
  5
15006
102
{ACAD_REACTORS
330
15005
102
}
330
15005
100
AcDbXrecord
280
     1
 70
     1
  0
LAYOUT
  5
22
102
{ACAD_XDICTIONARY
360
15009
102
}
102
{ACAD_REACTORS
330
1A
102
}
330
1A
100
AcDbPlotSettings
  1

  2
Acrobat Distiller
  4
A3
  6
AM_VIEW1
 40
3.174999952316284
 41
3.174999952316284
 42
3.17498779296875
 43
3.17498779296875
 44
297.0318298339844
 45
420.1583251953125
 46
-3.159078955650329
 47
-3.095831274986267
 48
0.0000000000000275
 49
0.0
140
420.0
141
297.0
142
1.0
143
1.0
 70
  3748
 72
     1
 73
     1
 74
     4
  7
monochrome.ctb
 75
     0
147
0.9670387807518544
148
-0.0000000000000275
149
0.0
100
AcDbLayout
  1
Model
 70
     1
 71
     0
 10
0.0
 20
0.0
 11
12.0
 21
9.0
 12
0.0
 22
0.0
 32
0.0
 14
0.0
 24
0.0
 34
0.0
 15
0.0
 25
0.0
 35
0.0
146
0.0
 13
0.0
 23
0.0
 33
0.0
 16
1.0
 26
0.0
 36
0.0
 17
0.0
 27
1.0
 37
0.0
 76
     0
330
1F
331
B0EC
1001
ACAD_PSEXT
1000
Acrobat Distiller
1000
AdobePS Acrobat Distiller J
1000
C:\Documents and Settings\All Users\デスクトップ\*.pdf
1000

1070
     0
  0
LAYOUT
  5
1E
102
{ACAD_XDICTIONARY
360
15007
102
}
102
{ACAD_REACTORS
330
1A
102
}
330
1A
100
AcDbPlotSettings
  1

  2
\\ML370\XEROX
  4
A4
  6

 40
3.174999952316284
 41
3.174999952316284
 42
3.175003051757812
 43
3.17498779296875
 44
209.8674926757813
 45
296.6719970703125
 46
0.0
 47
0.0
 48
0.0
 49
0.0
140
0.0
141
0.0
142
1.0
143
1.0
 70
   688
 72
     1
 73
     1
 74
     5
  7
monochrome.ctb
 75
    16
147
1.0
148
0.0
149
0.0
100
AcDbLayout
  1
ﾚｲｱｳﾄ1
 70
     1
 71
     1
 10
-3.17498779296875
 20
-3.174999952316284
 11
293.4970092773438
 21
206.692492723465
 12
0.0
 22
0.0
 32
0.0
 14
1.000000000000000E+20
 24
1.000000000000000E+20
 34
1.000000000000000E+20
 15
-1.000000000000000E+20
 25
-1.000000000000000E+20
 35
-1.000000000000000E+20
146
0.0
 13
0.0
 23
0.0
 33
0.0
 16
1.0
 26
0.0
 36
0.0
 17
0.0
 27
1.0
 37
0.0
 76
     0
330
1B
  0
LAYOUT
  5
26
102
{ACAD_XDICTIONARY
360
1500B
102
}
102
{ACAD_REACTORS
330
1A
102
}
330
1A
100
AcDbPlotSettings
  1

  2
\\ML370\XEROX
  4

  6

 40
0.0
 41
0.0
 42
0.0
 43
0.0
 44
0.0
 45
0.0
 46
0.0
 47
0.0
 48
0.0
 49
0.0
140
0.0
141
0.0
142
1.0
143
1.0
 70
   688
 72
     0
 73
     0
 74
     5
  7
monochrome.ctb
 75
    16
147
1.0
148
0.0
149
0.0
100
AcDbLayout
  1
ﾚｲｱｳﾄ2
 70
     1
 71
     2
 10
0.0
 20
0.0
 11
12.0
 21
9.0
 12
0.0
 22
0.0
 32
0.0
 14
0.0
 24
0.0
 34
0.0
 15
0.0
 25
0.0
 35
0.0
146
0.0
 13
0.0
 23
0.0
 33
0.0
 16
1.0
 26
0.0
 36
0.0
 17
0.0
 27
1.0
 37
0.0
 76
     0
330
23
  0
MATERIAL
  5
B0EF
102
{ACAD_XDICTIONARY
360
15010
102
}
102
{ACAD_REACTORS
330
A91C
102
}
330
A91C
100
AcDbMaterial
  1
ByBlock
 73
     1
 78
     1
172
     1
176
     1
270
     1
274
     1
  0
MATERIAL
  5
B0EE
102
{ACAD_XDICTIONARY
360
1500E
102
}
102
{ACAD_REACTORS
330
A91C
102
}
330
A91C
100
AcDbMaterial
  1
ByLayer
 73
     1
 78
     1
172
     1
176
     1
270
     1
274
     1
  0
MATERIAL
  5
B0F0
102
{ACAD_XDICTIONARY
360
15012
102
}
102
{ACAD_REACTORS
330
A91C
102
}
330
A91C
100
AcDbMaterial
  1
Global
 73
     1
 78
     1
172
     1
176
     1
270
     1
274
     1
  0
MLEADERSTYLE
  5
B3AE
102
{ACAD_REACTORS
330
B3AD
102
}
330
B3AD
100
AcDbMLeaderStyle
170
     2
171
     1
172
     0
 90
        2
 40
0.0
 41
0.0
173
     1
 91
-1056964608
340
14
 92
       -2
290
     1
 42
2.0
291
     1
 43
0.36
  3
Standard
 44
4.0
300

342
11
174
     1
178
     6
175
     1
176
     0
 93
-1056964608
 45
4.0
292
     0
297
     0
 46
4.0
 94
-1056964608
 47
1.0
 49
1.0
140
1.0
293
     1
141
0.0
294
     1
177
     0
142
1.0
295
     0
296
     0
143
0.125
1001
ACAD_MLEADERVER
1070
     2
  0
MLINESTYLE
  5
18
102
{ACAD_REACTORS
330
17
102
}
330
17
100
AcDbMlineStyle
  2
STANDARD
 70
     0
  3

 62
   256
 51
90.0
 52
90.0
 71
     2
 49
0.5
 62
   256
  6
BYLAYER
 49
-0.5
 62
   256
  6
BYLAYER
  0
PLOTSETTINGS
  5
B46C
102
{ACAD_XDICTIONARY
360
15014
102
}
102
{ACAD_REACTORS
330
19
102
}
330
19
100
AcDbPlotSettings
  1
01 A3フィット
  2
FX DocuWide 2050/2051
  4
A3
  6

 40
3.174999952316284
 41
3.174999952316284
 42
3.17498779296875
 43
3.17498779296875
 44
296.989501953125
 45
419.9889831542968
 46
0.0
 47
1.295841228961961
 48
214.3704939521119
 49
367.5855324241176
140
275.6727856380065
141
407.629191407817
142
1.0
143
1.445089120606129
 70
  3764
 72
     1
 73
     1
 74
     2
  7
monochrome.ctb
 75
     0
147
0.6919988433519999
148
0.0
149
0.0
1001
ACAD_PSEXT
1000
FX DocuWide 2050/2051
1000
FX DocuWide 2050/2051
1000
IP_192.200.15.252
1000

1070
     0
  0
PLOTSETTINGS
  5
B46D
102
{ACAD_XDICTIONARY
360
15016
102
}
102
{ACAD_REACTORS
330
19
102
}
330
19
100
AcDbPlotSettings
  1
02 A3
  2
FX DocuWide 2050/2051
  4
A3
  6

 40
3.174999952316284
 41
3.174999952316284
 42
3.17498779296875
 43
3.17498779296875
 44
296.989501953125
 45
419.9889831542968
 46
-64.68024289608002
 47
-90.18050229549407
 48
214.3704939521119
 49
367.5855324241176
140
275.6727856380065
141
407.629191407817
142
1.0
143
1.0
 70
  3764
 72
     1
 73
     1
 74
     2
  7
monochrome.ctb
 75
    16
147
1.0
148
0.0
149
0.0
1001
ACAD_PSEXT
1000
FX DocuWide 2050/2051
1000
FX DocuWide 2050/2051
1000
IP_192.200.15.252
1000

1070
     0
  0
PLOTSETTINGS
  5
B46E
102
{ACAD_XDICTIONARY
360
15018
102
}
102
{ACAD_REACTORS
330
19
102
}
330
19
100
AcDbPlotSettings
  1
03 A2フィット
  2
FX DocuWide 2050/2051
  4
User66
  6

 40
3.174999952316284
 41
3.174999952316284
 42
3.17498779296875
 43
3.17498779296875
 44
419.9889831542968
 45
593.97900390625
 46
0.0
 47
1.312647041252716
 48
214.3704939521119
 49
367.5855324241176
140
275.6727856380065
141
407.629191407817
142
1.0
143
1.015378155013403
 70
  3764
 72
     1
 73
     1
 74
     2
  7
monochrome.ctb
 75
     0
147
0.9848547509738377
148
0.0
149
0.0
1001
ACAD_PSEXT
1000
FX DocuWide 2050/2051
1000
FX DocuWide 2050/2051
1000
IP_192.200.15.252
1000

1070
     0
  0
PLOTSETTINGS
  5
B46F
102
{ACAD_XDICTIONARY
360
1501A
102
}
102
{ACAD_REACTORS
330
19
102
}
330
19
100
AcDbPlotSettings
  1
04 A2
  2
FX DocuWide 2050/2051
  4
User66
  6

 40
3.174999952316284
 41
3.174999952316284
 42
3.17498779296875
 43
3.17498779296875
 44
419.9889831542968
 45
593.97900390625
 46
-3.180502295494079
 47
-3.185491919517517
 48
214.3704939521119
 49
367.5855324241176
140
275.6727856380065
141
407.629191407817
142
1.0
143
1.0
 70
  3764
 72
     1
 73
     1
 74
     2
  7
monochrome.ctb
 75
    16
147
1.0
148
0.0
149
0.0
1001
ACAD_PSEXT
1000
FX DocuWide 2050/2051
1000
FX DocuWide 2050/2051
1000
IP_192.200.15.252
1000

1070
     0
  0
PLOTSETTINGS
  5
B470
102
{ACAD_XDICTIONARY
360
1501C
102
}
102
{ACAD_REACTORS
330
19
102
}
330
19
100
AcDbPlotSettings
  1
05 A1フィット
  2
FX DocuWide 2050/2051
  4
User139
  6

 40
3.174999952316284
 41
3.174999952316284
 42
3.17498779296875
 43
3.17498779296875
 44
593.97900390625
 45
840.9939575195313
 46
0.0
 47
1.784323459012171
 48
214.3704939521119
 49
367.5855324241176
140
275.6727856380065
141
407.629191407817
142
1.0
143
0.7147366594384652
 70
  3764
 72
     1
 73
     1
 74
     2
  7
monochrome.ctb
 75
     0
147
1.399116705145154
148
0.0
149
0.0
1001
ACAD_PSEXT
1000
FX DocuWide 2050/2051
1000
FX DocuWide 2050/2051
1000
IP_192.200.15.252
1000

1070
     0
  0
PLOTSETTINGS
  5
B471
102
{ACAD_XDICTIONARY
360
1501E
102
}
102
{ACAD_REACTORS
330
19
102
}
330
19
100
AcDbPlotSettings
  1
06 A1
  2
FX DocuWide 2050/2051
  4
User139
  6

 40
3.174999952316284
 41
3.174999952316284
 42
3.17498779296875
 43
3.17498779296875
 44
593.97900390625
 45
840.9939575195313
 46
83.81450808048247
 47
120.3219848871231
 48
214.3704939521119
 49
367.5855324241176
140
275.6727856380065
141
407.629191407817
142
1.0
143
1.0
 70
  3764
 72
     1
 73
     1
 74
     2
  7
monochrome.ctb
 75
    16
147
1.0
148
0.0
149
0.0
1001
ACAD_PSEXT
1000
FX DocuWide 2050/2051
1000
FX DocuWide 2050/2051
1000
IP_192.200.15.252
1000

1070
     0
  0
PLOTSETTINGS
  5
B472
102
{ACAD_XDICTIONARY
360
15020
102
}
102
{ACAD_REACTORS
330
19
102
}
330
19
100
AcDbPlotSettings
  1
06 A4フィット
  2
FX DocuWide 2050/2051
  4
A4
  6

 40
3.174999952316284
 41
3.174999952316284
 42
3.175003051757812
 43
3.17498779296875
 44
209.9944915771484
 45
296.989501953125
 46
0.0
 47
1.314011612960285
 48
214.3704939521119
 49
367.5855324241176
140
275.6727856380065
141
407.629191407817
142
1.0
143
2.06241771109504
 70
  3764
 72
     1
 73
     1
 74
     2
  7
monochrome.ctb
 75
     0
147
0.4848678299358913
148
0.0
149
0.0
1001
ACAD_PSEXT
1000
FX DocuWide 2050/2051
1000
FX DocuWide 2050/2051
1000
IP_192.200.15.252
1000

1070
     0
  0
PLOTSETTINGS
  5
B473
102
{ACAD_XDICTIONARY
360
15022
102
}
102
{ACAD_REACTORS
330
19
102
}
330
19
100
AcDbPlotSettings
  1
07 A4
  2
FX DocuWide 2050/2051
  4
A4
  6

 40
3.174999952316284
 41
3.174999952316284
 42
3.175003051757812
 43
3.17498779296875
 44
209.9944915771484
 45
296.989501953125
 46
-108.1777557134628
 47
-151.68024289608
 48
214.3704939521119
 49
367.5855324241176
140
275.6727856380065
141
407.629191407817
142
1.0
143
1.0
 70
  3764
 72
     1
 73
     1
 74
     2
  7
monochrome.ctb
 75
    16
147
1.0
148
0.0
149
0.0
1001
ACAD_PSEXT
1000
FX DocuWide 2050/2051
1000
FX DocuWide 2050/2051
1000
IP_192.200.15.252
1000

1070
     0
  0
ACDBPLACEHOLDER
  5
F
102
{ACAD_REACTORS
330
E
102
}
330
E
  0
SCALE
  5
B38C
102
{ACAD_REACTORS
330
B38B
102
}
330
B38B
100
AcDbScale
 70
     0
300
1:1
140
1.0
141
1.0
290
     1
  0
SCALE
  5
B38D
102
{ACAD_REACTORS
330
B38B
102
}
330
B38B
100
AcDbScale
 70
     0
300
1:2
140
1.0
141
2.0
290
     0
  0
SCALE
  5
B38E
102
{ACAD_REACTORS
330
B38B
102
}
330
B38B
100
AcDbScale
 70
     0
300
1:4
140
1.0
141
4.0
290
     0
  0
SCALE
  5
B38F
102
{ACAD_REACTORS
330
B38B
102
}
330
B38B
100
AcDbScale
 70
     0
300
1:5
140
1.0
141
5.0
290
     0
  0
SCALE
  5
B390
102
{ACAD_REACTORS
330
B38B
102
}
330
B38B
100
AcDbScale
 70
     0
300
1:8
140
1.0
141
8.0
290
     0
  0
SCALE
  5
B391
102
{ACAD_REACTORS
330
B38B
102
}
330
B38B
100
AcDbScale
 70
     0
300
1:10
140
1.0
141
10.0
290
     0
  0
SCALE
  5
B392
102
{ACAD_REACTORS
330
B38B
102
}
330
B38B
100
AcDbScale
 70
     0
300
1:16
140
1.0
141
16.0
290
     0
  0
SCALE
  5
B393
102
{ACAD_REACTORS
330
B38B
102
}
330
B38B
100
AcDbScale
 70
     0
300
1:20
140
1.0
141
20.0
290
     0
  0
SCALE
  5
B394
102
{ACAD_REACTORS
330
B38B
102
}
330
B38B
100
AcDbScale
 70
     0
300
1:30
140
1.0
141
30.0
290
     0
  0
SCALE
  5
B395
102
{ACAD_REACTORS
330
B38B
102
}
330
B38B
100
AcDbScale
 70
     0
300
1:40
140
1.0
141
40.0
290
     0
  0
SCALE
  5
B396
102
{ACAD_REACTORS
330
B38B
102
}
330
B38B
100
AcDbScale
 70
     0
300
1:50
140
1.0
141
50.0
290
     0
  0
SCALE
  5
B397
102
{ACAD_REACTORS
330
B38B
102
}
330
B38B
100
AcDbScale
 70
     0
300
1:100
140
1.0
141
100.0
290
     0
  0
SCALE
  5
B398
102
{ACAD_REACTORS
330
B38B
102
}
330
B38B
100
AcDbScale
 70
     0
300
2:1
140
2.0
141
1.0
290
     0
  0
SCALE
  5
B399
102
{ACAD_REACTORS
330
B38B
102
}
330
B38B
100
AcDbScale
 70
     0
300
4:1
140
4.0
141
1.0
290
     0
  0
SCALE
  5
B39A
102
{ACAD_REACTORS
330
B38B
102
}
330
B38B
100
AcDbScale
 70
     0
300
8:1
140
8.0
141
1.0
290
     0
  0
SCALE
  5
B39B
102
{ACAD_REACTORS
330
B38B
102
}
330
B38B
100
AcDbScale
 70
     0
300
10:1
140
10.0
141
1.0
290
     0
  0
SCALE
  5
B39C
102
{ACAD_REACTORS
330
B38B
102
}
330
B38B
100
AcDbScale
 70
     0
300
100:1
140
100.0
141
1.0
290
     0
  0
SCALE
  5
B39D
102
{ACAD_REACTORS
330
B38B
102
}
330
B38B
100
AcDbScale
 70
     0
300
1/128" = 1'-0"
140
0.0078125
141
12.0
290
     0
  0
SCALE
  5
B39E
102
{ACAD_REACTORS
330
B38B
102
}
330
B38B
100
AcDbScale
 70
     0
300
1/64" = 1'-0"
140
0.015625
141
12.0
290
     0
  0
SCALE
  5
B39F
102
{ACAD_REACTORS
330
B38B
102
}
330
B38B
100
AcDbScale
 70
     0
300
1/32" = 1'-0"
140
0.03125
141
12.0
290
     0
  0
SCALE
  5
B3A0
102
{ACAD_REACTORS
330
B38B
102
}
330
B38B
100
AcDbScale
 70
     0
300
1/16" = 1'-0"
140
0.0625
141
12.0
290
     0
  0
SCALE
  5
B3A1
102
{ACAD_REACTORS
330
B38B
102
}
330
B38B
100
AcDbScale
 70
     0
300
3/32" = 1'-0"
140
0.09375
141
12.0
290
     0
  0
SCALE
  5
B3A2
102
{ACAD_REACTORS
330
B38B
102
}
330
B38B
100
AcDbScale
 70
     0
300
1/8" = 1'-0"
140
0.125
141
12.0
290
     0
  0
SCALE
  5
B3A3
102
{ACAD_REACTORS
330
B38B
102
}
330
B38B
100
AcDbScale
 70
     0
300
3/16" = 1'-0"
140
0.1875
141
12.0
290
     0
  0
SCALE
  5
B3A4
102
{ACAD_REACTORS
330
B38B
102
}
330
B38B
100
AcDbScale
 70
     0
300
1/4" = 1'-0"
140
0.25
141
12.0
290
     0
  0
SCALE
  5
B3A5
102
{ACAD_REACTORS
330
B38B
102
}
330
B38B
100
AcDbScale
 70
     0
300
3/8" = 1'-0"
140
0.375
141
12.0
290
     0
  0
SCALE
  5
B3A6
102
{ACAD_REACTORS
330
B38B
102
}
330
B38B
100
AcDbScale
 70
     0
300
1/2" = 1'-0"
140
0.5
141
12.0
290
     0
  0
SCALE
  5
B3A7
102
{ACAD_REACTORS
330
B38B
102
}
330
B38B
100
AcDbScale
 70
     0
300
3/4" = 1'-0"
140
0.75
141
12.0
290
     0
  0
SCALE
  5
B3A8
102
{ACAD_REACTORS
330
B38B
102
}
330
B38B
100
AcDbScale
 70
     0
300
1" = 1'-0"
140
1.0
141
12.0
290
     0
  0
SCALE
  5
B3A9
102
{ACAD_REACTORS
330
B38B
102
}
330
B38B
100
AcDbScale
 70
     0
300
1-1/2" = 1'-0"
140
1.5
141
12.0
290
     0
  0
SCALE
  5
B3AA
102
{ACAD_REACTORS
330
B38B
102
}
330
B38B
100
AcDbScale
 70
     0
300
3" = 1'-0"
140
3.0
141
12.0
290
     0
  0
SCALE
  5
B3AB
102
{ACAD_REACTORS
330
B38B
102
}
330
B38B
100
AcDbScale
 70
     0
300
6" = 1'-0"
140
6.0
141
12.0
290
     0
  0
SCALE
  5
B3AC
102
{ACAD_REACTORS
330
B38B
102
}
330
B38B
100
AcDbScale
 70
     0
300
1'-0" = 1'-0"
140
12.0
141
12.0
290
     0
  0
TABLESTYLE
  5
AABA
102
{ACAD_XDICTIONARY
360
B3DB
102
}
102
{ACAD_REACTORS
330
AAB9
102
}
330
AAB9
100
AcDbTableStyle
  3
Standard
 70
     0
 71
     0
 40
1.5
 41
1.5
280
     0
281
     0
  7
STANDARD
140
4.5
170
     2
 62
     0
 63
     7
283
     0
274
    -2
284
     1
 64
     0
275
    -2
285
     1
 65
     0
276
    -2
286
     1
 66
     0
277
    -2
287
     1
 67
     0
278
    -2
288
     1
 68
     0
279
    -2
289
     1
 69
     0
  7
STANDARD
140
6.0
170
     5
 62
     0
 63
     7
283
     0
274
    -2
284
     1
 64
     0
275
    -2
285
     1
 65
     0
276
    -2
286
     1
 66
     0
277
    -2
287
     1
 67
     0
278
    -2
288
     1
 68
     0
279
    -2
289
     1
 69
     0
  7
STANDARD
140
4.5
170
     5
 62
     0
 63
     7
283
     0
274
    -2
284
     1
 64
     0
275
    -2
285
     1
 65
     0
276
    -2
286
     1
 66
     0
277
    -2
287
     1
 67
     0
278
    -2
288
     1
 68
     0
279
    -2
289
     1
 69
     0
  0
VISUALSTYLE
  5
B0F7
102
{ACAD_REACTORS
330
B0F1
102
}
330
B0F1
100
AcDbVisualStyle
  2
2dWireframe
 70
     4
 71
     0
 72
     2
 73
     0
 90
        0
 40
-0.6
 41
-30.0
 62
     5
 63
     7
 74
     1
 91
        4
 64
     7
 65
   257
 75
     1
175
     1
 42
1.0
 92
        0
 66
   257
 43
1.0
 76
     1
 77
     6
 78
     2
 67
     7
 79
     5
170
     0
171
     0
290
     0
174
     0
 93
        1
 44
0.0
173
     0
291
     0
 45
0.0
1001
ACAD
1000
AcDbSavedByObjectVersion
1070
     0
  0
VISUALSTYLE
  5
B0F9
102
{ACAD_REACTORS
330
B0F1
102
}
330
B0F1
100
AcDbVisualStyle
  2
3D Hidden
 70
     6
 71
     1
 72
     2
 73
     2
 90
        0
 40
-0.6
 41
-30.0
 62
     5
 63
     7
 74
     2
 91
        2
 64
     7
 65
   257
 75
     2
175
     1
 42
40.0
 92
        0
 66
   257
 43
1.0
 76
     1
 77
     6
 78
     2
 67
     7
 79
     3
170
     0
171
     0
290
     0
174
     0
 93
        1
 44
0.0
173
     0
291
     0
 45
0.0
1001
ACAD
1000
AcDbSavedByObjectVersion
1070
     0
  0
VISUALSTYLE
  5
B0F8
102
{ACAD_REACTORS
330
B0F1
102
}
330
B0F1
100
AcDbVisualStyle
  2
3dWireframe
 70
     5
 71
     0
 72
     2
 73
     0
 90
        0
 40
-0.6
 41
-30.0
 62
     5
 63
     7
 74
     1
 91
        4
 64
     7
 65
   257
 75
     1
175
     1
 42
1.0
 92
        0
 66
   257
 43
1.0
 76
     1
 77
     6
 78
     2
 67
     7
 79
     5
170
     0
171
     0
290
     0
174
     0
 93
        1
 44
0.0
173
     0
291
     0
 45
0.0
1001
ACAD
1000
AcDbSavedByObjectVersion
1070
     0
  0
VISUALSTYLE
  5
B0F6
102
{ACAD_REACTORS
330
B0F1
102
}
330
B0F1
100
AcDbVisualStyle
  2
Basic
 70
     7
 71
     1
 72
     0
 73
     1
 90
        0
 40
-0.6
 41
-30.0
 62
     5
 63
     7
 74
     0
 91
        4
 64
     7
 65
   257
 75
     1
175
     1
 42
1.0
 92
        8
 66
     7
 43
1.0
 76
     1
 77
     6
 78
     2
 67
     7
 79
     5
170
     0
171
     0
290
     0
174
     0
 93
        1
 44
0.0
173
     0
291
     1
 45
0.0
1001
ACAD
1000
AcDbSavedByObjectVersion
1070
     0
  0
VISUALSTYLE
  5
B0FD
102
{ACAD_REACTORS
330
B0F1
102
}
330
B0F1
100
AcDbVisualStyle
  2
Brighten
 70
    12
 71
     2
 72
     2
 73
     0
 90
        0
 40
-0.6
 41
-30.0
 62
     5
 63
     7
 74
     1
 91
        4
 64
     7
 65
   257
 75
     1
175
     1
 42
1.0
 92
        8
 66
     7
 43
1.0
 76
     1
 77
     6
 78
     2
 67
     7
 79
     5
170
     0
171
     0
290
     0
174
     0
 93
        1
 44
50.0
173
     0
291
     1
 45
0.0
1001
ACAD
1000
AcDbSavedByObjectVersion
1070
     0
  0
VISUALSTYLE
  5
B101
102
{ACAD_REACTORS
330
B0F1
102
}
330
B0F1
100
AcDbVisualStyle
  2
ColorChange
 70
    16
 71
     2
 72
     2
 73
     3
 90
        0
 40
-0.6
 41
-30.0
 62
     5
 63
     8
 74
     1
 91
        4
 64
     7
 65
   257
 75
     1
175
     1
 42
1.0
 92
        8
 66
     8
 43
1.0
 76
     1
 77
     6
 78
     2
 67
     7
 79
     5
170
     0
171
     0
290
     0
174
     0
 93
        1
 44
0.0
173
     0
291
     1
 45
0.0
1001
ACAD
1000
AcDbSavedByObjectVersion
1070
     0
  0
VISUALSTYLE
  5
B0FA
102
{ACAD_REACTORS
330
B0F1
102
}
330
B0F1
100
AcDbVisualStyle
  2
Conceptual
 70
     9
 71
     3
 72
     2
 73
     0
 90
        0
 40
-0.6
 41
-30.0
 62
     5
 63
     7
 74
     2
 91
        2
 64
     7
 65
   257
 75
     1
175
     1
 42
40.0
 92
        8
 66
     7
 43
1.0
 76
     1
 77
     6
 78
     2
 67
     7
 79
     3
170
     0
171
     0
290
     0
174
     0
 93
        1
 44
0.0
173
     0
291
     0
 45
0.0
1001
ACAD
1000
AcDbSavedByObjectVersion
1070
     0
  0
VISUALSTYLE
  5
B0FC
102
{ACAD_REACTORS
330
B0F1
102
}
330
B0F1
100
AcDbVisualStyle
  2
Dim
 70
    11
 71
     2
 72
     2
 73
     0
 90
        0
 40
-0.6
 41
-30.0
 62
     5
 63
     7
 74
     1
 91
        4
 64
     7
 65
   257
 75
     1
175
     1
 42
1.0
 92
        8
 66
     7
 43
1.0
 76
     1
 77
     6
 78
     2
 67
     7
 79
     5
170
     0
171
     0
290
     0
174
     0
 93
        1
 44
-50.0
173
     0
291
     1
 45
0.0
1001
ACAD
1000
AcDbSavedByObjectVersion
1070
     0
  0
VISUALSTYLE
  5
B100
102
{ACAD_REACTORS
330
B0F1
102
}
330
B0F1
100
AcDbVisualStyle
  2
Facepattern
 70
    15
 71
     2
 72
     2
 73
     0
 90
        0
 40
-0.6
 41
-30.0
 62
     5
 63
     7
 74
     1
 91
        4
 64
     7
 65
   257
 75
     1
175
     1
 42
1.0
 92
        8
 66
     7
 43
1.0
 76
     1
 77
     6
 78
     2
 67
     7
 79
     5
170
     0
171
     0
290
     0
174
     0
 93
        1
 44
0.0
173
     0
291
     1
 45
0.0
1001
ACAD
1000
AcDbSavedByObjectVersion
1070
     0
  0
VISUALSTYLE
  5
B0F2
102
{ACAD_REACTORS
330
B0F1
102
}
330
B0F1
100
AcDbVisualStyle
  2
Flat
 70
     0
 71
     2
 72
     1
 73
     1
 90
        2
 40
-0.6
 41
30.0
 62
     5
 63
     7
 74
     0
 91
        4
 64
     7
 65
   257
 75
     1
175
     1
 42
1.0
 92
        8
 66
     7
 43
1.0
 76
     1
 77
     6
 78
     2
 67
     7
 79
     5
170
     0
171
     0
290
     0
174
     0
 93
       13
 44
0.0
173
     0
291
     1
 45
0.0
1001
ACAD
1000
AcDbSavedByObjectVersion
1070
     0
  0
VISUALSTYLE
  5
B0F3
102
{ACAD_REACTORS
330
B0F1
102
}
330
B0F1
100
AcDbVisualStyle
  2
FlatWithEdges
 70
     1
 71
     2
 72
     1
 73
     1
 90
        2
 40
-0.6
 41
30.0
 62
     5
 63
     7
 74
     1
 91
        4
 64
     7
 65
   257
 75
     1
175
     1
 42
1.0
 92
        0
 66
   257
 43
1.0
 76
     1
 77
     6
 78
     2
 67
     7
 79
     5
170
     0
171
     0
290
     0
174
     0
 93
       13
 44
0.0
173
     0
291
     1
 45
0.0
1001
ACAD
1000
AcDbSavedByObjectVersion
1070
     0
  0
VISUALSTYLE
  5
B0F4
102
{ACAD_REACTORS
330
B0F1
102
}
330
B0F1
100
AcDbVisualStyle
  2
Gouraud
 70
     2
 71
     2
 72
     2
 73
     1
 90
        2
 40
-0.6
 41
30.0
 62
     5
 63
     7
 74
     0
 91
        4
 64
     7
 65
   257
 75
     1
175
     1
 42
1.0
 92
        0
 66
     7
 43
1.0
 76
     1
 77
     6
 78
     2
 67
     7
 79
     5
170
     0
171
     0
290
     0
174
     0
 93
       13
 44
0.0
173
     0
291
     1
 45
0.0
1001
ACAD
1000
AcDbSavedByObjectVersion
1070
     0
  0
VISUALSTYLE
  5
B0F5
102
{ACAD_REACTORS
330
B0F1
102
}
330
B0F1
100
AcDbVisualStyle
  2
GouraudWithEdges
 70
     3
 71
     2
 72
     2
 73
     1
 90
        2
 40
-0.6
 41
30.0
 62
     5
 63
     7
 74
     1
 91
        4
 64
     7
 65
   257
 75
     1
175
     1
 42
1.0
 92
        0
 66
   257
 43
1.0
 76
     1
 77
     6
 78
     2
 67
     7
 79
     5
170
     0
171
     0
290
     0
174
     0
 93
       13
 44
0.0
173
     0
291
     1
 45
0.0
1001
ACAD
1000
AcDbSavedByObjectVersion
1070
     0
  0
VISUALSTYLE
  5
B0FF
102
{ACAD_REACTORS
330
B0F1
102
}
330
B0F1
100
AcDbVisualStyle
  2
Linepattern
 70
    14
 71
     2
 72
     2
 73
     0
 90
        0
 40
-0.6
 41
-30.0
 62
     5
 63
     7
 74
     1
 91
        4
 64
     7
 65
   257
 75
     7
175
     7
 42
1.0
 92
        8
 66
     7
 43
1.0
 76
     1
 77
     6
 78
     2
 67
     7
 79
     5
170
     0
171
     0
290
     0
174
     0
 93
        1
 44
0.0
173
     0
291
     1
 45
0.0
1001
ACAD
1000
AcDbSavedByObjectVersion
1070
     0
  0
VISUALSTYLE
  5
B0FB
102
{ACAD_REACTORS
330
B0F1
102
}
330
B0F1
100
AcDbVisualStyle
  2
Realistic
 70
     8
 71
     2
 72
     2
 73
     0
 90
        0
 40
-0.6
 41
-30.0
 62
     5
 63
     7
 74
     1
 91
        0
 64
     7
 65
   257
 75
     1
175
     1
 42
1.0
 92
        8
 66
     8
 43
1.0
 76
     1
 77
     6
 78
     2
 67
     7
 79
     5
170
     0
171
     0
290
     0
174
     0
 93
       13
 44
0.0
173
     0
291
     0
 45
0.0
1001
ACAD
1000
AcDbSavedByObjectVersion
1070
     0
  0
VISUALSTYLE
  5
B0FE
102
{ACAD_REACTORS
330
B0F1
102
}
330
B0F1
100
AcDbVisualStyle
  2
Thicken
 70
    13
 71
     2
 72
     2
 73
     0
 90
        0
 40
-0.6
 41
-30.0
 62
     5
 63
     7
 74
     1
 91
        4
 64
     7
 65
   257
 75
     1
175
     1
 42
1.0
 92
       12
 66
     7
 43
1.0
 76
     1
 77
     6
 78
     2
 67
     7
 79
     5
170
     0
171
     0
290
     0
174
     0
 93
        1
 44
0.0
173
     0
291
     1
 45
0.0
1001
ACAD
1000
AcDbSavedByObjectVersion
1070
     0
  0
DICTIONARYVAR
  5
B3E0
102
{ACAD_REACTORS
330
34
102
}
330
34
100
DictionaryVariables
280
     0
  1
1:1
  0
DICTIONARYVAR
  5
B3DE
102
{ACAD_REACTORS
330
34
102
}
330
34
100
DictionaryVariables
280
     0
  1
STANDARD
  0
DICTIONARYVAR
  5
AAF3
102
{ACAD_REACTORS
330
34
102
}
330
34
100
DictionaryVariables
280
     0
  1
STANDARD
  0
DICTIONARYVAR
  5
A10C
102
{ACAD_REACTORS
330
34
102
}
330
34
100
DictionaryVariables
280
     0
  1
1
  0
DICTIONARYVAR
  5
AB07
102
{ACAD_REACTORS
330
34
102
}
330
34
100
DictionaryVariables
280
     0
  1
4
  0
DICTIONARYVAR
  5
35
102
{ACAD_REACTORS
330
34
102
}
330
34
100
DictionaryVariables
280
     0
  1
0
  0
DICTIONARYVAR
  5
B3E1
102
{ACAD_REACTORS
330
34
102
}
330
34
100
DictionaryVariables
280
     0
  1
0
  0
DICTIONARYVAR
  5
B3DF
102
{ACAD_REACTORS
330
34
102
}
330
34
100
DictionaryVariables
280
     0
  1
0
  0
DICTIONARYVAR
  5
194C
102
{ACAD_REACTORS
330
34
102
}
330
34
100
DictionaryVariables
280
     0
  1
96
  0
DICTIONARY
  5
7E8
102
{ACAD_REACTORS
330
47
102
}
330
47
100
AcDbDictionary
281
     1
  0
DICTIONARY
  5
4C
102
{ACAD_REACTORS
330
47
102
}
330
47
100
AcDbDictionary
281
     1
  0
XRECORD
  5
A929
102
{ACAD_REACTORS
330
47
102
}
330
47
100
AcDbXrecord
280
     1
 90
-1023410169
  0
XRECORD
  5
B332
102
{ACAD_REACTORS
330
B331
102
}
330
B331
100
AcDbXrecord
280
     1
  0
XRECORD
  5
3FB7
102
{ACAD_REACTORS
330
3F96
102
}
330
3F96
100
AcDbXrecord
280
     1
 91
        3
330
0
 90
        8
 62
     7
370
    40
331
16
  1
Color_7
330
0
 90
        0
 62
    14
370
    -3
331
16
  1
Color_14
330
0
 90
        8
 62
     7
370
    20
331
16
  1
Color_7
330
6D1
 90
        0
 62
     7
370
    -3
331
16
  1
Color_7
330
0
 90
        8
 62
     7
370
    50
331
16
  1
Color_7
330
0
 90
        8
 62
     2
370
    35
331
16
  1
Color_2
330
0
 90
        8
 62
     7
370
    -3
331
16
  1
Color_7
330
10
 90
        8
 62
     7
370
    -3
331
16
  1
Color_7
  0
DICTIONARY
  5
15009
330
22
100
AcDbDictionary
280
     1
281
     1
  3
ACAD_XREC_ROUNDTRIP
360
1500A
  0
DICTIONARY
  5
15007
330
1E
100
AcDbDictionary
280
     1
281
     1
  3
ACAD_XREC_ROUNDTRIP
360
15008
  0
DICTIONARY
  5
1500B
330
26
100
AcDbDictionary
280
     1
281
     1
  3
ACAD_XREC_ROUNDTRIP
360
1500C
  0
DICTIONARY
  5
15010
330
B0EF
100
AcDbDictionary
280
     1
281
     1
  3
ACAD_XREC_ROUNDTRIP
360
15011
  0
DICTIONARY
  5
1500E
330
B0EE
100
AcDbDictionary
280
     1
281
     1
  3
ACAD_XREC_ROUNDTRIP
360
1500F
  0
DICTIONARY
  5
15012
330
B0F0
100
AcDbDictionary
280
     1
281
     1
  3
ACAD_XREC_ROUNDTRIP
360
15013
  0
DICTIONARY
  5
15014
330
B46C
100
AcDbDictionary
280
     1
281
     1
  3
ACAD_XREC_ROUNDTRIP
360
15015
  0
DICTIONARY
  5
15016
330
B46D
100
AcDbDictionary
280
     1
281
     1
  3
ACAD_XREC_ROUNDTRIP
360
15017
  0
DICTIONARY
  5
15018
330
B46E
100
AcDbDictionary
280
     1
281
     1
  3
ACAD_XREC_ROUNDTRIP
360
15019
  0
DICTIONARY
  5
1501A
330
B46F
100
AcDbDictionary
280
     1
281
     1
  3
ACAD_XREC_ROUNDTRIP
360
1501B
  0
DICTIONARY
  5
1501C
330
B470
100
AcDbDictionary
280
     1
281
     1
  3
ACAD_XREC_ROUNDTRIP
360
1501D
  0
DICTIONARY
  5
1501E
330
B471
100
AcDbDictionary
280
     1
281
     1
  3
ACAD_XREC_ROUNDTRIP
360
1501F
  0
DICTIONARY
  5
15020
330
B472
100
AcDbDictionary
280
     1
281
     1
  3
ACAD_XREC_ROUNDTRIP
360
15021
  0
DICTIONARY
  5
15022
330
B473
100
AcDbDictionary
280
     1
281
     1
  3
ACAD_XREC_ROUNDTRIP
360
15023
  0
DICTIONARY
  5
B3DB
330
AABA
100
AcDbDictionary
280
     1
281
     1
  3
ACAD_ROUNDTRIP_2008_TABLESTYLE_CELLSTYLEMAP
360
15003
  3
ACAD_XREC_ROUNDTRIP
360
1500D
  0
XRECORD
  5
1500A
102
{ACAD_REACTORS
330
15009
102
}
330
15009
100
AcDbXrecord
280
     1
102
SHADEPLOT
 70
     0
102
SHADEPLOTRESLEVEL
 70
     2
102
SHADEPLOTCUSTOMDPI
 70
   200
  0
XRECORD
  5
15008
102
{ACAD_REACTORS
330
15007
102
}
330
15007
100
AcDbXrecord
280
     1
102
SHADEPLOT
 70
     0
102
SHADEPLOTRESLEVEL
 70
     2
102
SHADEPLOTCUSTOMDPI
 70
   300
  0
XRECORD
  5
1500C
102
{ACAD_REACTORS
330
1500B
102
}
330
1500B
100
AcDbXrecord
280
     1
102
SHADEPLOT
 70
     0
102
SHADEPLOTRESLEVEL
 70
     2
102
SHADEPLOTCUSTOMDPI
 70
   300
  0
XRECORD
  5
15011
102
{ACAD_REACTORS
330
15010
102
}
330
15010
100
AcDbXrecord
280
     1
102
MATERIAL
148
0.0
149
0.0
149
0.0
 93
        0
 94
       63
282
     0
 72
     1
 77
     1
171
     1
175
     1
179
     1
273
     0
  0
XRECORD
  5
1500F
102
{ACAD_REACTORS
330
1500E
102
}
330
1500E
100
AcDbXrecord
280
     1
102
MATERIAL
148
0.0
149
0.0
149
0.0
 93
        0
 94
       63
282
     0
 72
     1
 77
     1
171
     1
175
     1
179
     1
273
     0
  0
XRECORD
  5
15013
102
{ACAD_REACTORS
330
15012
102
}
330
15012
100
AcDbXrecord
280
     1
102
MATERIAL
148
0.0
149
0.0
149
0.0
 93
        0
 94
       63
282
     0
 72
     1
 77
     1
171
     1
175
     1
179
     1
273
     0
  0
XRECORD
  5
15015
102
{ACAD_REACTORS
330
15014
102
}
330
15014
100
AcDbXrecord
280
     1
102
SHADEPLOT
 70
     0
102
SHADEPLOTRESLEVEL
 70
     2
102
SHADEPLOTCUSTOMDPI
 70
   200
  0
XRECORD
  5
15017
102
{ACAD_REACTORS
330
15016
102
}
330
15016
100
AcDbXrecord
280
     1
102
SHADEPLOT
 70
     0
102
SHADEPLOTRESLEVEL
 70
     2
102
SHADEPLOTCUSTOMDPI
 70
   200
  0
XRECORD
  5
15019
102
{ACAD_REACTORS
330
15018
102
}
330
15018
100
AcDbXrecord
280
     1
102
SHADEPLOT
 70
     0
102
SHADEPLOTRESLEVEL
 70
     2
102
SHADEPLOTCUSTOMDPI
 70
   200
  0
XRECORD
  5
1501B
102
{ACAD_REACTORS
330
1501A
102
}
330
1501A
100
AcDbXrecord
280
     1
102
SHADEPLOT
 70
     0
102
SHADEPLOTRESLEVEL
 70
     2
102
SHADEPLOTCUSTOMDPI
 70
   200
  0
XRECORD
  5
1501D
102
{ACAD_REACTORS
330
1501C
102
}
330
1501C
100
AcDbXrecord
280
     1
102
SHADEPLOT
 70
     0
102
SHADEPLOTRESLEVEL
 70
     2
102
SHADEPLOTCUSTOMDPI
 70
   200
  0
XRECORD
  5
1501F
102
{ACAD_REACTORS
330
1501E
102
}
330
1501E
100
AcDbXrecord
280
     1
102
SHADEPLOT
 70
     0
102
SHADEPLOTRESLEVEL
 70
     2
102
SHADEPLOTCUSTOMDPI
 70
   200
  0
XRECORD
  5
15021
102
{ACAD_REACTORS
330
15020
102
}
330
15020
100
AcDbXrecord
280
     1
102
SHADEPLOT
 70
     0
102
SHADEPLOTRESLEVEL
 70
     2
102
SHADEPLOTCUSTOMDPI
 70
   200
  0
XRECORD
  5
15023
102
{ACAD_REACTORS
330
15022
102
}
330
15022
100
AcDbXrecord
280
     1
102
SHADEPLOT
 70
     0
102
SHADEPLOTRESLEVEL
 70
     2
102
SHADEPLOTCUSTOMDPI
 70
   200
  0
CELLSTYLEMAP
  5
15003
102
{ACAD_REACTORS
330
B3DB
102
}
330
B3DB
100
AcDbCellStyleMap
 90
        3
300
CELLSTYLE
  1
TABLEFORMAT_BEGIN
 90
        5
170
     1
 91
        0
 92
    32768
 62
   257
 93
        1
300
CONTENTFORMAT
  1
CONTENTFORMAT_BEGIN
 90
        0
 91
        0
 92
        4
 93
        0
300

 40
0.0
140
1.0
 94
        5
 62
     0
340
11
144
6.0
309
CONTENTFORMAT_END
171
     1
301
MARGIN
  1
CELLMARGIN_BEGIN
 40
1.5
 40
1.5
 40
1.5
 40
1.5
 40
0.18
 40
0.18
309
CELLMARGIN_END
 94
        6
 95
        1
302
GRIDFORMAT
  1
GRIDFORMAT_BEGIN
 90
        0
 91
        1
 62
     0
 92
       -2
340
0
 93
        0
 40
0.045
309
GRIDFORMAT_END
 95
        2
302
GRIDFORMAT
  1
GRIDFORMAT_BEGIN
 90
        0
 91
        1
 62
     0
 92
       -2
340
0
 93
        0
 40
0.045
309
GRIDFORMAT_END
 95
        4
302
GRIDFORMAT
  1
GRIDFORMAT_BEGIN
 90
        0
 91
        1
 62
     0
 92
       -2
340
0
 93
        0
 40
0.045
309
GRIDFORMAT_END
 95
        8
302
GRIDFORMAT
  1
GRIDFORMAT_BEGIN
 90
        0
 91
        1
 62
     0
 92
       -2
340
0
 93
        0
 40
0.045
309
GRIDFORMAT_END
 95
       16
302
GRIDFORMAT
  1
GRIDFORMAT_BEGIN
 90
        0
 91
        1
 62
     0
 92
       -2
340
0
 93
        0
 40
0.045
309
GRIDFORMAT_END
 95
       32
302
GRIDFORMAT
  1
GRIDFORMAT_BEGIN
 90
        0
 91
        1
 62
     0
 92
       -2
340
0
 93
        0
 40
0.045
309
GRIDFORMAT_END
309
TABLEFORMAT_END
  1
CELLSTYLE_BEGIN
 90
        1
 91
        1
300
_TITLE
309
CELLSTYLE_END
300
CELLSTYLE
  1
TABLEFORMAT_BEGIN
 90
        5
170
     1
 91
        0
 92
        0
 62
   257
 93
        1
300
CONTENTFORMAT
  1
CONTENTFORMAT_BEGIN
 90
        0
 91
        0
 92
        4
 93
        0
300

 40
0.0
140
1.0
 94
        5
 62
     0
340
11
144
4.5
309
CONTENTFORMAT_END
171
     1
301
MARGIN
  1
CELLMARGIN_BEGIN
 40
1.5
 40
1.5
 40
1.5
 40
1.5
 40
0.18
 40
0.18
309
CELLMARGIN_END
 94
        6
 95
        1
302
GRIDFORMAT
  1
GRIDFORMAT_BEGIN
 90
        0
 91
        1
 62
     0
 92
       -2
340
0
 93
        0
 40
0.045
309
GRIDFORMAT_END
 95
        2
302
GRIDFORMAT
  1
GRIDFORMAT_BEGIN
 90
        0
 91
        1
 62
     0
 92
       -2
340
0
 93
        0
 40
0.045
309
GRIDFORMAT_END
 95
        4
302
GRIDFORMAT
  1
GRIDFORMAT_BEGIN
 90
        0
 91
        1
 62
     0
 92
       -2
340
0
 93
        0
 40
0.045
309
GRIDFORMAT_END
 95
        8
302
GRIDFORMAT
  1
GRIDFORMAT_BEGIN
 90
        0
 91
        1
 62
     0
 92
       -2
340
0
 93
        0
 40
0.045
309
GRIDFORMAT_END
 95
       16
302
GRIDFORMAT
  1
GRIDFORMAT_BEGIN
 90
        0
 91
        1
 62
     0
 92
       -2
340
0
 93
        0
 40
0.045
309
GRIDFORMAT_END
 95
       32
302
GRIDFORMAT
  1
GRIDFORMAT_BEGIN
 90
        0
 91
        1
 62
     0
 92
       -2
340
0
 93
        0
 40
0.045
309
GRIDFORMAT_END
309
TABLEFORMAT_END
  1
CELLSTYLE_BEGIN
 90
        2
 91
        1
300
_HEADER
309
CELLSTYLE_END
300
CELLSTYLE
  1
TABLEFORMAT_BEGIN
 90
        5
170
     1
 91
        0
 92
        0
 62
   257
 93
        1
300
CONTENTFORMAT
  1
CONTENTFORMAT_BEGIN
 90
        0
 91
        0
 92
        4
 93
        0
300

 40
0.0
140
1.0
 94
        2
 62
     0
340
11
144
4.5
309
CONTENTFORMAT_END
171
     1
301
MARGIN
  1
CELLMARGIN_BEGIN
 40
1.5
 40
1.5
 40
1.5
 40
1.5
 40
0.18
 40
0.18
309
CELLMARGIN_END
 94
        6
 95
        1
302
GRIDFORMAT
  1
GRIDFORMAT_BEGIN
 90
        0
 91
        1
 62
     0
 92
       -2
340
0
 93
        0
 40
0.045
309
GRIDFORMAT_END
 95
        2
302
GRIDFORMAT
  1
GRIDFORMAT_BEGIN
 90
        0
 91
        1
 62
     0
 92
       -2
340
0
 93
        0
 40
0.045
309
GRIDFORMAT_END
 95
        4
302
GRIDFORMAT
  1
GRIDFORMAT_BEGIN
 90
        0
 91
        1
 62
     0
 92
       -2
340
0
 93
        0
 40
0.045
309
GRIDFORMAT_END
 95
        8
302
GRIDFORMAT
  1
GRIDFORMAT_BEGIN
 90
        0
 91
        1
 62
     0
 92
       -2
340
0
 93
        0
 40
0.045
309
GRIDFORMAT_END
 95
       16
302
GRIDFORMAT
  1
GRIDFORMAT_BEGIN
 90
        0
 91
        1
 62
     0
 92
       -2
340
0
 93
        0
 40
0.045
309
GRIDFORMAT_END
 95
       32
302
GRIDFORMAT
  1
GRIDFORMAT_BEGIN
 90
        0
 91
        1
 62
     0
 92
       -2
340
0
 93
        0
 40
0.045
309
GRIDFORMAT_END
309
TABLEFORMAT_END
  1
CELLSTYLE_BEGIN
 90
        3
 91
        2
300
_DATA
309
CELLSTYLE_END
  0
XRECORD
  5
1500D
102
{ACAD_REACTORS
330
B3DB
102
}
330
B3DB
100
AcDbXrecord
280
     1
102
ACAD_ROUNDTRIP_PRE2007_TABLESTYLE
 90
        4
 91
        0
  1

 92
        4
 93
        0
  2

 94
        4
 95
        0
  3

  0
ENDSEC
  0
EOF
