  0
SECTION
  2
HEADER
  9
$ACADVER
  1
AC1015
  9
$ACADMAINTVER
 70
    20
  9
$DWGCODEPAGE
  3
ANSI_932
  9
$INSBASE
 10
0.0
 20
0.0
 30
0.0
  9
$EXTMIN
 10
2566.117511963499
 20
1297.522907928998
 30
0.0
  9
$EXTMAX
 10
4565.825840310425
 20
2691.726468688818
 30
0.0
  9
$LIMMIN
 10
3590.078245837285
 20
392.2544385774545
  9
$LIMMAX
 10
3649.478245837285
 20
434.2544385774544
  9
$ORTHOMODE
 70
     0
  9
$REGENMODE
 70
     1
  9
$FILLMODE
 70
     1
  9
$QTEXTMODE
 70
     0
  9
$MIRRTEXT
 70
     0
  9
$LTSCALE
 40
1.0
  9
$ATTMODE
 70
     1
  9
$TEXTSIZE
 40
3.2
  9
$TRACEWID
 40
1.0
  9
$TEXTSTYLE
  7
STANDARD
  9
$CLAYER
  8
AM_0
  9
$CELTYPE
  6
ByLayer
  9
$CECOLOR
 62
   256
  9
$CELTSCALE
 40
1.0
  9
$DISPSILH
 70
     0
  9
$DIMSCALE
 40
1.0
  9
$DIMASZ
 40
2.5
  9
$DIMEXO
 40
1.0
  9
$DIMDLI
 40
10.0
  9
$DIMRND
 40
0.0
  9
$DIMDLE
 40
0.0
  9
$DIMEXE
 40
1.0
  9
$DIMTP
 40
0.1
  9
$DIMTM
 40
0.1
  9
$DIMTXT
 40
3.5
  9
$DIMCEN
 40
0.0
  9
$DIMTSZ
 40
0.0
  9
$DIMTOL
 70
     0
  9
$DIMLIM
 70
     0
  9
$DIMTIH
 70
     0
  9
$DIMTOH
 70
     0
  9
$DIMSE1
 70
     0
  9
$DIMSE2
 70
     0
  9
$DIMTAD
 70
     1
  9
$DIMZIN
 70
     8
  9
$DIMBLK
  1

  9
$DIMASO
 70
     1
  9
$DIMSHO
 70
     1
  9
$DIMPOST
  1

  9
$DIMAPOST
  1
"
  9
$DIMALT
 70
     0
  9
$DIMALTD
 70
     2
  9
$DIMALTF
 40
0.0393701
  9
$DIMLFAC
 40
1.0
  9
$DIMTOFL
 70
     1
  9
$DIMTVP
 40
0.0
  9
$DIMTIX
 70
     0
  9
$DIMSOXD
 70
     0
  9
$DIMSAH
 70
     0
  9
$DIMBLK1
  1

  9
$DIMBLK2
  1

  9
$DIMSTYLE
  2
SYS
  9
$DIMCLRD
 70
   256
  9
$DIMCLRE
 70
   256
  9
$DIMCLRT
 70
     7
  9
$DIMTFAC
 40
0.71
  9
$DIMGAP
 40
1.5
  9
$DIMJUST
 70
     0
  9
$DIMSD1
 70
     0
  9
$DIMSD2
 70
     0
  9
$DIMTOLJ
 70
     0
  9
$DIMTZIN
 70
     8
  9
$DIMALTZ
 70
     0
  9
$DIMALTTZ
 70
     0
  9
$DIMUPT
 70
     0
  9
$DIMDEC
 70
     1
  9
$DIMTDEC
 70
     3
  9
$DIMALTU
 70
     2
  9
$DIMALTTD
 70
     4
  9
$DIMTXSTY
  7
STANDARD
  9
$DIMAUNIT
 70
     0
  9
$DIMADEC
 70
     0
  9
$DIMALTRND
 40
0.0
  9
$DIMAZIN
 70
     2
  9
$DIMDSEP
 70
    46
  9
$DIMATFIT
 70
     3
  9
$DIMFRAC
 70
     0
  9
$DIMLDRBLK
  1

  9
$DIMLUNIT
 70
     2
  9
$DIMLWD
 70
    -1
  9
$DIMLWE
 70
    -1
  9
$DIMTMOVE
 70
     0
  9
$LUNITS
 70
     2
  9
$LUPREC
 70
     2
  9
$SKETCHINC
 40
1.0
  9
$FILLETRAD
 40
0.5
  9
$AUNITS
 70
     0
  9
$AUPREC
 70
     0
  9
$MENU
  1
.
  9
$ELEVATION
 40
0.0
  9
$PELEVATION
 40
0.0
  9
$THICKNESS
 40
0.0
  9
$LIMCHECK
 70
     0
  9
$CHAMFERA
 40
0.5
  9
$CHAMFERB
 40
0.5
  9
$CHAMFERC
 40
20.0
  9
$CHAMFERD
 40
0.0
  9
$SKPOLY
 70
     0
  9
$TDCREATE
 40
2452002.615067627
  9
$TDUCREATE
 40
2452002.240067627
  9
$TDUPDATE
 40
2456652.395476701
  9
$TDUUPDATE
 40
2456652.020476701
  9
$TDINDWG
 40
12.5355895949
  9
$TDUSRTIMER
 40
12.5355895949
  9
$USRTIMER
 70
     1
  9
$ANGBASE
 50
0.0
  9
$ANGDIR
 70
     0
  9
$PDMODE
 70
     0
  9
$PDSIZE
 40
0.0
  9
$PLINEWID
 40
0.0
  9
$SPLFRAME
 70
     0
  9
$SPLINETYPE
 70
     6
  9
$SPLINESEGS
 70
     8
  9
$HANDSEED
  5
4A532
  9
$SURFTAB1
 70
     6
  9
$SURFTAB2
 70
     6
  9
$SURFTYPE
 70
     6
  9
$SURFU
 70
     6
  9
$SURFV
 70
     6
  9
$UCSBASE
  2

  9
$UCSNAME
  2

  9
$UCSORG
 10
0.0
 20
0.0
 30
0.0
  9
$UCSXDIR
 10
1.0
 20
0.0
 30
0.0
  9
$UCSYDIR
 10
0.0
 20
1.0
 30
0.0
  9
$UCSORTHOREF
  2

  9
$UCSORTHOVIEW
 70
     0
  9
$UCSORGTOP
 10
0.0
 20
0.0
 30
0.0
  9
$UCSORGBOTTOM
 10
0.0
 20
0.0
 30
0.0
  9
$UCSORGLEFT
 10
0.0
 20
0.0
 30
0.0
  9
$UCSORGRIGHT
 10
0.0
 20
0.0
 30
0.0
  9
$UCSORGFRONT
 10
0.0
 20
0.0
 30
0.0
  9
$UCSORGBACK
 10
0.0
 20
0.0
 30
0.0
  9
$PUCSBASE
  2

  9
$PUCSNAME
  2

  9
$PUCSORG
 10
0.0
 20
0.0
 30
0.0
  9
$PUCSXDIR
 10
1.0
 20
0.0
 30
0.0
  9
$PUCSYDIR
 10
0.0
 20
1.0
 30
0.0
  9
$PUCSORTHOREF
  2

  9
$PUCSORTHOVIEW
 70
     0
  9
$PUCSORGTOP
 10
0.0
 20
0.0
 30
0.0
  9
$PUCSORGBOTTOM
 10
0.0
 20
0.0
 30
0.0
  9
$PUCSORGLEFT
 10
0.0
 20
0.0
 30
0.0
  9
$PUCSORGRIGHT
 10
0.0
 20
0.0
 30
0.0
  9
$PUCSORGFRONT
 10
0.0
 20
0.0
 30
0.0
  9
$PUCSORGBACK
 10
0.0
 20
0.0
 30
0.0
  9
$USERI1
 70
     0
  9
$USERI2
 70
     0
  9
$USERI3
 70
     0
  9
$USERI4
 70
     0
  9
$USERI5
 70
     0
  9
$USERR1
 40
0.0
  9
$USERR2
 40
0.0
  9
$USERR3
 40
0.0
  9
$USERR4
 40
0.0
  9
$USERR5
 40
0.0
  9
$WORLDVIEW
 70
     1
  9
$SHADEDGE
 70
     3
  9
$SHADEDIF
 70
    70
  9
$TILEMODE
 70
     1
  9
$MAXACTVP
 70
    64
  9
$PINSBASE
 10
0.0
 20
0.0
 30
0.0
  9
$PLIMCHECK
 70
     0
  9
$PEXTMIN
 10
1.000000000000000E+20
 20
1.000000000000000E+20
 30
1.000000000000000E+20
  9
$PEXTMAX
 10
-1.000000000000000E+20
 20
-1.000000000000000E+20
 30
-1.000000000000000E+20
  9
$PLIMMIN
 10
-3.17498779296875
 20
-3.174999952316284
  9
$PLIMMAX
 10
293.4970092773438
 20
206.692492723465
  9
$UNITMODE
 70
     0
  9
$VISRETAIN
 70
     1
  9
$PLINEGEN
 70
     0
  9
$PSLTSCALE
 70
     1
  9
$TREEDEPTH
 70
  3020
  9
$CMLSTYLE
  2
Standard
  9
$CMLJUST
 70
     0
  9
$CMLSCALE
 40
20.0
  9
$PROXYGRAPHICS
 70
     1
  9
$MEASUREMENT
 70
     1
  9
$CELWEIGHT
370
    -1
  9
$ENDCAPS
280
     0
  9
$JOINSTYLE
280
     0
  9
$LWDISPLAY
290
     1
  9
$INSUNITS
 70
     4
  9
$HYPERLINKBASE
  1

  9
$STYLESHEET
  1
monochrome.ctb
  9
$XEDIT
290
     1
  9
$CEPSNTYPE
380
     0
  9
$PSTYLEMODE
290
     1
  9
$FINGERPRINTGUID
  2
{83FB3AA1-FF18-4BFE-AFE0-611B71DE056D}
  9
$VERSIONGUID
  2
{25594165-56B9-4009-B9CD-B49B7DFE3F2C}
  9
$EXTNAMES
290
     1
  9
$PSVPSCALE
 40
0.0
  9
$OLESTARTUP
290
     0
  0
ENDSEC
  0
SECTION
  2
CLASSES
  0
CLASS
  1
ACDBDICTIONARYWDFLT
  2
AcDbDictionaryWithDefault
  3
ObjectDBX Classes
 90
        0
280
     0
281
     0
  0
CLASS
  1
ACDBPLACEHOLDER
  2
AcDbPlaceHolder
  3
ObjectDBX Classes
 90
        0
280
     0
281
     0
  0
CLASS
  1
LAYOUT
  2
AcDbLayout
  3
ObjectDBX Classes
 90
        0
280
     0
281
     0
  0
CLASS
  1
AMGSETTINGSOBJ
  2
AmgSettingsObj
  3
"AcadM|Product Description: AutoCAD Mechanical|Company: Autodesk"
 90
        0
280
     0
281
     0
  0
CLASS
  1
ACME_DOCUMENT
  2
AcMeDbDoc
  3
AcMeServices
 90
        0
280
     0
281
     0
  0
CLASS
  1
ACMESCOPE
  2
AcMeScope
  3
AcMeServices
 90
        0
280
     0
281
     0
  0
CLASS
  1
ACMECOMMANDHISTORY
  2
AcMeCommandHistory
  3
AcMeServices
 90
        0
280
     0
281
     0
  0
CLASS
  1
DICTIONARYVAR
  2
AcDbDictionaryVar
  3
ObjectDBX Classes
 90
        0
280
     0
281
     0
  0
CLASS
  1
ACIMSYSVARMAN
  2
AcImSysVarManager
  3
AcMeServices
 90
        0
280
     0
281
     0
  0
CLASS
  1
ACIMREALSYSVAR
  2
AcImRealSysVar
  3
AcMeServices
 90
        0
280
     0
281
     0
  0
CLASS
  1
ACIMINTSYSVAR
  2
AcImIntSysVar
  3
AcMeServices
 90
        0
280
     0
281
     0
  0
CLASS
  1
ACMEDRAWINGMAN
  2
AcMeDrawingMan
  3
AcMeServices
 90
        0
280
     0
281
     0
  0
CLASS
  1
ACMEVIEW
  2
AcMeView
  3
AcMeServices
 90
        0
280
     0
281
     0
  0
CLASS
  1
ACDBENTITYCACHE
  2
AcMeEntityCache
  3
AcMeServices
 90
        0
280
     0
281
     0
  0
CLASS
  1
GSMANAGER
  2
AcMeGSManager
  3
AcMeServices
 90
        0
280
     0
281
     0
  0
CLASS
  1
AMDTINTERNALREACTOR
  2
AmdtInternalReactor
  3
AcMeServices
 90
        0
280
     0
281
     0
  0
CLASS
  1
ACMESTATEMGR
  2
AcMeStateMgr
  3
AcMeServices
 90
        0
280
     0
281
     0
  0
CLASS
  1
ACGREFMASTER
  2
AcGrefMaster
  3
AcAttribServices
 90
        0
280
     0
281
     0
  0
CLASS
  1
ACME_DATABASE
  2
AcMeDbDatabase
  3
AcMeServices
 90
        0
280
     0
281
     0
  0
CLASS
  1
ACRFINSADJUSTERMGR
  2
AcRfInsAdjusterMgr
  3
AcMeServices
 90
        0
280
     0
281
     0
  0
CLASS
  1
ACGREFACADMASTER
  2
AcGrefacadMaster
  3
AcGrefServices
 90
        0
280
     0
281
     0
  0
CLASS
  1
AMIMASTER
  2
AmiMaster
  3
AmiServices
 90
        0
280
     0
281
     0
  0
CLASS
  1
ACMDATADICTIONARY
  2
AcmDataDictionary
  3
"AcmSymBB|Product Description: AutoCAD Mechanical|Company: Autodesk"
 90
        0
280
     0
281
     0
  0
CLASS
  1
ACMDATAENTRYBLOCK
  2
AcmDataEntryBlock
  3
"AcmSymBB|Product Description: AutoCAD Mechanical|Company: Autodesk"
 90
        0
280
     0
281
     0
  0
CLASS
  1
ACIMSTRSYSVAR
  2
AcImStrSysVar
  3
AcMeServices
 90
        0
280
     0
281
     0
  0
CLASS
  1
ACMSTANDARDISO
  2
AcmStandardISO
  3
"Amdt_StdImp|Product Description: AutoCAD Mechanical|Company: Autodesk"
 90
        0
280
     0
281
     0
  0
CLASS
  1
AMGOBJPROPCFG
  2
AmgObjPropCfg
  3
"AmgLay|Product Description: AutoCAD Mechanical|Company: Autodesk"
 90
        1
280
     0
281
     0
  0
CLASS
  1
AMDTEDGESTANDARDISO
  2
AmdtEdgeStdISO
  3
"Amdt_StdImp|Product Description: AutoCAD Mechanical|Company: Autodesk"
 90
        0
280
     0
281
     0
  0
CLASS
  1
ACMSURFSTANDARDISO
  2
AcmSurfTextStdISO
  3
"Amdt_StdImp|Product Description: AutoCAD Mechanical|Company: Autodesk"
 90
        0
280
     0
281
     0
  0
CLASS
  1
ACMFCFSTANDARDISO
  2
AcmFCFStdISO
  3
"Amdt_StdImp|Product Description: AutoCAD Mechanical|Company: Autodesk"
 90
        0
280
     0
281
     0
  0
CLASS
  1
ACMWELDSTANDARDISO
  2
AcmWeldingStdISO
  3
"Amdt_StdImp|Product Description: AutoCAD Mechanical|Company: Autodesk"
 90
        0
280
     0
281
     0
  0
CLASS
  1
ACMIDSTANDARDISO
  2
AcmIdStdISO
  3
"Amdt_StdImp|Product Description: AutoCAD Mechanical|Company: Autodesk"
 90
        0
280
     0
281
     0
  0
CLASS
  1
ACMDATUMSTANDARDISO
  2
AcmDatumStdISO
  3
"Amdt_StdImp|Product Description: AutoCAD Mechanical|Company: Autodesk"
 90
        0
280
     0
281
     0
  0
CLASS
  1
ACMBOMSTANDARDISO
  2
AcmBOMStdISO
  3
"Amdt_StdImp|Product Description: AutoCAD Mechanical|Company: Autodesk"
 90
        0
280
     0
281
     0
  0
CLASS
  1
ACMDETAILSTANDARDISO
  2
AmdtDetailSymStdISO
  3
"Amdt_StdImp|Product Description: AutoCAD Mechanical|Company: Autodesk"
 90
        0
280
     0
281
     0
  0
CLASS
  1
ACMSECTIONSTANDARDISO
  2
AmdtSectionSymStdISO
  3
"Amdt_StdImp|Product Description: AutoCAD Mechanical|Company: Autodesk"
 90
        0
280
     0
281
     0
  0
CLASS
  1
ACMCENTERLINESTANDARDISO
  2
AmdtCenterLineStdISO
  3
"Amdt_StdImp|Product Description: AutoCAD Mechanical|Company: Autodesk"
 90
        0
280
     0
281
     0
  0
CLASS
  1
ACAMGLAYSTD
  2
AcAmgLayStd
  3
"AmgLay|Product Description: AutoCAD Mechanical|Company: Autodesk"
 90
        0
280
     0
281
     0
  0
CLASS
  1
ACAMGDIMSTD
  2
AcAmgDimStd
  3
"AmgDim|Product Description: AutoCAD Mechanical|Company: Autodesk"
 90
        0
280
     0
281
     0
  0
CLASS
  1
ACAMGTITLESTD
  2
AcAmgTitleStd
  3
"AmgTitle|Product Description: AutoCAD Mechanical|Company: Autodesk"
 90
        0
280
     0
281
     0
  0
CLASS
  1
ACAMGFILTERDAT
  2
AcAmgFilterDat
  3
"AcadM|Product Description: AutoCAD Mechanical|Company: Autodesk"
 90
        0
280
     0
281
     0
  0
CLASS
  1
LAYER_INDEX
  2
AcDbLayerIndex
  3
ObjectDBX Classes
 90
    32768
280
     0
281
     0
  0
CLASS
  1
IDBUFFER
  2
AcDbIdBuffer
  3
ObjectDBX Classes
 90
    32768
280
     0
281
     0
  0
CLASS
  1
PLOTSETTINGS
  2
AcDbPlotSettings
  3
ObjectDBX Classes
 90
        0
280
     0
281
     0
  0
CLASS
  1
AMDTFORMULAUPDATEDISPATCHER
  2
AmdtFormulaUpdateDispatcher
  3
AcMeServices
 90
        0
280
     0
281
     0
  0
CLASS
  1
ACMSTANDARDANSI
  2
AcmStandardANSI
  3
"Amdt_StdImp|Product Description: AutoCAD Mechanical|Company: Autodesk"
 90
        0
280
     0
281
     0
  0
CLASS
  1
ACMSURFSTANDARDANSI
  2
AcmSurfTextStdANSI
  3
"Amdt_StdImp|Product Description: AutoCAD Mechanical|Company: Autodesk"
 90
        0
280
     0
281
     0
  0
CLASS
  1
ACMFCFSTANDARDANSI
  2
AcmFCFStdANSI
  3
"Amdt_StdImp|Product Description: AutoCAD Mechanical|Company: Autodesk"
 90
        0
280
     0
281
     0
  0
CLASS
  1
ACMWELDSTANDARDANSI
  2
AcmWeldingStdANSI
  3
"Amdt_StdImp|Product Description: AutoCAD Mechanical|Company: Autodesk"
 90
        0
280
     0
281
     0
  0
CLASS
  1
ACMIDSTANDARDANSI
  2
AcmIdStdANSI
  3
"Amdt_StdImp|Product Description: AutoCAD Mechanical|Company: Autodesk"
 90
        0
280
     0
281
     0
  0
CLASS
  1
ACMDATUMSTANDARDANSI
  2
AcmDatumStdANSI
  3
"Amdt_StdImp|Product Description: AutoCAD Mechanical|Company: Autodesk"
 90
        0
280
     0
281
     0
  0
CLASS
  1
ACMBOMSTANDARDANSI
  2
AcmBOMStdANSI
  3
"Amdt_StdImp|Product Description: AutoCAD Mechanical|Company: Autodesk"
 90
        0
280
     0
281
     0
  0
CLASS
  1
ACMDETAILSTANDARDANSI
  2
AmdtDetailSymStdANSI
  3
"Amdt_StdImp|Product Description: AutoCAD Mechanical|Company: Autodesk"
 90
        0
280
     0
281
     0
  0
CLASS
  1
ACMSECTIONSTANDARDANSI
  2
AmdtSectionSymStdANSI
  3
"Amdt_StdImp|Product Description: AutoCAD Mechanical|Company: Autodesk"
 90
        0
280
     0
281
     0
  0
CLASS
  1
ACMCENTERLINESTANDARDANSI
  2
AmdtCenterLineStdANSI
  3
"Amdt_StdImp|Product Description: AutoCAD Mechanical|Company: Autodesk"
 90
        0
280
     0
281
     0
  0
CLASS
  1
ACMBOM
  2
AcmBom
  3
"AcmSymBB|Product Description: AutoCAD Mechanical|Company: Autodesk"
 90
        0
280
     0
281
     0
  0
CLASS
  1
ACMDATAENTRYPART
  2
AcmDataEntryPart
  3
"AcmSymBB|Product Description: AutoCAD Mechanical|Company: Autodesk"
 90
    32768
280
     0
281
     0
  0
CLASS
  1
ACMPARTREF
  2
AcmPartRef
  3
"AcmSymBB|Product Description: AutoCAD Mechanical|Company: Autodesk"
 90
    35839
280
     0
281
     1
  0
CLASS
  1
ACDBCIRCARCRES
  2
AcDbCircArcRes
  3
AcGrefServices
 90
    32768
280
     0
281
     0
  0
CLASS
  1
ACMBOMROW
  2
AcmBomRow
  3
"AcmSymBB|Product Description: AutoCAD Mechanical|Company: Autodesk"
 90
    32768
280
     0
281
     0
  0
CLASS
  1
ACMBALLOON
  2
AcmBalloon
  3
"AcmSymBB|Product Description: AutoCAD Mechanical|Company: Autodesk"
 90
    35839
280
     0
281
     1
  0
CLASS
  1
AMDTNOTE
  2
AmdtNote
  3
"AcmSymBB|Product Description: AutoCAD Mechanical|Company: Autodesk"
 90
    35839
280
     0
281
     1
  0
CLASS
  1
STDPART2D
  2
AmgStdPart
  3
"AmgStdPart|Product Description: AutoCAD Mechanical|Company: Autodesk"
 90
    35839
280
     0
281
     1
  0
CLASS
  1
ACDBSTDPARTRES_LINE
  2
AcDbStdPartRes_Line
  3
"AmgStdPart|Product Description: AutoCAD Mechanical|Company: Autodesk"
 90
        0
280
     0
281
     0
  0
CLASS
  1
ACMDATAENTRY
  2
AcmDataEntry
  3
"AcmSymBB|Product Description: AutoCAD Mechanical|Company: Autodesk"
 90
        0
280
     0
281
     0
  0
CLASS
  1
ACDBOPPOLYLINERES
  2
AcDbOpPolylineRes
  3
AcGrefServices
 90
    32768
280
     0
281
     0
  0
CLASS
  1
ACMPARTLIST
  2
AcmPartList
  3
"AcmSymBB|Product Description: AutoCAD Mechanical|Company: Autodesk"
 90
    35839
280
     0
281
     1
  0
CLASS
  1
ACDBLINERES
  2
AcDbLineRes
  3
AcGrefServices
 90
    32768
280
     0
281
     0
  0
CLASS
  1
ACRFINSADJ
  2
AcRfInsAdjuster
  3
AcMeServices
 90
    32768
280
     0
281
     0
  0
CLASS
  1
AM_DRAWING_MGR
  2
AcDmDwgMgr
  3
AcMechDwgViewMgmt
 90
        0
280
     0
281
     0
  0
CLASS
  1
AM_DWG_DOCUMENT
  2
AcDmDwgDocument
  3
AcMechDwgViewMgmt
 90
        0
280
     0
281
     0
  0
CLASS
  1
AM_DWG_SHEET
  2
AcDmSheet
  3
AcMechDwgViewMgmt
 90
        0
280
     0
281
     0
  0
CLASS
  1
AM_VIEWDIMPARMAP
  2
AcDmViewDimParMap
  3
AcMechDwgViewMgmt
 90
        0
280
     0
281
     0
  0
CLASS
  1
AM_DWGMGR_NAME
  2
AcDmDwgMgrName
  3
AcMechDwgViewMgmt
 90
        0
280
     0
281
     0
  0
CLASS
  1
AMDTMENUSTATEMGR
  2
AmdtMenuStateMgr
  3
McadcomServices
 90
        0
280
     0
281
     0
  0
CLASS
  1
AMDTMCOMMENUSTATE
  2
AmdtMcomMenuState
  3
McadcomServices
 90
        0
280
     0
281
     0
  0
CLASS
  1
ASAPP
  2
AcAsAppObject
  3
AutoSurfServices
 90
        0
280
     0
281
     0
  0
CLASS
  1
IM_STATIC_MAN
  2
AcImStaticVarManager
  3
AcMeServices
 90
        0
280
     0
281
     0
  0
CLASS
  1
ACIMDBLSTATICVAR
  2
AcImDblStaticVar
  3
AcMeServices
 90
        0
280
     0
281
     0
  0
CLASS
  1
ACIMSTRSTATICVAR
  2
AcImStrStaticVar
  3
AcMeServices
 90
        0
280
     0
281
     0
  0
CLASS
  1
ACIMINTSTATICVAR
  2
AcImIntStaticVar
  3
AcMeServices
 90
        0
280
     0
281
     0
  0
CLASS
  1
ACASGREFMASTER
  2
AcAsGrefMaster
  3
AutoSurfResolverServices
 90
        0
280
     0
281
     0
  0
CLASS
  1
ACADGREFMODULE
  2
AcAdGrefModule
  3
AdGrefServices
 90
        0
280
     0
281
     0
  0
CLASS
  1
AMDTMAPISURFMOUDULE
  2
AmdtMApiSurfModule
  3
MApiSurfServices
 90
        0
280
     0
281
     0
  0
CLASS
  1
MAPIAMMOUDLE
  2
MApiAmModule
  3
MApiAmServices
 90
        0
280
     0
281
     0
  0
CLASS
  1
AMDTADMENUSTATE
  2
AmdtAdMenuState
  3
DesignerServices
 90
        0
280
     0
281
     0
  0
CLASS
  1
ADAPPL
  2
AcAdAppl
  3
DesignerServices
 90
        0
280
     0
281
     0
  0
CLASS
  1
DEPMGR
  2
AcAdDepMgr
  3
DesignerServices
 90
        0
280
     0
281
     0
  0
CLASS
  1
PARAMMGR
  2
AcAdParamMgr
  3
DesignerServices
 90
        0
280
     0
281
     0
  0
CLASS
  1
PARAMSCOPE
  2
AcAdParamScope
  3
DesignerServices
 90
        0
280
     0
281
     0
  0
CLASS
  1
NAMEDAPPL
  2
AcAdNamedAppl
  3
DesignerServices
 90
        0
280
     0
281
     0
  0
CLASS
  1
ADHNTMPLT
  2
AdHoleNoteTemplateMgr
  3
DesignerServices
 90
    32768
280
     0
281
     0
  0
CLASS
  1
AM_HNTEMPLATE_MGR_NAME
  2
AdHoleNoteTemplateMgrName
  3
DesignerServices
 90
    32768
280
     0
281
     0
  0
CLASS
  1
AMDTDMMENUSTATE
  2
AmdtDmMenuState
  3
AcMechDwgViewMgmt
 90
        0
280
     0
281
     0
  0
CLASS
  1
MAPIADMODULE
  2
MApiAdModule
  3
MApiAdServices
 90
        0
280
     0
281
     0
  0
CLASS
  1
AMDTAMMENUSTATE
  2
AmdtAmMenuState
  3
DesignerAssemblies
 90
        0
280
     0
281
     0
  0
CLASS
  1
ACAMPROJECT
  2
AcAmProject
  3
DesignerAssemblies
 90
        0
280
     0
281
     0
  0
CLASS
  1
ACAMGRCOMPDEF
  2
AcAmGrCompDef
  3
DesignerAssemblies
 90
        0
280
     0
281
     0
  0
CLASS
  1
ACCMCONTEXT
  2
AcCmContext
  3
DesignerAssemblies
 90
        0
280
     0
281
     0
  0
CLASS
  1
ACAMCOMPDEF
  2
AcAmCompDef
  3
DesignerAssemblies
 90
        0
280
     0
281
     0
  0
CLASS
  1
ACAMCOMPDEFMGR
  2
AcAmCompDefMgr
  3
DesignerAssemblies
 90
        0
280
     0
281
     0
  0
CLASS
  1
AMCONTEXTMGR
  2
AcAmContextMgr
  3
DesignerAssemblies
 90
        0
280
     0
281
     0
  0
CLASS
  1
ACAMCONTEXTMODELER
  2
AcAmContextModeler
  3
DesignerAssemblies
 90
        0
280
     0
281
     0
  0
CLASS
  1
CATALOGSTATE
  2
AcAmCatalogState
  3
DesignerAssemblies
 90
        0
280
     0
281
     0
  0
CLASS
  1
ACAMGRCOMPDEFSET
  2
AcAmGrCompDefSet
  3
DesignerAssemblies
 90
        0
280
     0
281
     0
  0
CLASS
  1
AMDTBROWSERDBTAB
  2
AmdtBrowserDbTab
  3
McadcomServices
 90
        0
280
     0
281
     0
  0
CLASS
  1
CBROWSERAPPOBJECT
  2
CBrowserAppObject
  3
McadcomServices
 90
        0
280
     0
281
     0
  0
CLASS
  1
DM_PLACEHOLDER
  2
AcDmSelsetPlaceholder
  3
AcMechDwgViewMgmt
 90
        0
280
     0
281
     0
  0
CLASS
  1
ACMPICKOBJ
  2
AcmPickEnt
  3
"AcmSymBB|Product Description: AutoCAD Mechanical|Company: Autodesk"
 90
    32768
280
     0
281
     1
  0
CLASS
  1
MATERIAL
  2
AcDbMaterial
  3
ObjectDBX Classes
 90
     1153
280
     0
281
     0
  0
CLASS
  1
VISUALSTYLE
  2
AcDbVisualStyle
  3
ObjectDBX Classes
 90
     4095
280
     0
281
     0
  0
CLASS
  1
TABLESTYLE
  2
AcDbTableStyle
  3
ObjectDBX Classes
 90
     4095
280
     0
281
     0
  0
CLASS
  1
ACRFATTGENMGR
  2
AcRfAttGeneralMgr
  3
AcAttribServices
 90
        0
280
     0
281
     0
  0
CLASS
  1
ACRFOBJATTMGR
  2
AcRfObjAttGroupMgr
  3
AcAttribServices
 90
        0
280
     0
281
     0
  0
CLASS
  1
ACRFMCADAPIATTHOLDER
  2
AcRfMCADAPIAttHolder
  3
AcAttribServices
 90
        0
280
     0
281
     0
  0
CLASS
  1
AMDTSYSATTR
  2
AmdtSystemAttribute
  3
AcAttribServices
 90
        0
280
     0
281
     0
  0
CLASS
  1
ACMTHREADLINESTANDARDISO
  2
AmdtThreadLineStdISO
  3
"Amdt_StdImp|Product Description: AutoCAD Mechanical|Company: Autodesk"
 90
        0
280
     0
281
     0
  0
CLASS
  1
ACMNOTESTANDARDISO
  2
AmdtNoteStdISO
  3
"Amdt_StdImp|Product Description: AutoCAD Mechanical|Company: Autodesk"
 90
        0
280
     0
281
     0
  0
CLASS
  1
AMDTNOTETEMPLATEDB
  2
AmdtNoteTemplateDB
  3
AMDT_STDIMP_MODULE_NAME
 90
        0
280
     0
281
     0
  0
CLASS
  1
ACMTAPERSTANDARDISO
  2
AcmTaperStdISO
  3
"Amdt_StdImp|Product Description: AutoCAD Mechanical|Company: Autodesk"
 90
        0
280
     0
281
     0
  0
CLASS
  1
ACMTHREADLINESTANDARDANSI
  2
AmdtThreadLineStdANSI
  3
"Amdt_StdImp|Product Description: AutoCAD Mechanical|Company: Autodesk"
 90
        0
280
     0
281
     0
  0
CLASS
  1
ACMNOTESTANDARDANSI
  2
AmdtNoteStdANSI
  3
"Amdt_StdImp|Product Description: AutoCAD Mechanical|Company: Autodesk"
 90
        0
280
     0
281
     0
  0
CLASS
  1
ACMTAPERSTANDARDANSI
  2
AcmTaperStdANSI
  3
"Amdt_StdImp|Product Description: AutoCAD Mechanical|Company: Autodesk"
 90
        0
280
     0
281
     0
  0
CLASS
  1
CAMSSTRUCTBTNSTATE
  2
StructBtnState
  3
L"DesignerAssemblies"
 90
        0
280
     0
281
     0
  0
CLASS
  1
SORTENTSTABLE
  2
AcDbSortentsTable
  3
ObjectDBX Classes
 90
        0
280
     0
281
     0
  0
CLASS
  1
DIMASSOC
  2
AcDbDimAssoc
  3
"AcDbDimAssoc|Product Desc:     AcDim ARX App For Dimension|Company:          Autodesk, Inc.|WEB Address:      www.autodesk.com"
 90
        0
280
     0
281
     0
  0
CLASS
  1
SCALE
  2
AcDbScale
  3
ObjectDBX Classes
 90
     1153
280
     0
281
     0
  0
CLASS
  1
MLEADERSTYLE
  2
AcDbMLeaderStyle
  3
ACDB_MLEADERSTYLE_CLASS
 90
     4095
280
     0
281
     0
  0
CLASS
  1
ACMANOOTATIONVIEWSTANDARDISO
  2
AmdtAnViewStdISO
  3
"Amdt_StdImp|Product Description: AutoCAD Mechanical|Company: Autodesk, Inc."
 90
    33792
280
     0
281
     0
  0
CLASS
  1
ACMANOOTATIONVIEWSTANDARDANSI
  2
AmdtAnViewStdANSI
  3
"Amdt_StdImp|Product Description: AutoCAD Mechanical|Company: Autodesk, Inc."
 90
    33792
280
     0
281
     0
  0
CLASS
  1
CELLSTYLEMAP
  2
AcDbCellStyleMap
  3
ObjectDBX Classes
 90
     1152
280
     0
281
     0
  0
CLASS
  1
ACMSTANDARDJIS
  2
AcmStandardJIS
  3
"Amdt_StdImp|Product Description: AutoCAD Mechanical|Company: Autodesk"
 90
        0
280
     0
281
     0
  0
CLASS
  1
ACMSURFSTANDARDJIS2003
  2
AcmSurfTextStdJIS2003
  3
"Amdt_StdImp|Product Description: AutoCAD Mechanical|Company: Autodesk, Inc."
 90
    33792
280
     0
281
     0
  0
CLASS
  1
ACMFCFSTANDARDJIS98
  2
AcmFCFStdJIS98
  3
"Amdt_StdImp|Product Description: AutoCAD Mechanical|Company: Autodesk"
 90
        0
280
     0
281
     0
  0
CLASS
  1
ACMWELDSTANDARDJIS
  2
AcmWeldingStdJIS
  3
"Amdt_StdImp|Product Description: AutoCAD Mechanical|Company: Autodesk"
 90
        0
280
     0
281
     0
  0
CLASS
  1
ACMIDSTANDARDJIS
  2
AcmIdStdJIS
  3
"Amdt_StdImp|Product Description: AutoCAD Mechanical|Company: Autodesk"
 90
        0
280
     0
281
     0
  0
CLASS
  1
ACMDATUMSTANDARDJIS
  2
AcmDatumStdJIS
  3
"Amdt_StdImp|Product Description: AutoCAD Mechanical|Company: Autodesk"
 90
        0
280
     0
281
     0
  0
CLASS
  1
ACMBOMSTANDARDJIS
  2
AcmBOMStdJIS
  3
"Amdt_StdImp|Product Description: AutoCAD Mechanical|Company: Autodesk"
 90
        0
280
     0
281
     0
  0
CLASS
  1
ACMDETAILSTANDARDJIS
  2
AmdtDetailSymStdJIS
  3
"Amdt_StdImp|Product Description: AutoCAD Mechanical|Company: Autodesk"
 90
        0
280
     0
281
     0
  0
CLASS
  1
ACMSECTIONSTANDARDJIS
  2
AmdtSectionSymStdJIS
  3
"Amdt_StdImp|Product Description: AutoCAD Mechanical|Company: Autodesk"
 90
        0
280
     0
281
     0
  0
CLASS
  1
ACMCENTERLINESTANDARDJIS
  2
AmdtCenterLineStdJIS
  3
"Amdt_StdImp|Product Description: AutoCAD Mechanical|Company: Autodesk"
 90
        0
280
     0
281
     0
  0
CLASS
  1
ACMTHREADLINESTANDARDJIS
  2
AmdtThreadLineStdJIS
  3
"Amdt_StdImp|Product Description: AutoCAD Mechanical|Company: Autodesk"
 90
        0
280
     0
281
     0
  0
CLASS
  1
ACMNOTESTANDARDJIS
  2
AmdtNoteStdJIS
  3
"Amdt_StdImp|Product Description: AutoCAD Mechanical|Company: Autodesk"
 90
        0
280
     0
281
     0
  0
CLASS
  1
ACMTAPERSTANDARDJIS
  2
AcmTaperStdJIS
  3
"Amdt_StdImp|Product Description: AutoCAD Mechanical|Company: Autodesk"
 90
        0
280
     0
281
     0
  0
CLASS
  1
ACMANOOTATIONVIEWSTANDARDJIS
  2
AmdtAnViewStdJIS
  3
"Amdt_StdImp|Product Description: AutoCAD Mechanical|Company: Autodesk, Inc."
 90
    33792
280
     0
281
     0
  0
CLASS
  1
ACAMGHOLECHARTSTDJIS
  2
AcAmgHoleChartStdJIS
  3
ACMSYMBB_MODULE_NAME
 90
        0
280
     0
281
     0
  0
CLASS
  1
ACMSURFSYM
  2
AcmSurfaceTexture
  3
"AcmSymBB|Product Description: AutoCAD Mechanical|Company: Autodesk"
 90
    35839
280
     0
281
     1
  0
CLASS
  1
ACDBSTDPARTRES_ARC
  2
AcDbStdPartRes_Arc
  3
"AmgStdPart|Product Description: AutoCAD Mechanical|Company: Autodesk"
 90
    32768
280
     0
281
     0
  0
ENDSEC
  0
SECTION
  2
TABLES
  0
TABLE
  2
VPORT
  5
8
330
0
100
AcDbSymbolTable
 70
     1
  0
VPORT
  5
C444
330
8
100
AcDbSymbolTableRecord
100
AcDbViewportTableRecord
  2
*Active
 70
     0
 10
0.0
 20
0.0
 11
1.0
 21
1.0
 12
4425.047399839053
 22
1645.143549024879
 13
0.0
 23
0.0
 14
2.5
 24
2.5
 15
10.0
 25
10.0
 16
0.0
 26
0.0
 36
1.0
 17
0.0
 27
0.0
 37
0.0
 40
275.6843958156264
 41
1.645933014354066
 42
50.0
 43
-1370.695619172058
 44
-1370.695619172058
 50
0.0
 51
0.0
 71
    16
 72
   100
 73
     1
 74
     3
 75
     0
 76
     0
 77
     0
 78
     0
281
     0
 65
     0
110
0.0
120
0.0
130
0.0
111
1.0
121
0.0
131
0.0
112
0.0
122
1.0
132
0.0
 79
     0
146
0.0
  0
ENDTAB
  0
TABLE
  2
LTYPE
  5
5
330
0
100
AcDbSymbolTable
 70
    25
  0
LTYPE
  5
14
330
5
100
AcDbSymbolTableRecord
100
AcDbLinetypeTableRecord
  2
ByBlock
 70
     0
  3

 72
    65
 73
     0
 40
0.0
  0
LTYPE
  5
15
330
5
100
AcDbSymbolTableRecord
100
AcDbLinetypeTableRecord
  2
ByLayer
 70
     0
  3

 72
    65
 73
     0
 40
0.0
  0
LTYPE
  5
16
330
5
100
AcDbSymbolTableRecord
100
AcDbLinetypeTableRecord
  2
Continuous
 70
     0
  3
Solid line
 72
    65
 73
     0
 40
0.0
  0
LTYPE
  5
4F
330
5
100
AcDbSymbolTableRecord
100
AcDbLinetypeTableRecord
  2
AM_ISO02W050
 70
     0
  3
__ __ __ __ __ __ __ __ __ __ __ __ __ __ __
 72
    65
 73
     2
 40
7.5
 49
6.0
 74
     0
 49
-1.5
 74
     0
  0
LTYPE
  5
52
330
5
100
AcDbSymbolTableRecord
100
AcDbLinetypeTableRecord
  2
Amconstr
 70
     0
  3
_______________________
 72
    65
 73
     2
 40
9999.0
 49
9999.0
 74
     0
 49
0.0
 74
     0
  0
LTYPE
  5
64
330
5
100
AcDbSymbolTableRecord
100
AcDbLinetypeTableRecord
  2
ACISOWELD
 70
     0
  3
_ _ _ _ _
 72
    65
 73
     2
 40
2.0
 49
2.0
 74
     0
 49
-1.0
 74
     0
  0
LTYPE
  5
65
330
5
100
AcDbSymbolTableRecord
100
AcDbLinetypeTableRecord
  2
ACISOTGB
 70
     0
  3
__ . . __ . .
 72
    65
 73
     6
 40
9.0
 49
4.0
 74
     0
 49
-1.0
 74
     0
 49
1.0
 74
     0
 49
-1.0
 74
     0
 49
1.0
 74
     0
 49
-1.0
 74
     0
  0
LTYPE
  5
66
330
5
100
AcDbSymbolTableRecord
100
AcDbLinetypeTableRecord
  2
ACISOTGL
 70
     0
  3
_ _ _ _ _
 72
    65
 73
     2
 40
3.0
 49
2.0
 74
     0
 49
-1.0
 74
     0
  0
LTYPE
  5
69
330
5
100
AcDbSymbolTableRecord
100
AcDbLinetypeTableRecord
  2
CENTER
 70
     0
  3
__ . __
 72
    65
 73
     4
 40
7.0
 49
4.0
 74
     0
 49
-1.0
 74
     0
 49
1.0
 74
     0
 49
-1.0
 74
     0
  0
LTYPE
  5
A6E
330
5
100
AcDbSymbolTableRecord
100
AcDbLinetypeTableRecord
  2
PHANTOM2
 70
     0
  3
Phantom (.5x) ___ _ _ ___ _ _ ___ _ _ ___ _ _
 72
    65
 73
     6
 40
31.75
 49
15.875
 74
     0
 49
-3.174999999999999
 74
     0
 49
3.174999999999999
 74
     0
 49
-3.174999999999999
 74
     0
 49
3.174999999999999
 74
     0
 49
-3.174999999999999
 74
     0
  0
LTYPE
  5
FA3
330
5
100
AcDbSymbolTableRecord
100
AcDbLinetypeTableRecord
  2
ACANSTGB
 70
     0
  3
__ . . __ . .
 72
    65
 73
     6
 40
0.35433070866
 49
0.15748031496
 74
     0
 49
-0.03937007874
 74
     0
 49
0.03937007874
 74
     0
 49
-0.03937007874
 74
     0
 49
0.03937007874
 74
     0
 49
-0.03937007874
 74
     0
  0
LTYPE
  5
FA4
330
5
100
AcDbSymbolTableRecord
100
AcDbLinetypeTableRecord
  2
ACANSTGL
 70
     0
  3
_ _ _ _ _
 72
    65
 73
     2
 40
0.11811023622
 49
0.07874015748
 74
     0
 49
-0.03937007874
 74
     0
  0
LTYPE
  5
4DED
330
5
100
AcDbSymbolTableRecord
100
AcDbLinetypeTableRecord
  2
中線
 70
     0
  3
___________________
 72
    65
 73
     2
 40
2.0
 49
1.0
 74
     0
 49
1.0
 74
     0
  0
LTYPE
  5
4DF6
330
5
100
AcDbSymbolTableRecord
100
AcDbLinetypeTableRecord
  2
細線
 70
     0
  3
___________________
 72
    65
 73
     2
 40
2.0
 49
1.0
 74
     0
 49
1.0
 74
     0
  0
LTYPE
  5
4DF7
330
5
100
AcDbSymbolTableRecord
100
AcDbLinetypeTableRecord
  2
太線
 70
     0
  3
___________________
 72
    65
 73
     2
 40
2.0
 49
1.0
 74
     0
 49
1.0
 74
     0
  0
LTYPE
  5
4EA7
330
5
100
AcDbSymbolTableRecord
100
AcDbLinetypeTableRecord
  2
文字
 70
     0
  3
_________________
 72
    65
 73
     2
 40
2.0
 49
1.0
 74
     0
 49
1.0
 74
     0
  0
LTYPE
  5
4EA9
330
5
100
AcDbSymbolTableRecord
100
AcDbLinetypeTableRecord
  2
寸法線
 70
     0
  3
________________
 72
    65
 73
     2
 40
2.0
 49
1.0
 74
     0
 49
1.0
 74
     0
  0
LTYPE
  5
4F12
330
5
100
AcDbSymbolTableRecord
100
AcDbLinetypeTableRecord
  2
ハッチング
 70
     0
  3
_________________
 72
    65
 73
     2
 40
2.0
 49
1.0
 74
     0
 49
1.0
 74
     0
  0
LTYPE
  5
5180
330
5
100
AcDbSymbolTableRecord
100
AcDbLinetypeTableRecord
  2
陰線1
 70
     0
  3
__ __ __ __
 72
    65
 73
     2
 40
4.0
 49
2.2
 74
     0
 49
-1.8
 74
     0
  0
LTYPE
  5
5182
330
5
100
AcDbSymbolTableRecord
100
AcDbLinetypeTableRecord
  2
切断線
 70
     0
  3
/\/-/\/-/\/-/\/-/\/-/\/
 72
    65
 73
     2
 40
11.0001
 49
0.0001
 74
     4
 75
   135
340
56
 46
0.04
 50
0.0
 44
0.0
 45
0.0
 49
-11.0
 74
     0
  0
LTYPE
  5
5183
330
5
100
AcDbSymbolTableRecord
100
AcDbLinetypeTableRecord
  2
想像線1
 70
     0
  3
__ __ __ _____ __ __ ____
 72
    65
 73
     6
 40
14.5
 49
6.0
 74
     0
 49
-1.5
 74
     0
 49
2.0
 74
     0
 49
-1.5
 74
     0
 49
2.0
 74
     0
 49
-1.5
 74
     0
  0
LTYPE
  5
5185
330
5
100
AcDbSymbolTableRecord
100
AcDbLinetypeTableRecord
  2
中心線1
 70
     0
  3
___ _ ___ _ ___
 72
    65
 73
     4
 40
18.0
 49
12.0
 74
     0
 49
-2.0
 74
     0
 49
2.0
 74
     0
 49
-2.0
 74
     0
  0
LTYPE
  5
5188
330
5
100
AcDbSymbolTableRecord
100
AcDbLinetypeTableRecord
  2
補助線
 70
     0
  3
______________
 72
    65
 73
     2
 40
2.0
 49
1.0
 74
     0
 49
1.0
 74
     0
  0
LTYPE
  5
C49C
330
5
100
AcDbSymbolTableRecord
100
AcDbLinetypeTableRecord
  2
HIDDEN
 70
     0
  3
Hidden __ __ __ __ __ __ __ __ __ __ __ __ __ _
 72
    65
 73
     2
 40
9.524999999999998
 49
6.349999999999999
 74
     0
 49
-3.174999999999999
 74
     0
  0
LTYPE
  5
DD68
330
5
100
AcDbSymbolTableRecord
100
AcDbLinetypeTableRecord
  2
ACJISWELD
 70
     0
  3
_ _ _ _ _
 72
    65
 73
     2
 40
2.0
 49
2.0
 74
     0
 49
-1.0
 74
     0
  0
LTYPE
  5
DD69
330
5
100
AcDbSymbolTableRecord
100
AcDbLinetypeTableRecord
  2
ACJISTGB
 70
     0
  3
__ . . __ . .
 72
    65
 73
     6
 40
9.0
 49
4.0
 74
     0
 49
-1.0
 74
     0
 49
1.0
 74
     0
 49
-1.0
 74
     0
 49
1.0
 74
     0
 49
-1.0
 74
     0
  0
LTYPE
  5
DD6A
330
5
100
AcDbSymbolTableRecord
100
AcDbLinetypeTableRecord
  2
ACJISTGL
 70
     0
  3
_ _ _ _ _
 72
    65
 73
     2
 40
3.0
 49
2.0
 74
     0
 49
-1.0
 74
     0
  0
ENDTAB
  0
TABLE
  2
LAYER
  5
2
102
{ACAD_XDICTIONARY
360
3F95
102
}
330
0
100
AcDbSymbolTable
 70
    25
  0
LAYER
  5
10
102
{ACAD_XDICTIONARY
360
DB24
102
}
330
2
100
AcDbSymbolTableRecord
100
AcDbLayerTableRecord
  2
0
 70
     0
 62
     7
  6
Continuous
370
    -3
390
F
  0
LAYER
  5
6D1
330
2
100
AcDbSymbolTableRecord
100
AcDbLayerTableRecord
  2
Defpoints
 70
     0
 62
     7
  6
Continuous
290
     0
370
    -3
390
F
  0
LAYER
  5
A46
102
{ACAD_XDICTIONARY
360
DB26
102
}
330
2
100
AcDbSymbolTableRecord
100
AcDbLayerTableRecord
  2
size
 70
     0
 62
     5
  6
Continuous
290
     0
370
    30
390
F
  0
LAYER
  5
A47
102
{ACAD_XDICTIONARY
360
DB28
102
}
330
2
100
AcDbSymbolTableRecord
100
AcDbLayerTableRecord
  2
waku
 70
     0
 62
     7
  6
Continuous
370
    40
390
F
  0
LAYER
  5
A48
102
{ACAD_XDICTIONARY
360
DB2A
102
}
330
2
100
AcDbSymbolTableRecord
100
AcDbLayerTableRecord
  2
AM_6
 70
     0
 62
     2
  6
文字
370
    20
390
F
  0
LAYER
  5
5F85
102
{ACAD_XDICTIONARY
360
DB34
102
}
330
2
100
AcDbSymbolTableRecord
100
AcDbLayerTableRecord
  2
AM_0
 70
     0
 62
     7
  6
中線
370
    30
390
F
  0
LAYER
  5
BFAB
102
{ACAD_XDICTIONARY
360
DB42
102
}
330
2
100
AcDbSymbolTableRecord
100
AcDbLayerTableRecord
  2
AM_5
 70
     0
 62
     3
  6
寸法線
370
    18
390
F
  0
LAYER
  5
1E014
330
2
100
AcDbSymbolTableRecord
100
AcDbLayerTableRecord
  2
AM_INV
 70
     0
 62
  -253
  6
Continuous
370
     0
390
F
1001
AcAecLayerStandard
1000

1000

  0
LAYER
  5
2B5D4
102
{ACAD_XDICTIONARY
360
2B5D5
102
}
330
2
100
AcDbSymbolTableRecord
100
AcDbLayerTableRecord
  2
AM_11
 70
     0
 62
     2
  6
想像線1
370
    20
390
F
  0
LAYER
  5
49257
330
2
100
AcDbSymbolTableRecord
100
AcDbLayerTableRecord
  2
0部品2
 70
     0
 62
   163
  6
細線
370
    30
390
F
1001
AcAecLayerStandard
1000

1000

  0
LAYER
  5
49259
102
{ACAD_XDICTIONARY
360
4925A
102
}
330
2
100
AcDbSymbolTableRecord
100
AcDbLayerTableRecord
  2
AM_2
 70
     0
 62
     1
  6
細線
370
    20
390
F
  0
LAYER
  5
4A13D
330
2
100
AcDbSymbolTableRecord
100
AcDbLayerTableRecord
  2
AM_7N
 70
     0
 62
     4
  6
中心線1
370
    30
390
F
1001
AcAecLayerStandard
1000

1000

  0
ENDTAB
  0
TABLE
  2
STYLE
  5
3
330
0
100
AcDbSymbolTable
 70
     9
  0
STYLE
  5
11
330
3
100
AcDbSymbolTableRecord
100
AcDbTextStyleTableRecord
  2
STANDARD
 70
     0
 40
0.0
 41
0.7
 50
0.0
 71
     0
 42
3.2
  3
romans.shx
  4
extfont.shx
  0
STYLE
  5
56
330
3
100
AcDbSymbolTableRecord
100
AcDbTextStyleTableRecord
  2

 70
     1
 40
0.0
 41
1.0
 50
0.0
 71
     0
 42
2.5
  3
ltypeshp.shx
  4

  0
STYLE
  5
58
330
3
100
AcDbSymbolTableRecord
100
AcDbTextStyleTableRecord
  2
ACISOTS
 70
     0
 40
1.0
 41
1.0
 50
0.0
 71
     0
 42
2.5
  3
isocp.shx
  4
extfont.shx
  0
STYLE
  5
63
330
3
100
AcDbSymbolTableRecord
100
AcDbTextStyleTableRecord
  2
ACISOGDT
 70
     0
 40
0.0
 41
1.0
 50
0.0
 71
     0
 42
2.5
  3
amgdt.shx
  4

  0
STYLE
  5
A74
330
3
100
AcDbSymbolTableRecord
100
AcDbTextStyleTableRecord
  2
DIM
 70
     0
 40
0.0
 41
1.0
 50
0.0
 71
     0
 42
2.5
  3
monotxt.shx
  4
extfont.shx
  0
STYLE
  5
FA7
330
3
100
AcDbSymbolTableRecord
100
AcDbTextStyleTableRecord
  2
ACANSTS
 70
     0
 40
1.0
 41
1.0
 50
0.0
 71
     0
 42
0.2
  3
romans.shx
  4
extfont.shx
  0
STYLE
  5
FA8
330
3
100
AcDbSymbolTableRecord
100
AcDbTextStyleTableRecord
  2
ACANSGDT
 70
     0
 40
0.0
 41
1.0
 50
0.0
 71
     0
 42
0.2
  3
amgdtans.shx
  4

  0
STYLE
  5
DD6B
330
3
100
AcDbSymbolTableRecord
100
AcDbTextStyleTableRecord
  2
ACJISTS
 70
     0
 40
1.0
 41
1.0
 50
0.0
 71
     0
 42
3.2
  3
isocp.shx
  4
extfont.shx
  0
STYLE
  5
DD6C
330
3
100
AcDbSymbolTableRecord
100
AcDbTextStyleTableRecord
  2
ACJISGDT
 70
     0
 40
0.0
 41
1.0
 50
0.0
 71
     0
 42
3.2
  3
amgdt.shx
  4

  0
ENDTAB
  0
TABLE
  2
VIEW
  5
6
330
0
100
AcDbSymbolTable
 70
     6
  0
VIEW
  5
AE1
330
6
100
AcDbSymbolTableRecord
100
AcDbViewTableRecord
  2
AM_VIEW1
 70
     0
 40
22.03896457765671
 10
3604.928245837285
 20
423.2349562886261
 41
29.69999999999982
 11
0.0
 21
0.0
 31
1.0
 12
0.0
 22
0.0
 32
0.0
 42
50.0
 43
-1370.695619172058
 44
-1370.695619172058
 50
0.0
 71
    16
281
     0
 72
     0
  0
VIEW
  5
AE2
330
6
100
AcDbSymbolTableRecord
100
AcDbViewTableRecord
  2
AM_VIEW2
 70
     0
 40
22.03896457765671
 10
3634.628245837286
 20
423.2349562886261
 41
29.70000000000027
 11
0.0
 21
0.0
 31
1.0
 12
0.0
 22
0.0
 32
0.0
 42
50.0
 43
-1370.695619172058
 44
-1370.695619172058
 50
0.0
 71
    16
281
     0
 72
     0
  0
VIEW
  5
AE3
330
6
100
AcDbSymbolTableRecord
100
AcDbViewTableRecord
  2
AM_VIEW3
 70
     0
 40
22.03896457765671
 10
3604.928245837285
 20
403.2739208662828
 41
29.69999999999982
 11
0.0
 21
0.0
 31
1.0
 12
0.0
 22
0.0
 32
0.0
 42
50.0
 43
-1370.695619172058
 44
-1370.695619172058
 50
0.0
 71
    16
281
     0
 72
     0
  0
VIEW
  5
AE4
330
6
100
AcDbSymbolTableRecord
100
AcDbViewTableRecord
  2
AM_VIEW4
 70
     0
 40
22.03896457765671
 10
3634.628245837286
 20
403.2739208662828
 41
29.70000000000027
 11
0.0
 21
0.0
 31
1.0
 12
0.0
 22
0.0
 32
0.0
 42
50.0
 43
-1370.695619172058
 44
-1370.695619172058
 50
0.0
 71
    16
281
     0
 72
     0
  0
VIEW
  5
AE5
330
6
100
AcDbSymbolTableRecord
100
AcDbViewTableRecord
  2
AM_VIEW5
 70
     0
 40
22.03896457765666
 10
3619.778245837285
 20
413.2544385774544
 41
29.69999999999982
 11
0.0
 21
0.0
 31
1.0
 12
0.0
 22
0.0
 32
0.0
 42
50.0
 43
-1370.695619172058
 44
-1370.695619172058
 50
0.0
 71
    16
281
     0
 72
     0
  0
VIEW
  5
AE6
330
6
100
AcDbSymbolTableRecord
100
AcDbViewTableRecord
  2
AM_VIEW6
 70
     0
 40
44.07748837602184
 10
3619.778245837285
 20
413.2544385774544
 41
59.39940600000046
 11
0.0
 21
0.0
 31
1.0
 12
0.0
 22
0.0
 32
0.0
 42
50.0
 43
-1370.695619172058
 44
-1370.695619172058
 50
0.0
 71
    16
281
     0
 72
     0
  0
ENDTAB
  0
TABLE
  2
UCS
  5
7
330
0
100
AcDbSymbolTable
 70
     0
  0
ENDTAB
  0
TABLE
  2
APPID
  5
9
330
0
100
AcDbSymbolTable
 70
    86
  0
APPID
  5
12
330
9
100
AcDbSymbolTableRecord
100
AcDbRegAppTableRecord
  2
ACAD
 70
     0
  0
APPID
  5
30
330
9
100
AcDbSymbolTableRecord
100
AcDbRegAppTableRecord
  2
MCAD_NO_VIS
 70
     0
  0
APPID
  5
31
330
9
100
AcDbSymbolTableRecord
100
AcDbRegAppTableRecord
  2
ACAD_TEMP_GRAPHIC
 70
     0
  0
APPID
  5
44
330
9
100
AcDbSymbolTableRecord
100
AcDbRegAppTableRecord
  2
ACATTRIBSERVICES
 70
     0
  0
APPID
  5
7A1
330
9
100
AcDbSymbolTableRecord
100
AcDbRegAppTableRecord
  2
GENIUS_GENDIMSH_14
 70
     0
  0
APPID
  5
A49
330
9
100
AcDbSymbolTableRecord
100
AcDbRegAppTableRecord
  2
GENIUS_GENREC_14
 70
     0
  0
APPID
  5
A4A
330
9
100
AcDbSymbolTableRecord
100
AcDbRegAppTableRecord
  2
GENIUS_GENOBJ-N-REC_13
 70
     0
  0
APPID
  5
A4B
330
9
100
AcDbSymbolTableRecord
100
AcDbRegAppTableRecord
  2
GENIUS_GENODEF_13
 70
     0
  0
APPID
  5
A4C
330
9
100
AcDbSymbolTableRecord
100
AcDbRegAppTableRecord
  2
DCO15
 70
     0
  0
APPID
  5
ADC
330
9
100
AcDbSymbolTableRecord
100
AcDbRegAppTableRecord
  2
GENIUS_GENOLIS_13
 70
     0
  0
APPID
  5
ADD
330
9
100
AcDbSymbolTableRecord
100
AcDbRegAppTableRecord
  2
GENIUS_GENOENT_13
 70
     0
  0
APPID
  5
ADE
330
9
100
AcDbSymbolTableRecord
100
AcDbRegAppTableRecord
  2
GENIUS_GENOBJ-N-TIT_13
 70
     0
  0
APPID
  5
ADF
330
9
100
AcDbSymbolTableRecord
100
AcDbRegAppTableRecord
  2
GENIUS_GENTITLE_13
 70
     0
  0
APPID
  5
AE0
330
9
100
AcDbSymbolTableRecord
100
AcDbRegAppTableRecord
  2
GENIUS_GENOREF_13
 70
     0
  0
APPID
  5
AE7
330
9
100
AcDbSymbolTableRecord
100
AcDbRegAppTableRecord
  2
GENIUS_GENSCREG_15
 70
     0
  0
APPID
  5
AE8
330
9
100
AcDbSymbolTableRecord
100
AcDbRegAppTableRecord
  2
GENIUS_GENOBJ-N-SDF_13
 70
     0
  0
APPID
  5
FAF
330
9
100
AcDbSymbolTableRecord
100
AcDbRegAppTableRecord
  2
GENIUS_GENBLLY_14
 70
     0
  0
APPID
  5
FB0
330
9
100
AcDbSymbolTableRecord
100
AcDbRegAppTableRecord
  2
GENIUS_GENTRA_14
 70
     0
  0
APPID
  5
1285
330
9
100
AcDbSymbolTableRecord
100
AcDbRegAppTableRecord
  2
GENIUS_GENDTOL_13
 70
     0
  0
APPID
  5
142D
330
9
100
AcDbSymbolTableRecord
100
AcDbRegAppTableRecord
  2
GENIUS_GENOBJ-N-CEN_13
 70
     0
  0
APPID
  5
1AB5
330
9
100
AcDbSymbolTableRecord
100
AcDbRegAppTableRecord
  2
GENIUS_GENOBJ-N-CRS_13
 70
     0
  0
APPID
  5
1B36
330
9
100
AcDbSymbolTableRecord
100
AcDbRegAppTableRecord
  2
GENIUS_GENOBJ-N-HTC_13
 70
     0
  0
APPID
  5
1B37
330
9
100
AcDbSymbolTableRecord
100
AcDbRegAppTableRecord
  2
GENIUS_GENHATCH_13
 70
     0
  0
APPID
  5
216D
330
9
100
AcDbSymbolTableRecord
100
AcDbRegAppTableRecord
  2
GENIUS_GENOBJ-N-FIL_13
 70
     0
  0
APPID
  5
2356
330
9
100
AcDbSymbolTableRecord
100
AcDbRegAppTableRecord
  2
GEVID990412420
 70
     0
  0
APPID
  5
2357
330
9
100
AcDbSymbolTableRecord
100
AcDbRegAppTableRecord
  2
GEVDC
 70
     0
  0
APPID
  5
2358
330
9
100
AcDbSymbolTableRecord
100
AcDbRegAppTableRecord
  2
GEVCON
 70
     0
  0
APPID
  5
235B
330
9
100
AcDbSymbolTableRecord
100
AcDbRegAppTableRecord
  2
GEVRADREF
 70
     0
  0
APPID
  5
2360
330
9
100
AcDbSymbolTableRecord
100
AcDbRegAppTableRecord
  2
GENIUS_GENBH_13
 70
     0
  0
APPID
  5
2362
330
9
100
AcDbSymbolTableRecord
100
AcDbRegAppTableRecord
  2
GENIUS_GENOBJ-NBEHI-BHF_13
 70
     0
  0
APPID
  5
2364
330
9
100
AcDbSymbolTableRecord
100
AcDbRegAppTableRecord
  2
GENIUS_GENOBJ-NBEHI-BHB_13
 70
     0
  0
APPID
  5
2379
330
9
100
AcDbSymbolTableRecord
100
AcDbRegAppTableRecord
  2
GENIUS_GENOBJ-F-SCPASSM_13
 70
     0
  0
APPID
  5
3D74
330
9
100
AcDbSymbolTableRecord
100
AcDbRegAppTableRecord
  2
GENIUS_GENDIM_13
 70
     0
  0
APPID
  5
3D76
330
9
100
AcDbSymbolTableRecord
100
AcDbRegAppTableRecord
  2
GENIUS_GE3DTOL_13
 70
     0
  0
APPID
  5
3D9C
330
9
100
AcDbSymbolTableRecord
100
AcDbRegAppTableRecord
  2
AD_DRAW
 70
     0
  0
APPID
  5
3DE8
330
9
100
AcDbSymbolTableRecord
100
AcDbRegAppTableRecord
  2
ASURF_PCURVE_APPNAME
 70
     0
  0
APPID
  5
3DED
330
9
100
AcDbSymbolTableRecord
100
AcDbRegAppTableRecord
  2
AMG_3D2D_5.0
 70
     0
  0
APPID
  5
3E1B
330
9
100
AcDbSymbolTableRecord
100
AcDbRegAppTableRecord
  2
DESIGNERASSEMBLIES
 70
     0
  0
APPID
  5
3E20
330
9
100
AcDbSymbolTableRecord
100
AcDbRegAppTableRecord
  2
ACADM_DIM_EDIT
 70
     0
  0
APPID
  5
3E21
330
9
100
AcDbSymbolTableRecord
100
AcDbRegAppTableRecord
  2
AMDT_DM_ADJ
 70
     0
  0
APPID
  5
4143
330
9
100
AcDbSymbolTableRecord
100
AcDbRegAppTableRecord
  2
GENIUS_GENFIL_13
 70
     0
  0
APPID
  5
4144
330
9
100
AcDbSymbolTableRecord
100
AcDbRegAppTableRecord
  2
GENIUS_GENOBJ-N-CHA_13
 70
     0
  0
APPID
  5
4E17
330
9
100
AcDbSymbolTableRecord
100
AcDbRegAppTableRecord
  2
GEVID1008153417
 70
     0
  0
APPID
  5
4E58
330
9
100
AcDbSymbolTableRecord
100
AcDbRegAppTableRecord
  2
GEVID1008153418
 70
     0
  0
APPID
  5
4E5E
330
9
100
AcDbSymbolTableRecord
100
AcDbRegAppTableRecord
  2
GEVID1008153419
 70
     0
  0
APPID
  5
4E64
330
9
100
AcDbSymbolTableRecord
100
AcDbRegAppTableRecord
  2
GEVID1008153420
 70
     0
  0
APPID
  5
4E75
330
9
100
AcDbSymbolTableRecord
100
AcDbRegAppTableRecord
  2
GEVID1008153421
 70
     0
  0
APPID
  5
4EB7
330
9
100
AcDbSymbolTableRecord
100
AcDbRegAppTableRecord
  2
GENIUS_AMGTXT_16
 70
     0
  0
APPID
  5
7645
330
9
100
AcDbSymbolTableRecord
100
AcDbRegAppTableRecord
  2
GENIUS_GENOBJ-N-DIM_13
 70
     0
  0
APPID
  5
C5F0
330
9
100
AcDbSymbolTableRecord
100
AcDbRegAppTableRecord
  2
GENIUS_GENCEN_19
 70
     0
  0
APPID
  5
C5FB
330
9
100
AcDbSymbolTableRecord
100
AcDbRegAppTableRecord
  2
ACAD_DSTYLE_DIMJOGGED_JOGANGLE_SYMBOL
 70
     0
  0
APPID
  5
C5FC
330
9
100
AcDbSymbolTableRecord
100
AcDbRegAppTableRecord
  2
ACAD_PSEXT
 70
     0
  0
APPID
  5
CA37
330
9
100
AcDbSymbolTableRecord
100
AcDbRegAppTableRecord
  2
AcAecLayerStandard
 70
     0
  0
APPID
  5
CB0C
330
9
100
AcDbSymbolTableRecord
100
AcDbRegAppTableRecord
  2
ACAD_MLEADERVER
 70
     0
  0
APPID
  5
CB6B
330
9
100
AcDbSymbolTableRecord
100
AcDbRegAppTableRecord
  2
ACAD_DSTYLE_DIMINSPECT
 70
     0
  0
APPID
  5
FEE5
330
9
100
AcDbSymbolTableRecord
100
AcDbRegAppTableRecord
  2
ACAD_DSTYLE_DIMRADIAL_EXTENSION
 70
     0
  0
APPID
  5
FF92
330
9
100
AcDbSymbolTableRecord
100
AcDbRegAppTableRecord
  2
ACAD_EXEMPT_FROM_CAD_STANDARDS
 70
     0
  0
APPID
  5
10FEE
330
9
100
AcDbSymbolTableRecord
100
AcDbRegAppTableRecord
  2
GENIUS_GEFSPRING_13
 70
     0
  0
APPID
  5
1DFF4
330
9
100
AcDbSymbolTableRecord
100
AcDbRegAppTableRecord
  2
GEVID1278312395
 70
     0
  0
APPID
  5
1DFFE
330
9
100
AcDbSymbolTableRecord
100
AcDbRegAppTableRecord
  2
GEVID1278312396
 70
     0
  0
APPID
  5
1E008
330
9
100
AcDbSymbolTableRecord
100
AcDbRegAppTableRecord
  2
GEVID1278312397
 70
     0
  0
APPID
  5
1E521
330
9
100
AcDbSymbolTableRecord
100
AcDbRegAppTableRecord
  2
GEVID1278312398
 70
     0
  0
APPID
  5
1E548
330
9
100
AcDbSymbolTableRecord
100
AcDbRegAppTableRecord
  2
GEVID1278312399
 70
     0
  0
APPID
  5
21ED7
330
9
100
AcDbSymbolTableRecord
100
AcDbRegAppTableRecord
  2
GEVID1278402437
 70
     0
  0
APPID
  5
22BAF
330
9
100
AcDbSymbolTableRecord
100
AcDbRegAppTableRecord
  2
GEVID1278402438
 70
     0
  0
APPID
  5
25DCD
330
9
100
AcDbSymbolTableRecord
100
AcDbRegAppTableRecord
  2
GEVID1278402439
 70
     0
  0
APPID
  5
27E7D
330
9
100
AcDbSymbolTableRecord
100
AcDbRegAppTableRecord
  2
GEVID1278896955
 70
     0
  0
APPID
  5
27E95
330
9
100
AcDbSymbolTableRecord
100
AcDbRegAppTableRecord
  2
GEVID1278896956
 70
     0
  0
APPID
  5
27EA4
330
9
100
AcDbSymbolTableRecord
100
AcDbRegAppTableRecord
  2
GEVID1278896957
 70
     0
  0
APPID
  5
2828E
330
9
100
AcDbSymbolTableRecord
100
AcDbRegAppTableRecord
  2
GEVID1278896958
 70
     0
  0
APPID
  5
282AF
330
9
100
AcDbSymbolTableRecord
100
AcDbRegAppTableRecord
  2
GEVID1278896959
 70
     0
  0
APPID
  5
43C96
330
9
100
AcDbSymbolTableRecord
100
AcDbRegAppTableRecord
  2
GEVID1280830486
 70
     0
  0
APPID
  5
43CA1
330
9
100
AcDbSymbolTableRecord
100
AcDbRegAppTableRecord
  2
GEVID1280830487
 70
     0
  0
APPID
  5
43CAA
330
9
100
AcDbSymbolTableRecord
100
AcDbRegAppTableRecord
  2
GEVID1280830488
 70
     0
  0
APPID
  5
43CB3
330
9
100
AcDbSymbolTableRecord
100
AcDbRegAppTableRecord
  2
GEVID1280830489
 70
     0
  0
APPID
  5
43CBC
330
9
100
AcDbSymbolTableRecord
100
AcDbRegAppTableRecord
  2
GEVID1280830490
 70
     0
  0
APPID
  5
43CC5
330
9
100
AcDbSymbolTableRecord
100
AcDbRegAppTableRecord
  2
GEVID1280830491
 70
     0
  0
APPID
  5
43CCF
330
9
100
AcDbSymbolTableRecord
100
AcDbRegAppTableRecord
  2
GEVID1280830492
 70
     0
  0
APPID
  5
43CD8
330
9
100
AcDbSymbolTableRecord
100
AcDbRegAppTableRecord
  2
GEVID1280830493
 70
     0
  0
APPID
  5
43CDD
330
9
100
AcDbSymbolTableRecord
100
AcDbRegAppTableRecord
  2
GEVID1280830494
 70
     0
  0
APPID
  5
43DA7
330
9
100
AcDbSymbolTableRecord
100
AcDbRegAppTableRecord
  2
GEVID1280830495
 70
     0
  0
APPID
  5
43DB0
330
9
100
AcDbSymbolTableRecord
100
AcDbRegAppTableRecord
  2
GEVID1280830496
 70
     0
  0
APPID
  5
43DB1
330
9
100
AcDbSymbolTableRecord
100
AcDbRegAppTableRecord
  2
GEVMK
 70
     0
  0
APPID
  5
47069
330
9
100
AcDbSymbolTableRecord
100
AcDbRegAppTableRecord
  2
GEVID1290418001
 70
     0
  0
APPID
  5
4A530
330
9
100
AcDbSymbolTableRecord
100
AcDbRegAppTableRecord
  2
ACAD_DSTYLE_DIMARC_LENGTH_SYMBOL
 70
     0
  0
APPID
  5
4A531
330
9
100
AcDbSymbolTableRecord
100
AcDbRegAppTableRecord
  2
AcDbAttr
 70
     0
  0
ENDTAB
  0
TABLE
  2
DIMSTYLE
  5
A
330
0
100
AcDbSymbolTable
 70
    32
100
AcDbDimStyleTable
 71
     5
340
2515
340
251A
340
251B
340
6C
340
FA9
  0
DIMSTYLE
105
6C
330
A
100
AcDbSymbolTableRecord
100
AcDbDimStyleTableRecord
  2
AM_ISO
 70
     0
  4
"
 41
2.5
 42
1.0
 43
10.0
 44
1.0
 47
0.1
 48
0.1
 73
     0
 74
     0
 77
     1
 78
     8
 79
     2
140
3.5
141
0.0
143
0.0393701
146
0.71
147
1.5
172
     1
176
   256
177
   256
178
     2
271
     2
272
     3
274
     4
283
     0
284
     8
340
11
371
    -1
372
    -1
  0
DIMSTYLE
105
6D
330
A
100
AcDbSymbolTableRecord
100
AcDbDimStyleTableRecord
  2
AM_ISO$3
 70
     0
  4
"
 41
0.8
 42
1.0
 43
10.0
 44
1.0
 47
0.1
 48
0.1
 73
     0
 77
     1
 78
     8
 79
     2
140
3.2
141
0.0
143
0.0393701
146
0.71
147
0.9999999999999996
176
   256
177
   256
178
     2
271
     2
272
     2
283
     0
284
     8
288
     1
289
     0
340
11
342
6C4
371
    -1
372
    -1
  0
DIMSTYLE
105
6E
330
A
100
AcDbSymbolTableRecord
100
AcDbDimStyleTableRecord
  2
AM_ISO$4
 70
     0
  4
"
 41
0.8
 42
1.0
 43
10.0
 44
1.0
 47
0.1
 48
0.1
 73
     0
 77
     1
 78
     8
 79
     2
140
3.2
141
0.0
143
0.0393701
146
0.71
147
1.0
173
     1
176
   256
177
   256
178
     2
271
     2
272
     2
283
     0
284
     8
288
     1
289
     0
340
11
344
6C4
371
    -1
372
    -1
  0
DIMSTYLE
105
6F
330
A
100
AcDbSymbolTableRecord
100
AcDbDimStyleTableRecord
  2
AM_ISO$6
 70
     0
  4
"
 41
0.8
 42
1.0
 43
10.0
 44
1.0
 47
0.1
 48
0.1
 73
     0
 74
     0
 78
     8
 79
     2
140
3.2
141
0.0
143
0.0393701
146
0.71
147
1.0
172
     1
176
   256
177
   256
178
     2
271
     2
272
     2
283
     0
284
     8
340
11
341
6C4
371
    -1
372
    -1
  0
DIMSTYLE
105
70
330
A
100
AcDbSymbolTableRecord
100
AcDbDimStyleTableRecord
  2
AM_ISO$7
 70
     0
  4
"
 41
0.8
 42
1.0
 43
10.0
 44
1.0
 47
0.1
 48
0.1
 73
     0
 74
     0
 77
     1
 78
     8
 79
     2
140
3.2
141
0.0
143
0.0393701
146
0.71
147
1.0
172
     1
176
   256
177
   256
178
     2
271
     2
272
     2
283
     0
284
     8
340
11
341
6C4
342
6C4
371
    -1
372
    -1
  0
DIMSTYLE
105
71
330
A
100
AcDbSymbolTableRecord
100
AcDbDimStyleTableRecord
  2
AM_ISO$SF
 70
     0
  4
"
 41
0.8
 42
1.0
 43
10.0
 44
1.0
 47
0.1
 48
0.1
 73
     0
 74
     0
 75
     1
 76
     1
 77
     1
 78
     8
 79
     2
140
3.2
141
0.0
143
0.0393701
146
0.71
147
1.0
172
     1
176
   256
177
   256
178
     2
271
     2
272
     2
283
     0
284
     8
340
11
341
6C4
342
6C4
371
    -1
372
    -1
  0
DIMSTYLE
105
76
330
A
100
AcDbSymbolTableRecord
100
AcDbDimStyleTableRecord
  2
AM_ISO$SH
 70
     0
  4
"
 41
0.8
 42
1.0
 43
10.0
 44
1.0
 47
0.1
 48
0.1
 73
     0
 74
     0
 75
     1
 76
     1
 77
     1
 78
     8
 79
     2
140
3.2
141
0.0
143
0.0393701
144
2.0
146
0.71
147
1.0
172
     1
176
   256
177
   256
178
     2
271
     2
272
     2
283
     0
284
     8
340
11
341
6C4
342
6C4
371
    -1
372
    -1
  0
DIMSTYLE
105
6BE
330
A
100
AcDbSymbolTableRecord
100
AcDbDimStyleTableRecord
  2
AM_ISO$0
 70
     0
  4
"
 41
0.8
 42
1.0
 43
10.0
 44
1.0
 47
0.1
 48
0.1
 73
     0
 74
     0
 77
     1
 78
     8
 79
     2
140
3.2
141
0.0
143
0.0393701
146
0.71
147
0.9999999999999996
172
     1
176
   256
177
   256
178
     2
271
     2
272
     2
283
     0
284
     8
340
11
341
6C4
342
6C4
371
    -1
372
    -1
  0
DIMSTYLE
105
6BF
330
A
100
AcDbSymbolTableRecord
100
AcDbDimStyleTableRecord
  2
AM_ISO$2
 70
     0
  4
"
 41
0.8
 42
1.0
 43
10.0
 44
1.0
 47
0.1
 48
0.1
 73
     0
 74
     0
 77
     3
 78
     8
 79
     2
140
3.200000000000001
141
0.0
143
0.0393701
146
0.71
147
0.9999999999999996
172
     1
176
   256
177
   256
178
     2
271
     2
272
     2
283
     0
284
     8
340
11
342
6C4
371
    -1
372
    -1
  0
DIMSTYLE
105
A76
330
A
100
AcDbSymbolTableRecord
100
AcDbDimStyleTableRecord
  2
STANDARD
 70
     0
 41
3.0
 42
1.0
 43
7.0
 44
2.0
 73
     0
 74
     0
 77
     1
140
2.799999999999999
141
0.0
143
0.0394
147
0.7
171
     4
172
     1
173
     1
176
     3
177
     3
178
     2
271
     3
272
     3
273
     8
274
     4
289
     0
340
A74
341
A66
343
A66
344
A66
  0
DIMSTYLE
105
FA9
330
A
100
AcDbSymbolTableRecord
100
AcDbDimStyleTableRecord
  2
AM_ANSI
 70
     0
  4
mm
 41
0.1
 42
0.05
 43
0.5
 44
0.1
 47
0.1
 48
0.1
 78
     7
 79
     2
140
0.12
141
0.0
146
0.71
147
0.06
176
   256
177
   256
178
     2
274
     4
284
     7
340
11
371
    -1
372
    -1
  0
DIMSTYLE
105
FAA
330
A
100
AcDbSymbolTableRecord
100
AcDbDimStyleTableRecord
  2
AM_ANSI$3
 70
     0
  4
mm
 41
0.1
 42
0.05
 43
0.5
 44
0.1
 47
0.1
 48
0.1
 78
     7
 79
     2
140
0.12
141
0.0
146
0.71
147
0.06
176
   256
177
   256
178
     2
274
     4
284
     7
288
     1
289
     0
340
11
371
    -1
372
    -1
  0
DIMSTYLE
105
FAB
330
A
100
AcDbSymbolTableRecord
100
AcDbDimStyleTableRecord
  2
AM_ANSI$4
 70
     0
  4
mm
 41
0.1
 42
0.05
 43
0.5
 44
0.1
 47
0.1
 48
0.1
 78
     7
 79
     2
140
0.12
141
0.0
146
0.71
147
0.06
176
   256
177
   256
178
     2
274
     4
284
     7
288
     1
289
     0
340
11
371
    -1
372
    -1
  0
DIMSTYLE
105
FAC
330
A
100
AcDbSymbolTableRecord
100
AcDbDimStyleTableRecord
  2
AM_ANSI$7
 70
     0
  4
mm
 41
0.1
 42
0.05
 43
0.5
 44
0.1
 47
0.1
 48
0.1
 78
     7
 79
     2
140
0.24
141
0.0
146
0.71
147
0.06
176
   256
177
   256
178
     2
274
     4
284
     7
340
11
371
    -1
372
    -1
  0
DIMSTYLE
105
FAD
330
A
100
AcDbSymbolTableRecord
100
AcDbDimStyleTableRecord
  2
AM_ANSI$SF
 70
     0
  4
mm
 41
0.1
 42
0.05
 43
0.5
 44
0.1
 47
0.1
 48
0.1
 75
     1
 76
     1
 78
     7
 79
     2
140
0.12
141
0.0
146
0.71
147
0.06
176
   256
177
   256
178
     2
274
     4
284
     7
340
11
371
    -1
372
    -1
  0
DIMSTYLE
105
FAE
330
A
100
AcDbSymbolTableRecord
100
AcDbDimStyleTableRecord
  2
AM_ANSI$SH
 70
     0
  4
mm
 41
0.1
 42
0.05
 43
0.5
 44
0.1
 47
0.1
 48
0.1
 75
     1
 76
     1
 78
     7
 79
     2
140
0.12
141
0.0
146
0.71
147
0.06
173
     1
176
   256
177
   256
178
     2
274
     4
284
     7
340
11
343
72
371
    -1
372
    -1
  0
DIMSTYLE
105
2515
330
A
100
AcDbSymbolTableRecord
100
AcDbDimStyleTableRecord
  2
SYS
 70
     0
  4
"
 41
2.5
 42
1.0
 43
10.0
 44
1.0
 47
0.1
 48
0.1
 73
     0
 74
     0
 77
     1
 78
     8
 79
     2
140
3.5
141
0.0
143
0.0393701
146
0.71
147
1.5
172
     1
176
   256
177
   256
178
     7
271
     2
272
     3
274
     4
283
     0
284
     8
340
11
371
    -1
372
    -1
  0
DIMSTYLE
105
2516
102
{ACAD_REACTORS
330
49B8F
102
}
330
A
100
AcDbSymbolTableRecord
100
AcDbDimStyleTableRecord
  2
SYS$3
 70
     0
  4
"
 41
2.0
 42
1.0
 43
10.0
 44
1.0
 47
0.1
 48
0.1
 73
     0
 77
     1
 78
     8
 79
     2
140
3.200000000000001
141
0.0
143
0.0393701
146
0.71
147
1.0
176
   256
177
   256
178
     2
271
     1
272
     1
283
     0
284
     8
288
     1
340
11
342
A66
371
    -1
372
    -1
  0
DIMSTYLE
105
2517
330
A
100
AcDbSymbolTableRecord
100
AcDbDimStyleTableRecord
  2
SYS$4
 70
     0
  4
"
 41
2.0
 42
1.0
 43
10.0
 44
1.0
 47
0.1
 48
0.1
 73
     0
 77
     1
 78
     8
 79
     2
140
3.2
141
0.0
143
0.0393701
146
0.71
147
1.0
173
     1
176
   256
177
   256
178
     2
271
     2
272
     2
283
     0
284
     8
288
     1
340
11
344
A66
371
    -1
372
    -1
  0
DIMSTYLE
105
2518
330
A
100
AcDbSymbolTableRecord
100
AcDbDimStyleTableRecord
  2
SYS$6
 70
     0
  4
"
 41
2.0
 42
1.0
 43
10.0
 44
1.0
 47
0.1
 48
0.1
 73
     0
 74
     0
 78
     8
 79
     2
140
3.2
141
0.0
143
0.0393701
146
0.71
147
1.0
172
     1
176
   256
177
   256
178
     2
271
     2
272
     2
283
     0
284
     8
340
11
341
A66
371
    -1
372
    -1
  0
DIMSTYLE
105
2519
330
A
100
AcDbSymbolTableRecord
100
AcDbDimStyleTableRecord
  2
SYS$7
 70
     0
  4
"
 41
2.0
 42
1.5
 43
10.0
 44
1.0
 47
0.1
 48
0.1
 73
     0
 74
     0
 77
     1
 78
     8
 79
     2
140
3.2
141
0.0
143
0.0393701
146
0.71
147
1.0
172
     1
176
   256
177
   256
178
     2
271
     2
272
     2
283
     0
284
     8
340
11
341
A66
342
A66
371
    -1
372
    -1
  0
DIMSTYLE
105
251A
330
A
100
AcDbSymbolTableRecord
100
AcDbDimStyleTableRecord
  2
SYS$SF
 70
     0
  4
"
 41
1.0
 42
1.0
 43
10.0
 44
1.0
 47
0.1
 48
0.1
 73
     0
 74
     0
 75
     1
 76
     1
 77
     1
 78
     8
 79
     2
140
3.2
141
0.0
143
0.0393701
146
0.71
147
1.0
172
     1
176
   256
177
   256
178
     2
271
     2
272
     2
283
     0
284
     8
340
11
341
6C4
342
6C4
371
    -1
372
    -1
  0
DIMSTYLE
105
251B
330
A
100
AcDbSymbolTableRecord
100
AcDbDimStyleTableRecord
  2
SYS$SH
 70
     0
  4
"
 41
1.0
 42
1.0
 43
10.0
 44
1.0
 47
0.1
 48
0.1
 73
     0
 74
     0
 75
     1
 76
     1
 77
     1
 78
     8
 79
     2
140
3.2
141
0.0
143
0.0393701
144
2.0
146
0.71
147
1.0
172
     1
173
     1
176
   256
177
   256
178
     2
271
     2
272
     2
283
     0
284
     8
340
11
341
6C4
343
72
344
6C4
371
    -1
372
    -1
  0
DIMSTYLE
105
2A59
330
A
100
AcDbSymbolTableRecord
100
AcDbDimStyleTableRecord
  2
SYS$2
 70
     0
  4
"
 41
1.0
 42
1.5
 43
10.0
 44
1.0
 47
0.1
 48
0.1
 73
     0
 74
     0
 77
     1
 78
     8
 79
     2
140
3.2
141
0.0
143
0.0393701
146
0.71
147
1.0
172
     1
176
   256
177
   256
178
     2
271
     2
272
     2
283
     0
284
     8
340
11
342
6C4
371
    -1
372
    -1
  0
DIMSTYLE
105
2AAB
102
{ACAD_REACTORS
330
49B70
330
49B71
330
49B72
330
49B73
330
49B74
330
49B75
330
49B76
330
49B77
330
49B7A
330
49B7B
330
49B7C
330
49B7D
330
49B7E
330
49B7F
330
49B82
330
49B83
330
49B86
330
49B8E
330
49C61
330
49C64
102
}
330
A
100
AcDbSymbolTableRecord
100
AcDbDimStyleTableRecord
  2
SYS$0
 70
     0
  4
"
 41
1.0
 42
1.5
 43
10.0
 44
1.0
 47
0.1
 48
0.1
 73
     0
 74
     0
 77
     1
 78
     8
 79
     2
140
3.2
141
0.0
143
0.0393701
146
0.71
147
1.0
172
     1
176
   256
177
   256
178
     2
271
     1
272
     1
283
     0
284
     8
340
11
341
A66
342
6C4
371
    -1
372
    -1
  0
DIMSTYLE
105
DD6D
330
A
100
AcDbSymbolTableRecord
100
AcDbDimStyleTableRecord
  2
AM_JIS
 70
     0
  4
"
 41
2.5
 42
1.0
 43
10.0
 44
1.0
 47
0.1
 48
0.1
 73
     0
 74
     0
 77
     3
 78
     8
 79
     2
140
3.5
141
0.0
143
0.0393701
146
0.71
147
1.5
172
     1
176
   256
177
   256
178
     2
271
     2
272
     3
274
     4
283
     0
284
     8
340
11
341
A66
342
A66
343
A66
344
A66
371
    -1
372
    -1
1001
ACAD_DSTYLE_DIMARC_LENGTH_SYMBOL
1070
   379
1070
     1
  0
DIMSTYLE
105
DD6E
330
A
100
AcDbSymbolTableRecord
100
AcDbDimStyleTableRecord
  2
AM_JIS$3
 70
     0
  4
"
 41
2.5
 42
1.0
 43
10.0
 44
1.0
 47
0.1
 48
0.1
 73
     0
 77
     3
 78
     8
 79
     2
140
3.5
141
0.0
143
0.0393701
146
0.71
147
1.5
176
   256
177
   256
178
     2
271
     2
272
     3
274
     4
283
     0
284
     8
288
     1
289
     0
340
11
341
A66
342
A66
343
A66
344
A66
371
    -1
372
    -1
1001
ACAD_DSTYLE_DIMARC_LENGTH_SYMBOL
1070
   379
1070
     1
  0
DIMSTYLE
105
DD6F
330
A
100
AcDbSymbolTableRecord
100
AcDbDimStyleTableRecord
  2
AM_JIS$4
 70
     0
  4
"
 41
2.5
 42
1.0
 43
10.0
 44
1.0
 47
0.1
 48
0.1
 73
     0
 77
     3
 78
     8
 79
     2
140
3.5
141
0.0
143
0.0393701
146
0.71
147
1.5
176
   256
177
   256
178
     2
271
     2
272
     3
274
     4
283
     0
284
     8
288
     1
289
     0
340
11
341
A66
342
A66
343
A66
344
A66
371
    -1
372
    -1
1001
ACAD_DSTYLE_DIMARC_LENGTH_SYMBOL
1070
   379
1070
     1
  0
DIMSTYLE
105
DD70
330
A
100
AcDbSymbolTableRecord
100
AcDbDimStyleTableRecord
  2
AM_JIS$6
 70
     0
  4
"
 41
2.5
 42
1.0
 43
10.0
 44
1.0
 47
0.1
 48
0.1
 73
     0
 74
     0
 78
     8
 79
     2
140
3.5
141
0.0
143
0.0393701
146
0.71
147
1.5
172
     1
176
   256
177
   256
178
     2
271
     2
272
     3
274
     4
283
     0
284
     8
340
11
341
A66
342
A66
343
A66
344
A66
371
    -1
372
    -1
1001
ACAD_DSTYLE_DIMARC_LENGTH_SYMBOL
1070
   379
1070
     1
  0
DIMSTYLE
105
DD71
330
A
100
AcDbSymbolTableRecord
100
AcDbDimStyleTableRecord
  2
AM_JIS$7
 70
     0
  4
"
 41
2.5
 42
1.0
 43
10.0
 44
1.0
 47
0.1
 48
0.1
 73
     0
 74
     0
 77
     3
 78
     8
 79
     2
140
5.0
141
0.0
143
0.0393701
146
0.71
147
1.5
172
     1
176
   256
177
   256
178
     2
271
     2
272
     3
274
     4
283
     0
284
     8
340
11
341
A66
342
A66
343
A66
344
A66
371
    -1
372
    -1
1001
ACAD_DSTYLE_DIMARC_LENGTH_SYMBOL
1070
   379
1070
     1
  0
DIMSTYLE
105
DD72
330
A
100
AcDbSymbolTableRecord
100
AcDbDimStyleTableRecord
  2
AM_JIS$SF
 70
     0
  4
"
 41
2.5
 42
1.0
 43
10.0
 44
1.0
 47
0.1
 48
0.1
 73
     0
 74
     0
 75
     1
 76
     1
 77
     3
 78
     8
 79
     2
140
3.5
141
0.0
143
0.0393701
146
0.71
147
1.5
172
     1
176
   256
177
   256
178
     2
271
     2
272
     3
274
     4
283
     0
284
     8
340
11
341
A66
342
A66
343
A66
344
A66
371
    -1
372
    -1
1001
ACAD_DSTYLE_DIMARC_LENGTH_SYMBOL
1070
   379
1070
     1
  0
DIMSTYLE
105
DD73
330
A
100
AcDbSymbolTableRecord
100
AcDbDimStyleTableRecord
  2
AM_JIS$SH
 70
     0
  4
"
 41
2.5
 42
1.0
 43
10.0
 44
1.0
 47
0.1
 48
0.1
 73
     0
 74
     0
 75
     1
 76
     1
 77
     3
 78
     8
 79
     2
140
3.5
141
0.0
143
0.0393701
144
2.0
146
0.71
147
1.5
172
     1
173
     1
176
   256
177
   256
178
     2
271
     2
272
     3
274
     4
283
     0
284
     8
340
11
341
A66
342
A66
343
72
344
A66
371
    -1
372
    -1
1001
ACAD_DSTYLE_DIMARC_LENGTH_SYMBOL
1070
   379
1070
     1
  0
ENDTAB
  0
TABLE
  2
BLOCK_RECORD
  5
1
330
0
100
AcDbSymbolTable
 70
    38
  0
BLOCK_RECORD
  5
1F
102
{ACAD_XDICTIONARY
360
8A
102
}
330
1
100
AcDbSymbolTableRecord
100
AcDbBlockTableRecord
  2
*Model_Space
340
22
  0
BLOCK_RECORD
  5
1B
330
1
100
AcDbSymbolTableRecord
100
AcDbBlockTableRecord
  2
*Paper_Space
340
1E
  0
BLOCK_RECORD
  5
23
330
1
100
AcDbSymbolTableRecord
100
AcDbBlockTableRecord
  2
*Paper_Space0
340
26
  0
BLOCK_RECORD
  5
72
330
1
100
AcDbSymbolTableRecord
100
AcDbBlockTableRecord
  2
GENAXEH
340
0
  0
BLOCK_RECORD
  5
6C4
330
1
100
AcDbSymbolTableRecord
100
AcDbBlockTableRecord
  2
_Dot
340
0
102
{BLKREFS
331
49824
331
49825
331
4982D
331
4982E
331
49836
331
49837
331
4984A
331
4984B
331
49854
331
49855
331
4987C
331
4987D
331
4A38C
331
4A38D
331
4A395
331
4A396
331
4A39E
331
4A39F
331
4A3A7
331
4A3A8
331
4A3DF
331
4A3E0
331
4A3E8
331
4A3E9
331
4A3F1
331
4A3F2
331
4A3FA
331
4A3FB
331
4A403
331
4A404
331
4A40D
331
4A40E
331
4A416
331
4A417
331
4A429
331
4A42A
331
4A432
331
4A433
331
4A43B
331
4A43C
331
4A44D
331
4A44E
331
4A456
331
4A457
331
4A467
331
4A468
331
4A472
331
4A473
331
4A48D
331
4A48E
331
4A518
331
4A519
102
}
  0
BLOCK_RECORD
  5
A66
330
1
100
AcDbSymbolTableRecord
100
AcDbBlockTableRecord
  2
_OPEN30
340
0
  0
BLOCK_RECORD
  5
49C6F
330
1
100
AcDbSymbolTableRecord
100
AcDbBlockTableRecord
  2
*D16
340
0
  0
BLOCK_RECORD
  5
49C7B
330
1
100
AcDbSymbolTableRecord
100
AcDbBlockTableRecord
  2
*D17
340
0
  0
BLOCK_RECORD
  5
49C87
330
1
100
AcDbSymbolTableRecord
100
AcDbBlockTableRecord
  2
*D18
340
0
  0
BLOCK_RECORD
  5
49C93
330
1
100
AcDbSymbolTableRecord
100
AcDbBlockTableRecord
  2
*D19
340
0
  0
BLOCK_RECORD
  5
49C9F
330
1
100
AcDbSymbolTableRecord
100
AcDbBlockTableRecord
  2
*D20
340
0
  0
BLOCK_RECORD
  5
49CAB
330
1
100
AcDbSymbolTableRecord
100
AcDbBlockTableRecord
  2
*D21
340
0
  0
BLOCK_RECORD
  5
49CB7
330
1
100
AcDbSymbolTableRecord
100
AcDbBlockTableRecord
  2
*D22
340
0
  0
BLOCK_RECORD
  5
49CC3
330
1
100
AcDbSymbolTableRecord
100
AcDbBlockTableRecord
  2
*D23
340
0
  0
BLOCK_RECORD
  5
49CCF
330
1
100
AcDbSymbolTableRecord
100
AcDbBlockTableRecord
  2
*D24
340
0
  0
BLOCK_RECORD
  5
49CDB
330
1
100
AcDbSymbolTableRecord
100
AcDbBlockTableRecord
  2
*D25
340
0
  0
BLOCK_RECORD
  5
49CE8
330
1
100
AcDbSymbolTableRecord
100
AcDbBlockTableRecord
  2
*D26
340
0
  0
BLOCK_RECORD
  5
49CF4
330
1
100
AcDbSymbolTableRecord
100
AcDbBlockTableRecord
  2
*D27
340
0
  0
BLOCK_RECORD
  5
49D00
330
1
100
AcDbSymbolTableRecord
100
AcDbBlockTableRecord
  2
*D28
340
0
  0
BLOCK_RECORD
  5
49D0C
330
1
100
AcDbSymbolTableRecord
100
AcDbBlockTableRecord
  2
*D29
340
0
  0
BLOCK_RECORD
  5
49D18
330
1
100
AcDbSymbolTableRecord
100
AcDbBlockTableRecord
  2
*D30
340
0
  0
BLOCK_RECORD
  5
49D25
330
1
100
AcDbSymbolTableRecord
100
AcDbBlockTableRecord
  2
*D31
340
0
  0
BLOCK_RECORD
  5
49D32
330
1
100
AcDbSymbolTableRecord
100
AcDbBlockTableRecord
  2
*D32
340
0
  0
BLOCK_RECORD
  5
49D3E
330
1
100
AcDbSymbolTableRecord
100
AcDbBlockTableRecord
  2
*D33
340
0
  0
BLOCK_RECORD
  5
49DEF
330
1
100
AcDbSymbolTableRecord
100
AcDbBlockTableRecord
  2
*D34
340
0
  0
BLOCK_RECORD
  5
49DFB
330
1
100
AcDbSymbolTableRecord
100
AcDbBlockTableRecord
  2
*D35
340
0
  0
BLOCK_RECORD
  5
49E07
330
1
100
AcDbSymbolTableRecord
100
AcDbBlockTableRecord
  2
*D36
340
0
  0
BLOCK_RECORD
  5
4A21B
330
1
100
AcDbSymbolTableRecord
100
AcDbBlockTableRecord
  2
_DotSmall
340
0
102
{BLKREFS
331
4A47C
331
4A47D
102
}
  0
ENDTAB
  0
ENDSEC
  0
SECTION
  2
BLOCKS
  0
BLOCK
  5
20
330
1F
100
AcDbEntity
  8
0
100
AcDbBlockBegin
  2
*Model_Space
 70
     0
 10
0.0
 20
0.0
 30
0.0
  3
*Model_Space
  1

  0
ENDBLK
  5
21
330
1F
100
AcDbEntity
  8
0
100
AcDbBlockEnd
  0
BLOCK
  5
1C
330
1B
100
AcDbEntity
 67
     1
  8
0
100
AcDbBlockBegin
  2
*Paper_Space
 70
     0
 10
0.0
 20
0.0
 30
0.0
  3
*Paper_Space
  1

  0
ENDBLK
  5
1D
330
1B
100
AcDbEntity
 67
     1
  8
0
100
AcDbBlockEnd
  0
BLOCK
  5
24
330
23
100
AcDbEntity
 67
     1
  8
0
100
AcDbBlockBegin
  2
*Paper_Space0
 70
     0
 10
0.0
 20
0.0
 30
0.0
  3
*Paper_Space0
  1

  0
ENDBLK
  5
25
330
23
100
AcDbEntity
 67
     1
  8
0
100
AcDbBlockEnd
  0
BLOCK
  5
74
330
72
100
AcDbEntity
  8
0
100
AcDbBlockBegin
  2
GENAXEH
 70
     0
 10
0.0
 20
0.0
 30
0.0
  3
GENAXEH
  1

  0
LINE
  5
73
330
72
100
AcDbEntity
  8
0
100
AcDbLine
 10
-1.0
 20
0.0
 30
0.0
 11
1.0
 21
0.0
 31
0.0
  0
ENDBLK
  5
75
330
72
100
AcDbEntity
  8
0
100
AcDbBlockEnd
  0
BLOCK
  5
6C7
330
6C4
100
AcDbEntity
  8
0
100
AcDbBlockBegin
  2
_Dot
 70
     0
 10
0.0
 20
0.0
 30
0.0
  3
_Dot
  1

  0
LWPOLYLINE
  5
6C5
330
6C4
100
AcDbEntity
  8
0
  6
ByBlock
 62
     0
100
AcDbPolyline
 90
        2
 70
     1
 43
0.5
 10
-0.25
 20
0.0
 42
1.0
 10
0.25
 20
0.0
 42
1.0
  0
LINE
  5
6C6
330
6C4
100
AcDbEntity
  8
0
  6
ByBlock
 62
     0
370
    -2
100
AcDbLine
 10
-0.5
 20
0.0
 30
0.0
 11
-1.0
 21
0.0
 31
0.0
  0
ENDBLK
  5
6C8
330
6C4
100
AcDbEntity
  8
0
100
AcDbBlockEnd
  0
BLOCK
  5
A6A
330
A66
100
AcDbEntity
  8
0
100
AcDbBlockBegin
  2
_OPEN30
 70
     0
 10
0.0
 20
0.0
 30
0.0
  3
_OPEN30
  1

  0
LINE
  5
A67
330
A66
100
AcDbEntity
  8
0
  6
ByBlock
 62
     0
100
AcDbLine
 10
-1.0
 20
0.26794919
 30
0.0
 11
0.0
 21
0.0
 31
0.0
  0
LINE
  5
A68
330
A66
100
AcDbEntity
  8
0
  6
ByBlock
 62
     0
100
AcDbLine
 10
0.0
 20
0.0
 30
0.0
 11
-1.0
 21
-0.26794919
 31
0.0
  0
LINE
  5
A69
330
A66
100
AcDbEntity
  8
0
  6
ByBlock
 62
     0
100
AcDbLine
 10
0.0
 20
0.0
 30
0.0
 11
-1.0
 21
0.0
 31
0.0
  0
ENDBLK
  5
A6B
330
A66
100
AcDbEntity
  8
0
100
AcDbBlockEnd
  0
BLOCK
  5
49C79
330
49C6F
100
AcDbEntity
  8
0
100
AcDbBlockBegin
  2
*D16
 70
     1
 10
0.0
 20
0.0
 30
0.0
  3
*D16
  1

  0
LINE
  5
4A389
330
49C6F
100
AcDbEntity
  8
AM_5
100
AcDbLine
 10
4298.178972474676
 20
1592.487998287475
 30
0.0
 11
4289.67897247467
 21
1592.487998287475
 31
0.0
  0
LINE
  5
4A38A
330
49C6F
100
AcDbEntity
  8
AM_5
100
AcDbLine
 10
4298.178972474676
 20
1607.487998287475
 30
0.0
 11
4289.67897247467
 21
1607.487998287475
 31
0.0
  0
LINE
  5
4A38B
330
49C6F
100
AcDbEntity
  8
AM_5
100
AcDbLine
 10
4290.678972474671
 20
1593.487998287475
 30
0.0
 11
4290.678972474671
 21
1606.487998287475
 31
0.0
  0
INSERT
  5
4A38C
330
49C6F
100
AcDbEntity
  8
AM_5
100
AcDbBlockReference
  2
_Dot
 10
4290.678972474671
 20
1592.487998287475
 30
0.0
 41
1.0
 42
1.0
 43
1.0
 50
270.0
  0
INSERT
  5
4A38D
330
49C6F
100
AcDbEntity
  8
AM_5
100
AcDbBlockReference
  2
_Dot
 10
4290.678972474671
 20
1607.487998287475
 30
0.0
 41
1.0
 42
1.0
 43
1.0
 50
90.0
  0
MTEXT
  5
4A38E
330
49C6F
100
AcDbEntity
  8
AM_5
 62
     2
100
AcDbMText
 10
4288.07897247467
 20
1599.987998287476
 30
0.0
 40
3.2
 41
0.0
 71
     5
 72
     1
  1
15
 11
0.0000000000000001
 21
1.0
 31
0.0
 73
     1
 44
1.0
1001
ACAD
1000
MTEXTBEGIN
1070
    73
1070
     1
1070
    44
1040
1.0
1070
    74
1070
     0
1000
MTEXTEND
  0
POINT
  5
4A38F
330
49C6F
100
AcDbEntity
  8
Defpoints
 62
     0
100
AcDbPoint
 10
4299.678972474676
 20
1592.487998287475
 30
0.0
  0
POINT
  5
4A390
330
49C6F
100
AcDbEntity
  8
Defpoints
 62
     0
100
AcDbPoint
 10
4299.678972474676
 20
1607.487998287475
 30
0.0
  0
POINT
  5
4A391
330
49C6F
100
AcDbEntity
  8
Defpoints
 62
     0
100
AcDbPoint
 10
4290.678972474671
 20
1607.487998287475
 30
0.0
  0
ENDBLK
  5
49C7A
330
49C6F
100
AcDbEntity
  8
0
100
AcDbBlockEnd
  0
BLOCK
  5
49C85
330
49C7B
100
AcDbEntity
  8
0
100
AcDbBlockBegin
  2
*D17
 70
     1
 10
0.0
 20
0.0
 30
0.0
  3
*D17
  1

  0
LINE
  5
4A392
330
49C7B
100
AcDbEntity
  8
AM_5
100
AcDbLine
 10
4298.178972474676
 20
1607.487998287475
 30
0.0
 11
4289.67897247467
 21
1607.487998287475
 31
0.0
  0
LINE
  5
4A393
330
49C7B
100
AcDbEntity
  8
AM_5
100
AcDbLine
 10
4305.999483096894
 20
1619.487998287474
 30
0.0
 11
4289.67897247467
 21
1619.487998287474
 31
0.0
  0
LINE
  5
4A394
330
49C7B
100
AcDbEntity
  8
AM_5
100
AcDbLine
 10
4290.678972474671
 20
1608.487998287475
 30
0.0
 11
4290.678972474671
 21
1618.487998287474
 31
0.0
  0
INSERT
  5
4A395
330
49C7B
100
AcDbEntity
  8
AM_5
100
AcDbBlockReference
  2
_Dot
 10
4290.678972474671
 20
1607.487998287475
 30
0.0
 41
1.0
 42
1.0
 43
1.0
 50
270.0
  0
INSERT
  5
4A396
330
49C7B
100
AcDbEntity
  8
AM_5
100
AcDbBlockReference
  2
_Dot
 10
4290.678972474671
 20
1619.487998287474
 30
0.0
 41
1.0
 42
1.0
 43
1.0
 50
90.0
  0
MTEXT
  5
4A397
330
49C7B
100
AcDbEntity
  8
AM_5
 62
     2
100
AcDbMText
 10
4288.07897247467
 20
1613.206583893564
 30
0.0
 40
3.2
 41
0.0
 71
     5
 72
     1
  1
12
 11
0.0000000000000001
 21
1.0
 31
0.0
 73
     1
 44
1.0
1001
ACAD
1000
MTEXTBEGIN
1070
    73
1070
     1
1070
    44
1040
1.0
1070
    74
1070
     0
1000
MTEXTEND
  0
POINT
  5
4A398
330
49C7B
100
AcDbEntity
  8
Defpoints
 62
     0
100
AcDbPoint
 10
4299.678972474676
 20
1607.487998287475
 30
0.0
  0
POINT
  5
4A399
330
49C7B
100
AcDbEntity
  8
Defpoints
 62
     0
100
AcDbPoint
 10
4307.499483096894
 20
1619.487998287474
 30
0.0
  0
POINT
  5
4A39A
330
49C7B
100
AcDbEntity
  8
Defpoints
 62
     0
100
AcDbPoint
 10
4290.678972474671
 20
1619.487998287474
 30
0.0
  0
ENDBLK
  5
49C86
330
49C7B
100
AcDbEntity
  8
0
100
AcDbBlockEnd
  0
BLOCK
  5
49C91
330
49C87
100
AcDbEntity
  8
0
100
AcDbBlockBegin
  2
*D18
 70
     1
 10
0.0
 20
0.0
 30
0.0
  3
*D18
  1

  0
LINE
  5
4A39B
330
49C87
100
AcDbEntity
  8
AM_5
100
AcDbLine
 10
4305.999483096894
 20
1619.487998287474
 30
0.0
 11
4289.67897247467
 21
1619.487998287474
 31
0.0
  0
LINE
  5
4A39C
330
49C87
100
AcDbEntity
  8
AM_5
100
AcDbLine
 10
4316.67897704142
 20
1639.487997564635
 30
0.0
 11
4289.67897247467
 21
1639.487997564635
 31
0.0
  0
LINE
  5
4A39D
330
49C87
100
AcDbEntity
  8
AM_5
100
AcDbLine
 10
4290.678972474671
 20
1620.487998287474
 30
0.0
 11
4290.678972474671
 21
1638.487997564635
 31
0.0
  0
INSERT
  5
4A39E
330
49C87
100
AcDbEntity
  8
AM_5
100
AcDbBlockReference
  2
_Dot
 10
4290.678972474671
 20
1619.487998287474
 30
0.0
 41
1.0
 42
1.0
 43
1.0
 50
270.0
  0
INSERT
  5
4A39F
330
49C87
100
AcDbEntity
  8
AM_5
100
AcDbBlockReference
  2
_Dot
 10
4290.678972474671
 20
1639.487997564635
 30
0.0
 41
1.0
 42
1.0
 43
1.0
 50
90.0
  0
MTEXT
  5
4A3A0
330
49C87
100
AcDbEntity
  8
AM_5
 62
     2
100
AcDbMText
 10
4288.07897247467
 20
1629.612181922253
 30
0.0
 40
3.2
 41
0.0
 71
     5
 72
     1
  1
20
 11
0.0000000000000001
 21
1.0
 31
0.0
 73
     1
 44
1.0
1001
ACAD
1000
MTEXTBEGIN
1070
    73
1070
     1
1070
    44
1040
1.0
1070
    74
1070
     0
1000
MTEXTEND
  0
POINT
  5
4A3A1
330
49C87
100
AcDbEntity
  8
Defpoints
 62
     0
100
AcDbPoint
 10
4307.499483096894
 20
1619.487998287474
 30
0.0
  0
POINT
  5
4A3A2
330
49C87
100
AcDbEntity
  8
Defpoints
 62
     0
100
AcDbPoint
 10
4318.17897704142
 20
1639.487997564635
 30
0.0
  0
POINT
  5
4A3A3
330
49C87
100
AcDbEntity
  8
Defpoints
 62
     0
100
AcDbPoint
 10
4290.678972474671
 20
1639.487997564635
 30
0.0
  0
ENDBLK
  5
49C92
330
49C87
100
AcDbEntity
  8
0
100
AcDbBlockEnd
  0
BLOCK
  5
49C9D
330
49C93
100
AcDbEntity
  8
0
100
AcDbBlockBegin
  2
*D19
 70
     1
 10
0.0
 20
0.0
 30
0.0
  3
*D19
  1

  0
LINE
  5
4A3A4
330
49C93
100
AcDbEntity
  8
AM_5
100
AcDbLine
 10
4298.178972474676
 20
1592.487998287475
 30
0.0
 11
4289.67897247467
 21
1592.487998287475
 31
0.0
  0
LINE
  5
4A3A5
330
49C93
100
AcDbEntity
  8
AM_5
100
AcDbLine
 10
4305.678968659978
 20
1585.387998287475
 30
0.0
 11
4289.67897247467
 21
1585.387998287475
 31
0.0
  0
LINE
  5
4A3A6
330
49C93
100
AcDbEntity
  8
AM_5
100
AcDbLine
 10
4290.678972474671
 20
1591.487998287475
 30
0.0
 11
4290.678972474671
 21
1586.387998287475
 31
0.0
  0
INSERT
  5
4A3A7
330
49C93
100
AcDbEntity
  8
AM_5
100
AcDbBlockReference
  2
_Dot
 10
4290.678972474671
 20
1592.487998287475
 30
0.0
 41
1.0
 42
1.0
 43
1.0
 50
90.0
  0
INSERT
  5
4A3A8
330
49C93
100
AcDbEntity
  8
AM_5
100
AcDbBlockReference
  2
_Dot
 10
4290.678972474671
 20
1585.387998287475
 30
0.0
 41
1.0
 42
1.0
 43
1.0
 50
270.0
  0
MTEXT
  5
4A3A9
330
49C93
100
AcDbEntity
  8
AM_5
 62
     2
100
AcDbMText
 10
4288.07897247467
 20
1588.937998287476
 30
0.0
 40
3.2
 41
0.0
 71
     5
 72
     1
  1
7.1
 11
0.0000000000000001
 21
1.0
 31
0.0
 73
     1
 44
1.0
1001
ACAD
1000
MTEXTBEGIN
1070
    73
1070
     1
1070
    44
1040
1.0
1070
    74
1070
     0
1000
MTEXTEND
  0
POINT
  5
4A3AA
330
49C93
100
AcDbEntity
  8
Defpoints
 62
     0
100
AcDbPoint
 10
4299.678972474676
 20
1592.487998287475
 30
0.0
  0
POINT
  5
4A3AB
330
49C93
100
AcDbEntity
  8
Defpoints
 62
     0
100
AcDbPoint
 10
4307.178968659978
 20
1585.387998287475
 30
0.0
  0
POINT
  5
4A3AC
330
49C93
100
AcDbEntity
  8
Defpoints
 62
     0
100
AcDbPoint
 10
4290.678972474671
 20
1585.387998287475
 30
0.0
  0
ENDBLK
  5
49C9E
330
49C93
100
AcDbEntity
  8
0
100
AcDbBlockEnd
  0
BLOCK
  5
49CA9
330
49C9F
100
AcDbEntity
  8
0
100
AcDbBlockBegin
  2
*D20
 70
     1
 10
0.0
 20
0.0
 30
0.0
  3
*D20
  1

  0
LINE
  5
4A3E5
330
49C9F
100
AcDbEntity
  8
AM_5
100
AcDbLine
 10
4362.576887732108
 20
1592.487998287475
 30
0.0
 11
4354.076887732101
 21
1592.487998287475
 31
0.0
  0
LINE
  5
4A3E6
330
49C9F
100
AcDbEntity
  8
AM_5
100
AcDbLine
 10
4362.576887732108
 20
1617.487998287475
 30
0.0
 11
4354.076887732101
 21
1617.487998287475
 31
0.0
  0
LINE
  5
4A3E7
330
49C9F
100
AcDbEntity
  8
AM_5
100
AcDbLine
 10
4355.076887732102
 20
1593.487998287475
 30
0.0
 11
4355.076887732102
 21
1616.487998287475
 31
0.0
  0
INSERT
  5
4A3E8
330
49C9F
100
AcDbEntity
  8
AM_5
100
AcDbBlockReference
  2
_Dot
 10
4355.076887732102
 20
1592.487998287475
 30
0.0
 41
1.0
 42
1.0
 43
1.0
 50
270.0
  0
INSERT
  5
4A3E9
330
49C9F
100
AcDbEntity
  8
AM_5
100
AcDbBlockReference
  2
_Dot
 10
4355.076887732102
 20
1617.487998287475
 30
0.0
 41
1.0
 42
1.0
 43
1.0
 50
90.0
  0
MTEXT
  5
4A3EA
330
49C9F
100
AcDbEntity
  8
AM_5
 62
     2
100
AcDbMText
 10
4352.476887732101
 20
1605.611201627516
 30
0.0
 40
3.2
 41
0.0
 71
     5
 72
     1
  1
25
 11
0.0000000000000001
 21
1.0
 31
0.0
 73
     1
 44
1.0
1001
ACAD
1000
MTEXTBEGIN
1070
    73
1070
     1
1070
    44
1040
1.0
1070
    74
1070
     0
1000
MTEXTEND
  0
POINT
  5
4A3EB
330
49C9F
100
AcDbEntity
  8
Defpoints
 62
     0
100
AcDbPoint
 10
4364.076887732109
 20
1592.487998287475
 30
0.0
  0
POINT
  5
4A3EC
330
49C9F
100
AcDbEntity
  8
Defpoints
 62
     0
100
AcDbPoint
 10
4364.076887732109
 20
1617.487998287475
 30
0.0
  0
POINT
  5
4A3ED
330
49C9F
100
AcDbEntity
  8
Defpoints
 62
     0
100
AcDbPoint
 10
4355.076887732102
 20
1617.487998287475
 30
0.0
  0
ENDBLK
  5
49CAA
330
49C9F
100
AcDbEntity
  8
0
100
AcDbBlockEnd
  0
BLOCK
  5
49CB5
330
49CAB
100
AcDbEntity
  8
0
100
AcDbBlockBegin
  2
*D21
 70
     1
 10
0.0
 20
0.0
 30
0.0
  3
*D21
  1

  0
LINE
  5
4A3EE
330
49CAB
100
AcDbEntity
  8
AM_5
100
AcDbLine
 10
4362.576887732108
 20
1617.487998287475
 30
0.0
 11
4354.076887732101
 21
1617.487998287475
 31
0.0
  0
LINE
  5
4A3EF
330
49CAB
100
AcDbEntity
  8
AM_5
100
AcDbLine
 10
4370.397398354326
 20
1629.487998287474
 30
0.0
 11
4354.076887732101
 21
1629.487998287474
 31
0.0
  0
LINE
  5
4A3F0
330
49CAB
100
AcDbEntity
  8
AM_5
100
AcDbLine
 10
4355.076887732102
 20
1618.487998287475
 30
0.0
 11
4355.076887732102
 21
1628.487998287474
 31
0.0
  0
INSERT
  5
4A3F1
330
49CAB
100
AcDbEntity
  8
AM_5
100
AcDbBlockReference
  2
_Dot
 10
4355.076887732102
 20
1617.487998287475
 30
0.0
 41
1.0
 42
1.0
 43
1.0
 50
270.0
  0
INSERT
  5
4A3F2
330
49CAB
100
AcDbEntity
  8
AM_5
100
AcDbBlockReference
  2
_Dot
 10
4355.076887732102
 20
1629.487998287474
 30
0.0
 41
1.0
 42
1.0
 43
1.0
 50
90.0
  0
MTEXT
  5
4A3F3
330
49CAB
100
AcDbEntity
  8
AM_5
 62
     2
100
AcDbMText
 10
4352.476887732101
 20
1623.593269665652
 30
0.0
 40
3.2
 41
0.0
 71
     5
 72
     1
  1
12
 11
0.0000000000000001
 21
1.0
 31
0.0
 73
     1
 44
1.0
1001
ACAD
1000
MTEXTBEGIN
1070
    73
1070
     1
1070
    44
1040
1.0
1070
    74
1070
     0
1000
MTEXTEND
  0
POINT
  5
4A3F4
330
49CAB
100
AcDbEntity
  8
Defpoints
 62
     0
100
AcDbPoint
 10
4364.076887732109
 20
1617.487998287475
 30
0.0
  0
POINT
  5
4A3F5
330
49CAB
100
AcDbEntity
  8
Defpoints
 62
     0
100
AcDbPoint
 10
4371.897398354326
 20
1629.487998287474
 30
0.0
  0
POINT
  5
4A3F6
330
49CAB
100
AcDbEntity
  8
Defpoints
 62
     0
100
AcDbPoint
 10
4355.076887732102
 20
1629.487998287474
 30
0.0
  0
ENDBLK
  5
49CB6
330
49CAB
100
AcDbEntity
  8
0
100
AcDbBlockEnd
  0
BLOCK
  5
49CC1
330
49CB7
100
AcDbEntity
  8
0
100
AcDbBlockBegin
  2
*D22
 70
     1
 10
0.0
 20
0.0
 30
0.0
  3
*D22
  1

  0
LINE
  5
4A3F7
330
49CB7
100
AcDbEntity
  8
AM_5
100
AcDbLine
 10
4370.397398354326
 20
1629.487998287474
 30
0.0
 11
4354.076887732101
 21
1629.487998287474
 31
0.0
  0
LINE
  5
4A3F8
330
49CB7
100
AcDbEntity
  8
AM_5
100
AcDbLine
 10
4381.076895053277
 20
1639.487997564638
 30
0.0
 11
4354.076887732101
 21
1639.487997564638
 31
0.0
  0
LINE
  5
4A3F9
330
49CB7
100
AcDbEntity
  8
AM_5
100
AcDbLine
 10
4355.076887732102
 20
1630.487998287474
 30
0.0
 11
4355.076887732102
 21
1638.487997564638
 31
0.0
  0
INSERT
  5
4A3FA
330
49CB7
100
AcDbEntity
  8
AM_5
100
AcDbBlockReference
  2
_Dot
 10
4355.076887732102
 20
1629.487998287474
 30
0.0
 41
1.0
 42
1.0
 43
1.0
 50
270.0
  0
INSERT
  5
4A3FB
330
49CB7
100
AcDbEntity
  8
AM_5
100
AcDbBlockReference
  2
_Dot
 10
4355.076887732102
 20
1639.487997564638
 30
0.0
 41
1.0
 42
1.0
 43
1.0
 50
90.0
  0
MTEXT
  5
4A3FC
330
49CB7
100
AcDbEntity
  8
AM_5
 62
     2
100
AcDbMText
 10
4352.476887732101
 20
1634.886518801852
 30
0.0
 40
3.2
 41
0.0
 71
     5
 72
     1
  1
10
 11
0.0000000000000001
 21
1.0
 31
0.0
 73
     1
 44
1.0
1001
ACAD
1000
MTEXTBEGIN
1070
    73
1070
     1
1070
    44
1040
1.0
1070
    74
1070
     0
1000
MTEXTEND
  0
POINT
  5
4A3FD
330
49CB7
100
AcDbEntity
  8
Defpoints
 62
     0
100
AcDbPoint
 10
4371.897398354326
 20
1629.487998287474
 30
0.0
  0
POINT
  5
4A3FE
330
49CB7
100
AcDbEntity
  8
Defpoints
 62
     0
100
AcDbPoint
 10
4382.576895053277
 20
1639.487997564638
 30
0.0
  0
POINT
  5
4A3FF
330
49CB7
100
AcDbEntity
  8
Defpoints
 62
     0
100
AcDbPoint
 10
4355.076887732102
 20
1639.487997564638
 30
0.0
  0
ENDBLK
  5
49CC2
330
49CB7
100
AcDbEntity
  8
0
100
AcDbBlockEnd
  0
BLOCK
  5
49CCD
330
49CC3
100
AcDbEntity
  8
0
100
AcDbBlockBegin
  2
*D23
 70
     1
 10
0.0
 20
0.0
 30
0.0
  3
*D23
  1

  0
LINE
  5
4A400
330
49CC3
100
AcDbEntity
  8
AM_5
100
AcDbLine
 10
4362.576887732108
 20
1592.487998287475
 30
0.0
 11
4354.076887732101
 21
1592.487998287475
 31
0.0
  0
LINE
  5
4A401
330
49CC3
100
AcDbEntity
  8
AM_5
100
AcDbLine
 10
4370.076883917409
 20
1585.387998287475
 30
0.0
 11
4354.076887732101
 21
1585.387998287475
 31
0.0
  0
LINE
  5
4A402
330
49CC3
100
AcDbEntity
  8
AM_5
100
AcDbLine
 10
4355.076887732102
 20
1591.487998287475
 30
0.0
 11
4355.076887732102
 21
1586.387998287475
 31
0.0
  0
INSERT
  5
4A403
330
49CC3
100
AcDbEntity
  8
AM_5
100
AcDbBlockReference
  2
_Dot
 10
4355.076887732102
 20
1592.487998287475
 30
0.0
 41
1.0
 42
1.0
 43
1.0
 50
90.0
  0
INSERT
  5
4A404
330
49CC3
100
AcDbEntity
  8
AM_5
100
AcDbBlockReference
  2
_Dot
 10
4355.076887732102
 20
1585.387998287475
 30
0.0
 41
1.0
 42
1.0
 43
1.0
 50
270.0
  0
MTEXT
  5
4A405
330
49CC3
100
AcDbEntity
  8
AM_5
 62
     2
100
AcDbMText
 10
4352.476887732101
 20
1588.937998287476
 30
0.0
 40
3.2
 41
0.0
 71
     5
 72
     1
  1
7.1
 11
0.0000000000000001
 21
1.0
 31
0.0
 73
     1
 44
1.0
1001
ACAD
1000
MTEXTBEGIN
1070
    73
1070
     1
1070
    44
1040
1.0
1070
    74
1070
     0
1000
MTEXTEND
  0
POINT
  5
4A406
330
49CC3
100
AcDbEntity
  8
Defpoints
 62
     0
100
AcDbPoint
 10
4364.076887732109
 20
1592.487998287475
 30
0.0
  0
POINT
  5
4A407
330
49CC3
100
AcDbEntity
  8
Defpoints
 62
     0
100
AcDbPoint
 10
4371.576883917409
 20
1585.387998287475
 30
0.0
  0
POINT
  5
4A408
330
49CC3
100
AcDbEntity
  8
Defpoints
 62
     0
100
AcDbPoint
 10
4355.076887732102
 20
1585.387998287475
 30
0.0
  0
ENDBLK
  5
49CCE
330
49CC3
100
AcDbEntity
  8
0
100
AcDbBlockEnd
  0
BLOCK
  5
49CD9
330
49CCF
100
AcDbEntity
  8
0
100
AcDbBlockBegin
  2
*D24
 70
     1
 10
0.0
 20
0.0
 30
0.0
  3
*D24
  1

  0
LINE
  5
4A413
330
49CCF
100
AcDbEntity
  8
AM_5
100
AcDbLine
 10
4445.49606460879
 20
1599.248468267988
 30
0.0
 11
4445.49606460879
 21
1583.748468267988
 31
0.0
  0
LINE
  5
4A414
330
49CCF
100
AcDbEntity
  8
AM_5
100
AcDbLine
 10
4475.487683416536
 20
1599.248468267988
 30
0.0
 11
4475.487683416536
 21
1583.748468267988
 31
0.0
  0
LINE
  5
4A415
330
49CCF
100
AcDbEntity
  8
AM_5
100
AcDbLine
 10
4446.49606460879
 20
1584.748468267988
 30
0.0
 11
4474.487683416536
 21
1584.748468267988
 31
0.0
  0
INSERT
  5
4A416
330
49CCF
100
AcDbEntity
  8
AM_5
100
AcDbBlockReference
  2
_Dot
 10
4445.49606460879
 20
1584.748468267988
 30
0.0
 41
1.0
 42
1.0
 43
1.0
 50
180.0
  0
INSERT
  5
4A417
330
49CCF
100
AcDbEntity
  8
AM_5
100
AcDbBlockReference
  2
_Dot
 10
4475.487683416536
 20
1584.748468267988
 30
0.0
 41
1.0
 42
1.0
 43
1.0
  0
MTEXT
  5
4A418
330
49CCF
100
AcDbEntity
  8
AM_5
 62
     2
100
AcDbMText
 10
4460.491874012664
 20
1587.348468267988
 30
0.0
 40
3.2
 41
0.0
 71
     5
 72
     1
  1
30
 73
     1
 44
1.0
1001
ACAD
1000
MTEXTBEGIN
1070
    73
1070
     1
1070
    44
1040
1.0
1070
    74
1070
     0
1000
MTEXTEND
  0
POINT
  5
4A419
330
49CCF
100
AcDbEntity
  8
Defpoints
 62
     0
100
AcDbPoint
 10
4445.49606460879
 20
1600.748468267988
 30
0.0
  0
POINT
  5
4A41A
330
49CCF
100
AcDbEntity
  8
Defpoints
 62
     0
100
AcDbPoint
 10
4475.487683416536
 20
1600.748468267988
 30
0.0
  0
POINT
  5
4A41B
330
49CCF
100
AcDbEntity
  8
Defpoints
 62
     0
100
AcDbPoint
 10
4475.487683416536
 20
1584.748468267988
 30
0.0
  0
ENDBLK
  5
49CDA
330
49CCF
100
AcDbEntity
  8
0
100
AcDbBlockEnd
  0
BLOCK
  5
49CE6
330
49CDB
100
AcDbEntity
  8
0
100
AcDbBlockBegin
  2
*D25
 70
     1
 10
0.0
 20
0.0
 30
0.0
  3
*D25
  1

  0
LINE
  5
4A514
330
49CDB
100
AcDbEntity
  8
AM_5
100
AcDbLine
 10
4513.745625464246
 20
1654.973465005456
 30
0.0
 11
4513.745627380886
 21
1663.473467514202
 31
0.0
  0
LINE
  5
4A515
330
49CDB
100
AcDbEntity
  8
AM_5
100
AcDbLine
 10
4503.74561170956
 20
1654.973462750586
 30
0.0
 11
4503.745613626201
 21
1663.473469769074
 31
0.0
  0
LINE
  5
4A516
330
49CDB
100
AcDbEntity
  8
AM_5
100
AcDbLine
 10
4504.745613400713
 20
1662.473469543587
 30
0.0
 11
4512.745627155399
 21
1662.473467739689
 31
0.0
  0
LINE
  5
4A517
330
49CDB
100
AcDbEntity
  8
AM_5
100
AcDbLine
 10
4513.745627155399
 20
1662.473467514202
 30
0.0
 11
4534.473627155398
 21
1662.473462840309
 31
0.0
  0
INSERT
  5
4A518
330
49CDB
100
AcDbEntity
  8
AM_5
100
AcDbBlockReference
  2
_Dot
 10
4503.745613400714
 20
1662.473469769075
 30
0.0
 41
1.0
 42
1.0
 43
1.0
 50
179.9999870805506
  0
INSERT
  5
4A519
330
49CDB
100
AcDbEntity
  8
AM_5
100
AcDbBlockReference
  2
_Dot
 10
4513.745627155399
 20
1662.473467514202
 30
0.0
 41
1.0
 42
1.0
 43
1.0
 50
359.9999870805506
  0
MTEXT
  5
4A51A
330
49CDB
100
AcDbEntity
  8
AM_5
 62
     2
100
AcDbMText
 10
4525.302961074996
 20
1665.073464908175
 30
0.0
 40
3.2
 41
0.0
 71
     5
 72
     1
  1
M10×P1.5
 11
0.9999999999999745
 21
-0.0000002254869287
 31
0.0
 73
     1
 44
1.0
1001
ACAD
1000
MTEXTBEGIN
1070
    73
1070
     1
1070
    44
1040
1.0
1070
    74
1070
     0
1000
MTEXTEND
  0
POINT
  5
4A51B
330
49CDB
100
AcDbEntity
  8
Defpoints
 62
     0
100
AcDbPoint
 10
4513.745625126016
 20
1653.473465005456
 30
0.0
  0
POINT
  5
4A51C
330
49CDB
100
AcDbEntity
  8
Defpoints
 62
     0
100
AcDbPoint
 10
4503.74561137133
 20
1653.473462750586
 30
0.0
  0
POINT
  5
4A51D
330
49CDB
100
AcDbEntity
  8
Defpoints
 62
     0
100
AcDbPoint
 10
4503.745613400714
 20
1662.473469769075
 30
0.0
  0
ENDBLK
  5
49CE7
330
49CDB
100
AcDbEntity
  8
0
100
AcDbBlockEnd
  0
BLOCK
  5
49CF2
330
49CE8
100
AcDbEntity
  8
0
100
AcDbBlockBegin
  2
*D26
 70
     1
 10
0.0
 20
0.0
 30
0.0
  3
*D26
  1

  0
LINE
  5
4A426
330
49CE8
100
AcDbEntity
  8
AM_5
100
AcDbLine
 10
4444.287683416535
 20
1607.848466793096
 30
0.0
 11
4430.487680662108
 21
1607.848466793096
 31
0.0
  0
LINE
  5
4A427
330
49CE8
100
AcDbEntity
  8
AM_5
100
AcDbLine
 10
4443.987683416536
 20
1600.748468267988
 30
0.0
 11
4430.487680662108
 21
1600.748468267988
 31
0.0
  0
LINE
  5
4A428
330
49CE8
100
AcDbEntity
  8
AM_5
100
AcDbLine
 10
4431.487680662107
 20
1606.848466793096
 30
0.0
 11
4431.487680662107
 21
1601.748468267988
 31
0.0
  0
INSERT
  5
4A429
330
49CE8
100
AcDbEntity
  8
AM_5
100
AcDbBlockReference
  2
_Dot
 10
4431.487680662107
 20
1607.848466793096
 30
0.0
 41
1.0
 42
1.0
 43
1.0
 50
90.0
  0
INSERT
  5
4A42A
330
49CE8
100
AcDbEntity
  8
AM_5
100
AcDbBlockReference
  2
_Dot
 10
4431.487680662107
 20
1600.748468267988
 30
0.0
 41
1.0
 42
1.0
 43
1.0
 50
270.0
  0
MTEXT
  5
4A42B
330
49CE8
100
AcDbEntity
  8
AM_5
 62
     2
100
AcDbMText
 10
4428.887680662107
 20
1604.298467530543
 30
0.0
 40
3.2
 41
0.0
 71
     5
 72
     1
  1
7.1
 11
0.0000000000000001
 21
1.0
 31
0.0
 73
     1
 44
1.0
1001
ACAD
1000
MTEXTBEGIN
1070
    73
1070
     1
1070
    44
1040
1.0
1070
    74
1070
     0
1000
MTEXTEND
  0
POINT
  5
4A42C
330
49CE8
100
AcDbEntity
  8
Defpoints
 62
     0
100
AcDbPoint
 10
4445.787683416535
 20
1607.848466793096
 30
0.0
  0
POINT
  5
4A42D
330
49CE8
100
AcDbEntity
  8
Defpoints
 62
     0
100
AcDbPoint
 10
4445.487683416536
 20
1600.748468267988
 30
0.0
  0
POINT
  5
4A42E
330
49CE8
100
AcDbEntity
  8
Defpoints
 62
     0
100
AcDbPoint
 10
4431.487680662107
 20
1600.748468267988
 30
0.0
  0
ENDBLK
  5
49CF3
330
49CE8
100
AcDbEntity
  8
0
100
AcDbBlockEnd
  0
BLOCK
  5
49CFE
330
49CF4
100
AcDbEntity
  8
0
100
AcDbBlockBegin
  2
*D27
 70
     1
 10
0.0
 20
0.0
 30
0.0
  3
*D27
  1

  0
LINE
  5
4A42F
330
49CF4
100
AcDbEntity
  8
AM_5
100
AcDbLine
 10
4444.287683416535
 20
1607.848466793096
 30
0.0
 11
4430.487680662108
 21
1607.848466793096
 31
0.0
  0
LINE
  5
4A430
330
49CF4
100
AcDbEntity
  8
AM_5
100
AcDbLine
 10
4454.987691797978
 20
1654.848467545146
 30
0.0
 11
4430.487680662108
 21
1654.848467545146
 31
0.0
  0
LINE
  5
4A431
330
49CF4
100
AcDbEntity
  8
AM_5
100
AcDbLine
 10
4431.487680662107
 20
1608.848466793096
 30
0.0
 11
4431.487680662107
 21
1653.848467545147
 31
0.0
  0
INSERT
  5
4A432
330
49CF4
100
AcDbEntity
  8
AM_5
100
AcDbBlockReference
  2
_Dot
 10
4431.487680662107
 20
1607.848466793096
 30
0.0
 41
1.0
 42
1.0
 43
1.0
 50
270.0
  0
INSERT
  5
4A433
330
49CF4
100
AcDbEntity
  8
AM_5
100
AcDbBlockReference
  2
_Dot
 10
4431.487680662107
 20
1654.848467545146
 30
0.0
 41
1.0
 42
1.0
 43
1.0
 50
90.0
  0
MTEXT
  5
4A434
330
49CF4
100
AcDbEntity
  8
AM_5
 62
     2
100
AcDbMText
 10
4428.887680662107
 20
1631.348467169122
 30
0.0
 40
3.2
 41
0.0
 71
     5
 72
     1
  1
47
 11
0.0000000000000001
 21
1.0
 31
0.0
 73
     1
 44
1.0
1001
ACAD
1000
MTEXTBEGIN
1070
    73
1070
     1
1070
    44
1040
1.0
1070
    74
1070
     0
1000
MTEXTEND
  0
POINT
  5
4A435
330
49CF4
100
AcDbEntity
  8
Defpoints
 62
     0
100
AcDbPoint
 10
4445.787683416535
 20
1607.848466793096
 30
0.0
  0
POINT
  5
4A436
330
49CF4
100
AcDbEntity
  8
Defpoints
 62
     0
100
AcDbPoint
 10
4456.487691797978
 20
1654.848467545146
 30
0.0
  0
POINT
  5
4A437
330
49CF4
100
AcDbEntity
  8
Defpoints
 62
     0
100
AcDbPoint
 10
4431.487680662107
 20
1654.848467545146
 30
0.0
  0
ENDBLK
  5
49CFF
330
49CF4
100
AcDbEntity
  8
0
100
AcDbBlockEnd
  0
BLOCK
  5
49D0A
330
49D00
100
AcDbEntity
  8
0
100
AcDbBlockBegin
  2
*D28
 70
     1
 10
0.0
 20
0.0
 30
0.0
  3
*D28
  1

  0
LINE
  5
4A438
330
49D00
100
AcDbEntity
  8
AM_5
100
AcDbLine
 10
4443.987680662107
 20
1622.848468267986
 30
0.0
 11
4437.487680662107
 21
1622.848468267986
 31
0.0
  0
LINE
  5
4A439
330
49D00
100
AcDbEntity
  8
AM_5
100
AcDbLine
 10
4444.308197853451
 20
1634.848468267987
 30
0.0
 11
4437.487680662107
 21
1634.848468267987
 31
0.0
  0
LINE
  5
4A43A
330
49D00
100
AcDbEntity
  8
AM_5
100
AcDbLine
 10
4438.487680662108
 20
1623.848468267986
 30
0.0
 11
4438.487680662108
 21
1633.848468267987
 31
0.0
  0
INSERT
  5
4A43B
330
49D00
100
AcDbEntity
  8
AM_5
100
AcDbBlockReference
  2
_Dot
 10
4438.487680662108
 20
1622.848468267986
 30
0.0
 41
1.0
 42
1.0
 43
1.0
 50
270.0
  0
INSERT
  5
4A43C
330
49D00
100
AcDbEntity
  8
AM_5
100
AcDbBlockReference
  2
_Dot
 10
4438.487680662108
 20
1634.848468267987
 30
0.0
 41
1.0
 42
1.0
 43
1.0
 50
90.0
  0
MTEXT
  5
4A43D
330
49D00
100
AcDbEntity
  8
AM_5
 62
     2
100
AcDbMText
 10
4435.887680662108
 20
1629.184790250908
 30
0.0
 40
3.2
 41
0.0
 71
     5
 72
     1
  1
12
 11
0.0000000000000001
 21
1.0
 31
0.0
 73
     1
 44
1.0
1001
ACAD
1000
MTEXTBEGIN
1070
    73
1070
     1
1070
    44
1040
1.0
1070
    74
1070
     0
1000
MTEXTEND
  0
POINT
  5
4A43E
330
49D00
100
AcDbEntity
  8
Defpoints
 62
     0
100
AcDbPoint
 10
4445.487680662107
 20
1622.848468267986
 30
0.0
  0
POINT
  5
4A43F
330
49D00
100
AcDbEntity
  8
Defpoints
 62
     0
100
AcDbPoint
 10
4445.808197853451
 20
1634.848468267987
 30
0.0
  0
POINT
  5
4A440
330
49D00
100
AcDbEntity
  8
Defpoints
 62
     0
100
AcDbPoint
 10
4438.487680662108
 20
1634.848468267987
 30
0.0
  0
ENDBLK
  5
49D0B
330
49D00
100
AcDbEntity
  8
0
100
AcDbBlockEnd
  0
BLOCK
  5
49D16
330
49D0C
100
AcDbEntity
  8
0
100
AcDbBlockBegin
  2
*D29
 70
     1
 10
0.0
 20
0.0
 30
0.0
  3
*D29
  1

  0
LINE
  5
4A48A
330
49D0C
100
AcDbEntity
  8
AM_5
100
AcDbLine
 10
4513.745627366035
 20
1601.248468267987
 30
0.0
 11
4513.745627366035
 21
1591.748468267987
 31
0.0
  0
LINE
  5
4A48B
330
49D0C
100
AcDbEntity
  8
AM_5
100
AcDbLine
 10
4503.745627366035
 20
1601.248468267987
 30
0.0
 11
4503.745627366035
 21
1591.748468267987
 31
0.0
  0
LINE
  5
4A48C
330
49D0C
100
AcDbEntity
  8
AM_5
100
AcDbLine
 10
4512.745627366036
 20
1592.748468267987
 30
0.0
 11
4504.745627366034
 21
1592.748468267987
 31
0.0
  0
INSERT
  5
4A48D
330
49D0C
100
AcDbEntity
  8
AM_5
100
AcDbBlockReference
  2
_Dot
 10
4513.745627366035
 20
1592.748468267987
 30
0.0
 41
1.0
 42
1.0
 43
1.0
  0
INSERT
  5
4A48E
330
49D0C
100
AcDbEntity
  8
AM_5
100
AcDbBlockReference
  2
_Dot
 10
4503.745627366035
 20
1592.748468267987
 30
0.0
 41
1.0
 42
1.0
 43
1.0
 50
180.0
  0
MTEXT
  5
4A48F
330
49D0C
100
AcDbEntity
  8
AM_5
 62
     2
100
AcDbMText
 10
4508.745617997139
 20
1595.348468267986
 30
0.0
 40
3.2
 41
0.0
 71
     5
 72
     1
  1
10
 73
     1
 44
1.0
1001
ACAD
1000
MTEXTBEGIN
1070
    73
1070
     1
1070
    44
1040
1.0
1070
    74
1070
     0
1000
MTEXTEND
  0
POINT
  5
4A490
330
49D0C
100
AcDbEntity
  8
Defpoints
 62
     0
100
AcDbPoint
 10
4513.745627366035
 20
1602.748468267987
 30
0.0
  0
POINT
  5
4A491
330
49D0C
100
AcDbEntity
  8
Defpoints
 62
     0
100
AcDbPoint
 10
4503.745627366035
 20
1602.748468267986
 30
0.0
  0
POINT
  5
4A492
330
49D0C
100
AcDbEntity
  8
Defpoints
 62
     0
100
AcDbPoint
 10
4503.745627366035
 20
1592.748468267987
 30
0.0
  0
ENDBLK
  5
49D17
330
49D0C
100
AcDbEntity
  8
0
100
AcDbBlockEnd
  0
BLOCK
  5
49D23
330
49D18
100
AcDbEntity
  8
0
100
AcDbBlockBegin
  2
*D30
 70
     1
 10
0.0
 20
0.0
 30
0.0
  3
*D30
  1

  0
LINE
  5
4A409
330
49D18
100
AcDbEntity
  8
AM_5
100
AcDbLine
 10
4378.576883917409
 20
1601.88380665742
 30
0.0
 11
4378.576883917409
 21
1601.463622703201
 31
0.0
  0
LINE
  5
4A40A
330
49D18
100
AcDbEntity
  8
AM_5
100
AcDbLine
 10
4394.57688391741
 20
1601.88380665742
 30
0.0
 11
4394.57688391741
 21
1601.463622703201
 31
0.0
  0
LINE
  5
4A40B
330
49D18
100
AcDbEntity
  8
AM_5
100
AcDbLine
 10
4393.576883917409
 20
1602.4636227032
 30
0.0
 11
4379.576883917408
 21
1602.4636227032
 31
0.0
  0
LINE
  5
4A40C
330
49D18
100
AcDbEntity
  8
AM_5
100
AcDbLine
 10
4378.576883917409
 20
1602.4636227032
 30
0.0
 11
4362.574217250741
 21
1602.4636227032
 31
0.0
  0
INSERT
  5
4A40D
330
49D18
100
AcDbEntity
  8
AM_5
100
AcDbBlockReference
  2
_Dot
 10
4394.57688391741
 20
1602.4636227032
 30
0.0
 41
1.0
 42
1.0
 43
1.0
  0
INSERT
  5
4A40E
330
49D18
100
AcDbEntity
  8
AM_5
100
AcDbBlockReference
  2
_Dot
 10
4378.576883917409
 20
1602.4636227032
 30
0.0
 41
1.0
 42
1.0
 43
1.0
 50
180.0
  0
MTEXT
  5
4A40F
330
49D18
100
AcDbEntity
  8
AM_5
 62
     2
100
AcDbMText
 10
4369.782217250742
 20
1605.0636227032
 30
0.0
 40
3.2
 41
0.0
 71
     5
 72
     1
  1
下孔:%%c16
 73
     1
 44
1.0
1001
ACAD
1000
MTEXTBEGIN
1070
    73
1070
     1
1070
    44
1040
1.0
1070
    74
1070
     0
1000
MTEXTEND
  0
POINT
  5
4A410
330
49D18
100
AcDbEntity
  8
Defpoints
 62
     0
100
AcDbPoint
 10
4378.576883917409
 20
1603.38380665742
 30
0.0
  0
POINT
  5
4A411
330
49D18
100
AcDbEntity
  8
Defpoints
 62
     0
100
AcDbPoint
 10
4394.57688391741
 20
1603.38380665742
 30
0.0
  0
POINT
  5
4A412
330
49D18
100
AcDbEntity
  8
Defpoints
 62
     0
100
AcDbPoint
 10
4394.57688391741
 20
1602.4636227032
 30
0.0
  0
ENDBLK
  5
49D24
330
49D18
100
AcDbEntity
  8
0
100
AcDbBlockEnd
  0
BLOCK
  5
49D30
330
49D25
100
AcDbEntity
  8
0
100
AcDbBlockBegin
  2
*D31
 70
     1
 10
0.0
 20
0.0
 30
0.0
  3
*D31
  1

  0
LINE
  5
4A3DB
330
49D25
100
AcDbEntity
  8
AM_5
100
AcDbLine
 10
4314.178968659978
 20
1598.487998287475
 30
0.0
 11
4314.178968659978
 21
1598.279045696664
 31
0.0
  0
LINE
  5
4A3DC
330
49D25
100
AcDbEntity
  8
AM_5
100
AcDbLine
 10
4330.178968659978
 20
1598.699229650884
 30
0.0
 11
4330.178968659978
 21
1598.279045696664
 31
0.0
  0
LINE
  5
4A3DD
330
49D25
100
AcDbEntity
  8
AM_5
100
AcDbLine
 10
4329.178968659977
 20
1599.279045696664
 30
0.0
 11
4315.178968659977
 21
1599.279045696664
 31
0.0
  0
LINE
  5
4A3DE
330
49D25
100
AcDbEntity
  8
AM_5
100
AcDbLine
 10
4314.178968659978
 20
1599.279045696664
 30
0.0
 11
4298.176301993311
 21
1599.279045696664
 31
0.0
  0
INSERT
  5
4A3DF
330
49D25
100
AcDbEntity
  8
AM_5
100
AcDbBlockReference
  2
_Dot
 10
4330.178968659978
 20
1599.279045696664
 30
0.0
 41
1.0
 42
1.0
 43
1.0
  0
INSERT
  5
4A3E0
330
49D25
100
AcDbEntity
  8
AM_5
100
AcDbBlockReference
  2
_Dot
 10
4314.178968659978
 20
1599.279045696664
 30
0.0
 41
1.0
 42
1.0
 43
1.0
 50
180.0
  0
MTEXT
  5
4A3E1
330
49D25
100
AcDbEntity
  8
AM_5
 62
     2
100
AcDbMText
 10
4305.384301993311
 20
1601.879045696664
 30
0.0
 40
3.2
 41
0.0
 71
     5
 72
     1
  1
下孔:%%c16
 73
     1
 44
1.0
1001
ACAD
1000
MTEXTBEGIN
1070
    73
1070
     1
1070
    44
1040
1.0
1070
    74
1070
     0
1000
MTEXTEND
  0
POINT
  5
4A3E2
330
49D25
100
AcDbEntity
  8
Defpoints
 62
     0
100
AcDbPoint
 10
4314.178968659978
 20
1599.987998287475
 30
0.0
  0
POINT
  5
4A3E3
330
49D25
100
AcDbEntity
  8
Defpoints
 62
     0
100
AcDbPoint
 10
4330.178968659978
 20
1600.199229650884
 30
0.0
  0
POINT
  5
4A3E4
330
49D25
100
AcDbEntity
  8
Defpoints
 62
     0
100
AcDbPoint
 10
4330.178968659978
 20
1599.279045696664
 30
0.0
  0
ENDBLK
  5
49D31
330
49D25
100
AcDbEntity
  8
0
100
AcDbBlockEnd
  0
BLOCK
  5
49D3C
330
49D32
100
AcDbEntity
  8
0
100
AcDbBlockBegin
  2
*D32
 70
     1
 10
0.0
 20
0.0
 30
0.0
  3
*D32
  1

  0
LINE
  5
4A44A
330
49D32
100
AcDbEntity
  8
AM_5
100
AcDbLine
 10
4454.987683416535
 20
1674.318702904944
 30
0.0
 11
4430.487683416536
 21
1674.318702904944
 31
0.0
  0
LINE
  5
4A44B
330
49D32
100
AcDbEntity
  8
AM_5
100
AcDbLine
 10
4454.987683416535
 20
1704.318714978121
 30
0.0
 11
4430.487683416536
 21
1704.318714978121
 31
0.0
  0
LINE
  5
4A44C
330
49D32
100
AcDbEntity
  8
AM_5
100
AcDbLine
 10
4431.487683416536
 20
1675.318702904944
 30
0.0
 11
4431.487683416536
 21
1703.318714978121
 31
0.0
  0
INSERT
  5
4A44D
330
49D32
100
AcDbEntity
  8
AM_5
100
AcDbBlockReference
  2
_Dot
 10
4431.487683416536
 20
1674.318702904944
 30
0.0
 41
1.0
 42
1.0
 43
1.0
 50
270.0
  0
INSERT
  5
4A44E
330
49D32
100
AcDbEntity
  8
AM_5
100
AcDbBlockReference
  2
_Dot
 10
4431.487683416536
 20
1704.318714978121
 30
0.0
 41
1.0
 42
1.0
 43
1.0
 50
90.0
  0
MTEXT
  5
4A44F
330
49D32
100
AcDbEntity
  8
AM_5
 62
     2
100
AcDbMText
 10
4428.887683416536
 20
1689.332166195512
 30
0.0
 40
3.2
 41
0.0
 71
     5
 72
     1
  1
%%c30
 11
0.0000000000000001
 21
1.0
 31
0.0
 73
     1
 44
1.0
1001
ACAD
1000
MTEXTBEGIN
1070
    73
1070
     1
1070
    44
1040
1.0
1070
    74
1070
     0
1000
MTEXTEND
  0
POINT
  5
4A450
330
49D32
100
AcDbEntity
  8
Defpoints
 62
     0
100
AcDbPoint
 10
4456.487683416535
 20
1674.318702904944
 30
0.0
  0
POINT
  5
4A451
330
49D32
100
AcDbEntity
  8
Defpoints
 62
     0
100
AcDbPoint
 10
4456.487683416535
 20
1704.318714978121
 30
0.0
  0
POINT
  5
4A452
330
49D32
100
AcDbEntity
  8
Defpoints
 62
     0
100
AcDbPoint
 10
4431.487683416536
 20
1704.318714978121
 30
0.0
  0
ENDBLK
  5
49D3D
330
49D32
100
AcDbEntity
  8
0
100
AcDbBlockEnd
  0
BLOCK
  5
49D48
330
49D3E
100
AcDbEntity
  8
0
100
AcDbBlockBegin
  2
*D33
 70
     1
 10
0.0
 20
0.0
 30
0.0
  3
*D33
  1

  0
LINE
  5
4A453
330
49D3E
100
AcDbEntity
  8
AM_5
100
AcDbLine
 10
4454.887683416536
 20
1699.318704727585
 30
0.0
 11
4437.487677379948
 21
1699.318704727585
 31
0.0
  0
LINE
  5
4A454
330
49D3E
100
AcDbEntity
  8
AM_5
100
AcDbLine
 10
4454.887683416536
 20
1679.318708941533
 30
0.0
 11
4437.487677379948
 21
1679.318708941533
 31
0.0
  0
LINE
  5
4A455
330
49D3E
100
AcDbEntity
  8
AM_5
100
AcDbLine
 10
4438.487677379948
 20
1698.318704727585
 30
0.0
 11
4438.487677379948
 21
1680.318708941532
 31
0.0
  0
INSERT
  5
4A456
330
49D3E
100
AcDbEntity
  8
AM_5
100
AcDbBlockReference
  2
_Dot
 10
4438.487677379948
 20
1699.318704727585
 30
0.0
 41
1.0
 42
1.0
 43
1.0
 50
90.0
  0
INSERT
  5
4A457
330
49D3E
100
AcDbEntity
  8
AM_5
100
AcDbBlockReference
  2
_Dot
 10
4438.487677379948
 20
1679.318708941533
 30
0.0
 41
1.0
 42
1.0
 43
1.0
 50
270.0
  0
MTEXT
  5
4A458
330
49D3E
100
AcDbEntity
  8
AM_5
 62
     2
100
AcDbMText
 10
4435.887677379948
 20
1689.318708941533
 30
0.0
 40
3.2
 41
0.0
 71
     5
 72
     1
  1
20
 11
0.0000000000000001
 21
1.0
 31
0.0
 73
     1
 44
1.0
1001
ACAD
1000
MTEXTBEGIN
1070
    73
1070
     1
1070
    44
1040
1.0
1070
    74
1070
     0
1000
MTEXTEND
  0
POINT
  5
4A459
330
49D3E
100
AcDbEntity
  8
Defpoints
 62
     0
100
AcDbPoint
 10
4456.387683416536
 20
1699.318704727585
 30
0.0
  0
POINT
  5
4A45A
330
49D3E
100
AcDbEntity
  8
Defpoints
 62
     0
100
AcDbPoint
 10
4456.387683416536
 20
1679.318708941533
 30
0.0
  0
POINT
  5
4A45B
330
49D3E
100
AcDbEntity
  8
Defpoints
 62
     0
100
AcDbPoint
 10
4438.487677379948
 20
1679.318708941533
 30
0.0
  0
ENDBLK
  5
49D49
330
49D3E
100
AcDbEntity
  8
0
100
AcDbBlockEnd
  0
BLOCK
  5
49DF9
330
49DEF
100
AcDbEntity
  8
0
100
AcDbBlockBegin
  2
*D34
 70
     1
 10
0.0
 20
0.0
 30
0.0
  3
*D34
  1

  0
LINE
  5
4A478
330
49DEF
100
AcDbEntity
  8
AM_5
100
AcDbLine
 10
4497.626853079132
 20
1710.246001678694
 30
0.0
 11
4468.914853079126
 21
1710.246001678694
 31
0.0
  0
LINE
  5
4A479
330
49DEF
100
AcDbEntity
  8
AM_5
100
AcDbLine
 10
4468.914853079126
 20
1710.246001678694
 30
0.0
 11
4461.770136172455
 21
1700.981630443397
 31
0.0
  0
MTEXT
  5
4A47A
330
49DEF
100
AcDbEntity
  8
AM_5
 62
     2
100
AcDbMText
 10
4483.770853079131
 20
1712.846001678694
 30
0.0
 40
3.200000000000001
 41
0.0
 71
     5
 72
     1
  1
2-\U+22054.2　深さ：2.5\P
 73
     1
 44
1.0
1001
ACAD
1000
MTEXTBEGIN
1070
    73
1070
     1
1070
    44
1040
1.0
1070
    74
1070
     0
1000
MTEXTEND
  0
LINE
  5
4A47B
330
49DEF
100
AcDbEntity
  8
AM_5
100
AcDbLine
 10
4459.205230660614
 20
1697.655783225719
 30
0.0
 11
4461.770136172455
 21
1700.981630443397
 31
0.0
  0
INSERT
  5
4A47C
330
49DEF
100
AcDbEntity
  8
AM_5
100
AcDbBlockReference
  2
_DotSmall
 10
4459.205230660614
 20
1697.655783225719
 30
0.0
 41
4.0
 42
4.0
 43
4.0
 50
52.36045939535209
  0
INSERT
  5
4A47D
330
49DEF
100
AcDbEntity
  8
AM_5
100
AcDbBlockReference
  2
_DotSmall
 10
4461.770136172455
 20
1700.981630443397
 30
0.0
 41
4.0
 42
4.0
 43
4.0
 50
232.3604593953521
  0
POINT
  5
4A47E
330
49DEF
100
AcDbEntity
  8
Defpoints
 62
     0
100
AcDbPoint
 10
4461.770136172455
 20
1700.981630443397
 30
0.0
  0
POINT
  5
4A47F
330
49DEF
100
AcDbEntity
  8
Defpoints
 62
     0
100
AcDbPoint
 10
4459.205230660614
 20
1697.655783225719
 30
0.0
  0
ENDBLK
  5
49DFA
330
49DEF
100
AcDbEntity
  8
0
100
AcDbBlockEnd
  0
BLOCK
  5
49E05
330
49DFB
100
AcDbEntity
  8
0
100
AcDbBlockBegin
  2
*D35
 70
     1
 10
0.0
 20
0.0
 30
0.0
  3
*D35
  1

  0
LINE
  5
4A464
330
49DFB
100
AcDbEntity
  8
AM_5
100
AcDbLine
 10
4452.733809036838
 20
1618.848468267991
 30
0.0
 11
4452.733809036838
 21
1591.748468267988
 31
0.0
  0
LINE
  5
4A465
330
49DFB
100
AcDbEntity
  8
AM_5
100
AcDbLine
 10
4468.241537916447
 20
1618.848468267985
 30
0.0
 11
4468.241537916447
 21
1591.748468267988
 31
0.0
  0
LINE
  5
4A466
330
49DFB
100
AcDbEntity
  8
AM_5
100
AcDbLine
 10
4453.733809036839
 20
1592.748468267988
 30
0.0
 11
4467.241537916446
 21
1592.748468267988
 31
0.0
  0
INSERT
  5
4A467
330
49DFB
100
AcDbEntity
  8
AM_5
100
AcDbBlockReference
  2
_Dot
 10
4452.733809036838
 20
1592.748468267988
 30
0.0
 41
1.0
 42
1.0
 43
1.0
 50
180.0
  0
INSERT
  5
4A468
330
49DFB
100
AcDbEntity
  8
AM_5
100
AcDbBlockReference
  2
_Dot
 10
4468.241537916447
 20
1592.748468267988
 30
0.0
 41
1.0
 42
1.0
 43
1.0
  0
MTEXT
  5
4A469
330
49DFB
100
AcDbEntity
  8
AM_5
 62
     2
100
AcDbMText
 10
4460.487673476642
 20
1595.348468267988
 30
0.0
 40
3.2
 41
0.0
 71
     5
 72
     1
  1
%%c15.5
 73
     1
 44
1.0
1001
ACAD
1000
MTEXTBEGIN
1070
    73
1070
     1
1070
    44
1040
1.0
1070
    74
1070
     0
1000
MTEXTEND
  0
POINT
  5
4A46A
330
49DFB
100
AcDbEntity
  8
Defpoints
 62
     0
100
AcDbPoint
 10
4452.733809036838
 20
1620.348468267991
 30
0.0
  0
POINT
  5
4A46B
330
49DFB
100
AcDbEntity
  8
Defpoints
 62
     0
100
AcDbPoint
 10
4468.241537916447
 20
1620.348468267985
 30
0.0
  0
POINT
  5
4A46C
330
49DFB
100
AcDbEntity
  8
Defpoints
 62
     0
100
AcDbPoint
 10
4468.241537916447
 20
1592.748468267988
 30
0.0
  0
ENDBLK
  5
49E06
330
49DFB
100
AcDbEntity
  8
0
100
AcDbBlockEnd
  0
BLOCK
  5
49E13
330
49E07
100
AcDbEntity
  8
0
100
AcDbBlockBegin
  2
*D36
 70
     1
 10
0.0
 20
0.0
 30
0.0
  3
*D36
  1

  0
LINE
  5
4A46D
330
49E07
100
AcDbEntity
  8
AM_5
100
AcDbLine
 10
4443.944053740575
 20
1622.848468267988
 30
0.0
 11
4437.487680662107
 21
1622.848468267988
 31
0.0
  0
LINE
  5
4A46E
330
49E07
100
AcDbEntity
  8
AM_5
100
AcDbLine
 10
4451.733809036838
 20
1619.848468267991
 30
0.0
 11
4437.487680662107
 21
1619.848468267991
 31
0.0
  0
LINE
  5
4A46F
330
49E07
100
AcDbEntity
  8
AM_5
100
AcDbLine
 10
4438.487680662108
 20
1623.848468267988
 30
0.0
 11
4438.487680662108
 21
1624.848468267988
 31
0.0
  0
LINE
  5
4A470
330
49E07
100
AcDbEntity
  8
AM_5
100
AcDbLine
 10
4438.487680662108
 20
1618.848468267991
 30
0.0
 11
4438.487680662108
 21
1614.355134934657
 31
0.0
  0
LINE
  5
4A471
330
49E07
100
AcDbEntity
  8
AM_5
100
AcDbLine
 10
4438.487680662108
 20
1622.848468267988
 30
0.0
 11
4438.487680662108
 21
1619.848468267991
 31
0.0
  0
INSERT
  5
4A472
330
49E07
100
AcDbEntity
  8
AM_5
100
AcDbBlockReference
  2
_Dot
 10
4438.487680662108
 20
1622.848468267988
 30
0.0
 41
1.0
 42
1.0
 43
1.0
 50
270.0
  0
INSERT
  5
4A473
330
49E07
100
AcDbEntity
  8
AM_5
100
AcDbBlockReference
  2
_Dot
 10
4438.487680662108
 20
1619.848468267991
 30
0.0
 41
1.0
 42
1.0
 43
1.0
 50
90.0
  0
MTEXT
  5
4A474
330
49E07
100
AcDbEntity
  8
AM_5
 62
     2
100
AcDbMText
 10
4435.887680662108
 20
1616.101801601324
 30
0.0
 40
3.2
 41
0.0
 71
     5
 72
     1
  1
3
 11
0.0000000000000001
 21
1.0
 31
0.0
 73
     1
 44
1.0
1001
ACAD
1000
MTEXTBEGIN
1070
    73
1070
     1
1070
    44
1040
1.0
1070
    74
1070
     0
1000
MTEXTEND
  0
POINT
  5
4A475
330
49E07
100
AcDbEntity
  8
Defpoints
 62
     0
100
AcDbPoint
 10
4445.444053740575
 20
1622.848468267988
 30
0.0
  0
POINT
  5
4A476
330
49E07
100
AcDbEntity
  8
Defpoints
 62
     0
100
AcDbPoint
 10
4453.233809036838
 20
1619.848468267991
 30
0.0
  0
POINT
  5
4A477
330
49E07
100
AcDbEntity
  8
Defpoints
 62
     0
100
AcDbPoint
 10
4438.487680662108
 20
1619.848468267991
 30
0.0
  0
ENDBLK
  5
49E14
330
49E07
100
AcDbEntity
  8
0
100
AcDbBlockEnd
  0
BLOCK
  5
4A21D
330
4A21B
100
AcDbEntity
  8
0
100
AcDbBlockBegin
  2
_DotSmall
 70
     0
 10
0.0
 20
0.0
 30
0.0
  3
_DotSmall
  1

  0
LWPOLYLINE
  5
4A21C
330
4A21B
100
AcDbEntity
  8
0
  6
ByBlock
 62
     0
100
AcDbPolyline
 90
        2
 70
     1
 43
0.5
 10
-0.0625
 20
0.0
 42
1.0
 10
0.0625
 20
0.0
 42
1.0
  0
ENDBLK
  5
4A21E
330
4A21B
100
AcDbEntity
  8
0
100
AcDbBlockEnd
  0
ENDSEC
  0
SECTION
  2
ENTITIES
  0
LINE
  5
22A47
330
1F
100
AcDbEntity
  8
AM_INV
100
AcDbLine
 10
3520.617811826792
 20
2690.904080629116
 30
0.0
 11
3520.617811826792
 21
2686.926468688817
 31
0.0
1001
GENIUS_GENOREF_13
1005
22BB1
1001
GENIUS_GENBH_13
1002
{
1000
OA
1000
0部品1
1070
   256
1000
ByLayer
1005
0
1005
15
1071
       -1
1002
}
  0
LINE
  5
22A8C
330
1F
100
AcDbEntity
  8
AM_INV
100
AcDbLine
 10
3520.617811826792
 20
2690.176468688818
 30
0.0
 11
3520.713889210462
 21
2690.176468688818
 31
0.0
1001
GENIUS_GENOREF_13
1005
22BB1
1001
GENIUS_GENBH_13
1002
{
1000
OA
1000
0部品1
1070
   256
1000
ByLayer
1005
0
1005
15
1071
       -1
1002
}
  0
LINE
  5
22B11
330
1F
100
AcDbEntity
  8
AM_INV
100
AcDbLine
 10
3520.617811826792
 20
2690.176468688818
 30
0.0
 11
3520.617811826792
 21
2686.926468688817
 31
0.0
1001
GENIUS_GENOREF_13
1005
22BB1
1001
GENIUS_GENBH_13
1002
{
1000
OA
1000
0部品2
1070
   256
1000
ByLayer
1005
0
1005
15
1071
       -1
1002
}
  0
LINE
  5
22BA8
330
1F
100
AcDbEntity
  8
AM_INV
100
AcDbLine
 10
3520.713889210462
 20
2690.176468688818
 30
0.0
 11
3520.617811826792
 21
2690.176468688818
 31
0.0
1001
GENIUS_GENOREF_13
1005
22BB1
1001
GENIUS_GENBH_13
1002
{
1000
OA
1000
0部品2
1070
   256
1000
ByLayer
1005
0
1005
15
1071
       -1
1002
}
  0
POINT
  5
22BB1
330
1F
100
AcDbEntity
  8
0
 60
     1
100
AcDbPoint
 10
0.0
 20
0.0
 30
0.0
1001
GENIUS_GENOENT_13
1002
{
1000
MYREF
1005
22BB1
1002
}
1002
{
1000
GRP
1005
0
1002
}
1001
GENIUS_GENOBJ-NBEHI-BHB_13
1002
{
1000
OWNER
1000
genbehi
1002
}
1001
GENIUS_GENBH_13
1002
{
1000
FGO
1005
22BB0
1002
}
1001
GENIUS_GENOLIS_13
1002
{
1000
ENT
1005
22BE8
1005
22BE7
1005
22BE6
1005
22BE5
1005
22BE4
1005
22BE3
1005
22BE2
1005
22BE1
1005
22BE0
1005
22BDF
1005
22BDE
1005
22BDD
1005
22BDC
1005
22BDB
1005
22BDA
1005
22BD9
1005
22BD8
1005
22BD7
1005
22BD6
1005
22BD5
1005
22BD4
1005
22BD3
1005
22BD2
1005
22BD1
1005
22BD0
1005
22BCF
1005
22BCE
1005
22BCD
1005
22BCC
1005
22BCB
1005
22BCA
1005
22BC9
1005
22BC8
1005
22BC7
1005
22BC6
1005
22BC5
1005
22BC4
1005
22BC3
1005
22BC2
1005
22BC1
1005
22BC0
1005
22BBF
1005
22BBE
1005
22BBD
1005
22BBC
1005
22BBB
1005
22BBA
1005
22BB9
1005
22BB8
1005
22BB7
1005
22BB6
1005
22BB5
1005
22BB4
1005
22BB3
1005
22BB2
1005
22BA7
1005
22BA6
1005
22BAA
1005
22BAC
1005
22BA1
1005
22B5E
1005
22B5D
1005
22B5C
1005
22B5A
1005
22B59
1005
22B58
1005
22B4A
1005
22B49
1005
22B48
1005
22BA8
1005
22B12
1005
22B11
1005
22A8C
1005
22A8B
1005
22A4A
1005
22A48
1005
22A47
1005
22A43
1002
}
1001
GENIUS_GENODEF_13
1002
{
1000
HIER
1070
     1
1002
}
1002
{
1000
MANEDIT
1070
     1
1002
}
1002
{
1000
NOSEL
1070
     1
1002
}
1002
{
1000
BEHIND
1070
     1
1002
}
1002
{
1000
OTHER
1070
     1
1002
}
1002
{
1000
REACTOR
1002
}
  0
LINE
  5
22BB2
330
1F
100
AcDbEntity
  8
AM_INV
 48
0.5
100
AcDbLine
 10
3472.617811826792
 20
2682.476860007254
 30
0.0
 11
3472.617811826792
 21
2687.026014513596
 31
0.0
1001
GENIUS_GENOREF_13
1005
22BB1
1001
GENIUS_GENBH_13
1002
{
1000
OA
1000
0部品3
1070
   256
1000
陰線1
1005
0
1005
5180
1071
       13
1002
}
  0
LINE
  5
22BB4
330
1F
100
AcDbEntity
  8
AM_INV
 48
0.5
100
AcDbLine
 10
3473.117811826792
 20
2684.695801574903
 30
0.0
 11
3473.117811826792
 21
2689.244956081247
 31
0.0
1001
GENIUS_GENOREF_13
1005
22BB1
1001
GENIUS_GENBH_13
1002
{
1000
OA
1000
0部品3
1070
   256
1000
陰線1
1005
0
1005
5180
1071
       13
1002
}
  0
LINE
  5
22BB6
330
1F
100
AcDbEntity
  8
AM_INV
 48
0.5
100
AcDbLine
 10
3470.819165116442
 20
2691.726468688818
 30
0.0
 11
3471.900438925724
 21
2691.726468688818
 31
0.0
1001
GENIUS_GENOREF_13
1005
22BB1
1001
GENIUS_GENBH_13
1002
{
1000
OA
1000
0部品3
1070
   256
1000
陰線1
1005
0
1005
5180
1071
       13
1002
}
  0
LINE
  5
22BB9
330
1F
100
AcDbEntity
  8
AM_INV
 48
0.5
100
AcDbLine
 10
3471.336219389285
 20
2682.126468688818
 30
0.0
 11
3472.538857219888
 21
2682.126468688818
 31
0.0
1001
GENIUS_GENOREF_13
1005
22BB1
1001
GENIUS_GENBH_13
1002
{
1000
OA
1000
0部品3
1070
   256
1000
陰線1
1005
0
1005
5180
1071
       13
1002
}
  0
LINE
  5
22BBD
330
1F
100
AcDbEntity
  8
AM_INV
100
AcDbLine
 10
3520.713889210462
 20
2690.904080629116
 30
0.0
 11
3520.617811826792
 21
2690.904080629116
 31
0.0
1001
GENIUS_GENOREF_13
1005
22BB1
1001
GENIUS_GENBH_13
1002
{
1000
OA
1000
0部品1
1070
   256
1000
ByLayer
1005
0
1005
15
1071
       -1
1002
}
  0
LINE
  5
22BBF
330
1F
100
AcDbEntity
  8
AM_INV
 48
0.5
100
AcDbLine
 10
3470.491779517014
 20
2686.926468688817
 30
0.0
 11
3472.118846488217
 21
2686.926468688817
 31
0.0
1001
GENIUS_GENOREF_13
1005
22BB1
1001
GENIUS_GENBH_13
1002
{
1000
OA
1000
0部品1
1070
   256
1000
中心線1
1005
0
1005
5185
1071
       13
1002
}
  0
LINE
  5
22BC1
330
1F
100
AcDbEntity
  8
AM_INV
 48
0.5
100
AcDbLine
 10
3472.595380901564
 20
2686.926468688817
 30
0.0
 11
3473.620453975291
 21
2686.926468688817
 31
0.0
1001
GENIUS_GENOREF_13
1005
22BB1
1001
GENIUS_GENBH_13
1002
{
1000
OA
1000
0部品1
1070
   256
1000
中心線1
1005
0
1005
5185
1071
       13
1002
}
  0
LINE
  5
22BC3
330
1F
100
AcDbEntity
  8
AM_INV
 48
0.5
100
AcDbLine
 10
3475.074040132697
 20
2686.926468688817
 30
0.0
 11
3476.099113206424
 21
2686.926468688817
 31
0.0
1001
GENIUS_GENOREF_13
1005
22BB1
1001
GENIUS_GENBH_13
1002
{
1000
OA
1000
0部品1
1070
   256
1000
中心線1
1005
0
1005
5185
1071
       13
1002
}
  0
LINE
  5
22BC5
330
1F
100
AcDbEntity
  8
AM_INV
 48
0.5
100
AcDbLine
 10
3477.552699363831
 20
2686.926468688817
 30
0.0
 11
3478.577772437557
 21
2686.926468688817
 31
0.0
1001
GENIUS_GENOREF_13
1005
22BB1
1001
GENIUS_GENBH_13
1002
{
1000
OA
1000
0部品1
1070
   256
1000
中心線1
1005
0
1005
5185
1071
       13
1002
}
  0
LINE
  5
22BC7
330
1F
100
AcDbEntity
  8
AM_INV
 48
0.5
100
AcDbLine
 10
3480.031358594964
 20
2686.926468688817
 30
0.0
 11
3481.056431668691
 21
2686.926468688817
 31
0.0
1001
GENIUS_GENOREF_13
1005
22BB1
1001
GENIUS_GENBH_13
1002
{
1000
OA
1000
0部品1
1070
   256
1000
中心線1
1005
0
1005
5185
1071
       13
1002
}
  0
LINE
  5
22BC9
330
1F
100
AcDbEntity
  8
AM_INV
 48
0.5
100
AcDbLine
 10
3482.510017826097
 20
2686.926468688817
 30
0.0
 11
3483.535090899824
 21
2686.926468688817
 31
0.0
1001
GENIUS_GENOREF_13
1005
22BB1
1001
GENIUS_GENBH_13
1002
{
1000
OA
1000
0部品1
1070
   256
1000
中心線1
1005
0
1005
5185
1071
       13
1002
}
  0
LINE
  5
22BCB
330
1F
100
AcDbEntity
  8
AM_INV
 48
0.5
100
AcDbLine
 10
3484.988677057231
 20
2686.926468688817
 30
0.0
 11
3486.013750130958
 21
2686.926468688817
 31
0.0
1001
GENIUS_GENOREF_13
1005
22BB1
1001
GENIUS_GENBH_13
1002
{
1000
OA
1000
0部品1
1070
   256
1000
中心線1
1005
0
1005
5185
1071
       13
1002
}
  0
LINE
  5
22BCD
330
1F
100
AcDbEntity
  8
AM_INV
 48
0.5
100
AcDbLine
 10
3487.467336288363
 20
2686.926468688817
 30
0.0
 11
3488.49240936209
 21
2686.926468688817
 31
0.0
1001
GENIUS_GENOREF_13
1005
22BB1
1001
GENIUS_GENBH_13
1002
{
1000
OA
1000
0部品1
1070
   256
1000
中心線1
1005
0
1005
5185
1071
       13
1002
}
  0
LINE
  5
22BCF
330
1F
100
AcDbEntity
  8
AM_INV
 48
0.5
100
AcDbLine
 10
3489.945995519497
 20
2686.926468688817
 30
0.0
 11
3490.971068593224
 21
2686.926468688817
 31
0.0
1001
GENIUS_GENOREF_13
1005
22BB1
1001
GENIUS_GENBH_13
1002
{
1000
OA
1000
0部品1
1070
   256
1000
中心線1
1005
0
1005
5185
1071
       13
1002
}
  0
LINE
  5
22BD1
330
1F
100
AcDbEntity
  8
AM_INV
 48
0.5
100
AcDbLine
 10
3492.42465475063
 20
2686.926468688817
 30
0.0
 11
3493.449727824357
 21
2686.926468688817
 31
0.0
1001
GENIUS_GENOREF_13
1005
22BB1
1001
GENIUS_GENBH_13
1002
{
1000
OA
1000
0部品1
1070
   256
1000
中心線1
1005
0
1005
5185
1071
       13
1002
}
  0
LINE
  5
22BD3
330
1F
100
AcDbEntity
  8
AM_INV
 48
0.5
100
AcDbLine
 10
3494.903313981764
 20
2686.926468688817
 30
0.0
 11
3495.92838705549
 21
2686.926468688817
 31
0.0
1001
GENIUS_GENOREF_13
1005
22BB1
1001
GENIUS_GENBH_13
1002
{
1000
OA
1000
0部品1
1070
   256
1000
中心線1
1005
0
1005
5185
1071
       13
1002
}
  0
LINE
  5
22BD5
330
1F
100
AcDbEntity
  8
AM_INV
 48
0.5
100
AcDbLine
 10
3497.381973212897
 20
2686.926468688817
 30
0.0
 11
3498.407046286624
 21
2686.926468688817
 31
0.0
1001
GENIUS_GENOREF_13
1005
22BB1
1001
GENIUS_GENBH_13
1002
{
1000
OA
1000
0部品1
1070
   256
1000
中心線1
1005
0
1005
5185
1071
       13
1002
}
  0
LINE
  5
22BD7
330
1F
100
AcDbEntity
  8
AM_INV
 48
0.5
100
AcDbLine
 10
3499.86063244403
 20
2686.926468688817
 30
0.0
 11
3500.885705517757
 21
2686.926468688817
 31
0.0
1001
GENIUS_GENOREF_13
1005
22BB1
1001
GENIUS_GENBH_13
1002
{
1000
OA
1000
0部品1
1070
   256
1000
中心線1
1005
0
1005
5185
1071
       13
1002
}
  0
LINE
  5
22BD9
330
1F
100
AcDbEntity
  8
AM_INV
 48
0.5
100
AcDbLine
 10
3502.339291675163
 20
2686.926468688817
 30
0.0
 11
3503.36436474889
 21
2686.926468688817
 31
0.0
1001
GENIUS_GENOREF_13
1005
22BB1
1001
GENIUS_GENBH_13
1002
{
1000
OA
1000
0部品1
1070
   256
1000
中心線1
1005
0
1005
5185
1071
       13
1002
}
  0
LINE
  5
22BDB
330
1F
100
AcDbEntity
  8
AM_INV
 48
0.5
100
AcDbLine
 10
3504.817950906297
 20
2686.926468688817
 30
0.0
 11
3505.843023980023
 21
2686.926468688817
 31
0.0
1001
GENIUS_GENOREF_13
1005
22BB1
1001
GENIUS_GENBH_13
1002
{
1000
OA
1000
0部品1
1070
   256
1000
中心線1
1005
0
1005
5185
1071
       13
1002
}
  0
LINE
  5
22BDD
330
1F
100
AcDbEntity
  8
AM_INV
 48
0.5
100
AcDbLine
 10
3507.29661013743
 20
2686.926468688817
 30
0.0
 11
3508.321683211157
 21
2686.926468688817
 31
0.0
1001
GENIUS_GENOREF_13
1005
22BB1
1001
GENIUS_GENBH_13
1002
{
1000
OA
1000
0部品1
1070
   256
1000
中心線1
1005
0
1005
5185
1071
       13
1002
}
  0
LINE
  5
22BDF
330
1F
100
AcDbEntity
  8
AM_INV
 48
0.5
100
AcDbLine
 10
3509.775269368563
 20
2686.926468688817
 30
0.0
 11
3510.800342442291
 21
2686.926468688817
 31
0.0
1001
GENIUS_GENOREF_13
1005
22BB1
1001
GENIUS_GENBH_13
1002
{
1000
OA
1000
0部品1
1070
   256
1000
中心線1
1005
0
1005
5185
1071
       13
1002
}
  0
LINE
  5
22BE1
330
1F
100
AcDbEntity
  8
AM_INV
 48
0.5
100
AcDbLine
 10
3512.253928599696
 20
2686.926468688817
 30
0.0
 11
3513.279001673423
 21
2686.926468688817
 31
0.0
1001
GENIUS_GENOREF_13
1005
22BB1
1001
GENIUS_GENBH_13
1002
{
1000
OA
1000
0部品1
1070
   256
1000
中心線1
1005
0
1005
5185
1071
       13
1002
}
  0
LINE
  5
22BE3
330
1F
100
AcDbEntity
  8
AM_INV
 48
0.5
100
AcDbLine
 10
3514.73258783083
 20
2686.926468688817
 30
0.0
 11
3515.757660904557
 21
2686.926468688817
 31
0.0
1001
GENIUS_GENOREF_13
1005
22BB1
1001
GENIUS_GENBH_13
1002
{
1000
OA
1000
0部品1
1070
   256
1000
中心線1
1005
0
1005
5185
1071
       13
1002
}
  0
LINE
  5
22BE5
330
1F
100
AcDbEntity
  8
AM_INV
 48
0.5
100
AcDbLine
 10
3517.211247061963
 20
2686.926468688817
 30
0.0
 11
3518.23632013569
 21
2686.926468688817
 31
0.0
1001
GENIUS_GENOREF_13
1005
22BB1
1001
GENIUS_GENBH_13
1002
{
1000
OA
1000
0部品1
1070
   256
1000
中心線1
1005
0
1005
5185
1071
       13
1002
}
  0
LINE
  5
25AEE
330
1F
100
AcDbEntity
  8
AM_INV
100
AcDbLine
 10
2600.4675119635
 20
2478.706281529275
 30
0.0
 11
2600.567511963502
 21
2478.706281529275
 31
0.0
1001
GENIUS_GENBH_13
1002
{
1000
OA
1000
0部品8
1070
   256
1000
ByLayer
1005
0
1005
15
1071
       -1
1002
}
  0
LINE
  5
25C1E
330
1F
100
AcDbEntity
  8
AM_INV
 48
0.5
100
AcDbLine
 10
2600.4675119635
 20
2478.706281529275
 30
0.0
 11
2600.567511963502
 21
2478.706281529275
 31
0.0
1001
GENIUS_GENBH_13
1002
{
1000
OA
1000
0部品9
1070
   256
1000
中線
1005
0
1005
4DED
1071
       30
1002
}
  0
LINE
  5
25DD0
330
1F
100
AcDbEntity
  8
AM_INV
 48
0.5
100
AcDbLine
 10
2568.117511963499
 20
2478.525468016839
 30
0.0
 11
2568.117511963499
 21
2473.546741965038
 31
0.0
1001
GENIUS_GENBH_13
1002
{
1000
OA
1000
0部品10
1070
   256
1000
陰線1
1005
0
1005
5180
1071
       13
1002
}
  0
LINE
  5
25DD2
330
1F
100
AcDbEntity
  8
AM_INV
 48
0.5
100
AcDbLine
 10
2567.551824931531
 20
2478.956281525916
 30
0.0
 11
2566.666407628038
 21
2478.956281525916
 31
0.0
1001
GENIUS_GENBH_13
1002
{
1000
OA
1000
0部品10
1070
   256
1000
陰線1
1005
0
1005
5180
1071
       13
1002
}
  0
LINE
  5
25DD4
330
1F
100
AcDbEntity
  8
AM_INV
 48
0.5
100
AcDbLine
 10
2568.021385539038
 20
2472.956281525917
 30
0.0
 11
2567.084436428908
 21
2472.956281525917
 31
0.0
1001
GENIUS_GENBH_13
1002
{
1000
OA
1000
0部品10
1070
   256
1000
陰線1
1005
0
1005
5180
1071
       13
1002
}
  0
LINE
  5
25DD6
330
1F
100
AcDbEntity
  8
AM_INV
 48
0.5
100
AcDbLine
 10
2566.968925656667
 20
2472.956281525917
 30
0.0
 11
2566.117511963499
 21
2472.956281525917
 31
0.0
1001
GENIUS_GENBH_13
1002
{
1000
OA
1000
0部品10
1070
   256
1000
陰線1
1005
0
1005
5180
1071
       13
1002
}
  0
LINE
  5
25DD7
330
1F
100
AcDbEntity
  8
AM_INV
 48
0.5
100
AcDbLine
 10
2568.177828530031
 20
2478.895964959385
 30
0.0
 11
2568.617511963499
 21
2478.456281525917
 31
0.0
1001
GENIUS_GENFIL_13
1070
     0
1040
0.5
1040
0.5
1040
20.0
1040
0.0
1002
{
1002
}
1001
GENIUS_GENOBJ-N-CHA_13
1002
{
1000
OWNER
1000
GEN
1002
}
1001
GENIUS_GENODEF_13
1002
{
1000
HIER
1070
     0
1002
}
1002
{
1000
MANEDIT
1070
     0
1002
}
1002
{
1000
NOSEL
1070
     0
1002
}
1002
{
1000
BEHIND
1070
     0
1002
}
1002
{
1000
OTHER
1070
     0
1002
}
1002
{
1000
REACTOR
1002
}
1001
GENIUS_GENBH_13
1002
{
1000
OA
1000
0部品10
1070
   256
1000
陰線1
1005
0
1005
5180
1071
       13
1002
}
  0
LINE
  5
25DD8
330
1F
100
AcDbEntity
  8
AM_INV
 48
0.5
100
AcDbLine
 10
2568.617511963499
 20
2476.618012130501
 30
0.0
 11
2568.617511963499
 21
2478.456281525917
 31
0.0
1001
GENIUS_GENBH_13
1002
{
1000
OA
1000
0部品10
1070
   256
1000
陰線1
1005
0
1005
5180
1071
       13
1002
}
  0
LINE
  5
25DDA
330
1F
100
AcDbEntity
  8
AM_INV
 48
0.5
100
AcDbLine
 10
2600.4675119635
 20
2475.956281529275
 30
0.0
 11
2600.4675119635
 21
2478.706281529275
 31
0.0
1001
GENIUS_GENBH_13
1002
{
1000
OA
1000
0部品9
1070
   256
1000
中線
1005
0
1005
4DED
1071
       30
1002
}
  0
LINE
  5
25DDB
330
1F
100
AcDbEntity
  8
AM_INV
100
AcDbLine
 10
2600.567511963502
 20
2479.421111788513
 30
0.0
 11
2600.4675119635
 21
2479.421111788513
 31
0.0
1001
GENIUS_GENBH_13
1002
{
1000
OA
1000
0部品8
1070
   256
1000
ByLayer
1005
0
1005
15
1071
       -1
1002
}
  0
LINE
  5
25DDC
330
1F
100
AcDbEntity
  8
AM_INV
 48
0.5
100
AcDbLine
 10
2566.41627872904
 20
2475.956281529275
 30
0.0
 11
2568.509782821227
 21
2475.956281529275
 31
0.0
1001
GENIUS_GENBH_13
1002
{
1000
OA
1000
0部品8
1070
   256
1000
中心線1
1005
0
1005
5185
1071
       13
1002
}
  0
LINE
  5
25DDE
330
1F
100
AcDbEntity
  8
AM_INV
 48
0.5
100
AcDbLine
 10
2568.871404207254
 20
2475.956281529275
 30
0.0
 11
2569.681936297167
 21
2475.956281529275
 31
0.0
1001
GENIUS_GENBH_13
1002
{
1000
OA
1000
0部品8
1070
   256
1000
中心線1
1005
0
1005
5185
1071
       13
1002
}
  0
LINE
  5
25DE0
330
1F
100
AcDbEntity
  8
AM_INV
 48
0.5
100
AcDbLine
 10
2570.043557683194
 20
2475.956281529275
 30
0.0
 11
2570.854089773109
 21
2475.956281529275
 31
0.0
1001
GENIUS_GENBH_13
1002
{
1000
OA
1000
0部品8
1070
   256
1000
中心線1
1005
0
1005
5185
1071
       13
1002
}
  0
LINE
  5
25DE2
330
1F
100
AcDbEntity
  8
AM_INV
 48
0.5
100
AcDbLine
 10
2571.215711159136
 20
2475.956281529275
 30
0.0
 11
2572.026243249049
 21
2475.956281529275
 31
0.0
1001
GENIUS_GENBH_13
1002
{
1000
OA
1000
0部品8
1070
   256
1000
中心線1
1005
0
1005
5185
1071
       13
1002
}
  0
LINE
  5
25DE4
330
1F
100
AcDbEntity
  8
AM_INV
 48
0.5
100
AcDbLine
 10
2572.387864635076
 20
2475.956281529275
 30
0.0
 11
2573.19839672499
 21
2475.956281529275
 31
0.0
1001
GENIUS_GENBH_13
1002
{
1000
OA
1000
0部品8
1070
   256
1000
中心線1
1005
0
1005
5185
1071
       13
1002
}
  0
LINE
  5
25DE6
330
1F
100
AcDbEntity
  8
AM_INV
 48
0.5
100
AcDbLine
 10
2573.560018111017
 20
2475.956281529275
 30
0.0
 11
2574.370550200931
 21
2475.956281529275
 31
0.0
1001
GENIUS_GENBH_13
1002
{
1000
OA
1000
0部品8
1070
   256
1000
中心線1
1005
0
1005
5185
1071
       13
1002
}
  0
LINE
  5
25DE8
330
1F
100
AcDbEntity
  8
AM_INV
 48
0.5
100
AcDbLine
 10
2574.732171586957
 20
2475.956281529275
 30
0.0
 11
2575.542703676872
 21
2475.956281529275
 31
0.0
1001
GENIUS_GENBH_13
1002
{
1000
OA
1000
0部品8
1070
   256
1000
中心線1
1005
0
1005
5185
1071
       13
1002
}
  0
LINE
  5
25DEA
330
1F
100
AcDbEntity
  8
AM_INV
 48
0.5
100
AcDbLine
 10
2575.904325062899
 20
2475.956281529275
 30
0.0
 11
2576.714857152813
 21
2475.956281529275
 31
0.0
1001
GENIUS_GENBH_13
1002
{
1000
OA
1000
0部品8
1070
   256
1000
中心線1
1005
0
1005
5185
1071
       13
1002
}
  0
LINE
  5
25DEC
330
1F
100
AcDbEntity
  8
AM_INV
 48
0.5
100
AcDbLine
 10
2577.07647853884
 20
2475.956281529275
 30
0.0
 11
2577.887010628753
 21
2475.956281529275
 31
0.0
1001
GENIUS_GENBH_13
1002
{
1000
OA
1000
0部品8
1070
   256
1000
中心線1
1005
0
1005
5185
1071
       13
1002
}
  0
LINE
  5
25DEE
330
1F
100
AcDbEntity
  8
AM_INV
 48
0.5
100
AcDbLine
 10
2578.24863201478
 20
2475.956281529275
 30
0.0
 11
2579.059164104693
 21
2475.956281529275
 31
0.0
1001
GENIUS_GENBH_13
1002
{
1000
OA
1000
0部品8
1070
   256
1000
中心線1
1005
0
1005
5185
1071
       13
1002
}
  0
LINE
  5
25DF0
330
1F
100
AcDbEntity
  8
AM_INV
 48
0.5
100
AcDbLine
 10
2579.420785490721
 20
2475.956281529275
 30
0.0
 11
2580.231317580635
 21
2475.956281529275
 31
0.0
1001
GENIUS_GENBH_13
1002
{
1000
OA
1000
0部品8
1070
   256
1000
中心線1
1005
0
1005
5185
1071
       13
1002
}
  0
LINE
  5
25DF2
330
1F
100
AcDbEntity
  8
AM_INV
 48
0.5
100
AcDbLine
 10
2580.592938966662
 20
2475.956281529275
 30
0.0
 11
2581.403471056575
 21
2475.956281529275
 31
0.0
1001
GENIUS_GENBH_13
1002
{
1000
OA
1000
0部品8
1070
   256
1000
中心線1
1005
0
1005
5185
1071
       13
1002
}
  0
LINE
  5
25DF4
330
1F
100
AcDbEntity
  8
AM_INV
 48
0.5
100
AcDbLine
 10
2581.765092442603
 20
2475.956281529275
 30
0.0
 11
2582.575624532516
 21
2475.956281529275
 31
0.0
1001
GENIUS_GENBH_13
1002
{
1000
OA
1000
0部品8
1070
   256
1000
中心線1
1005
0
1005
5185
1071
       13
1002
}
  0
LINE
  5
25DF6
330
1F
100
AcDbEntity
  8
AM_INV
 48
0.5
100
AcDbLine
 10
2582.937245918544
 20
2475.956281529275
 30
0.0
 11
2583.747778008457
 21
2475.956281529275
 31
0.0
1001
GENIUS_GENBH_13
1002
{
1000
OA
1000
0部品8
1070
   256
1000
中心線1
1005
0
1005
5185
1071
       13
1002
}
  0
LINE
  5
25DF8
330
1F
100
AcDbEntity
  8
AM_INV
 48
0.5
100
AcDbLine
 10
2584.109399394484
 20
2475.956281529275
 30
0.0
 11
2584.919931484398
 21
2475.956281529275
 31
0.0
1001
GENIUS_GENBH_13
1002
{
1000
OA
1000
0部品8
1070
   256
1000
中心線1
1005
0
1005
5185
1071
       13
1002
}
  0
LINE
  5
25DFA
330
1F
100
AcDbEntity
  8
AM_INV
 48
0.5
100
AcDbLine
 10
2585.281552870425
 20
2475.956281529275
 30
0.0
 11
2586.092084960338
 21
2475.956281529275
 31
0.0
1001
GENIUS_GENBH_13
1002
{
1000
OA
1000
0部品8
1070
   256
1000
中心線1
1005
0
1005
5185
1071
       13
1002
}
  0
LINE
  5
25DFC
330
1F
100
AcDbEntity
  8
AM_INV
 48
0.5
100
AcDbLine
 10
2586.453706346366
 20
2475.956281529275
 30
0.0
 11
2587.26423843628
 21
2475.956281529275
 31
0.0
1001
GENIUS_GENBH_13
1002
{
1000
OA
1000
0部品8
1070
   256
1000
中心線1
1005
0
1005
5185
1071
       13
1002
}
  0
LINE
  5
25DFE
330
1F
100
AcDbEntity
  8
AM_INV
 48
0.5
100
AcDbLine
 10
2587.625859822307
 20
2475.956281529275
 30
0.0
 11
2588.43639191222
 21
2475.956281529275
 31
0.0
1001
GENIUS_GENBH_13
1002
{
1000
OA
1000
0部品8
1070
   256
1000
中心線1
1005
0
1005
5185
1071
       13
1002
}
  0
LINE
  5
25E00
330
1F
100
AcDbEntity
  8
AM_INV
 48
0.5
100
AcDbLine
 10
2588.798013298248
 20
2475.956281529275
 30
0.0
 11
2589.608545388161
 21
2475.956281529275
 31
0.0
1001
GENIUS_GENBH_13
1002
{
1000
OA
1000
0部品8
1070
   256
1000
中心線1
1005
0
1005
5185
1071
       13
1002
}
  0
LINE
  5
25E02
330
1F
100
AcDbEntity
  8
AM_INV
 48
0.5
100
AcDbLine
 10
2589.970166774188
 20
2475.956281529275
 30
0.0
 11
2590.780698864102
 21
2475.956281529275
 31
0.0
1001
GENIUS_GENBH_13
1002
{
1000
OA
1000
0部品8
1070
   256
1000
中心線1
1005
0
1005
5185
1071
       13
1002
}
  0
LINE
  5
25E04
330
1F
100
AcDbEntity
  8
AM_INV
 48
0.5
100
AcDbLine
 10
2591.142320250129
 20
2475.956281529275
 30
0.0
 11
2591.952852340043
 21
2475.956281529275
 31
0.0
1001
GENIUS_GENBH_13
1002
{
1000
OA
1000
0部品8
1070
   256
1000
中心線1
1005
0
1005
5185
1071
       13
1002
}
  0
LINE
  5
25E06
330
1F
100
AcDbEntity
  8
AM_INV
 48
0.5
100
AcDbLine
 10
2592.31447372607
 20
2475.956281529275
 30
0.0
 11
2593.125005815984
 21
2475.956281529275
 31
0.0
1001
GENIUS_GENBH_13
1002
{
1000
OA
1000
0部品8
1070
   256
1000
中心線1
1005
0
1005
5185
1071
       13
1002
}
  0
LINE
  5
25E08
330
1F
100
AcDbEntity
  8
AM_INV
 48
0.5
100
AcDbLine
 10
2593.486627202011
 20
2475.956281529275
 30
0.0
 11
2594.297159291925
 21
2475.956281529275
 31
0.0
1001
GENIUS_GENBH_13
1002
{
1000
OA
1000
0部品8
1070
   256
1000
中心線1
1005
0
1005
5185
1071
       13
1002
}
  0
LINE
  5
25E0A
330
1F
100
AcDbEntity
  8
AM_INV
 48
0.5
100
AcDbLine
 10
2594.658780677951
 20
2475.956281529275
 30
0.0
 11
2595.469312767865
 21
2475.956281529275
 31
0.0
1001
GENIUS_GENBH_13
1002
{
1000
OA
1000
0部品8
1070
   256
1000
中心線1
1005
0
1005
5185
1071
       13
1002
}
  0
LINE
  5
25E0C
330
1F
100
AcDbEntity
  8
AM_INV
 48
0.5
100
AcDbLine
 10
2595.830934153892
 20
2475.956281529275
 30
0.0
 11
2596.641466243806
 21
2475.956281529275
 31
0.0
1001
GENIUS_GENBH_13
1002
{
1000
OA
1000
0部品8
1070
   256
1000
中心線1
1005
0
1005
5185
1071
       13
1002
}
  0
LINE
  5
25E0E
330
1F
100
AcDbEntity
  8
AM_INV
 48
0.5
100
AcDbLine
 10
2597.003087629833
 20
2475.956281529275
 30
0.0
 11
2597.813619719747
 21
2475.956281529275
 31
0.0
1001
GENIUS_GENBH_13
1002
{
1000
OA
1000
0部品8
1070
   256
1000
中心線1
1005
0
1005
5185
1071
       13
1002
}
  0
LINE
  5
25E10
330
1F
100
AcDbEntity
  8
AM_INV
 48
0.5
100
AcDbLine
 10
2598.175241105774
 20
2475.956281529275
 30
0.0
 11
2600.26874519796
 21
2475.956281529275
 31
0.0
1001
GENIUS_GENBH_13
1002
{
1000
OA
1000
0部品8
1070
   256
1000
中心線1
1005
0
1005
5185
1071
       13
1002
}
  0
LINE
  5
25E13
330
1F
100
AcDbEntity
  8
AM_INV
100
AcDbLine
 10
2600.4675119635
 20
2475.956281529275
 30
0.0
 11
2600.4675119635
 21
2479.421111788513
 31
0.0
1001
GENIUS_GENBH_13
1002
{
1000
OA
1000
0部品8
1070
   256
1000
ByLayer
1005
0
1005
15
1071
       -1
1002
}
  0
TEXT
  5
4915F
330
1F
100
AcDbEntity
  8
AM_6
 60
     1
100
AcDbText
 10
3873.98570860303
 20
1297.522907928998
 30
0.0
 40
2.5
  1
!GENTITLE-LL
100
AcDbText
  0
TEXT
  5
49161
330
1F
100
AcDbEntity
  8
AM_6
 60
     1
100
AcDbText
 10
4159.485708603029
 20
1499.022907928998
 30
0.0
 40
2.5
  1
!GENTITLE-RU
100
AcDbText
  0
TEXT
  5
49162
330
1F
100
AcDbEntity
  8
AM_6
 60
     1
100
AcDbText
 10
4170.985708603029
 20
1507.522907928998
 30
0.0
 40
2.5
  1
!GENTITLE-MAX
100
AcDbText
  0
TEXT
  5
49163
330
1F
100
AcDbEntity
  8
AM_6
 60
     1
100
AcDbText
 10
4159.485708603029
 20
1306.022907928998
 30
0.0
 40
2.5
  1
!GENTITLE-INSERT
100
AcDbText
  0
DIMENSION
  5
49B70
330
1F
100
AcDbEntity
  8
AM_5
100
AcDbDimension
  2
*D16
 10
4290.678972474671
 20
1607.487998287475
 30
0.0
 11
4290.678972474671
 21
1599.987998287476
 31
0.0
 70
   160
 71
     5
 42
15.0
  3
SYS$0
100
AcDbAlignedDimension
 13
4299.678972474676
 23
1592.487998287475
 33
0.0
 14
4299.678972474676
 24
1607.487998287475
 34
0.0
 50
90.0
100
AcDbRotatedDimension
1001
ACAD
1000
DSTYLE
1002
{
1070
   271
1070
     1
1002
}
  0
DIMENSION
  5
49B71
330
1F
100
AcDbEntity
  8
AM_5
100
AcDbDimension
  2
*D17
 10
4290.678972474671
 20
1619.487998287474
 30
0.0
 11
4290.678972474671
 21
1613.206583893564
 31
0.0
 70
   160
 71
     5
 42
11.99999999999909
  3
SYS$0
100
AcDbAlignedDimension
 13
4299.678972474676
 23
1607.487998287475
 33
0.0
 14
4307.499483096894
 24
1619.487998287474
 34
0.0
 50
90.0
100
AcDbRotatedDimension
1001
ACAD
1000
DSTYLE
1002
{
1070
   271
1070
     1
1002
}
  0
DIMENSION
  5
49B72
330
1F
100
AcDbEntity
  8
AM_5
100
AcDbDimension
  2
*D18
 10
4290.678972474671
 20
1639.487997564635
 30
0.0
 11
4290.678972474671
 21
1629.612181922253
 31
0.0
 70
   160
 71
     5
 42
19.99999927716089
  3
SYS$0
100
AcDbAlignedDimension
 13
4307.499483096894
 23
1619.487998287474
 33
0.0
 14
4318.17897704142
 24
1639.487997564635
 34
0.0
 50
90.0
100
AcDbRotatedDimension
1001
ACAD
1000
DSTYLE
1002
{
1070
   271
1070
     1
1002
}
  0
DIMENSION
  5
49B73
330
1F
100
AcDbEntity
  8
AM_5
100
AcDbDimension
  2
*D19
 10
4290.678972474671
 20
1585.387998287475
 30
0.0
 11
4288.07897247467
 21
1588.937998287476
 31
0.0
 70
    32
 71
     5
 42
7.099999999999909
  3
SYS$0
100
AcDbAlignedDimension
 13
4299.678972474676
 23
1592.487998287475
 33
0.0
 14
4307.178968659978
 24
1585.387998287475
 34
0.0
 50
90.0
100
AcDbRotatedDimension
1001
ACAD
1000
DSTYLE
1002
{
1070
   271
1070
     1
1002
}
  0
DIMENSION
  5
49B74
330
1F
100
AcDbEntity
  8
AM_5
100
AcDbDimension
  2
*D20
 10
4355.076887732102
 20
1617.487998287475
 30
0.0
 11
4355.076887732102
 21
1605.611201627516
 31
0.0
 70
   160
 71
     5
 42
25.0
  3
SYS$0
100
AcDbAlignedDimension
 13
4364.076887732109
 23
1592.487998287475
 33
0.0
 14
4364.076887732109
 24
1617.487998287475
 34
0.0
 50
90.0
100
AcDbRotatedDimension
1001
ACAD
1000
DSTYLE
1002
{
1070
   271
1070
     1
1002
}
  0
DIMENSION
  5
49B75
330
1F
100
AcDbEntity
  8
AM_5
100
AcDbDimension
  2
*D21
 10
4355.076887732102
 20
1629.487998287474
 30
0.0
 11
4355.076887732102
 21
1623.593269665652
 31
0.0
 70
   160
 71
     5
 42
11.99999999999886
  3
SYS$0
100
AcDbAlignedDimension
 13
4364.076887732109
 23
1617.487998287475
 33
0.0
 14
4371.897398354326
 24
1629.487998287474
 34
0.0
 50
90.0
100
AcDbRotatedDimension
1001
ACAD
1000
DSTYLE
1002
{
1070
   271
1070
     1
1002
}
  0
DIMENSION
  5
49B76
330
1F
100
AcDbEntity
  8
AM_5
100
AcDbDimension
  2
*D22
 10
4355.076887732102
 20
1639.487997564638
 30
0.0
 11
4355.076887732102
 21
1634.886518801852
 31
0.0
 70
   160
 71
     5
 42
9.999999277163851
  3
SYS$0
100
AcDbAlignedDimension
 13
4371.897398354326
 23
1629.487998287474
 33
0.0
 14
4382.576895053277
 24
1639.487997564638
 34
0.0
 50
90.0
100
AcDbRotatedDimension
1001
ACAD
1000
DSTYLE
1002
{
1070
   271
1070
     1
1002
}
  0
DIMENSION
  5
49B77
330
1F
100
AcDbEntity
  8
AM_5
100
AcDbDimension
  2
*D23
 10
4355.076887732102
 20
1585.387998287475
 30
0.0
 11
4352.476887732101
 21
1588.937998287476
 31
0.0
 70
    32
 71
     5
 42
7.099999999999909
  3
SYS$0
100
AcDbAlignedDimension
 13
4364.076887732109
 23
1592.487998287475
 33
0.0
 14
4371.576883917409
 24
1585.387998287475
 34
0.0
 50
90.0
100
AcDbRotatedDimension
1001
ACAD
1000
DSTYLE
1002
{
1070
   271
1070
     1
1002
}
  0
MTEXT
  5
49B78
330
1F
100
AcDbEntity
  8
AM_6
100
AcDbMText
 10
4308.43642468359
 20
1577.568385020213
 30
0.0
 40
3.2
 41
0.0
 71
     4
 72
     5
  1
フロア厚15mm納まり
 73
     1
 44
1.0
1001
ACAD
1000
MTEXTBEGIN
1070
    73
1070
     1
1070
    44
1040
1.0
1070
    74
1070
     0
1000
MTEXTEND
  0
MTEXT
  5
49B79
330
1F
100
AcDbEntity
  8
AM_6
100
AcDbMText
 10
4373.066735137359
 20
1577.568385020213
 30
0.0
 40
3.2
 41
0.0
 71
     4
 72
     5
  1
フロア厚25mm納まり
 73
     1
 44
1.0
1001
ACAD
1000
MTEXTBEGIN
1070
    73
1070
     1
1070
    44
1040
1.0
1070
    74
1070
     0
1000
MTEXTEND
  0
DIMENSION
  5
49B7A
330
1F
100
AcDbEntity
  8
AM_5
100
AcDbDimension
  2
*D24
 10
4475.487683416536
 20
1584.748468267988
 30
0.0
 11
4460.491874012664
 21
1584.748468267988
 31
0.0
 70
   160
 71
     5
 42
29.99161880774591
  3
SYS$0
100
AcDbAlignedDimension
 13
4445.49606460879
 23
1600.748468267988
 33
0.0
 14
4475.487683416536
 24
1600.748468267988
 34
0.0
100
AcDbRotatedDimension
1001
ACAD
1000
DSTYLE
1002
{
1070
   271
1070
     1
1002
}
  0
DIMENSION
  5
49B7B
330
1F
100
AcDbEntity
  8
AM_5
100
AcDbDimension
  2
*D25
 10
4503.745613400714
 20
1662.473469769075
 30
0.0
 11
4525.302960488731
 21
1662.473464908175
 31
0.0
 70
   160
  1
M<>×P1.5
 71
     5
 42
10.00001375468491
  3
SYS$0
100
AcDbAlignedDimension
 13
4513.745625126016
 23
1653.473465005456
 33
0.0
 14
4503.74561137133
 24
1653.473462750586
 34
0.0
 50
179.9999870805506
100
AcDbRotatedDimension
1001
ACAD
1000
DSTYLE
1002
{
1070
   271
1070
     1
1002
}
  0
DIMENSION
  5
49B7C
330
1F
100
AcDbEntity
  8
AM_5
100
AcDbDimension
  2
*D26
 10
4431.487680662107
 20
1600.748468267988
 30
0.0
 11
4428.887680662107
 21
1604.298467530543
 31
0.0
 70
    32
 71
     5
 42
7.099998525108048
  3
SYS$0
100
AcDbAlignedDimension
 13
4445.787683416535
 23
1607.848466793096
 33
0.0
 14
4445.487683416536
 24
1600.748468267988
 34
0.0
 50
90.0
100
AcDbRotatedDimension
1001
ACAD
1000
DSTYLE
1002
{
1070
   271
1070
     1
1002
}
  0
DIMENSION
  5
49B7D
330
1F
100
AcDbEntity
  8
AM_5
100
AcDbDimension
  2
*D27
 10
4431.487680662107
 20
1654.848467545146
 30
0.0
 11
4431.487680662107
 21
1631.348467169122
 31
0.0
 70
   160
 71
     5
 42
47.00000075205025
  3
SYS$0
100
AcDbAlignedDimension
 13
4445.787683416535
 23
1607.848466793096
 33
0.0
 14
4456.487691797978
 24
1654.848467545146
 34
0.0
 50
90.0
100
AcDbRotatedDimension
1001
ACAD
1000
DSTYLE
1002
{
1070
   271
1070
     1
1002
}
  0
DIMENSION
  5
49B7E
330
1F
100
AcDbEntity
  8
AM_5
100
AcDbDimension
  2
*D28
 10
4438.487680662108
 20
1634.848468267987
 30
0.0
 11
4438.487680662108
 21
1629.184790250908
 31
0.0
 70
   160
 71
     5
 42
12.00000000000068
  3
SYS$0
100
AcDbAlignedDimension
 13
4445.487680662107
 23
1622.848468267986
 33
0.0
 14
4445.808197853451
 24
1634.848468267987
 34
0.0
 50
90.0
100
AcDbRotatedDimension
1001
ACAD
1000
DSTYLE
1002
{
1070
   271
1070
     1
1002
}
  0
DIMENSION
  5
49B7F
330
1F
100
AcDbEntity
  8
AM_5
100
AcDbDimension
  2
*D29
 10
4503.745627366035
 20
1592.748468267987
 30
0.0
 11
4508.745617997139
 21
1592.748468267987
 31
0.0
 70
   160
 71
     5
 42
10.00000000000091
  3
SYS$0
100
AcDbAlignedDimension
 13
4513.745627366035
 23
1602.748468267987
 33
0.0
 14
4503.745627366035
 24
1602.748468267986
 34
0.0
 50
180.0
100
AcDbRotatedDimension
1001
ACAD
1000
DSTYLE
1002
{
1070
   271
1070
     1
1002
}
  0
DIMENSION
  5
49B82
330
1F
100
AcDbEntity
  8
AM_5
100
AcDbDimension
  2
*D30
 10
4394.57688391741
 20
1602.4636227032
 30
0.0
 11
4369.782217250742
 21
1602.4636227032
 31
0.0
 70
   160
  1
下孔:%%c<>
 71
     5
 42
16.00000000000091
  3
SYS$0
100
AcDbAlignedDimension
 13
4378.576883917409
 23
1603.38380665742
 33
0.0
 14
4394.57688391741
 24
1603.38380665742
 34
0.0
100
AcDbRotatedDimension
1001
ACAD
1000
DSTYLE
1002
{
1070
   271
1070
     1
1002
}
  0
DIMENSION
  5
49B83
330
1F
100
AcDbEntity
  8
AM_5
100
AcDbDimension
  2
*D31
 10
4330.178968659978
 20
1599.279045696664
 30
0.0
 11
4305.384301993311
 21
1599.279045696664
 31
0.0
 70
   160
  1
下孔:%%c<>
 71
     5
 42
16.0
  3
SYS$0
100
AcDbAlignedDimension
 13
4314.178968659978
 23
1599.987998287475
 33
0.0
 14
4330.178968659978
 24
1600.199229650884
 34
0.0
100
AcDbRotatedDimension
1001
ACAD
1000
DSTYLE
1002
{
1070
   271
1070
     1
1002
}
  0
LINE
  5
49B84
330
1F
100
AcDbEntity
  8
AM_7N
  6
中心線1
 48
0.5
370
    13
100
AcDbLine
 10
4460.487683416536
 20
1706.31871497812
 30
0.0
 11
4460.487683416536
 21
1672.318702904944
 31
0.0
1001
GENIUS_GENOBJ-N-CEN_13
1002
{
1000
OWNER
1000
GEN
1002
}
1001
GENIUS_GENODEF_13
1002
{
1000
HIER
1070
     0
1002
}
1002
{
1000
MANEDIT
1070
     0
1002
}
1002
{
1000
NOSEL
1070
     0
1002
}
1002
{
1000
BEHIND
1070
     0
1002
}
1002
{
1000
OTHER
1070
     0
1002
}
1002
{
1000
REACTOR
1002
}
1001
GENIUS_GENCEN_19
1002
{
1040
4.0
1002
}
  0
LINE
  5
49B85
330
1F
100
AcDbEntity
  8
AM_7N
  6
中心線1
 48
0.5
370
    13
100
AcDbLine
 10
4477.487689453125
 20
1689.318704446655
 30
0.0
 11
4443.487677379947
 21
1689.318709222463
 31
0.0
1001
GENIUS_GENOBJ-N-CEN_13
1002
{
1000
OWNER
1000
GEN
1002
}
1001
GENIUS_GENODEF_13
1002
{
1000
HIER
1070
     0
1002
}
1002
{
1000
MANEDIT
1070
     0
1002
}
1002
{
1000
NOSEL
1070
     0
1002
}
1002
{
1000
BEHIND
1070
     0
1002
}
1002
{
1000
OTHER
1070
     0
1002
}
1002
{
1000
REACTOR
1002
}
1001
GENIUS_GENCEN_19
1002
{
1040
4.0
1002
}
  0
DIMENSION
  5
49B86
330
1F
100
AcDbEntity
  8
AM_5
100
AcDbDimension
  2
*D32
 10
4431.487683416536
 20
1704.318714978121
 30
0.0
 11
4431.487683416536
 21
1689.332166195512
 31
0.0
 70
   160
  1
%%c<>
 71
     5
 42
30.00001207317655
  3
SYS$0
100
AcDbAlignedDimension
 13
4456.487683416535
 23
1674.318702904944
 33
0.0
 14
4456.487683416535
 24
1704.318714978121
 34
0.0
 50
270.0
100
AcDbRotatedDimension
1001
ACAD
1000
DSTYLE
1002
{
1070
   271
1070
     1
1002
}
  0
CIRCLE
  5
49B87
330
1F
100
AcDbEntity
  8
AM_0
100
AcDbCircle
 10
4460.487683416536
 20
1689.318706834557
 30
0.0
 40
15.00000392961283
  0
CIRCLE
  5
49B88
330
1F
100
AcDbEntity
  8
AM_0
100
AcDbCircle
 10
4460.487683416536
 20
1689.318708941533
 30
0.0
 40
5.0
  0
CIRCLE
  5
49B8A
102
{ACAD_REACTORS
330
49B91
102
}
330
1F
100
AcDbEntity
  8
AM_0
100
AcDbCircle
 10
4460.487683416536
 20
1699.318706834559
 30
0.0
 40
2.1
  0
CIRCLE
  5
49B8B
330
1F
100
AcDbEntity
  8
AM_0
100
AcDbCircle
 10
4460.487683416536
 20
1679.318711048507
 30
0.0
 40
2.1
  0
LINE
  5
49B8C
330
1F
100
AcDbEntity
  8
AM_7N
  6
中心線1
 48
0.25
370
    13
100
AcDbLine
 10
4464.587683416536
 20
1699.318706834559
 30
0.0
 11
4456.387683416537
 21
1699.318706834559
 31
0.0
1001
GENIUS_GENOBJ-N-CEN_13
1002
{
1000
OWNER
1000
GEN
1002
}
1001
GENIUS_GENODEF_13
1002
{
1000
HIER
1070
     0
1002
}
1002
{
1000
MANEDIT
1070
     0
1002
}
1002
{
1000
NOSEL
1070
     0
1002
}
1002
{
1000
BEHIND
1070
     0
1002
}
1002
{
1000
OTHER
1070
     0
1002
}
1002
{
1000
REACTOR
1002
}
1001
GENIUS_GENCEN_19
1002
{
1040
2.0
1002
}
  0
LINE
  5
49B8D
330
1F
100
AcDbEntity
  8
AM_7N
  6
中心線1
 48
0.25
370
    13
100
AcDbLine
 10
4464.587683416536
 20
1679.318711048506
 30
0.0
 11
4456.387683416537
 21
1679.318711048506
 31
0.0
1001
GENIUS_GENOBJ-N-CEN_13
1002
{
1000
OWNER
1000
GEN
1002
}
1001
GENIUS_GENODEF_13
1002
{
1000
HIER
1070
     0
1002
}
1002
{
1000
MANEDIT
1070
     0
1002
}
1002
{
1000
NOSEL
1070
     0
1002
}
1002
{
1000
BEHIND
1070
     0
1002
}
1002
{
1000
OTHER
1070
     0
1002
}
1002
{
1000
REACTOR
1002
}
1001
GENIUS_GENCEN_19
1002
{
1040
2.0
1002
}
  0
DIMENSION
  5
49B8E
330
1F
100
AcDbEntity
  8
AM_5
100
AcDbDimension
  2
*D33
 10
4438.487677379948
 20
1679.318708941533
 30
0.0
 11
4438.487677379948
 21
1689.318708941533
 31
0.0
 70
   160
  1
<>
 71
     5
 42
19.99999578605275
  3
SYS$0
100
AcDbAlignedDimension
 13
4456.387683416536
 23
1699.318704727585
 33
0.0
 14
4456.387683416536
 24
1679.318708941533
 34
0.0
 50
90.0
100
AcDbRotatedDimension
1001
ACAD
1000
DSTYLE
1002
{
1070
    47
1040
0.2
1070
    48
1040
0.2
1070
   146
1040
0.6
1002
}
  0
DIMENSION
  5
49B8F
102
{ACAD_XDICTIONARY
360
49B90
102
}
102
{ACAD_REACTORS
330
49B91
102
}
330
1F
100
AcDbEntity
  8
AM_5
100
AcDbDimension
  2
*D34
 10
4459.205230660614
 20
1697.655783225719
 30
0.0
 11
4483.770853079131
 21
1710.246001678694
 31
0.0
 70
   163
  1
2-<>　深さ：2.5\P
 71
     5
 42
4.200000000001637
  3
SYS$3
100
AcDbDiametricDimension
 15
4461.770136172455
 25
1700.981630443397
 35
0.0
 40
0.0
1001
ACAD
1000
DSTYLE
1002
{
1070
    41
1040
4.0
1070
   172
1070
     1
1070
   342
1005
4A21B
1002
}
  0
LINE
  5
49B92
330
1F
100
AcDbEntity
  8
AM_11
 48
0.5
100
AcDbLine
 10
4299.67897247467
 20
1659.487998287475
 30
0.0
 11
4299.67897247467
 21
1649.487998287475
 31
0.0
  0
LINE
  5
49B93
330
1F
100
AcDbEntity
  8
AM_11
 48
0.5
100
AcDbLine
 10
4301.678972474671
 20
1661.487998287475
 30
0.0
 11
4342.678964845268
 21
1661.487998287475
 31
0.0
  0
LINE
  5
49B94
330
1F
100
AcDbEntity
  8
AM_11
 48
0.5
100
AcDbLine
 10
4344.678964845268
 20
1659.487998287475
 30
0.0
 11
4344.678964845268
 21
1649.487998287475
 31
0.0
  0
LINE
  5
49B95
330
1F
100
AcDbEntity
  8
AM_11
 48
0.5
100
AcDbLine
 10
4299.67897247467
 20
1649.487998287475
 30
0.0
 11
4344.678964845268
 21
1649.487998287475
 31
0.0
  0
LINE
  5
49B96
330
1F
100
AcDbEntity
  8
AM_11
 48
0.5
100
AcDbLine
 10
4337.178964845279
 20
1649.487998287475
 30
0.0
 11
4337.178964845279
 21
1619.487998287475
 31
0.0
  0
LINE
  5
49B97
330
1F
100
AcDbEntity
  8
AM_11
 48
0.5
100
AcDbLine
 10
4307.17897247467
 20
1649.487998287475
 30
0.0
 11
4307.17897247467
 21
1619.487998287475
 31
0.0
  0
ARC
  5
49B98
330
1F
100
AcDbEntity
  8
AM_11
 48
0.5
100
AcDbCircle
 10
4301.678972474671
 20
1659.487998287475
 30
0.0
 40
2.0
100
AcDbArc
 50
90.00000250441658
 51
180.0000050089634
  0
ARC
  5
49B99
330
1F
100
AcDbEntity
  8
AM_11
 48
0.5
100
AcDbCircle
 10
4342.678964845268
 20
1659.487998287475
 30
0.0
 40
2.0
100
AcDbArc
 50
0.0
 51
90.00000250441658
  0
LINE
  5
49B9A
330
1F
100
AcDbEntity
  8
AM_0
100
AcDbLine
 10
4327.178975537317
 20
1638.737996835377
 30
0.0
 11
4327.178971247765
 21
1619.487998287474
 31
0.0
  0
LINE
  5
49B9B
330
1F
100
AcDbEntity
  8
AM_2
  6
細線
 48
0.3
370
    13
100
AcDbLine
 10
4326.428970802099
 20
1639.48799622965
 30
0.0
 11
4326.428970802097
 21
1619.487998287475
 31
0.0
  0
LINE
  5
49B9C
330
1F
100
AcDbEntity
  8
AM_0
100
AcDbLine
 10
4317.17896178263
 20
1638.737996835377
 30
0.0
 11
4317.178966072186
 21
1619.487998287474
 31
0.0
  0
LINE
  5
49B9D
330
1F
100
AcDbEntity
  8
AM_2
  6
細線
 48
0.3
370
    13
100
AcDbLine
 10
4317.928948283136
 20
1639.487996060531
 30
0.0
 11
4317.928948283138
 21
1619.487998287475
 31
0.0
  0
LINE
  5
49B9E
330
1F
100
AcDbEntity
  8
AM_11
 48
0.5
100
AcDbLine
 10
4299.678972474677
 20
1607.487998287475
 30
0.0
 11
4344.678964845275
 21
1607.487998287475
 31
0.0
  0
LINE
  5
49B9F
330
1F
100
AcDbEntity
  8
AM_11
 48
0.5
100
AcDbLine
 10
4299.678972474677
 20
1592.487998287475
 30
0.0
 11
4344.678964845275
 21
1592.487998287475
 31
0.0
  0
LINE
  5
49BA0
330
1F
100
AcDbEntity
  8
AM_7N
  6
中心線1
 48
0.5
370
    13
100
AcDbLine
 10
4322.178968659973
 20
1642.487987808292
 30
0.0
 11
4322.178968659979
 21
1582.387998287475
 31
0.0
1001
GENIUS_GENOBJ-N-CEN_13
1002
{
1000
OWNER
1000
GEN
1002
}
1001
GENIUS_GENODEF_13
1002
{
1000
HIER
1070
     0
1002
}
1002
{
1000
MANEDIT
1070
     0
1002
}
1002
{
1000
NOSEL
1070
     0
1002
}
1002
{
1000
BEHIND
1070
     0
1002
}
1002
{
1000
OTHER
1070
     0
1002
}
1002
{
1000
REACTOR
1002
}
1001
GENIUS_GENCEN_19
1002
{
1040
4.0
1002
}
  0
LINE
  5
49BA1
330
1F
100
AcDbEntity
  8
AM_11
 48
0.5
100
AcDbLine
 10
4330.178968659978
 20
1607.487998287475
 30
0.0
 11
4330.178968659978
 21
1592.487998287476
 31
0.0
1001
GENIUS_GENOBJ-N-CEN_13
1002
{
1000
OWNER
1000
GEN
1002
}
1001
GENIUS_GENODEF_13
1002
{
1000
HIER
1070
     0
1002
}
1002
{
1000
MANEDIT
1070
     0
1002
}
1002
{
1000
NOSEL
1070
     0
1002
}
1002
{
1000
BEHIND
1070
     0
1002
}
1002
{
1000
OTHER
1070
     0
1002
}
1002
{
1000
REACTOR
1002
}
1001
GENIUS_GENCEN_19
1002
{
1040
4.0
1002
}
  0
LINE
  5
49BA2
330
1F
100
AcDbEntity
  8
AM_11
 48
0.5
100
AcDbLine
 10
4314.178968659978
 20
1607.487998287475
 30
0.0
 11
4314.178968659978
 21
1592.487998287475
 31
0.0
1001
GENIUS_GENOBJ-N-CEN_13
1002
{
1000
OWNER
1000
GEN
1002
}
1001
GENIUS_GENODEF_13
1002
{
1000
HIER
1070
     0
1002
}
1002
{
1000
MANEDIT
1070
     0
1002
}
1002
{
1000
NOSEL
1070
     0
1002
}
1002
{
1000
BEHIND
1070
     0
1002
}
1002
{
1000
OTHER
1070
     0
1002
}
1002
{
1000
REACTOR
1002
}
1001
GENIUS_GENCEN_19
1002
{
1040
4.0
1002
}
  0
LINE
  5
49BA3
330
1F
100
AcDbEntity
  8
AM_0
100
AcDbLine
 10
4316.199838288428
 20
1592.487998287475
 30
0.0
 11
4308.178968659978
 21
1592.487998287475
 31
0.0
  0
LINE
  5
49BA4
330
1F
100
AcDbEntity
  8
AM_0
100
AcDbLine
 10
4307.178968659978
 20
1591.487998287475
 30
0.0
 11
4307.178968659978
 21
1585.387998287475
 31
0.0
  0
ARC
  5
49BA5
330
1F
100
AcDbEntity
  8
AM_0
100
AcDbCircle
 10
4308.178968659978
 20
1591.487998287475
 30
0.0
 40
1.0
100
AcDbArc
 50
90.0
 51
180.0
1001
GENIUS_GENODEF_13
1002
{
1000
HIER
1070
     0
1002
}
1002
{
1000
MANEDIT
1070
     0
1002
}
1002
{
1000
NOSEL
1070
     0
1002
}
1002
{
1000
BEHIND
1070
     0
1002
}
1002
{
1000
OTHER
1070
     0
1002
}
1002
{
1000
REACTOR
1002
}
1001
GENIUS_GENOBJ-N-FIL_13
1002
{
1000
OWNER
1000
GEN
1002
}
  0
LINE
  5
49BA6
330
1F
100
AcDbEntity
  8
AM_0
100
AcDbLine
 10
4307.178968659978
 20
1585.387998287475
 30
0.0
 11
4337.178968659979
 21
1585.387998287476
 31
0.0
  0
LINE
  5
49BA7
330
1F
100
AcDbEntity
  8
AM_0
100
AcDbLine
 10
4337.178968659979
 20
1585.387998287475
 30
0.0
 11
4337.178968659979
 21
1591.487998287475
 31
0.0
  0
ARC
  5
49BA8
330
1F
100
AcDbEntity
  8
AM_0
100
AcDbCircle
 10
4336.178968659978
 20
1591.487998287475
 30
0.0
 40
1.0
100
AcDbArc
 50
0.0
 51
90.0
1001
GENIUS_GENOBJ-N-FIL_13
1002
{
1000
OWNER
1000
GEN
1002
}
1001
GENIUS_GENODEF_13
1002
{
1000
HIER
1070
     0
1002
}
1002
{
1000
MANEDIT
1070
     0
1002
}
1002
{
1000
NOSEL
1070
     0
1002
}
1002
{
1000
BEHIND
1070
     0
1002
}
1002
{
1000
OTHER
1070
     0
1002
}
1002
{
1000
REACTOR
1002
}
  0
LINE
  5
49BA9
330
1F
100
AcDbEntity
  8
AM_0
100
AcDbLine
 10
4336.178968659978
 20
1592.487998287475
 30
0.0
 11
4328.158099031529
 21
1592.487998287475
 31
0.0
  0
CIRCLE
  5
49BAA
330
1F
100
AcDbEntity
  8
AM_0
100
AcDbCircle
 10
4322.178968659978
 20
1592.487998287475
 30
0.0
 40
3.0
  0
LINE
  5
49BAB
330
1F
100
AcDbEntity
  8
AM_0
100
AcDbLine
 10
4318.105886289095
 20
1596.183942009991
 30
0.0
 11
4318.105886289095
 21
1604.487998287476
 31
0.0
  0
LINE
  5
49BAC
330
1F
100
AcDbEntity
  8
AM_0
100
AcDbLine
 10
4326.252051030863
 20
1596.183942009989
 30
0.0
 11
4326.252051030863
 21
1604.487998287476
 31
0.0
  0
LINE
  5
49BAD
330
1F
100
AcDbEntity
  8
AM_0
100
AcDbLine
 10
4317.178968659979
 20
1594.779286134954
 30
0.0
 11
4317.178968659979
 21
1604.487998287476
 31
0.0
  0
LINE
  5
49BAE
330
1F
100
AcDbEntity
  8
AM_0
100
AcDbLine
 10
4327.178968659977
 20
1594.779286134954
 30
0.0
 11
4327.178968659977
 21
1604.487998287476
 31
0.0
  0
ARC
  5
49BAF
330
1F
100
AcDbEntity
  8
AM_0
100
AcDbCircle
 10
4322.178968659978
 20
1592.487998287475
 30
0.0
 40
5.5
100
AcDbArc
 50
4.780191847195208
 51
175.2198081528048
  0
ARC
  5
49BB0
330
1F
100
AcDbEntity
  8
AM_0
100
AcDbCircle
 10
4328.158099031529
 20
1592.987998287475
 30
0.0
 40
0.5
100
AcDbArc
 50
184.7801918472083
 51
270.0
1001
GENIUS_GENOBJ-N-FIL_13
1002
{
1000
OWNER
1000
GEN
1002
}
1001
GENIUS_GENODEF_13
1002
{
1000
HIER
1070
     0
1002
}
1002
{
1000
MANEDIT
1070
     0
1002
}
1002
{
1000
NOSEL
1070
     0
1002
}
1002
{
1000
BEHIND
1070
     0
1002
}
1002
{
1000
OTHER
1070
     0
1002
}
1002
{
1000
REACTOR
1002
}
  0
ARC
  5
49BB1
330
1F
100
AcDbEntity
  8
AM_0
100
AcDbCircle
 10
4316.199838288428
 20
1592.987998287475
 30
0.0
 40
0.5
100
AcDbArc
 50
270.0
 51
355.2198081528048
1001
GENIUS_GENOBJ-N-FIL_13
1002
{
1000
OWNER
1000
GEN
1002
}
1001
GENIUS_GENODEF_13
1002
{
1000
HIER
1070
     0
1002
}
1002
{
1000
MANEDIT
1070
     0
1002
}
1002
{
1000
NOSEL
1070
     0
1002
}
1002
{
1000
BEHIND
1070
     0
1002
}
1002
{
1000
OTHER
1070
     0
1002
}
1002
{
1000
REACTOR
1002
}
  0
LINE
  5
49BB2
330
1F
100
AcDbEntity
  8
AM_0
100
AcDbLine
 10
4317.928948283137
 20
1639.487997564635
 30
0.0
 11
4326.428970802099
 21
1639.487996060535
 31
0.0
  0
LINE
  5
49BB3
330
1F
100
AcDbEntity
  8
AM_0
100
AcDbLine
 10
4317.178960278527
 20
1638.737996835377
 30
0.0
 11
4327.178960278527
 21
1638.737996835377
 31
0.0
  0
LINE
  5
49BB4
330
1F
100
AcDbEntity
  8
AM_0
100
AcDbLine
 10
4317.178960278527
 20
1638.737996835377
 30
0.0
 11
4317.928948283137
 21
1639.487997564635
 31
0.0
  0
LINE
  5
49BB5
330
1F
100
AcDbEntity
  8
AM_0
100
AcDbLine
 10
4326.428970802099
 20
1639.487996060535
 30
0.0
 11
4327.178960278527
 21
1638.737996835377
 31
0.0
  0
LINE
  5
49BB6
330
1F
100
AcDbEntity
  8
AM_2
  6
細線
 48
0.3
370
    13
100
AcDbLine
 10
4324.506444300481
 20
1604.487998287476
 30
0.0
 11
4321.983666834671
 21
1597.984529666175
 31
0.0
  0
LINE
  5
49BB7
330
1F
100
AcDbEntity
  8
AM_2
  6
細線
 48
0.3
370
    13
100
AcDbLine
 10
4319.851493019472
 20
1604.487998287476
 30
0.0
 11
4322.374270485282
 21
1597.984529666175
 31
0.0
  0
LINE
  5
49BB8
330
1F
100
AcDbEntity
  8
AM_11
 48
0.5
100
AcDbLine
 10
4364.076887732101
 20
1669.487998287475
 30
0.0
 11
4364.076887732101
 21
1659.487998287475
 31
0.0
  0
LINE
  5
49BB9
330
1F
100
AcDbEntity
  8
AM_11
 48
0.5
100
AcDbLine
 10
4366.076887732101
 20
1671.487998287475
 30
0.0
 11
4407.0768801027
 21
1671.487998287475
 31
0.0
  0
LINE
  5
49BBA
330
1F
100
AcDbEntity
  8
AM_11
 48
0.5
100
AcDbLine
 10
4409.076880102699
 20
1669.487998287475
 30
0.0
 11
4409.076880102699
 21
1659.487998287475
 31
0.0
  0
LINE
  5
49BBB
330
1F
100
AcDbEntity
  8
AM_11
 48
0.5
100
AcDbLine
 10
4364.076887732101
 20
1659.487998287475
 30
0.0
 11
4409.076880102699
 21
1659.487998287475
 31
0.0
  0
LINE
  5
49BBC
330
1F
100
AcDbEntity
  8
AM_11
 48
0.5
100
AcDbLine
 10
4401.576880102711
 20
1659.487998287475
 30
0.0
 11
4401.576880102711
 21
1629.487998287475
 31
0.0
  0
LINE
  5
49BBD
330
1F
100
AcDbEntity
  8
AM_11
 48
0.5
100
AcDbLine
 10
4371.576887732102
 20
1659.487998287475
 30
0.0
 11
4371.576887732102
 21
1629.487998287475
 31
0.0
  0
ARC
  5
49BBE
330
1F
100
AcDbEntity
  8
AM_11
 48
0.5
100
AcDbCircle
 10
4366.076887732101
 20
1669.487998287475
 30
0.0
 40
2.0
100
AcDbArc
 50
90.00000250441658
 51
180.0000050089634
  0
ARC
  5
49BBF
330
1F
100
AcDbEntity
  8
AM_11
 48
0.5
100
AcDbCircle
 10
4407.0768801027
 20
1669.487998287475
 30
0.0
 40
2.0
100
AcDbArc
 50
0.0
 51
90.00000250441658
  0
LINE
  5
49BC0
330
1F
100
AcDbEntity
  8
AM_0
100
AcDbLine
 10
4391.576875535958
 20
1638.737996835377
 30
0.0
 11
4391.576884188673
 21
1629.487998287475
 31
0.0
  0
LINE
  5
49BC1
330
1F
100
AcDbEntity
  8
AM_2
  6
細線
 48
0.3
370
    13
100
AcDbLine
 10
4390.82688605953
 20
1639.48799622965
 30
0.0
 11
4390.82688605953
 21
1629.487998287474
 31
0.0
  0
LINE
  5
49BC2
330
1F
100
AcDbEntity
  8
AM_0
100
AcDbLine
 10
4382.326863540567
 20
1639.487997564635
 30
0.0
 11
4390.82688605953
 21
1639.487996060535
 31
0.0
  0
LINE
  5
49BC3
330
1F
100
AcDbEntity
  8
AM_0
100
AcDbLine
 10
4381.576875535958
 20
1638.737996835377
 30
0.0
 11
4391.576875535958
 21
1638.737996835377
 31
0.0
  0
LINE
  5
49BC4
330
1F
100
AcDbEntity
  8
AM_0
100
AcDbLine
 10
4381.576875535958
 20
1638.737996835377
 30
0.0
 11
4382.326863540567
 21
1639.487997564635
 31
0.0
  0
LINE
  5
49BC5
330
1F
100
AcDbEntity
  8
AM_0
100
AcDbLine
 10
4390.82688605953
 20
1639.487996060535
 30
0.0
 11
4391.576875535958
 21
1638.737996835377
 31
0.0
  0
LINE
  5
49BC6
330
1F
100
AcDbEntity
  8
AM_0
100
AcDbLine
 10
4381.576877040061
 20
1638.737996835377
 30
0.0
 11
4381.576880933467
 21
1629.487998287475
 31
0.0
  0
LINE
  5
49BC7
330
1F
100
AcDbEntity
  8
AM_2
  6
細線
 48
0.3
370
    13
100
AcDbLine
 10
4382.326863540567
 20
1639.487996060531
 30
0.0
 11
4382.326863540569
 21
1629.487998287475
 31
0.0
  0
LINE
  5
49BC8
330
1F
100
AcDbEntity
  8
AM_11
 48
0.5
100
AcDbLine
 10
4364.076887732109
 20
1617.487998287475
 30
0.0
 11
4409.076880102707
 21
1617.487998287475
 31
0.0
  0
LINE
  5
49BC9
330
1F
100
AcDbEntity
  8
AM_11
 48
0.5
100
AcDbLine
 10
4364.076887732109
 20
1592.487998287475
 30
0.0
 11
4409.076880102707
 21
1592.487998287475
 31
0.0
  0
LINE
  5
49BCA
330
1F
100
AcDbEntity
  8
AM_7N
  6
中心線1
 48
0.5
370
    13
100
AcDbLine
 10
4386.576883917404
 20
1642.487987808292
 30
0.0
 11
4386.576883917411
 21
1582.387998287475
 31
0.0
1001
GENIUS_GENOBJ-N-CEN_13
1002
{
1000
OWNER
1000
GEN
1002
}
1001
GENIUS_GENODEF_13
1002
{
1000
HIER
1070
     0
1002
}
1002
{
1000
MANEDIT
1070
     0
1002
}
1002
{
1000
NOSEL
1070
     0
1002
}
1002
{
1000
BEHIND
1070
     0
1002
}
1002
{
1000
OTHER
1070
     0
1002
}
1002
{
1000
REACTOR
1002
}
1001
GENIUS_GENCEN_19
1002
{
1040
4.0
1002
}
  0
LINE
  5
49BCB
330
1F
100
AcDbEntity
  8
AM_11
 48
0.5
100
AcDbLine
 10
4394.576883917408
 20
1617.487998287475
 30
0.0
 11
4394.57688391741
 21
1592.487998287476
 31
0.0
1001
GENIUS_GENOBJ-N-CEN_13
1002
{
1000
OWNER
1000
GEN
1002
}
1001
GENIUS_GENODEF_13
1002
{
1000
HIER
1070
     0
1002
}
1002
{
1000
MANEDIT
1070
     0
1002
}
1002
{
1000
NOSEL
1070
     0
1002
}
1002
{
1000
BEHIND
1070
     0
1002
}
1002
{
1000
OTHER
1070
     0
1002
}
1002
{
1000
REACTOR
1002
}
1001
GENIUS_GENCEN_19
1002
{
1040
4.0
1002
}
  0
LINE
  5
49BCC
330
1F
100
AcDbEntity
  8
AM_11
 48
0.5
100
AcDbLine
 10
4378.57688391741
 20
1617.487998287475
 30
0.0
 11
4378.576883917409
 21
1592.487998287475
 31
0.0
1001
GENIUS_GENOBJ-N-CEN_13
1002
{
1000
OWNER
1000
GEN
1002
}
1001
GENIUS_GENODEF_13
1002
{
1000
HIER
1070
     0
1002
}
1002
{
1000
MANEDIT
1070
     0
1002
}
1002
{
1000
NOSEL
1070
     0
1002
}
1002
{
1000
BEHIND
1070
     0
1002
}
1002
{
1000
OTHER
1070
     0
1002
}
1002
{
1000
REACTOR
1002
}
1001
GENIUS_GENCEN_19
1002
{
1040
4.0
1002
}
  0
LINE
  5
49BCD
330
1F
100
AcDbEntity
  8
AM_0
100
AcDbLine
 10
4380.597753545859
 20
1592.487998287475
 30
0.0
 11
4372.576883917409
 21
1592.487998287475
 31
0.0
  0
LINE
  5
49BCE
330
1F
100
AcDbEntity
  8
AM_0
100
AcDbLine
 10
4371.576883917409
 20
1591.487998287475
 30
0.0
 11
4371.576883917409
 21
1585.387998287475
 31
0.0
  0
ARC
  5
49BCF
330
1F
100
AcDbEntity
  8
AM_0
100
AcDbCircle
 10
4372.576883917409
 20
1591.487998287475
 30
0.0
 40
1.0
100
AcDbArc
 50
90.0
 51
180.0
1001
GENIUS_GENODEF_13
1002
{
1000
HIER
1070
     0
1002
}
1002
{
1000
MANEDIT
1070
     0
1002
}
1002
{
1000
NOSEL
1070
     0
1002
}
1002
{
1000
BEHIND
1070
     0
1002
}
1002
{
1000
OTHER
1070
     0
1002
}
1002
{
1000
REACTOR
1002
}
1001
GENIUS_GENOBJ-N-FIL_13
1002
{
1000
OWNER
1000
GEN
1002
}
  0
LINE
  5
49BD0
330
1F
100
AcDbEntity
  8
AM_0
100
AcDbLine
 10
4371.576883917409
 20
1585.387998287475
 30
0.0
 11
4401.576883917409
 21
1585.387998287476
 31
0.0
  0
LINE
  5
49BD1
330
1F
100
AcDbEntity
  8
AM_0
100
AcDbLine
 10
4401.576883917409
 20
1585.387998287475
 30
0.0
 11
4401.576883917409
 21
1591.487998287475
 31
0.0
  0
ARC
  5
49BD2
330
1F
100
AcDbEntity
  8
AM_0
100
AcDbCircle
 10
4400.576883917409
 20
1591.487998287475
 30
0.0
 40
1.0
100
AcDbArc
 50
0.0
 51
90.0
1001
GENIUS_GENOBJ-N-FIL_13
1002
{
1000
OWNER
1000
GEN
1002
}
1001
GENIUS_GENODEF_13
1002
{
1000
HIER
1070
     0
1002
}
1002
{
1000
MANEDIT
1070
     0
1002
}
1002
{
1000
NOSEL
1070
     0
1002
}
1002
{
1000
BEHIND
1070
     0
1002
}
1002
{
1000
OTHER
1070
     0
1002
}
1002
{
1000
REACTOR
1002
}
  0
LINE
  5
49BD3
330
1F
100
AcDbEntity
  8
AM_0
100
AcDbLine
 10
4400.576883917409
 20
1592.487998287475
 30
0.0
 11
4392.556014288961
 21
1592.487998287475
 31
0.0
  0
ARC
  5
49BD4
330
1F
100
AcDbEntity
  8
AM_0
100
AcDbCircle
 10
4386.57688391741
 20
1592.487998287475
 30
0.0
 40
5.5
100
AcDbArc
 50
4.780191847195209
 51
175.2198081528048
  0
ARC
  5
49BD5
330
1F
100
AcDbEntity
  8
AM_0
100
AcDbCircle
 10
4392.556014288961
 20
1592.987998287475
 30
0.0
 40
0.5
100
AcDbArc
 50
184.7801918472083
 51
270.0
1001
GENIUS_GENOBJ-N-FIL_13
1002
{
1000
OWNER
1000
GEN
1002
}
1001
GENIUS_GENODEF_13
1002
{
1000
HIER
1070
     0
1002
}
1002
{
1000
MANEDIT
1070
     0
1002
}
1002
{
1000
NOSEL
1070
     0
1002
}
1002
{
1000
BEHIND
1070
     0
1002
}
1002
{
1000
OTHER
1070
     0
1002
}
1002
{
1000
REACTOR
1002
}
  0
ARC
  5
49BD6
330
1F
100
AcDbEntity
  8
AM_0
100
AcDbCircle
 10
4380.597753545859
 20
1592.987998287475
 30
0.0
 40
0.5
100
AcDbArc
 50
270.0
 51
355.2198081527917
1001
GENIUS_GENODEF_13
1002
{
1000
HIER
1070
     0
1002
}
1002
{
1000
MANEDIT
1070
     0
1002
}
1002
{
1000
NOSEL
1070
     0
1002
}
1002
{
1000
BEHIND
1070
     0
1002
}
1002
{
1000
OTHER
1070
     0
1002
}
1002
{
1000
REACTOR
1002
}
1001
GENIUS_GENOBJ-N-FIL_13
1002
{
1000
OWNER
1000
GEN
1002
}
  0
LINE
  5
49BD7
330
1F
100
AcDbEntity
  8
AM_0
100
AcDbLine
 10
4390.649966288293
 20
1608.987998287475
 30
0.0
 11
4382.503801546527
 21
1608.987998287473
 31
0.0
  0
CIRCLE
  5
49BD8
330
1F
100
AcDbEntity
  8
AM_0
100
AcDbCircle
 10
4386.57688391741
 20
1592.487998287475
 30
0.0
 40
3.0
  0
LINE
  5
49BD9
330
1F
100
AcDbEntity
  8
AM_0
100
AcDbLine
 10
4382.503801546527
 20
1596.183942009991
 30
0.0
 11
4382.503801546527
 21
1608.987998287475
 31
0.0
  0
LINE
  5
49BDA
330
1F
100
AcDbEntity
  8
AM_0
100
AcDbLine
 10
4390.649966288294
 20
1596.183942009989
 30
0.0
 11
4390.649966288294
 21
1608.987998287475
 31
0.0
  0
LINE
  5
49BDB
330
1F
100
AcDbEntity
  8
AM_2
  6
細線
 48
0.3
370
    13
100
AcDbLine
 10
4390.826886059529
 20
1595.979055690609
 30
0.0
 11
4390.82688605953
 21
1614.487998287475
 31
0.0
  0
LINE
  5
49BDC
330
1F
100
AcDbEntity
  8
AM_0
100
AcDbLine
 10
4381.57688391741
 20
1594.779286134953
 30
0.0
 11
4381.57688391741
 21
1614.487998287475
 31
0.0
  0
LINE
  5
49BDD
330
1F
100
AcDbEntity
  8
AM_0
100
AcDbLine
 10
4391.576883917409
 20
1594.779286134956
 30
0.0
 11
4391.576883917409
 21
1614.487998287475
 31
0.0
  0
LINE
  5
49BDE
330
1F
100
AcDbEntity
  8
AM_2
  6
細線
 48
0.3
370
    13
100
AcDbLine
 10
4382.326881775289
 20
1595.979055690609
 30
0.0
 11
4382.32688177529
 21
1614.487998287475
 31
0.0
  0
LINE
  5
49BDF
330
1F
100
AcDbEntity
  8
AM_2
  6
細線
 48
0.3
370
    13
100
AcDbLine
 10
4390.649966288293
 20
1608.987998287475
 30
0.0
 11
4386.381582092104
 21
1597.984529666175
 31
0.0
  0
LINE
  5
49BE0
330
1F
100
AcDbEntity
  8
AM_2
  6
細線
 48
0.3
370
    13
100
AcDbLine
 10
4382.503801546525
 20
1608.987998287475
 30
0.0
 11
4386.772185742716
 21
1597.984529666175
 31
0.0
  0
LINE
  5
49BE1
330
1F
100
AcDbEntity
  8
AM_0
100
AcDbLine
 10
4503.745627366035
 20
1602.748468267986
 30
0.0
 11
4503.745627366035
 21
1613.348468267987
 31
0.0
  0
ARC
  5
49BE2
330
1F
100
AcDbEntity
  8
AM_0
100
AcDbCircle
 10
4505.745627366034
 20
1602.748468267986
 30
0.0
 40
2.0
100
AcDbArc
 50
180.0
 51
270.0
1001
GENIUS_GENODEF_13
1002
{
1000
HIER
1070
     0
1002
}
1002
{
1000
MANEDIT
1070
     0
1002
}
1002
{
1000
NOSEL
1070
     0
1002
}
1002
{
1000
BEHIND
1070
     0
1002
}
1002
{
1000
OTHER
1070
     0
1002
}
1002
{
1000
REACTOR
1002
}
1001
GENIUS_GENOBJ-N-FIL_13
1002
{
1000
OWNER
1000
GEN
1002
}
  0
LINE
  5
49BE3
330
1F
100
AcDbEntity
  8
AM_0
100
AcDbLine
 10
4505.745627366035
 20
1602.748468267986
 30
0.0
 11
4505.745627366035
 21
1613.348468267987
 31
0.0
  0
LINE
  5
49BE4
330
1F
100
AcDbEntity
  8
AM_0
100
AcDbLine
 10
4511.745627366035
 20
1602.748468267986
 30
0.0
 11
4511.745627366035
 21
1613.348468267987
 31
0.0
  0
LINE
  5
49BE5
330
1F
100
AcDbEntity
  8
AM_0
100
AcDbLine
 10
4513.745627366035
 20
1602.748468267987
 30
0.0
 11
4513.745627366035
 21
1613.348468267987
 31
0.0
  0
ARC
  5
49BE6
330
1F
100
AcDbEntity
  8
AM_0
100
AcDbCircle
 10
4511.745627366035
 20
1602.748468267987
 30
0.0
 40
2.0
100
AcDbArc
 50
270.0
 51
0.0
1001
GENIUS_GENODEF_13
1002
{
1000
HIER
1070
     0
1002
}
1002
{
1000
MANEDIT
1070
     0
1002
}
1002
{
1000
NOSEL
1070
     0
1002
}
1002
{
1000
BEHIND
1070
     0
1002
}
1002
{
1000
OTHER
1070
     0
1002
}
1002
{
1000
REACTOR
1002
}
1001
GENIUS_GENOBJ-N-FIL_13
1002
{
1000
OWNER
1000
GEN
1002
}
  0
LINE
  5
49BE7
330
1F
100
AcDbEntity
  8
AM_0
100
AcDbLine
 10
4505.745627366034
 20
1600.748468267986
 30
0.0
 11
4511.745627366035
 21
1600.748468267987
 31
0.0
  0
LINE
  5
49BE8
330
1F
100
AcDbEntity
  8
AM_0
100
AcDbLine
 10
4505.745627366035
 20
1602.748468267986
 30
0.0
 11
4511.745627366035
 21
1602.748468267986
 31
0.0
  0
LINE
  5
49BE9
330
1F
100
AcDbEntity
  8
AM_0
100
AcDbLine
 10
4513.745627366035
 20
1613.348468267987
 30
0.0
 11
4511.745627366035
 21
1613.348468267987
 31
0.0
  0
LINE
  5
49BEA
330
1F
100
AcDbEntity
  8
AM_0
100
AcDbLine
 10
4505.745627366035
 20
1613.348468267987
 30
0.0
 11
4503.745627366035
 21
1613.348468267987
 31
0.0
  0
LINE
  5
49BEB
330
1F
100
AcDbEntity
  8
AM_0
100
AcDbLine
 10
4513.745627366035
 20
1607.848468267986
 30
0.0
 11
4511.745627366035
 21
1607.848468267986
 31
0.0
  0
LINE
  5
49BEC
330
1F
100
AcDbEntity
  8
AM_0
100
AcDbLine
 10
4505.745627366035
 20
1607.848468267986
 30
0.0
 11
4503.745627366035
 21
1607.848468267986
 31
0.0
  0
LINE
  5
49BED
330
1F
100
AcDbEntity
  8
AM_0
100
AcDbLine
 10
4503.745627366035
 20
1634.848468267987
 30
0.0
 11
4503.745627366035
 21
1654.098466815888
 31
0.0
  0
LINE
  5
49BEE
330
1F
100
AcDbEntity
  8
AM_0
100
AcDbLine
 10
4513.745627366035
 20
1634.848468267987
 30
0.0
 11
4513.745627366035
 21
1654.098458434325
 31
0.0
  0
LINE
  5
49BEF
330
1F
100
AcDbEntity
  8
AM_0
100
AcDbLine
 10
4505.845627366034
 20
1619.848468267986
 30
0.0
 11
4505.845627366034
 21
1603.348468267986
 31
0.0
  0
LINE
  5
49BF0
330
1F
100
AcDbEntity
  8
AM_0
100
AcDbLine
 10
4511.645627366035
 20
1619.848468267986
 30
0.0
 11
4511.645627366034
 21
1603.348468267986
 31
0.0
  0
LINE
  5
49BF1
330
1F
100
AcDbEntity
  8
AM_0
100
AcDbLine
 10
4505.845627366034
 20
1603.348468267986
 30
0.0
 11
4511.645627366034
 21
1603.348468267986
 31
0.0
  0
ARC
  5
49BF2
330
1F
100
AcDbEntity
  8
AM_0
100
AcDbCircle
 10
4506.824151956198
 20
1607.848468267986
 30
0.0
 40
4.298524590164282
100
AcDbArc
 50
135.740126536467
 51
224.259873463533
  0
ARC
  5
49BF3
330
1F
100
AcDbEntity
  8
AM_0
100
AcDbCircle
 10
4512.767849588256
 20
1607.848468267986
 30
0.0
 40
2.777777777777778
100
AcDbArc
 50
290.6096929375236
 51
69.39030706247639
  0
LINE
  5
49BF7
330
1F
100
AcDbEntity
  8
AM_0
100
AcDbLine
 10
4504.495606989191
 20
1654.848467545146
 30
0.0
 11
4512.995629508154
 21
1654.848466041046
 31
0.0
  0
LINE
  5
49BF8
330
1F
100
AcDbEntity
  8
AM_0
100
AcDbLine
 10
4503.745618984582
 20
1654.098466815888
 30
0.0
 11
4513.745618984581
 21
1654.098466815888
 31
0.0
  0
LINE
  5
49BF9
330
1F
100
AcDbEntity
  8
AM_0
100
AcDbLine
 10
4503.745618984582
 20
1654.098466815888
 30
0.0
 11
4504.495606989191
 21
1654.848467545146
 31
0.0
  0
LINE
  5
49BFA
330
1F
100
AcDbEntity
  8
AM_0
100
AcDbLine
 10
4512.995629508154
 20
1654.848466041046
 30
0.0
 11
4513.745618984581
 21
1654.098466815888
 31
0.0
  0
LINE
  5
49BFB
330
1F
100
AcDbEntity
  8
AM_2
  6
細線
 48
0.3
370
    13
100
AcDbLine
 10
4512.995621126707
 20
1654.848466210161
 30
0.0
 11
4512.995621126705
 21
1634.848468267987
 31
0.0
  0
LINE
  5
49BFC
330
1F
100
AcDbEntity
  8
AM_2
  6
細線
 48
0.3
370
    13
100
AcDbLine
 10
4504.495598607745
 20
1654.848466041042
 30
0.0
 11
4504.495598607747
 21
1634.848468267987
 31
0.0
  0
LINE
  5
49BFD
330
1F
100
AcDbEntity
  8
AM_0
100
AcDbLine
 10
4465.487690293875
 20
1654.09846681589
 30
0.0
 11
4465.487686004324
 21
1634.848468267987
 31
0.0
  0
LINE
  5
49BFE
330
1F
100
AcDbEntity
  8
AM_2
  6
細線
 48
0.3
370
    13
100
AcDbLine
 10
4464.737685558656
 20
1654.848466210163
 30
0.0
 11
4464.737685558656
 21
1634.848468267987
 31
0.0
  0
LINE
  5
49BFF
330
1F
100
AcDbEntity
  8
0部品2
  6
細線
 48
0.3
370
    13
100
AcDbLine
 10
4464.737685558657
 20
1619.848468267991
 30
0.0
 11
4464.737685558656
 21
1611.339525671121
 31
0.0
  0
LINE
  5
49C00
330
1F
100
AcDbEntity
  8
AM_0
100
AcDbLine
 10
4455.487676539187
 20
1654.09846681589
 30
0.0
 11
4455.487680828745
 21
1634.848468267987
 31
0.0
  0
LINE
  5
49C01
330
1F
100
AcDbEntity
  8
AM_2
  6
細線
 48
0.3
370
    13
100
AcDbLine
 10
4456.237663039694
 20
1654.848466041044
 30
0.0
 11
4456.237663039695
 21
1634.848468267987
 31
0.0
  0
LINE
  5
49C02
330
1F
100
AcDbEntity
  8
0部品2
  6
細線
 48
0.3
370
    13
100
AcDbLine
 10
4456.237663039697
 20
1619.848468267991
 30
0.0
 11
4456.237663039698
 21
1611.339503472117
 31
0.0
  0
LINE
  5
49C03
330
1F
100
AcDbEntity
  8
AM_7N
  6
中心線1
 48
0.5
370
    13
100
AcDbLine
 10
4460.487683416531
 20
1657.848457788805
 30
0.0
 11
4460.487683416536
 21
1597.748468267988
 31
0.0
1001
GENIUS_GENOBJ-N-CEN_13
1002
{
1000
OWNER
1000
GEN
1002
}
1001
GENIUS_GENODEF_13
1002
{
1000
HIER
1070
     0
1002
}
1002
{
1000
MANEDIT
1070
     0
1002
}
1002
{
1000
NOSEL
1070
     0
1002
}
1002
{
1000
BEHIND
1070
     0
1002
}
1002
{
1000
OTHER
1070
     0
1002
}
1002
{
1000
REACTOR
1002
}
1001
GENIUS_GENCEN_19
1002
{
1040
4.0
1002
}
  0
LINE
  5
49C04
330
1F
100
AcDbEntity
  8
AM_0
100
AcDbLine
 10
4454.508553044985
 20
1607.848468267988
 30
0.0
 11
4446.487683416536
 21
1607.848468267988
 31
0.0
  0
LINE
  5
49C05
330
1F
100
AcDbEntity
  8
AM_0
100
AcDbLine
 10
4445.487683416536
 20
1606.848468267988
 30
0.0
 11
4445.487683416536
 21
1600.748468267988
 31
0.0
  0
ARC
  5
49C06
330
1F
100
AcDbEntity
  8
AM_0
100
AcDbCircle
 10
4446.487683416536
 20
1606.848468267988
 30
0.0
 40
1.0
100
AcDbArc
 50
90.0
 51
180.0
1001
GENIUS_GENODEF_13
1002
{
1000
HIER
1070
     0
1002
}
1002
{
1000
MANEDIT
1070
     0
1002
}
1002
{
1000
NOSEL
1070
     0
1002
}
1002
{
1000
BEHIND
1070
     0
1002
}
1002
{
1000
OTHER
1070
     0
1002
}
1002
{
1000
REACTOR
1002
}
1001
GENIUS_GENOBJ-N-FIL_13
1002
{
1000
OWNER
1000
GEN
1002
}
  0
LINE
  5
49C07
330
1F
100
AcDbEntity
  8
AM_0
100
AcDbLine
 10
4445.487683416536
 20
1600.748468267988
 30
0.0
 11
4475.487683416536
 21
1600.748468267988
 31
0.0
  0
LINE
  5
49C08
330
1F
100
AcDbEntity
  8
AM_0
100
AcDbLine
 10
4475.487683416536
 20
1600.748468267988
 30
0.0
 11
4475.487683416536
 21
1606.848468267988
 31
0.0
  0
ARC
  5
49C09
330
1F
100
AcDbEntity
  8
AM_0
100
AcDbCircle
 10
4474.487683416536
 20
1606.848468267988
 30
0.0
 40
1.0
100
AcDbArc
 50
0.0
 51
90.0
1001
GENIUS_GENOBJ-N-FIL_13
1002
{
1000
OWNER
1000
GEN
1002
}
1001
GENIUS_GENODEF_13
1002
{
1000
HIER
1070
     0
1002
}
1002
{
1000
MANEDIT
1070
     0
1002
}
1002
{
1000
NOSEL
1070
     0
1002
}
1002
{
1000
BEHIND
1070
     0
1002
}
1002
{
1000
OTHER
1070
     0
1002
}
1002
{
1000
REACTOR
1002
}
  0
LINE
  5
49C0A
330
1F
100
AcDbEntity
  8
AM_0
100
AcDbLine
 10
4474.487683416536
 20
1607.848468267988
 30
0.0
 11
4466.466813788087
 21
1607.848468267988
 31
0.0
  0
CIRCLE
  5
49C0C
330
1F
100
AcDbEntity
  8
AM_0
100
AcDbCircle
 10
4460.487683416536
 20
1607.848468267988
 30
0.0
 40
3.0
  0
LINE
  5
49C0D
330
1F
100
AcDbEntity
  8
AM_0
100
AcDbLine
 10
4456.414601045653
 20
1611.544411990504
 30
0.0
 11
4456.414601045653
 21
1619.848468267988
 31
0.0
  0
LINE
  5
49C0E
330
1F
100
AcDbEntity
  8
AM_0
100
AcDbLine
 10
4464.56076578742
 20
1611.544411990502
 30
0.0
 11
4464.56076578742
 21
1619.848468267988
 31
0.0
  0
LINE
  5
49C0F
330
1F
100
AcDbEntity
  8
AM_0
100
AcDbLine
 10
4455.487683416537
 20
1610.139756115467
 30
0.0
 11
4455.487683416536
 21
1619.848468267988
 31
0.0
  0
LINE
  5
49C10
330
1F
100
AcDbEntity
  8
AM_0
100
AcDbLine
 10
4465.487683416535
 20
1610.139756115467
 30
0.0
 11
4465.487683416535
 21
1619.848468267988
 31
0.0
  0
ARC
  5
49C11
330
1F
100
AcDbEntity
  8
AM_0
100
AcDbCircle
 10
4460.487683416536
 20
1607.848468267988
 30
0.0
 40
5.5
100
AcDbArc
 50
4.780191847195208
 51
175.2198081528048
  0
ARC
  5
49C12
330
1F
100
AcDbEntity
  8
AM_0
100
AcDbCircle
 10
4466.466813788087
 20
1608.348468267988
 30
0.0
 40
0.5
100
AcDbArc
 50
184.7801918472085
 51
270.0
1001
GENIUS_GENOBJ-N-FIL_13
1002
{
1000
OWNER
1000
GEN
1002
}
1001
GENIUS_GENODEF_13
1002
{
1000
HIER
1070
     0
1002
}
1002
{
1000
MANEDIT
1070
     0
1002
}
1002
{
1000
NOSEL
1070
     0
1002
}
1002
{
1000
BEHIND
1070
     0
1002
}
1002
{
1000
OTHER
1070
     0
1002
}
1002
{
1000
REACTOR
1002
}
  0
ARC
  5
49C13
330
1F
100
AcDbEntity
  8
AM_0
100
AcDbCircle
 10
4454.508553044985
 20
1608.348468267988
 30
0.0
 40
0.5
100
AcDbArc
 50
270.0
 51
355.2198081528048
1001
GENIUS_GENOBJ-N-FIL_13
1002
{
1000
OWNER
1000
GEN
1002
}
1001
GENIUS_GENODEF_13
1002
{
1000
HIER
1070
     0
1002
}
1002
{
1000
MANEDIT
1070
     0
1002
}
1002
{
1000
NOSEL
1070
     0
1002
}
1002
{
1000
BEHIND
1070
     0
1002
}
1002
{
1000
OTHER
1070
     0
1002
}
1002
{
1000
REACTOR
1002
}
  0
LINE
  5
49C14
330
1F
100
AcDbEntity
  8
AM_0
100
AcDbLine
 10
4456.237663039694
 20
1654.848467545148
 30
0.0
 11
4464.737685558657
 21
1654.848466041048
 31
0.0
  0
LINE
  5
49C15
330
1F
100
AcDbEntity
  8
AM_0
100
AcDbLine
 10
4455.487675035085
 20
1654.09846681589
 30
0.0
 11
4465.487675035085
 21
1654.09846681589
 31
0.0
  0
LINE
  5
49C16
330
1F
100
AcDbEntity
  8
AM_0
100
AcDbLine
 10
4455.487675035085
 20
1654.09846681589
 30
0.0
 11
4456.237663039694
 21
1654.848467545148
 31
0.0
  0
LINE
  5
49C17
330
1F
100
AcDbEntity
  8
AM_0
100
AcDbLine
 10
4464.737685558657
 20
1654.848466041048
 30
0.0
 11
4465.487675035085
 21
1654.09846681589
 31
0.0
  0
LINE
  5
49C18
330
1F
100
AcDbEntity
  8
AM_2
  6
細線
 48
0.3
370
    13
100
AcDbLine
 10
4462.815159057039
 20
1619.848468267988
 30
0.0
 11
4460.292381591228
 21
1613.344999646688
 31
0.0
  0
LINE
  5
49C19
330
1F
100
AcDbEntity
  8
AM_2
  6
細線
 48
0.3
370
    13
100
AcDbLine
 10
4458.160207776028
 20
1619.848468267988
 30
0.0
 11
4460.682985241841
 21
1613.344999646688
 31
0.0
  0
LINE
  5
49C1A
330
1F
100
AcDbEntity
  8
AM_7N
  6
中心線1
 48
0.5
370
    13
100
AcDbLine
 10
4508.745617997134
 20
1657.848457788805
 30
0.0
 11
4508.745617997139
 21
1597.748468267988
 31
0.0
1001
GENIUS_GENOBJ-N-CEN_13
1002
{
1000
OWNER
1000
GEN
1002
}
1001
GENIUS_GENODEF_13
1002
{
1000
HIER
1070
     0
1002
}
1002
{
1000
MANEDIT
1070
     0
1002
}
1002
{
1000
NOSEL
1070
     0
1002
}
1002
{
1000
BEHIND
1070
     0
1002
}
1002
{
1000
OTHER
1070
     0
1002
}
1002
{
1000
REACTOR
1002
}
1001
GENIUS_GENCEN_19
1002
{
1040
4.0
1002
}
  0
LINE
  5
49C1B
330
1F
100
AcDbEntity
  8
AM_0
100
AcDbLine
 10
4445.487683416536
 20
1692.318706834559
 30
0.0
 11
4445.790740949194
 21
1692.318706834559
 31
0.0
  0
LINE
  5
49C1C
330
1F
100
AcDbEntity
  8
AM_0
100
AcDbLine
 10
4475.184625883879
 20
1692.318706834559
 30
0.0
 11
4475.487683416536
 21
1692.318706834559
 31
0.0
  0
LINE
  5
49C1D
330
1F
100
AcDbEntity
  8
AM_0
100
AcDbLine
 10
4445.487683416536
 20
1694.318706834559
 30
0.0
 11
4446.345543624822
 21
1694.318706834559
 31
0.0
  0
LINE
  5
49C1E
330
1F
100
AcDbEntity
  8
AM_0
100
AcDbLine
 10
4474.62982320825
 20
1694.318706834559
 30
0.0
 11
4475.487683416536
 21
1694.318706834559
 31
0.0
  0
LINE
  5
49C1F
330
1F
100
AcDbEntity
  8
AM_0
100
AcDbLine
 10
4445.487683416536
 20
1686.318706834559
 30
0.0
 11
4445.790740949193
 21
1686.318706834559
 31
0.0
  0
LINE
  5
49C20
330
1F
100
AcDbEntity
  8
AM_0
100
AcDbLine
 10
4475.184625883879
 20
1686.318706834559
 30
0.0
 11
4475.487683416536
 21
1686.318706834559
 31
0.0
  0
LINE
  5
49C21
330
1F
100
AcDbEntity
  8
AM_0
100
AcDbLine
 10
4445.487683416536
 20
1684.318706834559
 30
0.0
 11
4446.34554362482
 21
1684.318706834559
 31
0.0
  0
LINE
  5
49C22
330
1F
100
AcDbEntity
  8
AM_0
100
AcDbLine
 10
4474.629823208251
 20
1684.318706834559
 30
0.0
 11
4475.487683416536
 21
1684.318706834559
 31
0.0
  0
LINE
  5
49C23
330
1F
100
AcDbEntity
  8
AM_0
100
AcDbLine
 10
4475.487683416536
 20
1684.318706834559
 30
0.0
 11
4475.487683416536
 21
1694.318706834559
 31
0.0
  0
LINE
  5
49C24
330
1F
100
AcDbEntity
  8
AM_0
100
AcDbLine
 10
4445.487683416536
 20
1694.318706834559
 30
0.0
 11
4445.487683416536
 21
1684.318706834559
 31
0.0
  0
LINE
  5
49C25
330
1F
100
AcDbEntity
  8
AM_0
100
AcDbLine
 10
4445.795107800988
 20
1634.848468267987
 30
0.0
 11
4475.180259032078
 21
1634.848468267987
 31
0.0
1001
GENIUS_GENREC_14
1002
{
1000
PYDIR
1011
4445.487679584283
1021
1623.848468267987
1031
0.0
1002
}
1002
{
1000
PXDIR
1011
4475.487679584284
1021
1632.848468267987
1031
0.0
1002
}
1002
{
1000
PORI
1011
4445.487679584283
1021
1632.848468267987
1031
0.0
1002
}
1002
{
1000
PINS
1011
4445.487679584283
1021
1632.848468267987
1031
0.0
1002
}
1002
{
1000
PINS2
1011
4475.487679584284
1021
1623.848468267987
1031
0.0
1002
}
1002
{
1000
C
1070
     1
1002
}
1001
GENIUS_GENOBJ-N-REC_13
1002
{
1000
OWNER
1000
GEN
1002
}
1001
GENIUS_GENODEF_13
1002
{
1000
HIER
1070
     0
1002
}
1002
{
1000
MANEDIT
1070
     0
1002
}
1002
{
1000
NOSEL
1070
     0
1002
}
1002
{
1000
BEHIND
1070
     0
1002
}
1002
{
1000
OTHER
1070
     0
1002
}
1002
{
1000
REACTOR
1002
}
  0
LINE
  5
49C26
330
1F
100
AcDbEntity
  8
AM_0
100
AcDbLine
 10
4475.480256176293
 20
1634.549777260773
 30
0.0
 11
4475.531313092491
 21
1622.848468267988
 31
0.0
1001
GENIUS_GENREC_14
1002
{
1000
PYDIR
1011
4445.487679584283
1021
1622.848468267988
1031
0.0
1002
}
1002
{
1000
PXDIR
1011
4475.487679584284
1021
1632.848468267987
1031
0.0
1002
}
1002
{
1000
PORI
1011
4445.487679584283
1021
1632.848468267987
1031
0.0
1002
}
1002
{
1000
PINS
1011
4445.487679584283
1021
1632.848468267987
1031
0.0
1002
}
1002
{
1000
PINS2
1011
4475.531313092491
1021
1622.848468267988
1031
0.0
1002
}
1002
{
1000
C
1070
     1
1002
}
1001
GENIUS_GENOBJ-N-REC_13
1002
{
1000
OWNER
1000
GEN
1002
}
1001
GENIUS_GENODEF_13
1002
{
1000
HIER
1070
     0
1002
}
1002
{
1000
MANEDIT
1070
     0
1002
}
1002
{
1000
NOSEL
1070
     0
1002
}
1002
{
1000
BEHIND
1070
     0
1002
}
1002
{
1000
OTHER
1070
     0
1002
}
1002
{
1000
REACTOR
1002
}
  0
ARC
  5
49C27
330
1F
100
AcDbEntity
  8
AM_0
100
AcDbCircle
 10
4475.180259032078
 20
1634.548468267987
 30
0.0
 40
0.3
100
AcDbArc
 50
0.2500000000045944
 51
90.0
1001
GENIUS_GENREC_14
1002
{
1000
PYDIR
1011
4445.487679584283
1021
1622.848468267988
1031
0.0
1002
}
1002
{
1000
PXDIR
1011
4475.487679584284
1021
1632.848468267987
1031
0.0
1002
}
1002
{
1000
PORI
1011
4445.487679584283
1021
1632.848468267987
1031
0.0
1002
}
1002
{
1000
PINS
1011
4445.487679584283
1021
1632.848468267987
1031
0.0
1002
}
1002
{
1000
PINS2
1011
4475.531313092491
1021
1622.848468267988
1031
0.0
1002
}
1002
{
1000
C
1070
     1
1002
}
1001
GENIUS_GENOBJ-N-REC_13
1002
{
1000
OWNER
1000
GEN
1002
}
1001
GENIUS_GENOBJ-N-FIL_13
1002
{
1000
OWNER
1000
GEN
1002
}
1001
GENIUS_GENODEF_13
1002
{
1000
HIER
1070
     0
1002
}
1002
{
1000
MANEDIT
1070
     0
1002
}
1002
{
1000
NOSEL
1070
     0
1002
}
1002
{
1000
BEHIND
1070
     0
1002
}
1002
{
1000
OTHER
1070
     0
1002
}
1002
{
1000
REACTOR
1002
}
  0
LINE
  5
49C28
330
1F
100
AcDbEntity
  8
AM_0
100
AcDbLine
 10
4475.531313092491
 20
1622.848468267988
 30
0.0
 11
4445.444053740575
 21
1622.848468267988
 31
0.0
1001
GENIUS_GENREC_14
1002
{
1000
PYDIR
1011
4445.444053740575
1021
1622.848468267988
1031
0.0
1002
}
1002
{
1000
PXDIR
1011
4475.487679584284
1021
1632.848468267987
1031
0.0
1002
}
1002
{
1000
PORI
1011
4445.487679584283
1021
1632.848468267987
1031
0.0
1002
}
1002
{
1000
PINS
1011
4445.487679584283
1021
1632.848468267987
1031
0.0
1002
}
1002
{
1000
PINS2
1011
4475.531313092491
1021
1622.848468267988
1031
0.0
1002
}
1002
{
1000
C
1070
     1
1002
}
1001
GENIUS_GENOBJ-N-REC_13
1002
{
1000
OWNER
1000
GEN
1002
}
1001
GENIUS_GENODEF_13
1002
{
1000
HIER
1070
     0
1002
}
1002
{
1000
MANEDIT
1070
     0
1002
}
1002
{
1000
NOSEL
1070
     0
1002
}
1002
{
1000
BEHIND
1070
     0
1002
}
1002
{
1000
OTHER
1070
     0
1002
}
1002
{
1000
REACTOR
1002
}
  0
LINE
  5
49C29
102
{ACAD_REACTORS
330
49C66
102
}
330
1F
100
AcDbEntity
  8
AM_0
100
AcDbLine
 10
4445.444053740575
 20
1622.848468267988
 30
0.0
 11
4445.495110656771
 21
1634.549777260773
 31
0.0
1001
GENIUS_GENREC_14
1002
{
1000
PYDIR
1011
4445.444053740575
1021
1622.848468267988
1031
0.0
1002
}
1002
{
1000
PXDIR
1011
4475.487679584284
1021
1632.848468267987
1031
0.0
1002
}
1002
{
1000
PORI
1011
4445.487679584283
1021
1632.848468267987
1031
0.0
1002
}
1002
{
1000
PINS
1011
4445.487679584283
1021
1632.848468267987
1031
0.0
1002
}
1002
{
1000
PINS2
1011
4475.487679584284
1021
1622.848468267988
1031
0.0
1002
}
1002
{
1000
C
1070
     1
1002
}
1001
GENIUS_GENOBJ-N-REC_13
1002
{
1000
OWNER
1000
GEN
1002
}
1001
GENIUS_GENODEF_13
1002
{
1000
HIER
1070
     0
1002
}
1002
{
1000
MANEDIT
1070
     0
1002
}
1002
{
1000
NOSEL
1070
     0
1002
}
1002
{
1000
BEHIND
1070
     0
1002
}
1002
{
1000
OTHER
1070
     0
1002
}
1002
{
1000
REACTOR
1002
}
  0
ARC
  5
49C2A
330
1F
100
AcDbEntity
  8
AM_0
100
AcDbCircle
 10
4445.795107800988
 20
1634.548468267987
 30
0.0
 40
0.3
100
AcDbArc
 50
90.0
 51
179.7499999999954
1001
GENIUS_GENREC_14
1002
{
1000
PYDIR
1011
4445.444053740575
1021
1622.848468267988
1031
0.0
1002
}
1002
{
1000
PXDIR
1011
4475.487679584284
1021
1632.848468267987
1031
0.0
1002
}
1002
{
1000
PORI
1011
4445.487679584283
1021
1632.848468267987
1031
0.0
1002
}
1002
{
1000
PINS
1011
4445.487679584283
1021
1632.848468267987
1031
0.0
1002
}
1002
{
1000
PINS2
1011
4475.487679584284
1021
1622.848468267988
1031
0.0
1002
}
1002
{
1000
C
1070
     1
1002
}
1001
GENIUS_GENOBJ-N-REC_13
1002
{
1000
OWNER
1000
GEN
1002
}
1001
GENIUS_GENOBJ-N-FIL_13
1002
{
1000
OWNER
1000
GEN
1002
}
1001
GENIUS_GENODEF_13
1002
{
1000
HIER
1070
     0
1002
}
1002
{
1000
MANEDIT
1070
     0
1002
}
1002
{
1000
NOSEL
1070
     0
1002
}
1002
{
1000
BEHIND
1070
     0
1002
}
1002
{
1000
OTHER
1070
     0
1002
}
1002
{
1000
REACTOR
1002
}
  0
LINE
  5
49C2B
102
{ACAD_REACTORS
330
49C63
102
}
330
1F
100
AcDbEntity
  8
AM_0
100
AcDbLine
 10
4452.733809036839
 20
1622.848468267988
 30
0.0
 11
4452.733809036838
 21
1620.348468267991
 31
0.0
  0
ARC
  5
49C2C
102
{ACAD_REACTORS
330
49C63
102
}
330
1F
100
AcDbEntity
  8
AM_0
100
AcDbCircle
 10
4453.233809036838
 20
1620.348468267991
 30
0.0
 40
0.5
100
AcDbArc
 50
180.0
 51
270.0
1001
GENIUS_GENOBJ-N-FIL_13
1002
{
1000
OWNER
1000
GEN
1002
}
1001
GENIUS_GENODEF_13
1002
{
1000
HIER
1070
     0
1002
}
1002
{
1000
MANEDIT
1070
     0
1002
}
1002
{
1000
NOSEL
1070
     0
1002
}
1002
{
1000
BEHIND
1070
     0
1002
}
1002
{
1000
OTHER
1070
     0
1002
}
1002
{
1000
REACTOR
1002
}
  0
LINE
  5
49C2D
102
{ACAD_REACTORS
330
49C63
102
}
330
1F
100
AcDbEntity
  8
AM_0
100
AcDbLine
 10
4468.241537916449
 20
1622.848468267988
 30
0.0
 11
4468.241537916447
 21
1620.348468267991
 31
0.0
  0
ARC
  5
49C2E
330
1F
100
AcDbEntity
  8
AM_0
100
AcDbCircle
 10
4467.741537916448
 20
1620.348468267991
 30
0.0
 40
0.5
100
AcDbArc
 50
270.0
 51
0.0
1001
GENIUS_GENOBJ-N-FIL_13
1002
{
1000
OWNER
1000
GEN
1002
}
1001
GENIUS_GENODEF_13
1002
{
1000
HIER
1070
     0
1002
}
1002
{
1000
MANEDIT
1070
     0
1002
}
1002
{
1000
NOSEL
1070
     0
1002
}
1002
{
1000
BEHIND
1070
     0
1002
}
1002
{
1000
OTHER
1070
     0
1002
}
1002
{
1000
REACTOR
1002
}
  0
LINE
  5
49C2F
102
{ACAD_REACTORS
330
49C66
102
}
330
1F
100
AcDbEntity
  8
AM_0
100
AcDbLine
 10
4467.741537916448
 20
1619.848468267991
 30
0.0
 11
4453.233809036838
 21
1619.848468267991
 31
0.0
  0
LINE
  5
49C30
330
1F
100
AcDbEntity
  8
AM_0
100
AcDbLine
 10
4494.053042381591
 20
1634.848468267987
 30
0.0
 11
4523.438193612681
 21
1634.848468267987
 31
0.0
1001
GENIUS_GENREC_14
1002
{
1000
PYDIR
1011
4493.745614164887
1021
1623.848468267987
1031
0.0
1002
}
1002
{
1000
PXDIR
1011
4523.745614164886
1021
1632.848468267987
1031
0.0
1002
}
1002
{
1000
PORI
1011
4493.745614164887
1021
1632.848468267987
1031
0.0
1002
}
1002
{
1000
PINS
1011
4493.745614164887
1021
1632.848468267987
1031
0.0
1002
}
1002
{
1000
PINS2
1011
4523.745614164886
1021
1623.848468267987
1031
0.0
1002
}
1002
{
1000
C
1070
     1
1002
}
1001
GENIUS_GENOBJ-N-REC_13
1002
{
1000
OWNER
1000
GEN
1002
}
1001
GENIUS_GENODEF_13
1002
{
1000
HIER
1070
     0
1002
}
1002
{
1000
MANEDIT
1070
     0
1002
}
1002
{
1000
NOSEL
1070
     0
1002
}
1002
{
1000
BEHIND
1070
     0
1002
}
1002
{
1000
OTHER
1070
     0
1002
}
1002
{
1000
REACTOR
1002
}
  0
ARC
  5
49C31
330
1F
100
AcDbEntity
  8
AM_0
100
AcDbCircle
 10
4523.438193612681
 20
1634.548468267987
 30
0.0
 40
0.3
100
AcDbArc
 50
0.2500000000045945
 51
90.0
1001
GENIUS_GENREC_14
1002
{
1000
PYDIR
1011
4493.745614164887
1021
1623.848468267987
1031
0.0
1002
}
1002
{
1000
PXDIR
1011
4523.745614164886
1021
1632.848468267987
1031
0.0
1002
}
1002
{
1000
PORI
1011
4493.745614164887
1021
1632.848468267987
1031
0.0
1002
}
1002
{
1000
PINS
1011
4493.745614164887
1021
1632.848468267987
1031
0.0
1002
}
1002
{
1000
PINS2
1011
4523.745614164886
1021
1623.848468267987
1031
0.0
1002
}
1002
{
1000
C
1070
     1
1002
}
1001
GENIUS_GENOBJ-N-REC_13
1002
{
1000
OWNER
1000
GEN
1002
}
1001
GENIUS_GENOBJ-N-FIL_13
1002
{
1000
OWNER
1000
GEN
1002
}
1001
GENIUS_GENODEF_13
1002
{
1000
HIER
1070
     0
1002
}
1002
{
1000
MANEDIT
1070
     0
1002
}
1002
{
1000
NOSEL
1070
     0
1002
}
1002
{
1000
BEHIND
1070
     0
1002
}
1002
{
1000
OTHER
1070
     0
1002
}
1002
{
1000
REACTOR
1002
}
  0
LINE
  5
49C32
330
1F
100
AcDbEntity
  8
AM_0
100
AcDbLine
 10
4523.738190756898
 20
1634.549777260773
 30
0.0
 11
4523.789247673095
 21
1622.848468267988
 31
0.0
1001
GENIUS_GENREC_14
1002
{
1000
PYDIR
1011
4493.745614164887
1021
1622.848468267988
1031
0.0
1002
}
1002
{
1000
PXDIR
1011
4523.745614164886
1021
1632.848468267987
1031
0.0
1002
}
1002
{
1000
PORI
1011
4493.745614164887
1021
1632.848468267987
1031
0.0
1002
}
1002
{
1000
PINS
1011
4493.745614164887
1021
1632.848468267987
1031
0.0
1002
}
1002
{
1000
PINS2
1011
4523.789247673095
1021
1622.848468267988
1031
0.0
1002
}
1002
{
1000
C
1070
     1
1002
}
1001
GENIUS_GENOBJ-N-REC_13
1002
{
1000
OWNER
1000
GEN
1002
}
1001
GENIUS_GENODEF_13
1002
{
1000
HIER
1070
     0
1002
}
1002
{
1000
MANEDIT
1070
     0
1002
}
1002
{
1000
NOSEL
1070
     0
1002
}
1002
{
1000
BEHIND
1070
     0
1002
}
1002
{
1000
OTHER
1070
     0
1002
}
1002
{
1000
REACTOR
1002
}
  0
LINE
  5
49C33
330
1F
100
AcDbEntity
  8
AM_0
100
AcDbLine
 10
4523.789247673095
 20
1622.848468267988
 30
0.0
 11
4493.701988321179
 21
1622.848468267988
 31
0.0
1001
GENIUS_GENREC_14
1002
{
1000
PYDIR
1011
4493.701988321179
1021
1622.848468267988
1031
0.0
1002
}
1002
{
1000
PXDIR
1011
4523.745614164886
1021
1632.848468267987
1031
0.0
1002
}
1002
{
1000
PORI
1011
4493.745614164887
1021
1632.848468267987
1031
0.0
1002
}
1002
{
1000
PINS
1011
4493.745614164887
1021
1632.848468267987
1031
0.0
1002
}
1002
{
1000
PINS2
1011
4523.789247673095
1021
1622.848468267988
1031
0.0
1002
}
1002
{
1000
C
1070
     1
1002
}
1001
GENIUS_GENOBJ-N-REC_13
1002
{
1000
OWNER
1000
GEN
1002
}
1001
GENIUS_GENODEF_13
1002
{
1000
HIER
1070
     0
1002
}
1002
{
1000
MANEDIT
1070
     0
1002
}
1002
{
1000
NOSEL
1070
     0
1002
}
1002
{
1000
BEHIND
1070
     0
1002
}
1002
{
1000
OTHER
1070
     0
1002
}
1002
{
1000
REACTOR
1002
}
  0
LINE
  5
49C34
330
1F
100
AcDbEntity
  8
AM_0
100
AcDbLine
 10
4493.701988321179
 20
1622.848468267988
 30
0.0
 11
4493.753045237375
 21
1634.549777260773
 31
0.0
1001
GENIUS_GENREC_14
1002
{
1000
PYDIR
1011
4493.701988321179
1021
1622.848468267988
1031
0.0
1002
}
1002
{
1000
PXDIR
1011
4523.745614164886
1021
1632.848468267987
1031
0.0
1002
}
1002
{
1000
PORI
1011
4493.745614164887
1021
1632.848468267987
1031
0.0
1002
}
1002
{
1000
PINS
1011
4493.745614164887
1021
1632.848468267987
1031
0.0
1002
}
1002
{
1000
PINS2
1011
4523.745614164886
1021
1622.848468267988
1031
0.0
1002
}
1002
{
1000
C
1070
     1
1002
}
1001
GENIUS_GENOBJ-N-REC_13
1002
{
1000
OWNER
1000
GEN
1002
}
1001
GENIUS_GENODEF_13
1002
{
1000
HIER
1070
     0
1002
}
1002
{
1000
MANEDIT
1070
     0
1002
}
1002
{
1000
NOSEL
1070
     0
1002
}
1002
{
1000
BEHIND
1070
     0
1002
}
1002
{
1000
OTHER
1070
     0
1002
}
1002
{
1000
REACTOR
1002
}
  0
ARC
  5
49C35
330
1F
100
AcDbEntity
  8
AM_0
100
AcDbCircle
 10
4494.053042381591
 20
1634.548468267987
 30
0.0
 40
0.3
100
AcDbArc
 50
90.0
 51
179.7499999999954
1001
GENIUS_GENREC_14
1002
{
1000
PYDIR
1011
4493.701988321179
1021
1622.848468267988
1031
0.0
1002
}
1002
{
1000
PXDIR
1011
4523.745614164886
1021
1632.848468267987
1031
0.0
1002
}
1002
{
1000
PORI
1011
4493.745614164887
1021
1632.848468267987
1031
0.0
1002
}
1002
{
1000
PINS
1011
4493.745614164887
1021
1632.848468267987
1031
0.0
1002
}
1002
{
1000
PINS2
1011
4523.745614164886
1021
1622.848468267988
1031
0.0
1002
}
1002
{
1000
C
1070
     1
1002
}
1001
GENIUS_GENOBJ-N-REC_13
1002
{
1000
OWNER
1000
GEN
1002
}
1001
GENIUS_GENOBJ-N-FIL_13
1002
{
1000
OWNER
1000
GEN
1002
}
1001
GENIUS_GENODEF_13
1002
{
1000
HIER
1070
     0
1002
}
1002
{
1000
MANEDIT
1070
     0
1002
}
1002
{
1000
NOSEL
1070
     0
1002
}
1002
{
1000
BEHIND
1070
     0
1002
}
1002
{
1000
OTHER
1070
     0
1002
}
1002
{
1000
REACTOR
1002
}
  0
LINE
  5
49C36
330
1F
100
AcDbEntity
  8
AM_0
100
AcDbLine
 10
4500.991743617443
 20
1622.848468267988
 30
0.0
 11
4500.991743617442
 21
1620.348468267991
 31
0.0
  0
ARC
  5
49C37
330
1F
100
AcDbEntity
  8
AM_0
100
AcDbCircle
 10
4501.491743617441
 20
1620.348468267991
 30
0.0
 40
0.5
100
AcDbArc
 50
180.0
 51
270.0
1001
GENIUS_GENOBJ-N-FIL_13
1002
{
1000
OWNER
1000
GEN
1002
}
1001
GENIUS_GENODEF_13
1002
{
1000
HIER
1070
     0
1002
}
1002
{
1000
MANEDIT
1070
     0
1002
}
1002
{
1000
NOSEL
1070
     0
1002
}
1002
{
1000
BEHIND
1070
     0
1002
}
1002
{
1000
OTHER
1070
     0
1002
}
1002
{
1000
REACTOR
1002
}
  0
LINE
  5
49C38
330
1F
100
AcDbEntity
  8
AM_0
100
AcDbLine
 10
4516.499472497051
 20
1622.848468267988
 30
0.0
 11
4516.499472497051
 21
1620.348468267991
 31
0.0
  0
ARC
  5
49C39
330
1F
100
AcDbEntity
  8
AM_0
100
AcDbCircle
 10
4515.999472497051
 20
1620.348468267991
 30
0.0
 40
0.5
100
AcDbArc
 50
270.0
 51
0.0
1001
GENIUS_GENOBJ-N-FIL_13
1002
{
1000
OWNER
1000
GEN
1002
}
1001
GENIUS_GENODEF_13
1002
{
1000
HIER
1070
     0
1002
}
1002
{
1000
MANEDIT
1070
     0
1002
}
1002
{
1000
NOSEL
1070
     0
1002
}
1002
{
1000
BEHIND
1070
     0
1002
}
1002
{
1000
OTHER
1070
     0
1002
}
1002
{
1000
REACTOR
1002
}
  0
LINE
  5
49C3A
330
1F
100
AcDbEntity
  8
AM_0
100
AcDbLine
 10
4515.999472497051
 20
1619.848468267991
 30
0.0
 11
4501.491743617441
 21
1619.848468267991
 31
0.0
  0
LINE
  5
49C3B
330
1F
100
AcDbEntity
  8
AM_0
100
AcDbLine
 10
4307.486393044431
 20
1619.487998287474
 30
0.0
 11
4336.871544275521
 21
1619.487998287475
 31
0.0
1001
GENIUS_GENREC_14
1002
{
1000
PYDIR
1011
4307.178964827727
1021
1608.487998287474
1031
0.0
1002
}
1002
{
1000
PXDIR
1011
4337.178964827727
1021
1617.487998287474
1031
0.0
1002
}
1002
{
1000
PORI
1011
4307.178964827727
1021
1617.487998287474
1031
0.0
1002
}
1002
{
1000
PINS
1011
4307.178964827727
1021
1617.487998287474
1031
0.0
1002
}
1002
{
1000
PINS2
1011
4337.178964827727
1021
1608.487998287474
1031
0.0
1002
}
1002
{
1000
C
1070
     1
1002
}
1001
GENIUS_GENOBJ-N-REC_13
1002
{
1000
OWNER
1000
GEN
1002
}
1001
GENIUS_GENODEF_13
1002
{
1000
HIER
1070
     0
1002
}
1002
{
1000
MANEDIT
1070
     0
1002
}
1002
{
1000
NOSEL
1070
     0
1002
}
1002
{
1000
BEHIND
1070
     0
1002
}
1002
{
1000
OTHER
1070
     0
1002
}
1002
{
1000
REACTOR
1002
}
  0
LINE
  5
49C3C
330
1F
100
AcDbEntity
  8
AM_0
100
AcDbLine
 10
4337.171541419738
 20
1619.18930728026
 30
0.0
 11
4337.222598335935
 21
1607.487998287475
 31
0.0
1001
GENIUS_GENREC_14
1002
{
1000
PYDIR
1011
4307.178964827727
1021
1607.487998287475
1031
0.0
1002
}
1002
{
1000
PXDIR
1011
4337.178964827727
1021
1617.487998287474
1031
0.0
1002
}
1002
{
1000
PORI
1011
4307.178964827727
1021
1617.487998287474
1031
0.0
1002
}
1002
{
1000
PINS
1011
4307.178964827727
1021
1617.487998287474
1031
0.0
1002
}
1002
{
1000
PINS2
1011
4337.222598335935
1021
1607.487998287475
1031
0.0
1002
}
1002
{
1000
C
1070
     1
1002
}
1001
GENIUS_GENOBJ-N-REC_13
1002
{
1000
OWNER
1000
GEN
1002
}
1001
GENIUS_GENODEF_13
1002
{
1000
HIER
1070
     0
1002
}
1002
{
1000
MANEDIT
1070
     0
1002
}
1002
{
1000
NOSEL
1070
     0
1002
}
1002
{
1000
BEHIND
1070
     0
1002
}
1002
{
1000
OTHER
1070
     0
1002
}
1002
{
1000
REACTOR
1002
}
  0
ARC
  5
49C3D
330
1F
100
AcDbEntity
  8
AM_0
100
AcDbCircle
 10
4336.871544275521
 20
1619.187998287475
 30
0.0
 40
0.3
100
AcDbArc
 50
0.2500000000045943
 51
90.0
1001
GENIUS_GENREC_14
1002
{
1000
PYDIR
1011
4307.178964827727
1021
1607.487998287475
1031
0.0
1002
}
1002
{
1000
PXDIR
1011
4337.178964827727
1021
1617.487998287474
1031
0.0
1002
}
1002
{
1000
PORI
1011
4307.178964827727
1021
1617.487998287474
1031
0.0
1002
}
1002
{
1000
PINS
1011
4307.178964827727
1021
1617.487998287474
1031
0.0
1002
}
1002
{
1000
PINS2
1011
4337.222598335935
1021
1607.487998287475
1031
0.0
1002
}
1002
{
1000
C
1070
     1
1002
}
1001
GENIUS_GENOBJ-N-REC_13
1002
{
1000
OWNER
1000
GEN
1002
}
1001
GENIUS_GENOBJ-N-FIL_13
1002
{
1000
OWNER
1000
GEN
1002
}
1001
GENIUS_GENODEF_13
1002
{
1000
HIER
1070
     0
1002
}
1002
{
1000
MANEDIT
1070
     0
1002
}
1002
{
1000
NOSEL
1070
     0
1002
}
1002
{
1000
BEHIND
1070
     0
1002
}
1002
{
1000
OTHER
1070
     0
1002
}
1002
{
1000
REACTOR
1002
}
  0
LINE
  5
49C3E
330
1F
100
AcDbEntity
  8
AM_0
100
AcDbLine
 10
4337.222598335935
 20
1607.487998287475
 30
0.0
 11
4307.135338984019
 21
1607.487998287475
 31
0.0
1001
GENIUS_GENREC_14
1002
{
1000
PYDIR
1011
4307.135338984019
1021
1607.487998287475
1031
0.0
1002
}
1002
{
1000
PXDIR
1011
4337.178964827727
1021
1617.487998287474
1031
0.0
1002
}
1002
{
1000
PORI
1011
4307.178964827727
1021
1617.487998287474
1031
0.0
1002
}
1002
{
1000
PINS
1011
4307.178964827727
1021
1617.487998287474
1031
0.0
1002
}
1002
{
1000
PINS2
1011
4337.222598335935
1021
1607.487998287475
1031
0.0
1002
}
1002
{
1000
C
1070
     1
1002
}
1001
GENIUS_GENOBJ-N-REC_13
1002
{
1000
OWNER
1000
GEN
1002
}
1001
GENIUS_GENODEF_13
1002
{
1000
HIER
1070
     0
1002
}
1002
{
1000
MANEDIT
1070
     0
1002
}
1002
{
1000
NOSEL
1070
     0
1002
}
1002
{
1000
BEHIND
1070
     0
1002
}
1002
{
1000
OTHER
1070
     0
1002
}
1002
{
1000
REACTOR
1002
}
  0
LINE
  5
49C3F
330
1F
100
AcDbEntity
  8
AM_0
100
AcDbLine
 10
4307.135338984019
 20
1607.487998287475
 30
0.0
 11
4307.186395900215
 21
1619.18930728026
 31
0.0
1001
GENIUS_GENREC_14
1002
{
1000
PYDIR
1011
4307.135338984019
1021
1607.487998287475
1031
0.0
1002
}
1002
{
1000
PXDIR
1011
4337.178964827727
1021
1617.487998287474
1031
0.0
1002
}
1002
{
1000
PORI
1011
4307.178964827727
1021
1617.487998287474
1031
0.0
1002
}
1002
{
1000
PINS
1011
4307.178964827727
1021
1617.487998287474
1031
0.0
1002
}
1002
{
1000
PINS2
1011
4337.178964827727
1021
1607.487998287475
1031
0.0
1002
}
1002
{
1000
C
1070
     1
1002
}
1001
GENIUS_GENOBJ-N-REC_13
1002
{
1000
OWNER
1000
GEN
1002
}
1001
GENIUS_GENODEF_13
1002
{
1000
HIER
1070
     0
1002
}
1002
{
1000
MANEDIT
1070
     0
1002
}
1002
{
1000
NOSEL
1070
     0
1002
}
1002
{
1000
BEHIND
1070
     0
1002
}
1002
{
1000
OTHER
1070
     0
1002
}
1002
{
1000
REACTOR
1002
}
  0
ARC
  5
49C40
330
1F
100
AcDbEntity
  8
AM_0
100
AcDbCircle
 10
4307.486393044431
 20
1619.187998287474
 30
0.0
 40
0.3
100
AcDbArc
 50
90.0
 51
179.7499999999954
1001
GENIUS_GENREC_14
1002
{
1000
PYDIR
1011
4307.135338984019
1021
1607.487998287475
1031
0.0
1002
}
1002
{
1000
PXDIR
1011
4337.178964827727
1021
1617.487998287474
1031
0.0
1002
}
1002
{
1000
PORI
1011
4307.178964827727
1021
1617.487998287474
1031
0.0
1002
}
1002
{
1000
PINS
1011
4307.178964827727
1021
1617.487998287474
1031
0.0
1002
}
1002
{
1000
PINS2
1011
4337.178964827727
1021
1607.487998287475
1031
0.0
1002
}
1002
{
1000
C
1070
     1
1002
}
1001
GENIUS_GENOBJ-N-REC_13
1002
{
1000
OWNER
1000
GEN
1002
}
1001
GENIUS_GENOBJ-N-FIL_13
1002
{
1000
OWNER
1000
GEN
1002
}
1001
GENIUS_GENODEF_13
1002
{
1000
HIER
1070
     0
1002
}
1002
{
1000
MANEDIT
1070
     0
1002
}
1002
{
1000
NOSEL
1070
     0
1002
}
1002
{
1000
BEHIND
1070
     0
1002
}
1002
{
1000
OTHER
1070
     0
1002
}
1002
{
1000
REACTOR
1002
}
  0
LINE
  5
49C41
330
1F
100
AcDbEntity
  8
AM_0
100
AcDbLine
 10
4314.425094280283
 20
1607.487998287475
 30
0.0
 11
4314.425094280282
 21
1604.987998287478
 31
0.0
  0
ARC
  5
49C42
330
1F
100
AcDbEntity
  8
AM_0
100
AcDbCircle
 10
4314.925094280282
 20
1604.987998287478
 30
0.0
 40
0.5
100
AcDbArc
 50
180.0
 51
270.0
1001
GENIUS_GENOBJ-N-FIL_13
1002
{
1000
OWNER
1000
GEN
1002
}
1001
GENIUS_GENODEF_13
1002
{
1000
HIER
1070
     0
1002
}
1002
{
1000
MANEDIT
1070
     0
1002
}
1002
{
1000
NOSEL
1070
     0
1002
}
1002
{
1000
BEHIND
1070
     0
1002
}
1002
{
1000
OTHER
1070
     0
1002
}
1002
{
1000
REACTOR
1002
}
  0
LINE
  5
49C43
330
1F
100
AcDbEntity
  8
AM_0
100
AcDbLine
 10
4329.932823159892
 20
1607.487998287475
 30
0.0
 11
4329.932823159891
 21
1604.987998287478
 31
0.0
  0
ARC
  5
49C44
330
1F
100
AcDbEntity
  8
AM_0
100
AcDbCircle
 10
4329.432823159891
 20
1604.987998287478
 30
0.0
 40
0.5
100
AcDbArc
 50
270.0
 51
0.0
1001
GENIUS_GENOBJ-N-FIL_13
1002
{
1000
OWNER
1000
GEN
1002
}
1001
GENIUS_GENODEF_13
1002
{
1000
HIER
1070
     0
1002
}
1002
{
1000
MANEDIT
1070
     0
1002
}
1002
{
1000
NOSEL
1070
     0
1002
}
1002
{
1000
BEHIND
1070
     0
1002
}
1002
{
1000
OTHER
1070
     0
1002
}
1002
{
1000
REACTOR
1002
}
  0
LINE
  5
49C45
330
1F
100
AcDbEntity
  8
AM_0
100
AcDbLine
 10
4329.432823159891
 20
1604.487998287478
 30
0.0
 11
4314.925094280282
 21
1604.487998287478
 31
0.0
  0
LINE
  5
49C46
330
1F
100
AcDbEntity
  8
AM_0
100
AcDbLine
 10
4371.884308301861
 20
1629.487998287475
 30
0.0
 11
4401.269459532952
 21
1629.487998287475
 31
0.0
1001
GENIUS_GENREC_14
1002
{
1000
PYDIR
1011
4371.576880085158
1021
1618.487998287474
1031
0.0
1002
}
1002
{
1000
PXDIR
1011
4401.576880085158
1021
1627.487998287474
1031
0.0
1002
}
1002
{
1000
PORI
1011
4371.576880085158
1021
1627.487998287474
1031
0.0
1002
}
1002
{
1000
PINS
1011
4371.576880085158
1021
1627.487998287474
1031
0.0
1002
}
1002
{
1000
PINS2
1011
4401.576880085158
1021
1618.487998287474
1031
0.0
1002
}
1002
{
1000
C
1070
     1
1002
}
1001
GENIUS_GENOBJ-N-REC_13
1002
{
1000
OWNER
1000
GEN
1002
}
1001
GENIUS_GENODEF_13
1002
{
1000
HIER
1070
     0
1002
}
1002
{
1000
MANEDIT
1070
     0
1002
}
1002
{
1000
NOSEL
1070
     0
1002
}
1002
{
1000
BEHIND
1070
     0
1002
}
1002
{
1000
OTHER
1070
     0
1002
}
1002
{
1000
REACTOR
1002
}
  0
ARC
  5
49C47
330
1F
100
AcDbEntity
  8
AM_0
100
AcDbCircle
 10
4371.884308301861
 20
1629.187998287475
 30
0.0
 40
0.3
100
AcDbArc
 50
90.0
 51
179.7500000000084
1001
GENIUS_GENREC_14
1002
{
1000
PYDIR
1011
4371.576880085158
1021
1618.487998287474
1031
0.0
1002
}
1002
{
1000
PXDIR
1011
4401.576880085158
1021
1627.487998287474
1031
0.0
1002
}
1002
{
1000
PORI
1011
4371.576880085158
1021
1627.487998287474
1031
0.0
1002
}
1002
{
1000
PINS
1011
4371.576880085158
1021
1627.487998287474
1031
0.0
1002
}
1002
{
1000
PINS2
1011
4401.576880085158
1021
1618.487998287474
1031
0.0
1002
}
1002
{
1000
C
1070
     1
1002
}
1001
GENIUS_GENOBJ-N-REC_13
1002
{
1000
OWNER
1000
GEN
1002
}
1001
GENIUS_GENODEF_13
1002
{
1000
HIER
1070
     0
1002
}
1002
{
1000
MANEDIT
1070
     0
1002
}
1002
{
1000
NOSEL
1070
     0
1002
}
1002
{
1000
BEHIND
1070
     0
1002
}
1002
{
1000
OTHER
1070
     0
1002
}
1002
{
1000
REACTOR
1002
}
1001
GENIUS_GENOBJ-N-FIL_13
1002
{
1000
OWNER
1000
GEN
1002
}
  0
LINE
  5
49C48
330
1F
100
AcDbEntity
  8
AM_0
100
AcDbLine
 10
4401.569456677169
 20
1629.18930728026
 30
0.0
 11
4401.620513593366
 21
1617.487998287475
 31
0.0
1001
GENIUS_GENREC_14
1002
{
1000
PYDIR
1011
4371.576880085158
1021
1617.487998287475
1031
0.0
1002
}
1002
{
1000
PXDIR
1011
4401.576880085158
1021
1627.487998287474
1031
0.0
1002
}
1002
{
1000
PORI
1011
4371.576880085158
1021
1627.487998287474
1031
0.0
1002
}
1002
{
1000
PINS
1011
4371.576880085158
1021
1627.487998287474
1031
0.0
1002
}
1002
{
1000
PINS2
1011
4401.620513593366
1021
1617.487998287475
1031
0.0
1002
}
1002
{
1000
C
1070
     1
1002
}
1001
GENIUS_GENOBJ-N-REC_13
1002
{
1000
OWNER
1000
GEN
1002
}
1001
GENIUS_GENODEF_13
1002
{
1000
HIER
1070
     0
1002
}
1002
{
1000
MANEDIT
1070
     0
1002
}
1002
{
1000
NOSEL
1070
     0
1002
}
1002
{
1000
BEHIND
1070
     0
1002
}
1002
{
1000
OTHER
1070
     0
1002
}
1002
{
1000
REACTOR
1002
}
  0
ARC
  5
49C49
330
1F
100
AcDbEntity
  8
AM_0
100
AcDbCircle
 10
4401.269459532952
 20
1629.187998287475
 30
0.0
 40
0.3
100
AcDbArc
 50
0.2500000000045943
 51
90.0
1001
GENIUS_GENREC_14
1002
{
1000
PYDIR
1011
4371.576880085158
1021
1617.487998287475
1031
0.0
1002
}
1002
{
1000
PXDIR
1011
4401.576880085158
1021
1627.487998287474
1031
0.0
1002
}
1002
{
1000
PORI
1011
4371.576880085158
1021
1627.487998287474
1031
0.0
1002
}
1002
{
1000
PINS
1011
4371.576880085158
1021
1627.487998287474
1031
0.0
1002
}
1002
{
1000
PINS2
1011
4401.620513593366
1021
1617.487998287475
1031
0.0
1002
}
1002
{
1000
C
1070
     1
1002
}
1001
GENIUS_GENOBJ-N-REC_13
1002
{
1000
OWNER
1000
GEN
1002
}
1001
GENIUS_GENODEF_13
1002
{
1000
HIER
1070
     0
1002
}
1002
{
1000
MANEDIT
1070
     0
1002
}
1002
{
1000
NOSEL
1070
     0
1002
}
1002
{
1000
BEHIND
1070
     0
1002
}
1002
{
1000
OTHER
1070
     0
1002
}
1002
{
1000
REACTOR
1002
}
1001
GENIUS_GENOBJ-N-FIL_13
1002
{
1000
OWNER
1000
GEN
1002
}
  0
LINE
  5
49C4A
330
1F
100
AcDbEntity
  8
AM_0
100
AcDbLine
 10
4401.620513593366
 20
1617.487998287475
 30
0.0
 11
4371.53325424145
 21
1617.487998287475
 31
0.0
1001
GENIUS_GENREC_14
1002
{
1000
PYDIR
1011
4371.53325424145
1021
1617.487998287475
1031
0.0
1002
}
1002
{
1000
PXDIR
1011
4401.576880085158
1021
1627.487998287474
1031
0.0
1002
}
1002
{
1000
PORI
1011
4371.576880085158
1021
1627.487998287474
1031
0.0
1002
}
1002
{
1000
PINS
1011
4371.576880085158
1021
1627.487998287474
1031
0.0
1002
}
1002
{
1000
PINS2
1011
4401.620513593366
1021
1617.487998287475
1031
0.0
1002
}
1002
{
1000
C
1070
     1
1002
}
1001
GENIUS_GENOBJ-N-REC_13
1002
{
1000
OWNER
1000
GEN
1002
}
1001
GENIUS_GENODEF_13
1002
{
1000
HIER
1070
     0
1002
}
1002
{
1000
MANEDIT
1070
     0
1002
}
1002
{
1000
NOSEL
1070
     0
1002
}
1002
{
1000
BEHIND
1070
     0
1002
}
1002
{
1000
OTHER
1070
     0
1002
}
1002
{
1000
REACTOR
1002
}
  0
LINE
  5
49C4B
330
1F
100
AcDbEntity
  8
AM_0
100
AcDbLine
 10
4371.53325424145
 20
1617.487998287475
 30
0.0
 11
4371.584311157645
 21
1629.18930728026
 31
0.0
1001
GENIUS_GENREC_14
1002
{
1000
PYDIR
1011
4371.53325424145
1021
1617.487998287475
1031
0.0
1002
}
1002
{
1000
PXDIR
1011
4401.576880085158
1021
1627.487998287474
1031
0.0
1002
}
1002
{
1000
PORI
1011
4371.576880085158
1021
1627.487998287474
1031
0.0
1002
}
1002
{
1000
PINS
1011
4371.576880085158
1021
1627.487998287474
1031
0.0
1002
}
1002
{
1000
PINS2
1011
4401.576880085158
1021
1617.487998287475
1031
0.0
1002
}
1002
{
1000
C
1070
     1
1002
}
1001
GENIUS_GENOBJ-N-REC_13
1002
{
1000
OWNER
1000
GEN
1002
}
1001
GENIUS_GENODEF_13
1002
{
1000
HIER
1070
     0
1002
}
1002
{
1000
MANEDIT
1070
     0
1002
}
1002
{
1000
NOSEL
1070
     0
1002
}
1002
{
1000
BEHIND
1070
     0
1002
}
1002
{
1000
OTHER
1070
     0
1002
}
1002
{
1000
REACTOR
1002
}
  0
LINE
  5
49C4C
330
1F
100
AcDbEntity
  8
AM_0
100
AcDbLine
 10
4378.823009537714
 20
1617.487998287475
 30
0.0
 11
4378.823009537713
 21
1614.987998287478
 31
0.0
  0
ARC
  5
49C4D
330
1F
100
AcDbEntity
  8
AM_0
100
AcDbCircle
 10
4379.323009537713
 20
1614.987998287478
 30
0.0
 40
0.5
100
AcDbArc
 50
180.0
 51
270.0
1001
GENIUS_GENOBJ-N-FIL_13
1002
{
1000
OWNER
1000
GEN
1002
}
1001
GENIUS_GENODEF_13
1002
{
1000
HIER
1070
     0
1002
}
1002
{
1000
MANEDIT
1070
     0
1002
}
1002
{
1000
NOSEL
1070
     0
1002
}
1002
{
1000
BEHIND
1070
     0
1002
}
1002
{
1000
OTHER
1070
     0
1002
}
1002
{
1000
REACTOR
1002
}
  0
LINE
  5
49C4E
330
1F
100
AcDbEntity
  8
AM_0
100
AcDbLine
 10
4394.330738417322
 20
1617.487998287475
 30
0.0
 11
4394.330738417322
 21
1614.987998287478
 31
0.0
  0
ARC
  5
49C4F
330
1F
100
AcDbEntity
  8
AM_0
100
AcDbCircle
 10
4393.830738417322
 20
1614.987998287478
 30
0.0
 40
0.5
100
AcDbArc
 50
270.0
 51
0.0
1001
GENIUS_GENOBJ-N-FIL_13
1002
{
1000
OWNER
1000
GEN
1002
}
1001
GENIUS_GENODEF_13
1002
{
1000
HIER
1070
     0
1002
}
1002
{
1000
MANEDIT
1070
     0
1002
}
1002
{
1000
NOSEL
1070
     0
1002
}
1002
{
1000
BEHIND
1070
     0
1002
}
1002
{
1000
OTHER
1070
     0
1002
}
1002
{
1000
REACTOR
1002
}
  0
LINE
  5
49C50
330
1F
100
AcDbEntity
  8
AM_0
100
AcDbLine
 10
4393.830738417322
 20
1614.487998287478
 30
0.0
 11
4379.323009537713
 21
1614.487998287478
 31
0.0
  0
DIMENSION
  5
49C61
102
{ACAD_XDICTIONARY
360
49C62
102
}
102
{ACAD_REACTORS
330
49C63
102
}
330
1F
100
AcDbEntity
  8
AM_5
100
AcDbDimension
  2
*D35
 10
4468.241537916447
 20
1592.748468267988
 30
0.0
 11
4460.487673476642
 21
1592.748468267988
 31
0.0
 70
   160
  1
%%c<>
 71
     5
 42
15.50772887960829
  3
SYS$0
100
AcDbAlignedDimension
 13
4452.733809036838
 23
1620.348468267991
 33
0.0
 14
4468.241537916447
 24
1620.348468267985
 34
0.0
100
AcDbRotatedDimension
1001
ACAD
1000
DSTYLE
1002
{
1070
   271
1070
     1
1002
}
  0
DIMENSION
  5
49C64
102
{ACAD_XDICTIONARY
360
49C65
102
}
102
{ACAD_REACTORS
330
49C66
102
}
330
1F
100
AcDbEntity
  8
AM_5
100
AcDbDimension
  2
*D36
 10
4438.487680662108
 20
1619.848468267991
 30
0.0
 11
4438.487680662108
 21
1616.101801601324
 31
0.0
 70
   160
 71
     5
 42
2.999999999997271
  3
SYS$0
100
AcDbAlignedDimension
 13
4445.444053740575
 23
1622.848468267988
 33
0.0
 14
4453.233809036838
 24
1619.848468267991
 34
0.0
 50
90.0
100
AcDbRotatedDimension
1001
ACAD
1000
DSTYLE
1002
{
1070
   271
1070
     1
1002
}
  0
LINE
  5
49C67
330
1F
100
AcDbEntity
  8
AM_2
  6
細線
 48
0.3
370
    13
100
AcDbLine
 10
4326.428970802099
 20
1604.487998287478
 30
0.0
 11
4326.428970802099
 21
1595.979055690609
 31
0.0
  0
LINE
  5
49C68
330
1F
100
AcDbEntity
  8
AM_2
  6
細線
 48
0.3
370
    13
100
AcDbLine
 10
4317.928948283141
 20
1604.487998287478
 30
0.0
 11
4317.928948283141
 21
1595.979033491604
 31
0.0
  0
LINE
  5
49C69
330
1F
100
AcDbEntity
  8
AM_7N
  6
中心線1
 48
0.5
370
    13
100
AcDbLine
 10
4465.487683416536
 20
1607.848468267988
 30
0.0
 11
4455.487683416536
 21
1607.848468267988
 31
0.0
1001
GENIUS_GENOBJ-N-CEN_13
1002
{
1000
OWNER
1000
GEN
1002
}
1001
GENIUS_GENODEF_13
1002
{
1000
HIER
1070
     0
1002
}
1002
{
1000
MANEDIT
1070
     0
1002
}
1002
{
1000
NOSEL
1070
     0
1002
}
1002
{
1000
BEHIND
1070
     0
1002
}
1002
{
1000
OTHER
1070
     0
1002
}
1002
{
1000
REACTOR
1002
}
1001
GENIUS_GENCEN_19
1002
{
1040
2.0
1002
}
  0
LINE
  5
49C6D
330
1F
100
AcDbEntity
  8
AM_7N
  6
中心線1
 48
0.5
370
    13
100
AcDbLine
 10
4517.255617997138
 20
1607.848468267986
 30
0.0
 11
4500.235617997139
 21
1607.848468267986
 31
0.0
1001
GENIUS_GENODEF_13
1002
{
1000
HIER
1070
     0
1002
}
1002
{
1000
MANEDIT
1070
     0
1002
}
1002
{
1000
NOSEL
1070
     0
1002
}
1002
{
1000
BEHIND
1070
     0
1002
}
1002
{
1000
OTHER
1070
     0
1002
}
1002
{
1000
REACTOR
1002
}
1001
GENIUS_GENOBJ-N-CEN_13
1002
{
1000
OWNER
1000
GEN
1002
}
1001
GENIUS_GENCEN_19
1002
{
1040
2.0
1002
}
  0
LINE
  5
49E4D
330
1F
100
AcDbEntity
  8
AM_0
100
AcDbLine
 10
4300.325840310423
 20
1739.277693817641
 30
0.0
 11
4300.325840310423
 21
1693.777693817641
 31
0.0
  0
LINE
  5
49E4E
330
1F
100
AcDbEntity
  8
AM_0
100
AcDbLine
 10
4280.325840310424
 20
1732.777693817641
 30
0.0
 11
4390.325840310423
 21
1732.777693817641
 31
0.0
  0
LINE
  5
49E4F
330
1F
100
AcDbEntity
  8
AM_0
100
AcDbLine
 10
4280.325840310424
 20
1726.277693817641
 30
0.0
 11
4390.325840310423
 21
1726.277693817641
 31
0.0
  0
LINE
  5
49E50
330
1F
100
AcDbEntity
  8
AM_0
100
AcDbLine
 10
4280.325840310424
 20
1713.277693817641
 30
0.0
 11
4390.325840310423
 21
1713.277693817641
 31
0.0
  0
LINE
  5
49E53
330
1F
100
AcDbEntity
  8
AM_0
100
AcDbLine
 10
4280.325840310424
 20
1739.277693817641
 30
0.0
 11
4280.325840310424
 21
1700.277693817641
 31
0.0
  0
LINE
  5
49E54
330
1F
100
AcDbEntity
  8
AM_0
100
AcDbLine
 10
4280.325840310424
 20
1739.277693817641
 30
0.0
 11
4390.325840310423
 21
1739.277693817641
 31
0.0
  0
LINE
  5
49E55
330
1F
100
AcDbEntity
  8
AM_0
100
AcDbLine
 10
4390.325840310423
 20
1739.277693817641
 30
0.0
 11
4390.325840310423
 21
1693.777693817641
 31
0.0
  0
TEXT
  5
49E57
330
1F
100
AcDbEntity
  8
AM_6
100
AcDbText
 10
4285.982840310423
 20
1734.427693817641
 30
0.0
 40
3.2
  1
品　名
 41
0.85537027
100
AcDbText
  0
TEXT
  5
49E58
330
1F
100
AcDbEntity
  8
AM_6
100
AcDbText
 10
4285.982840310423
 20
1727.927693817641
 30
0.0
 40
3.2
  1
品　番
 41
0.85537027
100
AcDbText
  0
TEXT
  5
49E59
330
1F
100
AcDbEntity
  8
AM_6
100
AcDbText
 10
4285.982840310423
 20
1721.427693817641
 30
0.0
 40
3.2
  1
材　質
 41
0.85537027
100
AcDbText
  0
LINE
  5
49E5C
330
1F
100
AcDbEntity
  8
size
100
AcDbLine
 10
4268.825840310425
 20
1537.777693817641
 30
0.0
 11
4565.825840310425
 21
1537.777693817641
 31
0.0
1001
GENIUS_GENREC_14
1002
{
1000
PYDIR
1011
4268.825840310425
1021
1686.277693817641
1031
0.0
1002
}
1002
{
1000
PXDIR
1011
4565.825840310425
1021
1537.777693817641
1031
0.0
1002
}
1002
{
1000
PORI
1011
4268.825840310425
1021
1537.777693817641
1031
0.0
1002
}
1002
{
1000
PINS
1011
4373.825840310424
1021
1612.027693817641
1031
0.0
1002
}
1002
{
1000
HVAL
1000
297
1002
}
1002
{
1000
H
1070
     2
1002
}
1002
{
1000
WVAL
1000
420
1002
}
1002
{
1000
W
1070
     2
1002
}
1002
{
1000
C
1070
     4
1002
}
1001
GENIUS_GENOBJ-N-REC_13
1002
{
1000
OWNER
1000
GEN
1002
}
1001
GENIUS_GENODEF_13
1002
{
1000
HIER
1070
     0
1002
}
1002
{
1000
MANEDIT
1070
     0
1002
}
1002
{
1000
NOSEL
1070
     0
1002
}
1002
{
1000
BEHIND
1070
     0
1002
}
1002
{
1000
OTHER
1070
     0
1002
}
1002
{
1000
REACTOR
1002
}
  0
LINE
  5
49E5D
330
1F
100
AcDbEntity
  8
size
100
AcDbLine
 10
4565.825840310425
 20
1537.777693817641
 30
0.0
 11
4565.825840310425
 21
1747.777693817641
 31
0.0
1001
GENIUS_GENREC_14
1002
{
1000
PYDIR
1011
4268.825840310423
1021
1747.777693817641
1031
0.0
1002
}
1002
{
1000
PXDIR
1011
4565.825840310425
1021
1537.777693817641
1031
0.0
1002
}
1002
{
1000
PORI
1011
4268.825840310425
1021
1537.777693817641
1031
0.0
1002
}
1002
{
1000
PINS
1011
4373.825840310424
1021
1612.027693817641
1031
0.0
1002
}
1002
{
1000
HVAL
1000
297
1002
}
1002
{
1000
H
1070
     2
1002
}
1002
{
1000
WVAL
1000
420
1002
}
1002
{
1000
W
1070
     2
1002
}
1002
{
1000
C
1070
     4
1002
}
1001
GENIUS_GENOBJ-N-REC_13
1002
{
1000
OWNER
1000
GEN
1002
}
1001
GENIUS_GENODEF_13
1002
{
1000
HIER
1070
     0
1002
}
1002
{
1000
MANEDIT
1070
     0
1002
}
1002
{
1000
NOSEL
1070
     0
1002
}
1002
{
1000
BEHIND
1070
     0
1002
}
1002
{
1000
OTHER
1070
     0
1002
}
1002
{
1000
REACTOR
1002
}
  0
LINE
  5
49E5E
330
1F
100
AcDbEntity
  8
size
100
AcDbLine
 10
4565.825840310425
 20
1747.777693817641
 30
0.0
 11
4268.825840310423
 21
1747.777693817641
 31
0.0
1001
GENIUS_GENREC_14
1002
{
1000
PYDIR
1011
4268.825840310423
1021
1747.777693817641
1031
0.0
1002
}
1002
{
1000
PXDIR
1011
4565.825840310425
1021
1537.777693817641
1031
0.0
1002
}
1002
{
1000
PORI
1011
4268.825840310425
1021
1537.777693817641
1031
0.0
1002
}
1002
{
1000
PINS
1011
4373.825840310424
1021
1612.027693817641
1031
0.0
1002
}
1002
{
1000
HVAL
1000
297
1002
}
1002
{
1000
H
1070
     2
1002
}
1002
{
1000
WVAL
1000
420
1002
}
1002
{
1000
W
1070
     2
1002
}
1002
{
1000
C
1070
     4
1002
}
1001
GENIUS_GENOBJ-N-REC_13
1002
{
1000
OWNER
1000
GEN
1002
}
1001
GENIUS_GENODEF_13
1002
{
1000
HIER
1070
     0
1002
}
1002
{
1000
MANEDIT
1070
     0
1002
}
1002
{
1000
NOSEL
1070
     0
1002
}
1002
{
1000
BEHIND
1070
     0
1002
}
1002
{
1000
OTHER
1070
     0
1002
}
1002
{
1000
REACTOR
1002
}
  0
LINE
  5
49E5F
330
1F
100
AcDbEntity
  8
size
100
AcDbLine
 10
4268.825840310423
 20
1747.777693817641
 30
0.0
 11
4268.825840310425
 21
1537.777693817641
 31
0.0
1001
GENIUS_GENREC_14
1002
{
1000
PYDIR
1011
4268.825840310423
1021
1747.777693817641
1031
0.0
1002
}
1002
{
1000
PXDIR
1011
4478.825840310424
1021
1537.777693817641
1031
0.0
1002
}
1002
{
1000
PORI
1011
4268.825840310425
1021
1537.777693817641
1031
0.0
1002
}
1002
{
1000
PINS
1011
4373.825840310424
1021
1612.027693817641
1031
0.0
1002
}
1002
{
1000
HVAL
1000
297
1002
}
1002
{
1000
H
1070
     2
1002
}
1002
{
1000
WVAL
1000
420
1002
}
1002
{
1000
W
1070
     2
1002
}
1002
{
1000
C
1070
     4
1002
}
1001
GENIUS_GENOBJ-N-REC_13
1002
{
1000
OWNER
1000
GEN
1002
}
1001
GENIUS_GENODEF_13
1002
{
1000
HIER
1070
     0
1002
}
1002
{
1000
MANEDIT
1070
     0
1002
}
1002
{
1000
NOSEL
1070
     0
1002
}
1002
{
1000
BEHIND
1070
     0
1002
}
1002
{
1000
OTHER
1070
     0
1002
}
1002
{
1000
REACTOR
1002
}
  0
LINE
  5
49E60
330
1F
100
AcDbEntity
  8
waku
100
AcDbLine
 10
4554.325840310425
 20
1546.277693817641
 30
0.0
 11
4554.325840310424
 21
1739.277693817641
 31
0.0
1001
GENIUS_GENREC_14
1002
{
1000
PYDIR
1011
4268.825840310423
1021
1747.777693817641
1031
0.0
1002
}
1002
{
1000
PXDIR
1011
4560.075840310424
1021
1537.777693817641
1031
0.0
1002
}
1002
{
1000
PORI
1011
4268.825840310425
1021
1537.777693817641
1031
0.0
1002
}
1002
{
1000
PINS
1011
4373.825840310424
1021
1612.027693817641
1031
0.0
1002
}
1002
{
1000
HVAL
1000
297
1002
}
1002
{
1000
H
1070
     2
1002
}
1002
{
1000
WVAL
1000
420
1002
}
1002
{
1000
W
1070
     2
1002
}
1002
{
1000
C
1070
     4
1002
}
1001
GENIUS_GENOBJ-N-REC_13
1002
{
1000
OWNER
1000
GEN
1002
}
1001
GENIUS_GENODEF_13
1002
{
1000
HIER
1070
     0
1002
}
1002
{
1000
MANEDIT
1070
     0
1002
}
1002
{
1000
NOSEL
1070
     0
1002
}
1002
{
1000
BEHIND
1070
     0
1002
}
1002
{
1000
OTHER
1070
     0
1002
}
1002
{
1000
REACTOR
1002
}
  0
LINE
  5
49E61
330
1F
100
AcDbEntity
  8
waku
100
AcDbLine
 10
4280.325840310424
 20
1739.277693817641
 30
0.0
 11
4280.325840310424
 21
1546.277693817641
 31
0.0
1001
GENIUS_GENREC_14
1002
{
1000
PYDIR
1011
4268.825840310423
1021
1747.777693817641
1031
0.0
1002
}
1002
{
1000
PXDIR
1011
4478.825840310424
1021
1537.777693817641
1031
0.0
1002
}
1002
{
1000
PORI
1011
4268.825840310425
1021
1537.777693817641
1031
0.0
1002
}
1002
{
1000
PINS
1011
4373.825840310424
1021
1612.027693817641
1031
0.0
1002
}
1002
{
1000
HVAL
1000
297
1002
}
1002
{
1000
H
1070
     2
1002
}
1002
{
1000
WVAL
1000
420
1002
}
1002
{
1000
W
1070
     2
1002
}
1002
{
1000
C
1070
     4
1002
}
1001
GENIUS_GENOBJ-N-REC_13
1002
{
1000
OWNER
1000
GEN
1002
}
1001
GENIUS_GENODEF_13
1002
{
1000
HIER
1070
     0
1002
}
1002
{
1000
MANEDIT
1070
     0
1002
}
1002
{
1000
NOSEL
1070
     0
1002
}
1002
{
1000
BEHIND
1070
     0
1002
}
1002
{
1000
OTHER
1070
     0
1002
}
1002
{
1000
REACTOR
1002
}
  0
LINE
  5
49E62
330
1F
100
AcDbEntity
  8
waku
100
AcDbLine
 10
4554.325840310424
 20
1739.277693817641
 30
0.0
 11
4280.325840310424
 21
1739.277693817641
 31
0.0
1001
GENIUS_GENREC_14
1002
{
1000
PYDIR
1011
4268.825840310423
1021
1747.777693817641
1031
0.0
1002
}
1002
{
1000
PXDIR
1011
4560.075840310424
1021
1537.777693817641
1031
0.0
1002
}
1002
{
1000
PORI
1011
4268.825840310425
1021
1537.777693817641
1031
0.0
1002
}
1002
{
1000
PINS
1011
4373.825840310424
1021
1612.027693817641
1031
0.0
1002
}
1002
{
1000
HVAL
1000
297
1002
}
1002
{
1000
H
1070
     2
1002
}
1002
{
1000
WVAL
1000
420
1002
}
1002
{
1000
W
1070
     2
1002
}
1002
{
1000
C
1070
     4
1002
}
1001
GENIUS_GENOBJ-N-REC_13
1002
{
1000
OWNER
1000
GEN
1002
}
1001
GENIUS_GENODEF_13
1002
{
1000
HIER
1070
     0
1002
}
1002
{
1000
MANEDIT
1070
     0
1002
}
1002
{
1000
NOSEL
1070
     0
1002
}
1002
{
1000
BEHIND
1070
     0
1002
}
1002
{
1000
OTHER
1070
     0
1002
}
1002
{
1000
REACTOR
1002
}
  0
LINE
  5
49E63
330
1F
100
AcDbEntity
  8
waku
100
AcDbLine
 10
4280.325840310424
 20
1546.277693817641
 30
0.0
 11
4554.325840310425
 21
1546.277693817641
 31
0.0
  0
MTEXT
  5
49E64
330
1F
100
AcDbEntity
  8
AM_6
100
AcDbMText
 10
4300.325840310423
 20
1736.027693817641
 30
0.0
 40
3.2
 41
90.0
 71
     4
 72
     5
  1
　OAフロア対応アンカー（ハンガーボルトタイプ）
 73
     1
 44
1.0
1001
ACAD
1000
MTEXTBEGIN
1070
    73
1070
     1
1070
    44
1040
1.0
1070
    74
1070
     0
1000
MTEXTEND
  0
MTEXT
  5
49E65
330
1F
100
AcDbEntity
  8
AM_6
100
AcDbMText
 10
4300.325840310423
 20
1729.527693817641
 30
0.0
 40
3.2
 41
90.0
 71
     4
 72
     5
  1
　DCB-20
 73
     1
 44
1.0
1001
ACAD
1000
MTEXTBEGIN
1070
    73
1070
     1
1070
    44
1040
1.0
1070
    74
1070
     0
1000
MTEXTEND
  0
MTEXT
  5
49E66
330
1F
100
AcDbEntity
  8
AM_6
100
AcDbMText
 10
4300.325840310423
 20
1723.027693817641
 30
0.0
 40
3.2
 41
90.0
 71
     4
 72
     5
  1
　化粧リング：亜鉛ダイキャスト
 73
     1
 44
1.0
1001
ACAD
1000
MTEXTBEGIN
1070
    73
1070
     1
1070
    44
1040
1.0
1070
    74
1070
     0
1000
MTEXTEND
  0
MTEXT
  5
49E67
330
1F
100
AcDbEntity
  8
AM_6
100
AcDbMText
 10
4300.325840310423
 20
1716.527693817641
 30
0.0
 40
3.2
 41
90.0
 71
     4
 72
     5
  1
　ハンガーボルト：スチール
 73
     1
 44
1.0
1001
ACAD
1000
MTEXTBEGIN
1070
    73
1070
     1
1070
    44
1040
1.0
1070
    74
1070
     0
1000
MTEXTEND
  0
TEXT
  5
49E69
330
1F
100
AcDbEntity
  8
AM_6
100
AcDbText
 10
4285.982840310423
 20
1708.427693817641
 30
0.0
 40
3.2
  1
仕上げ
 41
0.85537027
100
AcDbText
  0
MTEXT
  5
49E6A
330
1F
100
AcDbEntity
  8
AM_6
100
AcDbMText
 10
4300.325840310423
 20
1710.027693817641
 30
0.0
 40
3.2
 41
90.0
 71
     4
 72
     5
  1
　化粧リング：焼付塗装（シルバー）
 73
     1
 44
1.0
1001
ACAD
1000
MTEXTBEGIN
1070
    73
1070
     1
1070
    44
1040
1.0
1070
    74
1070
     0
1000
MTEXTEND
  0
CIRCLE
  5
4A13B
330
1F
100
AcDbEntity
  8
AM_2
  6
細線
 48
0.3
370
    13
100
AcDbCircle
 10
4460.487683416536
 20
1689.318706834559
 30
0.0
 40
4.250002106973397
  0
MTEXT
  5
4A148
330
1F
100
AcDbEntity
  8
AM_6
100
AcDbMText
 10
4300.325840310423
 20
1703.527693817641
 30
0.0
 40
3.2
 41
90.0
 71
     4
 72
     5
  1
　ハンガーボルト：有色クロメート
 73
     1
 44
1.0
1001
ACAD
1000
MTEXTBEGIN
1070
    73
1070
     1
1070
    44
1040
1.0
1070
    74
1070
     0
1000
MTEXTEND
  0
LINE
  5
4A149
330
1F
100
AcDbEntity
  8
AM_0
100
AcDbLine
 10
4280.325840310424
 20
1700.277693817641
 30
0.0
 11
4390.325840310423
 21
1700.277693817641
 31
0.0
  0
LINE
  5
4A4B0
330
1F
100
AcDbEntity
  8
AM_0
100
AcDbLine
 10
4280.325840310424
 20
1693.777693817641
 30
0.0
 11
4390.325840310423
 21
1693.777693817641
 31
0.0
  0
TEXT
  5
4A4B1
330
1F
100
AcDbEntity
  8
AM_6
100
AcDbText
 10
4285.982840310423
 20
1695.427693817641
 30
0.0
 40
3.2
  1
備  考
 41
0.85537027
100
AcDbText
  0
MTEXT
  5
4A4B2
330
1F
100
AcDbEntity
  8
AM_6
100
AcDbMText
 10
4300.325840310423
 20
1697.027693817641
 30
0.0
 40
3.2
 41
90.0
 71
     4
 72
     5
  1
　適用フロア厚15mm～25mm
 73
     1
 44
1.0
1001
ACAD
1000
MTEXTBEGIN
1070
    73
1070
     1
1070
    44
1040
1.0
1070
    74
1070
     0
1000
MTEXTEND
  0
ENDSEC
  0
SECTION
  2
OBJECTS
  0
DICTIONARY
  5
C
330
0
100
AcDbDictionary
281
     1
  3
ACAD_COLOR
350
C45B
  3
ACAD_GROUP
350
D
  3
ACAD_LAYOUT
350
1A
  3
ACAD_MATERIAL
350
C446
  3
ACAD_MLEADERSTYLE
350
CB0A
  3
ACAD_MLINESTYLE
350
17
  3
ACAD_PLOTSETTINGS
350
19
  3
ACAD_PLOTSTYLENAME
350
E
  3
ACAD_SCALELIST
350
CAE8
  3
ACAD_TABLESTYLE
350
C45C
  3
ACAD_VISUALSTYLE
350
C44A
  3
AcAsAppObject
350
3DA1
  3
ACASGREF_MASTER
350
3DE9
  3
ACDB_RECOMPOSE_DATA
350
DB56
  3
AcDbVariableDictionary
350
34
  3
AcmDictionary
350
47
  3
AD_GREF_MODULE
350
3DEA
  3
AD_MAPI_MODULE
350
3E06
  3
AMG
350
2B
  3
AMGSNAPSETTINGS
350
7D
  3
ASE_INDEX_DICTIONARY
350
FF98
  3
DWGPROPS
350
4A520
  3
MAPISURF_MODULE
350
3DEB
  0
DICTIONARY
  5
3F95
330
2
100
AcDbDictionary
280
     1
281
     1
  3
ACAD_LAYERFILTERS
360
2F7FD
  3
ACAD_LAYERSTATES
360
3F96
  3
ACLYDICTIONARY
360
2F7FC
  3
AMLAYER_GROUPCOLORS
360
183EA
  0
DICTIONARY
  5
DB24
330
10
100
AcDbDictionary
280
     1
281
     1
  3
ADSK_XREC_LAYER_RECONCILED
360
DB25
  0
DICTIONARY
  5
DB26
330
A46
100
AcDbDictionary
280
     1
281
     1
  3
ADSK_XREC_LAYER_RECONCILED
360
DB27
  0
DICTIONARY
  5
DB28
330
A47
100
AcDbDictionary
280
     1
281
     1
  3
ADSK_XREC_LAYER_RECONCILED
360
DB29
  0
DICTIONARY
  5
DB2A
330
A48
100
AcDbDictionary
280
     1
281
     1
  3
ADSK_XREC_LAYER_RECONCILED
360
DB2B
  0
DICTIONARY
  5
DB34
330
5F85
100
AcDbDictionary
280
     1
281
     1
  3
ADSK_XREC_LAYER_RECONCILED
360
DB35
  0
DICTIONARY
  5
DB42
330
BFAB
100
AcDbDictionary
280
     1
281
     1
  3
ADSK_XREC_LAYER_RECONCILED
360
DB43
  0
DICTIONARY
  5
2B5D5
330
2B5D4
100
AcDbDictionary
280
     1
281
     1
  3
ADSK_XREC_LAYER_RECONCILED
360
2B5D6
  0
DICTIONARY
  5
4925A
330
49259
100
AcDbDictionary
280
     1
281
     1
  0
DICTIONARY
  5
8A
330
1F
100
AcDbDictionary
280
     1
281
     1
  3
ACAD_SORTENTS
360
17CB5
  0
DICTIONARY
  5
49B90
330
49B8F
100
AcDbDictionary
280
     1
281
     1
  3
ACAD_DIMASSOC
360
49B91
  0
DICTIONARY
  5
49C62
330
49C61
100
AcDbDictionary
280
     1
281
     1
  3
ACAD_DIMASSOC
360
49C63
  0
DICTIONARY
  5
49C65
330
49C64
100
AcDbDictionary
280
     1
281
     1
  3
ACAD_DIMASSOC
360
49C66
  0
DICTIONARY
  5
C45B
102
{ACAD_REACTORS
330
C
102
}
330
C
100
AcDbDictionary
281
     1
  0
DICTIONARY
  5
D
102
{ACAD_REACTORS
330
C
102
}
330
C
100
AcDbDictionary
281
     1
  0
DICTIONARY
  5
1A
102
{ACAD_REACTORS
330
C
102
}
330
C
100
AcDbDictionary
281
     1
  3
Model
350
22
  3
ﾚｲｱｳﾄ1
350
1E
  3
ﾚｲｱｳﾄ2
350
26
  0
DICTIONARY
  5
C446
102
{ACAD_REACTORS
330
C
102
}
330
C
100
AcDbDictionary
281
     1
  3
ByBlock
350
C448
  3
ByLayer
350
C447
  3
Global
350
C449
  0
DICTIONARY
  5
CB0A
102
{ACAD_REACTORS
330
C
102
}
330
C
100
AcDbDictionary
281
     1
  3
Standard
350
CB0B
  0
DICTIONARY
  5
17
102
{ACAD_REACTORS
330
C
102
}
330
C
100
AcDbDictionary
281
     1
  3
Standard
350
18
  0
DICTIONARY
  5
19
102
{ACAD_REACTORS
330
C
102
}
330
C
100
AcDbDictionary
281
     1
  3
-00
350
C85D
  0
ACDBDICTIONARYWDFLT
  5
E
102
{ACAD_REACTORS
330
C
102
}
330
C
100
AcDbDictionary
281
     1
  3
Normal
350
F
100
AcDbDictionaryWithDefault
340
F
  0
DICTIONARY
  5
CAE8
102
{ACAD_REACTORS
330
C
102
}
330
C
100
AcDbDictionary
281
     1
  3
*A1
350
4925B
  3
A0
350
CAE9
  3
A1
350
CAEA
  3
A2
350
CAEB
  3
A3
350
CAEC
  3
A4
350
CAED
  3
A5
350
CAEE
  3
A6
350
CAEF
  3
A7
350
CAF0
  3
A8
350
CAF1
  3
A9
350
CAF2
  3
B0
350
CAF3
  3
B1
350
CAF4
  3
B2
350
CAF5
  3
B3
350
CAF6
  3
B4
350
CAF7
  3
B5
350
CAF8
  3
B6
350
CAF9
  3
B7
350
CAFA
  3
B8
350
CAFB
  3
B9
350
CAFC
  3
C0
350
CAFD
  3
C1
350
CAFE
  3
C2
350
CAFF
  3
C3
350
CB00
  3
C4
350
CB01
  3
C5
350
CB02
  3
C6
350
CB03
  3
C7
350
CB04
  3
C8
350
CB05
  3
C9
350
CB06
  3
D0
350
CB07
  3
D1
350
CB08
  3
D2
350
CB09
  0
DICTIONARY
  5
C45C
102
{ACAD_REACTORS
330
C
102
}
330
C
100
AcDbDictionary
281
     1
  3
Standard
350
C45D
  0
DICTIONARY
  5
C44A
102
{ACAD_REACTORS
330
C
102
}
330
C
100
AcDbDictionary
281
     1
  3
2dWireframe
350
C450
  3
3D Hidden
350
C452
  3
3dWireframe
350
C451
  3
Basic
350
C44F
  3
Brighten
350
C456
  3
ColorChange
350
C45A
  3
Conceptual
350
C453
  3
Dim
350
C455
  3
Facepattern
350
C459
  3
Flat
350
C44B
  3
FlatWithEdges
350
C44C
  3
Gouraud
350
C44D
  3
GouraudWithEdges
350
C44E
  3
Linepattern
350
C458
  3
Realistic
350
C454
  3
Thicken
350
C457
  0
ACAD_PROXY_OBJECT
  5
3DA1
102
{ACAD_REACTORS
330
C
102
}
330
C
100
AcDbProxyObject
 90
      499
 91
      576
 95
   720919
 70
     0
 93
       10
310
407F
 94
        0
1001
ACAD
1000
AcRTDxfName
1000
ASAPP
  0
ACAD_PROXY_OBJECT
  5
3DE9
102
{ACAD_REACTORS
330
C
102
}
330
C
100
AcDbProxyObject
 90
      499
 91
      581
 95
   720919
 70
     0
 93
       34
310
010000407F
 94
        0
1001
ACAD
1000
AcRTDxfName
1000
ACASGREFMASTER
  0
XRECORD
  5
DB56
102
{ACAD_REACTORS
330
C
102
}
330
C
100
AcDbXrecord
280
     1
 90
        1
330
C45D
  0
DICTIONARY
  5
34
102
{ACAD_REACTORS
330
C
102
}
330
C
100
AcDbDictionary
281
     1
  3
CANNOSCALE
350
DB59
  3
CMLEADERSTYLE
350
DB57
  3
CTABLESTYLE
350
C4A2
  3
DIMASSOC
350
AC85
  3
INDEXCTL
350
35
  3
LIGHTINGUNITS
350
DB5A
  3
MSLTSCALE
350
DB58
  3
SORTENTS
350
194C
  0
DICTIONARY
  5
47
102
{ACAD_REACTORS
330
C
102
}
330
C
100
AcDbDictionary
281
     1
  3
AcmBOM
350
7E8
  3
AcmStdDictionary
350
4C
  3
AMDTSECTSYM_ARROWCOLOR
350
C487
  0
ACAD_PROXY_OBJECT
  5
3DEA
102
{ACAD_REACTORS
330
C
102
}
330
C
100
AcDbProxyObject
 90
      499
 91
      582
 95
   720919
 70
     0
 93
      114
310
00000043800000000000000000003F
 94
        0
1001
ACAD
1000
AcRTDxfName
1000
ACADGREFMODULE
  0
ACAD_PROXY_OBJECT
  5
3E06
102
{ACAD_REACTORS
330
C
102
}
330
C
100
AcDbProxyObject
 90
      499
 91
      594
 95
   720919
 70
     0
 93
       34
310
05000044FF
 94
        0
1001
ACAD
1000
AcRTDxfName
1000
MAPIADMODULE
  0
DICTIONARY
  5
2B
102
{ACAD_REACTORS
330
C
102
}
330
C
100
AcDbDictionary
281
     1
  0
DICTIONARY
  5
7D
102
{ACAD_REACTORS
330
C
102
}
330
C
100
AcDbDictionary
281
     1
  0
DICTIONARY
  5
FF98
102
{ACAD_REACTORS
330
C
102
}
330
C
100
AcDbDictionary
281
     1
  3
ASEBlockHierarchyIndexRecord
350
FF99
1001
DCO15
1040
1674818211.192
  0
XRECORD
  5
4A520
102
{ACAD_REACTORS
330
C
102
}
330
C
100
AcDbXrecord
280
     1
  1
DWGPROPS COOKIE
  2

  3

  4

  6

  7

  8
Administrator
  9

300
AmdtFileType=84
301
=
302
=
303
=
304
=
305
=
306
=
307
=
308
=
309
=
 40
12.53558886574074
 41
2452002.615067627
 42
2456652.395476701
  1

 90
        1
  0
ACAD_PROXY_OBJECT
  5
3DEB
102
{ACAD_REACTORS
330
C
102
}
330
C
100
AcDbProxyObject
 90
      499
 91
      583
 95
   720919
 70
     0
 93
        8
310
047E
 94
        0
1001
ACAD
1000
AcRTDxfName
1000
AMDTMAPISURFMOUDULE
  0
DICTIONARY
  5
2F7FD
102
{ACAD_REACTORS
330
3F95
102
}
330
3F95
100
AcDbDictionary
281
     1
  3
50
350
2F7FF
  0
DICTIONARY
  5
3F96
102
{ACAD_REACTORS
330
3F95
102
}
330
3F95
100
AcDbDictionary
281
     1
  3
20011210
350
3FB7
  0
DICTIONARY
  5
2F7FC
102
{ACAD_REACTORS
330
3F95
102
}
330
3F95
100
AcDbDictionary
281
     1
  3
*A1
350
2F7FE
1001
ACAD
1000
<All
  0
DICTIONARY
  5
183EA
102
{ACAD_REACTORS
330
3F95
102
}
330
3F95
100
AcDbDictionary
280
     1
281
     1
  0
XRECORD
  5
DB25
102
{ACAD_REACTORS
330
DB24
102
}
330
DB24
100
AcDbXrecord
280
     1
290
     1
  0
XRECORD
  5
DB27
102
{ACAD_REACTORS
330
DB26
102
}
330
DB26
100
AcDbXrecord
280
     1
290
     1
  0
XRECORD
  5
DB29
102
{ACAD_REACTORS
330
DB28
102
}
330
DB28
100
AcDbXrecord
280
     1
290
     1
  0
XRECORD
  5
DB2B
102
{ACAD_REACTORS
330
DB2A
102
}
330
DB2A
100
AcDbXrecord
280
     1
290
     1
  0
XRECORD
  5
DB35
102
{ACAD_REACTORS
330
DB34
102
}
330
DB34
100
AcDbXrecord
280
     1
290
     1
  0
XRECORD
  5
DB43
102
{ACAD_REACTORS
330
DB42
102
}
330
DB42
100
AcDbXrecord
280
     1
290
     1
  0
XRECORD
  5
2B5D6
102
{ACAD_REACTORS
330
2B5D5
102
}
330
2B5D5
100
AcDbXrecord
280
     1
290
     1
  0
SORTENTSTABLE
  5
17CB5
102
{ACAD_REACTORS
330
8A
102
}
330
8A
100
AcDbSortentsTable
330
1F
331
25DE0
  5
25ECB
331
22BD1
  5
23076
331
22A8C
  5
22C26
331
25DE8
  5
25ECF
331
22BD9
  5
2307A
331
25DF0
  5
25ED3
331
22BE1
  5
2307F
331
25DF8
  5
25ED7
331
22BB4
  5
22C2E
331
49162
  5
437DA
331
25E00
  5
25EDB
331
25E08
  5
25EDF
331
25E10
  5
25EE3
331
49163
  5
437DB
331
22BBD
  5
22C34
331
22BC5
  5
23070
331
22BCD
  5
23074
331
25DD2
  5
25EBF
331
25DDA
  5
25EC7
331
25DE2
  5
25ECC
331
22BD3
  5
23077
331
25DEA
  5
25ED0
331
22BDB
  5
2307B
331
25DF2
  5
25ED4
331
22BE3
  5
23080
331
25DFA
  5
25ED8
331
22BB6
  5
22C30
331
25E02
  5
25EDC
331
25E0A
  5
25EE0
331
25DDB
  5
25EC8
331
22A47
  5
22C24
331
22BBF
  5
22C36
331
22BC7
  5
23071
331
25E13
  5
25EE5
331
22BCF
  5
23075
331
25DD4
  5
25EC1
331
25DDC
  5
25EC9
331
25DE4
  5
25ECD
331
22BD5
  5
23078
331
25DEC
  5
25ED1
331
22BDD
  5
2307C
331
22BA8
  5
22C2A
331
25DF4
  5
25ED5
331
22BE5
  5
23081
331
25DFC
  5
25ED9
331
25E04
  5
25EDD
331
25E0C
  5
25EE1
331
22B11
  5
22C28
331
25AEE
  5
25B08
331
4915F
  5
437D5
331
22BB9
  5
22C32
331
22BC1
  5
22C38
331
25C1E
  5
25C83
331
22BC9
  5
23072
331
25DD6
  5
25EC3
331
25DDE
  5
25ECA
331
25DE6
  5
25ECE
331
22BD7
  5
23079
331
25DEE
  5
25ED2
331
22BDF
  5
2307E
331
25DF6
  5
25ED6
331
22BB2
  5
22C2C
331
25DFE
  5
25EDA
331
25E06
  5
25EDE
331
25E0E
  5
25EE2
331
25DD7
  5
25EC4
331
49161
  5
437D9
331
22BC3
  5
22C3A
331
22BCB
  5
23073
331
25DD0
  5
25EB9
331
25DD8
  5
25EC5
  0
DIMASSOC
  5
49B91
102
{ACAD_REACTORS
330
49B90
102
}
330
49B90
100
AcDbDimAssoc
330
49B8F
 90
        2
 70
     0
 71
     0
  1
AcDbOsnapPointRef
 72
     3
331
49B8A
 73
     2
 91
        0
 40
0.0
 10
0.0
 20
0.0
 30
0.0
 75
     0
  0
DIMASSOC
  5
49C63
102
{ACAD_REACTORS
330
49C62
102
}
330
49C62
100
AcDbDimAssoc
330
49C61
 90
        3
 70
     0
 71
     0
  1
AcDbOsnapPointRef
 72
    11
331
49C2B
 73
     0
 91
        0
 40
0.999999999999909
 10
0.0
 20
0.0
 30
0.0
332
49C2C
 74
     0
 92
        0
 75
     0
  1
AcDbOsnapPointRef
 72
     8
331
49C2D
 73
     0
 91
        0
 40
1.0
 10
0.0
 20
0.0
 30
0.0
 75
     1
  1
AcDbOsnapPointRef
 72
    11
331
49C2B
 73
     0
 91
        0
 40
0.999999999999909
 10
0.0
 20
0.0
 30
0.0
332
49C2C
 74
     0
 92
        0
 75
     0
  0
DIMASSOC
  5
49C66
102
{ACAD_REACTORS
330
49C65
102
}
330
49C65
100
AcDbDimAssoc
330
49C64
 90
        3
 70
     0
 71
     0
  1
AcDbOsnapPointRef
 72
    13
331
49C29
 73
     0
 91
        0
 40
0.0
 10
0.0
 20
0.0
 30
2.000000000000000E+50
 75
     0
  1
AcDbOsnapPointRef
 72
     1
331
49C2F
 73
     0
 91
        0
 40
0.0
 10
0.0
 20
0.0
 30
2.000000000000000E+50
 75
     0
  0
LAYOUT
  5
22
102
{ACAD_XDICTIONARY
360
4A523
102
}
102
{ACAD_REACTORS
330
1A
102
}
330
1A
100
AcDbPlotSettings
  1

  2
Adobe PDF
  4
A4
  6
AM_VIEW1
 40
3.174999952316284
 41
3.174999952316284
 42
3.175003051757812
 43
3.17498779296875
 44
209.9733276367187
 45
297.0318298339844
 46
-3.188337683677673
 47
-3.159078955650329
 48
3873.98570860303
 49
1297.522907928998
140
4170.985708603029
141
1507.522907928998
142
1.0
143
1.0
 70
 11940
 72
     1
 73
     1
 74
     4
  7
monochrome.ctb
 75
     0
147
0.9532055446079798
148
-3873.98570860303
149
-1297.522907928998
100
AcDbLayout
  1
Model
 70
     1
 71
     0
 10
0.0
 20
0.0
 11
12.0
 21
9.0
 12
0.0
 22
0.0
 32
0.0
 14
0.0
 24
0.0
 34
0.0
 15
0.0
 25
0.0
 35
0.0
146
0.0
 13
0.0
 23
0.0
 33
0.0
 16
1.0
 26
0.0
 36
0.0
 17
0.0
 27
1.0
 37
0.0
 76
     0
330
1F
331
C444
1001
ACAD_PSEXT
1000
Adobe PDF
1000
Adobe PDF Converter
1000
My Documents\*.pdf
1000

1070
     0
  0
LAYOUT
  5
1E
102
{ACAD_XDICTIONARY
360
4A521
102
}
102
{ACAD_REACTORS
330
1A
102
}
330
1A
100
AcDbPlotSettings
  1

  2
\\ML370\XEROX
  4
A4
  6

 40
3.174999952316284
 41
3.174999952316284
 42
3.175003051757812
 43
3.17498779296875
 44
209.8674926757813
 45
296.6719970703125
 46
0.0
 47
0.0
 48
0.0
 49
0.0
140
0.0
141
0.0
142
1.0
143
1.0
 70
   688
 72
     1
 73
     1
 74
     5
  7
monochrome.ctb
 75
    16
147
1.0
148
0.0
149
0.0
100
AcDbLayout
  1
ﾚｲｱｳﾄ1
 70
     1
 71
     1
 10
-3.17498779296875
 20
-3.174999952316284
 11
293.4970092773438
 21
206.692492723465
 12
0.0
 22
0.0
 32
0.0
 14
1.000000000000000E+20
 24
1.000000000000000E+20
 34
1.000000000000000E+20
 15
-1.000000000000000E+20
 25
-1.000000000000000E+20
 35
-1.000000000000000E+20
146
0.0
 13
0.0
 23
0.0
 33
0.0
 16
1.0
 26
0.0
 36
0.0
 17
0.0
 27
1.0
 37
0.0
 76
     0
330
1B
  0
LAYOUT
  5
26
102
{ACAD_XDICTIONARY
360
4A525
102
}
102
{ACAD_REACTORS
330
1A
102
}
330
1A
100
AcDbPlotSettings
  1

  2
\\ML370\XEROX
  4

  6

 40
0.0
 41
0.0
 42
0.0
 43
0.0
 44
0.0
 45
0.0
 46
0.0
 47
0.0
 48
0.0
 49
0.0
140
0.0
141
0.0
142
1.0
143
1.0
 70
   688
 72
     0
 73
     0
 74
     5
  7
monochrome.ctb
 75
    16
147
1.0
148
0.0
149
0.0
100
AcDbLayout
  1
ﾚｲｱｳﾄ2
 70
     1
 71
     2
 10
0.0
 20
0.0
 11
12.0
 21
9.0
 12
0.0
 22
0.0
 32
0.0
 14
0.0
 24
0.0
 34
0.0
 15
0.0
 25
0.0
 35
0.0
146
0.0
 13
0.0
 23
0.0
 33
0.0
 16
1.0
 26
0.0
 36
0.0
 17
0.0
 27
1.0
 37
0.0
 76
     0
330
23
  0
MATERIAL
  5
C448
102
{ACAD_XDICTIONARY
360
4A529
102
}
102
{ACAD_REACTORS
330
C446
102
}
330
C446
100
AcDbMaterial
  1
ByBlock
  0
MATERIAL
  5
C447
102
{ACAD_XDICTIONARY
360
4A527
102
}
102
{ACAD_REACTORS
330
C446
102
}
330
C446
100
AcDbMaterial
  1
ByLayer
  0
MATERIAL
  5
C449
102
{ACAD_XDICTIONARY
360
4A52B
102
}
102
{ACAD_REACTORS
330
C446
102
}
330
C446
100
AcDbMaterial
  1
Global
  0
ACAD_PROXY_OBJECT
  5
CB0B
102
{ACAD_REACTORS
330
CB0A
102
}
330
CB0A
100
AcDbProxyObject
 90
      499
 91
      627
 95
   196635
 70
     0
 93
      817
310
40901902A40600000030400FEFFFFFF8000000000000008102B5E8DC0F42B5CFC0000000000001040405064068000000C1000000000000000410000000000000004102000000304015D94000000000000C03F4214C01D0018401B80190018401C80190028C00CC
340
14
340
0
340
11
340
0
 94
        0
1001
ACAD_MLEADERVER
1070
     2
1001
ACAD
1000
AcRTDxfName
1000
MLEADERSTYLE
  0
MLINESTYLE
  5
18
102
{ACAD_REACTORS
330
17
102
}
330
17
100
AcDbMlineStyle
  2
STANDARD
 70
     0
  3

 62
   256
 51
90.0
 52
90.0
 71
     2
 49
0.5
 62
   256
  6
BYLAYER
 49
-0.5
 62
   256
  6
BYLAYER
  0
PLOTSETTINGS
  5
C85D
102
{ACAD_XDICTIONARY
360
4A52E
102
}
102
{ACAD_REACTORS
330
19
102
}
330
19
100
AcDbPlotSettings
  1
-00
  2
RICOH imagio Wide 7040e RP-GL/2
  4
A3
  6
AM_VIEW1
 40
5.069416522979736
 41
7.228392601013183
 42
5.23870849609375
 43
7.05908203125
 44
419.9889831542968
 45
296.9683227539062
 46
-5.159570932388305
 47
-7.159575939178466
 48
347.0000006405867
 49
-0.0000003719120514
140
767.0000006405866
141
296.9999996280879
142
1.0
143
1.0
 70
 11956
 72
     1
 73
     0
 74
     4
  7
monochrome.ctb
 75
    16
147
1.0
148
-347.0000006405867
149
0.0000003719120514
1001
ACAD_PSEXT
1000
RICOH imagio Wide 7040e RP-GL/2
1000
RICOH imagio Wide 7040e RP-GL/2
1000
\\ADMINISTRATOR
1000
RP-GL/2 Driver (Windows 2000/XP/Server 2003)
1070
     0
  0
ACDBPLACEHOLDER
  5
F
102
{ACAD_REACTORS
330
E
102
}
330
E
  0
ACAD_PROXY_OBJECT
  5
4925B
102
{ACAD_REACTORS
330
CAE8
102
}
330
CAE8
100
AcDbProxyObject
 90
      499
 91
      626
 95
   196635
 70
     0
 93
      146
310
800000000000014404819A801D0018801D004C
 94
        0
1001
ACAD
1000
AcRTDxfName
1000
SCALE
  0
ACAD_PROXY_OBJECT
  5
CAE9
102
{ACAD_REACTORS
330
CAE8
102
}
330
CAE8
100
AcDbProxyObject
 90
      499
 91
      626
 95
   196635
 70
     0
 93
       82
310
968198801D0018801D004C
 94
        0
1001
ACAD
1000
AcRTDxfName
1000
SCALE
  0
ACAD_PROXY_OBJECT
  5
CAEA
102
{ACAD_REACTORS
330
CAE8
102
}
330
CAE8
100
AcDbProxyObject
 90
      499
 91
      626
 95
   196635
 70
     0
 93
      146
310
9000000000000001008198801D0019001D004C
 94
        0
1001
ACAD
1000
AcRTDxfName
1000
SCALE
  0
ACAD_PROXY_OBJECT
  5
CAEB
102
{ACAD_REACTORS
330
CAE8
102
}
330
CAE8
100
AcDbProxyObject
 90
      499
 91
      626
 95
   196635
 70
     0
 93
      146
310
9000000000000041008198801D001A001D004C
 94
        0
1001
ACAD
1000
AcRTDxfName
1000
SCALE
  0
ACAD_PROXY_OBJECT
  5
CAEC
102
{ACAD_REACTORS
330
CAE8
102
}
330
CAE8
100
AcDbProxyObject
 90
      499
 91
      626
 95
   196635
 70
     0
 93
      146
310
9000000000000051008198801D001A801D004C
 94
        0
1001
ACAD
1000
AcRTDxfName
1000
SCALE
  0
ACAD_PROXY_OBJECT
  5
CAED
102
{ACAD_REACTORS
330
CAE8
102
}
330
CAE8
100
AcDbProxyObject
 90
      499
 91
      626
 95
   196635
 70
     0
 93
      146
310
9000000000000081008198801D001C001D004C
 94
        0
1001
ACAD
1000
AcRTDxfName
1000
SCALE
  0
ACAD_PROXY_OBJECT
  5
CAEE
102
{ACAD_REACTORS
330
CAE8
102
}
330
CAE8
100
AcDbProxyObject
 90
      499
 91
      626
 95
   196635
 70
     0
 93
      162
310
9000000000000091008218801D001880180025004C
 94
        0
1001
ACAD
1000
AcRTDxfName
1000
SCALE
  0
ACAD_PROXY_OBJECT
  5
CAEF
102
{ACAD_REACTORS
330
CAE8
102
}
330
CAE8
100
AcDbProxyObject
 90
      499
 91
      626
 95
   196635
 70
     0
 93
      162
310
90000000000000C1008218801D0018801B0025004C
 94
        0
1001
ACAD
1000
AcRTDxfName
1000
SCALE
  0
ACAD_PROXY_OBJECT
  5
CAF0
102
{ACAD_REACTORS
330
CAE8
102
}
330
CAE8
100
AcDbProxyObject
 90
      499
 91
      626
 95
   196635
 70
     0
 93
      162
310
90000000000000D1008218801D001900180025004C
 94
        0
1001
ACAD
1000
AcRTDxfName
1000
SCALE
  0
ACAD_PROXY_OBJECT
  5
CAF1
102
{ACAD_REACTORS
330
CAE8
102
}
330
CAE8
100
AcDbProxyObject
 90
      499
 91
      626
 95
   196635
 70
     0
 93
      162
310
90000000000000F9008218801D001980180025004C
 94
        0
1001
ACAD
1000
AcRTDxfName
1000
SCALE
  0
ACAD_PROXY_OBJECT
  5
CAF2
102
{ACAD_REACTORS
330
CAE8
102
}
330
CAE8
100
AcDbProxyObject
 90
      499
 91
      626
 95
   196635
 70
     0
 93
      162
310
9000000000000111008218801D001A00180025004C
 94
        0
1001
ACAD
1000
AcRTDxfName
1000
SCALE
  0
ACAD_PROXY_OBJECT
  5
CAF3
102
{ACAD_REACTORS
330
CAE8
102
}
330
CAE8
100
AcDbProxyObject
 90
      499
 91
      626
 95
   196635
 70
     0
 93
      162
310
9000000000000125008218801D001A80180025004C
 94
        0
1001
ACAD
1000
AcRTDxfName
1000
SCALE
  0
ACAD_PROXY_OBJECT
  5
CAF4
102
{ACAD_REACTORS
330
CAE8
102
}
330
CAE8
100
AcDbProxyObject
 90
      499
 91
      626
 95
   196635
 70
     0
 93
      178
310
9000000000000165008298801D001880180018002D004C
 94
        0
1001
ACAD
1000
AcRTDxfName
1000
SCALE
  0
ACAD_PROXY_OBJECT
  5
CAF5
102
{ACAD_REACTORS
330
CAE8
102
}
330
CAE8
100
AcDbProxyObject
 90
      499
 91
      626
 95
   196635
 70
     0
 93
      146
310
8000000000000004048199001D0018801D004C
 94
        0
1001
ACAD
1000
AcRTDxfName
1000
SCALE
  0
ACAD_PROXY_OBJECT
  5
CAF6
102
{ACAD_REACTORS
330
CAE8
102
}
330
CAE8
100
AcDbProxyObject
 90
      499
 91
      626
 95
   196635
 70
     0
 93
      146
310
800000000000010404819A001D0018801D004C
 94
        0
1001
ACAD
1000
AcRTDxfName
1000
SCALE
  0
ACAD_PROXY_OBJECT
  5
CAF7
102
{ACAD_REACTORS
330
CAE8
102
}
330
CAE8
100
AcDbProxyObject
 90
      499
 91
      626
 95
   196635
 70
     0
 93
      146
310
800000000000020404819C001D0018801D004C
 94
        0
1001
ACAD
1000
AcRTDxfName
1000
SCALE
  0
ACAD_PROXY_OBJECT
  5
CAF8
102
{ACAD_REACTORS
330
CAE8
102
}
330
CAE8
100
AcDbProxyObject
 90
      499
 91
      626
 95
   196635
 70
     0
 93
      162
310
80000000000002440482188018001D00188025004C
 94
        0
1001
ACAD
1000
AcRTDxfName
1000
SCALE
  0
ACAD_PROXY_OBJECT
  5
CAF9
102
{ACAD_REACTORS
330
CAE8
102
}
330
CAE8
100
AcDbProxyObject
 90
      499
 91
      626
 95
   196635
 70
     0
 93
      178
310
800000000000059404829880180018001D0018802D004C
 94
        0
1001
ACAD
1000
AcRTDxfName
1000
SCALE
  0
ACAD_PROXY_OBJECT
  5
CAFA
102
{ACAD_REACTORS
330
CAE8
102
}
330
CAE8
100
AcDbProxyObject
 90
      499
 91
      626
 95
   196635
 70
     0
 93
      386
310
8000000000000803F0000000000000A1008718801780188019001C00110010001E8010001880138016801800110075004C
 94
        0
1001
ACAD
1000
AcRTDxfName
1000
SCALE
  0
ACAD_PROXY_OBJECT
  5
CAFB
102
{ACAD_REACTORS
330
CAE8
102
}
330
CAE8
100
AcDbProxyObject
 90
      499
 91
      626
 95
   196635
 70
     0
 93
      370
310
8000000000000903F0000000000000A10086988017801B001A00110010001E801000188013801680180011006D004C
 94
        0
1001
ACAD
1000
AcRTDxfName
1000
SCALE
  0
ACAD_PROXY_OBJECT
  5
CAFC
102
{ACAD_REACTORS
330
CAE8
102
}
330
CAE8
100
AcDbProxyObject
 90
      499
 91
      626
 95
   196635
 70
     0
 93
      370
310
8000000000000A03F0000000000000A100869880178019801900110010001E801000188013801680180011006D004C
 94
        0
1001
ACAD
1000
AcRTDxfName
1000
SCALE
  0
ACAD_PROXY_OBJECT
  5
CAFD
102
{ACAD_REACTORS
330
CAE8
102
}
330
CAE8
100
AcDbProxyObject
 90
      499
 91
      626
 95
   196635
 70
     0
 93
      370
310
8000000000000B03F0000000000000A100869880178018801B00110010001E801000188013801680180011006D004C
 94
        0
1001
ACAD
1000
AcRTDxfName
1000
SCALE
  0
ACAD_PROXY_OBJECT
  5
CAFE
102
{ACAD_REACTORS
330
CAE8
102
}
330
CAE8
100
AcDbProxyObject
 90
      499
 91
      626
 95
   196635
 70
     0
 93
      370
310
8000000000000B83F0000000000000A100869980178019801900110010001E801000188013801680180011006D004C
 94
        0
1001
ACAD
1000
AcRTDxfName
1000
SCALE
  0
ACAD_PROXY_OBJECT
  5
CAFF
102
{ACAD_REACTORS
330
CAE8
102
}
330
CAE8
100
AcDbProxyObject
 90
      499
 91
      626
 95
   196635
 70
     0
 93
      354
310
8000000000000C03F0000000000000A10086188017801C00110010001E8010001880138016801800110065004C
 94
        0
1001
ACAD
1000
AcRTDxfName
1000
SCALE
  0
ACAD_PROXY_OBJECT
  5
CB00
102
{ACAD_REACTORS
330
CAE8
102
}
330
CAE8
100
AcDbProxyObject
 90
      499
 91
      626
 95
   196635
 70
     0
 93
      370
310
8000000000000C83F0000000000000A100869980178018801B00110010001E801000188013801680180011006D004C
 94
        0
1001
ACAD
1000
AcRTDxfName
1000
SCALE
  0
ACAD_PROXY_OBJECT
  5
CB01
102
{ACAD_REACTORS
330
CAE8
102
}
330
CAE8
100
AcDbProxyObject
 90
      499
 91
      626
 95
   196635
 70
     0
 93
      354
310
8000000000000D03F0000000000000A10086188017801A00110010001E8010001880138016801800110065004C
 94
        0
1001
ACAD
1000
AcRTDxfName
1000
SCALE
  0
ACAD_PROXY_OBJECT
  5
CB02
102
{ACAD_REACTORS
330
CAE8
102
}
330
CAE8
100
AcDbProxyObject
 90
      499
 91
      626
 95
   196635
 70
     0
 93
      354
310
8000000000000D83F0000000000000A10086198017801C00110010001E8010001880138016801800110065004C
 94
        0
1001
ACAD
1000
AcRTDxfName
1000
SCALE
  0
ACAD_PROXY_OBJECT
  5
CB03
102
{ACAD_REACTORS
330
CAE8
102
}
330
CAE8
100
AcDbProxyObject
 90
      499
 91
      626
 95
   196635
 70
     0
 93
      354
310
8000000000000E03F0000000000000A10086188017801900110010001E8010001880138016801800110065004C
 94
        0
1001
ACAD
1000
AcRTDxfName
1000
SCALE
  0
ACAD_PROXY_OBJECT
  5
CB04
102
{ACAD_REACTORS
330
CAE8
102
}
330
CAE8
100
AcDbProxyObject
 90
      499
 91
      626
 95
   196635
 70
     0
 93
      354
310
8000000000000E83F0000000000000A10086198017801A00110010001E8010001880138016801800110065004C
 94
        0
1001
ACAD
1000
AcRTDxfName
1000
SCALE
  0
ACAD_PROXY_OBJECT
  5
CB05
102
{ACAD_REACTORS
330
CAE8
102
}
330
CAE8
100
AcDbProxyObject
 90
      499
 91
      626
 95
   196635
 70
     0
 93
      258
310
90000000000000A100851880110010001E8010001880138016801800110055004C
 94
        0
1001
ACAD
1000
AcRTDxfName
1000
SCALE
  0
ACAD_PROXY_OBJECT
  5
CB06
102
{ACAD_REACTORS
330
CAE8
102
}
330
CAE8
100
AcDbProxyObject
 90
      499
 91
      626
 95
   196635
 70
     0
 93
      386
310
8000000000000F83F0000000000000A1008718801680188017801900110010001E8010001880138016801800110075004C
 94
        0
1001
ACAD
1000
AcRTDxfName
1000
SCALE
  0
ACAD_PROXY_OBJECT
  5
CB07
102
{ACAD_REACTORS
330
CAE8
102
}
330
CAE8
100
AcDbProxyObject
 90
      499
 91
      626
 95
   196635
 70
     0
 93
      322
310
800000000000008400000000000000A100851980110010001E8010001880138016801800110055004C
 94
        0
1001
ACAD
1000
AcRTDxfName
1000
SCALE
  0
ACAD_PROXY_OBJECT
  5
CB08
102
{ACAD_REACTORS
330
CAE8
102
}
330
CAE8
100
AcDbProxyObject
 90
      499
 91
      626
 95
   196635
 70
     0
 93
      322
310
800000000000018400000000000000A100851B00110010001E8010001880138016801800110055004C
 94
        0
1001
ACAD
1000
AcRTDxfName
1000
SCALE
  0
ACAD_PROXY_OBJECT
  5
CB09
102
{ACAD_REACTORS
330
CAE8
102
}
330
CAE8
100
AcDbProxyObject
 90
      499
 91
      626
 95
   196635
 70
     0
 93
      370
310
800000000000028400000000000000A100869880138016801800110010001E801000188013801680180011006D004C
 94
        0
1001
ACAD
1000
AcRTDxfName
1000
SCALE
  0
TABLESTYLE
  5
C45D
102
{ACAD_XDICTIONARY
360
DB54
102
}
102
{ACAD_REACTORS
330
C45C
102
}
330
C45C
100
AcDbTableStyle
  3
Standard
 70
     0
 71
     0
 40
1.5
 41
1.5
280
     0
281
     0
  7
STANDARD
140
4.5
170
     2
 62
     0
 63
     7
283
     0
274
    -2
284
     1
 64
     0
275
    -2
285
     1
 65
     0
276
    -2
286
     1
 66
     0
277
    -2
287
     1
 67
     0
278
    -2
288
     1
 68
     0
279
    -2
289
     1
 69
     0
  7
STANDARD
140
6.0
170
     5
 62
     0
 63
     7
283
     0
274
    -2
284
     1
 64
     0
275
    -2
285
     1
 65
     0
276
    -2
286
     1
 66
     0
277
    -2
287
     1
 67
     0
278
    -2
288
     1
 68
     0
279
    -2
289
     1
 69
     0
  7
STANDARD
140
4.5
170
     5
 62
     0
 63
     7
283
     0
274
    -2
284
     1
 64
     0
275
    -2
285
     1
 65
     0
276
    -2
286
     1
 66
     0
277
    -2
287
     1
 67
     0
278
    -2
288
     1
 68
     0
279
    -2
289
     1
 69
     0
  0
VISUALSTYLE
  5
C450
102
{ACAD_REACTORS
330
C44A
102
}
330
C44A
100
AcDbVisualStyle
  2
2dWireframe
 70
     4
 71
     0
 72
     2
 73
     0
 90
        0
 40
-0.6
 41
-30.0
 62
     5
 63
     7
 74
     1
 91
        4
 64
     7
 65
   257
 75
     1
175
     1
 42
1.0
 92
        0
 66
   257
 43
1.0
 76
     1
 77
     6
 78
     2
 67
     7
 79
     5
170
     0
171
     0
290
     0
174
     0
 93
        1
 44
0.0
173
     0
291
     0
 45
0.0
1001
ACAD
1000
AcDbSavedByObjectVersion
1070
     0
  0
VISUALSTYLE
  5
C452
102
{ACAD_REACTORS
330
C44A
102
}
330
C44A
100
AcDbVisualStyle
  2
3D Hidden
 70
     6
 71
     1
 72
     2
 73
     2
 90
        0
 40
-0.6
 41
-30.0
 62
     5
 63
     7
 74
     2
 91
        2
 64
     7
 65
   257
 75
     2
175
     1
 42
40.0
 92
        0
 66
   257
 43
1.0
 76
     1
 77
     6
 78
     2
 67
     7
 79
     3
170
     0
171
     0
290
     0
174
     0
 93
        1
 44
0.0
173
     0
291
     0
 45
0.0
1001
ACAD
1000
AcDbSavedByObjectVersion
1070
     0
  0
VISUALSTYLE
  5
C451
102
{ACAD_REACTORS
330
C44A
102
}
330
C44A
100
AcDbVisualStyle
  2
3dWireframe
 70
     5
 71
     0
 72
     2
 73
     0
 90
        0
 40
-0.6
 41
-30.0
 62
     5
 63
     7
 74
     1
 91
        4
 64
     7
 65
   257
 75
     1
175
     1
 42
1.0
 92
        0
 66
   257
 43
1.0
 76
     1
 77
     6
 78
     2
 67
     7
 79
     5
170
     0
171
     0
290
     0
174
     0
 93
        1
 44
0.0
173
     0
291
     0
 45
0.0
1001
ACAD
1000
AcDbSavedByObjectVersion
1070
     0
  0
VISUALSTYLE
  5
C44F
102
{ACAD_REACTORS
330
C44A
102
}
330
C44A
100
AcDbVisualStyle
  2
Basic
 70
     7
 71
     1
 72
     0
 73
     1
 90
        0
 40
-0.6
 41
-30.0
 62
     5
 63
     7
 74
     0
 91
        4
 64
     7
 65
   257
 75
     1
175
     1
 42
1.0
 92
        8
 66
     7
 43
1.0
 76
     1
 77
     6
 78
     2
 67
     7
 79
     5
170
     0
171
     0
290
     0
174
     0
 93
        1
 44
0.0
173
     0
291
     1
 45
0.0
1001
ACAD
1000
AcDbSavedByObjectVersion
1070
     0
  0
VISUALSTYLE
  5
C456
102
{ACAD_REACTORS
330
C44A
102
}
330
C44A
100
AcDbVisualStyle
  2
Brighten
 70
    12
 71
     2
 72
     2
 73
     0
 90
        0
 40
-0.6
 41
-30.0
 62
     5
 63
     7
 74
     1
 91
        4
 64
     7
 65
   257
 75
     1
175
     1
 42
1.0
 92
        8
 66
     7
 43
1.0
 76
     1
 77
     6
 78
     2
 67
     7
 79
     5
170
     0
171
     0
290
     0
174
     0
 93
        1
 44
50.0
173
     0
291
     1
 45
0.0
1001
ACAD
1000
AcDbSavedByObjectVersion
1070
     0
  0
VISUALSTYLE
  5
C45A
102
{ACAD_REACTORS
330
C44A
102
}
330
C44A
100
AcDbVisualStyle
  2
ColorChange
 70
    16
 71
     2
 72
     2
 73
     3
 90
        0
 40
-0.6
 41
-30.0
 62
     5
 63
     8
 74
     1
 91
        4
 64
     7
 65
   257
 75
     1
175
     1
 42
1.0
 92
        8
 66
     8
 43
1.0
 76
     1
 77
     6
 78
     2
 67
     7
 79
     5
170
     0
171
     0
290
     0
174
     0
 93
        1
 44
0.0
173
     0
291
     1
 45
0.0
1001
ACAD
1000
AcDbSavedByObjectVersion
1070
     0
  0
VISUALSTYLE
  5
C453
102
{ACAD_REACTORS
330
C44A
102
}
330
C44A
100
AcDbVisualStyle
  2
Conceptual
 70
     9
 71
     3
 72
     2
 73
     0
 90
        0
 40
-0.6
 41
-30.0
 62
     5
 63
     7
 74
     2
 91
        2
 64
     7
 65
   257
 75
     1
175
     1
 42
40.0
 92
        8
 66
     7
 43
1.0
 76
     1
 77
     6
 78
     2
 67
     7
 79
     3
170
     0
171
     0
290
     0
174
     0
 93
        1
 44
0.0
173
     0
291
     0
 45
0.0
1001
ACAD
1000
AcDbSavedByObjectVersion
1070
     0
  0
VISUALSTYLE
  5
C455
102
{ACAD_REACTORS
330
C44A
102
}
330
C44A
100
AcDbVisualStyle
  2
Dim
 70
    11
 71
     2
 72
     2
 73
     0
 90
        0
 40
-0.6
 41
-30.0
 62
     5
 63
     7
 74
     1
 91
        4
 64
     7
 65
   257
 75
     1
175
     1
 42
1.0
 92
        8
 66
     7
 43
1.0
 76
     1
 77
     6
 78
     2
 67
     7
 79
     5
170
     0
171
     0
290
     0
174
     0
 93
        1
 44
-50.0
173
     0
291
     1
 45
0.0
1001
ACAD
1000
AcDbSavedByObjectVersion
1070
     0
  0
VISUALSTYLE
  5
C459
102
{ACAD_REACTORS
330
C44A
102
}
330
C44A
100
AcDbVisualStyle
  2
Facepattern
 70
    15
 71
     2
 72
     2
 73
     0
 90
        0
 40
-0.6
 41
-30.0
 62
     5
 63
     7
 74
     1
 91
        4
 64
     7
 65
   257
 75
     1
175
     1
 42
1.0
 92
        8
 66
     7
 43
1.0
 76
     1
 77
     6
 78
     2
 67
     7
 79
     5
170
     0
171
     0
290
     0
174
     0
 93
        1
 44
0.0
173
     0
291
     1
 45
0.0
1001
ACAD
1000
AcDbSavedByObjectVersion
1070
     0
  0
VISUALSTYLE
  5
C44B
102
{ACAD_REACTORS
330
C44A
102
}
330
C44A
100
AcDbVisualStyle
  2
Flat
 70
     0
 71
     2
 72
     1
 73
     1
 90
        2
 40
-0.6
 41
30.0
 62
     5
 63
     7
 74
     0
 91
        4
 64
     7
 65
   257
 75
     1
175
     1
 42
1.0
 92
        8
 66
     7
 43
1.0
 76
     1
 77
     6
 78
     2
 67
     7
 79
     5
170
     0
171
     0
290
     0
174
     0
 93
       13
 44
0.0
173
     0
291
     1
 45
0.0
1001
ACAD
1000
AcDbSavedByObjectVersion
1070
     0
  0
VISUALSTYLE
  5
C44C
102
{ACAD_REACTORS
330
C44A
102
}
330
C44A
100
AcDbVisualStyle
  2
FlatWithEdges
 70
     1
 71
     2
 72
     1
 73
     1
 90
        2
 40
-0.6
 41
30.0
 62
     5
 63
     7
 74
     1
 91
        4
 64
     7
 65
   257
 75
     1
175
     1
 42
1.0
 92
        0
 66
   257
 43
1.0
 76
     1
 77
     6
 78
     2
 67
     7
 79
     5
170
     0
171
     0
290
     0
174
     0
 93
       13
 44
0.0
173
     0
291
     1
 45
0.0
1001
ACAD
1000
AcDbSavedByObjectVersion
1070
     0
  0
VISUALSTYLE
  5
C44D
102
{ACAD_REACTORS
330
C44A
102
}
330
C44A
100
AcDbVisualStyle
  2
Gouraud
 70
     2
 71
     2
 72
     2
 73
     1
 90
        2
 40
-0.6
 41
30.0
 62
     5
 63
     7
 74
     0
 91
        4
 64
     7
 65
   257
 75
     1
175
     1
 42
1.0
 92
        0
 66
     7
 43
1.0
 76
     1
 77
     6
 78
     2
 67
     7
 79
     5
170
     0
171
     0
290
     0
174
     0
 93
       13
 44
0.0
173
     0
291
     1
 45
0.0
1001
ACAD
1000
AcDbSavedByObjectVersion
1070
     0
  0
VISUALSTYLE
  5
C44E
102
{ACAD_REACTORS
330
C44A
102
}
330
C44A
100
AcDbVisualStyle
  2
GouraudWithEdges
 70
     3
 71
     2
 72
     2
 73
     1
 90
        2
 40
-0.6
 41
30.0
 62
     5
 63
     7
 74
     1
 91
        4
 64
     7
 65
   257
 75
     1
175
     1
 42
1.0
 92
        0
 66
   257
 43
1.0
 76
     1
 77
     6
 78
     2
 67
     7
 79
     5
170
     0
171
     0
290
     0
174
     0
 93
       13
 44
0.0
173
     0
291
     1
 45
0.0
1001
ACAD
1000
AcDbSavedByObjectVersion
1070
     0
  0
VISUALSTYLE
  5
C458
102
{ACAD_REACTORS
330
C44A
102
}
330
C44A
100
AcDbVisualStyle
  2
Linepattern
 70
    14
 71
     2
 72
     2
 73
     0
 90
        0
 40
-0.6
 41
-30.0
 62
     5
 63
     7
 74
     1
 91
        4
 64
     7
 65
   257
 75
     7
175
     7
 42
1.0
 92
        8
 66
     7
 43
1.0
 76
     1
 77
     6
 78
     2
 67
     7
 79
     5
170
     0
171
     0
290
     0
174
     0
 93
        1
 44
0.0
173
     0
291
     1
 45
0.0
1001
ACAD
1000
AcDbSavedByObjectVersion
1070
     0
  0
VISUALSTYLE
  5
C454
102
{ACAD_REACTORS
330
C44A
102
}
330
C44A
100
AcDbVisualStyle
  2
Realistic
 70
     8
 71
     2
 72
     2
 73
     0
 90
        0
 40
-0.6
 41
-30.0
 62
     5
 63
     7
 74
     1
 91
        0
 64
     7
 65
   257
 75
     1
175
     1
 42
1.0
 92
        8
 66
     8
 43
1.0
 76
     1
 77
     6
 78
     2
 67
     7
 79
     5
170
     0
171
     0
290
     0
174
     0
 93
       13
 44
0.0
173
     0
291
     0
 45
0.0
1001
ACAD
1000
AcDbSavedByObjectVersion
1070
     0
  0
VISUALSTYLE
  5
C457
102
{ACAD_REACTORS
330
C44A
102
}
330
C44A
100
AcDbVisualStyle
  2
Thicken
 70
    13
 71
     2
 72
     2
 73
     0
 90
        0
 40
-0.6
 41
-30.0
 62
     5
 63
     7
 74
     1
 91
        4
 64
     7
 65
   257
 75
     1
175
     1
 42
1.0
 92
       12
 66
     7
 43
1.0
 76
     1
 77
     6
 78
     2
 67
     7
 79
     5
170
     0
171
     0
290
     0
174
     0
 93
        1
 44
0.0
173
     0
291
     1
 45
0.0
1001
ACAD
1000
AcDbSavedByObjectVersion
1070
     0
  0
DICTIONARYVAR
  5
DB59
102
{ACAD_REACTORS
330
34
102
}
330
34
100
DictionaryVariables
280
     0
  1
1:1
  0
DICTIONARYVAR
  5
DB57
102
{ACAD_REACTORS
330
34
102
}
330
34
100
DictionaryVariables
280
     0
  1
STANDARD
  0
DICTIONARYVAR
  5
C4A2
102
{ACAD_REACTORS
330
34
102
}
330
34
100
DictionaryVariables
280
     0
  1
STANDARD
  0
DICTIONARYVAR
  5
AC85
102
{ACAD_REACTORS
330
34
102
}
330
34
100
DictionaryVariables
280
     0
  1
2
  0
DICTIONARYVAR
  5
35
102
{ACAD_REACTORS
330
34
102
}
330
34
100
DictionaryVariables
280
     0
  1
0
  0
DICTIONARYVAR
  5
DB5A
102
{ACAD_REACTORS
330
34
102
}
330
34
100
DictionaryVariables
280
     0
  1
0
  0
DICTIONARYVAR
  5
DB58
102
{ACAD_REACTORS
330
34
102
}
330
34
100
DictionaryVariables
280
     0
  1
0
  0
DICTIONARYVAR
  5
194C
102
{ACAD_REACTORS
330
34
102
}
330
34
100
DictionaryVariables
280
     0
  1
127
  0
DICTIONARY
  5
7E8
102
{ACAD_REACTORS
330
47
102
}
330
47
100
AcDbDictionary
281
     1
  0
DICTIONARY
  5
4C
102
{ACAD_REACTORS
330
47
102
}
330
47
100
AcDbDictionary
281
     1
  0
XRECORD
  5
C487
102
{ACAD_REACTORS
330
47
102
}
330
47
100
AcDbXrecord
280
     1
 90
-1023410169
  0
XRECORD
  5
FF99
102
{ACAD_REACTORS
330
FF98
102
}
330
FF98
100
AcDbXrecord
280
     1
330
0
330
0
330
0
330
0
330
0
330
0
330
0
330
0
330
0
330
0
330
0
330
0
330
0
330
0
330
0
330
0
330
0
330
0
330
0
330
0
330
0
330
0
330
0
330
0
330
0
330
0
330
0
330
0
330
0
330
0
330
0
330
0
330
0
330
0
330
0
330
0
330
0
330
0
330
0
330
0
330
0
330
0
330
0
330
0
330
0
330
0
330
0
330
0
330
0
330
0
330
0
330
0
330
0
330
0
330
0
330
0
330
0
330
0
330
0
330
0
330
0
330
0
330
0
330
0
330
0
330
0
330
0
330
0
330
0
330
0
330
0
330
0
330
0
330
0
330
0
330
0
330
0
330
0
330
0
330
0
330
0
330
0
330
0
330
0
330
0
330
0
330
0
330
0
330
0
330
0
330
0
330
0
330
0
330
0
330
0
330
0
330
0
330
0
330
0
330
0
330
0
330
0
330
0
330
0
330
0
330
0
330
0
330
0
330
0
330
0
330
0
330
0
330
0
330
0
330
0
330
0
330
0
330
0
330
0
330
0
330
0
330
0
330
0
330
0
330
0
330
0
330
0
330
0
330
0
330
0
330
0
330
0
330
0
330
0
330
0
330
0
330
0
330
0
330
0
330
0
330
0
330
0
330
0
330
0
330
0
330
0
330
0
330
0
330
0
330
0
330
0
330
0
330
0
330
0
330
0
330
0
330
0
330
0
330
0
330
0
330
0
330
0
330
0
330
0
330
0
330
0
330
0
330
0
330
0
330
0
330
0
330
0
330
0
330
0
330
0
330
0
330
0
330
0
330
0
330
0
330
0
330
0
330
0
330
0
330
0
330
0
330
0
330
0
330
0
330
0
330
0
330
0
330
0
330
0
330
0
330
0
330
0
  0
XRECORD
  5
2F7FF
102
{ACAD_REACTORS
330
2F7FD
102
}
330
2F7FD
100
AcDbXrecord
280
     1
  1
50
  1
*-50
  1
*
  1
*
 70
     0
  1
*
  1
*
1001
ACAD
1000
( NAME== "*-50" )
  0
XRECORD
  5
3FB7
102
{ACAD_REACTORS
330
3F96
102
}
330
3F96
100
AcDbXrecord
280
     1
 91
        3
330
A47
 90
        8
 62
     7
370
    40
331
16
  1
Color_7
330
A46
 90
        0
 62
    14
370
    -3
331
16
  1
Color_14
330
3A31
 90
        8
 62
     7
370
    20
331
16
  1
Color_7
330
6D1
 90
        0
 62
     7
370
    -3
331
16
  1
Color_7
330
0
 90
        8
 62
     7
370
    50
331
16
  1
Color_7
330
A48
 90
        8
 62
     2
370
    35
331
16
  1
Color_2
330
0
 90
        8
 62
     7
370
    -3
331
16
  1
Color_7
330
10
 90
        8
 62
     7
370
    -3
331
16
  1
Color_7
  0
XRECORD
  5
2F7FE
102
{ACAD_REACTORS
330
2F7FC
102
}
330
2F7FC
100
AcDbXrecord
280
     1
  1
AcLyLayerFilter
 90
        1
300
50
301
( NAME== "*-50" )
  0
DICTIONARY
  5
4A523
330
22
100
AcDbDictionary
280
     1
281
     1
  3
ACAD_XREC_ROUNDTRIP
360
4A524
  0
DICTIONARY
  5
4A521
330
1E
100
AcDbDictionary
280
     1
281
     1
  3
ACAD_XREC_ROUNDTRIP
360
4A522
  0
DICTIONARY
  5
4A525
330
26
100
AcDbDictionary
280
     1
281
     1
  3
ACAD_XREC_ROUNDTRIP
360
4A526
  0
DICTIONARY
  5
4A529
330
C448
100
AcDbDictionary
280
     1
281
     1
  3
ACAD_XREC_ROUNDTRIP
360
4A52A
  0
DICTIONARY
  5
4A527
330
C447
100
AcDbDictionary
280
     1
281
     1
  3
ACAD_XREC_ROUNDTRIP
360
4A528
  0
DICTIONARY
  5
4A52B
330
C449
100
AcDbDictionary
280
     1
281
     1
  3
ACAD_XREC_ROUNDTRIP
360
4A52C
  0
DICTIONARY
  5
4A52E
330
C85D
100
AcDbDictionary
280
     1
281
     1
  3
ACAD_XREC_ROUNDTRIP
360
4A52F
  0
DICTIONARY
  5
DB54
330
C45D
100
AcDbDictionary
280
     1
281
     1
  3
ACAD_ROUNDTRIP_2008_TABLESTYLE_CELLSTYLEMAP
360
49892
  3
ACAD_XREC_ROUNDTRIP
360
4A52D
  0
XRECORD
  5
4A524
102
{ACAD_REACTORS
330
4A523
102
}
330
4A523
100
AcDbXrecord
280
     1
102
SHADEPLOT
 70
     0
102
SHADEPLOTRESLEVEL
 70
     2
102
SHADEPLOTCUSTOMDPI
 70
   300
  0
XRECORD
  5
4A522
102
{ACAD_REACTORS
330
4A521
102
}
330
4A521
100
AcDbXrecord
280
     1
102
SHADEPLOT
 70
     0
102
SHADEPLOTRESLEVEL
 70
     2
102
SHADEPLOTCUSTOMDPI
 70
   300
  0
XRECORD
  5
4A526
102
{ACAD_REACTORS
330
4A525
102
}
330
4A525
100
AcDbXrecord
280
     1
102
SHADEPLOT
 70
     0
102
SHADEPLOTRESLEVEL
 70
     2
102
SHADEPLOTCUSTOMDPI
 70
   300
  0
XRECORD
  5
4A52A
102
{ACAD_REACTORS
330
4A529
102
}
330
4A529
100
AcDbXrecord
280
     1
102
MATERIAL
148
0.0
149
0.0
149
0.0
 93
        0
 94
       63
282
     0
 72
     1
 77
     1
171
     1
175
     1
179
     1
273
     0
  0
XRECORD
  5
4A528
102
{ACAD_REACTORS
330
4A527
102
}
330
4A527
100
AcDbXrecord
280
     1
102
MATERIAL
148
0.0
149
0.0
149
0.0
 93
        0
 94
       63
282
     0
 72
     1
 77
     1
171
     1
175
     1
179
     1
273
     0
  0
XRECORD
  5
4A52C
102
{ACAD_REACTORS
330
4A52B
102
}
330
4A52B
100
AcDbXrecord
280
     1
102
MATERIAL
148
0.0
149
0.0
149
0.0
 93
        0
 94
       63
282
     0
 72
     1
 77
     1
171
     1
175
     1
179
     1
273
     0
  0
XRECORD
  5
4A52F
102
{ACAD_REACTORS
330
4A52E
102
}
330
4A52E
100
AcDbXrecord
280
     1
102
SHADEPLOT
 70
     0
102
SHADEPLOTRESLEVEL
 70
     2
102
SHADEPLOTCUSTOMDPI
 70
   300
  0
ACAD_PROXY_OBJECT
  5
49892
102
{ACAD_REACTORS
330
DB54
102
}
330
DB54
100
AcDbProxyObject
 90
      499
 91
      630
 95
   196635
 70
     0
 93
     5441
310
40D054060020000020000003200101A0000800029416000000304000000000000001840404000000000000F83F0000000000003E0FC000000000000F83F0000000000003E0FC0AD7A3703D0AC73F02B5E8DC0F42B1CFD0640640600000030400FEFFFFFF80AD7A3703D0AA73F40A40600000030400FEFFFFFF80AD7A3703D0
310
AA73F41240600000030400FEFFFFFF80AD7A3703D0AA73F42240600000030400FEFFFFFF80AD7A3703D0AA73F44240600000030400FEFFFFFF80AD7A3703D0AA73F48240600000030400FEFFFFFF80AD7A3703D0AA73F4050141501A8000000C800406800020000A5058000000C10000000000000004901010000000000003
310
E0FC000000000000F83F0000000000003E0FC000000000000F83F02B5E8DC0F42B1CFC0AD7A3703D0AC73F419019018000000C1003FBFFFFFE02B5E8DC0F42A9CFD029018000000C1003FBFFFFFE02B5E8DC0F42A9CFD049018000000C1003FBFFFFFE02B5E8DC0F42A9CFD089018000000C1003FBFFFFFE02B5E8DC0F42A9
310
CFD109018000000C1003FBFFFFFE02B5E8DC0F42A9CFD209018000000C1003FBFFFFFE02B5E8DC0F42A9CFD0240505406A0000003200101A000080002940A000000304000000000000001240404000000000000F83F0000000000003E0FC000000000000F83F0000000000003E0FC0AD7A3703D0AC73F02B5E8DC0F42B1CFD
310
0640640600000030400FEFFFFFF80AD7A3703D0AA73F40A40600000030400FEFFFFFF80AD7A3703D0AA73F41240600000030400FEFFFFFF80AD7A3703D0AA73F42240600000030400FEFFFFFF80AD7A3703D0AA73F44240600000030400FEFFFFFF80AD7A3703D0AA73F48240600000030400FEFFFFFF80AD7A3703D0AA73F
310
40D029065F005400490054004C0045009075F004800450041004400450052009055F0044004100540041004401CC
340
11
340
0
340
0
340
0
340
0
340
0
340
0
340
11
340
0
340
0
340
0
340
0
340
0
340
0
340
11
340
0
340
0
340
0
340
0
340
0
340
0
 94
        0
1001
ACAD
1000
AcRTDxfName
1000
CELLSTYLEMAP
  0
XRECORD
  5
4A52D
102
{ACAD_REACTORS
330
DB54
102
}
330
DB54
100
AcDbXrecord
280
     1
102
ACAD_ROUNDTRIP_PRE2007_TABLESTYLE
 90
      512
 91
        0
  1

 92
      512
 93
        0
  2

 94
      512
 95
        0
  3

  0
ENDSEC
  0
EOF
